  0
SECTION
  2
HEADER
  9
$ACADVER
  1
AC1032
  9
$ACADMAINTVER
 90
      327
  9
$DWGCODEPAGE
  3
ANSI_1252
  9
$LASTSAVEDBY
  1
FredSmeding
  9
$REQUIREDVERSIONS
160
                 0
  9
$INSBASE
 10
0.0
 20
0.0
 30
0.0
  9
$EXTMIN
 10
-98.88074584291031
 20
33.47937341000795
 30
-0.0000000116415251
  9
$EXTMAX
 10
186.3668668149582
 20
249.250594945825
 30
-0.0000000116415251
  9
$LIMMIN
 10
0.0
 20
0.0
  9
$LIMMAX
 10
12.0
 20
9.0
  9
$ORTHOMODE
 70
     1
  9
$REGENMODE
 70
     1
  9
$FILLMODE
 70
     1
  9
$QTEXTMODE
 70
     0
  9
$MIRRTEXT
 70
     1
  9
$LTSCALE
 40
1.0
  9
$ATTMODE
 70
     1
  9
$TEXTSIZE
 40
7.0
  9
$TRACEWID
 40
0.05
  9
$TEXTSTYLE
  7
Standaard
  9
$CLAYER
  8
Maatvoering profielen
  9
$CELTYPE
  6
ByLayer
  9
$CECOLOR
 62
   256
  9
$CELTSCALE
 40
1.0
  9
$DISPSILH
 70
     0
  9
$DIMSCALE
 40
1.0
  9
$DIMASZ
 40
5.0
  9
$DIMEXO
 40
0.0625
  9
$DIMDLI
 40
0.38
  9
$DIMRND
 40
0.0
  9
$DIMDLE
 40
0.0
  9
$DIMEXE
 40
0.18
  9
$DIMTP
 40
0.0
  9
$DIMTM
 40
0.0
  9
$DIMTXT
 40
5.0
  9
$DIMCEN
 40
0.09
  9
$DIMTSZ
 40
0.0
  9
$DIMTOL
 70
     0
  9
$DIMLIM
 70
     0
  9
$DIMTIH
 70
     0
  9
$DIMTOH
 70
     0
  9
$DIMSE1
 70
     1
  9
$DIMSE2
 70
     1
  9
$DIMTAD
 70
     1
  9
$DIMZIN
 70
     0
  9
$DIMBLK
  1
maat-punt-r
  9
$DIMASO
 70
     1
  9
$DIMSHO
 70
     1
  9
$DIMPOST
  1

  9
$DIMAPOST
  1

  9
$DIMALT
 70
     0
  9
$DIMALTD
 70
     2
  9
$DIMALTF
 40
25.4
  9
$DIMLFAC
 40
1.0
  9
$DIMTOFL
 70
     0
  9
$DIMTVP
 40
0.0
  9
$DIMTIX
 70
     1
  9
$DIMSOXD
 70
     0
  9
$DIMSAH
 70
     0
  9
$DIMBLK1
  1

  9
$DIMBLK2
  1

  9
$DIMSTYLE
  2
Profielen
  9
$DIMCLRD
 70
     0
  9
$DIMCLRE
 70
     0
  9
$DIMCLRT
 70
   256
  9
$DIMTFAC
 40
1.0
  9
$DIMGAP
 40
2.5
  9
$DIMJUST
 70
     0
  9
$DIMSD1
 70
     0
  9
$DIMSD2
 70
     0
  9
$DIMTOLJ
 70
     1
  9
$DIMTZIN
 70
     0
  9
$DIMALTZ
 70
     0
  9
$DIMALTTZ
 70
     0
  9
$DIMUPT
 70
     0
  9
$DIMDEC
 70
     0
  9
$DIMTDEC
 70
     0
  9
$DIMALTU
 70
     2
  9
$DIMALTTD
 70
     2
  9
$DIMTXSTY
  7
Standaard
  9
$DIMAUNIT
 70
     0
  9
$DIMADEC
 70
     0
  9
$DIMALTRND
 40
0.0
  9
$DIMAZIN
 70
     0
  9
$DIMDSEP
 70
    46
  9
$DIMATFIT
 70
     3
  9
$DIMFRAC
 70
     0
  9
$DIMLDRBLK
  1

  9
$DIMLUNIT
 70
     2
  9
$DIMLWD
 70
    -2
  9
$DIMLWE
 70
    -2
  9
$DIMTMOVE
 70
     1
  9
$DIMFXL
 40
1.0
  9
$DIMFXLON
 70
     0
  9
$DIMJOGANG
 40
0.7853981633974483
  9
$DIMTFILL
 70
     0
  9
$DIMTFILLCLR
 70
     0
  9
$DIMARCSYM
 70
     0
  9
$DIMLTYPE
  6

  9
$DIMLTEX1
  6

  9
$DIMLTEX2
  6

  9
$DIMTXTDIRECTION
 70
     0
  9
$LUNITS
 70
     2
  9
$LUPREC
 70
     0
  9
$SKETCHINC
 40
0.1
  9
$FILLETRAD
 40
0.0
  9
$AUNITS
 70
     0
  9
$AUPREC
 70
     0
  9
$MENU
  1
.
  9
$ELEVATION
 40
0.0
  9
$PELEVATION
 40
0.0
  9
$THICKNESS
 40
0.0
  9
$LIMCHECK
 70
     0
  9
$CHAMFERA
 40
0.5
  9
$CHAMFERB
 40
0.5
  9
$CHAMFERC
 40
1.0
  9
$CHAMFERD
 40
0.0
  9
$SKPOLY
 70
     0
  9
$TDCREATE
 40
2455314.738680556
  9
$TDUCREATE
 40
2455314.655347222
  9
$TDUPDATE
 40
2460843.517395833
  9
$TDUUPDATE
 40
2460843.434062500
  9
$TDINDWG
 40
0.4864342130
  9
$TDUSRTIMER
 40
0.4864342130
  9
$USRTIMER
 70
     1
  9
$ANGBASE
 50
0.0
  9
$ANGDIR
 70
     0
  9
$PDMODE
 70
     0
  9
$PDSIZE
 40
0.0
  9
$PLINEWID
 40
0.0
  9
$SPLFRAME
 70
     0
  9
$SPLINETYPE
 70
     6
  9
$SPLINESEGS
 70
     8
  9
$HANDSEED
  5
1DD7
  9
$SURFTAB1
 70
     6
  9
$SURFTAB2
 70
     6
  9
$SURFTYPE
 70
     6
  9
$SURFU
 70
     6
  9
$SURFV
 70
     6
  9
$UCSBASE
  2

  9
$UCSNAME
  2

  9
$UCSORG
 10
0.0
 20
0.0
 30
0.0
  9
$UCSXDIR
 10
1.0
 20
0.0
 30
0.0
  9
$UCSYDIR
 10
0.0
 20
1.0
 30
0.0
  9
$UCSORTHOREF
  2

  9
$UCSORTHOVIEW
 70
     0
  9
$UCSORGTOP
 10
0.0
 20
0.0
 30
0.0
  9
$UCSORGBOTTOM
 10
0.0
 20
0.0
 30
0.0
  9
$UCSORGLEFT
 10
0.0
 20
0.0
 30
0.0
  9
$UCSORGRIGHT
 10
0.0
 20
0.0
 30
0.0
  9
$UCSORGFRONT
 10
0.0
 20
0.0
 30
0.0
  9
$UCSORGBACK
 10
0.0
 20
0.0
 30
0.0
  9
$PUCSBASE
  2

  9
$PUCSNAME
  2

  9
$PUCSORG
 10
0.0
 20
0.0
 30
0.0
  9
$PUCSXDIR
 10
1.0
 20
0.0
 30
0.0
  9
$PUCSYDIR
 10
0.0
 20
1.0
 30
0.0
  9
$PUCSORTHOREF
  2

  9
$PUCSORTHOVIEW
 70
     0
  9
$PUCSORGTOP
 10
0.0
 20
0.0
 30
0.0
  9
$PUCSORGBOTTOM
 10
0.0
 20
0.0
 30
0.0
  9
$PUCSORGLEFT
 10
0.0
 20
0.0
 30
0.0
  9
$PUCSORGRIGHT
 10
0.0
 20
0.0
 30
0.0
  9
$PUCSORGFRONT
 10
0.0
 20
0.0
 30
0.0
  9
$PUCSORGBACK
 10
0.0
 20
0.0
 30
0.0
  9
$USERI1
 70
     0
  9
$USERI2
 70
     0
  9
$USERI3
 70
     0
  9
$USERI4
 70
     0
  9
$USERI5
 70
     0
  9
$USERR1
 40
0.0
  9
$USERR2
 40
0.0
  9
$USERR3
 40
0.0
  9
$USERR4
 40
0.0
  9
$USERR5
 40
0.0
  9
$WORLDVIEW
 70
     1
  9
$SHADEDGE
 70
     3
  9
$SHADEDIF
 70
    70
  9
$TILEMODE
 70
     1
  9
$MAXACTVP
 70
    64
  9
$PINSBASE
 10
0.0
 20
0.0
 30
0.0
  9
$PLIMCHECK
 70
     0
  9
$PEXTMIN
 10
1.000000000000000E+20
 20
1.000000000000000E+20
 30
1.000000000000000E+20
  9
$PEXTMAX
 10
-1.000000000000000E+20
 20
-1.000000000000000E+20
 30
-1.000000000000000E+20
  9
$PLIMMIN
 10
0.0
 20
0.0
  9
$PLIMMAX
 10
12.0
 20
9.0
  9
$UNITMODE
 70
     0
  9
$VISRETAIN
 70
     1
  9
$PLINEGEN
 70
     0
  9
$PSLTSCALE
 70
     1
  9
$TREEDEPTH
 70
  3020
  9
$CMLSTYLE
  2
Standard
  9
$CMLJUST
 70
     0
  9
$CMLSCALE
 40
1.0
  9
$PROXYGRAPHICS
 70
     1
  9
$MEASUREMENT
 70
     0
  9
$CELWEIGHT
370
    -1
  9
$ENDCAPS
280
     0
  9
$JOINSTYLE
280
     0
  9
$LWDISPLAY
290
     1
  9
$INSUNITS
 70
     4
  9
$HYPERLINKBASE
  1

  9
$STYLESHEET
  1
Heering.ctb
  9
$XEDIT
290
     1
  9
$CEPSNTYPE
380
     0
  9
$PSTYLEMODE
290
     1
  9
$FINGERPRINTGUID
  2
{9BE520F0-BCD7-8398-FAB7-51B371EBCA82}
  9
$VERSIONGUID
  2
{2568FCAC-7D5A-6A47-A7C5-3532FDB6B993}
  9
$EXTNAMES
290
     1
  9
$PSVPSCALE
 40
0.0
  9
$OLESTARTUP
290
     0
  9
$SORTENTS
280
   127
  9
$INDEXCTL
280
     0
  9
$HIDETEXT
280
     1
  9
$XCLIPFRAME
280
     0
  9
$HALOGAP
280
     0
  9
$OBSCOLOR
 70
   257
  9
$OBSLTYPE
280
     0
  9
$INTERSECTIONDISPLAY
280
     0
  9
$INTERSECTIONCOLOR
 70
   257
  9
$DIMASSOC
280
     2
  9
$PROJECTNAME
  1

  9
$CAMERADISPLAY
290
     0
  9
$LENSLENGTH
 40
50.0
  9
$CAMERAHEIGHT
 40
0.0
  9
$STEPSPERSEC
 40
2.0
  9
$STEPSIZE
 40
6.0
  9
$3DDWFPREC
 40
2.0
  9
$PSOLWIDTH
 40
0.25
  9
$PSOLHEIGHT
 40
4.0
  9
$LOFTANG1
 40
1.570796326794896
  9
$LOFTANG2
 40
1.570796326794896
  9
$LOFTMAG1
 40
0.0
  9
$LOFTMAG2
 40
0.0
  9
$LOFTPARAM
 70
     7
  9
$LOFTNORMALS
280
     1
  9
$LATITUDE
 40
37.795
  9
$LONGITUDE
 40
-122.394
  9
$NORTHDIRECTION
 40
0.0
  9
$TIMEZONE
 70
 -8000
  9
$LIGHTGLYPHDISPLAY
280
     1
  9
$TILEMODELIGHTSYNCH
280
     1
  9
$CMATERIAL
347
C7
  9
$SOLIDHIST
280
     0
  9
$SHOWHIST
280
     1
  9
$DWFFRAME
280
     2
  9
$DGNFRAME
280
     0
  9
$REALWORLDSCALE
290
     1
  9
$INTERFERECOLOR
 62
     1
  9
$INTERFEREOBJVS
345
33
  9
$INTERFEREVPVS
346
1D6A
  9
$CSHADOW
280
     0
  9
$SHADOWPLANELOCATION
 40
0.0
  0
ENDSEC
  0
SECTION
  2
CLASSES
  0
CLASS
  1
ACDBDICTIONARYWDFLT
  2
AcDbDictionaryWithDefault
  3
ObjectDBX Classes
 90
        0
 91
        1
280
     0
281
     0
  0
CLASS
  1
VISUALSTYLE
  2
AcDbVisualStyle
  3
ObjectDBX Classes
 90
     4095
 91
       26
280
     0
281
     0
  0
CLASS
  1
MATERIAL
  2
AcDbMaterial
  3
ObjectDBX Classes
 90
     1153
 91
        3
280
     0
281
     0
  0
CLASS
  1
TABLESTYLE
  2
AcDbTableStyle
  3
ObjectDBX Classes
 90
     4095
 91
        1
280
     0
281
     0
  0
CLASS
  1
SCALE
  2
AcDbScale
  3
ObjectDBX Classes
 90
     1153
 91
     1808
280
     0
281
     0
  0
CLASS
  1
MLEADERSTYLE
  2
AcDbMLeaderStyle
  3
ACDB_MLEADERSTYLE_CLASS
 90
     4095
 91
        1
280
     0
281
     0
  0
CLASS
  1
CELLSTYLEMAP
  2
AcDbCellStyleMap
  3
ObjectDBX Classes
 90
     1152
 91
        2
280
     0
281
     0
  0
CLASS
  1
DICTIONARYVAR
  2
AcDbDictionaryVar
  3
ObjectDBX Classes
 90
        0
 91
       21
280
     0
281
     0
  0
CLASS
  1
DIMASSOC
  2
AcDbDimAssoc
  3
"AcDbDimAssoc|Product Desc:     AcDim ARX App For Dimension|Company:          Autodesk, Inc.|WEB Address:      www.autodesk.com"
 90
        0
 91
        3
280
     0
281
     0
  0
CLASS
  1
SORTENTSTABLE
  2
AcDbSortentsTable
  3
ObjectDBX Classes
 90
        0
 91
        2
280
     0
281
     0
  0
CLASS
  1
EXACXREFPANELOBJECT
  2
ExAcXREFPanelObject
  3
EXAC_ESW
 90
     1025
 91
        0
280
     0
281
     0
  0
CLASS
  1
NPOCOLLECTION
  2
AcDbImpNonPersistentObjectsCollection
  3
ObjectDBX Classes
 90
     1153
 91
        0
280
     0
281
     0
  0
CLASS
  1
ACDBSECTIONVIEWSTYLE
  2
AcDbSectionViewStyle
  3
ObjectDBX Classes
 90
     1025
 91
        1
280
     0
281
     0
  0
CLASS
  1
ACDBDETAILVIEWSTYLE
  2
AcDbDetailViewStyle
  3
ObjectDBX Classes
 90
     1025
 91
        1
280
     0
281
     0
  0
CLASS
  1
ACAD_EVALUATION_GRAPH
  2
AcDbEvalGraph
  3
ObjectDBX Classes
 90
     1153
 91
        1
280
     0
281
     0
  0
CLASS
  1
ACAECUSTOBJ
  2
AcAeEditorObj
  3
AcAeEditorObj
 90
     1024
 91
        1
280
     0
281
     0
  0
CLASS
  1
ACDB_DYNAMICBLOCKPURGEPREVENTER_VERSION
  2
AcDbDynamicBlockPurgePreventer
  3
ObjectDBX Classes
 90
     1153
 91
        1
280
     0
281
     0
  0
ENDSEC
  0
SECTION
  2
TABLES
  0
TABLE
  2
VPORT
  5
8
102
{ACAD_XDICTIONARY
360
114
102
}
330
0
100
AcDbSymbolTable
 70
     1
  0
VPORT
  5
29
330
8
100
AcDbSymbolTableRecord
100
AcDbViewportTableRecord
  2
*Active
 70
     0
 10
0.0
 20
0.0
 11
1.0
 21
1.0
 12
-60.90419548049289
 22
-7.134748894806818
 13
0.0
 23
0.0
 14
0.5
 24
0.5
 15
0.5
 25
0.5
 16
0.0
 26
0.0
 36
1.0
 17
104.6472559665168
 27
148.4997330727233
 37
0.0
 40
217.3734830818751
 41
2.363073110285005
 42
50.0
 43
0.0
 44
0.0
 50
0.0
 51
0.0
 71
     0
 72
   100
 73
     1
 74
     1
 75
     0
 76
     0
 77
     0
 78
     0
281
     0
 65
     1
110
0.0
120
0.0
130
0.0
111
1.0
121
0.0
131
0.0
112
0.0
122
1.0
132
0.0
 79
     0
146
0.0
348
2F
 60
     3
 61
     5
292
     1
282
     1
141
0.0
142
0.0
 63
   250
421
  3355443
1001
ACAD_NAV_VCDISPLAY
1070
     3
  0
ENDTAB
  0
TABLE
  2
LTYPE
  5
5
330
0
100
AcDbSymbolTable
 70
     2
  0
LTYPE
  5
14
330
5
100
AcDbSymbolTableRecord
100
AcDbLinetypeTableRecord
  2
ByBlock
 70
     0
  3

 72
    65
 73
     0
 40
0.0
  0
LTYPE
  5
15
330
5
100
AcDbSymbolTableRecord
100
AcDbLinetypeTableRecord
  2
ByLayer
 70
     0
  3

 72
    65
 73
     0
 40
0.0
  0
LTYPE
  5
16
330
5
100
AcDbSymbolTableRecord
100
AcDbLinetypeTableRecord
  2
Continuous
 70
     0
  3
Solid line
 72
    65
 73
     0
 40
0.0
  0
ENDTAB
  0
TABLE
  2
LAYER
  5
2
102
{ACAD_XDICTIONARY
360
1A1
102
}
330
0
100
AcDbSymbolTable
 70
    13
  0
LAYER
  5
10
102
{ACAD_XDICTIONARY
360
10D
102
}
330
2
100
AcDbSymbolTableRecord
100
AcDbLayerTableRecord
  2
0
 70
     0
 62
     7
  6
Continuous
370
    -3
390
F
347
D7
348
0
  0
LAYER
  5
3B
102
{ACAD_XDICTIONARY
360
10F
102
}
330
2
100
AcDbSymbolTableRecord
100
AcDbLayerTableRecord
  2
Doorsnede kunststof
 70
     0
 62
     7
  6
Continuous
370
    25
390
F
347
D7
348
0
  0
LAYER
  5
12E
330
2
100
AcDbSymbolTableRecord
100
AcDbLayerTableRecord
  2
Defpoints
 70
     0
 62
     7
  6
Continuous
290
     0
370
    -3
390
F
347
D7
348
0
  0
LAYER
  5
1DA
330
2
100
AcDbSymbolTableRecord
100
AcDbLayerTableRecord
  2
Doorsnede aluminium
 70
     0
 62
     7
  6
Continuous
370
    25
390
F
347
D7
348
0
1001
AcAecLayerStandard
1000

1000

  0
LAYER
  5
209
330
2
100
AcDbSymbolTableRecord
100
AcDbLayerTableRecord
  2
Maatvoering profielen
 70
     0
 62
     7
  6
Continuous
370
    25
390
F
347
D7
348
0
1001
AcAecLayerStandard
1000

1000

  0
LAYER
  5
2AB
330
2
100
AcDbSymbolTableRecord
100
AcDbLayerTableRecord
  2
Arcering profielen
 70
     0
 62
     7
  6
Continuous
370
     5
390
F
347
D7
348
0
1001
AcAecLayerStandard
1000

1000

  0
LAYER
  5
2FC
330
2
100
AcDbSymbolTableRecord
100
AcDbLayerTableRecord
  2
Attributes
 70
     0
 62
     7
  6
Continuous
370
    25
390
F
347
D7
348
0
1001
AcAecLayerStandard
1000

1000

  0
LAYER
  5
41C
330
2
100
AcDbSymbolTableRecord
100
AcDbLayerTableRecord
  2
Tekst
 70
     0
 62
     7
  6
Continuous
370
    25
390
F
347
D7
348
0
1001
AcAecLayerStandard
1000

1000

  0
LAYER
  5
751
330
2
100
AcDbSymbolTableRecord
100
AcDbLayerTableRecord
  2
Doorsnede Renolit
 70
     0
 62
     7
  6
Continuous
370
     5
390
F
347
D7
348
0
1001
AcAecLayerStandard
1000

1000

  0
LAYER
  5
759
330
2
100
AcDbSymbolTableRecord
100
AcDbLayerTableRecord
  2
Hulplijnen
 70
     0
 62
     7
  6
Continuous
370
     5
390
F
347
D7
348
0
1001
AcAecLayerStandard
1000

1000

  0
LAYER
  5
1369
330
2
100
AcDbSymbolTableRecord
100
AcDbLayerTableRecord
  2
Logo kleur 1
 70
     0
 62
     7
  6
Continuous
370
    -3
390
F
347
D7
348
0
  0
LAYER
  5
136A
330
2
100
AcDbSymbolTableRecord
100
AcDbLayerTableRecord
  2
Logo kleur 2
 70
     0
 62
   156
  6
Continuous
370
    -3
390
F
347
D7
348
0
1001
AcAecLayerStandard
1000

1000

  0
LAYER
  5
136B
330
2
100
AcDbSymbolTableRecord
100
AcDbLayerTableRecord
  2
Logo kleur 3
 70
     0
 62
     7
  6
Continuous
290
     0
370
    -3
390
F
347
D7
348
0
1001
AcAecLayerStandard
1000

1000

  0
ENDTAB
  0
TABLE
  2
STYLE
  5
3
330
0
100
AcDbSymbolTable
 70
     2
  0
STYLE
  5
11
330
3
100
AcDbSymbolTableRecord
100
AcDbTextStyleTableRecord
  2
Standard
 70
     0
 40
0.0
 41
1.0
 50
0.0
 71
     0
 42
0.2
  3
txt
  4

  0
STYLE
  5
23E
330
3
100
AcDbSymbolTableRecord
100
AcDbTextStyleTableRecord
  2
Standaard
 70
     0
 40
0.0
 41
1.0
 50
0.0
 71
     0
 42
7.0
  3
arial.ttf
  4

1001
ACAD
1000
Arial
1071
       34
  0
ENDTAB
  0
TABLE
  2
VIEW
  5
6
330
0
100
AcDbSymbolTable
 70
     1
  0
ENDTAB
  0
TABLE
  2
UCS
  5
7
330
0
100
AcDbSymbolTable
 70
     0
  0
ENDTAB
  0
TABLE
  2
APPID
  5
9
330
0
100
AcDbSymbolTable
 70
    16
  0
APPID
  5
12
330
9
100
AcDbSymbolTableRecord
100
AcDbRegAppTableRecord
  2
ACAD
 70
     0
  0
APPID
  5
105
330
9
100
AcDbSymbolTableRecord
100
AcDbRegAppTableRecord
  2
ACAD_MLEADERVER
 70
     0
  0
APPID
  5
128
330
9
100
AcDbSymbolTableRecord
100
AcDbRegAppTableRecord
  2
ACAD_PSEXT
 70
     0
  0
APPID
  5
1D3
330
9
100
AcDbSymbolTableRecord
100
AcDbRegAppTableRecord
  2
ACAD_EXEMPT_FROM_CAD_STANDARDS
 70
     0
  0
APPID
  5
1DB
330
9
100
AcDbSymbolTableRecord
100
AcDbRegAppTableRecord
  2
AcAecLayerStandard
 70
     0
  0
APPID
  5
20E
330
9
100
AcDbSymbolTableRecord
100
AcDbRegAppTableRecord
  2
ACAD_DSTYLE_DIMJAG
 70
     0
  0
APPID
  5
20F
330
9
100
AcDbSymbolTableRecord
100
AcDbRegAppTableRecord
  2
ACAD_DSTYLE_DIMBREAK
 70
     0
  0
APPID
  5
210
330
9
100
AcDbSymbolTableRecord
100
AcDbRegAppTableRecord
  2
ACAD_DSTYLE_DIMTALN
 70
     0
  0
APPID
  5
23F
330
9
100
AcDbSymbolTableRecord
100
AcDbRegAppTableRecord
  2
AcadAnnoPO
 70
     0
  0
APPID
  5
3FE
330
9
100
AcDbSymbolTableRecord
100
AcDbRegAppTableRecord
  2
AcDbAttr
 70
     0
  0
APPID
  5
4AB
330
9
100
AcDbSymbolTableRecord
100
AcDbRegAppTableRecord
  2
DCO15
 70
     0
  0
APPID
  5
8B9
330
9
100
AcDbSymbolTableRecord
100
AcDbRegAppTableRecord
  2
PE_URL
 70
     0
  0
APPID
  5
1D9C
330
9
100
AcDbSymbolTableRecord
100
AcDbRegAppTableRecord
  2
ACAUTHENVIRON
 70
     0
  0
APPID
  5
1DA1
330
9
100
AcDbSymbolTableRecord
100
AcDbRegAppTableRecord
  2
AcDbDynamicBlockTrueName
 70
     0
  0
APPID
  5
1DA2
330
9
100
AcDbSymbolTableRecord
100
AcDbRegAppTableRecord
  2
AcDbDynamicBlockGUID
 70
     0
  0
APPID
  5
1DA5
330
9
100
AcDbSymbolTableRecord
100
AcDbRegAppTableRecord
  2
ACAD_NAV_VCDISPLAY
 70
     0
  0
ENDTAB
  0
TABLE
  2
DIMSTYLE
  5
A
330
0
100
AcDbSymbolTable
 70
     2
100
AcDbDimStyleTable
 71
     2
340
211
340
27
  0
DIMSTYLE
105
27
330
A
100
AcDbSymbolTableRecord
100
AcDbDimStyleTableRecord
  2
Standard
 70
     0
340
11
  0
DIMSTYLE
105
211
102
{ACAD_REACTORS
330
1B86
330
1B9A
330
1DAC
102
}
330
A
100
AcDbSymbolTableRecord
100
AcDbDimStyleTableRecord
  2
Profielen
 70
     0
 41
5.0
 73
     0
 74
     0
 75
     1
 76
     1
 77
     1
140
5.0
147
2.5
174
     1
178
   256
271
     0
272
     0
279
     1
340
23E
342
1BDD
1001
ACAD_DSTYLE_DIMBREAK
1070
   391
1040
3.75
1001
ACAD_DSTYLE_DIMJAG
1070
   388
1040
1.5
1001
ACAD_DSTYLE_DIMTALN
1070
   392
1070
     0
  0
ENDTAB
  0
TABLE
  2
BLOCK_RECORD
  5
1
330
0
100
AcDbSymbolTable
 70
     9
  0
BLOCK_RECORD
  5
1F
102
{ACAD_XDICTIONARY
360
19D
102
}
330
1
100
AcDbSymbolTableRecord
100
AcDbBlockTableRecord
  2
*Model_Space
340
22
 70
     0
280
     1
281
     0
  0
BLOCK_RECORD
  5
1B
330
1
100
AcDbSymbolTableRecord
100
AcDbBlockTableRecord
  2
*Paper_Space
340
1E
 70
     0
280
     1
281
     0
  0
BLOCK_RECORD
  5
23
330
1
100
AcDbSymbolTableRecord
100
AcDbBlockTableRecord
  2
*Paper_Space0
340
26
 70
     0
280
     1
281
     0
  0
BLOCK_RECORD
  5
12E5
102
{ACAD_XDICTIONARY
360
12E6
102
}
330
1
100
AcDbSymbolTableRecord
100
AcDbBlockTableRecord
  2
LOGO
340
0
310
2800000020000000200000000100080000000000000400000000000000000000000000000000000000000000000080000080000000808000800000008000800080800000C0C0C000C0DCC000F0CAA6000020400000206000002080000020A0000020C0000020E00000400000004020000040400000406000004080000040A0
310
000040C0000040E00000600000006020000060400000606000006080000060A0000060C0000060E00000800000008020000080400000806000008080000080A0000080C0000080E00000A0000000A0200000A0400000A0600000A0800000A0A00000A0C00000A0E00000C0000000C0200000C0400000C0600000C0800000C0
310
A00000C0C00000C0E00000E0000000E0200000E0400000E0600000E0800000E0A00000E0C00000E0E00040000000400020004000400040006000400080004000A0004000C0004000E00040200000402020004020400040206000402080004020A0004020C0004020E000404000004040200040404000404060004040800040
310
40A0004040C0004040E00040600000406020004060400040606000406080004060A0004060C0004060E00040800000408020004080400040806000408080004080A0004080C0004080E00040A0000040A0200040A0400040A0600040A0800040A0A00040A0C00040A0E00040C0000040C0200040C0400040C0600040C08000
310
40C0A00040C0C00040C0E00040E0000040E0200040E0400040E0600040E0800040E0A00040E0C00040E0E00080000000800020008000400080006000800080008000A0008000C0008000E00080200000802020008020400080206000802080008020A0008020C0008020E00080400000804020008040400080406000804080
310
008040A0008040C0008040E00080600000806020008060400080606000806080008060A0008060C0008060E00080800000808020008080400080806000808080008080A0008080C0008080E00080A0000080A0200080A0400080A0600080A0800080A0A00080A0C00080A0E00080C0000080C0200080C0400080C0600080C0
310
800080C0A00080C0C00080C0E00080E0000080E0200080E0400080E0600080E0800080E0A00080E0C00080E0E000C0000000C0002000C0004000C0006000C0008000C000A000C000C000C000E000C0200000C0202000C0204000C0206000C0208000C020A000C020C000C020E000C0400000C0402000C0404000C0406000C0
310
408000C040A000C040C000C040E000C0600000C0602000C0604000C0606000C0608000C060A000C060C000C060E000C0800000C0802000C0804000C0806000C0808000C080A000C080C000C080E000C0A00000C0A02000C0A04000C0A06000C0A08000C0A0A000C0A0C000C0A0E000C0C00000C0C02000C0C04000C0C06000
310
C0C08000C0C0A000F0FBFF00A4A0A000808080000000FF0000FF000000FFFF00FF000000FF00FF00FFFF0000FFFFFF0000000000000000000000000000000000000000000000000000000000000000000000000000000000000000000000000000000000000000000000000000000000000000000000000000000000000000
310
00000000000000000000000000000000000000000000000000000000000000000000000000000000000000000000000000000000000000000000000000000000000000000000000000000000000000000000000000000000000000000000000000000000000000000000000000000000000000000000000000000000000000
310
00000000000000000000000000000000000000000000000000000000000000000000000000000000000000000000000000000000000000000000000000000000000000000000000000000000000000000000000000000000000000000000000000000000000000000000000000000000000000000000000000000000000000
310
0000000000000000000000000000000000000000FFFFFFFFFFFFFFFFFFFFFFFFFFFFFFFFFFFFFFFFFFFFFFFFFFFFFFFFFFFF0000FFFFFFFFFFFFFFFFFFFFFFFFFFFFFFFFFFFFFFFFFFFFFFFFFFFFFFFFFFFF00000000000000000000000000000000000000000000000000000000000000000000000000FFFFFFFFFFFFFFFF
310
FFFF00FFFFFFFFFFFFFFFFFFFFFFFF000000000000000000FFFFFFFFFFFFFFFFFFFFFFFFFFFFFFFFFFFFFFFFFFFF00000000000000000000FFFFFFFFFFFFFFFFFFFFFFFFFFFFFFFFFFFFFFFFFFFFFF900000000000000000FFFFFFFFFFFF9090FFFFFFFFFFFFFFFFFFFFFFFFFFFFFF909000000000000000FFFF00FFFF0090
310
909090909000000000FFFFFFFFFF90909090000000000000000000000000000000009090909090909090909090909090FF900000000000000000000000000000000000000000909090909090909090909000000000000000000000000000000000000000000000000000000000000000000000000000000000000000000000
310
00000000000000000000000000000000000000000000000000000000000000000000000000000000000000000000000000000000000000000000000000000000000000000000000000000000000000000000000000000000000000000000000000000000000000000000000000000000000000000000000000000000000000
310
00000000000000000000000000000000000000000000000000000000000000000000000000000000000000000000000000000000000000000000000000000000000000000000000000000000000000000000000000000000000000000000000000000000000000000000000000000000000000000000000000000000000000
310
0000000000000000000000000000000000000000000000000000000000000000000000000000000000000000000000000000000000000000
102
{BLKREFS
331
1D98
102
}
 70
     4
280
     1
281
     0
  0
BLOCK_RECORD
  5
135C
102
{ACAD_XDICTIONARY
360
1D9D
102
}
330
1
100
AcDbSymbolTableRecord
100
AcDbBlockTableRecord
  2
Kader Keralit Landscape
340
0
310
2800000020000000200000000100080000000000000400000000000000000000000000000000000000000000000080000080000000808000800000008000800080800000C0C0C000C0DCC000F0CAA6000020400000206000002080000020A0000020C0000020E00000400000004020000040400000406000004080000040A0
310
000040C0000040E00000600000006020000060400000606000006080000060A0000060C0000060E00000800000008020000080400000806000008080000080A0000080C0000080E00000A0000000A0200000A0400000A0600000A0800000A0A00000A0C00000A0E00000C0000000C0200000C0400000C0600000C0800000C0
310
A00000C0C00000C0E00000E0000000E0200000E0400000E0600000E0800000E0A00000E0C00000E0E00040000000400020004000400040006000400080004000A0004000C0004000E00040200000402020004020400040206000402080004020A0004020C0004020E000404000004040200040404000404060004040800040
310
40A0004040C0004040E00040600000406020004060400040606000406080004060A0004060C0004060E00040800000408020004080400040806000408080004080A0004080C0004080E00040A0000040A0200040A0400040A0600040A0800040A0A00040A0C00040A0E00040C0000040C0200040C0400040C0600040C08000
310
40C0A00040C0C00040C0E00040E0000040E0200040E0400040E0600040E0800040E0A00040E0C00040E0E00080000000800020008000400080006000800080008000A0008000C0008000E00080200000802020008020400080206000802080008020A0008020C0008020E00080400000804020008040400080406000804080
310
008040A0008040C0008040E00080600000806020008060400080606000806080008060A0008060C0008060E00080800000808020008080400080806000808080008080A0008080C0008080E00080A0000080A0200080A0400080A0600080A0800080A0A00080A0C00080A0E00080C0000080C0200080C0400080C0600080C0
310
800080C0A00080C0C00080C0E00080E0000080E0200080E0400080E0600080E0800080E0A00080E0C00080E0E000C0000000C0002000C0004000C0006000C0008000C000A000C000C000C000E000C0200000C0202000C0204000C0206000C0208000C020A000C020C000C020E000C0400000C0402000C0404000C0406000C0
310
408000C040A000C040C000C040E000C0600000C0602000C0604000C0606000C0608000C060A000C060C000C060E000C0800000C0802000C0804000C0806000C0808000C080A000C080C000C080E000C0A00000C0A02000C0A04000C0A06000C0A08000C0A0A000C0A0C000C0A0E000C0C00000C0C02000C0C04000C0C06000
310
C0C08000C0C0A000F0FBFF00A4A0A000808080000000FF0000FF000000FFFF00FF000000FF00FF00FFFF0000FFFFFF0000000000000000000000000000000000000000000000000000000000000000000000000000000000000000000000000000000000000000000000000000000000000000000000000000000000000000
310
000000000000000000000000000000000000000000000000000000000000000000000000000000000000000000000000000000000000000000000000000000000000000000000000000000000000000000000000000000000000000000000000000000000000000000000000000000000000FFFFFFFFFBFBFBFBFBFBFBFBFB
310
FBFBFBFBFBFBFBFBFFFFFFFFFFFFFFFFFF0000FFFFFFFBFBFBFBFFFFFFFFFFFFFFFFFFFFFFFFFFFFFFFFFFFFFFFFFFFFFF0000FFFBFBFBFBFBFBFFFFFFFFFFFFFFFFFFFFFFFFFFFFFFFFFFFFFF90FFFFFF0000FF0000000000000000000000000000000000000000000000FBFBFBFBFBFF0000FF0000000000000000000000
310
0000000000000000000000000000000000FF0000FF00000000000000000000000000000000000000000000000000000000FF0000FF00000000000000000000000000000000000000000000000000000000FF0000FF00000000000000000000000000000000000000000000000000000000FF0000FF00000000000000000000
310
000000000000000000000000000000000000FF0000FF00000000000000000000000000000000000000000000000000000000FF0000FF00000000000000000000000000000000000000000000000000000000FF0000FF00000000000000000000000000000000000000000000000000000000FF0000FF000000000000000000
310
00000000000000000000000000000000000000FF0000FF00000000000000000000000000000000000000000000000000000000FF0000FF00000000000000000000000000000000000000000000000000000000FF0000FF00000000000000000000000000000000000000000000000000000000FF0000FF0000000000000000
310
0000000000000000000000000000000000000000FF0000FF00000000000000000000000000000000000000000000000000000000FF0000FF00000000000000000000000000000000000000000000000000000000FF0000FFFFFFFFFFFFFFFFFFFFFFFFFFFFFFFFFFFFFFFFFFFFFFFFFFFFFFFFFFFF00000000000000000000
310
00000000000000000000000000000000000000000000000000000000000000000000000000000000000000000000000000000000000000000000000000000000000000000000000000000000000000000000000000000000000000000000000000000000000000000000000000000000000000000000000000000000000000
310
0000000000000000000000000000000000000000000000000000000000000000000000000000000000000000000000000000000000000000
102
{BLKREFS
331
1A51
102
}
 70
     4
280
     1
281
     0
1001
AcDbDynamicBlockGUID
1000
{96302407-B0AC-0A48-B166-3B21558681D2}
  0
BLOCK_RECORD
  5
1B28
330
1
100
AcDbSymbolTableRecord
100
AcDbBlockTableRecord
  2
2801
340
0
310
2800000020000000200000000100080000000000000400000000000000000000000000000000000000000000000080000080000000808000800000008000800080800000C0C0C000C0DCC000F0CAA6000020400000206000002080000020A0000020C0000020E00000400000004020000040400000406000004080000040A0
310
000040C0000040E00000600000006020000060400000606000006080000060A0000060C0000060E00000800000008020000080400000806000008080000080A0000080C0000080E00000A0000000A0200000A0400000A0600000A0800000A0A00000A0C00000A0E00000C0000000C0200000C0400000C0600000C0800000C0
310
A00000C0C00000C0E00000E0000000E0200000E0400000E0600000E0800000E0A00000E0C00000E0E00040000000400020004000400040006000400080004000A0004000C0004000E00040200000402020004020400040206000402080004020A0004020C0004020E000404000004040200040404000404060004040800040
310
40A0004040C0004040E00040600000406020004060400040606000406080004060A0004060C0004060E00040800000408020004080400040806000408080004080A0004080C0004080E00040A0000040A0200040A0400040A0600040A0800040A0A00040A0C00040A0E00040C0000040C0200040C0400040C0600040C08000
310
40C0A00040C0C00040C0E00040E0000040E0200040E0400040E0600040E0800040E0A00040E0C00040E0E00080000000800020008000400080006000800080008000A0008000C0008000E00080200000802020008020400080206000802080008020A0008020C0008020E00080400000804020008040400080406000804080
310
008040A0008040C0008040E00080600000806020008060400080606000806080008060A0008060C0008060E00080800000808020008080400080806000808080008080A0008080C0008080E00080A0000080A0200080A0400080A0600080A0800080A0A00080A0C00080A0E00080C0000080C0200080C0400080C0600080C0
310
800080C0A00080C0C00080C0E00080E0000080E0200080E0400080E0600080E0800080E0A00080E0C00080E0E000C0000000C0002000C0004000C0006000C0008000C000A000C000C000C000E000C0200000C0202000C0204000C0206000C0208000C020A000C020C000C020E000C0400000C0402000C0404000C0406000C0
310
408000C040A000C040C000C040E000C0600000C0602000C0604000C0606000C0608000C060A000C060C000C060E000C0800000C0802000C0804000C0806000C0808000C080A000C080C000C080E000C0A00000C0A02000C0A04000C0A06000C0A08000C0A0A000C0A0C000C0A0E000C0C00000C0C02000C0C04000C0C06000
310
C0C08000C0C0A000F0FBFF00A4A0A000808080000000FF0000FF000000FFFF00FF000000FF00FF00FFFF0000FFFFFF0000000000000000000000000000000000000000000000000000000000000000000000000000000000000000000000000000000000000000000000000000000000000000000000000000000000000000
310
00000000000000000000000000000000000000000000000000000000000000000000000000000000000000000000000000000000000000000000000000000000000000000000000000000000000000000000000000000000000000000000000000000000000000000000000000000000000000000000000000000000000000
310
00000000000000000000000000000000000000000000000000000000000000000000000000000000000000000000000000000000000000000000000000000000000000000000000000000000000000000000000000000000000000000000000000000000000000000000000000000000000000000000000000000000000000
310
000000000000000000000000000000000000000000000000000000000000000000000000000000000000000000000000000000000000FF0000000000000000000000000000000000000000000000000000000000FFFFFF0000000000000000000000000000000000000000000000000000000000FF00FFFFFFFFFFFFFFFFFF
310
FFFFFFFFFFFFFFFFFFFFFFFFFFFFFF000000000000FF00FFFFFFFF00FF00FFFFFFFF00FF00FF00FFFFFFFF00FF00FFFFFFFFFF0000FF00FFFFFFFFFFFFFFFF00FF00FF00FFFFFFFF00FF00FF00FFFFFFFFFF000000FF00FFFFFFFFFFFFFFFFFFFFFFFFFFFFFFFFFFFFFFFFFFFFFFFF000000000000FF00FF00000000000000
310
0000000000000000000000000000000000000000000000FFFF000000000000000000000000000000000000000000000000000000000000000000000000000000000000000000000000000000000000000000000000000000000000000000000000000000000000000000000000000000000000000000000000000000000000
310
00000000000000000000000000000000000000000000000000000000000000000000000000000000000000000000000000000000000000000000000000000000000000000000000000000000000000000000000000000000000000000000000000000000000000000000000000000000000000000000000000000000000000
310
00000000000000000000000000000000000000000000000000000000000000000000000000000000000000000000000000000000000000000000000000000000000000000000000000000000000000000000000000000000000000000000000000000000000000000000000000000000000000000000000000000000000000
310
0000000000000000000000000000000000000000000000000000000000000000000000000000000000000000000000000000000000000000
102
{BLKREFS
331
1B82
102
}
 70
     4
280
     1
281
     0
  0
BLOCK_RECORD
  5
1B87
330
1
100
AcDbSymbolTableRecord
100
AcDbBlockTableRecord
  2
*D4
340
0
 70
     0
280
     1
281
     0
  0
BLOCK_RECORD
  5
1B9B
330
1
100
AcDbSymbolTableRecord
100
AcDbBlockTableRecord
  2
*D5
340
0
 70
     0
280
     1
281
     0
  0
BLOCK_RECORD
  5
1BDD
330
1
100
AcDbSymbolTableRecord
100
AcDbBlockTableRecord
  2
maat-punt-r
340
0
310
2800000020000000200000000100080000000000000400000000000000000000000000000000000000000000000080000080000000808000800000008000800080800000C0C0C000C0DCC000F0CAA6000020400000206000002080000020A0000020C0000020E00000400000004020000040400000406000004080000040A0
310
000040C0000040E00000600000006020000060400000606000006080000060A0000060C0000060E00000800000008020000080400000806000008080000080A0000080C0000080E00000A0000000A0200000A0400000A0600000A0800000A0A00000A0C00000A0E00000C0000000C0200000C0400000C0600000C0800000C0
310
A00000C0C00000C0E00000E0000000E0200000E0400000E0600000E0800000E0A00000E0C00000E0E00040000000400020004000400040006000400080004000A0004000C0004000E00040200000402020004020400040206000402080004020A0004020C0004020E000404000004040200040404000404060004040800040
310
40A0004040C0004040E00040600000406020004060400040606000406080004060A0004060C0004060E00040800000408020004080400040806000408080004080A0004080C0004080E00040A0000040A0200040A0400040A0600040A0800040A0A00040A0C00040A0E00040C0000040C0200040C0400040C0600040C08000
310
40C0A00040C0C00040C0E00040E0000040E0200040E0400040E0600040E0800040E0A00040E0C00040E0E00080000000800020008000400080006000800080008000A0008000C0008000E00080200000802020008020400080206000802080008020A0008020C0008020E00080400000804020008040400080406000804080
310
008040A0008040C0008040E00080600000806020008060400080606000806080008060A0008060C0008060E00080800000808020008080400080806000808080008080A0008080C0008080E00080A0000080A0200080A0400080A0600080A0800080A0A00080A0C00080A0E00080C0000080C0200080C0400080C0600080C0
310
800080C0A00080C0C00080C0E00080E0000080E0200080E0400080E0600080E0800080E0A00080E0C00080E0E000C0000000C0002000C0004000C0006000C0008000C000A000C000C000C000E000C0200000C0202000C0204000C0206000C0208000C020A000C020C000C020E000C0400000C0402000C0404000C0406000C0
310
408000C040A000C040C000C040E000C0600000C0602000C0604000C0606000C0608000C060A000C060C000C060E000C0800000C0802000C0804000C0806000C0808000C080A000C080C000C080E000C0A00000C0A02000C0A04000C0A06000C0A08000C0A0A000C0A0C000C0A0E000C0C00000C0C02000C0C04000C0C06000
310
C0C08000C0C0A000F0FBFF00A4A0A000808080000000FF0000FF000000FFFF00FF000000FF00FF00FFFF0000FFFFFF000000000000000000000000000000000000000000000000000000000000000000000000000000000000000000000000000000000000000000000000000000FF00000000000000000000000000000000
310
000000000000000000000000000000FF00000000000000000000000000000000000000000000000000000000000000FF00000000000000000000000000000000000000000000000000000000000000FF00000000000000000000000000000000000000000000000000000000000000FF000000000000000000000000000000
310
00000000000000000000000000000000FF00000000000000000000000000000000000000000000000000000000000000FF00000000000000000000000000000000000000000000000000000000000000FF00000000000000000000000000000000000000000000000000000000000000FF0000000000000000000000000000
310
0000000000000000000000000000000000FF0000FFFFFFFF00000000000000000000000000000000000000000000000000FF0000FF000000FFFFFFFFFFFFFF000000000000000000000000000000000000FF0000FF00000000000000000000FFFFFFFFFFFFFFFF00000000000000000000FF0000FF00000000000000000000
310
0000000000000000FFFFFFFFFFFFFF000000FF0000FF00000000000000000000000000000000000000000000000000FFFFFFFF0000FF0000000000000000000000000000000000000000FFFFFFFFFFFF0000FF0000FF0000000000000000000000000000FFFFFFFFFFFF0000000000000000FF0000FF0000000000000000FF
310
FFFFFFFFFF0000000000000000000000000000FF0000FF0000FFFFFFFFFFFF0000000000000000000000000000000000000000FF0000FFFFFF0000000000000000000000000000000000000000000000000000FF00000000000000000000000000000000000000000000000000000000000000FF0000000000000000000000
310
0000000000000000000000000000000000000000FF00000000000000000000000000000000000000000000000000000000000000FF00000000000000000000000000000000000000000000000000000000000000FF00000000000000000000000000000000000000000000000000000000000000FF00000000000000000000
310
000000000000000000000000000000000000000000FF00000000000000000000000000000000000000000000000000000000000000FF00000000000000000000000000000000000000000000000000000000000000FF00000000000000000000000000000000000000000000000000000000000000FF000000000000000000
310
00000000000000000000000000000000000000000000FF000000000000000000000000000000000000000000000000000000000000000000
102
{BLKREFS
331
1DBB
331
1DBC
331
1C8C
331
1C8D
331
1C95
331
1C96
102
}
 70
     0
280
     1
281
     0
  0
BLOCK_RECORD
  5
1DAD
330
1
100
AcDbSymbolTableRecord
100
AcDbBlockTableRecord
  2
*D8
340
0
 70
     0
280
     1
281
     0
  0
ENDTAB
  0
ENDSEC
  0
SECTION
  2
BLOCKS
  0
BLOCK
  5
20
330
1F
100
AcDbEntity
  8
0
100
AcDbBlockBegin
  2
*Model_Space
 70
     0
 10
0.0
 20
0.0
 30
0.0
  3
*Model_Space
  1

  0
ENDBLK
  5
21
330
1F
100
AcDbEntity
  8
0
100
AcDbBlockEnd
  0
BLOCK
  5
1C
330
1B
100
AcDbEntity
 67
     1
  8
0
100
AcDbBlockBegin
  2
*Paper_Space
 70
     0
 10
0.0
 20
0.0
 30
0.0
  3
*Paper_Space
  1

  0
ENDBLK
  5
1D
330
1B
100
AcDbEntity
 67
     1
  8
0
100
AcDbBlockEnd
  0
BLOCK
  5
24
330
23
100
AcDbEntity
 67
     1
  8
0
100
AcDbBlockBegin
  2
*Paper_Space0
 70
     0
 10
0.0
 20
0.0
 30
0.0
  3
*Paper_Space0
  1

  0
ENDBLK
  5
25
330
23
100
AcDbEntity
 67
     1
  8
0
100
AcDbBlockEnd
  0
BLOCK
  5
12E8
330
12E5
100
AcDbEntity
  8
0
100
AcDbBlockBegin
  2
LOGO
 70
     0
 10
0.0
 20
0.0
 30
0.0
  3
LOGO
  1

  0
HATCH
  5
12E9
330
12E5
100
AcDbEntity
  8
Logo kleur 1
100
AcDbHatch
 10
0.0
 20
0.0
 30
0.0
210
0.0
220
0.0
230
1.0
  2
SOLID
 70
     1
 71
     0
 91
       46
 92
       16
 93
        6
 72
     1
 10
28.47529507843137
 20
7.027276872400761
 11
28.47529507843137
 21
6.36792727224747
 72
     1
 10
28.47529507843137
 20
6.367927272246561
 11
28.98487967654364
 21
6.367927272246561
 72
     2
 10
28.97811311508121
 20
6.679430688478532
 40
0.3115769001030075
 50
271.2443987189138
 51
354.5835168252505
 73
     1
 72
     1
 10
29.28829877751923
 20
6.650019474754117
 11
29.28829877751923
 21
6.718051890774404
 72
     2
 10
28.97581923993494
 20
6.715604617388635
 40
0.3124891207017721
 50
0.4487192047354358
 51
85.85628232177164
 73
     1
 72
     1
 10
28.99839923135733
 20
7.027276872400761
 11
28.47529507843137
 21
7.027276872400761
 97
        0
 92
        1
 93
       12
 72
     1
 10
26.81351555332731
 20
7.237986825710322
 11
26.55284782674789
 21
7.237986825710322
 72
     1
 10
26.55284782674426
 20
7.237986825710322
 11
26.55284782674426
 21
5.439339235801526
 72
     1
 10
26.55284782674426
 20
5.439339235801526
 11
26.81351555332367
 21
5.439339235801526
 72
     1
 10
26.81351555332731
 20
5.439339235801526
 11
26.81351555332731
 21
5.931904652911725
 72
     1
 10
26.81351555332731
 20
5.931904652911725
 11
27.14137725956607
 21
6.333433938970301
 72
     1
 10
27.14137725956607
 20
6.333433938970301
 11
27.66672275921883
 21
5.439339235801526
 72
     1
 10
27.66672275921883
 20
5.439339235801526
 11
27.89932220590709
 21
5.439339235801526
 72
     1
 10
27.89932220590344
 20
5.439339235801526
 11
27.27664136043677
 21
6.499090668073222
 72
     1
 10
27.27664136044041
 20
6.499090668073222
 11
27.87997407710282
 21
7.237986825710322
 72
     1
 10
27.87997407710282
 20
7.237986825710322
 11
27.59948636266927
 21
7.237986825710322
 72
     1
 10
27.59948636266927
 20
7.237986825710322
 11
26.81351555332731
 21
6.275415436824914
 72
     1
 10
26.81351555332731
 20
6.275415436824914
 11
26.81351555332731
 21
7.237986825710322
 97
        0
 92
       16
 93
        6
 72
     1
 10
33.63540647188347
 20
7.030255518979174
 11
33.63540647188347
 21
5.646191777716921
 72
     1
 10
33.63540647188347
 20
5.646191777716921
 11
33.99185371995191
 21
5.646191777716921
 72
     2
 10
34.01152414807075
 20
6.036819656683292
 40
0.391122826703553
 50
267.1172529984087
 51
350.6040506871224
 73
     1
 72
     1
 10
34.39739955591358
 20
5.972966425049889
 11
34.39739955591358
 21
6.648581412745443
 72
     2
 10
33.95763102159254
 20
6.588735142905534
 40
0.4438219685793129
 50
7.74953937298658
 51
95.83761313808143
 73
     1
 72
     1
 10
33.91249016088477
 20
7.030255518979174
 11
33.63540647187984
 21
7.030255518979174
 97
        0
 92
        1
 93
        6
 72
     1
 10
33.34549697242983
 20
7.237986825710322
 11
33.34549697242983
 21
5.439339235801526
 72
     1
 10
33.34549697242983
 20
5.439339235801526
 11
34.04732639524082
 21
5.439339235801526
 72
     2
 10
34.0669532103384
 20
6.033871759922476
 40
0.5948563978885363
 50
268.1092280329411
 51
357.317510372819
 73
     1
 72
     1
 10
34.66115777927189
 20
6.006031782066202
 11
34.66115777927189
 21
6.572518367825978
 72
     2
 10
34.00812536169906
 20
6.58567116028189
 40
0.6531648600073217
 50
358.8461558748235
 51
452.9219776846769
 73
     1
 72
     1
 10
33.97482961146307
 20
7.237986825710322
 11
33.34549697242983
 21
7.237986825710322
 97
        0
 92
       16
 93
        6
 72
     1
 10
35.24879707871515
 20
7.027276872400761
 11
35.24879707871515
 21
6.36792727224747
 72
     1
 10
35.24879707871515
 20
6.367927272246561
 11
35.80664617896764
 21
6.367927272246561
 72
     2
 10
35.79987961750158
 20
6.679430688478532
 40
0.3115769001030075
 50
271.2443987189138
 51
354.5835168252505
 73
     1
 72
     1
 10
36.11006527994323
 20
6.650019474754117
 11
36.11006527994323
 21
6.718051890774404
 72
     2
 10
35.79758574235893
 20
6.715604617388635
 40
0.3124891207017721
 50
0.4487192047354358
 51
85.85628232177164
 73
     1
 72
     1
 10
35.82016573377769
 20
7.027276872400761
 11
35.2487970787115
 21
7.027276872400761
 97
        0
 92
        1
 93
        8
 72
     1
 10
35.05507916698116
 20
7.237986825710322
 11
35.05507916698116
 21
5.439339235801526
 72
     1
 10
35.05507916698116
 20
5.439339235801526
 11
35.2487970787115
 21
5.439339235801526
 72
     1
 10
35.24879707871515
 20
5.439339235801526
 11
35.24879707871515
 21
6.156246558426573
 72
     1
 10
35.24879707871515
 20
6.156246558426573
 11
35.84103380314991
 21
6.156246558426573
 72
     2
 10
35.80272576777133
 20
6.642884490430333
 40
0.488143403560162
 50
274.5010296594567
 51
359.3946096589228
 73
     1
 72
     1
 10
36.29084192305163
 20
6.637726836490401
 11
36.29084192305163
 21
6.725505372572115
 72
     2
 10
35.74391252260102
 20
6.690059586431743
 40
0.5480767946466862
 50
3.708079551838965
 51
91.33852904963168
 73
     1
 72
     1
 10
35.73110966019158
 20
7.237986825710322
 11
35.05507916698116
 21
7.237986825710322
 97
        0
 92
       16
 93
        3
 72
     1
 10
37.0607125390452
 20
6.836562985481577
 11
36.77696793259747
 21
6.046440317587439
 72
     1
 10
36.77696793259747
 20
6.046440317587439
 11
37.34445714548929
 21
6.046440317587439
 72
     1
 10
37.34445714548565
 20
6.046440317587439
 11
37.06071253903792
 21
6.836562985481577
 97
        0
 92
        1
 93
        8
 72
     1
 10
37.00116864898518
 20
7.237986825710322
 11
36.35524799226914
 21
5.439339235801526
 72
     1
 10
36.3552479922655
 20
5.439339235801526
 11
36.55894905461173
 21
5.439339235801526
 72
     1
 10
36.55894905461537
 20
5.439339235801526
 11
36.69897661918367
 21
5.829263662138146
 72
     1
 10
36.69897661918003
 20
5.829263662138146
 11
37.42244845890673
 21
5.829263662138146
 72
     1
 10
37.42244845890309
 20
5.829263662138146
 11
37.56247602347139
 21
5.439339235801526
 72
     1
 10
37.56247602347139
 20
5.439339235801526
 11
37.79527652663091
 21
5.439339235801526
 72
     1
 10
37.79527652663091
 20
5.439339235801526
 11
37.14935586991487
 21
7.237986825710322
 72
     1
 10
37.14935586991487
 20
7.237986825710322
 11
37.00116864898518
 21
7.237986825710322
 97
        0
 92
       16
 93
        3
 72
     1
 10
30.43785658013076
 20
6.836562985481577
 11
30.15411197368303
 21
6.046440317587439
 72
     1
 10
30.15411197368303
 20
6.046440317587439
 11
30.72160118657484
 21
6.046440317587439
 72
     1
 10
30.72160118657848
 20
6.046440317587439
 11
30.43785658013076
 21
6.836562985481577
 97
        0
 92
        1
 93
        8
 72
     1
 10
30.37831269007438
 20
7.237986825710322
 11
29.73239203335834
 21
5.439339235801526
 72
     1
 10
29.73239203335834
 20
5.439339235801526
 11
29.93609309570457
 21
5.439339235801526
 72
     1
 10
29.93609309570457
 20
5.439339235801526
 11
30.07612066027287
 21
5.829263662138146
 72
     1
 10
30.07612066026559
 20
5.829263662138146
 11
30.79959249999229
 21
5.829263662138146
 72
     1
 10
30.79959249999593
 20
5.829263662138146
 11
30.93962006456422
 21
5.439339235801526
 72
     1
 10
30.93962006456059
 20
5.439339235801526
 11
31.17242056772011
 21
5.439339235801526
 72
     1
 10
31.17242056772375
 20
5.439339235801526
 11
30.5264999110077
 21
7.237986825710322
 72
     1
 10
30.52649991100407
 20
7.237986825710322
 11
30.37831269007438
 21
7.237986825710322
 97
        0
 92
       16
 93
        3
 72
     1
 10
25.53347508572552
 20
6.836562985481577
 11
25.24973047927779
 21
6.046440317587439
 72
     1
 10
25.24973047928142
 20
6.046440317587439
 11
25.81721969217324
 21
6.046440317587439
 72
     1
 10
25.81721969217324
 20
6.046440317587439
 11
25.53347508572552
 21
6.836562985481577
 97
        0
 92
        1
 93
        8
 72
     1
 10
25.4739311956655
 20
7.237986825710322
 11
24.82801053894946
 21
5.439339235801526
 72
     1
 10
24.82801053894946
 20
5.439339235801526
 11
25.03171160129568
 21
5.439339235801526
 72
     1
 10
25.03171160129568
 20
5.439339235801526
 11
25.17173916586398
 21
5.829263662138146
 72
     1
 10
25.17173916586398
 20
5.829263662138146
 11
25.89521100559068
 21
5.829263662138146
 72
     1
 10
25.89521100559068
 20
5.829263662138146
 11
26.03523857015898
 21
5.439339235801526
 72
     1
 10
26.03523857015898
 20
5.439339235801526
 11
26.26803907331851
 21
5.439339235801526
 72
     1
 10
26.26803907331487
 20
5.439339235801526
 11
25.62211841659883
 21
7.237986825710322
 72
     1
 10
25.62211841660246
 20
7.237986825710322
 11
25.47393119567278
 21
7.237986825710322
 97
        0
 92
       16
 93
        6
 72
     1
 10
23.57049056916367
 20
7.030255518979174
 11
23.57049056916367
 21
5.646191777716921
 72
     1
 10
23.57049056916367
 20
5.646191777716921
 11
23.9269378172321
 21
5.646191777716921
 72
     2
 10
23.94660824535822
 20
6.036819656683292
 40
0.391122826703553
 50
267.1172529984087
 51
350.6040506871224
 73
     1
 72
     1
 10
24.33248365320469
 20
5.972966425049889
 11
24.33248365320469
 21
6.648581412745443
 72
     2
 10
23.89271511888001
 20
6.588735142905534
 40
0.4438219685793129
 50
7.74953937298658
 51
95.83761313808143
 73
     1
 72
     1
 10
23.84757425816861
 20
7.030255518979174
 11
23.57049056916367
 21
7.030255518979174
 97
        0
 92
        1
 93
        6
 72
     1
 10
23.28058106971366
 20
7.237986825710322
 11
23.28058106971366
 21
5.439339235801526
 72
     1
 10
23.28058106971366
 20
5.439339235801526
 11
23.98241049252465
 21
5.439339235801526
 72
     2
 10
24.00203730762223
 20
6.033871759922476
 40
0.5948563978885363
 50
268.1092280329411
 51
357.317510372819
 73
     1
 72
     1
 10
24.59624187655573
 20
6.006031782066202
 11
24.59624187655573
 21
6.572518367825978
 72
     2
 10
23.94320945899017
 20
6.58567116028189
 40
0.6531648600073217
 50
358.8461558748235
 51
452.9219776846769
 73
     1
 72
     1
 10
23.90991370875054
 20
7.237986825710322
 11
23.2805810697173
 21
7.237986825710322
 97
        0
 92
        1
 93
        4
 72
     1
 10
21.85884804342641
 20
5.194493846232944
 11
22.0717768016184
 21
5.194493846232944
 72
     1
 10
22.07177680162567
 20
5.194493846232944
 11
22.07177680162567
 21
7.395596499548446
 72
     1
 10
22.07177680162567
 20
7.395596499548446
 11
21.85884804343368
 21
7.395596499548446
 72
     1
 10
21.85884804342641
 20
7.395596499548446
 11
21.85884804342641
 21
5.194493846232944
 97
        0
 92
       16
 93
        3
 72
     1
 10
11.77732358211869
 20
6.836562985481577
 11
11.49357897567097
 21
6.046440317587439
 72
     1
 10
11.49357897567461
 20
6.046440317587439
 11
12.06106818856642
 21
6.046440317587439
 72
     1
 10
12.06106818856278
 20
6.046440317587439
 11
11.77732358211506
 21
6.836562985481577
 97
        0
 92
        1
 93
        8
 72
     1
 10
11.71777969205868
 20
7.237986825710322
 11
11.07185903534264
 21
5.439339235801526
 72
     1
 10
11.07185903534264
 20
5.439339235801526
 11
11.27556009768887
 21
5.439339235801526
 72
     1
 10
11.27556009768887
 20
5.439339235801526
 11
11.41558766225716
 21
5.829263662138146
 72
     1
 10
11.41558766225716
 20
5.829263662138146
 11
12.13905950198386
 21
5.829263662138146
 72
     1
 10
12.13905950198023
 20
5.829263662138146
 11
12.27908706654853
 21
5.439339235801526
 72
     1
 10
12.27908706655216
 20
5.439339235801526
 11
12.51188756971169
 21
5.439339235801526
 72
     1
 10
12.51188756970805
 20
5.439339235801526
 11
11.865966912992
 21
7.237986825710322
 72
     1
 10
11.865966912992
 20
7.237986825710322
 11
11.71777969206232
 21
7.237986825710322
 97
        0
 92
        1
 93
       11
 72
     1
 10
44.72516494654337
 20
7.237986825710322
 11
44.53032231295947
 21
7.237986825710322
 72
     1
 10
44.53032231295947
 20
7.237986825710322
 11
44.53032231295947
 21
5.439339235801526
 72
     1
 10
44.53032231295947
 20
5.439339235801526
 11
44.8038705930885
 21
5.439339235801526
 72
     1
 10
44.8038705930885
 20
5.439339235801526
 11
44.8038705930885
 21
6.762614878508429
 72
     1
 10
44.8038705930885
 20
6.762614878508429
 11
45.66934903629953
 21
5.439339235801526
 72
     1
 10
45.66934903629953
 20
5.439339235801526
 11
45.91601646412164
 21
5.439339235801526
 72
     1
 10
45.91601646412164
 20
5.439339235801526
 11
45.91601646412164
 21
7.237986825710322
 72
     1
 10
45.91601646412164
 20
7.237986825710322
 11
45.64246818399261
 21
7.237986825710322
 72
     1
 10
45.64246818399261
 20
7.237986825710322
 11
45.64246818399261
 21
5.880863633761691
 72
     1
 10
45.64246818399261
 20
5.880863633762601
 11
44.74640128766987
 21
7.237986825711232
 72
     1
 10
44.74640128766987
 20
7.237986825710322
 11
44.72516494654337
 21
7.237986825710322
 97
        0
 92
        1
 93
       11
 72
     1
 10
38.29650366199349
 20
7.237986825710322
 11
38.10166102840958
 21
7.237986825710322
 72
     1
 10
38.10166102840231
 20
7.237986825710322
 11
38.10166102840231
 21
5.439339235801526
 72
     1
 10
38.10166102840231
 20
5.439339235801526
 11
38.37520930853134
 21
5.439339235801526
 72
     1
 10
38.37520930853862
 20
5.439339235801526
 11
38.37520930853862
 21
6.762614878508429
 72
     1
 10
38.37520930853862
 20
6.762614878508429
 11
39.24068775174965
 21
5.439339235801526
 72
     1
 10
39.24068775174965
 20
5.439339235801526
 11
39.48735517957175
 21
5.439339235801526
 72
     1
 10
39.48735517956811
 20
5.439339235801526
 11
39.48735517956811
 21
7.237986825710322
 72
     1
 10
39.48735517956811
 20
7.237986825710322
 11
39.21380689943908
 21
7.237986825710322
 72
     1
 10
39.21380689943908
 20
7.237986825710322
 11
39.21380689943908
 21
5.880863633761691
 72
     1
 10
39.21380689943908
 20
5.880863633762601
 11
38.31774000311634
 21
7.237986825711232
 72
     1
 10
38.31774000311634
 20
7.237986825710322
 11
38.29650366198985
 21
7.237986825710322
 97
        0
 92
        1
 93
       11
 72
     1
 10
31.66228900768329
 20
7.237986825710322
 11
31.46744637409938
 21
7.237986825710322
 72
     1
 10
31.46744637409938
 20
7.237986825710322
 11
31.46744637409938
 21
5.439339235801526
 72
     1
 10
31.46744637409938
 20
5.439339235801526
 11
31.74099465422842
 21
5.439339235801526
 72
     1
 10
31.74099465422842
 20
5.439339235801526
 11
31.74099465422842
 21
6.762614878508429
 72
     1
 10
31.74099465422842
 20
6.762614878508429
 11
32.60647309743945
 21
5.439339235801526
 72
     1
 10
32.60647309743945
 20
5.439339235801526
 11
32.85314052526155
 21
5.439339235801526
 72
     1
 10
32.85314052526155
 20
5.439339235801526
 11
32.85314052526155
 21
7.237986825710322
 72
     1
 10
32.85314052526155
 20
7.237986825710322
 11
32.57959224513252
 21
7.237986825710322
 72
     1
 10
32.57959224513252
 20
7.237986825710322
 11
32.57959224513252
 21
5.880863633761691
 72
     1
 10
32.57959224513252
 20
5.880863633762601
 11
31.68352534880978
 21
7.237986825711232
 72
     1
 10
31.68352534880978
 20
7.237986825710322
 11
31.66228900768329
 21
7.237986825710322
 97
        0
 92
        1
 93
       11
 72
     1
 10
19.39502239701323
 20
7.237986825710322
 11
19.20017976342933
 21
7.237986825710322
 72
     1
 10
19.20017976342569
 20
7.237986825710322
 11
19.20017976342569
 21
5.439339235801526
 72
     1
 10
19.20017976342569
 20
5.439339235801526
 11
19.47372804355473
 21
5.439339235801526
 72
     1
 10
19.47372804355836
 20
5.439339235801526
 11
19.47372804355836
 21
6.762614878508429
 72
     1
 10
19.47372804355836
 20
6.762614878508429
 11
20.3392064867694
 21
5.439339235801526
 72
     1
 10
20.3392064867694
 20
5.439339235801526
 11
20.5858739145915
 21
5.439339235801526
 72
     1
 10
20.5858739145915
 20
5.439339235801526
 11
20.5858739145915
 21
7.237986825710322
 72
     1
 10
20.5858739145915
 20
7.237986825710322
 11
20.31232563446247
 21
7.237986825710322
 72
     1
 10
20.31232563446247
 20
7.237986825710322
 11
20.31232563446247
 21
5.880863633761691
 72
     1
 10
20.31232563446247
 20
5.880863633762601
 11
19.41625873813973
 21
7.237986825711232
 72
     1
 10
19.41625873813973
 20
7.237986825710322
 11
19.39502239701323
 21
7.237986825710322
 97
        0
 92
        1
 93
       11
 72
     1
 10
13.00095775575391
 20
7.237986825710322
 11
12.80611512217001
 21
7.237986825710322
 72
     1
 10
12.80611512217001
 20
7.237986825710322
 11
12.80611512217001
 21
5.439339235801526
 72
     1
 10
12.80611512217001
 20
5.439339235801526
 11
13.07966340229905
 21
5.439339235801526
 72
     1
 10
13.07966340229905
 20
5.439339235801526
 11
13.07966340229905
 21
6.762614878508429
 72
     1
 10
13.07966340229905
 20
6.762614878508429
 11
13.94514184551008
 21
5.439339235801526
 72
     1
 10
13.94514184551008
 20
5.439339235801526
 11
14.19180927333218
 21
5.439339235801526
 72
     1
 10
14.19180927332854
 20
5.439339235801526
 11
14.19180927332854
 21
7.237986825710322
 72
     1
 10
14.19180927332854
 20
7.237986825710322
 11
13.91826099319951
 21
7.237986825710322
 72
     1
 10
13.91826099319951
 20
7.237986825710322
 11
13.91826099319951
 21
5.880863633761691
 72
     1
 10
13.91826099319951
 20
5.880863633762601
 11
13.02219409687677
 21
7.237986825711232
 72
     1
 10
13.02219409688041
 20
7.237986825710322
 11
13.00095775575391
 21
7.237986825710322
 97
        0
 92
        1
 93
        6
 72
     1
 10
41.80375566949805
 20
7.237986825710322
 11
41.55399674957152
 21
7.237986825710322
 72
     1
 10
41.55399674957152
 20
7.237986825710322
 11
41.55399674957152
 21
5.439339235801526
 72
     1
 10
41.55399674957152
 20
5.439339235801526
 11
42.69468368180969
 21
5.439339235801526
 72
     1
 10
42.69468368180605
 20
5.439339235801526
 11
42.69468368180605
 21
5.641546224122976
 72
     1
 10
42.69468368180605
 20
5.641546224123885
 11
41.80375566949442
 21
5.641546224123885
 72
     1
 10
41.80375566949805
 20
5.641546224123885
 11
41.80375566949805
 21
7.237986825711232
 97
        0
 92
        1
 93
        6
 72
     1
 10
16.46962981301112
 20
7.237986825710322
 11
16.21987089308459
 21
7.237986825710322
 72
     1
 10
16.21987089308459
 20
7.237986825710322
 11
16.21987089308459
 21
5.439339235801526
 72
     1
 10
16.21987089308459
 20
5.439339235801526
 11
17.36055782532275
 21
5.439339235801526
 72
     1
 10
17.36055782532275
 20
5.439339235801526
 11
17.36055782532275
 21
5.641546224122976
 72
     1
 10
17.36055782532275
 20
5.641546224123885
 11
16.46962981301112
 21
5.641546224123885
 72
     1
 10
16.46962981301112
 20
5.641546224123885
 11
16.46962981301112
 21
7.237986825711232
 97
        0
 92
       16
 93
        6
 72
     1
 10
9.989664291329972
 20
7.027276872400761
 11
9.989664291329972
 21
6.36792727224747
 72
     1
 10
9.989664291329972
 20
6.367927272246561
 11
10.54751339158247
 21
6.367927272246561
 72
     2
 10
10.5407468301164
 20
6.679430688478532
 40
0.3115769001030075
 50
271.2443987189138
 51
354.5835168252505
 73
     1
 72
     1
 10
10.85093249255806
 20
6.650019474754117
 11
10.85093249255806
 21
6.718051890774404
 72
     2
 10
10.53845295497012
 20
6.715604617388635
 40
0.3124891207017721
 50
0.4487192047354358
 51
85.85628232177164
 73
     1
 72
     1
 10
10.56103294639615
 20
7.027276872400761
 11
9.989664291329972
 21
7.027276872400761
 97
        0
 92
        1
 93
        8
 72
     1
 10
9.795946379599627
 20
7.237986825710322
 11
9.795946379599627
 21
5.439339235801526
 72
     1
 10
9.795946379599627
 20
5.439339235801526
 11
9.989664291329972
 21
5.439339235801526
 72
     1
 10
9.989664291329972
 20
5.439339235801526
 11
9.989664291329972
 21
6.156246558426573
 72
     1
 10
9.989664291329972
 20
6.156246558426573
 11
10.58190101576474
 21
6.156246558426573
 72
     2
 10
10.54359298038253
 20
6.642884490430333
 40
0.488143403560162
 50
274.5010296594567
 51
359.3946096589228
 73
     1
 72
     1
 10
11.03170913566646
 20
6.637726836490401
 11
11.03170913566646
 21
6.725505372572115
 72
     2
 10
10.48477973521949
 20
6.690059586431743
 40
0.5480767946466862
 50
3.708079551838965
 51
91.33852904963168
 73
     1
 72
     1
 10
10.47197687281004
 20
7.237986825710322
 11
9.795946379599627
 21
7.237986825710322
 97
        0
 92
        1
 93
        6
 72
     1
 10
8.553529848668404
 20
7.237986825710322
 11
8.303770928741869
 21
7.237986825710322
 72
     1
 10
8.303770928741869
 20
7.237986825710322
 11
8.303770928741869
 21
5.439339235801526
 72
     1
 10
8.303770928741869
 20
5.439339235801526
 11
9.444457860980037
 21
5.439339235801526
 72
     1
 10
9.444457860980037
 20
5.439339235801526
 11
9.444457860980037
 21
5.641546224122976
 72
     1
 10
9.444457860980037
 20
5.641546224123885
 11
8.553529848668404
 21
5.641546224123885
 72
     1
 10
8.553529848668404
 20
5.641546224123885
 11
8.553529848668404
 21
7.237986825711232
 97
        0
 92
        1
 93
        7
 72
     1
 10
5.381773412213078
 20
7.237986825710322
 11
5.102360653178038
 21
7.237986825710322
 72
     1
 10
5.102360653178038
 20
7.237986825710322
 11
5.6672855478173
 21
5.439339235801526
 72
     1
 10
5.6672855478173
 20
5.439339235801526
 11
5.935716841177054
 21
5.439339235801526
 72
     1
 10
5.935716841177054
 20
5.439339235801526
 11
6.50110854515151
 21
7.237986825710322
 72
     1
 10
6.50110854515151
 20
7.237986825710322
 11
6.228785515111667
 21
7.237986825710322
 72
     1
 10
6.228785515111667
 20
7.237986825710322
 11
5.810391971455828
 21
5.857337909605121
 72
     1
 10
5.81039197145219
 20
5.85733790960603
 11
5.381773412213078
 21
7.237986825711232
 97
        0
 92
        1
 93
       12
 72
     1
 10
15.86613293075788
 20
7.017507479155938
 11
15.86613293075788
 21
7.237986825710322
 72
     1
 10
15.86613293075788
 20
7.237986825710322
 11
14.71191350442677
 21
7.237986825710322
 72
     1
 10
14.71191350442677
 20
7.237986825710322
 11
14.71191350442677
 21
5.439339235801526
 72
     1
 10
14.71191350442677
 20
5.439339235801526
 11
15.86613293075788
 21
5.439339235801526
 72
     1
 10
15.86613293075788
 20
5.439339235801526
 11
15.86613293075788
 21
5.641546224122976
 72
     1
 10
15.86613293075788
 20
5.641546224123885
 11
14.90563141615712
 21
5.641546224123885
 72
     1
 10
14.9056314161644
 20
5.641546224123885
 11
14.9056314161644
 21
6.225035078341534
 72
     1
 10
14.9056314161644
 20
6.225035078341534
 11
15.71461597645248
 21
6.225035078341534
 72
     1
 10
15.7146159764452
 20
6.225035078341534
 11
15.7146159764452
 21
6.450497753715353
 72
     1
 10
15.7146159764452
 20
6.450497753715353
 11
14.90563141615712
 21
6.450497753715353
 72
     1
 10
14.9056314161644
 20
6.450497753715353
 11
14.9056314161644
 21
7.017507479155938
 72
     1
 10
14.9056314161644
 20
7.017507479155938
 11
15.86613293076516
 21
7.017507479155938
 97
        0
 92
        1
 93
       12
 72
     1
 10
18.87686502958604
 20
7.017507479155938
 11
18.87686502958604
 21
7.237986825710322
 72
     1
 10
18.87686502958604
 20
7.237986825710322
 11
17.72264560325493
 21
7.237986825710322
 72
     1
 10
17.72264560325129
 20
7.237986825710322
 11
17.72264560325129
 21
5.439339235801526
 72
     1
 10
17.72264560325129
 20
5.439339235801526
 11
18.8768650295824
 21
5.439339235801526
 72
     1
 10
18.87686502958604
 20
5.439339235801526
 11
18.87686502958604
 21
5.641546224122976
 72
     1
 10
18.87686502958604
 20
5.641546224123885
 11
17.91636351498528
 21
5.641546224123885
 72
     1
 10
17.91636351498528
 20
5.641546224123885
 11
17.91636351498528
 21
6.225035078341534
 72
     1
 10
17.91636351498528
 20
6.225035078341534
 11
18.72534807527336
 21
6.225035078341534
 72
     1
 10
18.72534807527336
 20
6.225035078341534
 11
18.72534807527336
 21
6.450497753715353
 72
     1
 10
18.72534807527336
 20
6.450497753715353
 11
17.91636351498528
 21
6.450497753715353
 72
     1
 10
17.91636351498528
 20
6.450497753715353
 11
17.91636351498528
 21
7.017507479155938
 72
     1
 10
17.91636351498528
 20
7.017507479155938
 11
18.87686502958604
 21
7.017507479155938
 97
        0
 92
        1
 93
       12
 72
     1
 10
41.12763161535258
 20
7.017507479155938
 11
41.12763161535258
 21
7.237986825710322
 72
     1
 10
41.12763161535258
 20
7.237986825710322
 11
39.97341218902148
 21
7.237986825710322
 72
     1
 10
39.97341218902511
 20
7.237986825710322
 11
39.97341218902511
 21
5.439339235801526
 72
     1
 10
39.97341218902511
 20
5.439339235801526
 11
41.12763161535622
 21
5.439339235801526
 72
     1
 10
41.12763161535258
 20
5.439339235801526
 11
41.12763161535258
 21
5.641546224122976
 72
     1
 10
41.12763161535258
 20
5.641546224123885
 11
40.16713010075181
 21
5.641546224123885
 72
     1
 10
40.16713010075181
 20
5.641546224123885
 11
40.16713010075181
 21
6.225035078341534
 72
     1
 10
40.16713010075181
 20
6.225035078341534
 11
40.9761146610399
 21
6.225035078341534
 72
     1
 10
40.9761146610399
 20
6.225035078341534
 11
40.9761146610399
 21
6.450497753715353
 72
     1
 10
40.9761146610399
 20
6.450497753715353
 11
40.16713010075181
 21
6.450497753715353
 72
     1
 10
40.16713010075181
 20
6.450497753715353
 11
40.16713010075181
 21
7.017507479155938
 72
     1
 10
40.16713010075181
 20
7.017507479155938
 11
41.12763161535258
 21
7.017507479155938
 97
        0
 92
        1
 93
       12
 72
     1
 10
44.14123225257208
 20
7.017507479155938
 11
44.14123225257208
 21
7.237986825710322
 72
     1
 10
44.14123225257208
 20
7.237986825710322
 11
42.98701282624096
 21
7.237986825710322
 72
     1
 10
42.98701282624096
 20
7.237986825710322
 11
42.98701282624096
 21
5.439339235801526
 72
     1
 10
42.98701282624096
 20
5.439339235801526
 11
44.14123225257208
 21
5.439339235801526
 72
     1
 10
44.14123225257208
 20
5.439339235801526
 11
44.14123225257208
 21
5.641546224122976
 72
     1
 10
44.14123225257208
 20
5.641546224123885
 11
43.18073073797132
 21
5.641546224123885
 72
     1
 10
43.18073073797132
 20
5.641546224123885
 11
43.18073073797132
 21
6.225035078341534
 72
     1
 10
43.18073073797132
 20
6.225035078341534
 11
43.98971529825939
 21
6.225035078341534
 72
     1
 10
43.98971529825939
 20
6.225035078341534
 11
43.98971529825939
 21
6.450497753715353
 72
     1
 10
43.98971529825939
 20
6.450497753715353
 11
43.18073073797132
 21
6.450497753715353
 72
     1
 10
43.18073073797132
 20
6.450497753715353
 11
43.18073073797132
 21
7.017507479155938
 72
     1
 10
43.18073073797132
 20
7.017507479155938
 11
44.14123225257208
 21
7.017507479155938
 97
        0
 92
        1
 93
       12
 72
     1
 10
4.992883412975061
 20
7.017507479155938
 11
4.992883412975061
 21
7.237986825710322
 72
     1
 10
4.992883412975061
 20
7.237986825710322
 11
3.83866398664395
 21
7.237986825710322
 72
     1
 10
3.83866398664395
 20
7.237986825710322
 11
3.83866398664395
 21
5.439339235801526
 72
     1
 10
3.83866398664395
 20
5.439339235801526
 11
4.992883412975061
 21
5.439339235801526
 72
     1
 10
4.992883412975061
 20
5.439339235801526
 11
4.992883412975061
 21
5.641546224122976
 72
     1
 10
4.992883412975061
 20
5.641546224123885
 11
4.032381898374296
 21
5.641546224123885
 72
     1
 10
4.032381898374296
 20
5.641546224123885
 11
4.032381898374296
 21
6.225035078341534
 72
     1
 10
4.032381898374296
 20
6.225035078341534
 11
4.841366458662378
 21
6.225035078341534
 72
     1
 10
4.841366458662378
 20
6.225035078341534
 11
4.841366458662378
 21
6.450497753715353
 72
     1
 10
4.841366458662378
 20
6.450497753715353
 11
4.032381898374296
 21
6.450497753715353
 72
     1
 10
4.032381898374296
 20
6.450497753715353
 11
4.032381898374296
 21
7.017507479155938
 72
     1
 10
4.032381898374296
 20
7.017507479155938
 11
4.992883412975061
 21
7.017507479155938
 97
        0
 92
        1
 93
       12
 72
     1
 10
7.932747086382732
 20
7.017507479155938
 11
7.932747086382732
 21
7.237986825710322
 72
     1
 10
7.932747086382732
 20
7.237986825710322
 11
6.778527660051622
 21
7.237986825710322
 72
     1
 10
6.778527660047984
 20
7.237986825710322
 11
6.778527660047984
 21
5.439339235801526
 72
     1
 10
6.778527660047984
 20
5.439339235801526
 11
7.932747086379094
 21
5.439339235801526
 72
     1
 10
7.932747086382732
 20
5.439339235801526
 11
7.932747086382732
 21
5.641546224122976
 72
     1
 10
7.932747086382732
 20
5.641546224123885
 11
6.972245571781968
 21
5.641546224123885
 72
     1
 10
6.972245571785606
 20
5.641546224123885
 11
6.972245571785606
 21
6.225035078341534
 72
     1
 10
6.972245571785606
 20
6.225035078341534
 11
7.781230132073687
 21
6.225035078341534
 72
     1
 10
7.781230132070049
 20
6.225035078341534
 11
7.781230132070049
 21
6.450497753715353
 72
     1
 10
7.781230132070049
 20
6.450497753715353
 11
6.972245571781968
 21
6.450497753715353
 72
     1
 10
6.972245571785606
 20
6.450497753715353
 11
6.972245571785606
 21
7.017507479155938
 72
     1
 10
6.972245571785606
 20
7.017507479155938
 11
7.93274708638637
 21
7.017507479155938
 97
        0
 92
        1
 93
       22
 72
     1
 10
3.111629845679999
 20
6.620356127575178
 11
3.335777953197975
 21
6.620356127575178
 72
     1
 10
3.335777953201613
 20
6.620356127575178
 11
3.335777953201613
 21
6.777333731509315
 72
     2
 10
2.767082679776649
 20
6.657045107010162
 40
0.5812776162902768
 50
11.94299116520952
 51
91.94791584169074
 73
     1
 72
     1
 10
2.747324474577908
 20
7.237986825710322
 11
2.725648197996633
 21
7.237986825710322
 72
     2
 10
2.680594686316908
 20
6.63486644153545
 40
0.6048008074745045
 50
85.7279000591116
 51
175.0078658622479
 73
     1
 72
     1
 10
2.078088097627187
 20
6.687495590387698
 11
2.078088097627187
 21
5.953653737426975
 72
     2
 10
2.629579702599585
 20
5.989431373659499
 40
0.5526509111616079
 50
183.7118225917589
 51
264.4843614509318
 73
     1
 72
     1
 10
2.576460313717689
 20
5.439339235801526
 11
2.863758069681352
 21
5.439339235801526
 72
     2
 10
2.851528556802804
 20
5.971284338428631
 40
0.5320856633988085
 50
271.3170081982474
 51
362.2516684001958
 73
     1
 72
     1
 10
3.383203392932045
 20
5.992189405431417
 11
3.383203392932045
 21
6.367927272246561
 72
     1
 10
3.383203392932045
 20
6.367927272246561
 11
2.715572481782146
 21
6.367927272246561
 72
     1
 10
2.715572481778508
 20
6.367927272246561
 11
2.715572481778508
 21
6.150392703209945
 72
     1
 10
2.715572481778508
 20
6.150392703209945
 11
3.138834179939294
 21
6.150392703209945
 72
     1
 10
3.138834179942932
 20
6.150392703209945
 11
3.138834179942932
 21
5.986033017118643
 72
     2
 10
2.781323249211709
 20
5.999275208035214
 40
0.3577560917835891
 50
2.121263695461106
 51
89.29466640790289
 73
     0
 72
     1
 10
2.7857272562469
 20
5.641546224123885
 11
2.671939245821704
 21
5.641546224123885
 72
     2
 10
2.705044696045661
 20
6.044462958900112
 40
0.4042744933796798
 50
94.69712766773982
 51
175.7177910152454
 73
     0
 72
     1
 10
2.301898788591643
 20
6.014276152199272
 11
2.301898788591643
 21
6.596335640518191
 72
     2
 10
2.732145703510468
 20
6.590763574348784
 40
0.430282994923798
 50
180.7419879524848
 51
262.6463243045752
 73
     0
 72
     1
 10
2.677072157857764
 20
7.017507479155938
 11
2.75069864013858
 21
7.021678865899048
 72
     2
 10
2.77209520339602
 20
6.671781588182057
 40
0.3505508777235907
 50
266.500664147904
 51
347.191458609492
 73
     0
 72
     1
 10
3.113923083870759
 20
6.749496567467758
 11
3.111629845683637
 21
6.620356127575178
 97
        0
 92
        1
 93
        6
 72
     1
 10
8.087529860273207
 20
13.30983276086226
 11
10.98506707689012
 21
17.06112306953855
 72
     1
 10
10.98506707689012
 20
17.06112306953855
 11
13.07960636666394
 21
17.06112306953855
 72
     1
 10
13.07960636666394
 20
17.06112306953855
 11
9.970730439705221
 21
13.32596327754254
 72
     1
 10
9.970730439705221
 20
13.32596327754254
 11
12.9347011327809
 21
9.558542452185974
 72
     1
 10
12.9347011327809
 20
9.558542452185974
 11
10.8138154368462
 21
9.558542452185974
 72
     1
 10
10.8138154368462
 20
9.558542452185974
 11
8.087529860273207
 21
13.30983276086226
 97
        0
 92
        1
 93
        4
 72
     1
 10
6.445459696609759
 20
17.06112306953855
 11
6.445459696609759
 21
9.558542452185974
 72
     1
 10
6.445459696609759
 20
9.558542452185974
 11
8.087529860273207
 21
9.558542452185974
 72
     1
 10
8.087529860273207
 20
9.558542452185974
 11
8.087529860273207
 21
17.06112306953855
 72
     1
 10
8.087529860273207
 20
17.06112306953855
 11
6.445459696609759
 21
17.06112306953855
 97
        0
 92
        1
 93
        4
 72
     1
 10
33.65019168004437
 20
17.06112306953855
 11
33.65019168004437
 21
15.49942492225909
 72
     1
 10
33.65019168004437
 20
15.49942492225909
 11
35.16889011784952
 21
15.49942492225909
 72
     1
 10
35.16889011784952
 20
15.49942492225909
 11
35.16889011784952
 21
17.06112306953855
 72
     1
 10
35.16889011784952
 20
17.06112306953855
 11
33.65019168004437
 21
17.06112306953855
 97
        0
 92
        1
 93
        4
 72
     1
 10
33.65685680137904
 20
14.99726064890547
 11
33.65685680137904
 21
9.558542452185974
 72
     1
 10
33.65685680137904
 20
9.558542452185974
 11
35.16889011784952
 21
9.558542452185974
 72
     1
 10
35.16889011784952
 20
9.558542452185974
 11
35.16889011784952
 21
14.99726064890547
 72
     1
 10
35.16889011784952
 20
14.99726064890547
 11
33.65685680137904
 21
14.99726064890547
 97
        0
 92
        1
 93
        4
 72
     1
 10
30.68931522230923
 20
17.06112306953855
 11
30.68931522230923
 21
9.558542452185974
 72
     1
 10
30.68931522230923
 20
9.558542452185974
 11
32.18010518561277
 21
9.558542452185974
 72
     1
 10
32.18010518561277
 20
9.558542452185974
 11
32.18010518561277
 21
17.06112306953855
 72
     1
 10
32.18010518561277
 20
17.06112306953855
 11
30.68931522230923
 21
17.06112306953855
 97
        0
 92
        1
 93
       11
 72
     1
 10
28.8863175872757
 20
6.156246558426573
 11
29.25636364119055
 21
5.439339235801526
 72
     1
 10
29.25636364119418
 20
5.439339235801526
 11
29.5052038723843
 21
5.439339235801526
 72
     1
 10
29.5052038723843
 20
5.439339235801526
 11
29.1247547043713
 21
6.176400992162598
 72
     2
 10
28.98095926535098
 20
6.642884490430333
 40
0.4881434035601652
 50
287.1321274621183
 51
359.3946096589225
 73
     1
 72
     1
 10
29.46907542063127
 20
6.637726836490401
 11
29.46907542063127
 21
6.725505372572115
 72
     2
 10
28.92214602018066
 20
6.690059586431743
 40
0.5480767946466862
 50
3.708079551838965
 51
91.33852904963168
 73
     1
 72
     1
 10
28.90934315777122
 20
7.237986825710322
 11
28.2333126645608
 21
7.237986825710322
 72
     1
 10
28.2333126645608
 20
7.237986825710322
 11
28.2333126645608
 21
5.439339235801526
 72
     1
 10
28.2333126645608
 20
5.439339235801526
 11
28.47529507843137
 21
5.439339235801526
 72
     1
 10
28.47529507843137
 20
5.439339235801526
 11
28.47529507843137
 21
6.156246558426573
 72
     1
 10
28.47529507843137
 20
6.156246558426573
 11
28.8863175872757
 21
6.156246558426573
 97
        0
 92
        1
 93
       17
 72
     2
 10
38.49064087592342
 20
11.45014075790277
 40
1.893667486563138
 50
247.4384402103474
 51
272.6787028961309
 73
     1
 72
     1
 10
38.5791417204091
 20
9.558542452185974
 11
39.8857323970442
 21
9.558542452185974
 72
     1
 10
39.8857323970442
 20
9.558542452185974
 11
39.8857323970442
 21
10.76218220127339
 72
     1
 10
39.8857323970442
 20
10.76218220127339
 11
39.15110040405125
 21
10.76218220127339
 72
     2
 10
39.13282293668089
 20
11.36646559337987
 40
0.6045597437712422
 50
88.26753046881911
 51
181.0195569124014
 73
     0
 72
     1
 10
38.52835890690403
 20
11.37722293959268
 11
38.52835890690403
 21
13.80637886393833
 72
     1
 10
38.52835890690403
 20
13.80637886393742
 11
39.89137622029011
 21
13.80637886393742
 72
     1
 10
39.89137622029375
 20
13.80637886393742
 11
39.89137622029375
 21
14.99722556932011
 72
     1
 10
39.89137622029375
 20
14.9972255693192
 11
38.52835890690767
 21
14.9972255693192
 72
     1
 10
38.52835890690403
 20
14.9972255693192
 11
38.52835890690403
 21
17.06112306953855
 72
     1
 10
38.52835890690403
 20
17.06112306953855
 11
36.97882343484162
 21
17.06112306953855
 72
     1
 10
36.97882343484162
 20
17.06112306953855
 11
36.97882343484162
 21
14.9972255693192
 72
     1
 10
36.97882343484162
 20
14.9972255693192
 11
36.03188509080065
 21
14.9972255693192
 72
     1
 10
36.03188509080428
 20
14.9972255693192
 11
36.03188509080428
 21
13.80637886393651
 72
     1
 10
36.03188509080428
 20
13.80637886393742
 11
36.97882343484526
 21
13.80637886393742
 72
     1
 10
36.97882343484162
 20
13.80637886393742
 11
36.97882343484162
 21
11.13887704076114
 72
     2
 10
38.62241499911034
 20
11.10351100721618
 40
1.643972015108491
 50
178.7673264703078
 51
238.526337181488
 73
     1
 97
        0
 92
        1
 93
       12
 72
     1
 10
29.33583989253384
 20
9.558542452185974
 11
25.18724577243484
 21
9.558542452185974
 72
     2
 10
25.19626815758238
 20
11.02257859561814
 40
1.464063944200912
 50
90.35309104109222
 51
174.4466137018545
 73
     0
 72
     1
 10
23.73907585547204
 20
10.88089646061144
 11
23.73907585547204
 21
11.46418712160994
 72
     2
 10
25.31527693460521
 20
11.32096321523568
 40
1.582694831359634
 50
185.1920097396136
 51
256.3140894250338
 73
     0
 72
     1
 10
24.94081255884157
 20
12.85872111571916
 11
27.79529252103384
 21
12.85872111571916
 72
     1
 10
27.79529252103021
 20
12.85872111571916
 11
27.79529252103021
 21
13.15313074771256
 72
     2
 10
27.05125468985716
 20
13.06759999217774
 40
0.7489377840370234
 50
6.557643115954147
 51
89.38476237792361
 73
     1
 72
     1
 10
27.05929657096203
 20
13.81649459925302
 11
24.12195353562129
 21
13.81649459925302
 72
     1
 10
24.12195353562129
 20
13.81649459925302
 11
24.12195353562129
 21
15.01003087512799
 72
     1
 10
24.12195353562129
 20
15.01003087512708
 11
27.41886857245481
 21
15.01003087512708
 72
     2
 10
27.40232871641274
 20
13.07196833422131
 40
1.938133117022698
 50
270.4889630334693
 51
356.0422863623426
 73
     0
 72
     1
 10
29.33583989253384
 20
13.20573870133285
 11
29.33583989253384
 21
9.558542452186884
 97
        0
 92
        1
 93
       16
 72
     1
 10
12.97697698143383
 20
12.83377187752921
 11
12.97697698143383
 21
11.80691056418436
 72
     2
 10
15.47538872661244
 20
12.0534226766531
 40
2.510543660250422
 50
185.6349941145316
 51
263.5964129994692
 73
     1
 72
     1
 10
15.19538491309504
 20
9.558542452185974
 11
17.76253819645717
 21
9.558542452185974
 72
     1
 10
17.76253819645717
 20
9.558542452185974
 11
17.76253819645717
 21
10.75637699084291
 72
     1
 10
17.76253819645717
 20
10.756376990842
 11
15.4278818142302
 21
10.756376990842
 72
     2
 10
15.6276281503051
 20
11.76011973022014
 40
1.023424684883618
 50
101.2549138589202
 51
160.5547597867278
 73
     0
 72
     1
 10
14.66257951466468
 20
11.41941572895939
 11
14.66257951466468
 21
11.680974742736
 72
     1
 10
14.66257951466468
 20
11.680974742736
 11
17.76253819646081
 21
11.680974742736
 72
     1
 10
17.76253819645717
 20
11.680974742736
 11
17.76253819645717
 21
12.86283399017065
 72
     1
 10
17.76253819645717
 20
12.86283399017065
 11
14.66257951466104
 21
12.86283399017065
 72
     1
 10
14.66257951466468
 20
12.86283399017065
 11
14.66257951466468
 21
13.11470563306739
 72
     2
 10
15.48225272848504
 20
12.98394066450419
 40
0.8300383451759449
 50
189.0641886227676
 51
266.2442024040589
 73
     0
 72
     1
 10
15.4278818142302
 20
13.81219633647106
 11
17.76253819645717
 21
13.81219633647106
 72
     1
 10
17.76253819645717
 20
13.81219633647106
 11
17.76253819645717
 21
15.01003087512799
 72
     1
 10
17.76253819645717
 20
15.01003087512708
 11
15.25350913837974
 21
15.01003087512708
 72
     2
 10
15.26346360025127
 20
12.72077550562608
 40
2.289277012093931
 50
90.24913998921256
 51
177.1707893248148
 73
     1
 97
        0
 92
       16
 93
        4
 72
     2
 10
25.73576518088885
 20
11.21567772342769
 40
0.4584188422251647
 50
90.0
 51
263.7234845870444
 73
     1
 72
     1
 10
25.68564767279531
 20
10.76000671240126
 11
27.7783128769006
 21
10.76000671240126
 72
     1
 10
27.7783128769006
 20
10.76000671240126
 11
27.7783128769006
 21
11.67409654772109
 72
     1
 10
27.7783128769006
 20
11.67409654772109
 11
25.73576518088885
 21
11.67409654772109
 97
        0
 92
        1
 93
       10
 72
     1
 10
19.00377265280258
 20
15.01003087512708
 11
21.76655068379842
 21
15.01003087512708
 72
     2
 10
21.73173900810798
 20
13.39758747778342
 40
1.612819135055386
 50
271.236789021568
 51
363.6774755773166
 73
     0
 72
     1
 10
23.34123720412754
 20
13.29414126271604
 11
23.34123720412754
 21
12.5426224386656
 72
     1
 10
23.34123720412754
 20
12.54262243866651
 11
21.85044318652217
 21
12.54262243866651
 72
     1
 10
21.85044318651853
 20
12.54262243866651
 11
21.85044318651853
 21
13.15287095335679
 72
     2
 10
21.21941712145053
 20
13.17938814566241
 40
0.6315829765608073
 50
357.5937129678487
 51
443.4481132312585
 73
     1
 72
     1
 10
21.29148259649082
 20
13.80684621086675
 11
20.48049547359551
 21
13.80684621086675
 72
     1
 10
20.48049547359551
 20
13.80684621086675
 11
20.48049547359551
 21
9.558542452185974
 72
     1
 10
20.48049547359551
 20
9.558542452185974
 11
19.00377265280258
 21
9.558542452185974
 72
     1
 10
19.00377265280258
 20
9.558542452185974
 11
19.00377265280258
 21
15.01003087512799
 97
        0
 75
     0
 76
     1
 98
        1
 10
-191.9420955085661
 20
-10.46690024722738
450
        0
451
        0
460
0.0
461
0.0
452
        1
462
1.0
453
        2
463
0.0
 63
     5
421
      255
463
1.0
 63
     7
421
 16777215
470
LINEAR
1001
ACAD
1010
0.0
1020
0.0
1030
0.0
  0
LWPOLYLINE
  5
12EA
330
12E5
100
AcDbEntity
  8
Logo kleur 1
  6
Continuous
100
AcDbPolyline
 90
        4
 70
     1
 43
0.0
 10
6.445459696609759
 20
17.06112306953855
 10
6.445459696609759
 20
9.558542452185974
 10
8.087529860273207
 20
9.558542452185974
 10
8.087529860273207
 20
17.06112306953855
  0
LWPOLYLINE
  5
12EB
330
12E5
100
AcDbEntity
  8
Logo kleur 1
  6
Continuous
100
AcDbPolyline
 90
        6
 70
     1
 43
0.0
 10
8.087529860273207
 20
13.30983276086226
 10
10.98506707689012
 20
17.06112306953855
 10
13.07960636666394
 20
17.06112306953855
 10
9.970730439705221
 20
13.32596327754254
 10
12.9347011327809
 20
9.558542452185974
 10
10.8138154368462
 20
9.558542452185974
  0
ARC
  5
12EC
330
12E5
100
AcDbEntity
  8
Logo kleur 1
  6
Continuous
100
AcDbCircle
 10
15.26346360025127
 20
12.72077550562608
 30
0.0
 40
2.289277012093931
100
AcDbArc
 50
90.24913998924507
 51
177.1707893248114
  0
ARC
  5
12ED
330
12E5
100
AcDbEntity
  8
Logo kleur 1
  6
Continuous
100
AcDbCircle
 10
15.47538872661244
 20
12.0534226766531
 30
0.0
 40
2.510543660250422
100
AcDbArc
 50
185.6349941145641
 51
263.5964129996653
  0
LINE
  5
12EE
330
12E5
100
AcDbEntity
  8
Logo kleur 1
  6
Continuous
100
AcDbLine
 10
12.97697698143383
 20
12.83377187752921
 30
0.0
 11
12.97697698143383
 21
11.80691056418527
 31
0.0
  0
LWPOLYLINE
  5
12EF
330
12E5
100
AcDbEntity
  8
Logo kleur 1
  6
Continuous
100
AcDbPolyline
 90
        4
 70
     0
 43
0.0
 10
15.25350913837974
 20
15.01003087512708
 10
17.76253819645717
 20
15.01003087512708
 10
17.76253819645717
 20
13.81219633647106
 10
15.4278818142302
 20
13.81219633647106
  0
LWPOLYLINE
  5
12F0
330
12E5
100
AcDbEntity
  8
Logo kleur 1
  6
Continuous
100
AcDbPolyline
 90
        4
 70
     0
 43
0.0
 10
14.66257951466468
 20
12.86283399017065
 10
17.76253819645717
 20
12.86283399017065
 10
17.76253819645717
 20
11.680974742736
 10
14.66257951466468
 20
11.680974742736
  0
LWPOLYLINE
  5
12F1
330
12E5
100
AcDbEntity
  8
Logo kleur 1
  6
Continuous
100
AcDbPolyline
 90
        4
 70
     0
 43
0.0
 10
15.19538491309504
 20
9.558542452185974
 10
17.76253819645717
 20
9.558542452185974
 10
17.76253819645717
 20
10.756376990842
 10
15.4278818142302
 20
10.756376990842
  0
LINE
  5
12F2
330
12E5
100
AcDbEntity
  8
Logo kleur 1
  6
Continuous
100
AcDbLine
 10
14.66257951466468
 20
12.86283399017065
 30
0.0
 11
14.66257951466468
 21
13.11470563306739
 31
0.0
  0
LINE
  5
12F3
330
12E5
100
AcDbEntity
  8
Logo kleur 1
  6
Continuous
100
AcDbLine
 10
14.66257951466468
 20
11.680974742736
 30
0.0
 11
14.66257951466468
 21
11.41941572895939
 31
0.0
  0
ARC
  5
12F4
330
12E5
100
AcDbEntity
  8
Logo kleur 1
  6
Continuous
100
AcDbCircle
 10
15.48225272848504
 20
12.98394066450419
 30
0.0
 40
0.8300383451759449
100
AcDbArc
 50
93.7557975959805
 51
170.9358113773264
  0
ARC
  5
12F5
330
12E5
100
AcDbEntity
  8
Logo kleur 1
  6
Continuous
100
AcDbCircle
 10
15.6276281503051
 20
11.76011973022014
 30
0.0
 40
1.023424684883618
100
AcDbArc
 50
199.445240213116
 51
258.7450861405534
  0
LWPOLYLINE
  5
12F6
330
12E5
100
AcDbEntity
  8
Logo kleur 1
  6
Continuous
100
AcDbPolyline
 90
        6
 70
     0
 43
0.0
 10
21.76354972772606
 20
15.01003087512708
 10
19.00377265280258
 20
15.01003087512708
 10
19.00377265280258
 20
9.558542452185974
 10
20.48049547359551
 20
9.558542452185974
 10
20.48049547359551
 20
13.80684621086675
 10
21.29148259649082
 20
13.80684621086675
  0
ARC
  5
12F7
330
12E5
100
AcDbEntity
  8
Logo kleur 1
  6
Continuous
100
AcDbCircle
 10
21.21941712145053
 20
13.17938814566241
 30
0.0
 40
0.6315829765608073
100
AcDbArc
 50
357.5937129677277
 51
83.44811323151571
  0
LINE
  5
12F8
330
12E5
100
AcDbEntity
  8
Logo kleur 1
  6
Continuous
100
AcDbLine
 10
21.85044318651853
 20
13.15287095335679
 30
0.0
 11
21.85044318651853
 21
12.54262243866651
 31
0.0
  0
LINE
  5
12F9
330
12E5
100
AcDbEntity
  8
Logo kleur 1
  6
Continuous
100
AcDbLine
 10
23.34123720412754
 20
12.54262243866651
 30
0.0
 11
23.34123720412754
 21
13.29414126271604
 31
0.0
  0
LINE
  5
12FA
330
12E5
100
AcDbEntity
  8
Logo kleur 1
  6
Continuous
100
AcDbLine
 10
21.85044318651853
 20
12.54262243866651
 30
0.0
 11
23.34123720412754
 21
12.54262243866651
 31
0.0
  0
ARC
  5
12FB
330
12E5
100
AcDbEntity
  8
Logo kleur 1
  6
Continuous
100
AcDbCircle
 10
21.73173900810798
 20
13.39758747778342
 30
0.0
 40
1.612819135055386
100
AcDbArc
 50
356.3225244226745
 51
88.76321097832404
  0
LINE
  5
12FC
330
12E5
100
AcDbEntity
  8
Logo kleur 1
  6
Continuous
100
AcDbLine
 10
19.00377265280258
 20
15.01003087512708
 30
0.0
 11
21.76655068379842
 21
15.01003087512708
 31
0.0
  0
LWPOLYLINE
  5
12FD
330
12E5
100
AcDbEntity
  8
Logo kleur 1
  6
Continuous
100
AcDbPolyline
 90
        4
 70
     0
 43
0.0
 10
27.41886857245481
 20
15.01003087512708
 10
24.12195353562129
 20
15.01003087512708
 10
24.12195353562129
 20
13.81649459925302
 10
27.05929657096203
 20
13.81649459925302
  0
ARC
  5
12FE
330
12E5
100
AcDbEntity
  8
Logo kleur 1
  6
Continuous
100
AcDbCircle
 10
27.40232871641274
 20
13.07196833422131
 30
0.0
 40
1.938133117022698
100
AcDbArc
 50
3.957713637598208
 51
89.51103696697698
  0
LINE
  5
12FF
330
12E5
100
AcDbEntity
  8
Logo kleur 1
  6
Continuous
100
AcDbLine
 10
29.33583989253384
 20
13.20573870133285
 30
0.0
 11
29.33583989253384
 21
9.558542452185974
 31
0.0
  0
LINE
  5
1300
330
12E5
100
AcDbEntity
  8
Logo kleur 1
  6
Continuous
100
AcDbLine
 10
29.33583989253384
 20
9.558542452185974
 30
0.0
 11
25.18724577243484
 21
9.558542452185974
 31
0.0
  0
LWPOLYLINE
  5
1301
330
12E5
100
AcDbEntity
  8
Logo kleur 1
  6
Continuous
100
AcDbPolyline
 90
        4
 70
     0
 43
0.0
 10
25.68564767279531
 20
10.76000671240126
 10
27.7783128769006
 20
10.76000671240126
 10
27.7783128769006
 20
11.67409654772109
 10
25.73576518088885
 20
11.67409654772109
  0
ARC
  5
1302
330
12E5
100
AcDbEntity
  8
Logo kleur 1
  6
Continuous
100
AcDbCircle
 10
25.73576518088885
 20
11.21567772342769
 30
0.0
 40
0.4584188422251647
100
AcDbArc
 50
90.0
 51
263.7234845873025
  0
LINE
  5
1303
330
12E5
100
AcDbEntity
  8
Logo kleur 1
  6
Continuous
100
AcDbLine
 10
27.79529252103021
 20
12.85872111571916
 30
0.0
 11
24.94081255884157
 21
12.85872111571916
 31
0.0
  0
ARC
  5
1304
330
12E5
100
AcDbEntity
  8
Logo kleur 1
  6
Continuous
100
AcDbCircle
 10
25.31527693460521
 20
11.32096321523568
 30
0.0
 40
1.582694831359634
100
AcDbArc
 50
103.6859105751031
 51
174.8079902603843
  0
ARC
  5
1305
330
12E5
100
AcDbEntity
  8
Logo kleur 1
  6
Continuous
100
AcDbCircle
 10
25.19626815758238
 20
11.02257859561814
 30
0.0
 40
1.464063944200912
100
AcDbArc
 50
185.5533862980965
 51
269.6469089587677
  0
LINE
  5
1306
330
12E5
100
AcDbEntity
  8
Logo kleur 1
  6
Continuous
100
AcDbLine
 10
23.73907585547204
 20
11.46418712160812
 30
0.0
 11
23.73907585547204
 21
10.88089646061144
 31
0.0
  0
LINE
  5
1307
330
12E5
100
AcDbEntity
  8
Logo kleur 1
  6
Continuous
100
AcDbLine
 10
27.79529252103021
 20
12.85872111571916
 30
0.0
 11
27.79529252103021
 21
13.15313074771256
 31
0.0
  0
ARC
  5
1308
330
12E5
100
AcDbEntity
  8
Logo kleur 1
  6
Continuous
100
AcDbCircle
 10
27.05125468985716
 20
13.06759999217774
 30
0.0
 40
0.7489377840370234
100
AcDbArc
 50
6.557643115975197
 51
89.38476237779966
  0
LWPOLYLINE
  5
1309
330
12E5
100
AcDbEntity
  8
Logo kleur 1
  6
Continuous
100
AcDbPolyline
 90
        4
 70
     1
 43
0.0
 10
30.68931522230923
 20
17.06112306953855
 10
30.68931522230923
 20
9.558542452185974
 10
32.18010518561277
 20
9.558542452185974
 10
32.18010518561277
 20
17.06112306953855
  0
LWPOLYLINE
  5
130A
330
12E5
100
AcDbEntity
  8
Logo kleur 1
  6
Continuous
100
AcDbPolyline
 90
        4
 70
     1
 43
0.0
 10
33.65685680137904
 20
14.99726064890547
 10
33.65685680137904
 20
9.558542452185974
 10
35.16889011784952
 20
9.558542452185974
 10
35.16889011784952
 20
14.99726064890547
  0
LWPOLYLINE
  5
130B
330
12E5
100
AcDbEntity
  8
Logo kleur 1
  6
Continuous
100
AcDbPolyline
 90
        4
 70
     1
 43
0.0
 10
33.65019168004437
 20
17.06112306953855
 10
33.65019168004437
 20
15.49942492225909
 10
35.16889011784952
 20
15.49942492225909
 10
35.16889011784952
 20
17.06112306953855
  0
LWPOLYLINE
  5
130C
330
12E5
100
AcDbEntity
  8
Logo kleur 1
  6
Continuous
100
AcDbPolyline
 90
        2
 70
     0
 43
0.0
 10
36.97882343484162
 20
17.06112306953855
 10
36.97882343484162
 20
14.9972255693192
  0
LWPOLYLINE
  5
130D
330
12E5
100
AcDbEntity
  8
Logo kleur 1
  6
Continuous
100
AcDbPolyline
 90
        2
 70
     0
 43
0.0
 10
36.97882343484162
 20
13.80637886393742
 10
36.97882343484162
 20
11.13887704076114
  0
LWPOLYLINE
  5
130E
330
12E5
100
AcDbEntity
  8
Logo kleur 1
  6
Continuous
100
AcDbPolyline
 90
        2
 70
     0
 43
0.0
 10
38.52835890690403
 20
11.37722293959268
 10
38.52835890690403
 20
13.80637886393742
  0
LWPOLYLINE
  5
130F
330
12E5
100
AcDbEntity
  8
Logo kleur 1
  6
Continuous
100
AcDbPolyline
 90
        3
 70
     0
 43
0.0
 10
38.52835890690403
 20
14.9972255693192
 10
38.52835890690403
 20
17.06112306953855
 10
36.97882343484162
 20
17.06112306953855
  0
LWPOLYLINE
  5
1310
330
12E5
100
AcDbEntity
  8
Logo kleur 1
  6
Continuous
100
AcDbPolyline
 90
        3
 70
     0
 43
0.0
 10
36.03188509080428
 20
14.9972255693192
 10
36.03188509080428
 20
13.80637886393742
 10
36.97882343484162
 20
13.80637886393742
  0
LWPOLYLINE
  5
1311
330
12E5
100
AcDbEntity
  8
Logo kleur 1
  6
Continuous
100
AcDbPolyline
 90
        4
 70
     0
 43
0.0
 10
38.52835890690403
 20
13.80637886393742
 10
39.89137622029375
 20
13.80637886393742
 10
39.89137622029375
 20
14.9972255693192
 10
38.52835890690403
 20
14.9972255693192
  0
LWPOLYLINE
  5
1312
330
12E5
100
AcDbEntity
  8
Logo kleur 1
  6
Continuous
100
AcDbPolyline
 90
        2
 70
     0
 43
0.0
 10
36.97882343484162
 20
14.9972255693192
 10
36.03188509080428
 20
14.9972255693192
  0
LWPOLYLINE
  5
1313
330
12E5
100
AcDbEntity
  8
Logo kleur 1
  6
Continuous
100
AcDbPolyline
 90
        4
 70
     0
 43
0.0
 10
39.15110040405853
 20
10.76218220127339
 10
39.8857323970442
 20
10.76218220127339
 10
39.8857323970442
 20
9.558542452185974
 10
38.5791417204091
 20
9.558542452185974
  0
ARC
  5
1314
330
12E5
100
AcDbEntity
  8
Logo kleur 1
  6
Continuous
100
AcDbCircle
 10
39.13282293668089
 20
11.36646559337987
 30
0.0
 40
0.6045597437712422
100
AcDbArc
 50
178.9804430877217
 51
271.7324695315813
  0
ARC
  5
1315
330
12E5
100
AcDbEntity
  8
Logo kleur 1
  6
Continuous
100
AcDbCircle
 10
38.62241499911034
 20
11.10351100721618
 30
0.0
 40
1.643972015108491
100
AcDbArc
 50
178.767326470215
 51
238.5263371813244
  0
ARC
  5
1316
330
12E5
100
AcDbEntity
  8
Logo kleur 1
  6
Continuous
100
AcDbCircle
 10
38.49064087592342
 20
11.45014075790277
 30
0.0
 40
1.893667486563138
100
AcDbArc
 50
247.4384402103658
 51
272.6787028961873
  0
LWPOLYLINE
  5
1317
330
12E5
100
AcDbEntity
  8
Logo kleur 1
  6
Continuous
100
AcDbPolyline
 90
       22
 70
     1
 43
0.0
 10
3.111629845679999
 20
6.620356127575178
 10
3.335777953201613
 20
6.620356127575178
 10
3.335777953201613
 20
6.777333731510225
 42
0.3639945690137684
 10
2.747324474577908
 20
7.237986825710322
 10
2.725648197996633
 20
7.237986825710322
 42
0.4105375545081451
 10
2.078088097627187
 20
6.687495590387698
 10
2.078088097627187
 20
5.953653737426975
 42
0.3677923240116685
 10
2.576460313717689
 20
5.439339235801526
 10
2.863758069677714
 20
5.439339235801526
 42
0.4189996109450123
 10
3.383203392932045
 20
5.992189405431417
 10
3.383203392932045
 20
6.367927272246561
 10
2.715572481778508
 20
6.367927272246561
 10
2.715572481778508
 20
6.150392703209945
 10
3.138834179942932
 20
6.150392703209945
 10
3.138834179942932
 20
5.986033017119552
 42
-0.3998368520021944
 10
2.7857272562469
 20
5.641546224123885
 10
2.671939245821704
 20
5.641546224123885
 42
-0.3690219124152745
 10
2.301898788591643
 20
6.014276152199272
 10
2.301898788591643
 20
6.5963356405191
 42
-0.3734089924492459
 10
2.677072157857764
 20
7.017507479155938
 10
2.75069864013858
 20
7.021678865899048
 42
-0.3673874517328042
 10
3.113923083870759
 20
6.749496567467758
  0
LWPOLYLINE
  5
1318
330
12E5
100
AcDbEntity
  8
Logo kleur 1
  6
Continuous
100
AcDbPolyline
 90
       12
 70
     1
 43
0.0
 10
7.932747086382732
 20
7.017507479155938
 10
7.932747086382732
 20
7.237986825710322
 10
6.778527660047984
 20
7.237986825710322
 10
6.778527660047984
 20
5.439339235801526
 10
7.932747086382732
 20
5.439339235801526
 10
7.932747086382732
 20
5.641546224123885
 10
6.972245571785606
 20
5.641546224123885
 10
6.972245571785606
 20
6.225035078341534
 10
7.781230132070049
 20
6.225035078341534
 10
7.781230132070049
 20
6.450497753715353
 10
6.972245571785606
 20
6.450497753715353
 10
6.972245571785606
 20
7.017507479155938
  0
LWPOLYLINE
  5
1319
330
12E5
100
AcDbEntity
  8
Logo kleur 1
  6
Continuous
100
AcDbPolyline
 90
       12
 70
     1
 43
0.0
 10
4.992883412975061
 20
7.017507479155938
 10
4.992883412975061
 20
7.237986825710322
 10
3.83866398664395
 20
7.237986825710322
 10
3.83866398664395
 20
5.439339235801526
 10
4.992883412975061
 20
5.439339235801526
 10
4.992883412975061
 20
5.641546224123885
 10
4.032381898374296
 20
5.641546224123885
 10
4.032381898374296
 20
6.225035078341534
 10
4.841366458662378
 20
6.225035078341534
 10
4.841366458662378
 20
6.450497753715353
 10
4.032381898374296
 20
6.450497753715353
 10
4.032381898374296
 20
7.017507479155938
  0
LWPOLYLINE
  5
131A
330
12E5
100
AcDbEntity
  8
Logo kleur 1
  6
Continuous
100
AcDbPolyline
 90
       12
 70
     1
 43
0.0
 10
44.14123225257208
 20
7.017507479155938
 10
44.14123225257208
 20
7.237986825710322
 10
42.98701282624096
 20
7.237986825710322
 10
42.98701282624096
 20
5.439339235801526
 10
44.14123225257208
 20
5.439339235801526
 10
44.14123225257208
 20
5.641546224123885
 10
43.18073073797132
 20
5.641546224123885
 10
43.18073073797132
 20
6.225035078341534
 10
43.98971529825939
 20
6.225035078341534
 10
43.98971529825939
 20
6.450497753715353
 10
43.18073073797132
 20
6.450497753715353
 10
43.18073073797132
 20
7.017507479155938
  0
LWPOLYLINE
  5
131B
330
12E5
100
AcDbEntity
  8
Logo kleur 1
  6
Continuous
100
AcDbPolyline
 90
       12
 70
     1
 43
0.0
 10
41.12763161535258
 20
7.017507479155938
 10
41.12763161535258
 20
7.237986825710322
 10
39.97341218902511
 20
7.237986825710322
 10
39.97341218902511
 20
5.439339235801526
 10
41.12763161535258
 20
5.439339235801526
 10
41.12763161535258
 20
5.641546224123885
 10
40.16713010075181
 20
5.641546224123885
 10
40.16713010075181
 20
6.225035078341534
 10
40.9761146610399
 20
6.225035078341534
 10
40.9761146610399
 20
6.450497753715353
 10
40.16713010075181
 20
6.450497753715353
 10
40.16713010075181
 20
7.017507479155938
  0
LWPOLYLINE
  5
131C
330
12E5
100
AcDbEntity
  8
Logo kleur 1
  6
Continuous
100
AcDbPolyline
 90
       12
 70
     1
 43
0.0
 10
18.87686502958604
 20
7.017507479155938
 10
18.87686502958604
 20
7.237986825710322
 10
17.72264560325129
 20
7.237986825710322
 10
17.72264560325129
 20
5.439339235801526
 10
18.87686502958604
 20
5.439339235801526
 10
18.87686502958604
 20
5.641546224123885
 10
17.91636351498528
 20
5.641546224123885
 10
17.91636351498528
 20
6.225035078341534
 10
18.72534807527336
 20
6.225035078341534
 10
18.72534807527336
 20
6.450497753715353
 10
17.91636351498528
 20
6.450497753715353
 10
17.91636351498528
 20
7.017507479155938
  0
LWPOLYLINE
  5
131D
330
12E5
100
AcDbEntity
  8
Logo kleur 1
  6
Continuous
100
AcDbPolyline
 90
       12
 70
     1
 43
0.0
 10
15.86613293075788
 20
7.017507479155938
 10
15.86613293075788
 20
7.237986825710322
 10
14.71191350442677
 20
7.237986825710322
 10
14.71191350442677
 20
5.439339235801526
 10
15.86613293075788
 20
5.439339235801526
 10
15.86613293075788
 20
5.641546224123885
 10
14.9056314161644
 20
5.641546224123885
 10
14.9056314161644
 20
6.225035078341534
 10
15.7146159764452
 20
6.225035078341534
 10
15.7146159764452
 20
6.450497753715353
 10
14.9056314161644
 20
6.450497753715353
 10
14.9056314161644
 20
7.017507479155938
  0
LWPOLYLINE
  5
131E
330
12E5
100
AcDbEntity
  8
Logo kleur 1
  6
Continuous
100
AcDbPolyline
 90
        7
 70
     1
 43
0.0
 10
5.381773412213078
 20
7.237986825710322
 10
5.102360653178038
 20
7.237986825710322
 10
5.6672855478173
 20
5.439339235801526
 10
5.935716841177054
 20
5.439339235801526
 10
6.50110854515151
 20
7.237986825710322
 10
6.228785515111667
 20
7.237986825710322
 10
5.81039197145219
 20
5.85733790960603
  0
LWPOLYLINE
  5
131F
330
12E5
100
AcDbEntity
  8
Logo kleur 1
  6
Continuous
100
AcDbPolyline
 90
        6
 70
     1
 43
0.0
 10
8.553529848668404
 20
7.237986825710322
 10
8.303770928741869
 20
7.237986825710322
 10
8.303770928741869
 20
5.439339235801526
 10
9.444457860980037
 20
5.439339235801526
 10
9.444457860980037
 20
5.641546224123885
 10
8.553529848668404
 20
5.641546224123885
  0
LWPOLYLINE
  5
1320
330
12E5
100
AcDbEntity
  8
Logo kleur 1
  6
Continuous
100
AcDbPolyline
 90
        8
 70
     1
 43
0.0
 10
9.795946379599627
 20
7.237986825710322
 10
9.795946379599627
 20
5.439339235801526
 10
9.989664291329972
 20
5.439339235801526
 10
9.989664291329972
 20
6.156246558426573
 10
10.5819010157611
 20
6.156246558426573
 42
0.3883442621515241
 10
11.03170913566646
 20
6.637726836490401
 10
11.03170913566646
 20
6.725505372572115
 42
0.40215176234246
 10
10.47197687281004
 20
7.237986825710322
  0
LWPOLYLINE
  5
1321
330
12E5
100
AcDbEntity
  8
Logo kleur 1
  6
Continuous
100
AcDbPolyline
 90
        6
 70
     1
 43
0.0
 10
9.989664291329972
 20
7.027276872400761
 10
9.989664291329972
 20
6.367927272246561
 10
10.54751339158247
 20
6.367927272246561
 42
0.3805591337588886
 10
10.85093249255806
 20
6.650019474754117
 10
10.85093249255806
 20
6.718051890774404
 42
0.390927411218102
 10
10.56103294639615
 20
7.027276872400761
  0
LWPOLYLINE
  5
1322
330
12E5
100
AcDbEntity
  8
Logo kleur 1
  6
Continuous
100
AcDbPolyline
 90
        6
 70
     1
 43
0.0
 10
16.46962981301112
 20
7.237986825710322
 10
16.21987089308459
 20
7.237986825710322
 10
16.21987089308459
 20
5.439339235801526
 10
17.36055782532275
 20
5.439339235801526
 10
17.36055782532275
 20
5.641546224123885
 10
16.46962981301112
 20
5.641546224123885
  0
LWPOLYLINE
  5
1323
330
12E5
100
AcDbEntity
  8
Logo kleur 1
  6
Continuous
100
AcDbPolyline
 90
        6
 70
     1
 43
0.0
 10
41.80375566949805
 20
7.237986825710322
 10
41.55399674957152
 20
7.237986825710322
 10
41.55399674957152
 20
5.439339235801526
 10
42.69468368180605
 20
5.439339235801526
 10
42.69468368180605
 20
5.641546224123885
 10
41.80375566949805
 20
5.641546224123885
  0
LWPOLYLINE
  5
1324
330
12E5
100
AcDbEntity
  8
Logo kleur 1
  6
Continuous
100
AcDbPolyline
 90
       11
 70
     1
 43
0.0
 10
13.00095775575391
 20
7.237986825710322
 10
12.80611512217001
 20
7.237986825710322
 10
12.80611512217001
 20
5.439339235801526
 10
13.07966340229905
 20
5.439339235801526
 10
13.07966340229905
 20
6.762614878508429
 10
13.94514184551008
 20
5.439339235801526
 10
14.19180927332854
 20
5.439339235801526
 10
14.19180927332854
 20
7.237986825710322
 10
13.91826099319951
 20
7.237986825710322
 10
13.91826099319951
 20
5.880863633762601
 10
13.02219409688041
 20
7.237986825710322
  0
LWPOLYLINE
  5
1325
330
12E5
100
AcDbEntity
  8
Logo kleur 1
  6
Continuous
100
AcDbPolyline
 90
       11
 70
     1
 43
0.0
 10
19.39502239701323
 20
7.237986825710322
 10
19.20017976342569
 20
7.237986825710322
 10
19.20017976342569
 20
5.439339235801526
 10
19.47372804355836
 20
5.439339235801526
 10
19.47372804355836
 20
6.762614878508429
 10
20.3392064867694
 20
5.439339235801526
 10
20.5858739145915
 20
5.439339235801526
 10
20.5858739145915
 20
7.237986825710322
 10
20.31232563446247
 20
7.237986825710322
 10
20.31232563446247
 20
5.880863633762601
 10
19.41625873813973
 20
7.237986825710322
  0
LWPOLYLINE
  5
1326
330
12E5
100
AcDbEntity
  8
Logo kleur 1
  6
Continuous
100
AcDbPolyline
 90
       11
 70
     1
 43
0.0
 10
31.66228900768329
 20
7.237986825710322
 10
31.46744637409938
 20
7.237986825710322
 10
31.46744637409938
 20
5.439339235801526
 10
31.74099465422842
 20
5.439339235801526
 10
31.74099465422842
 20
6.762614878508429
 10
32.60647309743945
 20
5.439339235801526
 10
32.85314052526155
 20
5.439339235801526
 10
32.85314052526155
 20
7.237986825710322
 10
32.57959224513252
 20
7.237986825710322
 10
32.57959224513252
 20
5.880863633762601
 10
31.68352534880978
 20
7.237986825710322
  0
LWPOLYLINE
  5
1327
330
12E5
100
AcDbEntity
  8
Logo kleur 1
  6
Continuous
100
AcDbPolyline
 90
       11
 70
     1
 43
0.0
 10
38.29650366199349
 20
7.237986825710322
 10
38.10166102840231
 20
7.237986825710322
 10
38.10166102840231
 20
5.439339235801526
 10
38.37520930853862
 20
5.439339235801526
 10
38.37520930853862
 20
6.762614878508429
 10
39.24068775174965
 20
5.439339235801526
 10
39.48735517956811
 20
5.439339235801526
 10
39.48735517956811
 20
7.237986825710322
 10
39.21380689943908
 20
7.237986825710322
 10
39.21380689943908
 20
5.880863633762601
 10
38.31774000311634
 20
7.237986825710322
  0
LWPOLYLINE
  5
1328
330
12E5
100
AcDbEntity
  8
Logo kleur 1
  6
Continuous
100
AcDbPolyline
 90
       11
 70
     1
 43
0.0
 10
44.72516494654337
 20
7.237986825710322
 10
44.53032231295947
 20
7.237986825710322
 10
44.53032231295947
 20
5.439339235801526
 10
44.8038705930885
 20
5.439339235801526
 10
44.8038705930885
 20
6.762614878508429
 10
45.66934903629953
 20
5.439339235801526
 10
45.91601646412164
 20
5.439339235801526
 10
45.91601646412164
 20
7.237986825710322
 10
45.64246818399261
 20
7.237986825710322
 10
45.64246818399261
 20
5.880863633762601
 10
44.74640128766987
 20
7.237986825710322
  0
LWPOLYLINE
  5
1329
330
12E5
100
AcDbEntity
  8
Logo kleur 1
  6
Continuous
100
AcDbPolyline
 90
        8
 70
     1
 43
0.0
 10
11.71777969205868
 20
7.237986825710322
 10
11.07185903534264
 20
5.439339235801526
 10
11.27556009768887
 20
5.439339235801526
 10
11.41558766225716
 20
5.829263662138146
 10
12.13905950198023
 20
5.829263662138146
 10
12.27908706655216
 20
5.439339235801526
 10
12.51188756970805
 20
5.439339235801526
 10
11.865966912992
 20
7.237986825710322
  0
LWPOLYLINE
  5
132A
330
12E5
100
AcDbEntity
  8
Logo kleur 1
  6
Continuous
100
AcDbPolyline
 90
        3
 70
     1
 43
0.0
 10
11.77732358211869
 20
6.836562985481577
 10
11.49357897567461
 20
6.046440317587439
 10
12.06106818856278
 20
6.046440317587439
  0
LWPOLYLINE
  5
132B
330
12E5
100
AcDbEntity
  8
Logo kleur 1
  6
Continuous
100
AcDbPolyline
 90
        4
 70
     1
 43
0.0
 10
21.85884804342641
 20
5.194493846232944
 10
22.07177680162567
 20
5.194493846232944
 10
22.07177680162567
 20
7.395596499548446
 10
21.85884804342641
 20
7.395596499548446
  0
LWPOLYLINE
  5
132C
330
12E5
100
AcDbEntity
  8
Logo kleur 1
  6
Continuous
100
AcDbPolyline
 90
        6
 70
     1
 43
0.0
 10
23.28058106971366
 20
7.237986825710322
 10
23.28058106971366
 20
5.439339235801526
 10
23.98241049252465
 20
5.439339235801526
 42
0.4101721073468307
 10
24.59624187655573
 20
6.006031782066202
 10
24.59624187655573
 20
6.572518367825978
 42
0.4352058149005675
 10
23.90991370875054
 20
7.237986825710322
  0
LWPOLYLINE
  5
132D
330
12E5
100
AcDbEntity
  8
Logo kleur 1
  6
Continuous
100
AcDbPolyline
 90
        6
 70
     1
 43
0.0
 10
23.57049056916367
 20
7.030255518979174
 10
23.57049056916367
 20
5.646191777716921
 10
23.9269378172321
 20
5.646191777716921
 42
0.3812970101327824
 10
24.33248365320469
 20
5.972966425049889
 10
24.33248365320469
 20
6.648581412746352
 42
0.4044733206932391
 10
23.84757425816861
 20
7.030255518979174
  0
LWPOLYLINE
  5
132E
330
12E5
100
AcDbEntity
  8
Logo kleur 1
  6
Continuous
100
AcDbPolyline
 90
        8
 70
     1
 43
0.0
 10
25.4739311956655
 20
7.237986825710322
 10
24.82801053894946
 20
5.439339235801526
 10
25.03171160129568
 20
5.439339235801526
 10
25.17173916586398
 20
5.829263662138146
 10
25.89521100559068
 20
5.829263662138146
 10
26.03523857015898
 20
5.439339235801526
 10
26.26803907331487
 20
5.439339235801526
 10
25.62211841660246
 20
7.237986825710322
  0
LWPOLYLINE
  5
132F
330
12E5
100
AcDbEntity
  8
Logo kleur 1
  6
Continuous
100
AcDbPolyline
 90
        3
 70
     1
 43
0.0
 10
25.53347508572552
 20
6.836562985481577
 10
25.24973047928142
 20
6.046440317587439
 10
25.81721969217324
 20
6.046440317587439
  0
LWPOLYLINE
  5
1330
330
12E5
100
AcDbEntity
  8
Logo kleur 1
  6
Continuous
100
AcDbPolyline
 90
        8
 70
     1
 43
0.0
 10
30.37831269007438
 20
7.237986825710322
 10
29.73239203335834
 20
5.439339235801526
 10
29.93609309570457
 20
5.439339235801526
 10
30.07612066026559
 20
5.829263662138146
 10
30.79959249999593
 20
5.829263662138146
 10
30.93962006456059
 20
5.439339235801526
 10
31.17242056772375
 20
5.439339235801526
 10
30.52649991100407
 20
7.237986825710322
  0
LWPOLYLINE
  5
1331
330
12E5
100
AcDbEntity
  8
Logo kleur 1
  6
Continuous
100
AcDbPolyline
 90
        3
 70
     1
 43
0.0
 10
30.43785658013076
 20
6.836562985481577
 10
30.15411197368303
 20
6.046440317587439
 10
30.72160118657848
 20
6.046440317587439
  0
LWPOLYLINE
  5
1332
330
12E5
100
AcDbEntity
  8
Logo kleur 1
  6
Continuous
100
AcDbPolyline
 90
        8
 70
     1
 43
0.0
 10
37.00116864898518
 20
7.237986825710322
 10
36.3552479922655
 20
5.439339235801526
 10
36.55894905461537
 20
5.439339235801526
 10
36.69897661918003
 20
5.829263662138146
 10
37.42244845890309
 20
5.829263662138146
 10
37.56247602347139
 20
5.439339235801526
 10
37.79527652663091
 20
5.439339235801526
 10
37.14935586991487
 20
7.237986825710322
  0
LWPOLYLINE
  5
1333
330
12E5
100
AcDbEntity
  8
Logo kleur 1
  6
Continuous
100
AcDbPolyline
 90
        3
 70
     1
 43
0.0
 10
37.0607125390452
 20
6.836562985481577
 10
36.77696793259747
 20
6.046440317587439
 10
37.34445714548565
 20
6.046440317587439
  0
LWPOLYLINE
  5
1334
330
12E5
100
AcDbEntity
  8
Logo kleur 1
  6
Continuous
100
AcDbPolyline
 90
        8
 70
     1
 43
0.0
 10
35.05507916698116
 20
7.237986825710322
 10
35.05507916698116
 20
5.439339235801526
 10
35.24879707871515
 20
5.439339235801526
 10
35.24879707871515
 20
6.156246558426573
 10
35.84103380314991
 20
6.156246558426573
 42
0.3883442621515241
 10
36.29084192305163
 20
6.637726836490401
 10
36.29084192305163
 20
6.725505372572115
 42
0.40215176234246
 10
35.73110966019158
 20
7.237986825710322
  0
LWPOLYLINE
  5
1335
330
12E5
100
AcDbEntity
  8
Logo kleur 1
  6
Continuous
100
AcDbPolyline
 90
        6
 70
     1
 43
0.0
 10
35.24879707871515
 20
7.027276872400761
 10
35.24879707871515
 20
6.367927272246561
 10
35.806646178964
 20
6.367927272246561
 42
0.3805591337588886
 10
36.11006527994323
 20
6.650019474754117
 10
36.11006527994323
 20
6.718051890774404
 42
0.390927411218102
 10
35.82016573377769
 20
7.027276872400761
  0
LWPOLYLINE
  5
1336
330
12E5
100
AcDbEntity
  8
Logo kleur 1
  6
Continuous
100
AcDbPolyline
 90
        6
 70
     1
 43
0.0
 10
33.34549697242983
 20
7.237986825710322
 10
33.34549697242983
 20
5.439339235801526
 10
34.04732639524082
 20
5.439339235801526
 42
0.4101721073468307
 10
34.66115777927189
 20
6.006031782066202
 10
34.66115777927189
 20
6.572518367825978
 42
0.4352058149005675
 10
33.97482961146307
 20
7.237986825710322
  0
LWPOLYLINE
  5
1337
330
12E5
100
AcDbEntity
  8
Logo kleur 1
  6
Continuous
100
AcDbPolyline
 90
        6
 70
     1
 43
0.0
 10
33.63540647188347
 20
7.030255518979174
 10
33.63540647188347
 20
5.646191777716921
 10
33.99185371994827
 20
5.646191777716921
 42
0.3812970101327824
 10
34.39739955591358
 20
5.972966425049889
 10
34.39739955591358
 20
6.648581412746352
 42
0.4044733206932391
 10
33.91249016088477
 20
7.030255518979174
  0
LWPOLYLINE
  5
1338
330
12E5
100
AcDbEntity
  8
Logo kleur 1
  6
Continuous
100
AcDbPolyline
 90
       13
 70
     1
 43
0.0
 10
26.81351555332731
 20
7.237986825710322
 10
26.55284782674426
 20
7.237986825710322
 10
26.55284782674426
 20
5.439339235801526
 10
26.81351555332731
 20
5.439339235801526
 10
26.81351555332731
 20
5.931904652911725
 10
27.14137725956607
 20
6.333433938970301
 10
27.66672275921883
 20
5.439339235801526
 10
27.89932220590344
 20
5.439339235801526
 10
27.27664136044041
 20
6.499090668073222
 10
27.87997407710282
 20
7.237986825710322
 10
27.59948636266927
 20
7.237986825710322
 10
26.81351555332731
 20
6.275415436824914
 10
26.81351555332731
 20
7.237986825710322
  0
LWPOLYLINE
  5
1339
330
12E5
100
AcDbEntity
  8
Logo kleur 1
  6
Continuous
100
AcDbPolyline
 90
        9
 70
     0
 43
0.0
 10
29.1247547043713
 20
6.176400992163507
 42
0.3261863747671525
 10
29.46907542063127
 20
6.637726836490401
 10
29.46907542063127
 20
6.725505372572115
 42
0.40215176234246
 10
28.90934315777122
 20
7.237986825710322
 10
28.2333126645608
 20
7.237986825710322
 10
28.2333126645608
 20
5.439339235801526
 10
28.47529507843137
 20
5.439339235801526
 10
28.47529507843137
 20
6.156246558426573
 10
28.8863175872757
 20
6.156246558426573
  0
LWPOLYLINE
  5
133A
330
12E5
100
AcDbEntity
  8
Logo kleur 1
  6
Continuous
100
AcDbPolyline
 90
        6
 70
     1
 43
0.0
 10
28.47529507843137
 20
7.027276872400761
 10
28.47529507843137
 20
6.367927272246561
 10
28.98487967654364
 20
6.367927272246561
 42
0.3805591337588886
 10
29.28829877751923
 20
6.650019474754117
 10
29.28829877751923
 20
6.718051890774404
 42
0.390927411218102
 10
28.99839923135733
 20
7.027276872400761
  0
LWPOLYLINE
  5
133B
330
12E5
100
AcDbEntity
  8
Logo kleur 1
  6
Continuous
100
AcDbPolyline
 90
        4
 70
     0
 43
0.0
 10
28.8863175872757
 20
6.156246558426573
 10
29.25636364119418
 20
5.439339235801526
 10
29.5052038723843
 20
5.439339235801526
 10
29.1247547043713
 20
6.176400992163507
  0
HATCH
  5
133C
330
12E5
100
AcDbEntity
  8
Logo kleur 2
100
AcDbHatch
 10
0.0
 20
0.0
 30
0.0
210
0.0
220
0.0
230
1.0
  2
SOLID
 70
     1
 71
     0
 91
        5
 92
        0
 93
       31
 72
     1
 10
42.04464325455774
 20
16.94335933433831
 11
42.04464325455774
 21
17.62099682910502
 72
     1
 10
42.04464325455774
 20
17.62099682910502
 11
42.33463955695697
 21
17.61981670307796
 72
     2
 10
42.34252541609385
 20
17.29148368452297
 40
0.3284277056640552
 50
268.624142041743
 51
294.2027221222796
 73
     0
 72
     2
 10
42.4264221002486
 20
17.47813855483036
 40
0.1237848601462113
 50
294.2027221226804
 51
320.9616034703305
 73
     0
 72
     2
 10
42.25697872303863
 20
17.34073789792819
 40
0.3419361805580012
 50
320.9616034682695
 51
330.1809097347815
 73
     0
 72
     2
 10
42.43938798675663
 20
17.44528539444582
 40
0.131690327999195
 50
330.1809097373342
 51
354.399641217119
 73
     0
 72
     2
 10
42.30892234376733
 20
17.43249230146193
 40
0.2627816977710216
 50
354.3996412128433
 51
368.0637943627391
 73
     0
 72
     2
 10
42.42143514914642
 20
17.41655188926597
 40
0.1491453122459561
 50
8.06379436678945
 51
36.4918149487748
 73
     0
 72
     2
 10
42.19003037381116
 20
17.58773126292635
 40
0.4369830234908456
 50
36.49181494239898
 51
41.29546801752946
 73
     0
 72
     2
 10
42.41319186410328
 20
17.39171037631695
 40
0.1399556868086862
 50
41.29546802461518
 51
57.62226679051738
 73
     0
 72
     2
 10
42.30362448779124
 20
17.5645093349176
 40
0.3445638245881182
 50
57.62226679112948
 51
63.90766836850129
 73
     0
 72
     2
 10
42.38763366004422
 20
17.39296717016532
 40
0.1535553030227741
 50
63.90766836672974
 51
79.29451925525802
 73
     0
 72
     2
 10
42.36035882834767
 20
17.53723949090909
 40
0.3003831579302963
 50
79.29451924683703
 51
80.23247824730377
 73
     0
 72
     2
 10
42.2979003101027
 20
17.06361774254674
 40
0.210720316397558
 50
302.5641293813701
 51
309.2186091685939
 73
     0
 72
     2
 10
42.3217358723341
 20
17.09282365693434
 40
0.1730225782411872
 50
309.2186091730554
 51
322.812185302177
 73
     0
 72
     2
 10
43.183412114573
 20
17.7465827322776
 40
0.9085905110995089
 50
217.1878146933977
 51
219.5015182280065
 73
     1
 72
     2
 10
42.35810097628927
 20
17.06621200062363
 40
0.1610088566390088
 50
320.498481764942
 51
328.9015163092523
 73
     0
 72
     2
 10
42.87085342601858
 20
17.37550554593599
 40
0.4378046133791415
 50
211.0984836828218
 51
217.0977198853872
 73
     1
 72
     2
 10
42.36972974634773
 20
16.99654003188425
 40
0.1904786055336251
 50
322.902280111508
 51
330.8965942656332
 73
     0
 72
     1
 10
42.53615915422051
 20
17.08918640990941
 11
42.62695714467191
 21
16.94335933433831
 72
     1
 10
42.62695714467191
 20
16.94335933433831
 11
42.47003864791622
 21
16.94335933433831
 72
     1
 10
42.47003864791622
 20
16.94335933433831
 11
42.37614501818462
 21
17.10739917771479
 72
     2
 10
41.91718186255821
 20
16.83136210858993
 40
0.5355778577887592
 50
31.02422540395138
 51
40.86346067203916
 73
     1
 72
     2
 10
42.22941072901813
 20
17.10147490279632
 40
0.1227246312724104
 50
40.86346067305993
 51
62.08967276126282
 73
     1
 72
     2
 10
42.25762820306409
 20
17.15474521691521
 40
0.0624423601817532
 50
62.08967276279171
 51
78.13442593131059
 73
     1
 72
     2
 10
42.17246368552515
 20
16.74940373092795
 40
0.4766340009832057
 50
78.13442592992553
 51
80.85544632979267
 73
     1
 72
     2
 10
42.23037970413497
 20
17.10919378236576
 40
0.1122123409171998
 50
80.85544632868341
 51
92.96833760368526
 73
     1
 72
     2
 10
42.20845385677967
 20
17.53203462876991
 40
0.3111965916412185
 50
87.03166239551341
 51
92.911592899208
 73
     0
 72
     1
 10
42.19264662149362
 20
17.22123976079183
 11
42.17372090791832
 21
17.22123976079183
 72
     1
 10
42.17372090791832
 20
17.22123976079183
 11
42.17372090791832
 21
16.94335933433831
 72
     1
 10
42.17372090791832
 20
16.94335933433831
 11
42.04464325455774
 21
16.94335933433831
 97
        0
 92
        0
 93
       48
 72
     1
 10
41.81559536980785
 20
17.29101401579828
 11
41.81987432565074
 21
17.35643169952527
 72
     1
 10
41.81987432565074
 20
17.35643169952527
 11
41.83271119317578
 21
17.42059086682911
 72
     1
 10
41.83271119317578
 20
17.42059086682911
 11
41.85410597239024
 21
17.4834915177089
 72
     1
 10
41.85410597239024
 20
17.4834915177089
 11
41.88405866328321
 21
17.54513365216371
 72
     1
 10
41.88405866328321
 20
17.54513365216371
 11
41.92158762305189
 21
17.60262268241968
 72
     1
 10
41.92158762305189
 20
17.60262268241968
 11
41.96571120888257
 21
17.65306402069927
 72
     1
 10
41.96571120888257
 20
17.65306402069927
 11
42.01642942077524
 21
17.69645766700432
 72
     1
 10
42.01642942077524
 20
17.69645766700432
 11
42.07374225872991
 21
17.732803621333
 72
     1
 10
42.07374225872991
 20
17.732803621333
 11
42.13478030530313
 21
17.76152296613236
 72
     1
 10
42.13478030530313
 20
17.76152296613236
 11
42.19667414304786
 21
17.7820367838467
 72
     1
 10
42.19667414304786
 20
17.7820367838467
 11
42.25942377195315
 21
17.79434507447422
 72
     1
 10
42.25942377195315
 20
17.79434507447422
 11
42.32302919202993
 21
17.79844783801763
 72
     1
 10
42.32302919202993
 20
17.79844783801763
 11
42.38630739783547
 21
17.79434507447422
 72
     1
 10
42.38630739783547
 20
17.79434507447422
 11
42.44888083444675
 21
17.7820367838467
 72
     1
 10
42.44888083444675
 20
17.7820367838467
 11
42.51074950186011
 21
17.76152296613236
 72
     1
 10
42.51074950186011
 20
17.76152296613236
 11
42.57191340007193
 21
17.732803621333
 72
     1
 10
42.57191340007193
 20
17.732803621333
 11
42.62937726000018
 21
17.69645766700432
 72
     1
 10
42.62937726000018
 20
17.69645766700432
 11
42.68014581254829
 21
17.65306402069927
 72
     1
 10
42.68014581254829
 20
17.65306402069927
 11
42.72421905772353
 21
17.60262268241968
 72
     1
 10
42.72421905772353
 20
17.60262268241968
 11
42.76159699552226
 21
17.54513365216371
 72
     1
 10
42.76159699552226
 20
17.54513365216371
 11
42.79137349411394
 21
17.4834915177089
 72
     1
 10
42.79137349411394
 20
17.4834915177089
 11
42.81264242168254
 21
17.42059086682911
 72
     1
 10
42.81264242168254
 20
17.42059086682911
 11
42.82540377822442
 21
17.35643169952527
 72
     1
 10
42.82540377822442
 20
17.35643169952527
 11
42.8296575637396
 21
17.29101401579828
 72
     1
 10
42.8296575637396
 20
17.29101401579828
 11
42.82547928921121
 21
17.22604939798384
 72
     1
 10
42.82547928921121
 20
17.22604939798384
 11
42.81294446562606
 21
17.16244397790615
 72
     1
 10
42.81294446562606
 20
17.16244397790615
 11
42.79205309298413
 21
17.10019775556793
 72
     1
 10
42.79205309298413
 20
17.10019775556793
 11
42.76280517128907
 21
17.03931073096646
 72
     1
 10
42.76280517128907
 20
17.03931073096646
 11
42.72600615104602
 21
16.98242578859572
 72
     1
 10
42.72600615104602
 20
16.98242578859572
 11
42.68246148276739
 21
16.93218581294241
 72
     1
 10
42.68246148276739
 20
16.93218581294241
 11
42.63217116646046
 21
16.88859080401016
 72
     1
 10
42.63217116646046
 20
16.88859080401016
 11
42.57513520211432
 21
16.85164076179717
 72
     1
 10
42.57513520211432
 20
16.85164076179717
 11
42.51407198521701
 21
16.8222166477999
 72
     1
 10
42.51407198521701
 20
16.8222166477999
 11
42.45169991123839
 21
16.80119942351666
 72
     1
 10
42.45169991123839
 20
16.80119942351666
 11
42.35552408609874
 21
16.78648736651757
 72
     1
 10
42.35552408609874
 20
16.78648736651757
 11
42.32302919202993
 21
16.78438564408952
 72
     1
 10
42.32302919202993
 20
16.78438564408952
 11
42.25803940388868
 21
16.78858908894653
 72
     1
 10
42.25803940388868
 20
16.78858908894653
 11
42.19435847282148
 21
16.80119942351666
 72
     1
 10
42.19435847282148
 20
16.80119942351666
 11
42.13198639884649
 21
16.8222166477999
 72
     1
 10
42.13198639884649
 20
16.8222166477999
 11
42.07092318194554
 21
16.85164076179717
 72
     1
 10
42.07092318194554
 20
16.85164076179717
 11
42.01386204727168
 21
16.88859080401016
 72
     1
 10
42.01386204727168
 20
16.88859080401016
 11
41.96349621997796
 21
16.93218581294241
 72
     1
 10
41.96349621997796
 20
16.93218581294241
 11
41.91982570006075
 21
16.98242578859572
 72
     1
 10
41.91982570006075
 20
16.98242578859572
 11
41.8828504875164
 21
17.03931073096646
 72
     1
 10
41.8828504875164
 20
17.03931073096646
 11
41.85342637352369
 21
17.10019775556793
 72
     1
 10
41.85342637352369
 20
17.10019775556793
 11
41.83240914923589
 21
17.16244397790615
 72
     1
 10
41.83240914923589
 20
17.16244397790615
 11
41.81979881466395
 21
17.22604939798384
 72
     1
 10
41.81979881466395
 20
17.22604939798384
 11
41.81559536980785
 21
17.29101401579828
 97
        0
 92
       16
 93
       47
 72
     2
 10
42.31288775309804
 20
17.29156432927084
 40
0.6333194049902675
 50
179.9874070897948
 51
195.0233392183299
 73
     0
 72
     2
 10
42.33353422369328
 20
17.28602310902624
 40
0.6546965392658004
 50
195.0233392222628
 51
202.396263869511
 73
     0
 72
     2
 10
42.3936249097751
 20
17.26126009946165
 40
0.7196895942523582
 50
202.3962638667742
 51
209.2722506286382
 73
     0
 72
     2
 10
42.3348952098022
 20
17.2941802788755
 40
0.6523626615168386
 50
209.2722506300729
 51
216.9108189365597
 73
     0
 72
     2
 10
42.27076250392928
 20
17.34235141588851
 40
0.5721537941533864
 50
216.9108189350033
 51
225.4880680681469
 73
     0
 72
     2
 10
42.2926876391466
 20
17.32004952831448
 40
0.6034281565554951
 50
225.4880680684541
 51
233.5673168583221
 73
     0
 72
     2
 10
42.28829169716482
 20
17.32600492365509
 40
0.5960260595844736
 50
233.56731685794
 51
241.9002990707074
 73
     0
 72
     2
 10
42.38867240537001
 20
17.13800620109578
 40
0.8091452897439218
 50
241.9002990713288
 51
247.9002602809255
 73
     0
 72
     2
 10
42.31890689105057
 20
17.30982018335635
 40
0.623707236776368
 50
247.9002602801765
 51
255.521423018713
 73
     0
 72
     2
 10
42.33352993512744
 20
17.25318972494096
 40
0.6821952033883951
 50
255.5214230195432
 51
262.3092469400201
 73
     0
 72
     2
 10
42.32010312714192
 20
17.35261738862664
 40
0.5818650509978016
 50
262.3092469395415
 51
270.3067629610334
 73
     0
 72
     2
 10
42.31957361394598
 20
17.25371828559946
 40
0.6807655715413494
 50
270.3067629606538
 51
277.0772271371479
 73
     0
 72
     2
 10
42.33158317850393
 20
17.35045027625892
 40
0.5832909201808946
 50
277.0772271379956
 51
285.0921029034944
 73
     0
 72
     2
 10
42.29170159875866
 20
17.20256152892943
 40
0.7364627909326668
 50
285.0921029030033
 51
291.4862137965249
 73
     0
 72
     2
 10
42.31315305741373
 20
17.2570576790722
 40
0.6778966278446119
 50
291.486213797483
 51
298.7132268520844
 73
     0
 72
     2
 10
42.30696687319869
 20
17.24576457236162
 40
0.6907730844350161
 50
298.7132268515358
 51
305.8380617779691
 73
     0
 72
     2
 10
42.40309082703606
 20
17.37885727687262
 40
0.5265979264622693
 50
305.838061777029
 51
315.1767752616409
 73
     0
 72
     2
 10
42.30974470043657
 20
17.28608538394655
 40
0.6582038665570177
 50
315.1767752615843
 51
322.5596328134038
 73
     0
 72
     2
 10
42.38437238446204
 20
17.34322591437285
 40
0.5642127422932903
 50
322.5596328147568
 51
331.4633239589762
 73
     0
 72
     2
 10
42.11509837648191
 20
17.19679879833438
 40
0.8707243924552557
 50
331.4633239587312
 51
337.0897717906101
 73
     0
 72
     2
 10
42.39404195889801
 20
17.3146878664611
 40
0.5678921706641395
 50
337.089771790863
 51
345.6622176032186
 73
     0
 72
     2
 10
42.21413703450525
 20
17.26870431285624
 40
0.7535808052729994
 50
345.6622176041072
 51
351.9269075472966
 73
     0
 72
     2
 10
42.41380110184763
 20
17.29702505750356
 40
0.551918204959768
 50
351.9269075470115
 51
360.6667310515285
 73
     0
 72
     2
 10
42.19026305957595
 20
17.29962640929716
 40
0.7754713829148182
 50
0.6667310479393906
 51
6.702936300496461
 73
     0
 72
     2
 10
42.42707797282491
 20
17.27179474679724
 40
0.5370266208112557
 50
6.702936301119138
 51
15.58946270565359
 73
     0
 72
     2
 10
42.16805981457219
 20
17.3440625690655
 40
0.8059374693094179
 50
15.5894627100939
 51
21.45397073817632
 73
     0
 72
     2
 10
42.36006757929135
 20
17.26860682910228
 40
0.5996353839932019
 50
21.453970735307
 51
29.70636123537623
 73
     0
 72
     2
 10
42.1941651676716
 20
17.36326030736472
 40
0.7906403345267913
 50
29.7063612346275
 51
35.88542199859809
 73
     0
 72
     2
 10
42.43207992247699
 20
17.19113098312482
 40
0.496987589235074
 50
35.88542200130471
 51
45.79575716968039
 73
     0
 72
     2
 10
42.26585144252021
 20
17.36204215603448
 40
0.7354043180402544
 50
45.79575716567676
 51
52.32260621267364
 73
     0
 72
     2
 10
42.39684225458041
 20
17.19242157713688
 40
0.5210920840690682
 50
52.32260621658872
 51
61.92123583554656
 73
     0
 72
     2
 10
42.18088376745072
 20
17.59723692247007
 40
0.9799096207659689
 50
61.92123583331651
 51
66.84164460849996
 73
     0
 72
     2
 10
42.36075795616488
 20
17.17671512235028
 40
0.522533071146721
 50
66.84164460879227
 51
76.12654002582819
 73
     0
 72
     2
 10
42.28306637059723
 20
17.49127702227361
 40
0.8465472241575628
 50
76.12654002618498
 51
81.63116057554224
 73
     0
 72
     2
 10
42.33161486957032
 20
17.16126540231835
 40
0.5129836978870052
 50
81.63116057550723
 51
91.02996271589633
 73
     0
 72
     2
 10
42.33830365687026
 20
17.53331576295932
 40
0.8850941797720782
 50
91.02996271692857
 51
96.30891399363996
 73
     0
 72
     2
 10
42.29594996693049
 20
17.15022728139593
 40
0.4996715289612883
 50
96.3089139918245
 51
105.9333854048824
 73
     0
 72
     2
 10
42.40872277829112
 20
17.54524557767036
 40
0.910472163544234
 50
105.9333854055906
 51
111.0984299589442
 73
     0
 72
     2
 10
42.27890049466805
 20
17.20877581387958
 40
0.5498259001912929
 50
111.098429961057
 51
120.1386895999534
 73
     0
 72
     2
 10
42.44915035035956
 20
17.50201567262684
 40
0.8889049884892983
 50
120.1386895963204
 51
125.5982098478216
 73
     0
 72
     2
 10
42.20327979250578
 20
17.15856464069748
 40
0.4665177934269586
 50
125.598209849524
 51
136.2123385370203
 73
     0
 72
     2
 10
42.46577692794017
 20
17.4101818530944
 40
0.8301329301930641
 50
136.2123385378235
 51
141.969816133302
 73
     0
 72
     2
 10
42.19874563200938
 20
17.2013275037425
 40
0.491125773557944
 50
141.9698161322806
 51
152.2301834323501
 73
     0
 72
     2
 10
42.78736443151865
 20
17.51127481819821
 40
1.15636214423694
 50
152.2301834309291
 51
156.3854339260553
 73
     0
 72
     2
 10
42.17433807909765
 20
17.24326457548613
 40
0.4873099796329931
 50
156.3854339282566
 51
166.3977727391948
 73
     0
 72
     2
 10
42.63678395706665
 20
17.35516103671762
 40
0.9631009085995231
 50
166.3977727367311
 51
171.2006316839813
 73
     0
 72
     2
 10
42.15350222164852
 20
17.28035052707491
 40
0.4740632330143321
 50
171.2006316874938
 51
181.338610312109
 73
     0
 97
        0
 92
        1
 93
       19
 72
     1
 10
15.12946426691633
 20
15.54093185707097
 11
16.41380463795576
 21
16.03441252238553
 72
     2
 10
39.87617871524708
 20
-47.64703640625976
 40
67.86611772449055
 50
249.7745166135134
 51
260.5495897564042
 73
     0
 72
     2
 10
35.66646024882721
 20
-18.69563480305624
 40
38.6211094680334
 50
259.6578610575425
 51
267.4273284132838
 73
     0
 72
     2
 10
37.40029999604303
 20
-23.76496851896354
 40
43.78901479090965
 50
265.4583141643377
 51
268.4091975583087
 73
     0
 72
     1
 10
36.18466556883868
 20
20.00716930063481
 11
36.45535280698459
 21
20.00716930063481
 72
     2
 10
36.72682307834839
 20
0.4670386177722321
 40
19.54201635480796
 50
269.2040431837891
 51
283.7720513286934
 73
     0
 72
     2
 10
40.27620063651193
 20
14.94800538499112
 40
4.632406045893774
 50
283.7720513287101
 51
311.2723931711006
 73
     0
 72
     2
 10
42.23842299136594
 20
17.24247171871229
 40
1.614031955803679
 50
312.6480855465199
 51
352.6123080145646
 73
     0
 72
     2
 10
41.51353925601142
 20
17.14931380313464
 40
2.344876919528385
 50
352.632413121623
 51
392.2822653768837
 73
     0
 72
     1
 10
43.49596195983394
 20
15.89693686662394
 11
43.45405311580179
 21
15.82579963983062
 72
     2
 10
37.33864578725843
 20
19.44860063322266
 40
7.107945823634586
 50
30.64273409883413
 51
42.30014504654144
 73
     0
 72
     2
 10
36.89755235897246
 20
19.84996681239408
 40
7.70431670006944
 50
42.30014504645217
 51
54.82383979640559
 73
     0
 72
     1
 10
41.33594962647111
 20
13.55257643932418
 11
41.56868191465764
 21
13.89160887634079
 72
     2
 10
39.98243405929679
 20
14.92944419946707
 40
1.895596058385203
 50
326.8044560981567
 51
417.9969946355087
 73
     1
 72
     1
 10
40.98703124843814
 20
16.53694813542915
 11
40.94205296602376
 21
16.56519547730113
 72
     2
 10
35.54755430411024
 20
7.431318230073884
 40
10.60793709355417
 50
59.43375811220651
 51
88.61950885299849
 73
     1
 72
     2
 10
31.98900854231033
 20
-27.47780124182009
 40
45.67351084773087
 50
85.20975748649048
 51
96.91649783986203
 73
     1
 72
     2
 10
33.15555293207945
 20
-39.10690885310942
 40
57.35898046328561
 50
96.67441084143236
 51
100.4942552132856
 73
     1
 72
     2
 10
33.77843342281631
 20
-47.87413997648946
 40
66.10034331403501
 50
99.64096743201158
 51
106.3874426286439
 73
     1
 97
        0
 92
       32
 93
       23
 72
     1
 10
42.28195121594763
 20
17.50878559338253
 11
42.17372090791832
 21
17.50878559338253
 72
     1
 10
42.31733413792972
 20
17.50808313017842
 11
42.28171812312575
 21
17.50878789937542
 72
     1
 10
42.34625047035661
 20
17.50599661048909
 11
42.31672567504574
 21
17.508110918081
 72
     1
 10
42.36877359812206
 20
17.50257366381447
 11
42.3453400223043
 21
17.5060975098022
 72
     1
 10
42.38464427970393
 20
17.49795888764674
 11
42.36730192338291
 21
17.50289227202938
 72
     1
 10
42.39636298267214
 20
17.4922648519514
 11
42.38284651627691
 21
17.49863294505758
 72
     1
 10
42.40688658917861
 20
17.48523803853186
 11
42.3949306831455
 21
17.4930660106902
 72
     1
 10
42.41588584080091
 20
17.47702132869562
 11
42.40549049513719
 21
17.48630917990613
 72
     1
 10
42.42346895555601
 20
17.4675778918172
 11
42.41463417025807
 21
17.47832562207895
 72
     1
 10
42.42949074747594
 20
17.45718369430142
 11
42.42244305550411
 21
17.46903891901638
 72
     1
 10
42.43371006579764
 20
17.4462257732448
 11
42.42867600009776
 21
17.45883610781493
 72
     1
 10
42.4361806403067
 20
17.43463138765764
 11
42.43316020088605
 21
17.44799683208112
 72
     1
 10
42.43692748852845
 20
17.42226996860518
 11
42.4359206753943
 21
17.43639052288472
 72
     1
 10
42.43486402768394
 20
17.40280513129983
 11
42.43695316494995
 21
17.4242502511679
 72
     1
 10
42.42912103309936
 20
17.38608352650044
 11
42.43538844489012
 21
17.4053136574621
 72
     1
 10
42.41983652906855
 20
17.37158155052293
 11
42.43028221538771
 21
17.38859669257726
 72
     1
 10
42.40687253606302
 20
17.3588983224663
 11
42.42149649691055
 21
17.37369847561422
 72
     1
 10
42.38891576385504
 20
17.34879078409358
 11
42.40927855960035
 21
17.36077186045077
 72
     1
 10
42.36374615464955
 20
17.34133385231507
 11
42.39140834565114
 21
17.34989176399995
 72
     1
 10
42.33055469330793
 20
17.33660038761081
 11
42.36551627957306
 21
17.34173513462065
 72
     1
 10
42.28952894477333
 20
17.33500420360451
 11
42.331789926302
 21
17.33671578594021
 72
     1
 10
42.17372090791832
 20
17.33501385443742
 11
42.29000572105724
 21
17.33501385443742
 72
     1
 10
42.17372090791832
 20
17.50878559338253
 11
42.17372090791832
 21
17.33501385443742
 97
        0
 75
     0
 76
     1
 98
        1
 10
-24208.14909422236
 20
-7577.653718612352
450
        0
451
        0
460
0.0
461
0.0
452
        1
462
1.0
453
        2
463
0.0
 63
     5
421
      255
463
1.0
 63
     7
421
 16777215
470
LINEAR
1001
ACAD
1010
0.0
1020
0.0
1030
0.0
  0
LWPOLYLINE
  5
133D
330
12E5
100
AcDbEntity
  8
Logo kleur 2
100
AcDbPolyline
 90
       20
 70
     0
 43
0.0
 10
15.12946426691633
 20
15.54093185707097
 10
16.41380463795576
 20
16.03441252238553
 42
-0.0470497976181366
 10
28.73297552359509
 20
19.29800790341232
 42
-0.0339136894674378
 10
33.93289369493869
 20
19.88654817749921
 42
-0.0128763693338392
 10
36.18466556883868
 20
20.00716930063481
 10
36.45535280698459
 20
20.00716930063481
 42
-0.0636506768491416
 10
41.37898989249879
 20
19.4472321664407
 42
-0.1205721113063184
 10
43.33191915268616
 20
18.42963864022476
 42
-0.1761660225902828
 10
43.83905655603666
 20
17.4500080914413
 42
-0.174752094611255
 10
43.49596195983394
 20
15.89693686662394
 10
43.45405311580179
 20
15.82579963983062
 42
-0.0509089631945701
 10
42.59589142960613
 20
14.66485083962561
 42
-0.0546993831769835
 10
41.33594962647111
 20
13.55257643932418
 10
41.56868191465764
 20
13.89160887634079
 42
0.4203229839406076
 10
40.98703124843814
 20
16.53694813542915
 10
40.94205296602376
 20
16.56519547730113
 42
0.1280397605338512
 10
35.8031184403153
 20
18.03617637872776
 42
0.0511247635419963
 10
26.48888150370112
 20
17.8633301480886
 42
0.0166687588344484
 10
22.70836385868097
 20
17.29263795581664
 42
0.0294455570135939
 10
15.12946426691633
 20
15.54093185707097
 42
5.989316349484226
  0
LWPOLYLINE
  5
133E
330
12E5
100
AcDbEntity
  8
Logo kleur 3
100
AcDbPolyline
 90
       47
 70
     1
 43
0.0
 10
41.67956836340453
 20
17.29142513342776
 42
-0.065700921455462
 10
41.70121500448295
 20
17.45572862910103
 42
-0.0321815553867718
 10
41.72822086798987
 20
17.53546909503075
 42
-0.0300111572589982
 10
41.76583522411601
 20
17.61315954909878
 42
-0.0333418887247752
 10
41.8132847685265
 20
17.68597051572851
 42
-0.0374427926300854
 10
41.86964963256468
 20
17.75035684304566
 42
-0.0352669834387673
 10
41.93432497804315
 20
17.80554076742282
 42
-0.0363755250802366
 10
42.00755908598876
 20
17.85177698902771
 42
-0.026185752198013
 10
42.08425572065607
 20
17.88770386147826
 42
-0.033265858371864
 10
42.16296885885822
 20
17.91371922071539
 42
-0.0296261322476556
 10
42.24223430973871
 20
17.92924845338894
 42
-0.0349099178780194
 10
42.32321843152749
 20
17.93447409989767
 42
-0.0295503197621613
 10
42.40344873401045
 20
17.92929709494001
 42
-0.0349857565632229
 10
42.48345547226927
 20
17.91362263349219
 42
-0.027906813091751
 10
42.5614512337961
 20
17.88784437332651
 42
-0.0315442495732338
 10
42.63883220626667
 20
17.85159693769674
 42
-0.0310979760051271
 10
42.71141198472105
 20
17.80575707762
 42
-0.0407703919017135
 10
42.77659886683614
 20
17.75006762203975
 42
-0.032224940805417
 10
42.83234968646866
 20
17.68623080566885
 42
-0.0388692385646368
 10
42.88003976412437
 20
17.61276230765725
 42
-0.0245549432752417
 10
42.91713648158475
 20
17.53576169538883
 42
-0.0374218048229636
 10
42.94424578930557
 20
17.4553195218823
 42
-0.0273416767245825
 10
42.96024964248499
 20
17.37453439501405
 42
-0.0381531706347203
 10
42.96568193914573
 20
17.29060272232436
 42
-0.0263440057643865
 10
42.96043383896903
 20
17.20911212153623
 42
-0.0387942303238843
 10
42.9443484624353
 20
17.12747277328617
 42
-0.025594330019612
 10
42.91815524747653
 20
17.04928800100879
 42
-0.0360234165930617
 10
42.88089678301548
 20
16.97145445357
 42
-0.0269677734366174
 10
42.83473469863383
 20
16.8998136388218
 42
-0.0432689671445317
 10
42.77858870947238
 20
16.83486096700107
 42
-0.0284864530398886
 10
42.71534145532496
 20
16.77999556049326
 42
-0.0419064281232217
 10
42.64211243087629
 20
16.73266131276068
 42
-0.0214726326622938
 10
42.56625649413035
 20
16.69628702019963
 42
-0.0405351781973485
 10
42.4860500844079
 20
16.66942556692629
 42
-0.0240230578593493
 10
42.40627707502426
 20
16.65374414229609
 42
-0.0410330167491504
 10
42.32239384785134
 20
16.64836458631544
 42
-0.0230378446297574
 10
42.24104158790578
 20
16.65358182760883
 42
-0.0420193827718045
 10
42.15878035634887
 20
16.66975237592487
 42
-0.0225405746567563
 10
42.08097898201595
 20
16.69580837305057
 42
-0.0394660452148286
 10
42.00283575514186
 20
16.73327946256722
 42
-0.0238261580475534
 10
41.93172092076565
 20
16.77923018304409
 42
-0.0463460135258461
 10
41.86649627604128
 20
16.83574005269111
 42
-0.02512702128601
 10
41.81189258419908
 20
16.89875644621588
 42
-0.0447992321809183
 10
41.76418451059726
 20
16.97250189938404
 42
-0.0181326875127313
 10
41.72783498841818
 20
17.04805697762276
 42
-0.0437148838852145
 10
41.70069623840754
 20
17.12865906515708
 42
-0.0209594938971189
 10
41.6850186806223
 20
17.2078307319598
 42
-0.0442641518271916
  0
LWPOLYLINE
  5
133F
330
12E5
100
AcDbEntity
  8
Logo kleur 3
100
AcDbPolyline
 90
       49
 70
     0
 43
0.0
 10
41.81559536980785
 20
17.29101401579828
 10
41.81987432565074
 20
17.35643169952527
 10
41.83271119317578
 20
17.42059086682911
 10
41.85410597239024
 20
17.4834915177089
 10
41.88405866328321
 20
17.54513365216371
 10
41.92158762305189
 20
17.60262268241968
 10
41.96571120888257
 20
17.65306402069927
 10
42.01642942077524
 20
17.69645766700432
 10
42.07374225872991
 20
17.732803621333
 10
42.13478030530313
 20
17.76152296613236
 10
42.19667414304786
 20
17.7820367838467
 10
42.25942377195315
 20
17.79434507447422
 10
42.32302919202993
 20
17.79844783801763
 10
42.38630739783547
 20
17.79434507447422
 10
42.44888083444675
 20
17.7820367838467
 10
42.51074950186011
 20
17.76152296613236
 10
42.57191340007193
 20
17.732803621333
 10
42.62937726000018
 20
17.69645766700432
 10
42.68014581254829
 20
17.65306402069927
 10
42.72421905772353
 20
17.60262268241968
 10
42.76159699552226
 20
17.54513365216371
 10
42.79137349411394
 20
17.4834915177089
 10
42.81264242168254
 20
17.42059086682911
 10
42.82540377822442
 20
17.35643169952527
 10
42.8296575637396
 20
17.29101401579828
 10
42.82547928921121
 20
17.22604939798384
 10
42.81294446562606
 20
17.16244397790615
 10
42.79205309298413
 20
17.10019775556793
 10
42.76280517128907
 20
17.03931073096646
 10
42.72600615104602
 20
16.98242578859572
 10
42.68246148276739
 20
16.93218581294241
 10
42.63217116646046
 20
16.88859080401016
 10
42.57513520211432
 20
16.85164076179717
 10
42.51407198521701
 20
16.8222166477999
 10
42.45169991123839
 20
16.80119942351666
 10
42.35552408609874
 20
16.78648736651757
 10
42.32302919202993
 20
16.78438564408952
 10
42.25803940388868
 20
16.78858908894653
 10
42.19435847282148
 20
16.80119942351666
 10
42.13198639884649
 20
16.8222166477999
 10
42.07092318194554
 20
16.85164076179717
 10
42.01386204727168
 20
16.88859080401016
 10
41.96349621997796
 20
16.93218581294241
 10
41.91982570006075
 20
16.98242578859572
 10
41.8828504875164
 20
17.03931073096646
 10
41.85342637352369
 20
17.10019775556793
 10
41.83240914923589
 20
17.16244397790615
 10
41.81979881466395
 20
17.22604939798384
 10
41.81559536980785
 20
17.29101401579828
  0
LWPOLYLINE
  5
1340
330
12E5
100
AcDbEntity
  8
Logo kleur 3
100
AcDbPolyline
 90
       31
 70
     1
 43
0.0
 10
42.04464325455774
 20
16.94335933433831
 10
42.04464325455774
 20
17.62099682910502
 10
42.33463955695697
 20
17.61981670307796
 42
-0.1120733351304972
 10
42.47716972980197
 20
17.59104280495467
 42
-0.1172911153642963
 10
42.52256877821491
 20
17.55610334122411
 42
-0.0402485246238329
 10
42.55364249155536
 20
17.51077013023769
 42
-0.1060692716065897
 10
42.57044972902076
 20
17.45813693922355
 42
-0.0596918606932605
 10
42.56910578660972
 20
17.39563044103397
 42
-0.1246807459374804
 10
42.54133930388343
 20
17.32785398713895
 42
-0.0209629604560482
 10
42.51834285790391
 20
17.29934770651562
 42
-0.0713598568647593
 10
42.48813794186207
 20
17.27351274648117
 42
-0.0274321160596489
 10
42.45517019609906
 20
17.25506123343985
 42
-0.0672388587890957
 10
42.41615818655191
 20
17.24208449231992
 42
-0.0040926410516805
 10
42.41131909875185
 20
17.2412106200054
 42
-0.0290438080076503
 10
42.43113475499922
 20
17.22687102562486
 42
-0.0593828187535171
 10
42.45957577692024
 20
17.19740364204062
 42
0.0100957791307972
 10
42.48233665437874
 20
17.16862951966141
 42
-0.0366815938958596
 10
42.49596976147586
 20
17.14937479270884
 42
0.0261825865893122
 10
42.52165699321267
 20
17.11143220231406
 42
-0.0348959300768784
 10
42.53615915422051
 20
17.08918640990941
 10
42.62695714467191
 20
16.94335933433831
 10
42.47003864791622
 20
16.94335933433831
 10
42.37614501818462
 20
17.10739917771479
 42
0.0429581586502555
 10
42.32222379198356
 20
17.18176855425099
 42
0.0928825524955187
 10
42.28685679126647
 20
17.20992436131564
 42
0.0701230419971424
 10
42.27046736482953
 20
17.21585335279087
 42
0.0118732491407094
 10
42.24821314472865
 20
17.21997996314076
 42
0.0529017260969026
 10
42.22456888988745
 20
17.22125556841183
 42
-0.0256616674620469
 10
42.19264662149362
 20
17.22123976079183
 10
42.17372090791832
 20
17.22123976079183
 10
42.17372090791832
 20
16.94335933433831
  0
HATCH
  5
1341
330
12E5
100
AcDbEntity
  8
Logo kleur 3
100
AcDbHatch
 10
0.0
 20
0.0
 30
0.0
210
0.0
220
0.0
230
1.0
  2
SOLID
 70
     1
 71
     0
 91
        4
 92
        7
 72
     1
 73
     1
 93
       48
 10
42.63883220626667
 20
17.85159693769674
 42
-0.031097976005313
 10
42.71141198472105
 20
17.80575707762
 42
-0.0407703919017135
 10
42.77659886683614
 20
17.75006762203975
 42
-0.032224940805417
 10
42.83234968646866
 20
17.68623080566885
 42
-0.0388692385646368
 10
42.88003976412437
 20
17.61276230765725
 42
-0.0245549432752417
 10
42.91713648158475
 20
17.53576169538883
 42
-0.0374218048229636
 10
42.94424578930557
 20
17.4553195218823
 42
-0.0273416767245825
 10
42.96024964248499
 20
17.37453439501405
 42
-0.0381531706347203
 10
42.96568193914573
 20
17.29060272232436
 42
-0.0263440057643865
 10
42.96043383896903
 20
17.20911212153623
 42
-0.0387942303238843
 10
42.9443484624353
 20
17.12747277328617
 42
-0.025594330019612
 10
42.91815524747653
 20
17.04928800100879
 42
-0.0360234165930617
 10
42.88089678301548
 20
16.97145445357
 42
-0.0269677734366174
 10
42.83473469863383
 20
16.8998136388218
 42
-0.0432689671445317
 10
42.77858870947238
 20
16.83486096700107
 42
-0.0284864530398886
 10
42.71534145532496
 20
16.77999556049326
 42
-0.0419064281232217
 10
42.64211243087629
 20
16.73266131276068
 42
-0.0214726326622938
 10
42.56625649413035
 20
16.69628702019963
 42
-0.0405351781973485
 10
42.4860500844079
 20
16.66942556692629
 42
-0.0240230578593493
 10
42.40627707502426
 20
16.65374414229609
 42
-0.0410330167491504
 10
42.32239384785134
 20
16.64836458631544
 42
-0.0230378446297574
 10
42.24104158790578
 20
16.65358182760883
 42
-0.0420193827718045
 10
42.15878035634887
 20
16.66975237592487
 42
-0.0225405746567563
 10
42.08097898201595
 20
16.69580837305057
 42
-0.0394660452148286
 10
42.00283575514186
 20
16.73327946256722
 42
-0.0238261580475534
 10
41.93172092076565
 20
16.77923018304409
 42
-0.0463460135258461
 10
41.86649627604128
 20
16.83574005269111
 42
-0.02512702128601
 10
41.81189258419908
 20
16.89875644621588
 42
-0.0447992321809183
 10
41.76418451059726
 20
16.97250189938404
 42
-0.0181326875127313
 10
41.72783498841818
 20
17.04805697762276
 42
-0.0437148838852145
 10
41.70069623840754
 20
17.12865906515708
 42
-0.0209594938971189
 10
41.6850186806223
 20
17.2078307319598
 42
-0.0442641518271915
 10
41.67956836340453
 20
17.29142513342776
 42
-0.0657011598330564
 10
41.70121516034487
 20
17.45572920983159
 42
0.0
 10
41.70121500448295
 20
17.45572862910103
 42
-0.0321815553867718
 10
41.72822086798987
 20
17.53546909503075
 42
-0.0300111572589982
 10
41.76583522411601
 20
17.61315954909878
 42
-0.0333418887247752
 10
41.8132847685265
 20
17.68597051572851
 42
-0.0374427926300854
 10
41.86964963256468
 20
17.75035684304566
 42
-0.0352669834387673
 10
41.93432497804315
 20
17.80554076742282
 42
-0.0363755250802366
 10
42.00755908598876
 20
17.85177698902771
 42
-0.026185752198013
 10
42.08425572065607
 20
17.88770386147826
 42
-0.033265858371864
 10
42.16296885885822
 20
17.91371922071539
 42
-0.0296261322476556
 10
42.24223430973871
 20
17.92924845338894
 42
-0.0349099178780194
 10
42.32321843152749
 20
17.93447409989767
 42
-0.0295503197621613
 10
42.40344873401045
 20
17.92929709494001
 42
-0.0349857565632229
 10
42.48345547226927
 20
17.91362263349219
 42
-0.027906813091751
 10
42.5614512337961
 20
17.88784437332651
 42
-0.0315442495730405
 97
        0
 92
       22
 72
     0
 73
     1
 93
       48
 10
41.83240914923589
 20
17.16244397790615
 10
41.81979881466395
 20
17.22604939798384
 10
41.81559536980785
 20
17.29101401579828
 10
41.81987432565074
 20
17.35643169952527
 10
41.83271119317578
 20
17.42059086682911
 10
41.85410597239024
 20
17.4834915177089
 10
41.88405866328321
 20
17.54513365216371
 10
41.92158762305189
 20
17.60262268241968
 10
41.96571120888257
 20
17.65306402069927
 10
42.01642942077524
 20
17.69645766700432
 10
42.07374225872991
 20
17.732803621333
 10
42.13478030530313
 20
17.76152296613236
 10
42.19667414304786
 20
17.7820367838467
 10
42.25942377195315
 20
17.79434507447422
 10
42.32302919202993
 20
17.79844783801763
 10
42.38630739783547
 20
17.79434507447422
 10
42.44888083444675
 20
17.7820367838467
 10
42.51074950186011
 20
17.76152296613236
 10
42.57191340007193
 20
17.732803621333
 10
42.62937726000018
 20
17.69645766700432
 10
42.68014581254829
 20
17.65306402069927
 10
42.72421905772353
 20
17.60262268241968
 10
42.76159699552226
 20
17.54513365216371
 10
42.79137349411394
 20
17.4834915177089
 10
42.81264242168254
 20
17.42059086682911
 10
42.82540377822442
 20
17.35643169952527
 10
42.8296575637396
 20
17.29101401579828
 10
42.82547928921121
 20
17.22604939798384
 10
42.81294446562606
 20
17.16244397790615
 10
42.79205309298413
 20
17.10019775556793
 10
42.76280517128907
 20
17.03931073096646
 10
42.72600615104602
 20
16.98242578859572
 10
42.68246148276739
 20
16.93218581294241
 10
42.63217116646046
 20
16.88859080401016
 10
42.57513520211432
 20
16.85164076179717
 10
42.51407198521701
 20
16.8222166477999
 10
42.45169991123839
 20
16.80119942351666
 10
42.35552408609874
 20
16.78648736651757
 10
42.32302919202993
 20
16.78438564408952
 10
42.25803940388868
 20
16.78858908894653
 10
42.19435847282148
 20
16.80119942351666
 10
42.13198639884649
 20
16.8222166477999
 10
42.07092318194554
 20
16.85164076179717
 10
42.01386204727168
 20
16.88859080401016
 10
41.96349621997796
 20
16.93218581294241
 10
41.91982570006075
 20
16.98242578859572
 10
41.8828504875164
 20
17.03931073096646
 10
41.85342637352369
 20
17.10019775556793
 97
        0
 92
        6
 72
     1
 73
     1
 93
       31
 10
42.04464325455774
 20
17.62099682910502
 42
0.0
 10
42.33463955695697
 20
17.61981670307796
 42
-0.1120733351304972
 10
42.47716972980197
 20
17.59104280495467
 42
-0.1172911153642963
 10
42.52256877821491
 20
17.55610334122411
 42
-0.0402485246238329
 10
42.55364249155536
 20
17.51077013023769
 42
-0.1060692716065897
 10
42.57044972902076
 20
17.45813693922355
 42
-0.0596918606932605
 10
42.56910578660972
 20
17.39563044103397
 42
-0.1246807459374804
 10
42.54133930388343
 20
17.32785398713895
 42
-0.0209629604560482
 10
42.51834285790391
 20
17.29934770651562
 42
-0.0713598568647593
 10
42.48813794186207
 20
17.27351274648117
 42
-0.0274321160596489
 10
42.45517019609906
 20
17.25506123343985
 42
-0.0672388587890957
 10
42.41615818655191
 20
17.24208449231992
 42
-0.0040926410516805
 10
42.41131909875185
 20
17.2412106200054
 42
-0.0290438080076503
 10
42.43113475499922
 20
17.22687102562486
 42
-0.0593828187535171
 10
42.45957577692024
 20
17.19740364204062
 42
0.0100957791307972
 10
42.48233665437874
 20
17.16862951966141
 42
-0.0366815938958596
 10
42.49596976147586
 20
17.14937479270884
 42
0.0261825865893122
 10
42.52165699321267
 20
17.11143220231406
 42
-0.0348959300768784
 10
42.53615915422051
 20
17.08918640990941
 42
0.0
 10
42.62695714467191
 20
16.94335933433831
 42
0.0
 10
42.47003864791622
 20
16.94335933433831
 42
0.0
 10
42.37614501818462
 20
17.10739917771479
 42
0.0429581586502555
 10
42.32222379198356
 20
17.18176855425099
 42
0.0928825524955187
 10
42.28685679126647
 20
17.20992436131564
 42
0.0701230419971424
 10
42.27046736482953
 20
17.21585335279087
 42
0.0118732491407094
 10
42.24821314472865
 20
17.21997996314076
 42
0.0529017260969026
 10
42.22456888988745
 20
17.22125556841183
 42
-0.0256616674620469
 10
42.19264662149362
 20
17.22123976079183
 42
0.0
 10
42.17372090791832
 20
17.22123976079183
 42
0.0
 10
42.17372090791832
 20
16.94335933433831
 42
0.0
 10
42.04464325455774
 20
16.94335933433831
 42
0.0
 97
        0
 92
        6
 72
     0
 73
     1
 93
       23
 10
42.17372090791832
 20
17.33501385443742
 10
42.17372090791832
 20
17.50878559338253
 10
42.28183465812617
 20
17.50878559338253
 10
42.31702954722277
 20
17.50808915741436
 10
42.34579328364634
 20
17.50602935020288
 10
42.36802756002362
 20
17.50268584999594
 10
42.38371784512492
 20
17.49822243072049
 10
42.39561886580486
 20
17.49261543215107
 10
42.40614843527146
 20
17.48572133508969
 10
42.4152098271661
 20
17.47762532151046
 10
42.42290050055453
 20
17.46826943108772
 10
42.42901857721517
 20
17.45797795213184
 10
42.43336522549362
 20
17.44708959820491
 10
42.43598409106925
 20
17.43550111803506
 10
42.43685681301212
 20
17.42326119272911
 10
42.43498900998019
 20
17.40408808207758
 10
42.42955296059881
 20
17.38740879803208
 10
42.42054487835775
 20
17.37273539177567
 10
42.40795328962121
 20
17.35999209715282
 10
42.39009796593745
 20
17.34948636899935
 10
42.36461571624022
 20
17.34160287045961
 10
42.33116926775983
 20
17.33669064908463
 10
42.28976723524101
 20
17.33501385443742
 97
        0
 75
     0
 76
     1
 47
0.0435754136027721
 98
        4
 10
41.76600982777017
 20
17.14210222136353
 10
41.76600982777017
 20
17.14210222136353
 10
41.76600982777017
 20
17.14210222136353
 10
41.76600982777017
 20
17.14210222136353
450
        0
451
        0
460
0.0
461
0.0
452
        1
462
1.0
453
        2
463
0.0
 63
     5
421
      255
463
1.0
 63
     7
421
 16777215
470
LINEAR
1001
ACAD
1010
0.0
1020
0.0
1030
0.0
  0
HATCH
  5
1342
330
12E5
100
AcDbEntity
  8
Logo kleur 2
100
AcDbHatch
 10
0.0
 20
0.0
 30
0.0
210
0.0
220
0.0
230
1.0
  2
SOLID
 70
     1
 71
     0
 91
        1
 92
        7
 72
     0
 73
     1
 93
       23
 10
42.42955296060609
 20
17.38740879803481
 10
42.43498900998019
 20
17.40408808207121
 10
42.43685681301212
 20
17.42326119269182
 10
42.43598409108017
 20
17.43550111800778
 10
42.43336522549725
 20
17.44708959821309
 10
42.42901857722245
 20
17.45797795211365
 10
42.42290050055453
 20
17.46826943106225
 10
42.41520982716974
 20
17.47762532149227
 10
42.40614843528601
 20
17.48572133509515
 10
42.39561886579031
 20
17.49261543216744
 10
42.38371784512128
 20
17.49822243072685
 10
42.3680275600127
 20
17.50268584999867
 10
42.3457932836427
 20
17.5060293502047
 10
42.31702954719731
 20
17.50808915741527
 10
42.28183465810434
 20
17.50878559338253
 10
42.17372090791468
 20
17.50878559338253
 10
42.17372090792196
 20
17.33501385443651
 10
42.28976723516825
 20
17.33501385443651
 10
42.33116926774892
 20
17.33669064908281
 10
42.36461571624386
 20
17.34160287046143
 10
42.39009796594473
 20
17.34948636900571
 10
42.40795328961394
 20
17.35999209714646
 10
42.42054487836139
 20
17.37273539177931
 97
        0
 75
     0
 76
     1
 47
0.0071992604671628
 98
        1
 10
42.34003910787578
 20
17.38258484542984
450
        0
451
        0
460
0.0
461
0.0
452
        1
462
1.0
453
        2
463
0.0
 63
     5
421
      255
463
1.0
 63
     7
421
 16777215
470
LINEAR
1001
ACAD
1010
0.0
1020
0.0
1030
0.0
  0
HATCH
  5
1343
330
12E5
100
AcDbEntity
  8
Logo kleur 2
100
AcDbHatch
 10
0.0
 20
0.0
 30
0.0
210
0.0
220
0.0
230
1.0
  2
SOLID
 70
     1
 71
     0
 91
        3
 92
        7
 72
     0
 73
     1
 93
       48
 10
42.72600615105694
 20
16.98242578859845
 10
42.76280517128907
 20
17.03931073096464
 10
42.79205309297322
 20
17.10019775558976
 10
42.81294446561514
 20
17.16244397788523
 10
42.82547928921121
 20
17.22604939797747
 10
42.82965756374323
 20
17.29101401578646
 10
42.82540377823534
 20
17.35643169951709
 10
42.81264242167162
 20
17.42059086684367
 10
42.79137349412121
 20
17.48349151770708
 10
42.76159699551135
 20
17.54513365215825
 10
42.72421905768351
 20
17.60262268243059
 10
42.68014581257375
 20
17.65306402068381
 10
42.62937726000018
 20
17.69645766700978
 10
42.57191340007921
 20
17.73280362134028
 10
42.51074950186011
 20
17.76152296613236
 10
42.44888083444311
 20
17.78203678385125
 10
42.38630739783184
 20
17.79434507447422
 10
42.3230291920372
 20
17.79844783801763
 10
42.25942377194951
 20
17.7943450744724
 10
42.19667414305513
 20
17.78203678384943
 10
42.13478030530677
 20
17.76152296613418
 10
42.07374225872263
 20
17.73280362133118
 10
42.01642942077888
 20
17.69645766701251
 10
41.96571120885709
 20
17.65306402067563
 10
41.92158762304461
 20
17.60262268241331
 10
41.88405866328685
 20
17.54513365217735
 10
41.85410597239024
 20
17.48349151770071
 10
41.83271119318305
 20
17.42059086684639
 10
41.81987432565074
 20
17.35643169950708
 10
41.81559536981149
 20
17.29101401580556
 10
41.81979881466759
 20
17.22604939798839
 10
41.83240914923954
 20
17.16244397790524
 10
41.85342637354188
 20
17.10019775558885
 10
41.88285048752004
 20
17.03931073096737
 10
41.91982570006075
 20
16.9824257885748
 10
41.96349621996342
 20
16.93218581293513
 10
42.01386204727168
 20
16.8885908040038
 10
42.07092318194918
 20
16.85164076179717
 10
42.13198639882103
 20
16.82221664780536
 10
42.19435847282148
 20
16.80119942351575
 10
42.25803940388141
 20
16.78858908894653
 10
42.3230291920263
 20
16.78438564409043
 10
42.35552408609874
 20
16.78648736651848
 10
42.45169991123839
 20
16.80119942351575
 10
42.51407198521337
 20
16.82221664779899
 10
42.57513520210705
 20
16.85164076179262
 10
42.6321711664641
 20
16.8885908040138
 10
42.68246148277467
 20
16.93218581295059
 97
        0
 92
       22
 72
     1
 73
     1
 93
       31
 10
42.37614501818462
 20
17.10739917771479
 42
0.0429581586502555
 10
42.32222379198356
 20
17.18176855425099
 42
0.0928825524955187
 10
42.28685679126647
 20
17.20992436131564
 42
0.0701230419971423
 10
42.27046736482953
 20
17.21585335279087
 42
0.0118732491407094
 10
42.24821314472865
 20
17.21997996314076
 42
0.0529017260969026
 10
42.22456888988745
 20
17.22125556841183
 42
-0.0256616674620469
 10
42.19264662149362
 20
17.22123976079183
 42
0.0
 10
42.17372090791832
 20
17.22123976079092
 42
0.0
 10
42.17372090791832
 20
16.94335933433922
 42
0.0
 10
42.04464325456138
 20
16.94335933433922
 42
0.0
 10
42.04464325455774
 20
17.6209968291032
 42
0.0
 10
42.33463955695697
 20
17.61981670307796
 42
-0.1120733351304972
 10
42.47716972980197
 20
17.59104280495467
 42
-0.1172911153642963
 10
42.52256877821491
 20
17.55610334122411
 42
-0.0402485246238329
 10
42.55364249155536
 20
17.51077013023769
 42
-0.1060692716065897
 10
42.57044972902076
 20
17.45813693922355
 42
-0.0596918606932605
 10
42.56910578660972
 20
17.39563044103397
 42
-0.1246807459374804
 10
42.54133930388343
 20
17.32785398713895
 42
-0.0209625236091545
 10
42.51834336160027
 20
17.29934827995293
 42
-0.0713612271739975
 10
42.48813794186207
 20
17.27351274648117
 42
-0.0274321160596489
 10
42.45517019609906
 20
17.25506123343985
 42
-0.0672388587890957
 10
42.41615818655191
 20
17.24208449231992
 42
-0.0040926410516805
 10
42.41131909875185
 20
17.2412106200054
 42
-0.0290419096561415
 10
42.43113351639112
 20
17.22687203647001
 42
-0.0593851369109125
 10
42.45957577692024
 20
17.19740364204062
 42
0.0100957791307972
 10
42.48233665437874
 20
17.16862951966141
 42
-0.0366815938958596
 10
42.49596976147586
 20
17.14937479270884
 42
0.0261825865893122
 10
42.52165699321267
 20
17.11143220231406
 42
-0.0348959300768784
 10
42.53615915422051
 20
17.08918640990941
 42
0.0
 10
42.62695714467554
 20
16.94335933433831
 42
0.0
 10
42.47003864791622
 20
16.94335933433922
 42
0.0
 97
        0
 92
        6
 72
     0
 73
     1
 93
       23
 10
42.28976723518644
 20
17.33501385443742
 10
42.17372090791468
 20
17.33501385443651
 10
42.17372090791832
 20
17.50878559338161
 10
42.28183465804977
 20
17.50878559338253
 10
42.31702954719731
 20
17.50808915741618
 10
42.34579328367181
 20
17.50602935020015
 10
42.36802756005272
 20
17.50268584999048
 10
42.38371784513947
 20
17.49822243071503
 10
42.39561886580122
 20
17.49261543214743
 10
42.4061484352569
 20
17.48572133510515
 10
42.41520982714064
 20
17.47762532151864
 10
42.42290050053997
 20
17.46826943109408
 10
42.42901857721881
 20
17.45797795214912
 10
42.43336522548633
 20
17.44708959822856
 10
42.43598409107289
 20
17.43550111808326
 10
42.43685681301212
 20
17.42326119274276
 10
42.43498900997656
 20
17.40408808204938
 10
42.42955296060972
 20
17.38740879804936
 10
42.42054487836504
 20
17.37273539178477
 10
42.40795328962121
 20
17.3599920971501
 10
42.3900979659411
 20
17.3494863690039
 10
42.36461571622931
 20
17.34160287045688
 10
42.33116926774528
 20
17.33669064908372
 97
        0
 75
     0
 76
     1
 47
0.0071992604671628
 98
        3
 10
42.34724715183256
 20
16.97942629592853
 10
42.34724715183256
 20
16.97942629592853
 10
42.34724715183256
 20
16.97942629592853
450
        0
451
        0
460
0.0
461
0.0
452
        1
462
1.0
453
        2
463
0.0
 63
     5
421
      255
463
1.0
 63
     7
421
 16777215
470
LINEAR
1001
ACAD
1010
0.0
1020
0.0
1030
0.0
  0
LINE
  5
1344
330
12E5
100
AcDbEntity
  8
Logo kleur 3
100
AcDbLine
 10
42.17372090791832
 20
17.50878559338253
 30
0.0
 11
42.17372090791832
 21
17.33501385443742
 31
0.0
  0
LINE
  5
1345
330
12E5
100
AcDbEntity
  8
Logo kleur 3
100
AcDbLine
 10
42.17372090791832
 20
17.33501385443742
 30
0.0
 11
42.29000572105724
 21
17.33501385443742
 31
0.0
  0
LINE
  5
1346
330
12E5
100
AcDbEntity
  8
Logo kleur 3
100
AcDbLine
 10
42.28952894477333
 20
17.33500420360451
 30
0.0
 11
42.331789926302
 21
17.33671578594021
 31
0.0
  0
LINE
  5
1347
330
12E5
100
AcDbEntity
  8
Logo kleur 3
100
AcDbLine
 10
42.33055469330793
 20
17.33660038761081
 30
0.0
 11
42.36551627957306
 21
17.34173513462065
 31
0.0
  0
LINE
  5
1348
330
12E5
100
AcDbEntity
  8
Logo kleur 3
100
AcDbLine
 10
42.36374615464955
 20
17.34133385231507
 30
0.0
 11
42.39140834565114
 21
17.34989176399995
 31
0.0
  0
LINE
  5
1349
330
12E5
100
AcDbEntity
  8
Logo kleur 3
100
AcDbLine
 10
42.38891576385504
 20
17.34879078409358
 30
0.0
 11
42.40927855960035
 21
17.36077186045077
 31
0.0
  0
LINE
  5
134A
330
12E5
100
AcDbEntity
  8
Logo kleur 3
100
AcDbLine
 10
42.40687253606302
 20
17.3588983224663
 30
0.0
 11
42.42149649691055
 21
17.37369847561422
 31
0.0
  0
LINE
  5
134B
330
12E5
100
AcDbEntity
  8
Logo kleur 3
100
AcDbLine
 10
42.41983652906855
 20
17.37158155052293
 30
0.0
 11
42.43028221538771
 21
17.38859669257726
 31
0.0
  0
LINE
  5
134C
330
12E5
100
AcDbEntity
  8
Logo kleur 3
100
AcDbLine
 10
42.42912103309936
 20
17.38608352650044
 30
0.0
 11
42.43538844489012
 21
17.4053136574621
 31
0.0
  0
LINE
  5
134D
330
12E5
100
AcDbEntity
  8
Logo kleur 3
100
AcDbLine
 10
42.43486402768394
 20
17.40280513129983
 30
0.0
 11
42.43695316494995
 21
17.4242502511679
 31
0.0
  0
LINE
  5
134E
330
12E5
100
AcDbEntity
  8
Logo kleur 3
100
AcDbLine
 10
42.43692748852845
 20
17.42226996860518
 30
0.0
 11
42.4359206753943
 21
17.43639052288472
 31
0.0
  0
LINE
  5
134F
330
12E5
100
AcDbEntity
  8
Logo kleur 3
100
AcDbLine
 10
42.4361806403067
 20
17.43463138765764
 30
0.0
 11
42.43316020088605
 21
17.44799683208112
 31
0.0
  0
LINE
  5
1350
330
12E5
100
AcDbEntity
  8
Logo kleur 3
100
AcDbLine
 10
42.43371006579764
 20
17.4462257732448
 30
0.0
 11
42.42867600009776
 21
17.45883610781493
 31
0.0
  0
LINE
  5
1351
330
12E5
100
AcDbEntity
  8
Logo kleur 3
100
AcDbLine
 10
42.42949074747594
 20
17.45718369430142
 30
0.0
 11
42.42244305550411
 21
17.46903891901638
 31
0.0
  0
LINE
  5
1352
330
12E5
100
AcDbEntity
  8
Logo kleur 3
100
AcDbLine
 10
42.42346895555601
 20
17.4675778918172
 30
0.0
 11
42.41463417025807
 21
17.47832562207895
 31
0.0
  0
LINE
  5
1353
330
12E5
100
AcDbEntity
  8
Logo kleur 3
100
AcDbLine
 10
42.41588584080091
 20
17.47702132869562
 30
0.0
 11
42.40549049513719
 21
17.48630917990613
 31
0.0
  0
LINE
  5
1354
330
12E5
100
AcDbEntity
  8
Logo kleur 3
100
AcDbLine
 10
42.40688658917861
 20
17.48523803853186
 30
0.0
 11
42.3949306831455
 21
17.4930660106902
 31
0.0
  0
LINE
  5
1355
330
12E5
100
AcDbEntity
  8
Logo kleur 3
100
AcDbLine
 10
42.39636298267214
 20
17.4922648519514
 30
0.0
 11
42.38284651627691
 21
17.49863294505758
 31
0.0
  0
LINE
  5
1356
330
12E5
100
AcDbEntity
  8
Logo kleur 3
100
AcDbLine
 10
42.38464427970393
 20
17.49795888764674
 30
0.0
 11
42.36730192338291
 21
17.50289227202938
 31
0.0
  0
LINE
  5
1357
330
12E5
100
AcDbEntity
  8
Logo kleur 3
100
AcDbLine
 10
42.36877359812206
 20
17.50257366381447
 30
0.0
 11
42.3453400223043
 21
17.5060975098022
 31
0.0
  0
LINE
  5
1358
330
12E5
100
AcDbEntity
  8
Logo kleur 3
100
AcDbLine
 10
42.34625047035661
 20
17.50599661048909
 30
0.0
 11
42.31672567504574
 21
17.508110918081
 31
0.0
  0
LINE
  5
1359
330
12E5
100
AcDbEntity
  8
Logo kleur 3
100
AcDbLine
 10
42.31733413792972
 20
17.50808313017842
 30
0.0
 11
42.28171812312575
 21
17.50878789937542
 31
0.0
  0
LINE
  5
135A
330
12E5
100
AcDbEntity
  8
Logo kleur 3
100
AcDbLine
 10
42.28195121594763
 20
17.50878559338253
 30
0.0
 11
42.17372090791832
 21
17.50878559338253
 31
0.0
  0
ENDBLK
  5
135B
330
12E5
100
AcDbEntity
  8
0
100
AcDbBlockEnd
  0
BLOCK
  5
135D
330
135C
100
AcDbEntity
  8
0
100
AcDbBlockBegin
  2
Kader Keralit Landscape
 70
     2
 10
0.0
 20
0.0
 30
0.0
  3
Kader Keralit Landscape
  1

  0
LWPOLYLINE
  5
1D92
330
135C
100
AcDbEntity
  8
0
100
AcDbPolyline
 90
        4
 70
     1
 43
0.0
 10
277.0
 20
190.0
 10
0.0
 20
190.0
 10
0.0
 20
0.0
 10
277.0
 20
0.0
  0
LINE
  5
1D93
330
135C
100
AcDbEntity
  8
0
100
AcDbLine
 10
0.0
 20
24.55133687386024
 30
0.0
 11
277.0
 21
24.55133687386024
 31
0.0
  0
LINE
  5
1D94
330
135C
100
AcDbEntity
  8
0
100
AcDbLine
 10
229.4238296289368
 20
24.55133687386024
 30
0.0
 11
229.4238296289368
 21
0.0
 31
0.0
  0
LINE
  5
1D95
330
135C
100
AcDbEntity
  8
0
100
AcDbLine
 10
0.0
 20
7.945785975696708
 30
0.0
 11
229.4238296289368
 21
7.945785975696708
 31
0.0
  0
TEXT
  5
1D96
330
135C
100
AcDbEntity
  8
Tekst
100
AcDbText
 10
34.65823752312706
 20
2.74245193170787
 30
0.0
 40
2.061818181818407
  1
Heering Kunststof Profielen BV   Archimedesstraat 5   7701 SG  Dedemsvaart   T: +31 (0)523-615631   F: +31 (0)523-612668
  7
Standaard
 72
     4
 11
114.7119148144666
 21
3.487856867835944
 31
0.0
100
AcDbText
  0
TEXT
  5
1D97
330
135C
100
AcDbEntity
  8
Tekst
100
AcDbText
 10
3.07203168884007
 20
17.3721698667041
 30
0.0
 40
3.681818181818584
  1
Betreft:
  7
Standaard
100
AcDbText
  0
INSERT
  5
1D98
330
135C
100
AcDbEntity
  8
0
100
AcDbBlockReference
  2
LOGO
 10
229.4238296289368
 20
0.0
 30
0.0
  0
TEXT
  5
1D99
330
135C
100
AcDbEntity
  8
Tekst
100
AcDbText
 10
234.6160061509545
 20
27.66598918503223
 30
0.0
 40
2.061818181818407
  1
Copyright © 2025 Heering.eu
  7
Standaard
100
AcDbText
  0
ATTDEF
  5
1D9A
330
135C
100
AcDbEntity
  8
Tekst
100
AcDbText
 10
25.3171467424254
 20
17.37006292847127
 30
0.0
 40
3.681818181818584
  1
Betreft1
  7
Standaard
100
AcDbAttributeDefinition
280
     0
  3

  2
BETREFT1
 70
     0
280
     1
  0
ATTDEF
  5
1D9B
330
135C
100
AcDbEntity
  8
Tekst
100
AcDbText
 10
25.3171467424254
 20
11.20668195363851
 30
0.0
 40
3.681818181818584
  1
Betreft2
  7
Standaard
100
AcDbAttributeDefinition
280
     0
  3

  2
BETREFT2
 70
     0
280
     1
  0
ENDBLK
  5
1368
330
135C
100
AcDbEntity
  8
0
100
AcDbBlockEnd
  0
BLOCK
  5
1B29
330
1B28
100
AcDbEntity
  8
0
100
AcDbBlockBegin
  2
2801
 70
     2
 10
0.0
 20
0.0
 30
0.0
  3
2801
  1

  0
LINE
  5
1B2A
330
1B28
100
AcDbEntity
  8
Hulplijnen
  6
Continuous
100
AcDbLine
 10
24.98012683702473
 20
1.253217056761968
 30
0.0
 11
24.77191424886405
 21
1.305197566717652
 31
0.0
  0
LINE
  5
1B2B
330
1B28
100
AcDbEntity
  8
Hulplijnen
  6
Continuous
100
AcDbLine
 10
27.70459774752089
 20
0.573049788615208
 30
0.0
 11
25.51225006185996
 21
1.120371887170222
 31
0.0
  0
LINE
  5
1B2C
330
1B28
100
AcDbEntity
  8
Hulplijnen
  6
Continuous
100
AcDbLine
 10
29.9999999999709
 20
0.0
 30
0.0
 11
28.23672097235249
 21
0.4402046190234615
 31
0.0
  0
LINE
  5
1B2D
330
1B28
100
AcDbEntity
  8
Hulplijnen
  6
Continuous
100
AcDbLine
 10
25.55170159435511
 20
-1.11052276711689
 30
0.0
 11
24.77191424886405
 21
-1.305197566716742
 31
0.0
  0
LINE
  5
1B2E
330
1B28
100
AcDbEntity
  8
Hulplijnen
  6
Continuous
100
AcDbLine
 10
27.96595773467925
 20
-0.5078009699236646
 30
0.0
 11
26.02323599687589
 21
-0.9928036660739962
 31
0.0
  0
LINE
  5
1B2F
330
1B28
100
AcDbEntity
  8
Hulplijnen
  6
Continuous
100
AcDbLine
 10
29.9999999999709
 20
0.0
 30
0.0
 11
28.43749213720002
 21
-0.3900818688807703
 31
0.0
  0
LINE
  5
1B30
330
1B28
100
AcDbEntity
  8
Hulplijnen
  6
Continuous
100
AcDbLine
 10
23.53877581152483
 20
-1.305197566716742
 30
0.0
 11
24.77191424886405
 21
-1.305197566716742
 31
0.0
  0
LINE
  5
1B31
330
1B28
100
AcDbEntity
  8
Hulplijnen
  6
Continuous
100
AcDbLine
 10
20.97877581162174
 20
-1.305197566716742
 30
0.0
 11
23.03877581142296
 21
-1.305197566716742
 31
0.0
  0
LINE
  5
1B32
330
1B28
100
AcDbEntity
  8
Hulplijnen
  6
Continuous
100
AcDbLine
 10
18.41877581171866
 20
-1.305197566716742
 30
0.0
 11
20.47877581151988
 21
-1.305197566716742
 31
0.0
  0
LINE
  5
1B33
330
1B28
100
AcDbEntity
  8
Hulplijnen
  6
Continuous
100
AcDbLine
 10
15.85877581181557
 20
-1.305197566716742
 30
0.0
 11
17.9187758116168
 21
-1.305197566716742
 31
0.0
  0
LINE
  5
1B34
330
1B28
100
AcDbEntity
  8
Hulplijnen
  6
Continuous
100
AcDbLine
 10
13.29877581191249
 20
-1.305197566716742
 30
0.0
 11
15.35877581171371
 21
-1.305197566716742
 31
0.0
  0
LINE
  5
1B35
330
1B28
100
AcDbEntity
  8
Hulplijnen
  6
Continuous
100
AcDbLine
 10
10.73877581200941
 20
-1.305197566716742
 30
0.0
 11
12.79877581181063
 21
-1.305197566716742
 31
0.0
  0
LINE
  5
1B36
330
1B28
100
AcDbEntity
  8
Hulplijnen
  6
Continuous
100
AcDbLine
 10
8.178775812106323
 20
-1.305197566716742
 30
0.0
 11
10.23877581190754
 21
-1.305197566716742
 31
0.0
  0
LINE
  5
1B37
330
1B28
100
AcDbEntity
  8
Hulplijnen
  6
Continuous
100
AcDbLine
 10
5.618775812203239
 20
-1.305197566716742
 30
0.0
 11
7.67877581200446
 21
-1.305197566716742
 31
0.0
  0
LINE
  5
1B38
330
1B28
100
AcDbEntity
  8
Hulplijnen
  6
Continuous
100
AcDbLine
 10
3.058775812300154
 20
-1.305197566716742
 30
0.0
 11
5.118775812101375
 21
-1.305197566716742
 31
0.0
  0
LINE
  5
1B39
330
1B28
100
AcDbEntity
  8
Hulplijnen
  6
Continuous
100
AcDbLine
 10
0.0
 20
-1.305197566716742
 30
0.0
 11
2.558775812198291
 21
-1.305197566716742
 31
0.0
  0
LINE
  5
1B3A
330
1B28
100
AcDbEntity
  8
Hulplijnen
  6
Continuous
100
AcDbLine
 10
22.9075574558301
 20
1.305197566717652
 30
0.0
 11
24.77191424886405
 21
1.305197566717652
 31
0.0
  0
LINE
  5
1B3B
330
1B28
100
AcDbEntity
  8
Hulplijnen
  6
Continuous
100
AcDbLine
 10
20.34755745592702
 20
1.305197566717652
 30
0.0
 11
22.40755745572824
 21
1.305197566717652
 31
0.0
  0
LINE
  5
1B3C
330
1B28
100
AcDbEntity
  8
Hulplijnen
  6
Continuous
100
AcDbLine
 10
17.78755745602393
 20
1.305197566717652
 30
0.0
 11
19.84755745582515
 21
1.305197566717652
 31
0.0
  0
LINE
  5
1B3D
330
1B28
100
AcDbEntity
  8
Hulplijnen
  6
Continuous
100
AcDbLine
 10
15.22755745612085
 20
1.305197566717652
 30
0.0
 11
17.28755745592207
 21
1.305197566717652
 31
0.0
  0
LINE
  5
1B3E
330
1B28
100
AcDbEntity
  8
Hulplijnen
  6
Continuous
100
AcDbLine
 10
12.66755745621776
 20
1.305197566717652
 30
0.0
 11
14.72755745601898
 21
1.305197566717652
 31
0.0
  0
LINE
  5
1B3F
330
1B28
100
AcDbEntity
  8
Hulplijnen
  6
Continuous
100
AcDbLine
 10
10.10755745631468
 20
1.305197566717652
 30
0.0
 11
12.1675574561159
 21
1.305197566717652
 31
0.0
  0
LINE
  5
1B40
330
1B28
100
AcDbEntity
  8
Hulplijnen
  6
Continuous
100
AcDbLine
 10
7.547557456411595
 20
1.305197566717652
 30
0.0
 11
9.607557456212816
 21
1.305197566717652
 31
0.0
  0
LINE
  5
1B41
330
1B28
100
AcDbEntity
  8
Hulplijnen
  6
Continuous
100
AcDbLine
 10
4.987557456508511
 20
1.305197566717652
 30
0.0
 11
7.047557456309732
 21
1.305197566717652
 31
0.0
  0
LINE
  5
1B42
330
1B28
100
AcDbEntity
  8
Hulplijnen
  6
Continuous
100
AcDbLine
 10
2.427557456605427
 20
1.305197566717652
 30
0.0
 11
4.487557456406648
 21
1.305197566717652
 31
0.0
  0
LINE
  5
1B43
330
1B28
100
AcDbEntity
  8
Hulplijnen
  6
Continuous
100
AcDbLine
 10
0.0
 20
1.305197566717652
 30
0.0
 11
1.927557456503564
 21
1.305197566717652
 31
0.0
  0
LINE
  5
1B44
330
1B28
100
AcDbEntity
  8
Hulplijnen
  6
Continuous
100
AcDbLine
 10
9.499999999887222
 20
1.750000000015461
 30
0.0
 11
10.34633326823314
 21
-1.750000000015461
 31
0.0
  0
LINE
  5
1B45
330
1B28
100
AcDbEntity
  8
Hulplijnen
  6
Continuous
100
AcDbLine
 10
12.0599999997903
 20
1.750000000015461
 30
0.0
 11
12.90633326813622
 21
-1.750000000015461
 31
0.0
  0
LINE
  5
1B46
330
1B28
100
AcDbEntity
  8
Hulplijnen
  6
Continuous
100
AcDbLine
 10
14.61999999969339
 20
1.750000000015461
 30
0.0
 11
15.4663332680393
 21
-1.750000000015461
 31
0.0
  0
LINE
  5
1B47
330
1B28
100
AcDbEntity
  8
Hulplijnen
  6
Continuous
100
AcDbLine
 10
17.17999999959647
 20
1.750000000015461
 30
0.0
 11
18.02633326794239
 21
-1.750000000015461
 31
0.0
  0
LINE
  5
1B48
330
1B28
100
AcDbEntity
  8
Hulplijnen
  6
Continuous
100
AcDbLine
 10
19.73999999949956
 20
1.750000000015461
 30
0.0
 11
20.58633326784548
 21
-1.750000000015461
 31
0.0
  0
LINE
  5
1B49
330
1B28
100
AcDbEntity
  8
Hulplijnen
  6
Continuous
100
AcDbLine
 10
22.29999999940265
 20
1.750000000015461
 30
0.0
 11
23.14633326774856
 21
-1.750000000015461
 31
0.0
  0
LINE
  5
1B4A
330
1B28
100
AcDbEntity
  8
Hulplijnen
  6
Continuous
100
AcDbLine
 10
24.91883322821377
 20
1.506695962609228
 30
0.0
 11
25.66270003172758
 21
-1.569555331881929
 31
0.0
  0
LINE
  5
1B4B
330
1B28
100
AcDbEntity
  8
Hulplijnen
  6
Continuous
100
AcDbLine
 10
27.61212829248325
 20
0.9554559928110393
 30
0.0
 11
28.05504951356852
 21
-0.8762388392287903
 31
0.0
  0
LINE
  5
1B4C
330
1B28
100
AcDbEntity
  8
Hulplijnen
  6
Continuous
100
AcDbLine
 10
9.999999999989086
 20
1.750000000015461
 30
0.0
 11
10.846333268335
 21
-1.750000000015461
 31
0.0
  0
LINE
  5
1B4D
330
1B28
100
AcDbEntity
  8
Hulplijnen
  6
Continuous
100
AcDbLine
 10
12.55999999989217
 20
1.750000000015461
 30
0.0
 11
13.40633326823808
 21
-1.750000000015461
 31
0.0
  0
LINE
  5
1B4E
330
1B28
100
AcDbEntity
  8
Hulplijnen
  6
Continuous
100
AcDbLine
 10
15.11999999979525
 20
1.750000000015461
 30
0.0
 11
15.96633326814117
 21
-1.750000000015461
 31
0.0
  0
LINE
  5
1B4F
330
1B28
100
AcDbEntity
  8
Hulplijnen
  6
Continuous
100
AcDbLine
 10
17.67999999969834
 20
1.750000000015461
 30
0.0
 11
18.52633326804425
 21
-1.750000000015461
 31
0.0
  0
LINE
  5
1B50
330
1B28
100
AcDbEntity
  8
Hulplijnen
  6
Continuous
100
AcDbLine
 10
20.23999999960143
 20
1.750000000015461
 30
0.0
 11
21.08633326794734
 21
-1.750000000015461
 31
0.0
  0
LINE
  5
1B51
330
1B28
100
AcDbEntity
  8
Hulplijnen
  6
Continuous
100
AcDbLine
 10
22.79999999950451
 20
1.750000000015461
 30
0.0
 11
23.64633326785043
 21
-1.750000000015461
 31
0.0
  0
LINE
  5
1B52
330
1B28
100
AcDbEntity
  8
Hulplijnen
  6
Continuous
100
AcDbLine
 10
25.41883322831564
 20
1.506695962609228
 30
0.0
 11
26.16270003182945
 21
-1.569555331881929
 31
0.0
  0
LINE
  5
1B53
330
1B28
100
AcDbEntity
  8
Hulplijnen
  6
Continuous
100
AcDbLine
 10
28.11212829258511
 20
0.9554559928110393
 30
0.0
 11
28.55504951367038
 21
-0.8762388392287903
 31
0.0
  0
LINE
  5
1B54
330
1B28
100
AcDbEntity
  8
Hulplijnen
  6
Continuous
100
AcDbLine
 10
10.34633326823314
 20
-1.750000000015461
 30
0.0
 11
10.846333268335
 21
-1.750000000015461
 31
0.0
  0
LINE
  5
1B55
330
1B28
100
AcDbEntity
  8
Hulplijnen
  6
Continuous
100
AcDbLine
 10
12.90633326813622
 20
-1.750000000015461
 30
0.0
 11
13.40633326823808
 21
-1.750000000015461
 31
0.0
  0
LINE
  5
1B56
330
1B28
100
AcDbEntity
  8
Hulplijnen
  6
Continuous
100
AcDbLine
 10
15.4663332680393
 20
-1.750000000015461
 30
0.0
 11
15.96633326814117
 21
-1.750000000015461
 31
0.0
  0
LINE
  5
1B57
330
1B28
100
AcDbEntity
  8
Hulplijnen
  6
Continuous
100
AcDbLine
 10
18.02633326794239
 20
-1.750000000015461
 30
0.0
 11
18.52633326804425
 21
-1.750000000015461
 31
0.0
  0
LINE
  5
1B58
330
1B28
100
AcDbEntity
  8
Hulplijnen
  6
Continuous
100
AcDbLine
 10
20.58633326784548
 20
-1.750000000015461
 30
0.0
 11
21.08633326794734
 21
-1.750000000015461
 31
0.0
  0
LINE
  5
1B59
330
1B28
100
AcDbEntity
  8
Hulplijnen
  6
Continuous
100
AcDbLine
 10
23.14633326774856
 20
-1.750000000015461
 30
0.0
 11
23.64633326785043
 21
-1.750000000015461
 31
0.0
  0
LINE
  5
1B5A
330
1B28
100
AcDbEntity
  8
Hulplijnen
  6
Continuous
100
AcDbLine
 10
25.66270003172758
 20
-1.569555331881929
 30
0.0
 11
26.16270003182945
 21
-1.569555331881929
 31
0.0
  0
LINE
  5
1B5B
330
1B28
100
AcDbEntity
  8
Hulplijnen
  6
Continuous
100
AcDbLine
 10
28.05504951356852
 20
-0.8762388392287903
 30
0.0
 11
28.55504951367038
 21
-0.8762388392287903
 31
0.0
  0
LINE
  5
1B5C
330
1B28
100
AcDbEntity
  8
Hulplijnen
  6
Continuous
100
AcDbLine
 10
27.61212829248325
 20
0.9554559928110393
 30
0.0
 11
28.11212829258511
 21
0.9554559928110393
 31
0.0
  0
LINE
  5
1B5D
330
1B28
100
AcDbEntity
  8
Hulplijnen
  6
Continuous
100
AcDbLine
 10
24.91883322821377
 20
1.506695962609228
 30
0.0
 11
25.41883322831564
 21
1.506695962609228
 31
0.0
  0
LINE
  5
1B5E
330
1B28
100
AcDbEntity
  8
Hulplijnen
  6
Continuous
100
AcDbLine
 10
22.29999999940265
 20
1.750000000015461
 30
0.0
 11
22.79999999950451
 21
1.750000000015461
 31
0.0
  0
LINE
  5
1B5F
330
1B28
100
AcDbEntity
  8
Hulplijnen
  6
Continuous
100
AcDbLine
 10
19.73999999949956
 20
1.750000000015461
 30
0.0
 11
20.23999999960143
 21
1.750000000015461
 31
0.0
  0
LINE
  5
1B60
330
1B28
100
AcDbEntity
  8
Hulplijnen
  6
Continuous
100
AcDbLine
 10
17.17999999959647
 20
1.750000000015461
 30
0.0
 11
17.67999999969834
 21
1.750000000015461
 31
0.0
  0
LINE
  5
1B61
330
1B28
100
AcDbEntity
  8
Hulplijnen
  6
Continuous
100
AcDbLine
 10
14.61999999969339
 20
1.750000000015461
 30
0.0
 11
15.11999999979525
 21
1.750000000015461
 31
0.0
  0
LINE
  5
1B62
330
1B28
100
AcDbEntity
  8
Hulplijnen
  6
Continuous
100
AcDbLine
 10
12.0599999997903
 20
1.750000000015461
 30
0.0
 11
12.55999999989217
 21
1.750000000015461
 31
0.0
  0
LINE
  5
1B63
330
1B28
100
AcDbEntity
  8
Hulplijnen
  6
Continuous
100
AcDbLine
 10
9.499999999887222
 20
1.750000000015461
 30
0.0
 11
9.999999999989086
 21
1.750000000015461
 31
0.0
  0
LINE
  5
1B64
330
1B28
100
AcDbEntity
  8
Hulplijnen
  6
Continuous
100
AcDbLine
 10
6.939999999984138
 20
1.750000000015461
 30
0.0
 11
7.786333268330054
 21
-1.750000000015461
 31
0.0
  0
LINE
  5
1B65
330
1B28
100
AcDbEntity
  8
Hulplijnen
  6
Continuous
100
AcDbLine
 10
7.440000000086001
 20
1.750000000015461
 30
0.0
 11
8.286333268431917
 21
-1.750000000015461
 31
0.0
  0
LINE
  5
1B66
330
1B28
100
AcDbEntity
  8
Hulplijnen
  6
Continuous
100
AcDbLine
 10
7.786333268330054
 20
-1.750000000015461
 30
0.0
 11
8.286333268431917
 21
-1.750000000015461
 31
0.0
  0
LINE
  5
1B67
330
1B28
100
AcDbEntity
  8
Hulplijnen
  6
Continuous
100
AcDbLine
 10
6.939999999984138
 20
1.750000000015461
 30
0.0
 11
7.440000000086001
 21
1.750000000015461
 31
0.0
  0
LINE
  5
1B68
330
1B28
100
AcDbEntity
  8
Hulplijnen
  6
Continuous
100
AcDbLine
 10
4.380000000081054
 20
1.750000000015461
 30
0.0
 11
5.226333268426969
 21
-1.750000000015461
 31
0.0
  0
LINE
  5
1B69
330
1B28
100
AcDbEntity
  8
Hulplijnen
  6
Continuous
100
AcDbLine
 10
4.880000000182917
 20
1.750000000015461
 30
0.0
 11
5.726333268528833
 21
-1.750000000015461
 31
0.0
  0
LINE
  5
1B6A
330
1B28
100
AcDbEntity
  8
Hulplijnen
  6
Continuous
100
AcDbLine
 10
5.226333268426969
 20
-1.750000000015461
 30
0.0
 11
5.726333268528833
 21
-1.750000000015461
 31
0.0
  0
LINE
  5
1B6B
330
1B28
100
AcDbEntity
  8
Hulplijnen
  6
Continuous
100
AcDbLine
 10
4.380000000081054
 20
1.750000000015461
 30
0.0
 11
4.880000000182917
 21
1.750000000015461
 31
0.0
  0
LINE
  5
1B6C
330
1B28
100
AcDbEntity
  8
Hulplijnen
  6
Continuous
100
AcDbLine
 10
1.820000000177969
 20
1.750000000015461
 30
0.0
 11
2.666333268523885
 21
-1.750000000015461
 31
0.0
  0
LINE
  5
1B6D
330
1B28
100
AcDbEntity
  8
Hulplijnen
  6
Continuous
100
AcDbLine
 10
2.320000000279833
 20
1.750000000015461
 30
0.0
 11
3.166333268625749
 21
-1.750000000015461
 31
0.0
  0
LINE
  5
1B6E
330
1B28
100
AcDbEntity
  8
Hulplijnen
  6
Continuous
100
AcDbLine
 10
2.666333268523885
 20
-1.750000000015461
 30
0.0
 11
3.166333268625749
 21
-1.750000000015461
 31
0.0
  0
LINE
  5
1B6F
330
1B28
100
AcDbEntity
  8
Hulplijnen
  6
Continuous
100
AcDbLine
 10
1.820000000177969
 20
1.750000000015461
 30
0.0
 11
2.320000000279833
 21
1.750000000015461
 31
0.0
  0
LWPOLYLINE
  5
1B70
330
1B28
100
AcDbEntity
  8
Hulplijnen
100
AcDbPolyline
 90
        6
 70
     1
 43
0.0
 10
-0.8333333332775509
 20
-3.999999999990905
 10
0.0
 20
-3.999999999990905
 10
0.0
 20
3.999999999990905
 10
-0.8333333332775509
 20
3.999999999991814
 42
0.4142135623730951
 10
-2.33333333327755
 20
2.499999999991814
 10
-2.33333333327755
 20
-2.499999999990905
 42
0.4142135623730951
  0
ATTDEF
  5
1B71
330
1B28
100
AcDbEntity
  8
Hulplijnen
  6
Continuous
100
AcDbText
 10
0.1319772355818713
 20
0.3599936854725456
 30
0.0
 40
0.2000000000000003
  1
2801
  7
Standaard
100
AcDbAttributeDefinition
280
     0
  3

  2
BESTELNUMMER
 70
     1
280
     1
  0
ATTDEF
  5
1B72
330
1B28
100
AcDbEntity
  8
Hulplijnen
  6
Continuous
100
AcDbText
 10
0.1319772355818713
 20
-0.6400063145274544
 30
0.0
 40
0.2000000000000003
  1
Keralitschroef Torx T20
  7
Standaard
100
AcDbAttributeDefinition
280
     0
  3

  2
OMSCHRIJVING
 70
     1
280
     1
  0
ENDBLK
  5
1B73
330
1B28
100
AcDbEntity
  8
0
100
AcDbBlockEnd
  0
BLOCK
  5
1B88
330
1B87
100
AcDbEntity
  8
0
100
AcDbBlockBegin
  2
*D4
 70
     1
 10
0.0
 20
0.0
 30
0.0
  3
*D4
  1

  0
LINE
  5
1C8B
330
1B87
100
AcDbEntity
  8
Maatvoering profielen
 62
     0
440
 16777216
370
    -2
100
AcDbLine
 10
36.10804695297264
 20
151.2061202706419
 30
0.0
 11
56.10804695294354
 21
151.2061202706419
 31
0.0
  0
INSERT
  5
1C8C
330
1B87
100
AcDbEntity
  8
Maatvoering profielen
 62
     0
440
 16777216
370
    -2
100
AcDbBlockReference
  2
maat-punt-r
 10
31.10804695297264
 20
151.2061202706419
 30
0.0
 41
5.0
 42
5.0
 43
5.0
 50
180.0
  0
INSERT
  5
1C8D
330
1B87
100
AcDbEntity
  8
Maatvoering profielen
 62
     0
440
 16777216
370
    -2
100
AcDbBlockReference
  2
maat-punt-r
 10
61.10804695294354
 20
151.2061202706419
 30
0.0
 41
5.0
 42
5.0
 43
5.0
  0
MTEXT
  5
1C8E
330
1B87
100
AcDbEntity
  8
Maatvoering profielen
440
 16777216
100
AcDbMText
 10
46.10804695295809
 20
156.2606905298506
 30
0.0
 40
5.0
 41
0.0
 46
0.0
 71
     5
 72
     1
  1
\A1;30
  7
Standaard
 73
     1
 44
1.0
  0
POINT
  5
1C8F
330
1B87
100
AcDbEntity
  8
Defpoints
 62
     0
440
 16777216
100
AcDbPoint
 10
31.10804695297264
 20
141.1672024440054
 30
0.0
  0
POINT
  5
1C90
330
1B87
100
AcDbEntity
  8
Defpoints
 62
     0
440
 16777216
100
AcDbPoint
 10
61.10804695294354
 20
141.1672024440054
 30
0.0
  0
POINT
  5
1C91
330
1B87
100
AcDbEntity
  8
Defpoints
 62
     0
440
 16777216
100
AcDbPoint
 10
61.10804695294354
 20
151.2061202706419
 30
0.0
  0
ENDBLK
  5
1B89
330
1B87
100
AcDbEntity
  8
0
100
AcDbBlockEnd
  0
BLOCK
  5
1B9C
330
1B9B
100
AcDbEntity
  8
0
100
AcDbBlockBegin
  2
*D5
 70
     1
 10
0.0
 20
0.0
 30
0.0
  3
*D5
  1

  0
LINE
  5
1C92
330
1B9B
100
AcDbEntity
  8
Maatvoering profielen
 62
     0
440
 16777216
370
    -2
100
AcDbLine
 10
24.02468288919766
 20
132.1672024440145
 30
0.0
 11
24.02468288919766
 21
127.1672024440145
 31
0.0
  0
LINE
  5
1C93
330
1B9B
100
AcDbEntity
  8
Maatvoering profielen
 62
     0
440
 16777216
370
    -2
100
AcDbLine
 10
24.02468288919767
 20
150.1672024439963
 30
0.0
 11
24.02468288919767
 21
155.1672024439963
 31
0.0
  0
LINE
  5
1C94
330
1B9B
100
AcDbEntity
  8
Maatvoering profielen
 62
     0
440
 16777216
370
    -2
100
AcDbLine
 10
24.02468288919767
 20
137.1672024440145
 30
0.0
 11
24.02468288919767
 21
145.1672024439963
 31
0.0
  0
INSERT
  5
1C95
330
1B9B
100
AcDbEntity
  8
Maatvoering profielen
 62
     0
440
 16777216
370
    -2
100
AcDbBlockReference
  2
maat-punt-r
 10
24.02468288919767
 20
137.1672024440145
 30
0.0
 41
5.0
 42
5.0
 43
5.0
 50
90.0
  0
INSERT
  5
1C96
330
1B9B
100
AcDbEntity
  8
Maatvoering profielen
 62
     0
440
 16777216
370
    -2
100
AcDbBlockReference
  2
maat-punt-r
 10
24.02468288919767
 20
145.1672024439963
 30
0.0
 41
5.0
 42
5.0
 43
5.0
 50
270.0
  0
MTEXT
  5
1C97
330
1B9B
100
AcDbEntity
  8
Maatvoering profielen
440
 16777216
100
AcDbMText
 10
18.97181795058918
 20
141.1672024440054
 30
0.0
 40
5.0
 41
0.0
 46
0.0
 71
     5
 72
     1
  1
\A1;8
  7
Standaard
 11
0.0000000000000001
 21
1.0
 31
0.0
 73
     1
 44
1.0
  0
POINT
  5
1C98
330
1B9B
100
AcDbEntity
  8
Defpoints
 62
     0
440
 16777216
100
AcDbPoint
 10
31.10804695297264
 20
137.1672024440145
 30
0.0
  0
POINT
  5
1C99
330
1B9B
100
AcDbEntity
  8
Defpoints
 62
     0
440
 16777216
100
AcDbPoint
 10
31.10804695297264
 20
145.1672024439963
 30
0.0
  0
POINT
  5
1C9A
330
1B9B
100
AcDbEntity
  8
Defpoints
 62
     0
440
 16777216
100
AcDbPoint
 10
24.02468288919767
 20
145.1672024439963
 30
0.0
  0
ENDBLK
  5
1B9D
330
1B9B
100
AcDbEntity
  8
0
100
AcDbBlockEnd
  0
BLOCK
  5
1BDE
330
1BDD
100
AcDbEntity
  8
0
100
AcDbBlockBegin
  2
maat-punt-r
 70
     0
 10
0.0
 20
0.0
 30
0.0
  3
maat-punt-r
  1

  0
SOLID
  5
1BDF
330
1BDD
100
AcDbEntity
  8
Maatvoering profielen
100
AcDbTrace
 10
-1.0
 20
0.1666666666715173
 30
0.0
 11
-1.0
 21
-0.1666666666715173
 31
0.0
 12
0.0
 22
0.0
 32
0.0
 13
0.0
 23
0.0
 33
0.0
  0
LINE
  5
1BE0
330
1BDD
100
AcDbEntity
  8
Maatvoering profielen
100
AcDbLine
 10
-0.0000000000145519
 20
0.500000000001819
 30
0.0
 11
-0.0000000000145519
 21
-0.499999999998181
 31
0.0
  0
LINE
  5
1BE1
330
1BDD
100
AcDbEntity
  8
Maatvoering profielen
100
AcDbLine
 10
-0.0000000000145519
 20
0.500000000001819
 30
0.0
 11
-0.0000000000145519
 21
-0.499999999998181
 31
0.0
  0
ENDBLK
  5
1BE2
330
1BDD
100
AcDbEntity
  8
0
100
AcDbBlockEnd
  0
BLOCK
  5
1DAE
330
1DAD
100
AcDbEntity
  8
0
100
AcDbBlockBegin
  2
*D8
 70
     1
 10
0.0
 20
0.0
 30
0.0
  3
*D8
  1

  0
LINE
  5
1DB9
330
1DAD
100
AcDbEntity
  8
Maatvoering profielen
 62
     0
440
 16777216
370
    -2
100
AcDbLine
 10
70.45923008451564
 20
147.9172024440209
 30
0.0
 11
70.45923008451564
 21
152.9172024440209
 31
0.0
  0
LINE
  5
1DBA
330
1DAD
100
AcDbEntity
  8
Maatvoering profielen
 62
     0
440
 16777216
370
    -2
100
AcDbLine
 10
70.45923008451564
 20
134.41720244399
 30
0.0
 11
70.45923008451564
 21
129.41720244399
 31
0.0
  0
INSERT
  5
1DBB
330
1DAD
100
AcDbEntity
  8
Maatvoering profielen
 62
     0
440
 16777216
370
    -2
100
AcDbBlockReference
  2
maat-punt-r
 10
70.45923008451564
 20
142.9172024440209
 30
0.0
 41
5.0
 42
5.0
 43
5.0
 50
270.0
  0
INSERT
  5
1DBC
330
1DAD
100
AcDbEntity
  8
Maatvoering profielen
 62
     0
440
 16777216
370
    -2
100
AcDbBlockReference
  2
maat-punt-r
 10
70.45923008451564
 20
139.41720244399
 30
0.0
 41
5.0
 42
5.0
 43
5.0
 50
90.0
  0
MTEXT
  5
1DBD
330
1DAD
100
AcDbEntity
  8
Maatvoering profielen
440
 16777216
100
AcDbMText
 10
65.45923008451566
 20
141.1672024440054
 30
0.0
 40
5.0
 41
0.0
 46
0.0
 71
     5
 72
     1
  1
\A1;4
  7
Standaard
 11
0.0000000000000001
 21
1.0
 31
0.0
 73
     1
 44
1.0
  0
POINT
  5
1DBE
330
1DAD
100
AcDbEntity
  8
Defpoints
 62
     0
440
 16777216
100
AcDbPoint
 10
48.78804695267101
 20
142.9172024440209
 30
0.0
  0
POINT
  5
1DBF
330
1DAD
100
AcDbEntity
  8
Defpoints
 62
     0
440
 16777216
100
AcDbPoint
 10
49.63438022101692
 20
139.41720244399
 30
0.0
  0
POINT
  5
1DC0
330
1DAD
100
AcDbEntity
  8
Defpoints
 62
     0
440
 16777216
100
AcDbPoint
 10
70.45923008451564
 20
139.41720244399
 30
0.0
  0
ENDBLK
  5
1DAF
330
1DAD
100
AcDbEntity
  8
0
100
AcDbBlockEnd
  0
ENDSEC
  0
SECTION
  2
ENTITIES
  0
INSERT
  5
1A51
330
1F
100
AcDbEntity
  8
0
100
AcDbBlockReference
 66
     1
  2
Kader Keralit Landscape
 10
-94.75693944928099
 20
33.47937361218502
 30
0.0
  0
ATTRIB
  5
1A52
330
1A51
100
AcDbEntity
  8
Tekst
100
AcDbText
 10
-69.43979270685559
 20
44.68605556582352
 30
0.0
 40
3.681818181818584
  1
Keralit schroef Torx (T20)
  7
Standaard
100
AcDbAttribute
280
     0
  2
BETREFT2
 70
     0
280
     1
  0
ATTRIB
  5
1A53
330
1A51
100
AcDbEntity
  8
Tekst
100
AcDbText
 10
-69.43979270685559
 20
50.84943654065629
 30
0.0
 40
3.681818181818584
  1
2801
  7
Standaard
100
AcDbAttribute
280
     0
  2
BETREFT1
 70
     0
280
     1
  0
SEQEND
  5
1A54
330
1A51
100
AcDbEntity
  8
0
  0
TEXT
  5
1AAF
330
1F
100
AcDbEntity
  8
Tekst
100
AcDbText
 10
-91.48187590011531
 20
61.13752684476082
 30
0.0
 40
2.061818181818407
  1
maten in mm; schaal 1:1
  7
Standaard
100
AcDbText
  0
INSERT
  5
1B82
102
{ACAD_REACTORS
330
1B99
330
1BAF
330
1DC1
102
}
330
1F
100
AcDbEntity
  8
0
100
AcDbBlockReference
 66
     1
  2
2801
 10
31.10804695297264
 20
141.1672024440054
 30
0.0
1001
PE_URL
1000
http://www.keralit.nl
1002
{
1000
http://www.keralit.nl
1002
{
1071
        1
1002
}
1002
}
  0
ATTRIB
  5
1B83
330
1B82
100
AcDbEntity
  8
Hulplijnen
  6
Continuous
100
AcDbText
 10
31.24002418855452
 20
141.5271961294779
 30
0.0
 40
0.2000000000000003
  1
2801
  7
Standaard
100
AcDbAttribute
280
     0
  2
BESTELNUMMER
 70
     1
280
     1
  0
ATTRIB
  5
1B84
330
1B82
100
AcDbEntity
  8
Hulplijnen
  6
Continuous
100
AcDbText
 10
31.24002418855452
 20
140.5271961294779
 30
0.0
 40
0.2000000000000003
  1
Keralitschroef Torx T20
  7
Standaard
100
AcDbAttribute
280
     0
  2
OMSCHRIJVING
 70
     1
280
     1
  0
SEQEND
  5
1B85
330
1B82
100
AcDbEntity
  8
0
  0
DIMENSION
  5
1B86
102
{ACAD_XDICTIONARY
360
1B91
102
}
102
{ACAD_REACTORS
330
1B99
102
}
330
1F
100
AcDbEntity
  8
Maatvoering profielen
100
AcDbDimension
280
     0
  2
*D4
 10
61.10804695294354
 20
151.2061202706419
 30
0.0
 11
46.10804695295809
 21
156.2606905298506
 31
0.0
 70
    32
 71
     5
 42
29.9999999999709
 73
     0
 74
     0
 75
     0
  3
Profielen
100
AcDbAlignedDimension
 13
31.10804695297264
 23
141.1672024440054
 33
0.0
 14
61.10804695294354
 24
141.1672024440054
 34
0.0
100
AcDbRotatedDimension
  0
DIMENSION
  5
1B9A
102
{ACAD_XDICTIONARY
360
1BA6
102
}
102
{ACAD_REACTORS
330
1BAF
102
}
330
1F
100
AcDbEntity
  8
Maatvoering profielen
100
AcDbDimension
280
     0
  2
*D5
 10
24.02468288919767
 20
145.1672024439963
 30
0.0
 11
18.97181795058918
 21
141.1672024440054
 31
0.0
 70
    32
 71
     5
 42
7.99999999998181
 73
     0
 74
     0
 75
     0
  3
Profielen
100
AcDbAlignedDimension
 13
31.10804695297264
 23
137.1672024440145
 33
0.0
 14
31.10804695297264
 24
145.1672024439963
 34
0.0
 50
90.0
100
AcDbRotatedDimension
1001
ACAD
1000
DSTYLE
1002
{
1070
   172
1070
     1
1002
}
  0
TEXT
  5
1BF0
330
1F
100
AcDbEntity
  8
Tekst
100
AcDbText
 10
-98.88074572486079
 20
228.479373612185
 30
0.0
 40
7.0
  1
Klik op het profiel met "Ctrl" ingedrukt om naar de website te gaan
  7
Standaard
 72
     1
 11
43.743060550719
 21
228.479373612185
 31
0.0
100
AcDbText
  0
TEXT
  5
1BF1
330
1F
100
AcDbEntity
  8
Tekst
100
AcDbText
 10
-54.63654381490172
 20
240.3979349053709
 30
0.0
 40
7.0
  1
Dubbelklik op het profiel voor meer informatie
  7
Standaard
 72
     1
 11
43.743060550719
 21
240.3979349053709
 31
0.0
100
AcDbText
  0
DIMENSION
  5
1DAC
102
{ACAD_XDICTIONARY
360
1DB8
102
}
102
{ACAD_REACTORS
330
1DC1
102
}
330
1F
100
AcDbEntity
  8
Maatvoering profielen
100
AcDbDimension
280
     0
  2
*D8
 10
70.45923008451564
 20
139.41720244399
 30
0.0
 11
65.45923008451566
 21
141.1672024440054
 31
0.0
 70
    32
 71
     5
 42
3.500000000030922
 73
     0
 74
     0
 75
     0
  3
Profielen
100
AcDbAlignedDimension
 13
48.78804695267098
 23
142.9172024440208
 33
0.0
 14
49.6343802210169
 24
139.4172024439899
 34
0.0
 50
90.0
100
AcDbRotatedDimension
  0
ENDSEC
  0
SECTION
  2
OBJECTS
  0
DICTIONARY
  5
C
330
0
100
AcDbDictionary
281
     1
  3
ACAD_CIP_PREVIOUS_PRODUCT_INFO
350
1D7D
  3
ACAD_COLOR
350
DF
  3
ACAD_DETAILVIEWSTYLE
350
1D76
  3
ACAD_GROUP
350
D
  3
ACAD_LAST_SAVED_VERSION_INFO
350
1DA4
  3
ACAD_LAYOUT
350
1A
  3
ACAD_MATERIAL
350
C6
  3
ACAD_MLEADERSTYLE
350
103
  3
ACAD_MLINESTYLE
350
17
  3
ACAD_PLOTSETTINGS
350
19
  3
ACAD_PLOTSTYLENAME
350
E
  3
ACAD_SCALELIST
350
E1
  3
ACAD_SECTIONVIEWSTYLE
350
1D74
  3
ACAD_TABLESTYLE
350
C4
  3
ACAD_VISUALSTYLE
350
2A
  3
ACDB_RECOMPOSE_DATA
350
1DD6
  3
AcDbVariableDictionary
350
11E
  3
AEC_PROPERTY_SET_DEFS
350
2D9
  3
ASE_INDEX_DICTIONARY
350
1AF0
  0
DICTIONARY
  5
114
330
8
100
AcDbDictionary
280
     1
281
     1
  0
DICTIONARY
  5
1A1
330
2
100
AcDbDictionary
280
     1
281
     1
  3
ACAD_LAYERFILTERS
360
A33
  3
ACAD_LAYERSTATES
360
1A46
  3
ACLYDICTIONARY
360
A32
  0
DICTIONARY
  5
10D
330
10
100
AcDbDictionary
280
     1
281
     1
  3
ADSK_XREC_LAYER_RECONCILED
360
10E
  0
DICTIONARY
  5
10F
330
3B
100
AcDbDictionary
280
     1
281
     1
  3
ADSK_XREC_LAYER_RECONCILED
360
110
  0
DICTIONARY
  5
19D
330
1F
100
AcDbDictionary
280
     1
281
     1
  3
ACAD_SORTENTS
360
19E
  0
DICTIONARY
  5
12E6
330
12E5
100
AcDbDictionary
280
     1
281
     1
  3
ACAD_SORTENTS
360
12E7
  0
DICTIONARY
  5
1D9D
330
135C
100
AcDbDictionary
280
     1
281
     1
  0
DICTIONARY
  5
1B91
330
1B86
100
AcDbDictionary
280
     1
281
     1
  3
ACAD_DIMASSOC
360
1B99
  0
DICTIONARY
  5
1BA6
330
1B9A
100
AcDbDictionary
280
     1
281
     1
  3
ACAD_DIMASSOC
360
1BAF
  0
DICTIONARY
  5
1DB8
330
1DAC
100
AcDbDictionary
280
     1
281
     1
  3
ACAD_DIMASSOC
360
1DC1
  0
XRECORD
  5
1D7D
102
{ACAD_REACTORS
330
C
102
}
330
C
100
AcDbXrecord
280
     1
300
ACDLT
300
2025
300

  0
DICTIONARY
  5
DF
102
{ACAD_REACTORS
330
C
102
}
330
C
100
AcDbDictionary
281
     1
  0
DICTIONARY
  5
1D76
102
{ACAD_REACTORS
330
C
102
}
330
C
100
AcDbDictionary
281
     1
  3
Imperial24
350
1D77
  0
DICTIONARY
  5
D
102
{ACAD_REACTORS
330
C
102
}
330
C
100
AcDbDictionary
281
     1
  0
XRECORD
  5
1DA4
102
{ACAD_REACTORS
330
C
102
}
330
C
100
AcDbXrecord
280
     1
300
{2568FCAC-7D5A-6A47-A7C5-3532FDB6B993}
301
{15C0D3D7-550F-C547-9815-E715E6523F7E}
302
{2568FCAC-7D5A-6A47-A7C5-3532FDB6B993}
303
\\192.168.1.80\word\Tekeningen\Heering tekeningen\Website product tekeningen\Product tekeningen DXF\2801.dxf
  0
DICTIONARY
  5
1A
102
{ACAD_REACTORS
330
C
102
}
330
C
100
AcDbDictionary
281
     1
  3
Layout1
350
1E
  3
Layout2
350
26
  3
Model
350
22
  0
DICTIONARY
  5
C6
102
{ACAD_REACTORS
330
C
102
}
330
C
100
AcDbDictionary
281
     1
  3
ByBlock
350
CF
  3
ByLayer
350
C7
  3
Global
350
D7
  0
DICTIONARY
  5
103
102
{ACAD_REACTORS
330
C
102
}
330
C
100
AcDbDictionary
281
     1
  3
Standard
350
104
  0
DICTIONARY
  5
17
102
{ACAD_REACTORS
330
C
102
}
330
C
100
AcDbDictionary
281
     1
  3
Standard
350
18
  0
DICTIONARY
  5
19
102
{ACAD_REACTORS
330
C
102
}
330
C
100
AcDbDictionary
281
     1
  0
ACDBDICTIONARYWDFLT
  5
E
102
{ACAD_REACTORS
330
C
102
}
330
C
100
AcDbDictionary
281
     1
  3
Normal
350
F
100
AcDbDictionaryWithDefault
340
F
  0
DICTIONARY
  5
E1
102
{ACAD_REACTORS
330
C
102
}
330
C
100
AcDbDictionary
281
     1
  3
A0
350
E2
  3
A1
350
1D7E
  3
A2
350
1D7F
  3
A3
350
1D80
  3
A4
350
1D81
  3
A5
350
1D82
  3
A6
350
1D83
  3
A7
350
1D84
  3
A8
350
1D85
  3
A9
350
1D86
  3
B0
350
1D87
  3
B1
350
1D88
  3
B2
350
1D89
  3
B3
350
1D8A
  3
B4
350
1D8B
  3
B5
350
1D8C
  3
B6
350
1D8D
  0
DICTIONARY
  5
1D74
102
{ACAD_REACTORS
330
C
102
}
330
C
100
AcDbDictionary
281
     1
  3
Imperial24
350
1D75
  0
DICTIONARY
  5
C4
102
{ACAD_REACTORS
330
C
102
}
330
C
100
AcDbDictionary
281
     1
  3
Standard
350
E0
  0
DICTIONARY
  5
2A
102
{ACAD_REACTORS
330
C
102
}
330
C
100
AcDbDictionary
281
     1
  3
2dWireframe
350
2F
  3
3D Hidden
350
31
  3
3dWireframe
350
30
  3
Basic
350
32
  3
Brighten
350
36
  3
ColorChange
350
3A
  3
Conceptual
350
34
  3
Dim
350
35
  3
EdgeColorOff
350
1D73
  3
Facepattern
350
39
  3
Flat
350
2B
  3
FlatWithEdges
350
2C
  3
Gouraud
350
2D
  3
GouraudWithEdges
350
2E
  3
Hidden
350
1D6B
  3
JitterOff
350
1D71
  3
Linepattern
350
38
  3
OverhangOff
350
1D72
  3
Realistic
350
33
  3
Shaded
350
1D70
  3
Shaded with edges
350
1D6F
  3
Shades of Gray
350
1D6C
  3
Sketchy
350
1D6D
  3
Thicken
350
37
  3
Wireframe
350
1D6A
  3
X-Ray
350
1D6E
  0
XRECORD
  5
1DD6
102
{ACAD_REACTORS
330
C
102
}
330
C
100
AcDbXrecord
280
     1
 90
        1
330
E0
  0
DICTIONARY
  5
11E
102
{ACAD_REACTORS
330
C
102
}
330
C
100
AcDbDictionary
281
     1
  3
CANNOSCALE
350
121
  3
CMLEADERSTYLE
350
120
  3
CTABLESTYLE
350
11F
  3
CVIEWDETAILSTYLE
350
1DCF
  3
CVIEWSECTIONSTYLE
350
1DD0
  3
LAYEREVAL
350
1DD3
  3
LAYERNOTIFY
350
1DD4
  3
LIGHTINGUNITS
350
1DD2
  3
MSLTSCALE
350
1DD1
  0
DICTIONARY
  5
2D9
102
{ACAD_REACTORS
330
C
102
}
330
C
100
AcDbDictionary
281
     1
  0
DICTIONARY
  5
1AF0
102
{ACAD_REACTORS
330
C
102
}
330
C
100
AcDbDictionary
281
     1
  3
ASEBlockHierarchyIndexRecord
350
1AF1
1001
DCO15
1040
1716568199.188
  0
DICTIONARY
  5
A33
102
{ACAD_REACTORS
330
1A1
102
}
330
1A1
100
AcDbDictionary
281
     1
  0
DICTIONARY
  5
1A46
102
{ACAD_REACTORS
330
1A1
102
}
330
1A1
100
AcDbDictionary
281
     1
  0
DICTIONARY
  5
A32
102
{ACAD_REACTORS
330
1A1
102
}
330
1A1
100
AcDbDictionary
281
     1
1001
ACAD
1000
<All
  0
XRECORD
  5
10E
102
{ACAD_REACTORS
330
10D
102
}
330
10D
100
AcDbXrecord
280
     1
290
     1
  0
XRECORD
  5
110
102
{ACAD_REACTORS
330
10F
102
}
330
10F
100
AcDbXrecord
280
     1
290
     1
  0
SORTENTSTABLE
  5
19E
102
{ACAD_REACTORS
330
19D
102
}
330
19D
100
AcDbSortentsTable
330
1F
  0
SORTENTSTABLE
  5
12E7
102
{ACAD_REACTORS
330
12E6
102
}
330
12E6
100
AcDbSortentsTable
330
12E5
  0
DIMASSOC
  5
1B99
102
{ACAD_REACTORS
330
1B91
102
}
330
1B91
100
AcDbDimAssoc
330
1B86
 90
        3
 70
     0
 71
     0
  1
AcDbOsnapPointRef
 72
     2
331
1B82
331
1B70
 73
     2
 91
        2
 40
0.5
 10
0.0
 20
0.0
 30
0.0
 75
     0
  1
AcDbOsnapPointRef
 72
    13
331
1B82
331
1B2C
 73
     2
 91
        0
 40
0.0
 10
0.0
 20
0.0
 30
2.000000000000000E+50
 75
     0
  0
DIMASSOC
  5
1BAF
102
{ACAD_REACTORS
330
1BA6
102
}
330
1BA6
100
AcDbDimAssoc
330
1B9A
 90
        3
 70
     0
 71
     0
  1
AcDbOsnapPointRef
 72
    13
331
1B82
331
1B70
 73
     2
 91
        2
 40
0.0
 10
0.0
 20
0.0
 30
2.000000000000000E+50
 75
     0
  1
AcDbOsnapPointRef
 72
     1
331
1B82
331
1B70
 73
     2
 91
        2
 40
1.0
 10
0.0
 20
0.0
 30
2.000000000000000E+50
 75
     0
  0
DIMASSOC
  5
1DC1
102
{ACAD_REACTORS
330
1DB8
102
}
330
1DB8
100
AcDbDimAssoc
330
1DAC
 90
        3
 70
     0
 71
     0
  1
AcDbOsnapPointRef
 72
    13
331
1B82
331
1B4F
 73
     2
 91
        0
 40
0.0
 10
0.0
 20
0.0
 30
2.000000000000000E+50
 75
     0
  1
AcDbOsnapPointRef
 72
     1
331
1B82
331
1B4F
 73
     2
 91
        0
 40
1.0
 10
0.0
 20
0.0
 30
2.000000000000000E+50
 75
     0
  0
ACDBDETAILVIEWSTYLE
  5
1D77
102
{ACAD_REACTORS
330
1D76
102
}
330
1D76
100
AcDbModelDocViewStyle
 70
     0
  3
Imperial24
290
     1
300
Imperial24
 90
        0
100
AcDbDetailViewStyle
 70
     0
 71
     0
 90
        3
 71
     1
340
11
 62
   256
 40
0.24
340
0
 62
   256
 40
0.24
300

 40
0.36
280
     3
 71
     2
340
16
 90
       25
 62
   256
 71
     3
340
11
 62
   256
 40
0.24
 90
        1
 40
0.75
 90
        1
300
%<\AcVar ViewType \f "%tc1">% %<\AcVar ViewDetailId>%\PSCALE %<\AcVar ViewScale \f "%sn">%
 71
     4
340
16
 90
       25
 62
   256
340
16
 90
       25
 62
   256
280
     0
  0
LAYOUT
  5
1E
102
{ACAD_REACTORS
330
1A
102
}
330
1A
100
AcDbPlotSettings
  1

  2
none_device
  4

  6

 40
0.0
 41
0.0
 42
0.0
 43
0.0
 44
0.0
 45
0.0
 46
0.0
 47
0.0
 48
0.0
 49
0.0
140
0.0
141
0.0
142
1.0
143
1.0
 70
   688
 72
     0
 73
     0
 74
     5
  7
Heering.ctb
 75
    16
147
1.0
 76
     0
 77
     2
 78
   300
148
0.0
149
0.0
100
AcDbLayout
  1
Layout1
 70
     1
 71
     1
 10
0.0
 20
0.0
 11
12.0
 21
9.0
 12
0.0
 22
0.0
 32
0.0
 14
1.000000000000000E+20
 24
1.000000000000000E+20
 34
1.000000000000000E+20
 15
-1.000000000000000E+20
 25
-1.000000000000000E+20
 35
-1.000000000000000E+20
146
0.0
 13
0.0
 23
0.0
 33
0.0
 16
1.0
 26
0.0
 36
0.0
 17
0.0
 27
1.0
 37
0.0
 76
     0
330
1B
  0
LAYOUT
  5
26
102
{ACAD_REACTORS
330
1A
102
}
330
1A
100
AcDbPlotSettings
  1

  2
none_device
  4

  6

 40
0.0
 41
0.0
 42
0.0
 43
0.0
 44
0.0
 45
0.0
 46
0.0
 47
0.0
 48
0.0
 49
0.0
140
0.0
141
0.0
142
1.0
143
1.0
 70
   688
 72
     0
 73
     0
 74
     5
  7
Heering.ctb
 75
    16
147
1.0
 76
     0
 77
     2
 78
   300
148
0.0
149
0.0
100
AcDbLayout
  1
Layout2
 70
     1
 71
     2
 10
0.0
 20
0.0
 11
0.0
 21
0.0
 12
0.0
 22
0.0
 32
0.0
 14
0.0
 24
0.0
 34
0.0
 15
0.0
 25
0.0
 35
0.0
146
0.0
 13
0.0
 23
0.0
 33
0.0
 16
1.0
 26
0.0
 36
0.0
 17
0.0
 27
1.0
 37
0.0
 76
     0
330
23
  0
LAYOUT
  5
22
102
{ACAD_REACTORS
330
1A
102
}
330
1A
100
AcDbPlotSettings
  1

  2
Expert PDF
  4
A4
  6

 40
3.174999952316284
 41
3.174999952316284
 42
3.175003051757812
 43
3.17498779296875
 44
209.9733276367187
 45
297.0106506347656
 46
6.811662316322326
 47
6.830331444740295
 48
-199.4041954157978
 49
-115.0203594605383
140
77.59580458420214
141
74.97964053946171
142
1.0
143
1.0
 70
 11940
 72
     1
 73
     1
 74
     4
  7
Heering.ctb
 75
     0
147
1.0493164725252
 76
     0
 77
     2
 78
   300
148
199.4041954157978
149
115.0203594605383
100
AcDbLayout
  1
Model
 70
     1
 71
     0
 10
0.0
 20
0.0
 11
12.0
 21
9.0
 12
0.0
 22
0.0
 32
0.0
 14
1.000000000000000E+20
 24
1.000000000000000E+20
 34
1.000000000000000E+20
 15
-1.000000000000000E+20
 25
-1.000000000000000E+20
 35
-1.000000000000000E+20
146
0.0
 13
0.0
 23
0.0
 33
0.0
 16
1.0
 26
0.0
 36
0.0
 17
0.0
 27
1.0
 37
0.0
 76
     0
330
1F
331
29
1001
ACAD_PSEXT
1000
Expert PDF
1000
Visage PDF
1000
VSP1:
1000

1070
     0
  0
MATERIAL
  5
CF
102
{ACAD_XDICTIONARY
360
D0
102
}
102
{ACAD_REACTORS
330
C6
102
}
330
C6
100
AcDbMaterial
  1
ByBlock
 72
     0
 43
0.0208333333333333
 43
0.0
 43
0.0
 43
0.0
 43
0.0
 43
0.0208333333333333
 43
0.0
 43
0.0
 43
0.0
 43
0.0
 43
1.0
 43
0.0
 43
0.0
 43
0.0
 43
0.0
 43
1.0
 77
     0
 47
0.0208333333333333
 47
0.0
 47
0.0
 47
0.0
 47
0.0
 47
0.0208333333333333
 47
0.0
 47
0.0
 47
0.0
 47
0.0
 47
1.0
 47
0.0
 47
0.0
 47
0.0
 47
0.0
 47
1.0
171
     0
 49
0.0208333333333333
 49
0.0
 49
0.0
 49
0.0
 49
0.0
 49
0.0208333333333333
 49
0.0
 49
0.0
 49
0.0
 49
0.0
 49
1.0
 49
0.0
 49
0.0
 49
0.0
 49
0.0
 49
1.0
175
     0
142
0.0208333333333333
142
0.0
142
0.0
142
0.0
142
0.0
142
0.0208333333333333
142
0.0
142
0.0
142
0.0
142
0.0
142
1.0
142
0.0
142
0.0
142
0.0
142
0.0
142
1.0
179
     0
144
0.0208333333333333
144
0.0
144
0.0
144
0.0
144
0.0
144
0.0208333333333333
144
0.0
144
0.0
144
0.0
144
0.0
144
1.0
144
0.0
144
0.0
144
0.0
144
0.0
144
1.0
147
0.0208333333333333
147
0.0
147
0.0
147
0.0
147
0.0
147
0.0208333333333333
147
0.0
147
0.0
147
0.0
147
0.0
147
1.0
147
0.0
147
0.0
147
0.0
147
0.0
147
1.0
  0
MATERIAL
  5
C7
102
{ACAD_XDICTIONARY
360
C8
102
}
102
{ACAD_REACTORS
330
C6
102
}
330
C6
100
AcDbMaterial
  1
ByLayer
 72
     0
 43
0.0208333333333333
 43
0.0
 43
0.0
 43
0.0
 43
0.0
 43
0.0208333333333333
 43
0.0
 43
0.0
 43
0.0
 43
0.0
 43
1.0
 43
0.0
 43
0.0
 43
0.0
 43
0.0
 43
1.0
 77
     0
 47
0.0208333333333333
 47
0.0
 47
0.0
 47
0.0
 47
0.0
 47
0.0208333333333333
 47
0.0
 47
0.0
 47
0.0
 47
0.0
 47
1.0
 47
0.0
 47
0.0
 47
0.0
 47
0.0
 47
1.0
171
     0
 49
0.0208333333333333
 49
0.0
 49
0.0
 49
0.0
 49
0.0
 49
0.0208333333333333
 49
0.0
 49
0.0
 49
0.0
 49
0.0
 49
1.0
 49
0.0
 49
0.0
 49
0.0
 49
0.0
 49
1.0
175
     0
142
0.0208333333333333
142
0.0
142
0.0
142
0.0
142
0.0
142
0.0208333333333333
142
0.0
142
0.0
142
0.0
142
0.0
142
1.0
142
0.0
142
0.0
142
0.0
142
0.0
142
1.0
179
     0
144
0.0208333333333333
144
0.0
144
0.0
144
0.0
144
0.0
144
0.0208333333333333
144
0.0
144
0.0
144
0.0
144
0.0
144
1.0
144
0.0
144
0.0
144
0.0
144
0.0
144
1.0
147
0.0208333333333333
147
0.0
147
0.0
147
0.0
147
0.0
147
0.0208333333333333
147
0.0
147
0.0
147
0.0
147
0.0
147
1.0
147
0.0
147
0.0
147
0.0
147
0.0
147
1.0
  0
MATERIAL
  5
D7
102
{ACAD_XDICTIONARY
360
D8
102
}
102
{ACAD_REACTORS
330
C6
102
}
330
C6
100
AcDbMaterial
  1
Global
 72
     0
 43
0.0208333333333333
 43
0.0
 43
0.0
 43
0.0
 43
0.0
 43
0.0208333333333333
 43
0.0
 43
0.0
 43
0.0
 43
0.0
 43
1.0
 43
0.0
 43
0.0
 43
0.0
 43
0.0
 43
1.0
 77
     0
 47
0.0208333333333333
 47
0.0
 47
0.0
 47
0.0
 47
0.0
 47
0.0208333333333333
 47
0.0
 47
0.0
 47
0.0
 47
0.0
 47
1.0
 47
0.0
 47
0.0
 47
0.0
 47
0.0
 47
1.0
171
     0
 49
0.0208333333333333
 49
0.0
 49
0.0
 49
0.0
 49
0.0
 49
0.0208333333333333
 49
0.0
 49
0.0
 49
0.0
 49
0.0
 49
1.0
 49
0.0
 49
0.0
 49
0.0
 49
0.0
 49
1.0
175
     0
142
0.0208333333333333
142
0.0
142
0.0
142
0.0
142
0.0
142
0.0208333333333333
142
0.0
142
0.0
142
0.0
142
0.0
142
1.0
142
0.0
142
0.0
142
0.0
142
0.0
142
1.0
179
     0
144
0.0208333333333333
144
0.0
144
0.0
144
0.0
144
0.0
144
0.0208333333333333
144
0.0
144
0.0
144
0.0
144
0.0
144
1.0
144
0.0
144
0.0
144
0.0
144
0.0
144
1.0
147
0.0208333333333333
147
0.0
147
0.0
147
0.0
147
0.0
147
0.0208333333333333
147
0.0
147
0.0
147
0.0
147
0.0
147
1.0
147
0.0
147
0.0
147
0.0
147
0.0
147
1.0
  0
MLEADERSTYLE
  5
104
102
{ACAD_REACTORS
330
103
102
}
330
103
100
AcDbMLeaderStyle
179
     2
170
     2
171
     1
172
     0
 90
        2
 40
0.0
 41
0.0
173
     1
 91
-1056964608
340
14
 92
       -2
290
     1
 42
0.09
291
     1
 43
0.36
  3
Standard
 44
0.18
300

342
11
174
     1
178
     6
175
     1
176
     0
 93
-1056964608
 45
0.18
292
     0
297
     0
 46
0.18
 94
-1056964608
 47
1.0
 49
1.0
140
1.0
293
     1
141
0.0
294
     1
177
     0
142
1.0
295
     0
296
     0
143
0.125
271
     0
272
     9
273
     9
298
     0
  0
MLINESTYLE
  5
18
102
{ACAD_REACTORS
330
17
102
}
330
17
100
AcDbMlineStyle
  2
STANDARD
 70
     0
  3

 62
   256
 51
90.0
 52
90.0
 71
     2
 49
0.5
 62
   256
  6
BYLAYER
 49
-0.5
 62
   256
  6
BYLAYER
  0
ACDBPLACEHOLDER
  5
F
102
{ACAD_REACTORS
330
E
102
}
330
E
  0
SCALE
  5
E2
102
{ACAD_REACTORS
330
E1
102
}
330
E1
100
AcDbScale
 70
     0
300
1:1
140
1.0
141
1.0
290
     1
  0
SCALE
  5
1D7E
102
{ACAD_REACTORS
330
E1
102
}
330
E1
100
AcDbScale
 70
     0
300
1/128" = 1'-0"
140
0.0078125
141
12.0
290
     0
  0
SCALE
  5
1D7F
102
{ACAD_REACTORS
330
E1
102
}
330
E1
100
AcDbScale
 70
     0
300
1/64" = 1'-0"
140
0.015625
141
12.0
290
     0
  0
SCALE
  5
1D80
102
{ACAD_REACTORS
330
E1
102
}
330
E1
100
AcDbScale
 70
     0
300
1/32" = 1'-0"
140
0.03125
141
12.0
290
     0
  0
SCALE
  5
1D81
102
{ACAD_REACTORS
330
E1
102
}
330
E1
100
AcDbScale
 70
     0
300
1/16" = 1'-0"
140
0.0625
141
12.0
290
     0
  0
SCALE
  5
1D82
102
{ACAD_REACTORS
330
E1
102
}
330
E1
100
AcDbScale
 70
     0
300
3/32" = 1'-0"
140
0.09375
141
12.0
290
     0
  0
SCALE
  5
1D83
102
{ACAD_REACTORS
330
E1
102
}
330
E1
100
AcDbScale
 70
     0
300
1/8" = 1'-0"
140
0.125
141
12.0
290
     0
  0
SCALE
  5
1D84
102
{ACAD_REACTORS
330
E1
102
}
330
E1
100
AcDbScale
 70
     0
300
3/16" = 1'-0"
140
0.1875
141
12.0
290
     0
  0
SCALE
  5
1D85
102
{ACAD_REACTORS
330
E1
102
}
330
E1
100
AcDbScale
 70
     0
300
1/4" = 1'-0"
140
0.25
141
12.0
290
     0
  0
SCALE
  5
1D86
102
{ACAD_REACTORS
330
E1
102
}
330
E1
100
AcDbScale
 70
     0
300
3/8" = 1'-0"
140
0.375
141
12.0
290
     0
  0
SCALE
  5
1D87
102
{ACAD_REACTORS
330
E1
102
}
330
E1
100
AcDbScale
 70
     0
300
1/2" = 1'-0"
140
0.5
141
12.0
290
     0
  0
SCALE
  5
1D88
102
{ACAD_REACTORS
330
E1
102
}
330
E1
100
AcDbScale
 70
     0
300
3/4" = 1'-0"
140
0.75
141
12.0
290
     0
  0
SCALE
  5
1D89
102
{ACAD_REACTORS
330
E1
102
}
330
E1
100
AcDbScale
 70
     0
300
1" = 1'-0"
140
1.0
141
12.0
290
     0
  0
SCALE
  5
1D8A
102
{ACAD_REACTORS
330
E1
102
}
330
E1
100
AcDbScale
 70
     0
300
1-1/2" = 1'-0"
140
1.5
141
12.0
290
     0
  0
SCALE
  5
1D8B
102
{ACAD_REACTORS
330
E1
102
}
330
E1
100
AcDbScale
 70
     0
300
3" = 1'-0"
140
3.0
141
12.0
290
     0
  0
SCALE
  5
1D8C
102
{ACAD_REACTORS
330
E1
102
}
330
E1
100
AcDbScale
 70
     0
300
6" = 1'-0"
140
6.0
141
12.0
290
     0
  0
SCALE
  5
1D8D
102
{ACAD_REACTORS
330
E1
102
}
330
E1
100
AcDbScale
 70
     0
300
1'-0" = 1'-0"
140
12.0
141
12.0
290
     0
  0
ACDBSECTIONVIEWSTYLE
  5
1D75
102
{ACAD_REACTORS
330
1D74
102
}
330
1D74
100
AcDbModelDocViewStyle
 70
     0
  3
Imperial24
290
     1
300
Imperial24
 90
        0
100
AcDbSectionViewStyle
 70
     0
 71
     0
 90
       78
 71
     1
340
11
 62
   256
 40
0.24
340
0
340
0
 62
   256
 40
0.24
300
I, O, Q, S, X, Z
 40
0.48
 90
        3
 40
0.18
 90
        1
 71
     2
340
16
 90
       25
 62
   256
340
16
 90
       50
 62
   256
 40
0.24
 40
0.0
 40
0.24
 71
     3
340
11
 62
   256
 40
0.24
 90
        1
 40
0.75
 90
        1
300
%<\AcVar ViewType \f "%tc1">% %<\AcVar ViewSectionStartId>%-%<\AcVar ViewSectionEndId>%\PSCALE %<\AcVar ViewScale \f "%sn">%
 71
     4
 62
   256
 62
   257
300
ANSI31
 40
1.0
 90
        0
290
     0
290
     0
 90
        6
 40
0.0
 40
1.570796326794896
 40
0.2617993877991494
 40
1.308996938995747
 40
-0.2617993877991494
 40
1.832595714594046
  0
TABLESTYLE
  5
E0
102
{ACAD_XDICTIONARY
360
111
102
}
102
{ACAD_REACTORS
330
C4
102
}
330
C4
100
AcDbTableStyle
280
     0
  3
Standard
 70
     0
 71
     0
 40
0.06
 41
0.06
280
     0
281
     0
  7
Standard
140
0.18
170
     2
 62
     0
 63
     7
283
     0
 90
      512
 91
        0
  1

274
    -2
284
     1
 64
     0
275
    -2
285
     1
 65
     0
276
    -2
286
     1
 66
     0
277
    -2
287
     1
 67
     0
278
    -2
288
     1
 68
     0
279
    -2
289
     1
 69
     0
  7
Standard
140
0.25
170
     5
 62
     0
 63
     7
283
     0
 90
      512
 91
        0
  1

274
    -2
284
     1
 64
     0
275
    -2
285
     1
 65
     0
276
    -2
286
     1
 66
     0
277
    -2
287
     1
 67
     0
278
    -2
288
     1
 68
     0
279
    -2
289
     1
 69
     0
  7
Standard
140
0.18
170
     5
 62
     0
 63
     7
283
     0
 90
      512
 91
        0
  1

274
    -2
284
     1
 64
     0
275
    -2
285
     1
 65
     0
276
    -2
286
     1
 66
     0
277
    -2
287
     1
 67
     0
278
    -2
288
     1
 68
     0
279
    -2
289
     1
 69
     0
  0
VISUALSTYLE
  5
2F
102
{ACAD_REACTORS
330
2A
102
}
330
2A
100
AcDbVisualStyle
  2
2dWireframe
 70
     4
177
     3
291
     0
 70
    58
 90
        0
176
     1
 90
        2
176
     1
 90
        0
176
     1
 90
        0
176
     1
 40
0.6
176
     1
 40
30.0
176
     1
 62
     7
420
 16777215
176
     1
 90
        1
176
     1
 90
        4
176
     1
 62
     7
176
     1
 62
   257
176
     1
 90
        1
176
     1
 90
        1
176
     1
 40
1.0
176
     1
 90
        0
176
     1
 62
   257
176
     1
 40
1.0
176
     1
 90
        1
176
     1
 90
        6
176
     1
 90
        2
176
     1
 62
     7
176
     1
 90
        5
176
     1
 90
        0
176
     1
 90
        0
176
     1
290
     0
176
     1
 90
        1
176
     1
 40
0.0
176
     1
 90
        0
176
     1
290
     1
176
     1
290
     1
176
     1
290
     0
176
     1
290
     0
176
     1
290
     0
176
     1
290
     0
176
     1
290
     0
176
     1
290
     0
176
     1
290
     0
176
     1
 90
       50
176
     1
 40
0.0
176
     1
 40
1.0
176
     1
 90
        0
176
     1
 62
    18
420
        0
176
     1
 90
       50
176
     1
 90
        3
176
     1
 62
     5
420
      255
176
     1
290
     0
176
     1
 90
       50
176
     1
 90
       50
176
     1
 90
       50
176
     1
290
     0
176
     1
 90
       50
176
     1
 62
   256
176
     0
 40
1.0
176
     0
 90
        2
176
     1
  1
strokes_ogs.tif
176
     1
290
     0
176
     1
 40
1.0
176
     1
 40
1.0
176
     1
  0
VISUALSTYLE
  5
31
102
{ACAD_REACTORS
330
2A
102
}
330
2A
100
AcDbVisualStyle
  2
3D Hidden
 70
     6
177
     3
291
     0
 70
    58
 90
        1
176
     1
 90
        2
176
     1
 90
        2
176
     1
 90
        0
176
     1
 40
0.6
176
     1
 40
30.0
176
     1
 62
     7
420
 16777215
176
     1
 90
        2
176
     1
 90
        2
176
     1
 62
     7
176
     1
 62
   257
176
     1
 90
        2
176
     1
 90
        1
176
     1
 40
40.0
176
     1
 90
        0
176
     1
 62
   257
176
     1
 40
1.0
176
     1
 90
        1
176
     1
 90
        6
176
     1
 90
        2
176
     1
 62
     7
176
     1
 90
        3
176
     1
 90
        0
176
     1
 90
        0
176
     1
290
     0
176
     1
 90
        1
176
     1
 40
0.0
176
     1
 90
        0
176
     1
290
     0
176
     1
290
     1
176
     1
290
     1
176
     1
290
     0
176
     1
290
     0
176
     1
290
     0
176
     1
290
     0
176
     1
290
     0
176
     1
290
     0
176
     1
 90
       50
176
     1
 40
0.0
176
     1
 40
1.0
176
     1
 90
        0
176
     1
 62
    18
420
        0
176
     1
 90
       50
176
     1
 90
        3
176
     1
 62
     5
420
      255
176
     1
290
     0
176
     1
 90
       50
176
     1
 90
       50
176
     1
 90
       50
176
     1
290
     0
176
     1
 90
       50
176
     1
 62
   256
176
     0
 40
1.0
176
     0
 90
        2
176
     1
  1
strokes_ogs.tif
176
     1
290
     0
176
     1
 40
1.0
176
     1
 40
1.0
176
     1
  0
VISUALSTYLE
  5
30
102
{ACAD_REACTORS
330
2A
102
}
330
2A
100
AcDbVisualStyle
  2
3dWireframe
 70
     5
177
     3
291
     0
 70
    58
 90
        0
176
     1
 90
        2
176
     1
 90
        0
176
     1
 90
        0
176
     1
 40
0.6
176
     1
 40
30.0
176
     1
 62
     7
420
 16777215
176
     1
 90
        1
176
     1
 90
        4
176
     1
 62
     7
176
     1
 62
   257
176
     1
 90
        1
176
     1
 90
        1
176
     1
 40
1.0
176
     1
 90
        0
176
     1
 62
   257
176
     1
 40
1.0
176
     1
 90
        1
176
     1
 90
        6
176
     1
 90
        2
176
     1
 62
     7
176
     1
 90
        5
176
     1
 90
        0
176
     1
 90
        0
176
     1
290
     0
176
     1
 90
        1
176
     1
 40
0.0
176
     1
 90
        0
176
     1
290
     0
176
     1
290
     1
176
     1
290
     1
176
     1
290
     0
176
     1
290
     0
176
     1
290
     0
176
     1
290
     0
176
     1
290
     0
176
     1
290
     0
176
     1
 90
       50
176
     1
 40
0.0
176
     1
 40
1.0
176
     1
 90
        0
176
     1
 62
    18
420
        0
176
     1
 90
       50
176
     1
 90
        3
176
     1
 62
     5
420
      255
176
     1
290
     0
176
     1
 90
       50
176
     1
 90
       50
176
     1
 90
       50
176
     1
290
     0
176
     1
 90
       50
176
     1
 62
   256
176
     0
 40
1.0
176
     0
 90
        2
176
     1
  1
strokes_ogs.tif
176
     1
290
     0
176
     1
 40
1.0
176
     1
 40
1.0
176
     1
  0
VISUALSTYLE
  5
32
102
{ACAD_REACTORS
330
2A
102
}
330
2A
100
AcDbVisualStyle
  2
Basic
 70
     7
177
     3
291
     1
 70
    58
 90
        1
176
     1
 90
        0
176
     1
 90
        1
176
     1
 90
        0
176
     1
 40
0.6
176
     1
 40
30.0
176
     1
 62
     7
420
 16777215
176
     1
 90
        0
176
     1
 90
        4
176
     1
 62
     7
176
     1
 62
   257
176
     1
 90
        1
176
     1
 90
        1
176
     1
 40
1.0
176
     1
 90
        8
176
     1
 62
     7
176
     1
 40
1.0
176
     1
 90
        1
176
     1
 90
        6
176
     1
 90
        2
176
     1
 62
     7
176
     1
 90
        5
176
     1
 90
        0
176
     1
 90
        0
176
     1
290
     0
176
     1
 90
        1
176
     1
 40
0.0
176
     1
 90
        0
176
     1
290
     0
176
     1
290
     1
176
     1
290
     1
176
     1
290
     0
176
     1
290
     0
176
     1
290
     0
176
     1
290
     0
176
     1
290
     0
176
     1
290
     0
176
     1
 90
       50
176
     1
 40
0.0
176
     1
 40
1.0
176
     1
 90
        0
176
     1
 62
    18
420
        0
176
     1
 90
       50
176
     1
 90
        3
176
     1
 62
     5
420
      255
176
     1
290
     0
176
     1
 90
       50
176
     1
 90
       50
176
     1
 90
       50
176
     1
290
     0
176
     1
 90
       50
176
     1
 62
   256
176
     0
 40
1.0
176
     0
 90
        2
176
     1
  1
strokes_ogs.tif
176
     1
290
     0
176
     1
 40
1.0
176
     1
 40
1.0
176
     1
  0
VISUALSTYLE
  5
36
102
{ACAD_REACTORS
330
2A
102
}
330
2A
100
AcDbVisualStyle
  2
Brighten
 70
    12
177
     3
291
     1
 70
    58
 90
        2
176
     1
 90
        2
176
     1
 90
        0
176
     1
 90
        0
176
     1
 40
0.6
176
     1
 40
30.0
176
     1
 62
     7
420
 16777215
176
     1
 90
        1
176
     1
 90
        4
176
     1
 62
     7
176
     1
 62
   257
176
     1
 90
        1
176
     1
 90
        1
176
     1
 40
1.0
176
     1
 90
        8
176
     1
 62
     7
176
     1
 40
1.0
176
     1
 90
        1
176
     1
 90
        6
176
     1
 90
        2
176
     1
 62
     7
176
     1
 90
        5
176
     1
 90
        0
176
     1
 90
        0
176
     1
290
     0
176
     1
 90
        1
176
     1
 40
50.0
176
     1
 90
        0
176
     1
290
     0
176
     1
290
     1
176
     1
290
     1
176
     1
290
     0
176
     1
290
     0
176
     1
290
     0
176
     1
290
     0
176
     1
290
     0
176
     1
290
     0
176
     1
 90
       50
176
     1
 40
0.0
176
     1
 40
1.0
176
     1
 90
        0
176
     1
 62
    18
420
        0
176
     1
 90
       50
176
     1
 90
        3
176
     1
 62
     5
420
      255
176
     1
290
     0
176
     1
 90
       50
176
     1
 90
       50
176
     1
 90
       50
176
     1
290
     0
176
     1
 90
       50
176
     1
 62
   256
176
     0
 40
1.0
176
     0
 90
        2
176
     1
  1
strokes_ogs.tif
176
     1
290
     0
176
     1
 40
1.0
176
     1
 40
1.0
176
     1
  0
VISUALSTYLE
  5
3A
102
{ACAD_REACTORS
330
2A
102
}
330
2A
100
AcDbVisualStyle
  2
ColorChange
 70
    16
177
     3
291
     1
 70
    58
 90
        2
176
     1
 90
        2
176
     1
 90
        3
176
     1
 90
        0
176
     1
 40
0.6
176
     1
 40
30.0
176
     1
 62
     8
420
  8421504
176
     1
 90
        1
176
     1
 90
        4
176
     1
 62
     7
176
     1
 62
   257
176
     1
 90
        1
176
     1
 90
        1
176
     1
 40
1.0
176
     1
 90
        8
176
     1
 62
     8
420
  8421504
176
     1
 40
1.0
176
     1
 90
        1
176
     1
 90
        6
176
     1
 90
        2
176
     1
 62
     7
176
     1
 90
        5
176
     1
 90
        0
176
     1
 90
        0
176
     1
290
     0
176
     1
 90
        1
176
     1
 40
0.0
176
     1
 90
        0
176
     1
290
     0
176
     1
290
     1
176
     1
290
     1
176
     1
290
     0
176
     1
290
     0
176
     1
290
     0
176
     1
290
     0
176
     1
290
     0
176
     1
290
     0
176
     1
 90
       50
176
     1
 40
0.0
176
     1
 40
1.0
176
     1
 90
        0
176
     1
 62
    18
420
        0
176
     1
 90
       50
176
     1
 90
        3
176
     1
 62
     5
420
      255
176
     1
290
     0
176
     1
 90
       50
176
     1
 90
       50
176
     1
 90
       50
176
     1
290
     0
176
     1
 90
       50
176
     1
 62
   256
176
     0
 40
1.0
176
     0
 90
        2
176
     1
  1
strokes_ogs.tif
176
     1
290
     0
176
     1
 40
1.0
176
     1
 40
1.0
176
     1
  0
VISUALSTYLE
  5
34
102
{ACAD_REACTORS
330
2A
102
}
330
2A
100
AcDbVisualStyle
  2
Conceptual
 70
     9
177
     3
291
     0
 70
    58
 90
        3
176
     1
 90
        2
176
     1
 90
        0
176
     1
 90
        0
176
     1
 40
0.6
176
     1
 40
30.0
176
     1
 62
     7
420
 16777215
176
     1
 90
        2
176
     1
 90
        2
176
     1
 62
     7
176
     1
 62
   257
176
     1
 90
        1
176
     1
 90
        1
176
     1
 40
40.0
176
     1
 90
        8
176
     1
 62
     7
176
     1
 40
1.0
176
     1
 90
        1
176
     1
 90
        6
176
     1
 90
        2
176
     1
 62
     7
176
     1
 90
        3
176
     1
 90
        0
176
     1
 90
        0
176
     1
290
     0
176
     1
 90
        1
176
     1
 40
0.0
176
     1
 90
        0
176
     1
290
     0
176
     1
290
     1
176
     1
290
     1
176
     1
290
     0
176
     1
290
     0
176
     1
290
     0
176
     1
290
     0
176
     1
290
     0
176
     1
290
     0
176
     1
 90
       50
176
     1
 40
0.0
176
     1
 40
1.0
176
     1
 90
        0
176
     1
 62
    18
420
        0
176
     1
 90
       50
176
     1
 90
        3
176
     1
 62
     5
420
      255
176
     1
290
     0
176
     1
 90
       50
176
     1
 90
       50
176
     1
 90
       50
176
     1
290
     0
176
     1
 90
       50
176
     1
 62
   256
176
     0
 40
1.0
176
     0
 90
        2
176
     1
  1
strokes_ogs.tif
176
     1
290
     0
176
     1
 40
1.0
176
     1
 40
1.0
176
     1
  0
VISUALSTYLE
  5
35
102
{ACAD_REACTORS
330
2A
102
}
330
2A
100
AcDbVisualStyle
  2
Dim
 70
    11
177
     3
291
     1
 70
    58
 90
        2
176
     1
 90
        2
176
     1
 90
        0
176
     1
 90
        0
176
     1
 40
0.6
176
     1
 40
30.0
176
     1
 62
     7
420
 16777215
176
     1
 90
        1
176
     1
 90
        4
176
     1
 62
     7
176
     1
 62
   257
176
     1
 90
        1
176
     1
 90
        1
176
     1
 40
1.0
176
     1
 90
        8
176
     1
 62
     7
176
     1
 40
1.0
176
     1
 90
        1
176
     1
 90
        6
176
     1
 90
        2
176
     1
 62
     7
176
     1
 90
        5
176
     1
 90
        0
176
     1
 90
        0
176
     1
290
     0
176
     1
 90
        1
176
     1
 40
-50.0
176
     1
 90
        0
176
     1
290
     0
176
     1
290
     1
176
     1
290
     1
176
     1
290
     0
176
     1
290
     0
176
     1
290
     0
176
     1
290
     0
176
     1
290
     0
176
     1
290
     0
176
     1
 90
       50
176
     1
 40
0.0
176
     1
 40
1.0
176
     1
 90
        0
176
     1
 62
    18
420
        0
176
     1
 90
       50
176
     1
 90
        3
176
     1
 62
     5
420
      255
176
     1
290
     0
176
     1
 90
       50
176
     1
 90
       50
176
     1
 90
       50
176
     1
290
     0
176
     1
 90
       50
176
     1
 62
   256
176
     0
 40
1.0
176
     0
 90
        2
176
     1
  1
strokes_ogs.tif
176
     1
290
     0
176
     1
 40
1.0
176
     1
 40
1.0
176
     1
  0
VISUALSTYLE
  5
1D73
102
{ACAD_REACTORS
330
2A
102
}
330
2A
100
AcDbVisualStyle
  2
EdgeColorOff
 70
    22
177
     3
291
     1
 70
    58
 90
        2
176
     0
 90
        2
176
     0
 90
        0
176
     0
 90
        0
176
     0
 40
0.6
176
     0
 40
30.0
176
     0
 62
     7
420
 16777215
176
     0
 90
        1
176
     0
 90
        4
176
     0
 62
     7
176
     0
 62
   257
176
     0
 90
        1
176
     0
 90
        1
176
     0
 40
1.0
176
     0
 90
        8
176
     2
 62
     7
176
     0
 40
1.0
176
     0
 90
        1
176
     0
 90
        6
176
     0
 90
        2
176
     0
 62
     7
176
     0
 90
        5
176
     0
 90
        0
176
     0
 90
        0
176
     0
290
     0
176
     0
 90
        1
176
     0
 40
0.0
176
     0
 90
        0
176
     0
290
     0
176
     0
290
     1
176
     0
290
     1
176
     0
290
     0
176
     0
290
     0
176
     0
290
     0
176
     0
290
     0
176
     0
290
     0
176
     0
290
     0
176
     0
 90
       50
176
     0
 40
0.0
176
     0
 40
1.0
176
     0
 90
        0
176
     0
 62
    18
420
        0
176
     0
 90
       50
176
     0
 90
        3
176
     0
 62
     5
420
      255
176
     0
290
     0
176
     0
 90
       50
176
     0
 90
       50
176
     0
 90
       50
176
     0
290
     0
176
     0
 90
       50
176
     0
 62
   256
176
     0
 40
1.0
176
     0
 90
        2
176
     0
  1
strokes_ogs.tif
176
     0
290
     0
176
     0
 40
1.0
176
     0
 40
1.0
176
     0
  0
VISUALSTYLE
  5
39
102
{ACAD_REACTORS
330
2A
102
}
330
2A
100
AcDbVisualStyle
  2
Facepattern
 70
    15
177
     3
291
     1
 70
    58
 90
        2
176
     1
 90
        2
176
     1
 90
        0
176
     1
 90
        0
176
     1
 40
0.6
176
     1
 40
30.0
176
     1
 62
     7
420
 16777215
176
     1
 90
        1
176
     1
 90
        4
176
     1
 62
     7
176
     1
 62
   257
176
     1
 90
        1
176
     1
 90
        1
176
     1
 40
1.0
176
     1
 90
        8
176
     1
 62
     7
176
     1
 40
1.0
176
     1
 90
        1
176
     1
 90
        6
176
     1
 90
        2
176
     1
 62
     7
176
     1
 90
        5
176
     1
 90
        0
176
     1
 90
        0
176
     1
290
     0
176
     1
 90
        1
176
     1
 40
0.0
176
     1
 90
        0
176
     1
290
     0
176
     1
290
     1
176
     1
290
     1
176
     1
290
     0
176
     1
290
     0
176
     1
290
     0
176
     1
290
     0
176
     1
290
     0
176
     1
290
     0
176
     1
 90
       50
176
     1
 40
0.0
176
     1
 40
1.0
176
     1
 90
        0
176
     1
 62
    18
420
        0
176
     1
 90
       50
176
     1
 90
        3
176
     1
 62
     5
420
      255
176
     1
290
     0
176
     1
 90
       50
176
     1
 90
       50
176
     1
 90
       50
176
     1
290
     0
176
     1
 90
       50
176
     1
 62
   256
176
     0
 40
1.0
176
     0
 90
        2
176
     1
  1
strokes_ogs.tif
176
     1
290
     0
176
     1
 40
1.0
176
     1
 40
1.0
176
     1
  0
VISUALSTYLE
  5
2B
102
{ACAD_REACTORS
330
2A
102
}
330
2A
100
AcDbVisualStyle
  2
Flat
 70
     0
177
     3
291
     1
 70
    58
 90
        2
176
     1
 90
        1
176
     1
 90
        1
176
     1
 90
        2
176
     1
 40
0.6
176
     1
 40
30.0
176
     1
 62
     7
420
 16777215
176
     1
 90
        0
176
     1
 90
        4
176
     1
 62
     7
176
     1
 62
   257
176
     1
 90
        1
176
     1
 90
        1
176
     1
 40
1.0
176
     1
 90
        8
176
     1
 62
     7
176
     1
 40
1.0
176
     1
 90
        1
176
     1
 90
        6
176
     1
 90
        2
176
     1
 62
     7
176
     1
 90
        5
176
     1
 90
        0
176
     1
 90
        0
176
     1
290
     0
176
     1
 90
       13
176
     1
 40
0.0
176
     1
 90
        0
176
     1
290
     0
176
     1
290
     1
176
     1
290
     1
176
     1
290
     0
176
     1
290
     0
176
     1
290
     0
176
     1
290
     0
176
     1
290
     0
176
     1
290
     0
176
     1
 90
       50
176
     1
 40
0.0
176
     1
 40
1.0
176
     1
 90
        0
176
     1
 62
    18
420
        0
176
     1
 90
       50
176
     1
 90
        3
176
     1
 62
     5
420
      255
176
     1
290
     0
176
     1
 90
       50
176
     1
 90
       50
176
     1
 90
       50
176
     1
290
     0
176
     1
 90
       50
176
     1
 62
   256
176
     0
 40
1.0
176
     0
 90
        2
176
     1
  1
strokes_ogs.tif
176
     1
290
     0
176
     1
 40
1.0
176
     1
 40
1.0
176
     1
  0
VISUALSTYLE
  5
2C
102
{ACAD_REACTORS
330
2A
102
}
330
2A
100
AcDbVisualStyle
  2
FlatWithEdges
 70
     1
177
     3
291
     1
 70
    58
 90
        2
176
     1
 90
        1
176
     1
 90
        1
176
     1
 90
        2
176
     1
 40
0.6
176
     1
 40
30.0
176
     1
 62
     7
420
 16777215
176
     1
 90
        1
176
     1
 90
        4
176
     1
 62
     7
176
     1
 62
   257
176
     1
 90
        1
176
     1
 90
        1
176
     1
 40
1.0
176
     1
 90
        0
176
     1
 62
   257
176
     1
 40
1.0
176
     1
 90
        1
176
     1
 90
        6
176
     1
 90
        2
176
     1
 62
     7
176
     1
 90
        5
176
     1
 90
        0
176
     1
 90
        0
176
     1
290
     0
176
     1
 90
       13
176
     1
 40
0.0
176
     1
 90
        0
176
     1
290
     0
176
     1
290
     1
176
     1
290
     1
176
     1
290
     0
176
     1
290
     0
176
     1
290
     0
176
     1
290
     0
176
     1
290
     0
176
     1
290
     0
176
     1
 90
       50
176
     1
 40
0.0
176
     1
 40
1.0
176
     1
 90
        0
176
     1
 62
    18
420
        0
176
     1
 90
       50
176
     1
 90
        3
176
     1
 62
     5
420
      255
176
     1
290
     0
176
     1
 90
       50
176
     1
 90
       50
176
     1
 90
       50
176
     1
290
     0
176
     1
 90
       50
176
     1
 62
   256
176
     0
 40
1.0
176
     0
 90
        2
176
     1
  1
strokes_ogs.tif
176
     1
290
     0
176
     1
 40
1.0
176
     1
 40
1.0
176
     1
  0
VISUALSTYLE
  5
2D
102
{ACAD_REACTORS
330
2A
102
}
330
2A
100
AcDbVisualStyle
  2
Gouraud
 70
     2
177
     3
291
     1
 70
    58
 90
        2
176
     1
 90
        2
176
     1
 90
        1
176
     1
 90
        2
176
     1
 40
0.6
176
     1
 40
30.0
176
     1
 62
     7
420
 16777215
176
     1
 90
        0
176
     1
 90
        4
176
     1
 62
     7
176
     1
 62
   257
176
     1
 90
        1
176
     1
 90
        1
176
     1
 40
1.0
176
     1
 90
        0
176
     1
 62
     7
176
     1
 40
1.0
176
     1
 90
        1
176
     1
 90
        6
176
     1
 90
        2
176
     1
 62
     7
176
     1
 90
        5
176
     1
 90
        0
176
     1
 90
        0
176
     1
290
     0
176
     1
 90
       13
176
     1
 40
0.0
176
     1
 90
        0
176
     1
290
     0
176
     1
290
     1
176
     1
290
     1
176
     1
290
     0
176
     1
290
     0
176
     1
290
     0
176
     1
290
     0
176
     1
290
     0
176
     1
290
     0
176
     1
 90
       50
176
     1
 40
0.0
176
     1
 40
1.0
176
     1
 90
        0
176
     1
 62
    18
420
        0
176
     1
 90
       50
176
     1
 90
        3
176
     1
 62
     5
420
      255
176
     1
290
     0
176
     1
 90
       50
176
     1
 90
       50
176
     1
 90
       50
176
     1
290
     0
176
     1
 90
       50
176
     1
 62
   256
176
     0
 40
1.0
176
     0
 90
        2
176
     1
  1
strokes_ogs.tif
176
     1
290
     0
176
     1
 40
1.0
176
     1
 40
1.0
176
     1
  0
VISUALSTYLE
  5
2E
102
{ACAD_REACTORS
330
2A
102
}
330
2A
100
AcDbVisualStyle
  2
GouraudWithEdges
 70
     3
177
     3
291
     1
 70
    58
 90
        2
176
     1
 90
        2
176
     1
 90
        1
176
     1
 90
        2
176
     1
 40
0.6
176
     1
 40
30.0
176
     1
 62
     7
420
 16777215
176
     1
 90
        1
176
     1
 90
        4
176
     1
 62
     7
176
     1
 62
   257
176
     1
 90
        1
176
     1
 90
        1
176
     1
 40
1.0
176
     1
 90
        0
176
     1
 62
   257
176
     1
 40
1.0
176
     1
 90
        1
176
     1
 90
        6
176
     1
 90
        2
176
     1
 62
     7
176
     1
 90
        5
176
     1
 90
        0
176
     1
 90
        0
176
     1
290
     0
176
     1
 90
       13
176
     1
 40
0.0
176
     1
 90
        0
176
     1
290
     0
176
     1
290
     1
176
     1
290
     1
176
     1
290
     0
176
     1
290
     0
176
     1
290
     0
176
     1
290
     0
176
     1
290
     0
176
     1
290
     0
176
     1
 90
       50
176
     1
 40
0.0
176
     1
 40
1.0
176
     1
 90
        0
176
     1
 62
    18
420
        0
176
     1
 90
       50
176
     1
 90
        3
176
     1
 62
     5
420
      255
176
     1
290
     0
176
     1
 90
       50
176
     1
 90
       50
176
     1
 90
       50
176
     1
290
     0
176
     1
 90
       50
176
     1
 62
   256
176
     0
 40
1.0
176
     0
 90
        2
176
     1
  1
strokes_ogs.tif
176
     1
290
     0
176
     1
 40
1.0
176
     1
 40
1.0
176
     1
  0
VISUALSTYLE
  5
1D6B
102
{ACAD_REACTORS
330
2A
102
}
330
2A
100
AcDbVisualStyle
  2
Hidden
 70
     6
177
     3
291
     0
 70
    58
 90
        1
176
     1
 90
        2
176
     1
 90
        2
176
     1
 90
        0
176
     1
 40
0.6
176
     1
 40
30.0
176
     1
 62
     7
420
 16777215
176
     1
 90
        2
176
     1
 90
        2
176
     1
 62
     7
176
     1
 62
   257
176
     1
 90
        2
176
     1
 90
        1
176
     1
 40
40.0
176
     1
 90
        0
176
     1
 62
   257
176
     1
 40
1.0
176
     1
 90
        1
176
     1
 90
        6
176
     1
 90
        2
176
     1
 62
     7
176
     1
 90
        3
176
     1
 90
        0
176
     1
 90
        0
176
     1
290
     0
176
     1
 90
        1
176
     1
 40
0.0
176
     1
 90
        0
176
     1
290
     0
176
     1
290
     1
176
     1
290
     1
176
     1
290
     0
176
     1
290
     0
176
     1
290
     0
176
     1
290
     0
176
     1
290
     0
176
     1
290
     0
176
     1
 90
       50
176
     1
 40
0.0
176
     1
 40
1.0
176
     1
 90
        0
176
     1
 62
    18
420
        0
176
     1
 90
       50
176
     1
 90
        3
176
     1
 62
     5
420
      255
176
     1
290
     0
176
     1
 90
       50
176
     1
 90
       50
176
     1
 90
       50
176
     1
290
     0
176
     1
 90
       50
176
     1
 62
   256
176
     0
 40
1.0
176
     0
 90
        2
176
     1
  1
strokes_ogs.tif
176
     1
290
     0
176
     1
 40
1.0
176
     1
 40
1.0
176
     1
  0
VISUALSTYLE
  5
1D71
102
{ACAD_REACTORS
330
2A
102
}
330
2A
100
AcDbVisualStyle
  2
JitterOff
 70
    20
177
     3
291
     1
 70
    58
 90
        2
176
     0
 90
        2
176
     0
 90
        0
176
     0
 90
        0
176
     0
 40
0.6
176
     0
 40
30.0
176
     0
 62
     7
420
 16777215
176
     0
 90
        1
176
     0
 90
        4
176
     0
 62
     7
176
     0
 62
   257
176
     0
 90
        1
176
     0
 90
        1
176
     0
 40
1.0
176
     0
 90
       10
176
     2
 62
     7
176
     0
 40
1.0
176
     0
 90
        1
176
     0
 90
        6
176
     0
 90
        2
176
     0
 62
     7
176
     0
 90
        5
176
     0
 90
        0
176
     0
 90
        0
176
     0
290
     0
176
     0
 90
        1
176
     0
 40
0.0
176
     0
 90
        0
176
     0
290
     0
176
     0
290
     1
176
     0
290
     1
176
     0
290
     0
176
     0
290
     0
176
     0
290
     0
176
     0
290
     0
176
     0
290
     0
176
     0
290
     0
176
     0
 90
       50
176
     0
 40
0.0
176
     0
 40
1.0
176
     0
 90
        0
176
     0
 62
    18
420
        0
176
     0
 90
       50
176
     0
 90
        3
176
     0
 62
     5
420
      255
176
     0
290
     0
176
     0
 90
       50
176
     0
 90
       50
176
     0
 90
       50
176
     0
290
     0
176
     0
 90
       50
176
     0
 62
   256
176
     0
 40
1.0
176
     0
 90
        2
176
     0
  1
strokes_ogs.tif
176
     0
290
     0
176
     0
 40
1.0
176
     0
 40
1.0
176
     0
  0
VISUALSTYLE
  5
38
102
{ACAD_REACTORS
330
2A
102
}
330
2A
100
AcDbVisualStyle
  2
Linepattern
 70
    14
177
     3
291
     1
 70
    58
 90
        2
176
     1
 90
        2
176
     1
 90
        0
176
     1
 90
        0
176
     1
 40
0.6
176
     1
 40
30.0
176
     1
 62
     7
420
 16777215
176
     1
 90
        1
176
     1
 90
        4
176
     1
 62
     7
176
     1
 62
   257
176
     1
 90
        7
176
     1
 90
        7
176
     1
 40
1.0
176
     1
 90
        8
176
     1
 62
     7
176
     1
 40
1.0
176
     1
 90
        1
176
     1
 90
        6
176
     1
 90
        2
176
     1
 62
     7
176
     1
 90
        5
176
     1
 90
        0
176
     1
 90
        0
176
     1
290
     0
176
     1
 90
        1
176
     1
 40
0.0
176
     1
 90
        0
176
     1
290
     0
176
     1
290
     1
176
     1
290
     1
176
     1
290
     0
176
     1
290
     0
176
     1
290
     0
176
     1
290
     0
176
     1
290
     0
176
     1
290
     0
176
     1
 90
       50
176
     1
 40
0.0
176
     1
 40
1.0
176
     1
 90
        0
176
     1
 62
    18
420
        0
176
     1
 90
       50
176
     1
 90
        3
176
     1
 62
     5
420
      255
176
     1
290
     0
176
     1
 90
       50
176
     1
 90
       50
176
     1
 90
       50
176
     1
290
     0
176
     1
 90
       50
176
     1
 62
   256
176
     0
 40
1.0
176
     0
 90
        2
176
     1
  1
strokes_ogs.tif
176
     1
290
     0
176
     1
 40
1.0
176
     1
 40
1.0
176
     1
  0
VISUALSTYLE
  5
1D72
102
{ACAD_REACTORS
330
2A
102
}
330
2A
100
AcDbVisualStyle
  2
OverhangOff
 70
    21
177
     3
291
     1
 70
    58
 90
        2
176
     0
 90
        2
176
     0
 90
        0
176
     0
 90
        0
176
     0
 40
0.6
176
     0
 40
30.0
176
     0
 62
     7
420
 16777215
176
     0
 90
        1
176
     0
 90
        4
176
     0
 62
     7
176
     0
 62
   257
176
     0
 90
        1
176
     0
 90
        1
176
     0
 40
1.0
176
     0
 90
        9
176
     2
 62
     7
176
     0
 40
1.0
176
     0
 90
        1
176
     0
 90
        6
176
     0
 90
        2
176
     0
 62
     7
176
     0
 90
        5
176
     0
 90
        0
176
     0
 90
        0
176
     0
290
     0
176
     0
 90
        1
176
     0
 40
0.0
176
     0
 90
        0
176
     0
290
     0
176
     0
290
     1
176
     0
290
     1
176
     0
290
     0
176
     0
290
     0
176
     0
290
     0
176
     0
290
     0
176
     0
290
     0
176
     0
290
     0
176
     0
 90
       50
176
     0
 40
0.0
176
     0
 40
1.0
176
     0
 90
        0
176
     0
 62
    18
420
        0
176
     0
 90
       50
176
     0
 90
        3
176
     0
 62
     5
420
      255
176
     0
290
     0
176
     0
 90
       50
176
     0
 90
       50
176
     0
 90
       50
176
     0
290
     0
176
     0
 90
       50
176
     0
 62
   256
176
     0
 40
1.0
176
     0
 90
        2
176
     0
  1
strokes_ogs.tif
176
     0
290
     0
176
     0
 40
1.0
176
     0
 40
1.0
176
     0
  0
VISUALSTYLE
  5
33
102
{ACAD_REACTORS
330
2A
102
}
330
2A
100
AcDbVisualStyle
  2
Realistic
 70
     8
177
     3
291
     0
 70
    58
 90
        2
176
     1
 90
        2
176
     1
 90
        0
176
     1
 90
        0
176
     1
 40
0.6
176
     1
 40
30.0
176
     1
 62
     7
420
 16777215
176
     1
 90
        1
176
     1
 90
        0
176
     1
 62
     7
176
     1
 62
   257
176
     1
 90
        1
176
     1
 90
        1
176
     1
 40
1.0
176
     1
 90
        8
176
     1
 62
     8
420
  7895160
176
     1
 40
1.0
176
     1
 90
        1
176
     1
 90
        6
176
     1
 90
        2
176
     1
 62
     7
176
     1
 90
        5
176
     1
 90
        0
176
     1
 90
        0
176
     1
290
     0
176
     1
 90
       13
176
     1
 40
0.0
176
     1
 90
        0
176
     1
290
     0
176
     1
290
     1
176
     1
290
     1
176
     1
290
     0
176
     1
290
     0
176
     1
290
     0
176
     1
290
     0
176
     1
290
     0
176
     1
290
     0
176
     1
 90
       50
176
     1
 40
0.0
176
     1
 40
1.0
176
     1
 90
        0
176
     1
 62
    18
420
        0
176
     1
 90
       50
176
     1
 90
        3
176
     1
 62
     5
420
      255
176
     1
290
     0
176
     1
 90
       50
176
     1
 90
       50
176
     1
 90
       50
176
     1
290
     0
176
     1
 90
       50
176
     1
 62
   256
176
     0
 40
1.0
176
     0
 90
        2
176
     1
  1
strokes_ogs.tif
176
     1
290
     0
176
     1
 40
1.0
176
     1
 40
1.0
176
     1
  0
VISUALSTYLE
  5
1D70
102
{ACAD_REACTORS
330
2A
102
}
330
2A
100
AcDbVisualStyle
  2
Shaded
 70
    27
177
     3
291
     0
 70
    58
 90
        2
176
     1
 90
        2
176
     1
 90
        1
176
     1
 90
        2
176
     1
 40
0.6
176
     1
 40
30.0
176
     1
 62
     7
420
 16777215
176
     1
 90
        0
176
     1
 90
        4
176
     1
 62
     7
176
     1
 62
   257
176
     1
 90
        1
176
     1
 90
        1
176
     1
 40
1.0
176
     1
 90
        8
176
     1
 62
   257
176
     1
 40
1.0
176
     1
 90
        1
176
     1
 90
        6
176
     1
 90
        2
176
     1
 62
     8
420
  7895160
176
     1
 90
        3
176
     1
 90
        0
176
     1
 90
        0
176
     1
290
     0
176
     1
 90
        5
176
     1
 40
0.0
176
     1
 90
        0
176
     1
290
     0
176
     1
290
     1
176
     1
290
     1
176
     1
290
     0
176
     1
290
     0
176
     1
290
     0
176
     1
290
     0
176
     1
290
     0
176
     1
290
     0
176
     1
 90
       50
176
     1
 40
0.0
176
     1
 40
1.0
176
     1
 90
        0
176
     1
 62
    18
420
        0
176
     1
 90
       50
176
     1
 90
        3
176
     1
 62
     5
420
      255
176
     1
290
     0
176
     1
 90
       50
176
     1
 90
       50
176
     1
 90
       50
176
     1
290
     0
176
     1
 90
       50
176
     1
 62
   256
176
     0
 40
1.0
176
     0
 90
        2
176
     1
  1
strokes_ogs.tif
176
     1
290
     0
176
     1
 40
1.0
176
     1
 40
1.0
176
     1
  0
VISUALSTYLE
  5
1D6F
102
{ACAD_REACTORS
330
2A
102
}
330
2A
100
AcDbVisualStyle
  2
Shaded with edges
 70
    26
177
     3
291
     0
 70
    58
 90
        2
176
     1
 90
        2
176
     1
 90
        1
176
     1
 90
        2
176
     1
 40
0.6
176
     1
 40
30.0
176
     1
 62
     7
420
 16777215
176
     1
 90
        1
176
     1
 90
        2
176
     1
 62
     7
176
     1
 62
   257
176
     1
 90
        2
176
     1
 90
        1
176
     1
 40
1.0
176
     1
 90
        8
176
     1
 62
   257
176
     1
 40
1.0
176
     1
 90
        1
176
     1
 90
        6
176
     1
 90
        2
176
     1
 62
     7
176
     1
 90
        3
176
     1
 90
        0
176
     1
 90
        0
176
     1
290
     0
176
     1
 90
        5
176
     1
 40
0.0
176
     1
 90
        0
176
     1
290
     0
176
     1
290
     1
176
     1
290
     1
176
     1
290
     0
176
     1
290
     0
176
     1
290
     0
176
     1
290
     0
176
     1
290
     0
176
     1
290
     0
176
     1
 90
       50
176
     1
 40
0.0
176
     1
 40
1.0
176
     1
 90
        0
176
     1
 62
    18
420
        0
176
     1
 90
       50
176
     1
 90
        3
176
     1
 62
     5
420
      255
176
     1
290
     0
176
     1
 90
       50
176
     1
 90
       50
176
     1
 90
       50
176
     1
290
     0
176
     1
 90
       50
176
     1
 62
   256
176
     0
 40
1.0
176
     0
 90
        2
176
     1
  1
strokes_ogs.tif
176
     1
290
     0
176
     1
 40
1.0
176
     1
 40
1.0
176
     1
  0
VISUALSTYLE
  5
1D6C
102
{ACAD_REACTORS
330
2A
102
}
330
2A
100
AcDbVisualStyle
  2
Shades of Gray
 70
    23
177
     3
291
     0
 70
    58
 90
        2
176
     1
 90
        2
176
     1
 90
        3
176
     1
 90
        0
176
     1
 40
0.6
176
     1
 40
30.0
176
     1
 62
     7
420
 16777215
176
     1
 90
        2
176
     1
 90
        2
176
     1
 62
     7
176
     1
 62
     7
176
     1
 90
        1
176
     1
 90
        1
176
     1
 40
40.0
176
     1
 90
        8
176
     1
 62
     7
176
     1
 40
1.0
176
     1
 90
        1
176
     1
 90
        6
176
     1
 90
        2
176
     1
 62
     7
176
     1
 90
        3
176
     1
 90
        0
176
     1
 90
        0
176
     1
290
     0
176
     1
 90
        1
176
     1
 40
0.0
176
     1
 90
        0
176
     1
290
     0
176
     1
290
     1
176
     1
290
     1
176
     1
290
     0
176
     1
290
     0
176
     1
290
     0
176
     1
290
     0
176
     1
290
     0
176
     1
290
     0
176
     1
 90
       50
176
     1
 40
0.0
176
     1
 40
1.0
176
     1
 90
        0
176
     1
 62
    18
420
        0
176
     1
 90
       50
176
     1
 90
        3
176
     1
 62
     5
420
      255
176
     1
290
     0
176
     1
 90
       50
176
     1
 90
       50
176
     1
 90
       50
176
     1
290
     0
176
     1
 90
       50
176
     1
 62
   256
176
     0
 40
1.0
176
     0
 90
        2
176
     1
  1
strokes_ogs.tif
176
     1
290
     0
176
     1
 40
1.0
176
     1
 40
1.0
176
     1
  0
VISUALSTYLE
  5
1D6D
102
{ACAD_REACTORS
330
2A
102
}
330
2A
100
AcDbVisualStyle
  2
Sketchy
 70
    24
177
     3
291
     0
 70
    58
 90
        1
176
     1
 90
        2
176
     1
 90
        2
176
     1
 90
        0
176
     1
 40
0.6
176
     1
 40
30.0
176
     1
 62
     7
420
 16777215
176
     1
 90
        2
176
     1
 90
        2
176
     1
 62
     7
176
     1
 62
     7
176
     1
 90
        1
176
     1
 90
        1
176
     1
 40
40.0
176
     1
 90
       11
176
     1
 62
     7
176
     1
 40
1.0
176
     1
 90
        1
176
     1
 90
        6
176
     1
 90
        2
176
     1
 62
     7
176
     1
 90
        6
176
     1
 90
        0
176
     1
 90
        0
176
     1
290
     0
176
     1
 90
        1
176
     1
 40
0.0
176
     1
 90
        0
176
     1
290
     0
176
     1
290
     1
176
     1
290
     1
176
     1
290
     0
176
     1
290
     0
176
     1
290
     0
176
     1
290
     0
176
     1
290
     0
176
     1
290
     0
176
     1
 90
       50
176
     1
 40
0.0
176
     1
 40
1.0
176
     1
 90
        0
176
     1
 62
    18
420
        0
176
     1
 90
       50
176
     1
 90
        3
176
     1
 62
     5
420
      255
176
     1
290
     0
176
     1
 90
       50
176
     1
 90
       50
176
     1
 90
       50
176
     1
290
     0
176
     1
 90
       50
176
     1
 62
   256
176
     0
 40
1.0
176
     0
 90
        2
176
     1
  1
strokes_ogs.tif
176
     1
290
     0
176
     1
 40
1.0
176
     1
 40
1.0
176
     1
  0
VISUALSTYLE
  5
37
102
{ACAD_REACTORS
330
2A
102
}
330
2A
100
AcDbVisualStyle
  2
Thicken
 70
    13
177
     3
291
     1
 70
    58
 90
        2
176
     1
 90
        2
176
     1
 90
        0
176
     1
 90
        0
176
     1
 40
0.6
176
     1
 40
30.0
176
     1
 62
     7
420
 16777215
176
     1
 90
        1
176
     1
 90
        4
176
     1
 62
     7
176
     1
 62
   257
176
     1
 90
        1
176
     1
 90
        1
176
     1
 40
1.0
176
     1
 90
       12
176
     1
 62
     7
176
     1
 40
1.0
176
     1
 90
        1
176
     1
 90
        6
176
     1
 90
        2
176
     1
 62
     7
176
     1
 90
        5
176
     1
 90
        0
176
     1
 90
        0
176
     1
290
     0
176
     1
 90
        1
176
     1
 40
0.0
176
     1
 90
        0
176
     1
290
     0
176
     1
290
     1
176
     1
290
     1
176
     1
290
     0
176
     1
290
     0
176
     1
290
     0
176
     1
290
     0
176
     1
290
     0
176
     1
290
     0
176
     1
 90
       50
176
     1
 40
0.0
176
     1
 40
1.0
176
     1
 90
        0
176
     1
 62
    18
420
        0
176
     1
 90
       50
176
     1
 90
        3
176
     1
 62
     5
420
      255
176
     1
290
     0
176
     1
 90
       50
176
     1
 90
       50
176
     1
 90
       50
176
     1
290
     0
176
     1
 90
       50
176
     1
 62
   256
176
     0
 40
1.0
176
     0
 90
        2
176
     1
  1
strokes_ogs.tif
176
     1
290
     0
176
     1
 40
1.0
176
     1
 40
1.0
176
     1
  0
VISUALSTYLE
  5
1D6A
102
{ACAD_REACTORS
330
2A
102
}
330
2A
100
AcDbVisualStyle
  2
Wireframe
 70
     5
177
     3
291
     0
 70
    58
 90
        0
176
     1
 90
        2
176
     1
 90
        0
176
     1
 90
        0
176
     1
 40
0.6
176
     1
 40
30.0
176
     1
 62
     7
420
 16777215
176
     1
 90
        1
176
     1
 90
        4
176
     1
 62
     7
176
     1
 62
   257
176
     1
 90
        1
176
     1
 90
        1
176
     1
 40
1.0
176
     1
 90
        0
176
     1
 62
   257
176
     1
 40
1.0
176
     1
 90
        1
176
     1
 90
        6
176
     1
 90
        2
176
     1
 62
     7
176
     1
 90
        3
176
     1
 90
        0
176
     1
 90
        0
176
     1
290
     0
176
     1
 90
        1
176
     1
 40
0.0
176
     1
 90
        0
176
     1
290
     0
176
     1
290
     1
176
     1
290
     1
176
     1
290
     0
176
     1
290
     0
176
     1
290
     0
176
     1
290
     0
176
     1
290
     0
176
     1
290
     0
176
     1
 90
       50
176
     1
 40
0.0
176
     1
 40
1.0
176
     1
 90
        0
176
     1
 62
    18
420
        0
176
     1
 90
       50
176
     1
 90
        3
176
     1
 62
     5
420
      255
176
     1
290
     0
176
     1
 90
       50
176
     1
 90
       50
176
     1
 90
       50
176
     1
290
     0
176
     1
 90
       50
176
     1
 62
   256
176
     0
 40
1.0
176
     0
 90
        2
176
     1
  1
strokes_ogs.tif
176
     1
290
     0
176
     1
 40
1.0
176
     1
 40
1.0
176
     1
  0
VISUALSTYLE
  5
1D6E
102
{ACAD_REACTORS
330
2A
102
}
330
2A
100
AcDbVisualStyle
  2
X-Ray
 70
    25
177
     3
291
     0
 70
    58
 90
        2
176
     1
 90
        2
176
     1
 90
        1
176
     1
 90
        1
176
     1
 40
0.5
176
     1
 40
30.0
176
     1
 62
     7
420
 16777215
176
     1
 90
        1
176
     1
 90
        0
176
     1
 62
     7
176
     1
 62
   257
176
     1
 90
        1
176
     1
 90
        1
176
     1
 40
1.0
176
     1
 90
        8
176
     1
 62
     7
176
     1
 40
1.0
176
     1
 90
        1
176
     1
 90
        6
176
     1
 90
        2
176
     1
 62
     7
176
     1
 90
        3
176
     1
 90
        0
176
     1
 90
        0
176
     1
290
     0
176
     1
 90
       13
176
     1
 40
0.0
176
     1
 90
        0
176
     1
290
     0
176
     1
290
     1
176
     1
290
     1
176
     1
290
     0
176
     1
290
     0
176
     1
290
     0
176
     1
290
     0
176
     1
290
     0
176
     1
290
     0
176
     1
 90
       50
176
     1
 40
0.0
176
     1
 40
1.0
176
     1
 90
        0
176
     1
 62
    18
420
        0
176
     1
 90
       50
176
     1
 90
        3
176
     1
 62
     5
420
      255
176
     1
290
     0
176
     1
 90
       50
176
     1
 90
       50
176
     1
 90
       50
176
     1
290
     0
176
     1
 90
       50
176
     1
 62
   256
176
     0
 40
1.0
176
     0
 90
        2
176
     1
  1
strokes_ogs.tif
176
     1
290
     0
176
     1
 40
1.0
176
     1
 40
1.0
176
     1
  0
DICTIONARYVAR
  5
121
102
{ACAD_REACTORS
330
11E
102
}
330
11E
100
DictionaryVariables
280
     0
  1
1:1
  0
DICTIONARYVAR
  5
120
102
{ACAD_REACTORS
330
11E
102
}
330
11E
100
DictionaryVariables
280
     0
  1
STANDARD
  0
DICTIONARYVAR
  5
11F
102
{ACAD_REACTORS
330
11E
102
}
330
11E
100
DictionaryVariables
280
     0
  1
STANDARD
  0
DICTIONARYVAR
  5
1DCF
102
{ACAD_REACTORS
330
11E
102
}
330
11E
100
DictionaryVariables
280
     0
  1
Imperial24
  0
DICTIONARYVAR
  5
1DD0
102
{ACAD_REACTORS
330
11E
102
}
330
11E
100
DictionaryVariables
280
     0
  1
Imperial24
  0
DICTIONARYVAR
  5
1DD3
102
{ACAD_REACTORS
330
11E
102
}
330
11E
100
DictionaryVariables
280
     0
  1
1
  0
DICTIONARYVAR
  5
1DD4
102
{ACAD_REACTORS
330
11E
102
}
330
11E
100
DictionaryVariables
280
     0
  1
15
  0
DICTIONARYVAR
  5
1DD2
102
{ACAD_REACTORS
330
11E
102
}
330
11E
100
DictionaryVariables
280
     0
  1
0
  0
DICTIONARYVAR
  5
1DD1
102
{ACAD_REACTORS
330
11E
102
}
330
11E
100
DictionaryVariables
280
     0
  1
0
  0
XRECORD
  5
1AF1
102
{ACAD_REACTORS
330
1AF0
102
}
330
1AF0
100
AcDbXrecord
280
     1
330
1A51
330
1B82
330
0
  0
DICTIONARY
  5
D0
330
CF
100
AcDbDictionary
280
     1
281
     1
  3
BUMPTILE
360
D2
  3
DIFFUSETILE
360
D1
  3
OPACITYTILE
360
D5
  3
REFLECTIONTILE
360
D4
  3
REFRACTIONTILE
360
D6
  3
SPECULARTILE
360
D3
  0
DICTIONARY
  5
C8
330
C7
100
AcDbDictionary
280
     1
281
     1
  3
BUMPTILE
360
CA
  3
DIFFUSETILE
360
C9
  3
OPACITYTILE
360
CD
  3
REFLECTIONTILE
360
CC
  3
REFRACTIONTILE
360
CE
  3
SPECULARTILE
360
CB
  0
DICTIONARY
  5
D8
330
D7
100
AcDbDictionary
280
     1
281
     1
  3
BUMPTILE
360
DA
  3
DIFFUSETILE
360
D9
  3
OPACITYTILE
360
DD
  3
REFLECTIONTILE
360
DC
  3
REFRACTIONTILE
360
DE
  3
SPECULARTILE
360
DB
  0
DICTIONARY
  5
111
330
E0
100
AcDbDictionary
280
     1
281
     1
  3
ACAD_ROUNDTRIP_2008_TABLESTYLE_CELLSTYLEMAP
360
1DD5
  0
XRECORD
  5
D2
102
{ACAD_REACTORS
330
D0
102
}
330
D0
100
AcDbXrecord
280
     1
270
     1
271
     1
  0
XRECORD
  5
D1
102
{ACAD_REACTORS
330
D0
102
}
330
D0
100
AcDbXrecord
280
     1
270
     1
271
     1
  0
XRECORD
  5
D5
102
{ACAD_REACTORS
330
D0
102
}
330
D0
100
AcDbXrecord
280
     1
270
     1
271
     1
  0
XRECORD
  5
D4
102
{ACAD_REACTORS
330
D0
102
}
330
D0
100
AcDbXrecord
280
     1
270
     1
271
     1
  0
XRECORD
  5
D6
102
{ACAD_REACTORS
330
D0
102
}
330
D0
100
AcDbXrecord
280
     1
270
     1
271
     1
  0
XRECORD
  5
D3
102
{ACAD_REACTORS
330
D0
102
}
330
D0
100
AcDbXrecord
280
     1
270
     1
271
     1
  0
XRECORD
  5
CA
102
{ACAD_REACTORS
330
C8
102
}
330
C8
100
AcDbXrecord
280
     1
270
     1
271
     1
  0
XRECORD
  5
C9
102
{ACAD_REACTORS
330
C8
102
}
330
C8
100
AcDbXrecord
280
     1
270
     1
271
     1
  0
XRECORD
  5
CD
102
{ACAD_REACTORS
330
C8
102
}
330
C8
100
AcDbXrecord
280
     1
270
     1
271
     1
  0
XRECORD
  5
CC
102
{ACAD_REACTORS
330
C8
102
}
330
C8
100
AcDbXrecord
280
     1
270
     1
271
     1
  0
XRECORD
  5
CE
102
{ACAD_REACTORS
330
C8
102
}
330
C8
100
AcDbXrecord
280
     1
270
     1
271
     1
  0
XRECORD
  5
CB
102
{ACAD_REACTORS
330
C8
102
}
330
C8
100
AcDbXrecord
280
     1
270
     1
271
     1
  0
XRECORD
  5
DA
102
{ACAD_REACTORS
330
D8
102
}
330
D8
100
AcDbXrecord
280
     1
270
     1
271
     1
  0
XRECORD
  5
D9
102
{ACAD_REACTORS
330
D8
102
}
330
D8
100
AcDbXrecord
280
     1
270
     1
271
     1
  0
XRECORD
  5
DD
102
{ACAD_REACTORS
330
D8
102
}
330
D8
100
AcDbXrecord
280
     1
270
     1
271
     1
  0
XRECORD
  5
DC
102
{ACAD_REACTORS
330
D8
102
}
330
D8
100
AcDbXrecord
280
     1
270
     1
271
     1
  0
XRECORD
  5
DE
102
{ACAD_REACTORS
330
D8
102
}
330
D8
100
AcDbXrecord
280
     1
270
     1
271
     1
  0
XRECORD
  5
DB
102
{ACAD_REACTORS
330
D8
102
}
330
D8
100
AcDbXrecord
280
     1
270
     1
271
     1
  0
CELLSTYLEMAP
  5
1DD5
102
{ACAD_REACTORS
330
111
102
}
330
111
100
AcDbCellStyleMap
 90
        3
300
CELLSTYLE
  1
TABLEFORMAT_BEGIN
 90
        5
170
     1
 91
        0
 92
    32768
 62
   257
 93
        1
300
CONTENTFORMAT
  1
CONTENTFORMAT_BEGIN
 90
        0
 91
        0
 92
      512
 93
        0
300

 40
0.0
140
1.0
 94
        5
 62
     0
340
11
144
0.25
309
CONTENTFORMAT_END
171
     0
 94
        0
309
TABLEFORMAT_END
  1
CELLSTYLE_BEGIN
 90
        1
 91
        1
300
_TITLE
309
CELLSTYLE_END
300
CELLSTYLE
  1
TABLEFORMAT_BEGIN
 90
        5
170
     1
 91
        0
 92
        0
 62
   257
 93
        1
300
CONTENTFORMAT
  1
CONTENTFORMAT_BEGIN
 90
        0
 91
        0
 92
      512
 93
        0
300

 40
0.0
140
1.0
 94
        5
 62
     0
340
11
144
0.18
309
CONTENTFORMAT_END
171
     0
 94
        0
309
TABLEFORMAT_END
  1
CELLSTYLE_BEGIN
 90
        2
 91
        1
300
_HEADER
309
CELLSTYLE_END
300
CELLSTYLE
  1
TABLEFORMAT_BEGIN
 90
        5
170
     1
 91
        0
 92
        0
 62
   257
 93
        1
300
CONTENTFORMAT
  1
CONTENTFORMAT_BEGIN
 90
        0
 91
        0
 92
      512
 93
        0
300

 40
0.0
140
1.0
 94
        2
 62
     0
340
11
144
0.18
309
CONTENTFORMAT_END
171
     0
 94
        0
309
TABLEFORMAT_END
  1
CELLSTYLE_BEGIN
 90
        3
 91
        2
300
_DATA
309
CELLSTYLE_END
  0
ENDSEC
  0
SECTION
  2
ACDSDATA
 70
     2
 71
     8
  0
ACDSSCHEMA
 90
        0
  1
AcDb_Thumbnail_Schema
  2
AcDbDs::ID
280
    10
 91
        8
  2
Thumbnail_Data
280
    15
 91
        0
101
ACDSRECORD
 95
        0
 90
        1
  2
AcDbDs::TreatedAsObjectData
280
     1
291
     1
101
ACDSRECORD
 95
        0
 90
        2
  2
AcDbDs::Legacy
280
     1
291
     1
101
ACDSRECORD
  1
AcDbDs::ID
 90
        3
  2
AcDs:Indexable
280
     1
291
     1
101
ACDSRECORD
  1
AcDbDs::ID
 90
        4
  2
AcDbDs::HandleAttribute
280
     7
282
     1
  0
ACDSSCHEMA
 90
        1
  1
AcDbDs::TreatedAsObjectDataSchema
  2
AcDbDs::TreatedAsObjectData
280
     1
 91
        0
  0
ACDSSCHEMA
 90
        2
  1
AcDbDs::LegacySchema
  2
AcDbDs::Legacy
280
     1
 91
        0
  0
ACDSSCHEMA
 90
        3
  1
AcDbDs::IndexedPropertySchema
  2
AcDs:Indexable
280
     1
 91
        0
  0
ACDSSCHEMA
 90
        4
  1
AcDbDs::HandleAttributeSchema
  2
AcDbDs::HandleAttribute
280
     7
 91
        1
284
     1
  0
ACDSRECORD
 90
        0
  2
AcDbDs::ID
280
    10
320
22
  2
Thumbnail_Data
280
    15
 94
     1155
310
89504E470D0A1A0A0000000D49484452000001000000006C0803000000B2ED9CC100000300504C5445212830FFFFFF2128300000000000000000000000000000000000000000000000000000330000660000990000CC0000FF0033000033330033660033990033CC0033FF0066000066330066660066990066CC0066FF0099
310
000099330099660099990099CC0099FF00CC0000CC3300CC6600CC9900CCCC00CCFF00FF0000FF3300FF6600FF9900FFCC00FFFF3300003300333300663300993300CC3300FF3333003333333333663333993333CC3333FF3366003366333366663366993366CC3366FF3399003399333399663399993399CC3399FF33CC00
310
33CC3333CC6633CC9933CCCC33CCFF33FF0033FF3333FF6633FF9933FFCC33FFFF6600006600336600666600996600CC6600FF6633006633336633666633996633CC6633FF6666006666336666666666996666CC6666FF6699006699336699666699996699CC6699FF66CC0066CC3366CC6666CC9966CCCC66CCFF66FF0066
310
FF3366FF6666FF9966FFCC66FFFF9900009900339900669900999900CC9900FF9933009933339933669933999933CC9933FF9966009966339966669966999966CC9966FF9999009999339999669999999999CC9999FF99CC0099CC3399CC6699CC9999CCCC99CCFF99FF0099FF3399FF6699FF9999FFCC99FFFFCC0000CC00
310
33CC0066CC0099CC00CCCC00FFCC3300CC3333CC3366CC3399CC33CCCC33FFCC6600CC6633CC6666CC6699CC66CCCC66FFCC9900CC9933CC9966CC9999CC99CCCC99FFCCCC00CCCC33CCCC66CCCC99CCCCCCCCCCFFCCFF00CCFF33CCFF66CCFF99CCFFCCCCFFFFFF0000FF0033FF0066FF0099FF00CCFF00FFFF3300FF3333
310
FF3366FF3399FF33CCFF33FFFF6600FF6633FF6666FF6699FF66CCFF66FFFF9900FF9933FF9966FF9999FF99CCFF99FFFFCC00FFCC33FFCC66FFCC99FFCCCCFFCCFFFFFF00FFFF33FFFF66FFFF99FFFFCCFFFFFF0000000D0D0D1A1A1A2828283535354343435050505D5D5D6B6B6B787878868686939393A1A1A1AEAEAEBB
310
BBBBC9C9C9D6D6D6E4E4E4F1F1F1FFFFFF0000000000000000000000000000000000000000000000000000000000002E4550F10000013E4944415478DAEDDCDB0E82300C00507E61FFFF9D7D37720B11488C196CD8D3276302CB0EDDA85A19065135E2EA00000000000039A6DA3B0B00000000A406E889A0D58DB09B3B3200
310
0000000000000000000000000000000000000000000000000000000000000000D0F5B8557EDD07F03C80588E5E012221C07BEA33C0CC10590096A97FF6F9E402D89F2C22DF1EB073490170DADC9629030EB7801F53E05900E36C63A8D9F2F85480BC4B6036C8BB099E1D1AA9EA808A67FC9B0C00E00B110000000000000000
310
0000000000000000000000000000000000000000000000000000406F000D1EEB77D85927037AC9004F946C3462FB0C585EDF0A50A638EEB9FC5F806998B24694864BA015C078DDA728D13203BEDD106B036CA3942137402F75C04D0071587DA903F2D4019D035C7E5DB7EF6DFE689808C06781EA4BE00599473BAA93272E90
310
0000000049454E44AE426082
  0
ENDSEC
  0
EOF
