  0
SECTION
  2
HEADER
  9
$ACADVER
  1
AC1015
  9
$ACADMAINTVER
 70
     6
  9
$DWGCODEPAGE
  3
ANSI_1254
  9
$INSBASE
 10
0.0
 20
0.0
 30
0.0
  9
$EXTMIN
 10
0.0
 20
0.0
 30
0.0
  9
$EXTMAX
 10
2100.0
 20
1485.0
 30
0.0
  9
$LIMMIN
 10
0.0
 20
0.0
  9
$LIMMAX
 10
2100.0
 20
1485.0
  9
$ORTHOMODE
 70
     0
  9
$REGENMODE
 70
     1
  9
$FILLMODE
 70
     1
  9
$QTEXTMODE
 70
     0
  9
$MIRRTEXT
 70
     1
  9
$LTSCALE
 40
1.0
  9
$ATTMODE
 70
     1
  9
$TEXTSIZE
 40
4.9388888889
  9
$TRACEWID
 40
1.0
  9
$TEXTSTYLE
  7
Standard
  9
$CLAYER
  8
0
  9
$CELTYPE
  6
ByLayer
  9
$CECOLOR
 62
   256
  9
$CELTSCALE
 40
1.0
  9
$DISPSILH
 70
     0
  9
$DIMSCALE
 40
1.0
  9
$DIMASZ
 40
3.65
  9
$DIMEXO
 40
0.5
  9
$DIMDLI
 40
3.75
  9
$DIMRND
 40
0.0
  9
$DIMDLE
 40
0.0
  9
$DIMEXE
 40
1.0
  9
$DIMTP
 40
0.0
  9
$DIMTM
 40
0.0
  9
$DIMTXT
 40
4.2333333333
  9
$DIMCEN
 40
2.5
  9
$DIMTSZ
 40
0.0
  9
$DIMTOL
 70
     0
  9
$DIMLIM
 70
     0
  9
$DIMTIH
 70
     1
  9
$DIMTOH
 70
     1
  9
$DIMSE1
 70
     0
  9
$DIMSE2
 70
     0
  9
$DIMTAD
 70
     1
  9
$DIMZIN
 70
     0
  9
$DIMBLK
  1

  9
$DIMASO
 70
     1
  9
$DIMSHO
 70
     1
  9
$DIMPOST
  1

  9
$DIMAPOST
  1

  9
$DIMALT
 70
     0
  9
$DIMALTD
 70
     3
  9
$DIMALTF
 40
0.0393700787
  9
$DIMLFAC
 40
1.0
  9
$DIMTOFL
 70
     1
  9
$DIMTVP
 40
0.0
  9
$DIMTIX
 70
     0
  9
$DIMSOXD
 70
     0
  9
$DIMSAH
 70
     0
  9
$DIMBLK1
  1

  9
$DIMBLK2
  1

  9
$DIMSTYLE
  2
ISO-25
  9
$DIMCLRD
 70
     0
  9
$DIMCLRE
 70
     0
  9
$DIMCLRT
 70
     0
  9
$DIMTFAC
 40
1.0
  9
$DIMGAP
 40
1.524
  9
$DIMJUST
 70
     0
  9
$DIMSD1
 70
     0
  9
$DIMSD2
 70
     0
  9
$DIMTOLJ
 70
     0
  9
$DIMTZIN
 70
     0
  9
$DIMALTZ
 70
     0
  9
$DIMALTTZ
 70
     0
  9
$DIMUPT
 70
     0
  9
$DIMDEC
 70
     2
  9
$DIMTDEC
 70
     2
  9
$DIMALTU
 70
     2
  9
$DIMALTTD
 70
     3
  9
$DIMTXSTY
  7
Standard
  9
$DIMAUNIT
 70
     0
  9
$DIMADEC
 70
     2
  9
$DIMALTRND
 40
0.0
  9
$DIMAZIN
 70
     0
  9
$DIMDSEP
 70
    44
  9
$DIMATFIT
 70
     3
  9
$DIMFRAC
 70
     0
  9
$DIMLDRBLK
  1

  9
$DIMLUNIT
 70
     2
  9
$DIMLWD
 70
    -2
  9
$DIMLWE
 70
    -2
  9
$DIMTMOVE
 70
     0
  9
$LUNITS
 70
     2
  9
$LUPREC
 70
     2
  9
$SKETCHINC
 40
1.0
  9
$FILLETRAD
 40
0.0
  9
$AUNITS
 70
     0
  9
$AUPREC
 70
     2
  9
$MENU
  1
.
  9
$ELEVATION
 40
0.0
  9
$PELEVATION
 40
0.0
  9
$THICKNESS
 40
0.0
  9
$LIMCHECK
 70
     0
  9
$CHAMFERA
 40
0.0
  9
$CHAMFERB
 40
0.0
  9
$CHAMFERC
 40
0.0
  9
$CHAMFERD
 40
0.0
  9
$SKPOLY
 70
     0
  9
$TDCREATE
 40
2460801.499737778
  9
$TDUCREATE
 40
2460801.374737778
  9
$TDUPDATE
 40
2460801.499738623
  9
$TDUUPDATE
 40
2460801.374738623
  9
$TDINDWG
 40
0.0000000116
  9
$TDUSRTIMER
 40
0.0000000116
  9
$USRTIMER
 70
     1
  9
$ANGBASE
 50
0.0
  9
$ANGDIR
 70
     0
  9
$PDMODE
 70
     0
  9
$PDSIZE
 40
-1.0
  9
$PLINEWID
 40
0.0
  9
$SPLFRAME
 70
     0
  9
$SPLINETYPE
 70
     6
  9
$SPLINESEGS
 70
     8
  9
$HANDSEED
  5
3E8
  9
$SURFTAB1
 70
     6
  9
$SURFTAB2
 70
     6
  9
$SURFTYPE
 70
     6
  9
$SURFU
 70
     6
  9
$SURFV
 70
     6
  9
$UCSBASE
  2

  9
$UCSNAME
  2

  9
$UCSORG
 10
0.0
 20
0.0
 30
0.0
  9
$UCSXDIR
 10
1.0
 20
0.0
 30
0.0
  9
$UCSYDIR
 10
0.0
 20
1.0
 30
0.0
  9
$UCSORTHOREF
  2

  9
$UCSORTHOVIEW
 70
     0
  9
$UCSORGTOP
 10
0.0
 20
0.0
 30
0.0
  9
$UCSORGBOTTOM
 10
0.0
 20
0.0
 30
0.0
  9
$UCSORGLEFT
 10
0.0
 20
0.0
 30
0.0
  9
$UCSORGRIGHT
 10
0.0
 20
0.0
 30
0.0
  9
$UCSORGFRONT
 10
0.0
 20
0.0
 30
0.0
  9
$UCSORGBACK
 10
0.0
 20
0.0
 30
0.0
  9
$PUCSBASE
  2

  9
$PUCSNAME
  2

  9
$PUCSORG
 10
0.0
 20
0.0
 30
0.0
  9
$PUCSXDIR
 10
1.0
 20
0.0
 30
0.0
  9
$PUCSYDIR
 10
0.0
 20
1.0
 30
0.0
  9
$PUCSORTHOREF
  2

  9
$PUCSORTHOVIEW
 70
     0
  9
$PUCSORGTOP
 10
0.0
 20
0.0
 30
0.0
  9
$PUCSORGBOTTOM
 10
0.0
 20
0.0
 30
0.0
  9
$PUCSORGLEFT
 10
0.0
 20
0.0
 30
0.0
  9
$PUCSORGRIGHT
 10
0.0
 20
0.0
 30
0.0
  9
$PUCSORGFRONT
 10
0.0
 20
0.0
 30
0.0
  9
$PUCSORGBACK
 10
0.0
 20
0.0
 30
0.0
  9
$USERI1
 70
     0
  9
$USERI2
 70
     0
  9
$USERI3
 70
     0
  9
$USERI4
 70
     0
  9
$USERI5
 70
     0
  9
$USERR1
 40
0.0
  9
$USERR2
 40
0.0
  9
$USERR3
 40
0.0
  9
$USERR4
 40
0.0
  9
$USERR5
 40
0.0
  9
$WORLDVIEW
 70
     1
  9
$SHADEDGE
 70
     3
  9
$SHADEDIF
 70
    70
  9
$TILEMODE
 70
     1
  9
$MAXACTVP
 70
    64
  9
$PINSBASE
 10
0.0
 20
0.0
 30
0.0
  9
$PLIMCHECK
 70
     0
  9
$PEXTMIN
 10
1.0000000000E+20
 20
1.0000000000E+20
 30
1.0000000000E+20
  9
$PEXTMAX
 10
-1.0000000000E+20
 20
-1.0000000000E+20
 30
-1.0000000000E+20
  9
$PLIMMIN
 10
0.0
 20
0.0
  9
$PLIMMAX
 10
420.0
 20
297.0
  9
$UNITMODE
 70
     0
  9
$VISRETAIN
 70
     1
  9
$PLINEGEN
 70
     0
  9
$PSLTSCALE
 70
     1
  9
$TREEDEPTH
 70
  3020
  9
$CMLSTYLE
  2
Standard
  9
$CMLJUST
 70
     0
  9
$CMLSCALE
 40
20.0
  9
$PROXYGRAPHICS
 70
     1
  9
$MEASUREMENT
 70
     1
  9
$CELWEIGHT
370
    -1
  9
$ENDCAPS
280
     0
  9
$JOINSTYLE
280
     0
  9
$LWDISPLAY
290
     1
  9
$INSUNITS
 70
     4
  9
$HYPERLINKBASE
  1

  9
$STYLESHEET
  1

  9
$XEDIT
290
     1
  9
$CEPSNTYPE
380
     0
  9
$PSTYLEMODE
290
     1
  9
$FINGERPRINTGUID
  2
{5dfc7e6d-ed4d-4505-86a8-912cdf7aa017}
  9
$VERSIONGUID
  2
{FAEB1C32-E019-11D5-929B-00C0DF256EC4}
  9
$EXTNAMES
290
     1
  9
$PSVPSCALE
 40
0.0
  9
$OLESTARTUP
290
     0
  0
ENDSEC
  0
SECTION
  2
CLASSES
  0
CLASS
  1
ACDBDICTIONARYWDFLT
  2
AcDbDictionaryWithDefault
  3
ObjectDBX Classes
 90
        0
280
     0
281
     0
  0
CLASS
  1
VISUALSTYLE
  2
AcDbVisualStyle
  3
ObjectDBX Classes
 90
     4095
280
     0
281
     0
  0
CLASS
  1
MATERIAL
  2
AcDbMaterial
  3
ObjectDBX Classes
 90
     1153
280
     0
281
     0
  0
CLASS
  1
SCALE
  2
AcDbScale
  3
ObjectDBX Classes
 90
     1153
280
     0
281
     0
  0
CLASS
  1
TABLESTYLE
  2
AcDbTableStyle
  3
ObjectDBX Classes
 90
     4095
280
     0
281
     0
  0
CLASS
  1
MLEADERSTYLE
  2
AcDbMLeaderStyle
  3
ACDB_MLEADERSTYLE_CLASS
 90
     4095
280
     0
281
     0
  0
CLASS
  1
SUN
  2
AcDbSun
  3
SCENEOE
 90
     1153
280
     0
281
     0
  0
CLASS
  1
ACDBPLACEHOLDER
  2
AcDbPlaceHolder
  3
ObjectDBX Classes
 90
        0
280
     0
281
     0
  0
CLASS
  1
LAYOUT
  2
AcDbLayout
  3
ObjectDBX Classes
 90
        0
280
     0
281
     0
  0
ENDSEC
  0
SECTION
  2
TABLES
  0
TABLE
  2
VPORT
  5
8
330
0
100
AcDbSymbolTable
 70
     1
  0
VPORT
  5
29
330
8
100
AcDbSymbolTableRecord
100
AcDbViewportTableRecord
  2
*Active
 70
     0
 10
0.0
 20
0.0
 11
1.0
 21
1.0
 12
1050.0
 22
742.5
 13
0.0
 23
0.0
 14
10.0
 24
10.0
 15
10.0
 25
10.0
 16
0.0
 26
0.0
 36
1.0
 17
0.0
 27
0.0
 37
0.0
 40
1485.0
 41
1.4141414141
 42
50.0
 43
0.0
 44
0.0
 50
0.0
 51
0.0
 71
     0
 72
  2000
 73
     1
 74
     3
 75
     0
 76
     0
 77
     0
 78
     0
281
     0
 65
     1
110
0.0
120
0.0
130
0.0
111
1.0
121
0.0
131
0.0
112
0.0
122
1.0
132
0.0
 79
     0
146
0.0
  0
ENDTAB
  0
TABLE
  2
LTYPE
  5
5
330
0
100
AcDbSymbolTable
 70
     6
  0
LTYPE
  5
14
330
5
100
AcDbSymbolTableRecord
100
AcDbLinetypeTableRecord
  2
ByBlock
 70
     0
  3

 72
    65
 73
     0
 40
0.0
  0
LTYPE
  5
15
330
5
100
AcDbSymbolTableRecord
100
AcDbLinetypeTableRecord
  2
ByLayer
 70
     0
  3

 72
    65
 73
     0
 40
0.0
  0
LTYPE
  5
16
330
5
100
AcDbSymbolTableRecord
100
AcDbLinetypeTableRecord
  2
Continuous
 70
     0
  3
Solid line
 72
    65
 73
     0
 40
0.0
  0
LTYPE
  5
5E
330
5
100
AcDbSymbolTableRecord
100
AcDbLinetypeTableRecord
  2
HIDDEN
 70
     0
  3
Hidden __ __ __ __ __ __ __ __ __ __ __ __ __ __
 72
    65
 73
     2
 40
1.905
 49
1.27
 74
     0
 49
-0.635
 74
     0
  0
LTYPE
  5
5F
330
5
100
AcDbSymbolTableRecord
100
AcDbLinetypeTableRecord
  2
PHANTOM
 70
     0
  3
Phantom ______  __  __  ______  __  __  ______
 72
    65
 73
     6
 40
12.7
 49
6.35
 74
     0
 49
-1.27
 74
     0
 49
1.27
 74
     0
 49
-1.27
 74
     0
 49
1.27
 74
     0
 49
-1.27
 74
     0
  0
LTYPE
  5
60
330
5
100
AcDbSymbolTableRecord
100
AcDbLinetypeTableRecord
  2
CENTER
 70
     0
  3
Center ____ _ ____ _ ____ _ ____ _ ____ _ ____
 72
    65
 73
     4
 40
10.16
 49
6.35
 74
     0
 49
-1.27
 74
     0
 49
1.27
 74
     0
 49
-1.27
 74
     0
  0
LTYPE
  5
61
330
5
100
AcDbSymbolTableRecord
100
AcDbLinetypeTableRecord
  2
CENTERX2
 70
     0
  3
Center (2x) ________  __  ________  __  _____
 72
    65
 73
     4
 40
20.32
 49
12.7
 74
     0
 49
-2.54
 74
     0
 49
2.54
 74
     0
 49
-2.54
 74
     0
  0
LTYPE
  5
62
330
5
100
AcDbSymbolTableRecord
100
AcDbLinetypeTableRecord
  2
DOT2
 70
     0
  3
Dot (.5x) ........................................
 72
    65
 73
     2
 40
0.635
 49
0.0
 74
     0
 49
-0.635
 74
     0
  0
ENDTAB
  0
TABLE
  2
LAYER
  5
2
330
0
100
AcDbSymbolTable
 70
     5
  0
LAYER
  5
10
330
2
100
AcDbSymbolTableRecord
100
AcDbLayerTableRecord
  2
0
 70
     0
 62
     7
  6
Continuous
370
    -3
390
F
  0
LAYER
  5
63
330
2
100
AcDbSymbolTableRecord
100
AcDbLayerTableRecord
  2
FORMAT
 70
     0
 62
     7
  6
Continuous
370
    -3
390
F
  0
LAYER
  5
64
330
2
100
AcDbSymbolTableRecord
100
AcDbLayerTableRecord
  2
SLD-0
 70
     0
 62
   179
  6
Continuous
370
    -3
390
F
  0
LAYER
  5
65
330
2
100
AcDbSymbolTableRecord
100
AcDbLayerTableRecord
  2
AAA_EKSEN
 70
     0
 62
     1
  6
CENTER
370
    -3
390
F
  0
LAYER
  5
66
330
2
100
AcDbSymbolTableRecord
100
AcDbLayerTableRecord
  2
03
 70
     0
 62
     3
  6
HIDDEN
370
    -3
390
F
  0
ENDTAB
  0
TABLE
  2
STYLE
  5
3
330
0
100
AcDbSymbolTable
 70
     2
  0
STYLE
  5
11
330
3
100
AcDbSymbolTableRecord
100
AcDbTextStyleTableRecord
  2
Standard
 70
     0
 40
0.0
 41
1.0
 50
0.0
 71
     0
 42
4.9388888889
  3
txt
  4

  0
STYLE
  5
25D
330
3
100
AcDbSymbolTableRecord
100
AcDbTextStyleTableRecord
  2
SLDTEXTSTYLE0
 70
     0
 40
0.0
 41
0.75
 50
0.0
 71
     0
 42
4.9388888889
  3
TXT
  4

  0
ENDTAB
  0
TABLE
  2
VIEW
  5
6
330
0
100
AcDbSymbolTable
 70
     0
  0
ENDTAB
  0
TABLE
  2
UCS
  5
7
330
0
100
AcDbSymbolTable
 70
     0
  0
ENDTAB
  0
TABLE
  2
APPID
  5
9
330
0
100
AcDbSymbolTable
 70
     1
  0
APPID
  5
12
330
9
100
AcDbSymbolTableRecord
100
AcDbRegAppTableRecord
  2
ACAD
 70
     0
  0
ENDTAB
  0
TABLE
  2
DIMSTYLE
  5
A
330
0
100
AcDbSymbolTable
 70
     3
100
AcDbDimStyleTable
  0
DIMSTYLE
105
27
330
A
100
AcDbSymbolTableRecord
100
AcDbDimStyleTableRecord
  2
ISO-25
 70
     0
 41
2.5
 42
0.625
 43
3.75
 44
1.25
 73
     0
 74
     0
 77
     1
 78
     8
140
2.5
141
2.5
143
0.0393700787
147
0.625
171
     3
172
     1
178
     0
271
     2
272
     2
274
     3
278
    44
283
     0
284
     8
340
11
  0
DIMSTYLE
105
25E
102
{ACAD_REACTORS
330
25C
330
3DC
102
}
330
A
100
AcDbSymbolTableRecord
100
AcDbDimStyleTableRecord
  2
SLDDIMSTYLE0
 70
     0
 41
3.65
 44
0.0
 45
0.000000001
 73
     0
 74
     0
 78
    12
 79
     3
140
4.2333333333
147
1.0583333333
173
     1
178
     0
271
     2
272
     2
276
     2
284
    12
340
25D
  0
DIMSTYLE
105
3D1
102
{ACAD_REACTORS
330
3D0
102
}
330
A
100
AcDbSymbolTableRecord
100
AcDbDimStyleTableRecord
  2
SLDDIMSTYLE1
 70
     0
 41
3.65
 44
0.0
 45
0.000000001
 73
     0
 74
     0
 78
    12
 79
     3
140
4.2333333333
147
1.0583333333
173
     1
178
     0
271
     1
272
     2
276
     2
284
    12
340
25D
  0
ENDTAB
  0
TABLE
  2
BLOCK_RECORD
  5
1
330
0
100
AcDbSymbolTable
 70
     4
  0
BLOCK_RECORD
  5
1F
330
1
100
AcDbSymbolTableRecord
100
AcDbBlockTableRecord
  2
*Model_Space
340
22
  0
BLOCK_RECORD
  5
1B
330
1
100
AcDbSymbolTableRecord
100
AcDbBlockTableRecord
  2
*Paper_Space
340
1E
  0
BLOCK_RECORD
  5
23
330
1
100
AcDbSymbolTableRecord
100
AcDbBlockTableRecord
  2
*Paper_Space0
340
26
  0
BLOCK_RECORD
  5
25F
330
1
100
AcDbSymbolTableRecord
100
AcDbBlockTableRecord
  2
_D
340
0
  0
BLOCK_RECORD
  5
3D2
330
1
100
AcDbSymbolTableRecord
100
AcDbBlockTableRecord
  2
_D_1
340
0
  0
BLOCK_RECORD
  5
3DD
330
1
100
AcDbSymbolTableRecord
100
AcDbBlockTableRecord
  2
_D_2
340
0
  0
ENDTAB
  0
ENDSEC
  0
SECTION
  2
BLOCKS
  0
BLOCK
  5
20
330
1F
100
AcDbEntity
  8
0
100
AcDbBlockBegin
  2
*Model_Space
 70
     0
 10
0.0
 20
0.0
 30
0.0
  3
*Model_Space
  1

  0
ENDBLK
  5
21
330
1F
100
AcDbEntity
  8
0
100
AcDbBlockEnd
  0
BLOCK
  5
1C
330
1B
100
AcDbEntity
 67
     1
  8
0
100
AcDbBlockBegin
  2
*Paper_Space
 70
     0
 10
0.0
 20
0.0
 30
0.0
  3
*Paper_Space
  1

  0
ENDBLK
  5
1D
330
1B
100
AcDbEntity
 67
     1
  8
0
100
AcDbBlockEnd
  0
BLOCK
  5
24
330
23
100
AcDbEntity
  8
0
100
AcDbBlockBegin
  2
*Paper_Space0
 70
     0
 10
0.0
 20
0.0
 30
0.0
  3
*Paper_Space0
  1

  0
ENDBLK
  5
25
330
23
100
AcDbEntity
  8
0
100
AcDbBlockEnd
  0
BLOCK
  5
260
330
25F
100
AcDbEntity
  8
0
100
AcDbBlockBegin
  2
_D
 70
     0
 10
0.0
 20
0.0
 30
0.0
  3
_D
  1

  0
SOLID
  5
262
330
25F
100
AcDbEntity
  8
FORMAT
100
AcDbTrace
 10
475.6667338816
 20
791.528845377
 30
0.0
 11
479.3167338816
 21
791.148845377
 31
0.0
 12
479.3167338816
 22
791.908845377
 32
0.0
 13
479.3167338816
 23
791.908845377
 33
0.0
  0
SOLID
  5
263
330
25F
100
AcDbEntity
  8
FORMAT
100
AcDbTrace
 10
1347.6667338816
 20
791.528845377
 30
0.0
 11
1344.0167338816
 21
791.908845377
 31
0.0
 12
1344.0167338816
 22
791.148845377
 32
0.0
 13
1344.0167338816
 23
791.148845377
 33
0.0
  0
LINE
  5
264
330
25F
100
AcDbEntity
  8
FORMAT
100
AcDbLine
 10
475.6667338816
 20
781.728845377
 30
0.0
 11
475.6667338816
 21
792.528845377
 31
0.0
  0
LINE
  5
265
330
25F
100
AcDbEntity
  8
FORMAT
100
AcDbLine
 10
1347.6667338816
 20
781.728845377
 30
0.0
 11
1347.6667338816
 21
792.528845377
 31
0.0
  0
LINE
  5
266
330
25F
100
AcDbEntity
  8
FORMAT
100
AcDbLine
 10
475.6667338816
 20
791.528845377
 30
0.0
 11
906.974789424
 21
791.528845377
 31
0.0
  0
LINE
  5
267
330
25F
100
AcDbEntity
  8
FORMAT
100
AcDbLine
 10
1347.6667338816
 20
791.528845377
 30
0.0
 11
916.3586783392
 21
791.528845377
 31
0.0
  0
MTEXT
  5
268
330
25F
100
AcDbEntity
  8
FORMAT
100
AcDbMText
 10
906.974789424
 20
793.6227504994
 30
0.0
 40
4.2333333333
 41
0.0
 71
     1
 72
     1
  1
872
  7
SLDTEXTSTYLE0
 73
     1
 44
1.0
  0
ENDBLK
  5
261
330
25F
100
AcDbEntity
  8
0
100
AcDbBlockEnd
  0
BLOCK
  5
3D3
330
3D2
100
AcDbEntity
  8
0
100
AcDbBlockBegin
  2
_D_1
 70
     0
 10
0.0
 20
0.0
 30
0.0
  3
_D_1
  1

  0
SOLID
  5
3D5
330
3D2
100
AcDbEntity
  8
FORMAT
100
AcDbTrace
 10
1657.8602016531
 20
781.528845377
 30
0.0
 11
1657.4802016531
 21
777.878845377
 31
0.0
 12
1658.2402016531
 22
777.878845377
 32
0.0
 13
1658.2402016531
 23
777.878845377
 33
0.0
  0
SOLID
  5
3D6
330
3D2
100
AcDbEntity
  8
FORMAT
100
AcDbTrace
 10
1657.8602016531
 20
720.228845377
 30
0.0
 11
1658.2402016531
 21
723.878845377
 31
0.0
 12
1657.4802016531
 22
723.878845377
 32
0.0
 13
1657.4802016531
 23
723.878845377
 33
0.0
  0
LINE
  5
3D7
330
3D2
100
AcDbEntity
  8
FORMAT
100
AcDbLine
 10
1643.5416554372
 20
781.528845377
 30
0.0
 11
1658.8602016531
 21
781.528845377
 31
0.0
  0
LINE
  5
3D8
330
3D2
100
AcDbEntity
  8
FORMAT
100
AcDbLine
 10
1642.3416554372
 20
720.228845377
 30
0.0
 11
1658.8602016531
 21
720.228845377
 31
0.0
  0
LINE
  5
3D9
330
3D2
100
AcDbEntity
  8
FORMAT
100
AcDbLine
 10
1657.8602016531
 20
781.528845377
 30
0.0
 11
1657.8602016531
 21
756.3508209196
 31
0.0
  0
LINE
  5
3DA
330
3D2
100
AcDbEntity
  8
FORMAT
100
AcDbLine
 10
1657.8602016531
 20
720.228845377
 30
0.0
 11
1657.8602016531
 21
745.4068698344
 31
0.0
  0
MTEXT
  5
3DB
330
3D2
100
AcDbEntity
  8
FORMAT
100
AcDbMText
 10
1655.7662965307
 20
745.4068698344
 30
0.0
 40
4.2333333333
 41
0.0
 71
     1
 72
     1
  1
61.3
  7
SLDTEXTSTYLE0
 11
-7.044195017643634E-15
 21
1.0
 31
0.0
 73
     1
 44
1.0
  0
ENDBLK
  5
3D4
330
3D2
100
AcDbEntity
  8
0
100
AcDbBlockEnd
  0
BLOCK
  5
3DE
330
3DD
100
AcDbEntity
  8
0
100
AcDbBlockBegin
  2
_D_2
 70
     0
 10
0.0
 20
0.0
 30
0.0
  3
_D_2
  1

  0
SOLID
  5
3E0
330
3DD
100
AcDbEntity
  8
FORMAT
100
AcDbTrace
 10
1643.3416554372
 20
789.8773405928
 30
0.0
 11
1639.6916554372
 21
790.2573405928
 31
0.0
 12
1639.6916554372
 22
789.4973405928
 32
0.0
 13
1639.6916554372
 23
789.4973405928
 33
0.0
  0
SOLID
  5
3E1
330
3DD
100
AcDbEntity
  8
FORMAT
100
AcDbTrace
 10
1598.3416554372
 20
789.8773405928
 30
0.0
 11
1601.9916554372
 21
789.4973405928
 31
0.0
 12
1601.9916554372
 22
790.2573405928
 32
0.0
 13
1601.9916554372
 23
790.2573405928
 33
0.0
  0
LINE
  5
3E2
330
3DD
100
AcDbEntity
  8
FORMAT
100
AcDbLine
 10
1643.3416554372
 20
781.728845377
 30
0.0
 11
1643.3416554372
 21
790.8773405928
 31
0.0
  0
LINE
  5
3E3
330
3DD
100
AcDbEntity
  8
FORMAT
100
AcDbLine
 10
1598.3416554372
 20
781.728845377
 30
0.0
 11
1598.3416554372
 21
790.8773405928
 31
0.0
  0
LINE
  5
3E4
330
3DD
100
AcDbEntity
  8
FORMAT
100
AcDbLine
 10
1643.3416554372
 20
789.8773405928
 30
0.0
 11
1623.9696184866
 21
789.8773405928
 31
0.0
  0
LINE
  5
3E5
330
3DD
100
AcDbEntity
  8
FORMAT
100
AcDbLine
 10
1598.3416554372
 20
789.8773405928
 30
0.0
 11
1617.7136923879
 21
789.8773405928
 31
0.0
  0
MTEXT
  5
3E6
330
3DD
100
AcDbEntity
  8
FORMAT
100
AcDbMText
 10
1617.7136923879
 20
791.9712457152
 30
0.0
 40
4.2333333333
 41
0.0
 71
     1
 72
     1
  1
45
  7
SLDTEXTSTYLE0
 73
     1
 44
1.0
  0
ENDBLK
  5
3DF
330
3DD
100
AcDbEntity
  8
0
100
AcDbBlockEnd
  0
ENDSEC
  0
SECTION
  2
ENTITIES
  0
LINE
  5
67
330
1F
100
AcDbEntity
  8
0
  6
Continuous
 62
     7
370
    25
100
AcDbLine
 10
576.1667338816
 20
750.228845377
 30
0.0
 11
575.1667338816
 21
750.228845377
 31
0.0
  0
LINE
  5
68
330
1F
100
AcDbEntity
  8
0
  6
Continuous
 62
     7
370
    25
100
AcDbLine
 10
575.1667338816
 20
750.178845377
 30
0.0
 11
571.5667338816
 21
750.178845377
 31
0.0
  0
LINE
  5
69
330
1F
100
AcDbEntity
  8
0
  6
Continuous
 62
     7
370
    25
100
AcDbLine
 10
571.5667338816
 20
748.328845377
 30
0.0
 11
561.7667338816
 21
748.328845377
 31
0.0
  0
LINE
  5
6A
330
1F
100
AcDbEntity
  8
0
  6
Continuous
 62
     7
370
    25
100
AcDbLine
 10
1248.1667338816
 20
750.228845377
 30
0.0
 11
1247.1667338816
 21
750.228845377
 31
0.0
  0
LINE
  5
6B
330
1F
100
AcDbEntity
  8
0
  6
Continuous
 62
     7
370
    25
100
AcDbLine
 10
1251.7667338816
 20
750.178845377
 30
0.0
 11
1248.1667338816
 21
750.178845377
 31
0.0
  0
LINE
  5
6C
330
1F
100
AcDbEntity
  8
0
  6
Continuous
 62
     7
370
    25
100
AcDbLine
 10
1261.5667338816
 20
748.328845377
 30
0.0
 11
1251.7667338816
 21
748.328845377
 31
0.0
  0
LINE
  5
6D
330
1F
100
AcDbEntity
  8
0
  6
Continuous
 62
     7
370
    25
100
AcDbLine
 10
1270.353447341
 20
748.3288453769
 30
0.0
 11
1261.853447341
 21
748.328845377
 31
0.0
  0
LINE
  5
6E
330
1F
100
AcDbEntity
  8
0
  6
Continuous
 62
     7
370
    25
100
AcDbLine
 10
1267.1667338816
 20
728.1288453769
 30
0.0
 11
1270.3534473409
 21
728.1288453769
 31
0.0
  0
ARC
  5
6F
330
1F
100
AcDbEntity
  8
0
  6
Continuous
 62
     7
370
    25
100
AcDbCircle
 10
1270.3534473409
 20
747.3288453769
 30
0.0
 40
1.000000000000227
100
AcDbArc
 50
0.0
 51
90.0
  0
ARC
  5
70
330
1F
100
AcDbEntity
  8
0
  6
Continuous
 62
     7
370
    25
100
AcDbCircle
 10
1270.3534473409
 20
729.1288453769
 30
0.0
 40
1.000000000000227
100
AcDbArc
 50
270.0
 51
0.0
  0
LINE
  5
71
330
1F
100
AcDbEntity
  8
0
  6
Continuous
 62
     7
370
    25
100
AcDbLine
 10
1261.8534473409
 20
747.928845377
 30
0.0
 11
1261.5667338816
 21
747.928845377
 31
0.0
  0
ARC
  5
72
330
1F
100
AcDbEntity
  8
0
  6
Continuous
 62
     7
370
    25
100
AcDbCircle
 10
1277.8534473409
 20
738.5288453769
 30
0.0
 40
1.0
100
AcDbArc
 50
17.4576031237
 51
90.0
  0
ARC
  5
73
330
1F
100
AcDbEntity
  8
0
  6
Continuous
 62
     7
370
    25
100
AcDbCircle
 10
1277.8534473409
 20
737.9288453769
 30
0.0
 40
1.0
100
AcDbArc
 50
270.0
 51
342.5423968763
  0
LINE
  5
74
330
1F
100
AcDbEntity
  8
0
  6
Continuous
 62
     7
370
    25
100
AcDbLine
 10
1277.8534473409
 20
739.2288453769
 30
0.0
 11
1276.8534473409
 21
739.2288453769
 31
0.0
  0
LINE
  5
75
330
1F
100
AcDbEntity
  8
0
  6
Continuous
 62
     7
370
    25
100
AcDbLine
 10
1276.8534473409
 20
737.2288453769
 30
0.0
 11
1277.8534473409
 21
737.2288453769
 31
0.0
  0
LINE
  5
76
330
1F
100
AcDbEntity
  8
0
  6
Continuous
 62
     7
370
    25
100
AcDbLine
 10
552.9800204222
 20
728.1288453769
 30
0.0
 11
556.1667338816
 21
728.1288453769
 31
0.0
  0
LINE
  5
77
330
1F
100
AcDbEntity
  8
0
  6
Continuous
 62
     7
370
    25
100
AcDbLine
 10
561.4800204222
 20
748.328845377
 30
0.0
 11
552.9800204222
 21
748.328845377
 31
0.0
  0
ARC
  5
78
330
1F
100
AcDbEntity
  8
0
  6
Continuous
 62
     7
370
    25
100
AcDbCircle
 10
552.9800204222
 20
729.128845377
 30
0.0
 40
1.0
100
AcDbArc
 50
180.0
 51
270.0
  0
ARC
  5
79
330
1F
100
AcDbEntity
  8
0
  6
Continuous
 62
     7
370
    25
100
AcDbCircle
 10
552.9800204222
 20
747.328845377
 30
0.0
 40
1.0
100
AcDbArc
 50
90.0
 51
180.0
  0
LINE
  5
7A
330
1F
100
AcDbEntity
  8
0
  6
Continuous
 62
     7
370
    25
100
AcDbLine
 10
561.7667338816
 20
747.9288453769
 30
0.0
 11
561.4800204222
 21
747.9288453769
 31
0.0
  0
ARC
  5
7B
330
1F
100
AcDbEntity
  8
0
  6
Continuous
 62
     7
370
    25
100
AcDbCircle
 10
545.4800204222
 20
737.928845377
 30
0.0
 40
1.0
100
AcDbArc
 50
197.4576031237
 51
270.0
  0
ARC
  5
7C
330
1F
100
AcDbEntity
  8
0
  6
Continuous
 62
     7
370
    25
100
AcDbCircle
 10
545.4800204222
 20
738.528845377
 30
0.0
 40
1.0
100
AcDbArc
 50
90.0
 51
162.5423968763
  0
LINE
  5
7D
330
1F
100
AcDbEntity
  8
0
  6
Continuous
 62
     7
370
    25
100
AcDbLine
 10
545.4800204222
 20
737.228845377
 30
0.0
 11
546.4800204222
 21
737.228845377
 31
0.0
  0
LINE
  5
7E
330
1F
100
AcDbEntity
  8
0
  6
Continuous
 62
     7
370
    25
100
AcDbLine
 10
546.4800204222
 20
739.228845377
 30
0.0
 11
545.4800204222
 21
739.228845377
 31
0.0
  0
LINE
  5
7F
330
1F
100
AcDbEntity
  8
0
  6
Continuous
 62
     7
370
    25
100
AcDbLine
 10
1267.1667338816
 20
732.228845377
 30
0.0
 11
1256.8667338816
 21
732.228845377
 31
0.0
  0
ARC
  5
80
330
1F
100
AcDbEntity
  8
0
  6
Continuous
 62
     7
370
    25
100
AcDbCircle
 10
1256.8667338816
 20
732.428845377
 30
0.0
 40
0.2000000000000455
100
AcDbArc
 50
180.0
 51
270.0
  0
ARC
  5
81
330
1F
100
AcDbEntity
  8
0
  6
Continuous
 62
     7
370
    25
100
AcDbCircle
 10
1256.4667338816
 20
736.528845377
 30
0.0
 40
0.2000000000002728
100
AcDbArc
 50
0.0
 51
90.0
  0
LINE
  5
82
330
1F
100
AcDbEntity
  8
0
  6
Continuous
 62
     7
370
    25
100
AcDbLine
 10
1256.4667338816
 20
736.728845377
 30
0.0
 11
1247.1667338816
 21
736.728845377
 31
0.0
  0
LINE
  5
83
330
1F
100
AcDbEntity
  8
0
  6
Continuous
 62
     7
370
    25
100
AcDbLine
 10
566.4667338816
 20
732.228845377
 30
0.0
 11
556.1667338816
 21
732.228845377
 31
0.0
  0
ARC
  5
84
330
1F
100
AcDbEntity
  8
0
  6
Continuous
 62
     7
370
    25
100
AcDbCircle
 10
566.4667338816
 20
732.428845377
 30
0.0
 40
0.1999999999999318
100
AcDbArc
 50
270.0
 51
0.0
  0
ARC
  5
85
330
1F
100
AcDbEntity
  8
0
  6
Continuous
 62
     7
370
    25
100
AcDbCircle
 10
566.8667338816
 20
736.528845377
 30
0.0
 40
0.2000000000000455
100
AcDbArc
 50
90.0
 51
180.0
  0
LINE
  5
86
330
1F
100
AcDbEntity
  8
0
  6
Continuous
 62
     7
370
    25
100
AcDbLine
 10
576.1667338816
 20
736.728845377
 30
0.0
 11
566.8667338816
 21
736.728845377
 31
0.0
  0
LINE
  5
87
330
1F
100
AcDbEntity
  8
0
  6
Continuous
 62
     7
370
    25
100
AcDbLine
 10
1243.1667338816
 20
720.228845377
 30
0.0
 11
580.1667338816
 21
720.228845377
 31
0.0
  0
LINE
  5
88
330
1F
100
AcDbEntity
  8
0
  6
Continuous
 62
     7
370
    25
100
AcDbLine
 10
1243.1667338816
 20
731.6241558407
 30
0.0
 11
580.1667338816
 21
731.6241558407
 31
0.0
  0
LINE
  5
89
330
1F
100
AcDbEntity
  8
0
  6
Continuous
 62
     7
370
    25
100
AcDbLine
 10
1243.1667338816
 20
731.6241558407
 30
0.0
 11
1243.1667338816
 21
720.228845377
 31
0.0
  0
LINE
  5
8A
330
1F
100
AcDbEntity
  8
0
  6
Continuous
 62
     7
370
    25
100
AcDbLine
 10
580.1667338816
 20
720.228845377
 30
0.0
 11
580.1667338816
 21
731.6241558407
 31
0.0
  0
LINE
  5
8B
330
1F
100
AcDbEntity
  8
0
  6
Continuous
 62
     7
370
    25
100
AcDbLine
 10
580.1667338816
 20
733.4225926619
 30
0.0
 11
1243.1667338816
 21
733.4225926619
 31
0.0
  0
LINE
  5
8C
330
1F
100
AcDbEntity
  8
0
  6
Continuous
 62
     7
370
    25
100
AcDbLine
 10
1243.1667338816
 20
733.4225926619
 30
0.0
 11
1243.1667338816
 21
731.6241558407
 31
0.0
  0
LINE
  5
8D
330
1F
100
AcDbEntity
  8
0
  6
Continuous
 62
     7
370
    25
100
AcDbLine
 10
580.1667338816
 20
731.6241558407
 30
0.0
 11
580.1667338816
 21
733.4225926619
 31
0.0
  0
LINE
  5
8E
330
1F
100
AcDbEntity
  8
0
  6
Continuous
 62
     7
370
    25
100
AcDbLine
 10
1243.1667338816
 20
755.728845377
 30
0.0
 11
580.1667338816
 21
755.728845377
 31
0.0
  0
LINE
  5
8F
330
1F
100
AcDbEntity
  8
0
  6
Continuous
 62
     7
370
    25
100
AcDbLine
 10
1243.1667338816
 20
733.4225926619
 30
0.0
 11
1243.1667338816
 21
755.728845377
 31
0.0
  0
LINE
  5
90
330
1F
100
AcDbEntity
  8
0
  6
Continuous
 62
     7
370
    25
100
AcDbLine
 10
580.1667338816
 20
733.4225926619
 30
0.0
 11
580.1667338816
 21
755.728845377
 31
0.0
  0
LINE
  5
91
330
1F
100
AcDbEntity
  8
0
  6
Continuous
 62
     7
370
    25
100
AcDbLine
 10
1243.1667338816
 20
756.228845377
 30
0.0
 11
1243.1667338816
 21
755.728845377
 31
0.0
  0
LINE
  5
92
330
1F
100
AcDbEntity
  8
0
  6
Continuous
 62
     7
370
    25
100
AcDbLine
 10
580.1667338816
 20
755.728845377
 30
0.0
 11
580.1667338816
 21
756.228845377
 31
0.0
  0
LINE
  5
93
330
1F
100
AcDbEntity
  8
0
  6
Continuous
 62
     7
370
    25
100
AcDbLine
 10
480.1667338816
 20
773.628845377
 30
0.0
 11
1343.1667338816
 21
773.628845377
 31
0.0
  0
LINE
  5
94
330
1F
100
AcDbEntity
  8
0
  6
Continuous
 62
     7
370
    25
100
AcDbLine
 10
1343.1667338816
 20
773.628845377
 30
0.0
 11
1343.1667338816
 21
773.328845377
 31
0.0
  0
LINE
  5
95
330
1F
100
AcDbEntity
  8
0
  6
Continuous
 62
     7
370
    25
100
AcDbLine
 10
1343.1667338816
 20
773.328845377
 30
0.0
 11
480.1667338816
 21
773.328845377
 31
0.0
  0
LINE
  5
96
330
1F
100
AcDbEntity
  8
0
  6
Continuous
 62
     7
370
    25
100
AcDbLine
 10
480.1667338816
 20
773.328845377
 30
0.0
 11
480.1667338816
 21
773.628845377
 31
0.0
  0
LINE
  5
97
330
1F
100
AcDbEntity
  8
0
  6
Continuous
 62
     7
370
    25
100
AcDbLine
 10
480.1667338816
 20
773.628845377
 30
0.0
 11
480.1667338816
 21
781.228845377
 31
0.0
  0
LINE
  5
98
330
1F
100
AcDbEntity
  8
0
  6
Continuous
 62
     7
370
    25
100
AcDbLine
 10
1343.1667338816
 20
781.228845377
 30
0.0
 11
480.1667338816
 21
781.228845377
 31
0.0
  0
LINE
  5
99
330
1F
100
AcDbEntity
  8
0
  6
Continuous
 62
     7
370
    25
100
AcDbLine
 10
1343.1667338816
 20
773.628845377
 30
0.0
 11
1343.1667338816
 21
781.228845377
 31
0.0
  0
LINE
  5
9A
330
1F
100
AcDbEntity
  8
0
  6
Continuous
 62
     7
370
    25
100
AcDbLine
 10
480.1667338816
 20
781.228845377
 30
0.0
 11
480.1667338816
 21
781.528845377
 31
0.0
  0
LINE
  5
9B
330
1F
100
AcDbEntity
  8
0
  6
Continuous
 62
     7
370
    25
100
AcDbLine
 10
480.1667338816
 20
781.528845377
 30
0.0
 11
1343.1667338816
 21
781.528845377
 31
0.0
  0
LINE
  5
9C
330
1F
100
AcDbEntity
  8
0
  6
Continuous
 62
     7
370
    25
100
AcDbLine
 10
1343.1667338816
 20
781.528845377
 30
0.0
 11
1343.1667338816
 21
781.228845377
 31
0.0
  0
LINE
  5
9D
330
1F
100
AcDbEntity
  8
0
  6
Continuous
 62
     7
370
    25
100
AcDbLine
 10
480.1667338816
 20
756.528845377
 30
0.0
 11
1343.1667338816
 21
756.528845377
 31
0.0
  0
LINE
  5
9E
330
1F
100
AcDbEntity
  8
0
  6
Continuous
 62
     7
370
    25
100
AcDbLine
 10
1343.1667338816
 20
756.528845377
 30
0.0
 11
1343.1667338816
 21
756.228845377
 31
0.0
  0
LINE
  5
9F
330
1F
100
AcDbEntity
  8
0
  6
Continuous
 62
     7
370
    25
100
AcDbLine
 10
1343.1667338816
 20
756.228845377
 30
0.0
 11
480.1667338816
 21
756.228845377
 31
0.0
  0
LINE
  5
A0
330
1F
100
AcDbEntity
  8
0
  6
Continuous
 62
     7
370
    25
100
AcDbLine
 10
480.1667338816
 20
756.228845377
 30
0.0
 11
480.1667338816
 21
756.528845377
 31
0.0
  0
LINE
  5
A1
330
1F
100
AcDbEntity
  8
0
  6
Continuous
 62
     7
370
    25
100
AcDbLine
 10
1343.1667338816
 20
770.528845377
 30
0.0
 11
480.1667338816
 21
770.528845377
 31
0.0
  0
LINE
  5
A2
330
1F
100
AcDbEntity
  8
0
  6
Continuous
 62
     7
370
    25
100
AcDbLine
 10
1343.1667338816
 20
756.528845377
 30
0.0
 11
1343.1667338816
 21
770.528845377
 31
0.0
  0
LINE
  5
A3
330
1F
100
AcDbEntity
  8
0
  6
Continuous
 62
     7
370
    25
100
AcDbLine
 10
480.1667338816
 20
756.528845377
 30
0.0
 11
480.1667338816
 21
770.528845377
 31
0.0
  0
LINE
  5
A4
330
1F
100
AcDbEntity
  8
0
  6
Continuous
 62
     7
370
    25
100
AcDbLine
 10
480.1667338816
 20
770.828845377
 30
0.0
 11
1343.1667338816
 21
770.828845377
 31
0.0
  0
LINE
  5
A5
330
1F
100
AcDbEntity
  8
0
  6
Continuous
 62
     7
370
    25
100
AcDbLine
 10
1343.1667338816
 20
770.828845377
 30
0.0
 11
1343.1667338816
 21
770.528845377
 31
0.0
  0
LINE
  5
A6
330
1F
100
AcDbEntity
  8
0
  6
Continuous
 62
     7
370
    25
100
AcDbLine
 10
480.1667338816
 20
770.528845377
 30
0.0
 11
480.1667338816
 21
770.828845377
 31
0.0
  0
LINE
  5
A7
330
1F
100
AcDbEntity
  8
0
  6
Continuous
 62
     7
370
    25
100
AcDbLine
 10
480.1667338816
 20
771.128845377
 30
0.0
 11
1343.1667338816
 21
771.128845377
 31
0.0
  0
LINE
  5
A8
330
1F
100
AcDbEntity
  8
0
  6
Continuous
 62
     7
370
    25
100
AcDbLine
 10
1343.1667338816
 20
771.128845377
 30
0.0
 11
1343.1667338816
 21
770.828845377
 31
0.0
  0
LINE
  5
A9
330
1F
100
AcDbEntity
  8
0
  6
Continuous
 62
     7
370
    25
100
AcDbLine
 10
480.1667338816
 20
770.828845377
 30
0.0
 11
480.1667338816
 21
771.128845377
 31
0.0
  0
LINE
  5
AA
330
1F
100
AcDbEntity
  8
0
  6
Continuous
 62
     7
370
    25
100
AcDbLine
 10
1343.1667338816
 20
773.028845377
 30
0.0
 11
480.1667338816
 21
773.028845377
 31
0.0
  0
LINE
  5
AB
330
1F
100
AcDbEntity
  8
0
  6
Continuous
 62
     7
370
    25
100
AcDbLine
 10
1343.1667338816
 20
773.328845377
 30
0.0
 11
1343.1667338816
 21
773.028845377
 31
0.0
  0
LINE
  5
AC
330
1F
100
AcDbEntity
  8
0
  6
Continuous
 62
     7
370
    25
100
AcDbLine
 10
480.1667338816
 20
773.028845377
 30
0.0
 11
480.1667338816
 21
773.328845377
 31
0.0
  0
LINE
  5
AD
330
1F
100
AcDbEntity
  8
0
  6
Continuous
 62
     7
370
    25
100
AcDbLine
 10
1343.1667338816
 20
771.128845377
 30
0.0
 11
1343.1667338816
 21
773.028845377
 31
0.0
  0
LINE
  5
AE
330
1F
100
AcDbEntity
  8
0
  6
Continuous
 62
     7
370
    25
100
AcDbLine
 10
480.1667338816
 20
771.128845377
 30
0.0
 11
480.1667338816
 21
773.028845377
 31
0.0
  0
SPLINE
  5
AF
330
1F
100
AcDbEntity
  8
0
  6
Continuous
 62
     7
370
    25
100
AcDbSpline
210
0.0
220
0.0
230
1.0
 70
    24
 71
     3
 72
    14
 73
    10
 74
     0
 42
0.00000001
 43
0.00000001
 40
0.0
 40
0.0
 40
0.0
 40
0.0
 40
0.1688271108123618
 40
0.3310309522121628
 40
0.4814219176741615
 40
0.6169825020091031
 40
0.7525430863440423
 40
0.9029340518060383
 40
1.0
 40
1.0
 40
1.0
 40
1.0
 10
575.1667338815791
 20
750.2288453769618
 30
0.0
 10
575.1667338815794
 20
750.1335746632792
 30
0.0
 10
575.1667338815791
 20
749.9467708086345
 30
0.0
 10
575.1667338815791
 20
748.5345725512221
 30
0.0
 10
575.1667338815796
 20
746.5957575201187
 30
0.0
 10
575.1667338815785
 20
744.2807169688178
 30
0.0
 10
575.1667338815796
 20
741.6430973213666
 30
0.0
 10
575.1667338815794
 20
739.0474796074525
 30
0.0
 10
575.1667338815791
 20
737.382097903918
 30
0.0
 10
575.1667338815791
 20
736.728845376962
 30
0.0
  0
SPLINE
  5
B0
330
1F
100
AcDbEntity
  8
0
  6
Continuous
 62
     7
370
    25
100
AcDbSpline
210
0.0
220
0.0
230
1.0
 70
    24
 71
     3
 72
    14
 73
    10
 74
     0
 42
0.00000001
 43
0.00000001
 40
0.0
 40
0.0
 40
0.0
 40
0.0
 40
0.0973462878936852
 40
0.2476905605124793
 40
0.3832090564873288
 40
0.5187275524621813
 40
0.6690718250809794
 40
0.8312253060185697
 40
1.0
 40
1.0
 40
1.0
 40
1.0
 10
571.5667338815791
 20
736.728845376962
 30
0.0
 10
571.5667338815789
 20
737.3814563779605
 30
0.0
 10
571.5667338815789
 20
739.0419776790959
 30
0.0
 10
571.5667338815782
 20
741.6288698795562
 30
0.0
 10
571.5667338815796
 20
744.2555011924017
 30
0.0
 10
571.5667338815791
 20
746.5608952796446
 30
0.0
 10
571.5667338815791
 20
748.4916320535357
 30
0.0
 10
571.5667338815794
 20
749.8979461106369
 30
0.0
 10
571.5667338815789
 20
750.0839716216482
 30
0.0
 10
571.5667338815791
 20
750.1788453769619
 30
0.0
  0
SPLINE
  5
B1
330
1F
100
AcDbEntity
  8
0
  6
Continuous
 62
     7
370
    25
100
AcDbSpline
210
0.0
220
0.0
230
1.0
 70
    24
 71
     3
 72
    16
 73
    12
 74
     0
 42
0.00000001
 43
0.00000001
 40
0.0
 40
0.0
 40
0.0
 40
0.0
 40
0.1293989627320791
 40
0.2537214647715678
 40
0.368989888435381
 40
0.4728914414258291
 40
0.5767929944162754
 40
0.6920614180800899
 40
0.8163839201195833
 40
0.9457828828516698
 40
1.0
 40
1.0
 40
1.0
 40
1.0
 10
561.7667338815793
 20
748.3288453769619
 30
0.0
 10
561.7667338815793
 20
748.248657330048
 30
0.0
 10
561.7667338815795
 20
748.0914270996767
 30
0.0
 10
561.7667338815793
 20
746.9028528353764
 30
0.0
 10
561.7667338815793
 20
745.2709288767885
 30
0.0
 10
561.7667338815791
 20
743.3227291896271
 30
0.0
 10
561.7667338815793
 20
741.1016248138224
 30
0.0
 10
561.7667338815793
 20
738.5501534345545
 30
0.0
 10
561.7667338815793
 20
735.808618196749
 30
0.0
 10
561.7667338815791
 20
733.5818586618335
 30
0.0
 10
561.7667338815793
 20
732.537282048905
 30
0.0
 10
561.7667338815791
 20
732.228845376962
 30
0.0
  0
SPLINE
  5
B2
330
1F
100
AcDbEntity
  8
0
  6
Continuous
 62
     7
370
    25
100
AcDbSpline
210
0.0
220
0.0
230
1.0
 70
    24
 71
     3
 72
    14
 73
    10
 74
     0
 42
0.00000001
 43
0.00000001
 40
0.0
 40
0.0
 40
0.0
 40
0.0
 40
0.0970659481939792
 40
0.2474569136559679
 40
0.3830174979909018
 40
0.5185780823258392
 40
0.6689690477878317
 40
0.8311728891876262
 40
1.0
 40
1.0
 40
1.0
 40
1.0
 10
1248.16673388158
 20
736.728845376962
 30
0.0
 10
1248.16673388158
 20
737.3820979039181
 30
0.0
 10
1248.16673388158
 20
739.0474796074528
 30
0.0
 10
1248.16673388158
 20
741.643097321367
 30
0.0
 10
1248.16673388158
 20
744.2807169688183
 30
0.0
 10
1248.16673388158
 20
746.595757520119
 30
0.0
 10
1248.16673388158
 20
748.5345725512225
 30
0.0
 10
1248.16673388158
 20
749.9467708086347
 30
0.0
 10
1248.16673388158
 20
750.1335746632793
 30
0.0
 10
1248.16673388158
 20
750.2288453769619
 30
0.0
  0
SPLINE
  5
B3
330
1F
100
AcDbEntity
  8
0
  6
Continuous
 62
     7
370
    25
100
AcDbSpline
210
0.0
220
0.0
230
1.0
 70
    24
 71
     3
 72
    14
 73
    10
 74
     0
 42
0.00000001
 43
0.00000001
 40
0.0
 40
0.0
 40
0.0
 40
0.0
 40
0.1687746939813992
 40
0.3309281749189948
 40
0.481272447537797
 40
0.6167909435126541
 40
0.7523094394875105
 40
0.902653712106311
 40
1.0
 40
1.0
 40
1.0
 40
1.0
 10
1251.76673388158
 20
750.1788453769618
 30
0.0
 10
1251.76673388158
 20
750.0839716216481
 30
0.0
 10
1251.76673388158
 20
749.8979461106369
 30
0.0
 10
1251.76673388158
 20
748.4916320535357
 30
0.0
 10
1251.76673388158
 20
746.5608952796446
 30
0.0
 10
1251.76673388158
 20
744.2555011924017
 30
0.0
 10
1251.76673388158
 20
741.6288698795562
 30
0.0
 10
1251.76673388158
 20
739.0419776790959
 30
0.0
 10
1251.76673388158
 20
737.3814563779605
 30
0.0
 10
1251.76673388158
 20
736.728845376962
 30
0.0
  0
SPLINE
  5
B4
330
1F
100
AcDbEntity
  8
0
  6
Continuous
 62
     7
370
    25
100
AcDbSpline
210
0.0
220
0.0
230
1.0
 70
    24
 71
     3
 72
    16
 73
    12
 74
     0
 42
0.00000001
 43
0.00000001
 40
0.0
 40
0.0
 40
0.0
 40
0.0
 40
0.0542171171482904
 40
0.183616079880379
 40
0.3079385819198757
 40
0.4232070055836952
 40
0.5271085585741483
 40
0.6310101115645989
 40
0.7462785352284166
 40
0.8706010372679119
 40
1.0
 40
1.0
 40
1.0
 40
1.0
 10
1261.56673388158
 20
732.228845376962
 30
0.0
 10
1261.56673388158
 20
732.5372820489048
 30
0.0
 10
1261.56673388158
 20
733.5818586618328
 30
0.0
 10
1261.566733881579
 20
735.8086181967477
 30
0.0
 10
1261.56673388158
 20
738.5501534345532
 30
0.0
 10
1261.56673388158
 20
741.101624813821
 30
0.0
 10
1261.56673388158
 20
743.3227291896259
 30
0.0
 10
1261.56673388158
 20
745.2709288767873
 30
0.0
 10
1261.56673388158
 20
746.9028528353754
 30
0.0
 10
1261.56673388158
 20
748.0914270996761
 30
0.0
 10
1261.56673388158
 20
748.2486573300478
 30
0.0
 10
1261.56673388158
 20
748.3288453769619
 30
0.0
  0
LINE
  5
B5
330
1F
100
AcDbEntity
  8
0
  6
Continuous
 62
     7
370
    25
100
AcDbLine
 10
1261.853447341
 20
748.328845377
 30
0.0
 11
1261.8534473409
 21
732.228845377
 31
0.0
  0
LINE
  5
B6
330
1F
100
AcDbEntity
  8
0
  6
Continuous
 62
     7
370
    25
100
AcDbLine
 10
1271.3534473409
 20
747.3288453769
 30
0.0
 11
1271.3534473409
 21
729.1288453769
 31
0.0
  0
LINE
  5
B7
330
1F
100
AcDbEntity
  8
0
  6
Continuous
 62
     7
370
    25
100
AcDbLine
 10
1275.8534473409
 20
736.6468490001
 30
0.0
 11
1275.8534473409
 21
740.6200329728
 31
0.0
  0
LINE
  5
B8
330
1F
100
AcDbEntity
  8
0
  6
Continuous
 62
     7
370
    25
100
AcDbLine
 10
1271.3534473409
 20
736.6468490001
 30
0.0
 11
1275.8534473409
 21
736.6468490001
 31
0.0
  0
LINE
  5
B9
330
1F
100
AcDbEntity
  8
0
  6
Continuous
 62
     7
370
    25
100
AcDbLine
 10
1275.8534473409
 20
740.6200329728
 30
0.0
 11
1271.3534473409
 21
740.6200329728
 31
0.0
  0
LINE
  5
BA
330
1F
100
AcDbEntity
  8
0
  6
Continuous
 62
     7
370
    25
100
AcDbLine
 10
1276.8534473409
 20
740.5044342272
 30
0.0
 11
1276.8534473409
 21
736.5312502546
 31
0.0
  0
ARC
  5
BB
330
1F
100
AcDbEntity
  8
0
  6
Continuous
 62
     7
370
    25
100
AcDbCircle
 10
1276.1001065734
 20
734.3974967151
 30
0.0
 40
2.262835937251886
100
AcDbArc
 50
70.5539653282
 51
96.2579308308
  0
ARC
  5
BC
330
1F
100
AcDbEntity
  8
0
  6
Continuous
 62
     7
370
    25
100
AcDbCircle
 10
1276.1001065734
 20
738.3706806878
 30
0.0
 40
2.262835937251779
100
AcDbArc
 50
70.5539653282
 51
96.2579308308
  0
LINE
  5
BD
330
1F
100
AcDbEntity
  8
0
  6
Continuous
 62
     7
370
    25
100
AcDbLine
 10
1271.3534473409
 20
736.0168358367
 30
0.0
 11
1273.5534473409
 21
736.0168358367
 31
0.0
  0
LWPOLYLINE
  5
BE
330
1F
100
AcDbEntity
  8
0
  6
Continuous
 62
     7
370
    25
100
AcDbPolyline
 90
        9
 70
   128
 43
0.0
 10
1273.5534473409
 20
736.0168358367
 10
1274.299680034
 20
736.0339947263
 10
1274.9323055642
 20
736.0828591097
 10
1275.3550124293
 20
736.1559898274
 10
1275.5034473409
 20
736.2422533906
 10
1275.3550124293
 20
736.3285169538
 10
1274.9323055642
 20
736.4016476716
 10
1274.299680034
 20
736.4505120549
 10
1273.5534473409
 20
736.4676709445
  0
LINE
  5
BF
330
1F
100
AcDbEntity
  8
0
  6
Continuous
 62
     7
370
    25
100
AcDbLine
 10
1273.5534473409
 20
736.4676709445
 30
0.0
 11
1271.3534473409
 21
736.4676709445
 31
0.0
  0
ARC
  5
C0
330
1F
100
AcDbEntity
  8
0
  6
Continuous
 62
     7
370
    25
100
AcDbCircle
 10
1276.100106584
 20
738.0870100133
 30
0.0
 40
2.262835883984445
100
AcDbArc
 50
263.7420692185
 51
289.4460348628
  0
LINE
  5
C1
330
1F
100
AcDbEntity
  8
0
  6
Continuous
 62
     7
370
    25
100
AcDbLine
 10
1275.8534473593
 20
735.8376577811
 30
0.0
 11
1271.3534473409
 21
735.8376577811
 31
0.0
  0
LINE
  5
C2
330
1F
100
AcDbEntity
  8
0
  6
Continuous
 62
     7
370
    25
100
AcDbLine
 10
1276.8534473409
 20
736.5312502546
 30
0.0
 11
1276.8534473409
 21
735.9532565267
 31
0.0
  0
LINE
  5
C3
330
1F
100
AcDbEntity
  8
0
  6
Continuous
 62
     7
370
    25
100
AcDbLine
 10
1278.8073865423
 20
737.9909234652
 30
0.0
 11
1278.8073865423
 21
738.8288453769
 31
0.0
  0
LINE
  5
C4
330
1F
100
AcDbEntity
  8
0
  6
Continuous
 62
     7
370
    25
100
AcDbLine
 10
1278.8073865423
 20
737.6288453769
 30
0.0
 11
1278.8073865423
 21
737.9909234652
 31
0.0
  0
LINE
  5
C5
330
1F
100
AcDbEntity
  8
0
  6
Continuous
 62
     7
370
    25
100
AcDbLine
 10
1277.8534473409
 20
737.7133479016
 30
0.0
 11
1277.8534473409
 21
739.5288453769
 31
0.0
  0
LINE
  5
C6
330
1F
100
AcDbEntity
  8
0
  6
Continuous
 62
     7
370
    25
100
AcDbLine
 10
1277.8534473409
 20
736.9288453769
 30
0.0
 11
1277.8534473409
 21
737.7133479016
 31
0.0
  0
LINE
  5
C7
330
1F
100
AcDbEntity
  8
0
  6
Continuous
 62
     7
370
    25
100
AcDbLine
 10
561.4800204222
 20
747.5008367507
 30
0.0
 11
561.4800204222
 21
748.328845377
 31
0.0
  0
LINE
  5
C8
330
1F
100
AcDbEntity
  8
0
  6
Continuous
 62
     7
370
    25
100
AcDbLine
 10
561.4800204222
 20
732.228845377
 30
0.0
 11
561.4800204222
 21
747.5008367507
 31
0.0
  0
LINE
  5
C9
330
1F
100
AcDbEntity
  8
0
  6
Continuous
 62
     7
370
    25
100
AcDbLine
 10
551.9800204222
 20
746.5828178028
 30
0.0
 11
551.9800204222
 21
747.328845377
 31
0.0
  0
LINE
  5
CA
330
1F
100
AcDbEntity
  8
0
  6
Continuous
 62
     7
370
    25
100
AcDbLine
 10
551.9800204222
 20
729.128845377
 30
0.0
 11
551.9800204222
 21
746.5828178028
 31
0.0
  0
LINE
  5
CB
330
1F
100
AcDbEntity
  8
0
  6
Continuous
 62
     7
370
    25
100
AcDbLine
 10
551.9800204222
 20
740.9870836684
 30
0.0
 11
549.7800204222
 21
740.9870836684
 31
0.0
  0
LWPOLYLINE
  5
CC
330
1F
100
AcDbEntity
  8
0
  6
Continuous
 62
     7
370
    25
100
AcDbPolyline
 90
        9
 70
   128
 43
0.0
 10
549.7800204222
 20
740.9870836684
 10
549.0337877291
 20
740.8679765035
 10
548.4011621989
 20
740.5287879949
 10
547.9784553338
 20
740.0211565183
 10
547.8300204222
 20
739.4223643643
 10
547.9784553338
 20
738.8235722103
 10
548.4011621989
 20
738.3159407336
 10
549.0337877291
 20
737.976752225
 10
549.7800204222
 20
737.8576450601
  0
LINE
  5
CD
330
1F
100
AcDbEntity
  8
0
  6
Continuous
 62
     7
370
    25
100
AcDbLine
 10
549.7800204222
 20
737.8576450601
 30
0.0
 11
551.9800204222
 21
737.8576450601
 31
0.0
  0
LINE
  5
CE
330
1F
100
AcDbEntity
  8
0
  6
Continuous
 62
     7
370
    25
100
AcDbLine
 10
551.9800204222
 20
736.6138938183
 30
0.0
 11
547.4800204222
 21
736.6138938183
 31
0.0
  0
ARC
  5
CF
330
1F
100
AcDbEntity
  8
0
  6
Continuous
 62
     7
370
    25
100
AcDbCircle
 10
547.3909899489
 20
737.5272664132
 30
0.0
 40
0.9177014341555002
100
AcDbArc
 50
186.9441938633
 51
275.5672858329
  0
LINE
  5
D0
330
1F
100
AcDbEntity
  8
0
  6
Continuous
 62
     7
370
    25
100
AcDbLine
 10
546.4800204222
 20
737.4163139743
 30
0.0
 11
546.4800204222
 21
741.4284147542
 31
0.0
  0
ARC
  5
D1
330
1F
100
AcDbEntity
  8
0
  6
Continuous
 62
     7
370
    25
100
AcDbCircle
 10
547.3909899451
 20
741.3174623181
 30
0.0
 40
0.9177014300170685
100
AcDbArc
 50
84.4327150532
 51
173.0558062792
  0
LINE
  5
D2
330
1F
100
AcDbEntity
  8
0
  6
Continuous
 62
     7
370
    25
100
AcDbLine
 10
547.4800204039
 20
742.2308349102
 30
0.0
 11
551.9800204222
 21
742.2308349102
 31
0.0
  0
LINE
  5
D3
330
1F
100
AcDbEntity
  8
0
  6
Continuous
 62
     7
370
    25
100
AcDbLine
 10
547.4800204222
 20
736.6138938183
 30
0.0
 11
547.4800204222
 21
734.2268558437
 31
0.0
  0
ARC
  5
D4
330
1F
100
AcDbEntity
  8
0
  6
Continuous
 62
     7
370
    25
100
AcDbCircle
 10
547.3909899489
 20
735.1402284386
 30
0.0
 40
0.9177014341556563
100
AcDbArc
 50
186.9441938633
 51
275.5672858329
  0
LINE
  5
D5
330
1F
100
AcDbEntity
  8
0
  6
Continuous
 62
     7
370
    25
100
AcDbLine
 10
546.4800204222
 20
735.0292759997
 30
0.0
 11
546.4800204222
 21
737.4163139743
 31
0.0
  0
LINE
  5
D6
330
1F
100
AcDbEntity
  8
0
  6
Continuous
 62
     7
370
    25
100
AcDbLine
 10
547.4800204222
 20
734.2268558437
 30
0.0
 11
551.9800204222
 21
734.2268558437
 31
0.0
  0
LINE
  5
D7
330
1F
100
AcDbEntity
  8
0
  6
Continuous
 62
     7
370
    25
100
AcDbLine
 10
549.7800204222
 20
738.6000456938
 30
0.0
 11
549.7800204222
 21
740.9870836684
 31
0.0
  0
LWPOLYLINE
  5
D8
330
1F
100
AcDbEntity
  8
0
  6
Continuous
 62
     7
370
    25
100
AcDbPolyline
 90
        3
 70
   128
 43
0.0
 10
548.5190112905
 20
738.228845377
 10
549.0337877291
 20
738.4809385289
 10
549.7800204222
 20
738.6000456938
  0
LINE
  5
D9
330
1F
100
AcDbEntity
  8
0
  6
Continuous
 62
     7
370
    25
100
AcDbLine
 10
544.5260812208
 20
737.9909234653
 30
0.0
 11
544.5260812208
 21
737.628845377
 31
0.0
  0
LINE
  5
DA
330
1F
100
AcDbEntity
  8
0
  6
Continuous
 62
     7
370
    25
100
AcDbLine
 10
544.5260812208
 20
738.828845377
 30
0.0
 11
544.5260812208
 21
737.9909234653
 31
0.0
  0
LINE
  5
DB
330
1F
100
AcDbEntity
  8
0
  6
Continuous
 62
     7
370
    25
100
AcDbLine
 10
545.4800204222
 20
737.7133479016
 30
0.0
 11
545.4800204222
 21
736.928845377
 31
0.0
  0
LINE
  5
DC
330
1F
100
AcDbEntity
  8
0
  6
Continuous
 62
     7
370
    25
100
AcDbLine
 10
545.4800204222
 20
739.528845377
 30
0.0
 11
545.4800204222
 21
737.7133479016
 31
0.0
  0
LINE
  5
DD
330
1F
100
AcDbEntity
  8
0
  6
Continuous
 62
     7
370
    25
100
AcDbLine
 10
549.7800204222
 20
738.6000456938
 30
0.0
 11
551.9800204222
 21
738.6000456938
 31
0.0
  0
LINE
  5
DE
330
1F
100
AcDbEntity
  8
0
  6
Continuous
 62
     7
370
    25
100
AcDbLine
 10
475.9667338816
 20
773.628845377
 30
0.0
 11
475.6667338816
 21
773.628845377
 31
0.0
  0
LINE
  5
DF
330
1F
100
AcDbEntity
  8
0
  6
Continuous
 62
     7
370
    25
100
AcDbLine
 10
475.6667338816
 20
773.628845377
 30
0.0
 11
475.6667338816
 21
781.228845377
 31
0.0
  0
LINE
  5
E0
330
1F
100
AcDbEntity
  8
0
  6
Continuous
 62
     7
370
    25
100
AcDbLine
 10
475.9667338816
 20
781.228845377
 30
0.0
 11
475.6667338816
 21
781.228845377
 31
0.0
  0
LINE
  5
E1
330
1F
100
AcDbEntity
  8
0
  6
Continuous
 62
     7
370
    25
100
AcDbLine
 10
475.9667338816
 20
781.228845377
 30
0.0
 11
475.9667338816
 21
773.628845377
 31
0.0
  0
LINE
  5
E2
330
1F
100
AcDbEntity
  8
0
  6
Continuous
 62
     7
370
    25
100
AcDbLine
 10
475.9667338816
 20
773.628845377
 30
0.0
 11
479.8667338816
 21
773.628845377
 31
0.0
  0
LINE
  5
E3
330
1F
100
AcDbEntity
  8
0
  6
Continuous
 62
     7
370
    25
100
AcDbLine
 10
479.8667338816
 20
781.228845377
 30
0.0
 11
475.9667338816
 21
781.228845377
 31
0.0
  0
LINE
  5
E4
330
1F
100
AcDbEntity
  8
0
  6
Continuous
 62
     7
370
    25
100
AcDbLine
 10
479.8667338816
 20
773.628845377
 30
0.0
 11
479.8667338816
 21
781.228845377
 31
0.0
  0
LINE
  5
E5
330
1F
100
AcDbEntity
  8
0
  6
Continuous
 62
     7
370
    25
100
AcDbLine
 10
480.1667338816
 20
773.628845377
 30
0.0
 11
479.8667338816
 21
773.628845377
 31
0.0
  0
LINE
  5
E6
330
1F
100
AcDbEntity
  8
0
  6
Continuous
 62
     7
370
    25
100
AcDbLine
 10
480.1667338816
 20
781.228845377
 30
0.0
 11
479.8667338816
 21
781.228845377
 31
0.0
  0
LINE
  5
E7
330
1F
100
AcDbEntity
  8
0
  6
Continuous
 62
     7
370
    25
100
AcDbLine
 10
479.8667338816
 20
770.528845377
 30
0.0
 11
475.9667338816
 21
770.528845377
 31
0.0
  0
LINE
  5
E8
330
1F
100
AcDbEntity
  8
0
  6
Continuous
 62
     7
370
    25
100
AcDbLine
 10
479.8667338816
 20
756.528845377
 30
0.0
 11
479.8667338816
 21
770.528845377
 31
0.0
  0
LINE
  5
E9
330
1F
100
AcDbEntity
  8
0
  6
Continuous
 62
     7
370
    25
100
AcDbLine
 10
475.9667338816
 20
756.528845377
 30
0.0
 11
479.8667338816
 21
756.528845377
 31
0.0
  0
LINE
  5
EA
330
1F
100
AcDbEntity
  8
0
  6
Continuous
 62
     7
370
    25
100
AcDbLine
 10
475.9667338816
 20
770.528845377
 30
0.0
 11
475.9667338816
 21
756.528845377
 31
0.0
  0
LINE
  5
EB
330
1F
100
AcDbEntity
  8
0
  6
Continuous
 62
     7
370
    25
100
AcDbLine
 10
479.8667338816
 20
756.228845377
 30
0.0
 11
475.9667338816
 21
756.228845377
 31
0.0
  0
LINE
  5
EC
330
1F
100
AcDbEntity
  8
0
  6
Continuous
 62
     7
370
    25
100
AcDbLine
 10
475.9667338816
 20
756.228845377
 30
0.0
 11
475.9667338816
 21
756.528845377
 31
0.0
  0
LINE
  5
ED
330
1F
100
AcDbEntity
  8
0
  6
Continuous
 62
     7
370
    25
100
AcDbLine
 10
479.8667338816
 20
756.228845377
 30
0.0
 11
479.8667338816
 21
756.528845377
 31
0.0
  0
LINE
  5
EE
330
1F
100
AcDbEntity
  8
0
  6
Continuous
 62
     7
370
    25
100
AcDbLine
 10
480.1667338816
 20
756.528845377
 30
0.0
 11
479.8667338816
 21
756.528845377
 31
0.0
  0
LINE
  5
EF
330
1F
100
AcDbEntity
  8
0
  6
Continuous
 62
     7
370
    25
100
AcDbLine
 10
480.1667338816
 20
770.528845377
 30
0.0
 11
479.8667338816
 21
770.528845377
 31
0.0
  0
LINE
  5
F0
330
1F
100
AcDbEntity
  8
0
  6
Continuous
 62
     7
370
    25
100
AcDbLine
 10
475.9667338816
 20
781.528845377
 30
0.0
 11
475.9667338816
 21
781.228845377
 31
0.0
  0
ARC
  5
F1
330
1F
100
AcDbEntity
  8
0
  6
Continuous
 62
     7
370
    25
100
AcDbCircle
 10
475.9667338816
 20
781.228845377
 30
0.0
 40
0.3000000000001819
100
AcDbArc
 50
90.0
 51
180.0
  0
ARC
  5
F2
330
1F
100
AcDbEntity
  8
0
  6
Continuous
 62
     7
370
    25
100
AcDbCircle
 10
475.9667338816
 20
756.528845377
 30
0.0
 40
0.3000000000001819
100
AcDbArc
 50
180.0
 51
270.0
  0
LINE
  5
F3
330
1F
100
AcDbEntity
  8
0
  6
Continuous
 62
     7
370
    25
100
AcDbLine
 10
475.9667338816
 20
756.528845377
 30
0.0
 11
475.6667338816
 21
756.528845377
 31
0.0
  0
LINE
  5
F4
330
1F
100
AcDbEntity
  8
0
  6
Continuous
 62
     7
370
    25
100
AcDbLine
 10
475.9667338816
 20
781.528845377
 30
0.0
 11
479.8667338816
 21
781.528845377
 31
0.0
  0
LINE
  5
F5
330
1F
100
AcDbEntity
  8
0
  6
Continuous
 62
     7
370
    25
100
AcDbLine
 10
479.8667338816
 20
781.528845377
 30
0.0
 11
479.8667338816
 21
781.228845377
 31
0.0
  0
ARC
  5
F6
330
1F
100
AcDbEntity
  8
0
  6
Continuous
 62
     7
370
    25
100
AcDbCircle
 10
479.8667338816
 20
756.528845377
 30
0.0
 40
0.3000000000001819
100
AcDbArc
 50
270.0
 51
0.0
  0
ARC
  5
F7
330
1F
100
AcDbEntity
  8
0
  6
Continuous
 62
     7
370
    25
100
AcDbCircle
 10
479.8667338816
 20
781.228845377
 30
0.0
 40
0.3000000000001819
100
AcDbArc
 50
0.0
 51
90.0
  0
LINE
  5
F8
330
1F
100
AcDbEntity
  8
0
  6
Continuous
 62
     7
370
    25
100
AcDbLine
 10
475.6667338816
 20
756.528845377
 30
0.0
 11
475.6667338816
 21
770.528845377
 31
0.0
  0
LINE
  5
F9
330
1F
100
AcDbEntity
  8
0
  6
Continuous
 62
     7
370
    25
100
AcDbLine
 10
475.9667338816
 20
770.528845377
 30
0.0
 11
475.6667338816
 21
770.528845377
 31
0.0
  0
ARC
  5
FA
330
1F
100
AcDbEntity
  8
0
  6
Continuous
 62
     7
370
    25
100
AcDbCircle
 10
475.9667338816
 20
773.628845377
 30
0.0
 40
0.3000000000001819
100
AcDbArc
 50
180.0
 51
270.0
  0
LINE
  5
FB
330
1F
100
AcDbEntity
  8
0
  6
Continuous
 62
     7
370
    25
100
AcDbLine
 10
475.9667338816
 20
773.328845377
 30
0.0
 11
475.9667338816
 21
773.628845377
 31
0.0
  0
LINE
  5
FC
330
1F
100
AcDbEntity
  8
0
  6
Continuous
 62
     7
370
    25
100
AcDbLine
 10
479.8667338816
 20
773.328845377
 30
0.0
 11
479.8667338816
 21
773.628845377
 31
0.0
  0
ARC
  5
FD
330
1F
100
AcDbEntity
  8
0
  6
Continuous
 62
     7
370
    25
100
AcDbCircle
 10
479.8667338816
 20
773.628845377
 30
0.0
 40
0.3000000000001819
100
AcDbArc
 50
270.0
 51
0.0
  0
ARC
  5
FE
330
1F
100
AcDbEntity
  8
0
  6
Continuous
 62
     7
370
    25
100
AcDbCircle
 10
475.9667338816
 20
770.528845377
 30
0.0
 40
0.3000000000001819
100
AcDbArc
 50
90.0
 51
180.0
  0
LINE
  5
FF
330
1F
100
AcDbEntity
  8
0
  6
Continuous
 62
     7
370
    25
100
AcDbLine
 10
475.9667338816
 20
770.528845377
 30
0.0
 11
475.9667338816
 21
770.828845377
 31
0.0
  0
LINE
  5
100
330
1F
100
AcDbEntity
  8
0
  6
Continuous
 62
     7
370
    25
100
AcDbLine
 10
479.8667338816
 20
770.528845377
 30
0.0
 11
479.8667338816
 21
770.828845377
 31
0.0
  0
ARC
  5
101
330
1F
100
AcDbEntity
  8
0
  6
Continuous
 62
     7
370
    25
100
AcDbCircle
 10
479.8667338816
 20
770.528845377
 30
0.0
 40
0.3000000000001819
100
AcDbArc
 50
0.0
 51
90.0
  0
LINE
  5
102
330
1F
100
AcDbEntity
  8
0
  6
Continuous
 62
     7
370
    25
100
AcDbLine
 10
475.9667338816
 20
770.828845377
 30
0.0
 11
479.8667338816
 21
770.828845377
 31
0.0
  0
LINE
  5
103
330
1F
100
AcDbEntity
  8
0
  6
Continuous
 62
     7
370
    25
100
AcDbLine
 10
479.8667338816
 20
773.328845377
 30
0.0
 11
475.9667338816
 21
773.328845377
 31
0.0
  0
LINE
  5
104
330
1F
100
AcDbEntity
  8
0
  6
Continuous
 62
     7
370
    25
100
AcDbLine
 10
475.9667338816
 20
770.828845377
 30
0.0
 11
475.9667338816
 21
771.128845377
 31
0.0
  0
LINE
  5
105
330
1F
100
AcDbEntity
  8
0
  6
Continuous
 62
     7
370
    25
100
AcDbLine
 10
475.9667338816
 20
771.128845377
 30
0.0
 11
479.8667338816
 21
771.128845377
 31
0.0
  0
LINE
  5
106
330
1F
100
AcDbEntity
  8
0
  6
Continuous
 62
     7
370
    25
100
AcDbLine
 10
479.8667338816
 20
770.828845377
 30
0.0
 11
479.8667338816
 21
771.128845377
 31
0.0
  0
LINE
  5
107
330
1F
100
AcDbEntity
  8
0
  6
Continuous
 62
     7
370
    25
100
AcDbLine
 10
480.1667338816
 20
771.128845377
 30
0.0
 11
479.8667338816
 21
771.128845377
 31
0.0
  0
LINE
  5
108
330
1F
100
AcDbEntity
  8
0
  6
Continuous
 62
     7
370
    25
100
AcDbLine
 10
475.9667338816
 20
771.128845377
 30
0.0
 11
475.6667338816
 21
771.128845377
 31
0.0
  0
LINE
  5
109
330
1F
100
AcDbEntity
  8
0
  6
Continuous
 62
     7
370
    25
100
AcDbLine
 10
475.6667338816
 20
771.128845377
 30
0.0
 11
475.6667338816
 21
770.528845377
 31
0.0
  0
LINE
  5
10A
330
1F
100
AcDbEntity
  8
0
  6
Continuous
 62
     7
370
    25
100
AcDbLine
 10
475.9667338816
 20
773.028845377
 30
0.0
 11
475.9667338816
 21
773.328845377
 31
0.0
  0
LINE
  5
10B
330
1F
100
AcDbEntity
  8
0
  6
Continuous
 62
     7
370
    25
100
AcDbLine
 10
475.9667338816
 20
773.028845377
 30
0.0
 11
475.6667338816
 21
773.028845377
 31
0.0
  0
LINE
  5
10C
330
1F
100
AcDbEntity
  8
0
  6
Continuous
 62
     7
370
    25
100
AcDbLine
 10
475.6667338816
 20
773.628845377
 30
0.0
 11
475.6667338816
 21
773.028845377
 31
0.0
  0
LINE
  5
10D
330
1F
100
AcDbEntity
  8
0
  6
Continuous
 62
     7
370
    25
100
AcDbLine
 10
480.1667338816
 20
773.028845377
 30
0.0
 11
479.8667338816
 21
773.028845377
 31
0.0
  0
LINE
  5
10E
330
1F
100
AcDbEntity
  8
0
  6
Continuous
 62
     7
370
    25
100
AcDbLine
 10
479.8667338816
 20
773.028845377
 30
0.0
 11
479.8667338816
 21
773.328845377
 31
0.0
  0
LINE
  5
10F
330
1F
100
AcDbEntity
  8
0
  6
Continuous
 62
     7
370
    25
100
AcDbLine
 10
479.8667338816
 20
773.028845377
 30
0.0
 11
475.9667338816
 21
773.028845377
 31
0.0
  0
LINE
  5
110
330
1F
100
AcDbEntity
  8
0
  6
Continuous
 62
     7
370
    25
100
AcDbLine
 10
479.8667338816
 20
771.128845377
 30
0.0
 11
479.8667338816
 21
773.028845377
 31
0.0
  0
LINE
  5
111
330
1F
100
AcDbEntity
  8
0
  6
Continuous
 62
     7
370
    25
100
AcDbLine
 10
475.9667338816
 20
773.028845377
 30
0.0
 11
475.9667338816
 21
771.128845377
 31
0.0
  0
LINE
  5
112
330
1F
100
AcDbEntity
  8
0
  6
Continuous
 62
     7
370
    25
100
AcDbLine
 10
475.6667338816
 20
771.128845377
 30
0.0
 11
475.6667338816
 21
773.028845377
 31
0.0
  0
LINE
  5
113
330
1F
100
AcDbEntity
  8
0
  6
Continuous
 62
     7
370
    25
100
AcDbLine
 10
1343.4667338816
 20
756.528845377
 30
0.0
 11
1347.3667338816
 21
756.528845377
 31
0.0
  0
LINE
  5
114
330
1F
100
AcDbEntity
  8
0
  6
Continuous
 62
     7
370
    25
100
AcDbLine
 10
1347.3667338816
 20
756.528845377
 30
0.0
 11
1347.3667338816
 21
756.228845377
 31
0.0
  0
LINE
  5
115
330
1F
100
AcDbEntity
  8
0
  6
Continuous
 62
     7
370
    25
100
AcDbLine
 10
1347.3667338816
 20
756.228845377
 30
0.0
 11
1343.4667338816
 21
756.228845377
 31
0.0
  0
LINE
  5
116
330
1F
100
AcDbEntity
  8
0
  6
Continuous
 62
     7
370
    25
100
AcDbLine
 10
1343.4667338816
 20
756.528845377
 30
0.0
 11
1343.4667338816
 21
756.228845377
 31
0.0
  0
LINE
  5
117
330
1F
100
AcDbEntity
  8
0
  6
Continuous
 62
     7
370
    25
100
AcDbLine
 10
1347.3667338816
 20
756.528845377
 30
0.0
 11
1347.3667338816
 21
770.528845377
 31
0.0
  0
LINE
  5
118
330
1F
100
AcDbEntity
  8
0
  6
Continuous
 62
     7
370
    25
100
AcDbLine
 10
1347.6667338816
 20
770.528845377
 30
0.0
 11
1347.3667338816
 21
770.528845377
 31
0.0
  0
LINE
  5
119
330
1F
100
AcDbEntity
  8
0
  6
Continuous
 62
     7
370
    25
100
AcDbLine
 10
1347.6667338816
 20
770.528845377
 30
0.0
 11
1347.6667338816
 21
756.528845377
 31
0.0
  0
LINE
  5
11A
330
1F
100
AcDbEntity
  8
0
  6
Continuous
 62
     7
370
    25
100
AcDbLine
 10
1347.3667338816
 20
756.528845377
 30
0.0
 11
1347.6667338816
 21
756.528845377
 31
0.0
  0
LINE
  5
11B
330
1F
100
AcDbEntity
  8
0
  6
Continuous
 62
     7
370
    25
100
AcDbLine
 10
1347.6667338816
 20
773.628845377
 30
0.0
 11
1347.3667338816
 21
773.628845377
 31
0.0
  0
LINE
  5
11C
330
1F
100
AcDbEntity
  8
0
  6
Continuous
 62
     7
370
    25
100
AcDbLine
 10
1347.3667338816
 20
773.628845377
 30
0.0
 11
1347.3667338816
 21
781.228845377
 31
0.0
  0
LINE
  5
11D
330
1F
100
AcDbEntity
  8
0
  6
Continuous
 62
     7
370
    25
100
AcDbLine
 10
1347.6667338816
 20
781.228845377
 30
0.0
 11
1347.3667338816
 21
781.228845377
 31
0.0
  0
LINE
  5
11E
330
1F
100
AcDbEntity
  8
0
  6
Continuous
 62
     7
370
    25
100
AcDbLine
 10
1347.6667338816
 20
781.228845377
 30
0.0
 11
1347.6667338816
 21
773.628845377
 31
0.0
  0
ARC
  5
11F
330
1F
100
AcDbEntity
  8
0
  6
Continuous
 62
     7
370
    25
100
AcDbCircle
 10
1347.3667338816
 20
756.528845377
 30
0.0
 40
0.2999999999999545
100
AcDbArc
 50
270.0
 51
0.0
  0
ARC
  5
120
330
1F
100
AcDbEntity
  8
0
  6
Continuous
 62
     7
370
    25
100
AcDbCircle
 10
1343.4667338816
 20
781.228845377
 30
0.0
 40
0.2999999999999545
100
AcDbArc
 50
90.0
 51
180.0
  0
LINE
  5
121
330
1F
100
AcDbEntity
  8
0
  6
Continuous
 62
     7
370
    25
100
AcDbLine
 10
1343.4667338816
 20
781.228845377
 30
0.0
 11
1343.4667338816
 21
781.528845377
 31
0.0
  0
LINE
  5
122
330
1F
100
AcDbEntity
  8
0
  6
Continuous
 62
     7
370
    25
100
AcDbLine
 10
1343.4667338816
 20
781.228845377
 30
0.0
 11
1343.1667338816
 21
781.228845377
 31
0.0
  0
LINE
  5
123
330
1F
100
AcDbEntity
  8
0
  6
Continuous
 62
     7
370
    25
100
AcDbLine
 10
1343.4667338816
 20
773.628845377
 30
0.0
 11
1343.1667338816
 21
773.628845377
 31
0.0
  0
LINE
  5
124
330
1F
100
AcDbEntity
  8
0
  6
Continuous
 62
     7
370
    25
100
AcDbLine
 10
1343.4667338816
 20
781.228845377
 30
0.0
 11
1343.4667338816
 21
773.628845377
 31
0.0
  0
LINE
  5
125
330
1F
100
AcDbEntity
  8
0
  6
Continuous
 62
     7
370
    25
100
AcDbLine
 10
1347.3667338816
 20
781.228845377
 30
0.0
 11
1347.3667338816
 21
781.528845377
 31
0.0
  0
ARC
  5
126
330
1F
100
AcDbEntity
  8
0
  6
Continuous
 62
     7
370
    25
100
AcDbCircle
 10
1347.3667338816
 20
781.228845377
 30
0.0
 40
0.2999999999999545
100
AcDbArc
 50
0.0
 51
90.0
  0
LINE
  5
127
330
1F
100
AcDbEntity
  8
0
  6
Continuous
 62
     7
370
    25
100
AcDbLine
 10
1347.3667338816
 20
781.228845377
 30
0.0
 11
1343.4667338816
 21
781.228845377
 31
0.0
  0
LINE
  5
128
330
1F
100
AcDbEntity
  8
0
  6
Continuous
 62
     7
370
    25
100
AcDbLine
 10
1343.4667338816
 20
781.528845377
 30
0.0
 11
1347.3667338816
 21
781.528845377
 31
0.0
  0
LINE
  5
129
330
1F
100
AcDbEntity
  8
0
  6
Continuous
 62
     7
370
    25
100
AcDbLine
 10
1343.4667338816
 20
770.528845377
 30
0.0
 11
1343.4667338816
 21
756.528845377
 31
0.0
  0
LINE
  5
12A
330
1F
100
AcDbEntity
  8
0
  6
Continuous
 62
     7
370
    25
100
AcDbLine
 10
1343.4667338816
 20
756.528845377
 30
0.0
 11
1343.1667338816
 21
756.528845377
 31
0.0
  0
LINE
  5
12B
330
1F
100
AcDbEntity
  8
0
  6
Continuous
 62
     7
370
    25
100
AcDbLine
 10
1343.1667338816
 20
770.528845377
 30
0.0
 11
1343.4667338816
 21
770.528845377
 31
0.0
  0
ARC
  5
12C
330
1F
100
AcDbEntity
  8
0
  6
Continuous
 62
     7
370
    25
100
AcDbCircle
 10
1343.4667338816
 20
756.528845377
 30
0.0
 40
0.2999999999999545
100
AcDbArc
 50
180.0
 51
270.0
  0
LINE
  5
12D
330
1F
100
AcDbEntity
  8
0
  6
Continuous
 62
     7
370
    25
100
AcDbLine
 10
1347.3667338816
 20
770.528845377
 30
0.0
 11
1343.4667338816
 21
770.528845377
 31
0.0
  0
LINE
  5
12E
330
1F
100
AcDbEntity
  8
0
  6
Continuous
 62
     7
370
    25
100
AcDbLine
 10
1343.4667338816
 20
773.628845377
 30
0.0
 11
1347.3667338816
 21
773.628845377
 31
0.0
  0
LINE
  5
12F
330
1F
100
AcDbEntity
  8
0
  6
Continuous
 62
     7
370
    25
100
AcDbLine
 10
1343.4667338816
 20
770.828845377
 30
0.0
 11
1347.3667338816
 21
770.828845377
 31
0.0
  0
LINE
  5
130
330
1F
100
AcDbEntity
  8
0
  6
Continuous
 62
     7
370
    25
100
AcDbLine
 10
1347.3667338816
 20
770.828845377
 30
0.0
 11
1347.3667338816
 21
770.528845377
 31
0.0
  0
LINE
  5
131
330
1F
100
AcDbEntity
  8
0
  6
Continuous
 62
     7
370
    25
100
AcDbLine
 10
1343.4667338816
 20
770.828845377
 30
0.0
 11
1343.4667338816
 21
770.528845377
 31
0.0
  0
ARC
  5
132
330
1F
100
AcDbEntity
  8
0
  6
Continuous
 62
     7
370
    25
100
AcDbCircle
 10
1347.3667338816
 20
773.628845377
 30
0.0
 40
0.2999999999999545
100
AcDbArc
 50
270.0
 51
0.0
  0
LINE
  5
133
330
1F
100
AcDbEntity
  8
0
  6
Continuous
 62
     7
370
    25
100
AcDbLine
 10
1347.3667338816
 20
773.628845377
 30
0.0
 11
1347.3667338816
 21
773.328845377
 31
0.0
  0
ARC
  5
134
330
1F
100
AcDbEntity
  8
0
  6
Continuous
 62
     7
370
    25
100
AcDbCircle
 10
1343.4667338816
 20
773.628845377
 30
0.0
 40
0.2999999999999545
100
AcDbArc
 50
180.0
 51
270.0
  0
LINE
  5
135
330
1F
100
AcDbEntity
  8
0
  6
Continuous
 62
     7
370
    25
100
AcDbLine
 10
1343.4667338816
 20
773.628845377
 30
0.0
 11
1343.4667338816
 21
773.328845377
 31
0.0
  0
LINE
  5
136
330
1F
100
AcDbEntity
  8
0
  6
Continuous
 62
     7
370
    25
100
AcDbLine
 10
1347.3667338816
 20
773.328845377
 30
0.0
 11
1343.4667338816
 21
773.328845377
 31
0.0
  0
ARC
  5
137
330
1F
100
AcDbEntity
  8
0
  6
Continuous
 62
     7
370
    25
100
AcDbCircle
 10
1347.3667338816
 20
770.528845377
 30
0.0
 40
0.3000000000000682
100
AcDbArc
 50
0.0
 51
90.0
  0
ARC
  5
138
330
1F
100
AcDbEntity
  8
0
  6
Continuous
 62
     7
370
    25
100
AcDbCircle
 10
1343.4667338816
 20
770.528845377
 30
0.0
 40
0.3000000000000682
100
AcDbArc
 50
90.0
 51
180.0
  0
LINE
  5
139
330
1F
100
AcDbEntity
  8
0
  6
Continuous
 62
     7
370
    25
100
AcDbLine
 10
1347.3667338816
 20
771.128845377
 30
0.0
 11
1347.3667338816
 21
770.828845377
 31
0.0
  0
LINE
  5
13A
330
1F
100
AcDbEntity
  8
0
  6
Continuous
 62
     7
370
    25
100
AcDbLine
 10
1347.6667338816
 20
771.128845377
 30
0.0
 11
1347.3667338816
 21
771.128845377
 31
0.0
  0
LINE
  5
13B
330
1F
100
AcDbEntity
  8
0
  6
Continuous
 62
     7
370
    25
100
AcDbLine
 10
1347.6667338816
 20
770.528845377
 30
0.0
 11
1347.6667338816
 21
771.128845377
 31
0.0
  0
LINE
  5
13C
330
1F
100
AcDbEntity
  8
0
  6
Continuous
 62
     7
370
    25
100
AcDbLine
 10
1343.4667338816
 20
771.128845377
 30
0.0
 11
1347.3667338816
 21
771.128845377
 31
0.0
  0
LINE
  5
13D
330
1F
100
AcDbEntity
  8
0
  6
Continuous
 62
     7
370
    25
100
AcDbLine
 10
1343.4667338816
 20
771.128845377
 30
0.0
 11
1343.4667338816
 21
770.828845377
 31
0.0
  0
LINE
  5
13E
330
1F
100
AcDbEntity
  8
0
  6
Continuous
 62
     7
370
    25
100
AcDbLine
 10
1343.4667338816
 20
771.128845377
 30
0.0
 11
1343.1667338816
 21
771.128845377
 31
0.0
  0
LINE
  5
13F
330
1F
100
AcDbEntity
  8
0
  6
Continuous
 62
     7
370
    25
100
AcDbLine
 10
1347.3667338816
 20
773.328845377
 30
0.0
 11
1347.3667338816
 21
773.028845377
 31
0.0
  0
LINE
  5
140
330
1F
100
AcDbEntity
  8
0
  6
Continuous
 62
     7
370
    25
100
AcDbLine
 10
1347.3667338816
 20
773.028845377
 30
0.0
 11
1343.4667338816
 21
773.028845377
 31
0.0
  0
LINE
  5
141
330
1F
100
AcDbEntity
  8
0
  6
Continuous
 62
     7
370
    25
100
AcDbLine
 10
1343.4667338816
 20
773.328845377
 30
0.0
 11
1343.4667338816
 21
773.028845377
 31
0.0
  0
LINE
  5
142
330
1F
100
AcDbEntity
  8
0
  6
Continuous
 62
     7
370
    25
100
AcDbLine
 10
1347.6667338816
 20
773.028845377
 30
0.0
 11
1347.3667338816
 21
773.028845377
 31
0.0
  0
LINE
  5
143
330
1F
100
AcDbEntity
  8
0
  6
Continuous
 62
     7
370
    25
100
AcDbLine
 10
1347.6667338816
 20
773.028845377
 30
0.0
 11
1347.6667338816
 21
773.628845377
 31
0.0
  0
LINE
  5
144
330
1F
100
AcDbEntity
  8
0
  6
Continuous
 62
     7
370
    25
100
AcDbLine
 10
1343.4667338816
 20
773.028845377
 30
0.0
 11
1343.1667338816
 21
773.028845377
 31
0.0
  0
LINE
  5
145
330
1F
100
AcDbEntity
  8
0
  6
Continuous
 62
     7
370
    25
100
AcDbLine
 10
1343.4667338816
 20
773.028845377
 30
0.0
 11
1343.4667338816
 21
771.128845377
 31
0.0
  0
LINE
  5
146
330
1F
100
AcDbEntity
  8
0
  6
Continuous
 62
     7
370
    25
100
AcDbLine
 10
1347.3667338816
 20
771.128845377
 30
0.0
 11
1347.3667338816
 21
773.028845377
 31
0.0
  0
LINE
  5
147
330
1F
100
AcDbEntity
  8
0
  6
Continuous
 62
     7
370
    25
100
AcDbLine
 10
1347.6667338816
 20
773.028845377
 30
0.0
 11
1347.6667338816
 21
771.128845377
 31
0.0
  0
LINE
  5
148
330
1F
100
AcDbEntity
  8
0
  6
Continuous
 62
     7
370
    25
100
AcDbLine
 10
1267.1667338816
 20
720.228845377
 30
0.0
 11
1267.1667338816
 21
732.228845377
 31
0.0
  0
LINE
  5
149
330
1F
100
AcDbEntity
  8
0
  6
Continuous
 62
     7
370
    25
100
AcDbLine
 10
1247.1667338816
 20
720.228845377
 30
0.0
 11
1267.1667338816
 21
720.228845377
 31
0.0
  0
LINE
  5
14A
330
1F
100
AcDbEntity
  8
0
  6
Continuous
 62
     7
370
    25
100
AcDbLine
 10
1247.1667338816
 20
720.228845377
 30
0.0
 11
1247.1667338816
 21
723.1727305932
 31
0.0
  0
LINE
  5
14B
330
1F
100
AcDbEntity
  8
0
  6
Continuous
 62
     7
370
    25
100
AcDbLine
 10
1247.1667338816
 20
723.1727305932
 30
0.0
 11
1257.1667338816
 21
723.1727305932
 31
0.0
  0
LINE
  5
14C
330
1F
100
AcDbEntity
  8
0
  6
Continuous
 62
     7
370
    25
100
AcDbLine
 10
1257.1667338816
 20
723.2853122441
 30
0.0
 11
1257.1667338816
 21
723.1727305932
 31
0.0
  0
LINE
  5
14D
330
1F
100
AcDbEntity
  8
0
  6
Continuous
 62
     7
370
    25
100
AcDbLine
 10
1257.1667338816
 20
723.2853122441
 30
0.0
 11
1247.1667338816
 21
723.2853122441
 31
0.0
  0
LINE
  5
14E
330
1F
100
AcDbEntity
  8
0
  6
Continuous
 62
     7
370
    25
100
AcDbLine
 10
1247.1667338816
 20
723.2853122441
 30
0.0
 11
1247.1667338816
 21
723.5171120045
 31
0.0
  0
LINE
  5
14F
330
1F
100
AcDbEntity
  8
0
  6
Continuous
 62
     7
370
    25
100
AcDbLine
 10
1255.1667338816
 20
723.5171120045
 30
0.0
 11
1247.1667338816
 21
723.5171120045
 31
0.0
  0
LINE
  5
150
330
1F
100
AcDbEntity
  8
0
  6
Continuous
 62
     7
370
    25
100
AcDbLine
 10
1255.1667338816
 20
723.5171120045
 30
0.0
 11
1255.1667338816
 21
723.6337052427
 31
0.0
  0
LINE
  5
151
330
1F
100
AcDbEntity
  8
0
  6
Continuous
 62
     7
370
    25
100
AcDbLine
 10
1247.1667338816
 20
723.6337052427
 30
0.0
 11
1255.1667338816
 21
723.6337052427
 31
0.0
  0
LINE
  5
152
330
1F
100
AcDbEntity
  8
0
  6
Continuous
 62
     7
370
    25
100
AcDbLine
 10
1247.1667338816
 20
723.6337052427
 30
0.0
 11
1247.1667338816
 21
723.8739735007
 31
0.0
  0
LINE
  5
153
330
1F
100
AcDbEntity
  8
0
  6
Continuous
 62
     7
370
    25
100
AcDbLine
 10
1255.1667338816
 20
723.8739735007
 30
0.0
 11
1247.1667338816
 21
723.8739735007
 31
0.0
  0
LINE
  5
154
330
1F
100
AcDbEntity
  8
0
  6
Continuous
 62
     7
370
    25
100
AcDbLine
 10
1255.1667338816
 20
723.8739735007
 30
0.0
 11
1255.1667338816
 21
723.9940864001
 31
0.0
  0
LINE
  5
155
330
1F
100
AcDbEntity
  8
0
  6
Continuous
 62
     7
370
    25
100
AcDbLine
 10
1247.1667338816
 20
723.9940864001
 30
0.0
 11
1255.1667338816
 21
723.9940864001
 31
0.0
  0
LINE
  5
156
330
1F
100
AcDbEntity
  8
0
  6
Continuous
 62
     7
370
    25
100
AcDbLine
 10
1247.1667338816
 20
723.9940864001
 30
0.0
 11
1247.1667338816
 21
724.1157658123
 31
0.0
  0
LINE
  5
157
330
1F
100
AcDbEntity
  8
0
  6
Continuous
 62
     7
370
    25
100
AcDbLine
 10
1247.1667338816
 20
724.1157658123
 30
0.0
 11
1257.1667338816
 21
724.1157658123
 31
0.0
  0
LINE
  5
158
330
1F
100
AcDbEntity
  8
0
  6
Continuous
 62
     7
370
    25
100
AcDbLine
 10
1257.1667338816
 20
724.2379240609
 30
0.0
 11
1257.1667338816
 21
724.1157658123
 31
0.0
  0
LINE
  5
159
330
1F
100
AcDbEntity
  8
0
  6
Continuous
 62
     7
370
    25
100
AcDbLine
 10
1257.1667338816
 20
724.2379240609
 30
0.0
 11
1247.1667338816
 21
724.2379240609
 31
0.0
  0
LINE
  5
15A
330
1F
100
AcDbEntity
  8
0
  6
Continuous
 62
     7
370
    25
100
AcDbLine
 10
1247.1667338816
 20
724.2379240609
 30
0.0
 11
1247.1667338816
 21
724.4877165221
 31
0.0
  0
LINE
  5
15B
330
1F
100
AcDbEntity
  8
0
  6
Continuous
 62
     7
370
    25
100
AcDbLine
 10
1255.1667338816
 20
724.4877165221
 30
0.0
 11
1247.1667338816
 21
724.4877165221
 31
0.0
  0
LINE
  5
15C
330
1F
100
AcDbEntity
  8
0
  6
Continuous
 62
     7
370
    25
100
AcDbLine
 10
1255.1667338816
 20
724.4877165221
 30
0.0
 11
1255.1667338816
 21
724.6125221164
 31
0.0
  0
LINE
  5
15D
330
1F
100
AcDbEntity
  8
0
  6
Continuous
 62
     7
370
    25
100
AcDbLine
 10
1247.1667338816
 20
724.6125221164
 30
0.0
 11
1255.1667338816
 21
724.6125221164
 31
0.0
  0
LINE
  5
15E
330
1F
100
AcDbEntity
  8
0
  6
Continuous
 62
     7
370
    25
100
AcDbLine
 10
1247.1667338816
 20
724.6125221164
 30
0.0
 11
1247.1667338816
 21
724.868038347
 31
0.0
  0
LINE
  5
15F
330
1F
100
AcDbEntity
  8
0
  6
Continuous
 62
     7
370
    25
100
AcDbLine
 10
1255.1667338816
 20
724.868038347
 30
0.0
 11
1247.1667338816
 21
724.868038347
 31
0.0
  0
LINE
  5
160
330
1F
100
AcDbEntity
  8
0
  6
Continuous
 62
     7
370
    25
100
AcDbLine
 10
1255.1667338816
 20
724.868038347
 30
0.0
 11
1255.1667338816
 21
724.9949608028
 31
0.0
  0
LINE
  5
161
330
1F
100
AcDbEntity
  8
0
  6
Continuous
 62
     7
370
    25
100
AcDbLine
 10
1247.1667338816
 20
724.9949608028
 30
0.0
 11
1255.1667338816
 21
724.9949608028
 31
0.0
  0
LINE
  5
162
330
1F
100
AcDbEntity
  8
0
  6
Continuous
 62
     7
370
    25
100
AcDbLine
 10
1247.1667338816
 20
724.9949608028
 30
0.0
 11
1247.1667338816
 21
725.1230058847
 31
0.0
  0
LINE
  5
163
330
1F
100
AcDbEntity
  8
0
  6
Continuous
 62
     7
370
    25
100
AcDbLine
 10
1247.1667338816
 20
725.1230058847
 30
0.0
 11
1257.1667338816
 21
725.1230058847
 31
0.0
  0
LINE
  5
164
330
1F
100
AcDbEntity
  8
0
  6
Continuous
 62
     7
370
    25
100
AcDbLine
 10
1257.1667338816
 20
725.2510290145
 30
0.0
 11
1257.1667338816
 21
725.1230058847
 31
0.0
  0
LINE
  5
165
330
1F
100
AcDbEntity
  8
0
  6
Continuous
 62
     7
370
    25
100
AcDbLine
 10
1257.1667338816
 20
725.2510290145
 30
0.0
 11
1247.1667338816
 21
725.2510290145
 31
0.0
  0
LINE
  5
166
330
1F
100
AcDbEntity
  8
0
  6
Continuous
 62
     7
370
    25
100
AcDbLine
 10
1247.1667338816
 20
725.2510290145
 30
0.0
 11
1247.1667338816
 21
725.5112243589
 31
0.0
  0
LINE
  5
167
330
1F
100
AcDbEntity
  8
0
  6
Continuous
 62
     7
370
    25
100
AcDbLine
 10
1255.1667338816
 20
725.5112243589
 30
0.0
 11
1247.1667338816
 21
725.5112243589
 31
0.0
  0
LINE
  5
168
330
1F
100
AcDbEntity
  8
0
  6
Continuous
 62
     7
370
    25
100
AcDbLine
 10
1255.1667338816
 20
725.5112243589
 30
0.0
 11
1255.1667338816
 21
725.6404501544
 31
0.0
  0
LINE
  5
169
330
1F
100
AcDbEntity
  8
0
  6
Continuous
 62
     7
370
    25
100
AcDbLine
 10
1247.1667338816
 20
725.6404501544
 30
0.0
 11
1255.1667338816
 21
725.6404501544
 31
0.0
  0
LINE
  5
16A
330
1F
100
AcDbEntity
  8
0
  6
Continuous
 62
     7
370
    25
100
AcDbLine
 10
1247.1667338816
 20
725.6404501544
 30
0.0
 11
1247.1667338816
 21
725.9034506264
 31
0.0
  0
LINE
  5
16B
330
1F
100
AcDbEntity
  8
0
  6
Continuous
 62
     7
370
    25
100
AcDbLine
 10
1255.1667338816
 20
725.9034506264
 30
0.0
 11
1247.1667338816
 21
725.9034506264
 31
0.0
  0
LINE
  5
16C
330
1F
100
AcDbEntity
  8
0
  6
Continuous
 62
     7
370
    25
100
AcDbLine
 10
1255.1667338816
 20
725.9034506264
 30
0.0
 11
1255.1667338816
 21
726.0333261639
 31
0.0
  0
LINE
  5
16D
330
1F
100
AcDbEntity
  8
0
  6
Continuous
 62
     7
370
    25
100
AcDbLine
 10
1247.1667338816
 20
726.0333261639
 30
0.0
 11
1255.1667338816
 21
726.0333261639
 31
0.0
  0
LINE
  5
16E
330
1F
100
AcDbEntity
  8
0
  6
Continuous
 62
     7
370
    25
100
AcDbLine
 10
1247.1667338816
 20
726.0333261639
 30
0.0
 11
1247.1667338816
 21
726.1638463305
 31
0.0
  0
LINE
  5
16F
330
1F
100
AcDbEntity
  8
0
  6
Continuous
 62
     7
370
    25
100
AcDbLine
 10
1247.1667338816
 20
726.1638463305
 30
0.0
 11
1257.1667338816
 21
726.1638463305
 31
0.0
  0
LINE
  5
170
330
1F
100
AcDbEntity
  8
0
  6
Continuous
 62
     7
370
    25
100
AcDbLine
 10
1257.1667338816
 20
726.2938444234
 30
0.0
 11
1257.1667338816
 21
726.1638463305
 31
0.0
  0
LINE
  5
171
330
1F
100
AcDbEntity
  8
0
  6
Continuous
 62
     7
370
    25
100
AcDbLine
 10
1257.1667338816
 20
726.2938444234
 30
0.0
 11
1247.1667338816
 21
726.2938444234
 31
0.0
  0
LINE
  5
172
330
1F
100
AcDbEntity
  8
0
  6
Continuous
 62
     7
370
    25
100
AcDbLine
 10
1247.1667338816
 20
726.2938444234
 30
0.0
 11
1247.1667338816
 21
726.5565367473
 31
0.0
  0
LINE
  5
173
330
1F
100
AcDbEntity
  8
0
  6
Continuous
 62
     7
370
    25
100
AcDbLine
 10
1255.1667338816
 20
726.5565367473
 30
0.0
 11
1247.1667338816
 21
726.5565367473
 31
0.0
  0
LINE
  5
174
330
1F
100
AcDbEntity
  8
0
  6
Continuous
 62
     7
370
    25
100
AcDbLine
 10
1255.1667338816
 20
726.5565367473
 30
0.0
 11
1255.1667338816
 21
726.6862562835
 31
0.0
  0
LINE
  5
175
330
1F
100
AcDbEntity
  8
0
  6
Continuous
 62
     7
370
    25
100
AcDbLine
 10
1247.1667338816
 20
726.6862562835
 30
0.0
 11
1255.1667338816
 21
726.6862562835
 31
0.0
  0
LINE
  5
176
330
1F
100
AcDbEntity
  8
0
  6
Continuous
 62
     7
370
    25
100
AcDbLine
 10
1247.1667338816
 20
726.6862562835
 30
0.0
 11
1247.1667338816
 21
726.9487498605
 31
0.0
  0
LINE
  5
177
330
1F
100
AcDbEntity
  8
0
  6
Continuous
 62
     7
370
    25
100
AcDbLine
 10
1255.1667338816
 20
726.9487498605
 30
0.0
 11
1247.1667338816
 21
726.9487498605
 31
0.0
  0
LINE
  5
178
330
1F
100
AcDbEntity
  8
0
  6
Continuous
 62
     7
370
    25
100
AcDbLine
 10
1255.1667338816
 20
726.9487498605
 30
0.0
 11
1255.1667338816
 21
727.0776322774
 31
0.0
  0
LINE
  5
179
330
1F
100
AcDbEntity
  8
0
  6
Continuous
 62
     7
370
    25
100
AcDbLine
 10
1247.1667338816
 20
727.0776322774
 30
0.0
 11
1255.1667338816
 21
727.0776322774
 31
0.0
  0
LINE
  5
17A
330
1F
100
AcDbEntity
  8
0
  6
Continuous
 62
     7
370
    25
100
AcDbLine
 10
1247.1667338816
 20
727.0776322774
 30
0.0
 11
1247.1667338816
 21
727.2066617395
 31
0.0
  0
LINE
  5
17B
330
1F
100
AcDbEntity
  8
0
  6
Continuous
 62
     7
370
    25
100
AcDbLine
 10
1247.1667338816
 20
727.2066617395
 30
0.0
 11
1257.1667338816
 21
727.2066617395
 31
0.0
  0
LINE
  5
17C
330
1F
100
AcDbEntity
  8
0
  6
Continuous
 62
     7
370
    25
100
AcDbLine
 10
1257.1667338816
 20
727.3346848692
 30
0.0
 11
1257.1667338816
 21
727.2066617395
 31
0.0
  0
LINE
  5
17D
330
1F
100
AcDbEntity
  8
0
  6
Continuous
 62
     7
370
    25
100
AcDbLine
 10
1257.1667338816
 20
727.3346848692
 30
0.0
 11
1247.1667338816
 21
727.3346848692
 31
0.0
  0
LINE
  5
17E
330
1F
100
AcDbEntity
  8
0
  6
Continuous
 62
     7
370
    25
100
AcDbLine
 10
1247.1667338816
 20
727.3346848692
 30
0.0
 11
1247.1667338816
 21
727.5918923992
 31
0.0
  0
LINE
  5
17F
330
1F
100
AcDbEntity
  8
0
  6
Continuous
 62
     7
370
    25
100
AcDbLine
 10
1255.1667338816
 20
727.5918923992
 30
0.0
 11
1247.1667338816
 21
727.5918923992
 31
0.0
  0
LINE
  5
180
330
1F
100
AcDbEntity
  8
0
  6
Continuous
 62
     7
370
    25
100
AcDbLine
 10
1255.1667338816
 20
727.5918923992
 30
0.0
 11
1255.1667338816
 21
727.7181642137
 31
0.0
  0
LINE
  5
181
330
1F
100
AcDbEntity
  8
0
  6
Continuous
 62
     7
370
    25
100
AcDbLine
 10
1247.1667338816
 20
727.7181642137
 30
0.0
 11
1255.1667338816
 21
727.7181642137
 31
0.0
  0
LINE
  5
182
330
1F
100
AcDbEntity
  8
0
  6
Continuous
 62
     7
370
    25
100
AcDbLine
 10
1247.1667338816
 20
727.7181642137
 30
0.0
 11
1247.1667338816
 21
727.9721751613
 31
0.0
  0
LINE
  5
183
330
1F
100
AcDbEntity
  8
0
  6
Continuous
 62
     7
370
    25
100
AcDbLine
 10
1255.1667338816
 20
727.9721751613
 30
0.0
 11
1247.1667338816
 21
727.9721751613
 31
0.0
  0
LINE
  5
184
330
1F
100
AcDbEntity
  8
0
  6
Continuous
 62
     7
370
    25
100
AcDbLine
 10
1255.1667338816
 20
727.9721751613
 30
0.0
 11
1255.1667338816
 21
728.0961484304
 31
0.0
  0
LINE
  5
185
330
1F
100
AcDbEntity
  8
0
  6
Continuous
 62
     7
370
    25
100
AcDbLine
 10
1247.1667338816
 20
728.0961484304
 30
0.0
 11
1255.1667338816
 21
728.0961484304
 31
0.0
  0
LINE
  5
186
330
1F
100
AcDbEntity
  8
0
  6
Continuous
 62
     7
370
    25
100
AcDbLine
 10
1247.1667338816
 20
728.0961484304
 30
0.0
 11
1247.1667338816
 21
728.219766693
 31
0.0
  0
LINE
  5
187
330
1F
100
AcDbEntity
  8
0
  6
Continuous
 62
     7
370
    25
100
AcDbLine
 10
1247.1667338816
 20
728.219766693
 30
0.0
 11
1257.1667338816
 21
728.219766693
 31
0.0
  0
LINE
  5
188
330
1F
100
AcDbEntity
  8
0
  6
Continuous
 62
     7
370
    25
100
AcDbLine
 10
1257.1667338816
 20
728.3419249416
 30
0.0
 11
1257.1667338816
 21
728.219766693
 31
0.0
  0
LINE
  5
189
330
1F
100
AcDbEntity
  8
0
  6
Continuous
 62
     7
370
    25
100
AcDbLine
 10
1257.1667338816
 20
728.3419249416
 30
0.0
 11
1247.1667338816
 21
728.3419249416
 31
0.0
  0
LINE
  5
18A
330
1F
100
AcDbEntity
  8
0
  6
Continuous
 62
     7
370
    25
100
AcDbLine
 10
1247.1667338816
 20
728.3419249416
 30
0.0
 11
1247.1667338816
 21
728.585832557
 31
0.0
  0
LINE
  5
18B
330
1F
100
AcDbEntity
  8
0
  6
Continuous
 62
     7
370
    25
100
AcDbLine
 10
1255.1667338816
 20
728.585832557
 30
0.0
 11
1247.1667338816
 21
728.585832557
 31
0.0
  0
LINE
  5
18C
330
1F
100
AcDbEntity
  8
0
  6
Continuous
 62
     7
370
    25
100
AcDbLine
 10
1255.1667338816
 20
728.585832557
 30
0.0
 11
1255.1667338816
 21
728.7048199447
 31
0.0
  0
LINE
  5
18D
330
1F
100
AcDbEntity
  8
0
  6
Continuous
 62
     7
370
    25
100
AcDbLine
 10
1247.1667338816
 20
728.7048199447
 30
0.0
 11
1255.1667338816
 21
728.7048199447
 31
0.0
  0
LINE
  5
18E
330
1F
100
AcDbEntity
  8
0
  6
Continuous
 62
     7
370
    25
100
AcDbLine
 10
1247.1667338816
 20
728.7048199447
 30
0.0
 11
1247.1667338816
 21
728.9426302687
 31
0.0
  0
LINE
  5
18F
330
1F
100
AcDbEntity
  8
0
  6
Continuous
 62
     7
370
    25
100
AcDbLine
 10
1255.1667338816
 20
728.9426302687
 30
0.0
 11
1247.1667338816
 21
728.9426302687
 31
0.0
  0
LINE
  5
190
330
1F
100
AcDbEntity
  8
0
  6
Continuous
 62
     7
370
    25
100
AcDbLine
 10
1255.1667338816
 20
728.9426302687
 30
0.0
 11
1255.1667338816
 21
729.057927525
 31
0.0
  0
LINE
  5
191
330
1F
100
AcDbEntity
  8
0
  6
Continuous
 62
     7
370
    25
100
AcDbLine
 10
1247.1667338816
 20
729.057927525
 30
0.0
 11
1255.1667338816
 21
729.057927525
 31
0.0
  0
LINE
  5
192
330
1F
100
AcDbEntity
  8
0
  6
Continuous
 62
     7
370
    25
100
AcDbLine
 10
1247.1667338816
 20
729.057927525
 30
0.0
 11
1247.1667338816
 21
729.1723785099
 31
0.0
  0
LINE
  5
193
330
1F
100
AcDbEntity
  8
0
  6
Continuous
 62
     7
370
    25
100
AcDbLine
 10
1247.1667338816
 20
729.1723785099
 30
0.0
 11
1257.1667338816
 21
729.1723785099
 31
0.0
  0
LINE
  5
194
330
1F
100
AcDbEntity
  8
0
  6
Continuous
 62
     7
370
    25
100
AcDbLine
 10
1257.1667338816
 20
729.2849601607
 30
0.0
 11
1257.1667338816
 21
729.1723785099
 31
0.0
  0
LINE
  5
195
330
1F
100
AcDbEntity
  8
0
  6
Continuous
 62
     7
370
    25
100
AcDbLine
 10
1257.1667338816
 20
729.2849601607
 30
0.0
 11
1247.1667338816
 21
729.2849601607
 31
0.0
  0
LINE
  5
196
330
1F
100
AcDbEntity
  8
0
  6
Continuous
 62
     7
370
    25
100
AcDbLine
 10
1247.1667338816
 20
729.2849601607
 30
0.0
 11
1247.1667338816
 21
729.5081568521
 31
0.0
  0
LINE
  5
197
330
1F
100
AcDbEntity
  8
0
  6
Continuous
 62
     7
370
    25
100
AcDbLine
 10
1255.1667338816
 20
729.5081568521
 30
0.0
 11
1247.1667338816
 21
729.5081568521
 31
0.0
  0
LINE
  5
198
330
1F
100
AcDbEntity
  8
0
  6
Continuous
 62
     7
370
    25
100
AcDbLine
 10
1255.1667338816
 20
729.5081568521
 30
0.0
 11
1255.1667338816
 21
729.6162444413
 31
0.0
  0
LINE
  5
199
330
1F
100
AcDbEntity
  8
0
  6
Continuous
 62
     7
370
    25
100
AcDbLine
 10
1247.1667338816
 20
729.6162444413
 30
0.0
 11
1255.1667338816
 21
729.6162444413
 31
0.0
  0
LINE
  5
19A
330
1F
100
AcDbEntity
  8
0
  6
Continuous
 62
     7
370
    25
100
AcDbLine
 10
1247.1667338816
 20
729.6162444413
 30
0.0
 11
1247.1667338816
 21
729.8306283954
 31
0.0
  0
LINE
  5
19B
330
1F
100
AcDbEntity
  8
0
  6
Continuous
 62
     7
370
    25
100
AcDbLine
 10
1255.1667338816
 20
729.8306283954
 30
0.0
 11
1247.1667338816
 21
729.8306283954
 31
0.0
  0
LINE
  5
19C
330
1F
100
AcDbEntity
  8
0
  6
Continuous
 62
     7
370
    25
100
AcDbLine
 10
1255.1667338816
 20
729.8306283954
 30
0.0
 11
1255.1667338816
 21
729.9337463901
 31
0.0
  0
LINE
  5
19D
330
1F
100
AcDbEntity
  8
0
  6
Continuous
 62
     7
370
    25
100
AcDbLine
 10
1247.1667338816
 20
729.9337463901
 30
0.0
 11
1255.1667338816
 21
729.9337463901
 31
0.0
  0
LINE
  5
19E
330
1F
100
AcDbEntity
  8
0
  6
Continuous
 62
     7
370
    25
100
AcDbLine
 10
1247.1667338816
 20
729.9337463901
 30
0.0
 11
1247.1667338816
 21
731.6241558407
 31
0.0
  0
LINE
  5
19F
330
1F
100
AcDbEntity
  8
0
  6
Continuous
 62
     7
370
    25
100
AcDbLine
 10
1256.4667338816
 20
731.6241558407
 30
0.0
 11
1247.1667338816
 21
731.6241558407
 31
0.0
  0
SPLINE
  5
1A0
330
1F
100
AcDbEntity
  8
0
  6
Continuous
 62
     7
370
    25
100
AcDbSpline
210
0.0
220
0.0
230
1.0
 70
     8
 71
     3
 72
    10
 73
     6
 74
     0
 42
0.00000001
 43
0.00000001
 40
0.0
 40
0.0
 40
0.0
 40
0.0
 40
0.309403938180812
 40
0.9937438551293354
 40
1.0
 40
1.0
 40
1.0
 40
1.0
 10
1256.86673388158
 20
732.0066937094888
 30
0.0
 10
1256.852253527088
 20
731.9723065120526
 30
0.0
 10
1256.805745511124
 20
731.8618616794877
 30
0.0
 10
1256.59711052189
 20
731.7271932853954
 30
0.0
 10
1256.467904366715
 20
731.6250808821466
 30
0.0
 10
1256.466733881579
 20
731.6241558406889
 30
0.0
  0
LINE
  5
1A1
330
1F
100
AcDbEntity
  8
0
  6
Continuous
 62
     7
370
    25
100
AcDbLine
 10
1247.1667338816
 20
726.1638463305
 30
0.0
 11
1247.1667338816
 21
726.2938444234
 31
0.0
  0
LINE
  5
1A2
330
1F
100
AcDbEntity
  8
0
  6
Continuous
 62
     7
370
    25
100
AcDbLine
 10
1247.1667338816
 20
726.0333261639
 30
0.0
 11
1247.1667338816
 21
725.9034506264
 31
0.0
  0
LINE
  5
1A3
330
1F
100
AcDbEntity
  8
0
  6
Continuous
 62
     7
370
    25
100
AcDbLine
 10
1247.1667338816
 20
726.6862562835
 30
0.0
 11
1247.1667338816
 21
726.5565367473
 31
0.0
  0
LINE
  5
1A4
330
1F
100
AcDbEntity
  8
0
  6
Continuous
 62
     7
370
    25
100
AcDbLine
 10
1247.1667338816
 20
725.6404501544
 30
0.0
 11
1247.1667338816
 21
725.5112243589
 31
0.0
  0
LINE
  5
1A5
330
1F
100
AcDbEntity
  8
0
  6
Continuous
 62
     7
370
    25
100
AcDbLine
 10
1247.1667338816
 20
727.0776322774
 30
0.0
 11
1247.1667338816
 21
726.9487498605
 31
0.0
  0
LINE
  5
1A6
330
1F
100
AcDbEntity
  8
0
  6
Continuous
 62
     7
370
    25
100
AcDbLine
 10
1247.1667338816
 20
727.2066617395
 30
0.0
 11
1247.1667338816
 21
727.3346848692
 31
0.0
  0
LINE
  5
1A7
330
1F
100
AcDbEntity
  8
0
  6
Continuous
 62
     7
370
    25
100
AcDbLine
 10
1247.1667338816
 20
725.1230058847
 30
0.0
 11
1247.1667338816
 21
725.2510290145
 31
0.0
  0
LINE
  5
1A8
330
1F
100
AcDbEntity
  8
0
  6
Continuous
 62
     7
370
    25
100
AcDbLine
 10
1247.1667338816
 20
724.9949608028
 30
0.0
 11
1247.1667338816
 21
724.868038347
 31
0.0
  0
LINE
  5
1A9
330
1F
100
AcDbEntity
  8
0
  6
Continuous
 62
     7
370
    25
100
AcDbLine
 10
1247.1667338816
 20
727.7181642137
 30
0.0
 11
1247.1667338816
 21
727.5918923992
 31
0.0
  0
LINE
  5
1AA
330
1F
100
AcDbEntity
  8
0
  6
Continuous
 62
     7
370
    25
100
AcDbLine
 10
1247.1667338816
 20
724.6125221164
 30
0.0
 11
1247.1667338816
 21
724.4877165221
 31
0.0
  0
LINE
  5
1AB
330
1F
100
AcDbEntity
  8
0
  6
Continuous
 62
     7
370
    25
100
AcDbLine
 10
1247.1667338816
 20
728.0961484304
 30
0.0
 11
1247.1667338816
 21
727.9721751613
 31
0.0
  0
LINE
  5
1AC
330
1F
100
AcDbEntity
  8
0
  6
Continuous
 62
     7
370
    25
100
AcDbLine
 10
1247.1667338816
 20
728.219766693
 30
0.0
 11
1247.1667338816
 21
728.3419249416
 31
0.0
  0
LINE
  5
1AD
330
1F
100
AcDbEntity
  8
0
  6
Continuous
 62
     7
370
    25
100
AcDbLine
 10
1247.1667338816
 20
724.1157658123
 30
0.0
 11
1247.1667338816
 21
724.2379240609
 31
0.0
  0
LINE
  5
1AE
330
1F
100
AcDbEntity
  8
0
  6
Continuous
 62
     7
370
    25
100
AcDbLine
 10
1247.1667338816
 20
723.9940864001
 30
0.0
 11
1247.1667338816
 21
723.8739735007
 31
0.0
  0
LINE
  5
1AF
330
1F
100
AcDbEntity
  8
0
  6
Continuous
 62
     7
370
    25
100
AcDbLine
 10
1247.1667338816
 20
728.7048199447
 30
0.0
 11
1247.1667338816
 21
728.585832557
 31
0.0
  0
LINE
  5
1B0
330
1F
100
AcDbEntity
  8
0
  6
Continuous
 62
     7
370
    25
100
AcDbLine
 10
1247.1667338816
 20
723.6337052427
 30
0.0
 11
1247.1667338816
 21
723.5171120045
 31
0.0
  0
LINE
  5
1B1
330
1F
100
AcDbEntity
  8
0
  6
Continuous
 62
     7
370
    25
100
AcDbLine
 10
1247.1667338816
 20
729.057927525
 30
0.0
 11
1247.1667338816
 21
728.9426302687
 31
0.0
  0
LINE
  5
1B2
330
1F
100
AcDbEntity
  8
0
  6
Continuous
 62
     7
370
    25
100
AcDbLine
 10
1247.1667338816
 20
729.1723785099
 30
0.0
 11
1247.1667338816
 21
729.2849601607
 31
0.0
  0
LINE
  5
1B3
330
1F
100
AcDbEntity
  8
0
  6
Continuous
 62
     7
370
    25
100
AcDbLine
 10
1247.1667338816
 20
723.1727305932
 30
0.0
 11
1247.1667338816
 21
723.2853122441
 31
0.0
  0
LINE
  5
1B4
330
1F
100
AcDbEntity
  8
0
  6
Continuous
 62
     7
370
    25
100
AcDbLine
 10
1247.1667338816
 20
729.6162444413
 30
0.0
 11
1247.1667338816
 21
729.5081568521
 31
0.0
  0
LINE
  5
1B5
330
1F
100
AcDbEntity
  8
0
  6
Continuous
 62
     7
370
    25
100
AcDbLine
 10
1247.1667338816
 20
729.9337463901
 30
0.0
 11
1247.1667338816
 21
729.8306283954
 31
0.0
  0
LINE
  5
1B6
330
1F
100
AcDbEntity
  8
0
  6
Continuous
 62
     7
370
    25
100
AcDbLine
 10
1256.6667338816
 20
733.4225926619
 30
0.0
 11
1256.6667338816
 21
732.1992886539
 31
0.0
  0
SPLINE
  5
1B7
330
1F
100
AcDbEntity
  8
0
  6
Continuous
 62
     7
370
    25
100
AcDbSpline
210
0.0
220
0.0
230
1.0
 70
     8
 71
     3
 72
    10
 73
     6
 74
     0
 42
0.00000001
 43
0.00000001
 40
0.0
 40
0.0
 40
0.0
 40
0.0
 40
0.2879804571332421
 40
0.9929350727165486
 40
1.0
 40
1.0
 40
1.0
 40
1.0
 10
1256.66673388158
 20
732.1992886539064
 30
0.0
 10
1256.658983400422
 20
732.1391876171233
 30
0.0
 10
1256.632260321193
 20
731.9319637383833
 30
0.0
 10
1256.530348291766
 20
731.7398332575225
 30
0.0
 10
1256.467358886291
 20
731.6252923588202
 30
0.0
 10
1256.466733881579
 20
731.6241558406889
 30
0.0
  0
LINE
  5
1B8
330
1F
100
AcDbEntity
  8
0
  6
Continuous
 62
     7
370
    25
100
AcDbLine
 10
1256.4667338816
 20
731.6241558407
 30
0.0
 11
1256.4667338816
 21
733.4225926619
 31
0.0
  0
LINE
  5
1B9
330
1F
100
AcDbEntity
  8
0
  6
Continuous
 62
     7
370
    25
100
AcDbLine
 10
1256.6667338816
 20
733.4225926619
 30
0.0
 11
1256.4667338816
 21
733.4225926619
 31
0.0
  0
ARC
  5
1BA
330
1F
100
AcDbEntity
  8
0
  6
Continuous
 62
     7
370
    25
100
AcDbCircle
 10
1256.8630998973
 20
732.2030623607
 30
0.0
 40
0.1964022734384068
100
AcDbArc
 50
181.1009586276
 51
271.0601905862
  0
LINE
  5
1BB
330
1F
100
AcDbEntity
  8
0
  6
Continuous
 62
     7
370
    25
100
AcDbLine
 10
1247.1667338816
 20
733.4225926619
 30
0.0
 11
1256.4667338816
 21
733.4225926619
 31
0.0
  0
LINE
  5
1BC
330
1F
100
AcDbEntity
  8
0
  6
Continuous
 62
     7
370
    25
100
AcDbLine
 10
1247.1667338816
 20
731.6241558407
 30
0.0
 11
1247.1667338816
 21
733.4225926619
 31
0.0
  0
LINE
  5
1BD
330
1F
100
AcDbEntity
  8
0
  6
Continuous
 62
     7
370
    25
100
AcDbLine
 10
1256.4667338816
 20
734.228845377
 30
0.0
 11
1256.6667338816
 21
734.228845377
 31
0.0
  0
LINE
  5
1BE
330
1F
100
AcDbEntity
  8
0
  6
Continuous
 62
     7
370
    25
100
AcDbLine
 10
1256.6667338816
 20
736.528845377
 30
0.0
 11
1256.6667338816
 21
734.228845377
 31
0.0
  0
LINE
  5
1BF
330
1F
100
AcDbEntity
  8
0
  6
Continuous
 62
     7
370
    25
100
AcDbLine
 10
1247.1667338816
 20
734.228845377
 30
0.0
 11
1256.4667338816
 21
734.228845377
 31
0.0
  0
LINE
  5
1C0
330
1F
100
AcDbEntity
  8
0
  6
Continuous
 62
     7
370
    25
100
AcDbLine
 10
1247.1667338816
 20
735.4162795857
 30
0.0
 11
1247.1667338816
 21
734.228845377
 31
0.0
  0
LINE
  5
1C1
330
1F
100
AcDbEntity
  8
0
  6
Continuous
 62
     7
370
    25
100
AcDbLine
 10
1256.4667338816
 20
733.4225926619
 30
0.0
 11
1256.4667338816
 21
734.228845377
 31
0.0
  0
LINE
  5
1C2
330
1F
100
AcDbEntity
  8
0
  6
Continuous
 62
     7
370
    25
100
AcDbLine
 10
1256.6667338816
 20
734.228845377
 30
0.0
 11
1256.6667338816
 21
733.4225926619
 31
0.0
  0
LINE
  5
1C3
330
1F
100
AcDbEntity
  8
0
  6
Continuous
 62
     7
370
    25
100
AcDbLine
 10
1247.1667338816
 20
733.4225926619
 30
0.0
 11
1247.1667338816
 21
734.228845377
 31
0.0
  0
SPLINE
  5
1C4
330
1F
100
AcDbEntity
  8
0
  6
Continuous
 62
     7
370
    25
100
AcDbSpline
210
0.0
220
0.0
230
1.0
 70
     8
 71
     3
 72
    19
 73
    15
 74
     0
 42
0.00000001
 43
0.00000001
 40
0.0
 40
0.0
 40
0.0
 40
0.0
 40
0.2556556382064996
 40
0.3835425571920383
 40
0.4311997731751557
 40
0.4623009862403691
 40
0.4879279346300247
 40
0.5136545589555059
 40
0.5373798181834999
 40
0.5708799966601528
 40
0.6220908089756634
 40
0.7149543724376799
 40
0.9065824040984973
 40
0.9999999999999999
 40
0.9999999999999999
 40
0.9999999999999999
 40
0.9999999999999999
 10
1246.86673388158
 20
726.1788458109917
 30
0.0
 10
1246.900273260497
 20
726.1782897864151
 30
0.0
 10
1246.950590082166
 20
726.1774556210141
 30
0.0
 10
1247.002377693843
 20
726.1881799787812
 30
0.0
 10
1247.022300729326
 20
726.2030883741572
 30
0.0
 10
1247.029642177501
 20
726.2138861443369
 30
0.0
 10
1247.032765926181
 20
726.2242056538258
 30
0.0
 10
1247.032605794814
 20
726.2342471729047
 30
0.0
 10
1247.029300507741
 20
726.2445165576103
 30
0.0
 10
1247.021461305044
 20
726.2555784159179
 30
0.0
 10
1247.003965776194
 20
726.2677924753685
 30
0.0
 10
1246.964784199865
 20
726.2783588300599
 30
0.0
 10
1246.916149729094
 20
726.2788107208128
 30
0.0
 10
1246.878931393486
 20
726.2788364957493
 30
0.0
 10
1246.86673388158
 20
726.2788449429323
 30
0.0
  0
LINE
  5
1C5
330
1F
100
AcDbEntity
  8
0
  6
Continuous
 62
     7
370
    25
100
AcDbLine
 10
1243.1667338816
 20
726.178845811
 30
0.0
 11
1246.8667338816
 21
726.178845811
 31
0.0
  0
LINE
  5
1C6
330
1F
100
AcDbEntity
  8
0
  6
Continuous
 62
     7
370
    25
100
AcDbLine
 10
1246.8667338816
 20
726.2788449429
 30
0.0
 11
1243.1667338816
 21
726.2788449429
 31
0.0
  0
LINE
  5
1C7
330
1F
100
AcDbEntity
  8
0
  6
Continuous
 62
     7
370
    25
100
AcDbLine
 10
1246.8667338816
 20
726.2788449429
 30
0.0
 11
1246.8667338816
 21
731.6241558407
 31
0.0
  0
ARC
  5
1C8
330
1F
100
AcDbEntity
  8
0
  6
Continuous
 62
     7
370
    25
100
AcDbCircle
 10
1246.8810893503
 20
731.3384259327
 30
0.0
 40
0.2860903001087604
100
AcDbArc
 50
3.1988754664
 51
92.8762013989
  0
ARC
  5
1C9
330
1F
100
AcDbEntity
  8
0
  6
Continuous
 62
     7
370
    25
100
AcDbCircle
 10
1246.8667338816
 20
720.528845377
 30
0.0
 40
0.3000000000001819
100
AcDbArc
 50
270.0
 51
0.0
  0
LINE
  5
1CA
330
1F
100
AcDbEntity
  8
0
  6
Continuous
 62
     7
370
    25
100
AcDbLine
 10
1246.8667338816
 20
720.228845377
 30
0.0
 11
1246.8667338816
 21
726.178845811
 31
0.0
  0
LINE
  5
1CB
330
1F
100
AcDbEntity
  8
0
  6
Continuous
 62
     7
370
    25
100
AcDbLine
 10
1246.8667338816
 20
720.228845377
 30
0.0
 11
1243.1667338816
 21
720.228845377
 31
0.0
  0
LINE
  5
1CC
330
1F
100
AcDbEntity
  8
0
  6
Continuous
 62
     7
370
    25
100
AcDbLine
 10
1243.1667338816
 20
720.228845377
 30
0.0
 11
1243.1667338816
 21
726.178845811
 31
0.0
  0
LINE
  5
1CD
330
1F
100
AcDbEntity
  8
0
  6
Continuous
 62
     7
370
    25
100
AcDbLine
 10
1243.1667338816
 20
726.2788449429
 30
0.0
 11
1243.1667338816
 21
731.6241558407
 31
0.0
  0
LINE
  5
1CE
330
1F
100
AcDbEntity
  8
0
  6
Continuous
 62
     7
370
    25
100
AcDbLine
 10
1246.8667338816
 20
731.6241558407
 30
0.0
 11
1243.1667338816
 21
731.6241558407
 31
0.0
  0
LINE
  5
1CF
330
1F
100
AcDbEntity
  8
0
  6
Continuous
 62
     7
370
    25
100
AcDbLine
 10
1246.8667338816
 20
731.6241558407
 30
0.0
 11
1246.8667338816
 21
733.4225926619
 31
0.0
  0
LINE
  5
1D0
330
1F
100
AcDbEntity
  8
0
  6
Continuous
 62
     7
370
    25
100
AcDbLine
 10
1247.1667338816
 20
733.4225926619
 30
0.0
 11
1246.8667338816
 21
733.4225926619
 31
0.0
  0
LINE
  5
1D1
330
1F
100
AcDbEntity
  8
0
  6
Continuous
 62
     7
370
    25
100
AcDbLine
 10
1243.1667338816
 20
733.4225926619
 30
0.0
 11
1246.8667338816
 21
733.4225926619
 31
0.0
  0
LINE
  5
1D2
330
1F
100
AcDbEntity
  8
0
  6
Continuous
 62
     7
370
    25
100
AcDbLine
 10
1243.1667338816
 20
733.4225926619
 30
0.0
 11
1243.1667338816
 21
731.6241558407
 31
0.0
  0
LINE
  5
1D3
330
1F
100
AcDbEntity
  8
0
  6
Continuous
 62
     7
370
    25
100
AcDbLine
 10
1247.1667338816
 20
755.728845377
 30
0.0
 11
1246.8667338816
 21
755.728845377
 31
0.0
  0
LINE
  5
1D4
330
1F
100
AcDbEntity
  8
0
  6
Continuous
 62
     7
370
    25
100
AcDbLine
 10
1246.8667338816
 20
756.228845377
 30
0.0
 11
1246.8667338816
 21
755.728845377
 31
0.0
  0
ARC
  5
1D5
330
1F
100
AcDbEntity
  8
0
  6
Continuous
 62
     7
370
    25
100
AcDbCircle
 10
1246.8667338816
 20
755.928845377
 30
0.0
 40
0.3000000000001819
100
AcDbArc
 50
0.0
 51
90.0
  0
LINE
  5
1D6
330
1F
100
AcDbEntity
  8
0
  6
Continuous
 62
     7
370
    25
100
AcDbLine
 10
1247.1667338816
 20
755.728845377
 30
0.0
 11
1247.1667338816
 21
755.928845377
 31
0.0
  0
LINE
  5
1D7
330
1F
100
AcDbEntity
  8
0
  6
Continuous
 62
     7
370
    25
100
AcDbLine
 10
1246.8667338816
 20
755.728845377
 30
0.0
 11
1243.1667338816
 21
755.728845377
 31
0.0
  0
LINE
  5
1D8
330
1F
100
AcDbEntity
  8
0
  6
Continuous
 62
     7
370
    25
100
AcDbLine
 10
1246.8667338816
 20
733.4225926619
 30
0.0
 11
1246.8667338816
 21
755.728845377
 31
0.0
  0
LINE
  5
1D9
330
1F
100
AcDbEntity
  8
0
  6
Continuous
 62
     7
370
    25
100
AcDbLine
 10
1243.1667338816
 20
733.4225926619
 30
0.0
 11
1243.1667338816
 21
755.728845377
 31
0.0
  0
LINE
  5
1DA
330
1F
100
AcDbEntity
  8
0
  6
Continuous
 62
     7
370
    25
100
AcDbLine
 10
1247.1667338816
 20
755.728845377
 30
0.0
 11
1247.1667338816
 21
735.4162795857
 31
0.0
  0
LINE
  5
1DB
330
1F
100
AcDbEntity
  8
0
  6
Continuous
 62
     7
370
    25
100
AcDbLine
 10
1243.1667338816
 20
755.728845377
 30
0.0
 11
1243.1667338816
 21
756.228845377
 31
0.0
  0
LINE
  5
1DC
330
1F
100
AcDbEntity
  8
0
  6
Continuous
 62
     7
370
    25
100
AcDbLine
 10
568.1667338816
 20
730.1351368786
 30
0.0
 11
576.1667338816
 21
730.1351368786
 31
0.0
  0
LINE
  5
1DD
330
1F
100
AcDbEntity
  8
0
  6
Continuous
 62
     7
370
    25
100
AcDbLine
 10
568.1667338816
 20
730.1351368786
 30
0.0
 11
568.1667338816
 21
730.0355525619
 31
0.0
  0
LINE
  5
1DE
330
1F
100
AcDbEntity
  8
0
  6
Continuous
 62
     7
370
    25
100
AcDbLine
 10
576.1667338816
 20
730.0355525619
 30
0.0
 11
568.1667338816
 21
730.0355525619
 31
0.0
  0
LINE
  5
1DF
330
1F
100
AcDbEntity
  8
0
  6
Continuous
 62
     7
370
    25
100
AcDbLine
 10
576.1667338816
 20
729.7233461501
 30
0.0
 11
576.1667338816
 21
730.0355525619
 31
0.0
  0
LINE
  5
1E0
330
1F
100
AcDbEntity
  8
0
  6
Continuous
 62
     7
370
    25
100
AcDbLine
 10
568.1667338816
 20
729.7233461501
 30
0.0
 11
576.1667338816
 21
729.7233461501
 31
0.0
  0
LINE
  5
1E1
330
1F
100
AcDbEntity
  8
0
  6
Continuous
 62
     7
370
    25
100
AcDbLine
 10
568.1667338816
 20
729.7233461501
 30
0.0
 11
568.1667338816
 21
729.6168579466
 31
0.0
  0
LINE
  5
1E2
330
1F
100
AcDbEntity
  8
0
  6
Continuous
 62
     7
370
    25
100
AcDbLine
 10
576.1667338816
 20
729.6168579466
 30
0.0
 11
568.1667338816
 21
729.6168579466
 31
0.0
  0
LINE
  5
1E3
330
1F
100
AcDbEntity
  8
0
  6
Continuous
 62
     7
370
    25
100
AcDbLine
 10
576.1667338816
 20
729.2849601607
 30
0.0
 11
576.1667338816
 21
729.6168579466
 31
0.0
  0
LINE
  5
1E4
330
1F
100
AcDbEntity
  8
0
  6
Continuous
 62
     7
370
    25
100
AcDbLine
 10
566.1667338816
 20
729.2849601607
 30
0.0
 11
576.1667338816
 21
729.2849601607
 31
0.0
  0
LINE
  5
1E5
330
1F
100
AcDbEntity
  8
0
  6
Continuous
 62
     7
370
    25
100
AcDbLine
 10
566.1667338816
 20
729.2849601607
 30
0.0
 11
566.1667338816
 21
729.1723785099
 31
0.0
  0
LINE
  5
1E6
330
1F
100
AcDbEntity
  8
0
  6
Continuous
 62
     7
370
    25
100
AcDbLine
 10
576.1667338816
 20
729.1723785099
 30
0.0
 11
566.1667338816
 21
729.1723785099
 31
0.0
  0
LINE
  5
1E7
330
1F
100
AcDbEntity
  8
0
  6
Continuous
 62
     7
370
    25
100
AcDbLine
 10
576.1667338816
 20
728.8233152925
 30
0.0
 11
576.1667338816
 21
729.1723785099
 31
0.0
  0
LINE
  5
1E8
330
1F
100
AcDbEntity
  8
0
  6
Continuous
 62
     7
370
    25
100
AcDbLine
 10
568.1667338816
 20
728.8233152925
 30
0.0
 11
576.1667338816
 21
728.8233152925
 31
0.0
  0
LINE
  5
1E9
330
1F
100
AcDbEntity
  8
0
  6
Continuous
 62
     7
370
    25
100
AcDbLine
 10
568.1667338816
 20
728.8233152925
 30
0.0
 11
568.1667338816
 21
728.7054970086
 31
0.0
  0
LINE
  5
1EA
330
1F
100
AcDbEntity
  8
0
  6
Continuous
 62
     7
370
    25
100
AcDbLine
 10
576.1667338816
 20
728.7054970086
 30
0.0
 11
568.1667338816
 21
728.7054970086
 31
0.0
  0
LINE
  5
1EB
330
1F
100
AcDbEntity
  8
0
  6
Continuous
 62
     7
370
    25
100
AcDbLine
 10
576.1667338816
 20
728.3419249416
 30
0.0
 11
576.1667338816
 21
728.7054970086
 31
0.0
  0
LINE
  5
1EC
330
1F
100
AcDbEntity
  8
0
  6
Continuous
 62
     7
370
    25
100
AcDbLine
 10
566.1667338816
 20
728.3419249416
 30
0.0
 11
576.1667338816
 21
728.3419249416
 31
0.0
  0
LINE
  5
1ED
330
1F
100
AcDbEntity
  8
0
  6
Continuous
 62
     7
370
    25
100
AcDbLine
 10
566.1667338816
 20
728.3419249416
 30
0.0
 11
566.1667338816
 21
728.219766693
 31
0.0
  0
LINE
  5
1EE
330
1F
100
AcDbEntity
  8
0
  6
Continuous
 62
     7
370
    25
100
AcDbLine
 10
576.1667338816
 20
728.219766693
 30
0.0
 11
566.1667338816
 21
728.219766693
 31
0.0
  0
LINE
  5
1EF
330
1F
100
AcDbEntity
  8
0
  6
Continuous
 62
     7
370
    25
100
AcDbLine
 10
576.1667338816
 20
727.8444527793
 30
0.0
 11
576.1667338816
 21
728.219766693
 31
0.0
  0
LINE
  5
1F0
330
1F
100
AcDbEntity
  8
0
  6
Continuous
 62
     7
370
    25
100
AcDbLine
 10
568.1667338816
 20
727.8444527793
 30
0.0
 11
576.1667338816
 21
727.8444527793
 31
0.0
  0
LINE
  5
1F1
330
1F
100
AcDbEntity
  8
0
  6
Continuous
 62
     7
370
    25
100
AcDbLine
 10
568.1667338816
 20
727.8444527793
 30
0.0
 11
568.1667338816
 21
727.7188842641
 31
0.0
  0
LINE
  5
1F2
330
1F
100
AcDbEntity
  8
0
  6
Continuous
 62
     7
370
    25
100
AcDbLine
 10
576.1667338816
 20
727.7188842641
 30
0.0
 11
568.1667338816
 21
727.7188842641
 31
0.0
  0
LINE
  5
1F3
330
1F
100
AcDbEntity
  8
0
  6
Continuous
 62
     7
370
    25
100
AcDbLine
 10
576.1667338816
 20
727.3346848692
 30
0.0
 11
576.1667338816
 21
727.7188842641
 31
0.0
  0
LINE
  5
1F4
330
1F
100
AcDbEntity
  8
0
  6
Continuous
 62
     7
370
    25
100
AcDbLine
 10
566.1667338816
 20
727.3346848692
 30
0.0
 11
576.1667338816
 21
727.3346848692
 31
0.0
  0
LINE
  5
1F5
330
1F
100
AcDbEntity
  8
0
  6
Continuous
 62
     7
370
    25
100
AcDbLine
 10
566.1667338816
 20
727.3346848692
 30
0.0
 11
566.1667338816
 21
727.2066617395
 31
0.0
  0
LINE
  5
1F6
330
1F
100
AcDbEntity
  8
0
  6
Continuous
 62
     7
370
    25
100
AcDbLine
 10
576.1667338816
 20
727.2066617395
 30
0.0
 11
566.1667338816
 21
727.2066617395
 31
0.0
  0
LINE
  5
1F7
330
1F
100
AcDbEntity
  8
0
  6
Continuous
 62
     7
370
    25
100
AcDbLine
 10
576.1667338816
 20
726.8165008528
 30
0.0
 11
576.1667338816
 21
727.2066617395
 31
0.0
  0
LINE
  5
1F8
330
1F
100
AcDbEntity
  8
0
  6
Continuous
 62
     7
370
    25
100
AcDbLine
 10
568.1667338816
 20
726.8165008528
 30
0.0
 11
576.1667338816
 21
726.8165008528
 31
0.0
  0
LINE
  5
1F9
330
1F
100
AcDbEntity
  8
0
  6
Continuous
 62
     7
370
    25
100
AcDbLine
 10
568.1667338816
 20
726.8165008528
 30
0.0
 11
568.1667338816
 21
726.6869974419
 31
0.0
  0
LINE
  5
1FA
330
1F
100
AcDbEntity
  8
0
  6
Continuous
 62
     7
370
    25
100
AcDbLine
 10
576.1667338816
 20
726.6869974419
 30
0.0
 11
568.1667338816
 21
726.6869974419
 31
0.0
  0
LINE
  5
1FB
330
1F
100
AcDbEntity
  8
0
  6
Continuous
 62
     7
370
    25
100
AcDbLine
 10
576.1667338816
 20
726.2938444234
 30
0.0
 11
576.1667338816
 21
726.6869974419
 31
0.0
  0
LINE
  5
1FC
330
1F
100
AcDbEntity
  8
0
  6
Continuous
 62
     7
370
    25
100
AcDbLine
 10
566.1667338816
 20
726.2938444234
 30
0.0
 11
576.1667338816
 21
726.2938444234
 31
0.0
  0
LINE
  5
1FD
330
1F
100
AcDbEntity
  8
0
  6
Continuous
 62
     7
370
    25
100
AcDbLine
 10
576.1667338816
 20
726.1638463305
 30
0.0
 11
566.1667338816
 21
726.1638463305
 31
0.0
  0
LINE
  5
1FE
330
1F
100
AcDbEntity
  8
0
  6
Continuous
 62
     7
370
    25
100
AcDbLine
 10
576.1667338816
 20
725.770693312
 30
0.0
 11
576.1667338816
 21
726.1638463305
 31
0.0
  0
LINE
  5
1FF
330
1F
100
AcDbEntity
  8
0
  6
Continuous
 62
     7
370
    25
100
AcDbLine
 10
568.1667338816
 20
725.770693312
 30
0.0
 11
576.1667338816
 21
725.770693312
 31
0.0
  0
LINE
  5
200
330
1F
100
AcDbEntity
  8
0
  6
Continuous
 62
     7
370
    25
100
AcDbLine
 10
568.1667338816
 20
725.770693312
 30
0.0
 11
568.1667338816
 21
725.6411899011
 31
0.0
  0
LINE
  5
201
330
1F
100
AcDbEntity
  8
0
  6
Continuous
 62
     7
370
    25
100
AcDbLine
 10
576.1667338816
 20
725.6411899011
 30
0.0
 11
568.1667338816
 21
725.6411899011
 31
0.0
  0
LINE
  5
202
330
1F
100
AcDbEntity
  8
0
  6
Continuous
 62
     7
370
    25
100
AcDbLine
 10
576.1667338816
 20
725.2510290145
 30
0.0
 11
576.1667338816
 21
725.6411899011
 31
0.0
  0
LINE
  5
203
330
1F
100
AcDbEntity
  8
0
  6
Continuous
 62
     7
370
    25
100
AcDbLine
 10
566.1667338816
 20
725.2510290145
 30
0.0
 11
576.1667338816
 21
725.2510290145
 31
0.0
  0
LINE
  5
204
330
1F
100
AcDbEntity
  8
0
  6
Continuous
 62
     7
370
    25
100
AcDbLine
 10
566.1667338816
 20
725.2510290145
 30
0.0
 11
566.1667338816
 21
725.1230058847
 31
0.0
  0
LINE
  5
205
330
1F
100
AcDbEntity
  8
0
  6
Continuous
 62
     7
370
    25
100
AcDbLine
 10
576.1667338816
 20
725.1230058847
 30
0.0
 11
566.1667338816
 21
725.1230058847
 31
0.0
  0
LINE
  5
206
330
1F
100
AcDbEntity
  8
0
  6
Continuous
 62
     7
370
    25
100
AcDbLine
 10
576.1667338816
 20
724.7388064899
 30
0.0
 11
576.1667338816
 21
725.1230058847
 31
0.0
  0
LINE
  5
207
330
1F
100
AcDbEntity
  8
0
  6
Continuous
 62
     7
370
    25
100
AcDbLine
 10
568.1667338816
 20
724.7388064899
 30
0.0
 11
576.1667338816
 21
724.7388064899
 31
0.0
  0
LINE
  5
208
330
1F
100
AcDbEntity
  8
0
  6
Continuous
 62
     7
370
    25
100
AcDbLine
 10
568.1667338816
 20
724.7388064899
 30
0.0
 11
568.1667338816
 21
724.6132379746
 31
0.0
  0
LINE
  5
209
330
1F
100
AcDbEntity
  8
0
  6
Continuous
 62
     7
370
    25
100
AcDbLine
 10
576.1667338816
 20
724.6132379746
 30
0.0
 11
568.1667338816
 21
724.6132379746
 31
0.0
  0
LINE
  5
20A
330
1F
100
AcDbEntity
  8
0
  6
Continuous
 62
     7
370
    25
100
AcDbLine
 10
576.1667338816
 20
724.2379240609
 30
0.0
 11
576.1667338816
 21
724.6132379746
 31
0.0
  0
LINE
  5
20B
330
1F
100
AcDbEntity
  8
0
  6
Continuous
 62
     7
370
    25
100
AcDbLine
 10
566.1667338816
 20
724.2379240609
 30
0.0
 11
576.1667338816
 21
724.2379240609
 31
0.0
  0
LINE
  5
20C
330
1F
100
AcDbEntity
  8
0
  6
Continuous
 62
     7
370
    25
100
AcDbLine
 10
566.1667338816
 20
724.2379240609
 30
0.0
 11
566.1667338816
 21
724.1157658123
 31
0.0
  0
LINE
  5
20D
330
1F
100
AcDbEntity
  8
0
  6
Continuous
 62
     7
370
    25
100
AcDbLine
 10
576.1667338816
 20
724.1157658123
 30
0.0
 11
566.1667338816
 21
724.1157658123
 31
0.0
  0
LINE
  5
20E
330
1F
100
AcDbEntity
  8
0
  6
Continuous
 62
     7
370
    25
100
AcDbLine
 10
576.1667338816
 20
723.7521937453
 30
0.0
 11
576.1667338816
 21
724.1157658123
 31
0.0
  0
LINE
  5
20F
330
1F
100
AcDbEntity
  8
0
  6
Continuous
 62
     7
370
    25
100
AcDbLine
 10
568.1667338816
 20
723.7521937453
 30
0.0
 11
576.1667338816
 21
723.7521937453
 31
0.0
  0
LINE
  5
210
330
1F
100
AcDbEntity
  8
0
  6
Continuous
 62
     7
370
    25
100
AcDbLine
 10
568.1667338816
 20
723.7521937453
 30
0.0
 11
568.1667338816
 21
723.6343754614
 31
0.0
  0
LINE
  5
211
330
1F
100
AcDbEntity
  8
0
  6
Continuous
 62
     7
370
    25
100
AcDbLine
 10
576.1667338816
 20
723.6343754614
 30
0.0
 11
568.1667338816
 21
723.6343754614
 31
0.0
  0
LINE
  5
212
330
1F
100
AcDbEntity
  8
0
  6
Continuous
 62
     7
370
    25
100
AcDbLine
 10
576.1667338816
 20
723.2853122441
 30
0.0
 11
576.1667338816
 21
723.6343754614
 31
0.0
  0
LINE
  5
213
330
1F
100
AcDbEntity
  8
0
  6
Continuous
 62
     7
370
    25
100
AcDbLine
 10
566.1667338816
 20
723.2853122441
 30
0.0
 11
576.1667338816
 21
723.2853122441
 31
0.0
  0
LINE
  5
214
330
1F
100
AcDbEntity
  8
0
  6
Continuous
 62
     7
370
    25
100
AcDbLine
 10
566.1667338816
 20
723.2853122441
 30
0.0
 11
566.1667338816
 21
723.1727305932
 31
0.0
  0
LINE
  5
215
330
1F
100
AcDbEntity
  8
0
  6
Continuous
 62
     7
370
    25
100
AcDbLine
 10
576.1667338816
 20
723.1727305932
 30
0.0
 11
566.1667338816
 21
723.1727305932
 31
0.0
  0
LINE
  5
216
330
1F
100
AcDbEntity
  8
0
  6
Continuous
 62
     7
370
    25
100
AcDbLine
 10
576.1667338816
 20
720.228845377
 30
0.0
 11
576.1667338816
 21
723.1727305932
 31
0.0
  0
LINE
  5
217
330
1F
100
AcDbEntity
  8
0
  6
Continuous
 62
     7
370
    25
100
AcDbLine
 10
556.1667338816
 20
720.228845377
 30
0.0
 11
576.1667338816
 21
720.228845377
 31
0.0
  0
SPLINE
  5
218
330
1F
100
AcDbEntity
  8
0
  6
Continuous
 62
     7
370
    25
100
AcDbSpline
210
0.0
220
0.0
230
1.0
 70
     8
 71
     3
 72
    10
 73
     6
 74
     0
 42
0.00000001
 43
0.00000001
 40
0.0
 40
0.0
 40
0.0
 40
0.0
 40
0.0062561448706105
 40
0.6905960618191487
 40
1.0
 40
1.0
 40
1.0
 40
1.0
 10
566.8667338815792
 20
731.6241558406889
 30
0.0
 10
566.8655633964439
 20
731.6250808821466
 30
0.0
 10
566.736357241284
 20
731.7271932853953
 30
0.0
 10
566.5277222520322
 20
731.8618616794878
 30
0.0
 10
566.4812142360701
 20
731.9723065120526
 30
0.0
 10
566.4667338815792
 20
732.0066937094888
 30
0.0
  0
LINE
  5
219
330
1F
100
AcDbEntity
  8
0
  6
Continuous
 62
     7
370
    25
100
AcDbLine
 10
576.1667338816
 20
731.6241558407
 30
0.0
 11
566.8667338816
 21
731.6241558407
 31
0.0
  0
LINE
  5
21A
330
1F
100
AcDbEntity
  8
0
  6
Continuous
 62
     7
370
    25
100
AcDbLine
 10
576.1667338816
 20
730.1351368786
 30
0.0
 11
576.1667338816
 21
731.6241558407
 31
0.0
  0
LINE
  5
21B
330
1F
100
AcDbEntity
  8
0
  6
Continuous
 62
     7
370
    25
100
AcDbLine
 10
556.1667338816
 20
720.228845377
 30
0.0
 11
556.1667338816
 21
732.228845377
 31
0.0
  0
LINE
  5
21C
330
1F
100
AcDbEntity
  8
0
  6
Continuous
 62
     7
370
    25
100
AcDbLine
 10
566.1667338816
 20
726.2938444234
 30
0.0
 11
566.1667338816
 21
726.1638463305
 31
0.0
  0
LINE
  5
21D
330
1F
100
AcDbEntity
  8
0
  6
Continuous
 62
     7
370
    25
100
AcDbLine
 10
576.1667338816
 20
726.2938444234
 30
0.0
 11
576.1667338816
 21
726.1638463305
 31
0.0
  0
LINE
  5
21E
330
1F
100
AcDbEntity
  8
0
  6
Continuous
 62
     7
370
    25
100
AcDbLine
 10
576.1667338816
 20
726.8165008528
 30
0.0
 11
576.1667338816
 21
726.6869974419
 31
0.0
  0
LINE
  5
21F
330
1F
100
AcDbEntity
  8
0
  6
Continuous
 62
     7
370
    25
100
AcDbLine
 10
576.1667338816
 20
725.770693312
 30
0.0
 11
576.1667338816
 21
725.6411899011
 31
0.0
  0
LINE
  5
220
330
1F
100
AcDbEntity
  8
0
  6
Continuous
 62
     7
370
    25
100
AcDbLine
 10
576.1667338816
 20
727.3346848692
 30
0.0
 11
576.1667338816
 21
727.2066617395
 31
0.0
  0
LINE
  5
221
330
1F
100
AcDbEntity
  8
0
  6
Continuous
 62
     7
370
    25
100
AcDbLine
 10
576.1667338816
 20
725.2510290145
 30
0.0
 11
576.1667338816
 21
725.1230058847
 31
0.0
  0
LINE
  5
222
330
1F
100
AcDbEntity
  8
0
  6
Continuous
 62
     7
370
    25
100
AcDbLine
 10
576.1667338816
 20
727.8444527793
 30
0.0
 11
576.1667338816
 21
727.7188842641
 31
0.0
  0
LINE
  5
223
330
1F
100
AcDbEntity
  8
0
  6
Continuous
 62
     7
370
    25
100
AcDbLine
 10
576.1667338816
 20
724.7388064899
 30
0.0
 11
576.1667338816
 21
724.6132379746
 31
0.0
  0
LINE
  5
224
330
1F
100
AcDbEntity
  8
0
  6
Continuous
 62
     7
370
    25
100
AcDbLine
 10
576.1667338816
 20
728.3419249416
 30
0.0
 11
576.1667338816
 21
728.219766693
 31
0.0
  0
LINE
  5
225
330
1F
100
AcDbEntity
  8
0
  6
Continuous
 62
     7
370
    25
100
AcDbLine
 10
576.1667338816
 20
724.2379240609
 30
0.0
 11
576.1667338816
 21
724.1157658123
 31
0.0
  0
LINE
  5
226
330
1F
100
AcDbEntity
  8
0
  6
Continuous
 62
     7
370
    25
100
AcDbLine
 10
576.1667338816
 20
728.8233152925
 30
0.0
 11
576.1667338816
 21
728.7054970086
 31
0.0
  0
LINE
  5
227
330
1F
100
AcDbEntity
  8
0
  6
Continuous
 62
     7
370
    25
100
AcDbLine
 10
576.1667338816
 20
723.7521937453
 30
0.0
 11
576.1667338816
 21
723.6343754614
 31
0.0
  0
LINE
  5
228
330
1F
100
AcDbEntity
  8
0
  6
Continuous
 62
     7
370
    25
100
AcDbLine
 10
576.1667338816
 20
729.2849601607
 30
0.0
 11
576.1667338816
 21
729.1723785099
 31
0.0
  0
LINE
  5
229
330
1F
100
AcDbEntity
  8
0
  6
Continuous
 62
     7
370
    25
100
AcDbLine
 10
576.1667338816
 20
723.2853122441
 30
0.0
 11
576.1667338816
 21
723.1727305932
 31
0.0
  0
LINE
  5
22A
330
1F
100
AcDbEntity
  8
0
  6
Continuous
 62
     7
370
    25
100
AcDbLine
 10
576.1667338816
 20
729.7233461501
 30
0.0
 11
576.1667338816
 21
729.6168579466
 31
0.0
  0
LINE
  5
22B
330
1F
100
AcDbEntity
  8
0
  6
Continuous
 62
     7
370
    25
100
AcDbLine
 10
576.1667338816
 20
730.1351368786
 30
0.0
 11
576.1667338816
 21
730.0355525619
 31
0.0
  0
SPLINE
  5
22C
330
1F
100
AcDbEntity
  8
0
  6
Continuous
 62
     7
370
    25
100
AcDbSpline
210
0.0
220
0.0
230
1.0
 70
     8
 71
     3
 72
    10
 73
     6
 74
     0
 42
0.00000001
 43
0.00000001
 40
0.0
 40
0.0
 40
0.0
 40
0.0
 40
0.287980457133264
 40
0.9929350727165661
 40
1.0
 40
1.0
 40
1.0
 40
1.0
 10
566.6667338815791
 20
732.1992886539064
 30
0.0
 10
566.674484362737
 20
732.1391876171233
 30
0.0
 10
566.7012074419639
 20
731.9319637383833
 30
0.0
 10
566.8031194714063
 20
731.7398332575226
 30
0.0
 10
566.8661088768672
 20
731.6252923588202
 30
0.0
 10
566.8667338815792
 20
731.6241558406889
 30
0.0
  0
ARC
  5
22D
330
1F
100
AcDbEntity
  8
0
  6
Continuous
 62
     7
370
    25
100
AcDbCircle
 10
566.4703678658
 20
732.2030623607
 30
0.0
 40
0.1964022734380658
100
AcDbArc
 50
268.9398094138
 51
358.8990413724
  0
LINE
  5
22E
330
1F
100
AcDbEntity
  8
0
  6
Continuous
 62
     7
370
    25
100
AcDbLine
 10
566.6667338816
 20
732.1992886539
 30
0.0
 11
566.6667338816
 21
733.4225926619
 31
0.0
  0
LINE
  5
22F
330
1F
100
AcDbEntity
  8
0
  6
Continuous
 62
     7
370
    25
100
AcDbLine
 10
566.6667338816
 20
733.4225926619
 30
0.0
 11
566.8667338816
 21
733.4225926619
 31
0.0
  0
LINE
  5
230
330
1F
100
AcDbEntity
  8
0
  6
Continuous
 62
     7
370
    25
100
AcDbLine
 10
566.8667338816
 20
733.4225926619
 30
0.0
 11
566.8667338816
 21
731.6241558407
 31
0.0
  0
LINE
  5
231
330
1F
100
AcDbEntity
  8
0
  6
Continuous
 62
     7
370
    25
100
AcDbLine
 10
566.8667338816
 20
733.4225926619
 30
0.0
 11
576.1667338816
 21
733.4225926619
 31
0.0
  0
LINE
  5
232
330
1F
100
AcDbEntity
  8
0
  6
Continuous
 62
     7
370
    25
100
AcDbLine
 10
576.1667338816
 20
733.4225926619
 30
0.0
 11
576.1667338816
 21
731.6241558407
 31
0.0
  0
LINE
  5
233
330
1F
100
AcDbEntity
  8
0
  6
Continuous
 62
     7
370
    25
100
AcDbLine
 10
566.8667338816
 20
734.228845377
 30
0.0
 11
566.6667338816
 21
734.228845377
 31
0.0
  0
LINE
  5
234
330
1F
100
AcDbEntity
  8
0
  6
Continuous
 62
     7
370
    25
100
AcDbLine
 10
566.8667338816
 20
734.228845377
 30
0.0
 11
566.8667338816
 21
733.4225926619
 31
0.0
  0
LINE
  5
235
330
1F
100
AcDbEntity
  8
0
  6
Continuous
 62
     7
370
    25
100
AcDbLine
 10
566.6667338816
 20
733.4225926619
 30
0.0
 11
566.6667338816
 21
734.228845377
 31
0.0
  0
LINE
  5
236
330
1F
100
AcDbEntity
  8
0
  6
Continuous
 62
     7
370
    25
100
AcDbLine
 10
566.6667338816
 20
734.228845377
 30
0.0
 11
566.6667338816
 21
736.528845377
 31
0.0
  0
LINE
  5
237
330
1F
100
AcDbEntity
  8
0
  6
Continuous
 62
     7
370
    25
100
AcDbLine
 10
576.1667338816
 20
734.228845377
 30
0.0
 11
566.8667338816
 21
734.228845377
 31
0.0
  0
LINE
  5
238
330
1F
100
AcDbEntity
  8
0
  6
Continuous
 62
     7
370
    25
100
AcDbLine
 10
576.1667338816
 20
735.2086412741
 30
0.0
 11
576.1667338816
 21
734.228845377
 31
0.0
  0
LINE
  5
239
330
1F
100
AcDbEntity
  8
0
  6
Continuous
 62
     7
370
    25
100
AcDbLine
 10
576.1667338816
 20
734.228845377
 30
0.0
 11
576.1667338816
 21
733.4225926619
 31
0.0
  0
LINE
  5
23A
330
1F
100
AcDbEntity
  8
0
  6
Continuous
 62
     7
370
    25
100
AcDbLine
 10
576.3667338816
 20
726.2788449429
 30
0.0
 11
576.3667338816
 21
726.178845811
 31
0.0
  0
SPLINE
  5
23B
330
1F
100
AcDbEntity
  8
0
  6
Continuous
 62
     7
370
    25
100
AcDbSpline
210
0.0
220
0.0
230
1.0
 70
     8
 71
     3
 72
    14
 73
    10
 74
     0
 42
0.00000001
 43
0.00000001
 40
0.0
 40
0.0
 40
0.0
 40
0.0
 40
0.0109658445959303
 40
0.062351061953896
 40
0.2236176679350131
 40
0.4540957310504229
 40
0.6557571677746723
 40
0.8533267937610006
 40
0.9999999999999999
 40
0.9999999999999999
 40
0.9999999999999999
 40
0.9999999999999999
 10
576.166733881579
 20
726.0813784844912
 30
0.0
 10
576.1667401081487
 20
726.0817392121583
 30
0.0
 10
576.1667755120072
 20
726.0837902856457
 30
0.0
 10
576.1681397699145
 20
726.0913233058541
 30
0.0
 10
576.1783286412639
 20
726.1072573573799
 30
0.0
 10
576.2095181618656
 20
726.1306012983837
 30
0.0
 10
576.2590879343401
 20
726.1549774291091
 30
0.0
 10
576.3125823929466
 20
726.1746784461403
 30
0.0
 10
576.350554796281
 20
726.1776007085374
 30
0.0
 10
576.3667338815792
 20
726.1788458109917
 30
0.0
  0
SPLINE
  5
23C
330
1F
100
AcDbEntity
  8
0
  6
Continuous
 62
     7
370
    25
100
AcDbSpline
210
0.0
220
0.0
230
1.0
 70
     8
 71
     3
 72
    14
 73
    10
 74
     0
 42
0.00000001
 43
0.00000001
 40
0.0
 40
0.0
 40
0.0
 40
0.0
 40
0.1466732062389984
 40
0.3442428322253269
 40
0.5459042689495802
 40
0.7763823320649865
 40
0.9376489380461073
 40
0.9890341554040698
 40
1.0
 40
1.0
 40
1.0
 40
1.0
 10
576.3667338815792
 20
726.2788449429323
 30
0.0
 10
576.3505547962815
 20
726.2800900453865
 30
0.0
 10
576.3125823929466
 20
726.2830123077837
 30
0.0
 10
576.2590879343398
 20
726.302713324815
 30
0.0
 10
576.2095181618656
 20
726.3270894555402
 30
0.0
 10
576.1783286412639
 20
726.3504333965441
 30
0.0
 10
576.1681397699148
 20
726.3663674480698
 30
0.0
 10
576.166775512007
 20
726.3739004682782
 30
0.0
 10
576.1667401081487
 20
726.3759515417659
 30
0.0
 10
576.1667338815793
 20
726.3763122694329
 30
0.0
  0
LINE
  5
23D
330
1F
100
AcDbEntity
  8
0
  6
Continuous
 62
     7
370
    25
100
AcDbLine
 10
576.3667338816
 20
731.6241558407
 30
0.0
 11
576.3667338816
 21
726.2788449429
 31
0.0
  0
ARC
  5
23E
330
1F
100
AcDbEntity
  8
0
  6
Continuous
 62
     7
370
    25
100
AcDbCircle
 10
576.3571635691
 20
731.4336692353
 30
0.0
 40
0.1907268667386525
100
AcDbArc
 50
87.123798601
 51
176.8011245338
  0
LINE
  5
23F
330
1F
100
AcDbEntity
  8
0
  6
Continuous
 62
     7
370
    25
100
AcDbLine
 10
576.3667338816
 20
726.178845811
 30
0.0
 11
576.3667338816
 21
720.228845377
 31
0.0
  0
ARC
  5
240
330
1F
100
AcDbEntity
  8
0
  6
Continuous
 62
     7
370
    25
100
AcDbCircle
 10
576.3667338816
 20
720.428845377
 30
0.0
 40
0.1999999999999318
100
AcDbArc
 50
180.0
 51
270.0
  0
LINE
  5
241
330
1F
100
AcDbEntity
  8
0
  6
Continuous
 62
     7
370
    25
100
AcDbLine
 10
580.1667338816
 20
731.6241558407
 30
0.0
 11
580.1667338816
 21
726.2788449429
 31
0.0
  0
LINE
  5
242
330
1F
100
AcDbEntity
  8
0
  6
Continuous
 62
     7
370
    25
100
AcDbLine
 10
580.1667338816
 20
726.2788449429
 30
0.0
 11
576.3667338816
 21
726.2788449429
 31
0.0
  0
LINE
  5
243
330
1F
100
AcDbEntity
  8
0
  6
Continuous
 62
     7
370
    25
100
AcDbLine
 10
580.1667338816
 20
731.6241558407
 30
0.0
 11
576.3667338816
 21
731.6241558407
 31
0.0
  0
LINE
  5
244
330
1F
100
AcDbEntity
  8
0
  6
Continuous
 62
     7
370
    25
100
AcDbLine
 10
580.1667338816
 20
726.178845811
 30
0.0
 11
580.1667338816
 21
720.228845377
 31
0.0
  0
LINE
  5
245
330
1F
100
AcDbEntity
  8
0
  6
Continuous
 62
     7
370
    25
100
AcDbLine
 10
580.1667338816
 20
720.228845377
 30
0.0
 11
576.3667338816
 21
720.228845377
 31
0.0
  0
LINE
  5
246
330
1F
100
AcDbEntity
  8
0
  6
Continuous
 62
     7
370
    25
100
AcDbLine
 10
576.3667338816
 20
726.178845811
 30
0.0
 11
580.1667338816
 21
726.178845811
 31
0.0
  0
LINE
  5
247
330
1F
100
AcDbEntity
  8
0
  6
Continuous
 62
     7
370
    25
100
AcDbLine
 10
576.3667338816
 20
733.4225926619
 30
0.0
 11
576.3667338816
 21
731.6241558407
 31
0.0
  0
LINE
  5
248
330
1F
100
AcDbEntity
  8
0
  6
Continuous
 62
     7
370
    25
100
AcDbLine
 10
576.3667338816
 20
733.4225926619
 30
0.0
 11
580.1667338816
 21
733.4225926619
 31
0.0
  0
LINE
  5
249
330
1F
100
AcDbEntity
  8
0
  6
Continuous
 62
     7
370
    25
100
AcDbLine
 10
580.1667338816
 20
733.4225926619
 30
0.0
 11
580.1667338816
 21
731.6241558407
 31
0.0
  0
LINE
  5
24A
330
1F
100
AcDbEntity
  8
0
  6
Continuous
 62
     7
370
    25
100
AcDbLine
 10
576.3667338816
 20
733.4225926619
 30
0.0
 11
576.1667338816
 21
733.4225926619
 31
0.0
  0
LINE
  5
24B
330
1F
100
AcDbEntity
  8
0
  6
Continuous
 62
     7
370
    25
100
AcDbLine
 10
576.3667338816
 20
755.728845377
 30
0.0
 11
576.3667338816
 21
733.4225926619
 31
0.0
  0
LINE
  5
24C
330
1F
100
AcDbEntity
  8
0
  6
Continuous
 62
     7
370
    25
100
AcDbLine
 10
580.1667338816
 20
755.728845377
 30
0.0
 11
576.3667338816
 21
755.728845377
 31
0.0
  0
LINE
  5
24D
330
1F
100
AcDbEntity
  8
0
  6
Continuous
 62
     7
370
    25
100
AcDbLine
 10
580.1667338816
 20
755.728845377
 30
0.0
 11
580.1667338816
 21
733.4225926619
 31
0.0
  0
LINE
  5
24E
330
1F
100
AcDbEntity
  8
0
  6
Continuous
 62
     7
370
    25
100
AcDbLine
 10
576.3667338816
 20
755.728845377
 30
0.0
 11
576.1667338816
 21
755.728845377
 31
0.0
  0
LINE
  5
24F
330
1F
100
AcDbEntity
  8
0
  6
Continuous
 62
     7
370
    25
100
AcDbLine
 10
576.1667338816
 20
735.2086412741
 30
0.0
 11
576.1667338816
 21
755.728845377
 31
0.0
  0
LINE
  5
250
330
1F
100
AcDbEntity
  8
0
  6
Continuous
 62
     7
370
    25
100
AcDbLine
 10
576.3667338816
 20
755.728845377
 30
0.0
 11
576.3667338816
 21
756.228845377
 31
0.0
  0
LINE
  5
251
330
1F
100
AcDbEntity
  8
0
  6
Continuous
 62
     7
370
    25
100
AcDbLine
 10
580.1667338816
 20
756.228845377
 30
0.0
 11
580.1667338816
 21
755.728845377
 31
0.0
  0
ARC
  5
252
330
1F
100
AcDbEntity
  8
0
  6
Continuous
 62
     7
370
    25
100
AcDbCircle
 10
576.3667338816
 20
756.028845377
 30
0.0
 40
0.1999999999999318
100
AcDbArc
 50
90.0
 51
180.0
  0
LINE
  5
253
330
1F
100
AcDbEntity
  8
0
  6
Continuous
 62
     7
370
    25
100
AcDbLine
 10
576.1667338816
 20
756.028845377
 30
0.0
 11
576.1667338816
 21
755.728845377
 31
0.0
  0
LINE
  5
254
330
1F
100
AcDbEntity
  8
0
  6
Continuous
 62
     7
370
    25
100
AcDbLine
 10
1270.3534473409
 20
728.1288453769
 30
0.0
 11
1270.3534473409
 21
748.3288453769
 31
0.0
  0
LINE
  5
255
330
1F
100
AcDbEntity
  8
0
  6
Continuous
 62
     7
370
    25
100
AcDbLine
 10
1273.5534473409
 20
736.4676709445
 30
0.0
 11
1273.5534473409
 21
736.0168358367
 31
0.0
  0
LINE
  5
256
330
1F
100
AcDbEntity
  8
0
  6
Continuous
 62
     7
370
    25
100
AcDbLine
 10
552.9800204222
 20
747.5008367507
 30
0.0
 11
552.9800204222
 21
728.128845377
 31
0.0
  0
LINE
  5
257
330
1F
100
AcDbEntity
  8
0
  6
Continuous
 62
     7
370
    25
100
AcDbLine
 10
552.9800204222
 20
748.328845377
 30
0.0
 11
552.9800204222
 21
747.5008367507
 31
0.0
  0
LINE
  5
258
330
1F
100
AcDbEntity
  8
0
  6
Continuous
 62
     7
370
    25
100
AcDbLine
 10
1256.8667338816
 20
732.228845377
 30
0.0
 11
1256.8667338816
 21
732.0066937095
 31
0.0
  0
LINE
  5
259
330
1F
100
AcDbEntity
  8
0
  6
Continuous
 62
     7
370
    25
100
AcDbLine
 10
1256.4667338816
 20
734.228845377
 30
0.0
 11
1256.4667338816
 21
736.728845377
 31
0.0
  0
LINE
  5
25A
330
1F
100
AcDbEntity
  8
0
  6
Continuous
 62
     7
370
    25
100
AcDbLine
 10
566.4667338816
 20
732.0066937095
 30
0.0
 11
566.4667338816
 21
732.228845377
 31
0.0
  0
LINE
  5
25B
330
1F
100
AcDbEntity
  8
0
  6
Continuous
 62
     7
370
    25
100
AcDbLine
 10
566.8667338816
 20
736.728845377
 30
0.0
 11
566.8667338816
 21
734.228845377
 31
0.0
  0
DIMENSION
  5
25C
330
1F
100
AcDbEntity
  8
FORMAT
100
AcDbDimension
  2
_D
 10
1347.6667338816
 20
791.528845377
 30
0.0
 11
911.6667338816
 21
791.528845377
 31
0.0
 70
   160
  1
<>
 71
     2
 42
-1.0
  3
SLDDIMSTYLE0
100
AcDbAlignedDimension
 13
475.6667338816
 23
781.228845377
 33
0.0
 14
1347.6667338816
 24
781.228845377
 34
0.0
100
AcDbRotatedDimension
  0
LINE
  5
269
330
1F
100
AcDbEntity
  8
0
  6
Continuous
 62
     7
370
    25
100
AcDbLine
 10
1625.0656492111
 20
765.3302676247
 30
0.0
 11
1625.2609345681
 21
765.6172682682
 31
0.0
  0
SPLINE
  5
26A
330
1F
100
AcDbEntity
  8
0
  6
Continuous
 62
     7
370
    25
100
AcDbSpline
210
0.0
220
0.0
230
1.0
 70
    11
 71
     3
 72
    23
 73
    19
 74
     0
 42
0.00000001
 43
0.00000001
 40
0.0
 40
0.0
 40
0.0
 40
0.0
 40
0.0624999999999999
 40
0.125
 40
0.1875000000000001
 40
0.25
 40
0.3125
 40
0.3750000000000001
 40
0.4375
 40
0.5000000000000001
 40
0.5625
 40
0.6250000000000001
 40
0.6874999999999999
 40
0.7499999999999999
 40
0.8125
 40
0.875
 40
0.9374999999999999
 40
1.0
 40
1.0
 40
1.0
 40
1.0
 10
1639.743108883878
 20
734.2853738661846
 30
0.0
 10
1639.767019455004
 20
734.4283042561755
 30
0.0
 10
1639.814840597256
 20
734.7141650361568
 30
0.0
 10
1640.087708391262
 20
735.0667647300627
 30
0.0
 10
1640.463350225512
 20
735.2924166777152
 30
0.0
 10
1640.899803021398
 20
735.3559839755201
 30
0.0
 10
1641.326541247683
 20
735.247999002156
 30
0.0
 10
1641.679691090423
 20
734.9848452369135
 30
0.0
 10
1641.905195386426
 20
734.6066005475975
 30
0.0
 10
1641.968803141995
 20
734.1708451432119
 30
0.0
 10
1641.860803989226
 20
733.743920205991
 30
0.0
 10
1641.597666483838
 20
733.3908198154933
 30
0.0
 10
1641.21937093451
 20
733.1653044214568
 30
0.0
 10
1640.783802710317
 20
733.1016916057799
 30
0.0
 10
1640.356179912339
 20
733.209722097016
 30
0.0
 10
1640.005683784676
 20
733.4727393086424
 30
0.0
 10
1639.770449200056
 20
733.8514846945503
 30
0.0
 10
1639.752222322604
 20
734.1407441423065
 30
0.0
 10
1639.743108883878
 20
734.2853738661846
 30
0.0
  0
LINE
  5
26B
330
1F
100
AcDbEntity
  8
0
  6
Continuous
 62
     7
370
    25
100
AcDbLine
 10
1640.8861600806
 20
735.0937264883
 30
0.0
 11
1641.6129167726
 21
734.6227437809
 31
0.0
  0
LINE
  5
26C
330
1F
100
AcDbEntity
  8
0
  6
Continuous
 62
     7
370
    25
100
AcDbLine
 10
1640.1148987453
 20
734.6998280844
 30
0.0
 11
1640.8861600806
 21
735.0937264883
 31
0.0
  0
LINE
  5
26D
330
1F
100
AcDbEntity
  8
0
  6
Continuous
 62
     7
370
    25
100
AcDbLine
 10
1640.0703941019
 20
733.834946973
 30
0.0
 11
1640.1148987453
 21
734.6998280844
 31
0.0
  0
LINE
  5
26E
330
1F
100
AcDbEntity
  8
0
  6
Continuous
 62
     7
370
    25
100
AcDbLine
 10
1640.7971507939
 20
733.3639642656
 30
0.0
 11
1640.0703941019
 21
733.834946973
 31
0.0
  0
LINE
  5
26F
330
1F
100
AcDbEntity
  8
0
  6
Continuous
 62
     7
370
    25
100
AcDbLine
 10
1641.5684121292
 20
733.7578626696
 30
0.0
 11
1640.7971507939
 21
733.3639642656
 31
0.0
  0
LINE
  5
270
330
1F
100
AcDbEntity
  8
0
  6
Continuous
 62
     7
370
    25
100
AcDbLine
 10
1641.6129167726
 20
734.6227437809
 30
0.0
 11
1641.5684121292
 21
733.7578626696
 31
0.0
  0
SPLINE
  5
271
330
1F
100
AcDbEntity
  8
0
  6
Continuous
 62
     7
370
    25
100
AcDbSpline
210
0.0
220
0.0
230
1.0
 70
    11
 71
     3
 72
    23
 73
    19
 74
     0
 42
0.00000001
 43
0.00000001
 40
0.0
 40
0.0
 40
0.0
 40
0.0
 40
0.0625
 40
0.125
 40
0.1874999999999999
 40
0.2499999999999999
 40
0.3125000000000001
 40
0.3749999999999999
 40
0.4374999999999998
 40
0.4999999999999999
 40
0.5625000000000001
 40
0.6250000000000001
 40
0.6875000000000001
 40
0.7500000000000001
 40
0.8125000000000002
 40
0.8750000000000001
 40
0.9375000000000002
 40
1.0
 40
1.0
 40
1.0
 40
1.0
 10
1643.95505257415
 20
727.1613970064748
 30
0.0
 10
1643.801232283328
 20
727.4239858450511
 30
0.0
 10
1643.493591701682
 20
727.9491635222037
 30
0.0
 10
1642.69442704508
 20
728.4369857694004
 30
0.0
 10
1641.788535936327
 20
728.5988318292666
 30
0.0
 10
1640.884542073776
 20
728.3971376790894
 30
0.0
 10
1640.127918614943
 20
727.8660725375986
 30
0.0
 10
1639.631751486984
 20
727.0855582347966
 30
0.0
 10
1639.47214189327
 20
726.174669979866
 30
0.0
 10
1639.673235059603
 20
725.2720143482262
 30
0.0
 10
1640.204467670317
 20
724.5150351119245
 30
0.0
 10
1640.984913080072
 20
724.0189528629302
 30
0.0
 10
1641.895909437965
 20
723.8593595308271
 30
0.0
 10
1642.798201550803
 20
724.0603027717497
 30
0.0
 10
1643.556526759349
 20
724.5921188224949
 30
0.0
 10
1644.047588638168
 20
725.370380397534
 30
0.0
 10
1644.225917478729
 20
726.2895286542621
 30
0.0
 10
1644.045340875677
 20
726.8707742224038
 30
0.0
 10
1643.95505257415
 20
727.1613970064748
 30
0.0
  0
SPLINE
  5
272
330
1F
100
AcDbEntity
  8
0
  6
Continuous
 62
     7
370
    25
100
AcDbSpline
210
0.0
220
0.0
230
1.0
 70
    11
 71
     3
 72
    23
 73
    19
 74
     0
 42
0.00000001
 43
0.00000001
 40
0.0
 40
0.0
 40
0.0
 40
0.0
 40
0.0625000000000001
 40
0.1250000000000001
 40
0.1875000000000001
 40
0.2500000000000001
 40
0.3125000000000001
 40
0.3750000000000001
 40
0.4375000000000001
 40
0.5
 40
0.5625000000000001
 40
0.6250000000000001
 40
0.6875
 40
0.7500000000000002
 40
0.8125000000000001
 40
0.875
 40
0.9374999999999998
 40
0.9999999999999999
 40
0.9999999999999999
 40
0.9999999999999999
 40
0.9999999999999999
 10
1645.27249494521
 20
727.7427278924048
 30
0.0
 10
1645.419066863272
 20
727.2709376585235
 30
0.0
 10
1645.712210699396
 20
726.327357190761
 30
0.0
 10
1645.422715828356
 20
724.835233397371
 30
0.0
 10
1644.62553745365
 20
723.5718217495803
 30
0.0
 10
1643.394490037179
 20
722.7084840048642
 30
0.0
 10
1641.92973011374
 20
722.3822774449246
 30
0.0
 10
1640.450839922357
 20
722.6413575295078
 30
0.0
 10
1639.183883088337
 20
723.4466858557972
 30
0.0
 10
1638.32149248653
 20
724.6755482523909
 30
0.0
 10
1637.995042541183
 20
726.1408983037542
 30
0.0
 10
1638.254149024487
 20
727.6196130033169
 30
0.0
 10
1639.059615141303
 20
728.8866816766968
 30
0.0
 10
1640.28789997707
 20
729.7488004128832
 30
0.0
 10
1641.755422481212
 20
730.0762259813524
 30
0.0
 10
1643.226024930486
 20
729.8134888711801
 30
0.0
 10
1644.523370152243
 20
729.0215696387179
 30
0.0
 10
1645.022786680888
 20
728.1690084745092
 30
0.0
 10
1645.27249494521
 20
727.7427278924048
 30
0.0
  0
SPLINE
  5
273
330
1F
100
AcDbEntity
  8
0
  6
Continuous
 62
     7
370
    25
100
AcDbSpline
210
0.0
220
0.0
230
1.0
 70
    11
 71
     3
 72
    23
 73
    19
 74
     0
 42
0.00000001
 43
0.00000001
 40
0.0
 40
0.0
 40
0.0
 40
0.0
 40
0.0625
 40
0.125
 40
0.1875
 40
0.25
 40
0.3124999999999999
 40
0.375
 40
0.4375
 40
0.5
 40
0.5625
 40
0.6250000000000001
 40
0.6874999999999998
 40
0.75
 40
0.8125
 40
0.875
 40
0.9375
 40
1.0
 40
1.0
 40
1.0
 40
1.0
 10
1645.729940212939
 20
727.9445788944638
 30
0.0
 10
1645.896055053409
 20
727.409883296065
 30
0.0
 10
1646.228284734351
 20
726.3404920992674
 30
0.0
 10
1645.900190547171
 20
724.6494184667589
 30
0.0
 10
1644.996721722505
 20
723.217551932596
 30
0.0
 10
1643.601534650504
 20
722.2391024885844
 30
0.0
 10
1641.94147340394
 20
721.8694017206531
 30
0.0
 10
1640.265397853705
 20
722.1630258165138
 30
0.0
 10
1638.829513441817
 20
723.0757312529752
 30
0.0
 10
1637.852137426435
 20
724.4684419691148
 30
0.0
 10
1637.482160821709
 20
726.1291720273265
 30
0.0
 10
1637.775814836119
 20
727.8050486868309
 30
0.0
 10
1638.688676435177
 20
729.2410598499947
 30
0.0
 10
1640.08073258238
 20
730.218127751006
 30
0.0
 10
1641.743924753741
 20
730.5892100619379
 30
0.0
 10
1643.410607529585
 20
730.2914413370759
 30
0.0
 10
1644.880932114243
 20
729.3939328736186
 30
0.0
 10
1645.446937513374
 20
728.4276968875154
 30
0.0
 10
1645.729940212939
 20
727.9445788944638
 30
0.0
  0
SPLINE
  5
274
330
1F
100
AcDbEntity
  8
0
  6
Continuous
 62
     7
370
    25
100
AcDbSpline
210
0.0
220
0.0
230
1.0
 70
     8
 71
     3
 72
     9
 73
     5
 74
     0
 42
0.00000001
 43
0.00000001
 40
0.0
 40
0.0
 40
0.0
 40
0.0
 40
0.5001542710313499
 40
1.0
 40
1.0
 40
1.0
 40
1.0
 10
1643.205280106094
 20
728.0926773343813
 30
0.0
 10
1643.36071350153
 20
727.7404219589484
 30
0.0
 10
1643.671484406506
 20
727.0361285122353
 30
0.0
 10
1643.982254550636
 20
726.3318532207627
 30
0.0
 10
1644.137591679871
 20
725.979824224302
 30
0.0
  0
SPLINE
  5
275
330
1F
100
AcDbEntity
  8
0
  6
Continuous
 62
     7
370
    25
100
AcDbSpline
210
0.0
220
0.0
230
1.0
 70
     8
 71
     3
 72
     9
 73
     5
 74
     0
 42
0.00000001
 43
0.00000001
 40
0.0
 40
0.0
 40
0.0
 40
0.0
 40
0.5000250515112555
 40
1.0
 40
1.0
 40
1.0
 40
1.0
 10
1640.90934559422
 20
728.3416945646678
 30
0.0
 10
1641.29201869629
 20
728.3001635567967
 30
0.0
 10
1642.057326556193
 20
728.2171057025042
 30
0.0
 10
1642.822642691391
 20
728.1341498347543
 30
0.0
 10
1643.205281586665
 20
728.0926739790492
 30
0.0
  0
SPLINE
  5
276
330
1F
100
AcDbEntity
  8
0
  6
Continuous
 62
     7
370
    25
100
AcDbSpline
210
0.0
220
0.0
230
1.0
 70
     8
 71
     3
 72
     9
 73
     5
 74
     0
 42
0.00000001
 43
0.00000001
 40
0.0
 40
0.0
 40
0.0
 40
0.0
 40
0.5000250515112561
 40
1.0
 40
1.0
 40
1.0
 40
1.0
 10
1639.545719444812
 20
726.4778659625597
 30
0.0
 10
1639.773022903708
 20
726.7885050863616
 30
0.0
 10
1640.227607045461
 20
727.4097522076071
 30
0.0
 10
1640.682107001925
 20
728.0310574887405
 30
0.0
 10
1640.909345594246
 20
728.341694564671
 30
0.0
  0
SPLINE
  5
277
330
1F
100
AcDbEntity
  8
0
  6
Continuous
 62
     7
370
    25
100
AcDbSpline
210
0.0
220
0.0
230
1.0
 70
     8
 71
     3
 72
     9
 73
     5
 74
     0
 42
0.00000001
 43
0.00000001
 40
0.0
 40
0.0
 40
0.0
 40
0.0
 40
0.5001542710313501
 40
1.0
 40
1.0
 40
1.0
 40
1.0
 10
1640.478030768389
 20
724.3650134195426
 30
0.0
 10
1640.322597372953
 20
724.7172687949756
 30
0.0
 10
1640.011826467977
 20
725.4215622416887
 30
0.0
 10
1639.701056323847
 20
726.1258375331613
 30
0.0
 10
1639.545719194613
 20
726.477866529622
 30
0.0
  0
SPLINE
  5
278
330
1F
100
AcDbEntity
  8
0
  6
Continuous
 62
     7
370
    25
100
AcDbSpline
210
0.0
220
0.0
230
1.0
 70
     8
 71
     3
 72
     9
 73
     5
 74
     0
 42
0.00000001
 43
0.00000001
 40
0.0
 40
0.0
 40
0.0
 40
0.0
 40
0.5000250515112565
 40
1.0
 40
1.0
 40
1.0
 40
1.0
 10
1642.773965280264
 20
724.1159961892563
 30
0.0
 10
1642.391292178194
 20
724.1575271971273
 30
0.0
 10
1641.625984318291
 20
724.2405850514198
 30
0.0
 10
1640.860668183092
 20
724.3235409191698
 30
0.0
 10
1640.478029287818
 20
724.3650167748749
 30
0.0
  0
SPLINE
  5
279
330
1F
100
AcDbEntity
  8
0
  6
Continuous
 62
     7
370
    25
100
AcDbSpline
210
0.0
220
0.0
230
1.0
 70
     8
 71
     3
 72
     9
 73
     5
 74
     0
 42
0.00000001
 43
0.00000001
 40
0.0
 40
0.0
 40
0.0
 40
0.0
 40
0.5000250515112552
 40
1.0
 40
1.0
 40
1.0
 40
1.0
 10
1644.137591429671
 20
725.9798247913642
 30
0.0
 10
1643.910287970775
 20
725.6691856675624
 30
0.0
 10
1643.455703829023
 20
725.047938546317
 30
0.0
 10
1643.001203872559
 20
724.4266332651836
 30
0.0
 10
1642.773965280237
 20
724.115996189253
 30
0.0
  0
ARC
  5
27A
330
1F
100
AcDbEntity
  8
0
  6
Continuous
 62
     7
370
    25
100
AcDbCircle
 10
1641.8416554372
 20
726.228845377
 30
0.0
 40
2.000000000000119
100
AcDbArc
 50
83.8098135832
 51
143.8098135832
  0
ARC
  5
27B
330
1F
100
AcDbEntity
  8
0
  6
Continuous
 62
     7
370
    25
100
AcDbCircle
 10
1641.8416554372
 20
726.228845377
 30
0.0
 40
2.000000000000064
100
AcDbArc
 50
23.8098135832
 51
83.8098135832
  0
ARC
  5
27C
330
1F
100
AcDbEntity
  8
0
  6
Continuous
 62
     7
370
    25
100
AcDbCircle
 10
1641.8416554372
 20
726.228845377
 30
0.0
 40
2.000000000000158
100
AcDbArc
 50
143.8098135832
 51
203.8098135832
  0
ARC
  5
27D
330
1F
100
AcDbEntity
  8
0
  6
Continuous
 62
     7
370
    25
100
AcDbCircle
 10
1641.8416554372
 20
726.228845377
 30
0.0
 40
1.99999999999995
100
AcDbArc
 50
323.8098135832
 51
23.8098135832
  0
ARC
  5
27E
330
1F
100
AcDbEntity
  8
0
  6
Continuous
 62
     7
370
    25
100
AcDbCircle
 10
1641.8416554372
 20
726.228845377
 30
0.0
 40
2.0
100
AcDbArc
 50
263.8098135832
 51
323.8098135832
  0
ARC
  5
27F
330
1F
100
AcDbEntity
  8
0
  6
Continuous
 62
     7
370
    25
100
AcDbCircle
 10
1641.8416554372
 20
726.228845377
 30
0.0
 40
2.000000000000158
100
AcDbArc
 50
203.8098135832
 51
263.8098135832
  0
SPLINE
  5
280
330
1F
100
AcDbEntity
  8
0
  6
Continuous
 62
     7
370
    25
100
AcDbSpline
210
0.0
220
0.0
230
1.0
 70
     8
 71
     3
 72
     9
 73
     5
 74
     0
 42
0.00000001
 43
0.00000001
 40
0.0
 40
0.0
 40
0.0
 40
0.0
 40
0.9522277352283844
 40
0.9999999999999999
 40
0.9999999999999999
 40
0.9999999999999999
 40
0.9999999999999999
 10
1620.841655437242
 20
728.1288453769617
 30
0.0
 10
1620.053561286561
 20
728.1309328308538
 30
0.0
 10
1619.225929280556
 20
728.1331250101141
 30
0.0
 10
1618.46720153664
 20
728.4215379161969
 30
0.0
 10
1618.430955393968
 20
728.4353160539099
 30
0.0
  0
LINE
  5
281
330
1F
100
AcDbEntity
  8
0
  6
Continuous
 62
     7
370
    25
100
AcDbLine
 10
1624.3236993356
 20
747.6337818258
 30
0.0
 11
1625.3085661779
 21
747.1887802407
 31
0.0
  0
SPLINE
  5
282
330
1F
100
AcDbEntity
  8
0
  6
Continuous
 62
     7
370
    25
100
AcDbSpline
210
0.0
220
0.0
230
1.0
 70
     8
 71
     3
 72
     9
 73
     5
 74
     0
 42
0.00000001
 43
0.00000001
 40
0.0
 40
0.0
 40
0.0
 40
0.0
 40
0.5306090504245426
 40
1.0
 40
1.0
 40
1.0
 40
1.0
 10
1630.071751759127
 20
734.387839293336
 30
0.0
 10
1629.939161998074
 20
733.9683925234182
 30
0.0
 10
1629.689279790173
 20
733.1778919287107
 30
0.0
 10
1629.135822069518
 20
732.5626607380102
 30
0.0
 10
1628.87603402447
 20
732.2738767851988
 30
0.0
  0
LINE
  5
283
330
1F
100
AcDbEntity
  8
0
  6
Continuous
 62
     7
370
    25
100
AcDbLine
 10
1621.7153655471
 20
728.2297327304
 30
0.0
 11
1620.8416554372
 21
728.128845377
 31
0.0
  0
SPLINE
  5
284
330
1F
100
AcDbEntity
  8
0
  6
Continuous
 62
     7
370
    25
100
AcDbSpline
210
0.0
220
0.0
230
1.0
 70
    11
 71
     3
 72
    31
 73
    27
 74
     0
 42
0.00000001
 43
0.00000001
 40
0.0
 40
0.0
 40
0.0
 40
0.0
 40
0.036619240657422
 40
0.0772446406140038
 40
0.1210610754052678
 40
0.1666666666666672
 40
0.2122722579280662
 40
0.2560886927193295
 40
0.2967140926759107
 40
0.333333333333332
 40
0.3699525739907542
 40
0.4105779739473364
 40
0.4543944087386007
 40
0.5000000000000006
 40
0.5456055912614003
 40
0.5894220260526644
 40
0.630047426009246
 40
0.666666666666668
 40
0.7032859073240897
 40
0.7439113072806709
 40
0.7877277420719341
 40
0.8333333333333329
 40
0.878938924594732
 40
0.9227553593859957
 40
0.9633807593425776
 40
1.0
 40
1.0
 40
1.0
 40
1.0
 10
1620.841655437242
 20
726.2788453769617
 30
0.0
 10
1621.757407624537
 20
726.3403376690176
 30
0.0
 10
1623.689095647803
 20
726.4700495340128
 30
0.0
 10
1626.550307340062
 20
727.5798793271423
 30
0.0
 10
1629.220071484727
 20
729.484478719663
 30
0.0
 10
1631.333447281604
 20
732.1721659846115
 30
0.0
 10
1632.601296938867
 20
735.3435208625725
 30
0.0
 10
1632.926594867856
 20
738.6143524095075
 30
0.0
 10
1632.421332779207
 20
741.6264235134172
 30
0.0
 10
1631.282176174988
 20
744.2566856296767
 30
0.0
 10
1629.573892568646
 20
746.5583447408785
 30
0.0
 10
1627.217942965036
 20
748.5019803790126
 30
0.0
 10
1624.222880891382
 20
749.8555582451472
 30
0.0
 10
1620.841655437242
 20
750.3437231083714
 30
0.0
 10
1617.460429983102
 20
749.8555582451472
 30
0.0
 10
1614.465367909449
 20
748.5019803790126
 30
0.0
 10
1612.109418305838
 20
746.5583447408785
 30
0.0
 10
1610.401134699496
 20
744.2566856296767
 30
0.0
 10
1609.261978095277
 20
741.6264235134172
 30
0.0
 10
1608.756716006628
 20
738.6143524095077
 30
0.0
 10
1609.082013935617
 20
735.3435208625725
 30
0.0
 10
1610.349863592881
 20
732.1721659846115
 30
0.0
 10
1612.463239389757
 20
729.484478719663
 30
0.0
 10
1615.133003534422
 20
727.5798793271422
 30
0.0
 10
1617.994215226681
 20
726.4700495340128
 30
0.0
 10
1619.925903249948
 20
726.3403376690176
 30
0.0
 10
1620.841655437242
 20
726.2788453769617
 30
0.0
  0
CIRCLE
  5
285
330
1F
100
AcDbEntity
  8
0
  6
Continuous
 62
     7
370
    25
100
AcDbCircle
 10
1620.8416554372
 20
738.228845377
 30
0.0
 40
0.600000000000001
  0
CIRCLE
  5
286
330
1F
100
AcDbEntity
  8
0
  6
Continuous
 62
     7
370
    25
100
AcDbCircle
 10
1620.8416554372
 20
738.228845377
 30
0.0
 40
1.299999999999857
  0
CIRCLE
  5
287
330
1F
100
AcDbEntity
  8
0
  6
Continuous
 62
     7
370
    25
100
AcDbCircle
 10
1620.8416554372
 20
738.228845377
 30
0.0
 40
0.5832611005110107
  0
LINE
  5
288
330
1F
100
AcDbEntity
  8
0
  6
Continuous
 62
     7
370
    25
100
AcDbLine
 10
1617.1481568975
 20
739.8437969356
 30
0.0
 11
1620.3578375214
 21
742.2308349102
 31
0.0
  0
LINE
  5
289
330
1F
100
AcDbEntity
  8
0
  6
Continuous
 62
     7
370
    25
100
AcDbLine
 10
1620.9545970151
 20
741.4284147542
 30
0.0
 11
1620.3578375214
 21
742.2308349102
 31
0.0
  0
LINE
  5
28A
330
1F
100
AcDbEntity
  8
0
  6
Continuous
 62
     7
370
    25
100
AcDbLine
 10
1617.7449163911
 20
739.0413767796
 30
0.0
 11
1620.9545970151
 21
741.4284147542
 31
0.0
  0
LINE
  5
28B
330
1F
100
AcDbEntity
  8
0
  6
Continuous
 62
     7
370
    25
100
AcDbLine
 10
1617.1481568975
 20
739.8437969356
 30
0.0
 11
1617.7449163911
 21
739.0413767796
 31
0.0
  0
LINE
  5
28C
330
1F
100
AcDbEntity
  8
0
  6
Continuous
 62
     7
370
    25
100
AcDbLine
 10
1623.9383944834
 20
737.4163139743
 30
0.0
 11
1620.9545970151
 21
741.4284147542
 31
0.0
  0
LINE
  5
28D
330
1F
100
AcDbEntity
  8
0
  6
Continuous
 62
     7
370
    25
100
AcDbLine
 10
1620.7287138594
 20
735.0292759997
 30
0.0
 11
1623.9383944834
 21
737.4163139743
 31
0.0
  0
LINE
  5
28E
330
1F
100
AcDbEntity
  8
0
  6
Continuous
 62
     7
370
    25
100
AcDbLine
 10
1617.7449163911
 20
739.0413767796
 30
0.0
 11
1620.7287138594
 21
735.0292759997
 31
0.0
  0
LINE
  5
28F
330
1F
100
AcDbEntity
  8
0
  6
Continuous
 62
     7
370
    25
100
AcDbLine
 10
1624.535153977
 20
736.6138938183
 30
0.0
 11
1623.9383944834
 21
737.4163139743
 31
0.0
  0
LINE
  5
290
330
1F
100
AcDbEntity
  8
0
  6
Continuous
 62
     7
370
    25
100
AcDbLine
 10
1624.535153977
 20
736.6138938183
 30
0.0
 11
1621.3254733531
 21
734.2268558437
 31
0.0
  0
LINE
  5
291
330
1F
100
AcDbEntity
  8
0
  6
Continuous
 62
     7
370
    25
100
AcDbLine
 10
1620.7287138594
 20
735.0292759997
 30
0.0
 11
1621.3254733531
 21
734.2268558437
 31
0.0
  0
CIRCLE
  5
292
330
1F
100
AcDbEntity
  8
0
  6
Continuous
 62
     7
370
    25
100
AcDbCircle
 10
1620.8416554372
 20
738.228845377
 30
0.0
 40
9.100000000002478
  0
CIRCLE
  5
293
330
1F
100
AcDbEntity
  8
0
  6
Continuous
 62
     7
370
    25
100
AcDbCircle
 10
1620.8416554372
 20
738.228845377
 30
0.0
 40
10.10000000000239
  0
SPLINE
  5
294
330
1F
100
AcDbEntity
  8
0
  6
Continuous
 62
     7
370
    25
100
AcDbSpline
210
0.0
220
0.0
230
1.0
 70
    11
 71
     3
 72
    23
 73
    19
 74
     0
 42
0.00000001
 43
0.00000001
 40
0.0
 40
0.0
 40
0.0
 40
0.0
 40
0.0625000000000001
 40
0.125
 40
0.1874999999999999
 40
0.25
 40
0.3125000000000001
 40
0.3749999999999999
 40
0.4375000000000001
 40
0.5
 40
0.5625
 40
0.625
 40
0.6874999999999999
 40
0.7499999999999999
 40
0.8125000000000002
 40
0.875
 40
0.9375000000000001
 40
1.0
 40
1.0
 40
1.0
 40
1.0
 10
1639.525173936534
 20
765.6156269090825
 30
0.0
 10
1639.472934157153
 20
765.4646819244886
 30
0.0
 10
1639.368454598389
 20
765.162791955301
 30
0.0
 10
1639.007135319926
 20
764.8297070717076
 30
0.0
 10
1638.557439102983
 20
764.6534668991584
 30
0.0
 10
1638.071425490734
 20
764.6645504058642
 30
0.0
 10
1637.627480750253
 20
764.8602927434049
 30
0.0
 10
1637.292013671925
 20
765.2111558557227
 30
0.0
 10
1637.116412065014
 20
765.66365373785
 30
0.0
 10
1637.127323503902
 20
766.148916855509
 30
0.0
 10
1637.323115547076
 20
766.5930619091663
 30
0.0
 10
1637.673951904677
 20
766.9284782293785
 30
0.0
 10
1638.126507100038
 20
767.1040825555772
 30
0.0
 10
1638.611567719481
 20
767.0932109976549
 30
0.0
 10
1639.056465452767
 20
766.8972567113304
 30
0.0
 10
1639.389073552679
 20
766.5470294453633
 30
0.0
 10
1639.575158080452
 20
766.0922001266173
 30
0.0
 10
1639.54183531784
 20
765.7744846482607
 30
0.0
 10
1639.525173936534
 20
765.6156269090825
 30
0.0
  0
SPLINE
  5
295
330
1F
100
AcDbEntity
  8
0
  6
Continuous
 62
     7
370
    25
100
AcDbSpline
210
0.0
220
0.0
230
1.0
 70
    11
 71
     3
 72
    23
 73
    19
 74
     0
 42
0.00000001
 43
0.00000001
 40
0.0
 40
0.0
 40
0.0
 40
0.0
 40
0.0624999999999999
 40
0.125
 40
0.1874999999999999
 40
0.25
 40
0.3125000000000001
 40
0.375
 40
0.4374999999999999
 40
0.5
 40
0.5624999999999999
 40
0.6249999999999999
 40
0.6874999999999998
 40
0.7499999999999999
 40
0.8125
 40
0.875
 40
0.9374999999999997
 40
1.0
 40
1.0
 40
1.0
 40
1.0
 10
1641.270104255059
 20
765.2275485771647
 30
0.0
 10
1641.140844323537
 20
764.8540566022158
 30
0.0
 10
1640.882324460494
 20
764.1070726523183
 30
0.0
 10
1639.988291106134
 20
763.2829013071511
 30
0.0
 10
1638.875581540823
 20
762.8468199740225
 30
0.0
 10
1637.67300972713
 20
762.8742445407946
 30
0.0
 10
1636.574531375322
 20
763.3585812176705
 30
0.0
 10
1635.744465626849
 20
764.2267422705792
 30
0.0
 10
1635.309964333905
 20
765.3463841593818
 30
0.0
 10
1635.336963143244
 20
766.5470989805599
 30
0.0
 10
1635.821422809667
 20
767.6460729789382
 30
0.0
 10
1636.689517661821
 20
768.4760131336456
 30
0.0
 10
1637.809301364097
 20
768.9105211550813
 30
0.0
 10
1639.009515132135
 20
768.88362102554
 30
0.0
 10
1640.110351529598
 20
768.3987599114334
 30
0.0
 10
1640.933343141106
 20
767.5321721702176
 30
0.0
 10
1641.393782936256
 20
766.4067614718747
 30
0.0
 10
1641.311330482124
 20
765.6206195420681
 30
0.0
 10
1641.270104255059
 20
765.2275485771647
 30
0.0
  0
SPLINE
  5
296
330
1F
100
AcDbEntity
  8
0
  6
Continuous
 62
     7
370
    25
100
AcDbSpline
210
0.0
220
0.0
230
1.0
 70
    24
 71
     3
 72
    11
 73
     7
 74
     0
 42
0.00000001
 43
0.00000001
 40
0.0
 40
0.0
 40
0.0
 40
0.0
 40
0.2486745532729975
 40
0.498257662408295
 40
0.7480167313574578
 40
1.0
 40
1.0
 40
1.0
 40
1.0
 10
1638.089004298898
 20
764.752124144587
 30
0.0
 10
1638.176000483885
 20
764.7793225845104
 30
0.0
 10
1638.3503107026
 20
764.833818836415
 30
0.0
 10
1638.638058906591
 20
764.923780278294
 30
0.0
 10
1638.927231930707
 20
765.014187175161
 30
0.0
 10
1639.102883810274
 20
765.0691028831844
 30
0.0
 10
1639.191099078232
 20
765.0966824565446
 30
0.0
  0
SPLINE
  5
297
330
1F
100
AcDbEntity
  8
0
  6
Continuous
 62
     7
370
    25
100
AcDbSpline
210
0.0
220
0.0
230
1.0
 70
    24
 71
     3
 72
    11
 73
     7
 74
     0
 42
0.00000001
 43
0.00000001
 40
0.0
 40
0.0
 40
0.0
 40
0.0
 40
0.2486747685389765
 40
0.4982579447672023
 40
0.7480167397896897
 40
0.9999999999999999
 40
0.9999999999999999
 40
0.9999999999999999
 40
0.9999999999999999
 10
1639.191099078284
 20
765.0966824566444
 30
0.0
 10
1639.211042648565
 20
765.1856226617939
 30
0.0
 10
1639.25100264289
 20
765.3638279702188
 30
0.0
 10
1639.316967855972
 20
765.6580059685174
 30
0.0
 10
1639.383259675274
 20
765.9536404976042
 30
0.0
 10
1639.423527194441
 20
766.1332172416447
 30
0.0
 10
1639.443750216719
 20
766.2234036889424
 30
0.0
  0
SPLINE
  5
298
330
1F
100
AcDbEntity
  8
0
  6
Continuous
 62
     7
370
    25
100
AcDbSpline
210
0.0
220
0.0
230
1.0
 70
    24
 71
     3
 72
    11
 73
     7
 74
     0
 42
0.00000001
 43
0.00000001
 40
0.0
 40
0.0
 40
0.0
 40
0.0
 40
0.2486745500102607
 40
0.4982576581286174
 40
0.7480167312295167
 40
1.0
 40
1.0
 40
1.0
 40
1.0
 10
1639.443750216633
 20
766.2234036890499
 30
0.0
 10
1639.376697585125
 20
766.2851453744879
 30
0.0
 10
1639.242347338406
 20
766.4088543249777
 30
0.0
 10
1639.020564342643
 20
766.6130708583481
 30
0.0
 10
1638.797683160029
 20
766.8182985959857
 30
0.0
 10
1638.662298820889
 20
766.942959732953
 30
0.0
 10
1638.594306575726
 20
767.0055666093521
 30
0.0
  0
SPLINE
  5
299
330
1F
100
AcDbEntity
  8
0
  6
Continuous
 62
     7
370
    25
100
AcDbSpline
210
0.0
220
0.0
230
1.0
 70
    24
 71
     3
 72
    11
 73
     7
 74
     0
 42
0.00000001
 43
0.00000001
 40
0.0
 40
0.0
 40
0.0
 40
0.0
 40
0.2486745532729968
 40
0.4982576624082949
 40
0.7480167313574578
 40
1.0
 40
1.0
 40
1.0
 40
1.0
 10
1638.594306575585
 20
767.0055666093375
 30
0.0
 10
1638.507310390599
 20
766.978368169414
 30
0.0
 10
1638.333000171884
 20
766.9238719175095
 30
0.0
 10
1638.045251967893
 20
766.8339104756305
 30
0.0
 10
1637.756078943777
 20
766.7435035787636
 30
0.0
 10
1637.580427064209
 20
766.6885878707401
 30
0.0
 10
1637.492211796251
 20
766.6610082973799
 30
0.0
  0
SPLINE
  5
29A
330
1F
100
AcDbEntity
  8
0
  6
Continuous
 62
     7
370
    25
100
AcDbSpline
210
0.0
220
0.0
230
1.0
 70
    24
 71
     3
 72
    11
 73
     7
 74
     0
 42
0.00000001
 43
0.00000001
 40
0.0
 40
0.0
 40
0.0
 40
0.0
 40
0.2486747685389772
 40
0.4982579447672036
 40
0.7480167397896917
 40
1.0
 40
1.0
 40
1.0
 40
1.0
 10
1637.4922117962
 20
766.6610082972801
 30
0.0
 10
1637.472268225919
 20
766.5720680921305
 30
0.0
 10
1637.432308231593
 20
766.3938627837057
 30
0.0
 10
1637.366343018511
 20
766.0996847854071
 30
0.0
 10
1637.30005119921
 20
765.8040502563204
 30
0.0
 10
1637.259783680042
 20
765.6244735122798
 30
0.0
 10
1637.239560657765
 20
765.5342870649822
 30
0.0
  0
SPLINE
  5
29B
330
1F
100
AcDbEntity
  8
0
  6
Continuous
 62
     7
370
    25
100
AcDbSpline
210
0.0
220
0.0
230
1.0
 70
    24
 71
     3
 72
    11
 73
     7
 74
     0
 42
0.00000001
 43
0.00000001
 40
0.0
 40
0.0
 40
0.0
 40
0.0
 40
0.2486745500102606
 40
0.4982576581286171
 40
0.7480167312295168
 40
1.0
 40
1.0
 40
1.0
 40
1.0
 10
1637.23956065785
 20
765.5342870648747
 30
0.0
 10
1637.306613289358
 20
765.4725453794365
 30
0.0
 10
1637.440963536077
 20
765.3488364289467
 30
0.0
 10
1637.66274653184
 20
765.1446198955764
 30
0.0
 10
1637.885627714454
 20
764.939392157939
 30
0.0
 10
1638.021012053595
 20
764.8147310209715
 30
0.0
 10
1638.089004298757
 20
764.7521241445723
 30
0.0
  0
SPLINE
  5
29C
330
1F
100
AcDbEntity
  8
0
  6
Continuous
 62
     7
370
    25
100
AcDbSpline
210
0.0
220
0.0
230
1.0
 70
    11
 71
     3
 72
    23
 73
    19
 74
     0
 42
0.00000001
 43
0.00000001
 40
0.0
 40
0.0
 40
0.0
 40
0.0
 40
0.0625000000000002
 40
0.1250000000000001
 40
0.1875000000000002
 40
0.2500000000000003
 40
0.3125000000000002
 40
0.3750000000000002
 40
0.4375000000000002
 40
0.5000000000000001
 40
0.5625000000000003
 40
0.6250000000000002
 40
0.6875000000000003
 40
0.7500000000000001
 40
0.8125000000000002
 40
0.8750000000000002
 40
0.9375000000000002
 40
1.0
 40
1.0
 40
1.0
 40
1.0
 10
1639.308043547121
 20
765.663917433029
 30
0.0
 10
1639.321648202053
 20
765.7936308514471
 30
0.0
 10
1639.348857511916
 20
766.0530576882834
 30
0.0
 10
1639.196912379517
 20
766.4244432187364
 30
0.0
 10
1638.92532514772
 20
766.7104171733378
 30
0.0
 10
1638.562049136557
 20
766.870421340993
 30
0.0
 10
1638.165978593104
 20
766.8792983837416
 30
0.0
 10
1637.796449971353
 20
766.7359107366678
 30
0.0
 10
1637.509978670142
 20
766.4620304856144
 30
0.0
 10
1637.350106980222
 20
766.0993690661494
 30
0.0
 10
1637.341197373141
 20
765.7031331751607
 30
0.0
 10
1637.484582799812
 20
765.3336513518558
 30
0.0
 10
1637.758504496808
 20
765.0471582043959
 30
0.0
 10
1638.121002352905
 20
764.887327101027
 30
0.0
 10
1638.517851051424
 20
764.8782769939921
 30
0.0
 10
1638.885045207976
 20
765.0221838339246
 30
0.0
 10
1639.180076214915
 20
765.2941603778297
 30
0.0
 10
1639.265387769719
 20
765.540665081296
 30
0.0
 10
1639.308043547121
 20
765.663917433029
 30
0.0
  0
SPLINE
  5
29D
330
1F
100
AcDbEntity
  8
0
  6
Continuous
 62
     7
370
    25
100
AcDbSpline
210
0.0
220
0.0
230
1.0
 70
     8
 71
     3
 72
    10
 73
     6
 74
     0
 42
0.00000001
 43
0.00000001
 40
0.0
 40
0.0
 40
0.0
 40
0.0
 40
0.091990456756682
 40
0.5459952283783396
 40
1.0
 40
1.0
 40
1.0
 40
1.0
 10
1602.716684040837
 20
739.3463242508727
 30
0.0
 10
1602.688570969685
 20
739.3605989098819
 30
0.0
 10
1602.521710153408
 20
739.4453239561583
 30
0.0
 10
1602.153685809334
 20
739.439083430434
 30
0.0
 10
1601.869782491086
 20
739.3146270082362
 30
0.0
 10
1601.727830831962
 20
739.2523987971374
 30
0.0
  0
SPLINE
  5
29E
330
1F
100
AcDbEntity
  8
0
  6
Continuous
 62
     7
370
    25
100
AcDbSpline
210
0.0
220
0.0
230
1.0
 70
    11
 71
     3
 72
    23
 73
    19
 74
     0
 42
0.00000001
 43
0.00000001
 40
0.0
 40
0.0
 40
0.0
 40
0.0
 40
0.0625
 40
0.125
 40
0.1875
 40
0.25
 40
0.3125000000000001
 40
0.375
 40
0.4375000000000001
 40
0.5
 40
0.5625
 40
0.625
 40
0.6874999999999999
 40
0.75
 40
0.8125000000000001
 40
0.875
 40
0.9374999999999999
 40
1.0
 40
1.0
 40
1.0
 40
1.0
 10
1639.391724706527
 20
739.4402466598874
 30
0.0
 10
1639.549522845238
 20
739.4154851909665
 30
0.0
 10
1639.865119122661
 20
739.3659622531245
 30
0.0
 10
1640.256778470411
 20
739.0691456161467
 30
0.0
 10
1640.509665909556
 20
738.657641996386
 30
0.0
 10
1640.584587699487
 20
738.1773100270087
 30
0.0
 10
1640.4703236135
 20
737.7057745416417
 30
0.0
 10
1640.184219496722
 20
737.3136170240675
 30
0.0
 10
1639.769845475386
 20
737.06086333345
 30
0.0
 10
1639.290282592113
 20
736.9859047192325
 30
0.0
 10
1638.818541163905
 20
737.1001823538397
 30
0.0
 10
1638.426438331589
 20
737.3862691004202
 30
0.0
 10
1638.17367184278
 20
737.8006990539257
 30
0.0
 10
1638.098709736071
 20
738.2800555787214
 30
0.0
 10
1638.213014138836
 20
738.7525665086699
 30
0.0
 10
1638.498997305277
 20
739.1417976924994
 30
0.0
 10
1638.91381481118
 20
739.4052812735142
 30
0.0
 10
1639.232421408078
 20
739.4285915310963
 30
0.0
 10
1639.391724706527
 20
739.4402466598874
 30
0.0
  0
SPLINE
  5
29F
330
1F
100
AcDbEntity
  8
0
  6
Continuous
 62
     7
370
    25
100
AcDbSpline
210
0.0
220
0.0
230
1.0
 70
     8
 71
     3
 72
    13
 73
     9
 74
     0
 42
0.00000001
 43
0.00000001
 40
0.0
 40
0.0
 40
0.0
 40
0.0
 40
0.1836256020883572
 40
0.3672512041767144
 40
0.5508768062650716
 40
0.7345024083534288
 40
0.918128010441786
 40
1.0
 40
1.0
 40
1.0
 40
1.0
 10
1639.465544749098
 20
741.2262861917919
 30
0.0
 10
1639.856073777642
 20
741.1649604475922
 30
0.0
 10
1640.637131834731
 20
741.0423089591927
 30
0.0
 10
1641.605038968535
 20
740.3087332230538
 30
0.0
 10
1642.235327107989
 20
739.287276933413
 30
0.0
 10
1642.403692857937
 20
738.1109041439233
 30
0.0
 10
1642.224970430105
 20
737.1227252644027
 30
0.0
 10
1641.866450396434
 20
736.6817105978231
 30
0.0
 10
1641.755892902217
 20
736.5457140791605
 30
0.0
  0
ARC
  5
2A0
330
1F
100
AcDbEntity
  8
0
  6
Continuous
 62
     7
370
    25
100
AcDbCircle
 10
1639.3039209254
 20
738.2631635958
 30
0.0
 40
2.967527216245803
100
AcDbArc
 50
86.8778896884
 51
257.6290448332
  0
SPLINE
  5
2A1
330
1F
100
AcDbEntity
  8
0
  6
Continuous
 62
     7
370
    25
100
AcDbSpline
210
0.0
220
0.0
230
1.0
 70
    24
 71
     3
 72
    11
 73
     7
 74
     0
 42
0.00000001
 43
0.00000001
 40
0.0
 40
0.0
 40
0.0
 40
0.0
 40
0.2486745532729979
 40
0.4982576624082952
 40
0.748016731357458
 40
1.0
 40
1.0
 40
1.0
 40
1.0
 10
1640.495285961509
 20
738.1791468189313
 30
0.0
 10
1640.453151297861
 20
738.2599723189653
 30
0.0
 10
1640.36872802761
 20
738.4219186225977
 30
0.0
 10
1640.229363596948
 20
738.6892566958146
 30
0.0
 10
1640.089309086408
 20
738.9579185259184
 30
0.0
 10
1640.004236012619
 20
739.1211113256968
 30
0.0
 10
1639.961510913299
 20
739.2030694385091
 30
0.0
  0
SPLINE
  5
2A2
330
1F
100
AcDbEntity
  8
0
  6
Continuous
 62
     7
370
    25
100
AcDbSpline
210
0.0
220
0.0
230
1.0
 70
    24
 71
     3
 72
    11
 73
     7
 74
     0
 42
0.00000001
 43
0.00000001
 40
0.0
 40
0.0
 40
0.0
 40
0.0
 40
0.2486747685389767
 40
0.4982579447672028
 40
0.7480167397896906
 40
1.0
 40
1.0
 40
1.0
 40
1.0
 10
1639.961510913192
 20
739.203069438542
 30
0.0
 10
1639.870446564222
 20
739.2069925029427
 30
0.0
 10
1639.68798520867
 20
739.2148529626792
 30
0.0
 10
1639.38678140718
 20
739.2278288629564
 30
0.0
 10
1639.084086288824
 20
739.2408690093646
 30
0.0
 10
1638.900220743892
 20
739.2487899617684
 30
0.0
 10
1638.807880388985
 20
739.2527679966767
 30
0.0
  0
SPLINE
  5
2A3
330
1F
100
AcDbEntity
  8
0
  6
Continuous
 62
     7
370
    25
100
AcDbSpline
210
0.0
220
0.0
230
1.0
 70
    24
 71
     3
 72
    11
 73
     7
 74
     0
 42
0.00000001
 43
0.00000001
 40
0.0
 40
0.0
 40
0.0
 40
0.0
 40
0.2486745500102605
 40
0.4982576581286182
 40
0.7480167312295178
 40
1.0
 40
1.0
 40
1.0
 40
1.0
 10
1638.807880388894
 20
739.2527679965735
 30
0.0
 10
1638.758950785073
 20
739.1758655584923
 30
0.0
 10
1638.660912808079
 20
739.0217797113435
 30
0.0
 10
1638.499073460796
 20
738.7674175376965
 30
0.0
 10
1638.336432745299
 20
738.5117958572351
 30
0.0
 10
1638.237640171037
 20
738.3565240129578
 30
0.0
 10
1638.188024912935
 20
738.2785439351292
 30
0.0
  0
SPLINE
  5
2A4
330
1F
100
AcDbEntity
  8
0
  6
Continuous
 62
     7
370
    25
100
AcDbSpline
210
0.0
220
0.0
230
1.0
 70
    24
 71
     3
 72
    11
 73
     7
 74
     0
 42
0.00000001
 43
0.00000001
 40
0.0
 40
0.0
 40
0.0
 40
0.0
 40
0.2486745532729975
 40
0.4982576624082952
 40
0.748016731357458
 40
1.0
 40
1.0
 40
1.0
 40
1.0
 10
1638.188024912974
 20
738.2785439349927
 30
0.0
 10
1638.230159576622
 20
738.1977184349586
 30
0.0
 10
1638.314582846873
 20
738.0357721313263
 30
0.0
 10
1638.453947277536
 20
737.7684340581093
 30
0.0
 10
1638.594001788075
 20
737.4997722280056
 30
0.0
 10
1638.679074861864
 20
737.3365794282272
 30
0.0
 10
1638.721799961184
 20
737.2546213154149
 30
0.0
  0
SPLINE
  5
2A5
330
1F
100
AcDbEntity
  8
0
  6
Continuous
 62
     7
370
    25
100
AcDbSpline
210
0.0
220
0.0
230
1.0
 70
    24
 71
     3
 72
    11
 73
     7
 74
     0
 42
0.00000001
 43
0.00000001
 40
0.0
 40
0.0
 40
0.0
 40
0.0
 40
0.2486747685389769
 40
0.4982579447672024
 40
0.7480167397896911
 40
1.0
 40
1.0
 40
1.0
 40
1.0
 10
1638.721799961292
 20
737.2546213153821
 30
0.0
 10
1638.812864310262
 20
737.2506982509813
 30
0.0
 10
1638.995325665814
 20
737.2428377912448
 30
0.0
 10
1639.296529467303
 20
737.2298618909676
 30
0.0
 10
1639.599224585659
 20
737.2168217445595
 30
0.0
 10
1639.783090130591
 20
737.2089007921558
 30
0.0
 10
1639.875430485499
 20
737.2049227572473
 30
0.0
  0
SPLINE
  5
2A6
330
1F
100
AcDbEntity
  8
0
  6
Continuous
 62
     7
370
    25
100
AcDbSpline
210
0.0
220
0.0
230
1.0
 70
    24
 71
     3
 72
    11
 73
     7
 74
     0
 42
0.00000001
 43
0.00000001
 40
0.0
 40
0.0
 40
0.0
 40
0.0
 40
0.2486745500102599
 40
0.4982576581286169
 40
0.7480167312295178
 40
1.0
 40
1.0
 40
1.0
 40
1.0
 10
1639.875430485589
 20
737.2049227573505
 30
0.0
 10
1639.92436008941
 20
737.2818251954316
 30
0.0
 10
1640.022398066404
 20
737.4359110425805
 30
0.0
 10
1640.184237413688
 20
737.6902732162276
 30
0.0
 10
1640.346878129185
 20
737.9458948966889
 30
0.0
 10
1640.445670703446
 20
738.1011667409662
 30
0.0
 10
1640.495285961548
 20
738.1791468187948
 30
0.0
  0
SPLINE
  5
2A7
330
1F
100
AcDbEntity
  8
0
  6
Continuous
 62
     7
370
    25
100
AcDbSpline
210
0.0
220
0.0
230
1.0
 70
    11
 71
     3
 72
    23
 73
    19
 74
     0
 42
0.00000001
 43
0.00000001
 40
0.0
 40
0.0
 40
0.0
 40
0.0
 40
0.0625
 40
0.125
 40
0.1875
 40
0.2500000000000001
 40
0.3125000000000001
 40
0.375
 40
0.4374999999999998
 40
0.4999999999999999
 40
0.5624999999999999
 40
0.6249999999999999
 40
0.6874999999999999
 40
0.7499999999999999
 40
0.8125
 40
0.875
 40
0.9375
 40
0.9999999999999999
 40
0.9999999999999999
 40
0.9999999999999999
 40
0.9999999999999999
 10
1639.382538910154
 20
739.2180008458558
 30
0.0
 10
1639.252461675554
 20
739.2084839875308
 30
0.0
 10
1638.992307206355
 20
739.1894502708808
 30
0.0
 10
1638.653592851054
 20
738.9743058519356
 30
0.0
 10
1638.420076660272
 20
738.6564837069736
 30
0.0
 10
1638.326742744659
 20
738.2706604648668
 30
0.0
 10
1638.387952171177
 20
737.8792475328063
 30
0.0
 10
1638.594345674538
 20
737.5408496288571
 30
0.0
 10
1638.914512630295
 20
737.3072488609309
 30
0.0
 10
1639.299707544806
 20
737.2139368025425
 30
0.0
 10
1639.691288976455
 20
737.2751433773077
 30
0.0
 10
1640.029641209649
 20
737.4815264304556
 30
0.0
 10
1640.263256161006
 20
737.8017380388168
 30
0.0
 10
1640.356557156427
 20
738.186764793124
 30
0.0
 10
1640.2953806501
 20
738.5789742129842
 30
0.0
 10
1640.088888386165
 20
738.914982653534
 30
0.0
 10
1639.769083552514
 20
739.1573447872577
 30
0.0
 10
1639.511387124274
 20
739.1977821596565
 30
0.0
 10
1639.382538910154
 20
739.2180008458558
 30
0.0
  0
SPLINE
  5
2A8
330
1F
100
AcDbEntity
  8
0
  6
Continuous
 62
     7
370
    25
100
AcDbSpline
210
0.0
220
0.0
230
1.0
 70
    11
 71
     3
 72
    23
 73
    19
 74
     0
 42
0.00000001
 43
0.00000001
 40
0.0
 40
0.0
 40
0.0
 40
0.0
 40
0.0624999999999998
 40
0.1249999999999997
 40
0.1874999999999998
 40
0.2499999999999998
 40
0.3124999999999996
 40
0.3749999999999998
 40
0.4374999999999999
 40
0.4999999999999999
 40
0.5624999999999997
 40
0.6249999999999996
 40
0.6874999999999997
 40
0.7499999999999997
 40
0.8124999999999994
 40
0.8749999999999997
 40
0.9374999999999993
 40
0.9999999999999999
 40
0.9999999999999999
 40
0.9999999999999999
 40
0.9999999999999999
 10
1604.461486223902
 20
765.4141099584209
 30
0.0
 10
1604.383828762649
 20
765.274529509806
 30
0.0
 10
1604.228513840142
 20
764.9953686125763
 30
0.0
 10
1603.814844230355
 20
764.7300864710631
 30
0.0
 10
1603.341376124614
 20
764.6346127113205
 30
0.0
 10
1602.864670781943
 20
764.7299232127433
 30
0.0
 10
1602.461460859815
 20
764.9997819795154
 30
0.0
 10
1602.192017020262
 20
765.403567939591
 30
0.0
 10
1602.097658628964
 20
765.8796842611671
 30
0.0
 10
1602.192669354648
 20
766.3556803902098
 30
0.0
 10
1602.462611855931
 20
766.7590789510147
 30
0.0
 10
1602.8663626537
 20
767.0284774494896
 30
0.0
 10
1603.342535889992
 20
767.1228285664246
 30
0.0
 10
1603.818339522479
 20
767.027892279271
 30
0.0
 10
1604.222451154791
 20
766.7576592982294
 30
0.0
 10
1604.489189863794
 20
766.3549959809618
 30
0.0
 10
1604.59346706711
 20
765.8747633024238
 30
0.0
 10
1604.505479838305
 20
765.5676610730886
 30
0.0
 10
1604.461486223902
 20
765.4141099584209
 30
0.0
  0
SPLINE
  5
2A9
330
1F
100
AcDbEntity
  8
0
  6
Continuous
 62
     7
370
    25
100
AcDbSpline
210
0.0
220
0.0
230
1.0
 70
    11
 71
     3
 72
    23
 73
    19
 74
     0
 42
0.00000001
 43
0.00000001
 40
0.0
 40
0.0
 40
0.0
 40
0.0
 40
0.0625000000000001
 40
0.125
 40
0.1875000000000002
 40
0.2500000000000002
 40
0.3125000000000001
 40
0.3750000000000001
 40
0.4375000000000001
 40
0.5
 40
0.5625000000000001
 40
0.625
 40
0.6874999999999999
 40
0.7500000000000002
 40
0.8125
 40
0.875
 40
0.9374999999999999
 40
1.0
 40
1.0
 40
1.0
 40
1.0
 10
1606.112518034922
 20
764.7289234384048
 30
0.0
 10
1605.920365651383
 20
764.3835513973414
 30
0.0
 10
1605.536060884304
 20
763.6928073152147
 30
0.0
 10
1604.512494053306
 20
763.0364042474416
 30
0.0
 10
1603.340964317724
 20
762.8001679579216
 30
0.0
 10
1602.161424498088
 20
763.0360002878632
 30
0.0
 10
1601.163738682028
 20
763.7037275663166
 30
0.0
 10
1600.497038082181
 20
764.7028387066505
 30
0.0
 10
1600.263561613826
 20
765.8809210770542
 30
0.0
 10
1600.498652191181
 20
767.058706048066
 30
0.0
 10
1601.166586658817
 20
768.0568586238005
 30
0.0
 10
1602.165610795006
 20
768.723447033574
 30
0.0
 10
1603.343833992808
 20
768.9569055025484
 30
0.0
 10
1604.521142658371
 20
768.7219991127885
 30
0.0
 10
1605.521059628504
 20
768.0533458941533
 30
0.0
 10
1606.181066766131
 20
767.057012574365
 30
0.0
 10
1606.439085929295
 20
765.868744861961
 30
0.0
 10
1606.221373999713
 20
765.1088639129235
 30
0.0
 10
1606.112518034922
 20
764.7289234384048
 30
0.0
  0
SPLINE
  5
2AA
330
1F
100
AcDbEntity
  8
0
  6
Continuous
 62
     7
370
    25
100
AcDbSpline
210
0.0
220
0.0
230
1.0
 70
    24
 71
     3
 72
    11
 73
     7
 74
     0
 42
0.00000001
 43
0.00000001
 40
0.0
 40
0.0
 40
0.0
 40
0.0
 40
0.248674553272999
 40
0.4982576624082977
 40
0.7480167313574563
 40
1.0
 40
1.0
 40
1.0
 40
1.0
 10
1602.897189548653
 20
764.8131139815945
 30
0.0
 10
1602.987587025638
 20
764.824792487114
 30
0.0
 10
1603.168712255291
 20
764.8481921666712
 30
0.0
 10
1603.46771055794
 20
764.8868199408557
 30
0.0
 10
1603.76818938694
 20
764.925638985148
 30
0.0
 10
1603.950708732393
 20
764.9492187713809
 30
0.0
 10
1604.042372954867
 20
764.9610609285274
 30
0.0
  0
SPLINE
  5
2AB
330
1F
100
AcDbEntity
  8
0
  6
Continuous
 62
     7
370
    25
100
AcDbSpline
210
0.0
220
0.0
230
1.0
 70
    24
 71
     3
 72
    11
 73
     7
 74
     0
 42
0.00000001
 43
0.00000001
 40
0.0
 40
0.0
 40
0.0
 40
0.0
 40
0.2486747685389739
 40
0.4982579447672025
 40
0.7480167397896885
 40
1.0
 40
1.0
 40
1.0
 40
1.0
 10
1604.042372954935
 20
764.9610609286169
 30
0.0
 10
1604.077457842116
 20
765.0451867675672
 30
0.0
 10
1604.147755781397
 20
765.2137457567377
 30
0.0
 10
1604.263802307983
 20
765.4919997911867
 30
0.0
 10
1604.380423402824
 20
765.7716315138736
 30
0.0
 10
1604.451262342249
 20
765.9414877023426
 30
0.0
 10
1604.4868388436
 20
766.0267923238927
 30
0.0
  0
SPLINE
  5
2AC
330
1F
100
AcDbEntity
  8
0
  6
Continuous
 62
     7
370
    25
100
AcDbSpline
210
0.0
220
0.0
230
1.0
 70
    24
 71
     3
 72
    11
 73
     7
 74
     0
 42
0.00000001
 43
0.00000001
 40
0.0
 40
0.0
 40
0.0
 40
0.0
 40
0.2486745500102612
 40
0.4982576581286188
 40
0.7480167312295178
 40
1.0
 40
1.0
 40
1.0
 40
1.0
 10
1604.486838843535
 20
766.0267923240133
 30
0.0
 10
1604.431526223328
 20
766.0992395817859
 30
0.0
 10
1604.320698892554
 20
766.2443987908572
 30
0.0
 10
1604.13774710771
 20
766.4840250292654
 30
0.0
 10
1603.953889413718
 20
766.724837807621
 30
0.0
 10
1603.842209046156
 20
766.8711143055823
 30
0.0
 10
1603.786121325972
 20
766.9445767723199
 30
0.0
  0
SPLINE
  5
2AD
330
1F
100
AcDbEntity
  8
0
  6
Continuous
 62
     7
370
    25
100
AcDbSpline
210
0.0
220
0.0
230
1.0
 70
    24
 71
     3
 72
    11
 73
     7
 74
     0
 42
0.00000001
 43
0.00000001
 40
0.0
 40
0.0
 40
0.0
 40
0.0
 40
0.248674553272999
 40
0.4982576624082977
 40
0.7480167313574563
 40
1.0
 40
1.0
 40
1.0
 40
1.0
 10
1603.78612132583
 20
766.94457677233
 30
0.0
 10
1603.695723848845
 20
766.9328982668104
 30
0.0
 10
1603.514598619193
 20
766.9094985872533
 30
0.0
 10
1603.215600316544
 20
766.8708708130688
 30
0.0
 10
1602.915121487543
 20
766.8320517687764
 30
0.0
 10
1602.732602142091
 20
766.8084719825437
 30
0.0
 10
1602.640937919616
 20
766.796629825397
 30
0.0
  0
SPLINE
  5
2AE
330
1F
100
AcDbEntity
  8
0
  6
Continuous
 62
     7
370
    25
100
AcDbSpline
210
0.0
220
0.0
230
1.0
 70
    24
 71
     3
 72
    11
 73
     7
 74
     0
 42
0.00000001
 43
0.00000001
 40
0.0
 40
0.0
 40
0.0
 40
0.0
 40
0.2486747685389739
 40
0.4982579447671999
 40
0.7480167397896885
 40
1.0
 40
1.0
 40
1.0
 40
1.0
 10
1602.640937919549
 20
766.7966298253076
 30
0.0
 10
1602.605853032367
 20
766.7125039863573
 30
0.0
 10
1602.535555093087
 20
766.5439449971867
 30
0.0
 10
1602.4195085665
 20
766.2656909627378
 30
0.0
 10
1602.30288747166
 20
765.9860592400511
 30
0.0
 10
1602.232048532235
 20
765.8162030515819
 30
0.0
 10
1602.196472030883
 20
765.7308984300319
 30
0.0
  0
SPLINE
  5
2AF
330
1F
100
AcDbEntity
  8
0
  6
Continuous
 62
     7
370
    25
100
AcDbSpline
210
0.0
220
0.0
230
1.0
 70
    24
 71
     3
 72
    11
 73
     7
 74
     0
 42
0.00000001
 43
0.00000001
 40
0.0
 40
0.0
 40
0.0
 40
0.0
 40
0.2486745500102605
 40
0.4982576581286172
 40
0.7480167312295155
 40
1.0
 40
1.0
 40
1.0
 40
1.0
 10
1602.196472030949
 20
765.7308984299111
 30
0.0
 10
1602.251784651155
 20
765.6584511721386
 30
0.0
 10
1602.362611981929
 20
765.5132919630673
 30
0.0
 10
1602.545563766774
 20
765.2736657246592
 30
0.0
 10
1602.729421460765
 20
765.0328529463035
 30
0.0
 10
1602.841101828327
 20
764.8865764483422
 30
0.0
 10
1602.897189548511
 20
764.8131139816047
 30
0.0
  0
SPLINE
  5
2B0
330
1F
100
AcDbEntity
  8
0
  6
Continuous
 62
     7
370
    25
100
AcDbSpline
210
0.0
220
0.0
230
1.0
 70
    11
 71
     3
 72
    23
 73
    19
 74
     0
 42
0.00000001
 43
0.00000001
 40
0.0
 40
0.0
 40
0.0
 40
0.0
 40
0.0624999999999995
 40
0.1249999999999998
 40
0.1874999999999995
 40
0.2499999999999999
 40
0.3125000000000001
 40
0.3749999999999999
 40
0.4375000000000001
 40
0.4999999999999997
 40
0.5624999999999998
 40
0.6250000000000001
 40
0.6874999999999999
 40
0.7500000000000002
 40
0.8125000000000004
 40
0.8750000000000003
 40
0.9375000000000004
 40
1.0
 40
1.0
 40
1.0
 40
1.0
 10
1604.256040094476
 20
765.4993711372383
 30
0.0
 10
1604.291962562857
 20
765.6247514938294
 30
0.0
 10
1604.363807499619
 20
765.8755122070119
 30
0.0
 10
1604.278661175775
 20
766.2676405521051
 30
0.0
 10
1604.060858820358
 20
766.5964305476352
 30
0.0
 10
1603.730886220214
 20
766.8170861097849
 30
0.0
 10
1603.342374360579
 20
766.8946052184057
 30
0.0
 10
1602.953560705304
 20
766.8175639236441
 30
0.0
 10
1602.623882740362
 20
766.5975897484188
 30
0.0
 10
1602.403464366042
 20
766.2681993984265
 30
0.0
 10
1602.325884475515
 20
765.8795303579926
 30
0.0
 10
1602.402931710072
 20
765.4907631757594
 30
0.0
 10
1602.622942908021
 20
765.1610564994492
 30
0.0
 10
1602.952179227321
 20
764.9407064975596
 30
0.0
 10
1603.341427367801
 20
764.8628818286788
 30
0.0
 10
1603.728032180543
 20
764.9408398042204
 30
0.0
 10
1604.065809234772
 20
765.1574528165855
 30
0.0
 10
1604.192629807908
 20
765.3853983636874
 30
0.0
 10
1604.256040094476
 20
765.4993711372383
 30
0.0
  0
SPLINE
  5
2B1
330
1F
100
AcDbEntity
  8
0
  6
Continuous
 62
     7
370
    25
100
AcDbSpline
210
0.0
220
0.0
230
1.0
 70
    11
 71
     3
 72
    23
 73
    19
 74
     0
 42
0.00000001
 43
0.00000001
 40
0.0
 40
0.0
 40
0.0
 40
0.0
 40
0.0625000000000001
 40
0.1249999999999997
 40
0.1875000000000001
 40
0.2500000000000001
 40
0.3125000000000002
 40
0.3750000000000001
 40
0.4374999999999997
 40
0.5000000000000001
 40
0.5625000000000001
 40
0.6249999999999998
 40
0.6875000000000001
 40
0.7500000000000002
 40
0.8125000000000002
 40
0.8750000000000001
 40
0.9374999999999998
 40
1.0
 40
1.0
 40
1.0
 40
1.0
 10
1602.19902034696
 20
739.4328616688038
 30
0.0
 10
1602.358748418353
 20
739.4334327492536
 30
0.0
 10
1602.678204561139
 20
739.4345749101532
 30
0.0
 10
1603.11197071187
 20
739.2036115209602
 30
0.0
 10
1603.426904285112
 20
738.8374092129411
 30
0.0
 10
1603.577036308639
 20
738.3750322553364
 30
0.0
 10
1603.538980854831
 20
737.8913445691771
 30
0.0
 10
1603.31867346409
 20
737.4587850497904
 30
0.0
 10
1602.949615857421
 20
737.1435284231521
 30
0.0
 10
1602.488004095964
 20
736.9934819818657
 30
0.0
 10
1602.004110923865
 20
737.031518160107
 30
0.0
 10
1601.571608152089
 20
737.2518170708732
 30
0.0
 10
1601.25633002095
 20
737.6209278730087
 30
0.0
 10
1601.106312850055
 20
738.0823353325748
 30
0.0
 10
1601.14425345123
 20
738.5669925167728
 30
0.0
 10
1601.364905399868
 20
738.9966435420431
 30
0.0
 10
1601.732699627583
 20
739.3225646471082
 30
0.0
 10
1602.043580107168
 20
739.3960959949052
 30
0.0
 10
1602.19902034696
 20
739.4328616688038
 30
0.0
  0
SPLINE
  5
2B2
330
1F
100
AcDbEntity
  8
0
  6
Continuous
 62
     7
370
    25
100
AcDbSpline
210
0.0
220
0.0
230
1.0
 70
    11
 71
     3
 72
    23
 73
    19
 74
     0
 42
0.00000001
 43
0.00000001
 40
0.0
 40
0.0
 40
0.0
 40
0.0
 40
0.0624999999999998
 40
0.1249999999999998
 40
0.1874999999999999
 40
0.2499999999999998
 40
0.3124999999999998
 40
0.3749999999999999
 40
0.4374999999999997
 40
0.4999999999999998
 40
0.5624999999999997
 40
0.6249999999999996
 40
0.6874999999999997
 40
0.7499999999999998
 40
0.8124999999999999
 40
0.8749999999999998
 40
0.9374999999999996
 40
1.0
 40
1.0
 40
1.0
 40
1.0
 10
1601.988725118227
 20
741.2080130778342
 30
0.0
 10
1602.383949596867
 20
741.2094261354832
 30
0.0
 10
1603.174398554146
 20
741.2122522507814
 30
0.0
 10
1604.24769142796
 20
740.6407660725375
 30
0.0
 10
1605.026949927766
 20
739.7346503534833
 30
0.0
 10
1605.398430345755
 20
738.5905640923108
 30
0.0
 10
1605.304267517898
 20
737.393747453135
 30
0.0
 10
1604.759148097831
 20
736.3234402175987
 30
0.0
 10
1603.845967346873
 20
735.5433823679411
 30
0.0
 10
1602.703774455136
 20
735.1721137110796
 30
0.0
 10
1601.506449370122
 20
735.2662288442793
 30
0.0
 10
1600.436282548505
 20
735.8113272818496
 30
0.0
 10
1599.656171489008
 20
736.7246396574512
 30
0.0
 10
1599.284975257583
 20
737.8663270331078
 30
0.0
 10
1599.378853898877
 20
739.0655425577994
 30
0.0
 10
1599.924825878634
 20
740.1286531367884
 30
0.0
 10
1600.834880577395
 20
740.9350987271196
 30
0.0
 10
1601.604110271283
 20
741.117041627596
 30
0.0
 10
1601.988725118227
 20
741.2080130778342
 30
0.0
  0
SPLINE
  5
2B3
330
1F
100
AcDbEntity
  8
0
  6
Continuous
 62
     7
370
    25
100
AcDbSpline
210
0.0
220
0.0
230
1.0
 70
    24
 71
     3
 72
    11
 73
     7
 74
     0
 42
0.00000001
 43
0.00000001
 40
0.0
 40
0.0
 40
0.0
 40
0.0
 40
0.2486745532729984
 40
0.4982576624082932
 40
0.7480167313574566
 40
1.0
 40
1.0
 40
1.0
 40
1.0
 10
1603.48857296392
 20
738.3626867763455
 30
0.0
 10
1603.434156176825
 20
738.4358093078846
 30
0.0
 10
1603.325123785786
 20
738.5823215310071
 30
0.0
 10
1603.145135056899
 20
738.8241812990526
 30
0.0
 10
1602.964255091996
 20
739.0672386650674
 30
0.0
 10
1602.854383481709
 20
739.2148785886524
 30
0.0
 10
1602.799204148778
 20
739.2890257907911
 30
0.0
  0
SPLINE
  5
2B4
330
1F
100
AcDbEntity
  8
0
  6
Continuous
 62
     7
370
    25
100
AcDbSpline
210
0.0
220
0.0
230
1.0
 70
    24
 71
     3
 72
    11
 73
     7
 74
     0
 42
0.00000001
 43
0.00000001
 40
0.0
 40
0.0
 40
0.0
 40
0.0
 40
0.2486747685389767
 40
0.4982579447672021
 40
0.748016739789689
 40
1.0
 40
1.0
 40
1.0
 40
1.0
 10
1602.799204148667
 20
739.2890257908066
 30
0.0
 10
1602.708669704845
 20
739.27846072718
 30
0.0
 10
1602.527270095329
 20
739.2572920058019
 30
0.0
 10
1602.227819004387
 20
739.2223470755047
 30
0.0
 10
1601.92688527458
 20
739.1872291262625
 30
0.0
 10
1601.744089646689
 20
739.165897494258
 30
0.0
 10
1601.652286622031
 20
739.1551843915352
 30
0.0
  0
SPLINE
  5
2B5
330
1F
100
AcDbEntity
  8
0
  6
Continuous
 62
     7
370
    25
100
AcDbSpline
210
0.0
220
0.0
230
1.0
 70
    24
 71
     3
 72
    11
 73
     7
 74
     0
 42
0.00000001
 43
0.00000001
 40
0.0
 40
0.0
 40
0.0
 40
0.0
 40
0.2486745500102586
 40
0.498257658128617
 40
0.7480167312295171
 40
1.0
 40
1.0
 40
1.0
 40
1.0
 10
1601.652286621958
 20
739.1551843914191
 30
0.0
 10
1601.61616904609
 20
739.0714968067587
 30
0.0
 10
1601.543801935066
 20
738.9038158762186
 30
0.0
 10
1601.424339596369
 20
738.6270111809107
 30
0.0
 10
1601.304285724633
 20
738.3488358517739
 30
0.0
 10
1601.231361604724
 20
738.1798642828929
 30
0.0
 10
1601.194737910503
 20
738.095003977707
 30
0.0
  0
SPLINE
  5
2B6
330
1F
100
AcDbEntity
  8
0
  6
Continuous
 62
     7
370
    25
100
AcDbSpline
210
0.0
220
0.0
230
1.0
 70
    24
 71
     3
 72
    11
 73
     7
 74
     0
 42
0.00000001
 43
0.00000001
 40
0.0
 40
0.0
 40
0.0
 40
0.0
 40
0.2486745532729978
 40
0.4982576624082926
 40
0.7480167313574566
 40
1.0
 40
1.0
 40
1.0
 40
1.0
 10
1601.194737910563
 20
738.0950039775785
 30
0.0
 10
1601.249154697659
 20
738.0218814460394
 30
0.0
 10
1601.358187088698
 20
737.8753692229169
 30
0.0
 10
1601.538175817584
 20
737.6335094548714
 30
0.0
 10
1601.719055782487
 20
737.3904520888566
 30
0.0
 10
1601.828927392775
 20
737.2428121652717
 30
0.0
 10
1601.884106725705
 20
737.1686649631329
 30
0.0
  0
SPLINE
  5
2B7
330
1F
100
AcDbEntity
  8
0
  6
Continuous
 62
     7
370
    25
100
AcDbSpline
210
0.0
220
0.0
230
1.0
 70
    24
 71
     3
 72
    11
 73
     7
 74
     0
 42
0.00000001
 43
0.00000001
 40
0.0
 40
0.0
 40
0.0
 40
0.0
 40
0.2486747685389766
 40
0.498257944767202
 40
0.7480167397896889
 40
1.0
 40
1.0
 40
1.0
 40
1.0
 10
1601.884106725816
 20
737.1686649631174
 30
0.0
 10
1601.974641169638
 20
737.179230026744
 30
0.0
 10
1602.156040779154
 20
737.2003987481221
 30
0.0
 10
1602.455491870096
 20
737.2353436784193
 30
0.0
 10
1602.756425599904
 20
737.2704616276616
 30
0.0
 10
1602.939221227795
 20
737.2917932596658
 30
0.0
 10
1603.031024252452
 20
737.3025063623888
 30
0.0
  0
SPLINE
  5
2B8
330
1F
100
AcDbEntity
  8
0
  6
Continuous
 62
     7
370
    25
100
AcDbSpline
210
0.0
220
0.0
230
1.0
 70
    24
 71
     3
 72
    11
 73
     7
 74
     0
 42
0.00000001
 43
0.00000001
 40
0.0
 40
0.0
 40
0.0
 40
0.0
 40
0.2486745500102586
 40
0.4982576581286163
 40
0.748016731229517
 40
1.0
 40
1.0
 40
1.0
 40
1.0
 10
1603.031024252525
 20
737.3025063625049
 30
0.0
 10
1603.067141828394
 20
737.3861939471653
 30
0.0
 10
1603.139508939417
 20
737.5538748777054
 30
0.0
 10
1603.258971278114
 20
737.8306795730134
 30
0.0
 10
1603.379025149851
 20
738.10885490215
 30
0.0
 10
1603.451949269759
 20
738.2778264710311
 30
0.0
 10
1603.488572963981
 20
738.362686776217
 30
0.0
  0
SPLINE
  5
2B9
330
1F
100
AcDbEntity
  8
0
  6
Continuous
 62
     7
370
    25
100
AcDbSpline
210
0.0
220
0.0
230
1.0
 70
    11
 71
     3
 72
    23
 73
    19
 74
     0
 42
0.00000001
 43
0.00000001
 40
0.0
 40
0.0
 40
0.0
 40
0.0
 40
0.0624999999999997
 40
0.1249999999999996
 40
0.1874999999999996
 40
0.2499999999999997
 40
0.3124999999999998
 40
0.375
 40
0.4374999999999993
 40
0.4999999999999999
 40
0.5624999999999997
 40
0.6249999999999996
 40
0.6874999999999997
 40
0.7499999999999997
 40
0.8124999999999999
 40
0.8750000000000001
 40
0.9374999999999993
 40
1.0
 40
1.0
 40
1.0
 40
1.0
 10
1602.225188431967
 20
739.2119707182499
 30
0.0
 10
1602.098265532475
 20
739.1819501396712
 30
0.0
 10
1601.844419733492
 20
739.1219089825139
 30
0.0
 10
1601.544101682901
 20
738.8557819377047
 30
0.0
 10
1601.363930929581
 20
738.5049554466383
 30
0.0
 10
1601.332950977954
 20
738.10921432349
 30
0.0
 10
1601.455445734325
 20
737.7324574895234
 30
0.0
 10
1601.712882383959
 20
737.431064405575
 30
0.0
 10
1602.066037435092
 20
737.2511819211768
 30
0.0
 10
1602.461154713147
 20
737.2201239272208
 30
0.0
 10
1602.83807836742
 20
737.342642583985
 30
0.0
 10
1603.139428015236
 20
737.6000616743721
 30
0.0
 10
1603.319317423858
 20
737.953263062099
 30
0.0
 10
1603.350391157051
 20
738.3482125530271
 30
0.0
 10
1603.227802619115
 20
738.725761019214
 30
0.0
 10
1602.970647314179
 20
739.0247792065019
 30
0.0
 10
1602.61646066582
 20
739.2133696453224
 30
0.0
 10
1602.355612509918
 20
739.2124370272741
 30
0.0
 10
1602.225188431967
 20
739.2119707182499
 30
0.0
  0
SPLINE
  5
2BA
330
1F
100
AcDbEntity
  8
0
  6
Continuous
 62
     7
370
    25
100
AcDbSpline
210
0.0
220
0.0
230
1.0
 70
     8
 71
     3
 72
    15
 73
    11
 74
     0
 42
0.00000001
 43
0.00000001
 40
0.0
 40
0.0
 40
0.0
 40
0.0
 40
0.1270967417357876
 40
0.2498927719508213
 40
0.3727455390254225
 40
0.50005315558143
 40
0.6272312236551925
 40
0.7500762253543366
 40
0.8728972787650099
 40
0.9999999999999999
 40
0.9999999999999999
 40
0.9999999999999999
 40
0.9999999999999999
 10
1622.370996980659
 20
765.0922025852901
 30
0.0
 10
1622.191981624799
 20
765.0714645519886
 30
0.0
 10
1621.840008451555
 20
765.0306902209101
 30
0.0
 10
1621.397311978419
 20
764.7196455762779
 30
0.0
 10
1621.09782376541
 20
764.2797641577656
 30
0.0
 10
1620.990991544518
 20
763.7476225363084
 30
0.0
 10
1621.097910324061
 20
763.2155242833803
 30
0.0
 10
1621.397378524826
 20
762.7758470510672
 30
0.0
 10
1621.839956866863
 20
762.4645961951795
 30
0.0
 10
1622.191973372807
 20
762.4237437076291
 30
0.0
 10
1622.370996980659
 20
762.4029675235937
 30
0.0
  0
SPLINE
  5
2BB
330
1F
100
AcDbEntity
  8
0
  6
Continuous
 62
     7
370
    25
100
AcDbSpline
210
0.0
220
0.0
230
1.0
 70
     8
 71
     3
 72
    15
 73
    11
 74
     0
 42
0.00000001
 43
0.00000001
 40
0.0
 40
0.0
 40
0.0
 40
0.0
 40
0.1273016126698156
 40
0.2501037668766787
 40
0.3728526561414818
 40
0.4999468598495829
 40
0.6271705416842464
 40
0.7499271930627103
 40
0.8727043503099498
 40
1.0
 40
1.0
 40
1.0
 40
1.0
 10
1622.370996980659
 20
762.4029675235937
 30
0.0
 10
1622.550418706471
 20
762.4236984186955
 30
0.0
 10
1622.902920521208
 20
762.4644274781863
 30
0.0
 10
1623.346055810682
 20
762.7757003305012
 30
0.0
 10
1623.645392174645
 20
763.215573544935
 30
0.0
 10
1623.75204899985
 20
763.747622573755
 30
0.0
 10
1623.64547867104
 20
764.2797148188677
 30
0.0
 10
1623.346122326852
 20
764.7197923109773
 30
0.0
 10
1622.9028688522
 20
765.030858768441
 30
0.0
 10
1622.550410427254
 20
765.0715098090839
 30
0.0
 10
1622.370996980659
 20
765.0922025852901
 30
0.0
  0
CIRCLE
  5
2BC
330
1F
100
AcDbEntity
  8
0
  6
Continuous
 62
     7
370
    25
100
AcDbCircle
 10
1638.3416554372
 20
765.878845377
 30
0.0
 40
3.470000000000027
  0
LINE
  5
2BD
330
1F
100
AcDbEntity
  8
0
  6
Continuous
 62
     7
370
    25
100
AcDbLine
 10
1643.3416554372
 20
773.628845377
 30
0.0
 11
1643.0416554372
 21
773.628845377
 31
0.0
  0
LINE
  5
2BE
330
1F
100
AcDbEntity
  8
0
  6
Continuous
 62
     7
370
    25
100
AcDbLine
 10
1643.0416554372
 20
773.628845377
 30
0.0
 11
1643.0416554372
 21
781.228845377
 31
0.0
  0
LINE
  5
2BF
330
1F
100
AcDbEntity
  8
0
  6
Continuous
 62
     7
370
    25
100
AcDbLine
 10
1643.3416554372
 20
781.228845377
 30
0.0
 11
1643.0416554372
 21
781.228845377
 31
0.0
  0
LINE
  5
2C0
330
1F
100
AcDbEntity
  8
0
  6
Continuous
 62
     7
370
    25
100
AcDbLine
 10
1643.3416554372
 20
781.228845377
 30
0.0
 11
1643.3416554372
 21
773.628845377
 31
0.0
  0
LINE
  5
2C1
330
1F
100
AcDbEntity
  8
0
  6
Continuous
 62
     7
370
    25
100
AcDbLine
 10
1643.0416554372
 20
773.328845377
 30
0.0
 11
1643.0416554372
 21
773.628845377
 31
0.0
  0
ARC
  5
2C2
330
1F
100
AcDbEntity
  8
0
  6
Continuous
 62
     7
370
    25
100
AcDbCircle
 10
1643.0416554372
 20
773.628845377
 30
0.0
 40
0.3000000000000682
100
AcDbArc
 50
270.0
 51
0.0
  0
LINE
  5
2C3
330
1F
100
AcDbEntity
  8
0
  6
Continuous
 62
     7
370
    25
100
AcDbLine
 10
1643.0416554372
 20
773.328845377
 30
0.0
 11
1640.8416554372
 21
773.328845377
 31
0.0
  0
LINE
  5
2C4
330
1F
100
AcDbEntity
  8
0
  6
Continuous
 62
     7
370
    25
100
AcDbLine
 10
1640.8416554372
 20
773.328845377
 30
0.0
 11
1640.8416554372
 21
773.628845377
 31
0.0
  0
LINE
  5
2C5
330
1F
100
AcDbEntity
  8
0
  6
Continuous
 62
     7
370
    25
100
AcDbLine
 10
1640.8416554372
 20
773.628845377
 30
0.0
 11
1643.0416554372
 21
773.628845377
 31
0.0
  0
CIRCLE
  5
2C6
330
1F
100
AcDbEntity
  8
0
  6
Continuous
 62
     7
370
    25
100
AcDbCircle
 10
1603.3416554372
 20
765.878845377
 30
0.0
 40
3.470000000000027
  0
ARC
  5
2C7
330
1F
100
AcDbEntity
  8
0
  6
Continuous
 62
     7
370
    25
100
AcDbCircle
 10
1640.8416554372
 20
773.028845377
 30
0.0
 40
0.2999999999999545
100
AcDbArc
 50
90.0
 51
180.0
  0
LINE
  5
2C8
330
1F
100
AcDbEntity
  8
0
  6
Continuous
 62
     7
370
    25
100
AcDbLine
 10
1640.5416554372
 20
773.028845377
 30
0.0
 11
1640.2416554372
 21
773.028845377
 31
0.0
  0
ARC
  5
2C9
330
1F
100
AcDbEntity
  8
0
  6
Continuous
 62
     7
370
    25
100
AcDbCircle
 10
1640.8416554372
 20
773.028845377
 30
0.0
 40
0.6000000000000227
100
AcDbArc
 50
90.0
 51
180.0
  0
LINE
  5
2CA
330
1F
100
AcDbEntity
  8
0
  6
Continuous
 62
     7
370
    25
100
AcDbLine
 10
1640.5416554372
 20
773.028845377
 30
0.0
 11
1640.5416554372
 21
771.128845377
 31
0.0
  0
LINE
  5
2CB
330
1F
100
AcDbEntity
  8
0
  6
Continuous
 62
     7
370
    25
100
AcDbLine
 10
1640.5416554372
 20
771.128845377
 30
0.0
 11
1640.2416554372
 21
771.128845377
 31
0.0
  0
LINE
  5
2CC
330
1F
100
AcDbEntity
  8
0
  6
Continuous
 62
     7
370
    25
100
AcDbLine
 10
1640.2416554372
 20
771.128845377
 30
0.0
 11
1640.2416554372
 21
773.028845377
 31
0.0
  0
LINE
  5
2CD
330
1F
100
AcDbEntity
  8
0
  6
Continuous
 62
     7
370
    25
100
AcDbLine
 10
1598.6416554372
 20
773.628845377
 30
0.0
 11
1598.3416554372
 21
773.628845377
 31
0.0
  0
LINE
  5
2CE
330
1F
100
AcDbEntity
  8
0
  6
Continuous
 62
     7
370
    25
100
AcDbLine
 10
1598.3416554372
 20
773.628845377
 30
0.0
 11
1598.3416554372
 21
781.228845377
 31
0.0
  0
LINE
  5
2CF
330
1F
100
AcDbEntity
  8
0
  6
Continuous
 62
     7
370
    25
100
AcDbLine
 10
1598.6416554372
 20
781.228845377
 30
0.0
 11
1598.3416554372
 21
781.228845377
 31
0.0
  0
LINE
  5
2D0
330
1F
100
AcDbEntity
  8
0
  6
Continuous
 62
     7
370
    25
100
AcDbLine
 10
1598.6416554372
 20
781.228845377
 30
0.0
 11
1598.6416554372
 21
773.628845377
 31
0.0
  0
ARC
  5
2D1
330
1F
100
AcDbEntity
  8
0
  6
Continuous
 62
     7
370
    25
100
AcDbCircle
 10
1640.8416554372
 20
771.128845377
 30
0.0
 40
0.2999999999999545
100
AcDbArc
 50
180.0
 51
270.0
  0
LINE
  5
2D2
330
1F
100
AcDbEntity
  8
0
  6
Continuous
 62
     7
370
    25
100
AcDbLine
 10
1640.8416554372
 20
770.828845377
 30
0.0
 11
1640.8416554372
 21
770.528845377
 31
0.0
  0
ARC
  5
2D3
330
1F
100
AcDbEntity
  8
0
  6
Continuous
 62
     7
370
    25
100
AcDbCircle
 10
1640.8416554372
 20
771.128845377
 30
0.0
 40
0.6000000000000227
100
AcDbArc
 50
180.0
 51
270.0
  0
LINE
  5
2D4
330
1F
100
AcDbEntity
  8
0
  6
Continuous
 62
     7
370
    25
100
AcDbLine
 10
1598.6416554372
 20
773.628845377
 30
0.0
 11
1598.6416554372
 21
773.328845377
 31
0.0
  0
ARC
  5
2D5
330
1F
100
AcDbEntity
  8
0
  6
Continuous
 62
     7
370
    25
100
AcDbCircle
 10
1598.6416554372
 20
773.628845377
 30
0.0
 40
0.3000000000000682
100
AcDbArc
 50
180.0
 51
270.0
  0
LINE
  5
2D6
330
1F
100
AcDbEntity
  8
0
  6
Continuous
 62
     7
370
    25
100
AcDbLine
 10
1640.8416554372
 20
770.828845377
 30
0.0
 11
1643.0416554372
 21
770.828845377
 31
0.0
  0
LINE
  5
2D7
330
1F
100
AcDbEntity
  8
0
  6
Continuous
 62
     7
370
    25
100
AcDbLine
 10
1643.0416554372
 20
770.828845377
 30
0.0
 11
1643.0416554372
 21
770.528845377
 31
0.0
  0
LINE
  5
2D8
330
1F
100
AcDbEntity
  8
0
  6
Continuous
 62
     7
370
    25
100
AcDbLine
 10
1643.0416554372
 20
770.528845377
 30
0.0
 11
1640.8416554372
 21
770.528845377
 31
0.0
  0
LINE
  5
2D9
330
1F
100
AcDbEntity
  8
0
  6
Continuous
 62
     7
370
    25
100
AcDbLine
 10
1643.3416554372
 20
770.528845377
 30
0.0
 11
1643.0416554372
 21
770.528845377
 31
0.0
  0
ARC
  5
2DA
330
1F
100
AcDbEntity
  8
0
  6
Continuous
 62
     7
370
    25
100
AcDbCircle
 10
1643.0416554372
 20
770.528845377
 30
0.0
 40
0.3000000000000682
100
AcDbArc
 50
0.0
 51
90.0
  0
ARC
  5
2DB
330
1F
100
AcDbEntity
  8
0
  6
Continuous
 62
     7
370
    25
100
AcDbCircle
 10
1600.8416554372
 20
773.028845377
 30
0.0
 40
0.6000000000000227
100
AcDbArc
 50
0.0
 51
90.0
  0
LINE
  5
2DC
330
1F
100
AcDbEntity
  8
0
  6
Continuous
 62
     7
370
    25
100
AcDbLine
 10
1601.4416554372
 20
773.028845377
 30
0.0
 11
1601.1416554372
 21
773.028845377
 31
0.0
  0
ARC
  5
2DD
330
1F
100
AcDbEntity
  8
0
  6
Continuous
 62
     7
370
    25
100
AcDbCircle
 10
1600.8416554372
 20
773.028845377
 30
0.0
 40
0.2999999999999545
100
AcDbArc
 50
0.0
 51
90.0
  0
LINE
  5
2DE
330
1F
100
AcDbEntity
  8
0
  6
Continuous
 62
     7
370
    25
100
AcDbLine
 10
1600.8416554372
 20
773.628845377
 30
0.0
 11
1600.8416554372
 21
773.328845377
 31
0.0
  0
LINE
  5
2DF
330
1F
100
AcDbEntity
  8
0
  6
Continuous
 62
     7
370
    25
100
AcDbLine
 10
1643.3416554372
 20
770.528845377
 30
0.0
 11
1643.3416554372
 21
756.528845377
 31
0.0
  0
LINE
  5
2E0
330
1F
100
AcDbEntity
  8
0
  6
Continuous
 62
     7
370
    25
100
AcDbLine
 10
1643.3416554372
 20
756.528845377
 30
0.0
 11
1643.0416554372
 21
756.528845377
 31
0.0
  0
LINE
  5
2E1
330
1F
100
AcDbEntity
  8
0
  6
Continuous
 62
     7
370
    25
100
AcDbLine
 10
1643.0416554372
 20
756.528845377
 30
0.0
 11
1643.0416554372
 21
770.528845377
 31
0.0
  0
LINE
  5
2E2
330
1F
100
AcDbEntity
  8
0
  6
Continuous
 62
     7
370
    25
100
AcDbLine
 10
1631.051302081
 20
766.1623814407
 30
0.0
 11
1630.9690092957
 21
766.1623814407
 31
0.0
  0
SPLINE
  5
2E3
330
1F
100
AcDbEntity
  8
0
  6
Continuous
 62
     7
370
    25
100
AcDbSpline
210
0.0
220
0.0
230
1.0
 70
     8
 71
     3
 72
    10
 73
     6
 74
     0
 42
0.00000001
 43
0.00000001
 40
0.0
 40
0.0
 40
0.0
 40
0.0
 40
0.2799745442589708
 40
0.5478590769231928
 40
1.0
 40
1.0
 40
1.0
 40
1.0
 10
1630.969009295722
 20
766.16238144066
 30
0.0
 10
1630.858484175068
 20
766.1545407685472
 30
0.0
 10
1630.642206689061
 20
766.1391980044486
 30
0.0
 10
1630.272766943784
 20
765.9720385722293
 30
0.0
 10
1630.092455650463
 20
765.7474336834518
 30
0.0
 10
1629.979228938888
 20
765.6063927508991
 30
0.0
  0
LINE
  5
2E4
330
1F
100
AcDbEntity
  8
0
  6
Continuous
 62
     7
370
    25
100
AcDbLine
 10
1628.9902249291
 20
766.014813397
 30
0.0
 11
1628.9902249291
 21
764.542114133
 31
0.0
  0
SPLINE
  5
2E5
330
1F
100
AcDbEntity
  8
0
  6
Continuous
 62
     7
370
    25
100
AcDbSpline
210
0.0
220
0.0
230
1.0
 70
     8
 71
     3
 72
     9
 73
     5
 74
     0
 42
0.00000001
 43
0.00000001
 40
0.0
 40
0.0
 40
0.0
 40
0.0
 40
0.547901601531873
 40
1.0
 40
1.0
 40
1.0
 40
1.0
 10
1628.990224929086
 20
764.5421141329653
 30
0.0
 10
1628.913890484819
 20
764.7249993042961
 30
0.0
 10
1628.77456903722
 20
765.0587913042094
 30
0.0
 10
1628.534699861865
 20
765.3286747270922
 30
0.0
 10
1628.426255391845
 20
765.4506885903506
 30
0.0
  0
SPLINE
  5
2E6
330
1F
100
AcDbEntity
  8
0
  6
Continuous
 62
     7
370
    25
100
AcDbSpline
210
0.0
220
0.0
230
1.0
 70
     8
 71
     3
 72
     9
 73
     5
 74
     0
 42
0.00000001
 43
0.00000001
 40
0.0
 40
0.0
 40
0.0
 40
0.0
 40
0.5610087162818735
 40
1.0
 40
1.0
 40
1.0
 40
1.0
 10
1628.426255391845
 20
765.4506885903506
 30
0.0
 10
1628.158913312782
 20
765.6792075598858
 30
0.0
 10
1627.682375121298
 20
766.0865434227752
 30
0.0
 10
1627.062469911735
 20
766.1392456307336
 30
0.0
 10
1626.790336928004
 20
766.1623814406602
 30
0.0
  0
SPLINE
  5
2E7
330
1F
100
AcDbEntity
  8
0
  6
Continuous
 62
     7
370
    25
100
AcDbSpline
210
0.0
220
0.0
230
1.0
 70
     8
 71
     3
 72
     9
 73
     5
 74
     0
 42
0.00000001
 43
0.00000001
 40
0.0
 40
0.0
 40
0.0
 40
0.0
 40
0.5593963463516334
 40
0.9999999999999999
 40
0.9999999999999999
 40
0.9999999999999999
 40
0.9999999999999999
 10
1626.790336928004
 20
766.1623814406602
 30
0.0
 10
1626.428114046379
 20
766.1244942224749
 30
0.0
 10
1625.780589471026
 20
766.0567654673047
 30
0.0
 10
1625.294411484973
 20
765.6308600763391
 30
0.0
 10
1625.080199687995
 20
765.4432046049711
 30
0.0
  0
SPLINE
  5
2E8
330
1F
100
AcDbEntity
  8
0
  6
Continuous
 62
     7
370
    25
100
AcDbSpline
210
0.0
220
0.0
230
1.0
 70
     8
 71
     3
 72
     9
 73
     5
 74
     0
 42
0.00000001
 43
0.00000001
 40
0.0
 40
0.0
 40
0.0
 40
0.0
 40
0.562588374598623
 40
1.0
 40
1.0
 40
1.0
 40
1.0
 10
1624.14963908269
 20
765.426652886269
 30
0.0
 10
1623.882179802465
 20
765.6628707665975
 30
0.0
 10
1623.406771329236
 20
766.0827476979277
 30
0.0
 10
1622.780079458391
 20
766.1381484901052
 30
0.0
 10
1622.505957148538
 20
766.16238144066
 30
0.0
  0
SPLINE
  5
2E9
330
1F
100
AcDbEntity
  8
0
  6
Continuous
 62
     7
370
    25
100
AcDbSpline
210
0.0
220
0.0
230
1.0
 70
     8
 71
     3
 72
    10
 73
     6
 74
     0
 42
0.00000001
 43
0.00000001
 40
0.0
 40
0.0
 40
0.0
 40
0.0
 40
0.2953975422580338
 40
0.5677974872674674
 40
1.0
 40
1.0
 40
1.0
 40
1.0
 10
1622.505957148538
 20
766.16238144066
 30
0.0
 10
1622.337505434101
 20
766.1522041772354
 30
0.0
 10
1622.013716483616
 20
766.1326419813025
 30
0.0
 10
1621.467394654242
 20
765.9215403839822
 30
0.0
 10
1621.197927634191
 20
765.6148044387224
 30
0.0
 10
1621.032636806882
 20
765.4266528862692
 30
0.0
  0
LINE
  5
2EA
330
1F
100
AcDbEntity
  8
0
  6
Continuous
 62
     7
370
    25
100
AcDbLine
 10
1620.0345184829
 20
766.014813397
 30
0.0
 11
1620.0345184829
 21
764.6123269585
 31
0.0
  0
SPLINE
  5
2EB
330
1F
100
AcDbEntity
  8
0
  6
Continuous
 62
     7
370
    25
100
AcDbSpline
210
0.0
220
0.0
230
1.0
 70
     8
 71
     3
 72
     9
 73
     5
 74
     0
 42
0.00000001
 43
0.00000001
 40
0.0
 40
0.0
 40
0.0
 40
0.0
 40
0.5476216279963346
 40
1.0
 40
1.0
 40
1.0
 40
1.0
 10
1620.034518482934
 20
764.6123269584539
 30
0.0
 10
1619.959178808153
 20
764.7803418268642
 30
0.0
 10
1619.821602658984
 20
765.0871501408914
 30
0.0
 10
1619.59784279981
 20
765.3374557475204
 30
0.0
 10
1619.496618678997
 20
765.4506885903505
 30
0.0
  0
SPLINE
  5
2EC
330
1F
100
AcDbEntity
  8
0
  6
Continuous
 62
     7
370
    25
100
AcDbSpline
210
0.0
220
0.0
230
1.0
 70
     8
 71
     3
 72
     9
 73
     5
 74
     0
 42
0.00000001
 43
0.00000001
 40
0.0
 40
0.0
 40
0.0
 40
0.0
 40
0.5681164578763305
 40
1.0
 40
1.0
 40
1.0
 40
1.0
 10
1615.554685574929
 20
764.7964143664578
 30
0.0
 10
1615.509460195776
 20
764.9539817633813
 30
0.0
 10
1615.42985437108
 20
765.2313322867449
 30
0.0
 10
1615.254410095297
 20
765.4592614225754
 30
0.0
 10
1615.178638600026
 20
765.5577002651113
 30
0.0
  0
SPLINE
  5
2ED
330
1F
100
AcDbEntity
  8
0
  6
Continuous
 62
     7
370
    25
100
AcDbSpline
210
0.0
220
0.0
230
1.0
 70
     8
 71
     3
 72
     9
 73
     5
 74
     0
 42
0.00000001
 43
0.00000001
 40
0.0
 40
0.0
 40
0.0
 40
0.0
 40
0.5917282659738052
 40
1.0
 40
1.0
 40
1.0
 40
1.0
 10
1613.206965572194
 20
766.0397807175158
 30
0.0
 10
1613.087668309896
 20
765.9887077727276
 30
0.0
 10
1612.886060123912
 20
765.9023962886818
 30
0.0
 10
1612.741776247062
 20
765.7389553106461
 30
0.0
 10
1612.682869218469
 20
765.6722269791326
 30
0.0
  0
LINE
  5
2EE
330
1F
100
AcDbEntity
  8
0
  6
Continuous
 62
     7
370
    25
100
AcDbLine
 10
1611.5946480581
 20
761.3380988819
 30
0.0
 11
1612.6828692185
 21
761.3380988819
 31
0.0
  0
SPLINE
  5
2EF
330
1F
100
AcDbEntity
  8
0
  6
Continuous
 62
     7
370
    25
100
AcDbSpline
210
0.0
220
0.0
230
1.0
 70
     8
 71
     3
 72
    10
 73
     6
 74
     0
 42
0.00000001
 43
0.00000001
 40
0.0
 40
0.0
 40
0.0
 40
0.0
 40
0.6629796386574074
 40
0.8498316486840313
 40
1.0
 40
1.0
 40
1.0
 40
1.0
 10
1612.682869218469
 20
763.6837848554297
 30
0.0
 10
1612.688343694435
 20
763.9156123598328
 30
0.0
 10
1612.695361078779
 20
764.212777368816
 30
0.0
 10
1612.776215767946
 20
764.5549293524153
 30
0.0
 10
1612.830512515752
 20
764.6595966207675
 30
0.0
 10
1612.854705870323
 20
764.7062338953303
 30
0.0
  0
SPLINE
  5
2F0
330
1F
100
AcDbEntity
  8
0
  6
Continuous
 62
     7
370
    25
100
AcDbSpline
210
0.0
220
0.0
230
1.0
 70
     8
 71
     3
 72
     9
 73
     5
 74
     0
 42
0.00000001
 43
0.00000001
 40
0.0
 40
0.0
 40
0.0
 40
0.0
 40
0.4805293891412449
 40
1.0
 40
1.0
 40
1.0
 40
1.0
 10
1614.384652964425
 20
764.6575724634238
 30
0.0
 10
1614.428845856938
 20
764.5074575949742
 30
0.0
 10
1614.520812953044
 20
764.1950628240365
 30
0.0
 10
1614.522056833926
 20
763.8692468200544
 30
0.0
 10
1614.522702993487
 20
763.6999949814382
 30
0.0
  0
LINE
  5
2F1
330
1F
100
AcDbEntity
  8
0
  6
Continuous
 62
     7
370
    25
100
AcDbLine
 10
1615.6120110397
 20
761.3380988819
 30
0.0
 11
1615.6120110397
 21
762.8485286117
 31
0.0
  0
SPLINE
  5
2F2
330
1F
100
AcDbEntity
  8
0
  6
Continuous
 62
     7
370
    25
100
AcDbSpline
210
0.0
220
0.0
230
1.0
 70
     8
 71
     3
 72
     9
 73
     5
 74
     0
 42
0.00000001
 43
0.00000001
 40
0.0
 40
0.0
 40
0.0
 40
0.0
 40
0.5496468549129085
 40
1.0
 40
1.0
 40
1.0
 40
1.0
 10
1615.612011039702
 20
762.8485286116573
 30
0.0
 10
1615.68786902009
 20
762.6834346339077
 30
0.0
 10
1615.825881235953
 20
762.3830709071367
 30
0.0
 10
1616.049734449463
 20
762.1405822913958
 30
0.0
 10
1616.150547448205
 20
762.031376780649
 30
0.0
  0
SPLINE
  5
2F3
330
1F
100
AcDbEntity
  8
0
  6
Continuous
 62
     7
370
    25
100
AcDbSpline
210
0.0
220
0.0
230
1.0
 70
     8
 71
     3
 72
     9
 73
     5
 74
     0
 42
0.00000001
 43
0.00000001
 40
0.0
 40
0.0
 40
0.0
 40
0.0
 40
0.5572824920420895
 40
1.0
 40
1.0
 40
1.0
 40
1.0
 10
1616.150547448205
 20
762.031376780649
 30
0.0
 10
1616.429150029194
 20
761.8080722915045
 30
0.0
 10
1616.929080647806
 20
761.4073697890334
 30
0.0
 10
1617.56360576459
 20
761.3576121122173
 30
0.0
 10
1617.844521143028
 20
761.3355835175355
 30
0.0
  0
SPLINE
  5
2F4
330
1F
100
AcDbEntity
  8
0
  6
Continuous
 62
     7
370
    25
100
AcDbSpline
210
0.0
220
0.0
230
1.0
 70
     8
 71
     3
 72
     9
 73
     5
 74
     0
 42
0.00000001
 43
0.00000001
 40
0.0
 40
0.0
 40
0.0
 40
0.0
 40
0.5793668711043873
 40
1.0
 40
1.0
 40
1.0
 40
1.0
 10
1619.176499744211
 20
761.7527613581437
 30
0.0
 10
1619.388197225467
 20
761.9159365214035
 30
0.0
 10
1619.753591748029
 20
762.1975804527328
 30
0.0
 10
1619.940857829214
 20
762.6160284931548
 30
0.0
 10
1620.019628146879
 20
762.7920416016777
 30
0.0
  0
LINE
  5
2F5
330
1F
100
AcDbEntity
  8
0
  6
Continuous
 62
     7
370
    25
100
AcDbLine
 10
1620.0196281469
 20
762.7920416017
 30
0.0
 11
1618.8164455181
 21
762.7920416017
 31
0.0
  0
SPLINE
  5
2F6
330
1F
100
AcDbEntity
  8
0
  6
Continuous
 62
     7
370
    25
100
AcDbSpline
210
0.0
220
0.0
230
1.0
 70
     8
 71
     3
 72
    10
 73
     6
 74
     0
 42
0.00000001
 43
0.00000001
 40
0.0
 40
0.0
 40
0.0
 40
0.0
 40
0.2598938472701214
 40
0.5269059897788215
 40
1.0
 40
1.0
 40
1.0
 40
1.0
 10
1618.816445518148
 20
762.7920416016777
 30
0.0
 10
1618.746145191435
 20
762.7247012779312
 30
0.0
 10
1618.603619065412
 20
762.5881762300766
 30
0.0
 10
1618.257263697143
 20
762.4301463198366
 30
0.0
 10
1617.979821833615
 20
762.4114821755695
 30
0.0
 10
1617.802474187826
 20
762.399551596657
 30
0.0
  0
SPLINE
  5
2F7
330
1F
100
AcDbEntity
  8
0
  6
Continuous
 62
     7
370
    25
100
AcDbSpline
210
0.0
220
0.0
230
1.0
 70
     8
 71
     3
 72
     9
 73
     5
 74
     0
 42
0.00000001
 43
0.00000001
 40
0.0
 40
0.0
 40
0.0
 40
0.0
 40
0.5576524438861211
 40
1.0
 40
1.0
 40
1.0
 40
1.0
 10
1617.802474187826
 20
762.399551596657
 30
0.0
 10
1617.653436442401
 20
762.4120799812242
 30
0.0
 10
1617.386177243487
 20
762.434546276682
 30
0.0
 10
1617.1589407159
 20
762.5749030825677
 30
0.0
 10
1617.058423193263
 20
762.6369895726351
 30
0.0
  0
LINE
  5
2F8
330
1F
100
AcDbEntity
  8
0
  6
Continuous
 62
     7
370
    25
100
AcDbLine
 10
1616.6081884961
 20
763.2666070148
 30
0.0
 11
1620.0345184829
 21
763.2666070148
 31
0.0
  0
LINE
  5
2F9
330
1F
100
AcDbEntity
  8
0
  6
Continuous
 62
     7
370
    25
100
AcDbLine
 10
1620.0345184829
 20
763.2666070148
 30
0.0
 11
1620.0345184829
 21
760.1564987006
 31
0.0
  0
LINE
  5
2FA
330
1F
100
AcDbEntity
  8
0
  6
Continuous
 62
     7
370
    25
100
AcDbLine
 10
1620.0345184829
 20
760.1564987006
 30
0.0
 11
1621.1232054515
 21
760.1564987006
 31
0.0
  0
LINE
  5
2FB
330
1F
100
AcDbEntity
  8
0
  6
Continuous
 62
     7
370
    25
100
AcDbLine
 10
1621.1232054515
 20
760.1564987006
 30
0.0
 11
1621.1232054515
 21
761.9745792319
 31
0.0
  0
SPLINE
  5
2FC
330
1F
100
AcDbEntity
  8
0
  6
Continuous
 62
     7
370
    25
100
AcDbSpline
210
0.0
220
0.0
230
1.0
 70
     8
 71
     3
 72
     9
 73
     5
 74
     0
 42
0.00000001
 43
0.00000001
 40
0.0
 40
0.0
 40
0.0
 40
0.0
 40
0.5554479917141483
 40
1.0
 40
1.0
 40
1.0
 40
1.0
 10
1622.505957148538
 20
761.3355835175356
 30
0.0
 10
1622.854149151626
 20
761.3752288164516
 30
0.0
 10
1623.481016127979
 20
761.446604173834
 30
0.0
 10
1623.938586153934
 20
761.8743111631248
 30
0.0
 10
1624.141999827904
 20
762.0644491641721
 30
0.0
  0
SPLINE
  5
2FD
330
1F
100
AcDbEntity
  8
0
  6
Continuous
 62
     7
370
    25
100
AcDbSpline
210
0.0
220
0.0
230
1.0
 70
     8
 71
     3
 72
     9
 73
     5
 74
     0
 42
0.00000001
 43
0.00000001
 40
0.0
 40
0.0
 40
0.0
 40
0.0
 40
0.5657478182159914
 40
1.0
 40
1.0
 40
1.0
 40
1.0
 10
1624.141999827904
 20
762.0644491641721
 30
0.0
 10
1624.24083466042
 20
762.18423253007
 30
0.0
 10
1624.415532342556
 20
762.3959582531592
 30
0.0
 10
1624.532097734654
 20
762.6440579408905
 30
0.0
 10
1624.582716510494
 20
762.7517957715878
 30
0.0
  0
SPLINE
  5
2FE
330
1F
100
AcDbEntity
  8
0
  6
Continuous
 62
     7
370
    25
100
AcDbSpline
210
0.0
220
0.0
230
1.0
 70
     8
 71
     3
 72
     9
 73
     5
 74
     0
 42
0.00000001
 43
0.00000001
 40
0.0
 40
0.0
 40
0.0
 40
0.0
 40
0.5501101550967616
 40
1.0
 40
1.0
 40
1.0
 40
1.0
 10
1624.582716510494
 20
762.7517957715878
 30
0.0
 10
1624.656359895799
 20
762.6073106628995
 30
0.0
 10
1624.790230148188
 20
762.3446630688684
 30
0.0
 10
1624.990224334523
 20
762.1285871446728
 30
0.0
 10
1625.080199687995
 20
762.0313767806491
 30
0.0
  0
SPLINE
  5
2FF
330
1F
100
AcDbEntity
  8
0
  6
Continuous
 62
     7
370
    25
100
AcDbSpline
210
0.0
220
0.0
230
1.0
 70
     8
 71
     3
 72
     9
 73
     5
 74
     0
 42
0.00000001
 43
0.00000001
 40
0.0
 40
0.0
 40
0.0
 40
0.0
 40
0.557595820014209
 40
0.9999999999999999
 40
0.9999999999999999
 40
0.9999999999999999
 40
0.9999999999999999
 10
1625.080199687995
 20
762.0313767806491
 30
0.0
 10
1625.359149466792
 20
761.8080719162089
 30
0.0
 10
1625.859421830366
 20
761.4075939061069
 30
0.0
 10
1626.494048497232
 20
761.3576700431769
 30
0.0
 10
1626.774809987384
 20
761.3355835175356
 30
0.0
  0
SPLINE
  5
300
330
1F
100
AcDbEntity
  8
0
  6
Continuous
 62
     7
370
    25
100
AcDbSpline
210
0.0
220
0.0
230
1.0
 70
     8
 71
     3
 72
     9
 73
     5
 74
     0
 42
0.00000001
 43
0.00000001
 40
0.0
 40
0.0
 40
0.0
 40
0.0
 40
0.5518985792746198
 40
1.0
 40
1.0
 40
1.0
 40
1.0
 10
1626.774809987384
 20
761.3355835175356
 30
0.0
 10
1627.037546803953
 20
761.3590142137607
 30
0.0
 10
1627.513606765758
 20
761.4014689275524
 30
0.0
 10
1627.923544975603
 20
761.6440572059448
 30
0.0
 10
1628.107238869844
 20
761.7527613581439
 30
0.0
  0
SPLINE
  5
301
330
1F
100
AcDbEntity
  8
0
  6
Continuous
 62
     7
370
    25
100
AcDbSpline
210
0.0
220
0.0
230
1.0
 70
     8
 71
     3
 72
     9
 73
     5
 74
     0
 42
0.00000001
 43
0.00000001
 40
0.0
 40
0.0
 40
0.0
 40
0.0
 40
0.5793895154822796
 40
1.0
 40
1.0
 40
1.0
 40
1.0
 10
1628.107238869844
 20
761.7527613581439
 30
0.0
 10
1628.318973809631
 20
761.9159296960686
 30
0.0
 10
1628.684418703142
 20
762.1975508396423
 30
0.0
 10
1628.871680592993
 20
762.6160263954083
 30
0.0
 10
1628.950444907214
 20
762.7920416016777
 30
0.0
  0
LINE
  5
302
330
1F
100
AcDbEntity
  8
0
  6
Continuous
 62
     7
370
    25
100
AcDbLine
 10
1628.9504449072
 20
762.7920416017
 30
0.0
 11
1627.7477901945
 21
762.7920416017
 31
0.0
  0
SPLINE
  5
303
330
1F
100
AcDbEntity
  8
0
  6
Continuous
 62
     7
370
    25
100
AcDbSpline
210
0.0
220
0.0
230
1.0
 70
     8
 71
     3
 72
    10
 73
     6
 74
     0
 42
0.00000001
 43
0.00000001
 40
0.0
 40
0.0
 40
0.0
 40
0.0
 40
0.2606349371990265
 40
0.527692796314661
 40
1.0
 40
1.0
 40
1.0
 40
1.0
 10
1627.747790194465
 20
762.7920416016777
 30
0.0
 10
1627.677088927942
 20
762.7247278763342
 30
0.0
 10
1627.533944077771
 20
762.5884415889367
 30
0.0
 10
1627.187739869694
 20
762.4302067062805
 30
0.0
 10
1626.910528891178
 20
762.4115008914503
 30
0.0
 10
1626.733446217569
 20
762.3995515966571
 30
0.0
  0
SPLINE
  5
304
330
1F
100
AcDbEntity
  8
0
  6
Continuous
 62
     7
370
    25
100
AcDbSpline
210
0.0
220
0.0
230
1.0
 70
     8
 71
     3
 72
     9
 73
     5
 74
     0
 42
0.00000001
 43
0.00000001
 40
0.0
 40
0.0
 40
0.0
 40
0.0
 40
0.5576812422015612
 40
1.0
 40
1.0
 40
1.0
 40
1.0
 10
1626.733446217569
 20
762.3995515966571
 30
0.0
 10
1626.584276821697
 20
762.4120771175903
 30
0.0
 10
1626.31679535633
 20
762.4345371180085
 30
0.0
 10
1626.089304469992
 20
762.5749030763184
 30
0.0
 10
1625.988680983736
 20
762.6369895726352
 30
0.0
  0
SPLINE
  5
305
330
1F
100
AcDbEntity
  8
0
  6
Continuous
 62
     7
370
    25
100
AcDbSpline
210
0.0
220
0.0
230
1.0
 70
     8
 71
     3
 72
     9
 73
     5
 74
     0
 42
0.00000001
 43
0.00000001
 40
0.0
 40
0.0
 40
0.0
 40
0.0
 40
0.5561664115004208
 40
1.0
 40
1.0
 40
1.0
 40
1.0
 10
1625.988680983736
 20
762.6369895726352
 30
0.0
 10
1625.87702567592
 20
762.7343188852743
 30
0.0
 10
1625.676266864335
 20
762.9093192280251
 30
0.0
 10
1625.580973559916
 20
763.1567769611339
 30
0.0
 10
1625.538679190655
 20
763.2666070148215
 30
0.0
  0
LINE
  5
306
330
1F
100
AcDbEntity
  8
0
  6
Continuous
 62
     7
370
    25
100
AcDbLine
 10
1625.5386791907
 20
763.2666070148
 30
0.0
 11
1628.9902249291
 21
763.2666070148
 31
0.0
  0
LINE
  5
307
330
1F
100
AcDbEntity
  8
0
  6
Continuous
 62
     7
370
    25
100
AcDbLine
 10
1628.9902249291
 20
763.2666070148
 30
0.0
 11
1628.9902249291
 21
761.3380988819
 31
0.0
  0
LINE
  5
308
330
1F
100
AcDbEntity
  8
0
  6
Continuous
 62
     7
370
    25
100
AcDbLine
 10
1628.9902249291
 20
761.3380988819
 30
0.0
 11
1630.0782908201
 21
761.3380988819
 31
0.0
  0
LINE
  5
309
330
1F
100
AcDbEntity
  8
0
  6
Continuous
 62
     7
370
    25
100
AcDbLine
 10
1630.0782908201
 20
761.3380988819
 30
0.0
 11
1630.0782908201
 21
763.9293278944
 31
0.0
  0
SPLINE
  5
30A
330
1F
100
AcDbEntity
  8
0
  6
Continuous
 62
     7
370
    25
100
AcDbSpline
210
0.0
220
0.0
230
1.0
 70
     8
 71
     3
 72
     9
 73
     5
 74
     0
 42
0.00000001
 43
0.00000001
 40
0.0
 40
0.0
 40
0.0
 40
0.0
 40
0.652564441091357
 40
0.9999999999999999
 40
0.9999999999999999
 40
0.9999999999999999
 40
0.9999999999999999
 10
1630.078290820051
 20
763.9293278944122
 30
0.0
 10
1630.078296404874
 20
764.0458650882242
 30
0.0
 10
1630.078304963144
 20
764.2244485145861
 30
0.0
 10
1630.108278163819
 20
764.4002368243281
 30
0.0
 10
1630.118691919547
 20
764.461311933973
 30
0.0
  0
LINE
  5
30B
330
1F
100
AcDbEntity
  8
0
  6
Continuous
 62
     7
370
    25
100
AcDbLine
 10
1632.8513953242
 20
767.7052745867
 30
0.0
 11
1632.2504660442
 21
767.7052745867
 31
0.0
  0
LINE
  5
30C
330
1F
100
AcDbEntity
  8
0
  6
Continuous
 62
     7
370
    25
100
AcDbLine
 10
1632.2504660442
 20
767.7052745867
 30
0.0
 11
1632.2504660442
 21
768.3029813539
 31
0.0
  0
LINE
  5
30D
330
1F
100
AcDbEntity
  8
0
  6
Continuous
 62
     7
370
    25
100
AcDbLine
 10
1632.2504660442
 20
768.3029813539
 30
0.0
 11
1631.9500014042
 21
768.3029813539
 31
0.0
  0
LINE
  5
30E
330
1F
100
AcDbEntity
  8
0
  6
Continuous
 62
     7
370
    25
100
AcDbLine
 10
1631.9500014042
 20
768.3029813539
 30
0.0
 11
1631.9500014042
 21
767.4048099467
 31
0.0
  0
LINE
  5
30F
330
1F
100
AcDbEntity
  8
0
  6
Continuous
 62
     7
370
    25
100
AcDbLine
 10
1631.9500014042
 20
767.4048099467
 30
0.0
 11
1632.8513953242
 21
767.4048099467
 31
0.0
  0
LINE
  5
310
330
1F
100
AcDbEntity
  8
0
  6
Continuous
 62
     7
370
    25
100
AcDbLine
 10
1632.8513953242
 20
767.4048099467
 30
0.0
 11
1632.8513953242
 21
767.7052745867
 31
0.0
  0
LINE
  5
311
330
1F
100
AcDbEntity
  8
0
  6
Continuous
 62
     7
370
    25
100
AcDbLine
 10
1631.9500014042
 20
767.3726567224
 30
0.0
 11
1631.0513641888
 21
767.3726567224
 31
0.0
  0
LINE
  5
312
330
1F
100
AcDbEntity
  8
0
  6
Continuous
 62
     7
370
    25
100
AcDbLine
 10
1631.0513641888
 20
767.3726567224
 30
0.0
 11
1631.0513641888
 21
767.0822075704
 31
0.0
  0
LINE
  5
313
330
1F
100
AcDbEntity
  8
0
  6
Continuous
 62
     7
370
    25
100
AcDbLine
 10
1611.5946480581
 20
760.1649453563
 30
0.0
 11
1619.8389721928
 21
760.1649453563
 31
0.0
  0
LINE
  5
314
330
1F
100
AcDbEntity
  8
0
  6
Continuous
 62
     7
370
    25
100
AcDbLine
 10
1619.8389721928
 20
760.1649453563
 30
0.0
 11
1619.8389721928
 21
761.1649113862
 31
0.0
  0
LINE
  5
315
330
1F
100
AcDbEntity
  8
0
  6
Continuous
 62
     7
370
    25
100
AcDbLine
 10
1619.8389721928
 20
761.1649113862
 30
0.0
 11
1611.5946480581
 21
761.1649113862
 31
0.0
  0
LINE
  5
316
330
1F
100
AcDbEntity
  8
0
  6
Continuous
 62
     7
370
    25
100
AcDbLine
 10
1598.6416554372
 20
756.528845377
 30
0.0
 11
1643.0416554372
 21
756.528845377
 31
0.0
  0
LINE
  5
317
330
1F
100
AcDbEntity
  8
0
  6
Continuous
 62
     7
370
    25
100
AcDbLine
 10
1598.6416554372
 20
770.528845377
 30
0.0
 11
1598.6416554372
 21
756.528845377
 31
0.0
  0
LINE
  5
318
330
1F
100
AcDbEntity
  8
0
  6
Continuous
 62
     7
370
    25
100
AcDbLine
 10
1600.8416554372
 20
770.528845377
 30
0.0
 11
1598.6416554372
 21
770.528845377
 31
0.0
  0
ARC
  5
319
330
1F
100
AcDbEntity
  8
0
  6
Continuous
 62
     7
370
    25
100
AcDbCircle
 10
1600.8416554372
 20
771.128845377
 30
0.0
 40
0.599999999999909
100
AcDbArc
 50
270.0
 51
0.0
  0
LINE
  5
31A
330
1F
100
AcDbEntity
  8
0
  6
Continuous
 62
     7
370
    25
100
AcDbLine
 10
1601.4416554372
 20
773.028845377
 30
0.0
 11
1601.4416554372
 21
771.128845377
 31
0.0
  0
LINE
  5
31B
330
1F
100
AcDbEntity
  8
0
  6
Continuous
 62
     7
370
    25
100
AcDbLine
 10
1598.6416554372
 20
773.628845377
 30
0.0
 11
1600.8416554372
 21
773.628845377
 31
0.0
  0
LINE
  5
31C
330
1F
100
AcDbEntity
  8
0
  6
Continuous
 62
     7
370
    25
100
AcDbLine
 10
1643.0416554372
 20
781.228845377
 30
0.0
 11
1598.6416554372
 21
781.228845377
 31
0.0
  0
SPLINE
  5
31D
330
1F
100
AcDbEntity
  8
0
  6
Continuous
 62
     7
370
    25
100
AcDbSpline
210
0.0
220
0.0
230
1.0
 70
     8
 71
     3
 72
     9
 73
     5
 74
     0
 42
0.00000001
 43
0.00000001
 40
0.0
 40
0.0
 40
0.0
 40
0.0
 40
0.5612430383707987
 40
1.0
 40
1.0
 40
1.0
 40
1.0
 10
1630.118691919547
 20
764.461311933973
 30
0.0
 10
1630.147825148708
 20
764.5564758890645
 30
0.0
 10
1630.199733550538
 20
764.726035150535
 30
0.0
 10
1630.331379565674
 20
764.8432646441554
 30
0.0
 10
1630.389140171286
 20
764.8946999005896
 30
0.0
  0
SPLINE
  5
31E
330
1F
100
AcDbEntity
  8
0
  6
Continuous
 62
     7
370
    25
100
AcDbSpline
210
0.0
220
0.0
230
1.0
 70
     8
 71
     3
 72
     9
 73
     5
 74
     0
 42
0.00000001
 43
0.00000001
 40
0.0
 40
0.0
 40
0.0
 40
0.0
 40
0.5401635735990487
 40
1.0
 40
1.0
 40
1.0
 40
1.0
 10
1630.389140171286
 20
764.8946999005896
 30
0.0
 10
1630.499182226154
 20
764.9630025355855
 30
0.0
 10
1630.702902099625
 20
765.0894505937928
 30
0.0
 10
1630.941558962194
 20
765.1018016358291
 30
0.0
 10
1631.051302081014
 20
765.1074810948613
 30
0.0
  0
LINE
  5
31F
330
1F
100
AcDbEntity
  8
0
  6
Continuous
 62
     7
370
    25
100
AcDbLine
 10
1631.051302081
 20
765.1074810949
 30
0.0
 11
1631.051302081
 21
766.1623814407
 31
0.0
  0
LINE
  5
320
330
1F
100
AcDbEntity
  8
0
  6
Continuous
 62
     7
370
    25
100
AcDbLine
 10
1629.9792289389
 20
765.6063927509
 30
0.0
 11
1629.9792289389
 21
766.014813397
 31
0.0
  0
LINE
  5
321
330
1F
100
AcDbEntity
  8
0
  6
Continuous
 62
     7
370
    25
100
AcDbLine
 10
1629.9792289389
 20
766.014813397
 30
0.0
 11
1628.9902249291
 21
766.014813397
 31
0.0
  0
LINE
  5
322
330
1F
100
AcDbEntity
  8
0
  6
Continuous
 62
     7
370
    25
100
AcDbLine
 10
1611.5946480581
 20
761.1649113862
 30
0.0
 11
1611.5946480581
 21
760.1649453563
 31
0.0
  0
LINE
  5
323
330
1F
100
AcDbEntity
  8
0
  6
Continuous
 62
     7
370
    25
100
AcDbLine
 10
1612.6828692185
 20
767.528845377
 30
0.0
 11
1611.5946480581
 21
767.528845377
 31
0.0
  0
LINE
  5
324
330
1F
100
AcDbEntity
  8
0
  6
Continuous
 62
     7
370
    25
100
AcDbLine
 10
1611.5946480581
 20
767.528845377
 30
0.0
 11
1611.5946480581
 21
761.3380988819
 31
0.0
  0
SPLINE
  5
325
330
1F
100
AcDbEntity
  8
0
  6
Continuous
 62
     7
370
    25
100
AcDbSpline
210
0.0
220
0.0
230
1.0
 70
     8
 71
     3
 72
     9
 73
     5
 74
     0
 42
0.00000001
 43
0.00000001
 40
0.0
 40
0.0
 40
0.0
 40
0.0
 40
0.5679872603211907
 40
1.0
 40
1.0
 40
1.0
 40
1.0
 10
1625.080199687995
 20
765.4432046049711
 30
0.0
 10
1624.97086480723
 20
765.3200510425977
 30
0.0
 10
1624.778369502488
 20
765.1032265273719
 30
0.0
 10
1624.649786846097
 20
764.8438683362002
 30
0.0
 10
1624.594237500435
 20
764.731822293474
 30
0.0
  0
SPLINE
  5
326
330
1F
100
AcDbEntity
  8
0
  6
Continuous
 62
     7
370
    25
100
AcDbSpline
210
0.0
220
0.0
230
1.0
 70
     8
 71
     3
 72
     9
 73
     5
 74
     0
 42
0.00000001
 43
0.00000001
 40
0.0
 40
0.0
 40
0.0
 40
0.0
 40
0.5543912818895632
 40
0.9999999999999999
 40
0.9999999999999999
 40
0.9999999999999999
 40
0.9999999999999999
 10
1624.594237500435
 20
764.731822293474
 30
0.0
 10
1624.528791412732
 20
764.8711536691053
 30
0.0
 10
1624.410741057612
 20
765.1224768413537
 30
0.0
 10
1624.23012373589
 20
765.3328906560358
 30
0.0
 10
1624.14963908269
 20
765.426652886269
 30
0.0
  0
LINE
  5
327
330
1F
100
AcDbEntity
  8
0
  6
Continuous
 62
     7
370
    25
100
AcDbLine
 10
1621.0326368069
 20
765.4266528863
 30
0.0
 11
1621.0326368069
 21
766.014813397
 31
0.0
  0
LINE
  5
328
330
1F
100
AcDbEntity
  8
0
  6
Continuous
 62
     7
370
    25
100
AcDbLine
 10
1621.0326368069
 20
766.014813397
 30
0.0
 11
1620.0345184829
 21
766.014813397
 31
0.0
  0
SPLINE
  5
329
330
1F
100
AcDbEntity
  8
0
  6
Continuous
 62
     7
370
    25
100
AcDbSpline
210
0.0
220
0.0
230
1.0
 70
     8
 71
     3
 72
     9
 73
     5
 74
     0
 42
0.00000001
 43
0.00000001
 40
0.0
 40
0.0
 40
0.0
 40
0.0
 40
0.5612680514500418
 40
1.0
 40
1.0
 40
1.0
 40
1.0
 10
1619.496618678997
 20
765.4506885903505
 30
0.0
 10
1619.228979984464
 20
765.6792074076459
 30
0.0
 10
1618.75213350471
 20
766.0863547888391
 30
0.0
 10
1618.132137690162
 20
766.1391976077517
 30
0.0
 10
1617.860125718352
 20
766.16238144066
 30
0.0
  0
SPLINE
  5
32A
330
1F
100
AcDbEntity
  8
0
  6
Continuous
 62
     7
370
    25
100
AcDbSpline
210
0.0
220
0.0
230
1.0
 70
     8
 71
     3
 72
     9
 73
     5
 74
     0
 42
0.00000001
 43
0.00000001
 40
0.0
 40
0.0
 40
0.0
 40
0.0
 40
0.5595574587309892
 40
1.0
 40
1.0
 40
1.0
 40
1.0
 10
1617.860125718352
 20
766.16238144066
 30
0.0
 10
1617.497851116447
 20
766.124543187163
 30
0.0
 10
1616.850420551002
 20
766.0569214391069
 30
0.0
 10
1616.364546881803
 20
765.6308601304794
 30
0.0
 10
1616.150547448205
 20
765.4432046049711
 30
0.0
  0
SPLINE
  5
32B
330
1F
100
AcDbEntity
  8
0
  6
Continuous
 62
     7
370
    25
100
AcDbSpline
210
0.0
220
0.0
230
1.0
 70
     8
 71
     3
 72
     9
 73
     5
 74
     0
 42
0.00000001
 43
0.00000001
 40
0.0
 40
0.0
 40
0.0
 40
0.0
 40
0.567219677851091
 40
1.0
 40
1.0
 40
1.0
 40
1.0
 10
1616.150547448205
 20
765.4432046049711
 30
0.0
 10
1616.016625975805
 20
765.2892645225395
 30
0.0
 10
1615.780524377731
 20
765.0178704076268
 30
0.0
 10
1615.646634485557
 20
764.6849523583365
 30
0.0
 10
1615.588689574889
 20
764.5408719777155
 30
0.0
  0
SPLINE
  5
32C
330
1F
100
AcDbEntity
  8
0
  6
Continuous
 62
     7
370
    25
100
AcDbSpline
210
0.0
220
0.0
230
1.0
 70
     8
 71
     3
 72
     9
 73
     5
 74
     0
 42
0.00000001
 43
0.00000001
 40
0.0
 40
0.0
 40
0.0
 40
0.0
 40
0.5940817062834141
 40
1.0
 40
1.0
 40
1.0
 40
1.0
 10
1615.588689574889
 20
764.5408719777155
 30
0.0
 10
1615.584001361714
 20
764.591759796077
 30
0.0
 10
1615.576109832441
 20
764.6774177414794
 30
0.0
 10
1615.56087121039
 20
764.7620575285214
 30
0.0
 10
1615.554685574929
 20
764.7964143664578
 30
0.0
  0
SPLINE
  5
32D
330
1F
100
AcDbEntity
  8
0
  6
Continuous
 62
     7
370
    25
100
AcDbSpline
210
0.0
220
0.0
230
1.0
 70
     8
 71
     3
 72
    10
 73
     6
 74
     0
 42
0.00000001
 43
0.00000001
 40
0.0
 40
0.0
 40
0.0
 40
0.0
 40
0.2867405318910018
 40
0.559731595453963
 40
1.0
 40
1.0
 40
1.0
 40
1.0
 10
1615.178638600026
 20
765.5577002651113
 30
0.0
 10
1615.076836646101
 20
765.660092560145
 30
0.0
 10
1614.878114234186
 20
765.8599673468851
 30
0.0
 10
1614.428716361061
 20
766.1075308000242
 30
0.0
 10
1614.067806088651
 20
766.141446529061
 30
0.0
 10
1613.845029670078
 20
766.16238144066
 30
0.0
  0
SPLINE
  5
32E
330
1F
100
AcDbEntity
  8
0
  6
Continuous
 62
     7
370
    25
100
AcDbSpline
210
0.0
220
0.0
230
1.0
 70
     8
 71
     3
 72
     9
 73
     5
 74
     0
 42
0.00000001
 43
0.00000001
 40
0.0
 40
0.0
 40
0.0
 40
0.0
 40
0.5574050725191246
 40
1.0
 40
1.0
 40
1.0
 40
1.0
 10
1613.845029670078
 20
766.16238144066
 30
0.0
 10
1613.723141951822
 20
766.1559793066373
 30
0.0
 10
1613.504472039643
 20
766.1444937024718
 30
0.0
 10
1613.298241959541
 20
766.0719071551595
 30
0.0
 10
1613.206965572194
 20
766.0397807175158
 30
0.0
  0
LINE
  5
32F
330
1F
100
AcDbEntity
  8
0
  6
Continuous
 62
     7
370
    25
100
AcDbLine
 10
1612.6828692185
 20
765.6722269791
 30
0.0
 11
1612.6828692185
 21
767.528845377
 31
0.0
  0
LINE
  5
330
330
1F
100
AcDbEntity
  8
0
  6
Continuous
 62
     7
370
    25
100
AcDbLine
 10
1614.5227029935
 20
761.3380988819
 30
0.0
 11
1615.6120110397
 21
761.3380988819
 31
0.0
  0
LINE
  5
331
330
1F
100
AcDbEntity
  8
0
  6
Continuous
 62
     7
370
    25
100
AcDbLine
 10
1612.6828692185
 20
761.3380988819
 30
0.0
 11
1612.6828692185
 21
763.6837848554
 31
0.0
  0
SPLINE
  5
332
330
1F
100
AcDbEntity
  8
0
  6
Continuous
 62
     7
370
    25
100
AcDbSpline
210
0.0
220
0.0
230
1.0
 70
     8
 71
     3
 72
    10
 73
     6
 74
     0
 42
0.00000001
 43
0.00000001
 40
0.0
 40
0.0
 40
0.0
 40
0.0
 40
0.2830800193880778
 40
0.5514309522938148
 40
1.0
 40
1.0
 40
1.0
 40
1.0
 10
1612.854705870323
 20
764.7062338953303
 30
0.0
 10
1612.904585257274
 20
764.7727647425532
 30
0.0
 10
1613.001748730364
 20
764.9023647352351
 30
0.0
 10
1613.254651759679
 20
765.0660019667401
 30
0.0
 10
1613.466758327609
 20
765.0861491071998
 30
0.0
 10
1613.599471104155
 20
765.0987549542322
 30
0.0
  0
SPLINE
  5
333
330
1F
100
AcDbEntity
  8
0
  6
Continuous
 62
     7
370
    25
100
AcDbSpline
210
0.0
220
0.0
230
1.0
 70
     8
 71
     3
 72
    11
 73
     7
 74
     0
 42
0.00000001
 43
0.00000001
 40
0.0
 40
0.0
 40
0.0
 40
0.0
 40
0.3089124236173828
 40
0.5793204669916557
 40
0.784331816614213
 40
1.0
 40
1.0
 40
1.0
 40
1.0
 10
1613.599471104155
 20
765.0987549542322
 30
0.0
 10
1613.698115310738
 20
765.0934162030634
 30
0.0
 10
1613.883108219582
 20
765.0834041492129
 30
0.0
 10
1614.116798796547
 20
764.9819829905829
 30
0.0
 10
1614.284956661552
 20
764.834946445314
 30
0.0
 10
1614.350864329725
 20
764.7176872771784
 30
0.0
 10
1614.384652964425
 20
764.6575724634238
 30
0.0
  0
LINE
  5
334
330
1F
100
AcDbEntity
  8
0
  6
Continuous
 62
     7
370
    25
100
AcDbLine
 10
1614.5227029935
 20
763.6999949814
 30
0.0
 11
1614.5227029935
 21
761.3380988819
 31
0.0
  0
SPLINE
  5
335
330
1F
100
AcDbEntity
  8
0
  6
Continuous
 62
     7
370
    25
100
AcDbSpline
210
0.0
220
0.0
230
1.0
 70
     8
 71
     3
 72
     9
 73
     5
 74
     0
 42
0.00000001
 43
0.00000001
 40
0.0
 40
0.0
 40
0.0
 40
0.0
 40
0.5561326310294744
 40
1.0
 40
1.0
 40
1.0
 40
1.0
 10
1617.058423193263
 20
762.6369895726351
 30
0.0
 10
1616.946764849154
 20
762.7343243489388
 30
0.0
 10
1616.745988383472
 20
762.9093451459087
 30
0.0
 10
1616.650550332608
 20
763.1567791392176
 30
0.0
 10
1616.608188496072
 20
763.2666070148215
 30
0.0
  0
LINE
  5
336
330
1F
100
AcDbEntity
  8
0
  6
Continuous
 62
     7
370
    25
100
AcDbLine
 10
1621.3233632431
 20
761.1655324639
 30
0.0
 11
1621.3233632431
 21
760.1649453563
 31
0.0
  0
SPLINE
  5
337
330
1F
100
AcDbEntity
  8
0
  6
Continuous
 62
     7
370
    25
100
AcDbSpline
210
0.0
220
0.0
230
1.0
 70
     8
 71
     3
 72
     9
 73
     5
 74
     0
 42
0.00000001
 43
0.00000001
 40
0.0
 40
0.0
 40
0.0
 40
0.0
 40
0.5522050029538319
 40
1.0
 40
1.0
 40
1.0
 40
1.0
 10
1617.844521143028
 20
761.3355835175355
 30
0.0
 10
1618.107355129576
 20
761.3589627463075
 30
0.0
 10
1618.58332688851
 20
761.4013006980591
 30
0.0
 10
1618.993034655778
 20
761.6440565169435
 30
0.0
 10
1619.176499744211
 20
761.7527613581437
 30
0.0
  0
LINE
  5
338
330
1F
100
AcDbEntity
  8
0
  6
Continuous
 62
     7
370
    25
100
AcDbLine
 10
1631.9500014042
 20
766.4742674488
 30
0.0
 11
1631.9500014042
 21
767.3726567224
 31
0.0
  0
LINE
  5
339
330
1F
100
AcDbEntity
  8
0
  6
Continuous
 62
     7
370
    25
100
AcDbLine
 10
1621.3233632431
 20
760.1649453563
 30
0.0
 11
1630.0886628164
 21
760.1649453563
 31
0.0
  0
LINE
  5
33A
330
1F
100
AcDbEntity
  8
0
  6
Continuous
 62
     7
370
    25
100
AcDbLine
 10
1630.0886628164
 20
760.1649453563
 30
0.0
 11
1630.0886628164
 21
761.1655324639
 31
0.0
  0
LINE
  5
33B
330
1F
100
AcDbEntity
  8
0
  6
Continuous
 62
     7
370
    25
100
AcDbLine
 10
1630.0886628164
 20
761.1655324639
 30
0.0
 11
1621.3233632431
 21
761.1655324639
 31
0.0
  0
LINE
  5
33C
330
1F
100
AcDbEntity
  8
0
  6
Continuous
 62
     7
370
    25
100
AcDbLine
 10
1631.653602459
 20
766.4742674488
 30
0.0
 11
1631.9500014042
 21
766.4742674488
 31
0.0
  0
SPLINE
  5
33D
330
1F
100
AcDbEntity
  8
0
  6
Continuous
 62
     7
370
    25
100
AcDbSpline
210
0.0
220
0.0
230
1.0
 70
     8
 71
     3
 72
    10
 73
     6
 74
     0
 42
0.00000001
 43
0.00000001
 40
0.0
 40
0.0
 40
0.0
 40
0.0
 40
0.2822318579969539
 40
0.5534183785460131
 40
1.0
 40
1.0
 40
1.0
 40
1.0
 10
1621.123205451525
 20
761.9745792318571
 30
0.0
 10
1621.224496675259
 20
761.8661672015514
 30
0.0
 10
1621.423115021174
 20
761.6535859201455
 30
0.0
 10
1621.890883852872
 20
761.3913931064787
 30
0.0
 10
1622.270048284799
 20
761.3569890586411
 30
0.0
 10
1622.505957148538
 20
761.3355835175356
 30
0.0
  0
LINE
  5
33E
330
1F
100
AcDbEntity
  8
0
  6
Continuous
 62
     7
370
    25
100
AcDbLine
 10
1631.0513641888
 20
767.0822075704
 30
0.0
 11
1631.653602459
 21
767.0822075704
 31
0.0
  0
LINE
  5
33F
330
1F
100
AcDbEntity
  8
0
  6
Continuous
 62
     7
370
    25
100
AcDbLine
 10
1631.653602459
 20
767.0822075704
 30
0.0
 11
1631.653602459
 21
766.4742674488
 31
0.0
  0
LINE
  5
340
330
1F
100
AcDbEntity
  8
0
  6
Continuous
 62
     7
370
    25
100
AcDbLine
 10
1601.4416554372
 20
771.128845377
 30
0.0
 11
1601.1416554372
 21
771.128845377
 31
0.0
  0
LINE
  5
341
330
1F
100
AcDbEntity
  8
0
  6
Continuous
 62
     7
370
    25
100
AcDbLine
 10
1601.1416554372
 20
771.128845377
 30
0.0
 11
1601.1416554372
 21
773.028845377
 31
0.0
  0
LINE
  5
342
330
1F
100
AcDbEntity
  8
0
  6
Continuous
 62
     7
370
    25
100
AcDbLine
 10
1643.0416554372
 20
756.228845377
 30
0.0
 11
1643.0416554372
 21
756.528845377
 31
0.0
  0
ARC
  5
343
330
1F
100
AcDbEntity
  8
0
  6
Continuous
 62
     7
370
    25
100
AcDbCircle
 10
1643.0416554372
 20
756.528845377
 30
0.0
 40
0.3000000000000682
100
AcDbArc
 50
270.0
 51
0.0
  0
LINE
  5
344
330
1F
100
AcDbEntity
  8
0
  6
Continuous
 62
     7
370
    25
100
AcDbLine
 10
1600.8416554372
 20
770.528845377
 30
0.0
 11
1600.8416554372
 21
770.828845377
 31
0.0
  0
ARC
  5
345
330
1F
100
AcDbEntity
  8
0
  6
Continuous
 62
     7
370
    25
100
AcDbCircle
 10
1600.8416554372
 20
771.128845377
 30
0.0
 40
0.2999999999999545
100
AcDbArc
 50
270.0
 51
0.0
  0
LINE
  5
346
330
1F
100
AcDbEntity
  8
0
  6
Continuous
 62
     7
370
    25
100
AcDbLine
 10
1643.0416554372
 20
756.228845377
 30
0.0
 11
1598.6416554372
 21
756.228845377
 31
0.0
  0
LINE
  5
347
330
1F
100
AcDbEntity
  8
0
  6
Continuous
 62
     7
370
    25
100
AcDbLine
 10
1598.6416554372
 20
756.228845377
 30
0.0
 11
1598.6416554372
 21
756.528845377
 31
0.0
  0
LINE
  5
348
330
1F
100
AcDbEntity
  8
0
  6
Continuous
 62
     7
370
    25
100
AcDbLine
 10
1598.6416554372
 20
770.528845377
 30
0.0
 11
1598.6416554372
 21
770.828845377
 31
0.0
  0
LINE
  5
349
330
1F
100
AcDbEntity
  8
0
  6
Continuous
 62
     7
370
    25
100
AcDbLine
 10
1598.6416554372
 20
770.828845377
 30
0.0
 11
1600.8416554372
 21
770.828845377
 31
0.0
  0
LINE
  5
34A
330
1F
100
AcDbEntity
  8
0
  6
Continuous
 62
     7
370
    25
100
AcDbLine
 10
1598.3416554372
 20
756.528845377
 30
0.0
 11
1598.6416554372
 21
756.528845377
 31
0.0
  0
ARC
  5
34B
330
1F
100
AcDbEntity
  8
0
  6
Continuous
 62
     7
370
    25
100
AcDbCircle
 10
1598.6416554372
 20
756.528845377
 30
0.0
 40
0.3000000000000682
100
AcDbArc
 50
180.0
 51
270.0
  0
LINE
  5
34C
330
1F
100
AcDbEntity
  8
0
  6
Continuous
 62
     7
370
    25
100
AcDbLine
 10
1598.6416554372
 20
770.528845377
 30
0.0
 11
1598.3416554372
 21
770.528845377
 31
0.0
  0
ARC
  5
34D
330
1F
100
AcDbEntity
  8
0
  6
Continuous
 62
     7
370
    25
100
AcDbCircle
 10
1598.6416554372
 20
770.528845377
 30
0.0
 40
0.2999999999999545
100
AcDbArc
 50
90.0
 51
180.0
  0
LINE
  5
34E
330
1F
100
AcDbEntity
  8
0
  6
Continuous
 62
     7
370
    25
100
AcDbLine
 10
1598.3416554372
 20
756.528845377
 30
0.0
 11
1598.3416554372
 21
770.528845377
 31
0.0
  0
LINE
  5
34F
330
1F
100
AcDbEntity
  8
0
  6
Continuous
 62
     7
370
    25
100
AcDbLine
 10
1598.6416554372
 20
781.528845377
 30
0.0
 11
1643.0416554372
 21
781.528845377
 31
0.0
  0
LINE
  5
350
330
1F
100
AcDbEntity
  8
0
  6
Continuous
 62
     7
370
    25
100
AcDbLine
 10
1643.0416554372
 20
781.528845377
 30
0.0
 11
1643.0416554372
 21
781.228845377
 31
0.0
  0
LINE
  5
351
330
1F
100
AcDbEntity
  8
0
  6
Continuous
 62
     7
370
    25
100
AcDbLine
 10
1598.6416554372
 20
781.228845377
 30
0.0
 11
1598.6416554372
 21
781.528845377
 31
0.0
  0
ARC
  5
352
330
1F
100
AcDbEntity
  8
0
  6
Continuous
 62
     7
370
    25
100
AcDbCircle
 10
1643.0416554372
 20
781.228845377
 30
0.0
 40
0.2999999999999545
100
AcDbArc
 50
0.0
 51
90.0
  0
ARC
  5
353
330
1F
100
AcDbEntity
  8
0
  6
Continuous
 62
     7
370
    25
100
AcDbCircle
 10
1598.6416554372
 20
781.228845377
 30
0.0
 40
0.2999999999999545
100
AcDbArc
 50
90.0
 51
180.0
  0
LINE
  5
354
330
1F
100
AcDbEntity
  8
0
  6
Continuous
 62
     7
370
    25
100
AcDbLine
 10
1600.8416554372
 20
773.328845377
 30
0.0
 11
1598.6416554372
 21
773.328845377
 31
0.0
  0
SPLINE
  5
355
330
1F
100
AcDbEntity
  8
0
  6
Continuous
 62
     7
370
    25
100
AcDbSpline
210
0.0
220
0.0
230
1.0
 70
     8
 71
     3
 72
     9
 73
     5
 74
     0
 42
0.00000001
 43
0.00000001
 40
0.0
 40
0.0
 40
0.0
 40
0.0
 40
0.5537891943145783
 40
1.0
 40
1.0
 40
1.0
 40
1.0
 10
1618.612545733911
 20
764.8616275170665
 30
0.0
 10
1618.4814910107
 20
764.9377760028709
 30
0.0
 10
1618.244840089093
 20
765.0752804659159
 30
0.0
 10
1617.972672776991
 20
765.0915121855408
 30
0.0
 10
1617.851228781377
 20
765.0987549542323
 30
0.0
  0
SPLINE
  5
356
330
1F
100
AcDbEntity
  8
0
  6
Continuous
 62
     7
370
    25
100
AcDbSpline
210
0.0
220
0.0
230
1.0
 70
     8
 71
     3
 72
     9
 73
     5
 74
     0
 42
0.00000001
 43
0.00000001
 40
0.0
 40
0.0
 40
0.0
 40
0.0
 40
0.5532408058605979
 40
1.0
 40
1.0
 40
1.0
 40
1.0
 10
1617.851228781377
 20
765.0987549542323
 30
0.0
 10
1617.697464244268
 20
765.0853771858451
 30
0.0
 10
1617.419530050911
 20
765.0611964525274
 30
0.0
 10
1617.181352063708
 20
764.917866822764
 30
0.0
 10
1617.074943858083
 20
764.8538329928748
 30
0.0
  0
SPLINE
  5
357
330
1F
100
AcDbEntity
  8
0
  6
Continuous
 62
     7
370
    25
100
AcDbSpline
210
0.0
220
0.0
230
1.0
 70
     8
 71
     3
 72
     9
 73
     5
 74
     0
 42
0.00000001
 43
0.00000001
 40
0.0
 40
0.0
 40
0.0
 40
0.0
 40
0.5610243882890866
 40
0.9999999999999999
 40
0.9999999999999999
 40
0.9999999999999999
 40
0.9999999999999999
 10
1619.086862716005
 20
764.2322895598114
 30
0.0
 10
1619.027232207765
 20
764.3728775625765
 30
0.0
 10
1618.920943587369
 20
764.6234691691085
 30
0.0
 10
1618.706625949913
 20
764.7889746481588
 30
0.0
 10
1618.612545733911
 20
764.8616275170665
 30
0.0
  0
SPLINE
  5
358
330
1F
100
AcDbEntity
  8
0
  6
Continuous
 62
     7
370
    25
100
AcDbSpline
210
0.0
220
0.0
230
1.0
 70
     8
 71
     3
 72
     9
 73
     5
 74
     0
 42
0.00000001
 43
0.00000001
 40
0.0
 40
0.0
 40
0.0
 40
0.0
 40
0.5675791948092062
 40
0.9999999999999999
 40
0.9999999999999999
 40
0.9999999999999999
 40
0.9999999999999999
 10
1617.074943858083
 20
764.8538329928747
 30
0.0
 10
1616.953231420027
 20
764.7586920664264
 30
0.0
 10
1616.738790088898
 20
764.5910662490629
 30
0.0
 10
1616.63644981212
 20
764.3405974706485
 30
0.0
 10
1616.592195747232
 20
764.2322895598114
 30
0.0
  0
LINE
  5
359
330
1F
100
AcDbEntity
  8
0
  6
Continuous
 62
     7
370
    25
100
AcDbLine
 10
1616.5921957472
 20
764.2322895598
 30
0.0
 11
1619.086862716
 21
764.2322895598
 31
0.0
  0
LINE
  5
35A
330
1F
100
AcDbEntity
  8
0
  6
Continuous
 62
     7
370
    25
100
AcDbLine
 10
1625.5230280345
 20
764.2322895598
 30
0.0
 11
1628.017772638
 21
764.2322895598
 31
0.0
  0
SPLINE
  5
35B
330
1F
100
AcDbEntity
  8
0
  6
Continuous
 62
     7
370
    25
100
AcDbSpline
210
0.0
220
0.0
230
1.0
 70
     8
 71
     3
 72
     9
 73
     5
 74
     0
 42
0.00000001
 43
0.00000001
 40
0.0
 40
0.0
 40
0.0
 40
0.0
 40
0.5614176908047745
 40
1.0
 40
1.0
 40
1.0
 40
1.0
 10
1628.017772637985
 20
764.2322895598114
 30
0.0
 10
1627.957902589603
 20
764.3728390242686
 30
0.0
 10
1627.851261759856
 20
764.6231864336206
 30
0.0
 10
1627.637232111611
 20
764.7889336987732
 30
0.0
 10
1627.543362494248
 20
764.8616275170665
 30
0.0
  0
SPLINE
  5
35C
330
1F
100
AcDbEntity
  8
0
  6
Continuous
 62
     7
370
    25
100
AcDbSpline
210
0.0
220
0.0
230
1.0
 70
     8
 71
     3
 72
     9
 73
     5
 74
     0
 42
0.00000001
 43
0.00000001
 40
0.0
 40
0.0
 40
0.0
 40
0.0
 40
0.5527740500781059
 40
0.9999999999999999
 40
0.9999999999999999
 40
0.9999999999999999
 40
0.9999999999999999
 10
1626.782604511575
 20
765.0987549542323
 30
0.0
 10
1626.6287941044
 20
765.085330703868
 30
0.0
 10
1626.350542245157
 20
765.0610454640627
 30
0.0
 10
1626.111876883759
 20
764.9178663901945
 30
0.0
 10
1626.005139540794
 20
764.8538329928748
 30
0.0
  0
SPLINE
  5
35D
330
1F
100
AcDbEntity
  8
0
  6
Continuous
 62
     7
370
    25
100
AcDbSpline
210
0.0
220
0.0
230
1.0
 70
     8
 71
     3
 72
     9
 73
     5
 74
     0
 42
0.00000001
 43
0.00000001
 40
0.0
 40
0.0
 40
0.0
 40
0.0
 40
0.5676021571045141
 40
1.0
 40
1.0
 40
1.0
 40
1.0
 10
1626.005139540794
 20
764.8538329928748
 30
0.0
 10
1625.883488129703
 20
764.7586960212047
 30
0.0
 10
1625.669162990925
 20
764.5910839526473
 30
0.0
 10
1625.567141784219
 20
764.3405987996464
 30
0.0
 10
1625.523028034509
 20
764.2322895598114
 30
0.0
  0
SPLINE
  5
35E
330
1F
100
AcDbEntity
  8
0
  6
Continuous
 62
     7
370
    25
100
AcDbSpline
210
0.0
220
0.0
230
1.0
 70
     8
 71
     3
 72
     9
 73
     5
 74
     0
 42
0.00000001
 43
0.00000001
 40
0.0
 40
0.0
 40
0.0
 40
0.0
 40
0.554148215190604
 40
0.9999999999999999
 40
0.9999999999999999
 40
0.9999999999999999
 40
0.9999999999999999
 10
1627.543362494248
 20
764.8616275170665
 30
0.0
 10
1627.412315385613
 20
764.9377763941303
 30
0.0
 10
1627.175831526165
 20
765.0751924770053
 30
0.0
 10
1626.903862422055
 20
765.0914890832512
 30
0.0
 10
1626.782604511575
 20
765.0987549542323
 30
0.0
  0
SPLINE
  5
35F
330
1F
100
AcDbEntity
  8
0
  6
Continuous
 62
     7
370
    25
100
AcDbSpline
210
0.0
220
0.0
230
1.0
 70
     8
 71
     3
 72
     9
 73
     5
 74
     0
 42
0.00000001
 43
0.00000001
 40
0.0
 40
0.0
 40
0.0
 40
0.0
 40
0.4999269277537055
 40
1.0
 40
1.0
 40
1.0
 40
1.0
 10
1618.412723249107
 20
725.228845376962
 30
0.0
 10
1617.731039545964
 20
725.2495150924387
 30
0.0
 10
1616.367472861918
 20
725.2908605658054
 30
0.0
 10
1615.373998913004
 20
726.225782291401
 30
0.0
 10
1614.877189343175
 20
726.6933114710292
 30
0.0
  0
LINE
  5
360
330
1F
100
AcDbEntity
  8
0
  6
Continuous
 62
     7
370
    25
100
AcDbLine
 10
1618.4127232491
 20
725.228845377
 30
0.0
 11
1633.0666910498
 21
725.228845377
 31
0.0
  0
ARC
  5
361
330
1F
100
AcDbEntity
  8
0
  6
Continuous
 62
     7
370
    25
100
AcDbCircle
 10
1633.0666910498
 20
728.228845377
 30
0.0
 40
3.000000000000034
100
AcDbArc
 50
270.0
 51
347.1604115931
  0
ARC
  5
362
330
1F
100
AcDbEntity
  8
0
  6
Continuous
 62
     7
370
    25
100
AcDbCircle
 10
1641.8416554372
 20
726.228845377
 30
0.0
 40
6.000000000000239
100
AcDbArc
 50
270.0
 51
167.1604115931
  0
LINE
  5
363
330
1F
100
AcDbEntity
  8
0
  6
Continuous
 62
     7
370
    25
100
AcDbLine
 10
1641.8416554372
 20
720.228845377
 30
0.0
 11
1601.3416554372
 21
720.228845377
 31
0.0
  0
LINE
  5
364
330
1F
100
AcDbEntity
  8
0
  6
Continuous
 62
     7
370
    25
100
AcDbLine
 10
1601.3416554372
 20
728.228845377
 30
0.0
 11
1601.3416554372
 21
720.228845377
 31
0.0
  0
CIRCLE
  5
365
330
1F
100
AcDbEntity
  8
0
  6
Continuous
 62
     7
370
    25
100
AcDbCircle
 10
1641.8416554372
 20
726.228845377
 30
0.0
 40
4.999999999999773
  0
SPLINE
  5
366
330
1F
100
AcDbEntity
  8
0
  6
Continuous
 62
     7
370
    25
100
AcDbSpline
210
0.0
220
0.0
230
1.0
 70
     8
 71
     3
 72
     9
 73
     5
 74
     0
 42
0.00000001
 43
0.00000001
 40
0.0
 40
0.0
 40
0.0
 40
0.0
 40
0.4999269277537089
 40
1.0
 40
1.0
 40
1.0
 40
1.0
 10
1614.806121531309
 20
726.7643792828948
 30
0.0
 10
1614.309482666214
 20
727.2317867560326
 30
0.0
 10
1613.316059752735
 20
728.1667383403332
 30
0.0
 10
1611.952478094479
 20
728.2081410144948
 30
0.0
 10
1611.270587625376
 20
728.228845376962
 30
0.0
  0
LINE
  5
367
330
1F
100
AcDbEntity
  8
0
  6
Continuous
 62
     7
370
    25
100
AcDbLine
 10
1614.8061215313
 20
726.7643792829
 30
0.0
 11
1614.8771893432
 21
726.693311471
 31
0.0
  0
LINE
  5
368
330
1F
100
AcDbEntity
  8
0
  6
Continuous
 62
     7
370
    25
100
AcDbLine
 10
1601.3416554372
 20
728.228845377
 30
0.0
 11
1611.2705876254
 21
728.228845377
 31
0.0
  0
LINE
  5
369
330
1F
100
AcDbEntity
  8
0
  6
Continuous
 62
     7
370
    25
100
AcDbLine
 10
1598.3416554372
 20
720.228845377
 30
0.0
 11
1598.3416554372
 21
728.228845377
 31
0.0
  0
LINE
  5
36A
330
1F
100
AcDbEntity
  8
0
  6
Continuous
 62
     7
370
    25
100
AcDbLine
 10
1601.3416554372
 20
720.228845377
 30
0.0
 11
1598.3416554372
 21
720.228845377
 31
0.0
  0
LINE
  5
36B
330
1F
100
AcDbEntity
  8
0
  6
Continuous
 62
     7
370
    25
100
AcDbLine
 10
1598.3416554372
 20
728.228845377
 30
0.0
 11
1601.3416554372
 21
728.228845377
 31
0.0
  0
SPLINE
  5
36C
330
1F
100
AcDbEntity
  8
0
  6
Continuous
 62
     7
370
    25
100
AcDbSpline
210
0.0
220
0.0
230
1.0
 70
     8
 71
     3
 72
    11
 73
     7
 74
     0
 42
0.00000001
 43
0.00000001
 40
0.0
 40
0.0
 40
0.0
 40
0.0
 40
0.0071267221052719
 40
0.1000215931321724
 40
0.6490529784621877
 40
1.0
 40
1.0
 40
1.0
 40
1.0
 10
1636.155191789365
 20
728.1430374209773
 30
0.0
 10
1636.156857333371
 20
728.1479786804954
 30
0.0
 10
1636.180232787395
 20
728.2173279046937
 30
0.0
 10
1636.336260120149
 20
728.6658187607455
 30
0.0
 10
1636.609533430107
 20
729.3415065881038
 30
0.0
 10
1636.921897977122
 20
729.9272305965004
 30
0.0
 10
1637.043704685563
 20
730.1556339610937
 30
0.0
  0
LINE
  5
36D
330
1F
100
AcDbEntity
  8
0
  6
Continuous
 62
     7
370
    25
100
AcDbLine
 10
1637.1984772905
 20
730.0289633616
 30
0.0
 11
1637.0437046856
 21
730.1556339611
 31
0.0
  0
SPLINE
  5
36E
330
1F
100
AcDbEntity
  8
0
  6
Continuous
 62
     7
370
    25
100
AcDbSpline
210
0.0
220
0.0
230
1.0
 70
     8
 71
     3
 72
    10
 73
     6
 74
     0
 42
0.00000001
 43
0.00000001
 40
0.0
 40
0.0
 40
0.0
 40
0.0
 40
0.287980457133264
 40
0.9929350727165661
 40
1.0
 40
1.0
 40
1.0
 40
1.0
 10
1643.513123976219
 20
732.1992886539064
 30
0.0
 10
1643.603615918339
 20
732.1391876171233
 30
0.0
 10
1643.915625365173
 20
731.9319637383833
 30
0.0
 10
1644.2291974534
 20
731.7398332575226
 30
0.0
 10
1644.464322438187
 20
731.6252923588202
 30
0.0
 10
1644.466655437242
 20
731.6241558406889
 30
0.0
  0
LINE
  5
36F
330
1F
100
AcDbEntity
  8
0
  6
Continuous
 62
     7
370
    25
100
AcDbLine
 10
1643.5131239762
 20
732.1992886539
 30
0.0
 11
1643.4592056363
 21
732.0066937095
 31
0.0
  0
ARC
  5
370
330
1F
100
AcDbEntity
  8
0
  6
Continuous
 62
     7
370
    25
100
AcDbCircle
 10
1641.8416554372
 20
726.228845377
 30
0.0
 40
6.200000000000228
100
AcDbArc
 50
74.3600279354
 51
140.7020638718
  0
LINE
  5
371
330
1F
100
AcDbEntity
  8
0
  6
Continuous
 62
     7
370
    25
100
AcDbLine
 10
1636.1551917894
 20
728.143037421
 30
0.0
 11
1638.472295584
 21
735.0264253953
 31
0.0
  0
LINE
  5
372
330
1F
100
AcDbEntity
  8
0
  6
Continuous
 62
     7
370
    25
100
AcDbLine
 10
1638.472295584
 20
735.0264253953
 30
0.0
 11
1638.6618443722
 21
734.9626189938
 31
0.0
  0
LINE
  5
373
330
1F
100
AcDbEntity
  8
0
  6
Continuous
 62
     7
370
    25
100
AcDbLine
 10
1638.6618443722
 20
734.9626189938
 30
0.0
 11
1637.0437046856
 21
730.1556339611
 31
0.0
  0
ARC
  5
374
330
1F
100
AcDbEntity
  8
0
  6
Continuous
 62
     7
370
    25
100
AcDbCircle
 10
1645.3416554372
 20
733.4225926619
 30
0.0
 40
2.200000000000045
100
AcDbArc
 50
180.0
 51
213.7828789087
  0
LINE
  5
375
330
1F
100
AcDbEntity
  8
0
  6
Continuous
 62
     7
370
    25
100
AcDbLine
 10
1643.1416554372
 20
733.4225926619
 30
0.0
 11
1643.3416554372
 21
733.4225926619
 31
0.0
  0
ARC
  5
376
330
1F
100
AcDbEntity
  8
0
  6
Continuous
 62
     7
370
    25
100
AcDbCircle
 10
1645.3416554372
 20
733.4225926619
 30
0.0
 40
2.0
100
AcDbArc
 50
180.0
 51
244.0555202276
  0
ARC
  5
377
330
1F
100
AcDbEntity
  8
0
  6
Continuous
 62
     7
370
    25
100
AcDbCircle
 10
1640.8416554372
 20
734.228845377
 30
0.0
 40
2.5
100
AcDbArc
 50
0.0
 51
161.395605103
  0
LINE
  5
378
330
1F
100
AcDbEntity
  8
0
  6
Continuous
 62
     7
370
    25
100
AcDbLine
 10
1643.3416554372
 20
734.228845377
 30
0.0
 11
1643.1416554372
 21
734.228845377
 31
0.0
  0
ARC
  5
379
330
1F
100
AcDbEntity
  8
0
  6
Continuous
 62
     7
370
    25
100
AcDbCircle
 10
1640.8416554372
 20
734.228845377
 30
0.0
 40
2.299999999999955
100
AcDbArc
 50
0.0
 51
161.395605103
  0
LINE
  5
37A
330
1F
100
AcDbEntity
  8
0
  6
Continuous
 62
     7
370
    25
100
AcDbLine
 10
1643.1416554372
 20
733.4225926619
 30
0.0
 11
1643.1416554372
 21
734.228845377
 31
0.0
  0
CIRCLE
  5
37B
330
1F
100
AcDbEntity
  8
0
  6
Continuous
 62
     7
370
    25
100
AcDbCircle
 10
1640.8416554372
 20
734.228845377
 30
0.0
 40
1.25
  0
LINE
  5
37C
330
1F
100
AcDbEntity
  8
0
  6
Continuous
 62
     7
370
    25
100
AcDbLine
 10
1643.3416554372
 20
734.228845377
 30
0.0
 11
1643.3416554372
 21
733.4225926619
 31
0.0
  0
LINE
  5
37D
330
1F
100
AcDbEntity
  8
0
  6
Continuous
 62
     7
370
    25
100
AcDbLine
 10
1633.6676802332
 20
725.5175381312
 30
0.0
 11
1633.6685940391
 21
725.5001016753
 31
0.0
  0
LINE
  5
37E
330
1F
100
AcDbEntity
  8
0
  6
Continuous
 62
     7
370
    25
100
AcDbLine
 10
1633.6676802332
 20
725.5175381312
 30
0.0
 11
1634.4321427568
 21
725.5576019144
 31
0.0
  0
LINE
  5
37F
330
1F
100
AcDbEntity
  8
0
  6
Continuous
 62
     7
370
    25
100
AcDbLine
 10
1633.6685940391
 20
725.5001016753
 30
0.0
 11
1634.3932580934
 21
725.5380797092
 31
0.0
  0
LINE
  5
380
330
1F
100
AcDbEntity
  8
0
  6
Continuous
 62
     7
370
    25
100
AcDbLine
 10
1643.3416554372
 20
755.728845377
 30
0.0
 11
1643.1416554372
 21
755.728845377
 31
0.0
  0
LINE
  5
381
330
1F
100
AcDbEntity
  8
0
  6
Continuous
 62
     7
370
    25
100
AcDbLine
 10
1643.3416554372
 20
755.728845377
 30
0.0
 11
1643.3416554372
 21
734.228845377
 31
0.0
  0
LINE
  5
382
330
1F
100
AcDbEntity
  8
0
  6
Continuous
 62
     7
370
    25
100
AcDbLine
 10
1598.3416554372
 20
728.228845377
 30
0.0
 11
1598.3416554372
 21
755.728845377
 31
0.0
  0
LINE
  5
383
330
1F
100
AcDbEntity
  8
0
  6
Continuous
 62
     7
370
    25
100
AcDbLine
 10
1598.5416554372
 20
755.728845377
 30
0.0
 11
1598.3416554372
 21
755.728845377
 31
0.0
  0
LINE
  5
384
330
1F
100
AcDbEntity
  8
0
  6
Continuous
 62
     7
370
    25
100
AcDbLine
 10
1636.2431655094
 20
732.2269066606
 30
0.0
 11
1636.2555118659
 21
732.239253017
 31
0.0
  0
ARC
  5
385
330
1F
100
AcDbEntity
  8
0
  6
Continuous
 62
     7
370
    25
100
AcDbCircle
 10
1636.0433798315
 20
732.0271209827
 30
0.0
 40
0.2825396152542781
100
AcDbArc
 50
45.0
 51
225.0
  0
LINE
  5
386
330
1F
100
AcDbEntity
  8
0
  6
Continuous
 62
     7
370
    25
100
AcDbLine
 10
1635.8435941536
 20
731.8273353048
 30
0.0
 11
1635.8312477972
 21
731.8149889483
 31
0.0
  0
ARC
  5
387
330
1F
100
AcDbEntity
  8
0
  6
Continuous
 62
     7
370
    25
100
AcDbCircle
 10
1636.0433798315
 20
732.0271209827
 30
0.0
 40
0.300000000000115
100
AcDbArc
 50
45.0
 51
225.0
  0
LINE
  5
388
330
1F
100
AcDbEntity
  8
0
  6
Continuous
 62
     7
370
    25
100
AcDbLine
 10
1637.6125730097
 20
733.2598261375
 30
0.0
 11
1637.6272165205
 21
733.2693357446
 31
0.0
  0
ARC
  5
389
330
1F
100
AcDbEntity
  8
0
  6
Continuous
 62
     7
370
    25
100
AcDbCircle
 10
1637.3756153501
 20
733.1059440341
 30
0.0
 40
0.2825396152542952
100
AcDbArc
 50
33.0
 51
213.0
  0
LINE
  5
38A
330
1F
100
AcDbEntity
  8
0
  6
Continuous
 62
     7
370
    25
100
AcDbLine
 10
1637.1386576905
 20
732.9520619307
 30
0.0
 11
1637.1240141797
 21
732.9425523236
 31
0.0
  0
ARC
  5
38B
330
1F
100
AcDbEntity
  8
0
  6
Continuous
 62
     7
370
    25
100
AcDbCircle
 10
1637.3756153501
 20
733.1059440341
 30
0.0
 40
0.3000000000001567
100
AcDbArc
 50
33.0
 51
213.0
  0
LINE
  5
38C
330
1F
100
AcDbEntity
  8
0
  6
Continuous
 62
     7
370
    25
100
AcDbLine
 10
1637.1386576905
 20
732.9520619307
 30
0.0
 11
1637.5571112314
 21
732.3076999841
 31
0.0
  0
LINE
  5
38D
330
1F
100
AcDbEntity
  8
0
  6
Continuous
 62
     7
370
    25
100
AcDbLine
 10
1637.1240141797
 20
732.9425523236
 30
0.0
 11
1637.5500037547
 21
732.2865859021
 31
0.0
  0
LINE
  5
38E
330
1F
100
AcDbEntity
  8
0
  6
Continuous
 62
     7
370
    25
100
AcDbLine
 10
1633.6381062713
 20
726.0818429403
 30
0.0
 11
1633.6371924654
 21
726.0992793962
 31
0.0
  0
ARC
  5
38F
330
1F
100
AcDbEntity
  8
0
  6
Continuous
 62
     7
370
    25
100
AcDbCircle
 10
1633.6528932523
 20
725.7996905358
 30
0.0
 40
0.282539615254128
100
AcDbArc
 50
93.0
 51
273.0
  0
ARC
  5
390
330
1F
100
AcDbEntity
  8
0
  6
Continuous
 62
     7
370
    25
100
AcDbCircle
 10
1633.6528932523
 20
725.7996905358
 30
0.0
 40
0.3000000000000403
100
AcDbArc
 50
93.0
 51
273.0
  0
LWPOLYLINE
  5
391
330
1F
100
AcDbEntity
  8
0
  6
Continuous
 62
     7
370
    25
100
AcDbPolyline
 90
        3
 70
   128
 43
0.0
 10
1635.1959355036
 20
726.115478855
 10
1635.1452882625
 20
726.1392944387
 10
1635.03618762
 20
726.155113279
  0
LINE
  5
392
330
1F
100
AcDbEntity
  8
0
  6
Continuous
 62
     7
370
    25
100
AcDbLine
 10
1635.03618762
 20
726.155113279
 30
0.0
 11
1635.035273814
 21
726.1725497349
 31
0.0
  0
LWPOLYLINE
  5
393
330
1F
100
AcDbEntity
  8
0
  6
Continuous
 62
     7
370
    25
100
AcDbPolyline
 90
        3
 70
   128
 43
0.0
 10
1635.2085381292
 20
726.1282523443
 10
1635.1511166587
 20
726.1557533218
 10
1635.035273814
 20
726.1725497349
  0
LINE
  5
394
330
1F
100
AcDbEntity
  8
0
  6
Continuous
 62
     7
370
    25
100
AcDbLine
 10
1633.6381062713
 20
726.0818429403
 30
0.0
 11
1635.03618762
 21
726.155113279
 31
0.0
  0
LINE
  5
395
330
1F
100
AcDbEntity
  8
0
  6
Continuous
 62
     7
370
    25
100
AcDbLine
 10
1633.6371924654
 20
726.0992793962
 30
0.0
 11
1635.035273814
 21
726.1725497349
 31
0.0
  0
LINE
  5
396
330
1F
100
AcDbEntity
  8
0
  6
Continuous
 62
     7
370
    25
100
AcDbLine
 10
1636.2431655094
 20
732.2269066606
 30
0.0
 11
1637.2058522752
 21
731.2642198948
 31
0.0
  0
LINE
  5
397
330
1F
100
AcDbEntity
  8
0
  6
Continuous
 62
     7
370
    25
100
AcDbLine
 10
1636.2555118659
 20
732.239253017
 30
0.0
 11
1637.2120710275
 21
731.2826938554
 31
0.0
  0
LINE
  5
398
330
1F
100
AcDbEntity
  8
0
  6
Continuous
 62
     7
370
    25
100
AcDbLine
 10
1642.8416554372
 20
756.028845377
 30
0.0
 11
1598.8416554372
 21
756.028845377
 31
0.0
  0
ARC
  5
399
330
1F
100
AcDbEntity
  8
0
  6
Continuous
 62
     7
370
    25
100
AcDbCircle
 10
1642.8416554372
 20
755.728845377
 30
0.0
 40
0.3000000000000682
100
AcDbArc
 50
0.0
 51
90.0
  0
ARC
  5
39A
330
1F
100
AcDbEntity
  8
0
  6
Continuous
 62
     7
370
    25
100
AcDbCircle
 10
1598.8416554372
 20
755.728845377
 30
0.0
 40
0.3000000000000682
100
AcDbArc
 50
90.0
 51
180.0
  0
ARC
  5
39B
330
1F
100
AcDbEntity
  8
0
  6
Continuous
 62
     7
370
    25
100
AcDbCircle
 10
1639.3416554372
 20
738.228845377
 30
0.0
 40
3.470000000000042
100
AcDbArc
 50
0.0
 51
254.662473841
  0
LWPOLYLINE
  5
39C
330
1F
100
AcDbEntity
  8
0
  6
Continuous
 62
     7
370
    25
100
AcDbPolyline
 90
        3
 70
   128
 43
0.0
 10
1642.231002209
 20
736.3072379164
 10
1642.6236412659
 20
737.1021382188
 10
1642.8116554372
 20
738.228845377
  0
CIRCLE
  5
39D
330
1F
100
AcDbEntity
  8
0
  6
Continuous
 62
     7
370
    25
100
AcDbCircle
 10
1602.3416554372
 20
738.228845377
 30
0.0
 40
3.470000000000027
  0
LINE
  5
39E
330
1F
100
AcDbEntity
  8
0
  6
Continuous
 62
     7
370
    25
100
AcDbLine
 10
1633.7895413839
 20
727.8079144925
 30
0.0
 11
1635.1723050607
 21
727.5889062414
 31
0.0
  0
ARC
  5
39F
330
1F
100
AcDbEntity
  8
0
  6
Continuous
 62
     7
370
    25
100
AcDbCircle
 10
1633.7426110444
 20
727.5116079903
 30
0.0
 40
0.300000000000166
100
AcDbArc
 50
81.0
 51
261.0
  0
LINE
  5
3A0
330
1F
100
AcDbEntity
  8
0
  6
Continuous
 62
     7
370
    25
100
AcDbLine
 10
1633.6956807048
 20
727.2153014881
 30
0.0
 11
1635.0784443817
 21
726.9962932371
 31
0.0
  0
ARC
  5
3A1
330
1F
100
AcDbEntity
  8
0
  6
Continuous
 62
     7
370
    25
100
AcDbCircle
 10
1635.1253747212
 20
727.2925997392
 30
0.0
 40
0.3000000000000537
100
AcDbArc
 50
261.0
 51
81.0
  0
LINE
  5
3A2
330
1F
100
AcDbEntity
  8
0
  6
Continuous
 62
     7
370
    25
100
AcDbLine
 10
1634.2938063248
 20
729.4475366912
 30
0.0
 11
1635.6008189219
 21
728.9458215618
 31
0.0
  0
ARC
  5
3A3
330
1F
100
AcDbEntity
  8
0
  6
Continuous
 62
     7
370
    25
100
AcDbCircle
 10
1634.18629594
 20
729.1674625632
 30
0.0
 40
0.3000000000001433
100
AcDbArc
 50
69.0
 51
249.0
  0
LINE
  5
3A4
330
1F
100
AcDbEntity
  8
0
  6
Continuous
 62
     7
370
    25
100
AcDbLine
 10
1634.0787855551
 20
728.8873884353
 30
0.0
 11
1635.3857981522
 21
728.3856733059
 31
0.0
  0
ARC
  5
3A5
330
1F
100
AcDbEntity
  8
0
  6
Continuous
 62
     7
370
    25
100
AcDbCircle
 10
1635.4933085371
 20
728.6657474339
 30
0.0
 40
0.3000000000000618
100
AcDbArc
 50
249.0
 51
69.0
  0
LINE
  5
3A6
330
1F
100
AcDbEntity
  8
0
  6
Continuous
 62
     7
370
    25
100
AcDbLine
 10
1637.6272165205
 20
733.2693357446
 30
0.0
 11
1637.7942415576
 21
733.0121397419
 31
0.0
  0
LINE
  5
3A7
330
1F
100
AcDbEntity
  8
0
  6
Continuous
 62
     7
370
    25
100
AcDbLine
 10
1635.1279484906
 20
730.9464866345
 30
0.0
 11
1636.3020872857
 21
730.1839919854
 31
0.0
  0
ARC
  5
3A8
330
1F
100
AcDbEntity
  8
0
  6
Continuous
 62
     7
370
    25
100
AcDbCircle
 10
1634.9645567801
 20
730.6948854641
 30
0.0
 40
0.3000000000001567
100
AcDbArc
 50
57.0
 51
237.0
  0
LINE
  5
3A9
330
1F
100
AcDbEntity
  8
0
  6
Continuous
 62
     7
370
    25
100
AcDbLine
 10
1634.8011650696
 20
730.4432842937
 30
0.0
 11
1635.9753038647
 21
729.6807896447
 31
0.0
  0
ARC
  5
3AA
330
1F
100
AcDbEntity
  8
0
  6
Continuous
 62
     7
370
    25
100
AcDbCircle
 10
1636.1386955752
 20
729.9323908151
 30
0.0
 40
0.3000000000002805
100
AcDbArc
 50
237.0
 51
57.0
  0
LINE
  5
3AB
330
1F
100
AcDbEntity
  8
0
  6
Continuous
 62
     7
370
    25
100
AcDbLine
 10
1635.8312477972
 20
731.8149889483
 30
0.0
 11
1636.8211972908
 21
730.8250394547
 31
0.0
  0
LWPOLYLINE
  5
3AC
330
1F
100
AcDbEntity
  8
0
  6
Continuous
 62
     7
370
    25
100
AcDbPolyline
 90
        3
 70
   128
 43
0.0
 10
1636.8211972908
 20
730.8250394547
 10
1636.9185242955
 20
730.7600076293
 10
1637.0284492451
 20
730.7372111836
  0
LINE
  5
3AD
330
1F
100
AcDbEntity
  8
0
  6
Continuous
 62
     7
370
    25
100
AcDbLine
 10
1637.6125730097
 20
733.2598261375
 30
0.0
 11
1637.7871340809
 21
732.9910256599
 31
0.0
  0
LINE
  5
3AE
330
1F
100
AcDbEntity
  8
0
  6
Continuous
 62
     7
370
    25
100
AcDbLine
 10
1636.8335436473
 20
730.8373858111
 30
0.0
 11
1636.8211972908
 21
730.8250394547
 31
0.0
  0
ARC
  5
3AF
330
1F
100
AcDbEntity
  8
0
  6
Continuous
 62
     7
370
    25
100
AcDbCircle
 10
1637.0333293252
 20
731.037171489
 30
0.0
 40
0.282539615254192
100
AcDbArc
 50
225.0
 51
270.1996852364
  0
ARC
  5
3B0
330
1F
100
AcDbEntity
  8
0
  6
Continuous
 62
     7
370
    25
100
AcDbCircle
 10
1598.8416554372
 20
755.728845377
 30
0.0
 40
0.5
100
AcDbArc
 50
90.0
 51
180.0
  0
LINE
  5
3B1
330
1F
100
AcDbEntity
  8
0
  6
Continuous
 62
     7
370
    25
100
AcDbLine
 10
1598.8416554372
 20
756.228845377
 30
0.0
 11
1598.8416554372
 21
756.028845377
 31
0.0
  0
LINE
  5
3B2
330
1F
100
AcDbEntity
  8
0
  6
Continuous
 62
     7
370
    25
100
AcDbLine
 10
1635.1695736548
 20
727.571660823
 30
0.0
 11
1635.1723050607
 21
727.5889062414
 31
0.0
  0
LINE
  5
3B3
330
1F
100
AcDbEntity
  8
0
  6
Continuous
 62
     7
370
    25
100
AcDbLine
 10
1633.7868099779
 20
727.790669074
 30
0.0
 11
1635.1695736548
 21
727.571660823
 31
0.0
  0
LINE
  5
3B4
330
1F
100
AcDbEntity
  8
0
  6
Continuous
 62
     7
370
    25
100
AcDbLine
 10
1633.7868099779
 20
727.790669074
 30
0.0
 11
1633.7895413839
 21
727.8079144925
 31
0.0
  0
LINE
  5
3B5
330
1F
100
AcDbEntity
  8
0
  6
Continuous
 62
     7
370
    25
100
AcDbLine
 10
1634.2875490825
 20
729.4312360177
 30
0.0
 11
1634.2938063248
 21
729.4475366912
 31
0.0
  0
ARC
  5
3B6
330
1F
100
AcDbEntity
  8
0
  6
Continuous
 62
     7
370
    25
100
AcDbCircle
 10
1634.18629594
 20
729.1674625632
 30
0.0
 40
0.2825396152542854
100
AcDbArc
 50
68.9999999999
 51
249.0
  0
LINE
  5
3B7
330
1F
100
AcDbEntity
  8
0
  6
Continuous
 62
     7
370
    25
100
AcDbLine
 10
1634.0850427974
 20
728.9036891087
 30
0.0
 11
1634.0787855551
 21
728.8873884353
 31
0.0
  0
ARC
  5
3B8
330
1F
100
AcDbEntity
  8
0
  6
Continuous
 62
     7
370
    25
100
AcDbCircle
 10
1642.8416554372
 20
755.728845377
 30
0.0
 40
0.5
100
AcDbArc
 50
0.0
 51
90.0
  0
LINE
  5
3B9
330
1F
100
AcDbEntity
  8
0
  6
Continuous
 62
     7
370
    25
100
AcDbLine
 10
1642.8416554372
 20
756.028845377
 30
0.0
 11
1642.8416554372
 21
756.228845377
 31
0.0
  0
LINE
  5
3BA
330
1F
100
AcDbEntity
  8
0
  6
Continuous
 62
     7
370
    25
100
AcDbLine
 10
1635.8435941536
 20
731.8273353048
 30
0.0
 11
1636.8335436473
 21
730.8373858111
 31
0.0
  0
LINE
  5
3BB
330
1F
100
AcDbEntity
  8
0
  6
Continuous
 62
     7
370
    25
100
AcDbLine
 10
1635.9848134718
 20
729.6954331555
 30
0.0
 11
1635.9753038647
 21
729.6807896447
 31
0.0
  0
ARC
  5
3BC
330
1F
100
AcDbEntity
  8
0
  6
Continuous
 62
     7
370
    25
100
AcDbCircle
 10
1636.1386955752
 20
729.9323908151
 30
0.0
 40
0.2825396152543236
100
AcDbArc
 50
237.0
 51
57.0
  0
LINE
  5
3BD
330
1F
100
AcDbEntity
  8
0
  6
Continuous
 62
     7
370
    25
100
AcDbLine
 10
1636.2925776786
 20
730.1693484747
 30
0.0
 11
1636.3020872857
 21
730.1839919854
 31
0.0
  0
LINE
  5
3BE
330
1F
100
AcDbEntity
  8
0
  6
Continuous
 62
     7
370
    25
100
AcDbLine
 10
1634.0850427974
 20
728.9036891087
 30
0.0
 11
1635.3920553945
 21
728.4019739794
 31
0.0
  0
LINE
  5
3BF
330
1F
100
AcDbEntity
  8
0
  6
Continuous
 62
     7
370
    25
100
AcDbLine
 10
1635.3920553945
 20
728.4019739794
 30
0.0
 11
1635.3857981522
 21
728.3856733059
 31
0.0
  0
LINE
  5
3C0
330
1F
100
AcDbEntity
  8
0
  6
Continuous
 62
     7
370
    25
100
AcDbLine
 10
1634.8106746767
 20
730.4579278045
 30
0.0
 11
1634.8011650696
 21
730.4432842937
 31
0.0
  0
LINE
  5
3C1
330
1F
100
AcDbEntity
  8
0
  6
Continuous
 62
     7
370
    25
100
AcDbLine
 10
1634.8106746767
 20
730.4579278045
 30
0.0
 11
1635.9848134718
 21
729.6954331555
 31
0.0
  0
LINE
  5
3C2
330
1F
100
AcDbEntity
  8
0
  6
Continuous
 62
     7
370
    25
100
AcDbLine
 10
1633.6984121108
 20
727.2325469065
 30
0.0
 11
1633.6956807048
 21
727.2153014881
 31
0.0
  0
LINE
  5
3C3
330
1F
100
AcDbEntity
  8
0
  6
Continuous
 62
     7
370
    25
100
AcDbLine
 10
1633.6984121108
 20
727.2325469065
 30
0.0
 11
1635.0811757876
 21
727.0135386555
 31
0.0
  0
LINE
  5
3C4
330
1F
100
AcDbEntity
  8
0
  6
Continuous
 62
     7
370
    25
100
AcDbLine
 10
1635.0811757876
 20
727.0135386555
 30
0.0
 11
1635.0784443817
 21
726.9962932371
 31
0.0
  0
LINE
  5
3C5
330
1F
100
AcDbEntity
  8
0
  6
Continuous
 62
     7
370
    25
100
AcDbLine
 10
1635.1184388835
 20
730.9318431237
 30
0.0
 11
1636.2925776786
 21
730.1693484747
 31
0.0
  0
LINE
  5
3C6
330
1F
100
AcDbEntity
  8
0
  6
Continuous
 62
     7
370
    25
100
AcDbLine
 10
1635.1184388835
 20
730.9318431237
 30
0.0
 11
1635.1279484906
 21
730.9464866345
 31
0.0
  0
ARC
  5
3C7
330
1F
100
AcDbEntity
  8
0
  6
Continuous
 62
     7
370
    25
100
AcDbCircle
 10
1635.1253747212
 20
727.2925997392
 30
0.0
 40
0.2825396152542114
100
AcDbArc
 50
261.0
 51
81.0
  0
ARC
  5
3C8
330
1F
100
AcDbEntity
  8
0
  6
Continuous
 62
     7
370
    25
100
AcDbCircle
 10
1635.4933085371
 20
728.6657474339
 30
0.0
 40
0.282539615254204
100
AcDbArc
 50
249.0
 51
69.0
  0
LINE
  5
3C9
330
1F
100
AcDbEntity
  8
0
  6
Continuous
 62
     7
370
    25
100
AcDbLine
 10
1635.5945616796
 20
728.9295208884
 30
0.0
 11
1635.6008189219
 21
728.9458215618
 31
0.0
  0
LINE
  5
3CA
330
1F
100
AcDbEntity
  8
0
  6
Continuous
 62
     7
370
    25
100
AcDbLine
 10
1634.2875490825
 20
729.4312360177
 30
0.0
 11
1635.5945616796
 21
728.9295208884
 31
0.0
  0
ARC
  5
3CB
330
1F
100
AcDbEntity
  8
0
  6
Continuous
 62
     7
370
    25
100
AcDbCircle
 10
1633.7426110444
 20
727.5116079903
 30
0.0
 40
0.282539615254247
100
AcDbArc
 50
81.0
 51
261.0
  0
ARC
  5
3CC
330
1F
100
AcDbEntity
  8
0
  6
Continuous
 62
     7
370
    25
100
AcDbCircle
 10
1634.9645567801
 20
730.6948854641
 30
0.0
 40
0.2825396152543236
100
AcDbArc
 50
57.0
 51
237.0
  0
LINE
  5
3CD
330
1F
100
AcDbEntity
  8
0
  6
Continuous
 62
     7
370
    25
100
AcDbLine
 10
1621.0326368069
 20
765.6172682682
 30
0.0
 11
1621.2362031348
 21
765.6172682682
 31
0.0
  0
LINE
  5
3CE
330
1F
100
AcDbEntity
  8
0
  6
Continuous
 62
     7
370
    25
100
AcDbLine
 10
1643.1416554372
 20
735.2086412741
 30
0.0
 11
1643.1416554372
 21
755.728845377
 31
0.0
  0
LINE
  5
3CF
330
1F
100
AcDbEntity
  8
0
  6
Continuous
 62
     7
370
    25
100
AcDbLine
 10
1598.5416554372
 20
755.728845377
 30
0.0
 11
1598.5416554372
 21
728.228845377
 31
0.0
  0
DIMENSION
  5
3D0
330
1F
100
AcDbEntity
  8
FORMAT
100
AcDbDimension
  2
_D_1
 10
1657.8602016531
 20
720.228845377
 30
0.0
 11
1657.8602016531
 21
750.878845377
 31
0.0
 70
   160
  1
<>
 71
     2
 42
-1.0
  3
SLDDIMSTYLE1
100
AcDbAlignedDimension
 13
1643.0416554372
 23
781.528845377
 33
0.0
 14
1641.8416554372
 24
720.228845377
 34
0.0
 50
90.0
100
AcDbRotatedDimension
  0
DIMENSION
  5
3DC
330
1F
100
AcDbEntity
  8
FORMAT
100
AcDbDimension
  2
_D_2
 10
1598.3416554372
 20
789.8773405928
 30
0.0
 11
1620.8416554372
 21
789.8773405928
 31
0.0
 70
   160
  1
<>
 71
     2
 42
-1.0
  3
SLDDIMSTYLE0
100
AcDbAlignedDimension
 13
1643.3416554372
 23
781.228845377
 33
0.0
 14
1598.3416554372
 24
781.228845377
 34
0.0
100
AcDbRotatedDimension
  0
ENDSEC
  0
SECTION
  2
OBJECTS
  0
DICTIONARY
  5
C
330
0
100
AcDbDictionary
281
     1
  3
ACAD_GROUP
350
D
  3
ACAD_LAYOUT
350
1A
  3
ACAD_MLINESTYLE
350
17
  3
ACAD_PLOTSETTINGS
350
19
  3
ACAD_PLOTSTYLENAME
350
E
  3
ACAD_SCALELIST
350
47
  3
DWGPROPS
350
3E7
  0
DICTIONARY
  5
D
102
{ACAD_REACTORS
330
C
102
}
330
C
100
AcDbDictionary
281
     1
  0
DICTIONARY
  5
1A
102
{ACAD_REACTORS
330
C
102
}
330
C
100
AcDbDictionary
281
     1
  3
Layout1
350
1E
  3
Layout2
350
26
  3
Model
350
22
  0
DICTIONARY
  5
17
102
{ACAD_REACTORS
330
C
102
}
330
C
100
AcDbDictionary
281
     1
  3
Standard
350
18
  0
DICTIONARY
  5
19
102
{ACAD_REACTORS
330
C
102
}
330
C
100
AcDbDictionary
281
     1
  0
ACDBDICTIONARYWDFLT
  5
E
102
{ACAD_REACTORS
330
C
102
}
330
C
100
AcDbDictionary
281
     1
  3
Normal
350
F
100
AcDbDictionaryWithDefault
340
F
  0
DICTIONARY
  5
47
102
{ACAD_REACTORS
330
C
102
}
330
C
100
AcDbDictionary
281
     1
  3
A0
350
48
  3
A1
350
49
  3
A2
350
4A
  3
A3
350
4B
  3
A4
350
4C
  3
A5
350
4D
  3
A6
350
4E
  3
A7
350
4F
  3
A8
350
50
  3
A9
350
51
  3
B0
350
52
  3
B1
350
53
  3
B2
350
54
  3
B3
350
55
  3
B4
350
56
  3
B5
350
57
  3
B6
350
58
  0
XRECORD
  5
3E7
102
{ACAD_REACTORS
330
C
102
}
330
C
100
AcDbXrecord
280
     1
  1
DWGPROPS COOKIE
  2

  3

  4

  6

  7

  8
itutanc
  9

300
=
301
=
302
=
303
=
304
=
305
=
306
=
307
=
308
=
309
=
 40
0.0
 41
2460801.374737778
 42
2460801.374738623
  1

 90
        0
  0
LAYOUT
  5
1E
102
{ACAD_REACTORS
330
1A
102
}
330
1A
100
AcDbPlotSettings
  1

  2
none_device
  4

  6

 40
0.0
 41
0.0
 42
0.0
 43
0.0
 44
0.0
 45
0.0
 46
0.0
 47
0.0
 48
0.0
 49
0.0
140
0.0
141
0.0
142
1.0
143
1.0
 70
   688
 72
     1
 73
     0
 74
     5
  7

 75
    16
147
1.0
148
0.0
149
0.0
100
AcDbLayout
  1
Layout1
 70
     1
 71
     1
 10
0.0
 20
0.0
 11
420.0
 21
297.0
 12
0.0
 22
0.0
 32
0.0
 14
1.0000000000E+20
 24
1.0000000000E+20
 34
1.0000000000E+20
 15
-1.0000000000E+20
 25
-1.0000000000E+20
 35
-1.0000000000E+20
146
0.0
 13
0.0
 23
0.0
 33
0.0
 16
1.0
 26
0.0
 36
0.0
 17
0.0
 27
1.0
 37
0.0
 76
     0
330
1B
  0
LAYOUT
  5
26
102
{ACAD_REACTORS
330
1A
102
}
330
1A
100
AcDbPlotSettings
  1

  2
none_device
  4

  6

 40
0.0
 41
0.0
 42
0.0
 43
0.0
 44
0.0
 45
0.0
 46
0.0
 47
0.0
 48
0.0
 49
0.0
140
0.0
141
0.0
142
1.0
143
1.0
 70
   688
 72
     1
 73
     0
 74
     5
  7

 75
    16
147
1.0
148
0.0
149
0.0
100
AcDbLayout
  1
Layout2
 70
     1
 71
     2
 10
0.0
 20
0.0
 11
0.0
 21
0.0
 12
0.0
 22
0.0
 32
0.0
 14
0.0
 24
0.0
 34
0.0
 15
0.0
 25
0.0
 35
0.0
146
0.0
 13
0.0
 23
0.0
 33
0.0
 16
1.0
 26
0.0
 36
0.0
 17
0.0
 27
1.0
 37
0.0
 76
     0
330
23
  0
LAYOUT
  5
22
102
{ACAD_REACTORS
330
1A
102
}
330
1A
100
AcDbPlotSettings
  1

  2
none_device
  4
Letter_(8.50_x_11.00_Inches)
  6

 40
6.35
 41
6.35
 42
6.35000508
 43
6.35000508
 44
215.9
 45
279.4
 46
0.0
 47
0.0
 48
0.0
 49
0.0
140
0.0
141
0.0
142
1.0
143
1.0
 70
  1712
 72
     1
 73
     0
 74
     0
  7

 75
     0
147
1.0
148
0.0
149
0.0
100
AcDbLayout
  1
Model
 70
     1
 71
     0
 10
0.0
 20
0.0
 11
2100.0
 21
1485.0
 12
0.0
 22
0.0
 32
0.0
 14
0.0
 24
0.0
 34
0.0
 15
2100.0
 25
1485.0
 35
0.0
146
0.0
 13
0.0
 23
0.0
 33
0.0
 16
1.0
 26
0.0
 36
0.0
 17
0.0
 27
1.0
 37
0.0
 76
     0
330
1F
331
29
  0
MLINESTYLE
  5
18
102
{ACAD_REACTORS
330
17
102
}
330
17
100
AcDbMlineStyle
  2
Standard
 70
     0
  3

 62
   256
 51
90.0
 52
90.0
 71
     2
 49
0.5
 62
   256
  6
BYLAYER
 49
-0.5
 62
   256
  6
BYLAYER
  0
ACDBPLACEHOLDER
  5
F
102
{ACAD_REACTORS
330
E
102
}
330
E
  0
SCALE
  5
48
102
{ACAD_REACTORS
330
47
102
}
330
47
100
AcDbScale
 70
     0
300
1:1
140
1.0
141
1.0
290
     1
  0
SCALE
  5
49
102
{ACAD_REACTORS
330
47
102
}
330
47
100
AcDbScale
 70
     0
300
1:2
140
1.0
141
2.0
290
     0
  0
SCALE
  5
4A
102
{ACAD_REACTORS
330
47
102
}
330
47
100
AcDbScale
 70
     0
300
1:4
140
1.0
141
4.0
290
     0
  0
SCALE
  5
4B
102
{ACAD_REACTORS
330
47
102
}
330
47
100
AcDbScale
 70
     0
300
1:5
140
1.0
141
5.0
290
     0
  0
SCALE
  5
4C
102
{ACAD_REACTORS
330
47
102
}
330
47
100
AcDbScale
 70
     0
300
1:8
140
1.0
141
8.0
290
     0
  0
SCALE
  5
4D
102
{ACAD_REACTORS
330
47
102
}
330
47
100
AcDbScale
 70
     0
300
1:10
140
1.0
141
10.0
290
     0
  0
SCALE
  5
4E
102
{ACAD_REACTORS
330
47
102
}
330
47
100
AcDbScale
 70
     0
300
1:16
140
1.0
141
16.0
290
     0
  0
SCALE
  5
4F
102
{ACAD_REACTORS
330
47
102
}
330
47
100
AcDbScale
 70
     0
300
1:20
140
1.0
141
20.0
290
     0
  0
SCALE
  5
50
102
{ACAD_REACTORS
330
47
102
}
330
47
100
AcDbScale
 70
     0
300
1:30
140
1.0
141
30.0
290
     0
  0
SCALE
  5
51
102
{ACAD_REACTORS
330
47
102
}
330
47
100
AcDbScale
 70
     0
300
1:40
140
1.0
141
40.0
290
     0
  0
SCALE
  5
52
102
{ACAD_REACTORS
330
47
102
}
330
47
100
AcDbScale
 70
     0
300
1:50
140
1.0
141
50.0
290
     0
  0
SCALE
  5
53
102
{ACAD_REACTORS
330
47
102
}
330
47
100
AcDbScale
 70
     0
300
1:100
140
1.0
141
100.0
290
     0
  0
SCALE
  5
54
102
{ACAD_REACTORS
330
47
102
}
330
47
100
AcDbScale
 70
     0
300
2:1
140
2.0
141
1.0
290
     0
  0
SCALE
  5
55
102
{ACAD_REACTORS
330
47
102
}
330
47
100
AcDbScale
 70
     0
300
4:1
140
4.0
141
1.0
290
     0
  0
SCALE
  5
56
102
{ACAD_REACTORS
330
47
102
}
330
47
100
AcDbScale
 70
     0
300
8:1
140
8.0
141
1.0
290
     0
  0
SCALE
  5
57
102
{ACAD_REACTORS
330
47
102
}
330
47
100
AcDbScale
 70
     0
300
10:1
140
10.0
141
1.0
290
     0
  0
SCALE
  5
58
102
{ACAD_REACTORS
330
47
102
}
330
47
100
AcDbScale
 70
     0
300
100:1
140
100.0
141
1.0
290
     0
  0
ENDSEC
  0
EOF
