  0
SECTION
  2
HEADER
  9
$ACADVER
  1
AC1021
  9
$ACADMAINTVER
 70
    50
  9
$DWGCODEPAGE
  3
ANSI_1252
  9
$LASTSAVEDBY
  1
mjanyez
  9
$INSBASE
 10
0.0
 20
0.0
 30
0.0
  9
$EXTMIN
 10
2988.848565365551
 20
1692.799400791084
 30
0.0
  9
$EXTMAX
 10
3058.152121426011
 20
1745.368314203029
 30
0.0
  9
$LIMMIN
 10
0.0
 20
0.0
  9
$LIMMAX
 10
420.0
 20
297.0
  9
$ORTHOMODE
 70
     0
  9
$REGENMODE
 70
     1
  9
$FILLMODE
 70
     1
  9
$QTEXTMODE
 70
     0
  9
$MIRRTEXT
 70
     0
  9
$LTSCALE
 40
1.0
  9
$ATTMODE
 70
     1
  9
$TEXTSIZE
 40
2.5
  9
$TRACEWID
 40
1.0
  9
$TEXTSTYLE
  7
Standard
  9
$CLAYER
  8
0
  9
$CELTYPE
  6
ByLayer
  9
$CECOLOR
 62
   256
  9
$CELTSCALE
 40
1.0
  9
$DISPSILH
 70
     0
  9
$DIMSCALE
 40
1.0
  9
$DIMASZ
 40
2.5
  9
$DIMEXO
 40
0.625
  9
$DIMDLI
 40
3.75
  9
$DIMRND
 40
0.0
  9
$DIMDLE
 40
0.0
  9
$DIMEXE
 40
1.25
  9
$DIMTP
 40
0.0
  9
$DIMTM
 40
0.0
  9
$DIMTXT
 40
2.5
  9
$DIMCEN
 40
2.5
  9
$DIMTSZ
 40
0.0
  9
$DIMTOL
 70
     0
  9
$DIMLIM
 70
     0
  9
$DIMTIH
 70
     0
  9
$DIMTOH
 70
     0
  9
$DIMSE1
 70
     0
  9
$DIMSE2
 70
     0
  9
$DIMTAD
 70
     1
  9
$DIMZIN
 70
     8
  9
$DIMBLK
  1

  9
$DIMASO
 70
     1
  9
$DIMSHO
 70
     1
  9
$DIMPOST
  1

  9
$DIMAPOST
  1

  9
$DIMALT
 70
     0
  9
$DIMALTD
 70
     3
  9
$DIMALTF
 40
0.03937007874016
  9
$DIMLFAC
 40
1.0
  9
$DIMTOFL
 70
     1
  9
$DIMTVP
 40
0.0
  9
$DIMTIX
 70
     0
  9
$DIMSOXD
 70
     0
  9
$DIMSAH
 70
     0
  9
$DIMBLK1
  1

  9
$DIMBLK2
  1

  9
$DIMSTYLE
  2
ISO-25
  9
$DIMCLRD
 70
     0
  9
$DIMCLRE
 70
     0
  9
$DIMCLRT
 70
     0
  9
$DIMTFAC
 40
1.0
  9
$DIMGAP
 40
0.625
  9
$DIMJUST
 70
     0
  9
$DIMSD1
 70
     0
  9
$DIMSD2
 70
     0
  9
$DIMTOLJ
 70
     0
  9
$DIMTZIN
 70
     8
  9
$DIMALTZ
 70
     0
  9
$DIMALTTZ
 70
     0
  9
$DIMUPT
 70
     0
  9
$DIMDEC
 70
     2
  9
$DIMTDEC
 70
     2
  9
$DIMALTU
 70
     2
  9
$DIMALTTD
 70
     3
  9
$DIMTXSTY
  7
Standard
  9
$DIMAUNIT
 70
     0
  9
$DIMADEC
 70
     0
  9
$DIMALTRND
 40
0.0
  9
$DIMAZIN
 70
     0
  9
$DIMDSEP
 70
    44
  9
$DIMATFIT
 70
     3
  9
$DIMFRAC
 70
     0
  9
$DIMLDRBLK
  1

  9
$DIMLUNIT
 70
     2
  9
$DIMLWD
 70
    -2
  9
$DIMLWE
 70
    -2
  9
$DIMTMOVE
 70
     0
  9
$DIMFXL
 40
1.0
  9
$DIMFXLON
 70
     0
  9
$DIMJOGANG
 40
0.7853981633974483
  9
$DIMTFILL
 70
     0
  9
$DIMTFILLCLR
 70
     0
  9
$DIMARCSYM
 70
     0
  9
$DIMLTYPE
  6

  9
$DIMLTEX1
  6

  9
$DIMLTEX2
  6

  9
$LUNITS
 70
     2
  9
$LUPREC
 70
     4
  9
$SKETCHINC
 40
1.0
  9
$FILLETRAD
 40
0.0
  9
$AUNITS
 70
     0
  9
$AUPREC
 70
     0
  9
$MENU
  1
.
  9
$ELEVATION
 40
0.0
  9
$PELEVATION
 40
0.0
  9
$THICKNESS
 40
0.0
  9
$LIMCHECK
 70
     0
  9
$CHAMFERA
 40
0.0
  9
$CHAMFERB
 40
0.0
  9
$CHAMFERC
 40
0.0
  9
$CHAMFERD
 40
0.0
  9
$SKPOLY
 70
     0
  9
$TDCREATE
 40
2460970.425162037
  9
$TDUCREATE
 40
2460970.341828704
  9
$TDUPDATE
 40
2460970.452280093
  9
$TDUUPDATE
 40
2460970.368946759
  9
$TDINDWG
 40
0.0271180556
  9
$TDUSRTIMER
 40
0.0271180556
  9
$USRTIMER
 70
     1
  9
$ANGBASE
 50
0.0
  9
$ANGDIR
 70
     0
  9
$PDMODE
 70
     0
  9
$PDSIZE
 40
0.0
  9
$PLINEWID
 40
0.0
  9
$SPLFRAME
 70
     0
  9
$SPLINETYPE
 70
     6
  9
$SPLINESEGS
 70
     8
  9
$HANDSEED
  5
E6E
  9
$SURFTAB1
 70
     6
  9
$SURFTAB2
 70
     6
  9
$SURFTYPE
 70
     6
  9
$SURFU
 70
     6
  9
$SURFV
 70
     6
  9
$UCSBASE
  2

  9
$UCSNAME
  2

  9
$UCSORG
 10
0.0
 20
0.0
 30
0.0
  9
$UCSXDIR
 10
1.0
 20
0.0
 30
0.0
  9
$UCSYDIR
 10
0.0
 20
1.0
 30
0.0
  9
$UCSORTHOREF
  2

  9
$UCSORTHOVIEW
 70
     0
  9
$UCSORGTOP
 10
0.0
 20
0.0
 30
0.0
  9
$UCSORGBOTTOM
 10
0.0
 20
0.0
 30
0.0
  9
$UCSORGLEFT
 10
0.0
 20
0.0
 30
0.0
  9
$UCSORGRIGHT
 10
0.0
 20
0.0
 30
0.0
  9
$UCSORGFRONT
 10
0.0
 20
0.0
 30
0.0
  9
$UCSORGBACK
 10
0.0
 20
0.0
 30
0.0
  9
$PUCSBASE
  2

  9
$PUCSNAME
  2

  9
$PUCSORG
 10
0.0
 20
0.0
 30
0.0
  9
$PUCSXDIR
 10
1.0
 20
0.0
 30
0.0
  9
$PUCSYDIR
 10
0.0
 20
1.0
 30
0.0
  9
$PUCSORTHOREF
  2

  9
$PUCSORTHOVIEW
 70
     0
  9
$PUCSORGTOP
 10
0.0
 20
0.0
 30
0.0
  9
$PUCSORGBOTTOM
 10
0.0
 20
0.0
 30
0.0
  9
$PUCSORGLEFT
 10
0.0
 20
0.0
 30
0.0
  9
$PUCSORGRIGHT
 10
0.0
 20
0.0
 30
0.0
  9
$PUCSORGFRONT
 10
0.0
 20
0.0
 30
0.0
  9
$PUCSORGBACK
 10
0.0
 20
0.0
 30
0.0
  9
$USERI1
 70
     0
  9
$USERI2
 70
     0
  9
$USERI3
 70
     0
  9
$USERI4
 70
     0
  9
$USERI5
 70
     0
  9
$USERR1
 40
0.0
  9
$USERR2
 40
0.0
  9
$USERR3
 40
0.0
  9
$USERR4
 40
0.0
  9
$USERR5
 40
0.0
  9
$WORLDVIEW
 70
     1
  9
$SHADEDGE
 70
     3
  9
$SHADEDIF
 70
    70
  9
$TILEMODE
 70
     1
  9
$MAXACTVP
 70
    64
  9
$PINSBASE
 10
0.0
 20
0.0
 30
0.0
  9
$PLIMCHECK
 70
     0
  9
$PEXTMIN
 10
25.69999999999999
 20
19.5
 30
0.0
  9
$PEXTMAX
 10
231.3
 20
175.5
 30
0.0
  9
$PLIMMIN
 10
-20.0
 20
-7.5
  9
$PLIMMAX
 10
277.0
 20
202.5
  9
$UNITMODE
 70
     0
  9
$VISRETAIN
 70
     1
  9
$PLINEGEN
 70
     0
  9
$PSLTSCALE
 70
     1
  9
$TREEDEPTH
 70
  3020
  9
$CMLSTYLE
  2
Standard
  9
$CMLJUST
 70
     0
  9
$CMLSCALE
 40
20.0
  9
$PROXYGRAPHICS
 70
     1
  9
$MEASUREMENT
 70
     1
  9
$CELWEIGHT
370
    -1
  9
$ENDCAPS
280
     0
  9
$JOINSTYLE
280
     0
  9
$LWDISPLAY
290
     0
  9
$INSUNITS
 70
     4
  9
$HYPERLINKBASE
  1

  9
$STYLESHEET
  1

  9
$XEDIT
290
     1
  9
$CEPSNTYPE
380
     0
  9
$PSTYLEMODE
290
     1
  9
$FINGERPRINTGUID
  2
{B6DA68E7-804F-0448-B029-EEBCC2EBBD88}
  9
$VERSIONGUID
  2
{85806C03-FE49-7A4E-B7BA-25BEB448611B}
  9
$EXTNAMES
290
     1
  9
$PSVPSCALE
 40
0.0
  9
$OLESTARTUP
290
     0
  9
$SORTENTS
280
   127
  9
$INDEXCTL
280
     0
  9
$HIDETEXT
280
     1
  9
$XCLIPFRAME
290
     0
  9
$HALOGAP
280
     0
  9
$OBSCOLOR
 70
   257
  9
$OBSLTYPE
280
     0
  9
$INTERSECTIONDISPLAY
280
     0
  9
$INTERSECTIONCOLOR
 70
   257
  9
$DIMASSOC
280
     2
  9
$PROJECTNAME
  1

  9
$CAMERADISPLAY
290
     0
  9
$LENSLENGTH
 40
50.0
  9
$CAMERAHEIGHT
 40
0.0
  9
$STEPSPERSEC
 40
2.0
  9
$STEPSIZE
 40
6.0
  9
$3DDWFPREC
 40
2.0
  9
$PSOLWIDTH
 40
5.0
  9
$PSOLHEIGHT
 40
80.0
  9
$LOFTANG1
 40
1.570796326794896
  9
$LOFTANG2
 40
1.570796326794896
  9
$LOFTMAG1
 40
0.0
  9
$LOFTMAG2
 40
0.0
  9
$LOFTPARAM
 70
     7
  9
$LOFTNORMALS
280
     1
  9
$LATITUDE
 40
37.795
  9
$LONGITUDE
 40
-122.394
  9
$NORTHDIRECTION
 40
0.0
  9
$TIMEZONE
 70
 -8000
  9
$LIGHTGLYPHDISPLAY
280
     1
  9
$TILEMODELIGHTSYNCH
280
     1
  9
$CMATERIAL
347
EC
  9
$SOLIDHIST
280
     0
  9
$SHOWHIST
280
     1
  9
$DWFFRAME
280
     2
  9
$DGNFRAME
280
     0
  9
$REALWORLDSCALE
290
     1
  9
$INTERFERECOLOR
 62
     1
  9
$INTERFEREOBJVS
345
F9
  9
$INTERFEREVPVS
346
F6
  9
$CSHADOW
280
     0
  9
$SHADOWPLANELOCATION
 40
0.0
  0
ENDSEC
  0
SECTION
  2
CLASSES
  0
CLASS
  1
ACDBDICTIONARYWDFLT
  2
AcDbDictionaryWithDefault
  3
ObjectDBX Classes
 90
        0
 91
        1
280
     0
281
     0
  0
CLASS
  1
DICTIONARYVAR
  2
AcDbDictionaryVar
  3
ObjectDBX Classes
 90
        0
 91
       12
280
     0
281
     0
  0
CLASS
  1
TABLESTYLE
  2
AcDbTableStyle
  3
ObjectDBX Classes
 90
     4095
 91
        1
280
     0
281
     0
  0
CLASS
  1
MATERIAL
  2
AcDbMaterial
  3
ObjectDBX Classes
 90
     1153
 91
        3
280
     0
281
     0
  0
CLASS
  1
VISUALSTYLE
  2
AcDbVisualStyle
  3
ObjectDBX Classes
 90
     4095
 91
       24
280
     0
281
     0
  0
CLASS
  1
SCALE
  2
AcDbScale
  3
ObjectDBX Classes
 90
     1153
 91
       17
280
     0
281
     0
  0
CLASS
  1
MLEADERSTYLE
  2
AcDbMLeaderStyle
  3
ACDB_MLEADERSTYLE_CLASS
 90
     4095
 91
        2
280
     0
281
     0
  0
CLASS
  1
CELLSTYLEMAP
  2
AcDbCellStyleMap
  3
ObjectDBX Classes
 90
     1152
 91
        4
280
     0
281
     0
  0
CLASS
  1
EXACXREFPANELOBJECT
  2
ExAcXREFPanelObject
  3
EXAC_ESW
 90
     1025
 91
        0
280
     0
281
     0
  0
CLASS
  1
NPOCOLLECTION
  2
AcDbImpNonPersistentObjectsCollection
  3
ObjectDBX Classes
 90
     1153
 91
        0
280
     0
281
     0
  0
CLASS
  1
LAYER_INDEX
  2
AcDbLayerIndex
  3
ObjectDBX Classes
 90
        0
 91
        0
280
     0
281
     0
  0
CLASS
  1
SPATIAL_INDEX
  2
AcDbSpatialIndex
  3
ObjectDBX Classes
 90
        0
 91
        0
280
     0
281
     0
  0
CLASS
  1
IDBUFFER
  2
AcDbIdBuffer
  3
ObjectDBX Classes
 90
        0
 91
        0
280
     0
281
     0
  0
CLASS
  1
ACDBSECTIONVIEWSTYLE
  2
AcDbSectionViewStyle
  3
ObjectDBX Classes
 90
     1025
 91
        1
280
     0
281
     0
  0
CLASS
  1
ACDBDETAILVIEWSTYLE
  2
AcDbDetailViewStyle
  3
ObjectDBX Classes
 90
     1025
 91
        1
280
     0
281
     0
  0
CLASS
  1
SORTENTSTABLE
  2
AcDbSortentsTable
  3
ObjectDBX Classes
 90
        0
 91
        3
280
     0
281
     0
  0
CLASS
  1
DIMASSOC
  2
AcDbDimAssoc
  3
"AcDbDimAssoc|Product Desc:     AcDim ARX App For Dimension|Company:          Autodesk, Inc.|WEB Address:      www.autodesk.com"
 90
        0
 91
        2
280
     0
281
     0
  0
ENDSEC
  0
SECTION
  2
TABLES
  0
TABLE
  2
VPORT
  5
8
330
0
100
AcDbSymbolTable
 70
     1
  0
VPORT
  5
EA
330
8
100
AcDbSymbolTableRecord
100
AcDbViewportTableRecord
  2
*Active
 70
     0
 10
0.0
 20
0.0
 11
1.0
 21
1.0
 12
3022.038125480871
 22
1710.352796519167
 13
0.0
 23
0.0
 14
10.0
 24
10.0
 15
10.0
 25
10.0
 16
0.0
 26
0.0
 36
1.0
 17
0.0
 27
0.0
 37
0.0
 40
72.88518058518184
 41
1.96774193548387
 42
50.0
 43
0.0
 44
0.0
 50
0.0
 51
0.0
 71
     0
 72
  1000
 73
     1
 74
     3
 75
     0
 76
     1
 77
     0
 78
     0
281
     0
 65
     1
110
0.0
120
0.0
130
0.0
111
1.0
121
0.0
131
0.0
112
0.0
122
1.0
132
0.0
 79
     0
146
0.0
348
F5
 60
     3
 61
     5
292
     1
282
     1
141
0.0
142
0.0
 63
   250
421
  3355443
1001
ACAD_NAV_VCDISPLAY
1070
     3
  0
ENDTAB
  0
TABLE
  2
LTYPE
  5
5
330
0
100
AcDbSymbolTable
 70
     3
  0
LTYPE
  5
14
330
5
100
AcDbSymbolTableRecord
100
AcDbLinetypeTableRecord
  2
ByBlock
 70
     0
  3

 72
    65
 73
     0
 40
0.0
  0
LTYPE
  5
15
330
5
100
AcDbSymbolTableRecord
100
AcDbLinetypeTableRecord
  2
ByLayer
 70
     0
  3

 72
    65
 73
     0
 40
0.0
  0
LTYPE
  5
16
330
5
100
AcDbSymbolTableRecord
100
AcDbLinetypeTableRecord
  2
Continuous
 70
     0
  3
Solid line
 72
    65
 73
     0
 40
0.0
  0
ENDTAB
  0
TABLE
  2
LAYER
  5
2
102
{ACAD_XDICTIONARY
360
1FF
102
}
330
0
100
AcDbSymbolTable
 70
     4
  0
LAYER
  5
10
102
{ACAD_XDICTIONARY
360
13C
102
}
330
2
100
AcDbSymbolTableRecord
100
AcDbLayerTableRecord
  2
0
 70
     0
 62
     7
  6
Continuous
370
    -3
390
F
347
EE
  0
LAYER
  5
301
102
{ACAD_XDICTIONARY
360
302
102
}
330
2
100
AcDbSymbolTableRecord
100
AcDbLayerTableRecord
  2
COTAS
 70
     0
 62
   253
  6
Continuous
370
    -3
390
F
347
EE
  0
LAYER
  5
303
330
2
100
AcDbSymbolTableRecord
100
AcDbLayerTableRecord
  2
Defpoints
 70
     0
 62
     7
  6
Continuous
290
     0
370
    -3
390
F
347
EE
  0
LAYER
  5
304
102
{ACAD_XDICTIONARY
360
305
102
}
330
2
100
AcDbSymbolTableRecord
100
AcDbLayerTableRecord
  2
cuerpo
 70
     0
 62
     7
  6
Continuous
370
     5
390
F
347
EE
1001
AcAecLayerStandard
1000

1000

  0
ENDTAB
  0
TABLE
  2
STYLE
  5
3
330
0
100
AcDbSymbolTable
 70
     4
  0
STYLE
  5
11
330
3
100
AcDbSymbolTableRecord
100
AcDbTextStyleTableRecord
  2
Standard
 70
     0
 40
0.0
 41
1.0
 50
0.0
 71
     0
 42
2.5
  3
arial.ttf
  4

1001
ACAD
1000
Arial
1071
       34
  0
STYLE
  5
132
330
3
100
AcDbSymbolTableRecord
100
AcDbTextStyleTableRecord
  2
Anotativo
 70
     0
 40
0.0
 41
1.0
 50
0.0
 71
     0
 42
2.5
  3
arial.ttf
  4

1001
AcadAnnotative
1000
AnnotativeData
1002
{
1070
     1
1070
     1
1002
}
1001
ACAD
1000
Arial
1071
       34
  0
STYLE
  5
306
330
3
100
AcDbSymbolTableRecord
100
AcDbTextStyleTableRecord
  2
ARIAL
 70
     0
 40
0.0
 41
1.0
 50
0.0
 71
     0
 42
0.2
  3
arial.ttf
  4

1001
ACAD
1000
Arial
1071
       34
  0
STYLE
  5
307
330
3
100
AcDbSymbolTableRecord
100
AcDbTextStyleTableRecord
  2
RS (E1.10)
 70
     0
 40
1.5
 41
1.0
 50
0.0
 71
     0
 42
0.2
  3
calibril.ttf
  4

1001
ACAD
1000
Calibri Light
1071
       34
  0
ENDTAB
  0
TABLE
  2
VIEW
  5
6
330
0
100
AcDbSymbolTable
 70
     8
  0
ENDTAB
  0
TABLE
  2
UCS
  5
7
330
0
100
AcDbSymbolTable
 70
     0
  0
ENDTAB
  0
TABLE
  2
APPID
  5
9
330
0
100
AcDbSymbolTable
 70
    14
  0
APPID
  5
12
330
9
100
AcDbSymbolTableRecord
100
AcDbRegAppTableRecord
  2
ACAD
 70
     0
  0
APPID
  5
9E
330
9
100
AcDbSymbolTableRecord
100
AcDbRegAppTableRecord
  2
ACAD_PSEXT
 70
     0
  0
APPID
  5
133
330
9
100
AcDbSymbolTableRecord
100
AcDbRegAppTableRecord
  2
AcadAnnoPO
 70
     0
  0
APPID
  5
134
330
9
100
AcDbSymbolTableRecord
100
AcDbRegAppTableRecord
  2
AcadAnnotative
 70
     0
  0
APPID
  5
135
330
9
100
AcDbSymbolTableRecord
100
AcDbRegAppTableRecord
  2
ACAD_DSTYLE_DIMJAG
 70
     0
  0
APPID
  5
136
330
9
100
AcDbSymbolTableRecord
100
AcDbRegAppTableRecord
  2
ACAD_DSTYLE_DIMTALN
 70
     0
  0
APPID
  5
165
330
9
100
AcDbSymbolTableRecord
100
AcDbRegAppTableRecord
  2
ACAD_MLEADERVER
 70
     0
  0
APPID
  5
217
330
9
100
AcDbSymbolTableRecord
100
AcDbRegAppTableRecord
  2
ACAD_NAV_VCDISPLAY
 70
     0
  0
APPID
  5
309
330
9
100
AcDbSymbolTableRecord
100
AcDbRegAppTableRecord
  2
AcAecLayerStandard
 70
     0
  0
APPID
  5
30A
330
9
100
AcDbSymbolTableRecord
100
AcDbRegAppTableRecord
  2
ACAD_DSTYLE_DIMBREAK
 70
     0
  0
APPID
  5
30B
330
9
100
AcDbSymbolTableRecord
100
AcDbRegAppTableRecord
  2
GradientColor1ACI
 70
     0
  0
APPID
  5
30C
330
9
100
AcDbSymbolTableRecord
100
AcDbRegAppTableRecord
  2
GradientColor2ACI
 70
     0
  0
APPID
  5
833
330
9
100
AcDbSymbolTableRecord
100
AcDbRegAppTableRecord
  2
ACAD_EXEMPT_FROM_CAD_STANDARDS
 70
     0
  0
APPID
  5
937
330
9
100
AcDbSymbolTableRecord
100
AcDbRegAppTableRecord
  2
AcadAnnoMonitorAlertIconDisabled
 70
     0
  0
ENDTAB
  0
TABLE
  2
DIMSTYLE
  5
A
330
0
100
AcDbSymbolTable
 70
     5
100
AcDbDimStyleTable
 71
     3
340
308
340
27
340
137
  0
DIMSTYLE
105
1B0
330
A
100
AcDbSymbolTableRecord
100
AcDbDimStyleTableRecord
  2
Standard
 70
     0
340
11
  0
DIMSTYLE
105
137
330
A
100
AcDbSymbolTableRecord
100
AcDbDimStyleTableRecord
  2
Anotativo
 70
     0
 40
0.0
 41
2.5
 42
0.625
 43
3.75
 44
1.25
 73
     0
 74
     0
 77
     1
 78
     8
140
2.5
141
2.5
143
0.03937007874016
147
0.625
171
     3
172
     1
271
     2
272
     2
274
     3
278
    44
283
     0
284
     8
340
11
1001
AcadAnnotative
1000
AnnotativeData
1002
{
1070
     1
1070
     1
1002
}
1001
ACAD_DSTYLE_DIMJAG
1070
   388
1040
1.5
1001
ACAD_DSTYLE_DIMTALN
1070
   392
1070
     0
  0
DIMSTYLE
105
27
330
A
100
AcDbSymbolTableRecord
100
AcDbDimStyleTableRecord
  2
ISO-25
 70
     0
 41
2.5
 42
0.625
 43
3.75
 44
1.25
 73
     0
 74
     0
 77
     1
 78
     8
140
2.5
141
2.5
143
0.03937007874016
147
0.625
171
     3
172
     1
271
     2
272
     2
274
     3
278
    44
283
     0
284
     8
340
11
  0
DIMSTYLE
105
308
102
{ACAD_REACTORS
330
52A
330
52D
330
52E
330
52F
330
530
330
531
330
532
330
533
330
534
330
759
330
75C
330
90B
330
C86
330
D53
330
D54
102
}
330
A
100
AcDbSymbolTableRecord
100
AcDbDimStyleTableRecord
  2
RS (E1.10)
 70
     0
 41
0.7
 42
1.0
 43
1.0
 44
0.5
 78
     8
140
1.5
141
0.0
143
0.03937007874016
144
10.0
147
1.0
171
     3
176
   256
177
   256
178
   256
271
     0
272
     0
274
     3
278
    44
283
     0
284
     8
340
306
371
    -1
372
    -1
1001
ACAD_DSTYLE_DIMBREAK
1070
   391
1040
3.75
1001
ACAD_DSTYLE_DIMJAG
1070
   388
1040
0.5
1001
ACAD_DSTYLE_DIMTALN
1070
   392
1070
     0
  0
ENDTAB
  0
TABLE
  2
BLOCK_RECORD
  5
1
330
0
100
AcDbSymbolTable
 70
    33
  0
BLOCK_RECORD
  5
1F
102
{ACAD_XDICTIONARY
360
1CE
102
}
330
1
100
AcDbSymbolTableRecord
100
AcDbBlockTableRecord
  2
*Model_Space
340
22
 70
     0
280
     1
281
     0
  0
BLOCK_RECORD
  5
D2
330
1
100
AcDbSymbolTableRecord
100
AcDbBlockTableRecord
  2
*Paper_Space
340
D3
 70
     0
280
     1
281
     0
  0
BLOCK_RECORD
  5
D6
330
1
100
AcDbSymbolTableRecord
100
AcDbBlockTableRecord
  2
*Paper_Space0
340
D7
 70
     0
280
     1
281
     0
  0
BLOCK_RECORD
  5
28C
330
1
100
AcDbSymbolTableRecord
100
AcDbBlockTableRecord
  2
*D1
340
0
 70
     0
280
     1
281
     0
  0
BLOCK_RECORD
  5
299
330
1
100
AcDbSymbolTableRecord
100
AcDbBlockTableRecord
  2
*D2
340
0
 70
     0
280
     1
281
     0
  0
BLOCK_RECORD
  5
2A6
330
1
100
AcDbSymbolTableRecord
100
AcDbBlockTableRecord
  2
*D3
340
0
 70
     0
280
     1
281
     0
  0
BLOCK_RECORD
  5
2B3
330
1
100
AcDbSymbolTableRecord
100
AcDbBlockTableRecord
  2
*D4
340
0
 70
     0
280
     1
281
     0
  0
BLOCK_RECORD
  5
2C0
330
1
100
AcDbSymbolTableRecord
100
AcDbBlockTableRecord
  2
*D5
340
0
 70
     0
280
     1
281
     0
  0
BLOCK_RECORD
  5
2CD
330
1
100
AcDbSymbolTableRecord
100
AcDbBlockTableRecord
  2
*D6
340
0
 70
     0
280
     1
281
     0
  0
BLOCK_RECORD
  5
2DA
330
1
100
AcDbSymbolTableRecord
100
AcDbBlockTableRecord
  2
*D7
340
0
 70
     0
280
     1
281
     0
  0
BLOCK_RECORD
  5
2E7
330
1
100
AcDbSymbolTableRecord
100
AcDbBlockTableRecord
  2
*D8
340
0
 70
     0
280
     1
281
     0
  0
BLOCK_RECORD
  5
2F4
330
1
100
AcDbSymbolTableRecord
100
AcDbBlockTableRecord
  2
*D9
340
0
 70
     0
280
     1
281
     0
  0
BLOCK_RECORD
  5
764
330
1
100
AcDbSymbolTableRecord
100
AcDbBlockTableRecord
  2
*D11
340
0
 70
     0
280
     1
281
     0
  0
BLOCK_RECORD
  5
771
330
1
100
AcDbSymbolTableRecord
100
AcDbBlockTableRecord
  2
*D12
340
0
 70
     0
280
     1
281
     0
  0
BLOCK_RECORD
  5
77E
330
1
100
AcDbSymbolTableRecord
100
AcDbBlockTableRecord
  2
*D13
340
0
 70
     0
280
     1
281
     0
  0
BLOCK_RECORD
  5
78B
330
1
100
AcDbSymbolTableRecord
100
AcDbBlockTableRecord
  2
*D14
340
0
 70
     0
280
     1
281
     0
  0
BLOCK_RECORD
  5
798
330
1
100
AcDbSymbolTableRecord
100
AcDbBlockTableRecord
  2
*D15
340
0
 70
     0
280
     1
281
     0
  0
BLOCK_RECORD
  5
7A5
330
1
100
AcDbSymbolTableRecord
100
AcDbBlockTableRecord
  2
*D16
340
0
 70
     0
280
     1
281
     0
  0
BLOCK_RECORD
  5
7B2
330
1
100
AcDbSymbolTableRecord
100
AcDbBlockTableRecord
  2
*D17
340
0
 70
     0
280
     1
281
     0
  0
BLOCK_RECORD
  5
7BF
330
1
100
AcDbSymbolTableRecord
100
AcDbBlockTableRecord
  2
*D18
340
0
 70
     0
280
     1
281
     0
  0
BLOCK_RECORD
  5
7CC
330
1
100
AcDbSymbolTableRecord
100
AcDbBlockTableRecord
  2
*D19
340
0
 70
     0
280
     1
281
     0
  0
BLOCK_RECORD
  5
90C
330
1
100
AcDbSymbolTableRecord
100
AcDbBlockTableRecord
  2
*D21
340
0
 70
     0
280
     1
281
     0
  0
BLOCK_RECORD
  5
94D
330
1
100
AcDbSymbolTableRecord
100
AcDbBlockTableRecord
  2
*D22
340
0
 70
     0
280
     1
281
     0
  0
BLOCK_RECORD
  5
9CF
330
1
100
AcDbSymbolTableRecord
100
AcDbBlockTableRecord
  2
*D23
340
0
 70
     0
280
     1
281
     0
  0
BLOCK_RECORD
  5
9DC
330
1
100
AcDbSymbolTableRecord
100
AcDbBlockTableRecord
  2
*D24
340
0
 70
     0
280
     1
281
     0
  0
BLOCK_RECORD
  5
CC7
330
1
100
AcDbSymbolTableRecord
100
AcDbBlockTableRecord
  2
*D26
340
0
 70
     0
280
     1
281
     0
  0
BLOCK_RECORD
  5
CD4
330
1
100
AcDbSymbolTableRecord
100
AcDbBlockTableRecord
  2
*D27
340
0
 70
     0
280
     1
281
     0
  0
BLOCK_RECORD
  5
D31
330
1
100
AcDbSymbolTableRecord
100
AcDbBlockTableRecord
  2
*D28
340
0
 70
     0
280
     1
281
     0
  0
BLOCK_RECORD
  5
D3E
330
1
100
AcDbSymbolTableRecord
100
AcDbBlockTableRecord
  2
*D29
340
0
 70
     0
280
     1
281
     0
  0
BLOCK_RECORD
  5
D55
330
1
100
AcDbSymbolTableRecord
100
AcDbBlockTableRecord
  2
*D31
340
0
 70
     0
280
     1
281
     0
  0
BLOCK_RECORD
  5
D62
330
1
100
AcDbSymbolTableRecord
100
AcDbBlockTableRecord
  2
*D32
340
0
 70
     0
280
     1
281
     0
  0
ENDTAB
  0
ENDSEC
  0
SECTION
  2
BLOCKS
  0
BLOCK
  5
20
330
1F
100
AcDbEntity
  8
0
100
AcDbBlockBegin
  2
*Model_Space
 70
     0
 10
0.0
 20
0.0
 30
0.0
  3
*Model_Space
  1

  0
ENDBLK
  5
21
330
1F
100
AcDbEntity
  8
0
100
AcDbBlockEnd
  0
BLOCK
  5
D4
330
D2
100
AcDbEntity
 67
     1
  8
0
100
AcDbBlockBegin
  2
*Paper_Space
 70
     0
 10
0.0
 20
0.0
 30
0.0
  3
*Paper_Space
  1

  0
ENDBLK
  5
D5
330
D2
100
AcDbEntity
 67
     1
  8
0
100
AcDbBlockEnd
  0
BLOCK
  5
D8
330
D6
100
AcDbEntity
 67
     1
  8
0
100
AcDbBlockBegin
  2
*Paper_Space0
 70
     0
 10
0.0
 20
0.0
 30
0.0
  3
*Paper_Space0
  1

  0
ENDBLK
  5
D9
330
D6
100
AcDbEntity
 67
     1
  8
0
100
AcDbBlockEnd
  0
BLOCK
  5
28D
330
28C
100
AcDbEntity
  8
0
100
AcDbBlockBegin
  2
*D1
 70
     1
 10
0.0
 20
0.0
 30
0.0
  3
*D1
  1

  0
LINE
  5
28E
330
28C
100
AcDbEntity
  8
COTAS
440
 16777216
100
AcDbLine
 10
329.5706447488813
 20
99.08151418991812
 30
0.0
 11
333.5130122318663
 21
99.08151418991812
 31
0.0
  0
LINE
  5
28F
330
28C
100
AcDbEntity
  8
COTAS
440
 16777216
100
AcDbLine
 10
328.9706447488812
 20
96.15990192181723
 30
0.0
 11
333.5130122318663
 21
96.15990192181723
 31
0.0
  0
LINE
  5
290
330
28C
100
AcDbEntity
  8
COTAS
440
 16777216
100
AcDbLine
 10
333.0130122318663
 20
99.78151418991812
 30
0.0
 11
333.0130122318663
 21
100.4815141899181
 31
0.0
  0
LINE
  5
291
330
28C
100
AcDbEntity
  8
COTAS
440
 16777216
100
AcDbLine
 10
333.0130122318663
 20
95.4599019218172
 30
0.0
 11
333.0130122318663
 21
94.7599019218172
 31
0.0
  0
SOLID
  5
292
330
28C
100
AcDbEntity
  8
COTAS
440
 16777216
100
AcDbTrace
 10
332.8963455651996
 20
99.78151418991812
 30
0.0
 11
333.129678898533
 21
99.78151418991812
 31
0.0
 12
333.0130122318663
 22
99.08151418991812
 32
0.0
 13
333.0130122318663
 23
99.08151418991812
 33
0.0
  0
SOLID
  5
293
330
28C
100
AcDbEntity
  8
COTAS
440
 16777216
100
AcDbTrace
 10
332.8963455651996
 20
95.4599019218172
 30
0.0
 11
333.129678898533
 21
95.4599019218172
 31
0.0
 12
333.0130122318663
 22
96.15990192181723
 32
0.0
 13
333.0130122318663
 23
96.15990192181723
 33
0.0
  0
MTEXT
  5
294
330
28C
100
AcDbEntity
  8
COTAS
440
 16777216
100
AcDbMText
 10
333.0130122318662
 20
97.62070805586755
 30
0.0
 40
1.5
 41
0.0
 46
0.0
 71
     5
 72
     1
  1
max.30
  7
ARIAL
 73
     1
 44
1.0
  0
POINT
  5
295
330
28C
100
AcDbEntity
  8
Defpoints
 62
     0
440
 16777216
100
AcDbPoint
 10
328.5706447488812
 20
99.08151418991812
 30
0.0
  0
POINT
  5
296
330
28C
100
AcDbEntity
  8
Defpoints
 62
     0
440
 16777216
100
AcDbPoint
 10
327.9706447488812
 20
96.15990192181723
 30
0.0
  0
POINT
  5
297
330
28C
100
AcDbEntity
  8
Defpoints
 62
     0
440
 16777216
100
AcDbPoint
 10
333.0130122318663
 20
96.15990192181723
 30
0.0
  0
ENDBLK
  5
298
330
28C
100
AcDbEntity
  8
0
100
AcDbBlockEnd
  0
BLOCK
  5
29A
330
299
100
AcDbEntity
  8
0
100
AcDbBlockBegin
  2
*D2
 70
     1
 10
0.0
 20
0.0
 30
0.0
  3
*D2
  1

  0
LINE
  5
29B
330
299
100
AcDbEntity
  8
COTAS
440
 16777216
100
AcDbLine
 10
322.7976901067389
 20
96.95311306646686
 30
0.0
 11
322.7976901067389
 21
97.05347787635112
 31
0.0
  0
LINE
  5
29C
330
299
100
AcDbEntity
  8
COTAS
440
 16777216
100
AcDbLine
 10
327.6681150293516
 20
97.00630861873854
 30
0.0
 11
327.6681150293516
 21
97.05347787635112
 31
0.0
  0
LINE
  5
29D
330
299
100
AcDbEntity
  8
COTAS
440
 16777216
100
AcDbLine
 10
326.9681150293516
 20
97.55347787635113
 30
0.0
 11
323.4976901067388
 21
97.55347787635113
 31
0.0
  0
LINE
  5
29E
330
299
100
AcDbEntity
  8
COTAS
440
 16777216
100
AcDbLine
 10
322.7976901067389
 20
97.55347787635113
 30
0.0
 11
322.0976901067388
 21
97.55347787635113
 31
0.0
  0
SOLID
  5
29F
330
299
100
AcDbEntity
  8
COTAS
440
 16777216
100
AcDbTrace
 10
326.9681150293516
 20
97.67014454301779
 30
0.0
 11
326.9681150293516
 21
97.43681120968446
 31
0.0
 12
327.6681150293516
 22
97.55347787635113
 32
0.0
 13
327.6681150293516
 23
97.55347787635113
 33
0.0
  0
SOLID
  5
2A0
330
299
100
AcDbEntity
  8
COTAS
440
 16777216
100
AcDbTrace
 10
323.4976901067388
 20
97.67014454301779
 30
0.0
 11
323.4976901067388
 21
97.43681120968446
 31
0.0
 12
322.7976901067389
 22
97.55347787635113
 32
0.0
 13
322.7976901067389
 23
97.55347787635113
 33
0.0
  0
MTEXT
  5
2A1
330
299
100
AcDbEntity
  8
COTAS
440
 16777216
100
AcDbMText
 10
319.2017146633554
 20
97.55347787635113
 30
0.0
 40
1.5
 41
0.0
 46
0.0
 71
     5
 72
     1
  1
%%C45
  7
ARIAL
 73
     1
 44
1.0
  0
POINT
  5
2A2
330
299
100
AcDbEntity
  8
Defpoints
 62
     0
440
 16777216
100
AcDbPoint
 10
322.7976901067389
 20
97.95311306646686
 30
0.0
  0
POINT
  5
2A3
330
299
100
AcDbEntity
  8
Defpoints
 62
     0
440
 16777216
100
AcDbPoint
 10
327.6681150293516
 20
98.00630861873855
 30
0.0
  0
POINT
  5
2A4
330
299
100
AcDbEntity
  8
Defpoints
 62
     0
440
 16777216
100
AcDbPoint
 10
327.6681150293516
 20
97.55347787635113
 30
0.0
  0
ENDBLK
  5
2A5
330
299
100
AcDbEntity
  8
0
100
AcDbBlockEnd
  0
BLOCK
  5
2A7
330
2A6
100
AcDbEntity
  8
0
100
AcDbBlockBegin
  2
*D3
 70
     1
 10
0.0
 20
0.0
 30
0.0
  3
*D3
  1

  0
LINE
  5
2A8
330
2A6
100
AcDbEntity
  8
COTAS
440
 16777216
100
AcDbLine
 10
312.5856288504956
 20
113.2487375973456
 30
0.0
 11
315.5872673944892
 21
113.2487375973456
 31
0.0
  0
LINE
  5
2A9
330
2A6
100
AcDbEntity
  8
COTAS
440
 16777216
100
AcDbLine
 10
293.7706447488813
 20
99.08151418991812
 30
0.0
 11
315.5872673944892
 21
99.08151418991812
 31
0.0
  0
LINE
  5
2AA
330
2A6
100
AcDbEntity
  8
COTAS
440
 16777216
100
AcDbLine
 10
315.0872673944892
 20
112.5487375973456
 30
0.0
 11
315.0872673944892
 21
110.3426189142012
 31
0.0
  0
LINE
  5
2AB
330
2A6
100
AcDbEntity
  8
COTAS
440
 16777216
100
AcDbLine
 10
315.0872673944892
 20
99.78151418991812
 30
0.0
 11
315.0872673944892
 21
106.8364797600402
 31
0.0
  0
SOLID
  5
2AC
330
2A6
100
AcDbEntity
  8
COTAS
440
 16777216
100
AcDbTrace
 10
314.9706007278225
 20
112.5487375973456
 30
0.0
 11
315.2039340611559
 21
112.5487375973456
 31
0.0
 12
315.0872673944892
 22
113.2487375973456
 32
0.0
 13
315.0872673944892
 23
113.2487375973456
 33
0.0
  0
SOLID
  5
2AD
330
2A6
100
AcDbEntity
  8
COTAS
440
 16777216
100
AcDbTrace
 10
314.9706007278225
 20
99.78151418991812
 30
0.0
 11
315.2039340611559
 21
99.78151418991812
 31
0.0
 12
315.0872673944892
 22
99.08151418991812
 32
0.0
 13
315.0872673944892
 23
99.08151418991812
 33
0.0
  0
MTEXT
  5
2AE
330
2A6
100
AcDbEntity
  8
COTAS
440
 16777216
100
AcDbMText
 10
315.0872673944891
 20
108.5895493371205
 30
0.0
 40
1.5
 41
0.0
 46
0.0
 71
     5
 72
     1
  1
142
  7
ARIAL
 73
     1
 44
1.0
  0
POINT
  5
2AF
330
2A6
100
AcDbEntity
  8
Defpoints
 62
     0
440
 16777216
100
AcDbPoint
 10
311.5856288504956
 20
113.2487375973456
 30
0.0
  0
POINT
  5
2B0
330
2A6
100
AcDbEntity
  8
Defpoints
 62
     0
440
 16777216
100
AcDbPoint
 10
292.7706447488813
 20
99.08151418991812
 30
0.0
  0
POINT
  5
2B1
330
2A6
100
AcDbEntity
  8
Defpoints
 62
     0
440
 16777216
100
AcDbPoint
 10
315.0872673944892
 20
99.08151418991812
 30
0.0
  0
ENDBLK
  5
2B2
330
2A6
100
AcDbEntity
  8
0
100
AcDbBlockEnd
  0
BLOCK
  5
2B4
330
2B3
100
AcDbEntity
  8
0
100
AcDbBlockBegin
  2
*D4
 70
     1
 10
0.0
 20
0.0
 30
0.0
  3
*D4
  1

  0
LINE
  5
2B5
330
2B3
100
AcDbEntity
  8
COTAS
440
 16777216
100
AcDbLine
 10
306.5782252285811
 20
87.61585580281719
 30
0.0
 11
306.5782252285811
 21
78.73655624547218
 31
0.0
  0
LINE
  5
2B6
330
2B3
100
AcDbEntity
  8
COTAS
440
 16777216
100
AcDbLine
 10
308.9706447488811
 20
87.61585580281719
 30
0.0
 11
308.9706447488811
 21
78.73655624547218
 31
0.0
  0
LINE
  5
2B7
330
2B3
100
AcDbEntity
  8
COTAS
440
 16777216
100
AcDbLine
 10
305.8782252285811
 20
79.23655624547219
 30
0.0
 11
305.1782252285812
 21
79.23655624547219
 31
0.0
  0
LINE
  5
2B8
330
2B3
100
AcDbEntity
  8
COTAS
440
 16777216
100
AcDbLine
 10
309.6706447488811
 20
79.23655624547219
 30
0.0
 11
310.3706447488812
 21
79.23655624547219
 31
0.0
  0
SOLID
  5
2B9
330
2B3
100
AcDbEntity
  8
COTAS
440
 16777216
100
AcDbTrace
 10
305.8782252285811
 20
79.35322291213885
 30
0.0
 11
305.8782252285811
 21
79.11988957880552
 31
0.0
 12
306.5782252285811
 22
79.23655624547219
 32
0.0
 13
306.5782252285811
 23
79.23655624547219
 33
0.0
  0
SOLID
  5
2BA
330
2B3
100
AcDbEntity
  8
COTAS
440
 16777216
100
AcDbTrace
 10
309.6706447488811
 20
79.35322291213885
 30
0.0
 11
309.6706447488811
 21
79.11988957880552
 31
0.0
 12
308.9706447488811
 22
79.23655624547219
 32
0.0
 13
308.9706447488811
 23
79.23655624547219
 33
0.0
  0
MTEXT
  5
2BB
330
2B3
100
AcDbEntity
  8
COTAS
440
 16777216
100
AcDbMText
 10
313.9091849944473
 20
79.23655624547219
 30
0.0
 40
1.5
 41
0.0
 46
0.0
 71
     5
 72
     1
  1
G1/2"
  7
ARIAL
 73
     1
 44
1.0
  0
POINT
  5
2BC
330
2B3
100
AcDbEntity
  8
Defpoints
 62
     0
440
 16777216
100
AcDbPoint
 10
306.5782252285811
 20
88.61585580281719
 30
0.0
  0
POINT
  5
2BD
330
2B3
100
AcDbEntity
  8
Defpoints
 62
     0
440
 16777216
100
AcDbPoint
 10
308.9706447488811
 20
88.61585580281719
 30
0.0
  0
POINT
  5
2BE
330
2B3
100
AcDbEntity
  8
Defpoints
 62
     0
440
 16777216
100
AcDbPoint
 10
308.9706447488811
 20
79.23655624547219
 30
0.0
  0
ENDBLK
  5
2BF
330
2B3
100
AcDbEntity
  8
0
100
AcDbBlockEnd
  0
BLOCK
  5
2C1
330
2C0
100
AcDbEntity
  8
0
100
AcDbBlockBegin
  2
*D5
 70
     1
 10
0.0
 20
0.0
 30
0.0
  3
*D5
  1

  0
LINE
  5
2C2
330
2C0
100
AcDbEntity
  8
COTAS
440
 16777216
100
AcDbLine
 10
310.1056447488812
 20
87.69085580281716
 30
0.0
 11
310.1056447488812
 21
87.15942087946116
 31
0.0
  0
LINE
  5
2C3
330
2C0
100
AcDbEntity
  8
COTAS
440
 16777216
100
AcDbLine
 10
312.4980642692812
 20
87.69085580281716
 30
0.0
 11
312.4980642692812
 21
87.15942087946116
 31
0.0
  0
LINE
  5
2C4
330
2C0
100
AcDbEntity
  8
COTAS
440
 16777216
100
AcDbLine
 10
309.4056447488812
 20
87.65942087946116
 30
0.0
 11
308.7056447488812
 21
87.65942087946116
 31
0.0
  0
LINE
  5
2C5
330
2C0
100
AcDbEntity
  8
COTAS
440
 16777216
100
AcDbLine
 10
313.1980642692811
 20
87.65942087946116
 30
0.0
 11
313.8980642692812
 21
87.65942087946116
 31
0.0
  0
SOLID
  5
2C6
330
2C0
100
AcDbEntity
  8
COTAS
440
 16777216
100
AcDbTrace
 10
309.4056447488812
 20
87.77608754612783
 30
0.0
 11
309.4056447488812
 21
87.5427542127945
 31
0.0
 12
310.1056447488812
 22
87.65942087946116
 32
0.0
 13
310.1056447488812
 23
87.65942087946116
 33
0.0
  0
SOLID
  5
2C7
330
2C0
100
AcDbEntity
  8
COTAS
440
 16777216
100
AcDbTrace
 10
313.1980642692811
 20
87.77608754612783
 30
0.0
 11
313.1980642692811
 21
87.5427542127945
 31
0.0
 12
312.4980642692812
 22
87.65942087946116
 32
0.0
 13
312.4980642692812
 23
87.65942087946116
 33
0.0
  0
MTEXT
  5
2C8
330
2C0
100
AcDbEntity
  8
COTAS
440
 16777216
100
AcDbMText
 10
317.4366045148473
 20
87.65942087946116
 30
0.0
 40
1.5
 41
0.0
 46
0.0
 71
     5
 72
     1
  1
G1/2"
  7
ARIAL
 73
     1
 44
1.0
  0
POINT
  5
2C9
330
2C0
100
AcDbEntity
  8
Defpoints
 62
     0
440
 16777216
100
AcDbPoint
 10
310.1056447488812
 20
88.69085580281716
 30
0.0
  0
POINT
  5
2CA
330
2C0
100
AcDbEntity
  8
Defpoints
 62
     0
440
 16777216
100
AcDbPoint
 10
312.4980642692812
 20
88.69085580281716
 30
0.0
  0
POINT
  5
2CB
330
2C0
100
AcDbEntity
  8
Defpoints
 62
     0
440
 16777216
100
AcDbPoint
 10
312.4980642692812
 20
87.65942087946116
 30
0.0
  0
ENDBLK
  5
2CC
330
2C0
100
AcDbEntity
  8
0
100
AcDbBlockEnd
  0
BLOCK
  5
2CE
330
2CD
100
AcDbEntity
  8
0
100
AcDbBlockBegin
  2
*D6
 70
     1
 10
0.0
 20
0.0
 30
0.0
  3
*D6
  1

  0
LINE
  5
2CF
330
2CD
100
AcDbEntity
  8
COTAS
440
 16777216
100
AcDbLine
 10
322.9280642692811
 20
91.79085580281718
 30
0.0
 11
322.9280642692811
 21
91.40150184645593
 31
0.0
  0
LINE
  5
2D0
330
2CD
100
AcDbEntity
  8
COTAS
440
 16777216
100
AcDbLine
 10
320.5432252285811
 20
91.79085580281718
 30
0.0
 11
320.5432252285811
 21
91.40150184645593
 31
0.0
  0
LINE
  5
2D1
330
2CD
100
AcDbEntity
  8
COTAS
440
 16777216
100
AcDbLine
 10
323.6280642692811
 20
90.90150184645592
 30
0.0
 11
324.3280642692811
 21
90.90150184645592
 31
0.0
  0
LINE
  5
2D2
330
2CD
100
AcDbEntity
  8
COTAS
440
 16777216
100
AcDbLine
 10
319.8432252285812
 20
90.90150184645592
 30
0.0
 11
319.1432252285811
 21
90.90150184645592
 31
0.0
  0
SOLID
  5
2D3
330
2CD
100
AcDbEntity
  8
COTAS
440
 16777216
100
AcDbTrace
 10
323.6280642692811
 20
91.01816851312259
 30
0.0
 11
323.6280642692811
 21
90.78483517978927
 31
0.0
 12
322.9280642692811
 22
90.90150184645592
 32
0.0
 13
322.9280642692811
 23
90.90150184645592
 33
0.0
  0
SOLID
  5
2D4
330
2CD
100
AcDbEntity
  8
COTAS
440
 16777216
100
AcDbTrace
 10
319.8432252285812
 20
91.01816851312259
 30
0.0
 11
319.8432252285812
 21
90.78483517978927
 31
0.0
 12
320.5432252285811
 22
90.90150184645592
 32
0.0
 13
320.5432252285811
 23
90.90150184645592
 33
0.0
  0
MTEXT
  5
2D5
330
2CD
100
AcDbEntity
  8
COTAS
440
 16777216
100
AcDbMText
 10
315.604684983015
 20
90.90150184645592
 30
0.0
 40
1.5
 41
0.0
 46
0.0
 71
     5
 72
     1
  1
G1/2"
  7
ARIAL
 73
     1
 44
1.0
  0
POINT
  5
2D6
330
2CD
100
AcDbEntity
  8
Defpoints
 62
     0
440
 16777216
100
AcDbPoint
 10
322.9280642692811
 20
90.79085580281718
 30
0.0
  0
POINT
  5
2D7
330
2CD
100
AcDbEntity
  8
Defpoints
 62
     0
440
 16777216
100
AcDbPoint
 10
320.5432252285811
 20
90.79085580281718
 30
0.0
  0
POINT
  5
2D8
330
2CD
100
AcDbEntity
  8
Defpoints
 62
     0
440
 16777216
100
AcDbPoint
 10
320.5432252285811
 20
90.90150184645592
 30
0.0
  0
ENDBLK
  5
2D9
330
2CD
100
AcDbEntity
  8
0
100
AcDbBlockEnd
  0
BLOCK
  5
2DB
330
2DA
100
AcDbEntity
  8
0
100
AcDbBlockBegin
  2
*D7
 70
     1
 10
0.0
 20
0.0
 30
0.0
  3
*D7
  1

  0
LINE
  5
2DC
330
2DA
100
AcDbEntity
  8
COTAS
440
 16777216
100
AcDbLine
 10
324.1268818050812
 20
89.79085580281717
 30
0.0
 11
324.1268818050812
 21
69.3830497568377
 31
0.0
  0
LINE
  5
2DD
330
2DA
100
AcDbEntity
  8
COTAS
440
 16777216
100
AcDbLine
 10
326.4144076927812
 20
89.79085580281717
 30
0.0
 11
326.4144076927812
 21
69.3830497568377
 31
0.0
  0
LINE
  5
2DE
330
2DA
100
AcDbEntity
  8
COTAS
440
 16777216
100
AcDbLine
 10
323.4268818050812
 20
69.88304975683771
 30
0.0
 11
322.7268818050812
 21
69.88304975683771
 31
0.0
  0
LINE
  5
2DF
330
2DA
100
AcDbEntity
  8
COTAS
440
 16777216
100
AcDbLine
 10
327.1144076927811
 20
69.88304975683771
 30
0.0
 11
327.8144076927812
 21
69.88304975683771
 31
0.0
  0
SOLID
  5
2E0
330
2DA
100
AcDbEntity
  8
COTAS
440
 16777216
100
AcDbTrace
 10
323.4268818050812
 20
69.99971642350437
 30
0.0
 11
323.4268818050812
 21
69.76638309017104
 31
0.0
 12
324.1268818050812
 22
69.88304975683771
 32
0.0
 13
324.1268818050812
 23
69.88304975683771
 33
0.0
  0
SOLID
  5
2E1
330
2DA
100
AcDbEntity
  8
COTAS
440
 16777216
100
AcDbTrace
 10
327.1144076927811
 20
69.99971642350437
 30
0.0
 11
327.1144076927811
 21
69.76638309017104
 31
0.0
 12
326.4144076927812
 22
69.88304975683771
 32
0.0
 13
326.4144076927812
 23
69.88304975683771
 33
0.0
  0
MTEXT
  5
2E2
330
2DA
100
AcDbEntity
  8
COTAS
440
 16777216
100
AcDbMText
 10
331.3529479383473
 20
69.88304975683771
 30
0.0
 40
1.5
 41
0.0
 46
0.0
 71
     5
 72
     1
  1
G1/2"
  7
ARIAL
 73
     1
 44
1.0
  0
POINT
  5
2E3
330
2DA
100
AcDbEntity
  8
Defpoints
 62
     0
440
 16777216
100
AcDbPoint
 10
324.1268818050812
 20
90.79085580281718
 30
0.0
  0
POINT
  5
2E4
330
2DA
100
AcDbEntity
  8
Defpoints
 62
     0
440
 16777216
100
AcDbPoint
 10
326.4144076927812
 20
90.79085580281718
 30
0.0
  0
POINT
  5
2E5
330
2DA
100
AcDbEntity
  8
Defpoints
 62
     0
440
 16777216
100
AcDbPoint
 10
326.4144076927812
 20
69.88304975683771
 30
0.0
  0
ENDBLK
  5
2E6
330
2DA
100
AcDbEntity
  8
0
100
AcDbBlockEnd
  0
BLOCK
  5
2E8
330
2E7
100
AcDbEntity
  8
0
100
AcDbBlockBegin
  2
*D8
 70
     1
 10
0.0
 20
0.0
 30
0.0
  3
*D8
  1

  0
LINE
  5
2E9
330
2E7
100
AcDbEntity
  8
COTAS
440
 16777216
100
AcDbLine
 10
327.6056447488812
 20
91.79085580281718
 30
0.0
 11
327.6056447488812
 21
91.29085580281717
 31
0.0
  0
LINE
  5
2EA
330
2E7
100
AcDbEntity
  8
COTAS
440
 16777216
100
AcDbLine
 10
330.0056447488811
 20
91.79085580281718
 30
0.0
 11
330.0056447488811
 21
91.29085580281717
 31
0.0
  0
LINE
  5
2EB
330
2E7
100
AcDbEntity
  8
COTAS
440
 16777216
100
AcDbLine
 10
326.9056447488812
 20
90.79085580281718
 30
0.0
 11
326.2056447488812
 21
90.79085580281718
 31
0.0
  0
LINE
  5
2EC
330
2E7
100
AcDbEntity
  8
COTAS
440
 16777216
100
AcDbLine
 10
330.7056447488812
 20
90.79085580281718
 30
0.0
 11
331.4056447488812
 21
90.79085580281718
 31
0.0
  0
SOLID
  5
2ED
330
2E7
100
AcDbEntity
  8
COTAS
440
 16777216
100
AcDbTrace
 10
326.9056447488812
 20
90.90752246948383
 30
0.0
 11
326.9056447488812
 21
90.67418913615052
 31
0.0
 12
327.6056447488812
 22
90.79085580281718
 32
0.0
 13
327.6056447488812
 23
90.79085580281718
 33
0.0
  0
SOLID
  5
2EE
330
2E7
100
AcDbEntity
  8
COTAS
440
 16777216
100
AcDbTrace
 10
330.7056447488812
 20
90.90752246948383
 30
0.0
 11
330.7056447488812
 21
90.67418913615052
 31
0.0
 12
330.0056447488811
 22
90.79085580281718
 32
0.0
 13
330.0056447488811
 23
90.79085580281718
 33
0.0
  0
MTEXT
  5
2EF
330
2E7
100
AcDbEntity
  8
COTAS
440
 16777216
100
AcDbMText
 10
334.9441849944473
 20
90.79085580281718
 30
0.0
 40
1.5
 41
0.0
 46
0.0
 71
     5
 72
     1
  1
G1/2"
  7
ARIAL
 73
     1
 44
1.0
  0
POINT
  5
2F0
330
2E7
100
AcDbEntity
  8
Defpoints
 62
     0
440
 16777216
100
AcDbPoint
 10
327.6056447488812
 20
90.79085580281718
 30
0.0
  0
POINT
  5
2F1
330
2E7
100
AcDbEntity
  8
Defpoints
 62
     0
440
 16777216
100
AcDbPoint
 10
330.0056447488811
 20
90.79085580281718
 30
0.0
  0
POINT
  5
2F2
330
2E7
100
AcDbEntity
  8
Defpoints
 62
     0
440
 16777216
100
AcDbPoint
 10
330.0056447488811
 20
90.79085580281718
 30
0.0
  0
ENDBLK
  5
2F3
330
2E7
100
AcDbEntity
  8
0
100
AcDbBlockEnd
  0
BLOCK
  5
2F5
330
2F4
100
AcDbEntity
  8
0
100
AcDbBlockBegin
  2
*D9
 70
     1
 10
0.0
 20
0.0
 30
0.0
  3
*D9
  1

  0
LINE
  5
2F6
330
2F4
100
AcDbEntity
  8
COTAS
440
 16777216
100
AcDbLine
 10
307.7706447488812
 20
100.831514189918
 30
0.0
 11
307.7706447488812
 21
107.1746196713003
 31
0.0
  0
LINE
  5
2F7
330
2F4
100
AcDbEntity
  8
COTAS
440
 16777216
100
AcDbLine
 10
325.2706447488812
 20
100.831514189918
 30
0.0
 11
325.2706447488812
 21
107.1746196713003
 31
0.0
  0
LINE
  5
2F8
330
2F4
100
AcDbEntity
  8
COTAS
440
 16777216
100
AcDbLine
 10
308.4706447488812
 20
106.6746196713002
 30
0.0
 11
324.5706447488812
 21
106.6746196713002
 31
0.0
  0
LINE
  5
2F9
330
2F4
100
AcDbEntity
  8
COTAS
440
 16777216
100
AcDbLine
 10
325.2706447488812
 20
106.6746196713002
 30
0.0
 11
325.9706447488812
 21
106.6746196713002
 31
0.0
  0
SOLID
  5
2FA
330
2F4
100
AcDbEntity
  8
COTAS
440
 16777216
100
AcDbTrace
 10
308.4706447488812
 20
106.7912863379669
 30
0.0
 11
308.4706447488812
 21
106.5579530046336
 31
0.0
 12
307.7706447488812
 22
106.6746196713002
 32
0.0
 13
307.7706447488812
 23
106.6746196713002
 33
0.0
  0
SOLID
  5
2FB
330
2F4
100
AcDbEntity
  8
COTAS
440
 16777216
100
AcDbTrace
 10
324.5706447488812
 20
106.7912863379669
 30
0.0
 11
324.5706447488812
 21
106.5579530046336
 31
0.0
 12
325.2706447488812
 22
106.6746196713002
 32
0.0
 13
325.2706447488812
 23
106.6746196713002
 33
0.0
  0
MTEXT
  5
2FC
330
2F4
100
AcDbEntity
  8
COTAS
440
 16777216
100
AcDbMText
 10
330.8700308334651
 20
106.6746196713002
 30
0.0
 40
1.5
 41
0.0
 46
0.0
 71
     5
 72
     1
  1
max.350
  7
ARIAL
 73
     1
 44
1.0
  0
POINT
  5
2FD
330
2F4
100
AcDbEntity
  8
Defpoints
 62
     0
440
 16777216
100
AcDbPoint
 10
307.7706447488812
 20
99.83151418991806
 30
0.0
  0
POINT
  5
2FE
330
2F4
100
AcDbEntity
  8
Defpoints
 62
     0
440
 16777216
100
AcDbPoint
 10
325.2706447488812
 20
99.83151418991806
 30
0.0
  0
POINT
  5
2FF
330
2F4
100
AcDbEntity
  8
Defpoints
 62
     0
440
 16777216
100
AcDbPoint
 10
325.2706447488812
 20
106.6746196713002
 30
0.0
  0
ENDBLK
  5
300
330
2F4
100
AcDbEntity
  8
0
100
AcDbBlockEnd
  0
BLOCK
  5
765
330
764
100
AcDbEntity
  8
0
100
AcDbBlockBegin
  2
*D11
 70
     1
 10
0.0
 20
0.0
 30
0.0
  3
*D11
  1

  0
LINE
  5
D97
330
764
100
AcDbEntity
  8
COTAS
440
 16777216
100
AcDbLine
 10
3017.394015842723
 20
1721.8950383163
 30
0.0
 11
3025.237467551923
 21
1721.8950383163
 31
0.0
  0
LINE
  5
D98
330
764
100
AcDbEntity
  8
COTAS
440
 16777216
100
AcDbLine
 10
3016.794015842723
 20
1718.973426048199
 30
0.0
 11
3025.237467551923
 21
1718.973426048199
 31
0.0
  0
LINE
  5
D99
330
764
100
AcDbEntity
  8
COTAS
440
 16777216
100
AcDbLine
 10
3024.737467551922
 20
1722.5950383163
 30
0.0
 11
3024.737467551922
 21
1723.2950383163
 31
0.0
  0
LINE
  5
D9A
330
764
100
AcDbEntity
  8
COTAS
440
 16777216
100
AcDbLine
 10
3024.737467551922
 20
1718.273426048199
 30
0.0
 11
3024.737467551922
 21
1717.573426048199
 31
0.0
  0
SOLID
  5
D9B
330
764
100
AcDbEntity
  8
COTAS
440
 16777216
100
AcDbTrace
 10
3024.620800885255
 20
1722.5950383163
 30
0.0
 11
3024.854134218589
 21
1722.5950383163
 31
0.0
 12
3024.737467551922
 22
1721.8950383163
 32
0.0
 13
3024.737467551922
 23
1721.8950383163
 33
0.0
  0
SOLID
  5
D9C
330
764
100
AcDbEntity
  8
COTAS
440
 16777216
100
AcDbTrace
 10
3024.620800885255
 20
1718.273426048199
 30
0.0
 11
3024.854134218589
 21
1718.273426048199
 31
0.0
 12
3024.737467551922
 22
1718.973426048199
 32
0.0
 13
3024.737467551922
 23
1718.973426048199
 33
0.0
  0
MTEXT
  5
D9D
330
764
100
AcDbEntity
  8
COTAS
440
 16777216
100
AcDbMText
 10
3024.737467551922
 20
1720.434232182248
 30
0.0
 40
1.5
 41
0.0
 46
0.0
 71
     5
 72
     1
  1
max.30
  7
ARIAL
 73
     1
 44
1.0
  0
POINT
  5
D9E
330
764
100
AcDbEntity
  8
Defpoints
 62
     0
440
 16777216
100
AcDbPoint
 10
3016.394015842723
 20
1721.8950383163
 30
0.0
  0
POINT
  5
D9F
330
764
100
AcDbEntity
  8
Defpoints
 62
     0
440
 16777216
100
AcDbPoint
 10
3015.794015842724
 20
1718.973426048199
 30
0.0
  0
POINT
  5
DA0
330
764
100
AcDbEntity
  8
Defpoints
 62
     0
440
 16777216
100
AcDbPoint
 10
3024.737467551922
 20
1718.973426048199
 30
0.0
  0
ENDBLK
  5
766
330
764
100
AcDbEntity
  8
0
100
AcDbBlockEnd
  0
BLOCK
  5
772
330
771
100
AcDbEntity
  8
0
100
AcDbBlockBegin
  2
*D12
 70
     1
 10
0.0
 20
0.0
 30
0.0
  3
*D12
  1

  0
LINE
  5
DA1
330
771
100
AcDbEntity
  8
COTAS
440
 16777216
100
AcDbLine
 10
3010.62106120058
 20
1719.766637192847
 30
0.0
 11
3010.62106120058
 21
1719.800992215107
 31
0.0
  0
LINE
  5
DA2
330
771
100
AcDbEntity
  8
COTAS
440
 16777216
100
AcDbLine
 10
3015.491486123193
 20
1719.819832745119
 30
0.0
 11
3015.491486123193
 21
1719.800992215107
 31
0.0
  0
LINE
  5
DA3
330
771
100
AcDbEntity
  8
COTAS
440
 16777216
100
AcDbLine
 10
3014.791486123193
 20
1720.300992215107
 30
0.0
 11
3011.32106120058
 21
1720.300992215107
 31
0.0
  0
LINE
  5
DA4
330
771
100
AcDbEntity
  8
COTAS
440
 16777216
100
AcDbLine
 10
3010.62106120058
 20
1720.300992215107
 30
0.0
 11
3006.865819861896
 21
1720.300992215107
 31
0.0
  0
SOLID
  5
DA5
330
771
100
AcDbEntity
  8
COTAS
440
 16777216
100
AcDbTrace
 10
3014.791486123193
 20
1720.417658881773
 30
0.0
 11
3014.791486123193
 21
1720.18432554844
 31
0.0
 12
3015.491486123193
 22
1720.300992215107
 32
0.0
 13
3015.491486123193
 23
1720.300992215107
 33
0.0
  0
SOLID
  5
DA6
330
771
100
AcDbEntity
  8
COTAS
440
 16777216
100
AcDbTrace
 10
3011.32106120058
 20
1720.417658881773
 30
0.0
 11
3011.32106120058
 21
1720.18432554844
 31
0.0
 12
3010.62106120058
 22
1720.300992215107
 32
0.0
 13
3010.62106120058
 23
1720.300992215107
 33
0.0
  0
MTEXT
  5
DA7
330
771
100
AcDbEntity
  8
COTAS
440
 16777216
100
AcDbMText
 10
3003.969844418513
 20
1720.300992215107
 30
0.0
 40
1.5
 41
0.0
 46
0.0
 71
     5
 72
     1
  1
%%C45
  7
ARIAL
 73
     1
 44
1.0
  0
POINT
  5
DA8
330
771
100
AcDbEntity
  8
Defpoints
 62
     0
440
 16777216
100
AcDbPoint
 10
3010.62106120058
 20
1720.766637192847
 30
0.0
  0
POINT
  5
DA9
330
771
100
AcDbEntity
  8
Defpoints
 62
     0
440
 16777216
100
AcDbPoint
 10
3015.491486123193
 20
1720.819832745119
 30
0.0
  0
POINT
  5
DAA
330
771
100
AcDbEntity
  8
Defpoints
 62
     0
440
 16777216
100
AcDbPoint
 10
3015.491486123193
 20
1720.300992215107
 30
0.0
  0
ENDBLK
  5
773
330
771
100
AcDbEntity
  8
0
100
AcDbBlockEnd
  0
BLOCK
  5
77F
330
77E
100
AcDbEntity
  8
0
100
AcDbBlockBegin
  2
*D13
 70
     1
 10
0.0
 20
0.0
 30
0.0
  3
*D13
  1

  0
LINE
  5
7ED
330
77E
100
AcDbEntity
  8
COTAS
440
 16777216
100
AcDbLine
 10
3047.94341804257
 20
1703.874936024702
 30
0.0
 11
3050.945056586563
 21
1703.874936024702
 31
0.0
  0
LINE
  5
7EE
330
77E
100
AcDbEntity
  8
COTAS
440
 16777216
100
AcDbLine
 10
3029.128433940956
 20
1689.707712617274
 30
0.0
 11
3050.945056586563
 21
1689.707712617274
 31
0.0
  0
LINE
  5
7EF
330
77E
100
AcDbEntity
  8
COTAS
440
 16777216
100
AcDbLine
 10
3050.445056586563
 20
1703.174936024701
 30
0.0
 11
3050.445056586563
 21
1700.968817341557
 31
0.0
  0
LINE
  5
7F0
330
77E
100
AcDbEntity
  8
COTAS
440
 16777216
100
AcDbLine
 10
3050.445056586563
 20
1690.407712617274
 30
0.0
 11
3050.445056586563
 21
1697.462678187397
 31
0.0
  0
SOLID
  5
7F1
330
77E
100
AcDbEntity
  8
COTAS
440
 16777216
100
AcDbTrace
 10
3050.328389919896
 20
1703.174936024701
 30
0.0
 11
3050.561723253229
 21
1703.174936024701
 31
0.0
 12
3050.445056586563
 22
1703.874936024702
 32
0.0
 13
3050.445056586563
 23
1703.874936024702
 33
0.0
  0
SOLID
  5
7F2
330
77E
100
AcDbEntity
  8
COTAS
440
 16777216
100
AcDbTrace
 10
3050.328389919896
 20
1690.407712617274
 30
0.0
 11
3050.561723253229
 21
1690.407712617274
 31
0.0
 12
3050.445056586563
 22
1689.707712617274
 32
0.0
 13
3050.445056586563
 23
1689.707712617274
 33
0.0
  0
MTEXT
  5
7F3
330
77E
100
AcDbEntity
  8
COTAS
440
 16777216
100
AcDbMText
 10
3050.445056586563
 20
1699.215747764475
 30
0.0
 40
1.5
 41
0.0
 46
0.0
 71
     5
 72
     1
  1
142
  7
ARIAL
 73
     1
 44
1.0
  0
POINT
  5
7F4
330
77E
100
AcDbEntity
  8
Defpoints
 62
     0
440
 16777216
100
AcDbPoint
 10
3046.94341804257
 20
1703.874936024702
 30
0.0
  0
POINT
  5
7F5
330
77E
100
AcDbEntity
  8
Defpoints
 62
     0
440
 16777216
100
AcDbPoint
 10
3028.128433940955
 20
1689.707712617274
 30
0.0
  0
POINT
  5
7F6
330
77E
100
AcDbEntity
  8
Defpoints
 62
     0
440
 16777216
100
AcDbPoint
 10
3050.445056586563
 20
1689.707712617274
 30
0.0
  0
ENDBLK
  5
780
330
77E
100
AcDbEntity
  8
0
100
AcDbBlockEnd
  0
BLOCK
  5
78C
330
78B
100
AcDbEntity
  8
0
100
AcDbBlockBegin
  2
*D14
 70
     1
 10
0.0
 20
0.0
 30
0.0
  3
*D14
  1

  0
LINE
  5
7F7
330
78B
100
AcDbEntity
  8
COTAS
440
 16777216
100
AcDbLine
 10
3041.936014420655
 20
1678.242054230172
 30
0.0
 11
3041.936014420655
 21
1669.362754672827
 31
0.0
  0
LINE
  5
7F8
330
78B
100
AcDbEntity
  8
COTAS
440
 16777216
100
AcDbLine
 10
3044.328433940954
 20
1678.242054230172
 30
0.0
 11
3044.328433940954
 21
1669.362754672827
 31
0.0
  0
LINE
  5
7F9
330
78B
100
AcDbEntity
  8
COTAS
440
 16777216
100
AcDbLine
 10
3041.236014420654
 20
1669.862754672827
 30
0.0
 11
3040.536014420654
 21
1669.862754672827
 31
0.0
  0
LINE
  5
7FA
330
78B
100
AcDbEntity
  8
COTAS
440
 16777216
100
AcDbLine
 10
3045.028433940955
 20
1669.862754672827
 30
0.0
 11
3045.728433940954
 21
1669.862754672827
 31
0.0
  0
SOLID
  5
7FB
330
78B
100
AcDbEntity
  8
COTAS
440
 16777216
100
AcDbTrace
 10
3041.236014420654
 20
1669.979421339494
 30
0.0
 11
3041.236014420654
 21
1669.746088006161
 31
0.0
 12
3041.936014420655
 22
1669.862754672827
 32
0.0
 13
3041.936014420655
 23
1669.862754672827
 33
0.0
  0
SOLID
  5
7FC
330
78B
100
AcDbEntity
  8
COTAS
440
 16777216
100
AcDbTrace
 10
3045.028433940955
 20
1669.979421339494
 30
0.0
 11
3045.028433940955
 21
1669.746088006161
 31
0.0
 12
3044.328433940954
 22
1669.862754672827
 32
0.0
 13
3044.328433940954
 23
1669.862754672827
 33
0.0
  0
MTEXT
  5
7FD
330
78B
100
AcDbEntity
  8
COTAS
440
 16777216
100
AcDbMText
 10
3049.266974186521
 20
1669.862754672827
 30
0.0
 40
1.5
 41
0.0
 46
0.0
 71
     5
 72
     1
  1
G1/2"
  7
ARIAL
 73
     1
 44
1.0
  0
POINT
  5
7FE
330
78B
100
AcDbEntity
  8
Defpoints
 62
     0
440
 16777216
100
AcDbPoint
 10
3041.936014420655
 20
1679.242054230172
 30
0.0
  0
POINT
  5
7FF
330
78B
100
AcDbEntity
  8
Defpoints
 62
     0
440
 16777216
100
AcDbPoint
 10
3044.328433940954
 20
1679.242054230172
 30
0.0
  0
POINT
  5
800
330
78B
100
AcDbEntity
  8
Defpoints
 62
     0
440
 16777216
100
AcDbPoint
 10
3044.328433940954
 20
1669.862754672827
 30
0.0
  0
ENDBLK
  5
78D
330
78B
100
AcDbEntity
  8
0
100
AcDbBlockEnd
  0
BLOCK
  5
799
330
798
100
AcDbEntity
  8
0
100
AcDbBlockBegin
  2
*D15
 70
     1
 10
0.0
 20
0.0
 30
0.0
  3
*D15
  1

  0
LINE
  5
801
330
798
100
AcDbEntity
  8
COTAS
440
 16777216
100
AcDbLine
 10
3045.463433940954
 20
1678.317054230172
 30
0.0
 11
3045.463433940954
 21
1677.785619306816
 31
0.0
  0
LINE
  5
802
330
798
100
AcDbEntity
  8
COTAS
440
 16777216
100
AcDbLine
 10
3047.855853461355
 20
1678.317054230172
 30
0.0
 11
3047.855853461355
 21
1677.785619306816
 31
0.0
  0
LINE
  5
803
330
798
100
AcDbEntity
  8
COTAS
440
 16777216
100
AcDbLine
 10
3044.763433940955
 20
1678.285619306816
 30
0.0
 11
3044.063433940955
 21
1678.285619306816
 31
0.0
  0
LINE
  5
804
330
798
100
AcDbEntity
  8
COTAS
440
 16777216
100
AcDbLine
 10
3048.555853461354
 20
1678.285619306816
 30
0.0
 11
3049.255853461354
 21
1678.285619306816
 31
0.0
  0
SOLID
  5
805
330
798
100
AcDbEntity
  8
COTAS
440
 16777216
100
AcDbTrace
 10
3044.763433940955
 20
1678.402285973483
 30
0.0
 11
3044.763433940955
 21
1678.16895264015
 31
0.0
 12
3045.463433940954
 22
1678.285619306816
 32
0.0
 13
3045.463433940954
 23
1678.285619306816
 33
0.0
  0
SOLID
  5
806
330
798
100
AcDbEntity
  8
COTAS
440
 16777216
100
AcDbTrace
 10
3048.555853461354
 20
1678.402285973483
 30
0.0
 11
3048.555853461354
 21
1678.16895264015
 31
0.0
 12
3047.855853461355
 22
1678.285619306816
 32
0.0
 13
3047.855853461355
 23
1678.285619306816
 33
0.0
  0
MTEXT
  5
807
330
798
100
AcDbEntity
  8
COTAS
440
 16777216
100
AcDbMText
 10
3052.79439370692
 20
1678.285619306816
 30
0.0
 40
1.5
 41
0.0
 46
0.0
 71
     5
 72
     1
  1
G1/2"
  7
ARIAL
 73
     1
 44
1.0
  0
POINT
  5
808
330
798
100
AcDbEntity
  8
Defpoints
 62
     0
440
 16777216
100
AcDbPoint
 10
3045.463433940954
 20
1679.317054230172
 30
0.0
  0
POINT
  5
809
330
798
100
AcDbEntity
  8
Defpoints
 62
     0
440
 16777216
100
AcDbPoint
 10
3047.855853461355
 20
1679.317054230172
 30
0.0
  0
POINT
  5
80A
330
798
100
AcDbEntity
  8
Defpoints
 62
     0
440
 16777216
100
AcDbPoint
 10
3047.855853461355
 20
1678.285619306816
 30
0.0
  0
ENDBLK
  5
79A
330
798
100
AcDbEntity
  8
0
100
AcDbBlockEnd
  0
BLOCK
  5
7A6
330
7A5
100
AcDbEntity
  8
0
100
AcDbBlockBegin
  2
*D16
 70
     1
 10
0.0
 20
0.0
 30
0.0
  3
*D16
  1

  0
LINE
  5
897
330
7A5
100
AcDbEntity
  8
COTAS
440
 16777216
100
AcDbLine
 10
3007.751435363122
 20
1719.80342603239
 30
0.0
 11
3007.751435363122
 21
1719.414072076028
 31
0.0
  0
LINE
  5
898
330
7A5
100
AcDbEntity
  8
COTAS
440
 16777216
100
AcDbLine
 10
3005.366596322422
 20
1719.80342603239
 30
0.0
 11
3005.366596322422
 21
1719.414072076028
 31
0.0
  0
LINE
  5
899
330
7A5
100
AcDbEntity
  8
COTAS
440
 16777216
100
AcDbLine
 10
3008.451435363122
 20
1718.914072076028
 30
0.0
 11
3009.151435363123
 21
1718.914072076028
 31
0.0
  0
LINE
  5
89A
330
7A5
100
AcDbEntity
  8
COTAS
440
 16777216
100
AcDbLine
 10
3004.666596322423
 20
1718.914072076028
 30
0.0
 11
3003.966596322423
 21
1718.914072076028
 31
0.0
  0
SOLID
  5
89B
330
7A5
100
AcDbEntity
  8
COTAS
440
 16777216
100
AcDbTrace
 10
3008.451435363122
 20
1719.030738742695
 30
0.0
 11
3008.451435363122
 21
1718.797405409362
 31
0.0
 12
3007.751435363122
 22
1718.914072076028
 32
0.0
 13
3007.751435363122
 23
1718.914072076028
 33
0.0
  0
SOLID
  5
89C
330
7A5
100
AcDbEntity
  8
COTAS
440
 16777216
100
AcDbTrace
 10
3004.666596322423
 20
1719.030738742695
 30
0.0
 11
3004.666596322423
 21
1718.797405409362
 31
0.0
 12
3005.366596322422
 22
1718.914072076028
 32
0.0
 13
3005.366596322422
 23
1718.914072076028
 33
0.0
  0
MTEXT
  5
89D
330
7A5
100
AcDbEntity
  8
COTAS
440
 16777216
100
AcDbMText
 10
3000.428056076856
 20
1718.914072076028
 30
0.0
 40
1.5
 41
0.0
 46
0.0
 71
     5
 72
     1
  1
G1/2"
  7
ARIAL
 73
     1
 44
1.0
  0
POINT
  5
89E
330
7A5
100
AcDbEntity
  8
Defpoints
 62
     0
440
 16777216
100
AcDbPoint
 10
3007.751435363122
 20
1718.80342603239
 30
0.0
  0
POINT
  5
89F
330
7A5
100
AcDbEntity
  8
Defpoints
 62
     0
440
 16777216
100
AcDbPoint
 10
3005.366596322422
 20
1718.80342603239
 30
0.0
  0
POINT
  5
8A0
330
7A5
100
AcDbEntity
  8
Defpoints
 62
     0
440
 16777216
100
AcDbPoint
 10
3005.366596322422
 20
1718.914072076028
 30
0.0
  0
ENDBLK
  5
7A7
330
7A5
100
AcDbEntity
  8
0
100
AcDbBlockEnd
  0
BLOCK
  5
7B3
330
7B2
100
AcDbEntity
  8
0
100
AcDbBlockBegin
  2
*D17
 70
     1
 10
0.0
 20
0.0
 30
0.0
  3
*D17
  1

  0
LINE
  5
8A1
330
7B2
100
AcDbEntity
  8
COTAS
440
 16777216
100
AcDbLine
 10
3008.950252898923
 20
1717.803426032389
 30
0.0
 11
3008.950252898923
 21
1697.39561998641
 31
0.0
  0
LINE
  5
8A2
330
7B2
100
AcDbEntity
  8
COTAS
440
 16777216
100
AcDbLine
 10
3011.237778786622
 20
1717.803426032389
 30
0.0
 11
3011.237778786622
 21
1697.39561998641
 31
0.0
  0
LINE
  5
8A3
330
7B2
100
AcDbEntity
  8
COTAS
440
 16777216
100
AcDbLine
 10
3008.250252898923
 20
1697.89561998641
 30
0.0
 11
3007.550252898922
 21
1697.89561998641
 31
0.0
  0
LINE
  5
8A4
330
7B2
100
AcDbEntity
  8
COTAS
440
 16777216
100
AcDbLine
 10
3011.937778786622
 20
1697.89561998641
 30
0.0
 11
3012.637778786622
 21
1697.89561998641
 31
0.0
  0
SOLID
  5
8A5
330
7B2
100
AcDbEntity
  8
COTAS
440
 16777216
100
AcDbTrace
 10
3008.250252898923
 20
1698.012286653077
 30
0.0
 11
3008.250252898923
 21
1697.778953319744
 31
0.0
 12
3008.950252898923
 22
1697.89561998641
 32
0.0
 13
3008.950252898923
 23
1697.89561998641
 33
0.0
  0
SOLID
  5
8A6
330
7B2
100
AcDbEntity
  8
COTAS
440
 16777216
100
AcDbTrace
 10
3011.937778786622
 20
1698.012286653077
 30
0.0
 11
3011.937778786622
 21
1697.778953319744
 31
0.0
 12
3011.237778786622
 22
1697.89561998641
 32
0.0
 13
3011.237778786622
 23
1697.89561998641
 33
0.0
  0
MTEXT
  5
8A7
330
7B2
100
AcDbEntity
  8
COTAS
440
 16777216
100
AcDbMText
 10
3016.176319032189
 20
1697.89561998641
 30
0.0
 40
1.5
 41
0.0
 46
0.0
 71
     5
 72
     1
  1
G1/2"
  7
ARIAL
 73
     1
 44
1.0
  0
POINT
  5
8A8
330
7B2
100
AcDbEntity
  8
Defpoints
 62
     0
440
 16777216
100
AcDbPoint
 10
3008.950252898923
 20
1718.80342603239
 30
0.0
  0
POINT
  5
8A9
330
7B2
100
AcDbEntity
  8
Defpoints
 62
     0
440
 16777216
100
AcDbPoint
 10
3011.237778786622
 20
1718.80342603239
 30
0.0
  0
POINT
  5
8AA
330
7B2
100
AcDbEntity
  8
Defpoints
 62
     0
440
 16777216
100
AcDbPoint
 10
3011.237778786622
 20
1697.89561998641
 30
0.0
  0
ENDBLK
  5
7B4
330
7B2
100
AcDbEntity
  8
0
100
AcDbBlockEnd
  0
BLOCK
  5
7C0
330
7BF
100
AcDbEntity
  8
0
100
AcDbBlockBegin
  2
*D18
 70
     1
 10
0.0
 20
0.0
 30
0.0
  3
*D18
  1

  0
LINE
  5
8AB
330
7BF
100
AcDbEntity
  8
COTAS
440
 16777216
100
AcDbLine
 10
3012.429015842723
 20
1719.80342603239
 30
0.0
 11
3012.429015842723
 21
1719.30342603239
 31
0.0
  0
LINE
  5
8AC
330
7BF
100
AcDbEntity
  8
COTAS
440
 16777216
100
AcDbLine
 10
3014.829015842722
 20
1719.80342603239
 30
0.0
 11
3014.829015842722
 21
1719.30342603239
 31
0.0
  0
LINE
  5
8AD
330
7BF
100
AcDbEntity
  8
COTAS
440
 16777216
100
AcDbLine
 10
3011.729015842723
 20
1718.80342603239
 30
0.0
 11
3011.029015842723
 21
1718.80342603239
 31
0.0
  0
LINE
  5
8AE
330
7BF
100
AcDbEntity
  8
COTAS
440
 16777216
100
AcDbLine
 10
3015.529015842722
 20
1718.80342603239
 30
0.0
 11
3016.229015842722
 21
1718.80342603239
 31
0.0
  0
SOLID
  5
8AF
330
7BF
100
AcDbEntity
  8
COTAS
440
 16777216
100
AcDbTrace
 10
3011.729015842723
 20
1718.920092699056
 30
0.0
 11
3011.729015842723
 21
1718.686759365723
 31
0.0
 12
3012.429015842723
 22
1718.80342603239
 32
0.0
 13
3012.429015842723
 23
1718.80342603239
 33
0.0
  0
SOLID
  5
8B0
330
7BF
100
AcDbEntity
  8
COTAS
440
 16777216
100
AcDbTrace
 10
3015.529015842722
 20
1718.920092699056
 30
0.0
 11
3015.529015842722
 21
1718.686759365723
 31
0.0
 12
3014.829015842722
 22
1718.80342603239
 32
0.0
 13
3014.829015842722
 23
1718.80342603239
 33
0.0
  0
MTEXT
  5
8B1
330
7BF
100
AcDbEntity
  8
COTAS
440
 16777216
100
AcDbMText
 10
3019.767556088288
 20
1718.80342603239
 30
0.0
 40
1.5
 41
0.0
 46
0.0
 71
     5
 72
     1
  1
G1/2"
  7
ARIAL
 73
     1
 44
1.0
  0
POINT
  5
8B2
330
7BF
100
AcDbEntity
  8
Defpoints
 62
     0
440
 16777216
100
AcDbPoint
 10
3012.429015842723
 20
1718.80342603239
 30
0.0
  0
POINT
  5
8B3
330
7BF
100
AcDbEntity
  8
Defpoints
 62
     0
440
 16777216
100
AcDbPoint
 10
3014.829015842722
 20
1718.80342603239
 30
0.0
  0
POINT
  5
8B4
330
7BF
100
AcDbEntity
  8
Defpoints
 62
     0
440
 16777216
100
AcDbPoint
 10
3014.829015842722
 20
1718.80342603239
 30
0.0
  0
ENDBLK
  5
7C1
330
7BF
100
AcDbEntity
  8
0
100
AcDbBlockEnd
  0
BLOCK
  5
7CD
330
7CC
100
AcDbEntity
  8
0
100
AcDbBlockBegin
  2
*D19
 70
     1
 10
0.0
 20
0.0
 30
0.0
  3
*D19
  1

  0
LINE
  5
829
330
7CC
100
AcDbEntity
  8
COTAS
440
 16777216
100
AcDbLine
 10
3043.128433940955
 20
1691.457712617273
 30
0.0
 11
3043.128433940955
 21
1697.800818098655
 31
0.0
  0
LINE
  5
82A
330
7CC
100
AcDbEntity
  8
COTAS
440
 16777216
100
AcDbLine
 10
3060.628433940955
 20
1691.457712617273
 30
0.0
 11
3060.628433940955
 21
1697.800818098655
 31
0.0
  0
LINE
  5
82B
330
7CC
100
AcDbEntity
  8
COTAS
440
 16777216
100
AcDbLine
 10
3043.828433940954
 20
1697.300818098655
 30
0.0
 11
3059.928433940955
 21
1697.300818098655
 31
0.0
  0
LINE
  5
82C
330
7CC
100
AcDbEntity
  8
COTAS
440
 16777216
100
AcDbLine
 10
3060.628433940955
 20
1697.300818098655
 30
0.0
 11
3061.328433940954
 21
1697.300818098655
 31
0.0
  0
SOLID
  5
82D
330
7CC
100
AcDbEntity
  8
COTAS
440
 16777216
100
AcDbTrace
 10
3043.828433940954
 20
1697.417484765322
 30
0.0
 11
3043.828433940954
 21
1697.184151431988
 31
0.0
 12
3043.128433940955
 22
1697.300818098655
 32
0.0
 13
3043.128433940955
 23
1697.300818098655
 33
0.0
  0
SOLID
  5
82E
330
7CC
100
AcDbEntity
  8
COTAS
440
 16777216
100
AcDbTrace
 10
3059.928433940955
 20
1697.417484765322
 30
0.0
 11
3059.928433940955
 21
1697.184151431988
 31
0.0
 12
3060.628433940955
 22
1697.300818098655
 32
0.0
 13
3060.628433940955
 23
1697.300818098655
 33
0.0
  0
MTEXT
  5
82F
330
7CC
100
AcDbEntity
  8
COTAS
440
 16777216
100
AcDbMText
 10
3066.227820025539
 20
1697.300818098655
 30
0.0
 40
1.5
 41
0.0
 46
0.0
 71
     5
 72
     1
  1
max.350
  7
ARIAL
 73
     1
 44
1.0
  0
POINT
  5
830
330
7CC
100
AcDbEntity
  8
Defpoints
 62
     0
440
 16777216
100
AcDbPoint
 10
3043.128433940955
 20
1690.457712617273
 30
0.0
  0
POINT
  5
831
330
7CC
100
AcDbEntity
  8
Defpoints
 62
     0
440
 16777216
100
AcDbPoint
 10
3060.628433940955
 20
1690.457712617273
 30
0.0
  0
POINT
  5
832
330
7CC
100
AcDbEntity
  8
Defpoints
 62
     0
440
 16777216
100
AcDbPoint
 10
3060.628433940955
 20
1697.300818098655
 30
0.0
  0
ENDBLK
  5
7CE
330
7CC
100
AcDbEntity
  8
0
100
AcDbBlockEnd
  0
BLOCK
  5
90D
330
90C
100
AcDbEntity
  8
0
100
AcDbBlockBegin
  2
*D21
 70
     1
 10
0.0
 20
0.0
 30
0.0
  3
*D21
  1

  0
LINE
  5
DAB
330
90C
100
AcDbEntity
  8
COTAS
440
 16777216
100
AcDbLine
 10
3009.794015842722
 20
1723.270038316299
 30
0.0
 11
3009.794015842722
 21
1724.861493034121
 31
0.0
  0
LINE
  5
DAC
330
90C
100
AcDbEntity
  8
COTAS
440
 16777216
100
AcDbLine
 10
3016.394015842723
 20
1723.270038316299
 30
0.0
 11
3016.394015842723
 21
1724.861493034121
 31
0.0
  0
LINE
  5
DAD
330
90C
100
AcDbEntity
  8
COTAS
440
 16777216
100
AcDbLine
 10
3015.694015842723
 20
1724.361493034121
 30
0.0
 11
3010.494015842722
 21
1724.361493034121
 31
0.0
  0
LINE
  5
DAE
330
90C
100
AcDbEntity
  8
COTAS
440
 16777216
100
AcDbLine
 10
3009.794015842722
 20
1724.361493034121
 30
0.0
 11
3009.094015842723
 21
1724.361493034121
 31
0.0
  0
SOLID
  5
DAF
330
90C
100
AcDbEntity
  8
COTAS
440
 16777216
100
AcDbTrace
 10
3015.694015842723
 20
1724.478159700787
 30
0.0
 11
3015.694015842723
 21
1724.244826367454
 31
0.0
 12
3016.394015842723
 22
1724.361493034121
 32
0.0
 13
3016.394015842723
 23
1724.361493034121
 33
0.0
  0
SOLID
  5
DB0
330
90C
100
AcDbEntity
  8
COTAS
440
 16777216
100
AcDbTrace
 10
3010.494015842722
 20
1724.478159700787
 30
0.0
 11
3010.494015842722
 21
1724.244826367454
 31
0.0
 12
3009.794015842722
 22
1724.361493034121
 32
0.0
 13
3009.794015842722
 23
1724.361493034121
 33
0.0
  0
MTEXT
  5
DB1
330
90C
100
AcDbEntity
  8
COTAS
440
 16777216
100
AcDbMText
 10
3006.2041795535
 20
1724.361493034121
 30
0.0
 40
1.5
 41
0.0
 46
0.0
 71
     5
 72
     1
  1
%%C66
  7
ARIAL
 73
     1
 44
1.0
  0
POINT
  5
DB2
330
90C
100
AcDbEntity
  8
Defpoints
 62
     0
440
 16777216
100
AcDbPoint
 10
3009.794015842722
 20
1722.270038316299
 30
0.0
  0
POINT
  5
DB3
330
90C
100
AcDbEntity
  8
Defpoints
 62
     0
440
 16777216
100
AcDbPoint
 10
3016.394015842723
 20
1722.270038316299
 30
0.0
  0
POINT
  5
DB4
330
90C
100
AcDbEntity
  8
Defpoints
 62
     0
440
 16777216
100
AcDbPoint
 10
3016.394015842723
 20
1724.361493034121
 30
0.0
  0
ENDBLK
  5
90E
330
90C
100
AcDbEntity
  8
0
100
AcDbBlockEnd
  0
BLOCK
  5
94E
330
94D
100
AcDbEntity
  8
0
100
AcDbBlockBegin
  2
*D22
 70
     1
 10
0.0
 20
0.0
 30
0.0
  3
*D22
  1

  0
LINE
  5
DB5
330
94D
100
AcDbEntity
  8
COTAS
440
 16777216
100
AcDbLine
 10
3017.394015842723
 20
1721.8950383163
 30
0.0
 11
3025.222845696421
 21
1721.8950383163
 31
0.0
  0
LINE
  5
DB6
330
94D
100
AcDbEntity
  8
COTAS
440
 16777216
100
AcDbLine
 10
3014.094015842724
 20
1727.4356391776
 30
0.0
 11
3025.222845696421
 21
1727.4356391776
 31
0.0
  0
LINE
  5
DB7
330
94D
100
AcDbEntity
  8
COTAS
440
 16777216
100
AcDbLine
 10
3024.722845696421
 20
1722.5950383163
 30
0.0
 11
3024.722845696421
 21
1722.690971276906
 31
0.0
  0
LINE
  5
DB8
330
94D
100
AcDbEntity
  8
COTAS
440
 16777216
100
AcDbLine
 10
3024.722845696421
 20
1726.7356391776
 30
0.0
 11
3024.722845696421
 21
1726.21655108591
 31
0.0
  0
SOLID
  5
DB9
330
94D
100
AcDbEntity
  8
COTAS
440
 16777216
100
AcDbTrace
 10
3024.606179029754
 20
1722.5950383163
 30
0.0
 11
3024.839512363087
 21
1722.5950383163
 31
0.0
 12
3024.722845696421
 22
1721.8950383163
 32
0.0
 13
3024.722845696421
 23
1721.8950383163
 33
0.0
  0
SOLID
  5
DBA
330
94D
100
AcDbEntity
  8
COTAS
440
 16777216
100
AcDbTrace
 10
3024.606179029754
 20
1726.7356391776
 30
0.0
 11
3024.839512363087
 21
1726.7356391776
 31
0.0
 12
3024.722845696421
 22
1727.4356391776
 32
0.0
 13
3024.722845696421
 23
1727.4356391776
 33
0.0
  0
MTEXT
  5
DBB
330
94D
100
AcDbEntity
  8
COTAS
440
 16777216
100
AcDbMText
 10
3024.722845696421
 20
1724.453761181407
 30
0.0
 40
1.5
 41
0.0
 46
0.0
 71
     5
 72
     1
  1
55
  7
ARIAL
 73
     1
 44
1.0
  0
POINT
  5
DBC
330
94D
100
AcDbEntity
  8
Defpoints
 62
     0
440
 16777216
100
AcDbPoint
 10
3016.394015842723
 20
1721.8950383163
 30
0.0
  0
POINT
  5
DBD
330
94D
100
AcDbEntity
  8
Defpoints
 62
     0
440
 16777216
100
AcDbPoint
 10
3013.094015842723
 20
1727.4356391776
 30
0.0
  0
POINT
  5
DBE
330
94D
100
AcDbEntity
  8
Defpoints
 62
     0
440
 16777216
100
AcDbPoint
 10
3024.722845696421
 20
1727.4356391776
 30
0.0
  0
ENDBLK
  5
94F
330
94D
100
AcDbEntity
  8
0
100
AcDbBlockEnd
  0
BLOCK
  5
9D0
330
9CF
100
AcDbEntity
  8
0
100
AcDbBlockBegin
  2
*D23
 70
     1
 10
0.0
 20
0.0
 30
0.0
  3
*D23
  1

  0
LINE
  5
9D1
330
9CF
100
AcDbEntity
  8
COTAS
440
 16777216
100
AcDbLine
 10
305.3379374367521
 20
97.22297184563695
 30
0.0
 11
305.3379374367521
 21
97.08800898855004
 31
0.0
  0
LINE
  5
9D2
330
9CF
100
AcDbEntity
  8
COTAS
440
 16777216
100
AcDbLine
 10
310.208362359365
 20
97.27616739790875
 30
0.0
 11
310.208362359365
 21
97.08800898855004
 31
0.0
  0
LINE
  5
9D3
330
9CF
100
AcDbEntity
  8
COTAS
440
 16777216
100
AcDbLine
 10
309.508362359365
 20
97.58800898855005
 30
0.0
 11
306.0379374367521
 21
97.58800898855005
 31
0.0
  0
LINE
  5
9D4
330
9CF
100
AcDbEntity
  8
COTAS
440
 16777216
100
AcDbLine
 10
305.3379374367521
 20
97.58800898855005
 30
0.0
 11
304.6379374367521
 21
97.58800898855005
 31
0.0
  0
SOLID
  5
9D5
330
9CF
100
AcDbEntity
  8
COTAS
440
 16777216
100
AcDbTrace
 10
309.508362359365
 20
97.7046756552167
 30
0.0
 11
309.508362359365
 21
97.47134232188338
 31
0.0
 12
310.208362359365
 22
97.58800898855005
 32
0.0
 13
310.208362359365
 23
97.58800898855005
 33
0.0
  0
SOLID
  5
9D6
330
9CF
100
AcDbEntity
  8
COTAS
440
 16777216
100
AcDbTrace
 10
306.0379374367521
 20
97.7046756552167
 30
0.0
 11
306.0379374367521
 21
97.47134232188338
 31
0.0
 12
305.3379374367521
 22
97.58800898855005
 32
0.0
 13
305.3379374367521
 23
97.58800898855005
 33
0.0
  0
MTEXT
  5
9D7
330
9CF
100
AcDbEntity
  8
COTAS
440
 16777216
100
AcDbMText
 10
301.7419619933688
 20
97.58800898855005
 30
0.0
 40
1.5
 41
0.0
 46
0.0
 71
     5
 72
     1
  1
%%C45
  7
ARIAL
 73
     1
 44
1.0
  0
POINT
  5
9D8
330
9CF
100
AcDbEntity
  8
Defpoints
 62
     0
440
 16777216
100
AcDbPoint
 10
305.3379374367521
 20
98.22297184563694
 30
0.0
  0
POINT
  5
9D9
330
9CF
100
AcDbEntity
  8
Defpoints
 62
     0
440
 16777216
100
AcDbPoint
 10
310.208362359365
 20
98.27616739790876
 30
0.0
  0
POINT
  5
9DA
330
9CF
100
AcDbEntity
  8
Defpoints
 62
     0
440
 16777216
100
AcDbPoint
 10
310.208362359365
 20
97.58800898855005
 30
0.0
  0
ENDBLK
  5
9DB
330
9CF
100
AcDbEntity
  8
0
100
AcDbBlockEnd
  0
BLOCK
  5
9DD
330
9DC
100
AcDbEntity
  8
0
100
AcDbBlockBegin
  2
*D24
 70
     1
 10
0.0
 20
0.0
 30
0.0
  3
*D24
  1

  0
LINE
  5
9DE
330
9DC
100
AcDbEntity
  8
COTAS
440
 16777216
100
AcDbLine
 10
303.0793312451812
 20
87.69085580281716
 30
0.0
 11
303.0793312451812
 21
86.99987905654252
 31
0.0
  0
LINE
  5
9DF
330
9DC
100
AcDbEntity
  8
COTAS
440
 16777216
100
AcDbLine
 10
305.3919582525813
 20
87.69085580281716
 30
0.0
 11
305.3919582525813
 21
86.99987905654252
 31
0.0
  0
LINE
  5
9E0
330
9DC
100
AcDbEntity
  8
COTAS
440
 16777216
100
AcDbLine
 10
306.0919582525813
 20
87.49987905654252
 30
0.0
 11
306.7919582525813
 21
87.49987905654252
 31
0.0
  0
LINE
  5
9E1
330
9DC
100
AcDbEntity
  8
COTAS
440
 16777216
100
AcDbLine
 10
302.3793312451811
 20
87.49987905654252
 30
0.0
 11
301.6296849638007
 21
87.49987905654252
 31
0.0
  0
SOLID
  5
9E2
330
9DC
100
AcDbEntity
  8
COTAS
440
 16777216
100
AcDbTrace
 10
306.0919582525813
 20
87.61654572320919
 30
0.0
 11
306.0919582525813
 21
87.38321238987586
 31
0.0
 12
305.3919582525813
 22
87.49987905654252
 32
0.0
 13
305.3919582525813
 23
87.49987905654252
 33
0.0
  0
SOLID
  5
9E3
330
9DC
100
AcDbEntity
  8
COTAS
440
 16777216
100
AcDbTrace
 10
302.3793312451811
 20
87.61654572320919
 30
0.0
 11
302.3793312451811
 21
87.38321238987586
 31
0.0
 12
303.0793312451812
 22
87.49987905654252
 32
0.0
 13
303.0793312451812
 23
87.49987905654252
 33
0.0
  0
MTEXT
  5
9E4
330
9DC
100
AcDbEntity
  8
COTAS
440
 16777216
100
AcDbMText
 10
298.0911447182346
 20
87.49987905654252
 30
0.0
 40
1.5
 41
0.0
 46
0.0
 71
     5
 72
     1
  1
G1/2"
  7
ARIAL
 73
     1
 44
1.0
  0
POINT
  5
9E5
330
9DC
100
AcDbEntity
  8
Defpoints
 62
     0
440
 16777216
100
AcDbPoint
 10
303.0793312451812
 20
88.69085580281716
 30
0.0
  0
POINT
  5
9E6
330
9DC
100
AcDbEntity
  8
Defpoints
 62
     0
440
 16777216
100
AcDbPoint
 10
305.3919582525813
 20
88.69085580281716
 30
0.0
  0
POINT
  5
9E7
330
9DC
100
AcDbEntity
  8
Defpoints
 62
     0
440
 16777216
100
AcDbPoint
 10
305.3919582525813
 20
87.49987905654252
 30
0.0
  0
ENDBLK
  5
9E8
330
9DC
100
AcDbEntity
  8
0
100
AcDbBlockEnd
  0
BLOCK
  5
CC8
330
CC7
100
AcDbEntity
  8
0
100
AcDbBlockBegin
  2
*D26
 70
     1
 10
0.0
 20
0.0
 30
0.0
  3
*D26
  1

  0
LINE
  5
D1D
330
CC7
100
AcDbEntity
  8
COTAS
440
 16777216
100
AcDbLine
 10
3007.661308530594
 20
1725.235542075209
 30
0.0
 11
3007.661308530594
 21
1725.100579218123
 31
0.0
  0
LINE
  5
D1E
330
CC7
100
AcDbEntity
  8
COTAS
440
 16777216
100
AcDbLine
 10
3012.531733453206
 20
1725.288737627481
 30
0.0
 11
3012.531733453206
 21
1725.100579218123
 31
0.0
  0
LINE
  5
D1F
330
CC7
100
AcDbEntity
  8
COTAS
440
 16777216
100
AcDbLine
 10
3011.831733453206
 20
1725.600579218123
 30
0.0
 11
3008.361308530594
 21
1725.600579218123
 31
0.0
  0
LINE
  5
D20
330
CC7
100
AcDbEntity
  8
COTAS
440
 16777216
100
AcDbLine
 10
3007.661308530594
 20
1725.600579218123
 30
0.0
 11
3006.961308530594
 21
1725.600579218123
 31
0.0
  0
SOLID
  5
D21
330
CC7
100
AcDbEntity
  8
COTAS
440
 16777216
100
AcDbTrace
 10
3011.831733453206
 20
1725.717245884789
 30
0.0
 11
3011.831733453206
 21
1725.483912551456
 31
0.0
 12
3012.531733453206
 22
1725.600579218123
 32
0.0
 13
3012.531733453206
 23
1725.600579218123
 33
0.0
  0
SOLID
  5
D22
330
CC7
100
AcDbEntity
  8
COTAS
440
 16777216
100
AcDbTrace
 10
3008.361308530594
 20
1725.717245884789
 30
0.0
 11
3008.361308530594
 21
1725.483912551456
 31
0.0
 12
3007.661308530594
 22
1725.600579218123
 32
0.0
 13
3007.661308530594
 23
1725.600579218123
 33
0.0
  0
MTEXT
  5
D23
330
CC7
100
AcDbEntity
  8
COTAS
440
 16777216
100
AcDbMText
 10
3004.06533308721
 20
1725.600579218123
 30
0.0
 40
1.5
 41
0.0
 46
0.0
 71
     5
 72
     1
  1
%%C45
  7
ARIAL
 73
     1
 44
1.0
  0
POINT
  5
D24
330
CC7
100
AcDbEntity
  8
Defpoints
 62
     0
440
 16777216
100
AcDbPoint
 10
3007.661308530594
 20
1726.23554207521
 30
0.0
  0
POINT
  5
D25
330
CC7
100
AcDbEntity
  8
Defpoints
 62
     0
440
 16777216
100
AcDbPoint
 10
3012.531733453206
 20
1726.288737627481
 30
0.0
  0
POINT
  5
D26
330
CC7
100
AcDbEntity
  8
Defpoints
 62
     0
440
 16777216
100
AcDbPoint
 10
3012.531733453206
 20
1725.600579218123
 30
0.0
  0
ENDBLK
  5
CC9
330
CC7
100
AcDbEntity
  8
0
100
AcDbBlockEnd
  0
BLOCK
  5
CD5
330
CD4
100
AcDbEntity
  8
0
100
AcDbBlockBegin
  2
*D27
 70
     1
 10
0.0
 20
0.0
 30
0.0
  3
*D27
  1

  0
LINE
  5
DBF
330
CD4
100
AcDbEntity
  8
COTAS
440
 16777216
100
AcDbLine
 10
3008.402702339023
 20
1710.504379929198
 30
0.0
 11
3008.402702339023
 21
1709.813403182923
 31
0.0
  0
LINE
  5
DC0
330
CD4
100
AcDbEntity
  8
COTAS
440
 16777216
100
AcDbLine
 10
3010.715329346423
 20
1710.504379929198
 30
0.0
 11
3010.715329346423
 21
1709.813403182923
 31
0.0
  0
LINE
  5
DC1
330
CD4
100
AcDbEntity
  8
COTAS
440
 16777216
100
AcDbLine
 10
3011.415329346422
 20
1710.313403182923
 30
0.0
 11
3012.115329346423
 21
1710.313403182923
 31
0.0
  0
LINE
  5
DC2
330
CD4
100
AcDbEntity
  8
COTAS
440
 16777216
100
AcDbLine
 10
3007.702702339023
 20
1710.313403182923
 30
0.0
 11
3006.953056057642
 21
1710.313403182923
 31
0.0
  0
SOLID
  5
DC3
330
CD4
100
AcDbEntity
  8
COTAS
440
 16777216
100
AcDbTrace
 10
3011.415329346422
 20
1710.43006984959
 30
0.0
 11
3011.415329346422
 21
1710.196736516257
 31
0.0
 12
3010.715329346423
 22
1710.313403182923
 32
0.0
 13
3010.715329346423
 23
1710.313403182923
 33
0.0
  0
SOLID
  5
DC4
330
CD4
100
AcDbEntity
  8
COTAS
440
 16777216
100
AcDbTrace
 10
3007.702702339023
 20
1710.43006984959
 30
0.0
 11
3007.702702339023
 21
1710.196736516257
 31
0.0
 12
3008.402702339023
 22
1710.313403182923
 32
0.0
 13
3008.402702339023
 23
1710.313403182923
 33
0.0
  0
MTEXT
  5
DC5
330
CD4
100
AcDbEntity
  8
COTAS
440
 16777216
100
AcDbMText
 10
3003.414515812075
 20
1710.313403182923
 30
0.0
 40
1.5
 41
0.0
 46
0.0
 71
     5
 72
     1
  1
G1/2"
  7
ARIAL
 73
     1
 44
1.0
  0
POINT
  5
DC6
330
CD4
100
AcDbEntity
  8
Defpoints
 62
     0
440
 16777216
100
AcDbPoint
 10
3008.402702339023
 20
1711.504379929198
 30
0.0
  0
POINT
  5
DC7
330
CD4
100
AcDbEntity
  8
Defpoints
 62
     0
440
 16777216
100
AcDbPoint
 10
3010.715329346423
 20
1711.504379929198
 30
0.0
  0
POINT
  5
DC8
330
CD4
100
AcDbEntity
  8
Defpoints
 62
     0
440
 16777216
100
AcDbPoint
 10
3010.715329346423
 20
1710.313403182923
 30
0.0
  0
ENDBLK
  5
CD6
330
CD4
100
AcDbEntity
  8
0
100
AcDbBlockEnd
  0
BLOCK
  5
D32
330
D31
100
AcDbEntity
  8
0
100
AcDbBlockBegin
  2
*D28
 70
     1
 10
0.0
 20
0.0
 30
0.0
  3
*D28
  1

  0
LINE
  5
D33
330
D31
100
AcDbEntity
  8
COTAS
440
 16777216
100
AcDbLine
 10
306.5782252285811
 20
87.61585580281719
 30
0.0
 11
306.5782252285811
 21
78.73655624547218
 31
0.0
  0
LINE
  5
D34
330
D31
100
AcDbEntity
  8
COTAS
440
 16777216
100
AcDbLine
 10
308.9706447488811
 20
87.61585580281719
 30
0.0
 11
308.9706447488811
 21
78.73655624547218
 31
0.0
  0
LINE
  5
D35
330
D31
100
AcDbEntity
  8
COTAS
440
 16777216
100
AcDbLine
 10
305.8782252285811
 20
79.23655624547219
 30
0.0
 11
305.1782252285812
 21
79.23655624547219
 31
0.0
  0
LINE
  5
D36
330
D31
100
AcDbEntity
  8
COTAS
440
 16777216
100
AcDbLine
 10
309.6706447488811
 20
79.23655624547219
 30
0.0
 11
310.3706447488812
 21
79.23655624547219
 31
0.0
  0
SOLID
  5
D37
330
D31
100
AcDbEntity
  8
COTAS
440
 16777216
100
AcDbTrace
 10
305.8782252285811
 20
79.35322291213885
 30
0.0
 11
305.8782252285811
 21
79.11988957880552
 31
0.0
 12
306.5782252285811
 22
79.23655624547219
 32
0.0
 13
306.5782252285811
 23
79.23655624547219
 33
0.0
  0
SOLID
  5
D38
330
D31
100
AcDbEntity
  8
COTAS
440
 16777216
100
AcDbTrace
 10
309.6706447488811
 20
79.35322291213885
 30
0.0
 11
309.6706447488811
 21
79.11988957880552
 31
0.0
 12
308.9706447488811
 22
79.23655624547219
 32
0.0
 13
308.9706447488811
 23
79.23655624547219
 33
0.0
  0
MTEXT
  5
D39
330
D31
100
AcDbEntity
  8
COTAS
440
 16777216
100
AcDbMText
 10
313.9091849944473
 20
79.23655624547219
 30
0.0
 40
1.5
 41
0.0
 46
0.0
 71
     5
 72
     1
  1
G1/2"
  7
ARIAL
 73
     1
 44
1.0
  0
POINT
  5
D3A
330
D31
100
AcDbEntity
  8
Defpoints
 62
     0
440
 16777216
100
AcDbPoint
 10
306.5782252285811
 20
88.61585580281719
 30
0.0
  0
POINT
  5
D3B
330
D31
100
AcDbEntity
  8
Defpoints
 62
     0
440
 16777216
100
AcDbPoint
 10
308.9706447488811
 20
88.61585580281719
 30
0.0
  0
POINT
  5
D3C
330
D31
100
AcDbEntity
  8
Defpoints
 62
     0
440
 16777216
100
AcDbPoint
 10
308.9706447488811
 20
79.23655624547219
 30
0.0
  0
ENDBLK
  5
D3D
330
D31
100
AcDbEntity
  8
0
100
AcDbBlockEnd
  0
BLOCK
  5
D3F
330
D3E
100
AcDbEntity
  8
0
100
AcDbBlockBegin
  2
*D29
 70
     1
 10
0.0
 20
0.0
 30
0.0
  3
*D29
  1

  0
LINE
  5
D40
330
D3E
100
AcDbEntity
  8
COTAS
440
 16777216
100
AcDbLine
 10
310.1056447488812
 20
87.69085580281716
 30
0.0
 11
310.1056447488812
 21
87.15942087946116
 31
0.0
  0
LINE
  5
D41
330
D3E
100
AcDbEntity
  8
COTAS
440
 16777216
100
AcDbLine
 10
312.4980642692812
 20
87.69085580281716
 30
0.0
 11
312.4980642692812
 21
87.15942087946116
 31
0.0
  0
LINE
  5
D42
330
D3E
100
AcDbEntity
  8
COTAS
440
 16777216
100
AcDbLine
 10
309.4056447488812
 20
87.65942087946116
 30
0.0
 11
308.7056447488812
 21
87.65942087946116
 31
0.0
  0
LINE
  5
D43
330
D3E
100
AcDbEntity
  8
COTAS
440
 16777216
100
AcDbLine
 10
313.1980642692811
 20
87.65942087946116
 30
0.0
 11
313.8980642692812
 21
87.65942087946116
 31
0.0
  0
SOLID
  5
D44
330
D3E
100
AcDbEntity
  8
COTAS
440
 16777216
100
AcDbTrace
 10
309.4056447488812
 20
87.77608754612783
 30
0.0
 11
309.4056447488812
 21
87.5427542127945
 31
0.0
 12
310.1056447488812
 22
87.65942087946116
 32
0.0
 13
310.1056447488812
 23
87.65942087946116
 33
0.0
  0
SOLID
  5
D45
330
D3E
100
AcDbEntity
  8
COTAS
440
 16777216
100
AcDbTrace
 10
313.1980642692811
 20
87.77608754612783
 30
0.0
 11
313.1980642692811
 21
87.5427542127945
 31
0.0
 12
312.4980642692812
 22
87.65942087946116
 32
0.0
 13
312.4980642692812
 23
87.65942087946116
 33
0.0
  0
MTEXT
  5
D46
330
D3E
100
AcDbEntity
  8
COTAS
440
 16777216
100
AcDbMText
 10
317.4366045148473
 20
87.65942087946116
 30
0.0
 40
1.5
 41
0.0
 46
0.0
 71
     5
 72
     1
  1
G1/2"
  7
ARIAL
 73
     1
 44
1.0
  0
POINT
  5
D47
330
D3E
100
AcDbEntity
  8
Defpoints
 62
     0
440
 16777216
100
AcDbPoint
 10
310.1056447488812
 20
88.69085580281716
 30
0.0
  0
POINT
  5
D48
330
D3E
100
AcDbEntity
  8
Defpoints
 62
     0
440
 16777216
100
AcDbPoint
 10
312.4980642692812
 20
88.69085580281716
 30
0.0
  0
POINT
  5
D49
330
D3E
100
AcDbEntity
  8
Defpoints
 62
     0
440
 16777216
100
AcDbPoint
 10
312.4980642692812
 20
87.65942087946116
 30
0.0
  0
ENDBLK
  5
D4A
330
D3E
100
AcDbEntity
  8
0
100
AcDbBlockEnd
  0
BLOCK
  5
D56
330
D55
100
AcDbEntity
  8
0
100
AcDbBlockBegin
  2
*D31
 70
     1
 10
0.0
 20
0.0
 30
0.0
  3
*D31
  1

  0
LINE
  5
DC9
330
D55
100
AcDbEntity
  8
COTAS
440
 16777216
100
AcDbLine
 10
3011.894015842722
 20
1710.412221834205
 30
0.0
 11
3011.894015842722
 21
1701.53292227686
 31
0.0
  0
LINE
  5
DCA
330
D55
100
AcDbEntity
  8
COTAS
440
 16777216
100
AcDbLine
 10
3014.286435363022
 20
1710.412221834205
 30
0.0
 11
3014.286435363022
 21
1701.53292227686
 31
0.0
  0
LINE
  5
DCB
330
D55
100
AcDbEntity
  8
COTAS
440
 16777216
100
AcDbLine
 10
3011.194015842722
 20
1702.032922276861
 30
0.0
 11
3010.494015842722
 21
1702.032922276861
 31
0.0
  0
LINE
  5
DCC
330
D55
100
AcDbEntity
  8
COTAS
440
 16777216
100
AcDbLine
 10
3014.986435363022
 20
1702.032922276861
 30
0.0
 11
3015.686435363022
 21
1702.032922276861
 31
0.0
  0
SOLID
  5
DCD
330
D55
100
AcDbEntity
  8
COTAS
440
 16777216
100
AcDbTrace
 10
3011.194015842722
 20
1702.149588943527
 30
0.0
 11
3011.194015842722
 21
1701.916255610194
 31
0.0
 12
3011.894015842722
 22
1702.032922276861
 32
0.0
 13
3011.894015842722
 23
1702.032922276861
 33
0.0
  0
SOLID
  5
DCE
330
D55
100
AcDbEntity
  8
COTAS
440
 16777216
100
AcDbTrace
 10
3014.986435363022
 20
1702.149588943527
 30
0.0
 11
3014.986435363022
 21
1701.916255610194
 31
0.0
 12
3014.286435363022
 22
1702.032922276861
 32
0.0
 13
3014.286435363022
 23
1702.032922276861
 33
0.0
  0
MTEXT
  5
DCF
330
D55
100
AcDbEntity
  8
COTAS
440
 16777216
100
AcDbMText
 10
3019.224975608588
 20
1702.032922276861
 30
0.0
 40
1.5
 41
0.0
 46
0.0
 71
     5
 72
     1
  1
G1/2"
  7
ARIAL
 73
     1
 44
1.0
  0
POINT
  5
DD0
330
D55
100
AcDbEntity
  8
Defpoints
 62
     0
440
 16777216
100
AcDbPoint
 10
3011.894015842722
 20
1711.412221834206
 30
0.0
  0
POINT
  5
DD1
330
D55
100
AcDbEntity
  8
Defpoints
 62
     0
440
 16777216
100
AcDbPoint
 10
3014.286435363022
 20
1711.412221834206
 30
0.0
  0
POINT
  5
DD2
330
D55
100
AcDbEntity
  8
Defpoints
 62
     0
440
 16777216
100
AcDbPoint
 10
3014.286435363022
 20
1702.032922276861
 30
0.0
  0
ENDBLK
  5
D57
330
D55
100
AcDbEntity
  8
0
100
AcDbBlockEnd
  0
BLOCK
  5
D63
330
D62
100
AcDbEntity
  8
0
100
AcDbBlockBegin
  2
*D32
 70
     1
 10
0.0
 20
0.0
 30
0.0
  3
*D32
  1

  0
LINE
  5
DD3
330
D62
100
AcDbEntity
  8
COTAS
440
 16777216
100
AcDbLine
 10
3015.421435363022
 20
1710.487221834205
 30
0.0
 11
3015.421435363022
 21
1709.95578691085
 31
0.0
  0
LINE
  5
DD4
330
D62
100
AcDbEntity
  8
COTAS
440
 16777216
100
AcDbLine
 10
3017.813854883423
 20
1710.487221834205
 30
0.0
 11
3017.813854883423
 21
1709.95578691085
 31
0.0
  0
LINE
  5
DD5
330
D62
100
AcDbEntity
  8
COTAS
440
 16777216
100
AcDbLine
 10
3014.721435363023
 20
1710.45578691085
 30
0.0
 11
3014.021435363023
 21
1710.45578691085
 31
0.0
  0
LINE
  5
DD6
330
D62
100
AcDbEntity
  8
COTAS
440
 16777216
100
AcDbLine
 10
3018.513854883422
 20
1710.45578691085
 30
0.0
 11
3019.213854883422
 21
1710.45578691085
 31
0.0
  0
SOLID
  5
DD7
330
D62
100
AcDbEntity
  8
COTAS
440
 16777216
100
AcDbTrace
 10
3014.721435363023
 20
1710.572453577516
 30
0.0
 11
3014.721435363023
 21
1710.339120244183
 31
0.0
 12
3015.421435363022
 22
1710.45578691085
 32
0.0
 13
3015.421435363022
 23
1710.45578691085
 33
0.0
  0
SOLID
  5
DD8
330
D62
100
AcDbEntity
  8
COTAS
440
 16777216
100
AcDbTrace
 10
3018.513854883422
 20
1710.572453577516
 30
0.0
 11
3018.513854883422
 21
1710.339120244183
 31
0.0
 12
3017.813854883423
 22
1710.45578691085
 32
0.0
 13
3017.813854883423
 23
1710.45578691085
 33
0.0
  0
MTEXT
  5
DD9
330
D62
100
AcDbEntity
  8
COTAS
440
 16777216
100
AcDbMText
 10
3022.752395128988
 20
1710.45578691085
 30
0.0
 40
1.5
 41
0.0
 46
0.0
 71
     5
 72
     1
  1
G1/2"
  7
ARIAL
 73
     1
 44
1.0
  0
POINT
  5
DDA
330
D62
100
AcDbEntity
  8
Defpoints
 62
     0
440
 16777216
100
AcDbPoint
 10
3015.421435363022
 20
1711.487221834206
 30
0.0
  0
POINT
  5
DDB
330
D62
100
AcDbEntity
  8
Defpoints
 62
     0
440
 16777216
100
AcDbPoint
 10
3017.813854883423
 20
1711.487221834206
 30
0.0
  0
POINT
  5
DDC
330
D62
100
AcDbEntity
  8
Defpoints
 62
     0
440
 16777216
100
AcDbPoint
 10
3017.813854883423
 20
1710.45578691085
 30
0.0
  0
ENDBLK
  5
D64
330
D62
100
AcDbEntity
  8
0
100
AcDbBlockEnd
  0
ENDSEC
  0
SECTION
  2
ENTITIES
  0
LINE
  5
5BB
330
1F
100
AcDbEntity
  8
cuerpo
100
AcDbLine
 10
3015.294015842723
 20
1718.973426048198
 30
0.0
 11
3015.294015842723
 21
1721.825038316299
 31
0.0
  0
LINE
  5
5BC
330
1F
100
AcDbEntity
  8
cuerpo
100
AcDbLine
 10
3010.894015842723
 20
1721.825038316299
 30
0.0
 11
3010.894015842723
 21
1718.973426048198
 31
0.0
  0
LWPOLYLINE
  5
752
330
1F
100
AcDbEntity
  8
0
 62
     3
100
AcDbPolyline
 90
        4
 70
     1
 43
0.0
 10
2989.136537067272
 20
1692.799400791084
 10
2989.136537067272
 20
1736.856060178303
 10
3036.346678751477
 20
1736.856060178303
 10
3036.346678751477
 20
1692.799400791084
  0
MTEXT
  5
753
330
1F
100
AcDbEntity
  8
0
100
AcDbMText
 10
2989.066642288628
 20
1739.398401047818
 30
0.0
 40
1.5
 41
102.7893817209935
 46
0.0
 71
     1
 72
     5
  1
T363302^I^I^I^I^I^IE1:10
  7
RS (E1.10)
 73
     1
 44
1.0
1001
ACAD
1000
ACAD_MTEXT_COLUMN_INFO_BEGIN
1070
    75
1070
     2
1070
    79
1070
     0
1070
    76
1070
     1
1070
    78
1070
     0
1070
    48
1040
102.7893817209935
1070
    49
1040
1.0
1070
    50
1070
     1
1040
1.216122730614112
1000
ACAD_MTEXT_COLUMN_INFO_END
  0
HATCH
  5
756
330
1F
100
AcDbEntity
  8
COTAS
100
AcDbHatch
 10
0.0
 20
0.0
 30
0.0
210
0.0
220
0.0
230
1.0
  2
ANSI31
 70
     0
 71
     0
 91
        2
 92
        1
 93
        4
 72
     1
 10
3010.894015842723
 20
1721.91503831633
 11
3007.405090157461
 21
1721.901284232762
 72
     1
 10
3007.405090157461
 20
1721.901284232762
 11
3007.405090157461
 21
1718.95967196463
 72
     1
 10
3007.405090157461
 20
1718.95967196463
 11
3010.894015842723
 21
1718.973426048198
 72
     1
 10
3010.894015842723
 20
1718.973426048198
 11
3010.894015842723
 21
1721.91503831633
 97
        0
 92
       33
 93
        3
 72
     1
 10
3015.294015842723
 20
1718.973426048198
 11
3022.136894309185
 21
1718.973426048198
 72
     1
 10
3015.291708771173
 20
1721.870038316314
 11
3015.296322914272
 21
1718.928426048182
 72
     1
 10
3015.294015842723
 20
1721.825038316299
 11
3022.15727644275
 21
1721.885038316283
 97
        0
 75
     1
 76
     1
 52
0.0
 41
1.0
 77
     0
 78
     1
 53
45.0
 43
556.9329567249365
 44
-158.6783529930283
 45
-2.245064030267287
 46
2.245064030267287
 79
     0
 98
        1
 10
556.9329567249365
 20
-158.6783529930283
1001
GradientColor1ACI
1070
     5
1001
GradientColor2ACI
1070
     2
1001
ACAD
1010
0.0
1020
0.0
1030
0.0
  0
LINE
  5
757
330
1F
100
AcDbEntity
  8
COTAS
100
AcDbLine
 10
3007.363721591241
 20
1718.973426048198
 30
0.0
 11
3021.136306537675
 21
1718.973426048198
 31
0.0
  0
LINE
  5
758
330
1F
100
AcDbEntity
  8
COTAS
100
AcDbLine
 10
3007.363721591241
 20
1721.895038316299
 30
0.0
 11
3021.136306537675
 21
1721.895038316299
 31
0.0
  0
DIMENSION
  5
759
330
1F
100
AcDbEntity
  8
COTAS
100
AcDbDimension
  2
*D11
 10
3024.737467551922
 20
1718.973426048199
 30
0.0
 11
3024.737467551922
 21
1720.434232182248
 31
0.0
 70
   160
  1
max.30
 71
     5
 42
29.21612268100944
 73
     0
 74
     0
 75
     0
  3
RS (E1.10)
100
AcDbAlignedDimension
 13
3016.394015842723
 23
1721.895038316299
 33
0.0
 14
3015.794015842722
 24
1718.973426048198
 34
0.0
 50
90.0
100
AcDbRotatedDimension
  0
LINE
  5
75A
330
1F
100
AcDbEntity
  8
COTAS
100
AcDbLine
 10
3010.618826176489
 20
1721.823174802006
 30
0.0
 11
3010.623296224671
 21
1718.973426043209
 31
0.0
  0
LINE
  5
75B
330
1F
100
AcDbEntity
  8
COTAS
100
AcDbLine
 10
3015.487983986963
 20
1721.823174797017
 30
0.0
 11
3015.492454035145
 21
1718.97342603822
 31
0.0
  0
DIMENSION
  5
75C
330
1F
100
AcDbEntity
  8
COTAS
100
AcDbDimension
  2
*D12
 10
3015.491486123193
 20
1720.300992215107
 30
0.0
 11
3003.969844418513
 21
1720.300992215107
 31
0.0
 70
   160
  1
%%C45
 71
     5
 42
48.70424922612983
 73
     0
 74
     0
 75
     0
  3
RS (E1.10)
100
AcDbAlignedDimension
 13
3010.62106120058
 23
1720.766637192847
 33
0.0
 14
3015.491486123193
 24
1720.819832745119
 34
0.0
100
AcDbRotatedDimension
  0
DIMENSION
  5
90B
330
1F
100
AcDbEntity
  8
COTAS
100
AcDbDimension
  2
*D21
 10
3016.394015842723
 20
1724.361493034121
 30
0.0
 11
3006.2041795535
 21
1724.361493034121
 31
0.0
 70
   160
  1
%%C<>
 71
     5
 42
65.99999999999909
 73
     0
 74
     0
 75
     0
  3
RS (E1.10)
100
AcDbAlignedDimension
 13
3009.794015842722
 23
1722.270038316299
 33
0.0
 14
3016.394015842723
 24
1722.270038316299
 34
0.0
100
AcDbRotatedDimension
  0
ARC
  5
B5B
330
1F
100
AcDbEntity
  8
cuerpo
100
AcDbCircle
 10
3013.094015842723
 20
1666.850639179699
 30
0.0
 40
60.60000000000001
100
AcDbArc
 50
90.0
 51
91.49401965720796
  0
ARC
  5
B5C
330
1F
100
AcDbEntity
  8
cuerpo
100
AcDbCircle
 10
3017.412313426522
 20
1710.719376159398
 30
0.0
 40
0.174304177008807
100
AcDbArc
 50
293.7191151768126
 51
90.0
  0
ARC
  5
B5D
330
1F
100
AcDbEntity
  8
cuerpo
100
AcDbCircle
 10
3015.845718259023
 20
1710.719376159398
 30
0.0
 40
0.174304177008807
100
AcDbArc
 50
90.0
 51
246.2808848231874
  0
LINE
  5
B5E
330
1F
100
AcDbEntity
  8
cuerpo
100
AcDbLine
 10
3017.412313426522
 20
1710.893680336398
 30
0.0
 11
3015.845718259023
 21
1710.893680336398
 31
0.0
  0
ARC
  5
B5F
330
1F
100
AcDbEntity
  8
cuerpo
100
AcDbCircle
 10
3016.820377961423
 20
1709.026725942398
 30
0.0
 40
1.09340191246167
100
AcDbArc
 50
156.9638360195965
 51
176.4996748824031
  0
ARC
  5
B60
330
1F
100
AcDbEntity
  8
cuerpo
100
AcDbCircle
 10
3016.437653724022
 20
1709.026725942398
 30
0.0
 40
1.09340191246167
100
AcDbArc
 50
3.500325117596855
 51
23.03616398040342
  0
LINE
  5
B61
330
1F
100
AcDbEntity
  8
cuerpo
100
AcDbLine
 10
3017.529015842722
 20
1708.893482725098
 30
0.0
 11
3017.529015842722
 21
1709.093482725098
 31
0.0
  0
LINE
  5
B62
330
1F
100
AcDbEntity
  8
cuerpo
100
AcDbLine
 10
3015.729015842723
 20
1709.093482725098
 30
0.0
 11
3015.729015842723
 21
1708.893482725098
 31
0.0
  0
ARC
  5
B63
330
1F
100
AcDbEntity
  8
cuerpo
100
AcDbCircle
 10
3017.493865633922
 20
1710.511121534998
 30
0.0
 40
0.0499999999999972
100
AcDbArc
 50
103.2238285993118
 51
180.0
  0
ARC
  5
B64
330
1F
100
AcDbEntity
  8
cuerpo
100
AcDbCircle
 10
3015.764166051523
 20
1710.511121534998
 30
0.0
 40
0.0499999999999972
100
AcDbArc
 50
0.0
 51
76.77617140068814
  0
LINE
  5
B65
330
1F
100
AcDbEntity
  8
cuerpo
100
AcDbLine
 10
3017.443865633923
 20
1709.454587292098
 30
0.0
 11
3017.443865633923
 21
1710.511121534998
 31
0.0
  0
LINE
  5
B66
330
1F
100
AcDbEntity
  8
cuerpo
100
AcDbLine
 10
3015.814166051522
 20
1710.511121534998
 30
0.0
 11
3015.814166051522
 21
1709.454587292098
 31
0.0
  0
LINE
  5
B67
330
1F
100
AcDbEntity
  8
cuerpo
100
AcDbLine
 10
3017.404015842723
 20
1706.043199191138
 30
0.0
 11
3017.404015842723
 21
1708.893482725098
 31
0.0
  0
LINE
  5
B68
330
1F
100
AcDbEntity
  8
cuerpo
100
AcDbLine
 10
3015.854015842722
 20
1708.893482725098
 30
0.0
 11
3015.854015842722
 21
1705.446322920333
 31
0.0
  0
LINE
  5
B69
330
1F
100
AcDbEntity
  8
cuerpo
100
AcDbLine
 10
3017.283791900122
 20
1710.893680336398
 30
0.0
 11
3017.283791900122
 21
1710.904379929198
 31
0.0
  0
LINE
  5
B6A
330
1F
100
AcDbEntity
  8
cuerpo
100
AcDbLine
 10
3015.974239785423
 20
1710.904379929198
 30
0.0
 11
3015.974239785423
 21
1710.893680336398
 31
0.0
  0
ARC
  5
B6B
330
1F
100
AcDbEntity
  8
cuerpo
100
AcDbCircle
 10
3010.342313426523
 20
1710.719376159398
 30
0.0
 40
0.174304177008807
100
AcDbArc
 50
293.7191151768126
 51
90.0
  0
ARC
  5
B6C
330
1F
100
AcDbEntity
  8
cuerpo
100
AcDbCircle
 10
3008.775718259022
 20
1710.719376159398
 30
0.0
 40
0.174304177008807
100
AcDbArc
 50
90.0
 51
246.2808848231874
  0
LINE
  5
B6D
330
1F
100
AcDbEntity
  8
cuerpo
100
AcDbLine
 10
3010.342313426523
 20
1710.893680336398
 30
0.0
 11
3008.775718259022
 21
1710.893680336398
 31
0.0
  0
ARC
  5
B6E
330
1F
100
AcDbEntity
  8
cuerpo
100
AcDbCircle
 10
3009.750377961422
 20
1709.026725942398
 30
0.0
 40
1.093401912461667
100
AcDbArc
 50
156.9638360195965
 51
176.4996748824031
  0
ARC
  5
B6F
330
1F
100
AcDbEntity
  8
cuerpo
100
AcDbCircle
 10
3009.367653724022
 20
1709.026725942398
 30
0.0
 40
1.093401912461679
100
AcDbArc
 50
3.500325117596855
 51
23.03616398040342
  0
LINE
  5
B70
330
1F
100
AcDbEntity
  8
cuerpo
100
AcDbLine
 10
3010.459015842722
 20
1708.893482725098
 30
0.0
 11
3010.459015842722
 21
1709.093482725098
 31
0.0
  0
LINE
  5
B71
330
1F
100
AcDbEntity
  8
cuerpo
100
AcDbLine
 10
3008.659015842722
 20
1709.093482725098
 30
0.0
 11
3008.659015842722
 21
1708.893482725098
 31
0.0
  0
ARC
  5
B72
330
1F
100
AcDbEntity
  8
cuerpo
100
AcDbCircle
 10
3010.423865633922
 20
1710.511121534998
 30
0.0
 40
0.0500000000000071
100
AcDbArc
 50
103.2238285993118
 51
180.0
  0
ARC
  5
B73
330
1F
100
AcDbEntity
  8
cuerpo
100
AcDbCircle
 10
3008.694166051522
 20
1710.511121534998
 30
0.0
 40
0.0500000000000114
100
AcDbArc
 50
0.0
 51
76.77617140060618
  0
LINE
  5
B74
330
1F
100
AcDbEntity
  8
cuerpo
100
AcDbLine
 10
3010.373865633923
 20
1710.461121534998
 30
0.0
 11
3010.373865633923
 21
1710.511121534998
 31
0.0
  0
LINE
  5
B75
330
1F
100
AcDbEntity
  8
cuerpo
100
AcDbLine
 10
3010.373865633923
 20
1709.454587292098
 30
0.0
 11
3010.373865633923
 21
1709.561121534998
 31
0.0
  0
LINE
  5
B76
330
1F
100
AcDbEntity
  8
cuerpo
100
AcDbLine
 10
3008.744166051523
 20
1709.561121534998
 30
0.0
 11
3008.744166051523
 21
1709.454587292098
 31
0.0
  0
LINE
  5
B77
330
1F
100
AcDbEntity
  8
cuerpo
100
AcDbLine
 10
3008.744166051523
 20
1710.511121534998
 30
0.0
 11
3008.744166051523
 21
1710.461121534998
 31
0.0
  0
LINE
  5
B78
330
1F
100
AcDbEntity
  8
cuerpo
100
AcDbLine
 10
3010.334015842722
 20
1703.320673233338
 30
0.0
 11
3010.334015842722
 21
1708.893482725098
 31
0.0
  0
LINE
  5
B79
330
1F
100
AcDbEntity
  8
cuerpo
100
AcDbLine
 10
3008.784015842723
 20
1708.893482725098
 30
0.0
 11
3008.784015842723
 21
1702.723796962533
 31
0.0
  0
LINE
  5
B7A
330
1F
100
AcDbEntity
  8
cuerpo
100
AcDbLine
 10
3010.213791900123
 20
1710.893680336398
 30
0.0
 11
3010.213791900123
 21
1710.904379929198
 31
0.0
  0
LINE
  5
B7B
330
1F
100
AcDbEntity
  8
cuerpo
100
AcDbLine
 10
3008.904239785423
 20
1710.904379929198
 30
0.0
 11
3008.904239785423
 21
1710.893680336398
 31
0.0
  0
LINE
  5
B7C
330
1F
100
AcDbEntity
  8
cuerpo
100
AcDbLine
 10
3010.670175457223
 20
1712.080671949698
 30
0.0
 11
3010.629112032222
 21
1712.104379929198
 31
0.0
  0
LINE
  5
B7D
330
1F
100
AcDbEntity
  8
cuerpo
100
AcDbLine
 10
3008.488919653322
 20
1712.104379929198
 30
0.0
 11
3008.447856228223
 21
1712.080671949698
 31
0.0
  0
LINE
  5
B7E
330
1F
100
AcDbEntity
  8
cuerpo
100
AcDbLine
 10
3008.447596240622
 20
1710.928238012598
 30
0.0
 11
3008.488919653322
 21
1710.904379929198
 31
0.0
  0
LINE
  5
B7F
330
1F
100
AcDbEntity
  8
cuerpo
100
AcDbLine
 10
3010.629112032222
 20
1710.904379929198
 30
0.0
 11
3010.670435444922
 21
1710.928238012598
 31
0.0
  0
LINE
  5
B80
330
1F
100
AcDbEntity
  8
cuerpo
100
AcDbLine
 10
3015.429015842723
 20
1710.979379929198
 30
0.0
 11
3015.558919653323
 21
1710.904379929198
 31
0.0
  0
LINE
  5
B81
330
1F
100
AcDbEntity
  8
cuerpo
100
AcDbLine
 10
3017.699112032222
 20
1710.904379929198
 30
0.0
 11
3017.829015842722
 21
1710.979379929198
 31
0.0
  0
LINE
  5
B82
330
1F
100
AcDbEntity
  8
cuerpo
100
AcDbLine
 10
3017.829015842722
 20
1712.029379929198
 30
0.0
 11
3017.699112032222
 21
1712.104379929198
 31
0.0
  0
LINE
  5
B83
330
1F
100
AcDbEntity
  8
cuerpo
100
AcDbLine
 10
3015.558919653323
 20
1712.104379929198
 30
0.0
 11
3015.429015842723
 21
1712.029379929198
 31
0.0
  0
LINE
  5
B84
330
1F
100
AcDbEntity
  8
cuerpo
100
AcDbLine
 10
3015.429015842723
 20
1712.029379929198
 30
0.0
 11
3015.429015842723
 21
1710.979379929198
 31
0.0
  0
LINE
  5
B85
330
1F
100
AcDbEntity
  8
cuerpo
100
AcDbLine
 10
3017.829015842722
 20
1710.979379929198
 30
0.0
 11
3017.829015842722
 21
1712.029379929198
 31
0.0
  0
LINE
  5
B86
330
1F
100
AcDbEntity
  8
cuerpo
100
AcDbLine
 10
3011.051515842723
 20
1722.750038318299
 30
0.0
 11
3011.051515842723
 21
1722.660038318299
 31
0.0
  0
LINE
  5
B87
330
1F
100
AcDbEntity
  8
cuerpo
100
AcDbLine
 10
3015.136515842723
 20
1722.660038318299
 30
0.0
 11
3015.136515842723
 21
1722.750038318299
 31
0.0
  0
LINE
  5
B88
330
1F
100
AcDbEntity
  8
cuerpo
100
AcDbLine
 10
3011.199015842723
 20
1722.660038318299
 30
0.0
 11
3011.199015842723
 21
1722.645038316299
 31
0.0
  0
LINE
  5
B89
330
1F
100
AcDbEntity
  8
cuerpo
100
AcDbLine
 10
3014.989015842723
 20
1722.645038316299
 30
0.0
 11
3014.989015842723
 21
1722.660038318299
 31
0.0
  0
ARC
  5
B8A
330
1F
100
AcDbEntity
  8
cuerpo
100
AcDbCircle
 10
3014.644015842722
 20
1727.400803506499
 30
0.0
 40
0.0300000000000329
100
AcDbArc
 50
53.88416959230746
 51
88.53362796849982
  0
ARC
  5
B8B
330
1F
100
AcDbEntity
  8
cuerpo
100
AcDbCircle
 10
3011.544015842722
 20
1727.400803506499
 30
0.0
 40
0.0300000000000332
100
AcDbArc
 50
91.46637203150019
 51
126.1158304076925
  0
ARC
  5
B8C
330
1F
100
AcDbEntity
  8
cuerpo
100
AcDbCircle
 10
3013.094015842723
 20
1666.850639179699
 30
0.0
 40
60.60000000000002
100
AcDbArc
 50
90.8273192945046
 51
91.46637203150019
  0
ARC
  5
B8D
330
1F
100
AcDbEntity
  8
cuerpo
100
AcDbCircle
 10
3013.094015842723
 20
1666.850639179699
 30
0.0
 40
60.60000000000002
100
AcDbArc
 50
88.53362796849982
 51
89.17268070549537
  0
ARC
  5
B8E
330
1F
100
AcDbEntity
  8
cuerpo
100
AcDbCircle
 10
3013.094015842723
 20
1666.850639179699
 30
0.0
 40
60.60000000000002
100
AcDbArc
 50
89.17268070549537
 51
90.8273192945046
  0
LINE
  5
B8F
330
1F
100
AcDbEntity
  8
cuerpo
100
AcDbLine
 10
3009.794015842722
 20
1722.645038316299
 30
0.0
 11
3009.794015842722
 21
1721.895038316299
 31
0.0
  0
LINE
  5
B90
330
1F
100
AcDbEntity
  8
cuerpo
100
AcDbLine
 10
3016.394015842723
 20
1721.895038316299
 30
0.0
 11
3016.394015842723
 21
1722.645038316299
 31
0.0
  0
LINE
  5
B91
330
1F
100
AcDbEntity
  8
cuerpo
100
AcDbLine
 10
3009.994015842723
 20
1718.323426048198
 30
0.0
 11
3010.094015842723
 21
1718.223426048198
 31
0.0
  0
LINE
  5
B92
330
1F
100
AcDbEntity
  8
cuerpo
100
AcDbLine
 10
3010.094015842723
 20
1718.723426048198
 30
0.0
 11
3009.994015842723
 21
1718.623426048198
 31
0.0
  0
LINE
  5
B93
330
1F
100
AcDbEntity
  8
cuerpo
100
AcDbLine
 10
3016.194015842723
 20
1718.623426048198
 30
0.0
 11
3016.094015842722
 21
1718.723426048198
 31
0.0
  0
LINE
  5
B94
330
1F
100
AcDbEntity
  8
cuerpo
100
AcDbLine
 10
3016.094015842722
 20
1718.223426048198
 30
0.0
 11
3016.194015842723
 21
1718.323426048198
 31
0.0
  0
LINE
  5
B95
330
1F
100
AcDbEntity
  8
cuerpo
100
AcDbLine
 10
3009.994015842723
 20
1718.623426048198
 30
0.0
 11
3009.994015842723
 21
1718.323426048198
 31
0.0
  0
LINE
  5
B96
330
1F
100
AcDbEntity
  8
cuerpo
100
AcDbLine
 10
3016.194015842723
 20
1718.323426048198
 30
0.0
 11
3016.194015842723
 21
1718.623426048198
 31
0.0
  0
LINE
  5
B97
330
1F
100
AcDbEntity
  8
cuerpo
100
AcDbLine
 10
3010.394015842722
 20
1718.973426048198
 30
0.0
 11
3010.394015842722
 21
1718.723426048198
 31
0.0
  0
LINE
  5
B98
330
1F
100
AcDbEntity
  8
cuerpo
100
AcDbLine
 10
3015.794015842722
 20
1718.723426048198
 30
0.0
 11
3015.794015842722
 21
1718.973426048198
 31
0.0
  0
ARC
  5
B99
330
1F
100
AcDbEntity
  8
cuerpo
100
AcDbCircle
 10
3015.594015842723
 20
1721.975038316299
 30
0.0
 40
0.1500000000000101
100
AcDbArc
 50
270.0
 51
327.7690473645054
  0
ARC
  5
B9A
330
1F
100
AcDbEntity
  8
cuerpo
100
AcDbCircle
 10
3010.594015842722
 20
1721.975038316299
 30
0.0
 40
0.1500000000000625
100
AcDbArc
 50
212.2309526354945
 51
270.0
  0
LINE
  5
B9B
330
1F
100
AcDbEntity
  8
cuerpo
100
AcDbLine
 10
3010.594015842722
 20
1721.825038316299
 30
0.0
 11
3015.594015842723
 21
1721.825038316299
 31
0.0
  0
LINE
  5
B9C
330
1F
100
AcDbEntity
  8
cuerpo
100
AcDbLine
 10
3010.872015842722
 20
1717.963426048198
 30
0.0
 11
3010.872015842722
 21
1716.448783345798
 31
0.0
  0
LINE
  5
B9D
330
1F
100
AcDbEntity
  8
cuerpo
100
AcDbLine
 10
3015.294015842723
 20
1717.963426048198
 30
0.0
 11
3015.294015842723
 21
1718.223426048198
 31
0.0
  0
LINE
  5
B9E
330
1F
100
AcDbEntity
  8
cuerpo
100
AcDbLine
 10
3015.294015842723
 20
1718.973426048197
 30
0.0
 11
3015.294015842723
 21
1721.825038316299
 31
0.0
  0
LINE
  5
B9F
330
1F
100
AcDbEntity
  8
cuerpo
100
AcDbLine
 10
3010.894015842723
 20
1721.825038316299
 30
0.0
 11
3010.894015842723
 21
1718.973426048197
 31
0.0
  0
LINE
  5
BA0
330
1F
100
AcDbEntity
  8
cuerpo
100
AcDbLine
 10
3010.894015842723
 20
1718.223426048198
 30
0.0
 11
3010.894015842723
 21
1717.963426048198
 31
0.0
  0
LINE
  5
BA1
330
1F
100
AcDbEntity
  8
cuerpo
100
AcDbLine
 10
3016.002815842723
 20
1714.459795423898
 30
0.0
 11
3016.002815842723
 21
1717.943583345798
 31
0.0
  0
LINE
  5
BA2
330
1F
100
AcDbEntity
  8
cuerpo
100
AcDbLine
 10
3010.185215842723
 20
1716.246783345798
 30
0.0
 11
3010.185215842723
 21
1714.459795424598
 31
0.0
  0
LINE
  5
BA3
330
1F
100
AcDbEntity
  8
cuerpo
100
AcDbLine
 10
3017.841015842722
 20
1712.782483345798
 30
0.0
 11
3017.841015842722
 21
1713.712959168297
 31
0.0
  0
LINE
  5
BA4
330
1F
100
AcDbEntity
  8
cuerpo
100
AcDbLine
 10
3008.347015842722
 20
1713.712959168297
 30
0.0
 11
3008.347015842722
 21
1712.782483345798
 31
0.0
  0
LINE
  5
BA5
330
1F
100
AcDbEntity
  8
cuerpo
100
AcDbLine
 10
3010.579015842723
 20
1712.104379929198
 30
0.0
 11
3010.579015842723
 21
1712.782483345798
 31
0.0
  0
LINE
  5
BA6
330
1F
100
AcDbEntity
  8
cuerpo
100
AcDbLine
 10
3008.539015842722
 20
1712.782483345798
 30
0.0
 11
3008.539015842722
 21
1712.104379929198
 31
0.0
  0
LINE
  5
BA7
330
1F
100
AcDbEntity
  8
cuerpo
100
AcDbLine
 10
3014.114015842722
 20
1712.029379929198
 30
0.0
 11
3014.114015842722
 21
1712.782483345798
 31
0.0
  0
LINE
  5
BA8
330
1F
100
AcDbEntity
  8
cuerpo
100
AcDbLine
 10
3012.074015842723
 20
1712.782483345798
 30
0.0
 11
3012.074015842723
 21
1712.029379929198
 31
0.0
  0
LINE
  5
BA9
330
1F
100
AcDbEntity
  8
cuerpo
100
AcDbLine
 10
3017.649015842723
 20
1712.104379929198
 30
0.0
 11
3017.649015842723
 21
1712.782483345798
 31
0.0
  0
LINE
  5
BAA
330
1F
100
AcDbEntity
  8
cuerpo
100
AcDbLine
 10
3015.609015842722
 20
1712.782483345798
 30
0.0
 11
3015.609015842722
 21
1712.104379929198
 31
0.0
  0
ARC
  5
BAB
330
1F
100
AcDbEntity
  8
cuerpo
100
AcDbCircle
 10
3010.670015842723
 20
1716.448783345798
 30
0.0
 40
0.201999999999984
100
AcDbArc
 50
270.0
 51
0.0
  0
ARC
  5
BAC
330
1F
100
AcDbEntity
  8
cuerpo
100
AcDbCircle
 10
3015.517791262923
 20
1718.145583345798
 30
0.0
 40
0.2020000000000251
100
AcDbArc
 50
244.391550976304
 51
270.0
  0
LINE
  5
BAD
330
1F
100
AcDbEntity
  8
cuerpo
100
AcDbLine
 10
3017.482427846422
 20
1710.559795727498
 30
0.0
 11
3015.775603839023
 21
1710.559795727498
 31
0.0
  0
LINE
  5
BAE
330
1F
100
AcDbEntity
  8
cuerpo
100
AcDbLine
 10
3017.529015842722
 20
1709.093482725098
 30
0.0
 11
3015.729015842723
 21
1709.093482725098
 31
0.0
  0
LINE
  5
BAF
330
1F
100
AcDbEntity
  8
cuerpo
100
AcDbLine
 10
3017.443865633923
 20
1709.454587292098
 30
0.0
 11
3015.814166051522
 21
1709.454587292098
 31
0.0
  0
LINE
  5
BB0
330
1F
100
AcDbEntity
  8
cuerpo
100
AcDbLine
 10
3017.529015842722
 20
1708.893482725098
 30
0.0
 11
3015.729015842723
 21
1708.893482725098
 31
0.0
  0
LINE
  5
BB1
330
1F
100
AcDbEntity
  8
cuerpo
100
AcDbLine
 10
3016.005901449723
 20
1709.561121534998
 30
0.0
 11
3016.005901449723
 21
1710.461121534998
 31
0.0
  0
LINE
  5
BB2
330
1F
100
AcDbEntity
  8
cuerpo
100
AcDbLine
 10
3015.821851304523
 20
1710.461121534998
 30
0.0
 11
3016.005901449723
 21
1710.461121534998
 31
0.0
  0
LINE
  5
BB3
330
1F
100
AcDbEntity
  8
cuerpo
100
AcDbLine
 10
3015.821851304523
 20
1710.461121534998
 30
0.0
 11
3015.821851304523
 21
1709.561121534998
 31
0.0
  0
LINE
  5
BB4
330
1F
100
AcDbEntity
  8
cuerpo
100
AcDbLine
 10
3015.821851304523
 20
1709.561121534998
 30
0.0
 11
3016.005901449723
 21
1709.561121534998
 31
0.0
  0
LINE
  5
BB5
330
1F
100
AcDbEntity
  8
cuerpo
100
AcDbLine
 10
3017.154095489522
 20
1709.561121534998
 30
0.0
 11
3017.154095489522
 21
1710.461121534998
 31
0.0
  0
LINE
  5
BB6
330
1F
100
AcDbEntity
  8
cuerpo
100
AcDbLine
 10
3016.740665251222
 20
1710.461121534998
 30
0.0
 11
3017.154095489522
 21
1710.461121534998
 31
0.0
  0
LINE
  5
BB7
330
1F
100
AcDbEntity
  8
cuerpo
100
AcDbLine
 10
3016.740665251222
 20
1710.461121534998
 30
0.0
 11
3016.740665251222
 21
1709.561121534998
 31
0.0
  0
LINE
  5
BB8
330
1F
100
AcDbEntity
  8
cuerpo
100
AcDbLine
 10
3016.740665251222
 20
1709.561121534998
 30
0.0
 11
3017.154095489522
 21
1709.561121534998
 31
0.0
  0
LINE
  5
BB9
330
1F
100
AcDbEntity
  8
cuerpo
100
AcDbLine
 10
3017.440911634422
 20
1709.561121534998
 30
0.0
 11
3017.440911634422
 21
1710.461121534998
 31
0.0
  0
LINE
  5
BBA
330
1F
100
AcDbEntity
  8
cuerpo
100
AcDbLine
 10
3017.278715415122
 20
1710.461121534998
 30
0.0
 11
3017.440911634422
 21
1710.461121534998
 31
0.0
  0
LINE
  5
BBB
330
1F
100
AcDbEntity
  8
cuerpo
100
AcDbLine
 10
3017.278715415122
 20
1710.461121534998
 30
0.0
 11
3017.278715415122
 21
1709.561121534998
 31
0.0
  0
LINE
  5
BBC
330
1F
100
AcDbEntity
  8
cuerpo
100
AcDbLine
 10
3017.278715415122
 20
1709.561121534998
 30
0.0
 11
3017.440911634422
 21
1709.561121534998
 31
0.0
  0
LINE
  5
BBD
330
1F
100
AcDbEntity
  8
cuerpo
100
AcDbLine
 10
3016.559694808922
 20
1709.561121534998
 30
0.0
 11
3016.559694808922
 21
1710.461121534998
 31
0.0
  0
LINE
  5
BBE
330
1F
100
AcDbEntity
  8
cuerpo
100
AcDbLine
 10
3016.137212378023
 20
1710.461121534998
 30
0.0
 11
3016.559694808922
 21
1710.461121534998
 31
0.0
  0
LINE
  5
BBF
330
1F
100
AcDbEntity
  8
cuerpo
100
AcDbLine
 10
3016.137212378023
 20
1710.461121534998
 30
0.0
 11
3016.137212378023
 21
1709.561121534998
 31
0.0
  0
LINE
  5
BC0
330
1F
100
AcDbEntity
  8
cuerpo
100
AcDbLine
 10
3016.137212378023
 20
1709.561121534998
 30
0.0
 11
3016.559694808922
 21
1709.561121534998
 31
0.0
  0
LINE
  5
BC1
330
1F
100
AcDbEntity
  8
cuerpo
100
AcDbLine
 10
3008.767474140622
 20
1710.559795727498
 30
0.0
 11
3008.705603839022
 21
1710.559795727498
 31
0.0
  0
LINE
  5
BC2
330
1F
100
AcDbEntity
  8
cuerpo
100
AcDbLine
 10
3010.412427846422
 20
1710.559795727498
 30
0.0
 11
3008.767474140622
 21
1710.559795727498
 31
0.0
  0
LINE
  5
BC3
330
1F
100
AcDbEntity
  8
cuerpo
100
AcDbLine
 10
3008.724263661122
 20
1709.093482725098
 30
0.0
 11
3008.659015842722
 21
1709.093482725098
 31
0.0
  0
LINE
  5
BC4
330
1F
100
AcDbEntity
  8
cuerpo
100
AcDbLine
 10
3010.459015842722
 20
1709.093482725098
 30
0.0
 11
3008.724263661122
 21
1709.093482725098
 31
0.0
  0
LINE
  5
BC5
330
1F
100
AcDbEntity
  8
cuerpo
100
AcDbLine
 10
3008.803240686122
 20
1709.454587292098
 30
0.0
 11
3008.744166051523
 21
1709.454587292098
 31
0.0
  0
LINE
  5
BC6
330
1F
100
AcDbEntity
  8
cuerpo
100
AcDbLine
 10
3010.373865633923
 20
1709.454587292098
 30
0.0
 11
3008.803240686122
 21
1709.454587292098
 31
0.0
  0
LINE
  5
BC7
330
1F
100
AcDbEntity
  8
cuerpo
100
AcDbLine
 10
3008.724263661122
 20
1708.893482725098
 30
0.0
 11
3008.659015842722
 21
1708.893482725098
 31
0.0
  0
LINE
  5
BC8
330
1F
100
AcDbEntity
  8
cuerpo
100
AcDbLine
 10
3010.459015842722
 20
1708.893482725098
 30
0.0
 11
3008.724263661122
 21
1708.893482725098
 31
0.0
  0
LINE
  5
BC9
330
1F
100
AcDbEntity
  8
cuerpo
100
AcDbLine
 10
3009.177359504022
 20
1709.561121534998
 30
0.0
 11
3009.177359504022
 21
1710.461121534998
 31
0.0
  0
LINE
  5
BCA
330
1F
100
AcDbEntity
  8
cuerpo
100
AcDbLine
 10
3008.852105239323
 20
1710.461121534998
 30
0.0
 11
3009.177359504022
 21
1710.461121534998
 31
0.0
  0
LINE
  5
BCB
330
1F
100
AcDbEntity
  8
cuerpo
100
AcDbLine
 10
3008.852105239323
 20
1710.461121534998
 30
0.0
 11
3008.852105239323
 21
1709.561121534998
 31
0.0
  0
LINE
  5
BCC
330
1F
100
AcDbEntity
  8
cuerpo
100
AcDbLine
 10
3008.852105239323
 20
1709.561121534998
 30
0.0
 11
3009.177359504022
 21
1709.561121534998
 31
0.0
  0
LINE
  5
BCD
330
1F
100
AcDbEntity
  8
cuerpo
100
AcDbLine
 10
3010.278959327523
 20
1709.561121534998
 30
0.0
 11
3010.278959327523
 21
1710.461121534998
 31
0.0
  0
LINE
  5
BCE
330
1F
100
AcDbEntity
  8
cuerpo
100
AcDbLine
 10
3009.964302878023
 20
1710.461121534998
 30
0.0
 11
3010.278959327523
 21
1710.461121534998
 31
0.0
  0
LINE
  5
BCF
330
1F
100
AcDbEntity
  8
cuerpo
100
AcDbLine
 10
3009.964302878023
 20
1710.461121534998
 30
0.0
 11
3009.964302878023
 21
1709.561121534998
 31
0.0
  0
LINE
  5
BD0
330
1F
100
AcDbEntity
  8
cuerpo
100
AcDbLine
 10
3009.964302878023
 20
1709.561121534998
 30
0.0
 11
3010.278959327523
 21
1709.561121534998
 31
0.0
  0
LINE
  5
BD1
330
1F
100
AcDbEntity
  8
cuerpo
100
AcDbLine
 10
3010.345458335122
 20
1710.461121534998
 30
0.0
 11
3010.373865633923
 21
1710.461121534998
 31
0.0
  0
LINE
  5
BD2
330
1F
100
AcDbEntity
  8
cuerpo
100
AcDbLine
 10
3010.345458335122
 20
1710.461121534998
 30
0.0
 11
3010.345458335122
 21
1709.561121534998
 31
0.0
  0
LINE
  5
BD3
330
1F
100
AcDbEntity
  8
cuerpo
100
AcDbLine
 10
3010.345458335122
 20
1709.561121534998
 30
0.0
 11
3010.373865633923
 21
1709.561121534998
 31
0.0
  0
LINE
  5
BD4
330
1F
100
AcDbEntity
  8
cuerpo
100
AcDbLine
 10
3009.798220977723
 20
1709.561121534998
 30
0.0
 11
3009.798220977723
 21
1710.461121534998
 31
0.0
  0
LINE
  5
BD5
330
1F
100
AcDbEntity
  8
cuerpo
100
AcDbLine
 10
3009.345735772323
 20
1710.461121534998
 30
0.0
 11
3009.798220977723
 21
1710.461121534998
 31
0.0
  0
LINE
  5
BD6
330
1F
100
AcDbEntity
  8
cuerpo
100
AcDbLine
 10
3009.345735772323
 20
1710.461121534998
 30
0.0
 11
3009.345735772323
 21
1709.561121534998
 31
0.0
  0
LINE
  5
BD7
330
1F
100
AcDbEntity
  8
cuerpo
100
AcDbLine
 10
3009.345735772323
 20
1709.561121534998
 30
0.0
 11
3009.798220977723
 21
1709.561121534998
 31
0.0
  0
LINE
  5
BD8
330
1F
100
AcDbEntity
  8
cuerpo
100
AcDbLine
 10
3008.780067137422
 20
1709.561121534998
 30
0.0
 11
3008.780067137422
 21
1710.461121534998
 31
0.0
  0
LINE
  5
BD9
330
1F
100
AcDbEntity
  8
cuerpo
100
AcDbLine
 10
3008.744166051523
 20
1710.461121534998
 30
0.0
 11
3008.780067137422
 21
1710.461121534998
 31
0.0
  0
LINE
  5
BDA
330
1F
100
AcDbEntity
  8
cuerpo
100
AcDbLine
 10
3008.772573350422
 20
1710.461121534998
 30
0.0
 11
3008.772573350422
 21
1709.561121534998
 31
0.0
  0
LINE
  5
BDB
330
1F
100
AcDbEntity
  8
cuerpo
100
AcDbLine
 10
3008.744166051523
 20
1709.561121534998
 30
0.0
 11
3008.780067137422
 21
1709.561121534998
 31
0.0
  0
SPLINE
  5
BDC
330
1F
100
AcDbEntity
  8
cuerpo
100
AcDbSpline
210
0.0
220
0.0
230
1.0
 70
     8
 71
     3
 72
    10
 73
     6
 74
     0
 42
0.00000001
 43
0.0000000001
 40
0.0
 40
0.0
 40
0.0
 40
0.0
 40
0.3331578647734265
 40
0.6744288287556143
 40
1.0
 40
1.0
 40
1.0
 40
1.0
 10
3010.715329346449
 20
1712.029379929191
 30
0.0
 10
3010.700541284911
 20
1712.049750856525
 30
0.0
 10
3010.670605041236
 20
1712.090988786391
 30
0.0
 10
3010.625069508363
 20
1712.090300077171
 30
0.0
 10
3010.595478038431
 20
1712.049365396739
 30
0.0
 10
3010.581030646739
 20
1712.029379929191
 30
0.0
  0
LINE
  5
BDD
330
1F
100
AcDbEntity
  8
cuerpo
100
AcDbLine
 10
3010.581030646723
 20
1712.029379929198
 30
0.0
 11
3010.415029231822
 21
1712.029379929198
 31
0.0
  0
SPLINE
  5
BDE
330
1F
100
AcDbEntity
  8
cuerpo
100
AcDbSpline
210
0.0
220
0.0
230
1.0
 70
     8
 71
     3
 72
     9
 73
     5
 74
     0
 42
0.00000001
 43
0.0000000001
 40
0.0
 40
0.0
 40
0.0
 40
0.0
 40
0.5120854705613148
 40
1.0
 40
1.0
 40
1.0
 40
1.0
 10
3010.41502923186
 20
1712.029379929191
 30
0.0
 10
3010.263094713804
 20
1712.058705689164
 30
0.0
 10
3009.966397137346
 20
1712.11597300421
 30
0.0
 10
3009.670011176035
 20
1712.057775390499
 30
0.0
 10
3009.525400159189
 20
1712.029379929191
 30
0.0
  0
LINE
  5
BDF
330
1F
100
AcDbEntity
  8
cuerpo
100
AcDbLine
 10
3009.525400159222
 20
1712.029379929198
 30
0.0
 11
3009.258715728122
 21
1712.029379929198
 31
0.0
  0
SPLINE
  5
BE0
330
1F
100
AcDbEntity
  8
cuerpo
100
AcDbSpline
210
0.0
220
0.0
230
1.0
 70
     8
 71
     3
 72
    10
 73
     6
 74
     0
 42
0.00000001
 43
0.0000000001
 40
0.0
 40
0.0
 40
0.0
 40
0.0
 40
0.3331578647734387
 40
0.6744288287556391
 40
1.0
 40
1.0
 40
1.0
 40
1.0
 10
3009.258715728159
 20
1712.029379929191
 30
0.0
 10
3009.175543872731
 20
1712.049750856525
 30
0.0
 10
3009.007174751144
 20
1712.090988786391
 30
0.0
 10
3008.75107122146
 20
1712.090300077171
 30
0.0
 10
3008.584641195939
 20
1712.049365396739
 30
0.0
 10
3008.503385355199
 20
1712.029379929191
 30
0.0
  0
LINE
  5
BE1
330
1F
100
AcDbEntity
  8
cuerpo
100
AcDbLine
 10
3008.503385355222
 20
1712.029379929198
 30
0.0
 11
3008.402702339023
 21
1712.029379929198
 31
0.0
  0
SPLINE
  5
BE2
330
1F
100
AcDbEntity
  8
cuerpo
100
AcDbSpline
210
0.0
220
0.0
230
1.0
 70
     8
 71
     3
 72
     9
 73
     5
 74
     0
 42
0.00000001
 43
0.0000000001
 40
0.0
 40
0.0
 40
0.0
 40
0.0
 40
0.9823130476181432
 40
1.0
 40
1.0
 40
1.0
 40
1.0
 10
3008.402702339048
 20
1712.029379929191
 30
0.0
 10
3008.417460526077
 20
1712.054798414202
 30
0.0
 10
3008.432484440363
 20
1712.08067456954
 30
0.0
 10
3008.447797028665
 20
1712.080311805983
 30
0.0
 10
3008.448067861685
 20
1712.080305389801
 30
0.0
  0
LINE
  5
BE3
330
1F
100
AcDbEntity
  8
cuerpo
100
AcDbLine
 10
3008.566499033023
 20
1712.104379929198
 30
0.0
 11
3008.488919653322
 21
1712.104379929198
 31
0.0
  0
LINE
  5
BE4
330
1F
100
AcDbEntity
  8
cuerpo
100
AcDbLine
 10
3010.629112032222
 20
1712.104379929198
 30
0.0
 11
3008.566499033023
 21
1712.104379929198
 31
0.0
  0
SPLINE
  5
BE5
330
1F
100
AcDbEntity
  8
cuerpo
100
AcDbSpline
210
0.0
220
0.0
230
1.0
 70
     8
 71
     3
 72
     9
 73
     5
 74
     0
 42
0.00000001
 43
0.0000000001
 40
0.0
 40
0.0
 40
0.0
 40
0.0
 40
0.039936836888523
 40
1.0
 40
1.0
 40
1.0
 40
1.0
 10
3008.448063077835
 20
1710.929046598404
 30
0.0
 10
3008.447451528746
 20
1710.929041143318
 30
0.0
 10
3008.432138621243
 20
1710.928904550462
 30
0.0
 10
3008.417120593891
 20
1710.954656464828
 30
0.0
 10
3008.402702339048
 20
1710.979379929191
 30
0.0
  0
LINE
  5
BE6
330
1F
100
AcDbEntity
  8
cuerpo
100
AcDbLine
 10
3008.503385355222
 20
1710.979379929198
 30
0.0
 11
3008.402702339023
 21
1710.979379929198
 31
0.0
  0
SPLINE
  5
BE7
330
1F
100
AcDbEntity
  8
cuerpo
100
AcDbSpline
210
0.0
220
0.0
230
1.0
 70
     8
 71
     3
 72
    10
 73
     6
 74
     0
 42
0.00000001
 43
0.0000000001
 40
0.0
 40
0.0
 40
0.0
 40
0.0
 40
0.33315786477343
 40
0.6744288287556212
 40
1.0
 40
1.0
 40
1.0
 40
1.0
 10
3008.503385355199
 20
1710.979379929191
 30
0.0
 10
3008.586557210627
 20
1710.959009001857
 30
0.0
 10
3008.754926332215
 20
1710.917771071991
 30
0.0
 10
3009.011029861898
 20
1710.918459781211
 30
0.0
 10
3009.177459887419
 20
1710.959394461643
 30
0.0
 10
3009.258715728159
 20
1710.979379929191
 30
0.0
  0
LINE
  5
BE8
330
1F
100
AcDbEntity
  8
cuerpo
100
AcDbLine
 10
3009.525400159222
 20
1710.979379929198
 30
0.0
 11
3009.258715728122
 21
1710.979379929198
 31
0.0
  0
SPLINE
  5
BE9
330
1F
100
AcDbEntity
  8
cuerpo
100
AcDbSpline
210
0.0
220
0.0
230
1.0
 70
     8
 71
     3
 72
     9
 73
     5
 74
     0
 42
0.00000001
 43
0.0000000001
 40
0.0
 40
0.0
 40
0.0
 40
0.0
 40
0.5120854705613059
 40
1.0
 40
1.0
 40
1.0
 40
1.0
 10
3009.525400159189
 20
1710.979379929191
 30
0.0
 10
3009.677334677244
 20
1710.950054169218
 30
0.0
 10
3009.974032253703
 20
1710.892786854172
 30
0.0
 10
3010.270418215014
 20
1710.950984467883
 30
0.0
 10
3010.41502923186
 20
1710.979379929191
 30
0.0
  0
LINE
  5
BEA
330
1F
100
AcDbEntity
  8
cuerpo
100
AcDbLine
 10
3010.581030646723
 20
1710.979379929198
 30
0.0
 11
3010.415029231822
 21
1710.979379929198
 31
0.0
  0
SPLINE
  5
BEB
330
1F
100
AcDbEntity
  8
cuerpo
100
AcDbSpline
210
0.0
220
0.0
230
1.0
 70
     8
 71
     3
 72
    10
 73
     6
 74
     0
 42
0.00000001
 43
0.0000000001
 40
0.0
 40
0.0
 40
0.0
 40
0.0
 40
0.3331578647734364
 40
0.6744288287556355
 40
1.0
 40
1.0
 40
1.0
 40
1.0
 10
3010.581030646739
 20
1710.979379929191
 30
0.0
 10
3010.595818708277
 20
1710.959009001857
 30
0.0
 10
3010.625754951952
 20
1710.917771071991
 30
0.0
 10
3010.671290484825
 20
1710.918459781211
 30
0.0
 10
3010.700881954756
 20
1710.959394461643
 30
0.0
 10
3010.715329346449
 20
1710.979379929191
 30
0.0
  0
LINE
  5
BEC
330
1F
100
AcDbEntity
  8
cuerpo
100
AcDbLine
 10
3008.566499033023
 20
1710.904379929198
 30
0.0
 11
3008.488919653322
 21
1710.904379929198
 31
0.0
  0
LINE
  5
BED
330
1F
100
AcDbEntity
  8
cuerpo
100
AcDbLine
 10
3010.629112032222
 20
1710.904379929198
 30
0.0
 11
3008.566499033023
 21
1710.904379929198
 31
0.0
  0
LINE
  5
BEE
330
1F
100
AcDbEntity
  8
cuerpo
100
AcDbLine
 10
3009.258715728122
 20
1710.979379929198
 30
0.0
 11
3009.258715728122
 21
1712.029379929198
 31
0.0
  0
LINE
  5
BEF
330
1F
100
AcDbEntity
  8
cuerpo
100
AcDbLine
 10
3008.503385355222
 20
1712.029379929198
 30
0.0
 11
3008.503385355222
 21
1710.979379929198
 31
0.0
  0
LINE
  5
BF0
330
1F
100
AcDbEntity
  8
cuerpo
100
AcDbLine
 10
3009.525400159222
 20
1712.029379929198
 30
0.0
 11
3009.525400159222
 21
1710.979379929198
 31
0.0
  0
LINE
  5
BF1
330
1F
100
AcDbEntity
  8
cuerpo
100
AcDbLine
 10
3010.415029231822
 20
1710.979379929198
 30
0.0
 11
3010.415029231822
 21
1712.029379929198
 31
0.0
  0
LINE
  5
BF2
330
1F
100
AcDbEntity
  8
cuerpo
100
AcDbLine
 10
3010.581030646723
 20
1712.029379929198
 30
0.0
 11
3010.581030646723
 21
1710.979379929198
 31
0.0
  0
LINE
  5
BF3
330
1F
100
AcDbEntity
  8
cuerpo
100
AcDbLine
 10
3010.715329346423
 20
1710.979379929198
 30
0.0
 11
3010.715329346423
 21
1712.029379929198
 31
0.0
  0
LINE
  5
BF4
330
1F
100
AcDbEntity
  8
cuerpo
100
AcDbLine
 10
3008.402702339023
 20
1710.979379929198
 30
0.0
 11
3008.402702339023
 21
1712.029379929198
 31
0.0
  0
LINE
  5
BF5
330
1F
100
AcDbEntity
  8
cuerpo
100
AcDbLine
 10
3016.149432690423
 20
1710.979379929198
 30
0.0
 11
3015.916179474722
 21
1710.979379929198
 31
0.0
  0
LINE
  5
BF6
330
1F
100
AcDbEntity
  8
cuerpo
100
AcDbLine
 10
3015.916179474722
 20
1710.979379929198
 30
0.0
 11
3015.916179474722
 21
1712.029379929198
 31
0.0
  0
LINE
  5
BF7
330
1F
100
AcDbEntity
  8
cuerpo
100
AcDbLine
 10
3016.149432690423
 20
1712.029379929198
 30
0.0
 11
3015.916179474722
 21
1712.029379929198
 31
0.0
  0
LINE
  5
BF8
330
1F
100
AcDbEntity
  8
cuerpo
100
AcDbLine
 10
3016.149432690423
 20
1712.029379929198
 30
0.0
 11
3016.149432690423
 21
1710.979379929198
 31
0.0
  0
LINE
  5
BF9
330
1F
100
AcDbEntity
  8
cuerpo
100
AcDbLine
 10
3015.436596322422
 20
1710.979379929198
 30
0.0
 11
3015.429015842723
 21
1710.979379929198
 31
0.0
  0
SPLINE
  5
BFA
330
1F
100
AcDbEntity
  8
cuerpo
100
AcDbSpline
210
0.0
220
0.0
230
1.0
 70
     8
 71
     3
 72
    10
 73
     6
 74
     0
 42
0.00000001
 43
0.0000000001
 40
0.0
 40
0.0
 40
0.0
 40
0.0
 40
0.3331578647734297
 40
0.6744288287556214
 40
1.0
 40
1.0
 40
1.0
 40
1.0
 10
3015.43659632242
 20
1710.979379929191
 30
0.0
 10
3015.489404764976
 20
1710.959009001857
 30
0.0
 10
3015.596307647446
 20
1710.917771071991
 30
0.0
 10
3015.758915881519
 20
1710.918459781211
 30
0.0
 10
3015.864587570542
 20
1710.959394461643
 30
0.0
 10
3015.916179474751
 20
1710.979379929191
 30
0.0
  0
SPLINE
  5
BFB
330
1F
100
AcDbEntity
  8
cuerpo
100
AcDbSpline
210
0.0
220
0.0
230
1.0
 70
     8
 71
     3
 72
     9
 73
     5
 74
     0
 42
0.00000001
 43
0.0000000001
 40
0.0
 40
0.0
 40
0.0
 40
0.0
 40
0.5120854705613059
 40
1.0
 40
1.0
 40
1.0
 40
1.0
 10
3016.149432690417
 20
1710.979379929191
 30
0.0
 10
3016.313243063426
 20
1710.950054169218
 30
0.0
 10
3016.633131797683
 20
1710.892786854172
 30
0.0
 10
3016.952684559612
 20
1710.950984467883
 30
0.0
 10
3017.10859899508
 20
1710.979379929191
 30
0.0
  0
LINE
  5
BFC
330
1F
100
AcDbEntity
  8
cuerpo
100
AcDbLine
 10
3017.341852210722
 20
1710.979379929198
 30
0.0
 11
3017.108598995123
 21
1710.979379929198
 31
0.0
  0
SPLINE
  5
BFD
330
1F
100
AcDbEntity
  8
cuerpo
100
AcDbSpline
210
0.0
220
0.0
230
1.0
 70
     8
 71
     3
 72
    10
 73
     6
 74
     0
 42
0.00000001
 43
0.0000000001
 40
0.0
 40
0.0
 40
0.0
 40
0.0
 40
0.3331578647734363
 40
0.6744288287556356
 40
1.0
 40
1.0
 40
1.0
 40
1.0
 10
3017.341852210746
 20
1710.979379929191
 30
0.0
 10
3017.394660653302
 20
1710.959009001857
 30
0.0
 10
3017.501563535772
 20
1710.917771071991
 30
0.0
 10
3017.664171769844
 20
1710.918459781211
 30
0.0
 10
3017.769843458868
 20
1710.959394461643
 30
0.0
 10
3017.821435363077
 20
1710.979379929191
 30
0.0
  0
LINE
  5
BFE
330
1F
100
AcDbEntity
  8
cuerpo
100
AcDbLine
 10
3017.829015842722
 20
1710.979379929198
 30
0.0
 11
3017.821435363123
 21
1710.979379929198
 31
0.0
  0
LINE
  5
BFF
330
1F
100
AcDbEntity
  8
cuerpo
100
AcDbLine
 10
3017.699112032222
 20
1710.904379929198
 30
0.0
 11
3015.558919653323
 21
1710.904379929198
 31
0.0
  0
LINE
  5
C00
330
1F
100
AcDbEntity
  8
cuerpo
100
AcDbLine
 10
3017.108598995123
 20
1710.979379929198
 30
0.0
 11
3017.108598995123
 21
1712.029379929198
 31
0.0
  0
LINE
  5
C01
330
1F
100
AcDbEntity
  8
cuerpo
100
AcDbLine
 10
3017.341852210722
 20
1712.029379929198
 30
0.0
 11
3017.108598995123
 21
1712.029379929198
 31
0.0
  0
LINE
  5
C02
330
1F
100
AcDbEntity
  8
cuerpo
100
AcDbLine
 10
3017.341852210722
 20
1712.029379929198
 30
0.0
 11
3017.341852210722
 21
1710.979379929198
 31
0.0
  0
LINE
  5
C03
330
1F
100
AcDbEntity
  8
cuerpo
100
AcDbLine
 10
3017.829015842722
 20
1712.029379929198
 30
0.0
 11
3017.821435363123
 21
1712.029379929198
 31
0.0
  0
SPLINE
  5
C04
330
1F
100
AcDbEntity
  8
cuerpo
100
AcDbSpline
210
0.0
220
0.0
230
1.0
 70
     8
 71
     3
 72
    10
 73
     6
 74
     0
 42
0.00000001
 43
0.0000000001
 40
0.0
 40
0.0
 40
0.0
 40
0.0
 40
0.3331578647734263
 40
0.6744288287556142
 40
1.0
 40
1.0
 40
1.0
 40
1.0
 10
3017.821435363077
 20
1712.029379929191
 30
0.0
 10
3017.768626920521
 20
1712.049750856525
 30
0.0
 10
3017.661724038051
 20
1712.090988786391
 30
0.0
 10
3017.499115803978
 20
1712.090300077171
 30
0.0
 10
3017.393444114954
 20
1712.049365396739
 30
0.0
 10
3017.341852210746
 20
1712.029379929191
 30
0.0
  0
SPLINE
  5
C05
330
1F
100
AcDbEntity
  8
cuerpo
100
AcDbSpline
210
0.0
220
0.0
230
1.0
 70
     8
 71
     3
 72
     9
 73
     5
 74
     0
 42
0.00000001
 43
0.0000000001
 40
0.0
 40
0.0
 40
0.0
 40
0.0
 40
0.5120854705613148
 40
1.0
 40
1.0
 40
1.0
 40
1.0
 10
3017.10859899508
 20
1712.029379929191
 30
0.0
 10
3016.944788622071
 20
1712.058705689164
 30
0.0
 10
3016.624899887814
 20
1712.11597300421
 30
0.0
 10
3016.305347125884
 20
1712.057775390499
 30
0.0
 10
3016.149432690417
 20
1712.029379929191
 30
0.0
  0
SPLINE
  5
C06
330
1F
100
AcDbEntity
  8
cuerpo
100
AcDbSpline
210
0.0
220
0.0
230
1.0
 70
     8
 71
     3
 72
    10
 73
     6
 74
     0
 42
0.00000001
 43
0.0000000001
 40
0.0
 40
0.0
 40
0.0
 40
0.0
 40
0.3331578647734387
 40
0.6744288287556394
 40
1.0
 40
1.0
 40
1.0
 40
1.0
 10
3015.916179474751
 20
1712.029379929191
 30
0.0
 10
3015.863371032195
 20
1712.049750856525
 30
0.0
 10
3015.756468149725
 20
1712.090988786391
 30
0.0
 10
3015.593859915652
 20
1712.090300077171
 30
0.0
 10
3015.488188226628
 20
1712.049365396739
 30
0.0
 10
3015.43659632242
 20
1712.029379929191
 30
0.0
  0
LINE
  5
C07
330
1F
100
AcDbEntity
  8
cuerpo
100
AcDbLine
 10
3015.436596322422
 20
1712.029379929198
 30
0.0
 11
3015.429015842723
 21
1712.029379929198
 31
0.0
  0
LINE
  5
C08
330
1F
100
AcDbEntity
  8
cuerpo
100
AcDbLine
 10
3017.699112032222
 20
1712.104379929198
 30
0.0
 11
3015.558919653323
 21
1712.104379929198
 31
0.0
  0
LINE
  5
C09
330
1F
100
AcDbEntity
  8
cuerpo
100
AcDbLine
 10
3017.821435363123
 20
1710.979379929198
 30
0.0
 11
3017.821435363123
 21
1712.029379929198
 31
0.0
  0
LINE
  5
C0A
330
1F
100
AcDbEntity
  8
cuerpo
100
AcDbLine
 10
3015.436596322422
 20
1712.029379929198
 30
0.0
 11
3015.436596322422
 21
1710.979379929198
 31
0.0
  0
LINE
  5
C0B
330
1F
100
AcDbEntity
  8
cuerpo
100
AcDbLine
 10
3015.136515842723
 20
1722.660038318299
 30
0.0
 11
3011.051515842723
 21
1722.660038318299
 31
0.0
  0
ARC
  5
C0C
330
1F
100
AcDbEntity
  8
cuerpo
100
AcDbCircle
 10
3013.094015842723
 20
1666.850639179699
 30
0.0
 40
60.59984400763752
100
AcDbArc
 50
89.17267857571154
 51
90.82732142428847
  0
CIRCLE
  5
C0D
330
1F
100
AcDbEntity
  8
cuerpo
100
AcDbCircle
 10
3013.094015842723
 20
1725.500038318299
 30
0.0
 40
0.4899999999999807
  0
CIRCLE
  5
C0E
330
1F
100
AcDbEntity
  8
cuerpo
100
AcDbCircle
 10
3013.094015842723
 20
1725.500038318299
 30
0.0
 40
0.5100000000000195
  0
LINE
  5
C0F
330
1F
100
AcDbEntity
  8
cuerpo
100
AcDbLine
 10
3015.169015842722
 20
1722.750038318299
 30
0.0
 11
3011.019015842722
 21
1722.750038318299
 31
0.0
  0
LINE
  5
C10
330
1F
100
AcDbEntity
  8
cuerpo
100
AcDbLine
 10
3011.019015842722
 20
1722.750038318299
 30
0.0
 11
3011.019015842722
 21
1727.375038318299
 31
0.0
  0
LINE
  5
C11
330
1F
100
AcDbEntity
  8
cuerpo
100
AcDbLine
 10
3015.169015842722
 20
1727.375038318299
 30
0.0
 11
3011.019015842722
 21
1727.375038318299
 31
0.0
  0
LINE
  5
C12
330
1F
100
AcDbEntity
  8
cuerpo
100
AcDbLine
 10
3015.169015842722
 20
1722.750038318299
 30
0.0
 11
3015.169015842722
 21
1727.375038318299
 31
0.0
  0
LINE
  5
C13
330
1F
100
AcDbEntity
  8
cuerpo
100
AcDbLine
 10
3011.069015842723
 20
1727.425038318299
 30
0.0
 11
3015.119015842723
 21
1727.425038318299
 31
0.0
  0
ARC
  5
C14
330
1F
100
AcDbEntity
  8
cuerpo
100
AcDbCircle
 10
3015.119015842723
 20
1727.375038318299
 30
0.0
 40
0.0500000000000114
100
AcDbArc
 50
0.0
 51
90.0
  0
ARC
  5
C15
330
1F
100
AcDbEntity
  8
cuerpo
100
AcDbCircle
 10
3011.069015842723
 20
1727.375038318299
 30
0.0
 40
0.0500000000000114
100
AcDbArc
 50
90.0
 51
180.0
  0
LINE
  5
C16
330
1F
100
AcDbEntity
  8
cuerpo
100
AcDbLine
 10
3009.794015842722
 20
1722.645038316299
 30
0.0
 11
3016.394015842723
 21
1722.645038316299
 31
0.0
  0
LINE
  5
C17
330
1F
100
AcDbEntity
  8
cuerpo
100
AcDbLine
 10
3009.794015842722
 20
1721.895038316299
 30
0.0
 11
3016.394015842723
 21
1721.895038316299
 31
0.0
  0
SPLINE
  5
C18
330
1F
100
AcDbEntity
  8
cuerpo
100
AcDbSpline
210
0.0
220
0.0
230
1.0
 70
     8
 71
     3
 72
     9
 73
     5
 74
     0
 42
0.00000001
 43
0.0000000001
 40
0.0
 40
0.0
 40
0.0
 40
0.0
 40
0.4960330769267188
 40
1.0
 40
1.0
 40
1.0
 40
1.0
 10
3013.094015842749
 20
1718.723426048188
 30
0.0
 10
3012.963336766381
 20
1718.718974574392
 30
0.0
 10
3012.69988845528
 20
1718.710000427297
 30
0.0
 10
3012.442637066179
 20
1718.652436409245
 30
0.0
 10
3012.312990875158
 20
1718.623426048188
 30
0.0
  0
LINE
  5
C19
330
1F
100
AcDbEntity
  8
cuerpo
100
AcDbLine
 10
3012.312990875122
 20
1718.623426048198
 30
0.0
 11
3010.886452115223
 21
1718.623426048198
 31
0.0
  0
SPLINE
  5
C1A
330
1F
100
AcDbEntity
  8
cuerpo
100
AcDbSpline
210
0.0
220
0.0
230
1.0
 70
     8
 71
     3
 72
     9
 73
     5
 74
     0
 42
0.00000001
 43
0.0000000001
 40
0.0
 40
0.0
 40
0.0
 40
0.0
 40
0.4962828312269351
 40
1.0
 40
1.0
 40
1.0
 40
1.0
 10
3010.886452115191
 20
1718.623426048188
 30
0.0
 10
3010.82262671676
 20
1718.652048309775
 30
0.0
 10
3010.694019812763
 20
1718.709721595622
 30
0.0
 10
3010.562292792895
 20
1718.718835312517
 30
0.0
 10
3010.495939631395
 20
1718.723426048188
 30
0.0
  0
LINE
  5
C1B
330
1F
100
AcDbEntity
  8
cuerpo
100
AcDbLine
 10
3010.495939631423
 20
1718.723426048198
 30
0.0
 11
3013.094015842723
 21
1718.723426048198
 31
0.0
  0
SPLINE
  5
C1C
330
1F
100
AcDbEntity
  8
cuerpo
100
AcDbSpline
210
0.0
220
0.0
230
1.0
 70
     8
 71
     3
 72
     9
 73
     5
 74
     0
 42
0.00000001
 43
0.0000000001
 40
0.0
 40
0.0
 40
0.0
 40
0.0
 40
0.4960330769267184
 40
1.0
 40
1.0
 40
1.0
 40
1.0
 10
3015.692092054102
 20
1718.723426048188
 30
0.0
 10
3015.626752515919
 20
1718.718974574392
 30
0.0
 10
3015.495028360368
 20
1718.710000427297
 30
0.0
 10
3015.366402665817
 20
1718.652436409245
 30
0.0
 10
3015.301579570306
 20
1718.623426048188
 30
0.0
  0
LINE
  5
C1D
330
1F
100
AcDbEntity
  8
cuerpo
100
AcDbLine
 10
3015.301579570322
 20
1718.623426048198
 30
0.0
 11
3013.875040810323
 21
1718.623426048198
 31
0.0
  0
SPLINE
  5
C1E
330
1F
100
AcDbEntity
  8
cuerpo
100
AcDbSpline
210
0.0
220
0.0
230
1.0
 70
     8
 71
     3
 72
     9
 73
     5
 74
     0
 42
0.00000001
 43
0.0000000001
 40
0.0
 40
0.0
 40
0.0
 40
0.0
 40
0.4962828312269357
 40
1.0
 40
1.0
 40
1.0
 40
1.0
 10
3013.875040810339
 20
1718.623426048188
 30
0.0
 10
3013.747390013478
 20
1718.652048309775
 30
0.0
 10
3013.490176205484
 20
1718.709721595622
 30
0.0
 10
3013.226722165747
 20
1718.718835312517
 30
0.0
 10
3013.094015842749
 20
1718.723426048188
 30
0.0
  0
LINE
  5
C1F
330
1F
100
AcDbEntity
  8
cuerpo
100
AcDbLine
 10
3013.094015842723
 20
1718.723426048198
 30
0.0
 11
3015.692092054123
 21
1718.723426048198
 31
0.0
  0
LINE
  5
C20
330
1F
100
AcDbEntity
  8
cuerpo
100
AcDbLine
 10
3010.886452115223
 20
1718.323426048198
 30
0.0
 11
3012.312990875122
 21
1718.323426048198
 31
0.0
  0
SPLINE
  5
C21
330
1F
100
AcDbEntity
  8
cuerpo
100
AcDbSpline
210
0.0
220
0.0
230
1.0
 70
     8
 71
     3
 72
     9
 73
     5
 74
     0
 42
0.00000001
 43
0.0000000001
 40
0.0
 40
0.0
 40
0.0
 40
0.0
 40
0.4962828312269357
 40
1.0
 40
1.0
 40
1.0
 40
1.0
 10
3012.312990875158
 20
1718.323426048188
 30
0.0
 10
3012.440641672019
 20
1718.294803786602
 30
0.0
 10
3012.697855480013
 20
1718.237130500754
 30
0.0
 10
3012.96130951975
 20
1718.228016783859
 30
0.0
 10
3013.094015842749
 20
1718.223426048188
 30
0.0
  0
LINE
  5
C22
330
1F
100
AcDbEntity
  8
cuerpo
100
AcDbLine
 10
3013.094015842723
 20
1718.223426048198
 30
0.0
 11
3010.495939631423
 21
1718.223426048198
 31
0.0
  0
SPLINE
  5
C23
330
1F
100
AcDbEntity
  8
cuerpo
100
AcDbSpline
210
0.0
220
0.0
230
1.0
 70
     8
 71
     3
 72
     9
 73
     5
 74
     0
 42
0.00000001
 43
0.0000000001
 40
0.0
 40
0.0
 40
0.0
 40
0.0
 40
0.4960330769267188
 40
1.0
 40
1.0
 40
1.0
 40
1.0
 10
3010.495939631395
 20
1718.223426048188
 30
0.0
 10
3010.561279169579
 20
1718.227877521984
 30
0.0
 10
3010.693003325129
 20
1718.236851669079
 30
0.0
 10
3010.82162901968
 20
1718.294415687131
 30
0.0
 10
3010.886452115191
 20
1718.323426048188
 30
0.0
  0
LINE
  5
C24
330
1F
100
AcDbEntity
  8
cuerpo
100
AcDbLine
 10
3015.301579570322
 20
1718.623426048198
 30
0.0
 11
3015.301579570322
 21
1718.323426048198
 31
0.0
  0
LINE
  5
C25
330
1F
100
AcDbEntity
  8
cuerpo
100
AcDbLine
 10
3013.875040810323
 20
1718.323426048198
 30
0.0
 11
3015.301579570322
 21
1718.323426048198
 31
0.0
  0
LINE
  5
C26
330
1F
100
AcDbEntity
  8
cuerpo
100
AcDbLine
 10
3013.875040810323
 20
1718.623426048198
 30
0.0
 11
3013.875040810323
 21
1718.323426048198
 31
0.0
  0
LINE
  5
C27
330
1F
100
AcDbEntity
  8
cuerpo
100
AcDbLine
 10
3012.312990875122
 20
1718.623426048198
 30
0.0
 11
3012.312990875122
 21
1718.323426048198
 31
0.0
  0
LINE
  5
C28
330
1F
100
AcDbEntity
  8
cuerpo
100
AcDbLine
 10
3010.886452115223
 20
1718.623426048198
 30
0.0
 11
3010.886452115223
 21
1718.323426048198
 31
0.0
  0
SPLINE
  5
C29
330
1F
100
AcDbEntity
  8
cuerpo
100
AcDbSpline
210
0.0
220
0.0
230
1.0
 70
     8
 71
     3
 72
     9
 73
     5
 74
     0
 42
0.00000001
 43
0.0000000001
 40
0.0
 40
0.0
 40
0.0
 40
0.0
 40
0.4960330769267188
 40
1.0
 40
1.0
 40
1.0
 40
1.0
 10
3013.094015842749
 20
1718.223426048188
 30
0.0
 10
3013.224694919115
 20
1718.227877521984
 30
0.0
 10
3013.488143230217
 20
1718.236851669079
 30
0.0
 10
3013.745394619317
 20
1718.294415687131
 30
0.0
 10
3013.875040810339
 20
1718.323426048188
 30
0.0
  0
SPLINE
  5
C2A
330
1F
100
AcDbEntity
  8
cuerpo
100
AcDbSpline
210
0.0
220
0.0
230
1.0
 70
     8
 71
     3
 72
     9
 73
     5
 74
     0
 42
0.00000001
 43
0.0000000001
 40
0.0
 40
0.0
 40
0.0
 40
0.0
 40
0.4962828312269358
 40
1.0
 40
1.0
 40
1.0
 40
1.0
 10
3015.301579570306
 20
1718.323426048188
 30
0.0
 10
3015.365404968737
 20
1718.294803786602
 30
0.0
 10
3015.494011872734
 20
1718.237130500754
 30
0.0
 10
3015.625738892603
 20
1718.228016783859
 30
0.0
 10
3015.692092054102
 20
1718.223426048188
 30
0.0
  0
LINE
  5
C2B
330
1F
100
AcDbEntity
  8
cuerpo
100
AcDbLine
 10
3015.692092054123
 20
1718.223426048198
 30
0.0
 11
3013.094015842723
 21
1718.223426048198
 31
0.0
  0
SPLINE
  5
C2C
330
1F
100
AcDbEntity
  8
cuerpo
100
AcDbSpline
210
0.0
220
0.0
230
1.0
 70
     8
 71
     3
 72
     9
 73
     5
 74
     0
 42
0.00000001
 43
0.0000000001
 40
0.0
 40
0.0
 40
0.0
 40
0.0
 40
0.4962828312269357
 40
1.0
 40
1.0
 40
1.0
 40
1.0
 10
3016.082604537897
 20
1718.623426048188
 30
0.0
 10
3016.018779139467
 20
1718.652048309775
 30
0.0
 10
3015.89017223547
 20
1718.709721595622
 30
0.0
 10
3015.758445215601
 20
1718.718835312517
 30
0.0
 10
3015.692092054102
 20
1718.723426048188
 30
0.0
  0
LINE
  5
C2D
330
1F
100
AcDbEntity
  8
cuerpo
100
AcDbLine
 10
3016.082604537923
 20
1718.623426048198
 30
0.0
 11
3016.082604537923
 21
1718.323426048198
 31
0.0
  0
SPLINE
  5
C2E
330
1F
100
AcDbEntity
  8
cuerpo
100
AcDbSpline
210
0.0
220
0.0
230
1.0
 70
     8
 71
     3
 72
     9
 73
     5
 74
     0
 42
0.00000001
 43
0.0000000001
 40
0.0
 40
0.0
 40
0.0
 40
0.0
 40
0.4960330769267188
 40
1.0
 40
1.0
 40
1.0
 40
1.0
 10
3015.692092054102
 20
1718.223426048188
 30
0.0
 10
3015.757431592286
 20
1718.227877521984
 30
0.0
 10
3015.889155747836
 20
1718.236851669079
 30
0.0
 10
3016.017781442386
 20
1718.294415687131
 30
0.0
 10
3016.082604537897
 20
1718.323426048188
 30
0.0
  0
SPLINE
  5
C2F
330
1F
100
AcDbEntity
  8
cuerpo
100
AcDbSpline
210
0.0
220
0.0
230
1.0
 70
     8
 71
     3
 72
     9
 73
     5
 74
     0
 42
0.00000001
 43
0.0000000001
 40
0.0
 40
0.0
 40
0.0
 40
0.0
 40
0.4960330769267186
 40
1.0
 40
1.0
 40
1.0
 40
1.0
 10
3010.495939631395
 20
1718.723426048188
 30
0.0
 10
3010.430600093212
 20
1718.718974574392
 30
0.0
 10
3010.298875937662
 20
1718.710000427297
 30
0.0
 10
3010.170250243111
 20
1718.652436409245
 30
0.0
 10
3010.1054271476
 20
1718.623426048188
 30
0.0
  0
SPLINE
  5
C30
330
1F
100
AcDbEntity
  8
cuerpo
100
AcDbSpline
210
0.0
220
0.0
230
1.0
 70
     8
 71
     3
 72
     9
 73
     5
 74
     0
 42
0.00000001
 43
0.0000000001
 40
0.0
 40
0.0
 40
0.0
 40
0.0
 40
0.4962828312269362
 40
1.0
 40
1.0
 40
1.0
 40
1.0
 10
3010.1054271476
 20
1718.323426048188
 30
0.0
 10
3010.169252546031
 20
1718.294803786602
 30
0.0
 10
3010.297859450027
 20
1718.237130500754
 30
0.0
 10
3010.429586469896
 20
1718.228016783859
 30
0.0
 10
3010.495939631395
 20
1718.223426048188
 30
0.0
  0
LINE
  5
C31
330
1F
100
AcDbEntity
  8
cuerpo
100
AcDbLine
 10
3010.105427147622
 20
1718.623426048198
 30
0.0
 11
3010.105427147622
 21
1718.323426048198
 31
0.0
  0
LINE
  5
C32
330
1F
100
AcDbEntity
  8
cuerpo
100
AcDbLine
 10
3009.994015842723
 20
1718.323426048198
 30
0.0
 11
3010.105427147622
 21
1718.323426048198
 31
0.0
  0
LINE
  5
C33
330
1F
100
AcDbEntity
  8
cuerpo
100
AcDbLine
 10
3010.495939631423
 20
1718.223426048198
 30
0.0
 11
3010.094015842723
 21
1718.223426048198
 31
0.0
  0
LINE
  5
C34
330
1F
100
AcDbEntity
  8
cuerpo
100
AcDbLine
 10
3010.105427147622
 20
1718.623426048198
 30
0.0
 11
3009.994015842723
 21
1718.623426048198
 31
0.0
  0
LINE
  5
C35
330
1F
100
AcDbEntity
  8
cuerpo
100
AcDbLine
 10
3010.094015842723
 20
1718.723426048198
 30
0.0
 11
3010.495939631423
 21
1718.723426048198
 31
0.0
  0
LINE
  5
C36
330
1F
100
AcDbEntity
  8
cuerpo
100
AcDbLine
 10
3016.194015842723
 20
1718.623426048198
 30
0.0
 11
3016.082604537923
 21
1718.623426048198
 31
0.0
  0
LINE
  5
C37
330
1F
100
AcDbEntity
  8
cuerpo
100
AcDbLine
 10
3015.692092054123
 20
1718.723426048198
 30
0.0
 11
3016.094015842722
 21
1718.723426048198
 31
0.0
  0
LINE
  5
C38
330
1F
100
AcDbEntity
  8
cuerpo
100
AcDbLine
 10
3016.082604537923
 20
1718.323426048198
 30
0.0
 11
3016.194015842723
 21
1718.323426048198
 31
0.0
  0
LINE
  5
C39
330
1F
100
AcDbEntity
  8
cuerpo
100
AcDbLine
 10
3016.094015842722
 20
1718.223426048198
 30
0.0
 11
3015.692092054123
 21
1718.223426048198
 31
0.0
  0
LINE
  5
C3A
330
1F
100
AcDbEntity
  8
cuerpo
100
AcDbLine
 10
3015.794015842722
 20
1718.973426048198
 30
0.0
 11
3010.394015842722
 21
1718.973426048198
 31
0.0
  0
LINE
  5
C3B
330
1F
100
AcDbEntity
  8
cuerpo
100
AcDbLine
 10
3014.898797262222
 20
1716.467570688798
 30
0.0
 11
3014.898797262222
 21
1717.539583345798
 31
0.0
  0
LINE
  5
C3C
330
1F
100
AcDbEntity
  8
cuerpo
100
AcDbLine
 10
3014.886588017022
 20
1716.468983345798
 30
0.0
 11
3014.898797262222
 21
1716.467570688798
 31
0.0
  0
LINE
  5
C3D
330
1F
100
AcDbEntity
  8
cuerpo
100
AcDbLine
 10
3011.301443668422
 20
1716.468983345798
 30
0.0
 11
3014.886588017022
 21
1716.468983345798
 31
0.0
  0
SPLINE
  5
C3E
330
1F
100
AcDbEntity
  8
cuerpo
100
AcDbSpline
210
0.0
220
0.0
230
1.0
 70
     8
 71
     3
 72
    13
 73
     9
 74
     0
 42
0.00000001
 43
0.0000000001
 40
0.0
 40
0.0
 40
0.0
 40
0.0
 40
0.169731369719658
 40
0.3390735336505084
 40
0.5180989321130359
 40
0.7245306761274134
 40
0.9672382211787432
 40
1.0
 40
1.0
 40
1.0
 40
1.0
 10
3011.231667862376
 20
1716.367983345751
 30
0.0
 10
3011.232235545812
 20
1716.377974458631
 30
0.0
 10
3011.233369610948
 20
1716.397933774076
 30
0.0
 10
3011.242083953856
 20
1716.4247589741
 30
0.0
 10
3011.255428526244
 20
1716.447171960305
 30
0.0
 10
3011.274390154577
 20
1716.463677470461
 30
0.0
 10
3011.290787688342
 20
1716.468768225966
 30
0.0
 10
3011.300311047975
 20
1716.468960480743
 30
0.0
 10
3011.301443668469
 20
1716.468983345751
 30
0.0
  0
LINE
  5
C3F
330
1F
100
AcDbEntity
  8
cuerpo
100
AcDbLine
 10
3011.231667862423
 20
1716.163490467398
 30
0.0
 11
3011.231667862423
 21
1716.367983345798
 31
0.0
  0
SPLINE
  5
C40
330
1F
100
AcDbEntity
  8
cuerpo
100
AcDbSpline
210
0.0
220
0.0
230
1.0
 70
     8
 71
     3
 72
    11
 73
     7
 74
     0
 42
0.00000001
 43
0.0000000001
 40
0.0
 40
0.0
 40
0.0
 40
0.0
 40
0.2498883077071337
 40
0.4988591843056012
 40
0.7488527920980493
 40
1.0
 40
1.0
 40
1.0
 40
1.0
 10
3010.999094152353
 20
1716.448783345751
 30
0.0
 10
3011.0174170729
 20
1716.444771911525
 30
0.0
 10
3011.053995643868
 20
1716.436763770511
 30
0.0
 10
3011.116855545328
 20
1716.375403131144
 30
0.0
 10
3011.179533468612
 20
1716.286392242825
 30
0.0
 10
3011.214263082532
 20
1716.204520547312
 30
0.0
 10
3011.231667862376
 20
1716.163490467361
 30
0.0
  0
SPLINE
  5
C41
330
1F
100
AcDbEntity
  8
cuerpo
100
AcDbSpline
210
0.0
220
0.0
230
1.0
 70
     8
 71
     3
 72
    10
 73
     6
 74
     0
 42
0.00000001
 43
0.0000000001
 40
0.0
 40
0.0
 40
0.0
 40
0.0
 40
0.3614405677747786
 40
0.7223521057418477
 40
1.0
 40
1.0
 40
1.0
 40
1.0
 10
3014.898797262262
 20
1717.539583345751
 30
0.0
 10
3014.902182651032
 20
1717.597013526933
 30
0.0
 10
3014.908948473479
 20
1717.711789830449
 30
0.0
 10
3014.951836946667
 20
1717.856342284191
 30
0.0
 10
3014.987689932653
 20
1717.930976462288
 30
0.0
 10
3015.003278937465
 20
1717.963427666268
 30
0.0
  0
LINE
  5
C42
330
1F
100
AcDbEntity
  8
cuerpo
100
AcDbLine
 10
3015.003278078222
 20
1717.963426048198
 30
0.0
 11
3010.872015842722
 21
1717.963426048198
 31
0.0
  0
LINE
  5
C43
330
1F
100
AcDbEntity
  8
cuerpo
100
AcDbLine
 10
3014.186681286922
 20
1716.367983345798
 30
0.0
 11
3012.001350398623
 21
1716.367983345798
 31
0.0
  0
LWPOLYLINE
  5
C44
330
1F
100
AcDbEntity
  8
cuerpo
100
AcDbPolyline
 90
        9
 70
   128
 43
0.0
 10
3012.001350398623
 20
1716.367983345798
 10
3012.000167567022
 20
1716.387687468298
 10
3011.996664527922
 20
1716.406634372398
 10
3011.990975901122
 20
1716.424095939298
 10
3011.983320297222
 20
1716.439401130697
 10
3011.973991917022
 20
1716.451961776598
 10
3011.963349244723
 20
1716.461295178498
 10
3011.951801272422
 20
1716.467042659098
 10
3011.939791782023
 20
1716.468983345798
  0
LWPOLYLINE
  5
C45
330
1F
100
AcDbEntity
  8
cuerpo
100
AcDbPolyline
 90
        9
 70
   128
 43
0.0
 10
3014.186681286922
 20
1716.367983345798
 10
3014.187864118422
 20
1716.387687468298
 10
3014.191367157522
 20
1716.406634372398
 10
3014.197055784423
 20
1716.424095939298
 10
3014.204711388222
 20
1716.439401130697
 10
3014.214039768523
 20
1716.451961776598
 10
3014.224682440722
 20
1716.461295178498
 10
3014.236230413122
 20
1716.467042659098
 10
3014.248239903423
 20
1716.468983345798
  0
LINE
  5
C46
330
1F
100
AcDbEntity
  8
cuerpo
100
AcDbLine
 10
3014.186681286922
 20
1712.782483345798
 30
0.0
 11
3014.186681286922
 21
1716.367983345798
 31
0.0
  0
LINE
  5
C47
330
1F
100
AcDbEntity
  8
cuerpo
100
AcDbLine
 10
3012.001350398623
 20
1712.782483345798
 30
0.0
 11
3014.186681286922
 21
1712.782483345798
 31
0.0
  0
LINE
  5
C48
330
1F
100
AcDbEntity
  8
cuerpo
100
AcDbLine
 10
3012.001350398623
 20
1716.367983345798
 30
0.0
 11
3012.001350398623
 21
1712.782483345798
 31
0.0
  0
LINE
  5
C49
330
1F
100
AcDbEntity
  8
cuerpo
100
AcDbLine
 10
3011.385764232923
 20
1716.367983345798
 30
0.0
 11
3012.001350398623
 21
1716.367983345798
 31
0.0
  0
LINE
  5
C4A
330
1F
100
AcDbEntity
  8
cuerpo
100
AcDbLine
 10
3011.385764232923
 20
1716.468983345798
 30
0.0
 11
3011.385764232923
 21
1716.367983345798
 31
0.0
  0
LINE
  5
C4B
330
1F
100
AcDbEntity
  8
cuerpo
100
AcDbLine
 10
3014.186681286922
 20
1716.367983345798
 30
0.0
 11
3014.802267452623
 21
1716.367983345798
 31
0.0
  0
LINE
  5
C4C
330
1F
100
AcDbEntity
  8
cuerpo
100
AcDbLine
 10
3014.802267452623
 20
1716.367983345798
 30
0.0
 11
3014.802267452623
 21
1716.468983345798
 31
0.0
  0
SPLINE
  5
C4D
330
1F
100
AcDbEntity
  8
cuerpo
100
AcDbSpline
210
0.0
220
0.0
230
1.0
 70
     8
 71
     3
 72
     9
 73
     5
 74
     0
 42
0.00000001
 43
0.0000000001
 40
0.0
 40
0.0
 40
0.0
 40
0.0
 40
0.50437614003018
 40
1.0
 40
1.0
 40
1.0
 40
1.0
 10
3015.738287659336
 20
1714.515570016108
 30
0.0
 10
3015.815576666958
 20
1714.499604162525
 30
0.0
 10
3015.968813510431
 20
1714.467949505779
 30
0.0
 10
3015.991548058353
 20
1714.463188437198
 30
0.0
 10
3016.002815842749
 20
1714.460828738011
 30
0.0
  0
SPLINE
  5
C4E
330
1F
100
AcDbEntity
  8
cuerpo
100
AcDbSpline
210
0.0
220
0.0
230
1.0
 70
     8
 71
     3
 72
    12
 73
     8
 74
     0
 42
0.00000001
 43
0.0000000001
 40
0.0
 40
0.0
 40
0.0
 40
0.0
 40
0.2415850011035058
 40
0.4831700022070107
 40
0.7247550033105182
 40
0.9663400044140264
 40
1.0
 40
1.0
 40
1.0
 40
1.0
 10
3016.002815842749
 20
1714.460828733788
 30
0.0
 10
3016.008397507789
 20
1714.404046640104
 30
0.0
 10
3016.01956083787
 20
1714.290482452737
 30
0.0
 10
3016.106640628225
 20
1714.139266918803
 30
0.0
 10
3016.234733811119
 20
1714.02460305854
 30
0.0
 10
3016.349157750715
 20
1713.977109728906
 30
0.0
 10
3016.412390691267
 20
1713.964983724386
 30
0.0
 10
3016.420123513027
 20
1713.96350082274
 30
0.0
  0
SPLINE
  5
C4F
330
1F
100
AcDbEntity
  8
cuerpo
100
AcDbSpline
210
0.0
220
0.0
230
1.0
 70
     8
 71
     3
 72
    11
 73
     7
 74
     0
 42
0.00000001
 43
0.0000000001
 40
0.0
 40
0.0
 40
0.0
 40
0.0
 40
0.2623625674914975
 40
0.5248987009815309
 40
0.7805620808122403
 40
1.0
 40
1.0
 40
1.0
 40
1.0
 10
3016.197731735113
 20
1714.002714493474
 30
0.0
 10
3016.134487732512
 20
1714.020338319891
 30
0.0
 10
3016.00795788823
 20
1714.055597631772
 30
0.0
 10
3015.856344095701
 20
1714.183100102363
 30
0.0
 10
3015.756394614982
 20
1714.342689159892
 30
0.0
 10
3015.744008420854
 20
1714.460948744392
 30
0.0
 10
3015.738287534231
 20
1714.515570016108
 30
0.0
  0
SPLINE
  5
C50
330
1F
100
AcDbEntity
  8
cuerpo
100
AcDbSpline
210
0.0
220
0.0
230
1.0
 70
     8
 71
     3
 72
    12
 73
     8
 74
     0
 42
0.00000001
 43
0.0000000001
 40
0.0
 40
0.0
 40
0.0
 40
0.0
 40
0.2415849996502503
 40
0.4831699993004995
 40
0.72475499895075
 40
0.9663399986009963
 40
1.0
 40
1.0
 40
1.0
 40
1.0
 10
3009.76790817247
 20
1713.96350082274
 30
0.0
 10
3009.822858372727
 20
1713.978857796379
 30
0.0
 10
3009.932758773242
 20
1714.009571743658
 30
0.0
 10
3010.066555757475
 20
1714.121586897112
 30
0.0
 10
3010.157234469459
 20
1714.267645226358
 30
0.0
 10
3010.184136761518
 20
1714.38857794052
 30
0.0
 10
3010.185098260076
 20
1714.452955890613
 30
0.0
 10
3010.185215842748
 20
1714.460828738011
 30
0.0
  0
SPLINE
  5
C51
330
1F
100
AcDbEntity
  8
cuerpo
100
AcDbSpline
210
0.0
220
0.0
230
1.0
 70
     8
 71
     3
 72
     9
 73
     5
 74
     0
 42
0.00000001
 43
0.0000000001
 40
0.0
 40
0.0
 40
0.0
 40
0.0
 40
0.4956238599698219
 40
1.0
 40
1.0
 40
1.0
 40
1.0
 10
3010.185215842748
 20
1714.460828738011
 30
0.0
 10
3010.196483627144
 20
1714.463188437198
 30
0.0
 10
3010.219218175066
 20
1714.467949505779
 30
0.0
 10
3010.372455018539
 20
1714.499604162525
 30
0.0
 10
3010.449744026161
 20
1714.515570016108
 30
0.0
  0
SPLINE
  5
C52
330
1F
100
AcDbEntity
  8
cuerpo
100
AcDbSpline
210
0.0
220
0.0
230
1.0
 70
     8
 71
     3
 72
    12
 73
     8
 74
     0
 42
0.00000001
 43
0.0000000001
 40
0.0
 40
0.0
 40
0.0
 40
0.0
 40
0.219863398186623
 40
0.4392226770521719
 40
0.6715175131965001
 40
0.9228325716340975
 40
1.0
 40
1.0
 40
1.0
 40
1.0
 10
3010.449744151266
 20
1714.515570020356
 30
0.0
 10
3010.444030965659
 20
1714.460829568176
 30
0.0
 10
3010.432617694066
 20
1714.351474176839
 30
0.0
 10
3010.346349870744
 20
1714.203802473813
 30
0.0
 10
3010.217466675308
 20
1714.08390688686
 30
0.0
 10
3010.088772756013
 20
1714.023198497782
 30
0.0
 10
3010.009032588775
 20
1714.006611198184
 30
0.0
 10
3009.990299950384
 20
1714.002714493474
 30
0.0
  0
LINE
  5
C53
330
1F
100
AcDbEntity
  8
cuerpo
100
AcDbLine
 10
3014.802267452623
 20
1712.782483345798
 30
0.0
 11
3014.802267452623
 21
1716.367983345798
 31
0.0
  0
LINE
  5
C54
330
1F
100
AcDbEntity
  8
cuerpo
100
AcDbLine
 10
3014.186681286922
 20
1712.782483345798
 30
0.0
 11
3014.802267452623
 21
1712.782483345798
 31
0.0
  0
LINE
  5
C55
330
1F
100
AcDbEntity
  8
cuerpo
100
AcDbLine
 10
3011.385764232923
 20
1712.782483345798
 30
0.0
 11
3011.385764232923
 21
1716.367983345798
 31
0.0
  0
LINE
  5
C56
330
1F
100
AcDbEntity
  8
cuerpo
100
AcDbLine
 10
3011.385764232923
 20
1712.782483345798
 30
0.0
 11
3012.001350398623
 21
1712.782483345798
 31
0.0
  0
LINE
  5
C57
330
1F
100
AcDbEntity
  8
cuerpo
100
AcDbLine
 10
3011.231667862423
 20
1716.367983345798
 30
0.0
 11
3011.385764232923
 21
1716.367983345798
 31
0.0
  0
LINE
  5
C58
330
1F
100
AcDbEntity
  8
cuerpo
100
AcDbLine
 10
3014.802267452623
 20
1716.367983345798
 30
0.0
 11
3015.062868300423
 21
1716.367983345798
 31
0.0
  0
SPLINE
  5
C59
330
1F
100
AcDbEntity
  8
cuerpo
100
AcDbSpline
210
0.0
220
0.0
230
1.0
 70
     8
 71
     3
 72
    11
 73
     7
 74
     0
 42
0.00000001
 43
0.0000000001
 40
0.0
 40
0.0
 40
0.0
 40
0.0
 40
0.0041454335511725
 40
0.440894470173488
 40
0.7632823221515528
 40
1.0
 40
1.0
 40
1.0
 40
1.0
 10
3015.0628683004
 20
1716.367983345751
 30
0.0
 10
3015.062623656474
 20
1716.368156338874
 30
0.0
 10
3015.0366041455
 20
1716.386555309768
 30
0.0
 10
3014.991407081647
 20
1716.418279405834
 30
0.0
 10
3014.93519773369
 20
1716.454417312209
 30
0.0
 10
3014.909624585449
 20
1716.46365821584
 30
0.0
 10
3014.898797262262
 20
1716.467570688767
 30
0.0
  0
LINE
  5
C5A
330
1F
100
AcDbEntity
  8
cuerpo
100
AcDbLine
 10
3015.062868300423
 20
1717.539583345798
 30
0.0
 11
3014.898797262222
 21
1717.539583345798
 31
0.0
  0
LINE
  5
C5B
330
1F
100
AcDbEntity
  8
cuerpo
100
AcDbLine
 10
3015.062868300423
 20
1716.367983345798
 30
0.0
 11
3015.062868300423
 21
1717.539583345798
 31
0.0
  0
SPLINE
  5
C5C
330
1F
100
AcDbEntity
  8
cuerpo
100
AcDbSpline
210
0.0
220
0.0
230
1.0
 70
     8
 71
     3
 72
     9
 73
     5
 74
     0
 42
0.00000001
 43
0.0000000001
 40
0.0
 40
0.0
 40
0.0
 40
0.0
 40
0.4993275571366014
 40
1.0
 40
1.0
 40
1.0
 40
1.0
 10
3011.125163385097
 20
1715.842783345751
 30
0.0
 10
3011.155225604071
 20
1715.892063332633
 30
0.0
 10
3011.215431011413
 20
1715.990756036806
 30
0.0
 10
3011.226250728294
 20
1716.10586072296
 30
0.0
 10
3011.231667862376
 20
1716.163490467361
 30
0.0
  0
SPLINE
  5
C5D
330
1F
100
AcDbEntity
  8
cuerpo
100
AcDbSpline
210
0.0
220
0.0
230
1.0
 70
     8
 71
     3
 72
    14
 73
    10
 74
     0
 42
0.00000001
 43
0.0000000001
 40
0.0
 40
0.0
 40
0.0
 40
0.0
 40
0.1194450713527124
 40
0.2501830810977764
 40
0.499791056802193
 40
0.6249486085560574
 40
0.7040641235750409
 40
0.7503659745133028
 40
1.0
 40
1.0
 40
1.0
 40
1.0
 10
3011.125163385097
 20
1715.842783345751
 30
0.0
 10
3011.123142869783
 20
1715.871353277718
 30
0.0
 10
3011.118910809467
 20
1715.931194286856
 30
0.0
 10
3011.078891370268
 20
1716.039438053361
 30
0.0
 10
3011.017055650512
 20
1716.125124121185
 30
0.0
 10
3010.956993562908
 20
1716.180308574758
 30
0.0
 10
3010.923786712961
 20
1716.204377062514
 30
0.0
 10
3010.874133406318
 20
1716.234877789246
 30
0.0
 10
3010.838611178864
 20
1716.241335772515
 30
0.0
 10
3010.808646725954
 20
1716.246783345751
 30
0.0
  0
ARC
  5
C5E
330
1F
100
AcDbEntity
  8
cuerpo
100
AcDbCircle
 10
3010.802695243922
 20
1716.443172234598
 30
0.0
 40
0.196479046765499
100
AcDbArc
 50
271.7357930887918
 51
1.636493594601921
  0
ARC
  5
C5F
330
1F
100
AcDbEntity
  8
cuerpo
100
AcDbCircle
 10
3015.352896783822
 20
1718.125402503497
 30
0.0
 40
0.1887035345086539
100
AcDbArc
 50
239.1334658658097
 51
265.6805888857054
  0
SPLINE
  5
C60
330
1F
100
AcDbEntity
  8
cuerpo
100
AcDbSpline
210
0.0
220
0.0
230
1.0
 70
     8
 71
     3
 72
    12
 73
     8
 74
     0
 42
0.00000001
 43
0.0000000001
 40
0.0
 40
0.0
 40
0.0
 40
0.0
 40
0.2499055990854748
 40
0.4998291784462733
 40
0.7505410146893798
 40
0.8806448711248371
 40
1.0
 40
1.0
 40
1.0
 40
1.0
 10
3015.338684283351
 20
1717.937234948475
 30
0.0
 10
3015.310199192426
 20
1717.925059671408
 30
0.0
 10
3015.253226961124
 20
1717.900708241284
 30
0.0
 10
3015.163630486024
 20
1717.815829761448
 30
0.0
 10
3015.100009559732
 20
1717.715494904146
 30
0.0
 10
3015.067875966902
 20
1717.617592476963
 30
0.0
 10
3015.064488874716
 20
1717.564828556146
 30
0.0
 10
3015.0628683004
 20
1717.539583345751
 30
0.0
  0
SPLINE
  5
C61
330
1F
100
AcDbEntity
  8
cuerpo
100
AcDbSpline
210
0.0
220
0.0
230
1.0
 70
    24
 71
     3
 72
     9
 73
     5
 74
     0
 42
0.00000001
 43
0.0000000001
 40
0.0
 40
0.0
 40
0.0
 40
0.0
 40
0.3585469342527193
 40
1.0
 40
1.0
 40
1.0
 40
1.0
 10
3015.003264310506
 20
1717.963426048189
 30
0.0
 10
3015.0302177306
 20
1717.963426048189
 30
0.0
 10
3015.105391766461
 20
1717.963426048189
 30
0.0
 10
3015.197196133793
 20
1717.963426048189
 30
0.0
 10
3015.256084326667
 20
1717.963426048189
 30
0.0
  0
LINE
  5
C62
330
1F
100
AcDbEntity
  8
cuerpo
100
AcDbLine
 10
3009.559015842723
 20
1712.782483345798
 30
0.0
 11
3009.559015842723
 21
1713.926667468898
 31
0.0
  0
LINE
  5
C63
330
1F
100
AcDbEntity
  8
cuerpo
100
AcDbLine
 10
3009.559015842723
 20
1713.926667468898
 30
0.0
 11
3009.990299950422
 21
1714.002714493498
 31
0.0
  0
LINE
  5
C64
330
1F
100
AcDbEntity
  8
cuerpo
100
AcDbLine
 10
3010.449744026122
 20
1714.515570016098
 30
0.0
 11
3010.449744026122
 21
1715.842783345798
 31
0.0
  0
LINE
  5
C65
330
1F
100
AcDbEntity
  8
cuerpo
100
AcDbLine
 10
3010.449744026122
 20
1715.842783345798
 30
0.0
 11
3011.125163385123
 21
1715.842783345798
 31
0.0
  0
LINE
  5
C66
330
1F
100
AcDbEntity
  8
cuerpo
100
AcDbLine
 10
3009.559015842723
 20
1712.782483345798
 30
0.0
 11
3011.385764232923
 21
1712.782483345798
 31
0.0
  0
SPLINE
  5
C67
330
1F
100
AcDbEntity
  8
cuerpo
100
AcDbSpline
210
0.0
220
0.0
230
1.0
 70
     8
 71
     3
 72
    12
 73
     8
 74
     0
 42
0.00000001
 43
0.0000000001
 40
0.0
 40
0.0
 40
0.0
 40
0.0
 40
0.1954008713944987
 40
0.3904681861045785
 40
0.5944133536071825
 40
0.8147991566399065
 40
1.0
 40
1.0
 40
1.0
 40
1.0
 10
3010.449744026161
 20
1715.842783345751
 30
0.0
 10
3010.447907350077
 20
1715.885449580763
 30
0.0
 10
3010.444237133186
 20
1715.970709217907
 30
0.0
 10
3010.416988049132
 20
1716.085453987903
 30
0.0
 10
3010.379217467997
 20
1716.177526492815
 30
0.0
 10
3010.336981869659
 20
1716.236341047073
 30
0.0
 10
3010.311380731534
 20
1716.243509880156
 30
0.0
 10
3010.299690621877
 20
1716.246783345751
 30
0.0
  0
LINE
  5
C68
330
1F
100
AcDbEntity
  8
cuerpo
100
AcDbLine
 10
3010.299690621923
 20
1716.246783345798
 30
0.0
 11
3010.808646725922
 21
1716.246783345798
 31
0.0
  0
LINE
  5
C69
330
1F
100
AcDbEntity
  8
cuerpo
100
AcDbLine
 10
3015.062868300423
 20
1717.539583345798
 30
0.0
 11
3015.738287659323
 21
1717.539583345798
 31
0.0
  0
LINE
  5
C6A
330
1F
100
AcDbEntity
  8
cuerpo
100
AcDbLine
 10
3015.738287659323
 20
1717.539583345798
 30
0.0
 11
3015.738287659323
 21
1714.515570016098
 31
0.0
  0
LINE
  5
C6B
330
1F
100
AcDbEntity
  8
cuerpo
100
AcDbLine
 10
3016.629015842723
 20
1713.926667468898
 30
0.0
 11
3016.629015842723
 21
1712.782483345798
 31
0.0
  0
LINE
  5
C6C
330
1F
100
AcDbEntity
  8
cuerpo
100
AcDbLine
 10
3016.197731735122
 20
1714.002714493498
 30
0.0
 11
3016.629015842723
 21
1713.926667468898
 31
0.0
  0
LINE
  5
C6D
330
1F
100
AcDbEntity
  8
cuerpo
100
AcDbLine
 10
3014.802267452623
 20
1712.782483345798
 30
0.0
 11
3016.629015842723
 21
1712.782483345798
 31
0.0
  0
SPLINE
  5
C6E
330
1F
100
AcDbEntity
  8
cuerpo
100
AcDbSpline
210
0.0
220
0.0
230
1.0
 70
     8
 71
     3
 72
    12
 73
     8
 74
     0
 42
0.00000001
 43
0.0000000001
 40
0.0
 40
0.0
 40
0.0
 40
0.0
 40
0.2278534211016351
 40
0.45560331306012
 40
0.6843954496072604
 40
0.9010494418964356
 40
1.0
 40
1.0
 40
1.0
 40
1.0
 10
3015.88834106362
 20
1717.943583345751
 30
0.0
 10
3015.873799453131
 20
1717.938657403208
 30
0.0
 10
3015.844722839384
 20
1717.928807756309
 30
0.0
 10
3015.797609855219
 20
1717.853346650019
 30
0.0
 10
3015.759029763045
 20
1717.743073545341
 30
0.0
 10
3015.740287332653
 20
1717.629697969545
 30
0.0
 10
3015.738764963286
 20
1717.561092892094
 30
0.0
 10
3015.738287659336
 20
1717.539583345751
 30
0.0
  0
LINE
  5
C6F
330
1F
100
AcDbEntity
  8
cuerpo
100
AcDbLine
 10
3016.002815842723
 20
1717.943583345798
 30
0.0
 11
3015.888341063622
 21
1717.943583345798
 31
0.0
  0
LINE
  5
C70
330
1F
100
AcDbEntity
  8
cuerpo
100
AcDbLine
 10
3015.379146755222
 20
1717.943583345798
 30
0.0
 11
3015.338684283323
 21
1717.937234948498
 31
0.0
  0
LINE
  5
C71
330
1F
100
AcDbEntity
  8
cuerpo
100
AcDbLine
 10
3015.379146755222
 20
1717.943583345798
 30
0.0
 11
3015.888341063622
 21
1717.943583345798
 31
0.0
  0
LINE
  5
C72
330
1F
100
AcDbEntity
  8
cuerpo
100
AcDbLine
 10
3010.185215842723
 20
1716.246783345798
 30
0.0
 11
3010.299690621923
 21
1716.246783345798
 31
0.0
  0
LINE
  5
C73
330
1F
100
AcDbEntity
  8
cuerpo
100
AcDbLine
 10
3017.841015842722
 20
1713.712959168297
 30
0.0
 11
3016.629015842723
 21
1713.926667468898
 31
0.0
  0
LINE
  5
C74
330
1F
100
AcDbEntity
  8
cuerpo
100
AcDbLine
 10
3016.629015842723
 20
1712.782483345798
 30
0.0
 11
3017.841015842722
 21
1712.782483345798
 31
0.0
  0
LINE
  5
C75
330
1F
100
AcDbEntity
  8
cuerpo
100
AcDbLine
 10
3008.347015842722
 20
1713.712959168297
 30
0.0
 11
3009.559015842723
 21
1713.926667468898
 31
0.0
  0
LINE
  5
C76
330
1F
100
AcDbEntity
  8
cuerpo
100
AcDbLine
 10
3008.347015842722
 20
1712.782483345798
 30
0.0
 11
3009.559015842723
 21
1712.782483345798
 31
0.0
  0
ARC
  5
C77
330
1F
100
AcDbEntity
  8
cuerpo
100
AcDbCircle
 10
3015.379350215523
 20
1718.125081337898
 30
0.0
 40
0.1814981061396694
100
AcDbArc
 50
242.9578178035969
 51
269.935771143496
  0
SPLINE
  5
C78
330
1F
100
AcDbEntity
  8
cuerpo
100
AcDbSpline
210
0.0
220
0.0
230
1.0
 70
    24
 71
     3
 72
    10
 73
     6
 74
     0
 42
0.00000001
 43
0.0000000001
 40
0.0
 40
0.0
 40
0.0
 40
0.0
 40
0.3200500759943025
 40
0.65760831588883
 40
1.0
 40
1.0
 40
1.0
 40
1.0
 10
3015.256084326667
 20
1717.963426048189
 30
0.0
 10
3015.261364020681
 20
1717.963426048189
 30
0.0
 10
3015.272212231474
 20
1717.963426048189
 30
0.0
 10
3015.286375848513
 20
1717.963426048189
 30
0.0
 10
3015.293330645812
 20
1717.963426048189
 30
0.0
 10
3015.296832763653
 20
1717.963426048189
 30
0.0
  0
LINE
  5
C79
330
1F
100
AcDbEntity
  8
cuerpo
100
AcDbLine
 10
3015.296832763623
 20
1717.963426048198
 30
0.0
 11
3015.430483079123
 21
1717.963426048198
 31
0.0
  0
LINE
  5
C7A
330
1F
100
AcDbEntity
  8
cuerpo
100
AcDbLine
 10
3017.443865633923
 20
1710.511121534998
 30
0.0
 11
3015.814166051522
 21
1710.511121534998
 31
0.0
  0
LINE
  5
C7B
330
1F
100
AcDbEntity
  8
cuerpo
100
AcDbLine
 10
3008.803240686122
 20
1710.511121534998
 30
0.0
 11
3008.744166051523
 21
1710.511121534998
 31
0.0
  0
LINE
  5
C7C
330
1F
100
AcDbEntity
  8
cuerpo
100
AcDbLine
 10
3010.373865633923
 20
1710.511121534998
 30
0.0
 11
3008.803240686122
 21
1710.511121534998
 31
0.0
  0
LINE
  5
C7D
330
1F
100
AcDbEntity
  8
cuerpo
100
AcDbLine
 10
3011.543248135922
 20
1727.430793681999
 30
0.0
 11
3014.644783549523
 21
1727.430793681999
 31
0.0
  0
LINE
  5
C7E
330
1F
100
AcDbEntity
  8
cuerpo
100
AcDbLine
 10
3013.969015842723
 20
1727.444321812399
 30
0.0
 11
3013.969015842723
 21
1727.444165803799
 31
0.0
  0
LINE
  5
C7F
330
1F
100
AcDbEntity
  8
cuerpo
100
AcDbLine
 10
3012.219015842723
 20
1727.444165803799
 30
0.0
 11
3012.219015842723
 21
1727.444321812399
 31
0.0
  0
LINE
  5
C80
330
1F
100
AcDbEntity
  8
cuerpo
100
AcDbLine
 10
3010.872015842722
 20
1716.448783345798
 30
0.0
 11
3010.999094152323
 21
1716.448783345798
 31
0.0
  0
LINE
  5
C81
330
1F
100
AcDbEntity
  8
cuerpo
100
AcDbLine
 10
3008.124146081124
 20
1702.469693348004
 30
0.0
 11
3018.063885604421
 21
1706.297302805706
 31
0.0
  0
LINE
  5
C82
330
1F
100
AcDbEntity
  8
COTAS
100
AcDbLine
 10
3015.291780818631
 20
1721.824106561647
 30
0.0
 11
3015.296250866814
 21
1718.974357802849
 31
0.0
  0
DIMENSION
  5
C86
330
1F
100
AcDbEntity
  8
COTAS
100
AcDbDimension
  2
*D27
 10
3010.715329346423
 20
1710.313403182923
 30
0.0
 11
3003.414515812075
 21
1710.313403182923
 31
0.0
 70
   160
  1
G1/2"
 71
     5
 42
23.12627007400351
 73
     0
 74
     0
 75
     0
  3
RS (E1.10)
100
AcDbAlignedDimension
 13
3008.402702339023
 23
1711.504379929198
 33
0.0
 14
3010.715329346423
 24
1711.504379929198
 34
0.0
100
AcDbRotatedDimension
  0
ARC
  5
C87
330
1F
100
AcDbEntity
  8
cuerpo
100
AcDbCircle
 10
3013.877313426522
 20
1710.644376159398
 30
0.0
 40
0.174304177008807
100
AcDbArc
 50
293.7191151768126
 51
90.0
  0
ARC
  5
C88
330
1F
100
AcDbEntity
  8
cuerpo
100
AcDbCircle
 10
3012.310718259023
 20
1710.644376159398
 30
0.0
 40
0.174304177008807
100
AcDbArc
 50
90.0
 51
246.2808848231874
  0
LINE
  5
C89
330
1F
100
AcDbEntity
  8
cuerpo
100
AcDbLine
 10
3013.877313426522
 20
1710.818680336398
 30
0.0
 11
3012.310718259023
 21
1710.818680336398
 31
0.0
  0
ARC
  5
C8A
330
1F
100
AcDbEntity
  8
cuerpo
100
AcDbCircle
 10
3013.285377961423
 20
1708.951725942398
 30
0.0
 40
1.09340191246167
100
AcDbArc
 50
156.9638360195965
 51
176.4996748824031
  0
ARC
  5
C8B
330
1F
100
AcDbEntity
  8
cuerpo
100
AcDbCircle
 10
3012.902653724023
 20
1708.951725942398
 30
0.0
 40
1.09340191246167
100
AcDbArc
 50
3.500325117596855
 51
23.03616398040342
  0
LINE
  5
C8C
330
1F
100
AcDbEntity
  8
cuerpo
100
AcDbLine
 10
3013.994015842723
 20
1708.818482725098
 30
0.0
 11
3013.994015842723
 21
1709.018482725098
 31
0.0
  0
LINE
  5
C8D
330
1F
100
AcDbEntity
  8
cuerpo
100
AcDbLine
 10
3012.194015842723
 20
1709.018482725098
 30
0.0
 11
3012.194015842723
 21
1708.818482725098
 31
0.0
  0
ARC
  5
C8E
330
1F
100
AcDbEntity
  8
cuerpo
100
AcDbCircle
 10
3013.958865633922
 20
1710.436121534998
 30
0.0
 40
0.0499999999999972
100
AcDbArc
 50
103.2238285993118
 51
180.0
  0
ARC
  5
C8F
330
1F
100
AcDbEntity
  8
cuerpo
100
AcDbCircle
 10
3012.229166051522
 20
1710.436121534998
 30
0.0
 40
0.0499999999999972
100
AcDbArc
 50
0.0
 51
76.77617140068814
  0
LINE
  5
C90
330
1F
100
AcDbEntity
  8
cuerpo
100
AcDbLine
 10
3013.908865633923
 20
1709.379587292098
 30
0.0
 11
3013.908865633923
 21
1710.436121534998
 31
0.0
  0
LINE
  5
C91
330
1F
100
AcDbEntity
  8
cuerpo
100
AcDbLine
 10
3012.279166051522
 20
1710.436121534998
 30
0.0
 11
3012.279166051522
 21
1709.379587292098
 31
0.0
  0
LINE
  5
C92
330
1F
100
AcDbEntity
  8
cuerpo
100
AcDbLine
 10
3013.869015842723
 20
1704.681936212238
 30
0.0
 11
3013.869015842723
 21
1708.818482725098
 31
0.0
  0
LINE
  5
C93
330
1F
100
AcDbEntity
  8
cuerpo
100
AcDbLine
 10
3012.319015842722
 20
1708.818482725098
 30
0.0
 11
3012.319015842722
 21
1704.085059941433
 31
0.0
  0
LINE
  5
C94
330
1F
100
AcDbEntity
  8
cuerpo
100
AcDbLine
 10
3013.748791900122
 20
1710.818680336398
 30
0.0
 11
3013.748791900122
 21
1710.829379929198
 31
0.0
  0
LINE
  5
C95
330
1F
100
AcDbEntity
  8
cuerpo
100
AcDbLine
 10
3012.439239785422
 20
1710.829379929198
 30
0.0
 11
3012.439239785422
 21
1710.818680336398
 31
0.0
  0
LINE
  5
C96
330
1F
100
AcDbEntity
  8
cuerpo
100
AcDbLine
 10
3011.894015842722
 20
1710.904379929198
 30
0.0
 11
3012.023919653322
 21
1710.829379929198
 31
0.0
  0
LINE
  5
C97
330
1F
100
AcDbEntity
  8
cuerpo
100
AcDbLine
 10
3014.164112032223
 20
1710.829379929198
 30
0.0
 11
3014.294015842722
 21
1710.904379929198
 31
0.0
  0
LINE
  5
C98
330
1F
100
AcDbEntity
  8
cuerpo
100
AcDbLine
 10
3014.294015842722
 20
1711.954379929198
 30
0.0
 11
3014.164112032223
 21
1712.029379929198
 31
0.0
  0
LINE
  5
C99
330
1F
100
AcDbEntity
  8
cuerpo
100
AcDbLine
 10
3012.023919653322
 20
1712.029379929198
 30
0.0
 11
3011.894015842722
 21
1711.954379929198
 31
0.0
  0
LINE
  5
C9A
330
1F
100
AcDbEntity
  8
cuerpo
100
AcDbLine
 10
3011.894015842722
 20
1711.954379929198
 30
0.0
 11
3011.894015842722
 21
1710.904379929198
 31
0.0
  0
LINE
  5
C9B
330
1F
100
AcDbEntity
  8
cuerpo
100
AcDbLine
 10
3014.294015842722
 20
1710.904379929198
 30
0.0
 11
3014.294015842722
 21
1711.954379929198
 31
0.0
  0
LINE
  5
C9C
330
1F
100
AcDbEntity
  8
cuerpo
100
AcDbLine
 10
3013.947427846423
 20
1710.484795727498
 30
0.0
 11
3012.240603839023
 21
1710.484795727498
 31
0.0
  0
LINE
  5
C9D
330
1F
100
AcDbEntity
  8
cuerpo
100
AcDbLine
 10
3013.994015842723
 20
1709.018482725098
 30
0.0
 11
3012.194015842723
 21
1709.018482725098
 31
0.0
  0
LINE
  5
C9E
330
1F
100
AcDbEntity
  8
cuerpo
100
AcDbLine
 10
3013.908865633923
 20
1709.379587292098
 30
0.0
 11
3012.279166051522
 21
1709.379587292098
 31
0.0
  0
LINE
  5
C9F
330
1F
100
AcDbEntity
  8
cuerpo
100
AcDbLine
 10
3013.994015842723
 20
1708.818482725098
 30
0.0
 11
3012.194015842723
 21
1708.818482725098
 31
0.0
  0
LINE
  5
CA0
330
1F
100
AcDbEntity
  8
cuerpo
100
AcDbLine
 10
3012.470901449722
 20
1709.486121534998
 30
0.0
 11
3012.470901449722
 21
1710.386121534998
 31
0.0
  0
LINE
  5
CA1
330
1F
100
AcDbEntity
  8
cuerpo
100
AcDbLine
 10
3012.286851304522
 20
1710.386121534998
 30
0.0
 11
3012.470901449722
 21
1710.386121534998
 31
0.0
  0
LINE
  5
CA2
330
1F
100
AcDbEntity
  8
cuerpo
100
AcDbLine
 10
3012.286851304522
 20
1710.386121534998
 30
0.0
 11
3012.286851304522
 21
1709.486121534998
 31
0.0
  0
LINE
  5
CA3
330
1F
100
AcDbEntity
  8
cuerpo
100
AcDbLine
 10
3012.286851304522
 20
1709.486121534998
 30
0.0
 11
3012.470901449722
 21
1709.486121534998
 31
0.0
  0
LINE
  5
CA4
330
1F
100
AcDbEntity
  8
cuerpo
100
AcDbLine
 10
3013.619095489522
 20
1709.486121534998
 30
0.0
 11
3013.619095489522
 21
1710.386121534998
 31
0.0
  0
LINE
  5
CA5
330
1F
100
AcDbEntity
  8
cuerpo
100
AcDbLine
 10
3013.205665251223
 20
1710.386121534998
 30
0.0
 11
3013.619095489522
 21
1710.386121534998
 31
0.0
  0
LINE
  5
CA6
330
1F
100
AcDbEntity
  8
cuerpo
100
AcDbLine
 10
3013.205665251223
 20
1710.386121534998
 30
0.0
 11
3013.205665251223
 21
1709.486121534998
 31
0.0
  0
LINE
  5
CA7
330
1F
100
AcDbEntity
  8
cuerpo
100
AcDbLine
 10
3013.205665251223
 20
1709.486121534998
 30
0.0
 11
3013.619095489522
 21
1709.486121534998
 31
0.0
  0
LINE
  5
CA8
330
1F
100
AcDbEntity
  8
cuerpo
100
AcDbLine
 10
3013.905911634422
 20
1709.486121534998
 30
0.0
 11
3013.905911634422
 21
1710.386121534998
 31
0.0
  0
LINE
  5
CA9
330
1F
100
AcDbEntity
  8
cuerpo
100
AcDbLine
 10
3013.743715415122
 20
1710.386121534998
 30
0.0
 11
3013.905911634422
 21
1710.386121534998
 31
0.0
  0
LINE
  5
CAA
330
1F
100
AcDbEntity
  8
cuerpo
100
AcDbLine
 10
3013.743715415122
 20
1710.386121534998
 30
0.0
 11
3013.743715415122
 21
1709.486121534998
 31
0.0
  0
LINE
  5
CAB
330
1F
100
AcDbEntity
  8
cuerpo
100
AcDbLine
 10
3013.743715415122
 20
1709.486121534998
 30
0.0
 11
3013.905911634422
 21
1709.486121534998
 31
0.0
  0
LINE
  5
CAC
330
1F
100
AcDbEntity
  8
cuerpo
100
AcDbLine
 10
3013.024694808923
 20
1709.486121534998
 30
0.0
 11
3013.024694808923
 21
1710.386121534998
 31
0.0
  0
LINE
  5
CAD
330
1F
100
AcDbEntity
  8
cuerpo
100
AcDbLine
 10
3012.602212378022
 20
1710.386121534998
 30
0.0
 11
3013.024694808923
 21
1710.386121534998
 31
0.0
  0
LINE
  5
CAE
330
1F
100
AcDbEntity
  8
cuerpo
100
AcDbLine
 10
3012.602212378022
 20
1710.386121534998
 30
0.0
 11
3012.602212378022
 21
1709.486121534998
 31
0.0
  0
LINE
  5
CAF
330
1F
100
AcDbEntity
  8
cuerpo
100
AcDbLine
 10
3012.602212378022
 20
1709.486121534998
 30
0.0
 11
3013.024694808923
 21
1709.486121534998
 31
0.0
  0
LINE
  5
CB0
330
1F
100
AcDbEntity
  8
cuerpo
100
AcDbLine
 10
3012.614432690423
 20
1710.904379929198
 30
0.0
 11
3012.381179474723
 21
1710.904379929198
 31
0.0
  0
LINE
  5
CB1
330
1F
100
AcDbEntity
  8
cuerpo
100
AcDbLine
 10
3012.381179474723
 20
1710.904379929198
 30
0.0
 11
3012.381179474723
 21
1711.954379929198
 31
0.0
  0
LINE
  5
CB2
330
1F
100
AcDbEntity
  8
cuerpo
100
AcDbLine
 10
3012.614432690423
 20
1711.954379929198
 30
0.0
 11
3012.381179474723
 21
1711.954379929198
 31
0.0
  0
LINE
  5
CB3
330
1F
100
AcDbEntity
  8
cuerpo
100
AcDbLine
 10
3012.614432690423
 20
1711.954379929198
 30
0.0
 11
3012.614432690423
 21
1710.904379929198
 31
0.0
  0
LINE
  5
CB4
330
1F
100
AcDbEntity
  8
cuerpo
100
AcDbLine
 10
3011.901596322422
 20
1710.904379929198
 30
0.0
 11
3011.894015842722
 21
1710.904379929198
 31
0.0
  0
SPLINE
  5
CB5
330
1F
100
AcDbEntity
  8
cuerpo
100
AcDbSpline
210
0.0
220
0.0
230
1.0
 70
     8
 71
     3
 72
    10
 73
     6
 74
     0
 42
0.00000001
 43
0.0000000001
 40
0.0
 40
0.0
 40
0.0
 40
0.0
 40
0.3331578647734297
 40
0.6744288287556214
 40
1.0
 40
1.0
 40
1.0
 40
1.0
 10
3011.90159632242
 20
1710.904379929191
 30
0.0
 10
3011.954404764976
 20
1710.884009001858
 30
0.0
 10
3012.061307647446
 20
1710.842771071991
 30
0.0
 10
3012.223915881519
 20
1710.843459781211
 30
0.0
 10
3012.329587570543
 20
1710.884394461644
 30
0.0
 10
3012.381179474751
 20
1710.904379929191
 30
0.0
  0
SPLINE
  5
CB6
330
1F
100
AcDbEntity
  8
cuerpo
100
AcDbSpline
210
0.0
220
0.0
230
1.0
 70
     8
 71
     3
 72
     9
 73
     5
 74
     0
 42
0.00000001
 43
0.0000000001
 40
0.0
 40
0.0
 40
0.0
 40
0.0
 40
0.5120854705613059
 40
1.0
 40
1.0
 40
1.0
 40
1.0
 10
3012.614432690417
 20
1710.904379929191
 30
0.0
 10
3012.778243063426
 20
1710.875054169218
 30
0.0
 10
3013.098131797683
 20
1710.817786854172
 30
0.0
 10
3013.417684559613
 20
1710.875984467883
 30
0.0
 10
3013.57359899508
 20
1710.904379929191
 30
0.0
  0
LINE
  5
CB7
330
1F
100
AcDbEntity
  8
cuerpo
100
AcDbLine
 10
3013.806852210723
 20
1710.904379929198
 30
0.0
 11
3013.573598995122
 21
1710.904379929198
 31
0.0
  0
SPLINE
  5
CB8
330
1F
100
AcDbEntity
  8
cuerpo
100
AcDbSpline
210
0.0
220
0.0
230
1.0
 70
     8
 71
     3
 72
    10
 73
     6
 74
     0
 42
0.00000001
 43
0.0000000001
 40
0.0
 40
0.0
 40
0.0
 40
0.0
 40
0.3331578647734363
 40
0.6744288287556356
 40
1.0
 40
1.0
 40
1.0
 40
1.0
 10
3013.806852210746
 20
1710.904379929191
 30
0.0
 10
3013.859660653302
 20
1710.884009001858
 30
0.0
 10
3013.966563535772
 20
1710.842771071991
 30
0.0
 10
3014.129171769845
 20
1710.843459781211
 30
0.0
 10
3014.234843458869
 20
1710.884394461644
 30
0.0
 10
3014.286435363077
 20
1710.904379929191
 30
0.0
  0
LINE
  5
CB9
330
1F
100
AcDbEntity
  8
cuerpo
100
AcDbLine
 10
3014.294015842722
 20
1710.904379929198
 30
0.0
 11
3014.286435363122
 21
1710.904379929198
 31
0.0
  0
LINE
  5
CBA
330
1F
100
AcDbEntity
  8
cuerpo
100
AcDbLine
 10
3014.164112032223
 20
1710.829379929198
 30
0.0
 11
3012.023919653322
 21
1710.829379929198
 31
0.0
  0
LINE
  5
CBB
330
1F
100
AcDbEntity
  8
cuerpo
100
AcDbLine
 10
3013.573598995122
 20
1710.904379929198
 30
0.0
 11
3013.573598995122
 21
1711.954379929198
 31
0.0
  0
LINE
  5
CBC
330
1F
100
AcDbEntity
  8
cuerpo
100
AcDbLine
 10
3013.806852210723
 20
1711.954379929198
 30
0.0
 11
3013.573598995122
 21
1711.954379929198
 31
0.0
  0
LINE
  5
CBD
330
1F
100
AcDbEntity
  8
cuerpo
100
AcDbLine
 10
3013.806852210723
 20
1711.954379929198
 30
0.0
 11
3013.806852210723
 21
1710.904379929198
 31
0.0
  0
LINE
  5
CBE
330
1F
100
AcDbEntity
  8
cuerpo
100
AcDbLine
 10
3014.294015842722
 20
1711.954379929198
 30
0.0
 11
3014.286435363122
 21
1711.954379929198
 31
0.0
  0
SPLINE
  5
CBF
330
1F
100
AcDbEntity
  8
cuerpo
100
AcDbSpline
210
0.0
220
0.0
230
1.0
 70
     8
 71
     3
 72
    10
 73
     6
 74
     0
 42
0.00000001
 43
0.0000000001
 40
0.0
 40
0.0
 40
0.0
 40
0.0
 40
0.3331578647734263
 40
0.6744288287556142
 40
1.0
 40
1.0
 40
1.0
 40
1.0
 10
3014.286435363077
 20
1711.954379929191
 30
0.0
 10
3014.233626920521
 20
1711.974750856524
 30
0.0
 10
3014.126724038051
 20
1712.015988786391
 30
0.0
 10
3013.964115803978
 20
1712.015300077171
 30
0.0
 10
3013.858444114954
 20
1711.974365396739
 30
0.0
 10
3013.806852210746
 20
1711.954379929191
 30
0.0
  0
SPLINE
  5
CC0
330
1F
100
AcDbEntity
  8
cuerpo
100
AcDbSpline
210
0.0
220
0.0
230
1.0
 70
     8
 71
     3
 72
     9
 73
     5
 74
     0
 42
0.00000001
 43
0.0000000001
 40
0.0
 40
0.0
 40
0.0
 40
0.0
 40
0.5120854705613148
 40
1.0
 40
1.0
 40
1.0
 40
1.0
 10
3013.57359899508
 20
1711.954379929191
 30
0.0
 10
3013.409788622071
 20
1711.983705689164
 30
0.0
 10
3013.089899887814
 20
1712.04097300421
 30
0.0
 10
3012.770347125885
 20
1711.982775390499
 30
0.0
 10
3012.614432690417
 20
1711.954379929191
 30
0.0
  0
SPLINE
  5
CC1
330
1F
100
AcDbEntity
  8
cuerpo
100
AcDbSpline
210
0.0
220
0.0
230
1.0
 70
     8
 71
     3
 72
    10
 73
     6
 74
     0
 42
0.00000001
 43
0.0000000001
 40
0.0
 40
0.0
 40
0.0
 40
0.0
 40
0.3331578647734387
 40
0.6744288287556394
 40
1.0
 40
1.0
 40
1.0
 40
1.0
 10
3012.381179474751
 20
1711.954379929191
 30
0.0
 10
3012.328371032195
 20
1711.974750856524
 30
0.0
 10
3012.221468149725
 20
1712.015988786391
 30
0.0
 10
3012.058859915653
 20
1712.015300077171
 30
0.0
 10
3011.953188226629
 20
1711.974365396739
 30
0.0
 10
3011.90159632242
 20
1711.954379929191
 30
0.0
  0
LINE
  5
CC2
330
1F
100
AcDbEntity
  8
cuerpo
100
AcDbLine
 10
3011.901596322422
 20
1711.954379929198
 30
0.0
 11
3011.894015842722
 21
1711.954379929198
 31
0.0
  0
LINE
  5
CC3
330
1F
100
AcDbEntity
  8
cuerpo
100
AcDbLine
 10
3014.164112032223
 20
1712.029379929198
 30
0.0
 11
3012.023919653322
 21
1712.029379929198
 31
0.0
  0
LINE
  5
CC4
330
1F
100
AcDbEntity
  8
cuerpo
100
AcDbLine
 10
3014.286435363122
 20
1710.904379929198
 30
0.0
 11
3014.286435363122
 21
1711.954379929198
 31
0.0
  0
LINE
  5
CC5
330
1F
100
AcDbEntity
  8
cuerpo
100
AcDbLine
 10
3011.901596322422
 20
1711.954379929198
 30
0.0
 11
3011.901596322422
 21
1710.904379929198
 31
0.0
  0
LINE
  5
CC6
330
1F
100
AcDbEntity
  8
cuerpo
100
AcDbLine
 10
3013.908865633923
 20
1710.436121534998
 30
0.0
 11
3012.279166051522
 21
1710.436121534998
 31
0.0
  0
DIMENSION
  5
D53
330
1F
100
AcDbEntity
  8
COTAS
100
AcDbDimension
  2
*D31
 10
3014.286435363022
 20
1702.032922276861
 30
0.0
 11
3019.224975608588
 21
1702.032922276861
 31
0.0
 70
    32
  1
G1/2"
 71
     5
 42
23.92419520299882
 73
     0
 74
     0
 75
     0
  3
RS (E1.10)
100
AcDbAlignedDimension
 13
3011.894015842722
 23
1711.412221834206
 33
0.0
 14
3014.286435363022
 24
1711.412221834206
 34
0.0
100
AcDbRotatedDimension
  0
DIMENSION
  5
D54
330
1F
100
AcDbEntity
  8
COTAS
100
AcDbDimension
  2
*D32
 10
3017.813854883423
 20
1710.45578691085
 30
0.0
 11
3022.752395128988
 21
1710.45578691085
 31
0.0
 70
   160
  1
G1/2"
 71
     5
 42
23.92419520399926
 73
     0
 74
     0
 75
     0
  3
RS (E1.10)
100
AcDbAlignedDimension
 13
3015.421435363022
 23
1711.487221834206
 33
0.0
 14
3017.813854883423
 24
1711.487221834206
 34
0.0
100
AcDbRotatedDimension
  0
VIEWPORT
  5
8FD
102
{ACAD_XDICTIONARY
360
8FE
102
}
330
D2
100
AcDbEntity
 67
     1
  8
0
100
AcDbViewport
 10
128.5
 20
97.50000000000003
 30
0.0
 40
309.2151343943237
 41
157.1421174790825
 68
     2
 69
     1
 12
128.5
 22
97.50000000000003
 13
0.0
 23
0.0
 14
10.0
 24
10.0
 15
10.0
 25
10.0
 16
0.0
 26
0.0
 36
1.0
 17
0.0
 27
0.0
 37
0.0
 42
50.0
 43
0.0
 44
0.0
 45
157.1421174790825
 50
0.0
 51
0.0
 72
  1000
 90
   819232
  1

281
     0
 71
     1
 74
     0
110
0.0
120
0.0
130
0.0
111
1.0
121
0.0
131
0.0
112
0.0
122
1.0
132
0.0
 79
     0
146
0.0
170
     0
 61
     5
348
F5
292
     1
282
     1
141
0.0
142
0.0
 63
   250
421
  3355443
  0
VIEWPORT
  5
901
102
{ACAD_XDICTIONARY
360
902
102
}
330
D2
100
AcDbEntity
 67
     1
  8
0
100
AcDbViewport
 10
128.5
 20
97.5
 30
0.0
 40
205.6
 41
156.0
 68
     1
 69
     2
 12
3014.147049980111
 22
1714.688929172024
 13
0.0
 23
0.0
 14
10.0
 24
10.0
 15
10.0
 25
10.0
 16
0.0
 26
0.0
 36
1.0
 17
0.0
 27
0.0
 37
0.0
 42
50.0
 43
0.0
 44
0.0
 45
47.67849810478624
 50
0.0
 51
0.0
 72
  1000
 90
   819296
  1

281
     0
 71
     1
 74
     0
110
0.0
120
0.0
130
0.0
111
1.0
121
0.0
131
0.0
112
0.0
122
1.0
132
0.0
 79
     0
146
0.0
170
     0
 61
     5
348
F5
292
     1
282
     1
141
0.0
142
0.0
 63
   250
421
  3355443
  0
ENDSEC
  0
SECTION
  2
OBJECTS
  0
DICTIONARY
  5
C
330
0
100
AcDbDictionary
281
     1
  3
ACAD_CIP_PREVIOUS_PRODUCT_INFO
350
216
  3
ACAD_COLOR
350
6B
  3
ACAD_DETAILVIEWSTYLE
350
21B
  3
ACAD_GROUP
350
D
  3
ACAD_LAYOUT
350
1A
  3
ACAD_MATERIAL
350
6A
  3
ACAD_MLEADERSTYLE
350
12D
  3
ACAD_MLINESTYLE
350
17
  3
ACAD_PLOTSETTINGS
350
19
  3
ACAD_PLOTSTYLENAME
350
E
  3
ACAD_SCALELIST
350
10C
  3
ACAD_SECTIONVIEWSTYLE
350
219
  3
ACAD_TABLESTYLE
350
7E
  3
ACAD_VISUALSTYLE
350
EF
  3
ACDB_RECOMPOSE_DATA
350
E31
  3
AcDbVariableDictionary
350
5E
  3
AcDsDecomposeData
350
E37
  0
DICTIONARY
  5
1FF
330
2
100
AcDbDictionary
280
     1
281
     1
  3
ACAD_LAYERSTATES
360
200
  0
DICTIONARY
  5
13C
330
10
100
AcDbDictionary
280
     1
281
     1
  0
DICTIONARY
  5
302
330
301
100
AcDbDictionary
280
     1
281
     1
  0
DICTIONARY
  5
305
330
304
100
AcDbDictionary
280
     1
281
     1
  0
DICTIONARY
  5
1CE
330
1F
100
AcDbDictionary
280
     1
281
     1
  0
DICTIONARY
  5
8FE
330
8FD
100
AcDbDictionary
280
     1
281
     1
  3
ASDK_XREC_ANNOTATION_SCALE_INFO
360
8FF
  0
DICTIONARY
  5
902
330
901
100
AcDbDictionary
280
     1
281
     1
  3
ASDK_XREC_ANNOTATION_SCALE_INFO
360
903
  0
XRECORD
  5
216
102
{ACAD_REACTORS
330
C
102
}
330
C
100
AcDbXrecord
280
     1
300
ACD
300
2020
300
87224ACD_2020_0F
  0
DICTIONARY
  5
6B
102
{ACAD_REACTORS
330
C
102
}
330
C
100
AcDbDictionary
281
     1
  0
DICTIONARY
  5
21B
102
{ACAD_REACTORS
330
C
102
}
330
C
100
AcDbDictionary
281
     1
  3
Metric50
350
21C
  0
DICTIONARY
  5
D
102
{ACAD_REACTORS
330
C
102
}
330
C
100
AcDbDictionary
281
     1
  0
DICTIONARY
  5
1A
102
{ACAD_REACTORS
330
C
102
}
330
C
100
AcDbDictionary
281
     1
  3
Model
350
22
  3
Presentación1
350
D3
  3
Presentación2
350
D7
  0
DICTIONARY
  5
6A
102
{ACAD_REACTORS
330
C
102
}
330
C
100
AcDbDictionary
281
     1
  3
ByBlock
350
ED
  3
ByLayer
350
EC
  3
Global
350
EE
  0
DICTIONARY
  5
12D
102
{ACAD_REACTORS
330
C
102
}
330
C
100
AcDbDictionary
281
     1
  3
Anotativo
350
13B
  3
Standard
350
12E
  0
DICTIONARY
  5
17
102
{ACAD_REACTORS
330
C
102
}
330
C
100
AcDbDictionary
281
     1
  3
Standard
350
18
  0
DICTIONARY
  5
19
102
{ACAD_REACTORS
330
C
102
}
330
C
100
AcDbDictionary
281
     1
  0
ACDBDICTIONARYWDFLT
  5
E
102
{ACAD_REACTORS
330
C
102
}
330
C
100
AcDbDictionary
281
     1
  3
Normal
350
F
100
AcDbDictionaryWithDefault
340
F
  0
DICTIONARY
  5
10C
102
{ACAD_REACTORS
330
C
102
}
330
C
100
AcDbDictionary
281
     1
  3
A0
350
10D
  3
A1
350
1BE
  3
A2
350
1BF
  3
A3
350
1C0
  3
A4
350
1C1
  3
A5
350
1C2
  3
A6
350
1C3
  3
A7
350
1C4
  3
A8
350
1C5
  3
A9
350
1C6
  3
B0
350
1C7
  3
B1
350
1C8
  3
B2
350
1C9
  3
B3
350
1CA
  3
B4
350
1CB
  3
B5
350
1CC
  3
B6
350
1CD
  0
DICTIONARY
  5
219
102
{ACAD_REACTORS
330
C
102
}
330
C
100
AcDbDictionary
281
     1
  3
Metric50
350
21A
  0
DICTIONARY
  5
7E
102
{ACAD_REACTORS
330
C
102
}
330
C
100
AcDbDictionary
281
     1
  3
Standard
350
7F
  0
DICTIONARY
  5
EF
102
{ACAD_REACTORS
330
C
102
}
330
C
100
AcDbDictionary
281
     1
  3
2dWireframe
350
F5
  3
Basic
350
F4
  3
Brighten
350
FB
  3
ColorChange
350
FF
  3
Conceptual
350
F8
  3
Dim
350
FA
  3
EdgeColorOff
350
1E6
  3
Facepattern
350
FE
  3
Flat
350
F0
  3
FlatWithEdges
350
F1
  3
Gouraud
350
F2
  3
GouraudWithEdges
350
F3
  3
Hidden
350
F7
  3
JitterOff
350
1E4
  3
Linepattern
350
FD
  3
OverhangOff
350
1E5
  3
Realistic
350
F9
  3
Shaded
350
1F3
  3
Shaded with edges
350
1F2
  3
Shades of Gray
350
1EF
  3
Sketchy
350
1F0
  3
Thicken
350
FC
  3
Wireframe
350
F6
  3
X-Ray
350
1F1
  0
XRECORD
  5
E31
102
{ACAD_REACTORS
330
C
102
}
330
C
100
AcDbXrecord
280
     1
 90
        1
330
7F
330
753
  0
DICTIONARY
  5
5E
102
{ACAD_REACTORS
330
C
102
}
330
C
100
AcDbDictionary
281
     1
  3
CANNOSCALE
350
146
  3
CENTEREXE
350
259
  3
CENTERLTYPEFILE
350
25A
  3
CMLEADERSTYLE
350
145
  3
CTABLESTYLE
350
84
  3
CVIEWDETAILSTYLE
350
227
  3
CVIEWSECTIONSTYLE
350
228
  3
DIMASSOC
350
5F
  3
HIDETEXT
350
63
  3
LAYEREVAL
350
1AE
  3
LAYERNOTIFY
350
1AF
  3
XCLIPFRAME
350
8B5
  0
DICTIONARY
  5
E37
102
{ACAD_REACTORS
330
C
102
}
330
C
100
AcDbDictionary
281
     1
  3
AcDsRecords
350
E39
  3
AcDsSchemas
350
E38
1001
ACAD
1070
     2
  0
DICTIONARY
  5
200
102
{ACAD_REACTORS
330
1FF
102
}
330
1FF
100
AcDbDictionary
281
     1
  0
XRECORD
  5
8FF
102
{ACAD_REACTORS
330
8FE
102
}
330
8FE
100
AcDbXrecord
280
     1
 90
        1
340
10D
  0
XRECORD
  5
903
102
{ACAD_REACTORS
330
902
102
}
330
902
100
AcDbXrecord
280
     1
 90
        1
340
10D
  0
ACDBDETAILVIEWSTYLE
  5
21C
102
{ACAD_XDICTIONARY
360
E6C
102
}
102
{ACAD_REACTORS
330
21B
102
}
330
21B
100
AcDbModelDocViewStyle
 70
     0
  3
Metric50
290
     0
100
AcDbDetailViewStyle
 70
     0
 71
     0
 90
        3
 71
     1
340
11
 62
   256
 40
5.0
340
0
 62
   256
 40
5.0
300

 40
0.0
280
     1
 71
     2
340
16
 90
       25
 62
   256
 71
     3
340
11
 62
   256
 40
5.0
 90
        0
 40
15.0
 90
        1
300
%<\AcVar ViewDetailId>% (%<\AcVar ViewScale \f "%sn">%)
 71
     4
340
16
 90
       25
 62
   256
340
16
 90
       25
 62
   256
280
     0
  0
LAYOUT
  5
22
102
{ACAD_XDICTIONARY
360
205
102
}
102
{ACAD_REACTORS
330
1A
102
}
330
1A
100
AcDbPlotSettings
  1

  2
none_device
  4
ISO_A4_(210.00_x_297.00_MM)
  6

 40
7.5
 41
20.0
 42
7.5
 43
20.0
 44
210.0
 45
297.0
 46
11.54999923706054
 47
-13.65000009536743
 48
0.0
 49
0.0
140
0.0
141
0.0
142
1.0
143
8.704084754739808
 70
 11952
 72
     1
 73
     0
 74
     0
  7

 75
     0
147
0.1148885871608098
 76
     0
 77
     2
 78
   300
148
0.0
149
0.0
100
AcDbLayout
  1
Model
 70
     1
 71
     0
 10
0.0
 20
0.0
 11
12.0
 21
9.0
 12
0.0
 22
0.0
 32
0.0
 14
0.0
 24
0.0
 34
0.0
 15
0.0
 25
0.0
 35
0.0
146
0.0
 13
0.0
 23
0.0
 33
0.0
 16
1.0
 26
0.0
 36
0.0
 17
0.0
 27
1.0
 37
0.0
 76
     0
330
1F
331
EA
1001
ACAD_PSEXT
1000
None
1000
None
1000
Not applicable
1000
The layout will not be plotted unless a new plotter configuration name is selected.
1070
     0
  0
LAYOUT
  5
D3
102
{ACAD_REACTORS
330
1A
102
}
330
1A
100
AcDbPlotSettings
  1

  2
Ninguno
  4
ISO_A4_(210.00_x_297.00_MM)
  6

 40
7.5
 41
20.0
 42
7.5
 43
20.0
 44
210.0
 45
297.0
 46
0.0
 47
0.0
 48
0.0
 49
0.0
140
0.0
141
0.0
142
1.0
143
1.0
 70
   688
 72
     1
 73
     1
 74
     5
  7

 75
    16
147
1.0
 76
     0
 77
     2
 78
   300
148
0.0
149
0.0
100
AcDbLayout
  1
Presentación1
 70
     1
 71
     1
 10
-20.0
 20
-7.5
 11
277.0
 21
202.5
 12
0.0
 22
0.0
 32
0.0
 14
25.69999999999999
 24
19.5
 34
0.0
 15
231.3
 25
175.5
 35
0.0
146
0.0
 13
0.0
 23
0.0
 33
0.0
 16
1.0
 26
0.0
 36
0.0
 17
0.0
 27
1.0
 37
0.0
 76
     0
330
D2
331
901
1001
ACAD_PSEXT
1000
Ninguno
1000
Ninguno
1000
No aplicable
1000
La presentación no se trazará a menos que se seleccione un nuevo nombre de configuración de trazador.
1070
     0
  0
LAYOUT
  5
D7
102
{ACAD_REACTORS
330
1A
102
}
330
1A
100
AcDbPlotSettings
  1

  2
C:\Documents and Settings\basas\Application Data\Autodesk\AutoCAD 2005\R16.1\enu\plotters\Default Windows System Printer.pc3
  4

  6

 40
0.0
 41
0.0
 42
0.0
 43
0.0
 44
0.0
 45
0.0
 46
0.0
 47
0.0
 48
0.0
 49
0.0
140
0.0
141
0.0
142
1.0
143
1.0
 70
   688
 72
     0
 73
     0
 74
     5
  7

 75
    16
147
1.0
 76
     0
 77
     2
 78
   300
148
0.0
149
0.0
100
AcDbLayout
  1
Presentación2
 70
     1
 71
     2
 10
0.0
 20
0.0
 11
12.0
 21
9.0
 12
0.0
 22
0.0
 32
0.0
 14
0.0
 24
0.0
 34
0.0
 15
0.0
 25
0.0
 35
0.0
146
0.0
 13
0.0
 23
0.0
 33
0.0
 16
1.0
 26
0.0
 36
0.0
 17
0.0
 27
1.0
 37
0.0
 76
     0
330
D6
  0
MATERIAL
  5
ED
102
{ACAD_XDICTIONARY
360
1F9
102
}
102
{ACAD_REACTORS
330
6A
102
}
330
6A
100
AcDbMaterial
  1
ByBlock
 94
       63
  0
MATERIAL
  5
EC
102
{ACAD_XDICTIONARY
360
1F7
102
}
102
{ACAD_REACTORS
330
6A
102
}
330
6A
100
AcDbMaterial
  1
ByLayer
 94
       63
  0
MATERIAL
  5
EE
102
{ACAD_XDICTIONARY
360
173
102
}
102
{ACAD_REACTORS
330
6A
102
}
330
6A
100
AcDbMaterial
  1
Global
 43
0.0007999999797903
 43
0.0
 43
0.0
 43
0.0
 43
0.0
 43
0.0007999999797903
 43
0.0
 43
0.0
 43
0.0
 43
0.0
 43
1.0
 43
0.0
 43
0.0
 43
0.0
 43
0.0
 43
1.0
 49
0.0007999999797903
 49
0.0
 49
0.0
 49
0.0
 49
0.0
 49
0.0007999999797903
 49
0.0
 49
0.0
 49
0.0
 49
0.0
 49
1.0
 49
0.0
 49
0.0
 49
0.0
 49
0.0
 49
1.0
142
0.0007999999797903
142
0.0
142
0.0
142
0.0
142
0.0
142
0.0007999999797903
142
0.0
142
0.0
142
0.0
142
0.0
142
1.0
142
0.0
142
0.0
142
0.0
142
0.0
142
1.0
144
0.0007999999797903
144
0.0
144
0.0
144
0.0
144
0.0
144
0.0007999999797903
144
0.0
144
0.0
144
0.0
144
0.0
144
1.0
144
0.0
144
0.0
144
0.0
144
0.0
144
1.0
 94
       63
1001
ACAD
1070
    -1
1070
     3
1070
     0
1000

1071
        0
1070
     0
  0
MLEADERSTYLE
  5
13B
102
{ACAD_REACTORS
330
12D
102
}
330
12D
100
AcDbMLeaderStyle
170
     2
171
     1
172
     0
 90
        2
 40
0.0
 41
0.0
173
     1
 91
-1056964608
340
14
 92
       -2
290
     1
 42
2.0
291
     1
 43
8.0
  3
Standard
 44
4.0
300

342
11
174
     1
178
     1
175
     1
176
     0
 93
-1056964608
 45
4.0
292
     0
297
     0
 46
4.0
 94
-1056964608
 47
1.0
 49
1.0
140
1.0
293
     1
141
0.0
294
     1
177
     0
142
1.0
295
     0
296
     1
143
3.75
1001
ACAD_MLEADERVER
1070
     2
  0
MLEADERSTYLE
  5
12E
102
{ACAD_REACTORS
330
12D
102
}
330
12D
100
AcDbMLeaderStyle
170
     2
171
     1
172
     0
 90
        2
 40
0.0
 41
0.0
173
     1
 91
-1056964608
340
14
 92
       -2
290
     1
 42
2.0
291
     1
 43
8.0
  3
Standard
 44
4.0
300

342
11
174
     1
178
     1
175
     1
176
     0
 93
-1056964608
 45
4.0
292
     0
297
     0
 46
4.0
 94
-1056964608
 47
1.0
 49
1.0
140
1.0
293
     1
141
0.0
294
     1
177
     0
142
1.0
295
     0
296
     0
143
3.75
1001
ACAD_MLEADERVER
1070
     2
  0
MLINESTYLE
  5
18
102
{ACAD_REACTORS
330
17
102
}
330
17
100
AcDbMlineStyle
  2
STANDARD
 70
     0
  3

 62
   256
 51
90.0
 52
90.0
 71
     2
 49
0.5
 62
   256
  6
BYLAYER
 49
-0.5
 62
   256
  6
BYLAYER
  0
ACDBPLACEHOLDER
  5
F
102
{ACAD_REACTORS
330
E
102
}
330
E
  0
SCALE
  5
10D
102
{ACAD_REACTORS
330
10C
102
}
330
10C
100
AcDbScale
 70
     0
300
1:1
140
1.0
141
1.0
290
     1
  0
SCALE
  5
1BE
102
{ACAD_REACTORS
330
10C
102
}
330
10C
100
AcDbScale
 70
     0
300
1:2
140
1.0
141
2.0
290
     0
  0
SCALE
  5
1BF
102
{ACAD_REACTORS
330
10C
102
}
330
10C
100
AcDbScale
 70
     0
300
1:4
140
1.0
141
4.0
290
     0
  0
SCALE
  5
1C0
102
{ACAD_REACTORS
330
10C
102
}
330
10C
100
AcDbScale
 70
     0
300
1:5
140
1.0
141
5.0
290
     0
  0
SCALE
  5
1C1
102
{ACAD_REACTORS
330
10C
102
}
330
10C
100
AcDbScale
 70
     0
300
1:8
140
1.0
141
8.0
290
     0
  0
SCALE
  5
1C2
102
{ACAD_REACTORS
330
10C
102
}
330
10C
100
AcDbScale
 70
     0
300
1:10
140
1.0
141
10.0
290
     0
  0
SCALE
  5
1C3
102
{ACAD_REACTORS
330
10C
102
}
330
10C
100
AcDbScale
 70
     0
300
1:16
140
1.0
141
16.0
290
     0
  0
SCALE
  5
1C4
102
{ACAD_REACTORS
330
10C
102
}
330
10C
100
AcDbScale
 70
     0
300
1:20
140
1.0
141
20.0
290
     0
  0
SCALE
  5
1C5
102
{ACAD_REACTORS
330
10C
102
}
330
10C
100
AcDbScale
 70
     0
300
1:30
140
1.0
141
30.0
290
     0
  0
SCALE
  5
1C6
102
{ACAD_REACTORS
330
10C
102
}
330
10C
100
AcDbScale
 70
     0
300
1:40
140
1.0
141
40.0
290
     0
  0
SCALE
  5
1C7
102
{ACAD_REACTORS
330
10C
102
}
330
10C
100
AcDbScale
 70
     0
300
1:50
140
1.0
141
50.0
290
     0
  0
SCALE
  5
1C8
102
{ACAD_REACTORS
330
10C
102
}
330
10C
100
AcDbScale
 70
     0
300
1:100
140
1.0
141
100.0
290
     0
  0
SCALE
  5
1C9
102
{ACAD_REACTORS
330
10C
102
}
330
10C
100
AcDbScale
 70
     0
300
2:1
140
2.0
141
1.0
290
     0
  0
SCALE
  5
1CA
102
{ACAD_REACTORS
330
10C
102
}
330
10C
100
AcDbScale
 70
     0
300
4:1
140
4.0
141
1.0
290
     0
  0
SCALE
  5
1CB
102
{ACAD_REACTORS
330
10C
102
}
330
10C
100
AcDbScale
 70
     0
300
8:1
140
8.0
141
1.0
290
     0
  0
SCALE
  5
1CC
102
{ACAD_REACTORS
330
10C
102
}
330
10C
100
AcDbScale
 70
     0
300
10:1
140
10.0
141
1.0
290
     0
  0
SCALE
  5
1CD
102
{ACAD_REACTORS
330
10C
102
}
330
10C
100
AcDbScale
 70
     0
300
100:1
140
100.0
141
1.0
290
     0
  0
ACDBSECTIONVIEWSTYLE
  5
21A
102
{ACAD_XDICTIONARY
360
E6A
102
}
102
{ACAD_REACTORS
330
219
102
}
330
219
100
AcDbModelDocViewStyle
 70
     0
  3
Metric50
290
     0
100
AcDbSectionViewStyle
 70
     0
 71
     0
 90
      102
 71
     1
340
11
 62
   256
 40
5.0
340
0
340
0
 62
   256
 40
5.0
300
I, O, Q, S, X, Z
 40
10.0
 90
        0
 40
2.5
 90
        0
 71
     2
340
16
 90
       25
 62
   256
340
16
 90
       50
 62
   256
 40
5.0
 40
2.5
 40
5.0
 71
     3
340
11
 62
   256
 40
5.0
 90
        0
 40
15.0
 90
        1
300
%<\AcVar ViewSectionStartId>%-%<\AcVar ViewSectionEndId>% (%<\AcVar ViewScale \f "%sn">%)
 71
     4
 62
   256
 62
   257
300
ANSI31
 40
1.0
 90
        0
290
     0
290
     0
 90
        6
 40
0.0
 40
1.570796326794896
 40
0.2617993877991494
 40
1.308996938995747
 40
-0.2617993877991494
 40
1.832595714594046
  0
TABLESTYLE
  5
7F
102
{ACAD_XDICTIONARY
360
162
102
}
102
{ACAD_REACTORS
330
7E
102
}
330
7E
100
AcDbTableStyle
  3
Standard
 70
     0
 71
     0
 40
1.5
 41
1.5
280
     0
281
     0
  7
Standard
140
4.5
170
     2
 62
     0
 63
     7
283
     0
 90
      512
 91
        0
  1

274
    -2
284
     1
 64
     0
275
    -2
285
     1
 65
     0
276
    -2
286
     1
 66
     0
277
    -2
287
     1
 67
     0
278
    -2
288
     1
 68
     0
279
    -2
289
     1
 69
     0
  7
Standard
140
6.0
170
     5
 62
     0
 63
     7
283
     0
 90
      512
 91
        0
  1

274
    -2
284
     1
 64
     0
275
    -2
285
     1
 65
     0
276
    -2
286
     1
 66
     0
277
    -2
287
     1
 67
     0
278
    -2
288
     1
 68
     0
279
    -2
289
     1
 69
     0
  7
Standard
140
4.5
170
     5
 62
     0
 63
     7
283
     0
 90
      512
 91
        0
  1

274
    -2
284
     1
 64
     0
275
    -2
285
     1
 65
     0
276
    -2
286
     1
 66
     0
277
    -2
287
     1
 67
     0
278
    -2
288
     1
 68
     0
279
    -2
289
     1
 69
     0
  0
VISUALSTYLE
  5
F5
102
{ACAD_XDICTIONARY
360
E44
102
}
102
{ACAD_REACTORS
330
EF
102
}
330
EF
100
AcDbVisualStyle
  2
2dWireframe
 70
     4
 71
     0
 72
     2
 73
     1
 90
        0
 40
-0.6
 41
-30.0
 62
     5
 63
     7
421
 16777215
 74
     1
 91
        4
 64
     7
 65
   257
 75
     1
175
     1
 42
1.0
 92
        0
 66
   257
 43
1.0
 76
     1
 77
     6
 78
     2
 67
     7
 79
     5
170
     0
171
     0
290
     0
174
     0
 93
        1
 44
0.0
173
     0
291
     0
 45
0.0
1001
ACAD
1000
AcDbSavedByObjectVersion
1070
     0
  0
VISUALSTYLE
  5
F4
102
{ACAD_XDICTIONARY
360
E42
102
}
102
{ACAD_REACTORS
330
EF
102
}
330
EF
100
AcDbVisualStyle
  2
Basic
 70
     7
 71
     1
 72
     0
 73
     1
 90
        0
 40
-0.6
 41
-30.0
 62
     5
 63
     7
421
 16777215
 74
     0
 91
        4
 64
     7
 65
   257
 75
     1
175
     1
 42
1.0
 92
        8
 66
     7
 43
1.0
 76
     1
 77
     6
 78
     2
 67
     7
 79
     5
170
     0
171
     0
290
     0
174
     0
 93
        1
 44
0.0
173
     0
291
     1
 45
0.0
1001
ACAD
1000
AcDbSavedByObjectVersion
1070
     0
  0
VISUALSTYLE
  5
FB
102
{ACAD_XDICTIONARY
360
E50
102
}
102
{ACAD_REACTORS
330
EF
102
}
330
EF
100
AcDbVisualStyle
  2
Brighten
 70
    12
 71
     2
 72
     2
 73
     1
 90
        0
 40
-0.6
 41
-30.0
 62
     5
 63
     7
421
 16777215
 74
     1
 91
        4
 64
     7
 65
   257
 75
     1
175
     1
 42
1.0
 92
        8
 66
     7
 43
1.0
 76
     1
 77
     6
 78
     2
 67
     7
 79
     5
170
     0
171
     0
290
     0
174
     0
 93
        1
 44
50.0
173
     0
291
     1
 45
0.0
1001
ACAD
1000
AcDbSavedByObjectVersion
1070
     0
  0
VISUALSTYLE
  5
FF
102
{ACAD_XDICTIONARY
360
E58
102
}
102
{ACAD_REACTORS
330
EF
102
}
330
EF
100
AcDbVisualStyle
  2
ColorChange
 70
    16
 71
     2
 72
     2
 73
     3
 90
        0
 40
-0.6
 41
-30.0
 62
     5
 63
     8
421
  8421504
 74
     1
 91
        4
 64
     7
 65
   257
 75
     1
175
     1
 42
1.0
 92
        8
 66
     8
424
  8421504
 43
1.0
 76
     1
 77
     6
 78
     2
 67
     7
 79
     5
170
     0
171
     0
290
     0
174
     0
 93
        1
 44
0.0
173
     0
291
     1
 45
0.0
1001
ACAD
1000
AcDbSavedByObjectVersion
1070
     0
  0
VISUALSTYLE
  5
F8
102
{ACAD_XDICTIONARY
360
E4A
102
}
102
{ACAD_REACTORS
330
EF
102
}
330
EF
100
AcDbVisualStyle
  2
Conceptual
 70
     9
 71
     3
 72
     2
 73
     1
 90
        0
 40
-0.6
 41
-30.0
 62
     5
 63
     7
421
 16777215
 74
     2
 91
        2
 64
     7
 65
   257
 75
     1
175
     1
 42
40.0
 92
        8
 66
     7
 43
1.0
 76
     1
 77
     6
 78
     2
 67
     7
 79
     3
170
     0
171
     0
290
     0
174
     0
 93
        1
 44
0.0
173
     0
291
     0
 45
0.0
1001
ACAD
1000
AcDbSavedByObjectVersion
1070
     0
  0
VISUALSTYLE
  5
FA
102
{ACAD_XDICTIONARY
360
E4E
102
}
102
{ACAD_REACTORS
330
EF
102
}
330
EF
100
AcDbVisualStyle
  2
Dim
 70
    11
 71
     2
 72
     2
 73
     1
 90
        0
 40
-0.6
 41
-30.0
 62
     5
 63
     7
421
 16777215
 74
     1
 91
        4
 64
     7
 65
   257
 75
     1
175
     1
 42
1.0
 92
        8
 66
     7
 43
1.0
 76
     1
 77
     6
 78
     2
 67
     7
 79
     5
170
     0
171
     0
290
     0
174
     0
 93
        1
 44
-50.0
173
     0
291
     1
 45
0.0
1001
ACAD
1000
AcDbSavedByObjectVersion
1070
     0
  0
VISUALSTYLE
  5
1E6
102
{ACAD_XDICTIONARY
360
E5E
102
}
102
{ACAD_REACTORS
330
EF
102
}
330
EF
100
AcDbVisualStyle
  2
EdgeColorOff
 70
    22
 71
     2
 72
     2
 73
     0
 90
        0
 40
-0.6
 41
-30.0
 62
     5
 63
     7
421
 16777215
 74
     1
 91
        4
 64
     7
 65
   257
 75
     1
175
     1
 42
1.0
 92
        8
 66
     7
 43
1.0
 76
     1
 77
     6
 78
     2
 67
     7
 79
     5
170
     0
171
     0
290
     0
174
     0
 93
        1
 44
0.0
173
     0
291
     1
 45
0.0
1001
ACAD
1000
AcDbSavedByObjectVersion
1070
     0
  0
VISUALSTYLE
  5
FE
102
{ACAD_XDICTIONARY
360
E56
102
}
102
{ACAD_REACTORS
330
EF
102
}
330
EF
100
AcDbVisualStyle
  2
Facepattern
 70
    15
 71
     2
 72
     2
 73
     1
 90
        0
 40
-0.6
 41
-30.0
 62
     5
 63
     7
421
 16777215
 74
     1
 91
        4
 64
     7
 65
   257
 75
     1
175
     1
 42
1.0
 92
        8
 66
     7
 43
1.0
 76
     1
 77
     6
 78
     2
 67
     7
 79
     5
170
     0
171
     0
290
     0
174
     0
 93
        1
 44
0.0
173
     0
291
     1
 45
0.0
1001
ACAD
1000
AcDbSavedByObjectVersion
1070
     0
  0
VISUALSTYLE
  5
F0
102
{ACAD_XDICTIONARY
360
E3A
102
}
102
{ACAD_REACTORS
330
EF
102
}
330
EF
100
AcDbVisualStyle
  2
Flat
 70
     0
 71
     2
 72
     1
 73
     1
 90
        2
 40
-0.6
 41
30.0
 62
     5
 63
     7
421
 16777215
 74
     0
 91
        0
 64
     7
 65
   257
 75
     1
175
     1
 42
1.0
 92
        8
 66
     7
 43
1.0
 76
     1
 77
     6
 78
     2
 67
     7
 79
     5
170
     0
171
     0
290
     0
174
     0
 93
       13
 44
0.0
173
     0
291
     1
 45
0.0
1001
ACAD
1000
AcDbSavedByObjectVersion
1070
     0
  0
VISUALSTYLE
  5
F1
102
{ACAD_XDICTIONARY
360
E3C
102
}
102
{ACAD_REACTORS
330
EF
102
}
330
EF
100
AcDbVisualStyle
  2
FlatWithEdges
 70
     1
 71
     2
 72
     1
 73
     1
 90
        2
 40
-0.6
 41
30.0
 62
     5
 63
     7
421
 16777215
 74
     1
 91
        0
 64
     7
 65
   257
 75
     1
175
     1
 42
1.0
 92
        0
 66
   257
 43
1.0
 76
     1
 77
     6
 78
     2
 67
     7
 79
     5
170
     0
171
     0
290
     0
174
     0
 93
       13
 44
0.0
173
     0
291
     1
 45
0.0
1001
ACAD
1000
AcDbSavedByObjectVersion
1070
     0
  0
VISUALSTYLE
  5
F2
102
{ACAD_XDICTIONARY
360
E3E
102
}
102
{ACAD_REACTORS
330
EF
102
}
330
EF
100
AcDbVisualStyle
  2
Gouraud
 70
     2
 71
     2
 72
     2
 73
     1
 90
        2
 40
-0.6
 41
30.0
 62
     5
 63
     7
421
 16777215
 74
     0
 91
        0
 64
     7
 65
   257
 75
     1
175
     1
 42
1.0
 92
        0
 66
     7
 43
1.0
 76
     1
 77
     6
 78
     2
 67
     7
 79
     5
170
     0
171
     0
290
     0
174
     0
 93
       13
 44
0.0
173
     0
291
     1
 45
0.0
1001
ACAD
1000
AcDbSavedByObjectVersion
1070
     0
  0
VISUALSTYLE
  5
F3
102
{ACAD_XDICTIONARY
360
E40
102
}
102
{ACAD_REACTORS
330
EF
102
}
330
EF
100
AcDbVisualStyle
  2
GouraudWithEdges
 70
     3
 71
     2
 72
     2
 73
     1
 90
        2
 40
-0.6
 41
30.0
 62
     5
 63
     7
421
 16777215
 74
     1
 91
        0
 64
     7
 65
   257
 75
     1
175
     1
 42
1.0
 92
        0
 66
   257
 43
1.0
 76
     1
 77
     6
 78
     2
 67
     7
 79
     5
170
     0
171
     0
290
     0
174
     0
 93
       13
 44
0.0
173
     0
291
     1
 45
0.0
1001
ACAD
1000
AcDbSavedByObjectVersion
1070
     0
  0
VISUALSTYLE
  5
F7
102
{ACAD_XDICTIONARY
360
E48
102
}
102
{ACAD_REACTORS
330
EF
102
}
330
EF
100
AcDbVisualStyle
  2
Hidden
 70
     6
 71
     1
 72
     2
 73
     2
 90
        0
 40
-0.6
 41
-30.0
 62
     5
 63
     7
421
 16777215
 74
     2
 91
        2
 64
     7
 65
   257
 75
     2
175
     1
 42
40.0
 92
        0
 66
   257
 43
1.0
 76
     1
 77
     6
 78
     2
 67
     7
 79
     3
170
     0
171
     0
290
     0
174
     0
 93
        1
 44
0.0
173
     0
291
     0
 45
0.0
1001
ACAD
1000
AcDbSavedByObjectVersion
1070
     0
  0
VISUALSTYLE
  5
1E4
102
{ACAD_XDICTIONARY
360
E5A
102
}
102
{ACAD_REACTORS
330
EF
102
}
330
EF
100
AcDbVisualStyle
  2
JitterOff
 70
    20
 71
     2
 72
     2
 73
     0
 90
        0
 40
-0.6
 41
-30.0
 62
     5
 63
     7
421
 16777215
 74
     1
 91
        4
 64
     7
 65
   257
 75
     1
175
     1
 42
1.0
 92
       10
 66
     7
 43
1.0
 76
     1
 77
     6
 78
     2
 67
     7
 79
     5
170
     0
171
     0
290
     0
174
     0
 93
        1
 44
0.0
173
     0
291
     1
 45
0.0
1001
ACAD
1000
AcDbSavedByObjectVersion
1070
     0
  0
VISUALSTYLE
  5
FD
102
{ACAD_XDICTIONARY
360
E54
102
}
102
{ACAD_REACTORS
330
EF
102
}
330
EF
100
AcDbVisualStyle
  2
Linepattern
 70
    14
 71
     2
 72
     2
 73
     1
 90
        0
 40
-0.6
 41
-30.0
 62
     5
 63
     7
421
 16777215
 74
     1
 91
        4
 64
     7
 65
   257
 75
     7
175
     7
 42
1.0
 92
        8
 66
     7
 43
1.0
 76
     1
 77
     6
 78
     2
 67
     7
 79
     5
170
     0
171
     0
290
     0
174
     0
 93
        1
 44
0.0
173
     0
291
     1
 45
0.0
1001
ACAD
1000
AcDbSavedByObjectVersion
1070
     0
  0
VISUALSTYLE
  5
1E5
102
{ACAD_XDICTIONARY
360
E5C
102
}
102
{ACAD_REACTORS
330
EF
102
}
330
EF
100
AcDbVisualStyle
  2
OverhangOff
 70
    21
 71
     2
 72
     2
 73
     0
 90
        0
 40
-0.6
 41
-30.0
 62
     5
 63
     7
421
 16777215
 74
     1
 91
        4
 64
     7
 65
   257
 75
     1
175
     1
 42
1.0
 92
        9
 66
     7
 43
1.0
 76
     1
 77
     6
 78
     2
 67
     7
 79
     5
170
     0
171
     0
290
     0
174
     0
 93
        1
 44
0.0
173
     0
291
     1
 45
0.0
1001
ACAD
1000
AcDbSavedByObjectVersion
1070
     0
  0
VISUALSTYLE
  5
F9
102
{ACAD_XDICTIONARY
360
E4C
102
}
102
{ACAD_REACTORS
330
EF
102
}
330
EF
100
AcDbVisualStyle
  2
Realistic
 70
     8
 71
     2
 72
     3
 73
     0
 90
        2
 40
-0.6
 41
30.0
 62
     5
 63
     7
421
 16777215
 74
     0
 91
        0
 64
     7
 65
   257
 75
     1
175
     1
 42
1.0
 92
        8
 66
   257
 43
1.0
 76
     1
 77
     6
 78
     2
 67
     7
 79
     3
170
     0
171
     0
290
     0
174
     0
 93
       13
 44
0.0
173
     0
291
     0
 45
0.0
1001
ACAD
1000
AcDbSavedByObjectVersion
1070
     0
  0
VISUALSTYLE
  5
1F3
102
{ACAD_XDICTIONARY
360
E68
102
}
102
{ACAD_REACTORS
330
EF
102
}
330
EF
100
AcDbVisualStyle
  2
Shaded
 70
    27
 71
     2
 72
     2
 73
     1
 90
        2
 40
-0.6
 41
30.0
 62
     5
 63
     7
421
 16777215
 74
     0
 91
        4
 64
     7
 65
   257
 75
     1
175
     1
 42
1.0
 92
        8
 66
   257
 43
1.0
 76
     1
 77
     6
 78
     2
 67
     8
425
  7895160
 79
     3
170
     0
171
     0
290
     0
174
     0
 93
        5
 44
0.0
173
     0
291
     0
 45
0.0
1001
ACAD
1000
AcDbSavedByObjectVersion
1070
     0
  0
VISUALSTYLE
  5
1F2
102
{ACAD_XDICTIONARY
360
E66
102
}
102
{ACAD_REACTORS
330
EF
102
}
330
EF
100
AcDbVisualStyle
  2
Shaded with edges
 70
    26
 71
     2
 72
     2
 73
     1
 90
        2
 40
-0.6
 41
30.0
 62
     5
 63
     7
421
 16777215
 74
     1
 91
        2
 64
     7
 65
   257
 75
     2
175
     1
 42
1.0
 92
        8
 66
   257
 43
1.0
 76
     1
 77
     6
 78
     2
 67
     7
 79
     3
170
     0
171
     0
290
     0
174
     0
 93
        5
 44
0.0
173
     0
291
     0
 45
0.0
1001
ACAD
1000
AcDbSavedByObjectVersion
1070
     0
  0
VISUALSTYLE
  5
1EF
102
{ACAD_XDICTIONARY
360
E60
102
}
102
{ACAD_REACTORS
330
EF
102
}
330
EF
100
AcDbVisualStyle
  2
Shades of Gray
 70
    23
 71
     2
 72
     2
 73
     3
 90
        0
 40
-0.6
 41
-30.0
 62
     5
 63
     7
421
 16777215
 74
     2
 91
        2
 64
     7
 65
     7
 75
     1
175
     1
 42
40.0
 92
        8
 66
     7
 43
1.0
 76
     1
 77
     6
 78
     2
 67
     7
 79
     3
170
     0
171
     0
290
     0
174
     0
 93
        1
 44
0.0
173
     0
291
     0
 45
0.0
1001
ACAD
1000
AcDbSavedByObjectVersion
1070
     0
  0
VISUALSTYLE
  5
1F0
102
{ACAD_XDICTIONARY
360
E62
102
}
102
{ACAD_REACTORS
330
EF
102
}
330
EF
100
AcDbVisualStyle
  2
Sketchy
 70
    24
 71
     1
 72
     2
 73
     2
 90
        0
 40
-0.6
 41
-30.0
 62
     5
 63
     7
421
 16777215
 74
     2
 91
        2
 64
     7
 65
     7
 75
     1
175
     1
 42
40.0
 92
       11
 66
     7
 43
1.0
 76
     1
 77
     6
 78
     2
 67
     7
 79
     6
170
     0
171
     0
290
     0
174
     0
 93
        1
 44
0.0
173
     0
291
     0
 45
0.0
1001
ACAD
1000
AcDbSavedByObjectVersion
1070
     0
  0
VISUALSTYLE
  5
FC
102
{ACAD_XDICTIONARY
360
E52
102
}
102
{ACAD_REACTORS
330
EF
102
}
330
EF
100
AcDbVisualStyle
  2
Thicken
 70
    13
 71
     2
 72
     2
 73
     1
 90
        0
 40
-0.6
 41
-30.0
 62
     5
 63
     7
421
 16777215
 74
     1
 91
        4
 64
     7
 65
   257
 75
     1
175
     1
 42
1.0
 92
       12
 66
     7
 43
1.0
 76
     1
 77
     6
 78
     2
 67
     7
 79
     5
170
     0
171
     0
290
     0
174
     0
 93
        1
 44
0.0
173
     0
291
     1
 45
0.0
1001
ACAD
1000
AcDbSavedByObjectVersion
1070
     0
  0
VISUALSTYLE
  5
F6
102
{ACAD_XDICTIONARY
360
E46
102
}
102
{ACAD_REACTORS
330
EF
102
}
330
EF
100
AcDbVisualStyle
  2
Wireframe
 70
     5
 71
     0
 72
     2
 73
     0
 90
        0
 40
-0.6
 41
-30.0
 62
     5
 63
     7
421
 16777215
 74
     1
 91
        4
 64
     7
 65
   257
 75
     1
175
     1
 42
1.0
 92
        0
 66
   257
 43
1.0
 76
     1
 77
     6
 78
     2
 67
     7
 79
     3
170
     0
171
     0
290
     0
174
     0
 93
        1
 44
0.0
173
     0
291
     0
 45
0.0
1001
ACAD
1000
AcDbSavedByObjectVersion
1070
     0
  0
VISUALSTYLE
  5
1F1
102
{ACAD_XDICTIONARY
360
E64
102
}
102
{ACAD_REACTORS
330
EF
102
}
330
EF
100
AcDbVisualStyle
  2
X-Ray
 70
    25
 71
     2
 72
     2
 73
     1
 90
        1
 40
0.5
 41
-30.0
 62
     5
 63
     7
421
 16777215
 74
     1
 91
        0
 64
     7
 65
   257
 75
     1
175
     1
 42
1.0
 92
        8
 66
     7
 43
1.0
 76
     1
 77
     6
 78
     2
 67
     7
 79
     3
170
     0
171
     0
290
     0
174
     0
 93
       13
 44
0.0
173
     0
291
     0
 45
0.0
1001
ACAD
1000
AcDbSavedByObjectVersion
1070
     0
  0
DICTIONARYVAR
  5
146
102
{ACAD_REACTORS
330
5E
102
}
330
5E
100
DictionaryVariables
280
     0
  1
1:1
  0
DICTIONARYVAR
  5
259
102
{ACAD_REACTORS
330
5E
102
}
330
5E
100
DictionaryVariables
280
     0
  1
3.500000
  0
DICTIONARYVAR
  5
25A
102
{ACAD_REACTORS
330
5E
102
}
330
5E
100
DictionaryVariables
280
     0
  1
acadiso.lin
  0
DICTIONARYVAR
  5
145
102
{ACAD_REACTORS
330
5E
102
}
330
5E
100
DictionaryVariables
280
     0
  1
STANDARD
  0
DICTIONARYVAR
  5
84
102
{ACAD_REACTORS
330
5E
102
}
330
5E
100
DictionaryVariables
280
     0
  1
STANDARD
  0
DICTIONARYVAR
  5
227
102
{ACAD_REACTORS
330
5E
102
}
330
5E
100
DictionaryVariables
280
     0
  1
Metric50
  0
DICTIONARYVAR
  5
228
102
{ACAD_REACTORS
330
5E
102
}
330
5E
100
DictionaryVariables
280
     0
  1
Metric50
  0
DICTIONARYVAR
  5
5F
102
{ACAD_REACTORS
330
5E
102
}
330
5E
100
DictionaryVariables
280
     0
  1
2
  0
DICTIONARYVAR
  5
63
102
{ACAD_REACTORS
330
5E
102
}
330
5E
100
DictionaryVariables
280
     0
  1
1
  0
DICTIONARYVAR
  5
1AE
102
{ACAD_REACTORS
330
5E
102
}
330
5E
100
DictionaryVariables
280
     0
  1
0
  0
DICTIONARYVAR
  5
1AF
102
{ACAD_REACTORS
330
5E
102
}
330
5E
100
DictionaryVariables
280
     0
  1
0
  0
DICTIONARYVAR
  5
8B5
102
{ACAD_REACTORS
330
5E
102
}
330
5E
100
DictionaryVariables
280
     0
  1
2
  0
DICTIONARY
  5
E39
102
{ACAD_REACTORS
330
E37
102
}
330
E37
100
AcDbDictionary
281
     1
  0
DICTIONARY
  5
E38
102
{ACAD_REACTORS
330
E37
102
}
330
E37
100
AcDbDictionary
281
     1
  3
2478881409824
350
E32
  3
2478881409840
350
E33
  3
2478881409856
350
E34
  3
2478881409872
350
E35
  3
2478881409888
350
E36
  0
DICTIONARY
  5
E6C
330
21C
100
AcDbDictionary
280
     1
281
     1
  3
ACAD_XREC_ROUNDTRIP
360
E6D
  0
DICTIONARY
  5
205
330
22
100
AcDbDictionary
280
     1
281
     1
  0
DICTIONARY
  5
1F9
330
ED
100
AcDbDictionary
280
     1
281
     1
  3
FBXASSET
360
1FA
  0
DICTIONARY
  5
1F7
330
EC
100
AcDbDictionary
280
     1
281
     1
  3
FBXASSET
360
1F8
  0
DICTIONARY
  5
173
330
EE
100
AcDbDictionary
280
     1
281
     1
  3
BUMPTILE
360
175
  3
DIFFUSETILE
360
174
  3
FBXASSET
360
1FB
  3
OPACITYTILE
360
176
  3
REFLECTIONTILE
360
177
  0
DICTIONARY
  5
E6A
330
21A
100
AcDbDictionary
280
     1
281
     1
  3
ACAD_XREC_ROUNDTRIP
360
E6B
  0
DICTIONARY
  5
162
330
7F
100
AcDbDictionary
280
     1
281
     1
  3
ACAD_ROUNDTRIP_2008_TABLESTYLE_CELLSTYLEMAP
360
E30
  0
DICTIONARY
  5
E44
330
F5
100
AcDbDictionary
280
     1
281
     1
  3
ACAD_XREC_ROUNDTRIP
360
E45
  0
DICTIONARY
  5
E42
330
F4
100
AcDbDictionary
280
     1
281
     1
  3
ACAD_XREC_ROUNDTRIP
360
E43
  0
DICTIONARY
  5
E50
330
FB
100
AcDbDictionary
280
     1
281
     1
  3
ACAD_XREC_ROUNDTRIP
360
E51
  0
DICTIONARY
  5
E58
330
FF
100
AcDbDictionary
280
     1
281
     1
  3
ACAD_XREC_ROUNDTRIP
360
E59
  0
DICTIONARY
  5
E4A
330
F8
100
AcDbDictionary
280
     1
281
     1
  3
ACAD_XREC_ROUNDTRIP
360
E4B
  0
DICTIONARY
  5
E4E
330
FA
100
AcDbDictionary
280
     1
281
     1
  3
ACAD_XREC_ROUNDTRIP
360
E4F
  0
DICTIONARY
  5
E5E
330
1E6
100
AcDbDictionary
280
     1
281
     1
  3
ACAD_XREC_ROUNDTRIP
360
E5F
  0
DICTIONARY
  5
E56
330
FE
100
AcDbDictionary
280
     1
281
     1
  3
ACAD_XREC_ROUNDTRIP
360
E57
  0
DICTIONARY
  5
E3A
330
F0
100
AcDbDictionary
280
     1
281
     1
  3
ACAD_XREC_ROUNDTRIP
360
E3B
  0
DICTIONARY
  5
E3C
330
F1
100
AcDbDictionary
280
     1
281
     1
  3
ACAD_XREC_ROUNDTRIP
360
E3D
  0
DICTIONARY
  5
E3E
330
F2
100
AcDbDictionary
280
     1
281
     1
  3
ACAD_XREC_ROUNDTRIP
360
E3F
  0
DICTIONARY
  5
E40
330
F3
100
AcDbDictionary
280
     1
281
     1
  3
ACAD_XREC_ROUNDTRIP
360
E41
  0
DICTIONARY
  5
E48
330
F7
100
AcDbDictionary
280
     1
281
     1
  3
ACAD_XREC_ROUNDTRIP
360
E49
  0
DICTIONARY
  5
E5A
330
1E4
100
AcDbDictionary
280
     1
281
     1
  3
ACAD_XREC_ROUNDTRIP
360
E5B
  0
DICTIONARY
  5
E54
330
FD
100
AcDbDictionary
280
     1
281
     1
  3
ACAD_XREC_ROUNDTRIP
360
E55
  0
DICTIONARY
  5
E5C
330
1E5
100
AcDbDictionary
280
     1
281
     1
  3
ACAD_XREC_ROUNDTRIP
360
E5D
  0
DICTIONARY
  5
E4C
330
F9
100
AcDbDictionary
280
     1
281
     1
  3
ACAD_XREC_ROUNDTRIP
360
E4D
  0
DICTIONARY
  5
E68
330
1F3
100
AcDbDictionary
280
     1
281
     1
  3
ACAD_XREC_ROUNDTRIP
360
E69
  0
DICTIONARY
  5
E66
330
1F2
100
AcDbDictionary
280
     1
281
     1
  3
ACAD_XREC_ROUNDTRIP
360
E67
  0
DICTIONARY
  5
E60
330
1EF
100
AcDbDictionary
280
     1
281
     1
  3
ACAD_XREC_ROUNDTRIP
360
E61
  0
DICTIONARY
  5
E62
330
1F0
100
AcDbDictionary
280
     1
281
     1
  3
ACAD_XREC_ROUNDTRIP
360
E63
  0
DICTIONARY
  5
E52
330
FC
100
AcDbDictionary
280
     1
281
     1
  3
ACAD_XREC_ROUNDTRIP
360
E53
  0
DICTIONARY
  5
E46
330
F6
100
AcDbDictionary
280
     1
281
     1
  3
ACAD_XREC_ROUNDTRIP
360
E47
  0
DICTIONARY
  5
E64
330
1F1
100
AcDbDictionary
280
     1
281
     1
  3
ACAD_XREC_ROUNDTRIP
360
E65
  0
XRECORD
  5
E32
102
{ACAD_REACTORS
330
E38
102
}
330
E38
100
AcDbXrecord
280
     1
  1
AcDb_Thumbnail_Schema
102
{ATTRRECORD
341
E33
  2
AcDbDs::TreatedAsObjectData
280
     1
291
     1
102
ATTRRECORD}
102
{ATTRRECORD
341
E34
  2
AcDbDs::Legacy
280
     1
291
     1
102
ATTRRECORD}
  2
AcDbDs::ID
280
    10
 91
        8
102
{ATTRRECORD
341
E35
  2
AcDs:Indexable
280
     1
291
     1
102
ATTRRECORD}
102
{ATTRRECORD
341
E36
  2
AcDbDs::HandleAttribute
280
     7
282
     1
102
ATTRRECORD}
  2
Thumbnail_Data
280
    15
 91
        0
  0
XRECORD
  5
E33
102
{ACAD_REACTORS
330
E38
102
}
330
E38
100
AcDbXrecord
280
     1
  1
AcDbDs::TreatedAsObjectDataSchema
  2
AcDbDs::TreatedAsObjectData
280
     1
 91
        0
  0
XRECORD
  5
E34
102
{ACAD_REACTORS
330
E38
102
}
330
E38
100
AcDbXrecord
280
     1
  1
AcDbDs::LegacySchema
  2
AcDbDs::Legacy
280
     1
 91
        0
  0
XRECORD
  5
E35
102
{ACAD_REACTORS
330
E38
102
}
330
E38
100
AcDbXrecord
280
     1
  1
AcDbDs::IndexedPropertySchema
  2
AcDs:Indexable
280
     1
 91
        0
  0
XRECORD
  5
E36
102
{ACAD_REACTORS
330
E38
102
}
330
E38
100
AcDbXrecord
280
     1
  1
AcDbDs::HandleAttributeSchema
  2
AcDbDs::HandleAttribute
280
     7
 91
        1
284
     1
  0
XRECORD
  5
E6D
102
{ACAD_REACTORS
330
E6C
102
}
330
E6C
100
AcDbXrecord
280
     1
102
DISPLAYNAME
  1
Metric50
102
FLAGS
 90
        0
  0
XRECORD
  5
1FA
102
{ACAD_REACTORS
330
1F9
102
}
330
1F9
100
AcDbXrecord
280
     1
 70
     1
 90
429727718
  1
D62C5603-E3A1-4AEA-B7FB-FE5D8D0755AF
310
504B03040A0000080000CC70623B3DEE336E79000000790000001B0000006175746F6465736B2D64657369676E2D7061636B6167652E786D6C3C3F786D6C2076657273696F6E3D22312E302220656E636F64696E673D227574662D3822203F3E3C666F726D6174733E3C666F726D61743E687474703A2F2F736368656D612E
310
6175746F6465736B2E636F6D2F64657369676E2D7061636B6167652F323030393C2F666F726D61743E3C2F666F726D6174733E504B0304140006080800CC70623BD486FD9CA0000000F4000000130000005B436F6E74656E745F54797065735D2E786D6C7D8EC10E82300C865F65E91D8A1E8C310C0EEA1BF002731658846E
310
D98AC1B77784ABF1D8FE5FBFBF75BBCE937A534CCEB38643598122B6FEE978D0B0485F9C41B54DDD7D022595594E1A469170414C76A4D9A4D207E29CF43ECE46F218070CC6BECC4078ACAA135ACF422C856C0E68EA1BF5669944DDD7BCDE7B1F8E415D77AECB980613C2E4AC91FC167A2B244592486606FC29C8FD7F045B9A
310
EF7053A7E60B504B0304140006080800CC70623B853B8169EB0000007C01000008000000636F72652E786D6C8D90416EC3201045AF62CDB6C206821CC7C244919D9CA01740401C94182C03558F5F9C3852BBEB6A467FFE9B197D7EFC9E1EC5975982F5AE035262288C535E5B377690E21535501C055FBC8FBF6C503839990E
310
5619041F179FE64D52DE45E362569DD7661365082642A11EB9E920A89B99642953CC8E702F67A9EE7234257977194EC9EAE275C4EABCCF5EAD5940D4AC6F0E35A568B8F43562CD7046CD199FD07E60174276A7BE677B5EADB0E0D14EEFFB6A31321A0D82627C4084204C3F096B71DD52F6819B16635EADF63F509AF53FA164
310
5DDCD1EDDD17164090FCC8732078B56691CB33A85CD7DCC40F504B0304140006080800CC70623B55019EA25F0000007C00000007000000636E782E786D6C4DCB3B0E80201045D1AD90E915ED2CF8AC45050C11660C8261F98AB1B07AC9C97D42D718D865D3E909258CFD00CCE24AC6E326A164D74DC0B4128928FF32603847
310
2BA13128B1252AC747C6BAB984FC68F0B87FE8960A5C09FE86CFB69FBA01504B0304140006080800CC70623BDBABAAF470010000D40300000C0000006662782F636F72652E786D6CC553D16E823014FD95A6AF4B694182CC941A83FA05FB810A9511A125A5257EFE2E82712ECEB8A7F100CD39F7F69E734AF9FADC366850B6
310
AF8DCE7018308C942E4C59EB2AC3DE1D498AD15A706B8CFB56869196ADCAF00863C12B6B7C374385D14E6907A836A59A41D9F7CA615434B0C8705F7CAA5606D23BA8E84F41278B93AC54100640439DE0BDB320004D43C63716C7C399D30917DCFBBA9CD9BA8469F5B156168B24CED3F7248AC8769F27244EB73B92EED8862C
310
B7F13E0C179B3C8F979C8ECD82BBBABDAA2BAC924E9558448CBD9330242CFA08E3154B5651FCC6D215639C8EE5774DBE2B5F6CF2B5768B68963BB5F5588420E442FC700B1139D4CB01F450C1E918227C2E09DF070D8140C84E1E9AAB8F1340832A9CB13130A5F1376A908D57309505ECF2A0DF179C4E9D30F5B239B87E3823
310
7A79C6F31DE1A8A5AEC08474B03C7837EAE4938639B44E5932B833D2C6B6B279CDC613877FA26EE21F4A2A4C63EC7F29A2F301D1F9F7A0E37D145F504B0304140006080800CC70623B9C113CC27E0000009D0000000B0000006662782F636E782E786D6C4DCCDF0A83201C86E15B91DFB94BFB330DD428C8FB886521330DA7
310
6397BF1A1DECE883878F57749FCDA1B7892F1BBC047A23808C7F84D9FA55424E0BE6803A256208E9EF06C84F9B91703228B1C690F78B66B34CD9A5439DF5CF0BFBF65E35BCA1B8D6A5C6F540381E886698B5741C695F9503EBA150A2F8958E3DC3EA0B504B0304140006080800CC70623B7DF2F77C2A010000120200003100
310
00006662782F41393633353835312D344632462D344230382D423046372D3739314545314133324237412F636F72652E786D6C8D51DB8EC22014FC15C2939B0D2DB4B45643319AE817EC0F6041255A68B86CFCFC856D4D76DF7CE190393373060EDB3DC707F856CE6B6B7A480A0C81328395DA5C7B18C3057510EC3873D686
310
3F34088C18550F330C39BB3A1BA7051AAC09CA84841A2BD5020AEF55806078A44B0FFD7053A328440C89E1EFC52486BBB8AA8214A99D789CF9E05200300FC927E4FB4D5B375D43103D5527440FB843077C5AA3F5861C8F645F5787F59E95B390B318B55CE45AA638FAA2957BD7248B390B7A7CC51F9C124149C82B8C378810
310
84AB2F42B7B8DD56F413775B8C5999E9FF4471926F8AA236A1AE96B8B3CC434E5839373893369E1FAF30EA395917409EB7F26AF8801C171837A4A6AC9C89E9F9C9B1A58BA30FD6A5EF5DDDCF894B9AD9B6A59C957943A9FCAE2FD5BC4DFE03504B0304140006080800CC70623BAD7543B64E01000033030000300000006662
310
782F41393633353835312D344632462D344230382D423046372D3739314545314133324237412F636E782E786D6CD593CD6EC32010845F0571AD6CE3D48AD20813A9873E410FBD12D82434182C7EAAE6EDBB2424CD25871E7B41D6EC30B3FA84F9E67BB2E40B4234DE8DB46F1925E094D7C6ED479AD3AE5951B2113C789FEE
310
6C943839C1488B4C05DF079FE72A69D8C96C13AAD6B8631503449F83828872B949AC57D26200B826A308D316B4064D6E46FCDA41C05550DC9E483A00797BFD207EFB092A45DE9514C1BBD22178396BD39D891265658C238DEA00936C654E5E433CB65A26D9F6EDB5EBC14EBF49A45CB856E66048291F6939A9A81BB5C89177
310
38143CA680F4AA299D66A042CEB3354A2684DC9D8D178FE0D9B8B41CAAD720F880EE7EF93C0C18769E099ECC04D5A102C8049A8A05632F4DDF376CF1DE0F6BB65C2F8627B65A33C6BB62177CEBBDAD973006829F89F22E814B54F4BC2BE347F8AA8F681390B50FA73F804400B5F542E796F19FF974E7F78DB802FE05E20750
310
4B0304140006080800CC70623BE75B7789680500003C100000340000006662782F41393633353835312D344632462D344230382D423046372D3739314545314133324237412F6F626A656374732E786D6CAD575B8F9B3818FD2B887D06C22499CB8AA1CA655245D5B455A356FB305264C061D8018C6C3393D95FBFC7600890
310
A4CD5EF210B0B1BFEBF98E3F7B1FF6596ABC522E1296DF9BAE3D320D9A872C4AF2F8DE2CE5CEBA358D0FBEC719939D65A691938CDE9B6ADAF4BD98B3B2D05311DD91329583D9D5FC0F438434A7A611A644887B5384CF34233629258BA878B12322891DEFF6B66BD70BFB62634E8AE781D082709A4B588AF91C528CDA28B73F
310
1C998EEF39EABBEFA97FBD6A7C7E9553F9D3D79FE442923C3C523610337627CB87ABE99D359D4CC6D6E4FACAB5E6ABF9D2726FC6A3C5F56271377BB88362213924694B38DD99FE47C48627A1E7D49F5A8BB5E1A74C0A599ED3B0F21F1E56366B89112D681E218F0915D0D6F17AD41FBA2A369DCF6335D62ABBD39779D5DDD1
310
11D4D8DE3CBB96B2E04FB8202E41051754A1AA8E8F76B4C6DFE810B580B1547F4B84911149794252234D024EF8BBE963A95AE27B3D310A9D5C215C7960FAEE415ED75694C6AFB17BCACA5D99A60A9AA65F217B0BFC53292ACB92BF283FAD0D3621576592CB5BED907C2FA8E9DF794E35E97BEA31BED21FEB401ABB94C44839
310
DCACBF0E1C5DA8DA5B2F4DFFD32AD86F543D9E565E7056502E157C00AD2671CD534549AB752FCA9CDA00677A313F04E51B22FF19E57B300579E3C97EB29F682D92935CEC18CF901B7B54FD8C51F362B56FC72FE0B3C1EAE335EDCCBF5AEC39ADB17DC238973F804BA5E6F6BFE7AF1FB32E523BE9F3BD571418E3631DCA4D48
310
5250CF639223210A9446CA30052EDF057BD35F8329C1ECD84552BF0DC8D18BE7BCE23BFE6BD960AB4A7DE79923A103BEBD80F911CBAA2C60DB19B01CF164A5583B772EE6D3FFA56666CBCDA74DC97724A48F9A58967497E489C4D979006FD7A05E227A1EBDD0F737C623387A9C844D3709995625106D157315F8B8392CD4E0
310
A0B9A720C4BE9829CEF37EA1E13111214D53925356365ADA634861B52519DD27A00AEB808EAF0628E6F435519D446F45CF2C9CF5214F0A15B2F6D06B79DA3EE3CBF7F56780D2F4E7EF73A0F5E5B02A38D07DC852C6B7C1FBB6664213E0C39E3EBA7FF4E1AD23EA2829407C85E586727488B751B2DB9502BC7B228A3FD68B6E
310
A65A22397E690AA8D158D7E404EC8CDA235CC3B7D1898680131CEC2CDF2638C65196279577750F15884AEE19F94199155B92B13297978469D4F8D358DF0AEF7631E28DC8F0D9F437D5D39A83B2231A1D52D543813A824EF8D44BCFF2FA6A31BD1E8DAD87F1CCB526B3879935BF59CDADD5C37479BB1CDD4CA7B3556B516589
310
EF352754B706114D9C885EC9131DE6EFEB43D99AFE2391C2F958179413D7CFEF6B1B6DB1E7600F00DE6E5C67454A339A4BA2E0FBA85ED26F045D454F463DBFCE484C2F90F2E5E3666003662ED8F755951A7D1BECD5B30B550B2785C8E7320B7292A4838DDA71BBC863ED7613CAF659337A3354231D4FF4A182A54904C2898C
310
98B28C4AD0CE056CCF332A80986E571EE9DBC305BB5FEB7E509220A58D25CF042D712A806AC0AD0C657FDEF80D2D9CEAA2EE4D1C76F60BFE74219A06527D6F82DF6412526107381E55E353090704D085B52408A8913C4ED159D79BDA71BB4BC506F4831350EB6F975CD22D69BF7AC49B91A2C0A9DDA3D5CA36AD20FC478E37
310
E61844E2352865EBCB61A275A65283CAAA9DD27703B4102F5AF51EF5F573B75CBB5AD38BC845F7A49F82A0966A49C2E3EA5EA0ECD326CD965F1DB402C6FA8B51A4658C5C5E2EC9E214602E55810345408596591009A82E7E7FFACA19EEA299B14A0081A705CB3296EBC14CDF658DCD336EA6D1136881AAEB87B81AB9EE53D5
310
F5EB8BC8362082DA24122F98680A4E7930C01A0079749CEA14382A0783E5EBA5A10F8C098456A03D6A4AEB6BB881E2513747552A5DB22C7EDAF83BD5528081A365F7FF06504B0304140006080000CC70623B000000000000000000000000350000006662782F41393633353835312D344632462D344230382D423046372D37
310
39314545314133324237412F76657274696365732E62696E504B0304140006080800CC70623BF270F1330600000004000000360000006662782F41393633353835312D344632462D344230382D423046372D3739314545314133324237412F747269616E676C65732E62696E636660600000504B0304140006080000CC7062
310
3B000000000000000000000000370000006662782F41393633353835312D344632462D344230382D423046372D3739314545314133324237412F617474726962757465732E62696E504B0304140006080800CC70623B08DA0BD19000000041010000360000006662782F41393633353835312D344632462D344230382D4230
310
46372D3739314545314133324237412F6469726563746F72792E786D6C858F410AC3201045AF22B36F53E9A60B35CBEEBAE80D244E44489C6234F4F835464A48035D0DF398FF9F8AF63D0E6CC63039F212F8F9020C7D47C6792B21C5FE7403D62A1188E2E60C98D7234A5830286103A55745067B9D86B8A3CF9C7F90C11DE6
310
07FB144396D7B6A82D282E9A152AD114D5EF2CB866EEE831B8EEA07A7BB5A8D7D61A2BAAEB7FD5F70921FF497D00504B0304140006080800CC70623BEDD1DC58FD000000A00100003B0000006662782F41393633353835312D344632462D344230382D423046372D3739314545314133324237412F7265736F75726365732F
310
636F72652E786D6C8D504B6E833010BD0A9A6D65B00922041947112427E8052C33A156828DFCA97AFC9A40A576D7CDCCE87D344F8F9FBFE667F689CE6B6B3A6039850C8DB2A336530731DC4903D95970676DF82583CCC8193B5861107C72362E3BA4AC096842428D1D7107A5F7182053CF7474E0D507CE32973124857FE48B
310
540F3961CEF244279DE03EB81420DB9EAC1384436FA353E879B1B182C7A8C75DA3C7F453DF353A1075D537A7BA6464B8F535A99AE14A9A2BBD90E350DD183B5CFABE3AF262350B1EF4FC9351399401471025A527C218A1E53BAB5A5AB765F5469B96525EACF23FA6B88CFF34456DC2A1DCE36E360F82A5202F42F062ED2BAD
310
579969AFDD8A6F504B010214000A0000080000CC70623B3DEE336E79000000790000001B00000000000000000000000000000000006175746F6465736B2D64657369676E2D7061636B6167652E786D6C504B01021400140006080800CC70623BD486FD9CA0000000F40000001300000000000000000000000000B20000005B
310
436F6E74656E745F54797065735D2E786D6C504B01021400140006080800CC70623B853B8169EB0000007C010000080000000000000000000000000083010000636F72652E786D6C504B01021400140006080800CC70623B55019EA25F0000007C000000070000000000000000000000000094020000636E782E786D6C504B
310
01021400140006080800CC70623BDBABAAF470010000D40300000C00000000000000000000000000180300006662782F636F72652E786D6C504B01021400140006080800CC70623B9C113CC27E0000009D0000000B00000000000000000000000000B20400006662782F636E782E786D6C504B01021400140006080800CC70
310
623B7DF2F77C2A010000120200003100000000000000000000000000590500006662782F41393633353835312D344632462D344230382D423046372D3739314545314133324237412F636F72652E786D6C504B01021400140006080800CC70623BAD7543B64E010000330300003000000000000000000000000000D2060000
310
6662782F41393633353835312D344632462D344230382D423046372D3739314545314133324237412F636E782E786D6C504B01021400140006080800CC70623BE75B7789680500003C10000034000000000000000000000000006E0800006662782F41393633353835312D344632462D344230382D423046372D3739314545
310
314133324237412F6F626A656374732E786D6C504B01021400140006080000CC70623B0000000000000000000000003500000000000000000000000000280E00006662782F41393633353835312D344632462D344230382D423046372D3739314545314133324237412F76657274696365732E62696E504B01021400140006
310
080800CC70623BF270F133060000000400000036000000000000000000000000007B0E00006662782F41393633353835312D344632462D344230382D423046372D3739314545314133324237412F747269616E676C65732E62696E504B01021400140006080000CC70623B0000000000000000000000003700000000000000
310
000000000000D50E00006662782F41393633353835312D344632462D344230382D423046372D3739314545314133324237412F617474726962757465732E62696E504B01021400140006080800CC70623B08DA0BD1900000004101000036000000000000000000000000002A0F00006662782F41393633353835312D344632
310
462D344230382D423046372D3739314545314133324237412F6469726563746F72792E786D6C504B01021400140006080800CC70623BEDD1DC58FD000000A00100003B000000000000000000000000000E1000006662782F41393633353835312D344632462D344230382D423046372D3739314545314133324237412F7265
310
736F75726365732F636F72652E786D6C504B0506000000000E000E0080040000641100000000
  0
XRECORD
  5
1F8
102
{ACAD_REACTORS
330
1F7
102
}
330
1F7
100
AcDbXrecord
280
     1
 70
     1
 90
429727718
  1
30362254-06B7-45E0-A893-8CFA70E3D6BC
310
504B03040A0000080000CC70623B3DEE336E79000000790000001B0000006175746F6465736B2D64657369676E2D7061636B6167652E786D6C3C3F786D6C2076657273696F6E3D22312E302220656E636F64696E673D227574662D3822203F3E3C666F726D6174733E3C666F726D61743E687474703A2F2F736368656D612E
310
6175746F6465736B2E636F6D2F64657369676E2D7061636B6167652F323030393C2F666F726D61743E3C2F666F726D6174733E504B0304140006080800CC70623BD486FD9CA0000000F4000000130000005B436F6E74656E745F54797065735D2E786D6C7D8EC10E82300C865F65E91D8A1E8C310C0EEA1BF002731658846E
310
D98AC1B77784ABF1D8FE5FBFBF75BBCE937A534CCEB38643598122B6FEE978D0B0485F9C41B54DDD7D022595594E1A469170414C76A4D9A4D207E29CF43ECE46F218070CC6BECC4078ACAA135ACF422C856C0E68EA1BF5669944DDD7BCDE7B1F8E415D77AECB980613C2E4AC91FC167A2B244592486606FC29C8FD7F045B9A
310
EF7053A7E60B504B0304140006080800CC70623B1EC5D7A3EB0000007C01000008000000636F72652E786D6C8D90416EC3201045AF82665B6103C6756C6122AB4D4ED00B204C5C94182C03558F5F9C3852BBEB6A467FFE9B197D71FC9E6FE8CBACC17AD7032D0820E3B41FAD9B7A48F1820F808E52ACDEC75F36404ECDA687
310
4D0629A6D5A76597B477D1B89855E747B38B2A041301E95B6E7A08FAD3CCAA50296647B8168BD2573599823EBB0CA76447F43862C7BCCF5EAC59410E4DDD9C7973C2755553CCCFA4C603E3040F1565ED3B1FDE4E432BCA0D9622DAF9795FAF464533826484B498524CD807E51D79ED187F21878E10516EF63F505AC67F42C9
310
BA58B1FDDD071640D2FCC87D2045B96591CB3DA85CB7DCE40F504B0304140006080800CC70623B55019EA25F0000007C00000007000000636E782E786D6C4DCB3B0E80201045D1AD90E915ED2CF8AC45050C11660C8261F98AB1B07AC9C97D42D718D865D3E909258CFD00CCE24AC6E326A164D74DC0B4128928FF32603847
310
2BA13128B1252AC747C6BAB984FC68F0B87FE8960A5C09FE86CFB69FBA01504B0304140006080800CC70623B8C9102E971010000D40300000C0000006662782F636F72652E786D6CC5535B6E833010BC8AE5DF0A6C08340F1947A84D4ED00B38C6A128602363A31CBFCB234A53A551FA553EC09AD9F5CE8C31DB9E9B1AF5CA
310
7695D1198E428A91D2D214952E33ECDD315861B4E5CC1AE3BE9561A445A3323CC098B3D21ADFCE9034DA29ED00D5A6503328BA4E398C640D8B0C77F253352214DE4145770A5B214FA2546114020D759C75CE8200340D19DE981F0F6746269C33EFAB6266AB02A655C74A59CCF365BADC27CB5D902ED22848F6340DF238A141
310
BE88E2F57B92BFEDF23523433367AE6A2EEAA455C2A902F398D2751045018D3FA264435F3771F242571B4A1919CA6F9A7C5B3CD9E42BED16F12C776AEB308F40C848FC700B1139D4891EF410CEC810227CC6846F8386402064270EF5C5C709A05E49676C024C61FC95EA45ED154CA5211D1FF4FB8291A913A68E9B83EBBB33
310
E2A7673CDE118E5AE8124C0807CB8377834E366998436B950D7A7746DAD846D4CFD978E0F04FD455FC5D49D2D4C6FE9722321F10997F0F32DC47FE05504B0304140006080800CC70623BFFEA85907E0000009D0000000B0000006662782F636E782E786D6C4DCCD10A83201886E15B91FFDC95D95A811AB6F23E625948A6C3
310
E9D8E5AF46073BFAE0E1E365ED67B3E8ADC3CB78C7815C7240DA3DFC64DCC221C519D7805AC182F7F1EF06C88D9BE6703008B6049F9E274D7A1E938DBB5AE3D6131B2589BA0D3D965551E0B2EA732C9B9A624AAEB41E3A557677029960D9AFB4EF11165F504B0304140006080800CC70623B4FEEA4082C0100001202000031
310
0000006662782F39464131463745442D413632322D343644302D413938332D3331353338454246344243312F636F72652E786D6C8D515B6EC32010BC0AE2AB55850DD871ED0813254D72825EC00192A2C460F1A872FC42ED48ED5F7E00CDCECCCEB26C731F6FE05B39AFADE921293004CA082BB5B9F43086336A21D870E6AC
310
0D7F68109861543DCC30E4ECE26C9C164858139409093556AA051CBC570102714B8F1E7AF1A5C6A11862480C7F2DA6415C878B2A4891CA89C7990F2E050073937C42DE1DB7E4F87ED8A36D4329AA9B3D46DBAEAD504556557BD81DEBDD0761E52CE42C462D17B996298E3E6BE59E35C962CE821E1FF18553435012728A7187
310
0841987E927A8D9B35ADDF70BBC6989599FE4F1427F9A4286A132ABAC49D651EF234CD5CE04CDA78BA3DC2A8FB645D00B9DF8B57E215725C60BCA2A463E54C4CE327C7A65E1C7DB02E7DEFCBF594B864C5CA6CDBD49C957943E9FA5D5FBAF336F90F504B0304140006080800CC70623BAD7543B64E01000033030000300000
310
006662782F39464131463745442D413632322D343644302D413938332D3331353338454246344243312F636E782E786D6CD593CD6EC32010845F0571AD6CE3D48AD20813A9873E410FBD12D82434182C7EAAE6EDBB2424CD25871E7B41D6EC30B3FA84F9E67BB2E40B4234DE8DB46F1925E094D7C6ED479AD3AE5951B2113C
310
789FEE6C943839C1488B4C05DF079FE72A69D8C96C13AAD6B8631503449F83828872B949AC57D26200B826A308D316B4064D6E46FCDA41C05550DC9E483A00797BFD207EFB092A45DE9514C1BBD22178396BD39D891265658C238DEA00936C654E5E433CB65A26D9F6EDB5EBC14EBF49A45CB856E66048291F6939A9A81BB5
310
C8917738143CA680F4AA299D66A042CEB3354A2684DC9D8D178FE0D9B8B41CAAD720F880EE7EF93C0C18769E099ECC04D5A102C8049A8A05632F4DDF376CF1DE0F6BB65C2F8627B65A33C6BB62177CEBBDAD973006829F89F22E814B54F4BC2BE347F8AA8F681390B50FA73F804400B5F542E796F19FF974E7F78DB802FE05
310
E207504B0304140006080800CC70623B16AB87BA640500003C100000340000006662782F39464131463745442D413632322D343644302D413938332D3331353338454246344243312F6F626A656374732E786D6CAD575B6FA33818FD2B887DE6924B3BED8A326A92B68A663B534DD4D13E548A0C38942D60649B369D5FBFC7
310
600890A493BDE42160637FD7F31D7FF63E6FB3D478A55C242CBF3247B66B1A340F5994E4F19559CA8D75611A9F7D8F33263BCB4C232719BD32D5B4E97B316765A1A722BA21652A07B3B7B33F0D11D29C9A46981221AE4C113ED38CD8A4942CA2E2C58E882476BCD9DA23BB5ED8171B73523C0F841684D35CC252CCE79062D4
310
468DFA43D7747CCF51DF7D4FFDEB5593E3AB9CCA9FBEFE241792E4E19EB28198C968BAB8199F5D5A67D3E9C49A9E8F47D6EC76B6B0469F26EEFC7C3EBFBCBEB98462213924694B38DD98FE1D62C393D073EA4FADC5DAF04326852CCF6958F90F0F2B9BB5C48816348F90C7840A68EB78EDF68723159BCEE7891A6B95DDE9D3
310
BCEAEEE8086A6C6F9E5D4B59F0175C10A7A0820BAA5055C7473B5AE3CFDD452D602CD5DF12616444529E90D448938013FE6EFA58AA96F85E4F8C42275708571E98FE6827AF6B2B4AE3D7D83D64E5A64C53054DD3AF90BD06FEA9149565C94FCA0F6B834DC85599E4F2423B24DF0B6AFA979E534DFA9E7A4CC6FA631D486393
310
921829879BF5D781A373557BCB85E97FB90DB62B558F8795179C15944B051F40AB495CF35451D26A4727654E6D8033BD98EF82F21D91FF8AF2DD9982BCF1643BDD4EB516C9492E368C67C88DED563FC36D5EACF66DFF057C3658BDBFA69DF9578B3DA735B64F18C7F20770A9D45CFCF7FCF563D6456A277DBEF78A02637CA2
310
43B90A490AEAB94F72244481D24819A6C0E59B606BFA4B3025981DBB48EAB701D97BF19C577CC77F2D1B6C55A9EF3C732474C0B727303F625995056C3B02963D9EAC146BE78EC5FCEC7FA999EBC5EACBAAE41B12D27B4D2C0BBA49F244E2ECDC81B76B502F113D8F5EE8FB1BE3111CDD4FC2AA9B844CAB1288B68AB90A7CDC
310
1C166AB0D3DC5310625FCC14E779BFD0709F8890A629C9292B1B2DED31A4B0DA928CEE135085754027E3018A397D4D5427D15BD1330B677DC8934285AC3DF45A9EB68FF8F2B8FC0A509AFEECFD0FF2DE25CC6047F7214B195F07EFEB9A094D800F7BFAE8FED187B78EA8A3A400F115961BCAD1215E47C966530AF0EE8128FE
310
58CEBB996A8964FFA529A046635D9353B0336A8F700DDF46271A024E70B0B37C9DE01847591E54DED53D54202AB947E4076556AC49C6CA5C9E1226B7F1A7B1BE15DEED62C41B91E1B3E9AFAAA735036547343A925075041DF0A9979E893B391F8FCFA6967B3EFB644DCF6E5CEBFAE272625DCC6FAF3FB93793C5F90CE1EF57
310
407342756B10D1C489E8953CD1617E5CEECAD6F4EF8914CE5D5D504E5C3F1F9736DA62CFC11E00BCDDB8CC8A9466349744C1F75EBDA4DF09BA8A9E8C7A7E9991989E20E5DBDD6A6003664ED8F7A04A8DBE0DF6EAD9B9AA858342E47399053949D2C146EDB85DE4B176BB0965FBAC19BD19AA918E27FA50C1D22402E144464C
310
59462568E704B6E71915404CB72B8FF4EDE184DDAF753F284990D2C6926782963815403548A70C657FDEF80D2D9CEAA2AE4C1C76F60BFE74219A06527D6582DF6412526107381E55E353090704D085B52408D0933C4ED159D79BDA71BB4BC506F4831350EB6F979CD22D69BF7AC49B91A2C0A9DDA3D5CA36AD20FC478E37E6
310
1844E2352865EBCB6EA275A652E3836BE04EFB400BF1A2556F515F1FBB35B2AB35BD889C744FFA1004B5544B121E57F70215746DD2F5E2C1412B602CBF19455AC6C8E5E9922C4E01E65215385004546899059180EAFCF7A707CE7017CD8CDB0410789AB32C63B91E5CEBBBACB17AC6CD347A022D5075FD106377347AAABA7E
310
7D11590744509B44E205134DC1290F06580320F78E537D3D73540E06CB970B431F185308AD40BBD794D6D77003C5A36E8EAA54BA64597CD8F83BD552A080A365F7FF06504B0304140006080000CC70623B000000000000000000000000350000006662782F39464131463745442D413632322D343644302D413938332D3331
310
353338454246344243312F76657274696365732E62696E504B0304140006080800CC70623BF270F1330600000004000000360000006662782F39464131463745442D413632322D343644302D413938332D3331353338454246344243312F747269616E676C65732E62696E636660600000504B0304140006080000CC70623B
310
000000000000000000000000370000006662782F39464131463745442D413632322D343644302D413938332D3331353338454246344243312F617474726962757465732E62696E504B0304140006080800CC70623B08DA0BD19000000041010000360000006662782F39464131463745442D413632322D343644302D413938
310
332D3331353338454246344243312F6469726563746F72792E786D6C858F410AC3201045AF22B36F53E9A60B35CBEEBAE80D244E44489C6234F4F835464A48035D0DF398FF9F8AF63D0E6CC63039F212F8F9020C7D47C6792B21C5FE7403D62A1188E2E60C98D7234A5830286103A55745067B9D86B8A3CF9C7F90C11DE607
310
FB144396D7B6A82D282E9A152AD114D5EF2CB866EEE831B8EEA07A7BB5A8D7D61A2BAAEB7FD5F70921FF497D00504B0304140006080800CC70623B0D6EF93BFE000000A00100003B0000006662782F39464131463745442D413632322D343644302D413938332D3331353338454246344243312F7265736F75726365732F63
310
6F72652E786D6C8D50596E833010BD0A9ADFCA60B334011947A8694ED00B586642AC041B79A97AFC9A40A5F6AF3F33A3B7689E1E3F7DCD8FEC139DD7D6F4C0720A191A65476DA61E62B892236427C19DB5E1970C322367EC618541F0C9D9B8EC90B226A009093576C41D94DE63804C3DD2D18357379C652E63480A7FCF17A9
310
EE72C29CE5894E3AC17D702940B63D59270887DE46A7D0F36263058F518FBB468FE9A7BE6A7420864373B8D4873369AA8691FA421B3294352543C5CAF65C0F6FEF43CB8BD52C78D0F34F46E550061C419494B6843142CB0F5677F4B52BEB177AEC28E5C52AFF638ACBF84F53D42654E51E77B379102C05791282176B5F693D
310
CB4C7BED567C03504B010214000A0000080000CC70623B3DEE336E79000000790000001B00000000000000000000000000000000006175746F6465736B2D64657369676E2D7061636B6167652E786D6C504B01021400140006080800CC70623BD486FD9CA0000000F40000001300000000000000000000000000B20000005B
310
436F6E74656E745F54797065735D2E786D6C504B01021400140006080800CC70623B1EC5D7A3EB0000007C010000080000000000000000000000000083010000636F72652E786D6C504B01021400140006080800CC70623B55019EA25F0000007C000000070000000000000000000000000094020000636E782E786D6C504B
310
01021400140006080800CC70623B8C9102E971010000D40300000C00000000000000000000000000180300006662782F636F72652E786D6C504B01021400140006080800CC70623BFFEA85907E0000009D0000000B00000000000000000000000000B30400006662782F636E782E786D6C504B01021400140006080800CC70
310
623B4FEEA4082C0100001202000031000000000000000000000000005A0500006662782F39464131463745442D413632322D343644302D413938332D3331353338454246344243312F636F72652E786D6C504B01021400140006080800CC70623BAD7543B64E010000330300003000000000000000000000000000D5060000
310
6662782F39464131463745442D413632322D343644302D413938332D3331353338454246344243312F636E782E786D6C504B01021400140006080800CC70623B16AB87BA640500003C1000003400000000000000000000000000710800006662782F39464131463745442D413632322D343644302D413938332D3331353338
310
454246344243312F6F626A656374732E786D6C504B01021400140006080000CC70623B0000000000000000000000003500000000000000000000000000270E00006662782F39464131463745442D413632322D343644302D413938332D3331353338454246344243312F76657274696365732E62696E504B01021400140006
310
080800CC70623BF270F133060000000400000036000000000000000000000000007A0E00006662782F39464131463745442D413632322D343644302D413938332D3331353338454246344243312F747269616E676C65732E62696E504B01021400140006080000CC70623B0000000000000000000000003700000000000000
310
000000000000D40E00006662782F39464131463745442D413632322D343644302D413938332D3331353338454246344243312F617474726962757465732E62696E504B01021400140006080800CC70623B08DA0BD190000000410100003600000000000000000000000000290F00006662782F39464131463745442D413632
310
322D343644302D413938332D3331353338454246344243312F6469726563746F72792E786D6C504B01021400140006080800CC70623B0D6EF93BFE000000A00100003B000000000000000000000000000D1000006662782F39464131463745442D413632322D343644302D413938332D3331353338454246344243312F7265
310
736F75726365732F636F72652E786D6C504B0506000000000E000E0080040000641100000000
  0
XRECORD
  5
175
102
{ACAD_REACTORS
330
173
102
}
330
173
100
AcDbXrecord
280
     1
270
     1
271
     1
  0
XRECORD
  5
174
102
{ACAD_REACTORS
330
173
102
}
330
173
100
AcDbXrecord
280
     1
270
     1
271
     1
  0
XRECORD
  5
1FB
102
{ACAD_REACTORS
330
173
102
}
330
173
100
AcDbXrecord
280
     1
 70
     0
 90
1673772943
  1
ECE7A1D2-D628-4531-984C-D00F80459256
310
504B03040A0000080000CC70623B3DEE336E79000000790000001B0000006175746F6465736B2D64657369676E2D7061636B6167652E786D6C3C3F786D6C2076657273696F6E3D22312E302220656E636F64696E673D227574662D3822203F3E3C666F726D6174733E3C666F726D61743E687474703A2F2F736368656D612E
310
6175746F6465736B2E636F6D2F64657369676E2D7061636B6167652F323030393C2F666F726D61743E3C2F666F726D6174733E504B0304140006080800CC70623BD486FD9CA0000000F4000000130000005B436F6E74656E745F54797065735D2E786D6C7D8EC10E82300C865F65E91D8A1E8C310C0EEA1BF002731658846E
310
D98AC1B77784ABF1D8FE5FBFBF75BBCE937A534CCEB38643598122B6FEE978D0B0485F9C41B54DDD7D022595594E1A469170414C76A4D9A4D207E29CF43ECE46F218070CC6BECC4078ACAA135ACF422C856C0E68EA1BF5669944DDD7BCDE7B1F8E415D77AECB980613C2E4AC91FC167A2B244592486606FC29C8FD7F045B9A
310
EF7053A7E60B504B0304140006080800CC70623BD9DDAED0EC0000007C01000008000000636F72652E786D6C8D90416EC3201045AF82665B61836D9CD8C2444DD39CA01740405C94182C03558F5F9C3852BBEB6A467FFE9B197D7EF89E6EE8CB2CC17A37002D0820E394D7D68D03A478C17B4007C117EFE32F1B20272733C0
310
2A83E0E3E2D3BC49CABB685CCCAAF3DA6CA20CC14440EA969B0182FA34932C648AD911AEC52CD5558EA6A0CF2EC329598D1E47ACCEFBECC59A050463A7EA5833865FEBDD0E37353BE3EE8DBDE3F6786A48D375FBF6CC78B9C282473B3DEFABC5C86834888A900E538A49F5419B9EB47DD5BC907D4F082F57FB1F28CDFA9F50
310
B22ED6D5F6EE030B20687EE43E10BC5CB3C8E51E54AE6B6EE207504B0304140006080800CC70623B55019EA25F0000007C00000007000000636E782E786D6C4DCB3B0E80201045D1AD90E915ED2CF8AC45050C11660C8261F98AB1B07AC9C97D42D718D865D3E909258CFD00CCE24AC6E326A164D74DC0B4128928FF326038
310
472BA13128B1252AC747C6BAB984FC68F0B87FE8960A5C09FE86CFB69FBA01504B0304140006080800CC70623BA24EB22D72010000D40300000C0000006662782F636F72652E786D6CC5535B6E833010BC8AE5DF0A6C5E49888CA3A6694ED00B38E05014B091B1518EDFE511A5A9D228FD2A1F60CDEC7A67C6986DCE4D8D7A
310
69BA4AAB0C073EC548AA5C17952A33ECECD15B61B4E1CC686DBF9561A44423333CC098B3D268D7CE50AE9595CA02AA74216750749DB418E5352C32DCE59FB211BE70162ABA93DF8AFC244AE9073ED050C759670D0840D390E18DF9F1706664C23973AE2A66B62A605A75ACA4C13C4976E1364A12EF355A2EBD384AF65EFA96
310
BC7B8BED2EA6719AAE16FB8491A199335B351775B991C2CA02F390D2D40B028F861F41BCA68B7518BFD0D59A524686F29B26D7164F36B94AD9289CE54E6D1DE6010819891F6E21228B3AD1831EC219194284CF98F06DD01008846CC5A1BEF83801D4CBDC6A1303536877A57A513B0953A94FC707FDBE6064EA84A9E3E6E0FA
310
EE8CF0E9198F7784A316AA0413C2C2F2E0ECA0934D1AE6D05A69BCDE9E91D2A611F573361E38FC1375157F5752AE6B6DFE4B11990F88CCBF0719EE23FF02504B0304140006080800CC70623B408A7D3B7C0000009D0000000B0000006662782F636E782E786D6C4DCCD10A83201886E15B91FFDC552A92A0064DBC8F581632
310
D3703A76F9ABD1C18E3E78F878E5F0D9027ABBFCF2292AE86E2D20171F69F6715550CB827B40839639A5F2770314A7CD293819B45C73AAFB45B35BA61ACAA1C1C7E7855C58C15BC331339661262CC762340413D68D77DA5B42298546CBE6573AF60CEB2F504B0304140006080800CC70623B449FB9BD290100001202000031
310
0000006662782F36394639363044362D344446342D343946362D394244322D3234314243333846323333332F636F72652E786D6C8D515B6EC32010BC0AE22B55850D98B871848994463E412FE002495162B07854397EA176A4F62F3F2C9A9D991D587EB84F37F0AD7D30CEF6905418026DA553C65E7A98E219ED203808EE9D
310
8B7F6810D871D23D2C3014FCE25D9A57483A1BB58D19B54EE9151C43D0110279CB971E06F9A5A7B11A53CC8C70ADE6515EC78BAE4895DB992778883E0700CB907242D17643D7E2538BD869608875438BBAE38922CAC8F1BDD90DB4691A5E2F42C153326A951B95E398B3D1FE599322163C9AE9115F7A3D46ADA0A018778810
310
84E907617BDCEE297BC5BB3DC6BC2EF47FA234AB2745C9D8D8D035EE220B50105E2F0DC1954B9FB747187D9F9D8FA0CCDB042D5FA0C015C65B42DF78BD10F3F3B363CB56C7109DCFDFBBB97E662ED92EB62D13BC2E1BCAE5777DB9966D8A1F504B0304140006080800CC70623BAD7543B64E01000033030000300000006662
310
782F36394639363044362D344446342D343946362D394244322D3234314243333846323333332F636E782E786D6CD593CD6EC32010845F0571AD6CE3D48AD20813A9873E410FBD12D82434182C7EAAE6EDBB2424CD25871E7B41D6EC30B3FA84F9E67BB2E40B4234DE8DB46F1925E094D7C6ED479AD3AE5951B2113C789FEE
310
6C943839C1488B4C05DF079FE72A69D8C96C13AAD6B8631503449F83828872B949AC57D26200B826A308D316B4064D6E46FCDA41C05550DC9E483A00797BFD207EFB092A45DE9514C1BBD22178396BD39D891265658C238DEA00936C654E5E433CB65A26D9F6EDB5EBC14EBF49A45CB856E66048291F6939A9A81BB5C89177
310
38143CA680F4AA299D66A042CEB3354A2684DC9D8D178FE0D9B8B41CAAD720F880EE7EF93C0C18769E099ECC04D5A102C8049A8A05632F4DDF376CF1DE0F6BB65C2F8627B65A33C6BB62177CEBBDAD973006829F89F22E814B54F4BC2BE347F8AA8F681390B50FA73F804400B5F542E796F19FF974E7F78DB802FE05E20750
310
4B0304140006080800CC70623B8D05915C650500003B100000340000006662782F36394639363044362D344446342D343946362D394244322D3234314243333846323333332F6F626A656374732E786D6CAD575B6FA33814FE2B887D06429276DA1565D4266D158D3A339A6846FB502932E050B66023DB74D2FDF5FB190C01
310
9276B2973C046C8ECFF53B17071F77456EBD502133CEAE6CDF9DD81665314F32965ED995DA3A17B6F5310C04E7AA47665B8C14F4CAD6DB7618A48257A5D94AE89654B91AEDDEDDFC61C998326A5B714EA4BCB265FC440BE2924AF184CA6737218AB8E976E7FA6E4338649B0A523E8D98964450A6A029F619B8588D52FE7039
310
B1BD30F0F4F730D0FF866AF6369557DB33949F31A9088B0F848DD8CCFCF9F2767A76E99CCDE733677E3EF59D9BBB9BA5E37F984D16E78BC5E5F5ED25044B25C0C96822E8D60EEFE11B91C581D77CEA34368A1F5329E68CD1B8B61F16D63A1B8E092D294B10C78C4A48EB593D192E7DED9BDEE7995E1B91FDEDD3ACEA9FE831
310
6A756F9F7D4D79F4274C90A7A04248AA51D5F8C718DAE06FB2F75AC4796EBE65D22A88A22223B995679120E2D50E41AA49C260C046A35368846B0BECD0DFF3EBEB8AD4F835768F69B9ADF25C43D30E6B646F807FAA64AD59F61715C7A54127C4AACA98BA3006A9D792DAE165E0D59B61A01FB3A9F9D838D2DAE62445C86166
310
F37564E842E7DE6A69879FEEA2DD5AE7E371E1A5E025154AC307D06A03D73EB5978C58FFA4C8E9033066E0F3BD53BEC1F39F91BE7B55103791EDE6BBB991A2046172CB4581D8B893FA674DDA17A77B3B7C413D1B511FD2743BFF8A38F03A658705E3ADF8015C3A3417FF3D7E439FF591DA0B5F18BC20C1B8981957AE6392A3
310
F43C640C01D1A0B4728E2DD4F26DB4B3C3152A252A3B4E913CEC1C72F012782FF88EFF8637AA552DBEF76408E8A8DE9E50F9E1CB3A2DA0DB1B6039A893B56063DC5B3E3FFB5F72E67AB9FEB4AEC496C4F4C1149625DD662C53E89D7BF0F6151A046260D1337DFDC94502430F83B0EE07A130A224BCAD7DAE1D9FB6CD422FF6
310
920702629C4BB9AE79C12F243C6432A6794E18E5552BA56B431AAB5D91317302B2B071E86C3A42B1A02F999E24061403B5D0EB639195DA655DD3EBEAB4FB862DDF579F014AD0E73C22F99E28DA57FB98E75C6CA2D74D53086D600F4786E0FE3144B771A8A7B900F03594DB8A633CBC49B2EDB69228BB479CF863B5E807AAAB
310
23872F6DFEB4129B949CA33823F58830E86D65621E10047D9DB34D862E8EAC3C2ABC2F7B2C40D67CDFE01F5545B92105AF983AC54D93D69E56FB8E797F88913F898A9FEC705D3F9D1B54EC8426FB500D40A03BD0119B06E1B95DDC7EB8F6975367793EBD70E66733DFB9BC982F9CE564727731999F5D4ECFCE3B8D6A4DC2A0
310
6D50FD148437D110834A64C6CDDF57FBACB5C307A2A477DFE4939736CFEF2B175371E0E10CF0DD1D5C15654E0BCA14D1E87DD02FF93782A162C0A3D95F1524A52770F972BF1EE9809D13CE7DD599467F8ECE9ADD85CE85A34CD45355448C64F9E8A031DC2D596ACC6E5DD93D9B82DE2EF5CAF81363A8E47996A0DE24564A79
310
4115AACE09C55E14540231FDA13C319787134EBF34E3A022514E5B4D9E0826E25C02D5805B15ABE1BEF51B26383D445DD9E875EE33FE4C22DA16427D65A3BCA92CA6D28DD01DF5DC53330704308475351050232CCD31583787BA75774AFB06E5070DD0C8EF484E19968C5D83BA5B90B244D31E54D55A372320FE4786B7EA58
310
44E135AA5467CB7EA333A61683CC6A8C3257034C10CF46F40EF9F5BE59BE5BD30C3C72D235E95D10345C1D45445A5F0BB47E46A5EBE5570F9380B5FA629579952296A773720405982B9DE04011506178964401AA8BDF1FBF0A8EAB6861DD6580C0E38217056766716DAEB2D6FA0917D3E4116581EADB879C4E7CFFB11EFACD
310
3D641311495D92C8676CB409A72D18610D803CE8A626049E8EC1887CB5B44CC39883690DDA8399B4B9855B481E7D71D4A9D22F96E5BB73BF5793020C02137BF837504B0304140006080000CC70623B000000000000000000000000350000006662782F36394639363044362D344446342D343946362D394244322D32343142
310
43333846323333332F76657274696365732E62696E504B0304140006080800CC70623BF270F1330600000004000000360000006662782F36394639363044362D344446342D343946362D394244322D3234314243333846323333332F747269616E676C65732E62696E636660600000504B0304140006080000CC70623B0000
310
00000000000000000000370000006662782F36394639363044362D344446342D343946362D394244322D3234314243333846323333332F617474726962757465732E62696E504B0304140006080800CC70623B08DA0BD19000000041010000360000006662782F36394639363044362D344446342D343946362D394244322D
310
3234314243333846323333332F6469726563746F72792E786D6C858F410AC3201045AF22B36F53E9A60B35CBEEBAE80D244E44489C6234F4F835464A48035D0DF398FF9F8AF63D0E6CC63039F212F8F9020C7D47C6792B21C5FE7403D62A1188E2E60C98D7234A5830286103A55745067B9D86B8A3CF9C7F90C11DE607FB14
310
4396D7B6A82D282E9A152AD114D5EF2CB866EEE831B8EEA07A7BB5A8D7D61A2BAAEB7FD5F70921FF497D00504B0304140006080800CC70623BCA768048FE000000A00100003B0000006662782F36394639363044362D344446342D343946362D394244322D3234314243333846323333332F7265736F75726365732F636F72
310
652E786D6C8D50596E833010BD0A9ADFCA60D600328E9AA639412F609909B1126CE4A5EAF16B0295DABFFECC8CDEA2797AECF8353F924FB44E193D409E5248504B332A3D0D10FC95B4901C39B3C6F85F3248B49871801506CE266BC2B243D2688FDA47549B11775038871E12F988C7004EDE7016A9083E2ADC3D5D84BC8B09
310
D33C8D74D471E6BC8D0192EDC93A815B742658898E651BCB59086ADC356A8C3FD555A1055ED7E7E254D615792D0F075295F585746FF53B694EE78A565DD736979A65AB9933AFE69F8CD2A2F038022F28ED489E135A7CE4554F9BBEA85E68DB53CAB255FEC71496F19FA6A0B42F8B3DEE6673C0F318E4497096AD7DC5F52C33
310
EEB55BFE0D504B010214000A0000080000CC70623B3DEE336E79000000790000001B00000000000000000000000000000000006175746F6465736B2D64657369676E2D7061636B6167652E786D6C504B01021400140006080800CC70623BD486FD9CA0000000F40000001300000000000000000000000000B20000005B436F
310
6E74656E745F54797065735D2E786D6C504B01021400140006080800CC70623BD9DDAED0EC0000007C010000080000000000000000000000000083010000636F72652E786D6C504B01021400140006080800CC70623B55019EA25F0000007C000000070000000000000000000000000095020000636E782E786D6C504B0102
310
1400140006080800CC70623BA24EB22D72010000D40300000C00000000000000000000000000190300006662782F636F72652E786D6C504B01021400140006080800CC70623B408A7D3B7C0000009D0000000B00000000000000000000000000B50400006662782F636E782E786D6C504B01021400140006080800CC70623B
310
449FB9BD290100001202000031000000000000000000000000005A0500006662782F36394639363044362D344446342D343946362D394244322D3234314243333846323333332F636F72652E786D6C504B01021400140006080800CC70623BAD7543B64E010000330300003000000000000000000000000000D20600006662
310
782F36394639363044362D344446342D343946362D394244322D3234314243333846323333332F636E782E786D6C504B01021400140006080800CC70623B8D05915C650500003B10000034000000000000000000000000006E0800006662782F36394639363044362D344446342D343946362D394244322D32343142433338
310
46323333332F6F626A656374732E786D6C504B01021400140006080000CC70623B0000000000000000000000003500000000000000000000000000250E00006662782F36394639363044362D344446342D343946362D394244322D3234314243333846323333332F76657274696365732E62696E504B010214001400060808
310
00CC70623BF270F13306000000040000003600000000000000000000000000780E00006662782F36394639363044362D344446342D343946362D394244322D3234314243333846323333332F747269616E676C65732E62696E504B01021400140006080000CC70623B00000000000000000000000037000000000000000000
310
00000000D20E00006662782F36394639363044362D344446342D343946362D394244322D3234314243333846323333332F617474726962757465732E62696E504B01021400140006080800CC70623B08DA0BD190000000410100003600000000000000000000000000270F00006662782F36394639363044362D344446342D
310
343946362D394244322D3234314243333846323333332F6469726563746F72792E786D6C504B01021400140006080800CC70623BCA768048FE000000A00100003B000000000000000000000000000B1000006662782F36394639363044362D344446342D343946362D394244322D3234314243333846323333332F7265736F
310
75726365732F636F72652E786D6C504B0506000000000E000E0080040000621100000000
  0
XRECORD
  5
176
102
{ACAD_REACTORS
330
173
102
}
330
173
100
AcDbXrecord
280
     1
270
     1
271
     1
  0
XRECORD
  5
177
102
{ACAD_REACTORS
330
173
102
}
330
173
100
AcDbXrecord
280
     1
270
     1
271
     1
  0
XRECORD
  5
E6B
102
{ACAD_REACTORS
330
E6A
102
}
330
E6A
100
AcDbXrecord
280
     1
102
DISPLAYNAME
  1
Metric50
102
FLAGS
 90
        0
  0
CELLSTYLEMAP
  5
E30
102
{ACAD_REACTORS
330
162
102
}
330
162
100
AcDbCellStyleMap
 90
        3
300
CELLSTYLE
  1
TABLEFORMAT_BEGIN
 90
        5
170
     1
 91
        0
 92
    32768
 62
   257
 93
        1
300
CONTENTFORMAT
  1
CONTENTFORMAT_BEGIN
 90
        0
 91
        0
 92
      512
 93
        0
300

 40
0.0
140
1.0
 94
        5
 62
     0
340
11
144
6.0
309
CONTENTFORMAT_END
171
     1
301
MARGIN
  1
CELLMARGIN_BEGIN
 40
1.5
 40
1.5
 40
1.5
 40
1.5
 40
4.5
 40
4.5
309
CELLMARGIN_END
 94
        6
 95
        1
302
GRIDFORMAT
  1
GRIDFORMAT_BEGIN
 90
        0
 91
        1
 62
     0
 92
       -2
340
14
 93
        0
 40
1.125
309
GRIDFORMAT_END
 95
        2
302
GRIDFORMAT
  1
GRIDFORMAT_BEGIN
 90
        0
 91
        1
 62
     0
 92
       -2
340
14
 93
        0
 40
1.125
309
GRIDFORMAT_END
 95
        4
302
GRIDFORMAT
  1
GRIDFORMAT_BEGIN
 90
        0
 91
        1
 62
     0
 92
       -2
340
14
 93
        0
 40
1.125
309
GRIDFORMAT_END
 95
        8
302
GRIDFORMAT
  1
GRIDFORMAT_BEGIN
 90
        0
 91
        1
 62
     0
 92
       -2
340
14
 93
        0
 40
1.125
309
GRIDFORMAT_END
 95
       16
302
GRIDFORMAT
  1
GRIDFORMAT_BEGIN
 90
        0
 91
        1
 62
     0
 92
       -2
340
14
 93
        0
 40
1.125
309
GRIDFORMAT_END
 95
       32
302
GRIDFORMAT
  1
GRIDFORMAT_BEGIN
 90
        0
 91
        1
 62
     0
 92
       -2
340
14
 93
        0
 40
1.125
309
GRIDFORMAT_END
309
TABLEFORMAT_END
  1
CELLSTYLE_BEGIN
 90
        1
 91
        1
300
_TITLE
309
CELLSTYLE_END
300
CELLSTYLE
  1
TABLEFORMAT_BEGIN
 90
        5
170
     1
 91
        0
 92
        0
 62
   257
 93
        1
300
CONTENTFORMAT
  1
CONTENTFORMAT_BEGIN
 90
        0
 91
        0
 92
      512
 93
        0
300

 40
0.0
140
1.0
 94
        5
 62
     0
340
11
144
4.5
309
CONTENTFORMAT_END
171
     1
301
MARGIN
  1
CELLMARGIN_BEGIN
 40
1.5
 40
1.5
 40
1.5
 40
1.5
 40
4.5
 40
4.5
309
CELLMARGIN_END
 94
        6
 95
        1
302
GRIDFORMAT
  1
GRIDFORMAT_BEGIN
 90
        0
 91
        1
 62
     0
 92
       -2
340
14
 93
        0
 40
1.125
309
GRIDFORMAT_END
 95
        2
302
GRIDFORMAT
  1
GRIDFORMAT_BEGIN
 90
        0
 91
        1
 62
     0
 92
       -2
340
14
 93
        0
 40
1.125
309
GRIDFORMAT_END
 95
        4
302
GRIDFORMAT
  1
GRIDFORMAT_BEGIN
 90
        0
 91
        1
 62
     0
 92
       -2
340
14
 93
        0
 40
1.125
309
GRIDFORMAT_END
 95
        8
302
GRIDFORMAT
  1
GRIDFORMAT_BEGIN
 90
        0
 91
        1
 62
     0
 92
       -2
340
14
 93
        0
 40
1.125
309
GRIDFORMAT_END
 95
       16
302
GRIDFORMAT
  1
GRIDFORMAT_BEGIN
 90
        0
 91
        1
 62
     0
 92
       -2
340
14
 93
        0
 40
1.125
309
GRIDFORMAT_END
 95
       32
302
GRIDFORMAT
  1
GRIDFORMAT_BEGIN
 90
        0
 91
        1
 62
     0
 92
       -2
340
14
 93
        0
 40
1.125
309
GRIDFORMAT_END
309
TABLEFORMAT_END
  1
CELLSTYLE_BEGIN
 90
        2
 91
        1
300
_HEADER
309
CELLSTYLE_END
300
CELLSTYLE
  1
TABLEFORMAT_BEGIN
 90
        5
170
     1
 91
        0
 92
        0
 62
   257
 93
        1
300
CONTENTFORMAT
  1
CONTENTFORMAT_BEGIN
 90
        0
 91
        0
 92
      512
 93
        0
300

 40
0.0
140
1.0
 94
        2
 62
     0
340
11
144
4.5
309
CONTENTFORMAT_END
171
     1
301
MARGIN
  1
CELLMARGIN_BEGIN
 40
1.5
 40
1.5
 40
1.5
 40
1.5
 40
4.5
 40
4.5
309
CELLMARGIN_END
 94
        6
 95
        1
302
GRIDFORMAT
  1
GRIDFORMAT_BEGIN
 90
        0
 91
        1
 62
     0
 92
       -2
340
14
 93
        0
 40
1.125
309
GRIDFORMAT_END
 95
        2
302
GRIDFORMAT
  1
GRIDFORMAT_BEGIN
 90
        0
 91
        1
 62
     0
 92
       -2
340
14
 93
        0
 40
1.125
309
GRIDFORMAT_END
 95
        4
302
GRIDFORMAT
  1
GRIDFORMAT_BEGIN
 90
        0
 91
        1
 62
     0
 92
       -2
340
14
 93
        0
 40
1.125
309
GRIDFORMAT_END
 95
        8
302
GRIDFORMAT
  1
GRIDFORMAT_BEGIN
 90
        0
 91
        1
 62
     0
 92
       -2
340
14
 93
        0
 40
1.125
309
GRIDFORMAT_END
 95
       16
302
GRIDFORMAT
  1
GRIDFORMAT_BEGIN
 90
        0
 91
        1
 62
     0
 92
       -2
340
14
 93
        0
 40
1.125
309
GRIDFORMAT_END
 95
       32
302
GRIDFORMAT
  1
GRIDFORMAT_BEGIN
 90
        0
 91
        1
 62
     0
 92
       -2
340
14
 93
        0
 40
1.125
309
GRIDFORMAT_END
309
TABLEFORMAT_END
  1
CELLSTYLE_BEGIN
 90
        3
 91
        2
300
_DATA
309
CELLSTYLE_END
  0
XRECORD
  5
E45
102
{ACAD_REACTORS
330
E44
102
}
330
E44
100
AcDbXrecord
280
     1
102
RTVSPost2010Prop28
280
     1
102
RTVSPost2010PropOp28
 70
     1
102
RTVSPost2010Prop29
280
     1
102
RTVSPost2010PropOp29
 70
     1
102
RTVSPost2010Prop30
280
     0
102
RTVSPost2010PropOp30
 70
     1
102
RTVSPost2010Prop31
280
     0
102
RTVSPost2010PropOp31
 70
     1
102
RTVSPost2010Prop32
280
     0
102
RTVSPost2010PropOp32
 70
     1
102
RTVSPost2010Prop33
280
     0
102
RTVSPost2010PropOp33
 70
     1
102
RTVSPost2010Prop34
280
     0
102
RTVSPost2010PropOp34
 70
     1
102
RTVSPost2010Prop35
280
     0
102
RTVSPost2010PropOp35
 70
     1
102
RTVSPost2010Prop36
280
     0
102
RTVSPost2010PropOp36
 70
     1
102
RTVSPost2010Prop37
 90
       50
102
RTVSPost2010PropOp37
 70
     1
102
RTVSPost2010Prop38
140
0.0
102
RTVSPost2010PropOp38
 70
     1
102
RTVSPost2010Prop39
140
1.0
102
RTVSPost2010PropOp39
 70
     1
102
RTVSPost2010Prop40
 90
        0
102
RTVSPost2010PropOp40
 70
     1
102
RTVSPost2010Prop41ColorIndex
 90
       18
102
RTVSPost2010Prop41ColorRGB
 90
        0
102
RTVSPost2010PropOp41
 70
     1
102
RTVSPost2010Prop42
 90
       50
102
RTVSPost2010PropOp42
 70
     1
102
RTVSPost2010Prop43
 90
        3
102
RTVSPost2010PropOp43
 70
     1
102
RTVSPost2010Prop44ColorIndex
 90
        5
102
RTVSPost2010Prop44ColorRGB
 90
      255
102
RTVSPost2010PropOp44
 70
     1
102
RTVSPost2010Prop45
280
     0
102
RTVSPost2010PropOp45
 70
     1
102
RTVSPost2010Prop46
 90
       50
102
RTVSPost2010PropOp46
 70
     1
102
RTVSPost2010Prop47
 90
       50
102
RTVSPost2010PropOp47
 70
     1
102
RTVSPost2010Prop48
 90
       50
102
RTVSPost2010PropOp48
 70
     1
102
RTVSPost2010Prop49
280
     0
102
RTVSPost2010PropOp49
 70
     1
102
RTVSPost2010Prop50
 90
       50
102
RTVSPost2010PropOp50
 70
     1
102
RTVSPost2010Prop51ColorIndex
 90
      256
102
RTVSPost2010Prop51ColorRGB
 90
-16777216
102
RTVSPost2010PropOp51
 70
     0
102
RTVSPost2010Prop52
140
1.0
102
RTVSPost2010PropOp52
 70
     0
102
RTVSPost2010Prop53
 90
        2
102
RTVSPost2010PropOp53
 70
     1
102
RTVSPost2010Prop54
  1
strokes_ogs.tif
102
RTVSPost2010PropOp54
 70
     1
102
RTVSPost2010Prop55
280
     0
102
RTVSPost2010PropOp55
 70
     1
102
RTVSPost2010Prop56
140
1.0
102
RTVSPost2010PropOp56
 70
     1
102
RTVSPost2010Prop57
140
1.0
102
RTVSPost2010PropOp57
 70
     1
102
RTVSPropertyOp0
 70
     1
102
RTVSPropertyOp1
 70
     1
102
RTVSPropertyOp2
 70
     1
102
RTVSPropertyOp3
 70
     1
102
RTVSPropertyOp4
 70
     1
102
RTVSPropertyOp5
 70
     1
102
RTVSPropertyOp6
 70
     1
102
RTVSPropertyOp7
 70
     1
102
RTVSPropertyOp8
 70
     1
102
RTVSPropertyOp9
 70
     1
102
RTVSPropertyOp10
 70
     1
102
RTVSPropertyOp11
 70
     1
102
RTVSPropertyOp12
 70
     1
102
RTVSPropertyOp13
 70
     1
102
RTVSPropertyOp14
 70
     1
102
RTVSPropertyOp15
 70
     1
102
RTVSPropertyOp16
 70
     1
102
RTVSPropertyOp17
 70
     1
102
RTVSPropertyOp18
 70
     1
102
RTVSPropertyOp19
 70
     1
102
RTVSPropertyOp20
 70
     1
102
RTVSPropertyOp21
 70
     1
102
RTVSPropertyOp22
 70
     1
102
RTVSPropertyOp23
 70
     1
102
RTVSPropertyOp24
 70
     1
102
RTVSPropertyOp25
 70
     1
102
RTVSPropertyOp26
 70
     1
102
RTVSPropertyOp27
 70
     1
102
RTVSPropertyOp28
 70
     1
102
RTVSPropertyOp29
 70
     1
102
RTVSPropertyOp30
 70
     1
102
RTVSPropertyOp31
 70
     1
102
RTVSPropertyOp32
 70
     1
102
RTVSPropertyOp33
 70
     1
102
RTVSPropertyOp34
 70
     1
102
RTVSPropertyOp35
 70
     1
102
RTVSPropertyOp36
 70
     1
102
RTVSPropertyOp37
 70
     1
102
RTVSPropertyOp38
 70
     1
102
RTVSPropertyOp39
 70
     1
102
RTVSPropertyOp40
 70
     1
102
RTVSPropertyOp41
 70
     1
102
RTVSPropertyOp42
 70
     1
102
RTVSPropertyOp43
 70
     1
102
RTVSPropertyOp44
 70
     1
102
RTVSPropertyOp45
 70
     1
102
RTVSPropertyOp46
 70
     1
102
RTVSPropertyOp47
 70
     1
102
RTVSPropertyOp48
 70
     1
102
RTVSPropertyOp49
 70
     1
102
RTVSPropertyOp50
 70
     1
102
RTVSPropertyOp51
 70
     0
102
RTVSPropertyOp52
 70
     0
102
RTVSPropertyOp53
 70
     1
102
RTVSPropertyOp54
 70
     1
102
RTVSPropertyOp55
 70
     1
102
RTVSPropertyOp56
 70
     1
102
RTVSPropertyOp57
 70
     1
102
RTVSPropertyOp58
 70
     1
102
RTVSPropertyOp59
 70
     1
102
RTVSPropertyOp60
 70
     1
102
RTVSPropertyOp61
 70
     1
102
RTVSPropertyOp62
 70
     1
  0
XRECORD
  5
E43
102
{ACAD_REACTORS
330
E42
102
}
330
E42
100
AcDbXrecord
280
     1
102
RTVSPost2010Prop28
280
     0
102
RTVSPost2010PropOp28
 70
     1
102
RTVSPost2010Prop29
280
     1
102
RTVSPost2010PropOp29
 70
     1
102
RTVSPost2010Prop30
280
     1
102
RTVSPost2010PropOp30
 70
     1
102
RTVSPost2010Prop31
280
     0
102
RTVSPost2010PropOp31
 70
     1
102
RTVSPost2010Prop32
280
     0
102
RTVSPost2010PropOp32
 70
     1
102
RTVSPost2010Prop33
280
     0
102
RTVSPost2010PropOp33
 70
     1
102
RTVSPost2010Prop34
280
     0
102
RTVSPost2010PropOp34
 70
     1
102
RTVSPost2010Prop35
280
     0
102
RTVSPost2010PropOp35
 70
     1
102
RTVSPost2010Prop36
280
     0
102
RTVSPost2010PropOp36
 70
     1
102
RTVSPost2010Prop37
 90
       50
102
RTVSPost2010PropOp37
 70
     1
102
RTVSPost2010Prop38
140
0.0
102
RTVSPost2010PropOp38
 70
     1
102
RTVSPost2010Prop39
140
1.0
102
RTVSPost2010PropOp39
 70
     1
102
RTVSPost2010Prop40
 90
        0
102
RTVSPost2010PropOp40
 70
     1
102
RTVSPost2010Prop41ColorIndex
 90
       18
102
RTVSPost2010Prop41ColorRGB
 90
        0
102
RTVSPost2010PropOp41
 70
     1
102
RTVSPost2010Prop42
 90
       50
102
RTVSPost2010PropOp42
 70
     1
102
RTVSPost2010Prop43
 90
        3
102
RTVSPost2010PropOp43
 70
     1
102
RTVSPost2010Prop44ColorIndex
 90
        5
102
RTVSPost2010Prop44ColorRGB
 90
      255
102
RTVSPost2010PropOp44
 70
     1
102
RTVSPost2010Prop45
280
     0
102
RTVSPost2010PropOp45
 70
     1
102
RTVSPost2010Prop46
 90
       50
102
RTVSPost2010PropOp46
 70
     1
102
RTVSPost2010Prop47
 90
       50
102
RTVSPost2010PropOp47
 70
     1
102
RTVSPost2010Prop48
 90
       50
102
RTVSPost2010PropOp48
 70
     1
102
RTVSPost2010Prop49
280
     0
102
RTVSPost2010PropOp49
 70
     1
102
RTVSPost2010Prop50
 90
       50
102
RTVSPost2010PropOp50
 70
     1
102
RTVSPost2010Prop51ColorIndex
 90
      256
102
RTVSPost2010Prop51ColorRGB
 90
-16777216
102
RTVSPost2010PropOp51
 70
     0
102
RTVSPost2010Prop52
140
1.0
102
RTVSPost2010PropOp52
 70
     0
102
RTVSPost2010Prop53
 90
        2
102
RTVSPost2010PropOp53
 70
     1
102
RTVSPost2010Prop54
  1
strokes_ogs.tif
102
RTVSPost2010PropOp54
 70
     1
102
RTVSPost2010Prop55
280
     0
102
RTVSPost2010PropOp55
 70
     1
102
RTVSPost2010Prop56
140
1.0
102
RTVSPost2010PropOp56
 70
     1
102
RTVSPost2010Prop57
140
1.0
102
RTVSPost2010PropOp57
 70
     1
102
RTVSPropertyOp0
 70
     1
102
RTVSPropertyOp1
 70
     1
102
RTVSPropertyOp2
 70
     1
102
RTVSPropertyOp3
 70
     1
102
RTVSPropertyOp4
 70
     1
102
RTVSPropertyOp5
 70
     1
102
RTVSPropertyOp6
 70
     1
102
RTVSPropertyOp7
 70
     1
102
RTVSPropertyOp8
 70
     1
102
RTVSPropertyOp9
 70
     1
102
RTVSPropertyOp10
 70
     1
102
RTVSPropertyOp11
 70
     1
102
RTVSPropertyOp12
 70
     1
102
RTVSPropertyOp13
 70
     1
102
RTVSPropertyOp14
 70
     1
102
RTVSPropertyOp15
 70
     1
102
RTVSPropertyOp16
 70
     1
102
RTVSPropertyOp17
 70
     1
102
RTVSPropertyOp18
 70
     1
102
RTVSPropertyOp19
 70
     1
102
RTVSPropertyOp20
 70
     1
102
RTVSPropertyOp21
 70
     1
102
RTVSPropertyOp22
 70
     1
102
RTVSPropertyOp23
 70
     1
102
RTVSPropertyOp24
 70
     1
102
RTVSPropertyOp25
 70
     1
102
RTVSPropertyOp26
 70
     1
102
RTVSPropertyOp27
 70
     1
102
RTVSPropertyOp28
 70
     1
102
RTVSPropertyOp29
 70
     1
102
RTVSPropertyOp30
 70
     1
102
RTVSPropertyOp31
 70
     1
102
RTVSPropertyOp32
 70
     1
102
RTVSPropertyOp33
 70
     1
102
RTVSPropertyOp34
 70
     1
102
RTVSPropertyOp35
 70
     1
102
RTVSPropertyOp36
 70
     1
102
RTVSPropertyOp37
 70
     1
102
RTVSPropertyOp38
 70
     1
102
RTVSPropertyOp39
 70
     1
102
RTVSPropertyOp40
 70
     1
102
RTVSPropertyOp41
 70
     1
102
RTVSPropertyOp42
 70
     1
102
RTVSPropertyOp43
 70
     1
102
RTVSPropertyOp44
 70
     1
102
RTVSPropertyOp45
 70
     1
102
RTVSPropertyOp46
 70
     1
102
RTVSPropertyOp47
 70
     1
102
RTVSPropertyOp48
 70
     1
102
RTVSPropertyOp49
 70
     1
102
RTVSPropertyOp50
 70
     1
102
RTVSPropertyOp51
 70
     0
102
RTVSPropertyOp52
 70
     0
102
RTVSPropertyOp53
 70
     1
102
RTVSPropertyOp54
 70
     1
102
RTVSPropertyOp55
 70
     1
102
RTVSPropertyOp56
 70
     1
102
RTVSPropertyOp57
 70
     1
102
RTVSPropertyOp58
 70
     1
102
RTVSPropertyOp59
 70
     1
102
RTVSPropertyOp60
 70
     1
102
RTVSPropertyOp61
 70
     1
102
RTVSPropertyOp62
 70
     1
  0
XRECORD
  5
E51
102
{ACAD_REACTORS
330
E50
102
}
330
E50
100
AcDbXrecord
280
     1
102
RTVSPost2010Prop28
280
     0
102
RTVSPost2010PropOp28
 70
     1
102
RTVSPost2010Prop29
280
     1
102
RTVSPost2010PropOp29
 70
     1
102
RTVSPost2010Prop30
280
     1
102
RTVSPost2010PropOp30
 70
     1
102
RTVSPost2010Prop31
280
     0
102
RTVSPost2010PropOp31
 70
     1
102
RTVSPost2010Prop32
280
     0
102
RTVSPost2010PropOp32
 70
     1
102
RTVSPost2010Prop33
280
     0
102
RTVSPost2010PropOp33
 70
     1
102
RTVSPost2010Prop34
280
     0
102
RTVSPost2010PropOp34
 70
     1
102
RTVSPost2010Prop35
280
     0
102
RTVSPost2010PropOp35
 70
     1
102
RTVSPost2010Prop36
280
     0
102
RTVSPost2010PropOp36
 70
     1
102
RTVSPost2010Prop37
 90
       50
102
RTVSPost2010PropOp37
 70
     1
102
RTVSPost2010Prop38
140
0.0
102
RTVSPost2010PropOp38
 70
     1
102
RTVSPost2010Prop39
140
1.0
102
RTVSPost2010PropOp39
 70
     1
102
RTVSPost2010Prop40
 90
        0
102
RTVSPost2010PropOp40
 70
     1
102
RTVSPost2010Prop41ColorIndex
 90
       18
102
RTVSPost2010Prop41ColorRGB
 90
        0
102
RTVSPost2010PropOp41
 70
     1
102
RTVSPost2010Prop42
 90
       50
102
RTVSPost2010PropOp42
 70
     1
102
RTVSPost2010Prop43
 90
        3
102
RTVSPost2010PropOp43
 70
     1
102
RTVSPost2010Prop44ColorIndex
 90
        5
102
RTVSPost2010Prop44ColorRGB
 90
      255
102
RTVSPost2010PropOp44
 70
     1
102
RTVSPost2010Prop45
280
     0
102
RTVSPost2010PropOp45
 70
     1
102
RTVSPost2010Prop46
 90
       50
102
RTVSPost2010PropOp46
 70
     1
102
RTVSPost2010Prop47
 90
       50
102
RTVSPost2010PropOp47
 70
     1
102
RTVSPost2010Prop48
 90
       50
102
RTVSPost2010PropOp48
 70
     1
102
RTVSPost2010Prop49
280
     0
102
RTVSPost2010PropOp49
 70
     1
102
RTVSPost2010Prop50
 90
       50
102
RTVSPost2010PropOp50
 70
     1
102
RTVSPost2010Prop51ColorIndex
 90
      256
102
RTVSPost2010Prop51ColorRGB
 90
-16777216
102
RTVSPost2010PropOp51
 70
     0
102
RTVSPost2010Prop52
140
1.0
102
RTVSPost2010PropOp52
 70
     0
102
RTVSPost2010Prop53
 90
        2
102
RTVSPost2010PropOp53
 70
     1
102
RTVSPost2010Prop54
  1
strokes_ogs.tif
102
RTVSPost2010PropOp54
 70
     1
102
RTVSPost2010Prop55
280
     0
102
RTVSPost2010PropOp55
 70
     1
102
RTVSPost2010Prop56
140
1.0
102
RTVSPost2010PropOp56
 70
     1
102
RTVSPost2010Prop57
140
1.0
102
RTVSPost2010PropOp57
 70
     1
102
RTVSPropertyOp0
 70
     1
102
RTVSPropertyOp1
 70
     1
102
RTVSPropertyOp2
 70
     1
102
RTVSPropertyOp3
 70
     1
102
RTVSPropertyOp4
 70
     1
102
RTVSPropertyOp5
 70
     1
102
RTVSPropertyOp6
 70
     1
102
RTVSPropertyOp7
 70
     1
102
RTVSPropertyOp8
 70
     1
102
RTVSPropertyOp9
 70
     1
102
RTVSPropertyOp10
 70
     1
102
RTVSPropertyOp11
 70
     1
102
RTVSPropertyOp12
 70
     1
102
RTVSPropertyOp13
 70
     1
102
RTVSPropertyOp14
 70
     1
102
RTVSPropertyOp15
 70
     1
102
RTVSPropertyOp16
 70
     1
102
RTVSPropertyOp17
 70
     1
102
RTVSPropertyOp18
 70
     1
102
RTVSPropertyOp19
 70
     1
102
RTVSPropertyOp20
 70
     1
102
RTVSPropertyOp21
 70
     1
102
RTVSPropertyOp22
 70
     1
102
RTVSPropertyOp23
 70
     1
102
RTVSPropertyOp24
 70
     1
102
RTVSPropertyOp25
 70
     1
102
RTVSPropertyOp26
 70
     1
102
RTVSPropertyOp27
 70
     1
102
RTVSPropertyOp28
 70
     1
102
RTVSPropertyOp29
 70
     1
102
RTVSPropertyOp30
 70
     1
102
RTVSPropertyOp31
 70
     1
102
RTVSPropertyOp32
 70
     1
102
RTVSPropertyOp33
 70
     1
102
RTVSPropertyOp34
 70
     1
102
RTVSPropertyOp35
 70
     1
102
RTVSPropertyOp36
 70
     1
102
RTVSPropertyOp37
 70
     1
102
RTVSPropertyOp38
 70
     1
102
RTVSPropertyOp39
 70
     1
102
RTVSPropertyOp40
 70
     1
102
RTVSPropertyOp41
 70
     1
102
RTVSPropertyOp42
 70
     1
102
RTVSPropertyOp43
 70
     1
102
RTVSPropertyOp44
 70
     1
102
RTVSPropertyOp45
 70
     1
102
RTVSPropertyOp46
 70
     1
102
RTVSPropertyOp47
 70
     1
102
RTVSPropertyOp48
 70
     1
102
RTVSPropertyOp49
 70
     1
102
RTVSPropertyOp50
 70
     1
102
RTVSPropertyOp51
 70
     0
102
RTVSPropertyOp52
 70
     0
102
RTVSPropertyOp53
 70
     1
102
RTVSPropertyOp54
 70
     1
102
RTVSPropertyOp55
 70
     1
102
RTVSPropertyOp56
 70
     1
102
RTVSPropertyOp57
 70
     1
102
RTVSPropertyOp58
 70
     1
102
RTVSPropertyOp59
 70
     1
102
RTVSPropertyOp60
 70
     1
102
RTVSPropertyOp61
 70
     1
102
RTVSPropertyOp62
 70
     1
  0
XRECORD
  5
E59
102
{ACAD_REACTORS
330
E58
102
}
330
E58
100
AcDbXrecord
280
     1
102
RTVSPost2010Prop28
280
     0
102
RTVSPost2010PropOp28
 70
     1
102
RTVSPost2010Prop29
280
     1
102
RTVSPost2010PropOp29
 70
     1
102
RTVSPost2010Prop30
280
     1
102
RTVSPost2010PropOp30
 70
     1
102
RTVSPost2010Prop31
280
     0
102
RTVSPost2010PropOp31
 70
     1
102
RTVSPost2010Prop32
280
     0
102
RTVSPost2010PropOp32
 70
     1
102
RTVSPost2010Prop33
280
     0
102
RTVSPost2010PropOp33
 70
     1
102
RTVSPost2010Prop34
280
     0
102
RTVSPost2010PropOp34
 70
     1
102
RTVSPost2010Prop35
280
     0
102
RTVSPost2010PropOp35
 70
     1
102
RTVSPost2010Prop36
280
     0
102
RTVSPost2010PropOp36
 70
     1
102
RTVSPost2010Prop37
 90
       50
102
RTVSPost2010PropOp37
 70
     1
102
RTVSPost2010Prop38
140
0.0
102
RTVSPost2010PropOp38
 70
     1
102
RTVSPost2010Prop39
140
1.0
102
RTVSPost2010PropOp39
 70
     1
102
RTVSPost2010Prop40
 90
        0
102
RTVSPost2010PropOp40
 70
     1
102
RTVSPost2010Prop41ColorIndex
 90
       18
102
RTVSPost2010Prop41ColorRGB
 90
        0
102
RTVSPost2010PropOp41
 70
     1
102
RTVSPost2010Prop42
 90
       50
102
RTVSPost2010PropOp42
 70
     1
102
RTVSPost2010Prop43
 90
        3
102
RTVSPost2010PropOp43
 70
     1
102
RTVSPost2010Prop44ColorIndex
 90
        5
102
RTVSPost2010Prop44ColorRGB
 90
      255
102
RTVSPost2010PropOp44
 70
     1
102
RTVSPost2010Prop45
280
     0
102
RTVSPost2010PropOp45
 70
     1
102
RTVSPost2010Prop46
 90
       50
102
RTVSPost2010PropOp46
 70
     1
102
RTVSPost2010Prop47
 90
       50
102
RTVSPost2010PropOp47
 70
     1
102
RTVSPost2010Prop48
 90
       50
102
RTVSPost2010PropOp48
 70
     1
102
RTVSPost2010Prop49
280
     0
102
RTVSPost2010PropOp49
 70
     1
102
RTVSPost2010Prop50
 90
       50
102
RTVSPost2010PropOp50
 70
     1
102
RTVSPost2010Prop51ColorIndex
 90
      256
102
RTVSPost2010Prop51ColorRGB
 90
-16777216
102
RTVSPost2010PropOp51
 70
     0
102
RTVSPost2010Prop52
140
1.0
102
RTVSPost2010PropOp52
 70
     0
102
RTVSPost2010Prop53
 90
        2
102
RTVSPost2010PropOp53
 70
     1
102
RTVSPost2010Prop54
  1
strokes_ogs.tif
102
RTVSPost2010PropOp54
 70
     1
102
RTVSPost2010Prop55
280
     0
102
RTVSPost2010PropOp55
 70
     1
102
RTVSPost2010Prop56
140
1.0
102
RTVSPost2010PropOp56
 70
     1
102
RTVSPost2010Prop57
140
1.0
102
RTVSPost2010PropOp57
 70
     1
102
RTVSPropertyOp0
 70
     1
102
RTVSPropertyOp1
 70
     1
102
RTVSPropertyOp2
 70
     1
102
RTVSPropertyOp3
 70
     1
102
RTVSPropertyOp4
 70
     1
102
RTVSPropertyOp5
 70
     1
102
RTVSPropertyOp6
 70
     1
102
RTVSPropertyOp7
 70
     1
102
RTVSPropertyOp8
 70
     1
102
RTVSPropertyOp9
 70
     1
102
RTVSPropertyOp10
 70
     1
102
RTVSPropertyOp11
 70
     1
102
RTVSPropertyOp12
 70
     1
102
RTVSPropertyOp13
 70
     1
102
RTVSPropertyOp14
 70
     1
102
RTVSPropertyOp15
 70
     1
102
RTVSPropertyOp16
 70
     1
102
RTVSPropertyOp17
 70
     1
102
RTVSPropertyOp18
 70
     1
102
RTVSPropertyOp19
 70
     1
102
RTVSPropertyOp20
 70
     1
102
RTVSPropertyOp21
 70
     1
102
RTVSPropertyOp22
 70
     1
102
RTVSPropertyOp23
 70
     1
102
RTVSPropertyOp24
 70
     1
102
RTVSPropertyOp25
 70
     1
102
RTVSPropertyOp26
 70
     1
102
RTVSPropertyOp27
 70
     1
102
RTVSPropertyOp28
 70
     1
102
RTVSPropertyOp29
 70
     1
102
RTVSPropertyOp30
 70
     1
102
RTVSPropertyOp31
 70
     1
102
RTVSPropertyOp32
 70
     1
102
RTVSPropertyOp33
 70
     1
102
RTVSPropertyOp34
 70
     1
102
RTVSPropertyOp35
 70
     1
102
RTVSPropertyOp36
 70
     1
102
RTVSPropertyOp37
 70
     1
102
RTVSPropertyOp38
 70
     1
102
RTVSPropertyOp39
 70
     1
102
RTVSPropertyOp40
 70
     1
102
RTVSPropertyOp41
 70
     1
102
RTVSPropertyOp42
 70
     1
102
RTVSPropertyOp43
 70
     1
102
RTVSPropertyOp44
 70
     1
102
RTVSPropertyOp45
 70
     1
102
RTVSPropertyOp46
 70
     1
102
RTVSPropertyOp47
 70
     1
102
RTVSPropertyOp48
 70
     1
102
RTVSPropertyOp49
 70
     1
102
RTVSPropertyOp50
 70
     1
102
RTVSPropertyOp51
 70
     0
102
RTVSPropertyOp52
 70
     0
102
RTVSPropertyOp53
 70
     1
102
RTVSPropertyOp54
 70
     1
102
RTVSPropertyOp55
 70
     1
102
RTVSPropertyOp56
 70
     1
102
RTVSPropertyOp57
 70
     1
102
RTVSPropertyOp58
 70
     1
102
RTVSPropertyOp59
 70
     1
102
RTVSPropertyOp60
 70
     1
102
RTVSPropertyOp61
 70
     1
102
RTVSPropertyOp62
 70
     1
  0
XRECORD
  5
E4B
102
{ACAD_REACTORS
330
E4A
102
}
330
E4A
100
AcDbXrecord
280
     1
102
RTVSPost2010Prop28
280
     0
102
RTVSPost2010PropOp28
 70
     1
102
RTVSPost2010Prop29
280
     1
102
RTVSPost2010PropOp29
 70
     1
102
RTVSPost2010Prop30
280
     1
102
RTVSPost2010PropOp30
 70
     1
102
RTVSPost2010Prop31
280
     0
102
RTVSPost2010PropOp31
 70
     1
102
RTVSPost2010Prop32
280
     0
102
RTVSPost2010PropOp32
 70
     1
102
RTVSPost2010Prop33
280
     0
102
RTVSPost2010PropOp33
 70
     1
102
RTVSPost2010Prop34
280
     0
102
RTVSPost2010PropOp34
 70
     1
102
RTVSPost2010Prop35
280
     0
102
RTVSPost2010PropOp35
 70
     1
102
RTVSPost2010Prop36
280
     0
102
RTVSPost2010PropOp36
 70
     1
102
RTVSPost2010Prop37
 90
       50
102
RTVSPost2010PropOp37
 70
     1
102
RTVSPost2010Prop38
140
0.0
102
RTVSPost2010PropOp38
 70
     1
102
RTVSPost2010Prop39
140
1.0
102
RTVSPost2010PropOp39
 70
     1
102
RTVSPost2010Prop40
 90
        0
102
RTVSPost2010PropOp40
 70
     1
102
RTVSPost2010Prop41ColorIndex
 90
       18
102
RTVSPost2010Prop41ColorRGB
 90
        0
102
RTVSPost2010PropOp41
 70
     1
102
RTVSPost2010Prop42
 90
       50
102
RTVSPost2010PropOp42
 70
     1
102
RTVSPost2010Prop43
 90
        3
102
RTVSPost2010PropOp43
 70
     1
102
RTVSPost2010Prop44ColorIndex
 90
        5
102
RTVSPost2010Prop44ColorRGB
 90
      255
102
RTVSPost2010PropOp44
 70
     1
102
RTVSPost2010Prop45
280
     0
102
RTVSPost2010PropOp45
 70
     1
102
RTVSPost2010Prop46
 90
       50
102
RTVSPost2010PropOp46
 70
     1
102
RTVSPost2010Prop47
 90
       50
102
RTVSPost2010PropOp47
 70
     1
102
RTVSPost2010Prop48
 90
       50
102
RTVSPost2010PropOp48
 70
     1
102
RTVSPost2010Prop49
280
     0
102
RTVSPost2010PropOp49
 70
     1
102
RTVSPost2010Prop50
 90
       50
102
RTVSPost2010PropOp50
 70
     1
102
RTVSPost2010Prop51ColorIndex
 90
      256
102
RTVSPost2010Prop51ColorRGB
 90
-16777216
102
RTVSPost2010PropOp51
 70
     0
102
RTVSPost2010Prop52
140
1.0
102
RTVSPost2010PropOp52
 70
     0
102
RTVSPost2010Prop53
 90
        2
102
RTVSPost2010PropOp53
 70
     1
102
RTVSPost2010Prop54
  1
strokes_ogs.tif
102
RTVSPost2010PropOp54
 70
     1
102
RTVSPost2010Prop55
280
     0
102
RTVSPost2010PropOp55
 70
     1
102
RTVSPost2010Prop56
140
1.0
102
RTVSPost2010PropOp56
 70
     1
102
RTVSPost2010Prop57
140
1.0
102
RTVSPost2010PropOp57
 70
     1
102
RTVSPropertyOp0
 70
     1
102
RTVSPropertyOp1
 70
     1
102
RTVSPropertyOp2
 70
     1
102
RTVSPropertyOp3
 70
     1
102
RTVSPropertyOp4
 70
     1
102
RTVSPropertyOp5
 70
     1
102
RTVSPropertyOp6
 70
     1
102
RTVSPropertyOp7
 70
     1
102
RTVSPropertyOp8
 70
     1
102
RTVSPropertyOp9
 70
     1
102
RTVSPropertyOp10
 70
     1
102
RTVSPropertyOp11
 70
     1
102
RTVSPropertyOp12
 70
     1
102
RTVSPropertyOp13
 70
     1
102
RTVSPropertyOp14
 70
     1
102
RTVSPropertyOp15
 70
     1
102
RTVSPropertyOp16
 70
     1
102
RTVSPropertyOp17
 70
     1
102
RTVSPropertyOp18
 70
     1
102
RTVSPropertyOp19
 70
     1
102
RTVSPropertyOp20
 70
     1
102
RTVSPropertyOp21
 70
     1
102
RTVSPropertyOp22
 70
     1
102
RTVSPropertyOp23
 70
     1
102
RTVSPropertyOp24
 70
     1
102
RTVSPropertyOp25
 70
     1
102
RTVSPropertyOp26
 70
     1
102
RTVSPropertyOp27
 70
     1
102
RTVSPropertyOp28
 70
     1
102
RTVSPropertyOp29
 70
     1
102
RTVSPropertyOp30
 70
     1
102
RTVSPropertyOp31
 70
     1
102
RTVSPropertyOp32
 70
     1
102
RTVSPropertyOp33
 70
     1
102
RTVSPropertyOp34
 70
     1
102
RTVSPropertyOp35
 70
     1
102
RTVSPropertyOp36
 70
     1
102
RTVSPropertyOp37
 70
     1
102
RTVSPropertyOp38
 70
     1
102
RTVSPropertyOp39
 70
     1
102
RTVSPropertyOp40
 70
     1
102
RTVSPropertyOp41
 70
     1
102
RTVSPropertyOp42
 70
     1
102
RTVSPropertyOp43
 70
     1
102
RTVSPropertyOp44
 70
     1
102
RTVSPropertyOp45
 70
     1
102
RTVSPropertyOp46
 70
     1
102
RTVSPropertyOp47
 70
     1
102
RTVSPropertyOp48
 70
     1
102
RTVSPropertyOp49
 70
     1
102
RTVSPropertyOp50
 70
     1
102
RTVSPropertyOp51
 70
     0
102
RTVSPropertyOp52
 70
     0
102
RTVSPropertyOp53
 70
     1
102
RTVSPropertyOp54
 70
     1
102
RTVSPropertyOp55
 70
     1
102
RTVSPropertyOp56
 70
     1
102
RTVSPropertyOp57
 70
     1
102
RTVSPropertyOp58
 70
     1
102
RTVSPropertyOp59
 70
     1
102
RTVSPropertyOp60
 70
     1
102
RTVSPropertyOp61
 70
     1
102
RTVSPropertyOp62
 70
     1
  0
XRECORD
  5
E4F
102
{ACAD_REACTORS
330
E4E
102
}
330
E4E
100
AcDbXrecord
280
     1
102
RTVSPost2010Prop28
280
     0
102
RTVSPost2010PropOp28
 70
     1
102
RTVSPost2010Prop29
280
     1
102
RTVSPost2010PropOp29
 70
     1
102
RTVSPost2010Prop30
280
     1
102
RTVSPost2010PropOp30
 70
     1
102
RTVSPost2010Prop31
280
     0
102
RTVSPost2010PropOp31
 70
     1
102
RTVSPost2010Prop32
280
     0
102
RTVSPost2010PropOp32
 70
     1
102
RTVSPost2010Prop33
280
     0
102
RTVSPost2010PropOp33
 70
     1
102
RTVSPost2010Prop34
280
     0
102
RTVSPost2010PropOp34
 70
     1
102
RTVSPost2010Prop35
280
     0
102
RTVSPost2010PropOp35
 70
     1
102
RTVSPost2010Prop36
280
     0
102
RTVSPost2010PropOp36
 70
     1
102
RTVSPost2010Prop37
 90
       50
102
RTVSPost2010PropOp37
 70
     1
102
RTVSPost2010Prop38
140
0.0
102
RTVSPost2010PropOp38
 70
     1
102
RTVSPost2010Prop39
140
1.0
102
RTVSPost2010PropOp39
 70
     1
102
RTVSPost2010Prop40
 90
        0
102
RTVSPost2010PropOp40
 70
     1
102
RTVSPost2010Prop41ColorIndex
 90
       18
102
RTVSPost2010Prop41ColorRGB
 90
        0
102
RTVSPost2010PropOp41
 70
     1
102
RTVSPost2010Prop42
 90
       50
102
RTVSPost2010PropOp42
 70
     1
102
RTVSPost2010Prop43
 90
        3
102
RTVSPost2010PropOp43
 70
     1
102
RTVSPost2010Prop44ColorIndex
 90
        5
102
RTVSPost2010Prop44ColorRGB
 90
      255
102
RTVSPost2010PropOp44
 70
     1
102
RTVSPost2010Prop45
280
     0
102
RTVSPost2010PropOp45
 70
     1
102
RTVSPost2010Prop46
 90
       50
102
RTVSPost2010PropOp46
 70
     1
102
RTVSPost2010Prop47
 90
       50
102
RTVSPost2010PropOp47
 70
     1
102
RTVSPost2010Prop48
 90
       50
102
RTVSPost2010PropOp48
 70
     1
102
RTVSPost2010Prop49
280
     0
102
RTVSPost2010PropOp49
 70
     1
102
RTVSPost2010Prop50
 90
       50
102
RTVSPost2010PropOp50
 70
     1
102
RTVSPost2010Prop51ColorIndex
 90
      256
102
RTVSPost2010Prop51ColorRGB
 90
-16777216
102
RTVSPost2010PropOp51
 70
     0
102
RTVSPost2010Prop52
140
1.0
102
RTVSPost2010PropOp52
 70
     0
102
RTVSPost2010Prop53
 90
        2
102
RTVSPost2010PropOp53
 70
     1
102
RTVSPost2010Prop54
  1
strokes_ogs.tif
102
RTVSPost2010PropOp54
 70
     1
102
RTVSPost2010Prop55
280
     0
102
RTVSPost2010PropOp55
 70
     1
102
RTVSPost2010Prop56
140
1.0
102
RTVSPost2010PropOp56
 70
     1
102
RTVSPost2010Prop57
140
1.0
102
RTVSPost2010PropOp57
 70
     1
102
RTVSPropertyOp0
 70
     1
102
RTVSPropertyOp1
 70
     1
102
RTVSPropertyOp2
 70
     1
102
RTVSPropertyOp3
 70
     1
102
RTVSPropertyOp4
 70
     1
102
RTVSPropertyOp5
 70
     1
102
RTVSPropertyOp6
 70
     1
102
RTVSPropertyOp7
 70
     1
102
RTVSPropertyOp8
 70
     1
102
RTVSPropertyOp9
 70
     1
102
RTVSPropertyOp10
 70
     1
102
RTVSPropertyOp11
 70
     1
102
RTVSPropertyOp12
 70
     1
102
RTVSPropertyOp13
 70
     1
102
RTVSPropertyOp14
 70
     1
102
RTVSPropertyOp15
 70
     1
102
RTVSPropertyOp16
 70
     1
102
RTVSPropertyOp17
 70
     1
102
RTVSPropertyOp18
 70
     1
102
RTVSPropertyOp19
 70
     1
102
RTVSPropertyOp20
 70
     1
102
RTVSPropertyOp21
 70
     1
102
RTVSPropertyOp22
 70
     1
102
RTVSPropertyOp23
 70
     1
102
RTVSPropertyOp24
 70
     1
102
RTVSPropertyOp25
 70
     1
102
RTVSPropertyOp26
 70
     1
102
RTVSPropertyOp27
 70
     1
102
RTVSPropertyOp28
 70
     1
102
RTVSPropertyOp29
 70
     1
102
RTVSPropertyOp30
 70
     1
102
RTVSPropertyOp31
 70
     1
102
RTVSPropertyOp32
 70
     1
102
RTVSPropertyOp33
 70
     1
102
RTVSPropertyOp34
 70
     1
102
RTVSPropertyOp35
 70
     1
102
RTVSPropertyOp36
 70
     1
102
RTVSPropertyOp37
 70
     1
102
RTVSPropertyOp38
 70
     1
102
RTVSPropertyOp39
 70
     1
102
RTVSPropertyOp40
 70
     1
102
RTVSPropertyOp41
 70
     1
102
RTVSPropertyOp42
 70
     1
102
RTVSPropertyOp43
 70
     1
102
RTVSPropertyOp44
 70
     1
102
RTVSPropertyOp45
 70
     1
102
RTVSPropertyOp46
 70
     1
102
RTVSPropertyOp47
 70
     1
102
RTVSPropertyOp48
 70
     1
102
RTVSPropertyOp49
 70
     1
102
RTVSPropertyOp50
 70
     1
102
RTVSPropertyOp51
 70
     0
102
RTVSPropertyOp52
 70
     0
102
RTVSPropertyOp53
 70
     1
102
RTVSPropertyOp54
 70
     1
102
RTVSPropertyOp55
 70
     1
102
RTVSPropertyOp56
 70
     1
102
RTVSPropertyOp57
 70
     1
102
RTVSPropertyOp58
 70
     1
102
RTVSPropertyOp59
 70
     1
102
RTVSPropertyOp60
 70
     1
102
RTVSPropertyOp61
 70
     1
102
RTVSPropertyOp62
 70
     1
  0
XRECORD
  5
E5F
102
{ACAD_REACTORS
330
E5E
102
}
330
E5E
100
AcDbXrecord
280
     1
102
RTVSPost2010Prop28
280
     0
102
RTVSPost2010PropOp28
 70
     1
102
RTVSPost2010Prop29
280
     1
102
RTVSPost2010PropOp29
 70
     1
102
RTVSPost2010Prop30
280
     1
102
RTVSPost2010PropOp30
 70
     1
102
RTVSPost2010Prop31
280
     0
102
RTVSPost2010PropOp31
 70
     1
102
RTVSPost2010Prop32
280
     0
102
RTVSPost2010PropOp32
 70
     1
102
RTVSPost2010Prop33
280
     0
102
RTVSPost2010PropOp33
 70
     1
102
RTVSPost2010Prop34
280
     0
102
RTVSPost2010PropOp34
 70
     1
102
RTVSPost2010Prop35
280
     0
102
RTVSPost2010PropOp35
 70
     1
102
RTVSPost2010Prop36
280
     0
102
RTVSPost2010PropOp36
 70
     1
102
RTVSPost2010Prop37
 90
       50
102
RTVSPost2010PropOp37
 70
     1
102
RTVSPost2010Prop38
140
0.0
102
RTVSPost2010PropOp38
 70
     1
102
RTVSPost2010Prop39
140
1.0
102
RTVSPost2010PropOp39
 70
     1
102
RTVSPost2010Prop40
 90
        0
102
RTVSPost2010PropOp40
 70
     1
102
RTVSPost2010Prop41ColorIndex
 90
       18
102
RTVSPost2010Prop41ColorRGB
 90
        0
102
RTVSPost2010PropOp41
 70
     1
102
RTVSPost2010Prop42
 90
       50
102
RTVSPost2010PropOp42
 70
     1
102
RTVSPost2010Prop43
 90
        3
102
RTVSPost2010PropOp43
 70
     1
102
RTVSPost2010Prop44ColorIndex
 90
        5
102
RTVSPost2010Prop44ColorRGB
 90
      255
102
RTVSPost2010PropOp44
 70
     1
102
RTVSPost2010Prop45
280
     0
102
RTVSPost2010PropOp45
 70
     1
102
RTVSPost2010Prop46
 90
       50
102
RTVSPost2010PropOp46
 70
     1
102
RTVSPost2010Prop47
 90
       50
102
RTVSPost2010PropOp47
 70
     1
102
RTVSPost2010Prop48
 90
       50
102
RTVSPost2010PropOp48
 70
     1
102
RTVSPost2010Prop49
280
     0
102
RTVSPost2010PropOp49
 70
     1
102
RTVSPost2010Prop50
 90
       50
102
RTVSPost2010PropOp50
 70
     1
102
RTVSPost2010Prop51ColorIndex
 90
      256
102
RTVSPost2010Prop51ColorRGB
 90
-16777216
102
RTVSPost2010PropOp51
 70
     0
102
RTVSPost2010Prop52
140
1.0
102
RTVSPost2010PropOp52
 70
     0
102
RTVSPost2010Prop53
 90
        2
102
RTVSPost2010PropOp53
 70
     1
102
RTVSPost2010Prop54
  1
strokes_ogs.tif
102
RTVSPost2010PropOp54
 70
     1
102
RTVSPost2010Prop55
280
     0
102
RTVSPost2010PropOp55
 70
     1
102
RTVSPost2010Prop56
140
1.0
102
RTVSPost2010PropOp56
 70
     1
102
RTVSPost2010Prop57
140
1.0
102
RTVSPost2010PropOp57
 70
     1
102
RTVSPropertyOp0
 70
     0
102
RTVSPropertyOp1
 70
     0
102
RTVSPropertyOp2
 70
     0
102
RTVSPropertyOp3
 70
     0
102
RTVSPropertyOp4
 70
     0
102
RTVSPropertyOp5
 70
     0
102
RTVSPropertyOp6
 70
     0
102
RTVSPropertyOp7
 70
     0
102
RTVSPropertyOp8
 70
     0
102
RTVSPropertyOp9
 70
     0
102
RTVSPropertyOp10
 70
     0
102
RTVSPropertyOp11
 70
     0
102
RTVSPropertyOp12
 70
     0
102
RTVSPropertyOp13
 70
     0
102
RTVSPropertyOp14
 70
     2
102
RTVSPropertyOp15
 70
     0
102
RTVSPropertyOp16
 70
     0
102
RTVSPropertyOp17
 70
     0
102
RTVSPropertyOp18
 70
     0
102
RTVSPropertyOp19
 70
     0
102
RTVSPropertyOp20
 70
     0
102
RTVSPropertyOp21
 70
     0
102
RTVSPropertyOp22
 70
     0
102
RTVSPropertyOp23
 70
     0
102
RTVSPropertyOp24
 70
     0
102
RTVSPropertyOp25
 70
     0
102
RTVSPropertyOp26
 70
     0
102
RTVSPropertyOp27
 70
     0
102
RTVSPropertyOp28
 70
     1
102
RTVSPropertyOp29
 70
     1
102
RTVSPropertyOp30
 70
     1
102
RTVSPropertyOp31
 70
     1
102
RTVSPropertyOp32
 70
     1
102
RTVSPropertyOp33
 70
     1
102
RTVSPropertyOp34
 70
     1
102
RTVSPropertyOp35
 70
     1
102
RTVSPropertyOp36
 70
     1
102
RTVSPropertyOp37
 70
     1
102
RTVSPropertyOp38
 70
     1
102
RTVSPropertyOp39
 70
     1
102
RTVSPropertyOp40
 70
     1
102
RTVSPropertyOp41
 70
     1
102
RTVSPropertyOp42
 70
     1
102
RTVSPropertyOp43
 70
     1
102
RTVSPropertyOp44
 70
     1
102
RTVSPropertyOp45
 70
     1
102
RTVSPropertyOp46
 70
     1
102
RTVSPropertyOp47
 70
     1
102
RTVSPropertyOp48
 70
     1
102
RTVSPropertyOp49
 70
     1
102
RTVSPropertyOp50
 70
     1
102
RTVSPropertyOp51
 70
     0
102
RTVSPropertyOp52
 70
     0
102
RTVSPropertyOp53
 70
     1
102
RTVSPropertyOp54
 70
     1
102
RTVSPropertyOp55
 70
     1
102
RTVSPropertyOp56
 70
     1
102
RTVSPropertyOp57
 70
     1
102
RTVSPropertyOp58
 70
     1
102
RTVSPropertyOp59
 70
     1
102
RTVSPropertyOp60
 70
     1
102
RTVSPropertyOp61
 70
     1
102
RTVSPropertyOp62
 70
     1
  0
XRECORD
  5
E57
102
{ACAD_REACTORS
330
E56
102
}
330
E56
100
AcDbXrecord
280
     1
102
RTVSPost2010Prop28
280
     0
102
RTVSPost2010PropOp28
 70
     1
102
RTVSPost2010Prop29
280
     1
102
RTVSPost2010PropOp29
 70
     1
102
RTVSPost2010Prop30
280
     1
102
RTVSPost2010PropOp30
 70
     1
102
RTVSPost2010Prop31
280
     0
102
RTVSPost2010PropOp31
 70
     1
102
RTVSPost2010Prop32
280
     0
102
RTVSPost2010PropOp32
 70
     1
102
RTVSPost2010Prop33
280
     0
102
RTVSPost2010PropOp33
 70
     1
102
RTVSPost2010Prop34
280
     0
102
RTVSPost2010PropOp34
 70
     1
102
RTVSPost2010Prop35
280
     0
102
RTVSPost2010PropOp35
 70
     1
102
RTVSPost2010Prop36
280
     0
102
RTVSPost2010PropOp36
 70
     1
102
RTVSPost2010Prop37
 90
       50
102
RTVSPost2010PropOp37
 70
     1
102
RTVSPost2010Prop38
140
0.0
102
RTVSPost2010PropOp38
 70
     1
102
RTVSPost2010Prop39
140
1.0
102
RTVSPost2010PropOp39
 70
     1
102
RTVSPost2010Prop40
 90
        0
102
RTVSPost2010PropOp40
 70
     1
102
RTVSPost2010Prop41ColorIndex
 90
       18
102
RTVSPost2010Prop41ColorRGB
 90
        0
102
RTVSPost2010PropOp41
 70
     1
102
RTVSPost2010Prop42
 90
       50
102
RTVSPost2010PropOp42
 70
     1
102
RTVSPost2010Prop43
 90
        3
102
RTVSPost2010PropOp43
 70
     1
102
RTVSPost2010Prop44ColorIndex
 90
        5
102
RTVSPost2010Prop44ColorRGB
 90
      255
102
RTVSPost2010PropOp44
 70
     1
102
RTVSPost2010Prop45
280
     0
102
RTVSPost2010PropOp45
 70
     1
102
RTVSPost2010Prop46
 90
       50
102
RTVSPost2010PropOp46
 70
     1
102
RTVSPost2010Prop47
 90
       50
102
RTVSPost2010PropOp47
 70
     1
102
RTVSPost2010Prop48
 90
       50
102
RTVSPost2010PropOp48
 70
     1
102
RTVSPost2010Prop49
280
     0
102
RTVSPost2010PropOp49
 70
     1
102
RTVSPost2010Prop50
 90
       50
102
RTVSPost2010PropOp50
 70
     1
102
RTVSPost2010Prop51ColorIndex
 90
      256
102
RTVSPost2010Prop51ColorRGB
 90
-16777216
102
RTVSPost2010PropOp51
 70
     0
102
RTVSPost2010Prop52
140
1.0
102
RTVSPost2010PropOp52
 70
     0
102
RTVSPost2010Prop53
 90
        2
102
RTVSPost2010PropOp53
 70
     1
102
RTVSPost2010Prop54
  1
strokes_ogs.tif
102
RTVSPost2010PropOp54
 70
     1
102
RTVSPost2010Prop55
280
     0
102
RTVSPost2010PropOp55
 70
     1
102
RTVSPost2010Prop56
140
1.0
102
RTVSPost2010PropOp56
 70
     1
102
RTVSPost2010Prop57
140
1.0
102
RTVSPost2010PropOp57
 70
     1
102
RTVSPropertyOp0
 70
     1
102
RTVSPropertyOp1
 70
     1
102
RTVSPropertyOp2
 70
     1
102
RTVSPropertyOp3
 70
     1
102
RTVSPropertyOp4
 70
     1
102
RTVSPropertyOp5
 70
     1
102
RTVSPropertyOp6
 70
     1
102
RTVSPropertyOp7
 70
     1
102
RTVSPropertyOp8
 70
     1
102
RTVSPropertyOp9
 70
     1
102
RTVSPropertyOp10
 70
     1
102
RTVSPropertyOp11
 70
     1
102
RTVSPropertyOp12
 70
     1
102
RTVSPropertyOp13
 70
     1
102
RTVSPropertyOp14
 70
     1
102
RTVSPropertyOp15
 70
     1
102
RTVSPropertyOp16
 70
     1
102
RTVSPropertyOp17
 70
     1
102
RTVSPropertyOp18
 70
     1
102
RTVSPropertyOp19
 70
     1
102
RTVSPropertyOp20
 70
     1
102
RTVSPropertyOp21
 70
     1
102
RTVSPropertyOp22
 70
     1
102
RTVSPropertyOp23
 70
     1
102
RTVSPropertyOp24
 70
     1
102
RTVSPropertyOp25
 70
     1
102
RTVSPropertyOp26
 70
     1
102
RTVSPropertyOp27
 70
     1
102
RTVSPropertyOp28
 70
     1
102
RTVSPropertyOp29
 70
     1
102
RTVSPropertyOp30
 70
     1
102
RTVSPropertyOp31
 70
     1
102
RTVSPropertyOp32
 70
     1
102
RTVSPropertyOp33
 70
     1
102
RTVSPropertyOp34
 70
     1
102
RTVSPropertyOp35
 70
     1
102
RTVSPropertyOp36
 70
     1
102
RTVSPropertyOp37
 70
     1
102
RTVSPropertyOp38
 70
     1
102
RTVSPropertyOp39
 70
     1
102
RTVSPropertyOp40
 70
     1
102
RTVSPropertyOp41
 70
     1
102
RTVSPropertyOp42
 70
     1
102
RTVSPropertyOp43
 70
     1
102
RTVSPropertyOp44
 70
     1
102
RTVSPropertyOp45
 70
     1
102
RTVSPropertyOp46
 70
     1
102
RTVSPropertyOp47
 70
     1
102
RTVSPropertyOp48
 70
     1
102
RTVSPropertyOp49
 70
     1
102
RTVSPropertyOp50
 70
     1
102
RTVSPropertyOp51
 70
     0
102
RTVSPropertyOp52
 70
     0
102
RTVSPropertyOp53
 70
     1
102
RTVSPropertyOp54
 70
     1
102
RTVSPropertyOp55
 70
     1
102
RTVSPropertyOp56
 70
     1
102
RTVSPropertyOp57
 70
     1
102
RTVSPropertyOp58
 70
     1
102
RTVSPropertyOp59
 70
     1
102
RTVSPropertyOp60
 70
     1
102
RTVSPropertyOp61
 70
     1
102
RTVSPropertyOp62
 70
     1
  0
XRECORD
  5
E3B
102
{ACAD_REACTORS
330
E3A
102
}
330
E3A
100
AcDbXrecord
280
     1
102
RTVSPost2010Prop28
280
     0
102
RTVSPost2010PropOp28
 70
     1
102
RTVSPost2010Prop29
280
     1
102
RTVSPost2010PropOp29
 70
     1
102
RTVSPost2010Prop30
280
     1
102
RTVSPost2010PropOp30
 70
     1
102
RTVSPost2010Prop31
280
     0
102
RTVSPost2010PropOp31
 70
     1
102
RTVSPost2010Prop32
280
     0
102
RTVSPost2010PropOp32
 70
     1
102
RTVSPost2010Prop33
280
     0
102
RTVSPost2010PropOp33
 70
     1
102
RTVSPost2010Prop34
280
     0
102
RTVSPost2010PropOp34
 70
     1
102
RTVSPost2010Prop35
280
     0
102
RTVSPost2010PropOp35
 70
     1
102
RTVSPost2010Prop36
280
     0
102
RTVSPost2010PropOp36
 70
     1
102
RTVSPost2010Prop37
 90
       50
102
RTVSPost2010PropOp37
 70
     1
102
RTVSPost2010Prop38
140
0.0
102
RTVSPost2010PropOp38
 70
     1
102
RTVSPost2010Prop39
140
1.0
102
RTVSPost2010PropOp39
 70
     1
102
RTVSPost2010Prop40
 90
        0
102
RTVSPost2010PropOp40
 70
     1
102
RTVSPost2010Prop41ColorIndex
 90
       18
102
RTVSPost2010Prop41ColorRGB
 90
        0
102
RTVSPost2010PropOp41
 70
     1
102
RTVSPost2010Prop42
 90
       50
102
RTVSPost2010PropOp42
 70
     1
102
RTVSPost2010Prop43
 90
        3
102
RTVSPost2010PropOp43
 70
     1
102
RTVSPost2010Prop44ColorIndex
 90
        5
102
RTVSPost2010Prop44ColorRGB
 90
      255
102
RTVSPost2010PropOp44
 70
     1
102
RTVSPost2010Prop45
280
     0
102
RTVSPost2010PropOp45
 70
     1
102
RTVSPost2010Prop46
 90
       50
102
RTVSPost2010PropOp46
 70
     1
102
RTVSPost2010Prop47
 90
       50
102
RTVSPost2010PropOp47
 70
     1
102
RTVSPost2010Prop48
 90
       50
102
RTVSPost2010PropOp48
 70
     1
102
RTVSPost2010Prop49
280
     0
102
RTVSPost2010PropOp49
 70
     1
102
RTVSPost2010Prop50
 90
       50
102
RTVSPost2010PropOp50
 70
     1
102
RTVSPost2010Prop51ColorIndex
 90
      256
102
RTVSPost2010Prop51ColorRGB
 90
-16777216
102
RTVSPost2010PropOp51
 70
     0
102
RTVSPost2010Prop52
140
1.0
102
RTVSPost2010PropOp52
 70
     0
102
RTVSPost2010Prop53
 90
        2
102
RTVSPost2010PropOp53
 70
     1
102
RTVSPost2010Prop54
  1
strokes_ogs.tif
102
RTVSPost2010PropOp54
 70
     1
102
RTVSPost2010Prop55
280
     0
102
RTVSPost2010PropOp55
 70
     1
102
RTVSPost2010Prop56
140
1.0
102
RTVSPost2010PropOp56
 70
     1
102
RTVSPost2010Prop57
140
1.0
102
RTVSPost2010PropOp57
 70
     1
102
RTVSPropertyOp0
 70
     1
102
RTVSPropertyOp1
 70
     1
102
RTVSPropertyOp2
 70
     1
102
RTVSPropertyOp3
 70
     1
102
RTVSPropertyOp4
 70
     1
102
RTVSPropertyOp5
 70
     1
102
RTVSPropertyOp6
 70
     1
102
RTVSPropertyOp7
 70
     1
102
RTVSPropertyOp8
 70
     1
102
RTVSPropertyOp9
 70
     1
102
RTVSPropertyOp10
 70
     1
102
RTVSPropertyOp11
 70
     1
102
RTVSPropertyOp12
 70
     1
102
RTVSPropertyOp13
 70
     1
102
RTVSPropertyOp14
 70
     1
102
RTVSPropertyOp15
 70
     1
102
RTVSPropertyOp16
 70
     1
102
RTVSPropertyOp17
 70
     1
102
RTVSPropertyOp18
 70
     1
102
RTVSPropertyOp19
 70
     1
102
RTVSPropertyOp20
 70
     1
102
RTVSPropertyOp21
 70
     1
102
RTVSPropertyOp22
 70
     1
102
RTVSPropertyOp23
 70
     1
102
RTVSPropertyOp24
 70
     1
102
RTVSPropertyOp25
 70
     1
102
RTVSPropertyOp26
 70
     1
102
RTVSPropertyOp27
 70
     1
102
RTVSPropertyOp28
 70
     1
102
RTVSPropertyOp29
 70
     1
102
RTVSPropertyOp30
 70
     1
102
RTVSPropertyOp31
 70
     1
102
RTVSPropertyOp32
 70
     1
102
RTVSPropertyOp33
 70
     1
102
RTVSPropertyOp34
 70
     1
102
RTVSPropertyOp35
 70
     1
102
RTVSPropertyOp36
 70
     1
102
RTVSPropertyOp37
 70
     1
102
RTVSPropertyOp38
 70
     1
102
RTVSPropertyOp39
 70
     1
102
RTVSPropertyOp40
 70
     1
102
RTVSPropertyOp41
 70
     1
102
RTVSPropertyOp42
 70
     1
102
RTVSPropertyOp43
 70
     1
102
RTVSPropertyOp44
 70
     1
102
RTVSPropertyOp45
 70
     1
102
RTVSPropertyOp46
 70
     1
102
RTVSPropertyOp47
 70
     1
102
RTVSPropertyOp48
 70
     1
102
RTVSPropertyOp49
 70
     1
102
RTVSPropertyOp50
 70
     1
102
RTVSPropertyOp51
 70
     0
102
RTVSPropertyOp52
 70
     0
102
RTVSPropertyOp53
 70
     1
102
RTVSPropertyOp54
 70
     1
102
RTVSPropertyOp55
 70
     1
102
RTVSPropertyOp56
 70
     1
102
RTVSPropertyOp57
 70
     1
102
RTVSPropertyOp58
 70
     1
102
RTVSPropertyOp59
 70
     1
102
RTVSPropertyOp60
 70
     1
102
RTVSPropertyOp61
 70
     1
102
RTVSPropertyOp62
 70
     1
  0
XRECORD
  5
E3D
102
{ACAD_REACTORS
330
E3C
102
}
330
E3C
100
AcDbXrecord
280
     1
102
RTVSPost2010Prop28
280
     0
102
RTVSPost2010PropOp28
 70
     1
102
RTVSPost2010Prop29
280
     1
102
RTVSPost2010PropOp29
 70
     1
102
RTVSPost2010Prop30
280
     1
102
RTVSPost2010PropOp30
 70
     1
102
RTVSPost2010Prop31
280
     0
102
RTVSPost2010PropOp31
 70
     1
102
RTVSPost2010Prop32
280
     0
102
RTVSPost2010PropOp32
 70
     1
102
RTVSPost2010Prop33
280
     0
102
RTVSPost2010PropOp33
 70
     1
102
RTVSPost2010Prop34
280
     0
102
RTVSPost2010PropOp34
 70
     1
102
RTVSPost2010Prop35
280
     0
102
RTVSPost2010PropOp35
 70
     1
102
RTVSPost2010Prop36
280
     0
102
RTVSPost2010PropOp36
 70
     1
102
RTVSPost2010Prop37
 90
       50
102
RTVSPost2010PropOp37
 70
     1
102
RTVSPost2010Prop38
140
0.0
102
RTVSPost2010PropOp38
 70
     1
102
RTVSPost2010Prop39
140
1.0
102
RTVSPost2010PropOp39
 70
     1
102
RTVSPost2010Prop40
 90
        0
102
RTVSPost2010PropOp40
 70
     1
102
RTVSPost2010Prop41ColorIndex
 90
       18
102
RTVSPost2010Prop41ColorRGB
 90
        0
102
RTVSPost2010PropOp41
 70
     1
102
RTVSPost2010Prop42
 90
       50
102
RTVSPost2010PropOp42
 70
     1
102
RTVSPost2010Prop43
 90
        3
102
RTVSPost2010PropOp43
 70
     1
102
RTVSPost2010Prop44ColorIndex
 90
        5
102
RTVSPost2010Prop44ColorRGB
 90
      255
102
RTVSPost2010PropOp44
 70
     1
102
RTVSPost2010Prop45
280
     0
102
RTVSPost2010PropOp45
 70
     1
102
RTVSPost2010Prop46
 90
       50
102
RTVSPost2010PropOp46
 70
     1
102
RTVSPost2010Prop47
 90
       50
102
RTVSPost2010PropOp47
 70
     1
102
RTVSPost2010Prop48
 90
       50
102
RTVSPost2010PropOp48
 70
     1
102
RTVSPost2010Prop49
280
     0
102
RTVSPost2010PropOp49
 70
     1
102
RTVSPost2010Prop50
 90
       50
102
RTVSPost2010PropOp50
 70
     1
102
RTVSPost2010Prop51ColorIndex
 90
      256
102
RTVSPost2010Prop51ColorRGB
 90
-16777216
102
RTVSPost2010PropOp51
 70
     0
102
RTVSPost2010Prop52
140
1.0
102
RTVSPost2010PropOp52
 70
     0
102
RTVSPost2010Prop53
 90
        2
102
RTVSPost2010PropOp53
 70
     1
102
RTVSPost2010Prop54
  1
strokes_ogs.tif
102
RTVSPost2010PropOp54
 70
     1
102
RTVSPost2010Prop55
280
     0
102
RTVSPost2010PropOp55
 70
     1
102
RTVSPost2010Prop56
140
1.0
102
RTVSPost2010PropOp56
 70
     1
102
RTVSPost2010Prop57
140
1.0
102
RTVSPost2010PropOp57
 70
     1
102
RTVSPropertyOp0
 70
     1
102
RTVSPropertyOp1
 70
     1
102
RTVSPropertyOp2
 70
     1
102
RTVSPropertyOp3
 70
     1
102
RTVSPropertyOp4
 70
     1
102
RTVSPropertyOp5
 70
     1
102
RTVSPropertyOp6
 70
     1
102
RTVSPropertyOp7
 70
     1
102
RTVSPropertyOp8
 70
     1
102
RTVSPropertyOp9
 70
     1
102
RTVSPropertyOp10
 70
     1
102
RTVSPropertyOp11
 70
     1
102
RTVSPropertyOp12
 70
     1
102
RTVSPropertyOp13
 70
     1
102
RTVSPropertyOp14
 70
     1
102
RTVSPropertyOp15
 70
     1
102
RTVSPropertyOp16
 70
     1
102
RTVSPropertyOp17
 70
     1
102
RTVSPropertyOp18
 70
     1
102
RTVSPropertyOp19
 70
     1
102
RTVSPropertyOp20
 70
     1
102
RTVSPropertyOp21
 70
     1
102
RTVSPropertyOp22
 70
     1
102
RTVSPropertyOp23
 70
     1
102
RTVSPropertyOp24
 70
     1
102
RTVSPropertyOp25
 70
     1
102
RTVSPropertyOp26
 70
     1
102
RTVSPropertyOp27
 70
     1
102
RTVSPropertyOp28
 70
     1
102
RTVSPropertyOp29
 70
     1
102
RTVSPropertyOp30
 70
     1
102
RTVSPropertyOp31
 70
     1
102
RTVSPropertyOp32
 70
     1
102
RTVSPropertyOp33
 70
     1
102
RTVSPropertyOp34
 70
     1
102
RTVSPropertyOp35
 70
     1
102
RTVSPropertyOp36
 70
     1
102
RTVSPropertyOp37
 70
     1
102
RTVSPropertyOp38
 70
     1
102
RTVSPropertyOp39
 70
     1
102
RTVSPropertyOp40
 70
     1
102
RTVSPropertyOp41
 70
     1
102
RTVSPropertyOp42
 70
     1
102
RTVSPropertyOp43
 70
     1
102
RTVSPropertyOp44
 70
     1
102
RTVSPropertyOp45
 70
     1
102
RTVSPropertyOp46
 70
     1
102
RTVSPropertyOp47
 70
     1
102
RTVSPropertyOp48
 70
     1
102
RTVSPropertyOp49
 70
     1
102
RTVSPropertyOp50
 70
     1
102
RTVSPropertyOp51
 70
     0
102
RTVSPropertyOp52
 70
     0
102
RTVSPropertyOp53
 70
     1
102
RTVSPropertyOp54
 70
     1
102
RTVSPropertyOp55
 70
     1
102
RTVSPropertyOp56
 70
     1
102
RTVSPropertyOp57
 70
     1
102
RTVSPropertyOp58
 70
     1
102
RTVSPropertyOp59
 70
     1
102
RTVSPropertyOp60
 70
     1
102
RTVSPropertyOp61
 70
     1
102
RTVSPropertyOp62
 70
     1
  0
XRECORD
  5
E3F
102
{ACAD_REACTORS
330
E3E
102
}
330
E3E
100
AcDbXrecord
280
     1
102
RTVSPost2010Prop28
280
     0
102
RTVSPost2010PropOp28
 70
     1
102
RTVSPost2010Prop29
280
     1
102
RTVSPost2010PropOp29
 70
     1
102
RTVSPost2010Prop30
280
     1
102
RTVSPost2010PropOp30
 70
     1
102
RTVSPost2010Prop31
280
     0
102
RTVSPost2010PropOp31
 70
     1
102
RTVSPost2010Prop32
280
     0
102
RTVSPost2010PropOp32
 70
     1
102
RTVSPost2010Prop33
280
     0
102
RTVSPost2010PropOp33
 70
     1
102
RTVSPost2010Prop34
280
     0
102
RTVSPost2010PropOp34
 70
     1
102
RTVSPost2010Prop35
280
     0
102
RTVSPost2010PropOp35
 70
     1
102
RTVSPost2010Prop36
280
     0
102
RTVSPost2010PropOp36
 70
     1
102
RTVSPost2010Prop37
 90
       50
102
RTVSPost2010PropOp37
 70
     1
102
RTVSPost2010Prop38
140
0.0
102
RTVSPost2010PropOp38
 70
     1
102
RTVSPost2010Prop39
140
1.0
102
RTVSPost2010PropOp39
 70
     1
102
RTVSPost2010Prop40
 90
        0
102
RTVSPost2010PropOp40
 70
     1
102
RTVSPost2010Prop41ColorIndex
 90
       18
102
RTVSPost2010Prop41ColorRGB
 90
        0
102
RTVSPost2010PropOp41
 70
     1
102
RTVSPost2010Prop42
 90
       50
102
RTVSPost2010PropOp42
 70
     1
102
RTVSPost2010Prop43
 90
        3
102
RTVSPost2010PropOp43
 70
     1
102
RTVSPost2010Prop44ColorIndex
 90
        5
102
RTVSPost2010Prop44ColorRGB
 90
      255
102
RTVSPost2010PropOp44
 70
     1
102
RTVSPost2010Prop45
280
     0
102
RTVSPost2010PropOp45
 70
     1
102
RTVSPost2010Prop46
 90
       50
102
RTVSPost2010PropOp46
 70
     1
102
RTVSPost2010Prop47
 90
       50
102
RTVSPost2010PropOp47
 70
     1
102
RTVSPost2010Prop48
 90
       50
102
RTVSPost2010PropOp48
 70
     1
102
RTVSPost2010Prop49
280
     0
102
RTVSPost2010PropOp49
 70
     1
102
RTVSPost2010Prop50
 90
       50
102
RTVSPost2010PropOp50
 70
     1
102
RTVSPost2010Prop51ColorIndex
 90
      256
102
RTVSPost2010Prop51ColorRGB
 90
-16777216
102
RTVSPost2010PropOp51
 70
     0
102
RTVSPost2010Prop52
140
1.0
102
RTVSPost2010PropOp52
 70
     0
102
RTVSPost2010Prop53
 90
        2
102
RTVSPost2010PropOp53
 70
     1
102
RTVSPost2010Prop54
  1
strokes_ogs.tif
102
RTVSPost2010PropOp54
 70
     1
102
RTVSPost2010Prop55
280
     0
102
RTVSPost2010PropOp55
 70
     1
102
RTVSPost2010Prop56
140
1.0
102
RTVSPost2010PropOp56
 70
     1
102
RTVSPost2010Prop57
140
1.0
102
RTVSPost2010PropOp57
 70
     1
102
RTVSPropertyOp0
 70
     1
102
RTVSPropertyOp1
 70
     1
102
RTVSPropertyOp2
 70
     1
102
RTVSPropertyOp3
 70
     1
102
RTVSPropertyOp4
 70
     1
102
RTVSPropertyOp5
 70
     1
102
RTVSPropertyOp6
 70
     1
102
RTVSPropertyOp7
 70
     1
102
RTVSPropertyOp8
 70
     1
102
RTVSPropertyOp9
 70
     1
102
RTVSPropertyOp10
 70
     1
102
RTVSPropertyOp11
 70
     1
102
RTVSPropertyOp12
 70
     1
102
RTVSPropertyOp13
 70
     1
102
RTVSPropertyOp14
 70
     1
102
RTVSPropertyOp15
 70
     1
102
RTVSPropertyOp16
 70
     1
102
RTVSPropertyOp17
 70
     1
102
RTVSPropertyOp18
 70
     1
102
RTVSPropertyOp19
 70
     1
102
RTVSPropertyOp20
 70
     1
102
RTVSPropertyOp21
 70
     1
102
RTVSPropertyOp22
 70
     1
102
RTVSPropertyOp23
 70
     1
102
RTVSPropertyOp24
 70
     1
102
RTVSPropertyOp25
 70
     1
102
RTVSPropertyOp26
 70
     1
102
RTVSPropertyOp27
 70
     1
102
RTVSPropertyOp28
 70
     1
102
RTVSPropertyOp29
 70
     1
102
RTVSPropertyOp30
 70
     1
102
RTVSPropertyOp31
 70
     1
102
RTVSPropertyOp32
 70
     1
102
RTVSPropertyOp33
 70
     1
102
RTVSPropertyOp34
 70
     1
102
RTVSPropertyOp35
 70
     1
102
RTVSPropertyOp36
 70
     1
102
RTVSPropertyOp37
 70
     1
102
RTVSPropertyOp38
 70
     1
102
RTVSPropertyOp39
 70
     1
102
RTVSPropertyOp40
 70
     1
102
RTVSPropertyOp41
 70
     1
102
RTVSPropertyOp42
 70
     1
102
RTVSPropertyOp43
 70
     1
102
RTVSPropertyOp44
 70
     1
102
RTVSPropertyOp45
 70
     1
102
RTVSPropertyOp46
 70
     1
102
RTVSPropertyOp47
 70
     1
102
RTVSPropertyOp48
 70
     1
102
RTVSPropertyOp49
 70
     1
102
RTVSPropertyOp50
 70
     1
102
RTVSPropertyOp51
 70
     0
102
RTVSPropertyOp52
 70
     0
102
RTVSPropertyOp53
 70
     1
102
RTVSPropertyOp54
 70
     1
102
RTVSPropertyOp55
 70
     1
102
RTVSPropertyOp56
 70
     1
102
RTVSPropertyOp57
 70
     1
102
RTVSPropertyOp58
 70
     1
102
RTVSPropertyOp59
 70
     1
102
RTVSPropertyOp60
 70
     1
102
RTVSPropertyOp61
 70
     1
102
RTVSPropertyOp62
 70
     1
  0
XRECORD
  5
E41
102
{ACAD_REACTORS
330
E40
102
}
330
E40
100
AcDbXrecord
280
     1
102
RTVSPost2010Prop28
280
     0
102
RTVSPost2010PropOp28
 70
     1
102
RTVSPost2010Prop29
280
     1
102
RTVSPost2010PropOp29
 70
     1
102
RTVSPost2010Prop30
280
     1
102
RTVSPost2010PropOp30
 70
     1
102
RTVSPost2010Prop31
280
     0
102
RTVSPost2010PropOp31
 70
     1
102
RTVSPost2010Prop32
280
     0
102
RTVSPost2010PropOp32
 70
     1
102
RTVSPost2010Prop33
280
     0
102
RTVSPost2010PropOp33
 70
     1
102
RTVSPost2010Prop34
280
     0
102
RTVSPost2010PropOp34
 70
     1
102
RTVSPost2010Prop35
280
     0
102
RTVSPost2010PropOp35
 70
     1
102
RTVSPost2010Prop36
280
     0
102
RTVSPost2010PropOp36
 70
     1
102
RTVSPost2010Prop37
 90
       50
102
RTVSPost2010PropOp37
 70
     1
102
RTVSPost2010Prop38
140
0.0
102
RTVSPost2010PropOp38
 70
     1
102
RTVSPost2010Prop39
140
1.0
102
RTVSPost2010PropOp39
 70
     1
102
RTVSPost2010Prop40
 90
        0
102
RTVSPost2010PropOp40
 70
     1
102
RTVSPost2010Prop41ColorIndex
 90
       18
102
RTVSPost2010Prop41ColorRGB
 90
        0
102
RTVSPost2010PropOp41
 70
     1
102
RTVSPost2010Prop42
 90
       50
102
RTVSPost2010PropOp42
 70
     1
102
RTVSPost2010Prop43
 90
        3
102
RTVSPost2010PropOp43
 70
     1
102
RTVSPost2010Prop44ColorIndex
 90
        5
102
RTVSPost2010Prop44ColorRGB
 90
      255
102
RTVSPost2010PropOp44
 70
     1
102
RTVSPost2010Prop45
280
     0
102
RTVSPost2010PropOp45
 70
     1
102
RTVSPost2010Prop46
 90
       50
102
RTVSPost2010PropOp46
 70
     1
102
RTVSPost2010Prop47
 90
       50
102
RTVSPost2010PropOp47
 70
     1
102
RTVSPost2010Prop48
 90
       50
102
RTVSPost2010PropOp48
 70
     1
102
RTVSPost2010Prop49
280
     0
102
RTVSPost2010PropOp49
 70
     1
102
RTVSPost2010Prop50
 90
       50
102
RTVSPost2010PropOp50
 70
     1
102
RTVSPost2010Prop51ColorIndex
 90
      256
102
RTVSPost2010Prop51ColorRGB
 90
-16777216
102
RTVSPost2010PropOp51
 70
     0
102
RTVSPost2010Prop52
140
1.0
102
RTVSPost2010PropOp52
 70
     0
102
RTVSPost2010Prop53
 90
        2
102
RTVSPost2010PropOp53
 70
     1
102
RTVSPost2010Prop54
  1
strokes_ogs.tif
102
RTVSPost2010PropOp54
 70
     1
102
RTVSPost2010Prop55
280
     0
102
RTVSPost2010PropOp55
 70
     1
102
RTVSPost2010Prop56
140
1.0
102
RTVSPost2010PropOp56
 70
     1
102
RTVSPost2010Prop57
140
1.0
102
RTVSPost2010PropOp57
 70
     1
102
RTVSPropertyOp0
 70
     1
102
RTVSPropertyOp1
 70
     1
102
RTVSPropertyOp2
 70
     1
102
RTVSPropertyOp3
 70
     1
102
RTVSPropertyOp4
 70
     1
102
RTVSPropertyOp5
 70
     1
102
RTVSPropertyOp6
 70
     1
102
RTVSPropertyOp7
 70
     1
102
RTVSPropertyOp8
 70
     1
102
RTVSPropertyOp9
 70
     1
102
RTVSPropertyOp10
 70
     1
102
RTVSPropertyOp11
 70
     1
102
RTVSPropertyOp12
 70
     1
102
RTVSPropertyOp13
 70
     1
102
RTVSPropertyOp14
 70
     1
102
RTVSPropertyOp15
 70
     1
102
RTVSPropertyOp16
 70
     1
102
RTVSPropertyOp17
 70
     1
102
RTVSPropertyOp18
 70
     1
102
RTVSPropertyOp19
 70
     1
102
RTVSPropertyOp20
 70
     1
102
RTVSPropertyOp21
 70
     1
102
RTVSPropertyOp22
 70
     1
102
RTVSPropertyOp23
 70
     1
102
RTVSPropertyOp24
 70
     1
102
RTVSPropertyOp25
 70
     1
102
RTVSPropertyOp26
 70
     1
102
RTVSPropertyOp27
 70
     1
102
RTVSPropertyOp28
 70
     1
102
RTVSPropertyOp29
 70
     1
102
RTVSPropertyOp30
 70
     1
102
RTVSPropertyOp31
 70
     1
102
RTVSPropertyOp32
 70
     1
102
RTVSPropertyOp33
 70
     1
102
RTVSPropertyOp34
 70
     1
102
RTVSPropertyOp35
 70
     1
102
RTVSPropertyOp36
 70
     1
102
RTVSPropertyOp37
 70
     1
102
RTVSPropertyOp38
 70
     1
102
RTVSPropertyOp39
 70
     1
102
RTVSPropertyOp40
 70
     1
102
RTVSPropertyOp41
 70
     1
102
RTVSPropertyOp42
 70
     1
102
RTVSPropertyOp43
 70
     1
102
RTVSPropertyOp44
 70
     1
102
RTVSPropertyOp45
 70
     1
102
RTVSPropertyOp46
 70
     1
102
RTVSPropertyOp47
 70
     1
102
RTVSPropertyOp48
 70
     1
102
RTVSPropertyOp49
 70
     1
102
RTVSPropertyOp50
 70
     1
102
RTVSPropertyOp51
 70
     0
102
RTVSPropertyOp52
 70
     0
102
RTVSPropertyOp53
 70
     1
102
RTVSPropertyOp54
 70
     1
102
RTVSPropertyOp55
 70
     1
102
RTVSPropertyOp56
 70
     1
102
RTVSPropertyOp57
 70
     1
102
RTVSPropertyOp58
 70
     1
102
RTVSPropertyOp59
 70
     1
102
RTVSPropertyOp60
 70
     1
102
RTVSPropertyOp61
 70
     1
102
RTVSPropertyOp62
 70
     1
  0
XRECORD
  5
E49
102
{ACAD_REACTORS
330
E48
102
}
330
E48
100
AcDbXrecord
280
     1
102
RTVSPost2010Prop28
280
     0
102
RTVSPost2010PropOp28
 70
     1
102
RTVSPost2010Prop29
280
     1
102
RTVSPost2010PropOp29
 70
     1
102
RTVSPost2010Prop30
280
     1
102
RTVSPost2010PropOp30
 70
     1
102
RTVSPost2010Prop31
280
     0
102
RTVSPost2010PropOp31
 70
     1
102
RTVSPost2010Prop32
280
     0
102
RTVSPost2010PropOp32
 70
     1
102
RTVSPost2010Prop33
280
     0
102
RTVSPost2010PropOp33
 70
     1
102
RTVSPost2010Prop34
280
     0
102
RTVSPost2010PropOp34
 70
     1
102
RTVSPost2010Prop35
280
     0
102
RTVSPost2010PropOp35
 70
     1
102
RTVSPost2010Prop36
280
     0
102
RTVSPost2010PropOp36
 70
     1
102
RTVSPost2010Prop37
 90
       50
102
RTVSPost2010PropOp37
 70
     1
102
RTVSPost2010Prop38
140
0.0
102
RTVSPost2010PropOp38
 70
     1
102
RTVSPost2010Prop39
140
1.0
102
RTVSPost2010PropOp39
 70
     1
102
RTVSPost2010Prop40
 90
        0
102
RTVSPost2010PropOp40
 70
     1
102
RTVSPost2010Prop41ColorIndex
 90
       18
102
RTVSPost2010Prop41ColorRGB
 90
        0
102
RTVSPost2010PropOp41
 70
     1
102
RTVSPost2010Prop42
 90
       50
102
RTVSPost2010PropOp42
 70
     1
102
RTVSPost2010Prop43
 90
        3
102
RTVSPost2010PropOp43
 70
     1
102
RTVSPost2010Prop44ColorIndex
 90
        5
102
RTVSPost2010Prop44ColorRGB
 90
      255
102
RTVSPost2010PropOp44
 70
     1
102
RTVSPost2010Prop45
280
     0
102
RTVSPost2010PropOp45
 70
     1
102
RTVSPost2010Prop46
 90
       50
102
RTVSPost2010PropOp46
 70
     1
102
RTVSPost2010Prop47
 90
       50
102
RTVSPost2010PropOp47
 70
     1
102
RTVSPost2010Prop48
 90
       50
102
RTVSPost2010PropOp48
 70
     1
102
RTVSPost2010Prop49
280
     0
102
RTVSPost2010PropOp49
 70
     1
102
RTVSPost2010Prop50
 90
       50
102
RTVSPost2010PropOp50
 70
     1
102
RTVSPost2010Prop51ColorIndex
 90
      256
102
RTVSPost2010Prop51ColorRGB
 90
-16777216
102
RTVSPost2010PropOp51
 70
     0
102
RTVSPost2010Prop52
140
1.0
102
RTVSPost2010PropOp52
 70
     0
102
RTVSPost2010Prop53
 90
        2
102
RTVSPost2010PropOp53
 70
     1
102
RTVSPost2010Prop54
  1
strokes_ogs.tif
102
RTVSPost2010PropOp54
 70
     1
102
RTVSPost2010Prop55
280
     0
102
RTVSPost2010PropOp55
 70
     1
102
RTVSPost2010Prop56
140
1.0
102
RTVSPost2010PropOp56
 70
     1
102
RTVSPost2010Prop57
140
1.0
102
RTVSPost2010PropOp57
 70
     1
102
RTVSPropertyOp0
 70
     1
102
RTVSPropertyOp1
 70
     1
102
RTVSPropertyOp2
 70
     1
102
RTVSPropertyOp3
 70
     1
102
RTVSPropertyOp4
 70
     1
102
RTVSPropertyOp5
 70
     1
102
RTVSPropertyOp6
 70
     1
102
RTVSPropertyOp7
 70
     1
102
RTVSPropertyOp8
 70
     1
102
RTVSPropertyOp9
 70
     1
102
RTVSPropertyOp10
 70
     1
102
RTVSPropertyOp11
 70
     1
102
RTVSPropertyOp12
 70
     1
102
RTVSPropertyOp13
 70
     1
102
RTVSPropertyOp14
 70
     1
102
RTVSPropertyOp15
 70
     1
102
RTVSPropertyOp16
 70
     1
102
RTVSPropertyOp17
 70
     1
102
RTVSPropertyOp18
 70
     1
102
RTVSPropertyOp19
 70
     1
102
RTVSPropertyOp20
 70
     1
102
RTVSPropertyOp21
 70
     1
102
RTVSPropertyOp22
 70
     1
102
RTVSPropertyOp23
 70
     1
102
RTVSPropertyOp24
 70
     1
102
RTVSPropertyOp25
 70
     1
102
RTVSPropertyOp26
 70
     1
102
RTVSPropertyOp27
 70
     1
102
RTVSPropertyOp28
 70
     1
102
RTVSPropertyOp29
 70
     1
102
RTVSPropertyOp30
 70
     1
102
RTVSPropertyOp31
 70
     1
102
RTVSPropertyOp32
 70
     1
102
RTVSPropertyOp33
 70
     1
102
RTVSPropertyOp34
 70
     1
102
RTVSPropertyOp35
 70
     1
102
RTVSPropertyOp36
 70
     1
102
RTVSPropertyOp37
 70
     1
102
RTVSPropertyOp38
 70
     1
102
RTVSPropertyOp39
 70
     1
102
RTVSPropertyOp40
 70
     1
102
RTVSPropertyOp41
 70
     1
102
RTVSPropertyOp42
 70
     1
102
RTVSPropertyOp43
 70
     1
102
RTVSPropertyOp44
 70
     1
102
RTVSPropertyOp45
 70
     1
102
RTVSPropertyOp46
 70
     1
102
RTVSPropertyOp47
 70
     1
102
RTVSPropertyOp48
 70
     1
102
RTVSPropertyOp49
 70
     1
102
RTVSPropertyOp50
 70
     1
102
RTVSPropertyOp51
 70
     0
102
RTVSPropertyOp52
 70
     0
102
RTVSPropertyOp53
 70
     1
102
RTVSPropertyOp54
 70
     1
102
RTVSPropertyOp55
 70
     1
102
RTVSPropertyOp56
 70
     1
102
RTVSPropertyOp57
 70
     1
102
RTVSPropertyOp58
 70
     1
102
RTVSPropertyOp59
 70
     1
102
RTVSPropertyOp60
 70
     1
102
RTVSPropertyOp61
 70
     1
102
RTVSPropertyOp62
 70
     1
  0
XRECORD
  5
E5B
102
{ACAD_REACTORS
330
E5A
102
}
330
E5A
100
AcDbXrecord
280
     1
102
RTVSPost2010Prop28
280
     0
102
RTVSPost2010PropOp28
 70
     1
102
RTVSPost2010Prop29
280
     1
102
RTVSPost2010PropOp29
 70
     1
102
RTVSPost2010Prop30
280
     1
102
RTVSPost2010PropOp30
 70
     1
102
RTVSPost2010Prop31
280
     0
102
RTVSPost2010PropOp31
 70
     1
102
RTVSPost2010Prop32
280
     0
102
RTVSPost2010PropOp32
 70
     1
102
RTVSPost2010Prop33
280
     0
102
RTVSPost2010PropOp33
 70
     1
102
RTVSPost2010Prop34
280
     0
102
RTVSPost2010PropOp34
 70
     1
102
RTVSPost2010Prop35
280
     0
102
RTVSPost2010PropOp35
 70
     1
102
RTVSPost2010Prop36
280
     0
102
RTVSPost2010PropOp36
 70
     1
102
RTVSPost2010Prop37
 90
       50
102
RTVSPost2010PropOp37
 70
     1
102
RTVSPost2010Prop38
140
0.0
102
RTVSPost2010PropOp38
 70
     1
102
RTVSPost2010Prop39
140
1.0
102
RTVSPost2010PropOp39
 70
     1
102
RTVSPost2010Prop40
 90
        0
102
RTVSPost2010PropOp40
 70
     1
102
RTVSPost2010Prop41ColorIndex
 90
       18
102
RTVSPost2010Prop41ColorRGB
 90
        0
102
RTVSPost2010PropOp41
 70
     1
102
RTVSPost2010Prop42
 90
       50
102
RTVSPost2010PropOp42
 70
     1
102
RTVSPost2010Prop43
 90
        3
102
RTVSPost2010PropOp43
 70
     1
102
RTVSPost2010Prop44ColorIndex
 90
        5
102
RTVSPost2010Prop44ColorRGB
 90
      255
102
RTVSPost2010PropOp44
 70
     1
102
RTVSPost2010Prop45
280
     0
102
RTVSPost2010PropOp45
 70
     1
102
RTVSPost2010Prop46
 90
       50
102
RTVSPost2010PropOp46
 70
     1
102
RTVSPost2010Prop47
 90
       50
102
RTVSPost2010PropOp47
 70
     1
102
RTVSPost2010Prop48
 90
       50
102
RTVSPost2010PropOp48
 70
     1
102
RTVSPost2010Prop49
280
     0
102
RTVSPost2010PropOp49
 70
     1
102
RTVSPost2010Prop50
 90
       50
102
RTVSPost2010PropOp50
 70
     1
102
RTVSPost2010Prop51ColorIndex
 90
      256
102
RTVSPost2010Prop51ColorRGB
 90
-16777216
102
RTVSPost2010PropOp51
 70
     0
102
RTVSPost2010Prop52
140
1.0
102
RTVSPost2010PropOp52
 70
     0
102
RTVSPost2010Prop53
 90
        2
102
RTVSPost2010PropOp53
 70
     1
102
RTVSPost2010Prop54
  1
strokes_ogs.tif
102
RTVSPost2010PropOp54
 70
     1
102
RTVSPost2010Prop55
280
     0
102
RTVSPost2010PropOp55
 70
     1
102
RTVSPost2010Prop56
140
1.0
102
RTVSPost2010PropOp56
 70
     1
102
RTVSPost2010Prop57
140
1.0
102
RTVSPost2010PropOp57
 70
     1
102
RTVSPropertyOp0
 70
     0
102
RTVSPropertyOp1
 70
     0
102
RTVSPropertyOp2
 70
     0
102
RTVSPropertyOp3
 70
     0
102
RTVSPropertyOp4
 70
     0
102
RTVSPropertyOp5
 70
     0
102
RTVSPropertyOp6
 70
     0
102
RTVSPropertyOp7
 70
     0
102
RTVSPropertyOp8
 70
     0
102
RTVSPropertyOp9
 70
     0
102
RTVSPropertyOp10
 70
     0
102
RTVSPropertyOp11
 70
     0
102
RTVSPropertyOp12
 70
     0
102
RTVSPropertyOp13
 70
     0
102
RTVSPropertyOp14
 70
     2
102
RTVSPropertyOp15
 70
     0
102
RTVSPropertyOp16
 70
     0
102
RTVSPropertyOp17
 70
     0
102
RTVSPropertyOp18
 70
     0
102
RTVSPropertyOp19
 70
     0
102
RTVSPropertyOp20
 70
     0
102
RTVSPropertyOp21
 70
     0
102
RTVSPropertyOp22
 70
     0
102
RTVSPropertyOp23
 70
     0
102
RTVSPropertyOp24
 70
     0
102
RTVSPropertyOp25
 70
     0
102
RTVSPropertyOp26
 70
     0
102
RTVSPropertyOp27
 70
     0
102
RTVSPropertyOp28
 70
     1
102
RTVSPropertyOp29
 70
     1
102
RTVSPropertyOp30
 70
     1
102
RTVSPropertyOp31
 70
     1
102
RTVSPropertyOp32
 70
     1
102
RTVSPropertyOp33
 70
     1
102
RTVSPropertyOp34
 70
     1
102
RTVSPropertyOp35
 70
     1
102
RTVSPropertyOp36
 70
     1
102
RTVSPropertyOp37
 70
     1
102
RTVSPropertyOp38
 70
     1
102
RTVSPropertyOp39
 70
     1
102
RTVSPropertyOp40
 70
     1
102
RTVSPropertyOp41
 70
     1
102
RTVSPropertyOp42
 70
     1
102
RTVSPropertyOp43
 70
     1
102
RTVSPropertyOp44
 70
     1
102
RTVSPropertyOp45
 70
     1
102
RTVSPropertyOp46
 70
     1
102
RTVSPropertyOp47
 70
     1
102
RTVSPropertyOp48
 70
     1
102
RTVSPropertyOp49
 70
     1
102
RTVSPropertyOp50
 70
     1
102
RTVSPropertyOp51
 70
     0
102
RTVSPropertyOp52
 70
     0
102
RTVSPropertyOp53
 70
     1
102
RTVSPropertyOp54
 70
     1
102
RTVSPropertyOp55
 70
     1
102
RTVSPropertyOp56
 70
     1
102
RTVSPropertyOp57
 70
     1
102
RTVSPropertyOp58
 70
     1
102
RTVSPropertyOp59
 70
     1
102
RTVSPropertyOp60
 70
     1
102
RTVSPropertyOp61
 70
     1
102
RTVSPropertyOp62
 70
     1
  0
XRECORD
  5
E55
102
{ACAD_REACTORS
330
E54
102
}
330
E54
100
AcDbXrecord
280
     1
102
RTVSPost2010Prop28
280
     0
102
RTVSPost2010PropOp28
 70
     1
102
RTVSPost2010Prop29
280
     1
102
RTVSPost2010PropOp29
 70
     1
102
RTVSPost2010Prop30
280
     1
102
RTVSPost2010PropOp30
 70
     1
102
RTVSPost2010Prop31
280
     0
102
RTVSPost2010PropOp31
 70
     1
102
RTVSPost2010Prop32
280
     0
102
RTVSPost2010PropOp32
 70
     1
102
RTVSPost2010Prop33
280
     0
102
RTVSPost2010PropOp33
 70
     1
102
RTVSPost2010Prop34
280
     0
102
RTVSPost2010PropOp34
 70
     1
102
RTVSPost2010Prop35
280
     0
102
RTVSPost2010PropOp35
 70
     1
102
RTVSPost2010Prop36
280
     0
102
RTVSPost2010PropOp36
 70
     1
102
RTVSPost2010Prop37
 90
       50
102
RTVSPost2010PropOp37
 70
     1
102
RTVSPost2010Prop38
140
0.0
102
RTVSPost2010PropOp38
 70
     1
102
RTVSPost2010Prop39
140
1.0
102
RTVSPost2010PropOp39
 70
     1
102
RTVSPost2010Prop40
 90
        0
102
RTVSPost2010PropOp40
 70
     1
102
RTVSPost2010Prop41ColorIndex
 90
       18
102
RTVSPost2010Prop41ColorRGB
 90
        0
102
RTVSPost2010PropOp41
 70
     1
102
RTVSPost2010Prop42
 90
       50
102
RTVSPost2010PropOp42
 70
     1
102
RTVSPost2010Prop43
 90
        3
102
RTVSPost2010PropOp43
 70
     1
102
RTVSPost2010Prop44ColorIndex
 90
        5
102
RTVSPost2010Prop44ColorRGB
 90
      255
102
RTVSPost2010PropOp44
 70
     1
102
RTVSPost2010Prop45
280
     0
102
RTVSPost2010PropOp45
 70
     1
102
RTVSPost2010Prop46
 90
       50
102
RTVSPost2010PropOp46
 70
     1
102
RTVSPost2010Prop47
 90
       50
102
RTVSPost2010PropOp47
 70
     1
102
RTVSPost2010Prop48
 90
       50
102
RTVSPost2010PropOp48
 70
     1
102
RTVSPost2010Prop49
280
     0
102
RTVSPost2010PropOp49
 70
     1
102
RTVSPost2010Prop50
 90
       50
102
RTVSPost2010PropOp50
 70
     1
102
RTVSPost2010Prop51ColorIndex
 90
      256
102
RTVSPost2010Prop51ColorRGB
 90
-16777216
102
RTVSPost2010PropOp51
 70
     0
102
RTVSPost2010Prop52
140
1.0
102
RTVSPost2010PropOp52
 70
     0
102
RTVSPost2010Prop53
 90
        2
102
RTVSPost2010PropOp53
 70
     1
102
RTVSPost2010Prop54
  1
strokes_ogs.tif
102
RTVSPost2010PropOp54
 70
     1
102
RTVSPost2010Prop55
280
     0
102
RTVSPost2010PropOp55
 70
     1
102
RTVSPost2010Prop56
140
1.0
102
RTVSPost2010PropOp56
 70
     1
102
RTVSPost2010Prop57
140
1.0
102
RTVSPost2010PropOp57
 70
     1
102
RTVSPropertyOp0
 70
     1
102
RTVSPropertyOp1
 70
     1
102
RTVSPropertyOp2
 70
     1
102
RTVSPropertyOp3
 70
     1
102
RTVSPropertyOp4
 70
     1
102
RTVSPropertyOp5
 70
     1
102
RTVSPropertyOp6
 70
     1
102
RTVSPropertyOp7
 70
     1
102
RTVSPropertyOp8
 70
     1
102
RTVSPropertyOp9
 70
     1
102
RTVSPropertyOp10
 70
     1
102
RTVSPropertyOp11
 70
     1
102
RTVSPropertyOp12
 70
     1
102
RTVSPropertyOp13
 70
     1
102
RTVSPropertyOp14
 70
     1
102
RTVSPropertyOp15
 70
     1
102
RTVSPropertyOp16
 70
     1
102
RTVSPropertyOp17
 70
     1
102
RTVSPropertyOp18
 70
     1
102
RTVSPropertyOp19
 70
     1
102
RTVSPropertyOp20
 70
     1
102
RTVSPropertyOp21
 70
     1
102
RTVSPropertyOp22
 70
     1
102
RTVSPropertyOp23
 70
     1
102
RTVSPropertyOp24
 70
     1
102
RTVSPropertyOp25
 70
     1
102
RTVSPropertyOp26
 70
     1
102
RTVSPropertyOp27
 70
     1
102
RTVSPropertyOp28
 70
     1
102
RTVSPropertyOp29
 70
     1
102
RTVSPropertyOp30
 70
     1
102
RTVSPropertyOp31
 70
     1
102
RTVSPropertyOp32
 70
     1
102
RTVSPropertyOp33
 70
     1
102
RTVSPropertyOp34
 70
     1
102
RTVSPropertyOp35
 70
     1
102
RTVSPropertyOp36
 70
     1
102
RTVSPropertyOp37
 70
     1
102
RTVSPropertyOp38
 70
     1
102
RTVSPropertyOp39
 70
     1
102
RTVSPropertyOp40
 70
     1
102
RTVSPropertyOp41
 70
     1
102
RTVSPropertyOp42
 70
     1
102
RTVSPropertyOp43
 70
     1
102
RTVSPropertyOp44
 70
     1
102
RTVSPropertyOp45
 70
     1
102
RTVSPropertyOp46
 70
     1
102
RTVSPropertyOp47
 70
     1
102
RTVSPropertyOp48
 70
     1
102
RTVSPropertyOp49
 70
     1
102
RTVSPropertyOp50
 70
     1
102
RTVSPropertyOp51
 70
     0
102
RTVSPropertyOp52
 70
     0
102
RTVSPropertyOp53
 70
     1
102
RTVSPropertyOp54
 70
     1
102
RTVSPropertyOp55
 70
     1
102
RTVSPropertyOp56
 70
     1
102
RTVSPropertyOp57
 70
     1
102
RTVSPropertyOp58
 70
     1
102
RTVSPropertyOp59
 70
     1
102
RTVSPropertyOp60
 70
     1
102
RTVSPropertyOp61
 70
     1
102
RTVSPropertyOp62
 70
     1
  0
XRECORD
  5
E5D
102
{ACAD_REACTORS
330
E5C
102
}
330
E5C
100
AcDbXrecord
280
     1
102
RTVSPost2010Prop28
280
     0
102
RTVSPost2010PropOp28
 70
     1
102
RTVSPost2010Prop29
280
     1
102
RTVSPost2010PropOp29
 70
     1
102
RTVSPost2010Prop30
280
     1
102
RTVSPost2010PropOp30
 70
     1
102
RTVSPost2010Prop31
280
     0
102
RTVSPost2010PropOp31
 70
     1
102
RTVSPost2010Prop32
280
     0
102
RTVSPost2010PropOp32
 70
     1
102
RTVSPost2010Prop33
280
     0
102
RTVSPost2010PropOp33
 70
     1
102
RTVSPost2010Prop34
280
     0
102
RTVSPost2010PropOp34
 70
     1
102
RTVSPost2010Prop35
280
     0
102
RTVSPost2010PropOp35
 70
     1
102
RTVSPost2010Prop36
280
     0
102
RTVSPost2010PropOp36
 70
     1
102
RTVSPost2010Prop37
 90
       50
102
RTVSPost2010PropOp37
 70
     1
102
RTVSPost2010Prop38
140
0.0
102
RTVSPost2010PropOp38
 70
     1
102
RTVSPost2010Prop39
140
1.0
102
RTVSPost2010PropOp39
 70
     1
102
RTVSPost2010Prop40
 90
        0
102
RTVSPost2010PropOp40
 70
     1
102
RTVSPost2010Prop41ColorIndex
 90
       18
102
RTVSPost2010Prop41ColorRGB
 90
        0
102
RTVSPost2010PropOp41
 70
     1
102
RTVSPost2010Prop42
 90
       50
102
RTVSPost2010PropOp42
 70
     1
102
RTVSPost2010Prop43
 90
        3
102
RTVSPost2010PropOp43
 70
     1
102
RTVSPost2010Prop44ColorIndex
 90
        5
102
RTVSPost2010Prop44ColorRGB
 90
      255
102
RTVSPost2010PropOp44
 70
     1
102
RTVSPost2010Prop45
280
     0
102
RTVSPost2010PropOp45
 70
     1
102
RTVSPost2010Prop46
 90
       50
102
RTVSPost2010PropOp46
 70
     1
102
RTVSPost2010Prop47
 90
       50
102
RTVSPost2010PropOp47
 70
     1
102
RTVSPost2010Prop48
 90
       50
102
RTVSPost2010PropOp48
 70
     1
102
RTVSPost2010Prop49
280
     0
102
RTVSPost2010PropOp49
 70
     1
102
RTVSPost2010Prop50
 90
       50
102
RTVSPost2010PropOp50
 70
     1
102
RTVSPost2010Prop51ColorIndex
 90
      256
102
RTVSPost2010Prop51ColorRGB
 90
-16777216
102
RTVSPost2010PropOp51
 70
     0
102
RTVSPost2010Prop52
140
1.0
102
RTVSPost2010PropOp52
 70
     0
102
RTVSPost2010Prop53
 90
        2
102
RTVSPost2010PropOp53
 70
     1
102
RTVSPost2010Prop54
  1
strokes_ogs.tif
102
RTVSPost2010PropOp54
 70
     1
102
RTVSPost2010Prop55
280
     0
102
RTVSPost2010PropOp55
 70
     1
102
RTVSPost2010Prop56
140
1.0
102
RTVSPost2010PropOp56
 70
     1
102
RTVSPost2010Prop57
140
1.0
102
RTVSPost2010PropOp57
 70
     1
102
RTVSPropertyOp0
 70
     0
102
RTVSPropertyOp1
 70
     0
102
RTVSPropertyOp2
 70
     0
102
RTVSPropertyOp3
 70
     0
102
RTVSPropertyOp4
 70
     0
102
RTVSPropertyOp5
 70
     0
102
RTVSPropertyOp6
 70
     0
102
RTVSPropertyOp7
 70
     0
102
RTVSPropertyOp8
 70
     0
102
RTVSPropertyOp9
 70
     0
102
RTVSPropertyOp10
 70
     0
102
RTVSPropertyOp11
 70
     0
102
RTVSPropertyOp12
 70
     0
102
RTVSPropertyOp13
 70
     0
102
RTVSPropertyOp14
 70
     2
102
RTVSPropertyOp15
 70
     0
102
RTVSPropertyOp16
 70
     0
102
RTVSPropertyOp17
 70
     0
102
RTVSPropertyOp18
 70
     0
102
RTVSPropertyOp19
 70
     0
102
RTVSPropertyOp20
 70
     0
102
RTVSPropertyOp21
 70
     0
102
RTVSPropertyOp22
 70
     0
102
RTVSPropertyOp23
 70
     0
102
RTVSPropertyOp24
 70
     0
102
RTVSPropertyOp25
 70
     0
102
RTVSPropertyOp26
 70
     0
102
RTVSPropertyOp27
 70
     0
102
RTVSPropertyOp28
 70
     1
102
RTVSPropertyOp29
 70
     1
102
RTVSPropertyOp30
 70
     1
102
RTVSPropertyOp31
 70
     1
102
RTVSPropertyOp32
 70
     1
102
RTVSPropertyOp33
 70
     1
102
RTVSPropertyOp34
 70
     1
102
RTVSPropertyOp35
 70
     1
102
RTVSPropertyOp36
 70
     1
102
RTVSPropertyOp37
 70
     1
102
RTVSPropertyOp38
 70
     1
102
RTVSPropertyOp39
 70
     1
102
RTVSPropertyOp40
 70
     1
102
RTVSPropertyOp41
 70
     1
102
RTVSPropertyOp42
 70
     1
102
RTVSPropertyOp43
 70
     1
102
RTVSPropertyOp44
 70
     1
102
RTVSPropertyOp45
 70
     1
102
RTVSPropertyOp46
 70
     1
102
RTVSPropertyOp47
 70
     1
102
RTVSPropertyOp48
 70
     1
102
RTVSPropertyOp49
 70
     1
102
RTVSPropertyOp50
 70
     1
102
RTVSPropertyOp51
 70
     0
102
RTVSPropertyOp52
 70
     0
102
RTVSPropertyOp53
 70
     1
102
RTVSPropertyOp54
 70
     1
102
RTVSPropertyOp55
 70
     1
102
RTVSPropertyOp56
 70
     1
102
RTVSPropertyOp57
 70
     1
102
RTVSPropertyOp58
 70
     1
102
RTVSPropertyOp59
 70
     1
102
RTVSPropertyOp60
 70
     1
102
RTVSPropertyOp61
 70
     1
102
RTVSPropertyOp62
 70
     1
  0
XRECORD
  5
E4D
102
{ACAD_REACTORS
330
E4C
102
}
330
E4C
100
AcDbXrecord
280
     1
102
RTVSPost2010Prop28
280
     0
102
RTVSPost2010PropOp28
 70
     1
102
RTVSPost2010Prop29
280
     1
102
RTVSPost2010PropOp29
 70
     1
102
RTVSPost2010Prop30
280
     1
102
RTVSPost2010PropOp30
 70
     1
102
RTVSPost2010Prop31
280
     0
102
RTVSPost2010PropOp31
 70
     1
102
RTVSPost2010Prop32
280
     0
102
RTVSPost2010PropOp32
 70
     1
102
RTVSPost2010Prop33
280
     0
102
RTVSPost2010PropOp33
 70
     1
102
RTVSPost2010Prop34
280
     0
102
RTVSPost2010PropOp34
 70
     1
102
RTVSPost2010Prop35
280
     0
102
RTVSPost2010PropOp35
 70
     1
102
RTVSPost2010Prop36
280
     0
102
RTVSPost2010PropOp36
 70
     1
102
RTVSPost2010Prop37
 90
       50
102
RTVSPost2010PropOp37
 70
     1
102
RTVSPost2010Prop38
140
0.0
102
RTVSPost2010PropOp38
 70
     1
102
RTVSPost2010Prop39
140
1.0
102
RTVSPost2010PropOp39
 70
     1
102
RTVSPost2010Prop40
 90
        0
102
RTVSPost2010PropOp40
 70
     1
102
RTVSPost2010Prop41ColorIndex
 90
       18
102
RTVSPost2010Prop41ColorRGB
 90
        0
102
RTVSPost2010PropOp41
 70
     1
102
RTVSPost2010Prop42
 90
       50
102
RTVSPost2010PropOp42
 70
     1
102
RTVSPost2010Prop43
 90
        3
102
RTVSPost2010PropOp43
 70
     1
102
RTVSPost2010Prop44ColorIndex
 90
        5
102
RTVSPost2010Prop44ColorRGB
 90
      255
102
RTVSPost2010PropOp44
 70
     1
102
RTVSPost2010Prop45
280
     0
102
RTVSPost2010PropOp45
 70
     1
102
RTVSPost2010Prop46
 90
       50
102
RTVSPost2010PropOp46
 70
     1
102
RTVSPost2010Prop47
 90
       50
102
RTVSPost2010PropOp47
 70
     1
102
RTVSPost2010Prop48
 90
       50
102
RTVSPost2010PropOp48
 70
     1
102
RTVSPost2010Prop49
280
     0
102
RTVSPost2010PropOp49
 70
     1
102
RTVSPost2010Prop50
 90
       50
102
RTVSPost2010PropOp50
 70
     1
102
RTVSPost2010Prop51ColorIndex
 90
      256
102
RTVSPost2010Prop51ColorRGB
 90
-16777216
102
RTVSPost2010PropOp51
 70
     0
102
RTVSPost2010Prop52
140
1.0
102
RTVSPost2010PropOp52
 70
     0
102
RTVSPost2010Prop53
 90
        2
102
RTVSPost2010PropOp53
 70
     1
102
RTVSPost2010Prop54
  1
strokes_ogs.tif
102
RTVSPost2010PropOp54
 70
     1
102
RTVSPost2010Prop55
280
     0
102
RTVSPost2010PropOp55
 70
     1
102
RTVSPost2010Prop56
140
1.0
102
RTVSPost2010PropOp56
 70
     1
102
RTVSPost2010Prop57
140
1.0
102
RTVSPost2010PropOp57
 70
     1
102
RTVSPropertyOp0
 70
     1
102
RTVSPropertyOp1
 70
     1
102
RTVSPropertyOp2
 70
     1
102
RTVSPropertyOp3
 70
     1
102
RTVSPropertyOp4
 70
     1
102
RTVSPropertyOp5
 70
     1
102
RTVSPropertyOp6
 70
     1
102
RTVSPropertyOp7
 70
     1
102
RTVSPropertyOp8
 70
     1
102
RTVSPropertyOp9
 70
     1
102
RTVSPropertyOp10
 70
     1
102
RTVSPropertyOp11
 70
     1
102
RTVSPropertyOp12
 70
     1
102
RTVSPropertyOp13
 70
     1
102
RTVSPropertyOp14
 70
     1
102
RTVSPropertyOp15
 70
     1
102
RTVSPropertyOp16
 70
     1
102
RTVSPropertyOp17
 70
     1
102
RTVSPropertyOp18
 70
     1
102
RTVSPropertyOp19
 70
     1
102
RTVSPropertyOp20
 70
     1
102
RTVSPropertyOp21
 70
     1
102
RTVSPropertyOp22
 70
     1
102
RTVSPropertyOp23
 70
     1
102
RTVSPropertyOp24
 70
     1
102
RTVSPropertyOp25
 70
     1
102
RTVSPropertyOp26
 70
     1
102
RTVSPropertyOp27
 70
     1
102
RTVSPropertyOp28
 70
     1
102
RTVSPropertyOp29
 70
     1
102
RTVSPropertyOp30
 70
     1
102
RTVSPropertyOp31
 70
     1
102
RTVSPropertyOp32
 70
     1
102
RTVSPropertyOp33
 70
     1
102
RTVSPropertyOp34
 70
     1
102
RTVSPropertyOp35
 70
     1
102
RTVSPropertyOp36
 70
     1
102
RTVSPropertyOp37
 70
     1
102
RTVSPropertyOp38
 70
     1
102
RTVSPropertyOp39
 70
     1
102
RTVSPropertyOp40
 70
     1
102
RTVSPropertyOp41
 70
     1
102
RTVSPropertyOp42
 70
     1
102
RTVSPropertyOp43
 70
     1
102
RTVSPropertyOp44
 70
     1
102
RTVSPropertyOp45
 70
     1
102
RTVSPropertyOp46
 70
     1
102
RTVSPropertyOp47
 70
     1
102
RTVSPropertyOp48
 70
     1
102
RTVSPropertyOp49
 70
     1
102
RTVSPropertyOp50
 70
     1
102
RTVSPropertyOp51
 70
     0
102
RTVSPropertyOp52
 70
     0
102
RTVSPropertyOp53
 70
     1
102
RTVSPropertyOp54
 70
     1
102
RTVSPropertyOp55
 70
     1
102
RTVSPropertyOp56
 70
     1
102
RTVSPropertyOp57
 70
     1
102
RTVSPropertyOp58
 70
     1
102
RTVSPropertyOp59
 70
     1
102
RTVSPropertyOp60
 70
     1
102
RTVSPropertyOp61
 70
     1
102
RTVSPropertyOp62
 70
     1
  0
XRECORD
  5
E69
102
{ACAD_REACTORS
330
E68
102
}
330
E68
100
AcDbXrecord
280
     1
102
RTVSPost2010Prop28
280
     0
102
RTVSPost2010PropOp28
 70
     1
102
RTVSPost2010Prop29
280
     1
102
RTVSPost2010PropOp29
 70
     1
102
RTVSPost2010Prop30
280
     1
102
RTVSPost2010PropOp30
 70
     1
102
RTVSPost2010Prop31
280
     0
102
RTVSPost2010PropOp31
 70
     1
102
RTVSPost2010Prop32
280
     0
102
RTVSPost2010PropOp32
 70
     1
102
RTVSPost2010Prop33
280
     0
102
RTVSPost2010PropOp33
 70
     1
102
RTVSPost2010Prop34
280
     0
102
RTVSPost2010PropOp34
 70
     1
102
RTVSPost2010Prop35
280
     0
102
RTVSPost2010PropOp35
 70
     1
102
RTVSPost2010Prop36
280
     0
102
RTVSPost2010PropOp36
 70
     1
102
RTVSPost2010Prop37
 90
       50
102
RTVSPost2010PropOp37
 70
     1
102
RTVSPost2010Prop38
140
0.0
102
RTVSPost2010PropOp38
 70
     1
102
RTVSPost2010Prop39
140
1.0
102
RTVSPost2010PropOp39
 70
     1
102
RTVSPost2010Prop40
 90
        0
102
RTVSPost2010PropOp40
 70
     1
102
RTVSPost2010Prop41ColorIndex
 90
       18
102
RTVSPost2010Prop41ColorRGB
 90
        0
102
RTVSPost2010PropOp41
 70
     1
102
RTVSPost2010Prop42
 90
       50
102
RTVSPost2010PropOp42
 70
     1
102
RTVSPost2010Prop43
 90
        3
102
RTVSPost2010PropOp43
 70
     1
102
RTVSPost2010Prop44ColorIndex
 90
        5
102
RTVSPost2010Prop44ColorRGB
 90
      255
102
RTVSPost2010PropOp44
 70
     1
102
RTVSPost2010Prop45
280
     0
102
RTVSPost2010PropOp45
 70
     1
102
RTVSPost2010Prop46
 90
       50
102
RTVSPost2010PropOp46
 70
     1
102
RTVSPost2010Prop47
 90
       50
102
RTVSPost2010PropOp47
 70
     1
102
RTVSPost2010Prop48
 90
       50
102
RTVSPost2010PropOp48
 70
     1
102
RTVSPost2010Prop49
280
     0
102
RTVSPost2010PropOp49
 70
     1
102
RTVSPost2010Prop50
 90
       50
102
RTVSPost2010PropOp50
 70
     1
102
RTVSPost2010Prop51ColorIndex
 90
      256
102
RTVSPost2010Prop51ColorRGB
 90
-16777216
102
RTVSPost2010PropOp51
 70
     0
102
RTVSPost2010Prop52
140
1.0
102
RTVSPost2010PropOp52
 70
     0
102
RTVSPost2010Prop53
 90
        2
102
RTVSPost2010PropOp53
 70
     1
102
RTVSPost2010Prop54
  1
strokes_ogs.tif
102
RTVSPost2010PropOp54
 70
     1
102
RTVSPost2010Prop55
280
     0
102
RTVSPost2010PropOp55
 70
     1
102
RTVSPost2010Prop56
140
1.0
102
RTVSPost2010PropOp56
 70
     1
102
RTVSPost2010Prop57
140
1.0
102
RTVSPost2010PropOp57
 70
     1
102
RTVSPropertyOp0
 70
     1
102
RTVSPropertyOp1
 70
     1
102
RTVSPropertyOp2
 70
     1
102
RTVSPropertyOp3
 70
     1
102
RTVSPropertyOp4
 70
     1
102
RTVSPropertyOp5
 70
     1
102
RTVSPropertyOp6
 70
     1
102
RTVSPropertyOp7
 70
     1
102
RTVSPropertyOp8
 70
     1
102
RTVSPropertyOp9
 70
     1
102
RTVSPropertyOp10
 70
     1
102
RTVSPropertyOp11
 70
     1
102
RTVSPropertyOp12
 70
     1
102
RTVSPropertyOp13
 70
     1
102
RTVSPropertyOp14
 70
     1
102
RTVSPropertyOp15
 70
     1
102
RTVSPropertyOp16
 70
     1
102
RTVSPropertyOp17
 70
     1
102
RTVSPropertyOp18
 70
     1
102
RTVSPropertyOp19
 70
     1
102
RTVSPropertyOp20
 70
     1
102
RTVSPropertyOp21
 70
     1
102
RTVSPropertyOp22
 70
     1
102
RTVSPropertyOp23
 70
     1
102
RTVSPropertyOp24
 70
     1
102
RTVSPropertyOp25
 70
     1
102
RTVSPropertyOp26
 70
     1
102
RTVSPropertyOp27
 70
     1
102
RTVSPropertyOp28
 70
     1
102
RTVSPropertyOp29
 70
     1
102
RTVSPropertyOp30
 70
     1
102
RTVSPropertyOp31
 70
     1
102
RTVSPropertyOp32
 70
     1
102
RTVSPropertyOp33
 70
     1
102
RTVSPropertyOp34
 70
     1
102
RTVSPropertyOp35
 70
     1
102
RTVSPropertyOp36
 70
     1
102
RTVSPropertyOp37
 70
     1
102
RTVSPropertyOp38
 70
     1
102
RTVSPropertyOp39
 70
     1
102
RTVSPropertyOp40
 70
     1
102
RTVSPropertyOp41
 70
     1
102
RTVSPropertyOp42
 70
     1
102
RTVSPropertyOp43
 70
     1
102
RTVSPropertyOp44
 70
     1
102
RTVSPropertyOp45
 70
     1
102
RTVSPropertyOp46
 70
     1
102
RTVSPropertyOp47
 70
     1
102
RTVSPropertyOp48
 70
     1
102
RTVSPropertyOp49
 70
     1
102
RTVSPropertyOp50
 70
     1
102
RTVSPropertyOp51
 70
     0
102
RTVSPropertyOp52
 70
     0
102
RTVSPropertyOp53
 70
     1
102
RTVSPropertyOp54
 70
     1
102
RTVSPropertyOp55
 70
     1
102
RTVSPropertyOp56
 70
     1
102
RTVSPropertyOp57
 70
     1
102
RTVSPropertyOp58
 70
     1
102
RTVSPropertyOp59
 70
     1
102
RTVSPropertyOp60
 70
     1
102
RTVSPropertyOp61
 70
     1
102
RTVSPropertyOp62
 70
     1
  0
XRECORD
  5
E67
102
{ACAD_REACTORS
330
E66
102
}
330
E66
100
AcDbXrecord
280
     1
102
RTVSPost2010Prop28
280
     0
102
RTVSPost2010PropOp28
 70
     1
102
RTVSPost2010Prop29
280
     1
102
RTVSPost2010PropOp29
 70
     1
102
RTVSPost2010Prop30
280
     1
102
RTVSPost2010PropOp30
 70
     1
102
RTVSPost2010Prop31
280
     0
102
RTVSPost2010PropOp31
 70
     1
102
RTVSPost2010Prop32
280
     0
102
RTVSPost2010PropOp32
 70
     1
102
RTVSPost2010Prop33
280
     0
102
RTVSPost2010PropOp33
 70
     1
102
RTVSPost2010Prop34
280
     0
102
RTVSPost2010PropOp34
 70
     1
102
RTVSPost2010Prop35
280
     0
102
RTVSPost2010PropOp35
 70
     1
102
RTVSPost2010Prop36
280
     0
102
RTVSPost2010PropOp36
 70
     1
102
RTVSPost2010Prop37
 90
       50
102
RTVSPost2010PropOp37
 70
     1
102
RTVSPost2010Prop38
140
0.0
102
RTVSPost2010PropOp38
 70
     1
102
RTVSPost2010Prop39
140
1.0
102
RTVSPost2010PropOp39
 70
     1
102
RTVSPost2010Prop40
 90
        0
102
RTVSPost2010PropOp40
 70
     1
102
RTVSPost2010Prop41ColorIndex
 90
       18
102
RTVSPost2010Prop41ColorRGB
 90
        0
102
RTVSPost2010PropOp41
 70
     1
102
RTVSPost2010Prop42
 90
       50
102
RTVSPost2010PropOp42
 70
     1
102
RTVSPost2010Prop43
 90
        3
102
RTVSPost2010PropOp43
 70
     1
102
RTVSPost2010Prop44ColorIndex
 90
        5
102
RTVSPost2010Prop44ColorRGB
 90
      255
102
RTVSPost2010PropOp44
 70
     1
102
RTVSPost2010Prop45
280
     0
102
RTVSPost2010PropOp45
 70
     1
102
RTVSPost2010Prop46
 90
       50
102
RTVSPost2010PropOp46
 70
     1
102
RTVSPost2010Prop47
 90
       50
102
RTVSPost2010PropOp47
 70
     1
102
RTVSPost2010Prop48
 90
       50
102
RTVSPost2010PropOp48
 70
     1
102
RTVSPost2010Prop49
280
     0
102
RTVSPost2010PropOp49
 70
     1
102
RTVSPost2010Prop50
 90
       50
102
RTVSPost2010PropOp50
 70
     1
102
RTVSPost2010Prop51ColorIndex
 90
      256
102
RTVSPost2010Prop51ColorRGB
 90
-16777216
102
RTVSPost2010PropOp51
 70
     0
102
RTVSPost2010Prop52
140
1.0
102
RTVSPost2010PropOp52
 70
     0
102
RTVSPost2010Prop53
 90
        2
102
RTVSPost2010PropOp53
 70
     1
102
RTVSPost2010Prop54
  1
strokes_ogs.tif
102
RTVSPost2010PropOp54
 70
     1
102
RTVSPost2010Prop55
280
     0
102
RTVSPost2010PropOp55
 70
     1
102
RTVSPost2010Prop56
140
1.0
102
RTVSPost2010PropOp56
 70
     1
102
RTVSPost2010Prop57
140
1.0
102
RTVSPost2010PropOp57
 70
     1
102
RTVSPropertyOp0
 70
     1
102
RTVSPropertyOp1
 70
     1
102
RTVSPropertyOp2
 70
     1
102
RTVSPropertyOp3
 70
     1
102
RTVSPropertyOp4
 70
     1
102
RTVSPropertyOp5
 70
     1
102
RTVSPropertyOp6
 70
     1
102
RTVSPropertyOp7
 70
     1
102
RTVSPropertyOp8
 70
     1
102
RTVSPropertyOp9
 70
     1
102
RTVSPropertyOp10
 70
     1
102
RTVSPropertyOp11
 70
     1
102
RTVSPropertyOp12
 70
     1
102
RTVSPropertyOp13
 70
     1
102
RTVSPropertyOp14
 70
     1
102
RTVSPropertyOp15
 70
     1
102
RTVSPropertyOp16
 70
     1
102
RTVSPropertyOp17
 70
     1
102
RTVSPropertyOp18
 70
     1
102
RTVSPropertyOp19
 70
     1
102
RTVSPropertyOp20
 70
     1
102
RTVSPropertyOp21
 70
     1
102
RTVSPropertyOp22
 70
     1
102
RTVSPropertyOp23
 70
     1
102
RTVSPropertyOp24
 70
     1
102
RTVSPropertyOp25
 70
     1
102
RTVSPropertyOp26
 70
     1
102
RTVSPropertyOp27
 70
     1
102
RTVSPropertyOp28
 70
     1
102
RTVSPropertyOp29
 70
     1
102
RTVSPropertyOp30
 70
     1
102
RTVSPropertyOp31
 70
     1
102
RTVSPropertyOp32
 70
     1
102
RTVSPropertyOp33
 70
     1
102
RTVSPropertyOp34
 70
     1
102
RTVSPropertyOp35
 70
     1
102
RTVSPropertyOp36
 70
     1
102
RTVSPropertyOp37
 70
     1
102
RTVSPropertyOp38
 70
     1
102
RTVSPropertyOp39
 70
     1
102
RTVSPropertyOp40
 70
     1
102
RTVSPropertyOp41
 70
     1
102
RTVSPropertyOp42
 70
     1
102
RTVSPropertyOp43
 70
     1
102
RTVSPropertyOp44
 70
     1
102
RTVSPropertyOp45
 70
     1
102
RTVSPropertyOp46
 70
     1
102
RTVSPropertyOp47
 70
     1
102
RTVSPropertyOp48
 70
     1
102
RTVSPropertyOp49
 70
     1
102
RTVSPropertyOp50
 70
     1
102
RTVSPropertyOp51
 70
     0
102
RTVSPropertyOp52
 70
     0
102
RTVSPropertyOp53
 70
     1
102
RTVSPropertyOp54
 70
     1
102
RTVSPropertyOp55
 70
     1
102
RTVSPropertyOp56
 70
     1
102
RTVSPropertyOp57
 70
     1
102
RTVSPropertyOp58
 70
     1
102
RTVSPropertyOp59
 70
     1
102
RTVSPropertyOp60
 70
     1
102
RTVSPropertyOp61
 70
     1
102
RTVSPropertyOp62
 70
     1
  0
XRECORD
  5
E61
102
{ACAD_REACTORS
330
E60
102
}
330
E60
100
AcDbXrecord
280
     1
102
RTVSPost2010Prop28
280
     0
102
RTVSPost2010PropOp28
 70
     1
102
RTVSPost2010Prop29
280
     1
102
RTVSPost2010PropOp29
 70
     1
102
RTVSPost2010Prop30
280
     1
102
RTVSPost2010PropOp30
 70
     1
102
RTVSPost2010Prop31
280
     0
102
RTVSPost2010PropOp31
 70
     1
102
RTVSPost2010Prop32
280
     0
102
RTVSPost2010PropOp32
 70
     1
102
RTVSPost2010Prop33
280
     0
102
RTVSPost2010PropOp33
 70
     1
102
RTVSPost2010Prop34
280
     0
102
RTVSPost2010PropOp34
 70
     1
102
RTVSPost2010Prop35
280
     0
102
RTVSPost2010PropOp35
 70
     1
102
RTVSPost2010Prop36
280
     0
102
RTVSPost2010PropOp36
 70
     1
102
RTVSPost2010Prop37
 90
       50
102
RTVSPost2010PropOp37
 70
     1
102
RTVSPost2010Prop38
140
0.0
102
RTVSPost2010PropOp38
 70
     1
102
RTVSPost2010Prop39
140
1.0
102
RTVSPost2010PropOp39
 70
     1
102
RTVSPost2010Prop40
 90
        0
102
RTVSPost2010PropOp40
 70
     1
102
RTVSPost2010Prop41ColorIndex
 90
       18
102
RTVSPost2010Prop41ColorRGB
 90
        0
102
RTVSPost2010PropOp41
 70
     1
102
RTVSPost2010Prop42
 90
       50
102
RTVSPost2010PropOp42
 70
     1
102
RTVSPost2010Prop43
 90
        3
102
RTVSPost2010PropOp43
 70
     1
102
RTVSPost2010Prop44ColorIndex
 90
        5
102
RTVSPost2010Prop44ColorRGB
 90
      255
102
RTVSPost2010PropOp44
 70
     1
102
RTVSPost2010Prop45
280
     0
102
RTVSPost2010PropOp45
 70
     1
102
RTVSPost2010Prop46
 90
       50
102
RTVSPost2010PropOp46
 70
     1
102
RTVSPost2010Prop47
 90
       50
102
RTVSPost2010PropOp47
 70
     1
102
RTVSPost2010Prop48
 90
       50
102
RTVSPost2010PropOp48
 70
     1
102
RTVSPost2010Prop49
280
     0
102
RTVSPost2010PropOp49
 70
     1
102
RTVSPost2010Prop50
 90
       50
102
RTVSPost2010PropOp50
 70
     1
102
RTVSPost2010Prop51ColorIndex
 90
      256
102
RTVSPost2010Prop51ColorRGB
 90
-16777216
102
RTVSPost2010PropOp51
 70
     0
102
RTVSPost2010Prop52
140
1.0
102
RTVSPost2010PropOp52
 70
     0
102
RTVSPost2010Prop53
 90
        2
102
RTVSPost2010PropOp53
 70
     1
102
RTVSPost2010Prop54
  1
strokes_ogs.tif
102
RTVSPost2010PropOp54
 70
     1
102
RTVSPost2010Prop55
280
     0
102
RTVSPost2010PropOp55
 70
     1
102
RTVSPost2010Prop56
140
1.0
102
RTVSPost2010PropOp56
 70
     1
102
RTVSPost2010Prop57
140
1.0
102
RTVSPost2010PropOp57
 70
     1
102
RTVSPropertyOp0
 70
     1
102
RTVSPropertyOp1
 70
     1
102
RTVSPropertyOp2
 70
     1
102
RTVSPropertyOp3
 70
     1
102
RTVSPropertyOp4
 70
     1
102
RTVSPropertyOp5
 70
     1
102
RTVSPropertyOp6
 70
     1
102
RTVSPropertyOp7
 70
     1
102
RTVSPropertyOp8
 70
     1
102
RTVSPropertyOp9
 70
     1
102
RTVSPropertyOp10
 70
     1
102
RTVSPropertyOp11
 70
     1
102
RTVSPropertyOp12
 70
     1
102
RTVSPropertyOp13
 70
     1
102
RTVSPropertyOp14
 70
     1
102
RTVSPropertyOp15
 70
     1
102
RTVSPropertyOp16
 70
     1
102
RTVSPropertyOp17
 70
     1
102
RTVSPropertyOp18
 70
     1
102
RTVSPropertyOp19
 70
     1
102
RTVSPropertyOp20
 70
     1
102
RTVSPropertyOp21
 70
     1
102
RTVSPropertyOp22
 70
     1
102
RTVSPropertyOp23
 70
     1
102
RTVSPropertyOp24
 70
     1
102
RTVSPropertyOp25
 70
     1
102
RTVSPropertyOp26
 70
     1
102
RTVSPropertyOp27
 70
     1
102
RTVSPropertyOp28
 70
     1
102
RTVSPropertyOp29
 70
     1
102
RTVSPropertyOp30
 70
     1
102
RTVSPropertyOp31
 70
     1
102
RTVSPropertyOp32
 70
     1
102
RTVSPropertyOp33
 70
     1
102
RTVSPropertyOp34
 70
     1
102
RTVSPropertyOp35
 70
     1
102
RTVSPropertyOp36
 70
     1
102
RTVSPropertyOp37
 70
     1
102
RTVSPropertyOp38
 70
     1
102
RTVSPropertyOp39
 70
     1
102
RTVSPropertyOp40
 70
     1
102
RTVSPropertyOp41
 70
     1
102
RTVSPropertyOp42
 70
     1
102
RTVSPropertyOp43
 70
     1
102
RTVSPropertyOp44
 70
     1
102
RTVSPropertyOp45
 70
     1
102
RTVSPropertyOp46
 70
     1
102
RTVSPropertyOp47
 70
     1
102
RTVSPropertyOp48
 70
     1
102
RTVSPropertyOp49
 70
     1
102
RTVSPropertyOp50
 70
     1
102
RTVSPropertyOp51
 70
     0
102
RTVSPropertyOp52
 70
     0
102
RTVSPropertyOp53
 70
     1
102
RTVSPropertyOp54
 70
     1
102
RTVSPropertyOp55
 70
     1
102
RTVSPropertyOp56
 70
     1
102
RTVSPropertyOp57
 70
     1
102
RTVSPropertyOp58
 70
     1
102
RTVSPropertyOp59
 70
     1
102
RTVSPropertyOp60
 70
     1
102
RTVSPropertyOp61
 70
     1
102
RTVSPropertyOp62
 70
     1
  0
XRECORD
  5
E63
102
{ACAD_REACTORS
330
E62
102
}
330
E62
100
AcDbXrecord
280
     1
102
RTVSPost2010Prop28
280
     0
102
RTVSPost2010PropOp28
 70
     1
102
RTVSPost2010Prop29
280
     1
102
RTVSPost2010PropOp29
 70
     1
102
RTVSPost2010Prop30
280
     1
102
RTVSPost2010PropOp30
 70
     1
102
RTVSPost2010Prop31
280
     0
102
RTVSPost2010PropOp31
 70
     1
102
RTVSPost2010Prop32
280
     0
102
RTVSPost2010PropOp32
 70
     1
102
RTVSPost2010Prop33
280
     0
102
RTVSPost2010PropOp33
 70
     1
102
RTVSPost2010Prop34
280
     0
102
RTVSPost2010PropOp34
 70
     1
102
RTVSPost2010Prop35
280
     0
102
RTVSPost2010PropOp35
 70
     1
102
RTVSPost2010Prop36
280
     0
102
RTVSPost2010PropOp36
 70
     1
102
RTVSPost2010Prop37
 90
       50
102
RTVSPost2010PropOp37
 70
     1
102
RTVSPost2010Prop38
140
0.0
102
RTVSPost2010PropOp38
 70
     1
102
RTVSPost2010Prop39
140
1.0
102
RTVSPost2010PropOp39
 70
     1
102
RTVSPost2010Prop40
 90
        0
102
RTVSPost2010PropOp40
 70
     1
102
RTVSPost2010Prop41ColorIndex
 90
       18
102
RTVSPost2010Prop41ColorRGB
 90
        0
102
RTVSPost2010PropOp41
 70
     1
102
RTVSPost2010Prop42
 90
       50
102
RTVSPost2010PropOp42
 70
     1
102
RTVSPost2010Prop43
 90
        3
102
RTVSPost2010PropOp43
 70
     1
102
RTVSPost2010Prop44ColorIndex
 90
        5
102
RTVSPost2010Prop44ColorRGB
 90
      255
102
RTVSPost2010PropOp44
 70
     1
102
RTVSPost2010Prop45
280
     0
102
RTVSPost2010PropOp45
 70
     1
102
RTVSPost2010Prop46
 90
       50
102
RTVSPost2010PropOp46
 70
     1
102
RTVSPost2010Prop47
 90
       50
102
RTVSPost2010PropOp47
 70
     1
102
RTVSPost2010Prop48
 90
       50
102
RTVSPost2010PropOp48
 70
     1
102
RTVSPost2010Prop49
280
     0
102
RTVSPost2010PropOp49
 70
     1
102
RTVSPost2010Prop50
 90
       50
102
RTVSPost2010PropOp50
 70
     1
102
RTVSPost2010Prop51ColorIndex
 90
      256
102
RTVSPost2010Prop51ColorRGB
 90
-16777216
102
RTVSPost2010PropOp51
 70
     0
102
RTVSPost2010Prop52
140
1.0
102
RTVSPost2010PropOp52
 70
     0
102
RTVSPost2010Prop53
 90
        2
102
RTVSPost2010PropOp53
 70
     1
102
RTVSPost2010Prop54
  1
strokes_ogs.tif
102
RTVSPost2010PropOp54
 70
     1
102
RTVSPost2010Prop55
280
     0
102
RTVSPost2010PropOp55
 70
     1
102
RTVSPost2010Prop56
140
1.0
102
RTVSPost2010PropOp56
 70
     1
102
RTVSPost2010Prop57
140
1.0
102
RTVSPost2010PropOp57
 70
     1
102
RTVSPropertyOp0
 70
     1
102
RTVSPropertyOp1
 70
     1
102
RTVSPropertyOp2
 70
     1
102
RTVSPropertyOp3
 70
     1
102
RTVSPropertyOp4
 70
     1
102
RTVSPropertyOp5
 70
     1
102
RTVSPropertyOp6
 70
     1
102
RTVSPropertyOp7
 70
     1
102
RTVSPropertyOp8
 70
     1
102
RTVSPropertyOp9
 70
     1
102
RTVSPropertyOp10
 70
     1
102
RTVSPropertyOp11
 70
     1
102
RTVSPropertyOp12
 70
     1
102
RTVSPropertyOp13
 70
     1
102
RTVSPropertyOp14
 70
     1
102
RTVSPropertyOp15
 70
     1
102
RTVSPropertyOp16
 70
     1
102
RTVSPropertyOp17
 70
     1
102
RTVSPropertyOp18
 70
     1
102
RTVSPropertyOp19
 70
     1
102
RTVSPropertyOp20
 70
     1
102
RTVSPropertyOp21
 70
     1
102
RTVSPropertyOp22
 70
     1
102
RTVSPropertyOp23
 70
     1
102
RTVSPropertyOp24
 70
     1
102
RTVSPropertyOp25
 70
     1
102
RTVSPropertyOp26
 70
     1
102
RTVSPropertyOp27
 70
     1
102
RTVSPropertyOp28
 70
     1
102
RTVSPropertyOp29
 70
     1
102
RTVSPropertyOp30
 70
     1
102
RTVSPropertyOp31
 70
     1
102
RTVSPropertyOp32
 70
     1
102
RTVSPropertyOp33
 70
     1
102
RTVSPropertyOp34
 70
     1
102
RTVSPropertyOp35
 70
     1
102
RTVSPropertyOp36
 70
     1
102
RTVSPropertyOp37
 70
     1
102
RTVSPropertyOp38
 70
     1
102
RTVSPropertyOp39
 70
     1
102
RTVSPropertyOp40
 70
     1
102
RTVSPropertyOp41
 70
     1
102
RTVSPropertyOp42
 70
     1
102
RTVSPropertyOp43
 70
     1
102
RTVSPropertyOp44
 70
     1
102
RTVSPropertyOp45
 70
     1
102
RTVSPropertyOp46
 70
     1
102
RTVSPropertyOp47
 70
     1
102
RTVSPropertyOp48
 70
     1
102
RTVSPropertyOp49
 70
     1
102
RTVSPropertyOp50
 70
     1
102
RTVSPropertyOp51
 70
     0
102
RTVSPropertyOp52
 70
     0
102
RTVSPropertyOp53
 70
     1
102
RTVSPropertyOp54
 70
     1
102
RTVSPropertyOp55
 70
     1
102
RTVSPropertyOp56
 70
     1
102
RTVSPropertyOp57
 70
     1
102
RTVSPropertyOp58
 70
     1
102
RTVSPropertyOp59
 70
     1
102
RTVSPropertyOp60
 70
     1
102
RTVSPropertyOp61
 70
     1
102
RTVSPropertyOp62
 70
     1
  0
XRECORD
  5
E53
102
{ACAD_REACTORS
330
E52
102
}
330
E52
100
AcDbXrecord
280
     1
102
RTVSPost2010Prop28
280
     0
102
RTVSPost2010PropOp28
 70
     1
102
RTVSPost2010Prop29
280
     1
102
RTVSPost2010PropOp29
 70
     1
102
RTVSPost2010Prop30
280
     1
102
RTVSPost2010PropOp30
 70
     1
102
RTVSPost2010Prop31
280
     0
102
RTVSPost2010PropOp31
 70
     1
102
RTVSPost2010Prop32
280
     0
102
RTVSPost2010PropOp32
 70
     1
102
RTVSPost2010Prop33
280
     0
102
RTVSPost2010PropOp33
 70
     1
102
RTVSPost2010Prop34
280
     0
102
RTVSPost2010PropOp34
 70
     1
102
RTVSPost2010Prop35
280
     0
102
RTVSPost2010PropOp35
 70
     1
102
RTVSPost2010Prop36
280
     0
102
RTVSPost2010PropOp36
 70
     1
102
RTVSPost2010Prop37
 90
       50
102
RTVSPost2010PropOp37
 70
     1
102
RTVSPost2010Prop38
140
0.0
102
RTVSPost2010PropOp38
 70
     1
102
RTVSPost2010Prop39
140
1.0
102
RTVSPost2010PropOp39
 70
     1
102
RTVSPost2010Prop40
 90
        0
102
RTVSPost2010PropOp40
 70
     1
102
RTVSPost2010Prop41ColorIndex
 90
       18
102
RTVSPost2010Prop41ColorRGB
 90
        0
102
RTVSPost2010PropOp41
 70
     1
102
RTVSPost2010Prop42
 90
       50
102
RTVSPost2010PropOp42
 70
     1
102
RTVSPost2010Prop43
 90
        3
102
RTVSPost2010PropOp43
 70
     1
102
RTVSPost2010Prop44ColorIndex
 90
        5
102
RTVSPost2010Prop44ColorRGB
 90
      255
102
RTVSPost2010PropOp44
 70
     1
102
RTVSPost2010Prop45
280
     0
102
RTVSPost2010PropOp45
 70
     1
102
RTVSPost2010Prop46
 90
       50
102
RTVSPost2010PropOp46
 70
     1
102
RTVSPost2010Prop47
 90
       50
102
RTVSPost2010PropOp47
 70
     1
102
RTVSPost2010Prop48
 90
       50
102
RTVSPost2010PropOp48
 70
     1
102
RTVSPost2010Prop49
280
     0
102
RTVSPost2010PropOp49
 70
     1
102
RTVSPost2010Prop50
 90
       50
102
RTVSPost2010PropOp50
 70
     1
102
RTVSPost2010Prop51ColorIndex
 90
      256
102
RTVSPost2010Prop51ColorRGB
 90
-16777216
102
RTVSPost2010PropOp51
 70
     0
102
RTVSPost2010Prop52
140
1.0
102
RTVSPost2010PropOp52
 70
     0
102
RTVSPost2010Prop53
 90
        2
102
RTVSPost2010PropOp53
 70
     1
102
RTVSPost2010Prop54
  1
strokes_ogs.tif
102
RTVSPost2010PropOp54
 70
     1
102
RTVSPost2010Prop55
280
     0
102
RTVSPost2010PropOp55
 70
     1
102
RTVSPost2010Prop56
140
1.0
102
RTVSPost2010PropOp56
 70
     1
102
RTVSPost2010Prop57
140
1.0
102
RTVSPost2010PropOp57
 70
     1
102
RTVSPropertyOp0
 70
     1
102
RTVSPropertyOp1
 70
     1
102
RTVSPropertyOp2
 70
     1
102
RTVSPropertyOp3
 70
     1
102
RTVSPropertyOp4
 70
     1
102
RTVSPropertyOp5
 70
     1
102
RTVSPropertyOp6
 70
     1
102
RTVSPropertyOp7
 70
     1
102
RTVSPropertyOp8
 70
     1
102
RTVSPropertyOp9
 70
     1
102
RTVSPropertyOp10
 70
     1
102
RTVSPropertyOp11
 70
     1
102
RTVSPropertyOp12
 70
     1
102
RTVSPropertyOp13
 70
     1
102
RTVSPropertyOp14
 70
     1
102
RTVSPropertyOp15
 70
     1
102
RTVSPropertyOp16
 70
     1
102
RTVSPropertyOp17
 70
     1
102
RTVSPropertyOp18
 70
     1
102
RTVSPropertyOp19
 70
     1
102
RTVSPropertyOp20
 70
     1
102
RTVSPropertyOp21
 70
     1
102
RTVSPropertyOp22
 70
     1
102
RTVSPropertyOp23
 70
     1
102
RTVSPropertyOp24
 70
     1
102
RTVSPropertyOp25
 70
     1
102
RTVSPropertyOp26
 70
     1
102
RTVSPropertyOp27
 70
     1
102
RTVSPropertyOp28
 70
     1
102
RTVSPropertyOp29
 70
     1
102
RTVSPropertyOp30
 70
     1
102
RTVSPropertyOp31
 70
     1
102
RTVSPropertyOp32
 70
     1
102
RTVSPropertyOp33
 70
     1
102
RTVSPropertyOp34
 70
     1
102
RTVSPropertyOp35
 70
     1
102
RTVSPropertyOp36
 70
     1
102
RTVSPropertyOp37
 70
     1
102
RTVSPropertyOp38
 70
     1
102
RTVSPropertyOp39
 70
     1
102
RTVSPropertyOp40
 70
     1
102
RTVSPropertyOp41
 70
     1
102
RTVSPropertyOp42
 70
     1
102
RTVSPropertyOp43
 70
     1
102
RTVSPropertyOp44
 70
     1
102
RTVSPropertyOp45
 70
     1
102
RTVSPropertyOp46
 70
     1
102
RTVSPropertyOp47
 70
     1
102
RTVSPropertyOp48
 70
     1
102
RTVSPropertyOp49
 70
     1
102
RTVSPropertyOp50
 70
     1
102
RTVSPropertyOp51
 70
     0
102
RTVSPropertyOp52
 70
     0
102
RTVSPropertyOp53
 70
     1
102
RTVSPropertyOp54
 70
     1
102
RTVSPropertyOp55
 70
     1
102
RTVSPropertyOp56
 70
     1
102
RTVSPropertyOp57
 70
     1
102
RTVSPropertyOp58
 70
     1
102
RTVSPropertyOp59
 70
     1
102
RTVSPropertyOp60
 70
     1
102
RTVSPropertyOp61
 70
     1
102
RTVSPropertyOp62
 70
     1
  0
XRECORD
  5
E47
102
{ACAD_REACTORS
330
E46
102
}
330
E46
100
AcDbXrecord
280
     1
102
RTVSPost2010Prop28
280
     0
102
RTVSPost2010PropOp28
 70
     1
102
RTVSPost2010Prop29
280
     1
102
RTVSPost2010PropOp29
 70
     1
102
RTVSPost2010Prop30
280
     1
102
RTVSPost2010PropOp30
 70
     1
102
RTVSPost2010Prop31
280
     0
102
RTVSPost2010PropOp31
 70
     1
102
RTVSPost2010Prop32
280
     0
102
RTVSPost2010PropOp32
 70
     1
102
RTVSPost2010Prop33
280
     0
102
RTVSPost2010PropOp33
 70
     1
102
RTVSPost2010Prop34
280
     0
102
RTVSPost2010PropOp34
 70
     1
102
RTVSPost2010Prop35
280
     0
102
RTVSPost2010PropOp35
 70
     1
102
RTVSPost2010Prop36
280
     0
102
RTVSPost2010PropOp36
 70
     1
102
RTVSPost2010Prop37
 90
       50
102
RTVSPost2010PropOp37
 70
     1
102
RTVSPost2010Prop38
140
0.0
102
RTVSPost2010PropOp38
 70
     1
102
RTVSPost2010Prop39
140
1.0
102
RTVSPost2010PropOp39
 70
     1
102
RTVSPost2010Prop40
 90
        0
102
RTVSPost2010PropOp40
 70
     1
102
RTVSPost2010Prop41ColorIndex
 90
       18
102
RTVSPost2010Prop41ColorRGB
 90
        0
102
RTVSPost2010PropOp41
 70
     1
102
RTVSPost2010Prop42
 90
       50
102
RTVSPost2010PropOp42
 70
     1
102
RTVSPost2010Prop43
 90
        3
102
RTVSPost2010PropOp43
 70
     1
102
RTVSPost2010Prop44ColorIndex
 90
        5
102
RTVSPost2010Prop44ColorRGB
 90
      255
102
RTVSPost2010PropOp44
 70
     1
102
RTVSPost2010Prop45
280
     0
102
RTVSPost2010PropOp45
 70
     1
102
RTVSPost2010Prop46
 90
       50
102
RTVSPost2010PropOp46
 70
     1
102
RTVSPost2010Prop47
 90
       50
102
RTVSPost2010PropOp47
 70
     1
102
RTVSPost2010Prop48
 90
       50
102
RTVSPost2010PropOp48
 70
     1
102
RTVSPost2010Prop49
280
     0
102
RTVSPost2010PropOp49
 70
     1
102
RTVSPost2010Prop50
 90
       50
102
RTVSPost2010PropOp50
 70
     1
102
RTVSPost2010Prop51ColorIndex
 90
      256
102
RTVSPost2010Prop51ColorRGB
 90
-16777216
102
RTVSPost2010PropOp51
 70
     0
102
RTVSPost2010Prop52
140
1.0
102
RTVSPost2010PropOp52
 70
     0
102
RTVSPost2010Prop53
 90
        2
102
RTVSPost2010PropOp53
 70
     1
102
RTVSPost2010Prop54
  1
strokes_ogs.tif
102
RTVSPost2010PropOp54
 70
     1
102
RTVSPost2010Prop55
280
     0
102
RTVSPost2010PropOp55
 70
     1
102
RTVSPost2010Prop56
140
1.0
102
RTVSPost2010PropOp56
 70
     1
102
RTVSPost2010Prop57
140
1.0
102
RTVSPost2010PropOp57
 70
     1
102
RTVSPropertyOp0
 70
     1
102
RTVSPropertyOp1
 70
     1
102
RTVSPropertyOp2
 70
     1
102
RTVSPropertyOp3
 70
     1
102
RTVSPropertyOp4
 70
     1
102
RTVSPropertyOp5
 70
     1
102
RTVSPropertyOp6
 70
     1
102
RTVSPropertyOp7
 70
     1
102
RTVSPropertyOp8
 70
     1
102
RTVSPropertyOp9
 70
     1
102
RTVSPropertyOp10
 70
     1
102
RTVSPropertyOp11
 70
     1
102
RTVSPropertyOp12
 70
     1
102
RTVSPropertyOp13
 70
     1
102
RTVSPropertyOp14
 70
     1
102
RTVSPropertyOp15
 70
     1
102
RTVSPropertyOp16
 70
     1
102
RTVSPropertyOp17
 70
     1
102
RTVSPropertyOp18
 70
     1
102
RTVSPropertyOp19
 70
     1
102
RTVSPropertyOp20
 70
     1
102
RTVSPropertyOp21
 70
     1
102
RTVSPropertyOp22
 70
     1
102
RTVSPropertyOp23
 70
     1
102
RTVSPropertyOp24
 70
     1
102
RTVSPropertyOp25
 70
     1
102
RTVSPropertyOp26
 70
     1
102
RTVSPropertyOp27
 70
     1
102
RTVSPropertyOp28
 70
     1
102
RTVSPropertyOp29
 70
     1
102
RTVSPropertyOp30
 70
     1
102
RTVSPropertyOp31
 70
     1
102
RTVSPropertyOp32
 70
     1
102
RTVSPropertyOp33
 70
     1
102
RTVSPropertyOp34
 70
     1
102
RTVSPropertyOp35
 70
     1
102
RTVSPropertyOp36
 70
     1
102
RTVSPropertyOp37
 70
     1
102
RTVSPropertyOp38
 70
     1
102
RTVSPropertyOp39
 70
     1
102
RTVSPropertyOp40
 70
     1
102
RTVSPropertyOp41
 70
     1
102
RTVSPropertyOp42
 70
     1
102
RTVSPropertyOp43
 70
     1
102
RTVSPropertyOp44
 70
     1
102
RTVSPropertyOp45
 70
     1
102
RTVSPropertyOp46
 70
     1
102
RTVSPropertyOp47
 70
     1
102
RTVSPropertyOp48
 70
     1
102
RTVSPropertyOp49
 70
     1
102
RTVSPropertyOp50
 70
     1
102
RTVSPropertyOp51
 70
     0
102
RTVSPropertyOp52
 70
     0
102
RTVSPropertyOp53
 70
     1
102
RTVSPropertyOp54
 70
     1
102
RTVSPropertyOp55
 70
     1
102
RTVSPropertyOp56
 70
     1
102
RTVSPropertyOp57
 70
     1
102
RTVSPropertyOp58
 70
     1
102
RTVSPropertyOp59
 70
     1
102
RTVSPropertyOp60
 70
     1
102
RTVSPropertyOp61
 70
     1
102
RTVSPropertyOp62
 70
     1
  0
XRECORD
  5
E65
102
{ACAD_REACTORS
330
E64
102
}
330
E64
100
AcDbXrecord
280
     1
102
RTVSPost2010Prop28
280
     0
102
RTVSPost2010PropOp28
 70
     1
102
RTVSPost2010Prop29
280
     1
102
RTVSPost2010PropOp29
 70
     1
102
RTVSPost2010Prop30
280
     1
102
RTVSPost2010PropOp30
 70
     1
102
RTVSPost2010Prop31
280
     0
102
RTVSPost2010PropOp31
 70
     1
102
RTVSPost2010Prop32
280
     0
102
RTVSPost2010PropOp32
 70
     1
102
RTVSPost2010Prop33
280
     0
102
RTVSPost2010PropOp33
 70
     1
102
RTVSPost2010Prop34
280
     0
102
RTVSPost2010PropOp34
 70
     1
102
RTVSPost2010Prop35
280
     0
102
RTVSPost2010PropOp35
 70
     1
102
RTVSPost2010Prop36
280
     0
102
RTVSPost2010PropOp36
 70
     1
102
RTVSPost2010Prop37
 90
       50
102
RTVSPost2010PropOp37
 70
     1
102
RTVSPost2010Prop38
140
0.0
102
RTVSPost2010PropOp38
 70
     1
102
RTVSPost2010Prop39
140
1.0
102
RTVSPost2010PropOp39
 70
     1
102
RTVSPost2010Prop40
 90
        0
102
RTVSPost2010PropOp40
 70
     1
102
RTVSPost2010Prop41ColorIndex
 90
       18
102
RTVSPost2010Prop41ColorRGB
 90
        0
102
RTVSPost2010PropOp41
 70
     1
102
RTVSPost2010Prop42
 90
       50
102
RTVSPost2010PropOp42
 70
     1
102
RTVSPost2010Prop43
 90
        3
102
RTVSPost2010PropOp43
 70
     1
102
RTVSPost2010Prop44ColorIndex
 90
        5
102
RTVSPost2010Prop44ColorRGB
 90
      255
102
RTVSPost2010PropOp44
 70
     1
102
RTVSPost2010Prop45
280
     0
102
RTVSPost2010PropOp45
 70
     1
102
RTVSPost2010Prop46
 90
       50
102
RTVSPost2010PropOp46
 70
     1
102
RTVSPost2010Prop47
 90
       50
102
RTVSPost2010PropOp47
 70
     1
102
RTVSPost2010Prop48
 90
       50
102
RTVSPost2010PropOp48
 70
     1
102
RTVSPost2010Prop49
280
     0
102
RTVSPost2010PropOp49
 70
     1
102
RTVSPost2010Prop50
 90
       50
102
RTVSPost2010PropOp50
 70
     1
102
RTVSPost2010Prop51ColorIndex
 90
      256
102
RTVSPost2010Prop51ColorRGB
 90
-16777216
102
RTVSPost2010PropOp51
 70
     0
102
RTVSPost2010Prop52
140
1.0
102
RTVSPost2010PropOp52
 70
     0
102
RTVSPost2010Prop53
 90
        2
102
RTVSPost2010PropOp53
 70
     1
102
RTVSPost2010Prop54
  1
strokes_ogs.tif
102
RTVSPost2010PropOp54
 70
     1
102
RTVSPost2010Prop55
280
     0
102
RTVSPost2010PropOp55
 70
     1
102
RTVSPost2010Prop56
140
1.0
102
RTVSPost2010PropOp56
 70
     1
102
RTVSPost2010Prop57
140
1.0
102
RTVSPost2010PropOp57
 70
     1
102
RTVSPropertyOp0
 70
     1
102
RTVSPropertyOp1
 70
     1
102
RTVSPropertyOp2
 70
     1
102
RTVSPropertyOp3
 70
     1
102
RTVSPropertyOp4
 70
     1
102
RTVSPropertyOp5
 70
     1
102
RTVSPropertyOp6
 70
     1
102
RTVSPropertyOp7
 70
     1
102
RTVSPropertyOp8
 70
     1
102
RTVSPropertyOp9
 70
     1
102
RTVSPropertyOp10
 70
     1
102
RTVSPropertyOp11
 70
     1
102
RTVSPropertyOp12
 70
     1
102
RTVSPropertyOp13
 70
     1
102
RTVSPropertyOp14
 70
     1
102
RTVSPropertyOp15
 70
     1
102
RTVSPropertyOp16
 70
     1
102
RTVSPropertyOp17
 70
     1
102
RTVSPropertyOp18
 70
     1
102
RTVSPropertyOp19
 70
     1
102
RTVSPropertyOp20
 70
     1
102
RTVSPropertyOp21
 70
     1
102
RTVSPropertyOp22
 70
     1
102
RTVSPropertyOp23
 70
     1
102
RTVSPropertyOp24
 70
     1
102
RTVSPropertyOp25
 70
     1
102
RTVSPropertyOp26
 70
     1
102
RTVSPropertyOp27
 70
     1
102
RTVSPropertyOp28
 70
     1
102
RTVSPropertyOp29
 70
     1
102
RTVSPropertyOp30
 70
     1
102
RTVSPropertyOp31
 70
     1
102
RTVSPropertyOp32
 70
     1
102
RTVSPropertyOp33
 70
     1
102
RTVSPropertyOp34
 70
     1
102
RTVSPropertyOp35
 70
     1
102
RTVSPropertyOp36
 70
     1
102
RTVSPropertyOp37
 70
     1
102
RTVSPropertyOp38
 70
     1
102
RTVSPropertyOp39
 70
     1
102
RTVSPropertyOp40
 70
     1
102
RTVSPropertyOp41
 70
     1
102
RTVSPropertyOp42
 70
     1
102
RTVSPropertyOp43
 70
     1
102
RTVSPropertyOp44
 70
     1
102
RTVSPropertyOp45
 70
     1
102
RTVSPropertyOp46
 70
     1
102
RTVSPropertyOp47
 70
     1
102
RTVSPropertyOp48
 70
     1
102
RTVSPropertyOp49
 70
     1
102
RTVSPropertyOp50
 70
     1
102
RTVSPropertyOp51
 70
     0
102
RTVSPropertyOp52
 70
     0
102
RTVSPropertyOp53
 70
     1
102
RTVSPropertyOp54
 70
     1
102
RTVSPropertyOp55
 70
     1
102
RTVSPropertyOp56
 70
     1
102
RTVSPropertyOp57
 70
     1
102
RTVSPropertyOp58
 70
     1
102
RTVSPropertyOp59
 70
     1
102
RTVSPropertyOp60
 70
     1
102
RTVSPropertyOp61
 70
     1
102
RTVSPropertyOp62
 70
     1
  0
ENDSEC
  0
EOF
