  0
SECTION
  2
HEADER
  9
$ACADVER
  1
AC1021
  9
$ACADMAINTVER
 70
    50
  9
$DWGCODEPAGE
  3
ANSI_1252
  9
$LASTSAVEDBY
  1
mjanyez
  9
$INSBASE
 10
0.0
 20
0.0
 30
0.0
  9
$EXTMIN
 10
1318.741957385398
 20
1576.202792734663
 30
0.0
  9
$EXTMAX
 10
1359.11003335964
 20
1620.300072405615
 30
0.0
  9
$LIMMIN
 10
0.0
 20
0.0
  9
$LIMMAX
 10
420.0
 20
297.0
  9
$ORTHOMODE
 70
     0
  9
$REGENMODE
 70
     1
  9
$FILLMODE
 70
     1
  9
$QTEXTMODE
 70
     0
  9
$MIRRTEXT
 70
     0
  9
$LTSCALE
 40
1.0
  9
$ATTMODE
 70
     1
  9
$TEXTSIZE
 40
2.5
  9
$TRACEWID
 40
1.0
  9
$TEXTSTYLE
  7
Standard
  9
$CLAYER
  8
0
  9
$CELTYPE
  6
ByLayer
  9
$CECOLOR
 62
   256
  9
$CELTSCALE
 40
1.0
  9
$DISPSILH
 70
     0
  9
$DIMSCALE
 40
1.0
  9
$DIMASZ
 40
2.5
  9
$DIMEXO
 40
0.625
  9
$DIMDLI
 40
3.75
  9
$DIMRND
 40
0.0
  9
$DIMDLE
 40
0.0
  9
$DIMEXE
 40
1.25
  9
$DIMTP
 40
0.0
  9
$DIMTM
 40
0.0
  9
$DIMTXT
 40
2.5
  9
$DIMCEN
 40
2.5
  9
$DIMTSZ
 40
0.0
  9
$DIMTOL
 70
     0
  9
$DIMLIM
 70
     0
  9
$DIMTIH
 70
     0
  9
$DIMTOH
 70
     0
  9
$DIMSE1
 70
     0
  9
$DIMSE2
 70
     0
  9
$DIMTAD
 70
     1
  9
$DIMZIN
 70
     8
  9
$DIMBLK
  1

  9
$DIMASO
 70
     1
  9
$DIMSHO
 70
     1
  9
$DIMPOST
  1

  9
$DIMAPOST
  1

  9
$DIMALT
 70
     0
  9
$DIMALTD
 70
     3
  9
$DIMALTF
 40
0.03937007874016
  9
$DIMLFAC
 40
1.0
  9
$DIMTOFL
 70
     1
  9
$DIMTVP
 40
0.0
  9
$DIMTIX
 70
     0
  9
$DIMSOXD
 70
     0
  9
$DIMSAH
 70
     0
  9
$DIMBLK1
  1

  9
$DIMBLK2
  1

  9
$DIMSTYLE
  2
ISO-25
  9
$DIMCLRD
 70
     0
  9
$DIMCLRE
 70
     0
  9
$DIMCLRT
 70
     0
  9
$DIMTFAC
 40
1.0
  9
$DIMGAP
 40
0.625
  9
$DIMJUST
 70
     0
  9
$DIMSD1
 70
     0
  9
$DIMSD2
 70
     0
  9
$DIMTOLJ
 70
     0
  9
$DIMTZIN
 70
     8
  9
$DIMALTZ
 70
     0
  9
$DIMALTTZ
 70
     0
  9
$DIMUPT
 70
     0
  9
$DIMDEC
 70
     2
  9
$DIMTDEC
 70
     2
  9
$DIMALTU
 70
     2
  9
$DIMALTTD
 70
     3
  9
$DIMTXSTY
  7
Standard
  9
$DIMAUNIT
 70
     0
  9
$DIMADEC
 70
     0
  9
$DIMALTRND
 40
0.0
  9
$DIMAZIN
 70
     0
  9
$DIMDSEP
 70
    44
  9
$DIMATFIT
 70
     3
  9
$DIMFRAC
 70
     0
  9
$DIMLDRBLK
  1

  9
$DIMLUNIT
 70
     2
  9
$DIMLWD
 70
    -2
  9
$DIMLWE
 70
    -2
  9
$DIMTMOVE
 70
     0
  9
$DIMFXL
 40
1.0
  9
$DIMFXLON
 70
     0
  9
$DIMJOGANG
 40
0.7853981633974483
  9
$DIMTFILL
 70
     0
  9
$DIMTFILLCLR
 70
     0
  9
$DIMARCSYM
 70
     0
  9
$DIMLTYPE
  6

  9
$DIMLTEX1
  6

  9
$DIMLTEX2
  6

  9
$LUNITS
 70
     2
  9
$LUPREC
 70
     4
  9
$SKETCHINC
 40
1.0
  9
$FILLETRAD
 40
0.0
  9
$AUNITS
 70
     0
  9
$AUPREC
 70
     0
  9
$MENU
  1
.
  9
$ELEVATION
 40
0.0
  9
$PELEVATION
 40
0.0
  9
$THICKNESS
 40
0.0
  9
$LIMCHECK
 70
     0
  9
$CHAMFERA
 40
0.0
  9
$CHAMFERB
 40
0.0
  9
$CHAMFERC
 40
0.0
  9
$CHAMFERD
 40
0.0
  9
$SKPOLY
 70
     0
  9
$TDCREATE
 40
2458603.642201875
  9
$TDUCREATE
 40
2458603.558868542
  9
$TDUPDATE
 40
2458610.424731192
  9
$TDUUPDATE
 40
2458610.341397859
  9
$TDINDWG
 40
0.0018385301
  9
$TDUSRTIMER
 40
0.0018385069
  9
$USRTIMER
 70
     1
  9
$ANGBASE
 50
0.0
  9
$ANGDIR
 70
     0
  9
$PDMODE
 70
     0
  9
$PDSIZE
 40
0.0
  9
$PLINEWID
 40
0.0
  9
$SPLFRAME
 70
     0
  9
$SPLINETYPE
 70
     6
  9
$SPLINESEGS
 70
     8
  9
$HANDSEED
  5
5A8
  9
$SURFTAB1
 70
     6
  9
$SURFTAB2
 70
     6
  9
$SURFTYPE
 70
     6
  9
$SURFU
 70
     6
  9
$SURFV
 70
     6
  9
$UCSBASE
  2

  9
$UCSNAME
  2

  9
$UCSORG
 10
0.0
 20
0.0
 30
0.0
  9
$UCSXDIR
 10
1.0
 20
0.0
 30
0.0
  9
$UCSYDIR
 10
0.0
 20
1.0
 30
0.0
  9
$UCSORTHOREF
  2

  9
$UCSORTHOVIEW
 70
     0
  9
$UCSORGTOP
 10
0.0
 20
0.0
 30
0.0
  9
$UCSORGBOTTOM
 10
0.0
 20
0.0
 30
0.0
  9
$UCSORGLEFT
 10
0.0
 20
0.0
 30
0.0
  9
$UCSORGRIGHT
 10
0.0
 20
0.0
 30
0.0
  9
$UCSORGFRONT
 10
0.0
 20
0.0
 30
0.0
  9
$UCSORGBACK
 10
0.0
 20
0.0
 30
0.0
  9
$PUCSBASE
  2

  9
$PUCSNAME
  2

  9
$PUCSORG
 10
0.0
 20
0.0
 30
0.0
  9
$PUCSXDIR
 10
1.0
 20
0.0
 30
0.0
  9
$PUCSYDIR
 10
0.0
 20
1.0
 30
0.0
  9
$PUCSORTHOREF
  2

  9
$PUCSORTHOVIEW
 70
     0
  9
$PUCSORGTOP
 10
0.0
 20
0.0
 30
0.0
  9
$PUCSORGBOTTOM
 10
0.0
 20
0.0
 30
0.0
  9
$PUCSORGLEFT
 10
0.0
 20
0.0
 30
0.0
  9
$PUCSORGRIGHT
 10
0.0
 20
0.0
 30
0.0
  9
$PUCSORGFRONT
 10
0.0
 20
0.0
 30
0.0
  9
$PUCSORGBACK
 10
0.0
 20
0.0
 30
0.0
  9
$USERI1
 70
     0
  9
$USERI2
 70
     0
  9
$USERI3
 70
     0
  9
$USERI4
 70
     0
  9
$USERI5
 70
     0
  9
$USERR1
 40
0.0
  9
$USERR2
 40
0.0
  9
$USERR3
 40
0.0
  9
$USERR4
 40
0.0
  9
$USERR5
 40
0.0
  9
$WORLDVIEW
 70
     1
  9
$SHADEDGE
 70
     3
  9
$SHADEDIF
 70
    70
  9
$TILEMODE
 70
     1
  9
$MAXACTVP
 70
    64
  9
$PINSBASE
 10
0.0
 20
0.0
 30
0.0
  9
$PLIMCHECK
 70
     0
  9
$PEXTMIN
 10
0.0
 20
0.0
 30
0.0
  9
$PEXTMAX
 10
0.0
 20
0.0
 30
0.0
  9
$PLIMMIN
 10
0.0
 20
0.0
  9
$PLIMMAX
 10
12.0
 20
9.0
  9
$UNITMODE
 70
     0
  9
$VISRETAIN
 70
     1
  9
$PLINEGEN
 70
     0
  9
$PSLTSCALE
 70
     1
  9
$TREEDEPTH
 70
  3020
  9
$CMLSTYLE
  2
Standard
  9
$CMLJUST
 70
     0
  9
$CMLSCALE
 40
20.0
  9
$PROXYGRAPHICS
 70
     1
  9
$MEASUREMENT
 70
     1
  9
$CELWEIGHT
370
    -1
  9
$ENDCAPS
280
     0
  9
$JOINSTYLE
280
     0
  9
$LWDISPLAY
290
     0
  9
$INSUNITS
 70
     4
  9
$HYPERLINKBASE
  1

  9
$STYLESHEET
  1

  9
$XEDIT
290
     1
  9
$CEPSNTYPE
380
     0
  9
$PSTYLEMODE
290
     1
  9
$FINGERPRINTGUID
  2
{16A1F6AC-149F-4E6C-9B10-82E015141105}
  9
$VERSIONGUID
  2
{9EECD452-4C37-43B7-8018-7061BEDCF699}
  9
$EXTNAMES
290
     1
  9
$PSVPSCALE
 40
0.0
  9
$OLESTARTUP
290
     0
  9
$SORTENTS
280
   127
  9
$INDEXCTL
280
     0
  9
$HIDETEXT
280
     1
  9
$XCLIPFRAME
290
     0
  9
$HALOGAP
280
     0
  9
$OBSCOLOR
 70
   257
  9
$OBSLTYPE
280
     0
  9
$INTERSECTIONDISPLAY
280
     0
  9
$INTERSECTIONCOLOR
 70
   257
  9
$DIMASSOC
280
     2
  9
$PROJECTNAME
  1

  9
$CAMERADISPLAY
290
     0
  9
$LENSLENGTH
 40
50.0
  9
$CAMERAHEIGHT
 40
0.0
  9
$STEPSPERSEC
 40
2.0
  9
$STEPSIZE
 40
6.0
  9
$3DDWFPREC
 40
2.0
  9
$PSOLWIDTH
 40
5.0
  9
$PSOLHEIGHT
 40
80.0
  9
$LOFTANG1
 40
1.570796326794896
  9
$LOFTANG2
 40
1.570796326794896
  9
$LOFTMAG1
 40
0.0
  9
$LOFTMAG2
 40
0.0
  9
$LOFTPARAM
 70
     7
  9
$LOFTNORMALS
280
     1
  9
$LATITUDE
 40
37.795
  9
$LONGITUDE
 40
-122.394
  9
$NORTHDIRECTION
 40
0.0
  9
$TIMEZONE
 70
 -8000
  9
$LIGHTGLYPHDISPLAY
280
     1
  9
$TILEMODELIGHTSYNCH
280
     1
  9
$CMATERIAL
347
EC
  9
$SOLIDHIST
280
     0
  9
$SHOWHIST
280
     1
  9
$DWFFRAME
280
     2
  9
$DGNFRAME
280
     0
  9
$REALWORLDSCALE
290
     1
  9
$INTERFERECOLOR
 62
     1
  9
$INTERFEREOBJVS
345
F9
  9
$INTERFEREVPVS
346
F6
  9
$CSHADOW
280
     0
  9
$SHADOWPLANELOCATION
 40
0.0
  0
ENDSEC
  0
SECTION
  2
CLASSES
  0
CLASS
  1
ACDBDICTIONARYWDFLT
  2
AcDbDictionaryWithDefault
  3
ObjectDBX Classes
 90
        0
 91
        1
280
     0
281
     0
  0
CLASS
  1
DICTIONARYVAR
  2
AcDbDictionaryVar
  3
ObjectDBX Classes
 90
        0
 91
       11
280
     0
281
     0
  0
CLASS
  1
TABLESTYLE
  2
AcDbTableStyle
  3
ObjectDBX Classes
 90
     4095
 91
        1
280
     0
281
     0
  0
CLASS
  1
MATERIAL
  2
AcDbMaterial
  3
ObjectDBX Classes
 90
     1153
 91
        3
280
     0
281
     0
  0
CLASS
  1
VISUALSTYLE
  2
AcDbVisualStyle
  3
ObjectDBX Classes
 90
     4095
 91
       24
280
     0
281
     0
  0
CLASS
  1
SCALE
  2
AcDbScale
  3
ObjectDBX Classes
 90
     1153
 91
       17
280
     0
281
     0
  0
CLASS
  1
MLEADERSTYLE
  2
AcDbMLeaderStyle
  3
ACDB_MLEADERSTYLE_CLASS
 90
     4095
 91
        2
280
     0
281
     0
  0
CLASS
  1
CELLSTYLEMAP
  2
AcDbCellStyleMap
  3
ObjectDBX Classes
 90
     1152
 91
        2
280
     0
281
     0
  0
CLASS
  1
EXACXREFPANELOBJECT
  2
ExAcXREFPanelObject
  3
EXAC_ESW
 90
     1025
 91
        0
280
     0
281
     0
  0
CLASS
  1
NPOCOLLECTION
  2
AcDbImpNonPersistentObjectsCollection
  3
ObjectDBX Classes
 90
     1153
 91
        0
280
     0
281
     0
  0
CLASS
  1
LAYER_INDEX
  2
AcDbLayerIndex
  3
ObjectDBX Classes
 90
        0
 91
        0
280
     0
281
     0
  0
CLASS
  1
SPATIAL_INDEX
  2
AcDbSpatialIndex
  3
ObjectDBX Classes
 90
        0
 91
        0
280
     0
281
     0
  0
CLASS
  1
IDBUFFER
  2
AcDbIdBuffer
  3
ObjectDBX Classes
 90
        0
 91
        0
280
     0
281
     0
  0
CLASS
  1
ACDBSECTIONVIEWSTYLE
  2
AcDbSectionViewStyle
  3
ObjectDBX Classes
 90
     1025
 91
        1
280
     0
281
     0
  0
CLASS
  1
ACDBDETAILVIEWSTYLE
  2
AcDbDetailViewStyle
  3
ObjectDBX Classes
 90
     1025
 91
        1
280
     0
281
     0
  0
CLASS
  1
SORTENTSTABLE
  2
AcDbSortentsTable
  3
ObjectDBX Classes
 90
        0
 91
        0
280
     0
281
     0
  0
ENDSEC
  0
SECTION
  2
TABLES
  0
TABLE
  2
VPORT
  5
8
330
0
100
AcDbSymbolTable
 70
     1
  0
VPORT
  5
EA
330
8
100
AcDbSymbolTableRecord
100
AcDbViewportTableRecord
  2
*Active
 70
     0
 10
0.0
 20
0.0
 11
1.0
 21
1.0
 12
1348.471941995806
 22
1593.648084026493
 13
0.0
 23
0.0
 14
10.0
 24
10.0
 15
10.0
 25
10.0
 16
0.0
 26
0.0
 36
1.0
 17
0.0
 27
0.0
 37
0.0
 40
24.59584915277564
 41
2.188141391106043
 42
50.0
 43
0.0
 44
0.0
 50
0.0
 51
0.0
 71
     0
 72
  1000
 73
     1
 74
     3
 75
     0
 76
     1
 77
     0
 78
     0
281
     0
 65
     1
110
0.0
120
0.0
130
0.0
111
1.0
121
0.0
131
0.0
112
0.0
122
1.0
132
0.0
 79
     0
146
0.0
348
F5
 60
     3
 61
     5
292
     1
282
     1
141
0.0
142
0.0
 63
   250
421
  3355443
1001
ACAD_NAV_VCDISPLAY
1070
     3
  0
ENDTAB
  0
TABLE
  2
LTYPE
  5
5
330
0
100
AcDbSymbolTable
 70
     1
  0
LTYPE
  5
14
330
5
100
AcDbSymbolTableRecord
100
AcDbLinetypeTableRecord
  2
ByBlock
 70
     0
  3

 72
    65
 73
     0
 40
0.0
  0
LTYPE
  5
15
330
5
100
AcDbSymbolTableRecord
100
AcDbLinetypeTableRecord
  2
ByLayer
 70
     0
  3

 72
    65
 73
     0
 40
0.0
  0
LTYPE
  5
16
330
5
100
AcDbSymbolTableRecord
100
AcDbLinetypeTableRecord
  2
Continuous
 70
     0
  3
Solid line
 72
    65
 73
     0
 40
0.0
  0
ENDTAB
  0
TABLE
  2
LAYER
  5
2
102
{ACAD_XDICTIONARY
360
1FF
102
}
330
0
100
AcDbSymbolTable
 70
     4
  0
LAYER
  5
10
102
{ACAD_XDICTIONARY
360
13C
102
}
330
2
100
AcDbSymbolTableRecord
100
AcDbLayerTableRecord
  2
0
 70
     0
 62
     7
  6
Continuous
370
    -3
390
F
347
EE
  0
LAYER
  5
278
330
2
100
AcDbSymbolTableRecord
100
AcDbLayerTableRecord
  2
Defpoints
 70
     0
 62
     7
  6
Continuous
290
     0
370
    -3
390
F
347
EE
  0
LAYER
  5
279
102
{ACAD_XDICTIONARY
360
27A
102
}
330
2
100
AcDbSymbolTableRecord
100
AcDbLayerTableRecord
  2
cuerpo
 70
     0
 62
     7
  6
Continuous
370
     5
390
F
347
EE
1001
AcAecLayerStandard
1000

1000

  0
LAYER
  5
27B
102
{ACAD_XDICTIONARY
360
27C
102
}
330
2
100
AcDbSymbolTableRecord
100
AcDbLayerTableRecord
  2
cotas
 70
     0
 62
   253
  6
Continuous
370
     5
390
F
347
EE
1001
AcAecLayerStandard
1000

1000

  0
ENDTAB
  0
TABLE
  2
STYLE
  5
3
330
0
100
AcDbSymbolTable
 70
     4
  0
STYLE
  5
11
330
3
100
AcDbSymbolTableRecord
100
AcDbTextStyleTableRecord
  2
Standard
 70
     0
 40
0.0
 41
1.0
 50
0.0
 71
     0
 42
2.5
  3
arial.ttf
  4

1001
ACAD
1000
Arial
1071
       34
  0
STYLE
  5
132
330
3
100
AcDbSymbolTableRecord
100
AcDbTextStyleTableRecord
  2
Anotativo
 70
     0
 40
0.0
 41
1.0
 50
0.0
 71
     0
 42
2.5
  3
arial.ttf
  4

1001
AcadAnnotative
1000
AnnotativeData
1002
{
1070
     1
1070
     1
1002
}
1001
ACAD
1000
Arial
1071
       34
  0
STYLE
  5
27D
330
3
100
AcDbSymbolTableRecord
100
AcDbTextStyleTableRecord
  2
ARIAL
 70
     0
 40
0.0
 41
1.0
 50
0.0
 71
     0
 42
0.2
  3
arial.ttf
  4

1001
ACAD
1000
Arial
1071
       34
  0
STYLE
  5
521
330
3
100
AcDbSymbolTableRecord
100
AcDbTextStyleTableRecord
  2
RS (E1.10)
 70
     0
 40
1.5
 41
1.0
 50
0.0
 71
     0
 42
0.2
  3
calibril.ttf
  4

1001
ACAD
1000
Calibri Light
1071
       34
  0
ENDTAB
  0
TABLE
  2
VIEW
  5
6
330
0
100
AcDbSymbolTable
 70
     0
  0
ENDTAB
  0
TABLE
  2
UCS
  5
7
330
0
100
AcDbSymbolTable
 70
     0
  0
ENDTAB
  0
TABLE
  2
APPID
  5
9
330
0
100
AcDbSymbolTable
 70
    11
  0
APPID
  5
12
330
9
100
AcDbSymbolTableRecord
100
AcDbRegAppTableRecord
  2
ACAD
 70
     0
  0
APPID
  5
9E
330
9
100
AcDbSymbolTableRecord
100
AcDbRegAppTableRecord
  2
ACAD_PSEXT
 70
     0
  0
APPID
  5
133
330
9
100
AcDbSymbolTableRecord
100
AcDbRegAppTableRecord
  2
AcadAnnoPO
 70
     0
  0
APPID
  5
134
330
9
100
AcDbSymbolTableRecord
100
AcDbRegAppTableRecord
  2
AcadAnnotative
 70
     0
  0
APPID
  5
135
330
9
100
AcDbSymbolTableRecord
100
AcDbRegAppTableRecord
  2
ACAD_DSTYLE_DIMJAG
 70
     0
  0
APPID
  5
136
330
9
100
AcDbSymbolTableRecord
100
AcDbRegAppTableRecord
  2
ACAD_DSTYLE_DIMTALN
 70
     0
  0
APPID
  5
165
330
9
100
AcDbSymbolTableRecord
100
AcDbRegAppTableRecord
  2
ACAD_MLEADERVER
 70
     0
  0
APPID
  5
217
330
9
100
AcDbSymbolTableRecord
100
AcDbRegAppTableRecord
  2
ACAD_NAV_VCDISPLAY
 70
     0
  0
APPID
  5
281
330
9
100
AcDbSymbolTableRecord
100
AcDbRegAppTableRecord
  2
AcAecLayerStandard
 70
     0
  0
APPID
  5
282
330
9
100
AcDbSymbolTableRecord
100
AcDbRegAppTableRecord
  2
ACAD_DSTYLE_DIMBREAK
 70
     0
  0
APPID
  5
4DA
330
9
100
AcDbSymbolTableRecord
100
AcDbRegAppTableRecord
  2
ACAD_EXEMPT_FROM_CAD_STANDARDS
 70
     0
  0
ENDTAB
  0
TABLE
  2
DIMSTYLE
  5
A
330
0
100
AcDbSymbolTable
 70
     6
100
AcDbDimStyleTable
 71
     2
340
27
340
137
  0
DIMSTYLE
105
1B0
330
A
100
AcDbSymbolTableRecord
100
AcDbDimStyleTableRecord
  2
Standard
 70
     0
340
11
  0
DIMSTYLE
105
137
330
A
100
AcDbSymbolTableRecord
100
AcDbDimStyleTableRecord
  2
Anotativo
 70
     0
 40
0.0
 41
2.5
 42
0.625
 43
3.75
 44
1.25
 73
     0
 74
     0
 77
     1
 78
     8
140
2.5
141
2.5
143
0.03937007874016
147
0.625
171
     3
172
     1
271
     2
272
     2
274
     3
278
    44
283
     0
284
     8
340
11
1001
AcadAnnotative
1000
AnnotativeData
1002
{
1070
     1
1070
     1
1002
}
1001
ACAD_DSTYLE_DIMJAG
1070
   388
1040
1.5
1001
ACAD_DSTYLE_DIMTALN
1070
   392
1070
     0
  0
DIMSTYLE
105
27
330
A
100
AcDbSymbolTableRecord
100
AcDbDimStyleTableRecord
  2
ISO-25
 70
     0
 41
2.5
 42
0.625
 43
3.75
 44
1.25
 73
     0
 74
     0
 77
     1
 78
     8
140
2.5
141
2.5
143
0.03937007874016
147
0.625
171
     3
172
     1
271
     2
272
     2
274
     3
278
    44
283
     0
284
     8
340
11
  0
DIMSTYLE
105
27E
330
A
100
AcDbSymbolTableRecord
100
AcDbDimStyleTableRecord
  2
RS (E1.10)
 70
     0
 41
0.7
 42
1.0
 43
1.0
 44
0.5
 78
     8
140
1.5
141
0.0
143
0.03937007874016
144
10.0
147
1.0
171
     3
176
   256
177
   256
178
   256
271
     0
272
     0
274
     3
278
    44
283
     0
284
     8
340
27D
371
    -1
372
    -1
1001
ACAD_DSTYLE_DIMBREAK
1070
   391
1040
3.75
1001
ACAD_DSTYLE_DIMJAG
1070
   388
1040
0.5
1001
ACAD_DSTYLE_DIMTALN
1070
   392
1070
     0
  0
DIMSTYLE
105
27F
330
A
100
AcDbSymbolTableRecord
100
AcDbDimStyleTableRecord
  2
RS (E1.1)
 70
     0
 41
7.0
 42
10.0
 43
10.0
 44
5.0
 45
5.0
 78
     8
140
15.0
141
0.0
143
0.03937007874016
147
10.0
171
     3
172
     1
176
   256
177
   256
178
   256
271
     0
272
     0
274
     3
278
    44
283
     0
284
     8
340
27D
345
15
371
    -1
372
    -1
1001
ACAD_DSTYLE_DIMBREAK
1070
   391
1040
37.5
1001
ACAD_DSTYLE_DIMJAG
1070
   388
1040
5.0
1001
ACAD_DSTYLE_DIMTALN
1070
   392
1070
     0
  0
DIMSTYLE
105
280
102
{ACAD_REACTORS
330
4AA
330
4AB
102
}
330
A
100
AcDbSymbolTableRecord
100
AcDbDimStyleTableRecord
  2
RS (E1.20)
 70
     0
 41
0.7
 42
1.0
 43
1.0
 44
0.5
 78
     8
140
1.5
141
0.0
143
0.03937007874016
144
20.0
147
1.0
171
     3
176
   256
177
   256
178
   256
271
     0
272
     0
274
     3
278
    44
283
     0
284
     8
340
27D
371
    -1
372
    -1
1001
ACAD_DSTYLE_DIMBREAK
1070
   391
1040
3.75
1001
ACAD_DSTYLE_DIMJAG
1070
   388
1040
0.5
1001
ACAD_DSTYLE_DIMTALN
1070
   392
1070
     0
  0
ENDTAB
  0
TABLE
  2
BLOCK_RECORD
  5
1
330
0
100
AcDbSymbolTable
 70
     5
  0
BLOCK_RECORD
  5
1F
102
{ACAD_XDICTIONARY
360
1CE
102
}
330
1
100
AcDbSymbolTableRecord
100
AcDbBlockTableRecord
  2
*Model_Space
340
22
 70
     0
280
     1
281
     0
  0
BLOCK_RECORD
  5
D2
330
1
100
AcDbSymbolTableRecord
100
AcDbBlockTableRecord
  2
*Paper_Space
340
D3
 70
     0
280
     1
281
     0
  0
BLOCK_RECORD
  5
D6
330
1
100
AcDbSymbolTableRecord
100
AcDbBlockTableRecord
  2
*Paper_Space0
340
D7
 70
     0
280
     1
281
     0
  0
BLOCK_RECORD
  5
25E
330
1
100
AcDbSymbolTableRecord
100
AcDbBlockTableRecord
  2
*D1
340
0
 70
     0
280
     1
281
     0
  0
BLOCK_RECORD
  5
26B
330
1
100
AcDbSymbolTableRecord
100
AcDbBlockTableRecord
  2
*D2
340
0
 70
     0
280
     1
281
     0
  0
BLOCK_RECORD
  5
4AC
330
1
100
AcDbSymbolTableRecord
100
AcDbBlockTableRecord
  2
*D3
340
0
 70
     0
280
     1
281
     0
  0
BLOCK_RECORD
  5
4B9
330
1
100
AcDbSymbolTableRecord
100
AcDbBlockTableRecord
  2
*D4
340
0
 70
     0
280
     1
281
     0
  0
ENDTAB
  0
ENDSEC
  0
SECTION
  2
BLOCKS
  0
BLOCK
  5
20
330
1F
100
AcDbEntity
  8
0
100
AcDbBlockBegin
  2
*Model_Space
 70
     0
 10
0.0
 20
0.0
 30
0.0
  3
*Model_Space
  1

  0
ENDBLK
  5
21
330
1F
100
AcDbEntity
  8
0
100
AcDbBlockEnd
  0
BLOCK
  5
D4
330
D2
100
AcDbEntity
 67
     1
  8
0
100
AcDbBlockBegin
  2
*Paper_Space
 70
     0
 10
0.0
 20
0.0
 30
0.0
  3
*Paper_Space
  1

  0
ENDBLK
  5
D5
330
D2
100
AcDbEntity
 67
     1
  8
0
100
AcDbBlockEnd
  0
BLOCK
  5
D8
330
D6
100
AcDbEntity
 67
     1
  8
0
100
AcDbBlockBegin
  2
*Paper_Space0
 70
     0
 10
0.0
 20
0.0
 30
0.0
  3
*Paper_Space0
  1

  0
ENDBLK
  5
D9
330
D6
100
AcDbEntity
 67
     1
  8
0
100
AcDbBlockEnd
  0
BLOCK
  5
25F
330
25E
100
AcDbEntity
  8
0
100
AcDbBlockBegin
  2
*D1
 70
     1
 10
0.0
 20
0.0
 30
0.0
  3
*D1
  1

  0
LINE
  5
260
330
25E
100
AcDbEntity
  8
cotas
  6
Continuous
440
 16777216
100
AcDbLine
 10
940.1994687671692
 20
1047.635425761149
 30
0.0
 11
940.1994687671692
 21
1049.213220113374
 31
0.0
  0
LINE
  5
261
330
25E
100
AcDbEntity
  8
cotas
  6
Continuous
440
 16777216
100
AcDbLine
 10
943.5744687150142
 20
1047.635425761149
 30
0.0
 11
943.5744687150142
 21
1049.213220113374
 31
0.0
  0
LINE
  5
262
330
25E
100
AcDbEntity
  8
cotas
  6
Continuous
440
 16777216
100
AcDbLine
 10
939.4994687671692
 20
1048.713220113374
 30
0.0
 11
938.7994687671691
 21
1048.713220113374
 31
0.0
  0
LINE
  5
263
330
25E
100
AcDbEntity
  8
cotas
  6
Continuous
440
 16777216
100
AcDbLine
 10
944.2744687150144
 20
1048.713220113374
 30
0.0
 11
945.0129562765953
 21
1048.713220113374
 31
0.0
  0
SOLID
  5
264
330
25E
100
AcDbEntity
  8
cotas
  6
Continuous
440
 16777216
100
AcDbTrace
 10
939.4994687671692
 20
1048.82988678004
 30
0.0
 11
939.4994687671692
 21
1048.596553446707
 31
0.0
 12
940.1994687671692
 22
1048.713220113374
 32
0.0
 13
940.1994687671692
 23
1048.713220113374
 33
0.0
  0
SOLID
  5
265
330
25E
100
AcDbEntity
  8
cotas
  6
Continuous
440
 16777216
100
AcDbTrace
 10
944.2744687150144
 20
1048.82988678004
 30
0.0
 11
944.2744687150144
 21
1048.596553446707
 31
0.0
 12
943.5744687150142
 22
1048.713220113374
 32
0.0
 13
943.5744687150142
 23
1048.713220113374
 33
0.0
  0
MTEXT
  5
266
330
25E
100
AcDbEntity
  8
cotas
  6
Continuous
440
 16777216
100
AcDbMText
 10
947.9033041619976
 20
1048.713220113374
 30
0.0
 40
1.5
 41
0.0
 46
0.0
 71
     5
 72
     1
  1
Ø67
  7
ARIAL
 73
     1
 44
1.0
  0
POINT
  5
267
330
25E
100
AcDbEntity
  8
Defpoints
  6
Continuous
 62
     0
440
 16777216
100
AcDbPoint
 10
940.1994687671692
 20
1046.635425761149
 30
0.0
  0
POINT
  5
268
330
25E
100
AcDbEntity
  8
Defpoints
  6
Continuous
 62
     0
440
 16777216
100
AcDbPoint
 10
943.5744687150142
 20
1046.635425761149
 30
0.0
  0
POINT
  5
269
330
25E
100
AcDbEntity
  8
Defpoints
  6
Continuous
 62
     0
440
 16777216
100
AcDbPoint
 10
943.5744687150142
 20
1048.713220113374
 30
0.0
  0
ENDBLK
  5
26A
330
25E
100
AcDbEntity
  8
0
100
AcDbBlockEnd
  0
BLOCK
  5
26C
330
26B
100
AcDbEntity
  8
0
100
AcDbBlockBegin
  2
*D2
 70
     1
 10
0.0
 20
0.0
 30
0.0
  3
*D2
  1

  0
LINE
  5
26D
330
26B
100
AcDbEntity
  8
cotas
  6
Continuous
440
 16777216
100
AcDbLine
 10
933.5801873527627
 20
1048.485425421147
 30
0.0
 11
933.5801873527627
 21
1049.529015180437
 31
0.0
  0
LINE
  5
26E
330
26B
100
AcDbEntity
  8
cotas
  6
Continuous
440
 16777216
100
AcDbLine
 10
934.5801869527626
 20
1048.485425421147
 30
0.0
 11
934.5801869527626
 21
1049.529015180437
 31
0.0
  0
LINE
  5
26F
330
26B
100
AcDbEntity
  8
cotas
  6
Continuous
440
 16777216
100
AcDbLine
 10
935.2801869527628
 20
1049.029015180437
 30
0.0
 11
935.9801869527627
 21
1049.029015180437
 31
0.0
  0
LINE
  5
270
330
26B
100
AcDbEntity
  8
cotas
  6
Continuous
440
 16777216
100
AcDbLine
 10
932.8801873527627
 20
1049.029015180437
 30
0.0
 11
932.1801873527627
 21
1049.029015180437
 31
0.0
  0
SOLID
  5
271
330
26B
100
AcDbEntity
  8
cotas
  6
Continuous
440
 16777216
100
AcDbTrace
 10
935.2801869527628
 20
1049.145681847103
 30
0.0
 11
935.2801869527628
 21
1048.91234851377
 31
0.0
 12
934.5801869527626
 22
1049.029015180437
 32
0.0
 13
934.5801869527626
 23
1049.029015180437
 33
0.0
  0
SOLID
  5
272
330
26B
100
AcDbEntity
  8
cotas
  6
Continuous
440
 16777216
100
AcDbTrace
 10
932.8801873527627
 20
1049.145681847103
 30
0.0
 11
932.8801873527627
 21
1048.91234851377
 31
0.0
 12
933.5801873527627
 22
1049.029015180437
 32
0.0
 13
933.5801873527627
 23
1049.029015180437
 33
0.0
  0
MTEXT
  5
273
330
26B
100
AcDbEntity
  8
cotas
  6
Continuous
440
 16777216
100
AcDbMText
 10
928.6416471071966
 20
1049.029015180437
 30
0.0
 40
1.5
 41
0.0
 46
0.0
 71
     5
 72
     1
  1
G1/2"
  7
ARIAL
 73
     1
 44
1.0
  0
POINT
  5
274
330
26B
100
AcDbEntity
  8
Defpoints
  6
Continuous
 62
     0
440
 16777216
100
AcDbPoint
 10
933.5801873527627
 20
1047.485425421147
 30
0.0
  0
POINT
  5
275
330
26B
100
AcDbEntity
  8
Defpoints
  6
Continuous
 62
     0
440
 16777216
100
AcDbPoint
 10
934.5801869527626
 20
1047.485425421147
 30
0.0
  0
POINT
  5
276
330
26B
100
AcDbEntity
  8
Defpoints
  6
Continuous
 62
     0
440
 16777216
100
AcDbPoint
 10
934.5801869527626
 20
1049.029015180437
 30
0.0
  0
ENDBLK
  5
277
330
26B
100
AcDbEntity
  8
0
100
AcDbBlockEnd
  0
BLOCK
  5
4AD
330
4AC
100
AcDbEntity
  8
0
100
AcDbBlockBegin
  2
*D3
 70
     1
 10
0.0
 20
0.0
 30
0.0
  3
*D3
  1

  0
LINE
  5
50D
330
4AC
100
AcDbEntity
  8
cotas
  6
Continuous
440
 16777216
100
AcDbLine
 10
1341.35785884323
 20
1597.7577152464
 30
0.0
 11
1341.35785884323
 21
1599.335509598625
 31
0.0
  0
LINE
  5
50E
330
4AC
100
AcDbEntity
  8
cotas
  6
Continuous
440
 16777216
100
AcDbLine
 10
1344.732858791075
 20
1597.7577152464
 30
0.0
 11
1344.732858791075
 21
1599.335509598625
 31
0.0
  0
LINE
  5
50F
330
4AC
100
AcDbEntity
  8
cotas
  6
Continuous
440
 16777216
100
AcDbLine
 10
1340.65785884323
 20
1598.835509598625
 30
0.0
 11
1339.95785884323
 21
1598.835509598625
 31
0.0
  0
LINE
  5
510
330
4AC
100
AcDbEntity
  8
cotas
  6
Continuous
440
 16777216
100
AcDbLine
 10
1345.432858791075
 20
1598.835509598625
 30
0.0
 11
1346.171346352656
 21
1598.835509598625
 31
0.0
  0
SOLID
  5
511
330
4AC
100
AcDbEntity
  8
cotas
  6
Continuous
440
 16777216
100
AcDbTrace
 10
1340.65785884323
 20
1598.952176265292
 30
0.0
 11
1340.65785884323
 21
1598.718842931958
 31
0.0
 12
1341.35785884323
 22
1598.835509598625
 32
0.0
 13
1341.35785884323
 23
1598.835509598625
 33
0.0
  0
SOLID
  5
512
330
4AC
100
AcDbEntity
  8
cotas
  6
Continuous
440
 16777216
100
AcDbTrace
 10
1345.432858791075
 20
1598.952176265292
 30
0.0
 11
1345.432858791075
 21
1598.718842931958
 31
0.0
 12
1344.732858791075
 22
1598.835509598625
 32
0.0
 13
1344.732858791075
 23
1598.835509598625
 33
0.0
  0
MTEXT
  5
513
330
4AC
100
AcDbEntity
  8
cotas
  6
Continuous
440
 16777216
100
AcDbMText
 10
1349.061694238059
 20
1598.835509598625
 30
0.0
 40
1.5
 41
0.0
 46
0.0
 71
     5
 72
     1
  1
Ø67
  7
ARIAL
 73
     1
 44
1.0
  0
POINT
  5
514
330
4AC
100
AcDbEntity
  8
Defpoints
  6
Continuous
 62
     0
440
 16777216
100
AcDbPoint
 10
1341.35785884323
 20
1596.7577152464
 30
0.0
  0
POINT
  5
515
330
4AC
100
AcDbEntity
  8
Defpoints
  6
Continuous
 62
     0
440
 16777216
100
AcDbPoint
 10
1344.732858791075
 20
1596.7577152464
 30
0.0
  0
POINT
  5
516
330
4AC
100
AcDbEntity
  8
Defpoints
  6
Continuous
 62
     0
440
 16777216
100
AcDbPoint
 10
1344.732858791075
 20
1598.835509598625
 30
0.0
  0
ENDBLK
  5
4AE
330
4AC
100
AcDbEntity
  8
0
100
AcDbBlockEnd
  0
BLOCK
  5
4BA
330
4B9
100
AcDbEntity
  8
0
100
AcDbBlockBegin
  2
*D4
 70
     1
 10
0.0
 20
0.0
 30
0.0
  3
*D4
  1

  0
LINE
  5
517
330
4B9
100
AcDbEntity
  8
cotas
  6
Continuous
440
 16777216
100
AcDbLine
 10
1334.738577428824
 20
1598.607714906398
 30
0.0
 11
1334.738577428824
 21
1599.651304665688
 31
0.0
  0
LINE
  5
518
330
4B9
100
AcDbEntity
  8
cotas
  6
Continuous
440
 16777216
100
AcDbLine
 10
1335.738577028824
 20
1598.607714906398
 30
0.0
 11
1335.738577028824
 21
1599.651304665688
 31
0.0
  0
LINE
  5
519
330
4B9
100
AcDbEntity
  8
cotas
  6
Continuous
440
 16777216
100
AcDbLine
 10
1336.438577028824
 20
1599.151304665688
 30
0.0
 11
1337.138577028824
 21
1599.151304665688
 31
0.0
  0
LINE
  5
51A
330
4B9
100
AcDbEntity
  8
cotas
  6
Continuous
440
 16777216
100
AcDbLine
 10
1334.038577428824
 20
1599.151304665688
 30
0.0
 11
1333.338577428824
 21
1599.151304665688
 31
0.0
  0
SOLID
  5
51B
330
4B9
100
AcDbEntity
  8
cotas
  6
Continuous
440
 16777216
100
AcDbTrace
 10
1336.438577028824
 20
1599.267971332355
 30
0.0
 11
1336.438577028824
 21
1599.034637999022
 31
0.0
 12
1335.738577028824
 22
1599.151304665688
 32
0.0
 13
1335.738577028824
 23
1599.151304665688
 33
0.0
  0
SOLID
  5
51C
330
4B9
100
AcDbEntity
  8
cotas
  6
Continuous
440
 16777216
100
AcDbTrace
 10
1334.038577428824
 20
1599.267971332355
 30
0.0
 11
1334.038577428824
 21
1599.034637999022
 31
0.0
 12
1334.738577428824
 22
1599.151304665688
 32
0.0
 13
1334.738577428824
 23
1599.151304665688
 33
0.0
  0
MTEXT
  5
51D
330
4B9
100
AcDbEntity
  8
cotas
  6
Continuous
440
 16777216
100
AcDbMText
 10
1329.800037183258
 20
1599.151304665688
 30
0.0
 40
1.5
 41
0.0
 46
0.0
 71
     5
 72
     1
  1
G1/2"
  7
ARIAL
 73
     1
 44
1.0
  0
POINT
  5
51E
330
4B9
100
AcDbEntity
  8
Defpoints
  6
Continuous
 62
     0
440
 16777216
100
AcDbPoint
 10
1334.738577428824
 20
1597.607714906398
 30
0.0
  0
POINT
  5
51F
330
4B9
100
AcDbEntity
  8
Defpoints
  6
Continuous
 62
     0
440
 16777216
100
AcDbPoint
 10
1335.738577028824
 20
1597.607714906398
 30
0.0
  0
POINT
  5
520
330
4B9
100
AcDbEntity
  8
Defpoints
  6
Continuous
 62
     0
440
 16777216
100
AcDbPoint
 10
1335.738577028824
 20
1599.151304665688
 30
0.0
  0
ENDBLK
  5
4BB
330
4B9
100
AcDbEntity
  8
0
100
AcDbBlockEnd
  0
ENDSEC
  0
SECTION
  2
ENTITIES
  0
LINE
  5
39B
330
1F
100
AcDbEntity
  8
cuerpo
100
AcDbLine
 10
1344.732858791075
 20
1595.638683592572
 30
0.0
 11
1344.732858791075
 21
1596.757715163422
 31
0.0
  0
LINE
  5
39C
330
1F
100
AcDbEntity
  8
cuerpo
100
AcDbLine
 10
1341.35785884323
 20
1596.757715163422
 30
0.0
 11
1341.35785884323
 21
1595.638683592572
 31
0.0
  0
ARC
  5
39D
330
1F
100
AcDbEntity
  8
cuerpo
100
AcDbCircle
 10
1344.65785876127
 20
1595.638683526007
 30
0.0
 40
0.0750000000000002
100
AcDbArc
 50
273.1643332367782
 51
0.0
  0
ARC
  5
39E
330
1F
100
AcDbEntity
  8
cuerpo
100
AcDbCircle
 10
1341.43285876127
 20
1595.638683526007
 30
0.0
 40
0.075
100
AcDbArc
 50
180.0
 51
266.8356667632218
  0
LINE
  5
39F
330
1F
100
AcDbEntity
  8
cuerpo
100
AcDbLine
 10
1341.42871870758
 20
1595.563797806992
 30
0.0
 11
1342.318997523805
 21
1595.514579457832
 31
0.0
  0
LINE
  5
3A0
330
1F
100
AcDbEntity
  8
cuerpo
100
AcDbLine
 10
1343.771720110495
 20
1595.514579457832
 30
0.0
 11
1344.66199892672
 21
1595.563797806992
 31
0.0
  0
LINE
  5
3A1
330
1F
100
AcDbEntity
  8
cuerpo
100
AcDbLine
 10
1337.232858679315
 20
1595.638683592572
 30
0.0
 11
1337.232858679315
 21
1596.757715163422
 31
0.0
  0
LINE
  5
3A2
330
1F
100
AcDbEntity
  8
cuerpo
100
AcDbLine
 10
1333.85785873147
 20
1596.757715163422
 30
0.0
 11
1333.85785873147
 21
1595.638683592572
 31
0.0
  0
ARC
  5
3A3
330
1F
100
AcDbEntity
  8
cuerpo
100
AcDbCircle
 10
1337.15785876127
 20
1595.638683526007
 30
0.0
 40
0.0750000000000002
100
AcDbArc
 50
273.1643332367782
 51
0.0
  0
ARC
  5
3A4
330
1F
100
AcDbEntity
  8
cuerpo
100
AcDbCircle
 10
1333.93285876127
 20
1595.638683526007
 30
0.0
 40
0.0750000000000001
100
AcDbArc
 50
180.0
 51
266.8356667632218
  0
LINE
  5
3A5
330
1F
100
AcDbEntity
  8
cuerpo
100
AcDbLine
 10
1333.928718595825
 20
1595.563797806992
 30
0.0
 11
1334.88435874792
 21
1595.510966112507
 31
0.0
  0
LINE
  5
3A6
330
1F
100
AcDbEntity
  8
cuerpo
100
AcDbLine
 10
1336.20635884913
 20
1595.510966112507
 30
0.0
 11
1337.16199881496
 21
1595.563797806992
 31
0.0
  0
LINE
  5
3A7
330
1F
100
AcDbEntity
  8
cuerpo
100
AcDbLine
 10
1342.897944330295
 20
1596.992783588962
 30
0.0
 11
1342.66287590476
 21
1596.757715163422
 31
0.0
  0
LINE
  5
3A8
330
1F
100
AcDbEntity
  8
cuerpo
100
AcDbLine
 10
1342.82160866173
 20
1598.225198281602
 30
0.0
 11
1342.82160866173
 21
1597.250198168352
 31
0.0
  0
LINE
  5
3A9
330
1F
100
AcDbEntity
  8
cuerpo
100
AcDbLine
 10
1343.869108884655
 20
1597.250198168352
 30
0.0
 11
1343.869108884655
 21
1598.225198281602
 31
0.0
  0
LINE
  5
3AA
330
1F
100
AcDbEntity
  8
cuerpo
100
AcDbLine
 10
1342.92160886439
 20
1597.250198168352
 30
0.0
 11
1342.89889167162
 21
1596.990540591672
 31
0.0
  0
LINE
  5
3AB
330
1F
100
AcDbEntity
  8
cuerpo
100
AcDbLine
 10
1343.6285221866
 20
1596.757715163422
 30
0.0
 11
1343.671600326026
 21
1597.250103545977
 31
0.0
  0
LINE
  5
3AC
330
1F
100
AcDbEntity
  8
cuerpo
100
AcDbLine
 10
1336.20635884913
 20
1595.507715237932
 30
0.0
 11
1336.20635884913
 21
1595.510966112507
 31
0.0
  0
LINE
  5
3AD
330
1F
100
AcDbEntity
  8
cuerpo
100
AcDbLine
 10
1334.88435874792
 20
1595.510966112507
 30
0.0
 11
1334.88435874792
 21
1595.507715237932
 31
0.0
  0
LINE
  5
3AE
330
1F
100
AcDbEntity
  8
cuerpo
100
AcDbLine
 10
1335.927841617785
 20
1596.757715163422
 30
0.0
 11
1335.69277319225
 21
1596.992783588962
 31
0.0
  0
LINE
  5
3AF
330
1F
100
AcDbEntity
  8
cuerpo
100
AcDbLine
 10
1334.72160863789
 20
1598.225198281602
 30
0.0
 11
1334.72160863789
 21
1597.250198168352
 31
0.0
  0
LINE
  5
3B0
330
1F
100
AcDbEntity
  8
cuerpo
100
AcDbLine
 10
1335.76910886081
 20
1597.250198168352
 30
0.0
 11
1335.76910886081
 21
1598.225198281602
 31
0.0
  0
LINE
  5
3B1
330
1F
100
AcDbEntity
  8
cuerpo
100
AcDbLine
 10
1335.691825850925
 20
1596.990540591672
 30
0.0
 11
1335.669108658155
 21
1597.250198168352
 31
0.0
  0
LINE
  5
3B2
330
1F
100
AcDbEntity
  8
cuerpo
100
AcDbLine
 10
1334.91911719652
 20
1597.250103545977
 30
0.0
 11
1334.962195335945
 21
1596.757715163422
 31
0.0
  0
LINE
  5
3B3
330
1F
100
AcDbEntity
  8
cuerpo
100
AcDbLine
 10
1343.8303587875
 20
1595.480724392132
 30
0.0
 11
1343.771720110495
 21
1595.514579457832
 31
0.0
  0
LINE
  5
3B4
330
1F
100
AcDbEntity
  8
cuerpo
100
AcDbLine
 10
1342.318997523805
 20
1595.514579457832
 30
0.0
 11
1342.260358846805
 21
1595.480724392132
 31
0.0
  0
LINE
  5
3B5
330
1F
100
AcDbEntity
  8
cuerpo
100
AcDbLine
 10
1342.260358846805
 20
1594.932724503472
 30
0.0
 11
1342.37035884621
 21
1594.869215940727
 31
0.0
  0
LINE
  5
3B6
330
1F
100
AcDbEntity
  8
cuerpo
100
AcDbLine
 10
1343.720358788095
 20
1594.869215940727
 30
0.0
 11
1343.8303587875
 21
1594.932724503472
 31
0.0
  0
LINE
  5
3B7
330
1F
100
AcDbEntity
  8
cuerpo
100
AcDbLine
 10
1343.8303587875
 20
1594.932724503472
 30
0.0
 11
1343.8303587875
 21
1595.480724392132
 31
0.0
  0
LINE
  5
3B8
330
1F
100
AcDbEntity
  8
cuerpo
100
AcDbLine
 10
1342.260358846805
 20
1595.480724392132
 30
0.0
 11
1342.260358846805
 21
1594.932724503472
 31
0.0
  0
LINE
  5
3B9
330
1F
100
AcDbEntity
  8
cuerpo
100
AcDbLine
 10
1334.760358735045
 20
1594.896206786527
 30
0.0
 11
1334.870467512925
 21
1594.832635638907
 31
0.0
  0
LINE
  5
3BA
330
1F
100
AcDbEntity
  8
cuerpo
100
AcDbLine
 10
1336.220250084125
 20
1594.832635638907
 30
0.0
 11
1336.33035867574
 21
1594.896206786527
 31
0.0
  0
LINE
  5
3BB
330
1F
100
AcDbEntity
  8
cuerpo
100
AcDbLine
 10
1336.33035867574
 20
1595.444206861452
 30
0.0
 11
1336.220358676335
 21
1595.507715237932
 31
0.0
  0
LINE
  5
3BC
330
1F
100
AcDbEntity
  8
cuerpo
100
AcDbLine
 10
1334.87035873445
 20
1595.507715237932
 30
0.0
 11
1334.760358735045
 21
1595.444206861452
 31
0.0
  0
LINE
  5
3BD
330
1F
100
AcDbEntity
  8
cuerpo
100
AcDbLine
 10
1334.760358735045
 20
1595.444206861452
 30
0.0
 11
1334.760358735045
 21
1594.896206786527
 31
0.0
  0
LINE
  5
3BE
330
1F
100
AcDbEntity
  8
cuerpo
100
AcDbLine
 10
1336.33035867574
 20
1594.896206786527
 30
0.0
 11
1336.33035867574
 21
1595.444206861452
 31
0.0
  0
LINE
  5
3BF
330
1F
100
AcDbEntity
  8
cuerpo
100
AcDbLine
 10
1343.565358772
 20
1594.605198284282
 30
0.0
 11
1343.565358772
 21
1594.869215940727
 31
0.0
  0
LINE
  5
3C0
330
1F
100
AcDbEntity
  8
cuerpo
100
AcDbLine
 10
1342.525358676035
 20
1594.869215940727
 30
0.0
 11
1342.525358676035
 21
1594.605198284282
 31
0.0
  0
LINE
  5
3C1
330
1F
100
AcDbEntity
  8
cuerpo
100
AcDbLine
 10
1336.065358846505
 20
1594.605198284282
 30
0.0
 11
1336.065358846505
 21
1594.832698223782
 31
0.0
  0
LINE
  5
3C2
330
1F
100
AcDbEntity
  8
cuerpo
100
AcDbLine
 10
1335.025358750545
 20
1594.832698223782
 30
0.0
 11
1335.025358750545
 21
1594.605198284282
 31
0.0
  0
LINE
  5
3C3
330
1F
100
AcDbEntity
  8
cuerpo
100
AcDbLine
 10
1334.79535858246
 20
1591.720198249117
 30
0.0
 11
1343.795358940085
 21
1591.720198249117
 31
0.0
  0
LINE
  5
3C4
330
1F
100
AcDbEntity
  8
cuerpo
100
AcDbLine
 10
1342.255358762165
 20
1594.605198284282
 30
0.0
 11
1342.255358762165
 21
1594.460198437467
 31
0.0
  0
LINE
  5
3C5
330
1F
100
AcDbEntity
  8
cuerpo
100
AcDbLine
 10
1343.835358872135
 20
1594.434823436337
 30
0.0
 11
1343.835358872135
 21
1594.605198284282
 31
0.0
  0
LINE
  5
3C6
330
1F
100
AcDbEntity
  8
cuerpo
100
AcDbLine
 10
1336.33535876038
 20
1594.460198623732
 30
0.0
 11
1336.33535876038
 21
1594.605198284282
 31
0.0
  0
LINE
  5
3C7
330
1F
100
AcDbEntity
  8
cuerpo
100
AcDbLine
 10
1334.755358650405
 20
1594.605198284282
 30
0.0
 11
1334.755358650405
 21
1594.434823436337
 31
0.0
  0
SPLINE
  5
3C8
330
1F
100
AcDbEntity
  8
cuerpo
100
AcDbSpline
210
0.0
220
0.0
230
1.0
 70
     8
 71
     3
 72
    13
 73
     9
 74
     0
 42
0.000000001
 43
0.0000000001
 40
0.0
 40
0.0
 40
0.0
 40
0.0
 40
0.2390198386267966
 40
0.3681972669967244
 40
0.5000001152383807
 40
0.6318021596439812
 40
0.7609800937842321
 40
1.0
 40
1.0
 40
1.0
 40
1.0
 10
1342.255352801702
 20
1594.461544943645
 30
0.0
 10
1342.253361548573
 20
1594.441213586869
 30
0.0
 10
1342.250294129717
 20
1594.409894220069
 30
0.0
 10
1342.23015875606
 20
1594.372227984576
 30
0.0
 10
1342.20938071399
 20
1594.3461766597
 30
0.0
 10
1342.183329368312
 20
1594.325398621721
 30
0.0
 10
1342.145663353965
 20
1594.305262848368
 30
0.0
 10
1342.114343909236
 20
1594.302195444759
 30
0.0
 10
1342.094012527785
 20
1594.300204204067
 30
0.0
  0
SPLINE
  5
3C9
330
1F
100
AcDbEntity
  8
cuerpo
100
AcDbSpline
210
0.0
220
0.0
230
1.0
 70
     8
 71
     3
 72
    13
 73
     9
 74
     0
 42
0.000000001
 43
0.0000000001
 40
0.0
 40
0.0
 40
0.0
 40
0.0
 40
0.2390199062157682
 40
0.3681978403560188
 40
0.4999998847616194
 40
0.6318027330032755
 40
0.7609801613732035
 40
1.0
 40
1.0
 40
1.0
 40
1.0
 10
1336.496704994759
 20
1594.300204204067
 30
0.0
 10
1336.476373613308
 20
1594.302195444759
 30
0.0
 10
1336.445054168579
 20
1594.305262848368
 30
0.0
 10
1336.407388154232
 20
1594.325398621721
 30
0.0
 10
1336.381336808555
 20
1594.3461766597
 30
0.0
 10
1336.360558766484
 20
1594.372227984576
 30
0.0
 10
1336.340423392827
 20
1594.409894220069
 30
0.0
 10
1336.337355973971
 20
1594.441213586869
 30
0.0
 10
1336.335364720843
 20
1594.461544943645
 30
0.0
  0
LINE
  5
3CA
330
1F
100
AcDbEntity
  8
cuerpo
100
AcDbLine
 10
1342.095395728075
 20
1594.300198243602
 30
0.0
 11
1336.49532179447
 21
1594.300198243602
 31
0.0
  0
LINE
  5
3CB
330
1F
100
AcDbEntity
  8
cuerpo
100
AcDbLine
 10
1344.732858791075
 20
1596.757715163422
 30
0.0
 11
1341.35785884323
 21
1596.757715163422
 31
0.0
  0
LINE
  5
3CC
330
1F
100
AcDbEntity
  8
cuerpo
100
AcDbLine
 10
1337.232858679315
 20
1596.757715163422
 30
0.0
 11
1333.85785873147
 21
1596.757715163422
 31
0.0
  0
SPLINE
  5
3CD
330
1F
100
AcDbEntity
  8
cuerpo
100
AcDbSpline
210
0.0
220
0.0
230
1.0
 70
     8
 71
     3
 72
    12
 73
     8
 74
     0
 42
0.000000001
 43
0.0000000001
 40
0.0
 40
0.0
 40
0.0
 40
0.0
 40
0.089484122812786
 40
0.2811609808875059
 40
0.4768033348635151
 40
0.6721655078736522
 40
1.0
 40
1.0
 40
1.0
 40
1.0
 10
1342.900309144578
 20
1596.99041840215
 30
0.0
 10
1342.900181925987
 20
1596.990782069181
 30
0.0
 10
1342.899782202522
 20
1596.991924718581
 30
0.0
 10
1342.911537412712
 20
1596.956281735869
 30
0.0
 10
1342.935087878716
 20
1596.908845598092
 30
0.0
 10
1342.97723432457
 20
1596.843328794155
 30
0.0
 10
1343.024531420236
 20
1596.795232224544
 30
0.0
 10
1343.054167731723
 20
1596.765094963505
 30
0.0
  0
SPLINE
  5
3CE
330
1F
100
AcDbEntity
  8
cuerpo
100
AcDbSpline
210
0.0
220
0.0
230
1.0
 70
     8
 71
     3
 72
     9
 73
     5
 74
     0
 42
0.000000001
 43
0.0000000001
 40
0.0
 40
0.0
 40
0.0
 40
0.0
 40
0.171395692002544
 40
1.0
 40
1.0
 40
1.0
 40
1.0
 10
1343.054167731723
 20
1596.765094963505
 30
0.0
 10
1343.057391947633
 20
1596.765009360373
 30
0.0
 10
1343.076203481764
 20
1596.764509912971
 30
0.0
 10
1343.094712999936
 20
1596.760794101126
 30
0.0
 10
1343.110050066433
 20
1596.757715163424
 30
0.0
  0
LINE
  5
3CF
330
1F
100
AcDbEntity
  8
cuerpo
100
AcDbLine
 10
1343.345358773195
 20
1597.250198168352
 30
0.0
 11
1343.869108884655
 21
1597.250198168352
 31
0.0
  0
LINE
  5
3D0
330
1F
100
AcDbEntity
  8
cuerpo
100
AcDbLine
 10
1342.82160866173
 20
1597.250198168352
 30
0.0
 11
1343.345358773195
 21
1597.250198168352
 31
0.0
  0
LINE
  5
3D1
330
1F
100
AcDbEntity
  8
cuerpo
100
AcDbLine
 10
1343.345358773195
 20
1598.225198281602
 30
0.0
 11
1343.869108884655
 21
1598.225198281602
 31
0.0
  0
LINE
  5
3D2
330
1F
100
AcDbEntity
  8
cuerpo
100
AcDbLine
 10
1342.82160866173
 20
1598.225198281602
 30
0.0
 11
1343.345358773195
 21
1598.225198281602
 31
0.0
  0
LINE
  5
3D3
330
1F
100
AcDbEntity
  8
cuerpo
100
AcDbLine
 10
1343.054167731725
 20
1596.765094963507
 30
0.0
 11
1343.0639253846
 21
1596.876625312162
 31
0.0
  0
LINE
  5
3D4
330
1F
100
AcDbEntity
  8
cuerpo
100
AcDbLine
 10
1343.0639253846
 20
1596.876625312162
 30
0.0
 11
1342.964305906615
 21
1596.885341001347
 31
0.0
  0
LINE
  5
3D5
330
1F
100
AcDbEntity
  8
cuerpo
100
AcDbLine
 10
1342.964305906615
 20
1596.885341001347
 30
0.0
 11
1342.990452601635
 21
1597.184199062777
 31
0.0
  0
LINE
  5
3D6
330
1F
100
AcDbEntity
  8
cuerpo
100
AcDbLine
 10
1342.990452601635
 20
1597.184199062777
 30
0.0
 11
1343.09007207962
 21
1597.175483746127
 31
0.0
  0
LINE
  5
3D7
330
1F
100
AcDbEntity
  8
cuerpo
100
AcDbLine
 10
1343.09007207962
 20
1597.175483746127
 30
0.0
 11
1343.096608846505
 21
1597.250198168352
 31
0.0
  0
LINE
  5
3D8
330
1F
100
AcDbEntity
  8
cuerpo
100
AcDbLine
 10
1343.48703379842
 20
1597.140753982262
 30
0.0
 11
1343.49660891207
 21
1597.250198168352
 31
0.0
  0
LINE
  5
3D9
330
1F
100
AcDbEntity
  8
cuerpo
100
AcDbLine
 10
1343.48703379842
 20
1597.140753982262
 30
0.0
 11
1343.588169469555
 21
1597.131905672742
 31
0.0
  0
LINE
  5
3DA
330
1F
100
AcDbEntity
  8
cuerpo
100
AcDbLine
 10
1343.588169469555
 20
1597.131905672742
 30
0.0
 11
1343.56202277454
 21
1596.833047238782
 31
0.0
  0
LINE
  5
3DB
330
1F
100
AcDbEntity
  8
cuerpo
100
AcDbLine
 10
1343.56202277454
 20
1596.833047238782
 30
0.0
 11
1343.46088673087
 21
1596.841895548297
 31
0.0
  0
LINE
  5
3DC
330
1F
100
AcDbEntity
  8
cuerpo
100
AcDbLine
 10
1343.45352220448
 20
1596.757715163422
 30
0.0
 11
1343.46088673087
 21
1596.841895548297
 31
0.0
  0
SPLINE
  5
3DD
330
1F
100
AcDbEntity
  8
cuerpo
100
AcDbSpline
210
0.0
220
0.0
230
1.0
 70
     8
 71
     3
 72
     9
 73
     5
 74
     0
 42
0.000000001
 43
0.0000000001
 40
0.0
 40
0.0
 40
0.0
 40
0.0
 40
0.8257545811083712
 40
1.0
 40
1.0
 40
1.0
 40
1.0
 10
1335.48160101386
 20
1596.757715163424
 30
0.0
 10
1335.496625558426
 20
1596.76079618285
 30
0.0
 10
1335.51482048572
 20
1596.764527339171
 30
0.0
 10
1335.533325395129
 20
1596.765010734146
 30
0.0
 10
1335.536549790821
 20
1596.765094963505
 30
0.0
  0
SPLINE
  5
3DE
330
1F
100
AcDbEntity
  8
cuerpo
100
AcDbSpline
210
0.0
220
0.0
230
1.0
 70
     8
 71
     3
 72
    13
 73
     9
 74
     0
 42
0.000000001
 43
0.0000000001
 40
0.0
 40
0.0
 40
0.0
 40
0.0
 40
0.2289242173075587
 40
0.457811832753499
 40
0.6164162758162483
 40
0.7778199377591141
 40
0.932661940691756
 40
1.0
 40
1.0
 40
1.0
 40
1.0
 10
1335.536549790821
 20
1596.765094963505
 30
0.0
 10
1335.55773814606
 20
1596.786099219354
 30
0.0
 10
1335.600111468808
 20
1596.828104372755
 30
0.0
 10
1335.640973586228
 20
1596.884596385275
 30
0.0
 10
1335.66810679991
 20
1596.932931942375
 30
0.0
 10
1335.683536580929
 20
1596.968733568055
 30
0.0
 10
1335.691518345127
 20
1596.993941517565
 30
0.0
 10
1335.690666541546
 20
1596.991237831875
 30
0.0
 10
1335.690408377967
 20
1596.99041840215
 30
0.0
  0
LINE
  5
3DF
330
1F
100
AcDbEntity
  8
cuerpo
100
AcDbLine
 10
1334.72160863789
 20
1598.225198281602
 30
0.0
 11
1335.76910886081
 21
1598.225198281602
 31
0.0
  0
LINE
  5
3E0
330
1F
100
AcDbEntity
  8
cuerpo
100
AcDbLine
 10
1334.72160863789
 20
1597.250198168352
 30
0.0
 11
1335.76910886081
 21
1597.250198168352
 31
0.0
  0
LINE
  5
3E1
330
1F
100
AcDbEntity
  8
cuerpo
100
AcDbLine
 10
1335.53654979082
 20
1596.765094963507
 30
0.0
 11
1335.52679213794
 21
1596.876625312162
 31
0.0
  0
LINE
  5
3E2
330
1F
100
AcDbEntity
  8
cuerpo
100
AcDbLine
 10
1335.500645442925
 20
1597.175483746127
 30
0.0
 11
1335.494108676035
 21
1597.250198168352
 31
0.0
  0
LINE
  5
3E3
330
1F
100
AcDbEntity
  8
cuerpo
100
AcDbLine
 10
1335.60026492091
 20
1597.184199062777
 30
0.0
 11
1335.500645442925
 21
1597.175483746127
 31
0.0
  0
LINE
  5
3E4
330
1F
100
AcDbEntity
  8
cuerpo
100
AcDbLine
 10
1335.62641161593
 20
1596.885341001347
 30
0.0
 11
1335.60026492091
 21
1597.184199062777
 31
0.0
  0
LINE
  5
3E5
330
1F
100
AcDbEntity
  8
cuerpo
100
AcDbLine
 10
1335.52679213794
 20
1596.876625312162
 30
0.0
 11
1335.62641161593
 21
1596.885341001347
 31
0.0
  0
LINE
  5
3E6
330
1F
100
AcDbEntity
  8
cuerpo
100
AcDbLine
 10
1335.137195318065
 20
1596.757715163422
 30
0.0
 11
1335.129830791675
 21
1596.841895548297
 31
0.0
  0
LINE
  5
3E7
330
1F
100
AcDbEntity
  8
cuerpo
100
AcDbLine
 10
1335.028694748005
 20
1596.833047238782
 30
0.0
 11
1335.129830791675
 21
1596.841895548297
 31
0.0
  0
LINE
  5
3E8
330
1F
100
AcDbEntity
  8
cuerpo
100
AcDbLine
 10
1335.00254805299
 20
1597.131905672742
 30
0.0
 11
1335.028694748005
 21
1596.833047238782
 31
0.0
  0
LINE
  5
3E9
330
1F
100
AcDbEntity
  8
cuerpo
100
AcDbLine
 10
1335.103683724125
 20
1597.140753982262
 30
0.0
 11
1335.00254805299
 21
1597.131905672742
 31
0.0
  0
LINE
  5
3EA
330
1F
100
AcDbEntity
  8
cuerpo
100
AcDbLine
 10
1335.103683724125
 20
1597.140753982262
 30
0.0
 11
1335.09410861047
 21
1597.250198168352
 31
0.0
  0
SPLINE
  5
3EB
330
1F
100
AcDbEntity
  8
cuerpo
100
AcDbSpline
210
0.0
220
0.0
230
1.0
 70
     8
 71
     3
 72
     9
 73
     5
 74
     0
 42
0.000000001
 43
0.0000000001
 40
0.0
 40
0.0
 40
0.0
 40
0.0
 40
0.593177413004416
 40
1.0
 40
1.0
 40
1.0
 40
1.0
 10
1342.266991167388
 20
1595.48072439213
 30
0.0
 10
1342.292108974681
 20
1595.490985270959
 30
0.0
 10
1342.33445348535
 20
1595.508283432696
 30
0.0
 10
1342.377606027609
 20
1595.511445234992
 30
0.0
 10
1342.395161456487
 20
1595.512731527581
 30
0.0
  0
SPLINE
  5
3EC
330
1F
100
AcDbEntity
  8
cuerpo
100
AcDbSpline
210
0.0
220
0.0
230
1.0
 70
     8
 71
     3
 72
     9
 73
     5
 74
     0
 42
0.000000001
 43
0.0000000001
 40
0.0
 40
0.0
 40
0.0
 40
0.0
 40
0.4067305951047313
 40
1.0
 40
1.0
 40
1.0
 40
1.0
 10
1342.439822285494
 20
1595.512730409994
 30
0.0
 10
1342.457373689267
 20
1595.511444932466
 30
0.0
 10
1342.500526095267
 20
1595.508284418986
 30
0.0
 10
1342.542868785475
 20
1595.490986636972
 30
0.0
 10
1342.567989408097
 20
1595.48072439213
 30
0.0
  0
LINE
  5
3ED
330
1F
100
AcDbEntity
  8
cuerpo
100
AcDbLine
 10
1342.266991167385
 20
1595.480724392132
 30
0.0
 11
1342.260358846805
 21
1595.480724392132
 31
0.0
  0
LINE
  5
3EE
330
1F
100
AcDbEntity
  8
cuerpo
100
AcDbLine
 10
1343.8303587875
 20
1595.480724392132
 30
0.0
 11
1343.82372628065
 21
1595.480724392132
 31
0.0
  0
SPLINE
  5
3EF
330
1F
100
AcDbEntity
  8
cuerpo
100
AcDbSpline
210
0.0
220
0.0
230
1.0
 70
     8
 71
     3
 72
     9
 73
     5
 74
     0
 42
0.000000001
 43
0.0000000001
 40
0.0
 40
0.0
 40
0.0
 40
0.0
 40
0.5931774648099319
 40
1.0
 40
1.0
 40
1.0
 40
1.0
 10
1343.522728039941
 20
1595.48072439213
 30
0.0
 10
1343.547845335687
 20
1595.490985270911
 30
0.0
 10
1343.590188980273
 20
1595.508283431059
 30
0.0
 10
1343.63334237097
 20
1595.511445234635
 30
0.0
 10
1343.650898142776
 20
1595.512731527581
 30
0.0
  0
SPLINE
  5
3F0
330
1F
100
AcDbEntity
  8
cuerpo
100
AcDbSpline
210
0.0
220
0.0
230
1.0
 70
     8
 71
     3
 72
     9
 73
     5
 74
     0
 42
0.000000001
 43
0.0000000001
 40
0.0
 40
0.0
 40
0.0
 40
0.0
 40
0.4067307912633523
 40
1.0
 40
1.0
 40
1.0
 40
1.0
 10
1343.695559158048
 20
1595.512730409994
 30
0.0
 10
1343.7131102255
 20
1595.511444933817
 30
0.0
 10
1343.756261783799
 20
1595.508284425183
 30
0.0
 10
1343.79860522236
 20
1595.49098663715
 30
0.0
 10
1343.823726280651
 20
1595.48072439213
 30
0.0
  0
LINE
  5
3F1
330
1F
100
AcDbEntity
  8
cuerpo
100
AcDbLine
 10
1343.52272803994
 20
1595.480724392132
 30
0.0
 11
1343.346357150995
 21
1595.480724392132
 31
0.0
  0
SPLINE
  5
3F2
330
1F
100
AcDbEntity
  8
cuerpo
100
AcDbSpline
210
0.0
220
0.0
230
1.0
 70
     8
 71
     3
 72
     9
 73
     5
 74
     0
 42
0.000000001
 43
0.0000000001
 40
0.0
 40
0.0
 40
0.0
 40
0.0
 40
0.4949217978264927
 40
1.0
 40
1.0
 40
1.0
 40
1.0
 10
1343.045358910283
 20
1595.515365494087
 30
0.0
 10
1343.095487216066
 20
1595.513767273862
 30
0.0
 10
1343.196772522153
 20
1595.510538035966
 30
0.0
 10
1343.296159137828
 20
1595.490729335134
 30
0.0
 10
1343.346357150993
 20
1595.48072439213
 30
0.0
  0
SPLINE
  5
3F3
330
1F
100
AcDbEntity
  8
cuerpo
100
AcDbSpline
210
0.0
220
0.0
230
1.0
 70
     8
 71
     3
 72
     9
 73
     5
 74
     0
 42
0.000000001
 43
0.0000000001
 40
0.0
 40
0.0
 40
0.0
 40
0.0
 40
0.5050603240193058
 40
1.0
 40
1.0
 40
1.0
 40
1.0
 10
1342.744360297045
 20
1595.48072439213
 30
0.0
 10
1342.794556579502
 20
1595.490729058337
 30
0.0
 10
1342.893943286534
 20
1595.510537912309
 30
0.0
 10
1342.995228727132
 20
1595.513767194303
 30
0.0
 10
1343.045358910283
 20
1595.515365494087
 30
0.0
  0
LINE
  5
3F4
330
1F
100
AcDbEntity
  8
cuerpo
100
AcDbLine
 10
1342.744360297045
 20
1595.480724392132
 30
0.0
 11
1342.567989408095
 21
1595.480724392132
 31
0.0
  0
LINE
  5
3F5
330
1F
100
AcDbEntity
  8
cuerpo
100
AcDbLine
 10
1342.744360297045
 20
1594.932724503472
 30
0.0
 11
1342.744360297045
 21
1595.480724392132
 31
0.0
  0
LINE
  5
3F6
330
1F
100
AcDbEntity
  8
cuerpo
100
AcDbLine
 10
1343.346357150995
 20
1595.480724392132
 30
0.0
 11
1343.346357150995
 21
1594.932724503472
 31
0.0
  0
SPLINE
  5
3F7
330
1F
100
AcDbEntity
  8
cuerpo
100
AcDbSpline
210
0.0
220
0.0
230
1.0
 70
     8
 71
     3
 72
    10
 73
     6
 74
     0
 42
0.000000001
 43
0.0000000001
 40
0.0
 40
0.0
 40
0.0
 40
0.0
 40
0.347450658026987
 40
0.703447613830213
 40
1.0
 40
1.0
 40
1.0
 40
1.0
 10
1343.346357150993
 20
1594.932724503472
 30
0.0
 10
1343.277143935251
 20
1594.920067843779
 30
0.0
 10
1343.137015055553
 20
1594.89444320657
 30
0.0
 10
1342.933111191739
 20
1594.897207171978
 30
0.0
 10
1342.80333661808
 20
1594.921626905509
 30
0.0
 10
1342.744360297045
 20
1594.932724503472
 30
0.0
  0
LINE
  5
3F8
330
1F
100
AcDbEntity
  8
cuerpo
100
AcDbLine
 10
1343.52272803994
 20
1594.932724503472
 30
0.0
 11
1343.52272803994
 21
1595.480724392132
 31
0.0
  0
LINE
  5
3F9
330
1F
100
AcDbEntity
  8
cuerpo
100
AcDbLine
 10
1343.346357150995
 20
1594.932724503472
 30
0.0
 11
1343.52272803994
 21
1594.932724503472
 31
0.0
  0
LINE
  5
3FA
330
1F
100
AcDbEntity
  8
cuerpo
100
AcDbLine
 10
1342.567989408095
 20
1594.932724503472
 30
0.0
 11
1342.744360297045
 21
1594.932724503472
 31
0.0
  0
LINE
  5
3FB
330
1F
100
AcDbEntity
  8
cuerpo
100
AcDbLine
 10
1342.567989408095
 20
1595.480724392132
 30
0.0
 11
1342.567989408095
 21
1594.932724503472
 31
0.0
  0
SPLINE
  5
3FC
330
1F
100
AcDbEntity
  8
cuerpo
100
AcDbSpline
210
0.0
220
0.0
230
1.0
 70
     8
 71
     3
 72
    10
 73
     6
 74
     0
 42
0.000000001
 43
0.0000000001
 40
0.0
 40
0.0
 40
0.0
 40
0.0
 40
0.3473443841042228
 40
0.7032270238580906
 40
1.0
 40
1.0
 40
1.0
 40
1.0
 10
1343.823726280651
 20
1594.932724503472
 30
0.0
 10
1343.789130468221
 20
1594.920070969535
 30
0.0
 10
1343.719088425434
 20
1594.894452858463
 30
0.0
 10
1343.617136536421
 20
1594.897198850463
 30
0.0
 10
1343.552238306125
 20
1594.921619872896
 30
0.0
 10
1343.522728039941
 20
1594.932724503472
 30
0.0
  0
LINE
  5
3FD
330
1F
100
AcDbEntity
  8
cuerpo
100
AcDbLine
 10
1343.82372628065
 20
1594.932724503472
 30
0.0
 11
1343.8303587875
 21
1594.932724503472
 31
0.0
  0
LINE
  5
3FE
330
1F
100
AcDbEntity
  8
cuerpo
100
AcDbLine
 10
1342.260358846805
 20
1594.932724503472
 30
0.0
 11
1342.266991167385
 21
1594.932724503472
 31
0.0
  0
SPLINE
  5
3FF
330
1F
100
AcDbEntity
  8
cuerpo
100
AcDbSpline
210
0.0
220
0.0
230
1.0
 70
     8
 71
     3
 72
    10
 73
     6
 74
     0
 42
0.000000001
 43
0.0000000001
 40
0.0
 40
0.0
 40
0.0
 40
0.0
 40
0.3474371379159214
 40
0.703419640473051
 40
1.0
 40
1.0
 40
1.0
 40
1.0
 10
1342.567989408097
 20
1594.932724503472
 30
0.0
 10
1342.533384152514
 20
1594.920068226697
 30
0.0
 10
1342.463322510323
 20
1594.894444386619
 30
0.0
 10
1342.361370743914
 20
1594.897206090413
 30
0.0
 10
1342.296482110483
 20
1594.921626005927
 30
0.0
 10
1342.266991167388
 20
1594.932724503472
 30
0.0
  0
LINE
  5
400
330
1F
100
AcDbEntity
  8
cuerpo
100
AcDbLine
 10
1343.720358788095
 20
1594.869215940727
 30
0.0
 11
1342.37035884621
 21
1594.869215940727
 31
0.0
  0
LINE
  5
401
330
1F
100
AcDbEntity
  8
cuerpo
100
AcDbLine
 10
1343.82372628065
 20
1595.480724392132
 30
0.0
 11
1343.82372628065
 21
1594.932724503472
 31
0.0
  0
LINE
  5
402
330
1F
100
AcDbEntity
  8
cuerpo
100
AcDbLine
 10
1342.266991167385
 20
1594.932724503472
 30
0.0
 11
1342.266991167385
 21
1595.480724392132
 31
0.0
  0
LINE
  5
403
330
1F
100
AcDbEntity
  8
cuerpo
100
AcDbLine
 10
1335.8463572255
 20
1595.444206861452
 30
0.0
 11
1335.8463572255
 21
1594.896206786527
 31
0.0
  0
SPLINE
  5
404
330
1F
100
AcDbEntity
  8
cuerpo
100
AcDbSpline
210
0.0
220
0.0
230
1.0
 70
     8
 71
     3
 72
     9
 73
     5
 74
     0
 42
0.000000001
 43
0.0000000001
 40
0.0
 40
0.0
 40
0.0
 40
0.0
 40
0.5050603240193058
 40
1.0
 40
1.0
 40
1.0
 40
1.0
 10
1335.846357225499
 20
1594.896206786528
 30
0.0
 10
1335.796160943042
 20
1594.886202120322
 30
0.0
 10
1335.69677423601
 20
1594.866393266349
 30
0.0
 10
1335.595488795412
 20
1594.863163984355
 30
0.0
 10
1335.54535861226
 20
1594.861565684571
 30
0.0
  0
SPLINE
  5
405
330
1F
100
AcDbEntity
  8
cuerpo
100
AcDbSpline
210
0.0
220
0.0
230
1.0
 70
     8
 71
     3
 72
     9
 73
     5
 74
     0
 42
0.000000001
 43
0.0000000001
 40
0.0
 40
0.0
 40
0.0
 40
0.0
 40
0.4949217978264927
 40
1.0
 40
1.0
 40
1.0
 40
1.0
 10
1335.54535861226
 20
1594.861565684571
 30
0.0
 10
1335.495230306479
 20
1594.863163904796
 30
0.0
 10
1335.393945000391
 20
1594.866393142692
 30
0.0
 10
1335.294558384717
 20
1594.886201843524
 30
0.0
 10
1335.244360371551
 20
1594.896206786528
 30
0.0
  0
LINE
  5
406
330
1F
100
AcDbEntity
  8
cuerpo
100
AcDbLine
 10
1335.24436037155
 20
1594.896206786527
 30
0.0
 11
1335.24436037155
 21
1595.444206861452
 31
0.0
  0
SPLINE
  5
407
330
1F
100
AcDbEntity
  8
cuerpo
100
AcDbSpline
210
0.0
220
0.0
230
1.0
 70
     8
 71
     3
 72
    10
 73
     6
 74
     0
 42
0.000000001
 43
0.0000000001
 40
0.0
 40
0.0
 40
0.0
 40
0.0
 40
0.347450645299662
 40
0.703447634696908
 40
1.0
 40
1.0
 40
1.0
 40
1.0
 10
1335.244360371551
 20
1595.444206861451
 30
0.0
 10
1335.313573590581
 20
1595.456863447603
 30
0.0
 10
1335.453702486222
 20
1595.48248793762
 30
0.0
 10
1335.657606309821
 20
1595.479723958062
 30
0.0
 10
1335.787380901552
 20
1595.455304385338
 30
0.0
 10
1335.846357225499
 20
1595.444206861451
 30
0.0
  0
SPLINE
  5
408
330
1F
100
AcDbEntity
  8
cuerpo
100
AcDbSpline
210
0.0
220
0.0
230
1.0
 70
     8
 71
     3
 72
    11
 73
     7
 74
     0
 42
0.000000001
 43
0.0000000001
 40
0.0
 40
0.0
 40
0.0
 40
0.0
 40
0.2528638729829827
 40
0.4999795980895644
 40
0.7471029257049131
 40
1.0
 40
1.0
 40
1.0
 40
1.0
 10
1336.323726355157
 20
1594.896206786528
 30
0.0
 10
1336.298594528965
 20
1594.886425503483
 30
0.0
 10
1336.248902177858
 20
1594.86708528731
 30
0.0
 10
1336.173233289538
 20
1594.858838509485
 30
0.0
 10
1336.097558064912
 20
1594.867083062259
 30
0.0
 10
1336.047862709061
 20
1594.886424433358
 30
0.0
 10
1336.022728114447
 20
1594.896206786528
 30
0.0
  0
LINE
  5
409
330
1F
100
AcDbEntity
  8
cuerpo
100
AcDbLine
 10
1336.323726355155
 20
1594.896206786527
 30
0.0
 11
1336.33035867574
 21
1594.896206786527
 31
0.0
  0
LINE
  5
40A
330
1F
100
AcDbEntity
  8
cuerpo
100
AcDbLine
 10
1334.760358735045
 20
1594.896206786527
 30
0.0
 11
1334.766991241895
 21
1594.896206786527
 31
0.0
  0
SPLINE
  5
40B
330
1F
100
AcDbEntity
  8
cuerpo
100
AcDbSpline
210
0.0
220
0.0
230
1.0
 70
     8
 71
     3
 72
    11
 73
     7
 74
     0
 42
0.000000001
 43
0.0000000001
 40
0.0
 40
0.0
 40
0.0
 40
0.0
 40
0.2528638530423739
 40
0.4999797213409858
 40
0.7471030580084217
 40
1.0
 40
1.0
 40
1.0
 40
1.0
 10
1335.067989482602
 20
1594.896206786528
 30
0.0
 10
1335.042858236745
 20
1594.8864255031
 30
0.0
 10
1334.993167016945
 20
1594.867085279876
 30
0.0
 10
1334.917495093311
 20
1594.858838512244
 30
0.0
 10
1334.841822678105
 20
1594.867083055128
 30
0.0
 10
1334.792126330936
 20
1594.88642443276
 30
0.0
 10
1334.766991241893
 20
1594.896206786528
 30
0.0
  0
LINE
  5
40C
330
1F
100
AcDbEntity
  8
cuerpo
100
AcDbLine
 10
1335.067989482605
 20
1594.896206786527
 30
0.0
 11
1335.24436037155
 21
1594.896206786527
 31
0.0
  0
LINE
  5
40D
330
1F
100
AcDbEntity
  8
cuerpo
100
AcDbLine
 10
1335.8463572255
 20
1594.896206786527
 30
0.0
 11
1336.022728114445
 21
1594.896206786527
 31
0.0
  0
SPLINE
  5
40E
330
1F
100
AcDbEntity
  8
cuerpo
100
AcDbSpline
210
0.0
220
0.0
230
1.0
 70
    24
 71
     3
 72
    15
 73
    11
 74
     0
 42
0.000000001
 43
0.0000000001
 40
0.0
 40
0.0
 40
0.0
 40
0.0
 40
0.1250000441815852
 40
0.2500002474204731
 40
0.3750000984187323
 40
0.500000063645746
 40
0.6250000737810855
 40
0.7500000204276188
 40
0.8750000387308496
 40
1.0
 40
1.0
 40
1.0
 40
1.0
 10
1335.54535861226
 20
1594.832698223784
 30
0.0
 10
1335.589537043749
 20
1594.832698223784
 30
0.0
 10
1335.67789396294
 20
1594.832698223784
 30
0.0
 10
1335.805333666689
 20
1594.832698223784
 30
0.0
 10
1335.922792104351
 20
1594.832698223784
 30
0.0
 10
1336.025710165528
 20
1594.832698223784
 30
0.0
 10
1336.110302392053
 20
1594.832698223784
 30
0.0
 10
1336.172684943277
 20
1594.832698223784
 30
0.0
 10
1336.212822428515
 20
1594.832698223784
 30
0.0
 10
1336.217846594111
 20
1594.832698223784
 30
0.0
 10
1336.220358676335
 20
1594.832698223784
 30
0.0
  0
SPLINE
  5
40F
330
1F
100
AcDbEntity
  8
cuerpo
100
AcDbSpline
210
0.0
220
0.0
230
1.0
 70
    24
 71
     3
 72
    15
 73
    11
 74
     0
 42
0.000000001
 43
0.0000000001
 40
0.0
 40
0.0
 40
0.0
 40
0.0
 40
0.1250000201371623
 40
0.2500000800617824
 40
0.3750000683296814
 40
0.5000001200864077
 40
0.6250001269347935
 40
0.7500000195543861
 40
0.8750002644147249
 40
1.0
 40
1.0
 40
1.0
 40
1.0
 10
1334.87035873445
 20
1594.832698223784
 30
0.0
 10
1334.872870894874
 20
1594.832698223784
 30
0.0
 10
1334.87789521652
 20
1594.832698223784
 30
0.0
 10
1334.918032640421
 20
1594.832698223784
 30
0.0
 10
1334.980415208573
 20
1594.832698223784
 30
0.0
 10
1335.06500743057
 20
1594.832698223784
 30
0.0
 10
1335.167925492934
 20
1594.832698223784
 30
0.0
 10
1335.285383930378
 20
1594.832698223784
 30
0.0
 10
1335.412823514793
 20
1594.832698223784
 30
0.0
 10
1335.501180306435
 20
1594.832698223784
 30
0.0
 10
1335.54535861226
 20
1594.832698223784
 30
0.0
  0
LINE
  5
410
330
1F
100
AcDbEntity
  8
cuerpo
100
AcDbLine
 10
1335.067989482605
 20
1595.444206861452
 30
0.0
 11
1335.067989482605
 21
1594.896206786527
 31
0.0
  0
LINE
  5
411
330
1F
100
AcDbEntity
  8
cuerpo
100
AcDbLine
 10
1335.24436037155
 20
1595.444206861452
 30
0.0
 11
1335.067989482605
 21
1595.444206861452
 31
0.0
  0
LINE
  5
412
330
1F
100
AcDbEntity
  8
cuerpo
100
AcDbLine
 10
1336.022728114445
 20
1595.444206861452
 30
0.0
 11
1335.8463572255
 21
1595.444206861452
 31
0.0
  0
LINE
  5
413
330
1F
100
AcDbEntity
  8
cuerpo
100
AcDbLine
 10
1336.022728114445
 20
1594.896206786527
 30
0.0
 11
1336.022728114445
 21
1595.444206861452
 31
0.0
  0
SPLINE
  5
414
330
1F
100
AcDbEntity
  8
cuerpo
100
AcDbSpline
210
0.0
220
0.0
230
1.0
 70
     8
 71
     3
 72
    10
 73
     6
 74
     0
 42
0.000000001
 43
0.0000000001
 40
0.0
 40
0.0
 40
0.0
 40
0.0
 40
0.3473443713573185
 40
0.7032270446919571
 40
1.0
 40
1.0
 40
1.0
 40
1.0
 10
1334.766991241893
 20
1595.444206861451
 30
0.0
 10
1334.801587055966
 20
1595.45686032184
 30
0.0
 10
1334.871629106724
 20
1595.482478285706
 30
0.0
 10
1334.973580975639
 20
1595.479732279657
 30
0.0
 10
1335.038479214962
 20
1595.455311417947
 30
0.0
 10
1335.067989482602
 20
1595.444206861451
 30
0.0
  0
LINE
  5
415
330
1F
100
AcDbEntity
  8
cuerpo
100
AcDbLine
 10
1334.766991241895
 20
1595.444206861452
 30
0.0
 11
1334.760358735045
 21
1595.444206861452
 31
0.0
  0
LINE
  5
416
330
1F
100
AcDbEntity
  8
cuerpo
100
AcDbLine
 10
1336.33035867574
 20
1595.444206861452
 30
0.0
 11
1336.323726355155
 21
1595.444206861452
 31
0.0
  0
SPLINE
  5
417
330
1F
100
AcDbEntity
  8
cuerpo
100
AcDbSpline
210
0.0
220
0.0
230
1.0
 70
     8
 71
     3
 72
    10
 73
     6
 74
     0
 42
0.000000001
 43
0.0000000001
 40
0.0
 40
0.0
 40
0.0
 40
0.0
 40
0.3474371251860807
 40
0.7034196613356079
 40
1.0
 40
1.0
 40
1.0
 40
1.0
 10
1336.022728114447
 20
1595.444206861451
 30
0.0
 10
1336.057333371674
 20
1595.456863064684
 30
0.0
 10
1336.127395021837
 20
1595.482486757568
 30
0.0
 10
1336.229346768139
 20
1595.479725039636
 30
0.0
 10
1336.294235410605
 20
1595.455305284919
 30
0.0
 10
1336.323726355157
 20
1595.444206861451
 30
0.0
  0
LINE
  5
418
330
1F
100
AcDbEntity
  8
cuerpo
100
AcDbLine
 10
1334.87035873445
 20
1595.507715237932
 30
0.0
 11
1336.220358676335
 21
1595.507715237932
 31
0.0
  0
LINE
  5
419
330
1F
100
AcDbEntity
  8
cuerpo
100
AcDbLine
 10
1334.766991241895
 20
1594.896206786527
 30
0.0
 11
1334.766991241895
 21
1595.444206861452
 31
0.0
  0
LINE
  5
41A
330
1F
100
AcDbEntity
  8
cuerpo
100
AcDbLine
 10
1336.323726355155
 20
1595.444206861452
 30
0.0
 11
1336.323726355155
 21
1594.896206786527
 31
0.0
  0
LINE
  5
41B
330
1F
100
AcDbEntity
  8
cuerpo
100
AcDbLine
 10
1338.480584873875
 20
1593.104592865007
 30
0.0
 11
1334.79535858246
 21
1593.104592865007
 31
0.0
  0
SPLINE
  5
41C
330
1F
100
AcDbEntity
  8
cuerpo
100
AcDbSpline
210
0.0
220
0.0
230
1.0
 70
     8
 71
     3
 72
    11
 73
     7
 74
     0
 42
0.000000001
 43
0.0000000001
 40
0.0
 40
0.0
 40
0.0
 40
0.0
 40
0.2483954136419861
 40
0.4978147747372847
 40
0.7483269728172034
 40
1.0
 40
1.0
 40
1.0
 40
1.0
 10
1338.46135269381
 20
1593.042264526504
 30
0.0
 10
1338.46279286027
 20
1593.04750010642
 30
0.0
 10
1338.465679129912
 20
1593.057992848611
 30
0.0
 10
1338.470364257621
 20
1593.073603102424
 30
0.0
 10
1338.475298308252
 20
1593.089166145956
 30
0.0
 10
1338.478819996428
 20
1593.099442709698
 30
0.0
 10
1338.480584910804
 20
1593.104592868994
 30
0.0
  0
LINE
  5
41D
330
1F
100
AcDbEntity
  8
cuerpo
100
AcDbLine
 10
1338.3226691662
 20
1593.042308153257
 30
0.0
 11
1338.461364424845
 21
1593.042308153257
 31
0.0
  0
SPLINE
  5
41E
330
1F
100
AcDbEntity
  8
cuerpo
100
AcDbSpline
210
0.0
220
0.0
230
1.0
 70
     8
 71
     3
 72
    14
 73
    10
 74
     0
 42
0.000000001
 43
0.0000000001
 40
0.0
 40
0.0
 40
0.0
 40
0.0
 40
0.5
 40
0.5
 40
0.625
 40
0.625
 40
0.75
 40
0.75
 40
1.0
 40
1.0
 40
1.0
 40
1.0
 10
1338.32266919106
 20
1592.578088372374
 30
0.0
 10
1338.304663818267
 20
1592.653542453592
 30
0.0
 10
1338.295394019298
 20
1592.730727313434
 30
0.0
 10
1338.295350070478
 20
1592.829509866033
 30
0.0
 10
1338.295932701339
 20
1592.84937602148
 30
0.0
 10
1338.298248176327
 20
1592.888670087241
 30
0.0
 10
1338.299979485185
 20
1592.908183057395
 30
0.0
 10
1338.306851544994
 20
1592.966330186399
 30
0.0
 10
1338.313664755949
 20
1593.004573779067
 30
0.0
 10
1338.32266919106
 20
1593.042308147912
 30
0.0
  0
LINE
  5
41F
330
1F
100
AcDbEntity
  8
cuerpo
100
AcDbLine
 10
1338.461329686515
 20
1592.578088367032
 30
0.0
 11
1338.3226691662
 21
1592.578088367032
 31
0.0
  0
SPLINE
  5
420
330
1F
100
AcDbEntity
  8
cuerpo
100
AcDbSpline
210
0.0
220
0.0
230
1.0
 70
     8
 71
     3
 72
    21
 73
    17
 74
     0
 42
0.000000001
 43
0.0000000001
 40
0.0
 40
0.0
 40
0.0
 40
0.0
 40
0.0807293068714289
 40
0.1606323081299219
 40
0.2397312583903853
 40
0.3180490977025813
 40
0.3956094592076879
 40
0.4724366750828917
 40
0.5485557805791076
 40
0.6239925159541416
 40
0.6987733261038521
 40
0.7729253576968553
 40
0.8464764536249688
 40
0.9194551445917907
 40
0.9597968703633508
 40
1.0
 40
1.0
 40
1.0
 40
1.0
 10
1338.566774729023
 20
1592.333524913599
 30
0.0
 10
1338.563187541884
 20
1592.339519304812
 30
0.0
 10
1338.556049884294
 20
1592.351446731589
 30
0.0
 10
1338.545810540825
 20
1592.369640652035
 30
0.0
 10
1338.535986177638
 20
1592.387930114679
 30
0.0
 10
1338.526605353839
 20
1592.406336489816
 30
0.0
 10
1338.517660541327
 20
1592.424845547078
 30
0.0
 10
1338.509153741316
 20
1592.443452474055
 30
0.0
 10
1338.501084427621
 20
1592.462149988207
 30
0.0
 10
1338.49345278672
 20
1592.480931506988
 30
0.0
 10
1338.486258653703
 20
1592.499790209995
 30
0.0
 10
1338.479502560337
 20
1592.518719670794
 30
0.0
 10
1338.473182631243
 20
1592.53771228807
 30
0.0
 10
1338.468167191326
 20
1592.553972341691
 30
0.0
 10
1338.464252535189
 20
1592.567431116364
 30
0.0
 10
1338.462302772643
 20
1592.574540248339
 30
0.0
 10
1338.461329568881
 20
1592.57808869787
 30
0.0
  0
SPLINE
  5
421
330
1F
100
AcDbEntity
  8
cuerpo
100
AcDbSpline
210
0.0
220
0.0
230
1.0
 70
     8
 71
     3
 72
    34
 73
    30
 74
     0
 42
0.000000001
 43
0.0000000001
 40
0.0
 40
0.0
 40
0.0
 40
0.0
 40
0.0081156647064448
 40
0.0163389451296593
 40
0.0246902588837298
 40
0.0331891008646976
 40
0.0418539702548906
 40
0.0507023249490394
 40
0.0597505608254463
 40
0.0690140124641999
 40
0.1070961805431784
 40
0.1513438638816297
 40
0.1959942615636278
 40
0.2470421239539203
 40
0.2999939853986992
 40
0.3570290018403562
 40
0.4194238639773621
 40
0.4832424355692759
 40
0.5564790600114379
 40
0.6288415038443882
 40
0.673321723879641
 40
0.7169434778829064
 40
0.7597256979616454
 40
0.8016884525430553
 40
0.8428530085827549
 40
0.8832418939420454
 40
0.9228789590700628
 40
0.9617894369414251
 40
1.0
 40
1.0
 40
1.0
 40
1.0
 10
1339.295358761272
 20
1591.839921280265
 30
0.0
 10
1339.292553990402
 20
1591.839940745701
 30
0.0
 10
1339.286907256707
 20
1591.839979934689
 30
0.0
 10
1339.278396809426
 20
1591.840290009251
 30
0.0
 10
1339.269797569807
 20
1591.840783963695
 30
0.0
 10
1339.261109648116
 20
1591.841481600858
 30
0.0
 10
1339.252333046697
 20
1591.842379297857
 30
0.0
 10
1339.243467899547
 20
1591.843480599548
 30
0.0
 10
1339.234513732653
 20
1591.844787087437
 30
0.0
 10
1339.21617574139
 20
1591.84786307727
 30
0.0
 10
1339.18744132839
 20
1591.854227261363
 30
0.0
 10
1339.149737261364
 20
1591.865230023552
 30
0.0
 10
1339.11006450396
 20
1591.879315778759
 30
0.0
 10
1339.069457664415
 20
1591.896054564013
 30
0.0
 10
1339.026789239733
 20
1591.915988284366
 30
0.0
 10
1338.98236732242
 20
1591.939248998364
 30
0.0
 10
1338.936344682734
 20
1591.966077792629
 30
0.0
 10
1338.887583966514
 20
1591.99770201592
 30
0.0
 10
1338.837840586611
 20
1592.033659150026
 30
0.0
 10
1338.794191354404
 20
1592.069025587356
 30
0.0
 10
1338.758425562868
 20
1592.100759410637
 30
0.0
 10
1338.729963062469
 20
1592.127822954828
 30
0.0
 10
1338.702786711764
 20
1592.155523555314
 30
0.0
 10
1338.676895475592
 20
1592.183826642269
 30
0.0
 10
1338.652291437029
 20
1592.212699903766
 30
0.0
 10
1338.628967642594
 20
1592.242102029923
 30
0.0
 10
1338.60694938435
 20
1592.272023509175
 30
0.0
 10
1338.586145126179
 20
1592.302338837452
 30
0.0
 10
1338.573192343592
 20
1592.323192641369
 30
0.0
 10
1338.566774729023
 20
1592.333524913599
 30
0.0
  0
SPLINE
  5
422
330
1F
100
AcDbEntity
  8
cuerpo
100
AcDbSpline
210
0.0
220
0.0
230
1.0
 70
     8
 71
     3
 72
    37
 73
    33
 74
     0
 42
0.000000001
 43
0.0000000001
 40
0.0
 40
0.0
 40
0.0
 40
0.0
 40
0.0214097990715791
 40
0.0430372516914822
 40
0.0648872777395119
 40
0.0869646482963713
 40
0.1092739885833748
 40
0.1318197810579845
 40
0.1546063686371864
 40
0.1776379580228545
 40
0.2009186231053539
 40
0.2244523084237311
 40
0.2482428326628459
 40
0.2722938921697636
 40
0.2966090644735709
 40
0.3211918117945419
 40
0.3460454845302396
 40
0.3711733247076696
 40
0.4435344841276553
 40
0.516773099169266
 40
0.5805905442572651
 40
0.6429871449999081
 40
0.7000211912530389
 40
0.7529745562377237
 40
0.8040215881949428
 40
0.8486732801760366
 40
0.8929197127247149
 40
0.9310035245720428
 40
0.9493111070642619
 40
0.9668200160439411
 40
0.9836656718018526
 40
1.0
 40
1.0
 40
1.0
 40
1.0
 10
1340.023942793521
 20
1592.333524913599
 30
0.0
 10
1340.020370129211
 20
1592.327713051404
 30
0.0
 10
1340.013188480629
 20
1592.316030243206
 30
0.0
 10
1340.001980989107
 20
1592.298805330477
 30
0.0
 10
1339.990388826453
 20
1592.281695585252
 30
0.0
 10
1339.97838370917
 20
1592.264735237613
 30
0.0
 10
1339.965973338209
 20
1592.247922841318
 30
0.0
 10
1339.953155622084
 20
1592.231266650601
 30
0.0
 10
1339.939931133925
 20
1592.214772269016
 30
0.0
 10
1339.926299721134
 20
1592.19844600799
 30
0.0
 10
1339.912261428159
 20
1592.182293969533
 30
0.0
 10
1339.897816245758
 20
1592.166322292875
 30
0.0
 10
1339.88296417758
 20
1592.150537084107
 30
0.0
 10
1339.867705228569
 20
1592.134944432447
 30
0.0
 10
1339.852039383454
 20
1592.11955040154
 30
0.0
 10
1339.835966706308
 20
1592.104361032646
 30
0.0
 10
1339.819486958081
 20
1592.089382325148
 30
0.0
 10
1339.792083339178
 20
1592.065425486537
 30
0.0
 10
1339.752877001959
 20
1592.033659313162
 30
0.0
 10
1339.703134369824
 20
1591.997702552005
 30
0.0
 10
1339.654373178428
 20
1591.966078003102
 30
0.0
 10
1339.608350891542
 20
1591.939249376865
 30
0.0
 10
1339.563928592255
 20
1591.915988445324
 30
0.0
 10
1339.521260534217
 20
1591.896054840059
 30
0.0
 10
1339.480653147663
 20
1591.879315887753
 30
0.0
 10
1339.440981530985
 20
1591.865230294796
 30
0.0
 10
1339.403274774241
 20
1591.854227272822
 30
0.0
 10
1339.371709491782
 20
1591.847235117423
 30
0.0
 10
1339.347505282227
 20
1591.843414149865
 30
0.0
 10
1339.329817642987
 20
1591.841414481638
 30
0.0
 10
1339.312475490056
 20
1591.840159643414
 30
0.0
 10
1339.301005416824
 20
1591.839999914134
 30
0.0
 10
1339.295358761272
 20
1591.839921280265
 30
0.0
  0
SPLINE
  5
423
330
1F
100
AcDbEntity
  8
cuerpo
100
AcDbSpline
210
0.0
220
0.0
230
1.0
 70
     8
 71
     3
 72
    15
 73
    11
 74
     0
 42
0.000000001
 43
0.0000000001
 40
0.0
 40
0.0
 40
0.0
 40
0.0
 40
0.0402094255015744
 40
0.0805574963040639
 40
0.2270811552463529
 40
0.3760094362501167
 40
0.5275623231414334
 40
0.6819485808040027
 40
0.8393657017621876
 40
1.0
 40
1.0
 40
1.0
 40
1.0
 10
1340.129387853846
 20
1592.578088710325
 30
0.0
 10
1340.12841454322
 20
1592.574539958578
 30
0.0
 10
1340.126464565916
 20
1592.567430218706
 30
0.0
 10
1340.12067578657
 20
1592.547524124642
 30
0.0
 10
1340.111356563364
 20
1592.518453233133
 30
0.0
 10
1340.097385039582
 20
1592.480647317568
 30
0.0
 10
1340.081671671246
 20
1592.443144226858
 30
0.0
 10
1340.064183464755
 20
1592.406029489293
 30
0.0
 10
1340.045032748275
 20
1592.369246820281
 30
0.0
 10
1340.031020025948
 20
1592.345512243078
 30
0.0
 10
1340.023942793521
 20
1592.333524913599
 30
0.0
  0
LINE
  5
424
330
1F
100
AcDbEntity
  8
cuerpo
100
AcDbLine
 10
1340.268048356345
 20
1592.578088367032
 30
0.0
 11
1340.129387742901
 21
1592.578088367032
 31
0.0
  0
SPLINE
  5
425
330
1F
100
AcDbEntity
  8
cuerpo
100
AcDbSpline
210
0.0
220
0.0
230
1.0
 70
     8
 71
     3
 72
    14
 73
    10
 74
     0
 42
0.000000001
 43
0.0000000001
 40
0.0
 40
0.0
 40
0.0
 40
0.0
 40
0.5
 40
0.5
 40
0.625
 40
0.625
 40
0.75
 40
0.75
 40
1.0
 40
1.0
 40
1.0
 40
1.0
 10
1340.268048331485
 20
1593.042308147912
 30
0.0
 10
1340.286053704277
 20
1592.966854066694
 30
0.0
 10
1340.295323503247
 20
1592.889669206852
 30
0.0
 10
1340.295367452066
 20
1592.790886654253
 30
0.0
 10
1340.294784821205
 20
1592.771020498806
 30
0.0
 10
1340.292469346217
 20
1592.731726433045
 30
0.0
 10
1340.29073803736
 20
1592.712213462891
 30
0.0
 10
1340.28386597755
 20
1592.654066333887
 30
0.0
 10
1340.277052766595
 20
1592.615822741219
 30
0.0
 10
1340.268048331485
 20
1592.578088372374
 30
0.0
  0
LINE
  5
426
330
1F
100
AcDbEntity
  8
cuerpo
100
AcDbLine
 10
1340.129353004565
 20
1593.042308153257
 30
0.0
 11
1340.268048356345
 21
1593.042308153257
 31
0.0
  0
SPLINE
  5
427
330
1F
100
AcDbEntity
  8
cuerpo
100
AcDbSpline
210
0.0
220
0.0
230
1.0
 70
     8
 71
     3
 72
    11
 73
     7
 74
     0
 42
0.000000001
 43
0.0000000001
 40
0.0
 40
0.0
 40
0.0
 40
0.0
 40
0.2516703237839162
 40
0.5021816183457928
 40
0.7516018797412399
 40
1.0
 40
1.0
 40
1.0
 40
1.0
 10
1340.11013261174
 20
1593.104592868994
 30
0.0
 10
1340.1118975054
 20
1593.099442765643
 30
0.0
 10
1340.115419164772
 20
1593.089166276956
 30
0.0
 10
1340.120353178606
 20
1593.073603287861
 30
0.0
 10
1340.125038298797
 20
1593.057992974769
 30
0.0
 10
1340.127924571648
 20
1593.04750015421
 30
0.0
 10
1340.129364744966
 20
1593.042264516075
 30
0.0
  0
LINE
  5
428
330
1F
100
AcDbEntity
  8
cuerpo
100
AcDbLine
 10
1343.795358940085
 20
1593.104592655457
 30
0.0
 11
1340.11013264867
 21
1593.104592865007
 31
0.0
  0
LINE
  5
429
330
1F
100
AcDbEntity
  8
cuerpo
100
AcDbLine
 10
1334.79535858246
 20
1591.720198249117
 30
0.0
 11
1334.79535858246
 21
1593.104592865007
 31
0.0
  0
LINE
  5
42A
330
1F
100
AcDbEntity
  8
cuerpo
100
AcDbLine
 10
1343.795358940085
 20
1591.720198249117
 30
0.0
 11
1343.795358940085
 21
1593.104592655457
 31
0.0
  0
SPLINE
  5
42B
330
1F
100
AcDbEntity
  8
cuerpo
100
AcDbSpline
210
0.0
220
0.0
230
1.0
 70
     8
 71
     3
 72
     9
 73
     5
 74
     0
 42
0.000000001
 43
0.0000000001
 40
0.0
 40
0.0
 40
0.0
 40
0.0
 40
0.5
 40
1.0
 40
1.0
 40
1.0
 40
1.0
 10
1338.566774729023
 20
1592.33352494864
 30
0.0
 10
1338.591241874631
 20
1592.341852805413
 30
0.0
 10
1338.640058662227
 20
1592.35299873814
 30
0.0
 10
1338.677874165319
 20
1592.349421666397
 30
0.0
 10
1338.691974521133
 20
1592.343863778879
 30
0.0
  0
SPLINE
  5
42C
330
1F
100
AcDbEntity
  8
cuerpo
100
AcDbSpline
210
0.0
220
0.0
230
1.0
 70
     8
 71
     3
 72
    18
 73
    14
 74
     0
 42
0.000000001
 43
0.0000000001
 40
0.0
 40
0.0
 40
0.0
 40
0.0
 40
0.2499999999999998
 40
0.2499999999999998
 40
0.5
 40
0.5
 40
0.6249999999999995
 40
0.6249999999999995
 40
0.7499999999999993
 40
0.7499999999999993
 40
0.8749999999999992
 40
0.8749999999999992
 40
1.0
 40
1.0
 40
1.0
 40
1.0
 10
1338.691762803537
 20
1592.344923828204
 30
0.0
 10
1338.674579179472
 20
1592.367442461054
 30
0.0
 10
1338.658322757127
 20
1592.39062371298
 30
0.0
 10
1338.626610240728
 20
1592.437558166585
 30
0.0
 10
1338.611294895335
 20
1592.461411953438
 30
0.0
 10
1338.586965937646
 20
1592.496223619721
 30
0.0
 10
1338.578597330405
 20
1592.507642448094
 30
0.0
 10
1338.560373314326
 20
1592.529417571111
 30
0.0
 10
1338.550483575512
 20
1592.539766684904
 30
0.0
 10
1338.528470972613
 20
1592.557611130669
 30
0.0
 10
1338.516127271503
 20
1592.565159819713
 30
0.0
 10
1338.48991140443
 20
1592.575303432377
 30
0.0
 10
1338.475663750322
 20
1592.578087907304
 30
0.0
 10
1338.461330187491
 20
1592.578089245415
 30
0.0
  0
LINE
  5
42D
330
1F
100
AcDbEntity
  8
cuerpo
100
AcDbLine
 10
1338.69176296616
 20
1592.344924077062
 30
0.0
 11
1338.691974748915
 21
1592.343863952576
 31
0.0
  0
SPLINE
  5
42E
330
1F
100
AcDbEntity
  8
cuerpo
100
AcDbSpline
210
0.0
220
0.0
230
1.0
 70
     8
 71
     3
 72
     9
 73
     5
 74
     0
 42
0.000000001
 43
0.0000000001
 40
0.0
 40
0.0
 40
0.0
 40
0.0
 40
0.5
 40
1.0
 40
1.0
 40
1.0
 40
1.0
 10
1340.023942793521
 20
1592.33352494864
 30
0.0
 10
1339.999475652895
 20
1592.341852803716
 30
0.0
 10
1339.950658875088
 20
1592.352998735466
 30
0.0
 10
1339.912843375498
 20
1592.349421668985
 30
0.0
 10
1339.898743018639
 20
1592.34386378567
 30
0.0
  0
LINE
  5
42F
330
1F
100
AcDbEntity
  8
cuerpo
100
AcDbLine
 10
1339.898742820195
 20
1592.343863952576
 30
0.0
 11
1339.89895455638
 21
1592.344924123632
 31
0.0
  0
SPLINE
  5
430
330
1F
100
AcDbEntity
  8
cuerpo
100
AcDbSpline
210
0.0
220
0.0
230
1.0
 70
     8
 71
     3
 72
    18
 73
    14
 74
     0
 42
0.000000001
 43
0.0000000001
 40
0.0
 40
0.0
 40
0.0
 40
0.0
 40
0.2499999999999997
 40
0.2499999999999997
 40
0.4999999999999992
 40
0.4999999999999992
 40
0.6249999999999992
 40
0.6249999999999992
 40
0.7499999999999992
 40
0.7499999999999992
 40
0.8749999999999992
 40
0.8749999999999992
 40
1.0
 40
1.0
 40
1.0
 40
1.0
 10
1339.898954740353
 20
1592.344923856178
 30
0.0
 10
1339.916138361856
 20
1592.367442487212
 30
0.0
 10
1339.932394782027
 20
1592.390623737046
 30
0.0
 10
1339.964107294632
 20
1592.437558186069
 30
0.0
 10
1339.979422638399
 20
1592.461411970438
 30
0.0
 10
1340.00375159423
 20
1592.496223632579
 30
0.0
 10
1340.012120200943
 20
1592.507642459506
 30
0.0
 10
1340.030344216048
 20
1592.529417579573
 30
0.0
 10
1340.040233954305
 20
1592.539766691723
 30
0.0
 10
1340.06224655576
 20
1592.557611134472
 30
0.0
 10
1340.074590256003
 20
1592.565159822129
 30
0.0
 10
1340.100806120499
 20
1592.575303432805
 30
0.0
 10
1340.115053772696
 20
1592.578087907304
 30
0.0
 10
1340.129387335054
 20
1592.578089245415
 30
0.0
  0
LINE
  5
431
330
1F
100
AcDbEntity
  8
cuerpo
100
AcDbLine
 10
1339.88378498802
 20
1593.294514776812
 30
0.0
 11
1339.88323844137
 21
1593.295932110072
 31
0.0
  0
SPLINE
  5
432
330
1F
100
AcDbEntity
  8
cuerpo
100
AcDbSpline
210
0.0
220
0.0
230
1.0
 70
     8
 71
     3
 72
    14
 73
    10
 74
     0
 42
0.000000001
 43
0.0000000001
 40
0.0
 40
0.0
 40
0.0
 40
0.0
 40
0.25
 40
0.25
 40
0.5
 40
0.5
 40
0.75
 40
0.75
 40
1.0
 40
1.0
 40
1.0
 40
1.0
 10
1339.993351254338
 20
1593.337741774662
 30
0.0
 10
1339.982910449577
 20
1593.331125557715
 30
0.0
 10
1339.972121795904
 20
1593.32495292221
 30
0.0
 10
1339.950841658089
 20
1593.314135727957
 30
0.0
 10
1339.940360606979
 20
1593.309497903897
 30
0.0
 10
1339.920778016401
 20
1593.302196121413
 30
0.0
 10
1339.911686468109
 20
1593.299534870965
 30
0.0
 10
1339.895713026729
 20
1593.296266627972
 30
0.0
 10
1339.888834777194
 20
1593.295656716033
 30
0.0
 10
1339.883238365266
 20
1593.295932103753
 30
0.0
  0
SPLINE
  5
433
330
1F
100
AcDbEntity
  8
cuerpo
100
AcDbSpline
210
0.0
220
0.0
230
1.0
 70
     8
 71
     3
 72
    19
 73
    15
 74
     0
 42
0.000000001
 43
0.0000000001
 40
0.0
 40
0.0
 40
0.0
 40
0.0
 40
0.0853859867461581
 40
0.1703023046298195
 40
0.2547791637280413
 40
0.3388463222802414
 40
0.4225330138998736
 40
0.5058678758412905
 40
0.5888788788560836
 40
0.6715932591695653
 40
0.7540374530981684
 40
0.8362370348126535
 40
0.9182166577310656
 40
1.0
 40
1.0
 40
1.0
 40
1.0
 10
1339.993351254342
 20
1593.337741771353
 30
0.0
 10
1339.997533112669
 20
1593.331674204192
 30
0.0
 10
1340.005873826853
 20
1593.319572444752
 30
0.0
 10
1340.017813555941
 20
1593.301052053253
 30
0.0
 10
1340.02928774448
 20
1593.28233343388
 30
0.0
 10
1340.040258690727
 20
1593.263390876584
 30
0.0
 10
1340.050736428531
 20
1593.244237027306
 30
0.0
 10
1340.060718224904
 20
1593.22487464297
 30
0.0
 10
1340.070205018496
 20
1593.205309580584
 30
0.0
 10
1340.07919575876
 20
1593.185546787117
 30
0.0
 10
1340.087693689664
 20
1593.165593453794
 30
0.0
 10
1340.095686934739
 20
1593.145450456675
 30
0.0
 10
1340.103219594273
 20
1593.12514335239
 30
0.0
 10
1340.107830114588
 20
1593.11143755436
 30
0.0
 10
1340.11013261174
 20
1593.104592868994
 30
0.0
  0
SPLINE
  5
434
330
1F
100
AcDbEntity
  8
cuerpo
100
AcDbSpline
210
0.0
220
0.0
230
1.0
 70
     8
 71
     3
 72
     8
 73
     4
 74
     0
 42
0.000000001
 43
0.0000000001
 40
0.0
 40
0.0
 40
0.0
 40
0.0
 40
1.0
 40
1.0
 40
1.0
 40
1.0
 10
1340.11013261174
 20
1593.104592868464
 30
0.0
 10
1340.085814589669
 20
1593.096497309117
 30
0.0
 10
1340.062072978414
 20
1593.089006054265
 30
0.0
 10
1340.040305430751
 20
1593.083017425704
 30
0.0
  0
SPLINE
  5
435
330
1F
100
AcDbEntity
  8
cuerpo
100
AcDbSpline
210
0.0
220
0.0
230
1.0
 70
     8
 71
     3
 72
    14
 73
    10
 74
     0
 42
0.000000001
 43
0.0000000001
 40
0.0
 40
0.0
 40
0.0
 40
0.0
 40
0.25
 40
0.25
 40
0.5
 40
0.5
 40
0.75
 40
0.75
 40
1.0
 40
1.0
 40
1.0
 40
1.0
 10
1340.040305065485
 20
1593.083017325213
 30
0.0
 10
1340.024081310624
 20
1593.097997635753
 30
0.0
 10
1340.010654614939
 20
1593.115310050752
 30
0.0
 10
1339.985145460252
 20
1593.151055665177
 30
0.0
 10
1339.973160439952
 20
1593.169499599676
 30
0.0
 10
1339.948863154343
 20
1593.206118401699
 30
0.0
 10
1339.936564577782
 20
1593.22432786537
 30
0.0
 10
1339.910971649548
 20
1593.260007297269
 30
0.0
 10
1339.897690970637
 20
1593.277490956933
 30
0.0
 10
1339.883784967844
 20
1593.294514798971
 30
0.0
  0
SPLINE
  5
436
330
1F
100
AcDbEntity
  8
cuerpo
100
AcDbSpline
210
0.0
220
0.0
230
1.0
 70
     8
 71
     3
 72
    20
 73
    16
 74
     0
 42
0.000000001
 43
0.0000000001
 40
0.0
 40
0.0
 40
0.0
 40
0.0
 40
0.0754856553687055
 40
0.1511370274092884
 40
0.226972649034471
 40
0.3030117670987783
 40
0.3792743064146721
 40
0.4557808311760241
 40
0.5325525040465307
 40
0.6096110431847844
 40
0.6869786774896624
 40
0.7646781003594249
 40
0.8427324222648218
 40
0.9211651224405098
 40
1.0
 40
1.0
 40
1.0
 40
1.0
 10
1338.480584910804
 20
1593.104592868994
 30
0.0
 10
1338.48270680727
 20
1593.110911917796
 30
0.0
 10
1338.486955258485
 20
1593.123563887862
 30
0.0
 10
1338.493853542323
 20
1593.142327984969
 30
0.0
 10
1338.501144272177
 20
1593.160953096916
 30
0.0
 10
1338.508864996388
 20
1593.179417833851
 30
0.0
 10
1338.517005620315
 20
1593.197721768885
 30
0.0
 10
1338.525568849939
 20
1593.215859119756
 30
0.0
 10
1338.534553996328
 20
1593.233825772932
 30
0.0
 10
1338.5439610935
 20
1593.251617580813
 30
0.0
 10
1338.553790692392
 20
1593.269230095415
 30
0.0
 10
1338.564040527411
 20
1593.286661340311
 30
0.0
 10
1338.574719145236
 20
1593.303900899442
 30
0.0
 10
1338.585794388737
 20
1593.320971035551
 30
0.0
 10
1338.593502404527
 20
1593.332142003651
 30
0.0
 10
1338.597366268202
 20
1593.337741771353
 30
0.0
  0
SPLINE
  5
437
330
1F
100
AcDbEntity
  8
cuerpo
100
AcDbSpline
210
0.0
220
0.0
230
1.0
 70
     8
 71
     3
 72
     9
 73
     5
 74
     0
 42
0.000000001
 43
0.0000000001
 40
0.0
 40
0.0
 40
0.0
 40
0.0
 40
0.5
 40
1.0
 40
1.0
 40
1.0
 40
1.0
 10
1338.707479091233
 20
1593.295932158321
 30
0.0
 10
1338.695790842887
 20
1593.295304568569
 30
0.0
 10
1338.662826226599
 20
1593.302035621374
 30
0.0
 10
1338.619159289115
 20
1593.324014364246
 30
0.0
 10
1338.597366268203
 20
1593.337741455811
 30
0.0
  0
LINE
  5
438
330
1F
100
AcDbEntity
  8
cuerpo
100
AcDbLine
 10
1338.70693253452
 20
1593.294514776812
 30
0.0
 11
1338.707479081175
 21
1593.295932156637
 31
0.0
  0
SPLINE
  5
439
330
1F
100
AcDbEntity
  8
cuerpo
100
AcDbSpline
210
0.0
220
0.0
230
1.0
 70
     8
 71
     3
 72
    14
 73
    10
 74
     0
 42
0.000000001
 43
0.0000000001
 40
0.0
 40
0.0
 40
0.0
 40
0.0
 40
0.2499999999999996
 40
0.2499999999999996
 40
0.4999999999999992
 40
0.4999999999999992
 40
0.7499999999999996
 40
0.7499999999999996
 40
1.0
 40
1.0
 40
1.0
 40
1.0
 10
1338.550434073935
 20
1593.083037287717
 30
0.0
 10
1338.566679941791
 20
1593.098042623026
 30
0.0
 10
1338.580095878959
 20
1593.115354181341
 30
0.0
 10
1338.60558305576
 20
1593.151073145445
 30
0.0
 10
1338.6175685723
 20
1593.169517039147
 30
0.0
 10
1338.64186090986
 20
1593.206128137479
 30
0.0
 10
1338.654160567749
 20
1593.224338873875
 30
0.0
 10
1338.679752766471
 20
1593.260016526132
 30
0.0
 10
1338.693031398998
 20
1593.277496890781
 30
0.0
 10
1338.706932554701
 20
1593.294514798971
 30
0.0
  0
SPLINE
  5
43A
330
1F
100
AcDbEntity
  8
cuerpo
100
AcDbSpline
210
0.0
220
0.0
230
1.0
 70
     8
 71
     3
 72
    11
 73
     7
 74
     0
 42
0.000000001
 43
0.0000000001
 40
0.0
 40
0.0
 40
0.0
 40
0.0
 40
0.0171592015932655
 40
0.4114470357369093
 40
0.7421322965658364
 40
1.0
 40
1.0
 40
1.0
 40
1.0
 10
1338.550433517655
 20
1593.083037928673
 30
0.0
 10
1338.55004096431
 20
1593.083145961194
 30
0.0
 10
1338.540628235554
 20
1593.085736388263
 30
0.0
 10
1338.523493909883
 20
1593.090771162581
 30
0.0
 10
1338.500532630349
 20
1593.098003408344
 30
0.0
 10
1338.486662116648
 20
1593.102585345476
 30
0.0
 10
1338.480584910804
 20
1593.104592868463
 30
0.0
  0
SPLINE
  5
43B
330
1F
100
AcDbEntity
  8
cuerpo
100
AcDbSpline
210
0.0
220
0.0
230
1.0
 70
     8
 71
     3
 72
    12
 73
     8
 74
     0
 42
0.000000001
 43
0.0000000001
 40
0.0
 40
0.0
 40
0.0
 40
0.0
 40
0.2499999999999981
 40
0.2499999999999981
 40
0.4999999999999963
 40
0.4999999999999963
 40
1.0
 40
1.0
 40
1.0
 40
1.0
 10
1338.461343681959
 20
1593.042216039684
 30
0.0
 10
1338.46980602105
 20
1593.04220433399
 30
0.0
 10
1338.478034865832
 20
1593.043431232923
 30
0.0
 10
1338.494156721226
 20
1593.047666512137
 30
0.0
 10
1338.502081892682
 20
1593.050725164199
 30
0.0
 10
1338.524493085406
 20
1593.061730152379
 30
0.0
 10
1338.538091026596
 20
1593.071658044972
 30
0.0
 10
1338.550432957386
 20
1593.083038082548
 30
0.0
  0
SPLINE
  5
43C
330
1F
100
AcDbEntity
  8
cuerpo
100
AcDbSpline
210
0.0
220
0.0
230
1.0
 70
     8
 71
     3
 72
    12
 73
     8
 74
     0
 42
0.000000001
 43
0.0000000001
 40
0.0
 40
0.0
 40
0.0
 40
0.0
 40
0.2499999999999988
 40
0.2499999999999988
 40
0.4999999999999977
 40
0.4999999999999977
 40
1.0
 40
1.0
 40
1.0
 40
1.0
 10
1340.129373840583
 20
1593.04221603969
 30
0.0
 10
1340.120913905302
 20
1593.042204337321
 30
0.0
 10
1340.11268733049
 20
1593.043430552252
 30
0.0
 10
1340.096569844208
 20
1593.047663589847
 30
0.0
 10
1340.0886466416
 20
1593.050720687491
 30
0.0
 10
1340.066240567474
 20
1593.061720372789
 30
0.0
 10
1340.052645456565
 20
1593.071643520915
 30
0.0
 10
1340.040305546569
 20
1593.083018738879
 30
0.0
  0
SPLINE
  5
43D
330
1F
100
AcDbEntity
  8
cuerpo
100
AcDbSpline
210
0.0
220
0.0
230
1.0
 70
     8
 71
     3
 72
     8
 73
     4
 74
     0
 42
0.000000001
 43
0.0000000001
 40
0.0
 40
0.0
 40
0.0
 40
0.0
 40
1.0
 40
1.0
 40
1.0
 40
1.0
 10
1339.295358761268
 20
1591.84784661568
 30
0.0
 10
1339.295358688032
 20
1591.845615707273
 30
0.0
 10
1339.295358685185
 20
1591.842973990021
 30
0.0
 10
1339.295358761269
 20
1591.839919984104
 30
0.0
  0
SPLINE
  5
43E
330
1F
100
AcDbEntity
  8
cuerpo
100
AcDbSpline
210
0.0
220
0.0
230
1.0
 70
     8
 71
     3
 72
    33
 73
    29
 74
     0
 42
0.000000001
 43
0.0000000001
 40
0.0
 40
0.0
 40
0.0
 40
0.0
 40
0.0234380202525882
 40
0.0471975267511401
 40
0.0712874563442094
 40
0.0957164260970641
 40
0.1204927434883046
 40
0.1456244169486331
 40
0.1711191666263354
 40
0.1969844352776709
 40
0.223227399193368
 40
0.2498549790846624
 40
0.36991413024217
 40
0.5015672849557168
 40
0.561187314877938
 40
0.6277944657885507
 40
0.6908811493844059
 40
0.7538628827917482
 40
0.7880794417591949
 40
0.8166191204423988
 40
0.8502154533168134
 40
0.8788956664938185
 40
0.9120656328753502
 40
0.9401818857293088
 40
0.9563077571060439
 40
0.9715524855758207
 40
0.9860603578855615
 40
1.0
 40
1.0
 40
1.0
 40
1.0
 10
1338.691974734471
 20
1592.343863943761
 30
0.0
 10
1338.69507523687
 20
1592.337795646549
 30
0.0
 10
1338.701318769529
 20
1592.325575816678
 30
0.0
 10
1338.711106492762
 20
1592.307531975334
 30
0.0
 10
1338.721286564357
 20
1592.289547965059
 30
0.0
 10
1338.731890471066
 20
1592.271659959685
 30
0.0
 10
1338.742915776369
 20
1592.253866387517
 30
0.0
 10
1338.754369332629
 20
1592.236176506216
 30
0.0
 10
1338.76625541345
 20
1592.218597100324
 30
0.0
 10
1338.778579010961
 20
1592.20113620167
 30
0.0
 10
1338.791344621077
 20
1592.183801793031
 30
0.0
 10
1338.819945703445
 20
1592.146573587271
 30
0.0
 10
1338.868375067373
 20
1592.090359136583
 30
0.0
 10
1338.926722902556
 20
1592.034299725881
 30
0.0
 10
1338.977397985595
 20
1591.992021807208
 30
0.0
 10
1339.015856987715
 20
1591.962973085019
 30
0.0
 10
1339.056370989911
 20
1591.935509790909
 30
0.0
 10
1339.091403686146
 20
1591.914415480928
 30
0.0
 10
1339.11996008774
 20
1591.89903175976
 30
0.0
 10
1339.142478070675
 20
1591.887869250976
 30
0.0
 10
1339.164470660465
 20
1591.878005179049
 30
0.0
 10
1339.188600336506
 20
1591.868459876853
 30
0.0
 10
1339.212650098266
 20
1591.860441894757
 30
0.0
 10
1339.234795070888
 20
1591.854699931603
 30
0.0
 10
1339.25283274039
 20
1591.851272449128
 30
0.0
 10
1339.267273447777
 20
1591.849306329432
 30
0.0
 10
1339.281417094598
 20
1591.848076629995
 30
0.0
 10
1339.290773838387
 20
1591.847921507029
 30
0.0
 10
1339.295358761268
 20
1591.847845494813
 30
0.0
  0
SPLINE
  5
43F
330
1F
100
AcDbEntity
  8
cuerpo
100
AcDbSpline
210
0.0
220
0.0
230
1.0
 70
     8
 71
     3
 72
    30
 73
    26
 74
     0
 42
0.000000001
 43
0.0000000001
 40
0.0
 40
0.0
 40
0.0
 40
0.0
 40
0.0073276424512652
 40
0.0147108677921716
 40
0.022175985297837
 40
0.0297484248774697
 40
0.0442979869997353
 40
0.0598427453496648
 40
0.087955109580038
 40
0.1211276618528097
 40
0.1833825735136613
 40
0.2461301364157598
 40
0.3091105252420399
 40
0.3721958619538927
 40
0.498397410685414
 40
0.5631135619754236
 40
0.6244538112501358
 40
0.6885868877461382
 40
0.7501584639939896
 40
0.7943206107665333
 40
0.8374275621542269
 40
0.8795125427228287
 40
0.9206108609229611
 40
0.9607600489812028
 40
1.0
 40
1.0
 40
1.0
 40
1.0
 10
1339.295358761277
 20
1591.847845494812
 30
0.0
 10
1339.297768019529
 20
1591.847865449716
 30
0.0
 10
1339.30260481115
 20
1591.847905510887
 30
0.0
 10
1339.309865318708
 20
1591.848230470507
 30
0.0
 10
1339.317145873663
 20
1591.848749386017
 30
0.0
 10
1339.326636930653
 20
1591.849703695173
 30
0.0
 10
1339.338458447326
 20
1591.851375119937
 30
0.0
 10
1339.356083325003
 20
1591.854743581938
 30
0.0
 10
1339.378070254611
 20
1591.860440498651
 30
0.0
 10
1339.411077996868
 20
1591.871457148891
 30
0.0
 10
1339.449931977845
 20
1591.888167336304
 30
0.0
 10
1339.49307235627
 20
1591.910661616975
 30
0.0
 10
1339.53434800286
 20
1591.935509562533
 30
0.0
 10
1339.58739087404
 20
1591.971467612062
 30
0.0
 10
1339.638164993718
 20
1592.011718927151
 30
0.0
 10
1339.686216658966
 20
1592.055707861845
 30
0.0
 10
1339.721232050583
 20
1592.090919960374
 30
0.0
 10
1339.754453896685
 20
1592.127591987616
 30
0.0
 10
1339.783437337844
 20
1592.162798186379
 30
0.0
 10
1339.807900091772
 20
1592.195080497593
 30
0.0
 10
1339.828447161294
 20
1592.224185100149
 30
0.0
 10
1339.847788311743
 20
1592.253607160311
 30
0.0
 10
1339.865924855244
 20
1592.283335758579
 30
0.0
 10
1339.882955297927
 20
1592.313253514092
 30
0.0
 10
1339.893520637488
 20
1592.333738676671
 30
0.0
 10
1339.898742805301
 20
1592.343863950551
 30
0.0
  0
CIRCLE
  5
440
330
1F
100
AcDbEntity
  8
cuerpo
100
AcDbCircle
 10
1339.29535876127
 20
1592.810198260142
 30
0.0
 40
0.6049999999999997
  0
ARC
  5
441
330
1F
100
AcDbEntity
  8
cuerpo
100
AcDbCircle
 10
1339.29535876127
 20
1592.810198260142
 30
0.0
 40
0.7621075573852317
100
AcDbArc
 50
217.6263770694871
 51
322.3736255757351
  0
ARC
  5
442
330
1F
100
AcDbEntity
  8
cuerpo
100
AcDbCircle
 10
1339.29535876127
 20
1592.810198260142
 30
0.0
 40
0.7621075573852321
100
AcDbArc
 50
39.45680257566838
 51
140.5431974243316
  0
SPLINE
  5
443
330
1F
100
AcDbEntity
  8
cuerpo
100
AcDbSpline
210
0.0
220
0.0
230
1.0
 70
     8
 71
     3
 72
    17
 73
    13
 74
     0
 42
0.000000001
 43
0.0000000001
 40
0.0
 40
0.0
 40
0.0
 40
0.0
 40
0.0496738042280175
 40
0.1078734583551425
 40
0.1745211773487705
 40
0.2495273057198025
 40
0.4023352413048655
 40
0.4995916764332637
 40
0.6316408558840659
 40
0.7498511748240709
 40
0.8788630505801606
 40
1.0
 40
1.0
 40
1.0
 40
1.0
 10
1338.915735072433
 20
1593.530924453659
 30
0.0
 10
1338.911562362199
 20
1593.527737603048
 30
0.0
 10
1338.902500751343
 20
1593.520816921169
 30
0.0
 10
1338.888196805925
 20
1593.509237103584
 30
0.0
 10
1338.872161261419
 20
1593.495607506326
 30
0.0
 10
1338.84917407523
 20
1593.474873742409
 30
0.0
 10
1338.824882297217
 20
1593.450877106392
 30
0.0
 10
1338.797792579285
 20
1593.421322686134
 30
0.0
 10
1338.774313543437
 20
1593.393351890659
 30
0.0
 10
1338.750164180918
 20
1593.361554786079
 30
0.0
 10
1338.727989210563
 20
1593.329585961531
 30
0.0
 10
1338.714170825089
 20
1593.306912169855
 30
0.0
 10
1338.707479140404
 20
1593.295932170435
 30
0.0
  0
SPLINE
  5
444
330
1F
100
AcDbEntity
  8
cuerpo
100
AcDbSpline
210
0.0
220
0.0
230
1.0
 70
     8
 71
     3
 72
    26
 73
    22
 74
     0
 42
0.000000001
 43
0.0000000001
 40
0.0
 40
0.0
 40
0.0
 40
0.0
 40
0.0385653993820854
 40
0.0772141106412888
 40
0.1159566292322626
 40
0.1548033209327724
 40
0.1937644167699653
 40
0.2328500084074948
 40
0.2720700439993697
 40
0.3114343245130402
 40
0.3509525005213127
 40
0.3906340694597071
 40
0.4304883733432411
 40
0.470524596934104
 40
0.5417834203859684
 40
0.6144484313712209
 40
0.6885562269184719
 40
0.7641390161779357
 40
0.8412249264776708
 40
0.919838303074863
 40
1.0
 40
1.0
 40
1.0
 40
1.0
 10
1339.295358761272
 20
1593.658684005821
 30
0.0
 10
1339.289944290109
 20
1593.658643386741
 30
0.0
 10
1339.279103651033
 20
1593.658562060834
 30
0.0
 10
1339.262840552792
 20
1593.657902242688
 30
0.0
 10
1339.246571781957
 20
1593.656847344809
 30
0.0
 10
1339.230309922306
 20
1593.655357779853
 30
0.0
 10
1339.214067621132
 20
1593.65344348638
 30
0.0
 10
1339.197857576024
 20
1593.651101553872
 30
0.0
 10
1339.181692524469
 20
1593.648333005265
 30
0.0
 10
1339.165585235373
 20
1593.64513828739
 30
0.0
 10
1339.149548489069
 20
1593.641518477736
 30
0.0
 10
1339.13359510077
 20
1593.637475002942
 30
0.0
 10
1339.117737779907
 20
1593.633009565866
 30
0.0
 10
1339.097921163223
 20
1593.626862771941
 30
0.0
 10
1339.074216766631
 20
1593.618546899463
 30
0.0
 10
1339.046827706108
 20
1593.607477906411
 30
0.0
 10
1339.019686722675
 20
1593.594995616978
 30
0.0
 10
1338.992875607899
 20
1593.581102896368
 30
0.0
 10
1338.966510596435
 20
1593.565779496434
 30
0.0
 10
1338.940581607636
 20
1593.549119830273
 30
0.0
 10
1338.924070919699
 20
1593.537028881466
 30
0.0
 10
1338.915735072433
 20
1593.530924453659
 30
0.0
  0
SPLINE
  5
445
330
1F
100
AcDbEntity
  8
cuerpo
100
AcDbSpline
210
0.0
220
0.0
230
1.0
 70
     8
 71
     3
 72
    26
 73
    22
 74
     0
 42
0.000000001
 43
0.0000000001
 40
0.0
 40
0.0
 40
0.0
 40
0.0
 40
0.0432905903210762
 40
0.0861415425640289
 40
0.1285558642030583
 40
0.1705368240986272
 40
0.2120879644089754
 40
0.2532131127334841
 40
0.2939163944702907
 40
0.3342022453657253
 40
0.3740754242278699
 40
0.4135410257705609
 40
0.4526044935476812
 40
0.4912716329303838
 40
0.5295486240721087
 40
0.6503238773745448
 40
0.7690101085089163
 40
0.8279352553125168
 40
0.8860544987007308
 40
0.9433983882311816
 40
1.0
 40
1.0
 40
1.0
 40
1.0
 10
1339.674982450111
 20
1593.530924453659
 30
0.0
 10
1339.670509064629
 20
1593.534244190746
 30
0.0
 10
1339.661607723179
 20
1593.540849951291
 30
0.0
 10
1339.647904555954
 20
1593.55033485784
 30
0.0
 10
1339.634047629566
 20
1593.559439689041
 30
0.0
 10
1339.620021012015
 20
1593.568136242196
 30
0.0
 10
1339.605846907065
 20
1593.576429305315
 30
0.0
 10
1339.591537337408
 20
1593.584315577236
 30
0.0
 10
1339.577106874689
 20
1593.591794492326
 30
0.0
 10
1339.562569259032
 20
1593.598865351026
 30
0.0
 10
1339.547938285035
 20
1593.60552805804
 30
0.0
 10
1339.53322750796
 20
1593.611782926872
 30
0.0
 10
1339.518450464233
 20
1593.617630662222
 30
0.0
 10
1339.503620014032
 20
1593.623072545583
 30
0.0
 10
1339.478018960931
 20
1593.631745079805
 30
0.0
 10
1339.441137348727
 20
1593.642138893057
 30
0.0
 10
1339.400366766589
 20
1593.650176032306
 30
0.0
 10
1339.367719718036
 20
1593.654623687777
 30
0.0
 10
1339.343404057901
 20
1593.6569663592
 30
0.0
 10
1339.319302730261
 20
1593.658416629032
 30
0.0
 10
1339.303305346901
 20
1593.658595268129
 30
0.0
 10
1339.295358761279
 20
1593.658684005821
 30
0.0
  0
SPLINE
  5
446
330
1F
100
AcDbEntity
  8
cuerpo
100
AcDbSpline
210
0.0
220
0.0
230
1.0
 70
     8
 71
     3
 72
    19
 73
    15
 74
     0
 42
0.000000001
 43
0.0000000001
 40
0.0
 40
0.0
 40
0.0
 40
0.0
 40
0.0617719469034203
 40
0.1267222657359466
 40
0.194886111338831
 40
0.2662998829879096
 40
0.341001304778033
 40
0.4190294928294129
 40
0.500425012263838
 40
0.5976765547832594
 40
0.7504834235244916
 40
0.8486333482753833
 40
0.9318717788358096
 40
1.0
 40
1.0
 40
1.0
 40
1.0
 10
1339.883238431307
 20
1593.29593215832
 30
0.0
 10
1339.879860733881
 20
1593.30155622903
 30
0.0
 10
1339.872931545272
 20
1593.313093747576
 30
0.0
 10
1339.861787912809
 20
1593.330460386963
 30
0.0
 10
1339.849695183386
 20
1593.348373369136
 30
0.0
 10
1339.836551138673
 20
1593.366758993704
 30
0.0
 10
1339.822298431197
 20
1593.385573662343
 30
0.0
 10
1339.80686595108
 20
1593.404757453371
 30
0.0
 10
1339.789334188598
 20
1593.425240643592
 30
0.0
 10
1339.765834423682
 20
1593.450875812215
 30
0.0
 10
1339.739820024885
 20
1593.476587000421
 30
0.0
 10
1339.71359839778
 20
1593.499988468256
 30
0.0
 10
1339.693383733808
 20
1593.516802206646
 30
0.0
 10
1339.68069399323
 20
1593.526541105303
 30
0.0
 10
1339.674982501016
 20
1593.530924460778
 30
0.0
  0
SPLINE
  5
447
330
1F
100
AcDbEntity
  8
cuerpo
100
AcDbSpline
210
0.0
220
0.0
230
1.0
 70
     8
 71
     3
 72
    20
 73
    16
 74
     0
 42
0.000000001
 43
0.0000000001
 40
0.0
 40
0.0
 40
0.0
 40
0.0
 40
0.0626139617134881
 40
0.1252375970756679
 40
0.1878927476151762
 40
0.2506020256051889
 40
0.3133888004376199
 40
0.3762771116871825
 40
0.4392915813880875
 40
0.5024573261496112
 40
0.6032443781189119
 40
0.7032695948096898
 40
0.8026532720153374
 40
0.9015205109985647
 40
1.0
 40
1.0
 40
1.0
 40
1.0
 10
1338.597366268202
 20
1593.337741771353
 30
0.0
 10
1338.601579726206
 20
1593.343673642103
 30
0.0
 10
1338.610007293177
 20
1593.355538300058
 30
0.0
 10
1338.623165018777
 20
1593.372916831654
 30
0.0
 10
1338.636699853175
 20
1593.389985649041
 30
0.0
 10
1338.650649010069
 20
1593.406713848718
 30
0.0
 10
1338.66500251791
 20
1593.423108583271
 30
0.0
 10
1338.679762983409
 20
1593.439167281375
 30
0.0
 10
1338.69492991468
 20
1593.454890301338
 30
0.0
 10
1338.713579341227
 20
1593.473318269596
 30
0.0
 10
1338.735927643122
 20
1593.494068690215
 30
0.0
 10
1338.762246810957
 20
1593.516682742981
 30
0.0
 10
1338.789297159929
 20
1593.538126123006
 30
0.0
 10
1338.817005811733
 20
1593.558513098365
 30
0.0
 10
1338.836125932241
 20
1593.571196136573
 30
0.0
 10
1338.845667208737
 20
1593.577525195759
 30
0.0
  0
ARC
  5
448
330
1F
100
AcDbEntity
  8
cuerpo
100
AcDbCircle
 10
1338.970277229795
 20
1593.688909577917
 30
0.0
 40
0.1671351188179684
100
AcDbArc
 50
221.7923762311857
 51
250.9534842791962
  0
ARC
  5
449
330
1F
100
AcDbEntity
  8
cuerpo
100
AcDbCircle
 10
1339.620440340065
 20
1593.688909452277
 30
0.0
 40
0.1671349998084014
100
AcDbArc
 50
289.0465295342756
 51
318.207645072122
  0
SPLINE
  5
44A
330
1F
100
AcDbEntity
  8
cuerpo
100
AcDbSpline
210
0.0
220
0.0
230
1.0
 70
     8
 71
     3
 72
    20
 73
    16
 74
     0
 42
0.000000001
 43
0.0000000001
 40
0.0
 40
0.0
 40
0.0
 40
0.0
 40
0.0615119332584348
 40
0.1231566639792113
 40
0.1849659943945947
 40
0.2469713152041302
 40
0.3092034928269554
 40
0.3716927540708573
 40
0.4344685688645681
 40
0.4975595316978574
 40
0.5985450838643064
 40
0.6991829347029296
 40
0.7995741090966093
 40
0.8998156949532154
 40
1.0
 40
1.0
 40
1.0
 40
1.0
 10
1339.745050313808
 20
1593.577525195759
 30
0.0
 10
1339.751027637828
 20
1593.573595660469
 30
0.0
 10
1339.762995190249
 20
1593.565728106458
 30
0.0
 10
1339.780568494487
 20
1593.55339752663
 30
0.0
 10
1339.797885074007
 20
1593.54066027276
 30
0.0
 10
1339.81491665621
 20
1593.527474145905
 30
0.0
 10
1339.831670836879
 20
1593.51384442785
 30
0.0
 10
1339.848145528532
 20
1593.499763970469
 30
0.0
 10
1339.864341376163
 20
1593.48522931215
 30
0.0
 10
1339.883415206007
 20
1593.467262421629
 30
0.0
 10
1339.905015515509
 20
1593.445610352067
 30
0.0
 10
1339.928709374143
 20
1593.419966904825
 30
0.0
 10
1339.951341867169
 20
1593.393447427884
 30
0.0
 10
1339.973008383752
 20
1593.36613116483
 30
0.0
 10
1339.98657158958
 20
1593.347203099327
 30
0.0
 10
1339.993351254342
 20
1593.337741771353
 30
0.0
  0
LINE
  5
44B
330
1F
100
AcDbEntity
  8
cuerpo
100
AcDbLine
 10
1338.845667188115
 20
1593.577525173917
 30
0.0
 11
1334.79535858246
 21
1593.577525173917
 31
0.0
  0
SPLINE
  5
44C
330
1F
100
AcDbEntity
  8
cuerpo
100
AcDbSpline
210
0.0
220
0.0
230
1.0
 70
    24
 71
     3
 72
     9
 73
     5
 74
     0
 42
0.000000001
 43
0.0000000001
 40
0.0
 40
0.0
 40
0.0
 40
0.0
 40
0.5
 40
1.0
 40
1.0
 40
1.0
 40
1.0
 10
1334.795358761272
 20
1593.577525195759
 30
0.0
 10
1334.795358761272
 20
1593.505698292617
 30
0.0
 10
1334.795358761272
 20
1593.352015977148
 30
0.0
 10
1334.795358761272
 20
1593.187409606746
 30
0.0
 10
1334.795358761272
 20
1593.104592868994
 30
0.0
  0
LINE
  5
44D
330
1F
100
AcDbEntity
  8
cuerpo
100
AcDbLine
 10
1343.795358940085
 20
1593.577525173917
 30
0.0
 11
1339.74505033443
 21
1593.577525173917
 31
0.0
  0
SPLINE
  5
44E
330
1F
100
AcDbEntity
  8
cuerpo
100
AcDbSpline
210
0.0
220
0.0
230
1.0
 70
    24
 71
     3
 72
     9
 73
     5
 74
     0
 42
0.000000001
 43
0.0000000001
 40
0.0
 40
0.0
 40
0.0
 40
0.0
 40
0.5
 40
1.0
 40
1.0
 40
1.0
 40
1.0
 10
1343.795358761272
 20
1593.577525195751
 30
0.0
 10
1343.795358761272
 20
1593.50569826252
 30
0.0
 10
1343.795358761272
 20
1593.352015878497
 30
0.0
 10
1343.795358761272
 20
1593.187409434135
 30
0.0
 10
1343.795358761272
 20
1593.104592660829
 30
0.0
  0
CIRCLE
  5
44F
330
1F
100
AcDbEntity
  8
cuerpo
100
AcDbCircle
 10
1339.29535876127
 20
1592.810198260142
 30
0.0
 40
0.475
  0
CIRCLE
  5
450
330
1F
100
AcDbEntity
  8
cuerpo
100
AcDbCircle
 10
1339.29535876127
 20
1592.810198260142
 30
0.0
 40
0.45
  0
SPLINE
  5
451
330
1F
100
AcDbEntity
  8
cuerpo
100
AcDbSpline
210
0.0
220
0.0
230
1.0
 70
     8
 71
     3
 72
    27
 73
    23
 74
     0
 42
0.000000001
 43
0.0000000001
 40
0.0
 40
0.0
 40
0.0
 40
0.0
 40
0.0414386806592937
 40
0.0825591354448331
 40
0.1233879648918296
 40
0.1639523432490672
 40
0.2042799793595715
 40
0.2443990725979369
 40
0.2843382640711142
 40
0.3241265833878247
 40
0.3637933913993253
 40
0.4033683194074582
 40
0.4428812054211593
 40
0.4823620281161026
 40
0.5218408392109473
 40
0.5912936448329039
 40
0.6600689236602491
 40
0.7283412512361892
 40
0.7962890798500132
 40
0.8640934239576795
 40
0.9319364465336743
 40
1.0
 40
1.0
 40
1.0
 40
1.0
 10
1338.845667208737
 20
1593.57752519576
 30
0.0
 10
1338.85087391076
 20
1593.581197731741
 30
0.0
 10
1338.86124733025
 20
1593.588514600684
 30
0.0
 10
1338.877158831834
 20
1593.599029708156
 30
0.0
 10
1338.893247863079
 20
1593.609149399206
 30
0.0
 10
1338.909543721823
 20
1593.618844661277
 30
0.0
 10
1338.926038629791
 20
1593.628123156848
 30
0.0
 10
1338.942734638557
 20
1593.636982821104
 30
0.0
 10
1338.959631185517
 20
1593.645424172412
 30
0.0
 10
1338.976728399734
 20
1593.65344704386
 30
0.0
 10
1338.994026218256
 20
1593.661051452508
 30
0.0
 10
1339.011524640473
 20
1593.668237368637
 30
0.0
 10
1339.029223590067
 20
1593.67500477744
 30
0.0
 10
1339.047123215324
 20
1593.681353663776
 30
0.0
 10
1339.069798047357
 20
1593.68878308693
 30
0.0
 10
1339.097340452481
 20
1593.696805019706
 30
0.0
 10
1339.12985834437
 20
1593.704769602189
 30
0.0
 10
1339.162575742661
 20
1593.711283305023
 30
0.0
 10
1339.195491699554
 20
1593.716355023624
 30
0.0
 10
1339.228605630952
 20
1593.719949603332
 30
0.0
 10
1339.261916862122
 20
1593.72219741821
 30
0.0
 10
1339.284199409183
 20
1593.722471620629
 30
0.0
 10
1339.295358761272
 20
1593.722608944308
 30
0.0
  0
SPLINE
  5
452
330
1F
100
AcDbEntity
  8
cuerpo
100
AcDbSpline
210
0.0
220
0.0
230
1.0
 70
     8
 71
     3
 72
    10
 73
     6
 74
     0
 42
0.000000001
 43
0.0000000001
 40
0.0
 40
0.0
 40
0.0
 40
0.0
 40
0.5
 40
0.5
 40
1.0
 40
1.0
 40
1.0
 40
1.0
 10
1339.295358863516
 20
1593.658683636658
 30
0.0
 10
1339.295358844179
 20
1593.664474185507
 30
0.0
 10
1339.295358824963
 20
1593.673035756062
 30
0.0
 10
1339.295358789936
 20
1593.694884971709
 30
0.0
 10
1339.295358774175
 20
1593.70814601305
 30
0.0
 10
1339.29535876127
 20
1593.722609074159
 30
0.0
  0
SPLINE
  5
453
330
1F
100
AcDbEntity
  8
cuerpo
100
AcDbSpline
210
0.0
220
0.0
230
1.0
 70
     8
 71
     3
 72
    27
 73
    23
 74
     0
 42
0.000000001
 43
0.0000000001
 40
0.0
 40
0.0
 40
0.0
 40
0.0
 40
0.0366832400392323
 40
0.0732796066069486
 40
0.1098173395678797
 40
0.1463248148527096
 40
0.1828304789502608
 40
0.2193627825802881
 40
0.2559501143170069
 40
0.2926207349347562
 40
0.3294027132278337
 40
0.3663238640169958
 40
0.4034116889980148
 40
0.4406933210147549
 40
0.4781954722546934
 40
0.5514946310561585
 40
0.6248939069839891
 40
0.6985851733160283
 40
0.7727580373679968
 40
0.8475984461782552
 40
0.9232874270226572
 40
1.0
 40
1.0
 40
1.0
 40
1.0
 10
1339.295358761272
 20
1593.722608944308
 30
0.0
 10
1339.30137266154
 20
1593.722569360394
 30
0.0
 10
1339.31338621992
 20
1593.72249028631
 30
0.0
 10
1339.331376142368
 20
1593.721839997058
 30
0.0
 10
1339.34930962302
 20
1593.720800095922
 30
0.0
 10
1339.367186638588
 20
1593.719332679926
 30
0.0
 10
1339.385007153911
 20
1593.717447885523
 30
0.0
 10
1339.402771137409
 20
1593.715143003766
 30
0.0
 10
1339.420478557305
 20
1593.712418769437
 30
0.0
 10
1339.438129384271
 20
1593.709274997212
 30
0.0
 10
1339.455723587465
 20
1593.705711753914
 30
0.0
 10
1339.473261150391
 20
1593.701729034915
 30
0.0
 10
1339.490742013395
 20
1593.697326882865
 30
0.0
 10
1339.50816629116
 20
1593.692505234558
 30
0.0
 10
1339.53101992261
 20
1593.685608787257
 30
0.0
 10
1339.559042031725
 20
1593.676106409189
 30
0.0
 10
1339.591831242415
 20
1593.663305970111
 30
0.0
 10
1339.623927434983
 20
1593.649056991567
 30
0.0
 10
1339.655336460713
 20
1593.633366893781
 30
0.0
 10
1339.68603185938
 20
1593.616210224592
 30
0.0
 10
1339.716112783874
 20
1593.597685818935
 30
0.0
 10
1339.735361376649
 20
1593.584275426739
 30
0.0
 10
1339.745050313808
 20
1593.57752519576
 30
0.0
  0
CIRCLE
  5
454
330
1F
100
AcDbEntity
  8
cuerpo
100
AcDbCircle
 10
1339.29535876127
 20
1592.810198260142
 30
0.0
 40
0.4000000000000015
  0
CIRCLE
  5
455
330
1F
100
AcDbEntity
  8
cuerpo
100
AcDbCircle
 10
1339.29535876127
 20
1592.810198260142
 30
0.0
 40
0.375
  0
LINE
  5
456
330
1F
100
AcDbEntity
  8
cuerpo
100
AcDbLine
 10
1334.92021503957
 20
1593.982906141922
 30
0.0
 11
1334.79535858246
 21
1593.982906141922
 31
0.0
  0
SPLINE
  5
457
330
1F
100
AcDbEntity
  8
cuerpo
100
AcDbSpline
210
0.0
220
0.0
230
1.0
 70
     8
 71
     3
 72
    33
 73
    29
 74
     0
 42
0.000000001
 43
0.0000000001
 40
0.0
 40
0.0
 40
0.0
 40
0.0
 40
0.0170077138987173
 40
0.033791608071279
 40
0.0503575151453768
 40
0.066711500984807
 40
0.0828598702690926
 40
0.0988091715172291
 40
0.1145662014443027
 40
0.1301380085327024
 40
0.1455318956938687
 40
0.2122085298152087
 40
0.2751150973559724
 40
0.3346465456512265
 40
0.3914270277690011
 40
0.446222847647598
 40
0.5000025376134813
 40
0.5537660800296563
 40
0.6085780638531845
 40
0.6653424903660016
 40
0.7248900126472594
 40
0.7877794699489728
 40
0.8544732173089439
 40
0.8823034470070837
 40
0.9107316991437432
 40
0.9397988223790816
 40
0.9695430333444074
 40
1.0
 40
1.0
 40
1.0
 40
1.0
 10
1336.170501320939
 20
1593.982906320464
 30
0.0
 10
1336.16572430061
 20
1593.97647606921
 30
0.0
 10
1336.156233125037
 20
1593.963700188131
 30
0.0
 10
1336.141568016215
 20
1593.944940775795
 30
0.0
 10
1336.126708486792
 20
1593.926643047364
 30
0.0
 10
1336.111618246266
 20
1593.908825862491
 30
0.0
 10
1336.096306819549
 20
1593.891484284529
 30
0.0
 10
1336.080771639797
 20
1593.874619584826
 30
0.0
 10
1336.065013509367
 20
1593.858231578141
 30
0.0
 10
1336.049031646131
 20
1593.842319829735
 30
0.0
 10
1336.014778253786
 20
1593.809693912092
 30
0.0
 10
1335.960442339718
 20
1593.763806740374
 30
0.0
 10
1335.881886547848
 20
1593.711146522613
 30
0.0
 10
1335.800470892743
 20
1593.669552606462
 30
0.0
 10
1335.716757435252
 20
1593.639548506614
 30
0.0
 10
1335.631476065478
 20
1593.621337991542
 30
0.0
 10
1335.545367313057
 20
1593.61528558548
 30
0.0
 10
1335.459250067072
 20
1593.621336537036
 30
0.0
 10
1335.373976290772
 20
1593.639544003165
 30
0.0
 10
1335.290254121335
 20
1593.669549016037
 30
0.0
 10
1335.208845692801
 20
1593.71113796793
 30
0.0
 10
1335.130280887028
 20
1593.763802251142
 30
0.0
 10
1335.071287391289
 20
1593.813622184193
 30
0.0
 10
1335.028594263108
 20
1593.855038861599
 30
0.0
 10
1335.000302215543
 20
1593.884725897016
 30
0.0
 10
1334.972757522256
 20
1593.915970499176
 30
0.0
 10
1334.945844730551
 20
1593.948714975404
 30
0.0
 10
1334.928825479926
 20
1593.971419469243
 30
0.0
 10
1334.92021510436
 20
1593.982906121816
 30
0.0
  0
LINE
  5
458
330
1F
100
AcDbEntity
  8
cuerpo
100
AcDbLine
 10
1342.42021626892
 20
1593.982906328187
 30
0.0
 11
1336.170501253625
 21
1593.982906328187
 31
0.0
  0
SPLINE
  5
459
330
1F
100
AcDbEntity
  8
cuerpo
100
AcDbSpline
210
0.0
220
0.0
230
1.0
 70
     8
 71
     3
 72
    33
 73
    29
 74
     0
 42
0.000000001
 43
0.0000000001
 40
0.0
 40
0.0
 40
0.0
 40
0.0
 40
0.0170073169438334
 40
0.0337909206893563
 40
0.0503566444842971
 40
0.0667105547237056
 40
0.0828589565174357
 40
0.0988083987010879
 40
0.1145656781792334
 40
0.1301378434827457
 40
0.1455321974163216
 40
0.2122092446710268
 40
0.2751153901243035
 40
0.3346467596558492
 40
0.3914273229276071
 40
0.4462231548324649
 40
0.5000028322235676
 40
0.5537663871816365
 40
0.6085783589621371
 40
0.6653427043109294
 40
0.7248903053135658
 40
0.7877801846154423
 40
0.8544735188678163
 40
0.8823029861966505
 40
0.9107308281022543
 40
0.9397978928073802
 40
0.9695423951110432
 40
1.0
 40
1.0
 40
1.0
 40
1.0
 10
1343.670502418184
 20
1593.982906121816
 30
0.0
 10
1343.665725506056
 20
1593.976476022336
 30
0.0
 10
1343.656234517009
 20
1593.963700404508
 30
0.0
 10
1343.641569615243
 20
1593.944941341942
 30
0.0
 10
1343.626710184199
 20
1593.926643853481
 30
0.0
 10
1343.611619930775
 20
1593.908826800149
 30
0.0
 10
1343.596308380679
 20
1593.891485244897
 30
0.0
 10
1343.58077296682
 20
1593.874620459226
 30
0.0
 10
1343.565014491766
 20
1593.85823225777
 30
0.0
 10
1343.549032172919
 20
1593.842320206156
 30
0.0
 10
1343.514778190446
 20
1593.809693990868
 30
0.0
 10
1343.460442063929
 20
1593.763806724057
 30
0.0
 10
1343.381886408572
 20
1593.711146427561
 30
0.0
 10
1343.300470945535
 20
1593.669552595748
 30
0.0
 10
1343.216757468437
 20
1593.639548518772
 30
0.0
 10
1343.131476058293
 20
1593.621337995655
 30
0.0
 10
1343.045367299855
 20
1593.61528558548
 30
0.0
 10
1342.959250059893
 20
1593.621336532927
 30
0.0
 10
1342.873976323947
 20
1593.639543991001
 30
0.0
 10
1342.790254174138
 20
1593.669549026766
 30
0.0
 10
1342.708845553444
 20
1593.71113806289
 30
0.0
 10
1342.630280611732
 20
1593.763802267848
 30
0.0
 10
1342.571287440924
 20
1593.813622015059
 30
0.0
 10
1342.528595081287
 20
1593.855038318453
 30
0.0
 10
1342.500303621904
 20
1593.884725046976
 30
0.0
 10
1342.472759154824
 20
1593.915969691607
 30
0.0
 10
1342.445846238391
 20
1593.948714566019
 30
0.0
 10
1342.42882674664
 20
1593.97141942156
 30
0.0
 10
1342.420216201605
 20
1593.982906320464
 30
0.0
  0
LINE
  5
45A
330
1F
100
AcDbEntity
  8
cuerpo
100
AcDbLine
 10
1343.795358940085
 20
1593.982906328187
 30
0.0
 11
1343.67050248297
 21
1593.982906141922
 31
0.0
  0
LINE
  5
45B
330
1F
100
AcDbEntity
  8
cuerpo
100
AcDbLine
 10
1334.79535858246
 20
1593.577525173917
 30
0.0
 11
1334.79535858246
 21
1593.982906141922
 31
0.0
  0
LINE
  5
45C
330
1F
100
AcDbEntity
  8
cuerpo
100
AcDbLine
 10
1343.795358940085
 20
1593.577525173917
 30
0.0
 11
1343.795358940085
 21
1593.982906328187
 31
0.0
  0
SPLINE
  5
45D
330
1F
100
AcDbEntity
  8
cuerpo
100
AcDbSpline
210
0.0
220
0.0
230
1.0
 70
     8
 71
     3
 72
     9
 73
     5
 74
     0
 42
0.000000001
 43
0.0000000001
 40
0.0000004595709771
 40
0.0000004595709771
 40
0.0000004595709771
 40
0.0000004595709771
 40
0.5000076532157001
 40
1.000008651280464
 40
1.000008651280464
 40
1.000008651280464
 40
1.000008651280464
 10
1343.565214377356
 20
1594.069331645857
 30
0.0
 10
1343.577518044664
 20
1594.053394005099
 30
0.0
 10
1343.610207072965
 20
1594.019837836378
 30
0.0
 10
1343.65108668479
 20
1593.993005185791
 30
0.0
 10
1343.670502557686
 20
1593.982906049256
 30
0.0
  0
SPLINE
  5
45E
330
1F
100
AcDbEntity
  8
cuerpo
100
AcDbSpline
210
0.0
220
0.0
230
1.0
 70
     8
 71
     3
 72
    11
 73
     7
 74
     0
 42
0.000000001
 43
0.0000000001
 40
-0.0000016184852761
 40
-0.0000016184852761
 40
-0.0000016184852761
 40
-0.0000016184852761
 40
0.2499983757456486
 40
0.4999987451327484
 40
0.7499991145197487
 40
1.000000010695325
 40
1.000000010695325
 40
1.000000010695325
 40
1.000000010695325
 10
1342.420216210038
 20
1593.982906308973
 30
0.0
 10
1342.429899356078
 20
1593.987938971318
 30
0.0
 10
1342.449827886002
 20
1593.999643230777
 30
0.0
 10
1342.478960145203
 20
1594.021111161507
 30
0.0
 10
1342.505114188219
 20
1594.045025160815
 30
0.0
 10
1342.519370796918
 20
1594.061382206526
 30
0.0
 10
1342.525503497051
 20
1594.069331519302
 30
0.0
  0
SPLINE
  5
45F
330
1F
100
AcDbEntity
  8
cuerpo
100
AcDbSpline
210
0.0
220
0.0
230
1.0
 70
     8
 71
     3
 72
    31
 73
    27
 74
     0
 42
0.000000001
 43
0.0000000001
 40
0.0
 40
0.0
 40
0.0
 40
0.0
 40
0.0204179090747261
 40
0.0404006348856099
 40
0.0599519631617501
 40
0.0790759358294799
 40
0.097776871917383
 40
0.1160593902693867
 40
0.1339284341947103
 40
0.1513892981805399
 40
0.2198894226287259
 40
0.2825991428127883
 40
0.3416153630424515
 40
0.3964992527492488
 40
0.4490227435878654
 40
0.5000044173859374
 40
0.5509849463342335
 40
0.6035095820782878
 40
0.6583922401105628
 40
0.7174096933704826
 40
0.7801178131845214
 40
0.8486195363423178
 40
0.8839466247059107
 40
0.9209276819790463
 40
0.9596009847941616
 40
1.0
 40
1.0
 40
1.0
 40
1.0
 10
1342.525503497051
 20
1594.069331519302
 30
0.0
 10
1342.530049110657
 20
1594.061986382523
 30
0.0
 10
1342.539043453563
 20
1594.047452661754
 30
0.0
 10
1342.55299814954
 20
1594.026185425288
 30
0.0
 10
1342.56709725373
 20
1594.005610799242
 30
0.0
 10
1342.581371341041
 20
1593.985748713133
 30
0.0
 10
1342.595798484137
 20
1593.966593925619
 30
0.0
 10
1342.610370409449
 20
1593.94814798387
 30
0.0
 10
1342.625075982977
 20
1593.930409727154
 30
0.0
 10
1342.654462611555
 20
1593.89666214867
 30
0.0
 10
1342.699854432402
 20
1593.850567131933
 30
0.0
 10
1342.765192973659
 20
1593.797787963586
 30
0.0
 10
1342.832734367839
 20
1593.756256913944
 30
0.0
 10
1342.902454116146
 20
1593.726085746533
 30
0.0
 10
1342.973485796155
 20
1593.707827669036
 30
0.0
 10
1343.045358228729
 20
1593.701688088327
 30
0.0
 10
1343.11723119345
 20
1593.707827577805
 30
0.0
 10
1343.188262351875
 20
1593.7260853889
 30
0.0
 10
1343.257982760787
 20
1593.756256675687
 30
0.0
 10
1343.325523102948
 20
1593.79778705481
 30
0.0
 10
1343.390864272408
 20
1593.85056745822
 30
0.0
 10
1343.441703709257
 20
1593.902198495017
 30
0.0
 10
1343.480920121979
 20
1593.948410991664
 30
0.0
 10
1343.509885420233
 20
1593.986058469966
 30
0.0
 10
1343.538352222129
 20
1594.026475342459
 30
0.0
 10
1343.556130843966
 20
1594.054839668057
 30
0.0
 10
1343.565214159491
 20
1594.069331349215
 30
0.0
  0
SPLINE
  5
460
330
1F
100
AcDbEntity
  8
cuerpo
100
AcDbSpline
210
0.0
220
0.0
230
1.0
 70
     8
 71
     3
 72
    11
 73
     7
 74
     0
 42
0.000000001
 43
0.0000000001
 40
-0.0000010193205197
 40
-0.0000010193205197
 40
-0.0000010193205197
 40
-0.0000010193205197
 40
0.2499992776904
 40
0.4999996470774001
 40
0.7500000164644
 40
0.9999999991856311
 40
0.9999999991856311
 40
0.9999999991856311
 40
0.9999999991856311
 10
1336.065214077715
 20
1594.069331475455
 30
0.0
 10
1336.071346774687
 20
1594.061382189608
 30
0.0
 10
1336.085603379207
 20
1594.045025175725
 30
0.0
 10
1336.111757404549
 20
1594.021111198563
 30
0.0
 10
1336.140889658953
 20
1593.999643260825
 30
0.0
 10
1336.160818180698
 20
1593.987938990291
 30
0.0
 10
1336.170501320939
 20
1593.982906320464
 30
0.0
  0
SPLINE
  5
461
330
1F
100
AcDbEntity
  8
cuerpo
100
AcDbSpline
210
0.0
220
0.0
230
1.0
 70
     8
 71
     3
 72
     9
 73
     5
 74
     0
 42
0.000000001
 43
0.0000000001
 40
0.0000001820548034
 40
0.0000001820548034
 40
0.0000001820548034
 40
0.0000001820548034
 40
0.5000002602705375
 40
1.000007731430833
 40
1.000007731430833
 40
1.000007731430833
 40
1.000007731430833
 10
1334.920215309279
 20
1593.982905842806
 30
0.0
 10
1334.93963114071
 20
1593.99300497051
 30
0.0
 10
1334.980510696354
 20
1594.019837593806
 30
0.0
 10
1335.01319969234
 20
1594.05339371353
 30
0.0
 10
1335.025503363053
 20
1594.069331349215
 30
0.0
  0
SPLINE
  5
462
330
1F
100
AcDbEntity
  8
cuerpo
100
AcDbSpline
210
0.0
220
0.0
230
1.0
 70
     8
 71
     3
 72
    31
 73
    27
 74
     0
 42
0.000000001
 43
0.0000000001
 40
0.0
 40
0.0
 40
0.0
 40
0.0
 40
0.020417718111711
 40
0.0404003071874866
 40
0.0599515531101542
 40
0.0790754979382545
 40
0.097776460805894
 40
0.1160590606298016
 40
0.1339282407522246
 40
0.1513892956454029
 40
0.2198895649733988
 40
0.2825991382291204
 40
0.3416153323237228
 40
0.3964992489940591
 40
0.4490227442332964
 40
0.500004413437524
 40
0.5509849448926821
 40
0.6035095783820772
 40
0.6583922185957489
 40
0.7174096892225279
 40
0.7801179072006434
 40
0.8486195336873723
 40
0.8839464037762724
 40
0.9209273889777536
 40
0.9596007656465728
 40
1.0
 40
1.0
 40
1.0
 40
1.0
 10
1335.025503363053
 20
1594.069331349215
 30
0.0
 10
1335.030048933695
 20
1594.061986281856
 30
0.0
 10
1335.039043202753
 20
1594.047452680403
 30
0.0
 10
1335.052997807095
 20
1594.026185599935
 30
0.0
 10
1335.067096859139
 20
1594.005611075814
 30
0.0
 10
1335.081370936314
 20
1593.985749038121
 30
0.0
 10
1335.095798113352
 20
1593.966594245369
 30
0.0
 10
1335.110370118685
 20
1593.948148244736
 30
0.0
 10
1335.125075820281
 20
1593.930409875648
 30
0.0
 10
1335.154462612653
 20
1593.896662182812
 30
0.0
 10
1335.199854505297
 20
1593.850567124142
 30
0.0
 10
1335.265193016671
 20
1593.79778793068
 30
0.0
 10
1335.332734352504
 20
1593.756256909367
 30
0.0
 10
1335.402454106712
 20
1593.726085750546
 30
0.0
 10
1335.473485798626
 20
1593.707827671493
 30
0.0
 10
1335.545358231939
 20
1593.701688088248
 30
0.0
 10
1335.617231194873
 20
1593.707827575841
 30
0.0
 10
1335.688262345357
 20
1593.726085386174
 30
0.0
 10
1335.757982750563
 20
1593.756256678845
 30
0.0
 10
1335.825523131739
 20
1593.797787076784
 30
0.0
 10
1335.890864321024
 20
1593.850567463496
 30
0.0
 10
1335.941703681423
 20
1593.902198445035
 30
0.0
 10
1335.980919955903
 20
1593.948410855079
 30
0.0
 10
1336.00988517679
 20
1593.986058292126
 30
0.0
 10
1336.038352018543
 20
1594.026475267327
 30
0.0
 10
1336.056130705887
 20
1594.054839701892
 30
0.0
 10
1336.065214070496
 20
1594.069331463635
 30
0.0
  0
LINE
  5
463
330
1F
100
AcDbEntity
  8
cuerpo
100
AcDbLine
 10
1343.835358872135
 20
1594.605198284282
 30
0.0
 11
1342.255358762165
 21
1594.605198284282
 31
0.0
  0
SPLINE
  5
464
330
1F
100
AcDbEntity
  8
cuerpo
100
AcDbSpline
210
0.0
220
0.0
230
1.0
 70
     8
 71
     3
 72
    20
 73
    16
 74
     0
 42
0.000000001
 43
0.0000000001
 40
0.0
 40
0.0
 40
0.0
 40
0.0
 40
0.0507907340000854
 40
0.1011704027986586
 40
0.1512024773789111
 40
0.2009517590792489
 40
0.2504841590876619
 40
0.2998664569585587
 40
0.3491660421529829
 40
0.3984506433571717
 40
0.4477880508963398
 40
0.6646431457840361
 40
0.8829959025496144
 40
0.9414107266089848
 40
1.0
 40
1.0
 40
1.0
 40
1.0
 10
1343.669043606581
 20
1594.228664696956
 30
0.0
 10
1343.671335737083
 20
1594.231958318095
 30
0.0
 10
1343.675901447162
 20
1594.238518904073
 30
0.0
 10
1343.682818260505
 20
1594.247819410064
 30
0.0
 10
1343.689733143826
 20
1594.256665654798
 30
0.0
 10
1343.696643437678
 20
1594.265023088232
 30
0.0
 10
1343.703536254367
 20
1594.272900783652
 30
0.0
 10
1343.710401019591
 20
1594.280296278073
 30
0.0
 10
1343.717225946983
 20
1594.287210049026
 30
0.0
 10
1343.723999700026
 20
1594.293642311851
 30
0.0
 10
1343.73829195273
 20
1594.306316696216
 30
0.0
 10
1343.759475599431
 20
1594.321459918723
 30
0.0
 10
1343.778434350391
 20
1594.328915982812
 30
0.0
 10
1343.789828974044
 20
1594.330818275421
 30
0.0
 10
1343.793513044371
 20
1594.330905418497
 30
0.0
 10
1343.795357825949
 20
1594.330949054999
 30
0.0
  0
SPLINE
  5
465
330
1F
100
AcDbEntity
  8
cuerpo
100
AcDbSpline
210
0.0
220
0.0
230
1.0
 70
     8
 71
     3
 72
    16
 73
    12
 74
     0
 42
0.000000001
 43
0.0000000001
 40
0.0
 40
0.0
 40
0.0
 40
0.0
 40
0.11251450593837
 40
0.2245979688561603
 40
0.336284255646977
 40
0.4476075956018314
 40
0.5586025537025358
 40
0.6693040024346458
 40
0.7797470922150867
 40
0.8899672205435514
 40
1.0
 40
1.0
 40
1.0
 40
1.0
 10
1343.565214159491
 20
1594.069331349215
 30
0.0
 10
1343.569133650851
 20
1594.075715830768
 30
0.0
 10
1343.576957618
 20
1594.088460334926
 30
0.0
 10
1343.588711624202
 20
1594.107196113363
 30
0.0
 10
1343.600428584784
 20
1594.125602968218
 30
0.0
 10
1343.612096232693
 20
1594.143656883686
 30
0.0
 10
1343.623696160453
 20
1594.161363714231
 30
0.0
 10
1343.6352120006
 20
1594.178723889489
 30
0.0
 10
1343.646621882358
 20
1594.195729848779
 30
0.0
 10
1343.657920396392
 20
1594.212411268558
 30
0.0
 10
1343.665337973001
 20
1594.223249960649
 30
0.0
 10
1343.669043606581
 20
1594.228664696956
 30
0.0
  0
SPLINE
  5
466
330
1F
100
AcDbEntity
  8
cuerpo
100
AcDbSpline
210
0.0
220
0.0
230
1.0
 70
     8
 71
     3
 72
    19
 73
    15
 74
     0
 42
0.000000001
 43
0.0000000001
 40
0.0
 40
0.0
 40
0.0
 40
0.0
 40
0.000001418555125
 40
0.1146919675939224
 40
0.2322041201151798
 40
0.3551021260654249
 40
0.4856332092136141
 40
0.6087536194651852
 40
0.7386939352474986
 40
0.790481437171025
 40
0.8424571830287529
 40
0.8946701277821908
 40
0.9471685634958619
 40
1.0
 40
1.0
 40
1.0
 40
1.0
 10
1342.255358761273
 20
1594.460198465915
 30
0.0
 10
1342.255358761273
 20
1594.460198465966
 30
0.0
 10
1342.255358731627
 20
1594.460202588303
 30
0.0
 10
1342.259032767495
 20
1594.455278390516
 30
0.0
 10
1342.275395777933
 20
1594.433249031049
 30
0.0
 10
1342.302340602644
 20
1594.396663997588
 30
0.0
 10
1342.337834733319
 20
1594.347837998487
 30
0.0
 10
1342.379901349096
 20
1594.288989346046
 30
0.0
 10
1342.41650459788
 20
1594.236385595468
 30
0.0
 10
1342.445587372898
 20
1594.193571622486
 30
0.0
 10
1342.465284081532
 20
1594.164070875731
 30
0.0
 10
1342.485236236994
 20
1594.133527148201
 30
0.0
 10
1342.505368684703
 20
1594.102009833661
 30
0.0
 10
1342.518777761986
 20
1594.080247224945
 30
0.0
 10
1342.525503497051
 20
1594.069331519302
 30
0.0
  0
SPLINE
  5
467
330
1F
100
AcDbEntity
  8
cuerpo
100
AcDbSpline
210
0.0
220
0.0
230
1.0
 70
     8
 71
     3
 72
    10
 73
     6
 74
     0
 42
0.000000001
 43
0.0000000001
 40
0.0
 40
0.0
 40
0.0
 40
0.0
 40
0.4729716274099547
 40
0.9594180336323672
 40
1.0
 40
1.0
 40
1.0
 40
1.0
 10
1343.795358940086
 20
1594.41613253732
 30
0.0
 10
1343.805790105419
 20
1594.421059038589
 30
0.0
 10
1343.826949615951
 20
1594.431052395244
 30
0.0
 10
1343.838136780188
 20
1594.436542832038
 30
0.0
 10
1343.834838366992
 20
1594.434946366545
 30
0.0
 10
1343.834584384284
 20
1594.434823436334
 30
0.0
  0
LINE
  5
468
330
1F
100
AcDbEntity
  8
cuerpo
100
AcDbLine
 10
1343.795358940085
 20
1594.330949024902
 30
0.0
 11
1343.795358940085
 21
1594.416132537322
 31
0.0
  0
LINE
  5
469
330
1F
100
AcDbEntity
  8
cuerpo
100
AcDbLine
 10
1336.33535876038
 20
1594.605198284282
 30
0.0
 11
1334.755358650405
 21
1594.605198284282
 31
0.0
  0
SPLINE
  5
46A
330
1F
100
AcDbEntity
  8
cuerpo
100
AcDbSpline
210
0.0
220
0.0
230
1.0
 70
     8
 71
     3
 72
    10
 73
     6
 74
     0
 42
0.000000001
 43
0.0000000001
 40
0.0
 40
0.0
 40
0.0
 40
0.0
 40
0.4729716274099547
 40
0.9594180336323672
 40
1.0
 40
1.0
 40
1.0
 40
1.0
 10
1334.795358582458
 20
1594.41613253732
 30
0.0
 10
1334.784927417126
 20
1594.421059038589
 30
0.0
 10
1334.763767906593
 20
1594.431052395244
 30
0.0
 10
1334.752580742356
 20
1594.436542832038
 30
0.0
 10
1334.755879155552
 20
1594.434946366545
 30
0.0
 10
1334.756133138261
 20
1594.434823436334
 30
0.0
  0
SPLINE
  5
46B
330
1F
100
AcDbEntity
  8
cuerpo
100
AcDbSpline
210
0.0
220
0.0
230
1.0
 70
     8
 71
     3
 72
    26
 73
    22
 74
     0
 42
0.000000001
 43
0.0000000001
 40
0.0
 40
0.0
 40
0.0
 40
0.0
 40
0.0292869888508247
 40
0.0584620393276057
 40
0.0875331019736347
 40
0.1165082129149129
 40
0.1453954883376314
 40
0.1742031186493102
 40
0.2029393623401934
 40
0.2316125395641703
 40
0.260231025461102
 40
0.3904213893902951
 40
0.5138710197212899
 40
0.6583896085072201
 40
0.7941501028950887
 40
0.8290904835580205
 40
0.8636856985958369
 40
0.8980038746638834
 40
0.9321147983723472
 40
0.9660895334902884
 40
1.0
 40
1.0
 40
1.0
 40
1.0
 10
1336.065214070496
 20
1594.069331463635
 30
0.0
 10
1336.068939866891
 20
1594.075402255613
 30
0.0
 10
1336.076377219242
 20
1594.087520636278
 30
0.0
 10
1336.087549188782
 20
1594.105352740186
 30
0.0
 10
1336.098687300965
 20
1594.122884816049
 30
0.0
 10
1336.109781308495
 20
1594.14009504449
 30
0.0
 10
1336.120815784975
 20
1594.156989224169
 30
0.0
 10
1336.131776134587
 20
1594.173565839317
 30
0.0
 10
1336.142646809268
 20
1594.189825147033
 30
0.0
 10
1336.15341246142
 20
1594.205767592783
 30
0.0
 10
1336.176650508809
 20
1594.239881226578
 30
0.0
 10
1336.210572963952
 20
1594.288625964903
 30
0.0
 10
1336.254259653862
 20
1594.349774371293
 30
0.0
 10
1336.292021327946
 20
1594.401648183177
 30
0.0
 10
1336.313724422596
 20
1594.431028827144
 30
0.0
 10
1336.323780693721
 20
1594.444617979995
 30
0.0
 10
1336.327995912384
 20
1594.450298148986
 30
0.0
 10
1336.331285106978
 20
1594.454723364245
 30
0.0
 10
1336.333621288586
 20
1594.45786240858
 30
0.0
 10
1336.33508676024
 20
1594.459830505518
 30
0.0
 10
1336.335268151504
 20
1594.460075889886
 30
0.0
 10
1336.335358761271
 20
1594.460198465915
 30
0.0
  0
SPLINE
  5
46C
330
1F
100
AcDbEntity
  8
cuerpo
100
AcDbSpline
210
0.0
220
0.0
230
1.0
 70
     8
 71
     3
 72
    17
 73
    13
 74
     0
 42
0.000000001
 43
0.0000000001
 40
0.0
 40
0.0
 40
0.0
 40
0.0
 40
0.099021714088296
 40
0.1981922774906637
 40
0.2975376739598395
 40
0.3970837503955212
 40
0.4968561977860622
 40
0.5968805327428079
 40
0.6971820796878298
 40
0.7977859537500665
 40
0.8987170444191468
 40
1.0
 40
1.0
 40
1.0
 40
1.0
 10
1334.921673916425
 20
1594.228664697794
 30
0.0
 10
1334.925007456755
 20
1594.223794649731
 30
0.0
 10
1334.931679548387
 20
1594.214047232956
 30
0.0
 10
1334.94182877082
 20
1594.199083113041
 30
0.0
 10
1334.952071314744
 20
1594.183856143129
 30
0.0
 10
1334.962404189858
 20
1594.168342173295
 30
0.0
 10
1334.972811093178
 20
1594.152547789872
 30
0.0
 10
1334.98327970396
 20
1594.136470882515
 30
0.0
 10
1334.99379739256
 20
1594.120113318044
 30
0.0
 10
1335.004351044679
 20
1594.10346974933
 30
0.0
 10
1335.014932095027
 20
1594.086559808851
 30
0.0
 10
1335.021975521712
 20
1594.075080827139
 30
0.0
 10
1335.025503363053
 20
1594.069331349215
 30
0.0
  0
SPLINE
  5
46D
330
1F
100
AcDbEntity
  8
cuerpo
100
AcDbSpline
210
0.0
220
0.0
230
1.0
 70
     8
 71
     3
 72
    17
 73
    13
 74
     0
 42
0.000000001
 43
0.0000000001
 40
0.0
 40
0.0
 40
0.0
 40
0.0
 40
0.0390877293747825
 40
0.0780843172030973
 40
0.1170177578715834
 40
0.33537652842154
 40
0.5522497352258455
 40
0.6410054114954154
 40
0.7297669286279806
 40
0.8189287510846703
 40
0.9088800793553987
 40
1.0
 40
1.0
 40
1.0
 40
1.0
 10
1334.795359698187
 20
1594.330948954089
 30
0.0
 10
1334.796582394875
 20
1594.330935073237
 30
0.0
 10
1334.799024937266
 20
1594.330907343901
 30
0.0
 10
1334.80288439424
 20
1594.330475765804
 30
0.0
 10
1334.813010365243
 20
1594.328662496636
 30
0.0
 10
1334.831251737402
 20
1594.321441460305
 30
0.0
 10
1334.854144669791
 20
1594.305090514077
 30
0.0
 10
1334.8721115878
 20
1594.288714804447
 30
0.0
 10
1334.884439064093
 20
1594.276080450426
 30
0.0
 10
1334.896866333734
 20
1594.261858395166
 30
0.0
 10
1334.909353517711
 20
1594.246159249875
 30
0.0
 10
1334.917549485221
 20
1594.23452125148
 30
0.0
 10
1334.921673916425
 20
1594.228664697794
 30
0.0
  0
LINE
  5
46E
330
1F
100
AcDbEntity
  8
cuerpo
100
AcDbLine
 10
1334.79535858246
 20
1594.330948931767
 30
0.0
 11
1334.79535858246
 21
1594.416132537322
 31
0.0
  0
SPLINE
  5
46F
330
1F
100
AcDbEntity
  8
cuerpo
100
AcDbSpline
210
0.0
220
0.0
230
1.0
 70
     8
 71
     3
 72
    16
 73
    12
 74
     0
 42
0.000000001
 43
0.0000000001
 40
0.0
 40
0.0
 40
0.0
 40
0.0
 40
0.1130426379282797
 40
0.2142676200678478
 40
0.3036748920669886
 40
0.3812644488070441
 40
0.4470363590185367
 40
0.5009908168544103
 40
0.6807951364884005
 40
0.8471250644662415
 40
1.0
 40
1.0
 40
1.0
 40
1.0
 10
1334.92021510436
 20
1593.982906121816
 30
0.0
 10
1334.915428091258
 20
1593.988171345037
 30
0.0
 10
1334.906354506957
 20
1593.998151356734
 30
0.0
 10
1334.893510219005
 20
1594.011991914853
 30
0.0
 10
1334.88217893297
 20
1594.02403886472
 30
0.0
 10
1334.872361754581
 20
1594.034342552205
 30
0.0
 10
1334.864057075132
 20
1594.042969849916
 30
0.0
 10
1334.851493989308
 20
1594.055939807835
 30
0.0
 10
1334.834856268382
 20
1594.072928223073
 30
0.0
 10
1334.814343639709
 20
1594.093507859471
 30
0.0
 10
1334.801506238234
 20
1594.106177724
 30
0.0
 10
1334.795358095936
 20
1594.112245628799
 30
0.0
  0
SPLINE
  5
470
330
1F
100
AcDbEntity
  8
cuerpo
100
AcDbSpline
210
0.0
220
0.0
230
1.0
 70
     8
 71
     3
 72
    11
 73
     7
 74
     0
 42
0.000000001
 43
0.0000000001
 40
0.0
 40
0.0
 40
0.0
 40
0.0
 40
0.25
 40
0.5
 40
0.75
 40
1.0
 40
1.0
 40
1.0
 40
1.0
 10
1334.92167391718
 20
1594.228664699454
 30
0.0
 10
1334.916441744199
 20
1594.217199711449
 30
0.0
 10
1334.902369601427
 20
1594.193178980001
 30
0.0
 10
1334.871369543167
 20
1594.158609141766
 30
0.0
 10
1334.83386335829
 20
1594.130033725511
 30
0.0
 10
1334.807776106204
 20
1594.117091769397
 30
0.0
 10
1334.795358095936
 20
1594.112245628806
 30
0.0
  0
SPLINE
  5
471
330
1F
100
AcDbEntity
  8
cuerpo
100
AcDbSpline
210
0.0
220
0.0
230
1.0
 70
     8
 71
     3
 72
     9
 73
     5
 74
     0
 42
0.000000001
 43
0.0000000001
 40
0.0
 40
0.0
 40
0.0
 40
0.0
 40
0.5
 40
1.0
 40
1.0
 40
1.0
 40
1.0
 10
1343.669043606581
 20
1594.228664696956
 30
0.0
 10
1343.679559669548
 20
1594.205645868792
 30
0.0
 10
1343.715893647712
 20
1594.155424634958
 30
0.0
 10
1343.770384120084
 20
1594.12193788976
 30
0.0
 10
1343.795359426609
 20
1594.112245628806
 30
0.0
  0
SPLINE
  5
472
330
1F
100
AcDbEntity
  8
cuerpo
100
AcDbSpline
210
0.0
220
0.0
230
1.0
 70
     8
 71
     3
 72
    14
 73
    10
 74
     0
 42
0.000000001
 43
0.0000000001
 40
0.0
 40
0.0
 40
0.0
 40
0.0
 40
0.0901145493910321
 40
0.1850714677253022
 40
0.2848756406007227
 40
0.3895312716588647
 40
0.4990420027568984
 40
0.6963457496831931
 40
1.0
 40
1.0
 40
1.0
 40
1.0
 10
1343.795359426609
 20
1594.112245628799
 30
0.0
 10
1343.791744372174
 20
1594.108681915884
 30
0.0
 10
1343.784320005802
 20
1594.101362991424
 30
0.0
 10
1343.772731779451
 20
1594.089839334109
 30
0.0
 10
1343.760447635231
 20
1594.077518371385
 30
0.0
 10
1343.747452802418
 20
1594.064353850179
 30
0.0
 10
1343.730298434856
 20
1594.046764018019
 30
0.0
 10
1343.704567405273
 20
1594.020087498999
 30
0.0
 10
1343.683358272849
 20
1593.996938077269
 30
0.0
 10
1343.670502418184
 20
1593.982906121816
 30
0.0
  0
LINE
  5
473
330
1F
100
AcDbEntity
  8
cuerpo
100
AcDbLine
 10
1334.79535858246
 20
1593.982906141922
 30
0.0
 11
1334.79535858246
 21
1594.112245613382
 31
0.0
  0
LINE
  5
474
330
1F
100
AcDbEntity
  8
cuerpo
100
AcDbLine
 10
1343.795358940085
 20
1593.982906328187
 30
0.0
 11
1343.795358940085
 21
1594.112245613382
 31
0.0
  0
SPLINE
  5
475
330
1F
100
AcDbEntity
  8
cuerpo
100
AcDbSpline
210
0.0
220
0.0
230
1.0
 70
    24
 71
     3
 72
    20
 73
    16
 74
     0
 42
0.000000001
 43
0.0000000001
 40
0.0
 40
0.0
 40
0.0
 40
0.0
 40
0.0625000000000007
 40
0.0625000000000007
 40
0.1250000000000013
 40
0.1250000000000013
 40
0.2500000000000013
 40
0.2500000000000013
 40
0.3750000000000013
 40
0.3750000000000013
 40
0.5000000000000016
 40
0.5000000000000016
 40
0.7500000000000007
 40
0.7500000000000007
 40
1.0
 40
1.0
 40
1.0
 40
1.0
 10
1334.795358761272
 20
1594.330958689444
 30
0.0
 10
1334.795358761272
 20
1594.324165148063
 30
0.0
 10
1334.795358761272
 20
1594.317540869244
 30
0.0
 10
1334.795358761272
 20
1594.304937457217
 30
0.0
 10
1334.795358761272
 20
1594.299151283963
 30
0.0
 10
1334.795358761272
 20
1594.282677078552
 30
0.0
 10
1334.795358761272
 20
1594.273248380842
 30
0.0
 10
1334.795358761272
 20
1594.255463047825
 30
0.0
 10
1334.795358761272
 20
1594.247096854454
 30
0.0
 10
1334.795358761272
 20
1594.230627356176
 30
0.0
 10
1334.795358761272
 20
1594.222544148366
 30
0.0
 10
1334.795358761272
 20
1594.198225195439
 30
0.0
 10
1334.795358761272
 20
1594.181905724378
 30
0.0
 10
1334.795358761272
 20
1594.148029046187
 30
0.0
 10
1334.795358761272
 20
1594.1305059337
 30
0.0
 10
1334.795358761272
 20
1594.112245888455
 30
0.0
  0
SPLINE
  5
476
330
1F
100
AcDbEntity
  8
cuerpo
100
AcDbSpline
210
0.0
220
0.0
230
1.0
 70
    24
 71
     3
 72
    22
 73
    18
 74
     0
 42
0.000000001
 43
0.0000000001
 40
0.0
 40
0.0
 40
0.0
 40
0.0
 40
0.0624999999999994
 40
0.0624999999999994
 40
0.1249999999999988
 40
0.1249999999999988
 40
0.1874999999999981
 40
0.1874999999999981
 40
0.2499999999999975
 40
0.2499999999999975
 40
0.3749999999999977
 40
0.3749999999999977
 40
0.4999999999999979
 40
0.4999999999999979
 40
0.7499999999999992
 40
0.7499999999999992
 40
1.0
 40
1.0
 40
1.0
 40
1.0
 10
1343.795358761272
 20
1594.330958699735
 30
0.0
 10
1343.795358761272
 20
1594.324162230107
 30
0.0
 10
1343.795358761272
 20
1594.317562697667
 30
0.0
 10
1343.795358761272
 20
1594.304934152524
 30
0.0
 10
1343.795358761272
 20
1594.299149316444
 30
0.0
 10
1343.795358761272
 20
1594.288179034704
 30
0.0
 10
1343.795358761272
 20
1594.283044985723
 30
0.0
 10
1343.795358761272
 20
1594.273366078116
 30
0.0
 10
1343.795358761272
 20
1594.268780057227
 30
0.0
 10
1343.795358761272
 20
1594.255434905111
 30
0.0
 10
1343.795358761272
 20
1594.247068811119
 30
0.0
 10
1343.795358761272
 20
1594.230600699337
 30
0.0
 10
1343.795358761272
 20
1594.222519080068
 30
0.0
 10
1343.795358761272
 20
1594.198203562384
 30
0.0
 10
1343.795358761272
 20
1594.181886205656
 30
0.0
 10
1343.795358761272
 20
1594.148016748043
 30
0.0
 10
1343.795358761272
 20
1594.13049866545
 30
0.0
 10
1343.795358761272
 20
1594.112245888455
 30
0.0
  0
LINE
  5
477
330
1F
100
AcDbEntity
  8
cuerpo
100
AcDbLine
 10
1344.732858791075
 20
1595.638683592572
 30
0.0
 11
1341.35785884323
 21
1595.638683592572
 31
0.0
  0
LINE
  5
478
330
1F
100
AcDbEntity
  8
cuerpo
100
AcDbLine
 10
1344.66199892672
 20
1595.563797806992
 30
0.0
 11
1341.42871870758
 21
1595.563797806992
 31
0.0
  0
LINE
  5
479
330
1F
100
AcDbEntity
  8
cuerpo
100
AcDbLine
 10
1337.232858679315
 20
1595.638683592572
 30
0.0
 11
1333.85785873147
 21
1595.638683592572
 31
0.0
  0
LINE
  5
47A
330
1F
100
AcDbEntity
  8
cuerpo
100
AcDbLine
 10
1337.16199881496
 20
1595.563797806992
 30
0.0
 11
1333.928718595825
 21
1595.563797806992
 31
0.0
  0
SPLINE
  5
47B
330
1F
100
AcDbEntity
  8
cuerpo
100
AcDbSpline
210
0.0
220
0.0
230
1.0
 70
     8
 71
     3
 72
    18
 73
    14
 74
     0
 42
0.000000001
 43
0.0000000001
 40
0.0
 40
0.0
 40
0.0
 40
0.0
 40
0.0783892554909615
 40
0.1290893639550426
 40
0.1972725788559487
 40
0.2576515638396517
 40
0.3486787406966053
 40
0.4330447198290809
 40
0.5108840379302279
 40
0.6395011326460042
 40
0.7585962442043165
 40
0.8815052122699892
 40
1.0
 40
1.0
 40
1.0
 40
1.0
 10
1342.420216268918
 20
1593.982906328186
 30
0.0
 10
1342.407921476741
 20
1593.996330566417
 30
0.0
 10
1342.387674736393
 20
1594.018437248818
 30
0.0
 10
1342.356862464593
 20
1594.050479694668
 30
0.0
 10
1342.32925356826
 20
1594.078647756525
 30
0.0
 10
1342.29608554185
 20
1594.1116385134
 30
0.0
 10
1342.261728961166
 20
1594.145193360608
 30
0.0
 10
1342.226833405945
 20
1594.178543871732
 30
0.0
 10
1342.189553861204
 20
1594.213600983137
 30
0.0
 10
1342.15282129136
 20
1594.247755034687
 30
0.0
 10
1342.120500278966
 20
1594.277326720782
 30
0.0
 10
1342.099404594044
 20
1594.29656004345
 30
0.0
 10
1342.096718250753
 20
1594.298977520848
 30
0.0
 10
1342.095399639628
 20
1594.300164157196
 30
0.0
  0
SPLINE
  5
47C
330
1F
100
AcDbEntity
  8
cuerpo
100
AcDbSpline
210
0.0
220
0.0
230
1.0
 70
     8
 71
     3
 72
    22
 73
    18
 74
     0
 42
0.000000001
 43
0.0000000001
 40
0.0
 40
0.0
 40
0.0
 40
0.0
 40
0.0006617214888447
 40
0.1198706084559301
 40
0.2427180880548767
 40
0.3211788410397666
 40
0.4035635021632671
 40
0.4902695311566771
 40
0.5729890902784092
 40
0.6569882530428508
 40
0.7437498635463454
 40
0.7727457228689199
 40
0.8036797877115404
 40
0.8365542234894727
 40
0.8713701278523126
 40
0.9220453652320166
 40
1.0
 40
1.0
 40
1.0
 40
1.0
 10
1336.495317882917
 20
1594.300164157196
 30
0.0
 10
1336.495330426568
 20
1594.300175546137
 30
0.0
 10
1336.497602704457
 20
1594.30223864852
 30
0.0
 10
1336.489460392019
 20
1594.294884745875
 30
0.0
 10
1336.47258729876
 20
1594.279484360317
 30
0.0
 10
1336.44888122226
 20
1594.257806737717
 30
0.0
 10
1336.424074428464
 20
1594.234910778314
 30
0.0
 10
1336.394853373703
 20
1594.207682049764
 30
0.0
 10
1336.362254975517
 20
1594.176970108671
 30
0.0
 10
1336.327175379643
 20
1594.143389250603
 30
0.0
 10
1336.297973548346
 20
1594.114892941885
 30
0.0
 10
1336.275961892339
 20
1594.093067278458
 30
0.0
 10
1336.261873695666
 20
1594.078965632344
 30
0.0
 10
1336.246751974279
 20
1594.063655173746
 30
0.0
 10
1336.228450008516
 20
1594.044857316475
 30
0.0
 10
1336.202910959038
 20
1594.018298470777
 30
0.0
 10
1336.182731051427
 20
1593.996261548239
 30
0.0
 10
1336.170501253626
 20
1593.982906328186
 30
0.0
  0
LINE
  5
47D
330
1F
100
AcDbEntity
  8
cuerpo
100
AcDbLine
 10
1343.795358940085
 20
1591.80857422934
 30
0.0
 11
1345.107928468905
 21
1591.80857422934
 31
0.0
  0
LINE
  5
47E
330
1F
100
AcDbEntity
  8
cuerpo
100
AcDbLine
 10
1345.282789125165
 20
1591.80857422934
 30
0.0
 11
1345.80785836192
 21
1591.80857422934
 31
0.0
  0
LINE
  5
47F
330
1F
100
AcDbEntity
  8
cuerpo
100
AcDbLine
 10
1345.80785836192
 20
1593.80857419643
 30
0.0
 11
1343.795358940085
 21
1593.80857419643
 31
0.0
  0
LINE
  5
480
330
1F
100
AcDbEntity
  8
cuerpo
100
AcDbLine
 10
1344.945358290395
 20
1592.12304042716
 30
0.0
 11
1344.945358290395
 21
1591.974188163224
 31
0.0
  0
LINE
  5
481
330
1F
100
AcDbEntity
  8
cuerpo
100
AcDbLine
 10
1345.445359303675
 20
1591.974188163224
 30
0.0
 11
1345.445359303675
 21
1592.12666591224
 31
0.0
  0
ARC
  5
482
330
1F
100
AcDbEntity
  8
cuerpo
100
AcDbCircle
 10
1345.787358769485
 20
1593.573574202985
 30
0.0
 40
0.0250000000000018
100
AcDbArc
 50
11.58946328541931
 51
34.91520624713591
  0
ARC
  5
483
330
1F
100
AcDbEntity
  8
cuerpo
100
AcDbCircle
 10
1345.787358769485
 20
1592.043574202984
 30
0.0
 40
0.0250000000000004
100
AcDbArc
 50
325.0847937526687
 51
348.4282244745655
  0
SPLINE
  5
484
330
1F
100
AcDbEntity
  8
cuerpo
100
AcDbSpline
210
0.0
220
0.0
230
1.0
 70
     8
 71
     3
 72
    17
 73
    13
 74
     0
 42
0.000000001
 43
0.0000000001
 40
0.0
 40
0.0
 40
0.0
 40
0.0
 40
0.0703312670038084
 40
0.182258760069625
 40
0.2942226736479758
 40
0.4062229923041498
 40
0.518259744392795
 40
0.6303329144387208
 40
0.7424425938937117
 40
0.8545888283778692
 40
0.9667717615676247
 40
1.0
 40
1.0
 40
1.0
 40
1.0
 10
1345.811504676064
 20
1592.040576891181
 30
0.0
 10
1345.814437339498
 20
1592.076553407313
 30
0.0
 10
1345.822037140041
 20
1592.169784135282
 30
0.0
 10
1345.83079637896
 20
1592.320544745369
 30
0.0
 10
1345.838168839438
 20
1592.492777601954
 30
0.0
 10
1345.8422923401
 20
1592.665180151738
 30
0.0
 10
1345.843340514753
 20
1592.837683252828
 30
0.0
 10
1345.841235061059
 20
1593.010232324053
 30
0.0
 10
1345.836070808465
 20
1593.182776444033
 30
0.0
 10
1345.827546629798
 20
1593.355234839079
 30
0.0
 10
1345.819294594676
 20
1593.48717656102
 30
0.0
 10
1345.812855409539
 20
1593.561526398529
 30
0.0
 10
1345.811383976659
 20
1593.578516249451
 30
0.0
  0
LINE
  5
485
330
1F
100
AcDbEntity
  8
cuerpo
100
AcDbLine
 10
1345.447858228405
 20
1592.101467431039
 30
0.0
 11
1345.445359303675
 21
1592.080786499314
 31
0.0
  0
LWPOLYLINE
  5
486
330
1F
100
AcDbEntity
  8
cuerpo
100
AcDbPolyline
 90
       23
 70
   128
 43
0.0
 10
1344.945358290395
 20
1592.07715666784
 10
1344.945200338085
 20
1592.077625485675
 10
1344.94285936566
 20
1592.101467431039
 10
1344.94634325715
 20
1592.131539009889
 10
1344.95658035489
 20
1592.161912070414
 10
1344.973315849025
 20
1592.19157271749
 10
1344.995976044855
 20
1592.219556644394
 10
1345.02459223481
 20
1592.24530310048
 10
1345.05796487542
 20
1592.267315609204
 10
1345.09587938996
 20
1592.284849554295
 10
1345.13675923558
 20
1592.296796144354
 10
1345.178570403775
 20
1592.302396472709
 10
1345.22087629052
 20
1592.301772370079
 10
1345.261399998385
 20
1592.295092423859
 10
1345.300095333775
 20
1592.282843496011
 10
1345.33625449153
 20
1592.265305402095
 10
1345.368591501435
 20
1592.243397865364
 10
1345.396975233275
 20
1592.217144856844
 10
1345.419689073285
 20
1592.18818351818
 10
1345.436043097695
 20
1592.15744575571
 10
1345.44551725598
 20
1592.126141776665
 10
1345.447858228405
 20
1592.101467431039
 10
1345.447858228405
 20
1592.101467431039
  0
LINE
  5
487
330
1F
100
AcDbEntity
  8
cuerpo
100
AcDbLine
 10
1345.80785836192
 20
1591.80857422934
 30
0.0
 11
1345.80785836192
 21
1593.80857419643
 31
0.0
  0
SPLINE
  5
488
330
1F
100
AcDbEntity
  8
cuerpo
100
AcDbSpline
210
0.0
220
0.0
230
1.0
 70
     8
 71
     3
 72
    27
 73
    23
 74
     0
 42
0.000000001
 43
0.0000000001
 40
0.0
 40
0.0
 40
0.0
 40
0.0
 40
0.0401208217629152
 40
0.0799288619589209
 40
0.120066681105655
 40
0.1843546788134538
 40
0.2500074441899698
 40
0.3156612598349277
 40
0.3478280495416188
 40
0.3800328758367791
 40
0.4399985146352787
 40
0.4999988755893952
 40
0.5401130017292049
 40
0.5799204056716714
 40
0.6200662395224518
 40
0.6843551254245254
 40
0.7500075679410796
 40
0.8156611144531488
 40
0.8478282938348222
 40
0.8800322940630397
 40
0.9400069034419335
 40
1.0
 40
1.0
 40
1.0
 40
1.0
 10
1345.417608871182
 20
1591.931711383914
 30
0.0
 10
1345.415807147983
 20
1591.925148720716
 30
0.0
 10
1345.412217747804
 20
1591.912074556785
 30
0.0
 10
1345.40244027558
 20
1591.893241456576
 30
0.0
 10
1345.387034792143
 20
1591.871806214221
 30
0.0
 10
1345.3631335787
 20
1591.848840314716
 30
0.0
 10
1345.328664361295
 20
1591.826934710289
 30
0.0
 10
1345.295125263201
 20
1591.81318385093
 30
0.0
 10
1345.266579766349
 20
1591.805302511413
 30
0.0
 10
1345.238341463869
 20
1591.7997664155
 30
0.0
 10
1345.202598155616
 20
1591.796497479239
 30
0.0
 10
1345.164772421954
 20
1591.79823645771
 30
0.0
 10
1345.132545411748
 20
1591.803272609938
 30
0.0
 10
1345.105879982611
 20
1591.810052734751
 30
0.0
 10
1345.075572962613
 20
1591.820986463023
 30
0.0
 10
1345.043089811979
 20
1591.837871833475
 30
0.0
 10
1345.012110385701
 20
1591.862251258598
 30
0.0
 10
1344.992669531319
 20
1591.885964313633
 30
0.0
 10
1344.981508813902
 20
1591.906150672308
 30
0.0
 10
1344.97373659143
 20
1591.926113184513
 30
0.0
 10
1344.968714838016
 20
1591.951434468907
 30
0.0
 10
1344.971643944136
 20
1591.971350286209
 30
0.0
 10
1344.973108722886
 20
1591.981309729387
 30
0.0
  0
SPLINE
  5
489
330
1F
100
AcDbEntity
  8
cuerpo
100
AcDbSpline
210
0.0
220
0.0
230
1.0
 70
     8
 71
     3
 72
    27
 73
    23
 74
     0
 42
0.000000001
 43
0.0000000001
 40
0.0
 40
0.0
 40
0.0
 40
0.0
 40
0.0401207015291619
 40
0.0799287502026183
 40
0.1200665778970322
 40
0.1843545892954906
 40
0.2500074568273647
 40
0.3156612202569897
 40
0.3478280647822625
 40
0.3800328626403329
 40
0.4399964205874185
 40
0.4999989007624257
 40
0.5401130354448693
 40
0.5799204478646513
 40
0.6200662902648181
 40
0.6843551898577404
 40
0.7500076463555241
 40
0.8156612068490577
 40
0.8478283930809972
 40
0.8800324001673226
 40
0.9400070223183043
 40
1.0
 40
1.0
 40
1.0
 40
1.0
 10
1344.973108722886
 20
1591.981309729387
 30
0.0
 10
1344.97491044893
 20
1591.987872370214
 30
0.0
 10
1344.978499860518
 20
1592.000946510476
 30
0.0
 10
1344.988277318262
 20
1592.01977959021
 30
0.0
 10
1345.003682798462
 20
1592.041214837035
 30
0.0
 10
1345.027584052677
 20
1592.064180719973
 30
0.0
 10
1345.062053159495
 20
1592.086086441326
 30
0.0
 10
1345.095592393803
 20
1592.09983713682
 30
0.0
 10
1345.124137788998
 20
1592.10771863958
 30
0.0
 10
1345.152375688193
 20
1592.113254477398
 30
0.0
 10
1345.18811891623
 20
1592.116523635145
 30
0.0
 10
1345.225944689339
 20
1592.114784652602
 30
0.0
 10
1345.258172181797
 20
1592.109748440348
 30
0.0
 10
1345.284837611595
 20
1592.102968311943
 30
0.0
 10
1345.315144631392
 20
1592.092034584766
 30
0.0
 10
1345.347627782105
 20
1592.075149213859
 30
0.0
 10
1345.378607208379
 20
1592.050769788879
 30
0.0
 10
1345.398048062693
 20
1592.027056733811
 30
0.0
 10
1345.40920878026
 20
1592.006870375138
 30
0.0
 10
1345.416981002147
 20
1591.986907862945
 30
0.0
 10
1345.422002755375
 20
1591.961586600361
 30
0.0
 10
1345.419073648635
 20
1591.941670805129
 30
0.0
 10
1345.417608871182
 20
1591.931711383914
 30
0.0
  0
ARC
  5
48A
330
1F
100
AcDbEntity
  8
cuerpo
100
AcDbCircle
 10
1345.151953943775
 20
1592.00903991982
 30
0.0
 40
0.2095146986116259
100
AcDbArc
 50
189.5753866111848
 51
271.2132215413635
  0
LWPOLYLINE
  5
48B
330
1F
100
AcDbEntity
  8
cuerpo
100
AcDbPolyline
 90
       16
 70
   128
 43
0.0
 10
1345.445359303675
 20
1591.974188163224
 10
1345.444787099085
 20
1591.962247565915
 10
1345.441039457045
 20
1591.941471145229
 10
1345.433843686305
 20
1591.921154059345
 10
1345.423298134525
 20
1591.90158145802
 10
1345.409554793555
 20
1591.883028086035
 10
1345.392802908145
 20
1591.865754397736
 10
1345.373279406745
 20
1591.850002869216
 10
1345.35125996085
 20
1591.835994639709
 10
1345.32705004426
 20
1591.823926350619
 10
1345.300992383681
 20
1591.81396737959
 10
1345.27345205756
 20
1591.806257535619
 10
1345.24481500598
 20
1591.800905149274
 10
1345.2154850504
 20
1591.797985228779
 10
1345.185870482645
 20
1591.797538801461
 10
1345.15639002534
 20
1591.799572189334
  0
SPLINE
  5
48C
330
1F
100
AcDbEntity
  8
cuerpo
100
AcDbSpline
210
0.0
220
0.0
230
1.0
 70
    24
 71
     3
 72
    19
 73
    15
 74
     0
 42
0.000000001
 43
0.0000000001
 40
0.0
 40
0.0
 40
0.0
 40
0.0
 40
0.08801162818759
 40
0.1760232870458191
 40
0.2640349148116405
 40
0.3520465453098034
 40
0.4400581807360121
 40
0.5280698256730311
 40
0.6160814785233172
 40
0.704093112957041
 40
0.7921047560327762
 40
0.8801163575168185
 40
0.9681280842487435
 40
1.0
 40
1.0
 40
1.0
 40
1.0
 10
1345.811504676064
 20
1592.744214938003
 30
0.0
 10
1345.811504676064
 20
1592.710776510508
 30
0.0
 10
1345.811504676064
 20
1592.643899643868
 30
0.0
 10
1345.811504676064
 20
1592.546697085978
 30
0.0
 10
1345.811504676064
 20
1592.453896138404
 30
0.0
 10
1345.811504676064
 20
1592.36718535964
 30
0.0
 10
1345.811504676064
 20
1592.288019941397
 30
0.0
 10
1345.811504676064
 20
1592.217767438573
 30
0.0
 10
1345.811504676064
 20
1592.157606497271
 30
0.0
 10
1345.811504676064
 20
1592.108646883501
 30
0.0
 10
1345.811504676064
 20
1592.071428260205
 30
0.0
 10
1345.811504676064
 20
1592.047698842873
 30
0.0
 10
1345.811504676064
 20
1592.036690635071
 30
0.0
 10
1345.811504676064
 20
1592.038216347439
 30
0.0
 10
1345.811504676064
 20
1592.038621968883
 30
0.0
  0
SPLINE
  5
48D
330
1F
100
AcDbEntity
  8
cuerpo
100
AcDbSpline
210
0.0
220
0.0
230
1.0
 70
    24
 71
     3
 72
    20
 73
    16
 74
     0
 42
0.000000001
 43
0.0000000001
 40
0.0
 40
0.0
 40
0.0
 40
0.0
 40
0.0504722134064951
 40
0.1295995157511708
 40
0.2087268473796084
 40
0.2878541663352601
 40
0.3669814708043098
 40
0.446108784191973
 40
0.5252360970319618
 40
0.6043634125226767
 40
0.6834907279430757
 40
0.7626180415154008
 40
0.8417453511380136
 40
0.9208726622098703
 40
1.0
 40
1.0
 40
1.0
 40
1.0
 10
1345.811504676064
 20
1593.578526423964
 30
0.0
 10
1345.811504676064
 20
1593.578608077422
 30
0.0
 10
1345.811504676064
 20
1593.578817742263
 30
0.0
 10
1345.811504676064
 20
1593.564203227389
 30
0.0
 10
1345.811504676064
 20
1593.536676753949
 30
0.0
 10
1345.811504676064
 20
1593.496150068086
 30
0.0
 10
1345.811504676064
 20
1593.444003978359
 30
0.0
 10
1345.811504676064
 20
1593.380946669307
 30
0.0
 10
1345.811504676064
 20
1593.308106369019
 30
0.0
 10
1345.811504676064
 20
1593.226715752286
 30
0.0
 10
1345.811504676064
 20
1593.138172918937
 30
0.0
 10
1345.811504676064
 20
1593.043984650088
 30
0.0
 10
1345.811504676064
 20
1592.945789678427
 30
0.0
 10
1345.811504676064
 20
1592.845167849398
 30
0.0
 10
1345.811504676064
 20
1592.777865912255
 30
0.0
 10
1345.811504676064
 20
1592.744214938003
 30
0.0
  0
LWPOLYLINE
  5
48E
330
1F
100
AcDbEntity
  8
cuerpo
100
AcDbPolyline
 90
       29
 70
   128
 43
0.0
 10
1344.945358290395
 20
1591.974188163224
 10
1344.94536723109
 20
1591.975659351654
 10
1344.94736845704
 20
1591.99655628598
 10
1344.952850594245
 20
1592.017139160434
 10
1344.96173615666
 20
1592.037119071535
 10
1344.973902954775
 20
1592.056215611029
 10
1344.989176645
 20
1592.074160685454
 10
1345.007345630845
 20
1592.090702335679
 10
1345.028153612336
 20
1592.105608424759
 10
1345.05131001683
 20
1592.118669601404
 10
1345.076487018785
 20
1592.129702592674
 10
1345.10333295079
 20
1592.138552508899
 10
1345.131470813475
 20
1592.145095148589
 10
1345.16050572606
 20
1592.149238578924
 10
1345.19003088685
 20
1592.15092471628
 10
1345.21962906333
 20
1592.150129853061
 10
1345.248887493331
 20
1592.14686511866
 10
1345.27739490481
 20
1592.14117641364
 10
1345.304748966415
 20
1592.133143553584
 10
1345.330569698535
 20
1592.122879281319
 10
1345.354490532595
 20
1592.110527752234
 10
1345.376179172715
 20
1592.09626229525
 10
1345.395328654965
 20
1592.080283173744
 10
1345.411670758445
 20
1592.062814753835
 10
1345.424976005275
 20
1592.044102145785
 10
1345.43505813094
 20
1592.02440817471
 10
1345.441775574405
 20
1592.004009165885
 10
1345.44503445836
 20
1591.983191586175
 10
1345.445359303675
 20
1591.974188163224
  0
LINE
  5
48F
330
1F
100
AcDbEntity
  8
cuerpo
100
AcDbLine
 10
1334.795358148038
 20
1593.808573953018
 30
0.0
 11
1334.795358148038
 21
1591.808573985928
 31
0.0
  0
LINE
  5
490
330
1F
100
AcDbEntity
  8
cuerpo
100
AcDbLine
 10
1334.795358148038
 20
1591.808573985928
 30
0.0
 11
1333.482788619218
 21
1591.808574556137
 31
0.0
  0
LINE
  5
491
330
1F
100
AcDbEntity
  8
cuerpo
100
AcDbLine
 10
1333.307927962958
 20
1591.808574632101
 30
0.0
 11
1332.782858726203
 21
1591.808574860203
 31
0.0
  0
LINE
  5
492
330
1F
100
AcDbEntity
  8
cuerpo
100
AcDbLine
 10
1332.782859595048
 20
1593.808574827291
 30
0.0
 11
1334.795359016883
 21
1593.808573953017
 31
0.0
  0
LINE
  5
493
330
1F
100
AcDbEntity
  8
cuerpo
100
AcDbLine
 10
1333.645358934339
 20
1592.123040683333
 30
0.0
 11
1333.645358869674
 21
1591.974188419398
 31
0.0
  0
LINE
  5
494
330
1F
100
AcDbEntity
  8
cuerpo
100
AcDbLine
 10
1333.145357856394
 20
1591.97418863661
 30
0.0
 11
1333.145357922634
 21
1592.126666385624
 31
0.0
  0
ARC
  5
495
330
1F
100
AcDbEntity
  8
cuerpo
100
AcDbCircle
 10
1332.803359085393
 20
1593.573574824941
 30
0.0
 40
0.0250000000000018
100
AcDbArc
 50
145.0847688623093
 51
168.4105118240063
  0
ARC
  5
496
330
1F
100
AcDbEntity
  8
cuerpo
100
AcDbCircle
 10
1332.803358420727
 20
1592.043574824941
 30
0.0
 40
0.0250000000000004
100
AcDbArc
 50
191.5717506348555
 51
214.9151813567475
  0
SPLINE
  5
497
330
1F
100
AcDbEntity
  8
cuerpo
100
AcDbSpline
210
0.0
220
0.0
230
1.0
 70
     8
 71
     3
 72
    17
 73
    13
 74
     0
 42
0.000000001
 43
0.0000000001
 40
0.0
 40
0.0
 40
0.0
 40
0.0
 40
0.0703312670038084
 40
0.182258760069625
 40
0.2942226736479758
 40
0.4062229923041498
 40
0.518259744392795
 40
0.6303329144387208
 40
0.7424425938937117
 40
0.8545888283778692
 40
0.9667717615676247
 40
1.0
 40
1.0
 40
1.0
 40
1.0
 10
1332.779212512847
 20
1592.040577523628
 30
0.0
 10
1332.776279865041
 20
1592.076554041034
 30
0.0
 10
1332.768680105
 20
1592.169784772305
 30
0.0
 10
1332.759920931574
 20
1592.320545386197
 30
0.0
 10
1332.752548545919
 20
1592.492778245985
 30
0.0
 10
1332.748425120152
 20
1592.665180797559
 30
0.0
 10
1332.747377020437
 20
1592.837683899104
 30
0.0
 10
1332.749482549091
 20
1593.010232969415
 30
0.0
 10
1332.754646876643
 20
1593.182777087152
 30
0.0
 10
1332.76317113023
 20
1593.355235478494
 30
0.0
 10
1332.771423222669
 20
1593.48717719685
 30
0.0
 10
1332.777862440106
 20
1593.561527031563
 30
0.0
 10
1332.779333880367
 20
1593.578516881846
 30
0.0
  0
LINE
  5
498
330
1F
100
AcDbEntity
  8
cuerpo
100
AcDbLine
 10
1333.142858986957
 20
1592.10146790551
 30
0.0
 11
1333.145357902703
 21
1592.080786972699
 31
0.0
  0
LWPOLYLINE
  5
499
330
1F
100
AcDbEntity
  8
cuerpo
100
AcDbPolyline
 90
       23
 70
   128
 43
0.0
 10
1333.645358914406
 20
1592.077156924013
 10
1333.645516866919
 20
1592.077625741779
 10
1333.647857849702
 20
1592.101467686127
 10
1333.644373971276
 20
1592.131539266491
 10
1333.634136886731
 20
1592.161912331463
 10
1333.617401405481
 20
1592.191572985807
 10
1333.594741221808
 20
1592.219556922558
 10
1333.566125043038
 20
1592.245303391074
 10
1333.53275241199
 20
1592.267315914297
 10
1333.494837905067
 20
1592.284849875858
 10
1333.453958064637
 20
1592.296796483677
 10
1333.412146898875
 20
1592.302396830196
 10
1333.369841011859
 20
1592.301772745944
 10
1333.329317301092
 20
1592.295092817329
 10
1333.290621960381
 20
1592.282843906289
 10
1333.254462795007
 20
1592.265305828082
 10
1333.222125775585
 20
1592.2433983054
 10
1333.19374203234
 20
1592.217145309211
 10
1333.171028179748
 20
1592.188183980412
 10
1333.154674141985
 20
1592.157446225048
 10
1333.145199970101
 20
1592.126142250117
 10
1333.142858986957
 20
1592.10146790551
 10
1333.142858986957
 20
1592.10146790551
  0
LINE
  5
49A
330
1F
100
AcDbEntity
  8
cuerpo
100
AcDbLine
 10
1334.795359016883
 20
1593.808573953017
 30
0.0
 11
1334.795358148038
 21
1591.808573985928
 31
0.0
  0
LINE
  5
49B
330
1F
100
AcDbEntity
  8
cuerpo
100
AcDbLine
 10
1332.782858726203
 20
1591.808574860203
 30
0.0
 11
1332.782859595048
 21
1593.808574827291
 31
0.0
  0
SPLINE
  5
49C
330
1F
100
AcDbEntity
  8
cuerpo
100
AcDbSpline
210
0.0
220
0.0
230
1.0
 70
     8
 71
     3
 72
    27
 73
    23
 74
     0
 42
0.000000001
 43
0.0000000001
 40
0.0
 40
0.0
 40
0.0
 40
0.0
 40
0.0401208217629152
 40
0.0799288619589209
 40
0.120066681105655
 40
0.1843546788134538
 40
0.2500074441899698
 40
0.3156612598349277
 40
0.3478280495416188
 40
0.3800328758367791
 40
0.4399985146352787
 40
0.4999988755893952
 40
0.5401130017292049
 40
0.5799204056716714
 40
0.6200662395224518
 40
0.6843551254245254
 40
0.7500075679410796
 40
0.8156611144531488
 40
0.8478282938348222
 40
0.8800322940630397
 40
0.9400069034419335
 40
1.0
 40
1.0
 40
1.0
 40
1.0
 10
1333.173108270435
 20
1591.931711845243
 30
0.0
 10
1333.174909990782
 20
1591.925149181263
 30
0.0
 10
1333.178499385282
 20
1591.912075015772
 30
0.0
 10
1333.188276849323
 20
1591.893241911315
 30
0.0
 10
1333.203682323449
 20
1591.871806662267
 30
0.0
 10
1333.227583526915
 20
1591.84884075238
 30
0.0
 10
1333.262052734804
 20
1591.826935132979
 30
0.0
 10
1333.295591826925
 20
1591.81318425905
 30
0.0
 10
1333.324137320353
 20
1591.805302907132
 30
0.0
 10
1333.352375620427
 20
1591.799766798951
 30
0.0
 10
1333.388118927261
 20
1591.796497847164
 30
0.0
 10
1333.425944661678
 20
1591.798236809202
 30
0.0
 10
1333.458171674072
 20
1591.803272947429
 30
0.0
 10
1333.484837106154
 20
1591.810053060658
 30
0.0
 10
1333.515144130901
 20
1591.820986775765
 30
0.0
 10
1333.547627288871
 20
1591.837872132106
 30
0.0
 10
1333.57860672574
 20
1591.86225154377
 30
0.0
 10
1333.598047590423
 20
1591.885964590359
 30
0.0
 10
1333.609208316611
 20
1591.906150944185
 30
0.0
 10
1333.616980547755
 20
1591.926113453014
 30
0.0
 10
1333.622002312169
 20
1591.951434735227
 30
0.0
 10
1333.6190732147
 20
1591.971350553801
 30
0.0
 10
1333.617608440277
 20
1591.981309997616
 30
0.0
  0
SPLINE
  5
49D
330
1F
100
AcDbEntity
  8
cuerpo
100
AcDbSpline
210
0.0
220
0.0
230
1.0
 70
     8
 71
     3
 72
    27
 73
    23
 74
     0
 42
0.000000001
 43
0.0000000001
 40
0.0
 40
0.0
 40
0.0
 40
0.0
 40
0.0401207015291619
 40
0.0799287502026183
 40
0.1200665778970322
 40
0.1843545892954906
 40
0.2500074568273647
 40
0.3156612202569897
 40
0.3478280647822625
 40
0.3800328626403329
 40
0.4399964205874185
 40
0.4999989007624257
 40
0.5401130354448693
 40
0.5799204478646513
 40
0.6200662902648181
 40
0.6843551898577404
 40
0.7500076463555241
 40
0.8156612068490577
 40
0.8478283930809972
 40
0.8800324001673226
 40
0.9400070223183043
 40
1.0
 40
1.0
 40
1.0
 40
1.0
 10
1333.617608440277
 20
1591.981309997616
 30
0.0
 10
1333.615806717084
 20
1591.987872639225
 30
0.0
 10
1333.612217311175
 20
1592.000946781048
 30
0.0
 10
1333.602439861613
 20
1592.019779865029
 30
0.0
 10
1333.587034390725
 20
1592.041215118546
 30
0.0
 10
1333.563133146487
 20
1592.064181011867
 30
0.0
 10
1333.528664049185
 20
1592.086086748193
 30
0.0
 10
1333.495124820851
 20
1592.099837458257
 30
0.0
 10
1333.466579429079
 20
1592.107718973419
 30
0.0
 10
1333.43834153229
 20
1592.113254823504
 30
0.0
 10
1333.402598305673
 20
1592.116523996778
 30
0.0
 10
1333.364772531808
 20
1592.114785030668
 30
0.0
 10
1333.332545037162
 20
1592.109748832415
 30
0.0
 10
1333.305879604419
 20
1592.102968715593
 30
0.0
 10
1333.275572579873
 20
1592.092035001582
 30
0.0
 10
1333.243089421825
 20
1592.075149644787
 30
0.0
 10
1333.212109984958
 20
1592.050770233265
 30
0.0
 10
1333.192669120343
 20
1592.027057186643
 30
0.0
 10
1333.181508394007
 20
1592.006870832818
 30
0.0
 10
1333.173736163449
 20
1591.986908324002
 30
0.0
 10
1333.16871439922
 20
1591.961587063599
 30
0.0
 10
1333.171643497309
 20
1591.941671267094
 30
0.0
 10
1333.173108270435
 20
1591.931711845243
 30
0.0
  0
ARC
  5
49E
330
1F
100
AcDbEntity
  8
cuerpo
100
AcDbCircle
 10
1333.438763231434
 20
1592.009040265743
 30
0.0
 40
0.2095146986116259
100
AcDbArc
 50
268.7867535680613
 51
350.4245884982383
  0
LWPOLYLINE
  5
49F
330
1F
100
AcDbEntity
  8
cuerpo
100
AcDbPolyline
 90
       16
 70
   128
 43
0.0
 10
1333.145357856394
 20
1591.97418863661
 10
1333.145930055797
 20
1591.962248039051
 10
1333.149677688811
 20
1591.941471616738
 10
1333.156873450725
 20
1591.921154527727
 10
1333.167418994003
 20
1591.901581921821
 10
1333.181162326912
 20
1591.883028543866
 10
1333.197914204818
 20
1591.865754848288
 10
1333.217437699375
 20
1591.850003311287
 10
1333.239457139185
 20
1591.835995072216
 10
1333.263667050532
 20
1591.823926772609
 10
1333.289724706786
 20
1591.813967790257
 10
1333.317265029556
 20
1591.806257934325
 10
1333.345902078811
 20
1591.800905535539
 10
1333.375232033123
 20
1591.797985602302
 10
1333.404846600684
 20
1591.797539162117
 10
1333.434327058872
 20
1591.799572537184
  0
SPLINE
  5
4A0
330
1F
100
AcDbEntity
  8
cuerpo
100
AcDbSpline
210
0.0
220
0.0
230
1.0
 70
    24
 71
     3
 72
    19
 73
    15
 74
     0
 42
0.000000001
 43
0.0000000001
 40
0.0
 40
0.0
 40
0.0
 40
0.0
 40
0.08801162818759
 40
0.1760232870458191
 40
0.2640349148116405
 40
0.3520465453098034
 40
0.4400581807360121
 40
0.5280698256730311
 40
0.6160814785233172
 40
0.704093112957041
 40
0.7921047560327762
 40
0.8801163575168185
 40
0.9681280842487435
 40
1.0
 40
1.0
 40
1.0
 40
1.0
 10
1332.779212818523
 20
1592.744215570449
 30
0.0
 10
1332.779212803996
 20
1592.710777142956
 30
0.0
 10
1332.779212774943
 20
1592.643900276315
 30
0.0
 10
1332.779212732716
 20
1592.546697718424
 30
0.0
 10
1332.779212692401
 20
1592.453896770851
 30
0.0
 10
1332.779212654732
 20
1592.367185992086
 30
0.0
 10
1332.779212620341
 20
1592.288020573843
 30
0.0
 10
1332.779212589822
 20
1592.21776807102
 30
0.0
 10
1332.779212563686
 20
1592.157607129718
 30
0.0
 10
1332.779212542418
 20
1592.108647515947
 30
0.0
 10
1332.779212526249
 20
1592.071428892652
 30
0.0
 10
1332.77921251594
 20
1592.047699475319
 30
0.0
 10
1332.779212511158
 20
1592.036691267518
 30
0.0
 10
1332.779212511821
 20
1592.038216979886
 30
0.0
 10
1332.779212511997
 20
1592.038622601328
 30
0.0
  0
SPLINE
  5
4A1
330
1F
100
AcDbEntity
  8
cuerpo
100
AcDbSpline
210
0.0
220
0.0
230
1.0
 70
    24
 71
     3
 72
    20
 73
    16
 74
     0
 42
0.000000001
 43
0.0000000001
 40
0.0
 40
0.0
 40
0.0
 40
0.0
 40
0.0504722134064951
 40
0.1295995157511708
 40
0.2087268473796084
 40
0.2878541663352601
 40
0.3669814708043098
 40
0.446108784191973
 40
0.5252360970319618
 40
0.6043634125226767
 40
0.6834907279430757
 40
0.7626180415154008
 40
0.8417453511380136
 40
0.9208726622098703
 40
1.0
 40
1.0
 40
1.0
 40
1.0
 10
1332.779213180966
 20
1593.578527056411
 30
0.0
 10
1332.779213181001
 20
1593.578608709869
 30
0.0
 10
1332.779213181092
 20
1593.57881837471
 30
0.0
 10
1332.779213174744
 20
1593.564203859836
 30
0.0
 10
1332.779213162786
 20
1593.536677386396
 30
0.0
 10
1332.77921314518
 20
1593.496150700533
 30
0.0
 10
1332.779213122527
 20
1593.444004610806
 30
0.0
 10
1332.779213095133
 20
1593.380947301754
 30
0.0
 10
1332.779213063489
 20
1593.308107001467
 30
0.0
 10
1332.779213028132
 20
1593.226716384733
 30
0.0
 10
1332.779212989667
 20
1593.138173551383
 30
0.0
 10
1332.779212948749
 20
1593.043985282534
 30
0.0
 10
1332.779212906091
 20
1592.945790310874
 30
0.0
 10
1332.779212862378
 20
1592.845168481843
 30
0.0
 10
1332.779212833141
 20
1592.777866544702
 30
0.0
 10
1332.779212818523
 20
1592.744215570449
 30
0.0
  0
LWPOLYLINE
  5
4A2
330
1F
100
AcDbEntity
  8
cuerpo
100
AcDbPolyline
 90
       29
 70
   128
 43
0.0
 10
1333.645358869674
 20
1591.974188419398
 10
1333.645349929618
 20
1591.975659607832
 10
1333.643348712746
 20
1591.996556543027
 10
1333.637866584483
 20
1592.017139419863
 10
1333.628981030748
 20
1592.037119334823
 10
1333.616814240929
 20
1592.056215879604
 10
1333.601540558499
 20
1592.074160960664
 10
1333.583371579841
 20
1592.090702618781
 10
1333.562563604826
 20
1592.105608716901
 10
1333.539407206005
 20
1592.118669903606
 10
1333.514230208843
 20
1592.129702905813
 10
1333.487384280683
 20
1592.1385528337
 10
1333.45924642084
 20
1592.145095485615
 10
1333.430211510055
 20
1592.149238928563
 10
1333.400686349997
 20
1592.150925078743
 10
1333.371088173172
 20
1592.150130228383
 10
1333.341829741754
 20
1592.146865506693
 10
1333.313322327802
 20
1592.141176814057
 10
1333.285968262708
 20
1592.133143965886
 10
1333.260147526128
 20
1592.122879704836
 10
1333.236226686703
 20
1592.110528186144
 10
1333.214538040386
 20
1592.096262738581
 10
1333.195388551194
 20
1592.080283625395
 10
1333.179046440126
 20
1592.062815212584
 10
1333.165741185166
 20
1592.044102610315
 10
1333.155659050946
 20
1592.02440864362
 10
1333.148941598619
 20
1592.004009637713
 10
1333.14568270562
 20
1591.983192059419
 10
1333.145357856394
 20
1591.97418863661
  0
LINE
  5
4A3
330
1F
100
AcDbEntity
  8
cuerpo
100
AcDbLine
 10
1343.795358940085
 20
1593.80857419643
 30
0.0
 11
1343.795358940085
 21
1591.80857422934
 31
0.0
  0
LINE
  5
4A4
330
1F
100
AcDbEntity
  8
cotas
100
AcDbLine
 10
1335.238577228823
 20
1598.707714866399
 30
0.0
 11
1335.238577228823
 21
1601.98164756961
 31
0.0
  0
LINE
  5
4A5
330
1F
100
AcDbEntity
  8
cotas
100
AcDbLine
 10
1343.614119752486
 20
1598.707714866399
 30
0.0
 11
1343.614119752486
 21
1601.98164756961
 31
0.0
  0
LINE
  5
4A6
330
1F
100
AcDbEntity
  8
cotas
100
AcDbLine
 10
1335.938577228823
 20
1601.48164756961
 30
0.0
 11
1342.914119752487
 21
1601.48164756961
 31
0.0
  0
SOLID
  5
4A7
330
1F
100
AcDbEntity
  8
cotas
100
AcDbTrace
 10
1335.938577228823
 20
1601.598314236275
 30
0.0
 11
1335.938577228823
 21
1601.364980902944
 31
0.0
 12
1335.238577228823
 22
1601.48164756961
 32
0.0
 13
1335.238577228823
 23
1601.48164756961
 33
0.0
  0
SOLID
  5
4A8
330
1F
100
AcDbEntity
  8
cotas
100
AcDbTrace
 10
1342.914119752487
 20
1601.598314236275
 30
0.0
 11
1342.914119752487
 21
1601.364980902944
 31
0.0
 12
1343.614119752486
 22
1601.48164756961
 32
0.0
 13
1343.614119752486
 23
1601.48164756961
 33
0.0
  0
MTEXT
  5
4A9
330
1F
100
AcDbEntity
  8
cotas
100
AcDbMText
 10
1339.426348490656
 20
1602.662779394994
 30
0.0
 40
1.5
 41
0.0
 46
0.0
 71
     5
 72
     1
  1
150±12
  7
ARIAL
 73
     1
 44
1.0
  0
DIMENSION
  5
4AA
330
1F
100
AcDbEntity
  8
cotas
  6
Continuous
100
AcDbDimension
  2
*D3
 10
1344.732858791075
 20
1598.835509598625
 30
0.0
 11
1349.061694238059
 21
1598.835509598625
 31
0.0
 70
   160
  1
Ø67
 71
     5
 42
67.49999895690052
 73
     0
 74
     0
 75
     0
  3
RS (E1.20)
100
AcDbAlignedDimension
 13
1341.35785884323
 23
1596.7577152464
 33
0.0
 14
1344.732858791075
 24
1596.7577152464
 34
0.0
100
AcDbRotatedDimension
  0
DIMENSION
  5
4AB
330
1F
100
AcDbEntity
  8
cotas
  6
Continuous
100
AcDbDimension
  2
*D4
 10
1335.738577028824
 20
1599.151304665688
 30
0.0
 11
1329.800037183258
 21
1599.151304665688
 31
0.0
 70
   160
  1
G1/2"
 71
     5
 42
19.9999919999982
 73
     0
 74
     0
 75
     0
  3
RS (E1.20)
100
AcDbAlignedDimension
 13
1334.738577428824
 23
1597.607714906398
 33
0.0
 14
1335.738577028824
 24
1597.607714906398
 34
0.0
100
AcDbRotatedDimension
  0
LINE
  5
4E1
330
1F
100
AcDbEntity
  8
cotas
100
AcDbLine
 10
1319.11003335964
 20
1616.202792734663
 30
0.0
 11
1359.11003335964
 21
1616.202792734663
 31
0.0
  0
LINE
  5
4E2
330
1F
100
AcDbEntity
  8
cotas
100
AcDbLine
 10
1359.11003335964
 20
1616.202792734663
 30
0.0
 11
1359.11003335964
 21
1576.202792734663
 31
0.0
  0
LINE
  5
4E3
330
1F
100
AcDbEntity
  8
cotas
100
AcDbLine
 10
1359.11003335964
 20
1576.202792734663
 30
0.0
 11
1319.11003335964
 21
1576.202792734663
 31
0.0
  0
LINE
  5
4E4
330
1F
100
AcDbEntity
  8
cotas
100
AcDbLine
 10
1319.11003335964
 20
1576.202792734663
 30
0.0
 11
1319.11003335964
 21
1616.202792734663
 31
0.0
  0
MTEXT
  5
52B
330
1F
100
AcDbEntity
  8
cotas
100
AcDbMText
 10
1318.88964969309
 20
1619.735841636384
 30
0.0
 40
1.5
 41
493.2786305802585
 46
0.0
 71
     1
 72
     5
  1
211201S                     E:1/20    
  7
RS (E1.10)
 73
     1
 44
1.0
1001
ACAD
1000
ACAD_MTEXT_COLUMN_INFO_BEGIN
1070
    75
1070
     2
1070
    79
1070
     0
1070
    76
1070
     1
1070
    78
1070
     0
1070
    48
1040
493.2786305802585
1070
    49
1040
1.0
1070
    50
1070
     1
1040
0.0
1000
ACAD_MTEXT_COLUMN_INFO_END
  0
ENDSEC
  0
SECTION
  2
OBJECTS
  0
DICTIONARY
  5
C
330
0
100
AcDbDictionary
281
     1
  3
ACAD_CIP_PREVIOUS_PRODUCT_INFO
350
216
  3
ACAD_COLOR
350
6B
  3
ACAD_DETAILVIEWSTYLE
350
21B
  3
ACAD_GROUP
350
D
  3
ACAD_LAYOUT
350
1A
  3
ACAD_MATERIAL
350
6A
  3
ACAD_MLEADERSTYLE
350
12D
  3
ACAD_MLINESTYLE
350
17
  3
ACAD_PLOTSETTINGS
350
19
  3
ACAD_PLOTSTYLENAME
350
E
  3
ACAD_SCALELIST
350
10C
  3
ACAD_SECTIONVIEWSTYLE
350
219
  3
ACAD_TABLESTYLE
350
7E
  3
ACAD_VISUALSTYLE
350
EF
  3
ACDB_RECOMPOSE_DATA
350
573
  3
AcDbVariableDictionary
350
5E
  0
DICTIONARY
  5
1FF
330
2
100
AcDbDictionary
280
     1
281
     1
  3
ACAD_LAYERSTATES
360
200
  0
DICTIONARY
  5
13C
330
10
100
AcDbDictionary
280
     1
281
     1
  0
DICTIONARY
  5
27A
330
279
100
AcDbDictionary
280
     1
281
     1
  0
DICTIONARY
  5
27C
330
27B
100
AcDbDictionary
280
     1
281
     1
  0
DICTIONARY
  5
1CE
330
1F
100
AcDbDictionary
280
     1
281
     1
  0
XRECORD
  5
216
102
{ACAD_REACTORS
330
C
102
}
330
C
100
AcDbXrecord
280
     1
300
ACD
300
2016
300
86445ACD_2016_0F
  0
DICTIONARY
  5
6B
102
{ACAD_REACTORS
330
C
102
}
330
C
100
AcDbDictionary
281
     1
  0
DICTIONARY
  5
21B
102
{ACAD_REACTORS
330
C
102
}
330
C
100
AcDbDictionary
281
     1
  3
Metric50
350
21C
  0
DICTIONARY
  5
D
102
{ACAD_REACTORS
330
C
102
}
330
C
100
AcDbDictionary
281
     1
  0
DICTIONARY
  5
1A
102
{ACAD_REACTORS
330
C
102
}
330
C
100
AcDbDictionary
281
     1
  3
Model
350
22
  3
Presentación1
350
D3
  3
Presentación2
350
D7
  0
DICTIONARY
  5
6A
102
{ACAD_REACTORS
330
C
102
}
330
C
100
AcDbDictionary
281
     1
  3
ByBlock
350
ED
  3
ByLayer
350
EC
  3
Global
350
EE
  0
DICTIONARY
  5
12D
102
{ACAD_REACTORS
330
C
102
}
330
C
100
AcDbDictionary
281
     1
  3
Anotativo
350
13B
  3
Standard
350
12E
  0
DICTIONARY
  5
17
102
{ACAD_REACTORS
330
C
102
}
330
C
100
AcDbDictionary
281
     1
  3
Standard
350
18
  0
DICTIONARY
  5
19
102
{ACAD_REACTORS
330
C
102
}
330
C
100
AcDbDictionary
281
     1
  0
ACDBDICTIONARYWDFLT
  5
E
102
{ACAD_REACTORS
330
C
102
}
330
C
100
AcDbDictionary
281
     1
  3
Normal
350
F
100
AcDbDictionaryWithDefault
340
F
  0
DICTIONARY
  5
10C
102
{ACAD_REACTORS
330
C
102
}
330
C
100
AcDbDictionary
281
     1
  3
A0
350
10D
  3
A1
350
1BE
  3
A2
350
1BF
  3
A3
350
1C0
  3
A4
350
1C1
  3
A5
350
1C2
  3
A6
350
1C3
  3
A7
350
1C4
  3
A8
350
1C5
  3
A9
350
1C6
  3
B0
350
1C7
  3
B1
350
1C8
  3
B2
350
1C9
  3
B3
350
1CA
  3
B4
350
1CB
  3
B5
350
1CC
  3
B6
350
1CD
  0
DICTIONARY
  5
219
102
{ACAD_REACTORS
330
C
102
}
330
C
100
AcDbDictionary
281
     1
  3
Metric50
350
21A
  0
DICTIONARY
  5
7E
102
{ACAD_REACTORS
330
C
102
}
330
C
100
AcDbDictionary
281
     1
  3
Standard
350
7F
  0
DICTIONARY
  5
EF
102
{ACAD_REACTORS
330
C
102
}
330
C
100
AcDbDictionary
281
     1
  3
2dWireframe
350
F5
  3
Basic
350
F4
  3
Brighten
350
FB
  3
ColorChange
350
FF
  3
Conceptual
350
F8
  3
Dim
350
FA
  3
EdgeColorOff
350
1E6
  3
Facepattern
350
FE
  3
Flat
350
F0
  3
FlatWithEdges
350
F1
  3
Gouraud
350
F2
  3
GouraudWithEdges
350
F3
  3
Hidden
350
F7
  3
JitterOff
350
1E4
  3
Linepattern
350
FD
  3
OverhangOff
350
1E5
  3
Realistic
350
F9
  3
Shaded
350
1F3
  3
Shaded with edges
350
1F2
  3
Shades of Gray
350
1EF
  3
Sketchy
350
1F0
  3
Thicken
350
FC
  3
Wireframe
350
F6
  3
X-Ray
350
1F1
  0
XRECORD
  5
573
102
{ACAD_REACTORS
330
C
102
}
330
C
100
AcDbXrecord
280
     1
 90
        1
330
7F
330
52B
  0
DICTIONARY
  5
5E
102
{ACAD_REACTORS
330
C
102
}
330
C
100
AcDbDictionary
281
     1
  3
CANNOSCALE
350
146
  3
CMLEADERSTYLE
350
145
  3
CTABLESTYLE
350
84
  3
CVIEWDETAILSTYLE
350
227
  3
CVIEWSECTIONSTYLE
350
228
  3
DIMASSOC
350
5F
  3
HIDETEXT
350
63
  3
LAYEREVAL
350
1AE
  3
LAYERNOTIFY
350
1AF
  3
XCLIPFRAME
350
571
  0
DICTIONARY
  5
200
102
{ACAD_REACTORS
330
1FF
102
}
330
1FF
100
AcDbDictionary
281
     1
  0
ACDBDETAILVIEWSTYLE
  5
21C
102
{ACAD_XDICTIONARY
360
5A6
102
}
102
{ACAD_REACTORS
330
21B
102
}
330
21B
100
AcDbModelDocViewStyle
 70
     0
  3
Metric50
290
     0
100
AcDbDetailViewStyle
 70
     0
 71
     0
 90
        3
 71
     1
340
11
 62
   256
 40
5.0
340
0
 62
   256
 40
5.0
300

 40
0.0
280
     1
 71
     2
340
16
 90
       25
 62
   256
 71
     3
340
11
 62
   256
 40
5.0
 90
        0
 40
15.0
 90
        1
300
%<\AcVar ViewDetailId>% (%<\AcVar ViewScale \f "%sn">%)
 71
     4
340
16
 90
       25
 62
   256
340
16
 90
       25
 62
   256
280
     0
  0
LAYOUT
  5
22
102
{ACAD_XDICTIONARY
360
205
102
}
102
{ACAD_REACTORS
330
1A
102
}
330
1A
100
AcDbPlotSettings
  1

  2
none_device
  4
ISO_A4_(210.00_x_297.00_MM)
  6

 40
7.5
 41
20.0
 42
7.5
 43
20.0
 44
210.0
 45
297.0
 46
11.54999923706054
 47
-13.65000009536743
 48
0.0
 49
0.0
140
0.0
141
0.0
142
1.0
143
8.704084754739808
 70
 11952
 72
     1
 73
     0
 74
     0
  7

 75
     0
147
0.1148885871608098
 76
     0
 77
     2
 78
   300
148
0.0
149
0.0
100
AcDbLayout
  1
Model
 70
     1
 71
     0
 10
0.0
 20
0.0
 11
12.0
 21
9.0
 12
0.0
 22
0.0
 32
0.0
 14
0.0
 24
0.0
 34
0.0
 15
0.0
 25
0.0
 35
0.0
146
0.0
 13
0.0
 23
0.0
 33
0.0
 16
1.0
 26
0.0
 36
0.0
 17
0.0
 27
1.0
 37
0.0
 76
     0
330
1F
331
EA
1001
ACAD_PSEXT
1000
None
1000
None
1000
Not applicable
1000
The layout will not be plotted unless a new plotter configuration name is selected.
1070
     0
  0
LAYOUT
  5
D3
102
{ACAD_REACTORS
330
1A
102
}
330
1A
100
AcDbPlotSettings
  1

  2
C:\Documents and Settings\basas\Application Data\Autodesk\AutoCAD 2005\R16.1\enu\plotters\Default Windows System Printer.pc3
  4

  6

 40
0.0
 41
0.0
 42
0.0
 43
0.0
 44
0.0
 45
0.0
 46
0.0
 47
0.0
 48
0.0
 49
0.0
140
0.0
141
0.0
142
1.0
143
1.0
 70
   688
 72
     0
 73
     0
 74
     5
  7

 75
    16
147
1.0
 76
     0
 77
     2
 78
   300
148
0.0
149
0.0
100
AcDbLayout
  1
Presentación1
 70
     1
 71
     1
 10
0.0
 20
0.0
 11
12.0
 21
9.0
 12
0.0
 22
0.0
 32
0.0
 14
0.0
 24
0.0
 34
0.0
 15
0.0
 25
0.0
 35
0.0
146
0.0
 13
0.0
 23
0.0
 33
0.0
 16
1.0
 26
0.0
 36
0.0
 17
0.0
 27
1.0
 37
0.0
 76
     0
330
D2
  0
LAYOUT
  5
D7
102
{ACAD_REACTORS
330
1A
102
}
330
1A
100
AcDbPlotSettings
  1

  2
C:\Documents and Settings\basas\Application Data\Autodesk\AutoCAD 2005\R16.1\enu\plotters\Default Windows System Printer.pc3
  4

  6

 40
0.0
 41
0.0
 42
0.0
 43
0.0
 44
0.0
 45
0.0
 46
0.0
 47
0.0
 48
0.0
 49
0.0
140
0.0
141
0.0
142
1.0
143
1.0
 70
   688
 72
     0
 73
     0
 74
     5
  7

 75
    16
147
1.0
 76
     0
 77
     2
 78
   300
148
0.0
149
0.0
100
AcDbLayout
  1
Presentación2
 70
     1
 71
     2
 10
0.0
 20
0.0
 11
12.0
 21
9.0
 12
0.0
 22
0.0
 32
0.0
 14
0.0
 24
0.0
 34
0.0
 15
0.0
 25
0.0
 35
0.0
146
0.0
 13
0.0
 23
0.0
 33
0.0
 16
1.0
 26
0.0
 36
0.0
 17
0.0
 27
1.0
 37
0.0
 76
     0
330
D6
  0
MATERIAL
  5
ED
102
{ACAD_XDICTIONARY
360
1F9
102
}
102
{ACAD_REACTORS
330
6A
102
}
330
6A
100
AcDbMaterial
  1
ByBlock
 94
       63
  0
MATERIAL
  5
EC
102
{ACAD_XDICTIONARY
360
1F7
102
}
102
{ACAD_REACTORS
330
6A
102
}
330
6A
100
AcDbMaterial
  1
ByLayer
 94
       63
  0
MATERIAL
  5
EE
102
{ACAD_XDICTIONARY
360
173
102
}
102
{ACAD_REACTORS
330
6A
102
}
330
6A
100
AcDbMaterial
  1
Global
 43
0.0007999999797903
 43
0.0
 43
0.0
 43
0.0
 43
0.0
 43
0.0007999999797903
 43
0.0
 43
0.0
 43
0.0
 43
0.0
 43
1.0
 43
0.0
 43
0.0
 43
0.0
 43
0.0
 43
1.0
 49
0.0007999999797903
 49
0.0
 49
0.0
 49
0.0
 49
0.0
 49
0.0007999999797903
 49
0.0
 49
0.0
 49
0.0
 49
0.0
 49
1.0
 49
0.0
 49
0.0
 49
0.0
 49
0.0
 49
1.0
142
0.0007999999797903
142
0.0
142
0.0
142
0.0
142
0.0
142
0.0007999999797903
142
0.0
142
0.0
142
0.0
142
0.0
142
1.0
142
0.0
142
0.0
142
0.0
142
0.0
142
1.0
144
0.0007999999797903
144
0.0
144
0.0
144
0.0
144
0.0
144
0.0007999999797903
144
0.0
144
0.0
144
0.0
144
0.0
144
1.0
144
0.0
144
0.0
144
0.0
144
0.0
144
1.0
 94
       63
1001
ACAD
1070
    -1
1070
     3
1070
     0
1000

1071
        0
1070
     0
  0
MLEADERSTYLE
  5
13B
102
{ACAD_REACTORS
330
12D
102
}
330
12D
100
AcDbMLeaderStyle
170
     2
171
     1
172
     0
 90
        2
 40
0.0
 41
0.0
173
     1
 91
-1056964608
340
14
 92
       -2
290
     1
 42
2.0
291
     1
 43
8.0
  3
Standard
 44
4.0
300

342
11
174
     1
178
     1
175
     1
176
     0
 93
-1056964608
 45
4.0
292
     0
297
     0
 46
4.0
 94
-1056964608
 47
1.0
 49
1.0
140
1.0
293
     1
141
0.0
294
     1
177
     0
142
1.0
295
     0
296
     1
143
3.75
1001
ACAD_MLEADERVER
1070
     2
  0
MLEADERSTYLE
  5
12E
102
{ACAD_REACTORS
330
12D
102
}
330
12D
100
AcDbMLeaderStyle
170
     2
171
     1
172
     0
 90
        2
 40
0.0
 41
0.0
173
     1
 91
-1056964608
340
14
 92
       -2
290
     1
 42
2.0
291
     1
 43
8.0
  3
Standard
 44
4.0
300

342
11
174
     1
178
     1
175
     1
176
     0
 93
-1056964608
 45
4.0
292
     0
297
     0
 46
4.0
 94
-1056964608
 47
1.0
 49
1.0
140
1.0
293
     1
141
0.0
294
     1
177
     0
142
1.0
295
     0
296
     0
143
3.75
1001
ACAD_MLEADERVER
1070
     2
  0
MLINESTYLE
  5
18
102
{ACAD_REACTORS
330
17
102
}
330
17
100
AcDbMlineStyle
  2
STANDARD
 70
     0
  3

 62
   256
 51
90.0
 52
90.0
 71
     2
 49
0.5
 62
   256
  6
BYLAYER
 49
-0.5
 62
   256
  6
BYLAYER
  0
ACDBPLACEHOLDER
  5
F
102
{ACAD_REACTORS
330
E
102
}
330
E
  0
SCALE
  5
10D
102
{ACAD_REACTORS
330
10C
102
}
330
10C
100
AcDbScale
 70
     0
300
1:1
140
1.0
141
1.0
290
     1
  0
SCALE
  5
1BE
102
{ACAD_REACTORS
330
10C
102
}
330
10C
100
AcDbScale
 70
     0
300
1:2
140
1.0
141
2.0
290
     0
  0
SCALE
  5
1BF
102
{ACAD_REACTORS
330
10C
102
}
330
10C
100
AcDbScale
 70
     0
300
1:4
140
1.0
141
4.0
290
     0
  0
SCALE
  5
1C0
102
{ACAD_REACTORS
330
10C
102
}
330
10C
100
AcDbScale
 70
     0
300
1:5
140
1.0
141
5.0
290
     0
  0
SCALE
  5
1C1
102
{ACAD_REACTORS
330
10C
102
}
330
10C
100
AcDbScale
 70
     0
300
1:8
140
1.0
141
8.0
290
     0
  0
SCALE
  5
1C2
102
{ACAD_REACTORS
330
10C
102
}
330
10C
100
AcDbScale
 70
     0
300
1:10
140
1.0
141
10.0
290
     0
  0
SCALE
  5
1C3
102
{ACAD_REACTORS
330
10C
102
}
330
10C
100
AcDbScale
 70
     0
300
1:16
140
1.0
141
16.0
290
     0
  0
SCALE
  5
1C4
102
{ACAD_REACTORS
330
10C
102
}
330
10C
100
AcDbScale
 70
     0
300
1:20
140
1.0
141
20.0
290
     0
  0
SCALE
  5
1C5
102
{ACAD_REACTORS
330
10C
102
}
330
10C
100
AcDbScale
 70
     0
300
1:30
140
1.0
141
30.0
290
     0
  0
SCALE
  5
1C6
102
{ACAD_REACTORS
330
10C
102
}
330
10C
100
AcDbScale
 70
     0
300
1:40
140
1.0
141
40.0
290
     0
  0
SCALE
  5
1C7
102
{ACAD_REACTORS
330
10C
102
}
330
10C
100
AcDbScale
 70
     0
300
1:50
140
1.0
141
50.0
290
     0
  0
SCALE
  5
1C8
102
{ACAD_REACTORS
330
10C
102
}
330
10C
100
AcDbScale
 70
     0
300
1:100
140
1.0
141
100.0
290
     0
  0
SCALE
  5
1C9
102
{ACAD_REACTORS
330
10C
102
}
330
10C
100
AcDbScale
 70
     0
300
2:1
140
2.0
141
1.0
290
     0
  0
SCALE
  5
1CA
102
{ACAD_REACTORS
330
10C
102
}
330
10C
100
AcDbScale
 70
     0
300
4:1
140
4.0
141
1.0
290
     0
  0
SCALE
  5
1CB
102
{ACAD_REACTORS
330
10C
102
}
330
10C
100
AcDbScale
 70
     0
300
8:1
140
8.0
141
1.0
290
     0
  0
SCALE
  5
1CC
102
{ACAD_REACTORS
330
10C
102
}
330
10C
100
AcDbScale
 70
     0
300
10:1
140
10.0
141
1.0
290
     0
  0
SCALE
  5
1CD
102
{ACAD_REACTORS
330
10C
102
}
330
10C
100
AcDbScale
 70
     0
300
100:1
140
100.0
141
1.0
290
     0
  0
ACDBSECTIONVIEWSTYLE
  5
21A
102
{ACAD_XDICTIONARY
360
5A4
102
}
102
{ACAD_REACTORS
330
219
102
}
330
219
100
AcDbModelDocViewStyle
 70
     0
  3
Metric50
290
     0
100
AcDbSectionViewStyle
 70
     0
 71
     0
 90
      102
 71
     1
340
11
 62
   256
 40
5.0
340
0
340
0
 62
   256
 40
5.0
300
I, O, Q, S, X, Z
 40
10.0
 90
        0
 40
2.5
 90
        0
 71
     2
340
16
 90
       25
 62
   256
340
16
 90
       50
 62
   256
 40
5.0
 40
2.5
 40
5.0
 71
     3
340
11
 62
   256
 40
5.0
 90
        0
 40
15.0
 90
        1
300
%<\AcVar ViewSectionStartId>%-%<\AcVar ViewSectionEndId>% (%<\AcVar ViewScale \f "%sn">%)
 71
     4
 62
   256
 62
   257
300
ANSI31
 40
1.0
 90
        0
290
     0
290
     0
 90
        6
 40
0.0
 40
1.570796326794896
 40
0.2617993877991494
 40
1.308996938995747
 40
-0.2617993877991494
 40
1.832595714594045
  0
TABLESTYLE
  5
7F
102
{ACAD_XDICTIONARY
360
162
102
}
102
{ACAD_REACTORS
330
7E
102
}
330
7E
100
AcDbTableStyle
  3
Standard
 70
     0
 71
     0
 40
1.5
 41
1.5
280
     0
281
     0
  7
Standard
140
4.5
170
     2
 62
     0
 63
     7
283
     0
 90
      512
 91
        0
  1

274
    -2
284
     1
 64
     0
275
    -2
285
     1
 65
     0
276
    -2
286
     1
 66
     0
277
    -2
287
     1
 67
     0
278
    -2
288
     1
 68
     0
279
    -2
289
     1
 69
     0
  7
Standard
140
6.0
170
     5
 62
     0
 63
     7
283
     0
 90
      512
 91
        0
  1

274
    -2
284
     1
 64
     0
275
    -2
285
     1
 65
     0
276
    -2
286
     1
 66
     0
277
    -2
287
     1
 67
     0
278
    -2
288
     1
 68
     0
279
    -2
289
     1
 69
     0
  7
Standard
140
4.5
170
     5
 62
     0
 63
     7
283
     0
 90
      512
 91
        0
  1

274
    -2
284
     1
 64
     0
275
    -2
285
     1
 65
     0
276
    -2
286
     1
 66
     0
277
    -2
287
     1
 67
     0
278
    -2
288
     1
 68
     0
279
    -2
289
     1
 69
     0
  0
VISUALSTYLE
  5
F5
102
{ACAD_XDICTIONARY
360
57E
102
}
102
{ACAD_REACTORS
330
EF
102
}
330
EF
100
AcDbVisualStyle
  2

 70
     4
 71
     0
 72
     2
 73
     1
 90
        0
 40
-0.6
 41
-30.0
 62
     5
 63
     7
421
 16777215
 74
     1
 91
        4
 64
     7
 65
   257
 75
     1
175
     1
 42
1.0
 92
        0
 66
   257
 43
1.0
 76
     1
 77
     6
 78
     2
 67
     7
 79
     5
170
     0
171
     0
290
     0
174
     0
 93
        1
 44
0.0
173
     0
291
     0
 45
0.0
1001
ACAD
1000
AcDbSavedByObjectVersion
1070
     0
  0
VISUALSTYLE
  5
F4
102
{ACAD_XDICTIONARY
360
57C
102
}
102
{ACAD_REACTORS
330
EF
102
}
330
EF
100
AcDbVisualStyle
  2

 70
     7
 71
     1
 72
     0
 73
     1
 90
        0
 40
-0.6
 41
-30.0
 62
     5
 63
     7
421
 16777215
 74
     0
 91
        4
 64
     7
 65
   257
 75
     1
175
     1
 42
1.0
 92
        8
 66
     7
 43
1.0
 76
     1
 77
     6
 78
     2
 67
     7
 79
     5
170
     0
171
     0
290
     0
174
     0
 93
        1
 44
0.0
173
     0
291
     1
 45
0.0
1001
ACAD
1000
AcDbSavedByObjectVersion
1070
     0
  0
VISUALSTYLE
  5
FB
102
{ACAD_XDICTIONARY
360
58A
102
}
102
{ACAD_REACTORS
330
EF
102
}
330
EF
100
AcDbVisualStyle
  2

 70
    12
 71
     2
 72
     2
 73
     1
 90
        0
 40
-0.6
 41
-30.0
 62
     5
 63
     7
421
 16777215
 74
     1
 91
        4
 64
     7
 65
   257
 75
     1
175
     1
 42
1.0
 92
        8
 66
     7
 43
1.0
 76
     1
 77
     6
 78
     2
 67
     7
 79
     5
170
     0
171
     0
290
     0
174
     0
 93
        1
 44
50.0
173
     0
291
     1
 45
0.0
1001
ACAD
1000
AcDbSavedByObjectVersion
1070
     0
  0
VISUALSTYLE
  5
FF
102
{ACAD_XDICTIONARY
360
592
102
}
102
{ACAD_REACTORS
330
EF
102
}
330
EF
100
AcDbVisualStyle
  2

 70
    16
 71
     2
 72
     2
 73
     3
 90
        0
 40
-0.6
 41
-30.0
 62
     5
 63
     8
421
  8421504
 74
     1
 91
        4
 64
     7
 65
   257
 75
     1
175
     1
 42
1.0
 92
        8
 66
     8
424
  8421504
 43
1.0
 76
     1
 77
     6
 78
     2
 67
     7
 79
     5
170
     0
171
     0
290
     0
174
     0
 93
        1
 44
0.0
173
     0
291
     1
 45
0.0
1001
ACAD
1000
AcDbSavedByObjectVersion
1070
     0
  0
VISUALSTYLE
  5
F8
102
{ACAD_XDICTIONARY
360
584
102
}
102
{ACAD_REACTORS
330
EF
102
}
330
EF
100
AcDbVisualStyle
  2

 70
     9
 71
     3
 72
     2
 73
     1
 90
        0
 40
-0.6
 41
-30.0
 62
     5
 63
     7
421
 16777215
 74
     2
 91
        2
 64
     7
 65
   257
 75
     1
175
     1
 42
40.0
 92
        8
 66
     7
 43
1.0
 76
     1
 77
     6
 78
     2
 67
     7
 79
     3
170
     0
171
     0
290
     0
174
     0
 93
        1
 44
0.0
173
     0
291
     0
 45
0.0
1001
ACAD
1000
AcDbSavedByObjectVersion
1070
     0
  0
VISUALSTYLE
  5
FA
102
{ACAD_XDICTIONARY
360
588
102
}
102
{ACAD_REACTORS
330
EF
102
}
330
EF
100
AcDbVisualStyle
  2

 70
    11
 71
     2
 72
     2
 73
     1
 90
        0
 40
-0.6
 41
-30.0
 62
     5
 63
     7
421
 16777215
 74
     1
 91
        4
 64
     7
 65
   257
 75
     1
175
     1
 42
1.0
 92
        8
 66
     7
 43
1.0
 76
     1
 77
     6
 78
     2
 67
     7
 79
     5
170
     0
171
     0
290
     0
174
     0
 93
        1
 44
-50.0
173
     0
291
     1
 45
0.0
1001
ACAD
1000
AcDbSavedByObjectVersion
1070
     0
  0
VISUALSTYLE
  5
1E6
102
{ACAD_XDICTIONARY
360
598
102
}
102
{ACAD_REACTORS
330
EF
102
}
330
EF
100
AcDbVisualStyle
  2

 70
    22
 71
     2
 72
     2
 73
     0
 90
        0
 40
-0.6
 41
-30.0
 62
     5
 63
     7
421
 16777215
 74
     1
 91
        4
 64
     7
 65
   257
 75
     1
175
     1
 42
1.0
 92
        8
 66
     7
 43
1.0
 76
     1
 77
     6
 78
     2
 67
     7
 79
     5
170
     0
171
     0
290
     0
174
     0
 93
        1
 44
0.0
173
     0
291
     1
 45
0.0
1001
ACAD
1000
AcDbSavedByObjectVersion
1070
     0
  0
VISUALSTYLE
  5
FE
102
{ACAD_XDICTIONARY
360
590
102
}
102
{ACAD_REACTORS
330
EF
102
}
330
EF
100
AcDbVisualStyle
  2

 70
    15
 71
     2
 72
     2
 73
     1
 90
        0
 40
-0.6
 41
-30.0
 62
     5
 63
     7
421
 16777215
 74
     1
 91
        4
 64
     7
 65
   257
 75
     1
175
     1
 42
1.0
 92
        8
 66
     7
 43
1.0
 76
     1
 77
     6
 78
     2
 67
     7
 79
     5
170
     0
171
     0
290
     0
174
     0
 93
        1
 44
0.0
173
     0
291
     1
 45
0.0
1001
ACAD
1000
AcDbSavedByObjectVersion
1070
     0
  0
VISUALSTYLE
  5
F0
102
{ACAD_XDICTIONARY
360
574
102
}
102
{ACAD_REACTORS
330
EF
102
}
330
EF
100
AcDbVisualStyle
  2

 70
     0
 71
     2
 72
     1
 73
     1
 90
        2
 40
-0.6
 41
30.0
 62
     5
 63
     7
421
 16777215
 74
     0
 91
        0
 64
     7
 65
   257
 75
     1
175
     1
 42
1.0
 92
        8
 66
     7
 43
1.0
 76
     1
 77
     6
 78
     2
 67
     7
 79
     5
170
     0
171
     0
290
     0
174
     0
 93
       13
 44
0.0
173
     0
291
     1
 45
0.0
1001
ACAD
1000
AcDbSavedByObjectVersion
1070
     0
  0
VISUALSTYLE
  5
F1
102
{ACAD_XDICTIONARY
360
576
102
}
102
{ACAD_REACTORS
330
EF
102
}
330
EF
100
AcDbVisualStyle
  2

 70
     1
 71
     2
 72
     1
 73
     1
 90
        2
 40
-0.6
 41
30.0
 62
     5
 63
     7
421
 16777215
 74
     1
 91
        0
 64
     7
 65
   257
 75
     1
175
     1
 42
1.0
 92
        0
 66
   257
 43
1.0
 76
     1
 77
     6
 78
     2
 67
     7
 79
     5
170
     0
171
     0
290
     0
174
     0
 93
       13
 44
0.0
173
     0
291
     1
 45
0.0
1001
ACAD
1000
AcDbSavedByObjectVersion
1070
     0
  0
VISUALSTYLE
  5
F2
102
{ACAD_XDICTIONARY
360
578
102
}
102
{ACAD_REACTORS
330
EF
102
}
330
EF
100
AcDbVisualStyle
  2

 70
     2
 71
     2
 72
     2
 73
     1
 90
        2
 40
-0.6
 41
30.0
 62
     5
 63
     7
421
 16777215
 74
     0
 91
        0
 64
     7
 65
   257
 75
     1
175
     1
 42
1.0
 92
        0
 66
     7
 43
1.0
 76
     1
 77
     6
 78
     2
 67
     7
 79
     5
170
     0
171
     0
290
     0
174
     0
 93
       13
 44
0.0
173
     0
291
     1
 45
0.0
1001
ACAD
1000
AcDbSavedByObjectVersion
1070
     0
  0
VISUALSTYLE
  5
F3
102
{ACAD_XDICTIONARY
360
57A
102
}
102
{ACAD_REACTORS
330
EF
102
}
330
EF
100
AcDbVisualStyle
  2

 70
     3
 71
     2
 72
     2
 73
     1
 90
        2
 40
-0.6
 41
30.0
 62
     5
 63
     7
421
 16777215
 74
     1
 91
        0
 64
     7
 65
   257
 75
     1
175
     1
 42
1.0
 92
        0
 66
   257
 43
1.0
 76
     1
 77
     6
 78
     2
 67
     7
 79
     5
170
     0
171
     0
290
     0
174
     0
 93
       13
 44
0.0
173
     0
291
     1
 45
0.0
1001
ACAD
1000
AcDbSavedByObjectVersion
1070
     0
  0
VISUALSTYLE
  5
F7
102
{ACAD_XDICTIONARY
360
582
102
}
102
{ACAD_REACTORS
330
EF
102
}
330
EF
100
AcDbVisualStyle
  2

 70
     6
 71
     1
 72
     2
 73
     2
 90
        0
 40
-0.6
 41
-30.0
 62
     5
 63
     7
421
 16777215
 74
     2
 91
        2
 64
     7
 65
   257
 75
     2
175
     1
 42
40.0
 92
        0
 66
   257
 43
1.0
 76
     1
 77
     6
 78
     2
 67
     7
 79
     3
170
     0
171
     0
290
     0
174
     0
 93
        1
 44
0.0
173
     0
291
     0
 45
0.0
1001
ACAD
1000
AcDbSavedByObjectVersion
1070
     0
  0
VISUALSTYLE
  5
1E4
102
{ACAD_XDICTIONARY
360
594
102
}
102
{ACAD_REACTORS
330
EF
102
}
330
EF
100
AcDbVisualStyle
  2

 70
    20
 71
     2
 72
     2
 73
     0
 90
        0
 40
-0.6
 41
-30.0
 62
     5
 63
     7
421
 16777215
 74
     1
 91
        4
 64
     7
 65
   257
 75
     1
175
     1
 42
1.0
 92
       10
 66
     7
 43
1.0
 76
     1
 77
     6
 78
     2
 67
     7
 79
     5
170
     0
171
     0
290
     0
174
     0
 93
        1
 44
0.0
173
     0
291
     1
 45
0.0
1001
ACAD
1000
AcDbSavedByObjectVersion
1070
     0
  0
VISUALSTYLE
  5
FD
102
{ACAD_XDICTIONARY
360
58E
102
}
102
{ACAD_REACTORS
330
EF
102
}
330
EF
100
AcDbVisualStyle
  2

 70
    14
 71
     2
 72
     2
 73
     1
 90
        0
 40
-0.6
 41
-30.0
 62
     5
 63
     7
421
 16777215
 74
     1
 91
        4
 64
     7
 65
   257
 75
     7
175
     7
 42
1.0
 92
        8
 66
     7
 43
1.0
 76
     1
 77
     6
 78
     2
 67
     7
 79
     5
170
     0
171
     0
290
     0
174
     0
 93
        1
 44
0.0
173
     0
291
     1
 45
0.0
1001
ACAD
1000
AcDbSavedByObjectVersion
1070
     0
  0
VISUALSTYLE
  5
1E5
102
{ACAD_XDICTIONARY
360
596
102
}
102
{ACAD_REACTORS
330
EF
102
}
330
EF
100
AcDbVisualStyle
  2

 70
    21
 71
     2
 72
     2
 73
     0
 90
        0
 40
-0.6
 41
-30.0
 62
     5
 63
     7
421
 16777215
 74
     1
 91
        4
 64
     7
 65
   257
 75
     1
175
     1
 42
1.0
 92
        9
 66
     7
 43
1.0
 76
     1
 77
     6
 78
     2
 67
     7
 79
     5
170
     0
171
     0
290
     0
174
     0
 93
        1
 44
0.0
173
     0
291
     1
 45
0.0
1001
ACAD
1000
AcDbSavedByObjectVersion
1070
     0
  0
VISUALSTYLE
  5
F9
102
{ACAD_XDICTIONARY
360
586
102
}
102
{ACAD_REACTORS
330
EF
102
}
330
EF
100
AcDbVisualStyle
  2

 70
     8
 71
     2
 72
     3
 73
     0
 90
        2
 40
-0.6
 41
30.0
 62
     5
 63
     7
421
 16777215
 74
     0
 91
        0
 64
     7
 65
   257
 75
     1
175
     1
 42
1.0
 92
        8
 66
   257
 43
1.0
 76
     1
 77
     6
 78
     2
 67
     7
 79
     3
170
     0
171
     0
290
     0
174
     0
 93
       13
 44
0.0
173
     0
291
     0
 45
0.0
1001
ACAD
1000
AcDbSavedByObjectVersion
1070
     0
  0
VISUALSTYLE
  5
1F3
102
{ACAD_XDICTIONARY
360
5A2
102
}
102
{ACAD_REACTORS
330
EF
102
}
330
EF
100
AcDbVisualStyle
  2

 70
    27
 71
     2
 72
     2
 73
     1
 90
        2
 40
-0.6
 41
30.0
 62
     5
 63
     7
421
 16777215
 74
     0
 91
        4
 64
     7
 65
   257
 75
     1
175
     1
 42
1.0
 92
        8
 66
   257
 43
1.0
 76
     1
 77
     6
 78
     2
 67
     8
425
  7895160
 79
     3
170
     0
171
     0
290
     0
174
     0
 93
        5
 44
0.0
173
     0
291
     0
 45
0.0
1001
ACAD
1000
AcDbSavedByObjectVersion
1070
     0
  0
VISUALSTYLE
  5
1F2
102
{ACAD_XDICTIONARY
360
5A0
102
}
102
{ACAD_REACTORS
330
EF
102
}
330
EF
100
AcDbVisualStyle
  2

 70
    26
 71
     2
 72
     2
 73
     1
 90
        2
 40
-0.6
 41
30.0
 62
     5
 63
     7
421
 16777215
 74
     1
 91
       10
 64
     7
 65
   257
 75
     2
175
     1
 42
1.0
 92
        8
 66
   257
 43
1.0
 76
     1
 77
     6
 78
     2
 67
     7
 79
     3
170
     0
171
     0
290
     0
174
     0
 93
        5
 44
0.0
173
     0
291
     0
 45
0.0
1001
ACAD
1000
AcDbSavedByObjectVersion
1070
     0
  0
VISUALSTYLE
  5
1EF
102
{ACAD_XDICTIONARY
360
59A
102
}
102
{ACAD_REACTORS
330
EF
102
}
330
EF
100
AcDbVisualStyle
  2

 70
    23
 71
     2
 72
     2
 73
     3
 90
        0
 40
-0.6
 41
-30.0
 62
     5
 63
     7
421
 16777215
 74
     2
 91
        2
 64
     7
 65
     7
 75
     1
175
     1
 42
40.0
 92
        8
 66
     7
 43
1.0
 76
     1
 77
     6
 78
     2
 67
     7
 79
     3
170
     0
171
     0
290
     0
174
     0
 93
        1
 44
0.0
173
     0
291
     0
 45
0.0
1001
ACAD
1000
AcDbSavedByObjectVersion
1070
     0
  0
VISUALSTYLE
  5
1F0
102
{ACAD_XDICTIONARY
360
59C
102
}
102
{ACAD_REACTORS
330
EF
102
}
330
EF
100
AcDbVisualStyle
  2

 70
    24
 71
     1
 72
     2
 73
     2
 90
        0
 40
-0.6
 41
-30.0
 62
     5
 63
     7
421
 16777215
 74
     2
 91
        2
 64
     7
 65
     7
 75
     1
175
     1
 42
40.0
 92
       11
 66
     7
 43
1.0
 76
     1
 77
     6
 78
     2
 67
     7
 79
     6
170
     0
171
     0
290
     0
174
     0
 93
        1
 44
0.0
173
     0
291
     0
 45
0.0
1001
ACAD
1000
AcDbSavedByObjectVersion
1070
     0
  0
VISUALSTYLE
  5
FC
102
{ACAD_XDICTIONARY
360
58C
102
}
102
{ACAD_REACTORS
330
EF
102
}
330
EF
100
AcDbVisualStyle
  2

 70
    13
 71
     2
 72
     2
 73
     1
 90
        0
 40
-0.6
 41
-30.0
 62
     5
 63
     7
421
 16777215
 74
     1
 91
        4
 64
     7
 65
   257
 75
     1
175
     1
 42
1.0
 92
       12
 66
     7
 43
1.0
 76
     1
 77
     6
 78
     2
 67
     7
 79
     5
170
     0
171
     0
290
     0
174
     0
 93
        1
 44
0.0
173
     0
291
     1
 45
0.0
1001
ACAD
1000
AcDbSavedByObjectVersion
1070
     0
  0
VISUALSTYLE
  5
F6
102
{ACAD_XDICTIONARY
360
580
102
}
102
{ACAD_REACTORS
330
EF
102
}
330
EF
100
AcDbVisualStyle
  2

 70
     5
 71
     0
 72
     2
 73
     0
 90
        0
 40
-0.6
 41
-30.0
 62
     5
 63
     7
421
 16777215
 74
     1
 91
        4
 64
     7
 65
   257
 75
     1
175
     1
 42
1.0
 92
        0
 66
   257
 43
1.0
 76
     1
 77
     6
 78
     2
 67
     7
 79
     3
170
     0
171
     0
290
     0
174
     0
 93
        1
 44
0.0
173
     0
291
     0
 45
0.0
1001
ACAD
1000
AcDbSavedByObjectVersion
1070
     0
  0
VISUALSTYLE
  5
1F1
102
{ACAD_XDICTIONARY
360
59E
102
}
102
{ACAD_REACTORS
330
EF
102
}
330
EF
100
AcDbVisualStyle
  2

 70
    25
 71
     2
 72
     2
 73
     1
 90
        1
 40
0.5
 41
-30.0
 62
     5
 63
     7
421
 16777215
 74
     1
 91
        0
 64
     7
 65
   257
 75
     1
175
     1
 42
1.0
 92
        8
 66
     7
 43
1.0
 76
     1
 77
     6
 78
     2
 67
     7
 79
     3
170
     0
171
     0
290
     0
174
     0
 93
       13
 44
0.0
173
     0
291
     0
 45
0.0
1001
ACAD
1000
AcDbSavedByObjectVersion
1070
     0
  0
DICTIONARYVAR
  5
146
102
{ACAD_REACTORS
330
5E
102
}
330
5E
100
DictionaryVariables
280
     0
  1
1:1
  0
DICTIONARYVAR
  5
145
102
{ACAD_REACTORS
330
5E
102
}
330
5E
100
DictionaryVariables
280
     0
  1
STANDARD
  0
DICTIONARYVAR
  5
84
102
{ACAD_REACTORS
330
5E
102
}
330
5E
100
DictionaryVariables
280
     0
  1
STANDARD
  0
DICTIONARYVAR
  5
227
102
{ACAD_REACTORS
330
5E
102
}
330
5E
100
DictionaryVariables
280
     0
  1
Metric50
  0
DICTIONARYVAR
  5
228
102
{ACAD_REACTORS
330
5E
102
}
330
5E
100
DictionaryVariables
280
     0
  1
Metric50
  0
DICTIONARYVAR
  5
5F
102
{ACAD_REACTORS
330
5E
102
}
330
5E
100
DictionaryVariables
280
     0
  1
2
  0
DICTIONARYVAR
  5
63
102
{ACAD_REACTORS
330
5E
102
}
330
5E
100
DictionaryVariables
280
     0
  1
1
  0
DICTIONARYVAR
  5
1AE
102
{ACAD_REACTORS
330
5E
102
}
330
5E
100
DictionaryVariables
280
     0
  1
0
  0
DICTIONARYVAR
  5
1AF
102
{ACAD_REACTORS
330
5E
102
}
330
5E
100
DictionaryVariables
280
     0
  1
0
  0
DICTIONARYVAR
  5
571
102
{ACAD_REACTORS
330
5E
102
}
330
5E
100
DictionaryVariables
280
     0
  1
2
  0
DICTIONARY
  5
5A6
330
21C
100
AcDbDictionary
280
     1
281
     1
  3
ACAD_XREC_ROUNDTRIP
360
5A7
  0
DICTIONARY
  5
205
330
22
100
AcDbDictionary
280
     1
281
     1
  0
DICTIONARY
  5
1F9
330
ED
100
AcDbDictionary
280
     1
281
     1
  3
FBXASSET
360
1FA
  0
DICTIONARY
  5
1F7
330
EC
100
AcDbDictionary
280
     1
281
     1
  3
FBXASSET
360
1F8
  0
DICTIONARY
  5
173
330
EE
100
AcDbDictionary
280
     1
281
     1
  3
BUMPTILE
360
175
  3
DIFFUSETILE
360
174
  3
FBXASSET
360
1FB
  3
OPACITYTILE
360
176
  3
REFLECTIONTILE
360
177
  0
DICTIONARY
  5
5A4
330
21A
100
AcDbDictionary
280
     1
281
     1
  3
ACAD_XREC_ROUNDTRIP
360
5A5
  0
DICTIONARY
  5
162
330
7F
100
AcDbDictionary
280
     1
281
     1
  3
ACAD_ROUNDTRIP_2008_TABLESTYLE_CELLSTYLEMAP
360
572
  0
DICTIONARY
  5
57E
330
F5
100
AcDbDictionary
280
     1
281
     1
  3
ACAD_XREC_ROUNDTRIP
360
57F
  0
DICTIONARY
  5
57C
330
F4
100
AcDbDictionary
280
     1
281
     1
  3
ACAD_XREC_ROUNDTRIP
360
57D
  0
DICTIONARY
  5
58A
330
FB
100
AcDbDictionary
280
     1
281
     1
  3
ACAD_XREC_ROUNDTRIP
360
58B
  0
DICTIONARY
  5
592
330
FF
100
AcDbDictionary
280
     1
281
     1
  3
ACAD_XREC_ROUNDTRIP
360
593
  0
DICTIONARY
  5
584
330
F8
100
AcDbDictionary
280
     1
281
     1
  3
ACAD_XREC_ROUNDTRIP
360
585
  0
DICTIONARY
  5
588
330
FA
100
AcDbDictionary
280
     1
281
     1
  3
ACAD_XREC_ROUNDTRIP
360
589
  0
DICTIONARY
  5
598
330
1E6
100
AcDbDictionary
280
     1
281
     1
  3
ACAD_XREC_ROUNDTRIP
360
599
  0
DICTIONARY
  5
590
330
FE
100
AcDbDictionary
280
     1
281
     1
  3
ACAD_XREC_ROUNDTRIP
360
591
  0
DICTIONARY
  5
574
330
F0
100
AcDbDictionary
280
     1
281
     1
  3
ACAD_XREC_ROUNDTRIP
360
575
  0
DICTIONARY
  5
576
330
F1
100
AcDbDictionary
280
     1
281
     1
  3
ACAD_XREC_ROUNDTRIP
360
577
  0
DICTIONARY
  5
578
330
F2
100
AcDbDictionary
280
     1
281
     1
  3
ACAD_XREC_ROUNDTRIP
360
579
  0
DICTIONARY
  5
57A
330
F3
100
AcDbDictionary
280
     1
281
     1
  3
ACAD_XREC_ROUNDTRIP
360
57B
  0
DICTIONARY
  5
582
330
F7
100
AcDbDictionary
280
     1
281
     1
  3
ACAD_XREC_ROUNDTRIP
360
583
  0
DICTIONARY
  5
594
330
1E4
100
AcDbDictionary
280
     1
281
     1
  3
ACAD_XREC_ROUNDTRIP
360
595
  0
DICTIONARY
  5
58E
330
FD
100
AcDbDictionary
280
     1
281
     1
  3
ACAD_XREC_ROUNDTRIP
360
58F
  0
DICTIONARY
  5
596
330
1E5
100
AcDbDictionary
280
     1
281
     1
  3
ACAD_XREC_ROUNDTRIP
360
597
  0
DICTIONARY
  5
586
330
F9
100
AcDbDictionary
280
     1
281
     1
  3
ACAD_XREC_ROUNDTRIP
360
587
  0
DICTIONARY
  5
5A2
330
1F3
100
AcDbDictionary
280
     1
281
     1
  3
ACAD_XREC_ROUNDTRIP
360
5A3
  0
DICTIONARY
  5
5A0
330
1F2
100
AcDbDictionary
280
     1
281
     1
  3
ACAD_XREC_ROUNDTRIP
360
5A1
  0
DICTIONARY
  5
59A
330
1EF
100
AcDbDictionary
280
     1
281
     1
  3
ACAD_XREC_ROUNDTRIP
360
59B
  0
DICTIONARY
  5
59C
330
1F0
100
AcDbDictionary
280
     1
281
     1
  3
ACAD_XREC_ROUNDTRIP
360
59D
  0
DICTIONARY
  5
58C
330
FC
100
AcDbDictionary
280
     1
281
     1
  3
ACAD_XREC_ROUNDTRIP
360
58D
  0
DICTIONARY
  5
580
330
F6
100
AcDbDictionary
280
     1
281
     1
  3
ACAD_XREC_ROUNDTRIP
360
581
  0
DICTIONARY
  5
59E
330
1F1
100
AcDbDictionary
280
     1
281
     1
  3
ACAD_XREC_ROUNDTRIP
360
59F
  0
XRECORD
  5
5A7
102
{ACAD_REACTORS
330
5A6
102
}
330
5A6
100
AcDbXrecord
280
     1
102
DISPLAYNAME
  1
Metric50
102
FLAGS
 90
        0
  0
XRECORD
  5
1FA
102
{ACAD_REACTORS
330
1F9
102
}
330
1F9
100
AcDbXrecord
280
     1
 70
     1
 90
429727718
  1
D62C5603-E3A1-4AEA-B7FB-FE5D8D0755AF
310
504B03040A0000080000CC70623B3DEE336E79000000790000001B0000006175746F6465736B2D64657369676E2D7061636B6167652E786D6C3C3F786D6C2076657273696F6E3D22312E302220656E636F64696E673D227574662D3822203F3E3C666F726D6174733E3C666F726D61743E687474703A2F2F736368656D612E
310
6175746F6465736B2E636F6D2F64657369676E2D7061636B6167652F323030393C2F666F726D61743E3C2F666F726D6174733E504B0304140006080800CC70623BD486FD9CA0000000F4000000130000005B436F6E74656E745F54797065735D2E786D6C7D8EC10E82300C865F65E91D8A1E8C310C0EEA1BF002731658846E
310
D98AC1B77784ABF1D8FE5FBFBF75BBCE937A534CCEB38643598122B6FEE978D0B0485F9C41B54DDD7D022595594E1A469170414C76A4D9A4D207E29CF43ECE46F218070CC6BECC4078ACAA135ACF422C856C0E68EA1BF5669944DDD7BCDE7B1F8E415D77AECB980613C2E4AC91FC167A2B244592486606FC29C8FD7F045B9A
310
EF7053A7E60B504B0304140006080800CC70623B853B8169EB0000007C01000008000000636F72652E786D6C8D90416EC3201045AF62CDB6C206821CC7C244919D9CA01740401C94182C03558F5F9C3852BBEB6A467FFE9B197D7EFC9E1EC5975982F5AE035262288C535E5B377690E21535501C055FBC8FBF6C503839990E
310
5619041F179FE64D52DE45E362569DD7661365082642A11EB9E920A89B99642953CC8E702F67A9EE7234257977194EC9EAE275C4EABCCF5EAD5940D4AC6F0E35A568B8F43562CD7046CD199FD07E60174276A7BE677B5EADB0E0D14EEFFB6A31321A0D82627C4084204C3F096B71DD52F6819B16635EADF63F509AF53FA164
310
5DDCD1EDDD17164090FCC8732078B56691CB33A85CD7DCC40F504B0304140006080800CC70623B55019EA25F0000007C00000007000000636E782E786D6C4DCB3B0E80201045D1AD90E915ED2CF8AC45050C11660C8261F98AB1B07AC9C97D42D718D865D3E909258CFD00CCE24AC6E326A164D74DC0B4128928FF32603847
310
2BA13128B1252AC747C6BAB984FC68F0B87FE8960A5C09FE86CFB69FBA01504B0304140006080800CC70623BDBABAAF470010000D40300000C0000006662782F636F72652E786D6CC553D16E823014FD95A6AF4B694182CC941A83FA05FB810A9511A125A5257EFE2E82712ECEB8A7F100CD39F7F69E734AF9FADC366850B6
310
AF8DCE7018308C942E4C59EB2AC3DE1D498AD15A706B8CFB56869196ADCAF00863C12B6B7C374385D14E6907A836A59A41D9F7CA615434B0C8705F7CAA5606D23BA8E84F41278B93AC54100640439DE0BDB320004D43C63716C7C399D30917DCFBBA9CD9BA8469F5B156168B24CED3F7248AC8769F27244EB73B92EED8862C
310
B7F13E0C179B3C8F979C8ECD82BBBABDAA2BAC924E9558448CBD9330242CFA08E3154B5651FCC6D215639C8EE5774DBE2B5F6CF2B5768B68963BB5F5588420E442FC700B1139D4CB01F450C1E918227C2E09DF070D8140C84E1E9AAB8F1340832A9CB13130A5F1376A908D57309505ECF2A0DF179C4E9D30F5B239B87E3823
310
7A79C6F31DE1A8A5AEC08474B03C7837EAE4938639B44E5932B833D2C6B6B279CDC613877FA26EE21F4A2A4C63EC7F29A2F301D1F9F7A0E37D145F504B0304140006080800CC70623B9C113CC27E0000009D0000000B0000006662782F636E782E786D6C4DCCDF0A83201C86E15B91DFB94BFB330DD428C8FB886521330DA7
310
6397BF1A1DECE883878F57749FCDA1B7892F1BBC047A23808C7F84D9FA55424E0BE6803A256208E9EF06C84F9B91703228B1C690F78B66B34CD9A5439DF5CF0BFBF65E35BCA1B8D6A5C6F540381E886698B5741C695F9503EBA150A2F8958E3DC3EA0B504B0304140006080800CC70623B7DF2F77C2A010000120200003100
310
00006662782F41393633353835312D344632462D344230382D423046372D3739314545314133324237412F636F72652E786D6C8D51DB8EC22014FC15C2939B0D2DB4B45643319AE817EC0F6041255A68B86CFCFC856D4D76DF7CE190393373060EDB3DC707F856CE6B6B7A480A0C81328395DA5C7B18C3057510EC3873D686
310
3F34088C18550F330C39BB3A1BA7051AAC09CA84841A2BD5020AEF55806078A44B0FFD7053A328440C89E1EFC52486BBB8AA8214A99D789CF9E05200300FC927E4FB4D5B375D43103D5527440FB843077C5AA3F5861C8F645F5787F59E95B390B318B55CE45AA638FAA2957BD7248B390B7A7CC51F9C124149C82B8C378810
310
84AB2F42B7B8DD56F413775B8C5999E9FF4471926F8AA236A1AE96B8B3CC434E5839373893369E1FAF30EA395917409EB7F26AF8801C171837A4A6AC9C89E9F9C9B1A58BA30FD6A5EF5DDDCF894B9AD9B6A59C957943A9FCAE2FD5BC4DFE03504B0304140006080800CC70623BAD7543B64E01000033030000300000006662
310
782F41393633353835312D344632462D344230382D423046372D3739314545314133324237412F636E782E786D6CD593CD6EC32010845F0571AD6CE3D48AD20813A9873E410FBD12D82434182C7EAAE6EDBB2424CD25871E7B41D6EC30B3FA84F9E67BB2E40B4234DE8DB46F1925E094D7C6ED479AD3AE5951B2113C789FEE
310
6C943839C1488B4C05DF079FE72A69D8C96C13AAD6B8631503449F83828872B949AC57D26200B826A308D316B4064D6E46FCDA41C05550DC9E483A00797BFD207EFB092A45DE9514C1BBD22178396BD39D891265658C238DEA00936C654E5E433CB65A26D9F6EDB5EBC14EBF49A45CB856E66048291F6939A9A81BB5C89177
310
38143CA680F4AA299D66A042CEB3354A2684DC9D8D178FE0D9B8B41CAAD720F880EE7EF93C0C18769E099ECC04D5A102C8049A8A05632F4DDF376CF1DE0F6BB65C2F8627B65A33C6BB62177CEBBDAD973006829F89F22E814B54F4BC2BE347F8AA8F681390B50FA73F804400B5F542E796F19FF974E7F78DB802FE05E20750
310
4B0304140006080800CC70623BE75B7789680500003C100000340000006662782F41393633353835312D344632462D344230382D423046372D3739314545314133324237412F6F626A656374732E786D6CAD575B8F9B3818FD2B887D06C22499CB8AA1CA655245D5B455A356FB305264C061D8018C6C3393D95FBFC7600890
310
A4CD5EF210B0B1BFEBF98E3F7B1FF6596ABC522E1296DF9BAE3D320D9A872C4AF2F8DE2CE5CEBA358D0FBEC719939D65A691938CDE9B6ADAF4BD98B3B2D05311DD91329583D9D5FC0F438434A7A611A644887B5384CF34233629258BA878B12322891DEFF6B66BD70BFB62634E8AE781D082709A4B588AF91C528CDA28B73F
310
1C998EEF39EABBEFA97FBD6A7C7E9553F9D3D79FE442923C3C523610337627CB87ABE99D359D4CC6D6E4FACAB5E6ABF9D2726FC6A3C5F56271377BB88362213924694B38DD99FE47C48627A1E7D49F5A8BB5E1A74C0A599ED3B0F21F1E56366B89112D681E218F0915D0D6F17AD41FBA2A369DCF6335D62ABBD39779D5DDD1
310
11D4D8DE3CBB96B2E04FB8202E41051754A1AA8E8F76B4C6DFE810B580B1547F4B84911149794252234D024EF8BBE963A95AE27B3D310A9D5C215C7960FAEE415ED75694C6AFB17BCACA5D99A60A9AA65F217B0BFC53292ACB92BF283FAD0D3621576592CB5BED907C2FA8E9DF794E35E97BEA31BED21FEB401ABB94C44839
310
DCACBF0E1C5DA8DA5B2F4DFFD32AD86F543D9E565E7056502E157C00AD2671CD534549AB752FCA9CDA00677A313F04E51B22FF19E57B300579E3C97EB29F682D92935CEC18CF901B7B54FD8C51F362B56FC72FE0B3C1EAE335EDCCBF5AEC39ADB17DC238973F804BA5E6F6BFE7AF1FB32E523BE9F3BD571418E3631DCA4D48
310
5250CF639223210A9446CA30052EDF057BD35F8329C1ECD84552BF0DC8D18BE7BCE23BFE6BD960AB4A7DE79923A103BEBD80F911CBAA2C60DB19B01CF164A5583B772EE6D3FFA56666CBCDA74DC97724A48F9A58967497E489C4D979006FD7A05E227A1EBDD0F737C623387A9C844D3709995625106D157315F8B8392CD4E0
310
A0B9A720C4BE9829CEF37EA1E13111214D53925356365ADA634861B52519DD27A00AEB808EAF0628E6F435519D446F45CF2C9CF5214F0A15B2F6D06B79DA3EE3CBF7F56780D2F4E7EF73A0F5E5B02A38D07DC852C6B7C1FBB6664213E0C39E3EBA7FF4E1AD23EA2829407C85E586727488B751B2DB9502BC7B228A3FD68B6E
310
A65A22397E690AA8D158D7E404EC8CDA235CC3B7D1898680131CEC2CDF2638C65196279577750F15884AEE19F94199155B92B13297978469D4F8D358DF0AEF7631E28DC8F0D9F437D5D39A83B2231A1D52D543813A824EF8D44BCFF2FA6A31BD1E8DAD87F1CCB526B3879935BF59CDADD5C37479BB1CDD4CA7B3556B516589
310
EF352754B706114D9C885EC9131DE6EFEB43D99AFE2391C2F958179413D7CFEF6B1B6DB1E7600F00DE6E5C67454A339A4BA2E0FBA85ED26F045D454F463DBFCE484C2F90F2E5E3666003662ED8F755951A7D1BECD5B30B550B2785C8E7320B7292A4838DDA71BBC863ED7613CAF659337A3354231D4FF4A182A54904C2898C
310
98B28C4AD0CE056CCF332A80986E571EE9DBC305BB5FEB7E509220A58D25CF042D712A806AC0AD0C657FDEF80D2D9CEAA2EE4D1C76F60BFE74219A06527D6F82DF6412526107381E55E353090704D085B52408A8913C4ED159D79BDA71BB4BC506F4831350EB6F975CD22D69BF7AC49B91A2C0A9DDA3D5CA36AD20FC478E37
310
E61844E2352865EBCB61A275A65283CAAA9DD27703B4102F5AF51EF5F573B75CBB5AD38BC845F7A49F82A0966A49C2E3EA5EA0ECD326CD965F1DB402C6FA8B51A4658C5C5E2EC9E214602E55810345408596591009A82E7E7FFACA19EEA299B14A0081A705CB3296EBC14CDF658DCD336EA6D1136881AAEB87B81AB9EE53D5
310
F5EB8BC8362082DA24122F98680A4E7930C01A0079749CEA14382A0783E5EBA5A10F8C098456A03D6A4AEB6BB881E2513747552A5DB22C7EDAF83BD5528081A365F7FF06504B0304140006080000CC70623B000000000000000000000000350000006662782F41393633353835312D344632462D344230382D423046372D37
310
39314545314133324237412F76657274696365732E62696E504B0304140006080800CC70623BF270F1330600000004000000360000006662782F41393633353835312D344632462D344230382D423046372D3739314545314133324237412F747269616E676C65732E62696E636660600000504B0304140006080000CC7062
310
3B000000000000000000000000370000006662782F41393633353835312D344632462D344230382D423046372D3739314545314133324237412F617474726962757465732E62696E504B0304140006080800CC70623B08DA0BD19000000041010000360000006662782F41393633353835312D344632462D344230382D4230
310
46372D3739314545314133324237412F6469726563746F72792E786D6C858F410AC3201045AF22B36F53E9A60B35CBEEBAE80D244E44489C6234F4F835464A48035D0DF398FF9F8AF63D0E6CC63039F212F8F9020C7D47C6792B21C5FE7403D62A1188E2E60C98D7234A5830286103A55745067B9D86B8A3CF9C7F90C11DE6
310
07FB144396D7B6A82D282E9A152AD114D5EF2CB866EEE831B8EEA07A7BB5A8D7D61A2BAAEB7FD5F70921FF497D00504B0304140006080800CC70623BEDD1DC58FD000000A00100003B0000006662782F41393633353835312D344632462D344230382D423046372D3739314545314133324237412F7265736F75726365732F
310
636F72652E786D6C8D504B6E833010BD0A9A6D65B00922041947112427E8052C33A156828DFCA97AFC9A40A576D7CDCCE87D344F8F9FBFE667F689CE6B6B3A6039850C8DB2A336530731DC4903D95970676DF82583CCC8193B5861107C72362E3BA4AC096842428D1D7107A5F7182053CF7474E0D507CE32973124857FE48B
310
540F3961CEF244279DE03EB81420DB9EAC1384436FA353E879B1B182C7A8C75DA3C7F453DF353A1075D537A7BA6464B8F535A99AE14A9A2BBD90E350DD183B5CFABE3AF262350B1EF4FC9351399401471025A527C218A1E53BAB5A5AB765F5469B96525EACF23FA6B88CFF34456DC2A1DCE36E360F82A5202F42F062ED2BAD
310
579969AFDD8A6F504B010214000A0000080000CC70623B3DEE336E79000000790000001B00000000000000000000000000000000006175746F6465736B2D64657369676E2D7061636B6167652E786D6C504B01021400140006080800CC70623BD486FD9CA0000000F40000001300000000000000000000000000B20000005B
310
436F6E74656E745F54797065735D2E786D6C504B01021400140006080800CC70623B853B8169EB0000007C010000080000000000000000000000000083010000636F72652E786D6C504B01021400140006080800CC70623B55019EA25F0000007C000000070000000000000000000000000094020000636E782E786D6C504B
310
01021400140006080800CC70623BDBABAAF470010000D40300000C00000000000000000000000000180300006662782F636F72652E786D6C504B01021400140006080800CC70623B9C113CC27E0000009D0000000B00000000000000000000000000B20400006662782F636E782E786D6C504B01021400140006080800CC70
310
623B7DF2F77C2A010000120200003100000000000000000000000000590500006662782F41393633353835312D344632462D344230382D423046372D3739314545314133324237412F636F72652E786D6C504B01021400140006080800CC70623BAD7543B64E010000330300003000000000000000000000000000D2060000
310
6662782F41393633353835312D344632462D344230382D423046372D3739314545314133324237412F636E782E786D6C504B01021400140006080800CC70623BE75B7789680500003C10000034000000000000000000000000006E0800006662782F41393633353835312D344632462D344230382D423046372D3739314545
310
314133324237412F6F626A656374732E786D6C504B01021400140006080000CC70623B0000000000000000000000003500000000000000000000000000280E00006662782F41393633353835312D344632462D344230382D423046372D3739314545314133324237412F76657274696365732E62696E504B01021400140006
310
080800CC70623BF270F133060000000400000036000000000000000000000000007B0E00006662782F41393633353835312D344632462D344230382D423046372D3739314545314133324237412F747269616E676C65732E62696E504B01021400140006080000CC70623B0000000000000000000000003700000000000000
310
000000000000D50E00006662782F41393633353835312D344632462D344230382D423046372D3739314545314133324237412F617474726962757465732E62696E504B01021400140006080800CC70623B08DA0BD1900000004101000036000000000000000000000000002A0F00006662782F41393633353835312D344632
310
462D344230382D423046372D3739314545314133324237412F6469726563746F72792E786D6C504B01021400140006080800CC70623BEDD1DC58FD000000A00100003B000000000000000000000000000E1000006662782F41393633353835312D344632462D344230382D423046372D3739314545314133324237412F7265
310
736F75726365732F636F72652E786D6C504B0506000000000E000E0080040000641100000000
  0
XRECORD
  5
1F8
102
{ACAD_REACTORS
330
1F7
102
}
330
1F7
100
AcDbXrecord
280
     1
 70
     1
 90
429727718
  1
30362254-06B7-45E0-A893-8CFA70E3D6BC
310
504B03040A0000080000CC70623B3DEE336E79000000790000001B0000006175746F6465736B2D64657369676E2D7061636B6167652E786D6C3C3F786D6C2076657273696F6E3D22312E302220656E636F64696E673D227574662D3822203F3E3C666F726D6174733E3C666F726D61743E687474703A2F2F736368656D612E
310
6175746F6465736B2E636F6D2F64657369676E2D7061636B6167652F323030393C2F666F726D61743E3C2F666F726D6174733E504B0304140006080800CC70623BD486FD9CA0000000F4000000130000005B436F6E74656E745F54797065735D2E786D6C7D8EC10E82300C865F65E91D8A1E8C310C0EEA1BF002731658846E
310
D98AC1B77784ABF1D8FE5FBFBF75BBCE937A534CCEB38643598122B6FEE978D0B0485F9C41B54DDD7D022595594E1A469170414C76A4D9A4D207E29CF43ECE46F218070CC6BECC4078ACAA135ACF422C856C0E68EA1BF5669944DDD7BCDE7B1F8E415D77AECB980613C2E4AC91FC167A2B244592486606FC29C8FD7F045B9A
310
EF7053A7E60B504B0304140006080800CC70623B1EC5D7A3EB0000007C01000008000000636F72652E786D6C8D90416EC3201045AF82665B6103C6756C6122AB4D4ED00B204C5C94182C03558F5F9C3852BBEB6A467FFE9B197D71FC9E6FE8CBACC17AD7032D0820E3B41FAD9B7A48F1820F808E52ACDEC75F36404ECDA687
310
4D0629A6D5A76597B477D1B89855E747B38B2A041301E95B6E7A08FAD3CCAA50296647B8168BD2573599823EBB0CA76447F43862C7BCCF5EAC59410E4DDD9C7973C2755553CCCFA4C603E3040F1565ED3B1FDE4E432BCA0D9622DAF9795FAF464533826484B498524CD807E51D79ED187F21878E10516EF63F505AC67F42C9
310
BA58B1FDDD071640D2FCC87D2045B96591CB3DA85CB7DCE40F504B0304140006080800CC70623B55019EA25F0000007C00000007000000636E782E786D6C4DCB3B0E80201045D1AD90E915ED2CF8AC45050C11660C8261F98AB1B07AC9C97D42D718D865D3E909258CFD00CCE24AC6E326A164D74DC0B4128928FF32603847
310
2BA13128B1252AC747C6BAB984FC68F0B87FE8960A5C09FE86CFB69FBA01504B0304140006080800CC70623B8C9102E971010000D40300000C0000006662782F636F72652E786D6CC5535B6E833010BC8AE5DF0A6C08340F1947A84D4ED00B38C6A128602363A31CBFCB234A53A551FA553EC09AD9F5CE8C31DB9E9B1AF5CA
310
7695D1198E428A91D2D214952E33ECDD315861B4E5CC1AE3BE9561A445A3323CC098B3D21ADFCE9034DA29ED00D5A6503328BA4E398C640D8B0C77F253352214DE4145770A5B214FA2546114020D759C75CE8200340D19DE981F0F6746269C33EFAB6266AB02A655C74A59CCF365BADC27CB5D902ED22848F6340DF238A141
310
BE88E2F57B92BFEDF23523433367AE6A2EEAA455C2A902F398D2751045018D3FA264435F3771F242571B4A1919CA6F9A7C5B3CD9E42BED16F12C776AEB308F40C848FC700B1139D4891EF410CEC810227CC6846F8386402064270EF5C5C709A05E49676C024C61FC95EA45ED154CA5211D1FF4FB8291A913A68E9B83EBBB33
310
E2A7673CDE118E5AE8124C0807CB8377834E366998436B950D7A7746DAD846D4CFD978E0F04FD455FC5D49D2D4C6FE9722321F10997F0F32DC47FE05504B0304140006080800CC70623BFFEA85907E0000009D0000000B0000006662782F636E782E786D6C4DCCD10A83201886E15B91FFDC95D95A811AB6F23E625948A6C3
310
E9D8E5AF46073BFAE0E1E365ED67B3E8ADC3CB78C7815C7240DA3DFC64DCC221C519D7805AC182F7F1EF06C88D9BE6703008B6049F9E274D7A1E938DBB5AE3D6131B2589BA0D3D965551E0B2EA732C9B9A624AAEB41E3A557677029960D9AFB4EF11165F504B0304140006080800CC70623B4FEEA4082C0100001202000031
310
0000006662782F39464131463745442D413632322D343644302D413938332D3331353338454246344243312F636F72652E786D6C8D515B6EC32010BC0AE2AB55850DD871ED0813254D72825EC00192A2C460F1A872FC42ED48ED5F7E00CDCECCCEB26C731F6FE05B39AFADE921293004CA082BB5B9F43086336A21D870E6AC
310
0D7F68109861543DCC30E4ECE26C9C164858139409093556AA051CBC570102714B8F1E7AF1A5C6A11862480C7F2DA6415C878B2A4891CA89C7990F2E050073937C42DE1DB7E4F87ED8A36D4329AA9B3D46DBAEAD504556557BD81DEBDD0761E52CE42C462D17B996298E3E6BE59E35C962CE821E1FF18553435012728A7187
310
0841987E927A8D9B35ADDF70BBC6989599FE4F1427F9A4286A132ABAC49D651EF234CD5CE04CDA78BA3DC2A8FB645D00B9DF8B57E215725C60BCA2A463E54C4CE327C7A65E1C7DB02E7DEFCBF594B864C5CA6CDBD49C957943E9FA5D5FBAF336F90F504B0304140006080800CC70623BAD7543B64E01000033030000300000
310
006662782F39464131463745442D413632322D343644302D413938332D3331353338454246344243312F636E782E786D6CD593CD6EC32010845F0571AD6CE3D48AD20813A9873E410FBD12D82434182C7EAAE6EDBB2424CD25871E7B41D6EC30B3FA84F9E67BB2E40B4234DE8DB46F1925E094D7C6ED479AD3AE5951B2113C
310
789FEE6C943839C1488B4C05DF079FE72A69D8C96C13AAD6B8631503449F83828872B949AC57D26200B826A308D316B4064D6E46FCDA41C05550DC9E483A00797BFD207EFB092A45DE9514C1BBD22178396BD39D891265658C238DEA00936C654E5E433CB65A26D9F6EDB5EBC14EBF49A45CB856E66048291F6939A9A81BB5
310
C8917738143CA680F4AA299D66A042CEB3354A2684DC9D8D178FE0D9B8B41CAAD720F880EE7EF93C0C18769E099ECC04D5A102C8049A8A05632F4DDF376CF1DE0F6BB65C2F8627B65A33C6BB62177CEBBDAD973006829F89F22E814B54F4BC2BE347F8AA8F681390B50FA73F804400B5F542E796F19FF974E7F78DB802FE05
310
E207504B0304140006080800CC70623B16AB87BA640500003C100000340000006662782F39464131463745442D413632322D343644302D413938332D3331353338454246344243312F6F626A656374732E786D6CAD575B6FA33818FD2B887DE6924B3BED8A326A92B68A663B534DD4D13E548A0C38942D60649B369D5FBFC7
310
600890A493BDE42160637FD7F31D7FF63E6FB3D478A55C242CBF3247B66B1A340F5994E4F19559CA8D75611A9F7D8F33263BCB4C232719BD32D5B4E97B316765A1A722BA21652A07B3B7B33F0D11D29C9A46981221AE4C113ED38CD8A4942CA2E2C58E882476BCD9DA23BB5ED8171B73523C0F841684D35CC252CCE79062D4
310
468DFA43D7747CCF51DF7D4FFDEB5593E3AB9CCA9FBEFE241792E4E19EB28198C968BAB8199F5D5A67D3E9C49A9E8F47D6EC76B6B0469F26EEFC7C3EBFBCBEB98462213924694B38DD98FE1D62C393D073EA4FADC5DAF04326852CCF6958F90F0F2B9BB5C48816348F90C7840A68EB78EDF68723159BCEE7891A6B95DDE9D3
310
BCEAEEE8086A6C6F9E5D4B59F0175C10A7A0820BAA5055C7473B5AE3CFDD452D602CD5DF12616444529E90D448938013FE6EFA58AA96F85E4F8C42275708571E98FE6827AF6B2B4AE3D7D83D64E5A64C53054DD3AF90BD06FEA9149565C94FCA0F6B834DC85599E4F2423B24DF0B6AFA979E534DFA9E7A4CC6FA631D486393
310
921829879BF5D781A373557BCB85E97FB90DB62B558F8795179C15944B051F40AB495CF35451D26A4727654E6D8033BD98EF82F21D91FF8AF2DD9982BCF1643BDD4EB516C9492E368C67C88DED563FC36D5EACF66DFF057C3658BDBFA69DF9578B3DA735B64F18C7F20770A9D45CFCF7FCF563D6456A277DBEF78A02637CA2
310
43B90A490AEAB94F72244481D24819A6C0E59B606BFA4B3025981DBB48EAB701D97BF19C577CC77F2D1B6C55A9EF3C732474C0B727303F625995056C3B02963D9EAC146BE78EC5FCEC7FA999EBC5EACBAAE41B12D27B4D2C0BBA49F244E2ECDC81B76B502F113D8F5EE8FB1BE3111CDD4FC2AA9B844CAB1288B68AB90A7CDC
310
1C166AB0D3DC5310625FCC14E779BFD0709F8890A629C9292B1B2DED31A4B0DA928CEE135085754027E3018A397D4D5427D15BD1330B677DC8934285AC3DF45A9EB68FF8F2B8FC0A509AFEECFD0FF2DE25CC6047F7214B195F07EFEB9A094D800F7BFAE8FED187B78EA8A3A400F115961BCAD1215E47C966530AF0EE8128FE
310
58CEBB996A8964FFA529A046635D9353B0336A8F700DDF46271A024E70B0B37C9DE01847591E54DED53D54202AB947E4076556AC49C6CA5C9E1226B7F1A7B1BE15DEED62C41B91E1B3E9AFAAA735036547343A925075041DF0A9979E893B391F8FCFA6967B3EFB644DCF6E5CEBFAE272625DCC6FAF3FB93793C5F90CE1EF57
310
407342756B10D1C489E8953CD1617E5CEECAD6F4EF8914CE5D5D504E5C3F1F9736DA62CFC11E00BCDDB8CC8A9466349744C1F75EBDA4DF09BA8A9E8C7A7E9991989E20E5DBDD6A6003664ED8F7A04A8DBE0DF6EAD9B9AA858342E47399053949D2C146EDB85DE4B176BB0965FBAC19BD19AA918E27FA50C1D22402E144464C
310
59462568E704B6E71915404CB72B8FF4EDE184DDAF753F284990D2C6926782963815403548A70C657FDEF80D2D9CEAA2AE4C1C76F60BFE74219A06527D6582DF6412526107381E55E353090704D085B52408D0933C4ED159D79BDA71BB4BC506F4831350EB6F979CD22D69BF7AC49B91A2C0A9DDA3D5CA36AD20FC478E37E6
310
1844E2352865EBCB6EA275A652E3836BE04EFB400BF1A2556F515F1FBB35B2AB35BD889C744FFA1004B5544B121E57F70215746DD2F5E2C1412B602CBF19455AC6C8E5E9922C4E01E65215385004546899059180EAFCF7A707CE7017CD8CDB0410789AB32C63B91E5CEBBBACB17AC6CD347A022D5075FD106377347AAABA7E
310
7D11590744509B44E205134DC1290F06580320F78E537D3D73540E06CB970B431F185308AD40BBD794D6D77003C5A36E8EAA54BA64597CD8F83BD552A080A365F7FF06504B0304140006080000CC70623B000000000000000000000000350000006662782F39464131463745442D413632322D343644302D413938332D3331
310
353338454246344243312F76657274696365732E62696E504B0304140006080800CC70623BF270F1330600000004000000360000006662782F39464131463745442D413632322D343644302D413938332D3331353338454246344243312F747269616E676C65732E62696E636660600000504B0304140006080000CC70623B
310
000000000000000000000000370000006662782F39464131463745442D413632322D343644302D413938332D3331353338454246344243312F617474726962757465732E62696E504B0304140006080800CC70623B08DA0BD19000000041010000360000006662782F39464131463745442D413632322D343644302D413938
310
332D3331353338454246344243312F6469726563746F72792E786D6C858F410AC3201045AF22B36F53E9A60B35CBEEBAE80D244E44489C6234F4F835464A48035D0DF398FF9F8AF63D0E6CC63039F212F8F9020C7D47C6792B21C5FE7403D62A1188E2E60C98D7234A5830286103A55745067B9D86B8A3CF9C7F90C11DE607
310
FB144396D7B6A82D282E9A152AD114D5EF2CB866EEE831B8EEA07A7BB5A8D7D61A2BAAEB7FD5F70921FF497D00504B0304140006080800CC70623B0D6EF93BFE000000A00100003B0000006662782F39464131463745442D413632322D343644302D413938332D3331353338454246344243312F7265736F75726365732F63
310
6F72652E786D6C8D50596E833010BD0A9ADFCA60B334011947A8694ED00B586642AC041B79A97AFC9A40A5F6AF3F33A3B7689E1E3F7DCD8FEC139DD7D6F4C0720A191A65476DA61E62B892236427C19DB5E1970C322367EC618541F0C9D9B8EC90B226A009093576C41D94DE63804C3DD2D18357379C652E63480A7FCF17A9
310
EE72C29CE5894E3AC17D702940B63D59270887DE46A7D0F36263058F518FBB468FE9A7BE6A7420864373B8D4873369AA8691FA421B3294352543C5CAF65C0F6FEF43CB8BD52C78D0F34F46E550061C419494B6843142CB0F5677F4B52BEB177AEC28E5C52AFF638ACBF84F53D42654E51E77B379102C05791282176B5F693D
310
CB4C7BED567C03504B010214000A0000080000CC70623B3DEE336E79000000790000001B00000000000000000000000000000000006175746F6465736B2D64657369676E2D7061636B6167652E786D6C504B01021400140006080800CC70623BD486FD9CA0000000F40000001300000000000000000000000000B20000005B
310
436F6E74656E745F54797065735D2E786D6C504B01021400140006080800CC70623B1EC5D7A3EB0000007C010000080000000000000000000000000083010000636F72652E786D6C504B01021400140006080800CC70623B55019EA25F0000007C000000070000000000000000000000000094020000636E782E786D6C504B
310
01021400140006080800CC70623B8C9102E971010000D40300000C00000000000000000000000000180300006662782F636F72652E786D6C504B01021400140006080800CC70623BFFEA85907E0000009D0000000B00000000000000000000000000B30400006662782F636E782E786D6C504B01021400140006080800CC70
310
623B4FEEA4082C0100001202000031000000000000000000000000005A0500006662782F39464131463745442D413632322D343644302D413938332D3331353338454246344243312F636F72652E786D6C504B01021400140006080800CC70623BAD7543B64E010000330300003000000000000000000000000000D5060000
310
6662782F39464131463745442D413632322D343644302D413938332D3331353338454246344243312F636E782E786D6C504B01021400140006080800CC70623B16AB87BA640500003C1000003400000000000000000000000000710800006662782F39464131463745442D413632322D343644302D413938332D3331353338
310
454246344243312F6F626A656374732E786D6C504B01021400140006080000CC70623B0000000000000000000000003500000000000000000000000000270E00006662782F39464131463745442D413632322D343644302D413938332D3331353338454246344243312F76657274696365732E62696E504B01021400140006
310
080800CC70623BF270F133060000000400000036000000000000000000000000007A0E00006662782F39464131463745442D413632322D343644302D413938332D3331353338454246344243312F747269616E676C65732E62696E504B01021400140006080000CC70623B0000000000000000000000003700000000000000
310
000000000000D40E00006662782F39464131463745442D413632322D343644302D413938332D3331353338454246344243312F617474726962757465732E62696E504B01021400140006080800CC70623B08DA0BD190000000410100003600000000000000000000000000290F00006662782F39464131463745442D413632
310
322D343644302D413938332D3331353338454246344243312F6469726563746F72792E786D6C504B01021400140006080800CC70623B0D6EF93BFE000000A00100003B000000000000000000000000000D1000006662782F39464131463745442D413632322D343644302D413938332D3331353338454246344243312F7265
310
736F75726365732F636F72652E786D6C504B0506000000000E000E0080040000641100000000
  0
XRECORD
  5
175
102
{ACAD_REACTORS
330
173
102
}
330
173
100
AcDbXrecord
280
     1
270
     1
271
     1
  0
XRECORD
  5
174
102
{ACAD_REACTORS
330
173
102
}
330
173
100
AcDbXrecord
280
     1
270
     1
271
     1
  0
XRECORD
  5
1FB
102
{ACAD_REACTORS
330
173
102
}
330
173
100
AcDbXrecord
280
     1
 70
     0
 90
1673772943
  1
ECE7A1D2-D628-4531-984C-D00F80459256
310
504B03040A0000080000CC70623B3DEE336E79000000790000001B0000006175746F6465736B2D64657369676E2D7061636B6167652E786D6C3C3F786D6C2076657273696F6E3D22312E302220656E636F64696E673D227574662D3822203F3E3C666F726D6174733E3C666F726D61743E687474703A2F2F736368656D612E
310
6175746F6465736B2E636F6D2F64657369676E2D7061636B6167652F323030393C2F666F726D61743E3C2F666F726D6174733E504B0304140006080800CC70623BD486FD9CA0000000F4000000130000005B436F6E74656E745F54797065735D2E786D6C7D8EC10E82300C865F65E91D8A1E8C310C0EEA1BF002731658846E
310
D98AC1B77784ABF1D8FE5FBFBF75BBCE937A534CCEB38643598122B6FEE978D0B0485F9C41B54DDD7D022595594E1A469170414C76A4D9A4D207E29CF43ECE46F218070CC6BECC4078ACAA135ACF422C856C0E68EA1BF5669944DDD7BCDE7B1F8E415D77AECB980613C2E4AC91FC167A2B244592486606FC29C8FD7F045B9A
310
EF7053A7E60B504B0304140006080800CC70623BD9DDAED0EC0000007C01000008000000636F72652E786D6C8D90416EC3201045AF82665B61836D9CD8C2444DD39CA01740405C94182C03558F5F9C3852BBEB6A467FFE9B197D7EF89E6EE8CB2CC17A37002D0820E394D7D68D03A478C17B4007C117EFE32F1B20272733C0
310
2A83E0E3E2D3BC49CABB685CCCAAF3DA6CA20CC14440EA969B0182FA34932C648AD911AEC52CD5558EA6A0CF2EC329598D1E47ACCEFBECC59A050463A7EA5833865FEBDD0E37353BE3EE8DBDE3F6786A48D375FBF6CC78B9C282473B3DEFABC5C86834888A900E538A49F5419B9EB47DD5BC907D4F082F57FB1F28CDFA9F50
310
B22ED6D5F6EE030B20687EE43E10BC5CB3C8E51E54AE6B6EE207504B0304140006080800CC70623B55019EA25F0000007C00000007000000636E782E786D6C4DCB3B0E80201045D1AD90E915ED2CF8AC45050C11660C8261F98AB1B07AC9C97D42D718D865D3E909258CFD00CCE24AC6E326A164D74DC0B4128928FF326038
310
472BA13128B1252AC747C6BAB984FC68F0B87FE8960A5C09FE86CFB69FBA01504B0304140006080800CC70623BA24EB22D72010000D40300000C0000006662782F636F72652E786D6CC5535B6E833010BC8AE5DF0A6C5E49888CA3A6694ED00B38E05014B091B1518EDFE511A5A9D228FD2A1F60CDEC7A67C6986DCE4D8D7A
310
69BA4AAB0C073EC548AA5C17952A33ECECD15B61B4E1CC686DBF9561A44423333CC098B3D268D7CE50AE9595CA02AA74216750749DB418E5352C32DCE59FB211BE70162ABA93DF8AFC244AE9073ED050C759670D0840D390E18DF9F1706664C23973AE2A66B62A605A75ACA4C13C4976E1364A12EF355A2EBD384AF65EFA96
310
BC7B8BED2EA6719AAE16FB8491A199335B351775B991C2CA02F390D2D40B028F861F41BCA68B7518BFD0D59A524686F29B26D7164F36B94AD9289CE54E6D1DE6010819891F6E21228B3AD1831EC219194284CF98F06DD01008846CC5A1BEF83801D4CBDC6A1303536877A57A513B0953A94FC707FDBE6064EA84A9E3E6E0FA
310
EE8CF0E9198F7784A316AA0413C2C2F2E0ECA0934D1AE6D05A69BCDE9E91D2A611F573361E38FC1375157F5752AE6B6DFE4B11990F88CCBF0719EE23FF02504B0304140006080800CC70623B408A7D3B7C0000009D0000000B0000006662782F636E782E786D6C4DCCD10A83201886E15B91FFDC552A92A0064DBC8F581632
310
D3703A76F9ABD1C18E3E78F878E5F0D9027ABBFCF2292AE86E2D20171F69F6715550CB827B40839639A5F2770314A7CD293819B45C73AAFB45B35BA61ACAA1C1C7E7855C58C15BC331339661262CC762340413D68D77DA5B42298546CBE6573AF60CEB2F504B0304140006080800CC70623B449FB9BD290100001202000031
310
0000006662782F36394639363044362D344446342D343946362D394244322D3234314243333846323333332F636F72652E786D6C8D515B6EC32010BC0AE22B55850D98B871848994463E412FE002495162B07854397EA176A4F62F3F2C9A9D991D587EB84F37F0AD7D30CEF6905418026DA553C65E7A98E219ED203808EE9D
310
8B7F6810D871D23D2C3014FCE25D9A57483A1BB58D19B54EE9151C43D0110279CB971E06F9A5A7B11A53CC8C70ADE6515EC78BAE4895DB992778883E0700CB907242D17643D7E2538BD869608875438BBAE38922CAC8F1BDD90DB4691A5E2F42C153326A951B95E398B3D1FE599322163C9AE9115F7A3D46ADA0A018778810
310
84E907617BDCEE297BC5BB3DC6BC2EF47FA234AB2745C9D8D8D035EE220B50105E2F0DC1954B9FB747187D9F9D8FA0CCDB042D5FA0C015C65B42DF78BD10F3F3B363CB56C7109DCFDFBBB97E662ED92EB62D13BC2E1BCAE5777DB9966D8A1F504B0304140006080800CC70623BAD7543B64E01000033030000300000006662
310
782F36394639363044362D344446342D343946362D394244322D3234314243333846323333332F636E782E786D6CD593CD6EC32010845F0571AD6CE3D48AD20813A9873E410FBD12D82434182C7EAAE6EDBB2424CD25871E7B41D6EC30B3FA84F9E67BB2E40B4234DE8DB46F1925E094D7C6ED479AD3AE5951B2113C789FEE
310
6C943839C1488B4C05DF079FE72A69D8C96C13AAD6B8631503449F83828872B949AC57D26200B826A308D316B4064D6E46FCDA41C05550DC9E483A00797BFD207EFB092A45DE9514C1BBD22178396BD39D891265658C238DEA00936C654E5E433CB65A26D9F6EDB5EBC14EBF49A45CB856E66048291F6939A9A81BB5C89177
310
38143CA680F4AA299D66A042CEB3354A2684DC9D8D178FE0D9B8B41CAAD720F880EE7EF93C0C18769E099ECC04D5A102C8049A8A05632F4DDF376CF1DE0F6BB65C2F8627B65A33C6BB62177CEBBDAD973006829F89F22E814B54F4BC2BE347F8AA8F681390B50FA73F804400B5F542E796F19FF974E7F78DB802FE05E20750
310
4B0304140006080800CC70623B8D05915C650500003B100000340000006662782F36394639363044362D344446342D343946362D394244322D3234314243333846323333332F6F626A656374732E786D6CAD575B6FA33814FE2B887D06429276DA1565D4266D158D3A339A6846FB502932E050B66023DB74D2FDF5FB190C01
310
9276B2973C046C8ECFF53B17071F77456EBD502133CEAE6CDF9DD81665314F32965ED995DA3A17B6F5310C04E7AA47665B8C14F4CAD6DB7618A48257A5D94AE89654B91AEDDEDDFC61C998326A5B714EA4BCB265FC440BE2924AF184CA6737218AB8E976E7FA6E4338649B0A523E8D98964450A6A029F619B8588D52FE7039
310
B1BD30F0F4F730D0FF866AF6369557DB33949F31A9088B0F848DD8CCFCF9F2767A76E99CCDE733677E3EF59D9BBB9BA5E37F984D16E78BC5E5F5ED25044B25C0C96822E8D60EEFE11B91C581D77CEA34368A1F5329E68CD1B8B61F16D63A1B8E092D294B10C78C4A48EB593D192E7DED9BDEE7995E1B91FDEDD3ACEA9FE831
310
6A756F9F7D4D79F4274C90A7A04248AA51D5F8C718DAE06FB2F75AC4796EBE65D22A88A22223B995679120E2D50E41AA49C260C046A35368846B0BECD0DFF3EBEB8AD4F835768F69B9ADF25C43D30E6B646F807FAA64AD59F61715C7A54127C4AACA98BA3006A9D792DAE165E0D59B61A01FB3A9F9D838D2DAE62445C86166
310
F37564E842E7DE6A69879FEEA2DD5AE7E371E1A5E025154AC307D06A03D73EB5978C58FFA4C8E9033066E0F3BD53BEC1F39F91BE7B55103791EDE6BBB991A2046172CB4581D8B893FA674DDA17A77B3B7C413D1B511FD2743BFF8A38F03A658705E3ADF8015C3A3417FF3D7E439FF591DA0B5F18BC20C1B8981957AE6392A3
310
F43C640C01D1A0B4728E2DD4F26DB4B3C3152A252A3B4E913CEC1C72F012782FF88EFF8637AA552DBEF76408E8A8DE9E50F9E1CB3A2DA0DB1B6039A893B56063DC5B3E3FFB5F72E67AB9FEB4AEC496C4F4C1149625DD662C53E89D7BF0F6151A046260D1337DFDC94502430F83B0EE07A130A224BCAD7DAE1D9FB6CD422FF6
310
920702629C4BB9AE79C12F243C6432A6794E18E5552BA56B431AAB5D91317302B2B071E86C3A42B1A02F999E24061403B5D0EB639195DA655DD3EBEAB4FB862DDF579F014AD0E73C22F99E28DA57FB98E75C6CA2D74D53086D600F4786E0FE3144B771A8A7B900F03594DB8A633CBC49B2EDB69228BB479CF863B5E807AAAB
310
23872F6DFEB4129B949CA33823F58830E86D65621E10047D9DB34D862E8EAC3C2ABC2F7B2C40D67CDFE01F5545B92105AF983AC54D93D69E56FB8E797F88913F898A9FEC705D3F9D1B54EC8426FB500D40A03BD0119B06E1B95DDC7EB8F6975367793EBD70E66733DFB9BC982F9CE564727731999F5D4ECFCE3B8D6A4DC2A0
310
6D50FD148437D110834A64C6CDDF57FBACB5C307A2A477DFE4939736CFEF2B175371E0E10CF0DD1D5C15654E0BCA14D1E87DD02FF93782A162C0A3D95F1524A52770F972BF1EE9809D13CE7DD599467F8ECE9ADD85CE85A34CD45355448C64F9E8A031DC2D596ACC6E5DD93D9B82DE2EF5CAF81363A8E47996A0DE24564A79
310
4115AACE09C55E14540231FDA13C319787134EBF34E3A022514E5B4D9E0826E25C02D5805B15ABE1BEF51B26383D445DD9E875EE33FE4C22DA16427D65A3BCA92CA6D28DD01DF5DC53330704308475351050232CCD31583787BA75774AFB06E5070DD0C8EF484E19968C5D83BA5B90B244D31E54D55A372320FE4786B7EA58
310
44E135AA5467CB7EA333A61683CC6A8C3257034C10CF46F40EF9F5BE59BE5BD30C3C72D235E95D10345C1D45445A5F0BB47E46A5EBE5570F9380B5FA629579952296A773720405982B9DE04011506178964401AA8BDF1FBF0A8EAB6861DD6580C0E38217056766716DAEB2D6FA0917D3E4116581EADB879C4E7CFFB11EFACD
310
3D641311495D92C8676CB409A72D18610D803CE8A626049E8EC1887CB5B44CC39883690DDA8399B4B9855B481E7D71D4A9D22F96E5BB73BF5793020C02137BF837504B0304140006080000CC70623B000000000000000000000000350000006662782F36394639363044362D344446342D343946362D394244322D32343142
310
43333846323333332F76657274696365732E62696E504B0304140006080800CC70623BF270F1330600000004000000360000006662782F36394639363044362D344446342D343946362D394244322D3234314243333846323333332F747269616E676C65732E62696E636660600000504B0304140006080000CC70623B0000
310
00000000000000000000370000006662782F36394639363044362D344446342D343946362D394244322D3234314243333846323333332F617474726962757465732E62696E504B0304140006080800CC70623B08DA0BD19000000041010000360000006662782F36394639363044362D344446342D343946362D394244322D
310
3234314243333846323333332F6469726563746F72792E786D6C858F410AC3201045AF22B36F53E9A60B35CBEEBAE80D244E44489C6234F4F835464A48035D0DF398FF9F8AF63D0E6CC63039F212F8F9020C7D47C6792B21C5FE7403D62A1188E2E60C98D7234A5830286103A55745067B9D86B8A3CF9C7F90C11DE607FB14
310
4396D7B6A82D282E9A152AD114D5EF2CB866EEE831B8EEA07A7BB5A8D7D61A2BAAEB7FD5F70921FF497D00504B0304140006080800CC70623BCA768048FE000000A00100003B0000006662782F36394639363044362D344446342D343946362D394244322D3234314243333846323333332F7265736F75726365732F636F72
310
652E786D6C8D50596E833010BD0A9ADFCA60D600328E9AA639412F609909B1126CE4A5EAF16B0295DABFFECC8CDEA2797AECF8353F924FB44E193D409E5248504B332A3D0D10FC95B4901C39B3C6F85F3248B49871801506CE266BC2B243D2688FDA47549B11775038871E12F988C7004EDE7016A9083E2ADC3D5D84BC8B09
310
D33C8D74D471E6BC8D0192EDC93A815B742658898E651BCB59086ADC356A8C3FD555A1055ED7E7E254D615792D0F075295F585746FF53B694EE78A565DD736979A65AB9933AFE69F8CD2A2F038022F28ED489E135A7CE4554F9BBEA85E68DB53CAB255FEC71496F19FA6A0B42F8B3DEE6673C0F318E4497096AD7DC5F52C33
310
EEB55BFE0D504B010214000A0000080000CC70623B3DEE336E79000000790000001B00000000000000000000000000000000006175746F6465736B2D64657369676E2D7061636B6167652E786D6C504B01021400140006080800CC70623BD486FD9CA0000000F40000001300000000000000000000000000B20000005B436F
310
6E74656E745F54797065735D2E786D6C504B01021400140006080800CC70623BD9DDAED0EC0000007C010000080000000000000000000000000083010000636F72652E786D6C504B01021400140006080800CC70623B55019EA25F0000007C000000070000000000000000000000000095020000636E782E786D6C504B0102
310
1400140006080800CC70623BA24EB22D72010000D40300000C00000000000000000000000000190300006662782F636F72652E786D6C504B01021400140006080800CC70623B408A7D3B7C0000009D0000000B00000000000000000000000000B50400006662782F636E782E786D6C504B01021400140006080800CC70623B
310
449FB9BD290100001202000031000000000000000000000000005A0500006662782F36394639363044362D344446342D343946362D394244322D3234314243333846323333332F636F72652E786D6C504B01021400140006080800CC70623BAD7543B64E010000330300003000000000000000000000000000D20600006662
310
782F36394639363044362D344446342D343946362D394244322D3234314243333846323333332F636E782E786D6C504B01021400140006080800CC70623B8D05915C650500003B10000034000000000000000000000000006E0800006662782F36394639363044362D344446342D343946362D394244322D32343142433338
310
46323333332F6F626A656374732E786D6C504B01021400140006080000CC70623B0000000000000000000000003500000000000000000000000000250E00006662782F36394639363044362D344446342D343946362D394244322D3234314243333846323333332F76657274696365732E62696E504B010214001400060808
310
00CC70623BF270F13306000000040000003600000000000000000000000000780E00006662782F36394639363044362D344446342D343946362D394244322D3234314243333846323333332F747269616E676C65732E62696E504B01021400140006080000CC70623B00000000000000000000000037000000000000000000
310
00000000D20E00006662782F36394639363044362D344446342D343946362D394244322D3234314243333846323333332F617474726962757465732E62696E504B01021400140006080800CC70623B08DA0BD190000000410100003600000000000000000000000000270F00006662782F36394639363044362D344446342D
310
343946362D394244322D3234314243333846323333332F6469726563746F72792E786D6C504B01021400140006080800CC70623BCA768048FE000000A00100003B000000000000000000000000000B1000006662782F36394639363044362D344446342D343946362D394244322D3234314243333846323333332F7265736F
310
75726365732F636F72652E786D6C504B0506000000000E000E0080040000621100000000
  0
XRECORD
  5
176
102
{ACAD_REACTORS
330
173
102
}
330
173
100
AcDbXrecord
280
     1
270
     1
271
     1
  0
XRECORD
  5
177
102
{ACAD_REACTORS
330
173
102
}
330
173
100
AcDbXrecord
280
     1
270
     1
271
     1
  0
XRECORD
  5
5A5
102
{ACAD_REACTORS
330
5A4
102
}
330
5A4
100
AcDbXrecord
280
     1
102
DISPLAYNAME
  1
Metric50
102
FLAGS
 90
        0
  0
CELLSTYLEMAP
  5
572
102
{ACAD_REACTORS
330
162
102
}
330
162
100
AcDbCellStyleMap
 90
        3
300
CELLSTYLE
  1
TABLEFORMAT_BEGIN
 90
        5
170
     1
 91
        0
 92
    32768
 62
   257
 93
        1
300
CONTENTFORMAT
  1
CONTENTFORMAT_BEGIN
 90
        0
 91
        0
 92
      512
 93
        0
300

 40
0.0
140
1.0
 94
        5
 62
     0
340
11
144
6.0
309
CONTENTFORMAT_END
171
     1
301
MARGIN
  1
CELLMARGIN_BEGIN
 40
1.5
 40
1.5
 40
1.5
 40
1.5
 40
0.18
 40
0.18
309
CELLMARGIN_END
 94
        6
 95
        1
302
GRIDFORMAT
  1
GRIDFORMAT_BEGIN
 90
        0
 91
        1
 62
     0
 92
       -2
340
14
 93
        0
 40
1.125
309
GRIDFORMAT_END
 95
        2
302
GRIDFORMAT
  1
GRIDFORMAT_BEGIN
 90
        0
 91
        1
 62
     0
 92
       -2
340
14
 93
        0
 40
1.125
309
GRIDFORMAT_END
 95
        4
302
GRIDFORMAT
  1
GRIDFORMAT_BEGIN
 90
        0
 91
        1
 62
     0
 92
       -2
340
14
 93
        0
 40
1.125
309
GRIDFORMAT_END
 95
        8
302
GRIDFORMAT
  1
GRIDFORMAT_BEGIN
 90
        0
 91
        1
 62
     0
 92
       -2
340
14
 93
        0
 40
1.125
309
GRIDFORMAT_END
 95
       16
302
GRIDFORMAT
  1
GRIDFORMAT_BEGIN
 90
        0
 91
        1
 62
     0
 92
       -2
340
14
 93
        0
 40
1.125
309
GRIDFORMAT_END
 95
       32
302
GRIDFORMAT
  1
GRIDFORMAT_BEGIN
 90
        0
 91
        1
 62
     0
 92
       -2
340
14
 93
        0
 40
1.125
309
GRIDFORMAT_END
309
TABLEFORMAT_END
  1
CELLSTYLE_BEGIN
 90
        1
 91
        1
300
_TITLE
309
CELLSTYLE_END
300
CELLSTYLE
  1
TABLEFORMAT_BEGIN
 90
        5
170
     1
 91
        0
 92
        0
 62
   257
 93
        1
300
CONTENTFORMAT
  1
CONTENTFORMAT_BEGIN
 90
        0
 91
        0
 92
      512
 93
        0
300

 40
0.0
140
1.0
 94
        5
 62
     0
340
11
144
4.5
309
CONTENTFORMAT_END
171
     1
301
MARGIN
  1
CELLMARGIN_BEGIN
 40
1.5
 40
1.5
 40
1.5
 40
1.5
 40
0.18
 40
0.18
309
CELLMARGIN_END
 94
        6
 95
        1
302
GRIDFORMAT
  1
GRIDFORMAT_BEGIN
 90
        0
 91
        1
 62
     0
 92
       -2
340
14
 93
        0
 40
1.125
309
GRIDFORMAT_END
 95
        2
302
GRIDFORMAT
  1
GRIDFORMAT_BEGIN
 90
        0
 91
        1
 62
     0
 92
       -2
340
14
 93
        0
 40
1.125
309
GRIDFORMAT_END
 95
        4
302
GRIDFORMAT
  1
GRIDFORMAT_BEGIN
 90
        0
 91
        1
 62
     0
 92
       -2
340
14
 93
        0
 40
1.125
309
GRIDFORMAT_END
 95
        8
302
GRIDFORMAT
  1
GRIDFORMAT_BEGIN
 90
        0
 91
        1
 62
     0
 92
       -2
340
14
 93
        0
 40
1.125
309
GRIDFORMAT_END
 95
       16
302
GRIDFORMAT
  1
GRIDFORMAT_BEGIN
 90
        0
 91
        1
 62
     0
 92
       -2
340
14
 93
        0
 40
1.125
309
GRIDFORMAT_END
 95
       32
302
GRIDFORMAT
  1
GRIDFORMAT_BEGIN
 90
        0
 91
        1
 62
     0
 92
       -2
340
14
 93
        0
 40
1.125
309
GRIDFORMAT_END
309
TABLEFORMAT_END
  1
CELLSTYLE_BEGIN
 90
        2
 91
        1
300
_HEADER
309
CELLSTYLE_END
300
CELLSTYLE
  1
TABLEFORMAT_BEGIN
 90
        5
170
     1
 91
        0
 92
        0
 62
   257
 93
        1
300
CONTENTFORMAT
  1
CONTENTFORMAT_BEGIN
 90
        0
 91
        0
 92
      512
 93
        0
300

 40
0.0
140
1.0
 94
        2
 62
     0
340
11
144
4.5
309
CONTENTFORMAT_END
171
     1
301
MARGIN
  1
CELLMARGIN_BEGIN
 40
1.5
 40
1.5
 40
1.5
 40
1.5
 40
0.18
 40
0.18
309
CELLMARGIN_END
 94
        6
 95
        1
302
GRIDFORMAT
  1
GRIDFORMAT_BEGIN
 90
        0
 91
        1
 62
     0
 92
       -2
340
14
 93
        0
 40
1.125
309
GRIDFORMAT_END
 95
        2
302
GRIDFORMAT
  1
GRIDFORMAT_BEGIN
 90
        0
 91
        1
 62
     0
 92
       -2
340
14
 93
        0
 40
1.125
309
GRIDFORMAT_END
 95
        4
302
GRIDFORMAT
  1
GRIDFORMAT_BEGIN
 90
        0
 91
        1
 62
     0
 92
       -2
340
14
 93
        0
 40
1.125
309
GRIDFORMAT_END
 95
        8
302
GRIDFORMAT
  1
GRIDFORMAT_BEGIN
 90
        0
 91
        1
 62
     0
 92
       -2
340
14
 93
        0
 40
1.125
309
GRIDFORMAT_END
 95
       16
302
GRIDFORMAT
  1
GRIDFORMAT_BEGIN
 90
        0
 91
        1
 62
     0
 92
       -2
340
14
 93
        0
 40
1.125
309
GRIDFORMAT_END
 95
       32
302
GRIDFORMAT
  1
GRIDFORMAT_BEGIN
 90
        0
 91
        1
 62
     0
 92
       -2
340
14
 93
        0
 40
1.125
309
GRIDFORMAT_END
309
TABLEFORMAT_END
  1
CELLSTYLE_BEGIN
 90
        3
 91
        2
300
_DATA
309
CELLSTYLE_END
  0
XRECORD
  5
57F
102
{ACAD_REACTORS
330
57E
102
}
330
57E
100
AcDbXrecord
280
     1
102
RTVSPost2010Prop28
280
     1
102
RTVSPost2010PropOp28
 70
     1
102
RTVSPost2010Prop29
280
     1
102
RTVSPost2010PropOp29
 70
     1
102
RTVSPost2010Prop30
280
     0
102
RTVSPost2010PropOp30
 70
     1
102
RTVSPost2010Prop31
280
     0
102
RTVSPost2010PropOp31
 70
     1
102
RTVSPost2010Prop32
280
     0
102
RTVSPost2010PropOp32
 70
     1
102
RTVSPost2010Prop33
280
     0
102
RTVSPost2010PropOp33
 70
     1
102
RTVSPost2010Prop34
280
     0
102
RTVSPost2010PropOp34
 70
     1
102
RTVSPost2010Prop35
280
     0
102
RTVSPost2010PropOp35
 70
     1
102
RTVSPost2010Prop36
280
     0
102
RTVSPost2010PropOp36
 70
     1
102
RTVSPost2010Prop37
 90
       50
102
RTVSPost2010PropOp37
 70
     1
102
RTVSPost2010Prop38
140
0.0
102
RTVSPost2010PropOp38
 70
     1
102
RTVSPost2010Prop39
140
1.0
102
RTVSPost2010PropOp39
 70
     1
102
RTVSPost2010Prop40
 90
        0
102
RTVSPost2010PropOp40
 70
     1
102
RTVSPost2010Prop41ColorIndex
 90
       18
102
RTVSPost2010Prop41ColorRGB
 90
        0
102
RTVSPost2010PropOp41
 70
     1
102
RTVSPost2010Prop42
 90
       50
102
RTVSPost2010PropOp42
 70
     1
102
RTVSPost2010Prop43
 90
        3
102
RTVSPost2010PropOp43
 70
     1
102
RTVSPost2010Prop44ColorIndex
 90
        5
102
RTVSPost2010Prop44ColorRGB
 90
      255
102
RTVSPost2010PropOp44
 70
     1
102
RTVSPost2010Prop45
280
     0
102
RTVSPost2010PropOp45
 70
     1
102
RTVSPost2010Prop46
 90
       50
102
RTVSPost2010PropOp46
 70
     1
102
RTVSPost2010Prop47
 90
       50
102
RTVSPost2010PropOp47
 70
     1
102
RTVSPost2010Prop48
 90
       50
102
RTVSPost2010PropOp48
 70
     1
102
RTVSPost2010Prop49
280
     0
102
RTVSPost2010PropOp49
 70
     1
102
RTVSPost2010Prop50
 90
       50
102
RTVSPost2010PropOp50
 70
     1
102
RTVSPost2010Prop51ColorIndex
 90
      256
102
RTVSPost2010Prop51ColorRGB
 90
-16777216
102
RTVSPost2010PropOp51
 70
     0
102
RTVSPost2010Prop52
140
1.0
102
RTVSPost2010PropOp52
 70
     0
102
RTVSPost2010Prop53
 90
        2
102
RTVSPost2010PropOp53
 70
     1
102
RTVSPost2010Prop54
  1
strokes_ogs.tif
102
RTVSPost2010PropOp54
 70
     1
102
RTVSPost2010Prop55
280
     0
102
RTVSPost2010PropOp55
 70
     1
102
RTVSPost2010Prop56
140
1.0
102
RTVSPost2010PropOp56
 70
     1
102
RTVSPost2010Prop57
140
1.0
102
RTVSPost2010PropOp57
 70
     1
102
RTVSPropertyOp0
 70
     1
102
RTVSPropertyOp1
 70
     1
102
RTVSPropertyOp2
 70
     1
102
RTVSPropertyOp3
 70
     1
102
RTVSPropertyOp4
 70
     1
102
RTVSPropertyOp5
 70
     1
102
RTVSPropertyOp6
 70
     1
102
RTVSPropertyOp7
 70
     1
102
RTVSPropertyOp8
 70
     1
102
RTVSPropertyOp9
 70
     1
102
RTVSPropertyOp10
 70
     1
102
RTVSPropertyOp11
 70
     1
102
RTVSPropertyOp12
 70
     1
102
RTVSPropertyOp13
 70
     1
102
RTVSPropertyOp14
 70
     1
102
RTVSPropertyOp15
 70
     1
102
RTVSPropertyOp16
 70
     1
102
RTVSPropertyOp17
 70
     1
102
RTVSPropertyOp18
 70
     1
102
RTVSPropertyOp19
 70
     1
102
RTVSPropertyOp20
 70
     1
102
RTVSPropertyOp21
 70
     1
102
RTVSPropertyOp22
 70
     1
102
RTVSPropertyOp23
 70
     1
102
RTVSPropertyOp24
 70
     1
102
RTVSPropertyOp25
 70
     1
102
RTVSPropertyOp26
 70
     1
102
RTVSPropertyOp27
 70
     1
102
RTVSPropertyOp28
 70
     1
102
RTVSPropertyOp29
 70
     1
102
RTVSPropertyOp30
 70
     1
102
RTVSPropertyOp31
 70
     1
102
RTVSPropertyOp32
 70
     1
102
RTVSPropertyOp33
 70
     1
102
RTVSPropertyOp34
 70
     1
102
RTVSPropertyOp35
 70
     1
102
RTVSPropertyOp36
 70
     1
102
RTVSPropertyOp37
 70
     1
102
RTVSPropertyOp38
 70
     1
102
RTVSPropertyOp39
 70
     1
102
RTVSPropertyOp40
 70
     1
102
RTVSPropertyOp41
 70
     1
102
RTVSPropertyOp42
 70
     1
102
RTVSPropertyOp43
 70
     1
102
RTVSPropertyOp44
 70
     1
102
RTVSPropertyOp45
 70
     1
102
RTVSPropertyOp46
 70
     1
102
RTVSPropertyOp47
 70
     1
102
RTVSPropertyOp48
 70
     1
102
RTVSPropertyOp49
 70
     1
102
RTVSPropertyOp50
 70
     1
102
RTVSPropertyOp51
 70
     0
102
RTVSPropertyOp52
 70
     0
102
RTVSPropertyOp53
 70
     1
102
RTVSPropertyOp54
 70
     1
102
RTVSPropertyOp55
 70
     1
102
RTVSPropertyOp56
 70
     1
102
RTVSPropertyOp57
 70
     1
102
RTVSPropertyOp58
 70
     1
102
RTVSPropertyOp59
 70
     1
102
RTVSPropertyOp60
 70
     1
102
RTVSPropertyOp61
 70
     1
102
RTVSPropertyOp62
 70
     1
  0
XRECORD
  5
57D
102
{ACAD_REACTORS
330
57C
102
}
330
57C
100
AcDbXrecord
280
     1
102
RTVSPost2010Prop28
280
     0
102
RTVSPost2010PropOp28
 70
     1
102
RTVSPost2010Prop29
280
     1
102
RTVSPost2010PropOp29
 70
     1
102
RTVSPost2010Prop30
280
     1
102
RTVSPost2010PropOp30
 70
     1
102
RTVSPost2010Prop31
280
     0
102
RTVSPost2010PropOp31
 70
     1
102
RTVSPost2010Prop32
280
     0
102
RTVSPost2010PropOp32
 70
     1
102
RTVSPost2010Prop33
280
     0
102
RTVSPost2010PropOp33
 70
     1
102
RTVSPost2010Prop34
280
     0
102
RTVSPost2010PropOp34
 70
     1
102
RTVSPost2010Prop35
280
     0
102
RTVSPost2010PropOp35
 70
     1
102
RTVSPost2010Prop36
280
     0
102
RTVSPost2010PropOp36
 70
     1
102
RTVSPost2010Prop37
 90
       50
102
RTVSPost2010PropOp37
 70
     1
102
RTVSPost2010Prop38
140
0.0
102
RTVSPost2010PropOp38
 70
     1
102
RTVSPost2010Prop39
140
1.0
102
RTVSPost2010PropOp39
 70
     1
102
RTVSPost2010Prop40
 90
        0
102
RTVSPost2010PropOp40
 70
     1
102
RTVSPost2010Prop41ColorIndex
 90
       18
102
RTVSPost2010Prop41ColorRGB
 90
        0
102
RTVSPost2010PropOp41
 70
     1
102
RTVSPost2010Prop42
 90
       50
102
RTVSPost2010PropOp42
 70
     1
102
RTVSPost2010Prop43
 90
        3
102
RTVSPost2010PropOp43
 70
     1
102
RTVSPost2010Prop44ColorIndex
 90
        5
102
RTVSPost2010Prop44ColorRGB
 90
      255
102
RTVSPost2010PropOp44
 70
     1
102
RTVSPost2010Prop45
280
     0
102
RTVSPost2010PropOp45
 70
     1
102
RTVSPost2010Prop46
 90
       50
102
RTVSPost2010PropOp46
 70
     1
102
RTVSPost2010Prop47
 90
       50
102
RTVSPost2010PropOp47
 70
     1
102
RTVSPost2010Prop48
 90
       50
102
RTVSPost2010PropOp48
 70
     1
102
RTVSPost2010Prop49
280
     0
102
RTVSPost2010PropOp49
 70
     1
102
RTVSPost2010Prop50
 90
       50
102
RTVSPost2010PropOp50
 70
     1
102
RTVSPost2010Prop51ColorIndex
 90
      256
102
RTVSPost2010Prop51ColorRGB
 90
-16777216
102
RTVSPost2010PropOp51
 70
     0
102
RTVSPost2010Prop52
140
1.0
102
RTVSPost2010PropOp52
 70
     0
102
RTVSPost2010Prop53
 90
        2
102
RTVSPost2010PropOp53
 70
     1
102
RTVSPost2010Prop54
  1
strokes_ogs.tif
102
RTVSPost2010PropOp54
 70
     1
102
RTVSPost2010Prop55
280
     0
102
RTVSPost2010PropOp55
 70
     1
102
RTVSPost2010Prop56
140
1.0
102
RTVSPost2010PropOp56
 70
     1
102
RTVSPost2010Prop57
140
1.0
102
RTVSPost2010PropOp57
 70
     1
102
RTVSPropertyOp0
 70
     1
102
RTVSPropertyOp1
 70
     1
102
RTVSPropertyOp2
 70
     1
102
RTVSPropertyOp3
 70
     1
102
RTVSPropertyOp4
 70
     1
102
RTVSPropertyOp5
 70
     1
102
RTVSPropertyOp6
 70
     1
102
RTVSPropertyOp7
 70
     1
102
RTVSPropertyOp8
 70
     1
102
RTVSPropertyOp9
 70
     1
102
RTVSPropertyOp10
 70
     1
102
RTVSPropertyOp11
 70
     1
102
RTVSPropertyOp12
 70
     1
102
RTVSPropertyOp13
 70
     1
102
RTVSPropertyOp14
 70
     1
102
RTVSPropertyOp15
 70
     1
102
RTVSPropertyOp16
 70
     1
102
RTVSPropertyOp17
 70
     1
102
RTVSPropertyOp18
 70
     1
102
RTVSPropertyOp19
 70
     1
102
RTVSPropertyOp20
 70
     1
102
RTVSPropertyOp21
 70
     1
102
RTVSPropertyOp22
 70
     1
102
RTVSPropertyOp23
 70
     1
102
RTVSPropertyOp24
 70
     1
102
RTVSPropertyOp25
 70
     1
102
RTVSPropertyOp26
 70
     1
102
RTVSPropertyOp27
 70
     1
102
RTVSPropertyOp28
 70
     1
102
RTVSPropertyOp29
 70
     1
102
RTVSPropertyOp30
 70
     1
102
RTVSPropertyOp31
 70
     1
102
RTVSPropertyOp32
 70
     1
102
RTVSPropertyOp33
 70
     1
102
RTVSPropertyOp34
 70
     1
102
RTVSPropertyOp35
 70
     1
102
RTVSPropertyOp36
 70
     1
102
RTVSPropertyOp37
 70
     1
102
RTVSPropertyOp38
 70
     1
102
RTVSPropertyOp39
 70
     1
102
RTVSPropertyOp40
 70
     1
102
RTVSPropertyOp41
 70
     1
102
RTVSPropertyOp42
 70
     1
102
RTVSPropertyOp43
 70
     1
102
RTVSPropertyOp44
 70
     1
102
RTVSPropertyOp45
 70
     1
102
RTVSPropertyOp46
 70
     1
102
RTVSPropertyOp47
 70
     1
102
RTVSPropertyOp48
 70
     1
102
RTVSPropertyOp49
 70
     1
102
RTVSPropertyOp50
 70
     1
102
RTVSPropertyOp51
 70
     0
102
RTVSPropertyOp52
 70
     0
102
RTVSPropertyOp53
 70
     1
102
RTVSPropertyOp54
 70
     1
102
RTVSPropertyOp55
 70
     1
102
RTVSPropertyOp56
 70
     1
102
RTVSPropertyOp57
 70
     1
102
RTVSPropertyOp58
 70
     1
102
RTVSPropertyOp59
 70
     1
102
RTVSPropertyOp60
 70
     1
102
RTVSPropertyOp61
 70
     1
102
RTVSPropertyOp62
 70
     1
  0
XRECORD
  5
58B
102
{ACAD_REACTORS
330
58A
102
}
330
58A
100
AcDbXrecord
280
     1
102
RTVSPost2010Prop28
280
     0
102
RTVSPost2010PropOp28
 70
     1
102
RTVSPost2010Prop29
280
     1
102
RTVSPost2010PropOp29
 70
     1
102
RTVSPost2010Prop30
280
     1
102
RTVSPost2010PropOp30
 70
     1
102
RTVSPost2010Prop31
280
     0
102
RTVSPost2010PropOp31
 70
     1
102
RTVSPost2010Prop32
280
     0
102
RTVSPost2010PropOp32
 70
     1
102
RTVSPost2010Prop33
280
     0
102
RTVSPost2010PropOp33
 70
     1
102
RTVSPost2010Prop34
280
     0
102
RTVSPost2010PropOp34
 70
     1
102
RTVSPost2010Prop35
280
     0
102
RTVSPost2010PropOp35
 70
     1
102
RTVSPost2010Prop36
280
     0
102
RTVSPost2010PropOp36
 70
     1
102
RTVSPost2010Prop37
 90
       50
102
RTVSPost2010PropOp37
 70
     1
102
RTVSPost2010Prop38
140
0.0
102
RTVSPost2010PropOp38
 70
     1
102
RTVSPost2010Prop39
140
1.0
102
RTVSPost2010PropOp39
 70
     1
102
RTVSPost2010Prop40
 90
        0
102
RTVSPost2010PropOp40
 70
     1
102
RTVSPost2010Prop41ColorIndex
 90
       18
102
RTVSPost2010Prop41ColorRGB
 90
        0
102
RTVSPost2010PropOp41
 70
     1
102
RTVSPost2010Prop42
 90
       50
102
RTVSPost2010PropOp42
 70
     1
102
RTVSPost2010Prop43
 90
        3
102
RTVSPost2010PropOp43
 70
     1
102
RTVSPost2010Prop44ColorIndex
 90
        5
102
RTVSPost2010Prop44ColorRGB
 90
      255
102
RTVSPost2010PropOp44
 70
     1
102
RTVSPost2010Prop45
280
     0
102
RTVSPost2010PropOp45
 70
     1
102
RTVSPost2010Prop46
 90
       50
102
RTVSPost2010PropOp46
 70
     1
102
RTVSPost2010Prop47
 90
       50
102
RTVSPost2010PropOp47
 70
     1
102
RTVSPost2010Prop48
 90
       50
102
RTVSPost2010PropOp48
 70
     1
102
RTVSPost2010Prop49
280
     0
102
RTVSPost2010PropOp49
 70
     1
102
RTVSPost2010Prop50
 90
       50
102
RTVSPost2010PropOp50
 70
     1
102
RTVSPost2010Prop51ColorIndex
 90
      256
102
RTVSPost2010Prop51ColorRGB
 90
-16777216
102
RTVSPost2010PropOp51
 70
     0
102
RTVSPost2010Prop52
140
1.0
102
RTVSPost2010PropOp52
 70
     0
102
RTVSPost2010Prop53
 90
        2
102
RTVSPost2010PropOp53
 70
     1
102
RTVSPost2010Prop54
  1
strokes_ogs.tif
102
RTVSPost2010PropOp54
 70
     1
102
RTVSPost2010Prop55
280
     0
102
RTVSPost2010PropOp55
 70
     1
102
RTVSPost2010Prop56
140
1.0
102
RTVSPost2010PropOp56
 70
     1
102
RTVSPost2010Prop57
140
1.0
102
RTVSPost2010PropOp57
 70
     1
102
RTVSPropertyOp0
 70
     1
102
RTVSPropertyOp1
 70
     1
102
RTVSPropertyOp2
 70
     1
102
RTVSPropertyOp3
 70
     1
102
RTVSPropertyOp4
 70
     1
102
RTVSPropertyOp5
 70
     1
102
RTVSPropertyOp6
 70
     1
102
RTVSPropertyOp7
 70
     1
102
RTVSPropertyOp8
 70
     1
102
RTVSPropertyOp9
 70
     1
102
RTVSPropertyOp10
 70
     1
102
RTVSPropertyOp11
 70
     1
102
RTVSPropertyOp12
 70
     1
102
RTVSPropertyOp13
 70
     1
102
RTVSPropertyOp14
 70
     1
102
RTVSPropertyOp15
 70
     1
102
RTVSPropertyOp16
 70
     1
102
RTVSPropertyOp17
 70
     1
102
RTVSPropertyOp18
 70
     1
102
RTVSPropertyOp19
 70
     1
102
RTVSPropertyOp20
 70
     1
102
RTVSPropertyOp21
 70
     1
102
RTVSPropertyOp22
 70
     1
102
RTVSPropertyOp23
 70
     1
102
RTVSPropertyOp24
 70
     1
102
RTVSPropertyOp25
 70
     1
102
RTVSPropertyOp26
 70
     1
102
RTVSPropertyOp27
 70
     1
102
RTVSPropertyOp28
 70
     1
102
RTVSPropertyOp29
 70
     1
102
RTVSPropertyOp30
 70
     1
102
RTVSPropertyOp31
 70
     1
102
RTVSPropertyOp32
 70
     1
102
RTVSPropertyOp33
 70
     1
102
RTVSPropertyOp34
 70
     1
102
RTVSPropertyOp35
 70
     1
102
RTVSPropertyOp36
 70
     1
102
RTVSPropertyOp37
 70
     1
102
RTVSPropertyOp38
 70
     1
102
RTVSPropertyOp39
 70
     1
102
RTVSPropertyOp40
 70
     1
102
RTVSPropertyOp41
 70
     1
102
RTVSPropertyOp42
 70
     1
102
RTVSPropertyOp43
 70
     1
102
RTVSPropertyOp44
 70
     1
102
RTVSPropertyOp45
 70
     1
102
RTVSPropertyOp46
 70
     1
102
RTVSPropertyOp47
 70
     1
102
RTVSPropertyOp48
 70
     1
102
RTVSPropertyOp49
 70
     1
102
RTVSPropertyOp50
 70
     1
102
RTVSPropertyOp51
 70
     0
102
RTVSPropertyOp52
 70
     0
102
RTVSPropertyOp53
 70
     1
102
RTVSPropertyOp54
 70
     1
102
RTVSPropertyOp55
 70
     1
102
RTVSPropertyOp56
 70
     1
102
RTVSPropertyOp57
 70
     1
102
RTVSPropertyOp58
 70
     1
102
RTVSPropertyOp59
 70
     1
102
RTVSPropertyOp60
 70
     1
102
RTVSPropertyOp61
 70
     1
102
RTVSPropertyOp62
 70
     1
  0
XRECORD
  5
593
102
{ACAD_REACTORS
330
592
102
}
330
592
100
AcDbXrecord
280
     1
102
RTVSPost2010Prop28
280
     0
102
RTVSPost2010PropOp28
 70
     1
102
RTVSPost2010Prop29
280
     1
102
RTVSPost2010PropOp29
 70
     1
102
RTVSPost2010Prop30
280
     1
102
RTVSPost2010PropOp30
 70
     1
102
RTVSPost2010Prop31
280
     0
102
RTVSPost2010PropOp31
 70
     1
102
RTVSPost2010Prop32
280
     0
102
RTVSPost2010PropOp32
 70
     1
102
RTVSPost2010Prop33
280
     0
102
RTVSPost2010PropOp33
 70
     1
102
RTVSPost2010Prop34
280
     0
102
RTVSPost2010PropOp34
 70
     1
102
RTVSPost2010Prop35
280
     0
102
RTVSPost2010PropOp35
 70
     1
102
RTVSPost2010Prop36
280
     0
102
RTVSPost2010PropOp36
 70
     1
102
RTVSPost2010Prop37
 90
       50
102
RTVSPost2010PropOp37
 70
     1
102
RTVSPost2010Prop38
140
0.0
102
RTVSPost2010PropOp38
 70
     1
102
RTVSPost2010Prop39
140
1.0
102
RTVSPost2010PropOp39
 70
     1
102
RTVSPost2010Prop40
 90
        0
102
RTVSPost2010PropOp40
 70
     1
102
RTVSPost2010Prop41ColorIndex
 90
       18
102
RTVSPost2010Prop41ColorRGB
 90
        0
102
RTVSPost2010PropOp41
 70
     1
102
RTVSPost2010Prop42
 90
       50
102
RTVSPost2010PropOp42
 70
     1
102
RTVSPost2010Prop43
 90
        3
102
RTVSPost2010PropOp43
 70
     1
102
RTVSPost2010Prop44ColorIndex
 90
        5
102
RTVSPost2010Prop44ColorRGB
 90
      255
102
RTVSPost2010PropOp44
 70
     1
102
RTVSPost2010Prop45
280
     0
102
RTVSPost2010PropOp45
 70
     1
102
RTVSPost2010Prop46
 90
       50
102
RTVSPost2010PropOp46
 70
     1
102
RTVSPost2010Prop47
 90
       50
102
RTVSPost2010PropOp47
 70
     1
102
RTVSPost2010Prop48
 90
       50
102
RTVSPost2010PropOp48
 70
     1
102
RTVSPost2010Prop49
280
     0
102
RTVSPost2010PropOp49
 70
     1
102
RTVSPost2010Prop50
 90
       50
102
RTVSPost2010PropOp50
 70
     1
102
RTVSPost2010Prop51ColorIndex
 90
      256
102
RTVSPost2010Prop51ColorRGB
 90
-16777216
102
RTVSPost2010PropOp51
 70
     0
102
RTVSPost2010Prop52
140
1.0
102
RTVSPost2010PropOp52
 70
     0
102
RTVSPost2010Prop53
 90
        2
102
RTVSPost2010PropOp53
 70
     1
102
RTVSPost2010Prop54
  1
strokes_ogs.tif
102
RTVSPost2010PropOp54
 70
     1
102
RTVSPost2010Prop55
280
     0
102
RTVSPost2010PropOp55
 70
     1
102
RTVSPost2010Prop56
140
1.0
102
RTVSPost2010PropOp56
 70
     1
102
RTVSPost2010Prop57
140
1.0
102
RTVSPost2010PropOp57
 70
     1
102
RTVSPropertyOp0
 70
     1
102
RTVSPropertyOp1
 70
     1
102
RTVSPropertyOp2
 70
     1
102
RTVSPropertyOp3
 70
     1
102
RTVSPropertyOp4
 70
     1
102
RTVSPropertyOp5
 70
     1
102
RTVSPropertyOp6
 70
     1
102
RTVSPropertyOp7
 70
     1
102
RTVSPropertyOp8
 70
     1
102
RTVSPropertyOp9
 70
     1
102
RTVSPropertyOp10
 70
     1
102
RTVSPropertyOp11
 70
     1
102
RTVSPropertyOp12
 70
     1
102
RTVSPropertyOp13
 70
     1
102
RTVSPropertyOp14
 70
     1
102
RTVSPropertyOp15
 70
     1
102
RTVSPropertyOp16
 70
     1
102
RTVSPropertyOp17
 70
     1
102
RTVSPropertyOp18
 70
     1
102
RTVSPropertyOp19
 70
     1
102
RTVSPropertyOp20
 70
     1
102
RTVSPropertyOp21
 70
     1
102
RTVSPropertyOp22
 70
     1
102
RTVSPropertyOp23
 70
     1
102
RTVSPropertyOp24
 70
     1
102
RTVSPropertyOp25
 70
     1
102
RTVSPropertyOp26
 70
     1
102
RTVSPropertyOp27
 70
     1
102
RTVSPropertyOp28
 70
     1
102
RTVSPropertyOp29
 70
     1
102
RTVSPropertyOp30
 70
     1
102
RTVSPropertyOp31
 70
     1
102
RTVSPropertyOp32
 70
     1
102
RTVSPropertyOp33
 70
     1
102
RTVSPropertyOp34
 70
     1
102
RTVSPropertyOp35
 70
     1
102
RTVSPropertyOp36
 70
     1
102
RTVSPropertyOp37
 70
     1
102
RTVSPropertyOp38
 70
     1
102
RTVSPropertyOp39
 70
     1
102
RTVSPropertyOp40
 70
     1
102
RTVSPropertyOp41
 70
     1
102
RTVSPropertyOp42
 70
     1
102
RTVSPropertyOp43
 70
     1
102
RTVSPropertyOp44
 70
     1
102
RTVSPropertyOp45
 70
     1
102
RTVSPropertyOp46
 70
     1
102
RTVSPropertyOp47
 70
     1
102
RTVSPropertyOp48
 70
     1
102
RTVSPropertyOp49
 70
     1
102
RTVSPropertyOp50
 70
     1
102
RTVSPropertyOp51
 70
     0
102
RTVSPropertyOp52
 70
     0
102
RTVSPropertyOp53
 70
     1
102
RTVSPropertyOp54
 70
     1
102
RTVSPropertyOp55
 70
     1
102
RTVSPropertyOp56
 70
     1
102
RTVSPropertyOp57
 70
     1
102
RTVSPropertyOp58
 70
     1
102
RTVSPropertyOp59
 70
     1
102
RTVSPropertyOp60
 70
     1
102
RTVSPropertyOp61
 70
     1
102
RTVSPropertyOp62
 70
     1
  0
XRECORD
  5
585
102
{ACAD_REACTORS
330
584
102
}
330
584
100
AcDbXrecord
280
     1
102
RTVSPost2010Prop28
280
     0
102
RTVSPost2010PropOp28
 70
     1
102
RTVSPost2010Prop29
280
     1
102
RTVSPost2010PropOp29
 70
     1
102
RTVSPost2010Prop30
280
     1
102
RTVSPost2010PropOp30
 70
     1
102
RTVSPost2010Prop31
280
     0
102
RTVSPost2010PropOp31
 70
     1
102
RTVSPost2010Prop32
280
     0
102
RTVSPost2010PropOp32
 70
     1
102
RTVSPost2010Prop33
280
     0
102
RTVSPost2010PropOp33
 70
     1
102
RTVSPost2010Prop34
280
     0
102
RTVSPost2010PropOp34
 70
     1
102
RTVSPost2010Prop35
280
     0
102
RTVSPost2010PropOp35
 70
     1
102
RTVSPost2010Prop36
280
     0
102
RTVSPost2010PropOp36
 70
     1
102
RTVSPost2010Prop37
 90
       50
102
RTVSPost2010PropOp37
 70
     1
102
RTVSPost2010Prop38
140
0.0
102
RTVSPost2010PropOp38
 70
     1
102
RTVSPost2010Prop39
140
1.0
102
RTVSPost2010PropOp39
 70
     1
102
RTVSPost2010Prop40
 90
        0
102
RTVSPost2010PropOp40
 70
     1
102
RTVSPost2010Prop41ColorIndex
 90
       18
102
RTVSPost2010Prop41ColorRGB
 90
        0
102
RTVSPost2010PropOp41
 70
     1
102
RTVSPost2010Prop42
 90
       50
102
RTVSPost2010PropOp42
 70
     1
102
RTVSPost2010Prop43
 90
        3
102
RTVSPost2010PropOp43
 70
     1
102
RTVSPost2010Prop44ColorIndex
 90
        5
102
RTVSPost2010Prop44ColorRGB
 90
      255
102
RTVSPost2010PropOp44
 70
     1
102
RTVSPost2010Prop45
280
     0
102
RTVSPost2010PropOp45
 70
     1
102
RTVSPost2010Prop46
 90
       50
102
RTVSPost2010PropOp46
 70
     1
102
RTVSPost2010Prop47
 90
       50
102
RTVSPost2010PropOp47
 70
     1
102
RTVSPost2010Prop48
 90
       50
102
RTVSPost2010PropOp48
 70
     1
102
RTVSPost2010Prop49
280
     0
102
RTVSPost2010PropOp49
 70
     1
102
RTVSPost2010Prop50
 90
       50
102
RTVSPost2010PropOp50
 70
     1
102
RTVSPost2010Prop51ColorIndex
 90
      256
102
RTVSPost2010Prop51ColorRGB
 90
-16777216
102
RTVSPost2010PropOp51
 70
     0
102
RTVSPost2010Prop52
140
1.0
102
RTVSPost2010PropOp52
 70
     0
102
RTVSPost2010Prop53
 90
        2
102
RTVSPost2010PropOp53
 70
     1
102
RTVSPost2010Prop54
  1
strokes_ogs.tif
102
RTVSPost2010PropOp54
 70
     1
102
RTVSPost2010Prop55
280
     0
102
RTVSPost2010PropOp55
 70
     1
102
RTVSPost2010Prop56
140
1.0
102
RTVSPost2010PropOp56
 70
     1
102
RTVSPost2010Prop57
140
1.0
102
RTVSPost2010PropOp57
 70
     1
102
RTVSPropertyOp0
 70
     1
102
RTVSPropertyOp1
 70
     1
102
RTVSPropertyOp2
 70
     1
102
RTVSPropertyOp3
 70
     1
102
RTVSPropertyOp4
 70
     1
102
RTVSPropertyOp5
 70
     1
102
RTVSPropertyOp6
 70
     1
102
RTVSPropertyOp7
 70
     1
102
RTVSPropertyOp8
 70
     1
102
RTVSPropertyOp9
 70
     1
102
RTVSPropertyOp10
 70
     1
102
RTVSPropertyOp11
 70
     1
102
RTVSPropertyOp12
 70
     1
102
RTVSPropertyOp13
 70
     1
102
RTVSPropertyOp14
 70
     1
102
RTVSPropertyOp15
 70
     1
102
RTVSPropertyOp16
 70
     1
102
RTVSPropertyOp17
 70
     1
102
RTVSPropertyOp18
 70
     1
102
RTVSPropertyOp19
 70
     1
102
RTVSPropertyOp20
 70
     1
102
RTVSPropertyOp21
 70
     1
102
RTVSPropertyOp22
 70
     1
102
RTVSPropertyOp23
 70
     1
102
RTVSPropertyOp24
 70
     1
102
RTVSPropertyOp25
 70
     1
102
RTVSPropertyOp26
 70
     1
102
RTVSPropertyOp27
 70
     1
102
RTVSPropertyOp28
 70
     1
102
RTVSPropertyOp29
 70
     1
102
RTVSPropertyOp30
 70
     1
102
RTVSPropertyOp31
 70
     1
102
RTVSPropertyOp32
 70
     1
102
RTVSPropertyOp33
 70
     1
102
RTVSPropertyOp34
 70
     1
102
RTVSPropertyOp35
 70
     1
102
RTVSPropertyOp36
 70
     1
102
RTVSPropertyOp37
 70
     1
102
RTVSPropertyOp38
 70
     1
102
RTVSPropertyOp39
 70
     1
102
RTVSPropertyOp40
 70
     1
102
RTVSPropertyOp41
 70
     1
102
RTVSPropertyOp42
 70
     1
102
RTVSPropertyOp43
 70
     1
102
RTVSPropertyOp44
 70
     1
102
RTVSPropertyOp45
 70
     1
102
RTVSPropertyOp46
 70
     1
102
RTVSPropertyOp47
 70
     1
102
RTVSPropertyOp48
 70
     1
102
RTVSPropertyOp49
 70
     1
102
RTVSPropertyOp50
 70
     1
102
RTVSPropertyOp51
 70
     0
102
RTVSPropertyOp52
 70
     0
102
RTVSPropertyOp53
 70
     1
102
RTVSPropertyOp54
 70
     1
102
RTVSPropertyOp55
 70
     1
102
RTVSPropertyOp56
 70
     1
102
RTVSPropertyOp57
 70
     1
102
RTVSPropertyOp58
 70
     1
102
RTVSPropertyOp59
 70
     1
102
RTVSPropertyOp60
 70
     1
102
RTVSPropertyOp61
 70
     1
102
RTVSPropertyOp62
 70
     1
  0
XRECORD
  5
589
102
{ACAD_REACTORS
330
588
102
}
330
588
100
AcDbXrecord
280
     1
102
RTVSPost2010Prop28
280
     0
102
RTVSPost2010PropOp28
 70
     1
102
RTVSPost2010Prop29
280
     1
102
RTVSPost2010PropOp29
 70
     1
102
RTVSPost2010Prop30
280
     1
102
RTVSPost2010PropOp30
 70
     1
102
RTVSPost2010Prop31
280
     0
102
RTVSPost2010PropOp31
 70
     1
102
RTVSPost2010Prop32
280
     0
102
RTVSPost2010PropOp32
 70
     1
102
RTVSPost2010Prop33
280
     0
102
RTVSPost2010PropOp33
 70
     1
102
RTVSPost2010Prop34
280
     0
102
RTVSPost2010PropOp34
 70
     1
102
RTVSPost2010Prop35
280
     0
102
RTVSPost2010PropOp35
 70
     1
102
RTVSPost2010Prop36
280
     0
102
RTVSPost2010PropOp36
 70
     1
102
RTVSPost2010Prop37
 90
       50
102
RTVSPost2010PropOp37
 70
     1
102
RTVSPost2010Prop38
140
0.0
102
RTVSPost2010PropOp38
 70
     1
102
RTVSPost2010Prop39
140
1.0
102
RTVSPost2010PropOp39
 70
     1
102
RTVSPost2010Prop40
 90
        0
102
RTVSPost2010PropOp40
 70
     1
102
RTVSPost2010Prop41ColorIndex
 90
       18
102
RTVSPost2010Prop41ColorRGB
 90
        0
102
RTVSPost2010PropOp41
 70
     1
102
RTVSPost2010Prop42
 90
       50
102
RTVSPost2010PropOp42
 70
     1
102
RTVSPost2010Prop43
 90
        3
102
RTVSPost2010PropOp43
 70
     1
102
RTVSPost2010Prop44ColorIndex
 90
        5
102
RTVSPost2010Prop44ColorRGB
 90
      255
102
RTVSPost2010PropOp44
 70
     1
102
RTVSPost2010Prop45
280
     0
102
RTVSPost2010PropOp45
 70
     1
102
RTVSPost2010Prop46
 90
       50
102
RTVSPost2010PropOp46
 70
     1
102
RTVSPost2010Prop47
 90
       50
102
RTVSPost2010PropOp47
 70
     1
102
RTVSPost2010Prop48
 90
       50
102
RTVSPost2010PropOp48
 70
     1
102
RTVSPost2010Prop49
280
     0
102
RTVSPost2010PropOp49
 70
     1
102
RTVSPost2010Prop50
 90
       50
102
RTVSPost2010PropOp50
 70
     1
102
RTVSPost2010Prop51ColorIndex
 90
      256
102
RTVSPost2010Prop51ColorRGB
 90
-16777216
102
RTVSPost2010PropOp51
 70
     0
102
RTVSPost2010Prop52
140
1.0
102
RTVSPost2010PropOp52
 70
     0
102
RTVSPost2010Prop53
 90
        2
102
RTVSPost2010PropOp53
 70
     1
102
RTVSPost2010Prop54
  1
strokes_ogs.tif
102
RTVSPost2010PropOp54
 70
     1
102
RTVSPost2010Prop55
280
     0
102
RTVSPost2010PropOp55
 70
     1
102
RTVSPost2010Prop56
140
1.0
102
RTVSPost2010PropOp56
 70
     1
102
RTVSPost2010Prop57
140
1.0
102
RTVSPost2010PropOp57
 70
     1
102
RTVSPropertyOp0
 70
     1
102
RTVSPropertyOp1
 70
     1
102
RTVSPropertyOp2
 70
     1
102
RTVSPropertyOp3
 70
     1
102
RTVSPropertyOp4
 70
     1
102
RTVSPropertyOp5
 70
     1
102
RTVSPropertyOp6
 70
     1
102
RTVSPropertyOp7
 70
     1
102
RTVSPropertyOp8
 70
     1
102
RTVSPropertyOp9
 70
     1
102
RTVSPropertyOp10
 70
     1
102
RTVSPropertyOp11
 70
     1
102
RTVSPropertyOp12
 70
     1
102
RTVSPropertyOp13
 70
     1
102
RTVSPropertyOp14
 70
     1
102
RTVSPropertyOp15
 70
     1
102
RTVSPropertyOp16
 70
     1
102
RTVSPropertyOp17
 70
     1
102
RTVSPropertyOp18
 70
     1
102
RTVSPropertyOp19
 70
     1
102
RTVSPropertyOp20
 70
     1
102
RTVSPropertyOp21
 70
     1
102
RTVSPropertyOp22
 70
     1
102
RTVSPropertyOp23
 70
     1
102
RTVSPropertyOp24
 70
     1
102
RTVSPropertyOp25
 70
     1
102
RTVSPropertyOp26
 70
     1
102
RTVSPropertyOp27
 70
     1
102
RTVSPropertyOp28
 70
     1
102
RTVSPropertyOp29
 70
     1
102
RTVSPropertyOp30
 70
     1
102
RTVSPropertyOp31
 70
     1
102
RTVSPropertyOp32
 70
     1
102
RTVSPropertyOp33
 70
     1
102
RTVSPropertyOp34
 70
     1
102
RTVSPropertyOp35
 70
     1
102
RTVSPropertyOp36
 70
     1
102
RTVSPropertyOp37
 70
     1
102
RTVSPropertyOp38
 70
     1
102
RTVSPropertyOp39
 70
     1
102
RTVSPropertyOp40
 70
     1
102
RTVSPropertyOp41
 70
     1
102
RTVSPropertyOp42
 70
     1
102
RTVSPropertyOp43
 70
     1
102
RTVSPropertyOp44
 70
     1
102
RTVSPropertyOp45
 70
     1
102
RTVSPropertyOp46
 70
     1
102
RTVSPropertyOp47
 70
     1
102
RTVSPropertyOp48
 70
     1
102
RTVSPropertyOp49
 70
     1
102
RTVSPropertyOp50
 70
     1
102
RTVSPropertyOp51
 70
     0
102
RTVSPropertyOp52
 70
     0
102
RTVSPropertyOp53
 70
     1
102
RTVSPropertyOp54
 70
     1
102
RTVSPropertyOp55
 70
     1
102
RTVSPropertyOp56
 70
     1
102
RTVSPropertyOp57
 70
     1
102
RTVSPropertyOp58
 70
     1
102
RTVSPropertyOp59
 70
     1
102
RTVSPropertyOp60
 70
     1
102
RTVSPropertyOp61
 70
     1
102
RTVSPropertyOp62
 70
     1
  0
XRECORD
  5
599
102
{ACAD_REACTORS
330
598
102
}
330
598
100
AcDbXrecord
280
     1
102
RTVSPost2010Prop28
280
     0
102
RTVSPost2010PropOp28
 70
     1
102
RTVSPost2010Prop29
280
     1
102
RTVSPost2010PropOp29
 70
     1
102
RTVSPost2010Prop30
280
     1
102
RTVSPost2010PropOp30
 70
     1
102
RTVSPost2010Prop31
280
     0
102
RTVSPost2010PropOp31
 70
     1
102
RTVSPost2010Prop32
280
     0
102
RTVSPost2010PropOp32
 70
     1
102
RTVSPost2010Prop33
280
     0
102
RTVSPost2010PropOp33
 70
     1
102
RTVSPost2010Prop34
280
     0
102
RTVSPost2010PropOp34
 70
     1
102
RTVSPost2010Prop35
280
     0
102
RTVSPost2010PropOp35
 70
     1
102
RTVSPost2010Prop36
280
     0
102
RTVSPost2010PropOp36
 70
     1
102
RTVSPost2010Prop37
 90
       50
102
RTVSPost2010PropOp37
 70
     1
102
RTVSPost2010Prop38
140
0.0
102
RTVSPost2010PropOp38
 70
     1
102
RTVSPost2010Prop39
140
1.0
102
RTVSPost2010PropOp39
 70
     1
102
RTVSPost2010Prop40
 90
        0
102
RTVSPost2010PropOp40
 70
     1
102
RTVSPost2010Prop41ColorIndex
 90
       18
102
RTVSPost2010Prop41ColorRGB
 90
        0
102
RTVSPost2010PropOp41
 70
     1
102
RTVSPost2010Prop42
 90
       50
102
RTVSPost2010PropOp42
 70
     1
102
RTVSPost2010Prop43
 90
        3
102
RTVSPost2010PropOp43
 70
     1
102
RTVSPost2010Prop44ColorIndex
 90
        5
102
RTVSPost2010Prop44ColorRGB
 90
      255
102
RTVSPost2010PropOp44
 70
     1
102
RTVSPost2010Prop45
280
     0
102
RTVSPost2010PropOp45
 70
     1
102
RTVSPost2010Prop46
 90
       50
102
RTVSPost2010PropOp46
 70
     1
102
RTVSPost2010Prop47
 90
       50
102
RTVSPost2010PropOp47
 70
     1
102
RTVSPost2010Prop48
 90
       50
102
RTVSPost2010PropOp48
 70
     1
102
RTVSPost2010Prop49
280
     0
102
RTVSPost2010PropOp49
 70
     1
102
RTVSPost2010Prop50
 90
       50
102
RTVSPost2010PropOp50
 70
     1
102
RTVSPost2010Prop51ColorIndex
 90
      256
102
RTVSPost2010Prop51ColorRGB
 90
-16777216
102
RTVSPost2010PropOp51
 70
     0
102
RTVSPost2010Prop52
140
1.0
102
RTVSPost2010PropOp52
 70
     0
102
RTVSPost2010Prop53
 90
        2
102
RTVSPost2010PropOp53
 70
     1
102
RTVSPost2010Prop54
  1
strokes_ogs.tif
102
RTVSPost2010PropOp54
 70
     1
102
RTVSPost2010Prop55
280
     0
102
RTVSPost2010PropOp55
 70
     1
102
RTVSPost2010Prop56
140
1.0
102
RTVSPost2010PropOp56
 70
     1
102
RTVSPost2010Prop57
140
1.0
102
RTVSPost2010PropOp57
 70
     1
102
RTVSPropertyOp0
 70
     0
102
RTVSPropertyOp1
 70
     0
102
RTVSPropertyOp2
 70
     0
102
RTVSPropertyOp3
 70
     0
102
RTVSPropertyOp4
 70
     0
102
RTVSPropertyOp5
 70
     0
102
RTVSPropertyOp6
 70
     0
102
RTVSPropertyOp7
 70
     0
102
RTVSPropertyOp8
 70
     0
102
RTVSPropertyOp9
 70
     0
102
RTVSPropertyOp10
 70
     0
102
RTVSPropertyOp11
 70
     0
102
RTVSPropertyOp12
 70
     0
102
RTVSPropertyOp13
 70
     0
102
RTVSPropertyOp14
 70
     2
102
RTVSPropertyOp15
 70
     0
102
RTVSPropertyOp16
 70
     0
102
RTVSPropertyOp17
 70
     0
102
RTVSPropertyOp18
 70
     0
102
RTVSPropertyOp19
 70
     0
102
RTVSPropertyOp20
 70
     0
102
RTVSPropertyOp21
 70
     0
102
RTVSPropertyOp22
 70
     0
102
RTVSPropertyOp23
 70
     0
102
RTVSPropertyOp24
 70
     0
102
RTVSPropertyOp25
 70
     0
102
RTVSPropertyOp26
 70
     0
102
RTVSPropertyOp27
 70
     0
102
RTVSPropertyOp28
 70
     1
102
RTVSPropertyOp29
 70
     1
102
RTVSPropertyOp30
 70
     1
102
RTVSPropertyOp31
 70
     1
102
RTVSPropertyOp32
 70
     1
102
RTVSPropertyOp33
 70
     1
102
RTVSPropertyOp34
 70
     1
102
RTVSPropertyOp35
 70
     1
102
RTVSPropertyOp36
 70
     1
102
RTVSPropertyOp37
 70
     1
102
RTVSPropertyOp38
 70
     1
102
RTVSPropertyOp39
 70
     1
102
RTVSPropertyOp40
 70
     1
102
RTVSPropertyOp41
 70
     1
102
RTVSPropertyOp42
 70
     1
102
RTVSPropertyOp43
 70
     1
102
RTVSPropertyOp44
 70
     1
102
RTVSPropertyOp45
 70
     1
102
RTVSPropertyOp46
 70
     1
102
RTVSPropertyOp47
 70
     1
102
RTVSPropertyOp48
 70
     1
102
RTVSPropertyOp49
 70
     1
102
RTVSPropertyOp50
 70
     1
102
RTVSPropertyOp51
 70
     0
102
RTVSPropertyOp52
 70
     0
102
RTVSPropertyOp53
 70
     1
102
RTVSPropertyOp54
 70
     1
102
RTVSPropertyOp55
 70
     1
102
RTVSPropertyOp56
 70
     1
102
RTVSPropertyOp57
 70
     1
102
RTVSPropertyOp58
 70
     1
102
RTVSPropertyOp59
 70
     1
102
RTVSPropertyOp60
 70
     1
102
RTVSPropertyOp61
 70
     1
102
RTVSPropertyOp62
 70
     1
  0
XRECORD
  5
591
102
{ACAD_REACTORS
330
590
102
}
330
590
100
AcDbXrecord
280
     1
102
RTVSPost2010Prop28
280
     0
102
RTVSPost2010PropOp28
 70
     1
102
RTVSPost2010Prop29
280
     1
102
RTVSPost2010PropOp29
 70
     1
102
RTVSPost2010Prop30
280
     1
102
RTVSPost2010PropOp30
 70
     1
102
RTVSPost2010Prop31
280
     0
102
RTVSPost2010PropOp31
 70
     1
102
RTVSPost2010Prop32
280
     0
102
RTVSPost2010PropOp32
 70
     1
102
RTVSPost2010Prop33
280
     0
102
RTVSPost2010PropOp33
 70
     1
102
RTVSPost2010Prop34
280
     0
102
RTVSPost2010PropOp34
 70
     1
102
RTVSPost2010Prop35
280
     0
102
RTVSPost2010PropOp35
 70
     1
102
RTVSPost2010Prop36
280
     0
102
RTVSPost2010PropOp36
 70
     1
102
RTVSPost2010Prop37
 90
       50
102
RTVSPost2010PropOp37
 70
     1
102
RTVSPost2010Prop38
140
0.0
102
RTVSPost2010PropOp38
 70
     1
102
RTVSPost2010Prop39
140
1.0
102
RTVSPost2010PropOp39
 70
     1
102
RTVSPost2010Prop40
 90
        0
102
RTVSPost2010PropOp40
 70
     1
102
RTVSPost2010Prop41ColorIndex
 90
       18
102
RTVSPost2010Prop41ColorRGB
 90
        0
102
RTVSPost2010PropOp41
 70
     1
102
RTVSPost2010Prop42
 90
       50
102
RTVSPost2010PropOp42
 70
     1
102
RTVSPost2010Prop43
 90
        3
102
RTVSPost2010PropOp43
 70
     1
102
RTVSPost2010Prop44ColorIndex
 90
        5
102
RTVSPost2010Prop44ColorRGB
 90
      255
102
RTVSPost2010PropOp44
 70
     1
102
RTVSPost2010Prop45
280
     0
102
RTVSPost2010PropOp45
 70
     1
102
RTVSPost2010Prop46
 90
       50
102
RTVSPost2010PropOp46
 70
     1
102
RTVSPost2010Prop47
 90
       50
102
RTVSPost2010PropOp47
 70
     1
102
RTVSPost2010Prop48
 90
       50
102
RTVSPost2010PropOp48
 70
     1
102
RTVSPost2010Prop49
280
     0
102
RTVSPost2010PropOp49
 70
     1
102
RTVSPost2010Prop50
 90
       50
102
RTVSPost2010PropOp50
 70
     1
102
RTVSPost2010Prop51ColorIndex
 90
      256
102
RTVSPost2010Prop51ColorRGB
 90
-16777216
102
RTVSPost2010PropOp51
 70
     0
102
RTVSPost2010Prop52
140
1.0
102
RTVSPost2010PropOp52
 70
     0
102
RTVSPost2010Prop53
 90
        2
102
RTVSPost2010PropOp53
 70
     1
102
RTVSPost2010Prop54
  1
strokes_ogs.tif
102
RTVSPost2010PropOp54
 70
     1
102
RTVSPost2010Prop55
280
     0
102
RTVSPost2010PropOp55
 70
     1
102
RTVSPost2010Prop56
140
1.0
102
RTVSPost2010PropOp56
 70
     1
102
RTVSPost2010Prop57
140
1.0
102
RTVSPost2010PropOp57
 70
     1
102
RTVSPropertyOp0
 70
     1
102
RTVSPropertyOp1
 70
     1
102
RTVSPropertyOp2
 70
     1
102
RTVSPropertyOp3
 70
     1
102
RTVSPropertyOp4
 70
     1
102
RTVSPropertyOp5
 70
     1
102
RTVSPropertyOp6
 70
     1
102
RTVSPropertyOp7
 70
     1
102
RTVSPropertyOp8
 70
     1
102
RTVSPropertyOp9
 70
     1
102
RTVSPropertyOp10
 70
     1
102
RTVSPropertyOp11
 70
     1
102
RTVSPropertyOp12
 70
     1
102
RTVSPropertyOp13
 70
     1
102
RTVSPropertyOp14
 70
     1
102
RTVSPropertyOp15
 70
     1
102
RTVSPropertyOp16
 70
     1
102
RTVSPropertyOp17
 70
     1
102
RTVSPropertyOp18
 70
     1
102
RTVSPropertyOp19
 70
     1
102
RTVSPropertyOp20
 70
     1
102
RTVSPropertyOp21
 70
     1
102
RTVSPropertyOp22
 70
     1
102
RTVSPropertyOp23
 70
     1
102
RTVSPropertyOp24
 70
     1
102
RTVSPropertyOp25
 70
     1
102
RTVSPropertyOp26
 70
     1
102
RTVSPropertyOp27
 70
     1
102
RTVSPropertyOp28
 70
     1
102
RTVSPropertyOp29
 70
     1
102
RTVSPropertyOp30
 70
     1
102
RTVSPropertyOp31
 70
     1
102
RTVSPropertyOp32
 70
     1
102
RTVSPropertyOp33
 70
     1
102
RTVSPropertyOp34
 70
     1
102
RTVSPropertyOp35
 70
     1
102
RTVSPropertyOp36
 70
     1
102
RTVSPropertyOp37
 70
     1
102
RTVSPropertyOp38
 70
     1
102
RTVSPropertyOp39
 70
     1
102
RTVSPropertyOp40
 70
     1
102
RTVSPropertyOp41
 70
     1
102
RTVSPropertyOp42
 70
     1
102
RTVSPropertyOp43
 70
     1
102
RTVSPropertyOp44
 70
     1
102
RTVSPropertyOp45
 70
     1
102
RTVSPropertyOp46
 70
     1
102
RTVSPropertyOp47
 70
     1
102
RTVSPropertyOp48
 70
     1
102
RTVSPropertyOp49
 70
     1
102
RTVSPropertyOp50
 70
     1
102
RTVSPropertyOp51
 70
     0
102
RTVSPropertyOp52
 70
     0
102
RTVSPropertyOp53
 70
     1
102
RTVSPropertyOp54
 70
     1
102
RTVSPropertyOp55
 70
     1
102
RTVSPropertyOp56
 70
     1
102
RTVSPropertyOp57
 70
     1
102
RTVSPropertyOp58
 70
     1
102
RTVSPropertyOp59
 70
     1
102
RTVSPropertyOp60
 70
     1
102
RTVSPropertyOp61
 70
     1
102
RTVSPropertyOp62
 70
     1
  0
XRECORD
  5
575
102
{ACAD_REACTORS
330
574
102
}
330
574
100
AcDbXrecord
280
     1
102
RTVSPost2010Prop28
280
     0
102
RTVSPost2010PropOp28
 70
     1
102
RTVSPost2010Prop29
280
     1
102
RTVSPost2010PropOp29
 70
     1
102
RTVSPost2010Prop30
280
     1
102
RTVSPost2010PropOp30
 70
     1
102
RTVSPost2010Prop31
280
     0
102
RTVSPost2010PropOp31
 70
     1
102
RTVSPost2010Prop32
280
     0
102
RTVSPost2010PropOp32
 70
     1
102
RTVSPost2010Prop33
280
     0
102
RTVSPost2010PropOp33
 70
     1
102
RTVSPost2010Prop34
280
     0
102
RTVSPost2010PropOp34
 70
     1
102
RTVSPost2010Prop35
280
     0
102
RTVSPost2010PropOp35
 70
     1
102
RTVSPost2010Prop36
280
     0
102
RTVSPost2010PropOp36
 70
     1
102
RTVSPost2010Prop37
 90
       50
102
RTVSPost2010PropOp37
 70
     1
102
RTVSPost2010Prop38
140
0.0
102
RTVSPost2010PropOp38
 70
     1
102
RTVSPost2010Prop39
140
1.0
102
RTVSPost2010PropOp39
 70
     1
102
RTVSPost2010Prop40
 90
        0
102
RTVSPost2010PropOp40
 70
     1
102
RTVSPost2010Prop41ColorIndex
 90
       18
102
RTVSPost2010Prop41ColorRGB
 90
        0
102
RTVSPost2010PropOp41
 70
     1
102
RTVSPost2010Prop42
 90
       50
102
RTVSPost2010PropOp42
 70
     1
102
RTVSPost2010Prop43
 90
        3
102
RTVSPost2010PropOp43
 70
     1
102
RTVSPost2010Prop44ColorIndex
 90
        5
102
RTVSPost2010Prop44ColorRGB
 90
      255
102
RTVSPost2010PropOp44
 70
     1
102
RTVSPost2010Prop45
280
     0
102
RTVSPost2010PropOp45
 70
     1
102
RTVSPost2010Prop46
 90
       50
102
RTVSPost2010PropOp46
 70
     1
102
RTVSPost2010Prop47
 90
       50
102
RTVSPost2010PropOp47
 70
     1
102
RTVSPost2010Prop48
 90
       50
102
RTVSPost2010PropOp48
 70
     1
102
RTVSPost2010Prop49
280
     0
102
RTVSPost2010PropOp49
 70
     1
102
RTVSPost2010Prop50
 90
       50
102
RTVSPost2010PropOp50
 70
     1
102
RTVSPost2010Prop51ColorIndex
 90
      256
102
RTVSPost2010Prop51ColorRGB
 90
-16777216
102
RTVSPost2010PropOp51
 70
     0
102
RTVSPost2010Prop52
140
1.0
102
RTVSPost2010PropOp52
 70
     0
102
RTVSPost2010Prop53
 90
        2
102
RTVSPost2010PropOp53
 70
     1
102
RTVSPost2010Prop54
  1
strokes_ogs.tif
102
RTVSPost2010PropOp54
 70
     1
102
RTVSPost2010Prop55
280
     0
102
RTVSPost2010PropOp55
 70
     1
102
RTVSPost2010Prop56
140
1.0
102
RTVSPost2010PropOp56
 70
     1
102
RTVSPost2010Prop57
140
1.0
102
RTVSPost2010PropOp57
 70
     1
102
RTVSPropertyOp0
 70
     1
102
RTVSPropertyOp1
 70
     1
102
RTVSPropertyOp2
 70
     1
102
RTVSPropertyOp3
 70
     1
102
RTVSPropertyOp4
 70
     1
102
RTVSPropertyOp5
 70
     1
102
RTVSPropertyOp6
 70
     1
102
RTVSPropertyOp7
 70
     1
102
RTVSPropertyOp8
 70
     1
102
RTVSPropertyOp9
 70
     1
102
RTVSPropertyOp10
 70
     1
102
RTVSPropertyOp11
 70
     1
102
RTVSPropertyOp12
 70
     1
102
RTVSPropertyOp13
 70
     1
102
RTVSPropertyOp14
 70
     1
102
RTVSPropertyOp15
 70
     1
102
RTVSPropertyOp16
 70
     1
102
RTVSPropertyOp17
 70
     1
102
RTVSPropertyOp18
 70
     1
102
RTVSPropertyOp19
 70
     1
102
RTVSPropertyOp20
 70
     1
102
RTVSPropertyOp21
 70
     1
102
RTVSPropertyOp22
 70
     1
102
RTVSPropertyOp23
 70
     1
102
RTVSPropertyOp24
 70
     1
102
RTVSPropertyOp25
 70
     1
102
RTVSPropertyOp26
 70
     1
102
RTVSPropertyOp27
 70
     1
102
RTVSPropertyOp28
 70
     1
102
RTVSPropertyOp29
 70
     1
102
RTVSPropertyOp30
 70
     1
102
RTVSPropertyOp31
 70
     1
102
RTVSPropertyOp32
 70
     1
102
RTVSPropertyOp33
 70
     1
102
RTVSPropertyOp34
 70
     1
102
RTVSPropertyOp35
 70
     1
102
RTVSPropertyOp36
 70
     1
102
RTVSPropertyOp37
 70
     1
102
RTVSPropertyOp38
 70
     1
102
RTVSPropertyOp39
 70
     1
102
RTVSPropertyOp40
 70
     1
102
RTVSPropertyOp41
 70
     1
102
RTVSPropertyOp42
 70
     1
102
RTVSPropertyOp43
 70
     1
102
RTVSPropertyOp44
 70
     1
102
RTVSPropertyOp45
 70
     1
102
RTVSPropertyOp46
 70
     1
102
RTVSPropertyOp47
 70
     1
102
RTVSPropertyOp48
 70
     1
102
RTVSPropertyOp49
 70
     1
102
RTVSPropertyOp50
 70
     1
102
RTVSPropertyOp51
 70
     0
102
RTVSPropertyOp52
 70
     0
102
RTVSPropertyOp53
 70
     1
102
RTVSPropertyOp54
 70
     1
102
RTVSPropertyOp55
 70
     1
102
RTVSPropertyOp56
 70
     1
102
RTVSPropertyOp57
 70
     1
102
RTVSPropertyOp58
 70
     1
102
RTVSPropertyOp59
 70
     1
102
RTVSPropertyOp60
 70
     1
102
RTVSPropertyOp61
 70
     1
102
RTVSPropertyOp62
 70
     1
  0
XRECORD
  5
577
102
{ACAD_REACTORS
330
576
102
}
330
576
100
AcDbXrecord
280
     1
102
RTVSPost2010Prop28
280
     0
102
RTVSPost2010PropOp28
 70
     1
102
RTVSPost2010Prop29
280
     1
102
RTVSPost2010PropOp29
 70
     1
102
RTVSPost2010Prop30
280
     1
102
RTVSPost2010PropOp30
 70
     1
102
RTVSPost2010Prop31
280
     0
102
RTVSPost2010PropOp31
 70
     1
102
RTVSPost2010Prop32
280
     0
102
RTVSPost2010PropOp32
 70
     1
102
RTVSPost2010Prop33
280
     0
102
RTVSPost2010PropOp33
 70
     1
102
RTVSPost2010Prop34
280
     0
102
RTVSPost2010PropOp34
 70
     1
102
RTVSPost2010Prop35
280
     0
102
RTVSPost2010PropOp35
 70
     1
102
RTVSPost2010Prop36
280
     0
102
RTVSPost2010PropOp36
 70
     1
102
RTVSPost2010Prop37
 90
       50
102
RTVSPost2010PropOp37
 70
     1
102
RTVSPost2010Prop38
140
0.0
102
RTVSPost2010PropOp38
 70
     1
102
RTVSPost2010Prop39
140
1.0
102
RTVSPost2010PropOp39
 70
     1
102
RTVSPost2010Prop40
 90
        0
102
RTVSPost2010PropOp40
 70
     1
102
RTVSPost2010Prop41ColorIndex
 90
       18
102
RTVSPost2010Prop41ColorRGB
 90
        0
102
RTVSPost2010PropOp41
 70
     1
102
RTVSPost2010Prop42
 90
       50
102
RTVSPost2010PropOp42
 70
     1
102
RTVSPost2010Prop43
 90
        3
102
RTVSPost2010PropOp43
 70
     1
102
RTVSPost2010Prop44ColorIndex
 90
        5
102
RTVSPost2010Prop44ColorRGB
 90
      255
102
RTVSPost2010PropOp44
 70
     1
102
RTVSPost2010Prop45
280
     0
102
RTVSPost2010PropOp45
 70
     1
102
RTVSPost2010Prop46
 90
       50
102
RTVSPost2010PropOp46
 70
     1
102
RTVSPost2010Prop47
 90
       50
102
RTVSPost2010PropOp47
 70
     1
102
RTVSPost2010Prop48
 90
       50
102
RTVSPost2010PropOp48
 70
     1
102
RTVSPost2010Prop49
280
     0
102
RTVSPost2010PropOp49
 70
     1
102
RTVSPost2010Prop50
 90
       50
102
RTVSPost2010PropOp50
 70
     1
102
RTVSPost2010Prop51ColorIndex
 90
      256
102
RTVSPost2010Prop51ColorRGB
 90
-16777216
102
RTVSPost2010PropOp51
 70
     0
102
RTVSPost2010Prop52
140
1.0
102
RTVSPost2010PropOp52
 70
     0
102
RTVSPost2010Prop53
 90
        2
102
RTVSPost2010PropOp53
 70
     1
102
RTVSPost2010Prop54
  1
strokes_ogs.tif
102
RTVSPost2010PropOp54
 70
     1
102
RTVSPost2010Prop55
280
     0
102
RTVSPost2010PropOp55
 70
     1
102
RTVSPost2010Prop56
140
1.0
102
RTVSPost2010PropOp56
 70
     1
102
RTVSPost2010Prop57
140
1.0
102
RTVSPost2010PropOp57
 70
     1
102
RTVSPropertyOp0
 70
     1
102
RTVSPropertyOp1
 70
     1
102
RTVSPropertyOp2
 70
     1
102
RTVSPropertyOp3
 70
     1
102
RTVSPropertyOp4
 70
     1
102
RTVSPropertyOp5
 70
     1
102
RTVSPropertyOp6
 70
     1
102
RTVSPropertyOp7
 70
     1
102
RTVSPropertyOp8
 70
     1
102
RTVSPropertyOp9
 70
     1
102
RTVSPropertyOp10
 70
     1
102
RTVSPropertyOp11
 70
     1
102
RTVSPropertyOp12
 70
     1
102
RTVSPropertyOp13
 70
     1
102
RTVSPropertyOp14
 70
     1
102
RTVSPropertyOp15
 70
     1
102
RTVSPropertyOp16
 70
     1
102
RTVSPropertyOp17
 70
     1
102
RTVSPropertyOp18
 70
     1
102
RTVSPropertyOp19
 70
     1
102
RTVSPropertyOp20
 70
     1
102
RTVSPropertyOp21
 70
     1
102
RTVSPropertyOp22
 70
     1
102
RTVSPropertyOp23
 70
     1
102
RTVSPropertyOp24
 70
     1
102
RTVSPropertyOp25
 70
     1
102
RTVSPropertyOp26
 70
     1
102
RTVSPropertyOp27
 70
     1
102
RTVSPropertyOp28
 70
     1
102
RTVSPropertyOp29
 70
     1
102
RTVSPropertyOp30
 70
     1
102
RTVSPropertyOp31
 70
     1
102
RTVSPropertyOp32
 70
     1
102
RTVSPropertyOp33
 70
     1
102
RTVSPropertyOp34
 70
     1
102
RTVSPropertyOp35
 70
     1
102
RTVSPropertyOp36
 70
     1
102
RTVSPropertyOp37
 70
     1
102
RTVSPropertyOp38
 70
     1
102
RTVSPropertyOp39
 70
     1
102
RTVSPropertyOp40
 70
     1
102
RTVSPropertyOp41
 70
     1
102
RTVSPropertyOp42
 70
     1
102
RTVSPropertyOp43
 70
     1
102
RTVSPropertyOp44
 70
     1
102
RTVSPropertyOp45
 70
     1
102
RTVSPropertyOp46
 70
     1
102
RTVSPropertyOp47
 70
     1
102
RTVSPropertyOp48
 70
     1
102
RTVSPropertyOp49
 70
     1
102
RTVSPropertyOp50
 70
     1
102
RTVSPropertyOp51
 70
     0
102
RTVSPropertyOp52
 70
     0
102
RTVSPropertyOp53
 70
     1
102
RTVSPropertyOp54
 70
     1
102
RTVSPropertyOp55
 70
     1
102
RTVSPropertyOp56
 70
     1
102
RTVSPropertyOp57
 70
     1
102
RTVSPropertyOp58
 70
     1
102
RTVSPropertyOp59
 70
     1
102
RTVSPropertyOp60
 70
     1
102
RTVSPropertyOp61
 70
     1
102
RTVSPropertyOp62
 70
     1
  0
XRECORD
  5
579
102
{ACAD_REACTORS
330
578
102
}
330
578
100
AcDbXrecord
280
     1
102
RTVSPost2010Prop28
280
     0
102
RTVSPost2010PropOp28
 70
     1
102
RTVSPost2010Prop29
280
     1
102
RTVSPost2010PropOp29
 70
     1
102
RTVSPost2010Prop30
280
     1
102
RTVSPost2010PropOp30
 70
     1
102
RTVSPost2010Prop31
280
     0
102
RTVSPost2010PropOp31
 70
     1
102
RTVSPost2010Prop32
280
     0
102
RTVSPost2010PropOp32
 70
     1
102
RTVSPost2010Prop33
280
     0
102
RTVSPost2010PropOp33
 70
     1
102
RTVSPost2010Prop34
280
     0
102
RTVSPost2010PropOp34
 70
     1
102
RTVSPost2010Prop35
280
     0
102
RTVSPost2010PropOp35
 70
     1
102
RTVSPost2010Prop36
280
     0
102
RTVSPost2010PropOp36
 70
     1
102
RTVSPost2010Prop37
 90
       50
102
RTVSPost2010PropOp37
 70
     1
102
RTVSPost2010Prop38
140
0.0
102
RTVSPost2010PropOp38
 70
     1
102
RTVSPost2010Prop39
140
1.0
102
RTVSPost2010PropOp39
 70
     1
102
RTVSPost2010Prop40
 90
        0
102
RTVSPost2010PropOp40
 70
     1
102
RTVSPost2010Prop41ColorIndex
 90
       18
102
RTVSPost2010Prop41ColorRGB
 90
        0
102
RTVSPost2010PropOp41
 70
     1
102
RTVSPost2010Prop42
 90
       50
102
RTVSPost2010PropOp42
 70
     1
102
RTVSPost2010Prop43
 90
        3
102
RTVSPost2010PropOp43
 70
     1
102
RTVSPost2010Prop44ColorIndex
 90
        5
102
RTVSPost2010Prop44ColorRGB
 90
      255
102
RTVSPost2010PropOp44
 70
     1
102
RTVSPost2010Prop45
280
     0
102
RTVSPost2010PropOp45
 70
     1
102
RTVSPost2010Prop46
 90
       50
102
RTVSPost2010PropOp46
 70
     1
102
RTVSPost2010Prop47
 90
       50
102
RTVSPost2010PropOp47
 70
     1
102
RTVSPost2010Prop48
 90
       50
102
RTVSPost2010PropOp48
 70
     1
102
RTVSPost2010Prop49
280
     0
102
RTVSPost2010PropOp49
 70
     1
102
RTVSPost2010Prop50
 90
       50
102
RTVSPost2010PropOp50
 70
     1
102
RTVSPost2010Prop51ColorIndex
 90
      256
102
RTVSPost2010Prop51ColorRGB
 90
-16777216
102
RTVSPost2010PropOp51
 70
     0
102
RTVSPost2010Prop52
140
1.0
102
RTVSPost2010PropOp52
 70
     0
102
RTVSPost2010Prop53
 90
        2
102
RTVSPost2010PropOp53
 70
     1
102
RTVSPost2010Prop54
  1
strokes_ogs.tif
102
RTVSPost2010PropOp54
 70
     1
102
RTVSPost2010Prop55
280
     0
102
RTVSPost2010PropOp55
 70
     1
102
RTVSPost2010Prop56
140
1.0
102
RTVSPost2010PropOp56
 70
     1
102
RTVSPost2010Prop57
140
1.0
102
RTVSPost2010PropOp57
 70
     1
102
RTVSPropertyOp0
 70
     1
102
RTVSPropertyOp1
 70
     1
102
RTVSPropertyOp2
 70
     1
102
RTVSPropertyOp3
 70
     1
102
RTVSPropertyOp4
 70
     1
102
RTVSPropertyOp5
 70
     1
102
RTVSPropertyOp6
 70
     1
102
RTVSPropertyOp7
 70
     1
102
RTVSPropertyOp8
 70
     1
102
RTVSPropertyOp9
 70
     1
102
RTVSPropertyOp10
 70
     1
102
RTVSPropertyOp11
 70
     1
102
RTVSPropertyOp12
 70
     1
102
RTVSPropertyOp13
 70
     1
102
RTVSPropertyOp14
 70
     1
102
RTVSPropertyOp15
 70
     1
102
RTVSPropertyOp16
 70
     1
102
RTVSPropertyOp17
 70
     1
102
RTVSPropertyOp18
 70
     1
102
RTVSPropertyOp19
 70
     1
102
RTVSPropertyOp20
 70
     1
102
RTVSPropertyOp21
 70
     1
102
RTVSPropertyOp22
 70
     1
102
RTVSPropertyOp23
 70
     1
102
RTVSPropertyOp24
 70
     1
102
RTVSPropertyOp25
 70
     1
102
RTVSPropertyOp26
 70
     1
102
RTVSPropertyOp27
 70
     1
102
RTVSPropertyOp28
 70
     1
102
RTVSPropertyOp29
 70
     1
102
RTVSPropertyOp30
 70
     1
102
RTVSPropertyOp31
 70
     1
102
RTVSPropertyOp32
 70
     1
102
RTVSPropertyOp33
 70
     1
102
RTVSPropertyOp34
 70
     1
102
RTVSPropertyOp35
 70
     1
102
RTVSPropertyOp36
 70
     1
102
RTVSPropertyOp37
 70
     1
102
RTVSPropertyOp38
 70
     1
102
RTVSPropertyOp39
 70
     1
102
RTVSPropertyOp40
 70
     1
102
RTVSPropertyOp41
 70
     1
102
RTVSPropertyOp42
 70
     1
102
RTVSPropertyOp43
 70
     1
102
RTVSPropertyOp44
 70
     1
102
RTVSPropertyOp45
 70
     1
102
RTVSPropertyOp46
 70
     1
102
RTVSPropertyOp47
 70
     1
102
RTVSPropertyOp48
 70
     1
102
RTVSPropertyOp49
 70
     1
102
RTVSPropertyOp50
 70
     1
102
RTVSPropertyOp51
 70
     0
102
RTVSPropertyOp52
 70
     0
102
RTVSPropertyOp53
 70
     1
102
RTVSPropertyOp54
 70
     1
102
RTVSPropertyOp55
 70
     1
102
RTVSPropertyOp56
 70
     1
102
RTVSPropertyOp57
 70
     1
102
RTVSPropertyOp58
 70
     1
102
RTVSPropertyOp59
 70
     1
102
RTVSPropertyOp60
 70
     1
102
RTVSPropertyOp61
 70
     1
102
RTVSPropertyOp62
 70
     1
  0
XRECORD
  5
57B
102
{ACAD_REACTORS
330
57A
102
}
330
57A
100
AcDbXrecord
280
     1
102
RTVSPost2010Prop28
280
     0
102
RTVSPost2010PropOp28
 70
     1
102
RTVSPost2010Prop29
280
     1
102
RTVSPost2010PropOp29
 70
     1
102
RTVSPost2010Prop30
280
     1
102
RTVSPost2010PropOp30
 70
     1
102
RTVSPost2010Prop31
280
     0
102
RTVSPost2010PropOp31
 70
     1
102
RTVSPost2010Prop32
280
     0
102
RTVSPost2010PropOp32
 70
     1
102
RTVSPost2010Prop33
280
     0
102
RTVSPost2010PropOp33
 70
     1
102
RTVSPost2010Prop34
280
     0
102
RTVSPost2010PropOp34
 70
     1
102
RTVSPost2010Prop35
280
     0
102
RTVSPost2010PropOp35
 70
     1
102
RTVSPost2010Prop36
280
     0
102
RTVSPost2010PropOp36
 70
     1
102
RTVSPost2010Prop37
 90
       50
102
RTVSPost2010PropOp37
 70
     1
102
RTVSPost2010Prop38
140
0.0
102
RTVSPost2010PropOp38
 70
     1
102
RTVSPost2010Prop39
140
1.0
102
RTVSPost2010PropOp39
 70
     1
102
RTVSPost2010Prop40
 90
        0
102
RTVSPost2010PropOp40
 70
     1
102
RTVSPost2010Prop41ColorIndex
 90
       18
102
RTVSPost2010Prop41ColorRGB
 90
        0
102
RTVSPost2010PropOp41
 70
     1
102
RTVSPost2010Prop42
 90
       50
102
RTVSPost2010PropOp42
 70
     1
102
RTVSPost2010Prop43
 90
        3
102
RTVSPost2010PropOp43
 70
     1
102
RTVSPost2010Prop44ColorIndex
 90
        5
102
RTVSPost2010Prop44ColorRGB
 90
      255
102
RTVSPost2010PropOp44
 70
     1
102
RTVSPost2010Prop45
280
     0
102
RTVSPost2010PropOp45
 70
     1
102
RTVSPost2010Prop46
 90
       50
102
RTVSPost2010PropOp46
 70
     1
102
RTVSPost2010Prop47
 90
       50
102
RTVSPost2010PropOp47
 70
     1
102
RTVSPost2010Prop48
 90
       50
102
RTVSPost2010PropOp48
 70
     1
102
RTVSPost2010Prop49
280
     0
102
RTVSPost2010PropOp49
 70
     1
102
RTVSPost2010Prop50
 90
       50
102
RTVSPost2010PropOp50
 70
     1
102
RTVSPost2010Prop51ColorIndex
 90
      256
102
RTVSPost2010Prop51ColorRGB
 90
-16777216
102
RTVSPost2010PropOp51
 70
     0
102
RTVSPost2010Prop52
140
1.0
102
RTVSPost2010PropOp52
 70
     0
102
RTVSPost2010Prop53
 90
        2
102
RTVSPost2010PropOp53
 70
     1
102
RTVSPost2010Prop54
  1
strokes_ogs.tif
102
RTVSPost2010PropOp54
 70
     1
102
RTVSPost2010Prop55
280
     0
102
RTVSPost2010PropOp55
 70
     1
102
RTVSPost2010Prop56
140
1.0
102
RTVSPost2010PropOp56
 70
     1
102
RTVSPost2010Prop57
140
1.0
102
RTVSPost2010PropOp57
 70
     1
102
RTVSPropertyOp0
 70
     1
102
RTVSPropertyOp1
 70
     1
102
RTVSPropertyOp2
 70
     1
102
RTVSPropertyOp3
 70
     1
102
RTVSPropertyOp4
 70
     1
102
RTVSPropertyOp5
 70
     1
102
RTVSPropertyOp6
 70
     1
102
RTVSPropertyOp7
 70
     1
102
RTVSPropertyOp8
 70
     1
102
RTVSPropertyOp9
 70
     1
102
RTVSPropertyOp10
 70
     1
102
RTVSPropertyOp11
 70
     1
102
RTVSPropertyOp12
 70
     1
102
RTVSPropertyOp13
 70
     1
102
RTVSPropertyOp14
 70
     1
102
RTVSPropertyOp15
 70
     1
102
RTVSPropertyOp16
 70
     1
102
RTVSPropertyOp17
 70
     1
102
RTVSPropertyOp18
 70
     1
102
RTVSPropertyOp19
 70
     1
102
RTVSPropertyOp20
 70
     1
102
RTVSPropertyOp21
 70
     1
102
RTVSPropertyOp22
 70
     1
102
RTVSPropertyOp23
 70
     1
102
RTVSPropertyOp24
 70
     1
102
RTVSPropertyOp25
 70
     1
102
RTVSPropertyOp26
 70
     1
102
RTVSPropertyOp27
 70
     1
102
RTVSPropertyOp28
 70
     1
102
RTVSPropertyOp29
 70
     1
102
RTVSPropertyOp30
 70
     1
102
RTVSPropertyOp31
 70
     1
102
RTVSPropertyOp32
 70
     1
102
RTVSPropertyOp33
 70
     1
102
RTVSPropertyOp34
 70
     1
102
RTVSPropertyOp35
 70
     1
102
RTVSPropertyOp36
 70
     1
102
RTVSPropertyOp37
 70
     1
102
RTVSPropertyOp38
 70
     1
102
RTVSPropertyOp39
 70
     1
102
RTVSPropertyOp40
 70
     1
102
RTVSPropertyOp41
 70
     1
102
RTVSPropertyOp42
 70
     1
102
RTVSPropertyOp43
 70
     1
102
RTVSPropertyOp44
 70
     1
102
RTVSPropertyOp45
 70
     1
102
RTVSPropertyOp46
 70
     1
102
RTVSPropertyOp47
 70
     1
102
RTVSPropertyOp48
 70
     1
102
RTVSPropertyOp49
 70
     1
102
RTVSPropertyOp50
 70
     1
102
RTVSPropertyOp51
 70
     0
102
RTVSPropertyOp52
 70
     0
102
RTVSPropertyOp53
 70
     1
102
RTVSPropertyOp54
 70
     1
102
RTVSPropertyOp55
 70
     1
102
RTVSPropertyOp56
 70
     1
102
RTVSPropertyOp57
 70
     1
102
RTVSPropertyOp58
 70
     1
102
RTVSPropertyOp59
 70
     1
102
RTVSPropertyOp60
 70
     1
102
RTVSPropertyOp61
 70
     1
102
RTVSPropertyOp62
 70
     1
  0
XRECORD
  5
583
102
{ACAD_REACTORS
330
582
102
}
330
582
100
AcDbXrecord
280
     1
102
RTVSPost2010Prop28
280
     0
102
RTVSPost2010PropOp28
 70
     1
102
RTVSPost2010Prop29
280
     1
102
RTVSPost2010PropOp29
 70
     1
102
RTVSPost2010Prop30
280
     1
102
RTVSPost2010PropOp30
 70
     1
102
RTVSPost2010Prop31
280
     0
102
RTVSPost2010PropOp31
 70
     1
102
RTVSPost2010Prop32
280
     0
102
RTVSPost2010PropOp32
 70
     1
102
RTVSPost2010Prop33
280
     0
102
RTVSPost2010PropOp33
 70
     1
102
RTVSPost2010Prop34
280
     0
102
RTVSPost2010PropOp34
 70
     1
102
RTVSPost2010Prop35
280
     0
102
RTVSPost2010PropOp35
 70
     1
102
RTVSPost2010Prop36
280
     0
102
RTVSPost2010PropOp36
 70
     1
102
RTVSPost2010Prop37
 90
       50
102
RTVSPost2010PropOp37
 70
     1
102
RTVSPost2010Prop38
140
0.0
102
RTVSPost2010PropOp38
 70
     1
102
RTVSPost2010Prop39
140
1.0
102
RTVSPost2010PropOp39
 70
     1
102
RTVSPost2010Prop40
 90
        0
102
RTVSPost2010PropOp40
 70
     1
102
RTVSPost2010Prop41ColorIndex
 90
       18
102
RTVSPost2010Prop41ColorRGB
 90
        0
102
RTVSPost2010PropOp41
 70
     1
102
RTVSPost2010Prop42
 90
       50
102
RTVSPost2010PropOp42
 70
     1
102
RTVSPost2010Prop43
 90
        3
102
RTVSPost2010PropOp43
 70
     1
102
RTVSPost2010Prop44ColorIndex
 90
        5
102
RTVSPost2010Prop44ColorRGB
 90
      255
102
RTVSPost2010PropOp44
 70
     1
102
RTVSPost2010Prop45
280
     0
102
RTVSPost2010PropOp45
 70
     1
102
RTVSPost2010Prop46
 90
       50
102
RTVSPost2010PropOp46
 70
     1
102
RTVSPost2010Prop47
 90
       50
102
RTVSPost2010PropOp47
 70
     1
102
RTVSPost2010Prop48
 90
       50
102
RTVSPost2010PropOp48
 70
     1
102
RTVSPost2010Prop49
280
     0
102
RTVSPost2010PropOp49
 70
     1
102
RTVSPost2010Prop50
 90
       50
102
RTVSPost2010PropOp50
 70
     1
102
RTVSPost2010Prop51ColorIndex
 90
      256
102
RTVSPost2010Prop51ColorRGB
 90
-16777216
102
RTVSPost2010PropOp51
 70
     0
102
RTVSPost2010Prop52
140
1.0
102
RTVSPost2010PropOp52
 70
     0
102
RTVSPost2010Prop53
 90
        2
102
RTVSPost2010PropOp53
 70
     1
102
RTVSPost2010Prop54
  1
strokes_ogs.tif
102
RTVSPost2010PropOp54
 70
     1
102
RTVSPost2010Prop55
280
     0
102
RTVSPost2010PropOp55
 70
     1
102
RTVSPost2010Prop56
140
1.0
102
RTVSPost2010PropOp56
 70
     1
102
RTVSPost2010Prop57
140
1.0
102
RTVSPost2010PropOp57
 70
     1
102
RTVSPropertyOp0
 70
     1
102
RTVSPropertyOp1
 70
     1
102
RTVSPropertyOp2
 70
     1
102
RTVSPropertyOp3
 70
     1
102
RTVSPropertyOp4
 70
     1
102
RTVSPropertyOp5
 70
     1
102
RTVSPropertyOp6
 70
     1
102
RTVSPropertyOp7
 70
     1
102
RTVSPropertyOp8
 70
     1
102
RTVSPropertyOp9
 70
     1
102
RTVSPropertyOp10
 70
     1
102
RTVSPropertyOp11
 70
     1
102
RTVSPropertyOp12
 70
     1
102
RTVSPropertyOp13
 70
     1
102
RTVSPropertyOp14
 70
     1
102
RTVSPropertyOp15
 70
     1
102
RTVSPropertyOp16
 70
     1
102
RTVSPropertyOp17
 70
     1
102
RTVSPropertyOp18
 70
     1
102
RTVSPropertyOp19
 70
     1
102
RTVSPropertyOp20
 70
     1
102
RTVSPropertyOp21
 70
     1
102
RTVSPropertyOp22
 70
     1
102
RTVSPropertyOp23
 70
     1
102
RTVSPropertyOp24
 70
     1
102
RTVSPropertyOp25
 70
     1
102
RTVSPropertyOp26
 70
     1
102
RTVSPropertyOp27
 70
     1
102
RTVSPropertyOp28
 70
     1
102
RTVSPropertyOp29
 70
     1
102
RTVSPropertyOp30
 70
     1
102
RTVSPropertyOp31
 70
     1
102
RTVSPropertyOp32
 70
     1
102
RTVSPropertyOp33
 70
     1
102
RTVSPropertyOp34
 70
     1
102
RTVSPropertyOp35
 70
     1
102
RTVSPropertyOp36
 70
     1
102
RTVSPropertyOp37
 70
     1
102
RTVSPropertyOp38
 70
     1
102
RTVSPropertyOp39
 70
     1
102
RTVSPropertyOp40
 70
     1
102
RTVSPropertyOp41
 70
     1
102
RTVSPropertyOp42
 70
     1
102
RTVSPropertyOp43
 70
     1
102
RTVSPropertyOp44
 70
     1
102
RTVSPropertyOp45
 70
     1
102
RTVSPropertyOp46
 70
     1
102
RTVSPropertyOp47
 70
     1
102
RTVSPropertyOp48
 70
     1
102
RTVSPropertyOp49
 70
     1
102
RTVSPropertyOp50
 70
     1
102
RTVSPropertyOp51
 70
     0
102
RTVSPropertyOp52
 70
     0
102
RTVSPropertyOp53
 70
     1
102
RTVSPropertyOp54
 70
     1
102
RTVSPropertyOp55
 70
     1
102
RTVSPropertyOp56
 70
     1
102
RTVSPropertyOp57
 70
     1
102
RTVSPropertyOp58
 70
     1
102
RTVSPropertyOp59
 70
     1
102
RTVSPropertyOp60
 70
     1
102
RTVSPropertyOp61
 70
     1
102
RTVSPropertyOp62
 70
     1
  0
XRECORD
  5
595
102
{ACAD_REACTORS
330
594
102
}
330
594
100
AcDbXrecord
280
     1
102
RTVSPost2010Prop28
280
     0
102
RTVSPost2010PropOp28
 70
     1
102
RTVSPost2010Prop29
280
     1
102
RTVSPost2010PropOp29
 70
     1
102
RTVSPost2010Prop30
280
     1
102
RTVSPost2010PropOp30
 70
     1
102
RTVSPost2010Prop31
280
     0
102
RTVSPost2010PropOp31
 70
     1
102
RTVSPost2010Prop32
280
     0
102
RTVSPost2010PropOp32
 70
     1
102
RTVSPost2010Prop33
280
     0
102
RTVSPost2010PropOp33
 70
     1
102
RTVSPost2010Prop34
280
     0
102
RTVSPost2010PropOp34
 70
     1
102
RTVSPost2010Prop35
280
     0
102
RTVSPost2010PropOp35
 70
     1
102
RTVSPost2010Prop36
280
     0
102
RTVSPost2010PropOp36
 70
     1
102
RTVSPost2010Prop37
 90
       50
102
RTVSPost2010PropOp37
 70
     1
102
RTVSPost2010Prop38
140
0.0
102
RTVSPost2010PropOp38
 70
     1
102
RTVSPost2010Prop39
140
1.0
102
RTVSPost2010PropOp39
 70
     1
102
RTVSPost2010Prop40
 90
        0
102
RTVSPost2010PropOp40
 70
     1
102
RTVSPost2010Prop41ColorIndex
 90
       18
102
RTVSPost2010Prop41ColorRGB
 90
        0
102
RTVSPost2010PropOp41
 70
     1
102
RTVSPost2010Prop42
 90
       50
102
RTVSPost2010PropOp42
 70
     1
102
RTVSPost2010Prop43
 90
        3
102
RTVSPost2010PropOp43
 70
     1
102
RTVSPost2010Prop44ColorIndex
 90
        5
102
RTVSPost2010Prop44ColorRGB
 90
      255
102
RTVSPost2010PropOp44
 70
     1
102
RTVSPost2010Prop45
280
     0
102
RTVSPost2010PropOp45
 70
     1
102
RTVSPost2010Prop46
 90
       50
102
RTVSPost2010PropOp46
 70
     1
102
RTVSPost2010Prop47
 90
       50
102
RTVSPost2010PropOp47
 70
     1
102
RTVSPost2010Prop48
 90
       50
102
RTVSPost2010PropOp48
 70
     1
102
RTVSPost2010Prop49
280
     0
102
RTVSPost2010PropOp49
 70
     1
102
RTVSPost2010Prop50
 90
       50
102
RTVSPost2010PropOp50
 70
     1
102
RTVSPost2010Prop51ColorIndex
 90
      256
102
RTVSPost2010Prop51ColorRGB
 90
-16777216
102
RTVSPost2010PropOp51
 70
     0
102
RTVSPost2010Prop52
140
1.0
102
RTVSPost2010PropOp52
 70
     0
102
RTVSPost2010Prop53
 90
        2
102
RTVSPost2010PropOp53
 70
     1
102
RTVSPost2010Prop54
  1
strokes_ogs.tif
102
RTVSPost2010PropOp54
 70
     1
102
RTVSPost2010Prop55
280
     0
102
RTVSPost2010PropOp55
 70
     1
102
RTVSPost2010Prop56
140
1.0
102
RTVSPost2010PropOp56
 70
     1
102
RTVSPost2010Prop57
140
1.0
102
RTVSPost2010PropOp57
 70
     1
102
RTVSPropertyOp0
 70
     0
102
RTVSPropertyOp1
 70
     0
102
RTVSPropertyOp2
 70
     0
102
RTVSPropertyOp3
 70
     0
102
RTVSPropertyOp4
 70
     0
102
RTVSPropertyOp5
 70
     0
102
RTVSPropertyOp6
 70
     0
102
RTVSPropertyOp7
 70
     0
102
RTVSPropertyOp8
 70
     0
102
RTVSPropertyOp9
 70
     0
102
RTVSPropertyOp10
 70
     0
102
RTVSPropertyOp11
 70
     0
102
RTVSPropertyOp12
 70
     0
102
RTVSPropertyOp13
 70
     0
102
RTVSPropertyOp14
 70
     2
102
RTVSPropertyOp15
 70
     0
102
RTVSPropertyOp16
 70
     0
102
RTVSPropertyOp17
 70
     0
102
RTVSPropertyOp18
 70
     0
102
RTVSPropertyOp19
 70
     0
102
RTVSPropertyOp20
 70
     0
102
RTVSPropertyOp21
 70
     0
102
RTVSPropertyOp22
 70
     0
102
RTVSPropertyOp23
 70
     0
102
RTVSPropertyOp24
 70
     0
102
RTVSPropertyOp25
 70
     0
102
RTVSPropertyOp26
 70
     0
102
RTVSPropertyOp27
 70
     0
102
RTVSPropertyOp28
 70
     1
102
RTVSPropertyOp29
 70
     1
102
RTVSPropertyOp30
 70
     1
102
RTVSPropertyOp31
 70
     1
102
RTVSPropertyOp32
 70
     1
102
RTVSPropertyOp33
 70
     1
102
RTVSPropertyOp34
 70
     1
102
RTVSPropertyOp35
 70
     1
102
RTVSPropertyOp36
 70
     1
102
RTVSPropertyOp37
 70
     1
102
RTVSPropertyOp38
 70
     1
102
RTVSPropertyOp39
 70
     1
102
RTVSPropertyOp40
 70
     1
102
RTVSPropertyOp41
 70
     1
102
RTVSPropertyOp42
 70
     1
102
RTVSPropertyOp43
 70
     1
102
RTVSPropertyOp44
 70
     1
102
RTVSPropertyOp45
 70
     1
102
RTVSPropertyOp46
 70
     1
102
RTVSPropertyOp47
 70
     1
102
RTVSPropertyOp48
 70
     1
102
RTVSPropertyOp49
 70
     1
102
RTVSPropertyOp50
 70
     1
102
RTVSPropertyOp51
 70
     0
102
RTVSPropertyOp52
 70
     0
102
RTVSPropertyOp53
 70
     1
102
RTVSPropertyOp54
 70
     1
102
RTVSPropertyOp55
 70
     1
102
RTVSPropertyOp56
 70
     1
102
RTVSPropertyOp57
 70
     1
102
RTVSPropertyOp58
 70
     1
102
RTVSPropertyOp59
 70
     1
102
RTVSPropertyOp60
 70
     1
102
RTVSPropertyOp61
 70
     1
102
RTVSPropertyOp62
 70
     1
  0
XRECORD
  5
58F
102
{ACAD_REACTORS
330
58E
102
}
330
58E
100
AcDbXrecord
280
     1
102
RTVSPost2010Prop28
280
     0
102
RTVSPost2010PropOp28
 70
     1
102
RTVSPost2010Prop29
280
     1
102
RTVSPost2010PropOp29
 70
     1
102
RTVSPost2010Prop30
280
     1
102
RTVSPost2010PropOp30
 70
     1
102
RTVSPost2010Prop31
280
     0
102
RTVSPost2010PropOp31
 70
     1
102
RTVSPost2010Prop32
280
     0
102
RTVSPost2010PropOp32
 70
     1
102
RTVSPost2010Prop33
280
     0
102
RTVSPost2010PropOp33
 70
     1
102
RTVSPost2010Prop34
280
     0
102
RTVSPost2010PropOp34
 70
     1
102
RTVSPost2010Prop35
280
     0
102
RTVSPost2010PropOp35
 70
     1
102
RTVSPost2010Prop36
280
     0
102
RTVSPost2010PropOp36
 70
     1
102
RTVSPost2010Prop37
 90
       50
102
RTVSPost2010PropOp37
 70
     1
102
RTVSPost2010Prop38
140
0.0
102
RTVSPost2010PropOp38
 70
     1
102
RTVSPost2010Prop39
140
1.0
102
RTVSPost2010PropOp39
 70
     1
102
RTVSPost2010Prop40
 90
        0
102
RTVSPost2010PropOp40
 70
     1
102
RTVSPost2010Prop41ColorIndex
 90
       18
102
RTVSPost2010Prop41ColorRGB
 90
        0
102
RTVSPost2010PropOp41
 70
     1
102
RTVSPost2010Prop42
 90
       50
102
RTVSPost2010PropOp42
 70
     1
102
RTVSPost2010Prop43
 90
        3
102
RTVSPost2010PropOp43
 70
     1
102
RTVSPost2010Prop44ColorIndex
 90
        5
102
RTVSPost2010Prop44ColorRGB
 90
      255
102
RTVSPost2010PropOp44
 70
     1
102
RTVSPost2010Prop45
280
     0
102
RTVSPost2010PropOp45
 70
     1
102
RTVSPost2010Prop46
 90
       50
102
RTVSPost2010PropOp46
 70
     1
102
RTVSPost2010Prop47
 90
       50
102
RTVSPost2010PropOp47
 70
     1
102
RTVSPost2010Prop48
 90
       50
102
RTVSPost2010PropOp48
 70
     1
102
RTVSPost2010Prop49
280
     0
102
RTVSPost2010PropOp49
 70
     1
102
RTVSPost2010Prop50
 90
       50
102
RTVSPost2010PropOp50
 70
     1
102
RTVSPost2010Prop51ColorIndex
 90
      256
102
RTVSPost2010Prop51ColorRGB
 90
-16777216
102
RTVSPost2010PropOp51
 70
     0
102
RTVSPost2010Prop52
140
1.0
102
RTVSPost2010PropOp52
 70
     0
102
RTVSPost2010Prop53
 90
        2
102
RTVSPost2010PropOp53
 70
     1
102
RTVSPost2010Prop54
  1
strokes_ogs.tif
102
RTVSPost2010PropOp54
 70
     1
102
RTVSPost2010Prop55
280
     0
102
RTVSPost2010PropOp55
 70
     1
102
RTVSPost2010Prop56
140
1.0
102
RTVSPost2010PropOp56
 70
     1
102
RTVSPost2010Prop57
140
1.0
102
RTVSPost2010PropOp57
 70
     1
102
RTVSPropertyOp0
 70
     1
102
RTVSPropertyOp1
 70
     1
102
RTVSPropertyOp2
 70
     1
102
RTVSPropertyOp3
 70
     1
102
RTVSPropertyOp4
 70
     1
102
RTVSPropertyOp5
 70
     1
102
RTVSPropertyOp6
 70
     1
102
RTVSPropertyOp7
 70
     1
102
RTVSPropertyOp8
 70
     1
102
RTVSPropertyOp9
 70
     1
102
RTVSPropertyOp10
 70
     1
102
RTVSPropertyOp11
 70
     1
102
RTVSPropertyOp12
 70
     1
102
RTVSPropertyOp13
 70
     1
102
RTVSPropertyOp14
 70
     1
102
RTVSPropertyOp15
 70
     1
102
RTVSPropertyOp16
 70
     1
102
RTVSPropertyOp17
 70
     1
102
RTVSPropertyOp18
 70
     1
102
RTVSPropertyOp19
 70
     1
102
RTVSPropertyOp20
 70
     1
102
RTVSPropertyOp21
 70
     1
102
RTVSPropertyOp22
 70
     1
102
RTVSPropertyOp23
 70
     1
102
RTVSPropertyOp24
 70
     1
102
RTVSPropertyOp25
 70
     1
102
RTVSPropertyOp26
 70
     1
102
RTVSPropertyOp27
 70
     1
102
RTVSPropertyOp28
 70
     1
102
RTVSPropertyOp29
 70
     1
102
RTVSPropertyOp30
 70
     1
102
RTVSPropertyOp31
 70
     1
102
RTVSPropertyOp32
 70
     1
102
RTVSPropertyOp33
 70
     1
102
RTVSPropertyOp34
 70
     1
102
RTVSPropertyOp35
 70
     1
102
RTVSPropertyOp36
 70
     1
102
RTVSPropertyOp37
 70
     1
102
RTVSPropertyOp38
 70
     1
102
RTVSPropertyOp39
 70
     1
102
RTVSPropertyOp40
 70
     1
102
RTVSPropertyOp41
 70
     1
102
RTVSPropertyOp42
 70
     1
102
RTVSPropertyOp43
 70
     1
102
RTVSPropertyOp44
 70
     1
102
RTVSPropertyOp45
 70
     1
102
RTVSPropertyOp46
 70
     1
102
RTVSPropertyOp47
 70
     1
102
RTVSPropertyOp48
 70
     1
102
RTVSPropertyOp49
 70
     1
102
RTVSPropertyOp50
 70
     1
102
RTVSPropertyOp51
 70
     0
102
RTVSPropertyOp52
 70
     0
102
RTVSPropertyOp53
 70
     1
102
RTVSPropertyOp54
 70
     1
102
RTVSPropertyOp55
 70
     1
102
RTVSPropertyOp56
 70
     1
102
RTVSPropertyOp57
 70
     1
102
RTVSPropertyOp58
 70
     1
102
RTVSPropertyOp59
 70
     1
102
RTVSPropertyOp60
 70
     1
102
RTVSPropertyOp61
 70
     1
102
RTVSPropertyOp62
 70
     1
  0
XRECORD
  5
597
102
{ACAD_REACTORS
330
596
102
}
330
596
100
AcDbXrecord
280
     1
102
RTVSPost2010Prop28
280
     0
102
RTVSPost2010PropOp28
 70
     1
102
RTVSPost2010Prop29
280
     1
102
RTVSPost2010PropOp29
 70
     1
102
RTVSPost2010Prop30
280
     1
102
RTVSPost2010PropOp30
 70
     1
102
RTVSPost2010Prop31
280
     0
102
RTVSPost2010PropOp31
 70
     1
102
RTVSPost2010Prop32
280
     0
102
RTVSPost2010PropOp32
 70
     1
102
RTVSPost2010Prop33
280
     0
102
RTVSPost2010PropOp33
 70
     1
102
RTVSPost2010Prop34
280
     0
102
RTVSPost2010PropOp34
 70
     1
102
RTVSPost2010Prop35
280
     0
102
RTVSPost2010PropOp35
 70
     1
102
RTVSPost2010Prop36
280
     0
102
RTVSPost2010PropOp36
 70
     1
102
RTVSPost2010Prop37
 90
       50
102
RTVSPost2010PropOp37
 70
     1
102
RTVSPost2010Prop38
140
0.0
102
RTVSPost2010PropOp38
 70
     1
102
RTVSPost2010Prop39
140
1.0
102
RTVSPost2010PropOp39
 70
     1
102
RTVSPost2010Prop40
 90
        0
102
RTVSPost2010PropOp40
 70
     1
102
RTVSPost2010Prop41ColorIndex
 90
       18
102
RTVSPost2010Prop41ColorRGB
 90
        0
102
RTVSPost2010PropOp41
 70
     1
102
RTVSPost2010Prop42
 90
       50
102
RTVSPost2010PropOp42
 70
     1
102
RTVSPost2010Prop43
 90
        3
102
RTVSPost2010PropOp43
 70
     1
102
RTVSPost2010Prop44ColorIndex
 90
        5
102
RTVSPost2010Prop44ColorRGB
 90
      255
102
RTVSPost2010PropOp44
 70
     1
102
RTVSPost2010Prop45
280
     0
102
RTVSPost2010PropOp45
 70
     1
102
RTVSPost2010Prop46
 90
       50
102
RTVSPost2010PropOp46
 70
     1
102
RTVSPost2010Prop47
 90
       50
102
RTVSPost2010PropOp47
 70
     1
102
RTVSPost2010Prop48
 90
       50
102
RTVSPost2010PropOp48
 70
     1
102
RTVSPost2010Prop49
280
     0
102
RTVSPost2010PropOp49
 70
     1
102
RTVSPost2010Prop50
 90
       50
102
RTVSPost2010PropOp50
 70
     1
102
RTVSPost2010Prop51ColorIndex
 90
      256
102
RTVSPost2010Prop51ColorRGB
 90
-16777216
102
RTVSPost2010PropOp51
 70
     0
102
RTVSPost2010Prop52
140
1.0
102
RTVSPost2010PropOp52
 70
     0
102
RTVSPost2010Prop53
 90
        2
102
RTVSPost2010PropOp53
 70
     1
102
RTVSPost2010Prop54
  1
strokes_ogs.tif
102
RTVSPost2010PropOp54
 70
     1
102
RTVSPost2010Prop55
280
     0
102
RTVSPost2010PropOp55
 70
     1
102
RTVSPost2010Prop56
140
1.0
102
RTVSPost2010PropOp56
 70
     1
102
RTVSPost2010Prop57
140
1.0
102
RTVSPost2010PropOp57
 70
     1
102
RTVSPropertyOp0
 70
     0
102
RTVSPropertyOp1
 70
     0
102
RTVSPropertyOp2
 70
     0
102
RTVSPropertyOp3
 70
     0
102
RTVSPropertyOp4
 70
     0
102
RTVSPropertyOp5
 70
     0
102
RTVSPropertyOp6
 70
     0
102
RTVSPropertyOp7
 70
     0
102
RTVSPropertyOp8
 70
     0
102
RTVSPropertyOp9
 70
     0
102
RTVSPropertyOp10
 70
     0
102
RTVSPropertyOp11
 70
     0
102
RTVSPropertyOp12
 70
     0
102
RTVSPropertyOp13
 70
     0
102
RTVSPropertyOp14
 70
     2
102
RTVSPropertyOp15
 70
     0
102
RTVSPropertyOp16
 70
     0
102
RTVSPropertyOp17
 70
     0
102
RTVSPropertyOp18
 70
     0
102
RTVSPropertyOp19
 70
     0
102
RTVSPropertyOp20
 70
     0
102
RTVSPropertyOp21
 70
     0
102
RTVSPropertyOp22
 70
     0
102
RTVSPropertyOp23
 70
     0
102
RTVSPropertyOp24
 70
     0
102
RTVSPropertyOp25
 70
     0
102
RTVSPropertyOp26
 70
     0
102
RTVSPropertyOp27
 70
     0
102
RTVSPropertyOp28
 70
     1
102
RTVSPropertyOp29
 70
     1
102
RTVSPropertyOp30
 70
     1
102
RTVSPropertyOp31
 70
     1
102
RTVSPropertyOp32
 70
     1
102
RTVSPropertyOp33
 70
     1
102
RTVSPropertyOp34
 70
     1
102
RTVSPropertyOp35
 70
     1
102
RTVSPropertyOp36
 70
     1
102
RTVSPropertyOp37
 70
     1
102
RTVSPropertyOp38
 70
     1
102
RTVSPropertyOp39
 70
     1
102
RTVSPropertyOp40
 70
     1
102
RTVSPropertyOp41
 70
     1
102
RTVSPropertyOp42
 70
     1
102
RTVSPropertyOp43
 70
     1
102
RTVSPropertyOp44
 70
     1
102
RTVSPropertyOp45
 70
     1
102
RTVSPropertyOp46
 70
     1
102
RTVSPropertyOp47
 70
     1
102
RTVSPropertyOp48
 70
     1
102
RTVSPropertyOp49
 70
     1
102
RTVSPropertyOp50
 70
     1
102
RTVSPropertyOp51
 70
     0
102
RTVSPropertyOp52
 70
     0
102
RTVSPropertyOp53
 70
     1
102
RTVSPropertyOp54
 70
     1
102
RTVSPropertyOp55
 70
     1
102
RTVSPropertyOp56
 70
     1
102
RTVSPropertyOp57
 70
     1
102
RTVSPropertyOp58
 70
     1
102
RTVSPropertyOp59
 70
     1
102
RTVSPropertyOp60
 70
     1
102
RTVSPropertyOp61
 70
     1
102
RTVSPropertyOp62
 70
     1
  0
XRECORD
  5
587
102
{ACAD_REACTORS
330
586
102
}
330
586
100
AcDbXrecord
280
     1
102
RTVSPost2010Prop28
280
     0
102
RTVSPost2010PropOp28
 70
     1
102
RTVSPost2010Prop29
280
     1
102
RTVSPost2010PropOp29
 70
     1
102
RTVSPost2010Prop30
280
     1
102
RTVSPost2010PropOp30
 70
     1
102
RTVSPost2010Prop31
280
     0
102
RTVSPost2010PropOp31
 70
     1
102
RTVSPost2010Prop32
280
     0
102
RTVSPost2010PropOp32
 70
     1
102
RTVSPost2010Prop33
280
     0
102
RTVSPost2010PropOp33
 70
     1
102
RTVSPost2010Prop34
280
     0
102
RTVSPost2010PropOp34
 70
     1
102
RTVSPost2010Prop35
280
     0
102
RTVSPost2010PropOp35
 70
     1
102
RTVSPost2010Prop36
280
     0
102
RTVSPost2010PropOp36
 70
     1
102
RTVSPost2010Prop37
 90
       50
102
RTVSPost2010PropOp37
 70
     1
102
RTVSPost2010Prop38
140
0.0
102
RTVSPost2010PropOp38
 70
     1
102
RTVSPost2010Prop39
140
1.0
102
RTVSPost2010PropOp39
 70
     1
102
RTVSPost2010Prop40
 90
        0
102
RTVSPost2010PropOp40
 70
     1
102
RTVSPost2010Prop41ColorIndex
 90
       18
102
RTVSPost2010Prop41ColorRGB
 90
        0
102
RTVSPost2010PropOp41
 70
     1
102
RTVSPost2010Prop42
 90
       50
102
RTVSPost2010PropOp42
 70
     1
102
RTVSPost2010Prop43
 90
        3
102
RTVSPost2010PropOp43
 70
     1
102
RTVSPost2010Prop44ColorIndex
 90
        5
102
RTVSPost2010Prop44ColorRGB
 90
      255
102
RTVSPost2010PropOp44
 70
     1
102
RTVSPost2010Prop45
280
     0
102
RTVSPost2010PropOp45
 70
     1
102
RTVSPost2010Prop46
 90
       50
102
RTVSPost2010PropOp46
 70
     1
102
RTVSPost2010Prop47
 90
       50
102
RTVSPost2010PropOp47
 70
     1
102
RTVSPost2010Prop48
 90
       50
102
RTVSPost2010PropOp48
 70
     1
102
RTVSPost2010Prop49
280
     0
102
RTVSPost2010PropOp49
 70
     1
102
RTVSPost2010Prop50
 90
       50
102
RTVSPost2010PropOp50
 70
     1
102
RTVSPost2010Prop51ColorIndex
 90
      256
102
RTVSPost2010Prop51ColorRGB
 90
-16777216
102
RTVSPost2010PropOp51
 70
     0
102
RTVSPost2010Prop52
140
1.0
102
RTVSPost2010PropOp52
 70
     0
102
RTVSPost2010Prop53
 90
        2
102
RTVSPost2010PropOp53
 70
     1
102
RTVSPost2010Prop54
  1
strokes_ogs.tif
102
RTVSPost2010PropOp54
 70
     1
102
RTVSPost2010Prop55
280
     0
102
RTVSPost2010PropOp55
 70
     1
102
RTVSPost2010Prop56
140
1.0
102
RTVSPost2010PropOp56
 70
     1
102
RTVSPost2010Prop57
140
1.0
102
RTVSPost2010PropOp57
 70
     1
102
RTVSPropertyOp0
 70
     1
102
RTVSPropertyOp1
 70
     1
102
RTVSPropertyOp2
 70
     1
102
RTVSPropertyOp3
 70
     1
102
RTVSPropertyOp4
 70
     1
102
RTVSPropertyOp5
 70
     1
102
RTVSPropertyOp6
 70
     1
102
RTVSPropertyOp7
 70
     1
102
RTVSPropertyOp8
 70
     1
102
RTVSPropertyOp9
 70
     1
102
RTVSPropertyOp10
 70
     1
102
RTVSPropertyOp11
 70
     1
102
RTVSPropertyOp12
 70
     1
102
RTVSPropertyOp13
 70
     1
102
RTVSPropertyOp14
 70
     1
102
RTVSPropertyOp15
 70
     1
102
RTVSPropertyOp16
 70
     1
102
RTVSPropertyOp17
 70
     1
102
RTVSPropertyOp18
 70
     1
102
RTVSPropertyOp19
 70
     1
102
RTVSPropertyOp20
 70
     1
102
RTVSPropertyOp21
 70
     1
102
RTVSPropertyOp22
 70
     1
102
RTVSPropertyOp23
 70
     1
102
RTVSPropertyOp24
 70
     1
102
RTVSPropertyOp25
 70
     1
102
RTVSPropertyOp26
 70
     1
102
RTVSPropertyOp27
 70
     1
102
RTVSPropertyOp28
 70
     1
102
RTVSPropertyOp29
 70
     1
102
RTVSPropertyOp30
 70
     1
102
RTVSPropertyOp31
 70
     1
102
RTVSPropertyOp32
 70
     1
102
RTVSPropertyOp33
 70
     1
102
RTVSPropertyOp34
 70
     1
102
RTVSPropertyOp35
 70
     1
102
RTVSPropertyOp36
 70
     1
102
RTVSPropertyOp37
 70
     1
102
RTVSPropertyOp38
 70
     1
102
RTVSPropertyOp39
 70
     1
102
RTVSPropertyOp40
 70
     1
102
RTVSPropertyOp41
 70
     1
102
RTVSPropertyOp42
 70
     1
102
RTVSPropertyOp43
 70
     1
102
RTVSPropertyOp44
 70
     1
102
RTVSPropertyOp45
 70
     1
102
RTVSPropertyOp46
 70
     1
102
RTVSPropertyOp47
 70
     1
102
RTVSPropertyOp48
 70
     1
102
RTVSPropertyOp49
 70
     1
102
RTVSPropertyOp50
 70
     1
102
RTVSPropertyOp51
 70
     0
102
RTVSPropertyOp52
 70
     0
102
RTVSPropertyOp53
 70
     1
102
RTVSPropertyOp54
 70
     1
102
RTVSPropertyOp55
 70
     1
102
RTVSPropertyOp56
 70
     1
102
RTVSPropertyOp57
 70
     1
102
RTVSPropertyOp58
 70
     1
102
RTVSPropertyOp59
 70
     1
102
RTVSPropertyOp60
 70
     1
102
RTVSPropertyOp61
 70
     1
102
RTVSPropertyOp62
 70
     1
  0
XRECORD
  5
5A3
102
{ACAD_REACTORS
330
5A2
102
}
330
5A2
100
AcDbXrecord
280
     1
102
RTVSPost2010Prop28
280
     0
102
RTVSPost2010PropOp28
 70
     1
102
RTVSPost2010Prop29
280
     1
102
RTVSPost2010PropOp29
 70
     1
102
RTVSPost2010Prop30
280
     1
102
RTVSPost2010PropOp30
 70
     1
102
RTVSPost2010Prop31
280
     0
102
RTVSPost2010PropOp31
 70
     1
102
RTVSPost2010Prop32
280
     0
102
RTVSPost2010PropOp32
 70
     1
102
RTVSPost2010Prop33
280
     0
102
RTVSPost2010PropOp33
 70
     1
102
RTVSPost2010Prop34
280
     0
102
RTVSPost2010PropOp34
 70
     1
102
RTVSPost2010Prop35
280
     0
102
RTVSPost2010PropOp35
 70
     1
102
RTVSPost2010Prop36
280
     0
102
RTVSPost2010PropOp36
 70
     1
102
RTVSPost2010Prop37
 90
       50
102
RTVSPost2010PropOp37
 70
     1
102
RTVSPost2010Prop38
140
0.0
102
RTVSPost2010PropOp38
 70
     1
102
RTVSPost2010Prop39
140
1.0
102
RTVSPost2010PropOp39
 70
     1
102
RTVSPost2010Prop40
 90
        0
102
RTVSPost2010PropOp40
 70
     1
102
RTVSPost2010Prop41ColorIndex
 90
       18
102
RTVSPost2010Prop41ColorRGB
 90
        0
102
RTVSPost2010PropOp41
 70
     1
102
RTVSPost2010Prop42
 90
       50
102
RTVSPost2010PropOp42
 70
     1
102
RTVSPost2010Prop43
 90
        3
102
RTVSPost2010PropOp43
 70
     1
102
RTVSPost2010Prop44ColorIndex
 90
        5
102
RTVSPost2010Prop44ColorRGB
 90
      255
102
RTVSPost2010PropOp44
 70
     1
102
RTVSPost2010Prop45
280
     0
102
RTVSPost2010PropOp45
 70
     1
102
RTVSPost2010Prop46
 90
       50
102
RTVSPost2010PropOp46
 70
     1
102
RTVSPost2010Prop47
 90
       50
102
RTVSPost2010PropOp47
 70
     1
102
RTVSPost2010Prop48
 90
       50
102
RTVSPost2010PropOp48
 70
     1
102
RTVSPost2010Prop49
280
     0
102
RTVSPost2010PropOp49
 70
     1
102
RTVSPost2010Prop50
 90
       50
102
RTVSPost2010PropOp50
 70
     1
102
RTVSPost2010Prop51ColorIndex
 90
      256
102
RTVSPost2010Prop51ColorRGB
 90
-16777216
102
RTVSPost2010PropOp51
 70
     0
102
RTVSPost2010Prop52
140
1.0
102
RTVSPost2010PropOp52
 70
     0
102
RTVSPost2010Prop53
 90
        2
102
RTVSPost2010PropOp53
 70
     1
102
RTVSPost2010Prop54
  1
strokes_ogs.tif
102
RTVSPost2010PropOp54
 70
     1
102
RTVSPost2010Prop55
280
     0
102
RTVSPost2010PropOp55
 70
     1
102
RTVSPost2010Prop56
140
1.0
102
RTVSPost2010PropOp56
 70
     1
102
RTVSPost2010Prop57
140
1.0
102
RTVSPost2010PropOp57
 70
     1
102
RTVSPropertyOp0
 70
     1
102
RTVSPropertyOp1
 70
     1
102
RTVSPropertyOp2
 70
     1
102
RTVSPropertyOp3
 70
     1
102
RTVSPropertyOp4
 70
     1
102
RTVSPropertyOp5
 70
     1
102
RTVSPropertyOp6
 70
     1
102
RTVSPropertyOp7
 70
     1
102
RTVSPropertyOp8
 70
     1
102
RTVSPropertyOp9
 70
     1
102
RTVSPropertyOp10
 70
     1
102
RTVSPropertyOp11
 70
     1
102
RTVSPropertyOp12
 70
     1
102
RTVSPropertyOp13
 70
     1
102
RTVSPropertyOp14
 70
     1
102
RTVSPropertyOp15
 70
     1
102
RTVSPropertyOp16
 70
     1
102
RTVSPropertyOp17
 70
     1
102
RTVSPropertyOp18
 70
     1
102
RTVSPropertyOp19
 70
     1
102
RTVSPropertyOp20
 70
     1
102
RTVSPropertyOp21
 70
     1
102
RTVSPropertyOp22
 70
     1
102
RTVSPropertyOp23
 70
     1
102
RTVSPropertyOp24
 70
     1
102
RTVSPropertyOp25
 70
     1
102
RTVSPropertyOp26
 70
     1
102
RTVSPropertyOp27
 70
     1
102
RTVSPropertyOp28
 70
     1
102
RTVSPropertyOp29
 70
     1
102
RTVSPropertyOp30
 70
     1
102
RTVSPropertyOp31
 70
     1
102
RTVSPropertyOp32
 70
     1
102
RTVSPropertyOp33
 70
     1
102
RTVSPropertyOp34
 70
     1
102
RTVSPropertyOp35
 70
     1
102
RTVSPropertyOp36
 70
     1
102
RTVSPropertyOp37
 70
     1
102
RTVSPropertyOp38
 70
     1
102
RTVSPropertyOp39
 70
     1
102
RTVSPropertyOp40
 70
     1
102
RTVSPropertyOp41
 70
     1
102
RTVSPropertyOp42
 70
     1
102
RTVSPropertyOp43
 70
     1
102
RTVSPropertyOp44
 70
     1
102
RTVSPropertyOp45
 70
     1
102
RTVSPropertyOp46
 70
     1
102
RTVSPropertyOp47
 70
     1
102
RTVSPropertyOp48
 70
     1
102
RTVSPropertyOp49
 70
     1
102
RTVSPropertyOp50
 70
     1
102
RTVSPropertyOp51
 70
     0
102
RTVSPropertyOp52
 70
     0
102
RTVSPropertyOp53
 70
     1
102
RTVSPropertyOp54
 70
     1
102
RTVSPropertyOp55
 70
     1
102
RTVSPropertyOp56
 70
     1
102
RTVSPropertyOp57
 70
     1
102
RTVSPropertyOp58
 70
     1
102
RTVSPropertyOp59
 70
     1
102
RTVSPropertyOp60
 70
     1
102
RTVSPropertyOp61
 70
     1
102
RTVSPropertyOp62
 70
     1
  0
XRECORD
  5
5A1
102
{ACAD_REACTORS
330
5A0
102
}
330
5A0
100
AcDbXrecord
280
     1
102
RTVSPost2010Prop28
280
     0
102
RTVSPost2010PropOp28
 70
     1
102
RTVSPost2010Prop29
280
     1
102
RTVSPost2010PropOp29
 70
     1
102
RTVSPost2010Prop30
280
     1
102
RTVSPost2010PropOp30
 70
     1
102
RTVSPost2010Prop31
280
     0
102
RTVSPost2010PropOp31
 70
     1
102
RTVSPost2010Prop32
280
     0
102
RTVSPost2010PropOp32
 70
     1
102
RTVSPost2010Prop33
280
     0
102
RTVSPost2010PropOp33
 70
     1
102
RTVSPost2010Prop34
280
     0
102
RTVSPost2010PropOp34
 70
     1
102
RTVSPost2010Prop35
280
     0
102
RTVSPost2010PropOp35
 70
     1
102
RTVSPost2010Prop36
280
     0
102
RTVSPost2010PropOp36
 70
     1
102
RTVSPost2010Prop37
 90
       50
102
RTVSPost2010PropOp37
 70
     1
102
RTVSPost2010Prop38
140
0.0
102
RTVSPost2010PropOp38
 70
     1
102
RTVSPost2010Prop39
140
1.0
102
RTVSPost2010PropOp39
 70
     1
102
RTVSPost2010Prop40
 90
        0
102
RTVSPost2010PropOp40
 70
     1
102
RTVSPost2010Prop41ColorIndex
 90
       18
102
RTVSPost2010Prop41ColorRGB
 90
        0
102
RTVSPost2010PropOp41
 70
     1
102
RTVSPost2010Prop42
 90
       50
102
RTVSPost2010PropOp42
 70
     1
102
RTVSPost2010Prop43
 90
        3
102
RTVSPost2010PropOp43
 70
     1
102
RTVSPost2010Prop44ColorIndex
 90
        5
102
RTVSPost2010Prop44ColorRGB
 90
      255
102
RTVSPost2010PropOp44
 70
     1
102
RTVSPost2010Prop45
280
     0
102
RTVSPost2010PropOp45
 70
     1
102
RTVSPost2010Prop46
 90
       50
102
RTVSPost2010PropOp46
 70
     1
102
RTVSPost2010Prop47
 90
       50
102
RTVSPost2010PropOp47
 70
     1
102
RTVSPost2010Prop48
 90
       50
102
RTVSPost2010PropOp48
 70
     1
102
RTVSPost2010Prop49
280
     0
102
RTVSPost2010PropOp49
 70
     1
102
RTVSPost2010Prop50
 90
       50
102
RTVSPost2010PropOp50
 70
     1
102
RTVSPost2010Prop51ColorIndex
 90
      256
102
RTVSPost2010Prop51ColorRGB
 90
-16777216
102
RTVSPost2010PropOp51
 70
     0
102
RTVSPost2010Prop52
140
1.0
102
RTVSPost2010PropOp52
 70
     0
102
RTVSPost2010Prop53
 90
        2
102
RTVSPost2010PropOp53
 70
     1
102
RTVSPost2010Prop54
  1
strokes_ogs.tif
102
RTVSPost2010PropOp54
 70
     1
102
RTVSPost2010Prop55
280
     0
102
RTVSPost2010PropOp55
 70
     1
102
RTVSPost2010Prop56
140
1.0
102
RTVSPost2010PropOp56
 70
     1
102
RTVSPost2010Prop57
140
1.0
102
RTVSPost2010PropOp57
 70
     1
102
RTVSPropertyOp0
 70
     1
102
RTVSPropertyOp1
 70
     1
102
RTVSPropertyOp2
 70
     1
102
RTVSPropertyOp3
 70
     1
102
RTVSPropertyOp4
 70
     1
102
RTVSPropertyOp5
 70
     1
102
RTVSPropertyOp6
 70
     1
102
RTVSPropertyOp7
 70
     1
102
RTVSPropertyOp8
 70
     1
102
RTVSPropertyOp9
 70
     1
102
RTVSPropertyOp10
 70
     1
102
RTVSPropertyOp11
 70
     1
102
RTVSPropertyOp12
 70
     1
102
RTVSPropertyOp13
 70
     1
102
RTVSPropertyOp14
 70
     1
102
RTVSPropertyOp15
 70
     1
102
RTVSPropertyOp16
 70
     1
102
RTVSPropertyOp17
 70
     1
102
RTVSPropertyOp18
 70
     1
102
RTVSPropertyOp19
 70
     1
102
RTVSPropertyOp20
 70
     1
102
RTVSPropertyOp21
 70
     1
102
RTVSPropertyOp22
 70
     1
102
RTVSPropertyOp23
 70
     1
102
RTVSPropertyOp24
 70
     1
102
RTVSPropertyOp25
 70
     1
102
RTVSPropertyOp26
 70
     1
102
RTVSPropertyOp27
 70
     1
102
RTVSPropertyOp28
 70
     1
102
RTVSPropertyOp29
 70
     1
102
RTVSPropertyOp30
 70
     1
102
RTVSPropertyOp31
 70
     1
102
RTVSPropertyOp32
 70
     1
102
RTVSPropertyOp33
 70
     1
102
RTVSPropertyOp34
 70
     1
102
RTVSPropertyOp35
 70
     1
102
RTVSPropertyOp36
 70
     1
102
RTVSPropertyOp37
 70
     1
102
RTVSPropertyOp38
 70
     1
102
RTVSPropertyOp39
 70
     1
102
RTVSPropertyOp40
 70
     1
102
RTVSPropertyOp41
 70
     1
102
RTVSPropertyOp42
 70
     1
102
RTVSPropertyOp43
 70
     1
102
RTVSPropertyOp44
 70
     1
102
RTVSPropertyOp45
 70
     1
102
RTVSPropertyOp46
 70
     1
102
RTVSPropertyOp47
 70
     1
102
RTVSPropertyOp48
 70
     1
102
RTVSPropertyOp49
 70
     1
102
RTVSPropertyOp50
 70
     1
102
RTVSPropertyOp51
 70
     0
102
RTVSPropertyOp52
 70
     0
102
RTVSPropertyOp53
 70
     1
102
RTVSPropertyOp54
 70
     1
102
RTVSPropertyOp55
 70
     1
102
RTVSPropertyOp56
 70
     1
102
RTVSPropertyOp57
 70
     1
102
RTVSPropertyOp58
 70
     1
102
RTVSPropertyOp59
 70
     1
102
RTVSPropertyOp60
 70
     1
102
RTVSPropertyOp61
 70
     1
102
RTVSPropertyOp62
 70
     1
  0
XRECORD
  5
59B
102
{ACAD_REACTORS
330
59A
102
}
330
59A
100
AcDbXrecord
280
     1
102
RTVSPost2010Prop28
280
     0
102
RTVSPost2010PropOp28
 70
     1
102
RTVSPost2010Prop29
280
     1
102
RTVSPost2010PropOp29
 70
     1
102
RTVSPost2010Prop30
280
     1
102
RTVSPost2010PropOp30
 70
     1
102
RTVSPost2010Prop31
280
     0
102
RTVSPost2010PropOp31
 70
     1
102
RTVSPost2010Prop32
280
     0
102
RTVSPost2010PropOp32
 70
     1
102
RTVSPost2010Prop33
280
     0
102
RTVSPost2010PropOp33
 70
     1
102
RTVSPost2010Prop34
280
     0
102
RTVSPost2010PropOp34
 70
     1
102
RTVSPost2010Prop35
280
     0
102
RTVSPost2010PropOp35
 70
     1
102
RTVSPost2010Prop36
280
     0
102
RTVSPost2010PropOp36
 70
     1
102
RTVSPost2010Prop37
 90
       50
102
RTVSPost2010PropOp37
 70
     1
102
RTVSPost2010Prop38
140
0.0
102
RTVSPost2010PropOp38
 70
     1
102
RTVSPost2010Prop39
140
1.0
102
RTVSPost2010PropOp39
 70
     1
102
RTVSPost2010Prop40
 90
        0
102
RTVSPost2010PropOp40
 70
     1
102
RTVSPost2010Prop41ColorIndex
 90
       18
102
RTVSPost2010Prop41ColorRGB
 90
        0
102
RTVSPost2010PropOp41
 70
     1
102
RTVSPost2010Prop42
 90
       50
102
RTVSPost2010PropOp42
 70
     1
102
RTVSPost2010Prop43
 90
        3
102
RTVSPost2010PropOp43
 70
     1
102
RTVSPost2010Prop44ColorIndex
 90
        5
102
RTVSPost2010Prop44ColorRGB
 90
      255
102
RTVSPost2010PropOp44
 70
     1
102
RTVSPost2010Prop45
280
     0
102
RTVSPost2010PropOp45
 70
     1
102
RTVSPost2010Prop46
 90
       50
102
RTVSPost2010PropOp46
 70
     1
102
RTVSPost2010Prop47
 90
       50
102
RTVSPost2010PropOp47
 70
     1
102
RTVSPost2010Prop48
 90
       50
102
RTVSPost2010PropOp48
 70
     1
102
RTVSPost2010Prop49
280
     0
102
RTVSPost2010PropOp49
 70
     1
102
RTVSPost2010Prop50
 90
       50
102
RTVSPost2010PropOp50
 70
     1
102
RTVSPost2010Prop51ColorIndex
 90
      256
102
RTVSPost2010Prop51ColorRGB
 90
-16777216
102
RTVSPost2010PropOp51
 70
     0
102
RTVSPost2010Prop52
140
1.0
102
RTVSPost2010PropOp52
 70
     0
102
RTVSPost2010Prop53
 90
        2
102
RTVSPost2010PropOp53
 70
     1
102
RTVSPost2010Prop54
  1
strokes_ogs.tif
102
RTVSPost2010PropOp54
 70
     1
102
RTVSPost2010Prop55
280
     0
102
RTVSPost2010PropOp55
 70
     1
102
RTVSPost2010Prop56
140
1.0
102
RTVSPost2010PropOp56
 70
     1
102
RTVSPost2010Prop57
140
1.0
102
RTVSPost2010PropOp57
 70
     1
102
RTVSPropertyOp0
 70
     1
102
RTVSPropertyOp1
 70
     1
102
RTVSPropertyOp2
 70
     1
102
RTVSPropertyOp3
 70
     1
102
RTVSPropertyOp4
 70
     1
102
RTVSPropertyOp5
 70
     1
102
RTVSPropertyOp6
 70
     1
102
RTVSPropertyOp7
 70
     1
102
RTVSPropertyOp8
 70
     1
102
RTVSPropertyOp9
 70
     1
102
RTVSPropertyOp10
 70
     1
102
RTVSPropertyOp11
 70
     1
102
RTVSPropertyOp12
 70
     1
102
RTVSPropertyOp13
 70
     1
102
RTVSPropertyOp14
 70
     1
102
RTVSPropertyOp15
 70
     1
102
RTVSPropertyOp16
 70
     1
102
RTVSPropertyOp17
 70
     1
102
RTVSPropertyOp18
 70
     1
102
RTVSPropertyOp19
 70
     1
102
RTVSPropertyOp20
 70
     1
102
RTVSPropertyOp21
 70
     1
102
RTVSPropertyOp22
 70
     1
102
RTVSPropertyOp23
 70
     1
102
RTVSPropertyOp24
 70
     1
102
RTVSPropertyOp25
 70
     1
102
RTVSPropertyOp26
 70
     1
102
RTVSPropertyOp27
 70
     1
102
RTVSPropertyOp28
 70
     1
102
RTVSPropertyOp29
 70
     1
102
RTVSPropertyOp30
 70
     1
102
RTVSPropertyOp31
 70
     1
102
RTVSPropertyOp32
 70
     1
102
RTVSPropertyOp33
 70
     1
102
RTVSPropertyOp34
 70
     1
102
RTVSPropertyOp35
 70
     1
102
RTVSPropertyOp36
 70
     1
102
RTVSPropertyOp37
 70
     1
102
RTVSPropertyOp38
 70
     1
102
RTVSPropertyOp39
 70
     1
102
RTVSPropertyOp40
 70
     1
102
RTVSPropertyOp41
 70
     1
102
RTVSPropertyOp42
 70
     1
102
RTVSPropertyOp43
 70
     1
102
RTVSPropertyOp44
 70
     1
102
RTVSPropertyOp45
 70
     1
102
RTVSPropertyOp46
 70
     1
102
RTVSPropertyOp47
 70
     1
102
RTVSPropertyOp48
 70
     1
102
RTVSPropertyOp49
 70
     1
102
RTVSPropertyOp50
 70
     1
102
RTVSPropertyOp51
 70
     0
102
RTVSPropertyOp52
 70
     0
102
RTVSPropertyOp53
 70
     1
102
RTVSPropertyOp54
 70
     1
102
RTVSPropertyOp55
 70
     1
102
RTVSPropertyOp56
 70
     1
102
RTVSPropertyOp57
 70
     1
102
RTVSPropertyOp58
 70
     1
102
RTVSPropertyOp59
 70
     1
102
RTVSPropertyOp60
 70
     1
102
RTVSPropertyOp61
 70
     1
102
RTVSPropertyOp62
 70
     1
  0
XRECORD
  5
59D
102
{ACAD_REACTORS
330
59C
102
}
330
59C
100
AcDbXrecord
280
     1
102
RTVSPost2010Prop28
280
     0
102
RTVSPost2010PropOp28
 70
     1
102
RTVSPost2010Prop29
280
     1
102
RTVSPost2010PropOp29
 70
     1
102
RTVSPost2010Prop30
280
     1
102
RTVSPost2010PropOp30
 70
     1
102
RTVSPost2010Prop31
280
     0
102
RTVSPost2010PropOp31
 70
     1
102
RTVSPost2010Prop32
280
     0
102
RTVSPost2010PropOp32
 70
     1
102
RTVSPost2010Prop33
280
     0
102
RTVSPost2010PropOp33
 70
     1
102
RTVSPost2010Prop34
280
     0
102
RTVSPost2010PropOp34
 70
     1
102
RTVSPost2010Prop35
280
     0
102
RTVSPost2010PropOp35
 70
     1
102
RTVSPost2010Prop36
280
     0
102
RTVSPost2010PropOp36
 70
     1
102
RTVSPost2010Prop37
 90
       50
102
RTVSPost2010PropOp37
 70
     1
102
RTVSPost2010Prop38
140
0.0
102
RTVSPost2010PropOp38
 70
     1
102
RTVSPost2010Prop39
140
1.0
102
RTVSPost2010PropOp39
 70
     1
102
RTVSPost2010Prop40
 90
        0
102
RTVSPost2010PropOp40
 70
     1
102
RTVSPost2010Prop41ColorIndex
 90
       18
102
RTVSPost2010Prop41ColorRGB
 90
        0
102
RTVSPost2010PropOp41
 70
     1
102
RTVSPost2010Prop42
 90
       50
102
RTVSPost2010PropOp42
 70
     1
102
RTVSPost2010Prop43
 90
        3
102
RTVSPost2010PropOp43
 70
     1
102
RTVSPost2010Prop44ColorIndex
 90
        5
102
RTVSPost2010Prop44ColorRGB
 90
      255
102
RTVSPost2010PropOp44
 70
     1
102
RTVSPost2010Prop45
280
     0
102
RTVSPost2010PropOp45
 70
     1
102
RTVSPost2010Prop46
 90
       50
102
RTVSPost2010PropOp46
 70
     1
102
RTVSPost2010Prop47
 90
       50
102
RTVSPost2010PropOp47
 70
     1
102
RTVSPost2010Prop48
 90
       50
102
RTVSPost2010PropOp48
 70
     1
102
RTVSPost2010Prop49
280
     0
102
RTVSPost2010PropOp49
 70
     1
102
RTVSPost2010Prop50
 90
       50
102
RTVSPost2010PropOp50
 70
     1
102
RTVSPost2010Prop51ColorIndex
 90
      256
102
RTVSPost2010Prop51ColorRGB
 90
-16777216
102
RTVSPost2010PropOp51
 70
     0
102
RTVSPost2010Prop52
140
1.0
102
RTVSPost2010PropOp52
 70
     0
102
RTVSPost2010Prop53
 90
        2
102
RTVSPost2010PropOp53
 70
     1
102
RTVSPost2010Prop54
  1
strokes_ogs.tif
102
RTVSPost2010PropOp54
 70
     1
102
RTVSPost2010Prop55
280
     0
102
RTVSPost2010PropOp55
 70
     1
102
RTVSPost2010Prop56
140
1.0
102
RTVSPost2010PropOp56
 70
     1
102
RTVSPost2010Prop57
140
1.0
102
RTVSPost2010PropOp57
 70
     1
102
RTVSPropertyOp0
 70
     1
102
RTVSPropertyOp1
 70
     1
102
RTVSPropertyOp2
 70
     1
102
RTVSPropertyOp3
 70
     1
102
RTVSPropertyOp4
 70
     1
102
RTVSPropertyOp5
 70
     1
102
RTVSPropertyOp6
 70
     1
102
RTVSPropertyOp7
 70
     1
102
RTVSPropertyOp8
 70
     1
102
RTVSPropertyOp9
 70
     1
102
RTVSPropertyOp10
 70
     1
102
RTVSPropertyOp11
 70
     1
102
RTVSPropertyOp12
 70
     1
102
RTVSPropertyOp13
 70
     1
102
RTVSPropertyOp14
 70
     1
102
RTVSPropertyOp15
 70
     1
102
RTVSPropertyOp16
 70
     1
102
RTVSPropertyOp17
 70
     1
102
RTVSPropertyOp18
 70
     1
102
RTVSPropertyOp19
 70
     1
102
RTVSPropertyOp20
 70
     1
102
RTVSPropertyOp21
 70
     1
102
RTVSPropertyOp22
 70
     1
102
RTVSPropertyOp23
 70
     1
102
RTVSPropertyOp24
 70
     1
102
RTVSPropertyOp25
 70
     1
102
RTVSPropertyOp26
 70
     1
102
RTVSPropertyOp27
 70
     1
102
RTVSPropertyOp28
 70
     1
102
RTVSPropertyOp29
 70
     1
102
RTVSPropertyOp30
 70
     1
102
RTVSPropertyOp31
 70
     1
102
RTVSPropertyOp32
 70
     1
102
RTVSPropertyOp33
 70
     1
102
RTVSPropertyOp34
 70
     1
102
RTVSPropertyOp35
 70
     1
102
RTVSPropertyOp36
 70
     1
102
RTVSPropertyOp37
 70
     1
102
RTVSPropertyOp38
 70
     1
102
RTVSPropertyOp39
 70
     1
102
RTVSPropertyOp40
 70
     1
102
RTVSPropertyOp41
 70
     1
102
RTVSPropertyOp42
 70
     1
102
RTVSPropertyOp43
 70
     1
102
RTVSPropertyOp44
 70
     1
102
RTVSPropertyOp45
 70
     1
102
RTVSPropertyOp46
 70
     1
102
RTVSPropertyOp47
 70
     1
102
RTVSPropertyOp48
 70
     1
102
RTVSPropertyOp49
 70
     1
102
RTVSPropertyOp50
 70
     1
102
RTVSPropertyOp51
 70
     0
102
RTVSPropertyOp52
 70
     0
102
RTVSPropertyOp53
 70
     1
102
RTVSPropertyOp54
 70
     1
102
RTVSPropertyOp55
 70
     1
102
RTVSPropertyOp56
 70
     1
102
RTVSPropertyOp57
 70
     1
102
RTVSPropertyOp58
 70
     1
102
RTVSPropertyOp59
 70
     1
102
RTVSPropertyOp60
 70
     1
102
RTVSPropertyOp61
 70
     1
102
RTVSPropertyOp62
 70
     1
  0
XRECORD
  5
58D
102
{ACAD_REACTORS
330
58C
102
}
330
58C
100
AcDbXrecord
280
     1
102
RTVSPost2010Prop28
280
     0
102
RTVSPost2010PropOp28
 70
     1
102
RTVSPost2010Prop29
280
     1
102
RTVSPost2010PropOp29
 70
     1
102
RTVSPost2010Prop30
280
     1
102
RTVSPost2010PropOp30
 70
     1
102
RTVSPost2010Prop31
280
     0
102
RTVSPost2010PropOp31
 70
     1
102
RTVSPost2010Prop32
280
     0
102
RTVSPost2010PropOp32
 70
     1
102
RTVSPost2010Prop33
280
     0
102
RTVSPost2010PropOp33
 70
     1
102
RTVSPost2010Prop34
280
     0
102
RTVSPost2010PropOp34
 70
     1
102
RTVSPost2010Prop35
280
     0
102
RTVSPost2010PropOp35
 70
     1
102
RTVSPost2010Prop36
280
     0
102
RTVSPost2010PropOp36
 70
     1
102
RTVSPost2010Prop37
 90
       50
102
RTVSPost2010PropOp37
 70
     1
102
RTVSPost2010Prop38
140
0.0
102
RTVSPost2010PropOp38
 70
     1
102
RTVSPost2010Prop39
140
1.0
102
RTVSPost2010PropOp39
 70
     1
102
RTVSPost2010Prop40
 90
        0
102
RTVSPost2010PropOp40
 70
     1
102
RTVSPost2010Prop41ColorIndex
 90
       18
102
RTVSPost2010Prop41ColorRGB
 90
        0
102
RTVSPost2010PropOp41
 70
     1
102
RTVSPost2010Prop42
 90
       50
102
RTVSPost2010PropOp42
 70
     1
102
RTVSPost2010Prop43
 90
        3
102
RTVSPost2010PropOp43
 70
     1
102
RTVSPost2010Prop44ColorIndex
 90
        5
102
RTVSPost2010Prop44ColorRGB
 90
      255
102
RTVSPost2010PropOp44
 70
     1
102
RTVSPost2010Prop45
280
     0
102
RTVSPost2010PropOp45
 70
     1
102
RTVSPost2010Prop46
 90
       50
102
RTVSPost2010PropOp46
 70
     1
102
RTVSPost2010Prop47
 90
       50
102
RTVSPost2010PropOp47
 70
     1
102
RTVSPost2010Prop48
 90
       50
102
RTVSPost2010PropOp48
 70
     1
102
RTVSPost2010Prop49
280
     0
102
RTVSPost2010PropOp49
 70
     1
102
RTVSPost2010Prop50
 90
       50
102
RTVSPost2010PropOp50
 70
     1
102
RTVSPost2010Prop51ColorIndex
 90
      256
102
RTVSPost2010Prop51ColorRGB
 90
-16777216
102
RTVSPost2010PropOp51
 70
     0
102
RTVSPost2010Prop52
140
1.0
102
RTVSPost2010PropOp52
 70
     0
102
RTVSPost2010Prop53
 90
        2
102
RTVSPost2010PropOp53
 70
     1
102
RTVSPost2010Prop54
  1
strokes_ogs.tif
102
RTVSPost2010PropOp54
 70
     1
102
RTVSPost2010Prop55
280
     0
102
RTVSPost2010PropOp55
 70
     1
102
RTVSPost2010Prop56
140
1.0
102
RTVSPost2010PropOp56
 70
     1
102
RTVSPost2010Prop57
140
1.0
102
RTVSPost2010PropOp57
 70
     1
102
RTVSPropertyOp0
 70
     1
102
RTVSPropertyOp1
 70
     1
102
RTVSPropertyOp2
 70
     1
102
RTVSPropertyOp3
 70
     1
102
RTVSPropertyOp4
 70
     1
102
RTVSPropertyOp5
 70
     1
102
RTVSPropertyOp6
 70
     1
102
RTVSPropertyOp7
 70
     1
102
RTVSPropertyOp8
 70
     1
102
RTVSPropertyOp9
 70
     1
102
RTVSPropertyOp10
 70
     1
102
RTVSPropertyOp11
 70
     1
102
RTVSPropertyOp12
 70
     1
102
RTVSPropertyOp13
 70
     1
102
RTVSPropertyOp14
 70
     1
102
RTVSPropertyOp15
 70
     1
102
RTVSPropertyOp16
 70
     1
102
RTVSPropertyOp17
 70
     1
102
RTVSPropertyOp18
 70
     1
102
RTVSPropertyOp19
 70
     1
102
RTVSPropertyOp20
 70
     1
102
RTVSPropertyOp21
 70
     1
102
RTVSPropertyOp22
 70
     1
102
RTVSPropertyOp23
 70
     1
102
RTVSPropertyOp24
 70
     1
102
RTVSPropertyOp25
 70
     1
102
RTVSPropertyOp26
 70
     1
102
RTVSPropertyOp27
 70
     1
102
RTVSPropertyOp28
 70
     1
102
RTVSPropertyOp29
 70
     1
102
RTVSPropertyOp30
 70
     1
102
RTVSPropertyOp31
 70
     1
102
RTVSPropertyOp32
 70
     1
102
RTVSPropertyOp33
 70
     1
102
RTVSPropertyOp34
 70
     1
102
RTVSPropertyOp35
 70
     1
102
RTVSPropertyOp36
 70
     1
102
RTVSPropertyOp37
 70
     1
102
RTVSPropertyOp38
 70
     1
102
RTVSPropertyOp39
 70
     1
102
RTVSPropertyOp40
 70
     1
102
RTVSPropertyOp41
 70
     1
102
RTVSPropertyOp42
 70
     1
102
RTVSPropertyOp43
 70
     1
102
RTVSPropertyOp44
 70
     1
102
RTVSPropertyOp45
 70
     1
102
RTVSPropertyOp46
 70
     1
102
RTVSPropertyOp47
 70
     1
102
RTVSPropertyOp48
 70
     1
102
RTVSPropertyOp49
 70
     1
102
RTVSPropertyOp50
 70
     1
102
RTVSPropertyOp51
 70
     0
102
RTVSPropertyOp52
 70
     0
102
RTVSPropertyOp53
 70
     1
102
RTVSPropertyOp54
 70
     1
102
RTVSPropertyOp55
 70
     1
102
RTVSPropertyOp56
 70
     1
102
RTVSPropertyOp57
 70
     1
102
RTVSPropertyOp58
 70
     1
102
RTVSPropertyOp59
 70
     1
102
RTVSPropertyOp60
 70
     1
102
RTVSPropertyOp61
 70
     1
102
RTVSPropertyOp62
 70
     1
  0
XRECORD
  5
581
102
{ACAD_REACTORS
330
580
102
}
330
580
100
AcDbXrecord
280
     1
102
RTVSPost2010Prop28
280
     0
102
RTVSPost2010PropOp28
 70
     1
102
RTVSPost2010Prop29
280
     1
102
RTVSPost2010PropOp29
 70
     1
102
RTVSPost2010Prop30
280
     1
102
RTVSPost2010PropOp30
 70
     1
102
RTVSPost2010Prop31
280
     0
102
RTVSPost2010PropOp31
 70
     1
102
RTVSPost2010Prop32
280
     0
102
RTVSPost2010PropOp32
 70
     1
102
RTVSPost2010Prop33
280
     0
102
RTVSPost2010PropOp33
 70
     1
102
RTVSPost2010Prop34
280
     0
102
RTVSPost2010PropOp34
 70
     1
102
RTVSPost2010Prop35
280
     0
102
RTVSPost2010PropOp35
 70
     1
102
RTVSPost2010Prop36
280
     0
102
RTVSPost2010PropOp36
 70
     1
102
RTVSPost2010Prop37
 90
       50
102
RTVSPost2010PropOp37
 70
     1
102
RTVSPost2010Prop38
140
0.0
102
RTVSPost2010PropOp38
 70
     1
102
RTVSPost2010Prop39
140
1.0
102
RTVSPost2010PropOp39
 70
     1
102
RTVSPost2010Prop40
 90
        0
102
RTVSPost2010PropOp40
 70
     1
102
RTVSPost2010Prop41ColorIndex
 90
       18
102
RTVSPost2010Prop41ColorRGB
 90
        0
102
RTVSPost2010PropOp41
 70
     1
102
RTVSPost2010Prop42
 90
       50
102
RTVSPost2010PropOp42
 70
     1
102
RTVSPost2010Prop43
 90
        3
102
RTVSPost2010PropOp43
 70
     1
102
RTVSPost2010Prop44ColorIndex
 90
        5
102
RTVSPost2010Prop44ColorRGB
 90
      255
102
RTVSPost2010PropOp44
 70
     1
102
RTVSPost2010Prop45
280
     0
102
RTVSPost2010PropOp45
 70
     1
102
RTVSPost2010Prop46
 90
       50
102
RTVSPost2010PropOp46
 70
     1
102
RTVSPost2010Prop47
 90
       50
102
RTVSPost2010PropOp47
 70
     1
102
RTVSPost2010Prop48
 90
       50
102
RTVSPost2010PropOp48
 70
     1
102
RTVSPost2010Prop49
280
     0
102
RTVSPost2010PropOp49
 70
     1
102
RTVSPost2010Prop50
 90
       50
102
RTVSPost2010PropOp50
 70
     1
102
RTVSPost2010Prop51ColorIndex
 90
      256
102
RTVSPost2010Prop51ColorRGB
 90
-16777216
102
RTVSPost2010PropOp51
 70
     0
102
RTVSPost2010Prop52
140
1.0
102
RTVSPost2010PropOp52
 70
     0
102
RTVSPost2010Prop53
 90
        2
102
RTVSPost2010PropOp53
 70
     1
102
RTVSPost2010Prop54
  1
strokes_ogs.tif
102
RTVSPost2010PropOp54
 70
     1
102
RTVSPost2010Prop55
280
     0
102
RTVSPost2010PropOp55
 70
     1
102
RTVSPost2010Prop56
140
1.0
102
RTVSPost2010PropOp56
 70
     1
102
RTVSPost2010Prop57
140
1.0
102
RTVSPost2010PropOp57
 70
     1
102
RTVSPropertyOp0
 70
     1
102
RTVSPropertyOp1
 70
     1
102
RTVSPropertyOp2
 70
     1
102
RTVSPropertyOp3
 70
     1
102
RTVSPropertyOp4
 70
     1
102
RTVSPropertyOp5
 70
     1
102
RTVSPropertyOp6
 70
     1
102
RTVSPropertyOp7
 70
     1
102
RTVSPropertyOp8
 70
     1
102
RTVSPropertyOp9
 70
     1
102
RTVSPropertyOp10
 70
     1
102
RTVSPropertyOp11
 70
     1
102
RTVSPropertyOp12
 70
     1
102
RTVSPropertyOp13
 70
     1
102
RTVSPropertyOp14
 70
     1
102
RTVSPropertyOp15
 70
     1
102
RTVSPropertyOp16
 70
     1
102
RTVSPropertyOp17
 70
     1
102
RTVSPropertyOp18
 70
     1
102
RTVSPropertyOp19
 70
     1
102
RTVSPropertyOp20
 70
     1
102
RTVSPropertyOp21
 70
     1
102
RTVSPropertyOp22
 70
     1
102
RTVSPropertyOp23
 70
     1
102
RTVSPropertyOp24
 70
     1
102
RTVSPropertyOp25
 70
     1
102
RTVSPropertyOp26
 70
     1
102
RTVSPropertyOp27
 70
     1
102
RTVSPropertyOp28
 70
     1
102
RTVSPropertyOp29
 70
     1
102
RTVSPropertyOp30
 70
     1
102
RTVSPropertyOp31
 70
     1
102
RTVSPropertyOp32
 70
     1
102
RTVSPropertyOp33
 70
     1
102
RTVSPropertyOp34
 70
     1
102
RTVSPropertyOp35
 70
     1
102
RTVSPropertyOp36
 70
     1
102
RTVSPropertyOp37
 70
     1
102
RTVSPropertyOp38
 70
     1
102
RTVSPropertyOp39
 70
     1
102
RTVSPropertyOp40
 70
     1
102
RTVSPropertyOp41
 70
     1
102
RTVSPropertyOp42
 70
     1
102
RTVSPropertyOp43
 70
     1
102
RTVSPropertyOp44
 70
     1
102
RTVSPropertyOp45
 70
     1
102
RTVSPropertyOp46
 70
     1
102
RTVSPropertyOp47
 70
     1
102
RTVSPropertyOp48
 70
     1
102
RTVSPropertyOp49
 70
     1
102
RTVSPropertyOp50
 70
     1
102
RTVSPropertyOp51
 70
     0
102
RTVSPropertyOp52
 70
     0
102
RTVSPropertyOp53
 70
     1
102
RTVSPropertyOp54
 70
     1
102
RTVSPropertyOp55
 70
     1
102
RTVSPropertyOp56
 70
     1
102
RTVSPropertyOp57
 70
     1
102
RTVSPropertyOp58
 70
     1
102
RTVSPropertyOp59
 70
     1
102
RTVSPropertyOp60
 70
     1
102
RTVSPropertyOp61
 70
     1
102
RTVSPropertyOp62
 70
     1
  0
XRECORD
  5
59F
102
{ACAD_REACTORS
330
59E
102
}
330
59E
100
AcDbXrecord
280
     1
102
RTVSPost2010Prop28
280
     0
102
RTVSPost2010PropOp28
 70
     1
102
RTVSPost2010Prop29
280
     1
102
RTVSPost2010PropOp29
 70
     1
102
RTVSPost2010Prop30
280
     1
102
RTVSPost2010PropOp30
 70
     1
102
RTVSPost2010Prop31
280
     0
102
RTVSPost2010PropOp31
 70
     1
102
RTVSPost2010Prop32
280
     0
102
RTVSPost2010PropOp32
 70
     1
102
RTVSPost2010Prop33
280
     0
102
RTVSPost2010PropOp33
 70
     1
102
RTVSPost2010Prop34
280
     0
102
RTVSPost2010PropOp34
 70
     1
102
RTVSPost2010Prop35
280
     0
102
RTVSPost2010PropOp35
 70
     1
102
RTVSPost2010Prop36
280
     0
102
RTVSPost2010PropOp36
 70
     1
102
RTVSPost2010Prop37
 90
       50
102
RTVSPost2010PropOp37
 70
     1
102
RTVSPost2010Prop38
140
0.0
102
RTVSPost2010PropOp38
 70
     1
102
RTVSPost2010Prop39
140
1.0
102
RTVSPost2010PropOp39
 70
     1
102
RTVSPost2010Prop40
 90
        0
102
RTVSPost2010PropOp40
 70
     1
102
RTVSPost2010Prop41ColorIndex
 90
       18
102
RTVSPost2010Prop41ColorRGB
 90
        0
102
RTVSPost2010PropOp41
 70
     1
102
RTVSPost2010Prop42
 90
       50
102
RTVSPost2010PropOp42
 70
     1
102
RTVSPost2010Prop43
 90
        3
102
RTVSPost2010PropOp43
 70
     1
102
RTVSPost2010Prop44ColorIndex
 90
        5
102
RTVSPost2010Prop44ColorRGB
 90
      255
102
RTVSPost2010PropOp44
 70
     1
102
RTVSPost2010Prop45
280
     0
102
RTVSPost2010PropOp45
 70
     1
102
RTVSPost2010Prop46
 90
       50
102
RTVSPost2010PropOp46
 70
     1
102
RTVSPost2010Prop47
 90
       50
102
RTVSPost2010PropOp47
 70
     1
102
RTVSPost2010Prop48
 90
       50
102
RTVSPost2010PropOp48
 70
     1
102
RTVSPost2010Prop49
280
     0
102
RTVSPost2010PropOp49
 70
     1
102
RTVSPost2010Prop50
 90
       50
102
RTVSPost2010PropOp50
 70
     1
102
RTVSPost2010Prop51ColorIndex
 90
      256
102
RTVSPost2010Prop51ColorRGB
 90
-16777216
102
RTVSPost2010PropOp51
 70
     0
102
RTVSPost2010Prop52
140
1.0
102
RTVSPost2010PropOp52
 70
     0
102
RTVSPost2010Prop53
 90
        2
102
RTVSPost2010PropOp53
 70
     1
102
RTVSPost2010Prop54
  1
strokes_ogs.tif
102
RTVSPost2010PropOp54
 70
     1
102
RTVSPost2010Prop55
280
     0
102
RTVSPost2010PropOp55
 70
     1
102
RTVSPost2010Prop56
140
1.0
102
RTVSPost2010PropOp56
 70
     1
102
RTVSPost2010Prop57
140
1.0
102
RTVSPost2010PropOp57
 70
     1
102
RTVSPropertyOp0
 70
     1
102
RTVSPropertyOp1
 70
     1
102
RTVSPropertyOp2
 70
     1
102
RTVSPropertyOp3
 70
     1
102
RTVSPropertyOp4
 70
     1
102
RTVSPropertyOp5
 70
     1
102
RTVSPropertyOp6
 70
     1
102
RTVSPropertyOp7
 70
     1
102
RTVSPropertyOp8
 70
     1
102
RTVSPropertyOp9
 70
     1
102
RTVSPropertyOp10
 70
     1
102
RTVSPropertyOp11
 70
     1
102
RTVSPropertyOp12
 70
     1
102
RTVSPropertyOp13
 70
     1
102
RTVSPropertyOp14
 70
     1
102
RTVSPropertyOp15
 70
     1
102
RTVSPropertyOp16
 70
     1
102
RTVSPropertyOp17
 70
     1
102
RTVSPropertyOp18
 70
     1
102
RTVSPropertyOp19
 70
     1
102
RTVSPropertyOp20
 70
     1
102
RTVSPropertyOp21
 70
     1
102
RTVSPropertyOp22
 70
     1
102
RTVSPropertyOp23
 70
     1
102
RTVSPropertyOp24
 70
     1
102
RTVSPropertyOp25
 70
     1
102
RTVSPropertyOp26
 70
     1
102
RTVSPropertyOp27
 70
     1
102
RTVSPropertyOp28
 70
     1
102
RTVSPropertyOp29
 70
     1
102
RTVSPropertyOp30
 70
     1
102
RTVSPropertyOp31
 70
     1
102
RTVSPropertyOp32
 70
     1
102
RTVSPropertyOp33
 70
     1
102
RTVSPropertyOp34
 70
     1
102
RTVSPropertyOp35
 70
     1
102
RTVSPropertyOp36
 70
     1
102
RTVSPropertyOp37
 70
     1
102
RTVSPropertyOp38
 70
     1
102
RTVSPropertyOp39
 70
     1
102
RTVSPropertyOp40
 70
     1
102
RTVSPropertyOp41
 70
     1
102
RTVSPropertyOp42
 70
     1
102
RTVSPropertyOp43
 70
     1
102
RTVSPropertyOp44
 70
     1
102
RTVSPropertyOp45
 70
     1
102
RTVSPropertyOp46
 70
     1
102
RTVSPropertyOp47
 70
     1
102
RTVSPropertyOp48
 70
     1
102
RTVSPropertyOp49
 70
     1
102
RTVSPropertyOp50
 70
     1
102
RTVSPropertyOp51
 70
     0
102
RTVSPropertyOp52
 70
     0
102
RTVSPropertyOp53
 70
     1
102
RTVSPropertyOp54
 70
     1
102
RTVSPropertyOp55
 70
     1
102
RTVSPropertyOp56
 70
     1
102
RTVSPropertyOp57
 70
     1
102
RTVSPropertyOp58
 70
     1
102
RTVSPropertyOp59
 70
     1
102
RTVSPropertyOp60
 70
     1
102
RTVSPropertyOp61
 70
     1
102
RTVSPropertyOp62
 70
     1
  0
ENDSEC
  0
EOF
