  0
SECTION
  2
HEADER
  9
$ACADVER
  1
AC1015
  9
$ACADMAINTVER
 70
     6
  9
$DWGCODEPAGE
  3
ANSI_1252
  9
$INSBASE
 10
0.0
 20
0.0
 30
0.0
  9
$EXTMIN
 10
-0.0000006591429837
 20
-0.0000003950417238
 30
-240.4366158723723
  9
$EXTMAX
 10
775.187760772389
 20
1611.643008398006
 30
240.4366158723723
  9
$LIMMIN
 10
0.0
 20
0.0
  9
$LIMMAX
 10
420.0
 20
297.0
  9
$ORTHOMODE
 70
     1
  9
$REGENMODE
 70
     1
  9
$FILLMODE
 70
     1
  9
$QTEXTMODE
 70
     0
  9
$MIRRTEXT
 70
     0
  9
$LTSCALE
 40
1.0
  9
$ATTMODE
 70
     1
  9
$TEXTSIZE
 40
2.5
  9
$TRACEWID
 40
1.0
  9
$TEXTSTYLE
  7
iso-1
  9
$CLAYER
  8
COTAS
  9
$CELTYPE
  6
ByLayer
  9
$CECOLOR
 62
   256
  9
$CELTSCALE
 40
1.0
  9
$DISPSILH
 70
     0
  9
$DIMSCALE
 40
1.0
  9
$DIMASZ
 40
5.0
  9
$DIMEXO
 40
0.625
  9
$DIMDLI
 40
3.75
  9
$DIMRND
 40
0.0
  9
$DIMDLE
 40
0.0
  9
$DIMEXE
 40
1.25
  9
$DIMTP
 40
0.0
  9
$DIMTM
 40
0.0
  9
$DIMTXT
 40
10.0
  9
$DIMCEN
 40
2.5
  9
$DIMTSZ
 40
0.0
  9
$DIMTOL
 70
     0
  9
$DIMLIM
 70
     0
  9
$DIMTIH
 70
     0
  9
$DIMTOH
 70
     0
  9
$DIMSE1
 70
     0
  9
$DIMSE2
 70
     0
  9
$DIMTAD
 70
     1
  9
$DIMZIN
 70
     8
  9
$DIMBLK
  1

  9
$DIMASO
 70
     1
  9
$DIMSHO
 70
     1
  9
$DIMPOST
  1

  9
$DIMAPOST
  1

  9
$DIMALT
 70
     0
  9
$DIMALTD
 70
     3
  9
$DIMALTF
 40
0.03937007874016
  9
$DIMLFAC
 40
1.0
  9
$DIMTOFL
 70
     1
  9
$DIMTVP
 40
0.0
  9
$DIMTIX
 70
     0
  9
$DIMSOXD
 70
     0
  9
$DIMSAH
 70
     0
  9
$DIMBLK1
  1

  9
$DIMBLK2
  1

  9
$DIMSTYLE
  2
ISO-25
  9
$DIMCLRD
 70
     0
  9
$DIMCLRE
 70
     0
  9
$DIMCLRT
 70
     0
  9
$DIMTFAC
 40
1.0
  9
$DIMGAP
 40
2.0
  9
$DIMJUST
 70
     0
  9
$DIMSD1
 70
     0
  9
$DIMSD2
 70
     0
  9
$DIMTOLJ
 70
     0
  9
$DIMTZIN
 70
     8
  9
$DIMALTZ
 70
     0
  9
$DIMALTTZ
 70
     0
  9
$DIMUPT
 70
     0
  9
$DIMDEC
 70
     0
  9
$DIMTDEC
 70
     0
  9
$DIMALTU
 70
     2
  9
$DIMALTTD
 70
     3
  9
$DIMTXSTY
  7
Standard
  9
$DIMAUNIT
 70
     0
  9
$DIMADEC
 70
     0
  9
$DIMALTRND
 40
0.0
  9
$DIMAZIN
 70
     0
  9
$DIMDSEP
 70
    44
  9
$DIMATFIT
 70
     3
  9
$DIMFRAC
 70
     0
  9
$DIMLDRBLK
  1

  9
$DIMLUNIT
 70
     2
  9
$DIMLWD
 70
    -2
  9
$DIMLWE
 70
    -2
  9
$DIMTMOVE
 70
     0
  9
$LUNITS
 70
     2
  9
$LUPREC
 70
     4
  9
$SKETCHINC
 40
1.0
  9
$FILLETRAD
 40
0.0
  9
$AUNITS
 70
     0
  9
$AUPREC
 70
     0
  9
$MENU
  1
.
  9
$ELEVATION
 40
0.0
  9
$PELEVATION
 40
0.0
  9
$THICKNESS
 40
0.0
  9
$LIMCHECK
 70
     0
  9
$CHAMFERA
 40
0.0
  9
$CHAMFERB
 40
0.0
  9
$CHAMFERC
 40
0.0
  9
$CHAMFERD
 40
0.0
  9
$SKPOLY
 70
     0
  9
$TDCREATE
 40
2456723.814029607
  9
$TDUCREATE
 40
2456723.730696273
  9
$TDUPDATE
 40
2460032.487202824
  9
$TDUUPDATE
 40
2460032.403869491
  9
$TDINDWG
 40
0.2915733681
  9
$TDUSRTIMER
 40
0.0000834954
  9
$USRTIMER
 70
     1
  9
$ANGBASE
 50
0.0
  9
$ANGDIR
 70
     0
  9
$PDMODE
 70
     0
  9
$PDSIZE
 40
0.0
  9
$PLINEWID
 40
0.0
  9
$SPLFRAME
 70
     0
  9
$SPLINETYPE
 70
     6
  9
$SPLINESEGS
 70
     8
  9
$HANDSEED
  5
A2F9
  9
$SURFTAB1
 70
     6
  9
$SURFTAB2
 70
     6
  9
$SURFTYPE
 70
     6
  9
$SURFU
 70
     6
  9
$SURFV
 70
     6
  9
$UCSBASE
  2

  9
$UCSNAME
  2

  9
$UCSORG
 10
0.0
 20
0.0
 30
0.0
  9
$UCSXDIR
 10
1.0
 20
0.0
 30
0.0
  9
$UCSYDIR
 10
0.0
 20
1.0
 30
0.0
  9
$UCSORTHOREF
  2

  9
$UCSORTHOVIEW
 70
     0
  9
$UCSORGTOP
 10
0.0
 20
0.0
 30
0.0
  9
$UCSORGBOTTOM
 10
0.0
 20
0.0
 30
0.0
  9
$UCSORGLEFT
 10
0.0
 20
0.0
 30
0.0
  9
$UCSORGRIGHT
 10
0.0
 20
0.0
 30
0.0
  9
$UCSORGFRONT
 10
0.0
 20
0.0
 30
0.0
  9
$UCSORGBACK
 10
0.0
 20
0.0
 30
0.0
  9
$PUCSBASE
  2

  9
$PUCSNAME
  2

  9
$PUCSORG
 10
0.0
 20
0.0
 30
0.0
  9
$PUCSXDIR
 10
1.0
 20
0.0
 30
0.0
  9
$PUCSYDIR
 10
0.0
 20
1.0
 30
0.0
  9
$PUCSORTHOREF
  2

  9
$PUCSORTHOVIEW
 70
     0
  9
$PUCSORGTOP
 10
0.0
 20
0.0
 30
0.0
  9
$PUCSORGBOTTOM
 10
0.0
 20
0.0
 30
0.0
  9
$PUCSORGLEFT
 10
0.0
 20
0.0
 30
0.0
  9
$PUCSORGRIGHT
 10
0.0
 20
0.0
 30
0.0
  9
$PUCSORGFRONT
 10
0.0
 20
0.0
 30
0.0
  9
$PUCSORGBACK
 10
0.0
 20
0.0
 30
0.0
  9
$USERI1
 70
     0
  9
$USERI2
 70
     0
  9
$USERI3
 70
     0
  9
$USERI4
 70
     0
  9
$USERI5
 70
     0
  9
$USERR1
 40
0.0
  9
$USERR2
 40
0.0
  9
$USERR3
 40
0.0
  9
$USERR4
 40
0.0
  9
$USERR5
 40
0.0
  9
$WORLDVIEW
 70
     1
  9
$SHADEDGE
 70
     3
  9
$SHADEDIF
 70
    70
  9
$TILEMODE
 70
     1
  9
$MAXACTVP
 70
    64
  9
$PINSBASE
 10
0.0
 20
0.0
 30
0.0
  9
$PLIMCHECK
 70
     0
  9
$PEXTMIN
 10
0.0
 20
0.0
 30
0.0
  9
$PEXTMAX
 10
0.0
 20
0.0
 30
0.0
  9
$PLIMMIN
 10
0.0
 20
0.0
  9
$PLIMMAX
 10
0.0
 20
0.0
  9
$UNITMODE
 70
     0
  9
$VISRETAIN
 70
     1
  9
$PLINEGEN
 70
     0
  9
$PSLTSCALE
 70
     1
  9
$TREEDEPTH
 70
  3020
  9
$CMLSTYLE
  2
Standard
  9
$CMLJUST
 70
     0
  9
$CMLSCALE
 40
20.0
  9
$PROXYGRAPHICS
 70
     1
  9
$MEASUREMENT
 70
     1
  9
$CELWEIGHT
370
    -1
  9
$ENDCAPS
280
     0
  9
$JOINSTYLE
280
     0
  9
$LWDISPLAY
290
     0
  9
$INSUNITS
 70
     4
  9
$HYPERLINKBASE
  1

  9
$STYLESHEET
  1

  9
$XEDIT
290
     1
  9
$CEPSNTYPE
380
     0
  9
$PSTYLEMODE
290
     1
  9
$FINGERPRINTGUID
  2
{E8513D20-BA67-4435-A9F1-7558659F4FD4}
  9
$VERSIONGUID
  2
{494C7179-71DB-4DCE-97B2-66BD46073B0D}
  9
$EXTNAMES
290
     1
  9
$PSVPSCALE
 40
0.0
  9
$OLESTARTUP
290
     0
  0
ENDSEC
  0
SECTION
  2
CLASSES
  0
CLASS
  1
ACDBDICTIONARYWDFLT
  2
AcDbDictionaryWithDefault
  3
ObjectDBX Classes
 90
        0
280
     0
281
     0
  0
CLASS
  1
ACDBPLACEHOLDER
  2
AcDbPlaceHolder
  3
ObjectDBX Classes
 90
        0
280
     0
281
     0
  0
CLASS
  1
LAYOUT
  2
AcDbLayout
  3
ObjectDBX Classes
 90
        0
280
     0
281
     0
  0
CLASS
  1
DICTIONARYVAR
  2
AcDbDictionaryVar
  3
ObjectDBX Classes
 90
        0
280
     0
281
     0
  0
CLASS
  1
TABLESTYLE
  2
AcDbTableStyle
  3
ObjectDBX Classes
 90
     4095
280
     0
281
     0
  0
CLASS
  1
MATERIAL
  2
AcDbMaterial
  3
ObjectDBX Classes
 90
     1153
280
     0
281
     0
  0
CLASS
  1
VISUALSTYLE
  2
AcDbVisualStyle
  3
ObjectDBX Classes
 90
     4095
280
     0
281
     0
  0
CLASS
  1
SCALE
  2
AcDbScale
  3
ObjectDBX Classes
 90
     1153
280
     0
281
     0
  0
CLASS
  1
MLEADERSTYLE
  2
AcDbMLeaderStyle
  3
ACDB_MLEADERSTYLE_CLASS
 90
     4095
280
     0
281
     0
  0
CLASS
  1
CELLSTYLEMAP
  2
AcDbCellStyleMap
  3
ObjectDBX Classes
 90
     1152
280
     0
281
     0
  0
CLASS
  1
EXACXREFPANELOBJECT
  2
ExAcXREFPanelObject
  3
EXAC_ESW
 90
     1025
280
     1
281
     0
  0
CLASS
  1
NPOCOLLECTION
  2
AcDbImpNonPersistentObjectsCollection
  3
ObjectDBX Classes
 90
     1153
280
     1
281
     0
  0
CLASS
  1
LAYER_INDEX
  2
AcDbLayerIndex
  3
ObjectDBX Classes
 90
        0
280
     0
281
     0
  0
CLASS
  1
SPATIAL_INDEX
  2
AcDbSpatialIndex
  3
AutoCAD 2000
 90
        0
280
     0
281
     0
  0
CLASS
  1
IDBUFFER
  2
AcDbIdBuffer
  3
ObjectDBX Classes
 90
        0
280
     0
281
     0
  0
CLASS
  1
SORTENTSTABLE
  2
AcDbSortentsTable
  3
ObjectDBX Classes
 90
        0
280
     0
281
     0
  0
CLASS
  1
DIMASSOC
  2
AcDbDimAssoc
  3
"AcDbDimAssoc|Product Desc:     AcDim ARX App For Dimension|Company:          Autodesk, Inc.|WEB Address:      www.autodesk.com"
 90
        0
280
     0
281
     0
  0
CLASS
  1
ACDBSECTIONVIEWSTYLE
  2
AcDbSectionViewStyle
  3
ObjectDBX Classes
 90
     1025
280
     0
281
     0
  0
CLASS
  1
ACDBDETAILVIEWSTYLE
  2
AcDbDetailViewStyle
  3
ObjectDBX Classes
 90
     1025
280
     0
281
     0
  0
CLASS
  1
SUN
  2
AcDbSun
  3
SCENEOE
 90
     1153
280
     0
281
     0
  0
ENDSEC
  0
SECTION
  2
TABLES
  0
TABLE
  2
VPORT
  5
8
330
0
100
AcDbSymbolTable
 70
     1
  0
VPORT
  5
EA
330
8
100
AcDbSymbolTableRecord
100
AcDbViewportTableRecord
  2
*Active
 70
     0
 10
0.0
 20
0.0
 11
1.0
 21
1.0
 12
387.5938800566229
 22
798.2783170081311
 13
0.0
 23
0.0
 14
10.0
 24
10.0
 15
10.0
 25
10.0
 16
0.0
 26
-0.150915761580336
 36
0.9885466265718748
 17
0.0
 27
1.686187608486648
 37
-22.21810793927212
 40
1625.047944772122
 41
1.903485254691689
 42
50.0
 43
0.0
 44
0.0
 50
0.0
 51
0.0
 71
    16
 72
  1000
 73
     1
 74
     3
 75
     0
 76
     0
 77
     0
 78
     0
281
     0
 65
     1
110
0.0
120
0.0
130
0.0
111
1.0
121
0.0
131
0.0
112
0.0
122
1.0
132
0.0
 79
     0
146
0.0
1001
ACAD_NAV_VCDISPLAY
1070
     3
  0
ENDTAB
  0
TABLE
  2
LTYPE
  5
5
330
0
100
AcDbSymbolTable
 70
     3
  0
LTYPE
  5
14
330
5
100
AcDbSymbolTableRecord
100
AcDbLinetypeTableRecord
  2
ByBlock
 70
     0
  3

 72
    65
 73
     0
 40
0.0
  0
LTYPE
  5
15
330
5
100
AcDbSymbolTableRecord
100
AcDbLinetypeTableRecord
  2
ByLayer
 70
     0
  3
Solid line
 72
    65
 73
     0
 40
0.0
  0
LTYPE
  5
16
330
5
100
AcDbSymbolTableRecord
100
AcDbLinetypeTableRecord
  2
Continuous
 70
     0
  3
Solid line
 72
    65
 73
     0
 40
0.0
  0
LTYPE
  5
54F
330
5
100
AcDbSymbolTableRecord
100
AcDbLinetypeTableRecord
  2
ACAD_ISO04W100
 70
     0
  3
 ISO trazo largo, punto ____ . ____ . ____ . __
 72
    65
 73
     4
 40
30.5
 49
24.0
 74
     0
 49
-3.0
 74
     0
 49
0.5
 74
     0
 49
-3.0
 74
     0
  0
LTYPE
  5
37AE
330
5
100
AcDbSymbolTableRecord
100
AcDbLinetypeTableRecord
  2
CENTER
 70
     0
  3
____ _ ____ _ ____ _ ____
 72
    65
 73
     4
 40
47.4
 49
22.0
 74
     4
 75
     0
340
0
 46
0.0
 50
0.0
 44
0.0
 45
0.0
 49
-8.5
 74
     4
 75
     0
340
0
 46
0.0
 50
0.0
 44
0.0
 45
0.0
 49
8.5
 74
     4
 75
     0
340
0
 46
0.0
 50
0.0
 44
0.0
 45
0.0
 49
-8.5
 74
     4
 75
     0
340
0
 46
0.0
 50
0.0
 44
0.0
 45
0.0
  0
ENDTAB
  0
TABLE
  2
LAYER
  5
2
102
{ACAD_XDICTIONARY
360
558
102
}
330
0
100
AcDbSymbolTable
 70
     9
  0
LAYER
  5
10
330
2
100
AcDbSymbolTableRecord
100
AcDbLayerTableRecord
  2
0
 70
     0
 62
     7
  6
Continuous
370
    -3
390
F
  0
LAYER
  5
1E5
330
2
100
AcDbSymbolTableRecord
100
AcDbLayerTableRecord
  2
1
 70
     0
 62
     7
  6
Continuous
370
    -3
390
1E6
  0
LAYER
  5
45A
330
2
100
AcDbSymbolTableRecord
100
AcDbLayerTableRecord
  2
Defpoints
 70
     0
 62
     7
  6
Continuous
290
     0
370
    -3
390
F
  0
LAYER
  5
550
330
2
100
AcDbSymbolTableRecord
100
AcDbLayerTableRecord
  2
TEXTO
 70
     0
 62
   251
  6
Continuous
370
    -3
390
F
  0
LAYER
  5
835
330
2
100
AcDbSymbolTableRecord
100
AcDbLayerTableRecord
  2
COTAS
 70
     0
 62
   251
  6
Continuous
370
     9
390
F
1001
AcAecLayerStandard
1000

1000

  0
LAYER
  5
8E4
330
2
100
AcDbSymbolTableRecord
100
AcDbLayerTableRecord
  2
CAJETIN
 70
     0
 62
   253
  6
Continuous
370
    -3
390
F
1001
AcAecLayerStandard
1000

1000

  0
LAYER
  5
211C
330
2
100
AcDbSymbolTableRecord
100
AcDbLayerTableRecord
  2
Capa 1
 70
     0
 62
     7
  6
Continuous
370
    -3
390
F
  0
LAYER
  5
2B29
330
2
100
AcDbSymbolTableRecord
100
AcDbLayerTableRecord
  2
PIEZA
 70
     0
 62
   255
  6
Continuous
370
    -3
390
F
1001
AcAecLayerStandard
1000

1000

  0
LAYER
  5
37AF
330
2
100
AcDbSymbolTableRecord
100
AcDbLayerTableRecord
  2
TOP
 70
     0
 62
     7
  6
Continuous
370
    -3
390
F
  0
ENDTAB
  0
TABLE
  2
STYLE
  5
3
330
0
100
AcDbSymbolTable
 70
     6
  0
STYLE
  5
11
330
3
100
AcDbSymbolTableRecord
100
AcDbTextStyleTableRecord
  2
Standard
 70
     0
 40
0.0
 41
1.0
 50
0.0
 71
     0
 42
2.5
  3
arial.ttf
  4

1001
ACAD
1000
Arial
1071
       34
  0
STYLE
  5
132
330
3
100
AcDbSymbolTableRecord
100
AcDbTextStyleTableRecord
  2
Anotativo
 70
     0
 40
0.0
 41
1.0
 50
0.0
 71
     0
 42
2.5
  3
arial.ttf
  4

1001
AcadAnnotative
1000
AnnotativeData
1002
{
1070
     1
1070
     1
1002
}
1001
ACAD
1000
Arial
1071
       34
  0
STYLE
  5
552
330
3
100
AcDbSymbolTableRecord
100
AcDbTextStyleTableRecord
  2
ISOV
 70
     0
 40
0.0
 41
1.0
 50
0.0
 71
     0
 42
2.5
  3
isocp.shx
  4

  0
STYLE
  5
4618
330
3
100
AcDbSymbolTableRecord
100
AcDbTextStyleTableRecord
  2
iso-1
 70
     0
 40
0.0
 41
1.0
 50
0.0
 71
     0
 42
2.5
  3
isocp.shx
  4

  0
STYLE
  5
A1EB
330
3
100
AcDbSymbolTableRecord
100
AcDbTextStyleTableRecord
  2
COTAS
 70
     0
 40
2.0
 41
1.0
 50
0.0
 71
     0
 42
2.5
  3
romans.shx
  4

  0
STYLE
  5
A251
330
3
100
AcDbSymbolTableRecord
100
AcDbTextStyleTableRecord
  2
SLDTEXTSTYLE0
 70
     0
 40
0.0
 41
0.605
 50
0.0
 71
     0
 42
2.5
  3
TXT
  4

  0
ENDTAB
  0
TABLE
  2
VIEW
  5
6
330
0
100
AcDbSymbolTable
 70
     0
  0
ENDTAB
  0
TABLE
  2
UCS
  5
7
330
0
100
AcDbSymbolTable
 70
     0
  0
ENDTAB
  0
TABLE
  2
APPID
  5
9
330
0
100
AcDbSymbolTable
 70
    15
  0
APPID
  5
12
330
9
100
AcDbSymbolTableRecord
100
AcDbRegAppTableRecord
  2
ACAD
 70
     0
  0
APPID
  5
9E
330
9
100
AcDbSymbolTableRecord
100
AcDbRegAppTableRecord
  2
ACAD_PSEXT
 70
     0
  0
APPID
  5
133
330
9
100
AcDbSymbolTableRecord
100
AcDbRegAppTableRecord
  2
AcadAnnoPO
 70
     0
  0
APPID
  5
134
330
9
100
AcDbSymbolTableRecord
100
AcDbRegAppTableRecord
  2
AcadAnnotative
 70
     0
  0
APPID
  5
135
330
9
100
AcDbSymbolTableRecord
100
AcDbRegAppTableRecord
  2
ACAD_DSTYLE_DIMJAG
 70
     0
  0
APPID
  5
136
330
9
100
AcDbSymbolTableRecord
100
AcDbRegAppTableRecord
  2
ACAD_DSTYLE_DIMTALN
 70
     0
  0
APPID
  5
165
330
9
100
AcDbSymbolTableRecord
100
AcDbRegAppTableRecord
  2
ACAD_MLEADERVER
 70
     0
  0
APPID
  5
454
330
9
100
AcDbSymbolTableRecord
100
AcDbRegAppTableRecord
  2
ACAD_EXEMPT_FROM_CAD_STANDARDS
 70
     0
  0
APPID
  5
472
330
9
100
AcDbSymbolTableRecord
100
AcDbRegAppTableRecord
  2
ACAD_DSTYLE_DIMRADIAL_EXTENSION
 70
     0
  0
APPID
  5
836
330
9
100
AcDbSymbolTableRecord
100
AcDbRegAppTableRecord
  2
AcAecLayerStandard
 70
     0
  0
APPID
  5
2D5E
330
9
100
AcDbSymbolTableRecord
100
AcDbRegAppTableRecord
  2
ACAD_NAV_VCDISPLAY
 70
     0
  0
APPID
  5
45E6
330
9
100
AcDbSymbolTableRecord
100
AcDbRegAppTableRecord
  2
AcadAnnoMonitorAlertIconDisabled
 70
     0
  0
APPID
  5
55FC
330
9
100
AcDbSymbolTableRecord
100
AcDbRegAppTableRecord
  2
GradientColor1ACI
 70
     0
  0
APPID
  5
55FD
330
9
100
AcDbSymbolTableRecord
100
AcDbRegAppTableRecord
  2
GradientColor2ACI
 70
     0
  0
APPID
  5
A2D9
330
9
100
AcDbSymbolTableRecord
100
AcDbRegAppTableRecord
  2
HATCHBACKGROUNDCOLOR
 70
     0
  0
ENDTAB
  0
TABLE
  2
DIMSTYLE
  5
A
330
0
100
AcDbSymbolTable
 70
    12
100
AcDbDimStyleTable
  0
DIMSTYLE
105
1B0
330
A
100
AcDbSymbolTableRecord
100
AcDbDimStyleTableRecord
  2
Standard
 70
     0
178
     0
340
11
  0
DIMSTYLE
105
137
330
A
100
AcDbSymbolTableRecord
100
AcDbDimStyleTableRecord
  2
Anotativo
 70
     0
 40
0.0
 41
2.5
 42
0.625
 43
3.75
 44
1.25
 73
     0
 74
     0
 77
     1
 78
     8
140
2.5
141
2.5
143
0.03937007874016
147
0.625
171
     3
172
     1
178
     0
271
     2
272
     2
274
     3
278
    44
283
     0
284
     8
340
11
1001
AcadAnnotative
1000
AnnotativeData
1002
{
1070
     1
1070
     1
1002
}
1001
ACAD_DSTYLE_DIMJAG
1070
   388
1040
1.5
1001
ACAD_DSTYLE_DIMTALN
1070
   392
1070
     0
  0
DIMSTYLE
105
27
102
{ACAD_REACTORS
330
9D4F
330
9D5E
330
A20A
330
A20D
330
A212
330
A23A
330
A2AA
330
A2AD
330
A2B0
102
}
330
A
100
AcDbSymbolTableRecord
100
AcDbDimStyleTableRecord
  2
ISO-25
 70
     0
 41
5.0
 42
0.625
 43
3.75
 44
1.25
 73
     0
 74
     0
 77
     1
 78
     8
140
10.0
141
2.5
143
0.03937007874016
147
2.0
171
     3
172
     1
178
     0
271
     0
272
     0
274
     3
278
    44
283
     0
284
     8
340
11
1001
ACAD_DSTYLE_DIMJAG
1070
   388
1040
1.5
1001
ACAD_DSTYLE_DIMTALN
1070
   392
1070
     0
  0
DIMSTYLE
105
553
330
A
100
AcDbSymbolTableRecord
100
AcDbDimStyleTableRecord
  2
1_4
 70
     0
 41
2.5
 42
0.0
 43
7.0
 44
1.5
 73
     0
 74
     0
 77
     1
 78
     9
 79
     3
140
2.5
141
1.5
143
0.0394
144
4.0
147
1.0
171
     4
172
     1
178
     0
179
     2
271
     1
272
     1
273
     8
274
     4
278
    44
284
     9
288
     1
289
     1
340
552
  0
DIMSTYLE
105
554
330
A
100
AcDbSymbolTableRecord
100
AcDbDimStyleTableRecord
  2
1_2
 70
     0
 41
2.5
 42
0.0
 43
7.0
 44
1.5
 73
     0
 74
     0
 77
     1
 78
     9
 79
     3
140
2.5
141
1.5
143
0.0394
144
2.0
147
1.0
171
     4
172
     1
178
     0
179
     2
271
     1
272
     1
273
     8
274
     4
278
    44
284
     9
288
     1
289
     1
340
552
  0
DIMSTYLE
105
555
330
A
100
AcDbSymbolTableRecord
100
AcDbDimStyleTableRecord
  2
2_1
 70
     0
 41
2.5
 42
0.0
 43
7.0
 44
1.5
 73
     0
 74
     0
 77
     1
 78
     9
 79
     3
140
2.5
141
1.5
143
0.0394
144
0.5
147
1.0
171
     4
172
     1
178
     0
179
     2
271
     1
272
     1
273
     8
274
     4
278
    44
284
     9
288
     1
289
     1
340
552
  0
DIMSTYLE
105
556
330
A
100
AcDbSymbolTableRecord
100
AcDbDimStyleTableRecord
  2
5_1
 70
     0
 41
2.5
 42
0.0
 43
3.75
 44
1.25
 73
     0
 74
     0
 77
     1
 78
     8
140
2.5
141
2.5
143
0.03937007874016
144
0.2
147
0.625
171
     3
172
     1
178
     0
271
     2
272
     2
274
     3
278
    44
283
     0
284
     8
340
552
  0
DIMSTYLE
105
557
330
A
100
AcDbSymbolTableRecord
100
AcDbDimStyleTableRecord
  2
3_1
 70
     0
 41
2.5
 42
0.0
 43
3.75
 44
1.25
 73
     0
 74
     0
 77
     1
 78
     8
140
2.5
141
2.5
143
0.03937007874016
144
0.333333333
147
0.625
171
     3
172
     1
178
     0
271
     2
272
     2
274
     3
278
    44
283
     0
284
     8
340
552
  0
DIMSTYLE
105
A1EA
330
A
100
AcDbSymbolTableRecord
100
AcDbDimStyleTableRecord
  2
ANSI
 70
     0
 77
     1
140
0.125
141
0.18
171
     1
178
     0
340
A1EB
  0
DIMSTYLE
105
A1EC
330
A
100
AcDbSymbolTableRecord
100
AcDbDimStyleTableRecord
  2
SLDDIMSTYLE0
 70
     0
 41
3.302
 44
0.0
 45
0.000000001
 73
     0
 74
     0
 77
     1
 78
    12
140
8.0
147
2.0
173
     1
178
     0
340
A1EB
341
A1ED
343
A1ED
344
A1ED
  0
DIMSTYLE
105
A24F
330
A
100
AcDbSymbolTableRecord
100
AcDbDimStyleTableRecord
  2
ANNOTATIVE
 70
     0
 40
0.0
 41
2.5
 42
0.625
 43
3.75
 44
1.25
 73
     0
 74
     0
 77
     1
 78
     8
140
2.5
141
-2.5
143
0.03937007874016
147
0.625
171
     3
172
     1
178
     0
340
11
  0
DIMSTYLE
105
A250
330
A
100
AcDbSymbolTableRecord
100
AcDbDimStyleTableRecord
  2
SLDDIMSTYLE1
 70
     0
 41
2.8
 44
0.0
 45
0.000000001
 73
     0
 74
     0
 77
     1
 78
    12
 79
     3
140
2.31148681640625
147
0.5778717041015625
173
     1
178
     0
271
     0
272
     2
276
     2
284
    12
340
A251
  0
ENDTAB
  0
TABLE
  2
BLOCK_RECORD
  5
1
330
0
100
AcDbSymbolTable
 70
    13
  0
BLOCK_RECORD
  5
1F
102
{ACAD_XDICTIONARY
360
1CE
102
}
330
1
100
AcDbSymbolTableRecord
100
AcDbBlockTableRecord
  2
*Model_Space
340
22
  0
BLOCK_RECORD
  5
D2
330
1
100
AcDbSymbolTableRecord
100
AcDbBlockTableRecord
  2
*Paper_Space
340
D3
  0
BLOCK_RECORD
  5
D6
330
1
100
AcDbSymbolTableRecord
100
AcDbBlockTableRecord
  2
*Paper_Space0
340
D7
  0
BLOCK_RECORD
  5
20E4
102
{ACAD_XDICTIONARY
360
20E6
102
}
330
1
100
AcDbSymbolTableRecord
100
AcDbBlockTableRecord
  2
A$C71A14535
340
0
  0
BLOCK_RECORD
  5
460F
330
1
100
AcDbSymbolTableRecord
100
AcDbBlockTableRecord
  2
DimnDraft3D1
340
0
  0
BLOCK_RECORD
  5
6B8B
330
1
100
AcDbSymbolTableRecord
100
AcDbBlockTableRecord
  2
DimnDraft3D2
340
0
  0
BLOCK_RECORD
  5
6B94
330
1
100
AcDbSymbolTableRecord
100
AcDbBlockTableRecord
  2
DimnDraft3D3
340
0
  0
BLOCK_RECORD
  5
6B9B
330
1
100
AcDbSymbolTableRecord
100
AcDbBlockTableRecord
  2
DimnDraft3D4
340
0
  0
BLOCK_RECORD
  5
86FF
102
{ACAD_XDICTIONARY
360
872E
102
}
330
1
100
AcDbSymbolTableRecord
100
AcDbBlockTableRecord
  2
A$C13222
340
0
102
{BLKREFS
331
8826
102
}
  0
BLOCK_RECORD
  5
9D52
330
1
100
AcDbSymbolTableRecord
100
AcDbBlockTableRecord
  2
*D19
340
0
  0
BLOCK_RECORD
  5
9D61
330
1
100
AcDbSymbolTableRecord
100
AcDbBlockTableRecord
  2
*D20
340
0
  0
BLOCK_RECORD
  5
A1ED
330
1
100
AcDbSymbolTableRecord
100
AcDbBlockTableRecord
  2
_NONE
340
0
  0
BLOCK_RECORD
  5
A2B3
330
1
100
AcDbSymbolTableRecord
100
AcDbBlockTableRecord
  2
*D28
340
0
  0
BLOCK_RECORD
  5
A2BF
330
1
100
AcDbSymbolTableRecord
100
AcDbBlockTableRecord
  2
*D29
340
0
  0
BLOCK_RECORD
  5
A2CB
330
1
100
AcDbSymbolTableRecord
100
AcDbBlockTableRecord
  2
*D30
340
0
  0
ENDTAB
  0
ENDSEC
  0
SECTION
  2
BLOCKS
  0
BLOCK
  5
20
330
1F
100
AcDbEntity
  8
0
100
AcDbBlockBegin
  2
*Model_Space
 70
     0
 10
0.0
 20
0.0
 30
0.0
  3
*Model_Space
  1

  0
ENDBLK
  5
21
330
1F
100
AcDbEntity
  8
0
100
AcDbBlockEnd
  0
BLOCK
  5
D4
330
D2
100
AcDbEntity
 67
     1
  8
0
100
AcDbBlockBegin
  2
*Paper_Space
 70
     0
 10
0.0
 20
0.0
 30
0.0
  3
*Paper_Space
  1

  0
ENDBLK
  5
D5
330
D2
100
AcDbEntity
 67
     1
  8
0
100
AcDbBlockEnd
  0
BLOCK
  5
D8
330
D6
100
AcDbEntity
  8
0
100
AcDbBlockBegin
  2
*Paper_Space0
 70
     0
 10
0.0
 20
0.0
 30
0.0
  3
*Paper_Space0
  1

  0
ENDBLK
  5
D9
330
D6
100
AcDbEntity
  8
0
100
AcDbBlockEnd
  0
BLOCK
  5
20E8
330
20E4
100
AcDbEntity
  8
0
100
AcDbBlockBegin
  2
A$C71A14535
 70
     0
 10
0.0
 20
0.0
 30
0.0
  3
A$C71A14535
  1

  0
LINE
  5
20E5
330
20E4
100
AcDbEntity
  8
COTAS
100
AcDbLine
 10
0.0
 20
0.0
 30
0.0
 11
85.13699798772859
 21
0.0
 31
0.0
  0
ENDBLK
  5
20E9
330
20E4
100
AcDbEntity
  8
0
100
AcDbBlockEnd
  0
BLOCK
  5
4610
330
460F
100
AcDbEntity
  8
0
100
AcDbBlockBegin
  2
DimnDraft3D1
 70
     0
 10
0.0
 20
0.0
 30
0.0
  3
DimnDraft3D1
  1

  0
MTEXT
  5
4611
330
460F
100
AcDbEntity
  8
TOP
  6
Continuous
 62
     3
100
AcDbMText
 10
654.5576534498832
 20
161.676263695322
 30
0.0
 40
2.5
 41
3.815921052631579
 71
     7
 72
     5
  1
\W01.000;\fisocp.shx,bigfont.shx;140\P
  7
iso-1
 11
6.123031769111886E-17
 21
1.0
 31
0.0
 73
     2
 44
0.9638554216867471
  0
LINE
  5
4612
330
460F
100
AcDbEntity
  8
TOP
  6
Continuous
 62
    35
100
AcDbLine
 10
616.6664372021662
 20
93.02172422163784
 30
0.0
 11
656.9655481867253
 21
93.02172422163784
 31
0.0
  0
LINE
  5
4613
330
460F
100
AcDbEntity
  8
TOP
  6
Continuous
 62
    35
100
AcDbLine
 10
616.6664372021662
 20
233.0217242216378
 30
0.0
 11
656.9655481867253
 21
233.0217242216378
 31
0.0
  0
LINE
  5
4614
330
460F
100
AcDbEntity
  8
TOP
  6
Continuous
 62
    35
100
AcDbLine
 10
654.9655481867253
 20
93.02172422163784
 30
0.0
 11
654.9655481867253
 21
233.0217242216378
 31
0.0
  0
SOLID
  5
4615
330
460F
100
AcDbEntity
  8
TOP
  6
Continuous
 62
    35
100
AcDbTrace
 10
654.9655481867253
 20
93.02172422163784
 30
0.0
 11
654.4113115301217
 21
95.52172218581292
 31
0.0
 12
655.5197848433289
 22
95.52172625746276
 32
0.0
 13
654.9655481867253
 23
93.02172422163784
 33
0.0
  0
SOLID
  5
4616
330
460F
100
AcDbEntity
  8
TOP
  6
Continuous
 62
    35
100
AcDbTrace
 10
654.9655481867253
 20
233.0217242216378
 30
0.0
 11
655.5197848433289
 21
230.5217262574627
 31
0.0
 12
654.4113115301217
 22
230.5217221858129
 32
0.0
 13
654.9655481867253
 23
233.0217242216378
 33
0.0
  0
ENDBLK
  5
4617
330
460F
100
AcDbEntity
  8
0
100
AcDbBlockEnd
  0
BLOCK
  5
6B8C
330
6B8B
100
AcDbEntity
  8
0
100
AcDbBlockBegin
  2
DimnDraft3D2
 70
     0
 10
0.0
 20
0.0
 30
0.0
  3
DimnDraft3D2
  1

  0
MTEXT
  5
6B8D
330
6B8B
100
AcDbEntity
  8
TOP
  6
Continuous
 62
    35
100
AcDbMText
 10
71.75295126248815
 20
71.07296007207314
 30
0.0
 40
2.5
 41
5.830921052631578
 71
     7
 72
     5
  1
\W01.000;\fisocp.shx,bigfont.shx;100,2\P
  7
iso-1
 11
6.123031769111886E-17
 21
1.0
 31
0.0
 73
     2
 44
0.9638554216867471
  0
LINE
  5
6B8E
330
6B8B
100
AcDbEntity
  8
TOP
  6
Continuous
 62
    35
100
AcDbLine
 10
84.82152429345808
 20
123.5259205983889
 30
0.0
 11
70.16084599933026
 21
123.5259205983889
 31
0.0
  0
LINE
  5
6B8F
330
6B8B
100
AcDbEntity
  8
TOP
  6
Continuous
 62
    35
100
AcDbLine
 10
103.5705242934568
 20
23.32592059838892
 30
0.0
 11
70.16084599933026
 21
23.32592059838892
 31
0.0
  0
LINE
  5
6B90
330
6B8B
100
AcDbEntity
  8
TOP
  6
Continuous
 62
    35
100
AcDbLine
 10
72.16084599933026
 20
123.5259205983889
 30
0.0
 11
72.16084599933026
 21
23.32592059838892
 31
0.0
  0
SOLID
  5
6B91
330
6B8B
100
AcDbEntity
  8
TOP
  6
Continuous
 62
    35
100
AcDbTrace
 10
72.16084599933026
 20
123.5259205983889
 30
0.0
 11
72.71508265593387
 21
121.0259226342139
 31
0.0
 12
71.60660934272666
 22
121.025918562564
 32
0.0
 13
72.16084599933026
 23
123.5259205983889
 33
0.0
  0
SOLID
  5
6B92
330
6B8B
100
AcDbEntity
  8
TOP
  6
Continuous
 62
    35
100
AcDbTrace
 10
72.16084599933026
 20
23.32592059838892
 30
0.0
 11
71.60660934272666
 21
25.825918562564
 31
0.0
 12
72.71508265593387
 22
25.82592263421384
 32
0.0
 13
72.16084599933026
 23
23.32592059838892
 33
0.0
  0
ENDBLK
  5
6B93
330
6B8B
100
AcDbEntity
  8
0
100
AcDbBlockEnd
  0
BLOCK
  5
6B95
330
6B94
100
AcDbEntity
  8
0
100
AcDbBlockBegin
  2
DimnDraft3D3
 70
     0
 10
0.0
 20
0.0
 30
0.0
  3
DimnDraft3D3
  1

  0
MTEXT
  5
6B96
330
6B94
100
AcDbEntity
  8
TOP
  6
Continuous
 62
    35
100
AcDbMText
 10
129.2658426477495
 20
194.3972782593077
 30
0.0
 40
2.5
 41
2.737368421052631
 71
     7
 72
     5
  1
\W01.000;\fisocp.shx,bigfont.shx;40\P
  7
iso-1
 11
0.7212242965618479
 21
0.6927016053459584
 31
0.0
 73
     2
 44
0.9638554216867471
  0
MTEXT
  5
6B97
330
6B94
100
AcDbEntity
  8
TOP
  6
Continuous
 62
    35
100
AcDbMText
 10
124.758190794238
 20
190.0678932258955
 30
0.0
 40
2.5
 41
5.0
 71
     7
 72
     5
  1
\W01.000;\fisocp.shx,bigfont.shx;%%c\P
  7
iso-1
 11
0.7212242965618479
 21
0.6927016053459584
 31
0.0
 73
     2
 44
0.9638554216867471
  0
LINE
  5
6B98
330
6B94
100
AcDbEntity
  8
TOP
  6
Continuous
 62
    35
100
AcDbLine
 10
117.9960102246938
 20
182.1409998859754
 30
0.0
 11
131.5498984372017
 21
195.1588643259857
 31
0.0
  0
SOLID
  5
6B99
330
6B94
100
AcDbEntity
  8
TOP
  6
Continuous
 62
    35
100
AcDbTrace
 10
117.9960102246938
 20
182.1409998859754
 30
0.0
 11
119.4151488760411
 21
184.2724814319089
 31
0.0
 12
120.1829930561557
 22
183.4730263667718
 32
0.0
 13
117.9960102246938
 23
182.1409998859754
 33
0.0
  0
ENDBLK
  5
6B9A
330
6B94
100
AcDbEntity
  8
0
100
AcDbBlockEnd
  0
BLOCK
  5
6B9C
330
6B9B
100
AcDbEntity
  8
0
100
AcDbBlockBegin
  2
DimnDraft3D4
 70
     0
 10
0.0
 20
0.0
 30
0.0
  3
DimnDraft3D4
  1

  0
MTEXT
  5
6B9D
330
6B9B
100
AcDbEntity
  8
TOP
  6
Continuous
 62
    35
100
AcDbMText
 10
202.6639915756349
 20
193.1796479911959
 30
0.0
 40
2.5
 41
2.737368421052631
 71
     7
 72
     5
  1
\W01.000;\fisocp.shx,bigfont.shx;40\P
  7
iso-1
 11
0.7165782323128439
 21
0.6975067289821654
 31
0.0
 73
     2
 44
0.9638554216867471
  0
MTEXT
  5
6B9E
330
6B9B
100
AcDbEntity
  8
TOP
  6
Continuous
 62
    35
100
AcDbMText
 10
198.1853776236796
 20
188.8202309350574
 30
0.0
 40
2.5
 41
5.0
 71
     7
 72
     5
  1
\W01.000;\fisocp.shx,bigfont.shx;%%c\P
  7
iso-1
 11
0.7165782323128439
 21
0.6975067289821654
 31
0.0
 73
     2
 44
0.9638554216867471
  0
LINE
  5
6B9F
330
6B9B
100
AcDbEntity
  8
TOP
  6
Continuous
 62
    35
100
AcDbLine
 10
192.9030889397137
 20
182.2371023586996
 30
0.0
 11
204.9429059735834
 21
193.9564834648394
 31
0.0
  0
SOLID
  5
6BA0
330
6B9B
100
AcDbEntity
  8
TOP
  6
Continuous
 62
    35
100
AcDbTrace
 10
192.9030889397137
 20
182.2371023586996
 30
0.0
 11
194.3079492642384
 21
184.3780216848254
 31
0.0
 12
195.0811197767532
 22
183.5837166774846
 32
0.0
 13
192.9030889397137
 23
182.2371023586996
 33
0.0
  0
ENDBLK
  5
6BA1
330
6B9B
100
AcDbEntity
  8
0
100
AcDbBlockEnd
  0
BLOCK
  5
8824
330
86FF
100
AcDbEntity
  8
0
100
AcDbBlockBegin
  2
A$C13222
 70
     0
 10
0.0
 20
0.0
 30
0.0
  3
A$C13222
  1

  0
HATCH
  5
8730
330
86FF
100
AcDbEntity
  8
COTAS
 62
     9
100
AcDbHatch
 10
0.0
 20
0.0
 30
0.0
210
0.0
220
0.0
230
1.0
  2
SOLID
 70
     1
 71
     1
 91
        1
 92
        1
 93
       25
 72
     4
 94
        3
 73
     0
 74
     0
 95
        8
 96
        4
 40
17.0
 40
17.0
 40
17.0
 40
17.0
 40
18.0
 40
18.0
 40
18.0
 40
18.0
 10
26.13876434474736
 20
0.2008108667712492
 10
26.13876434474736
 20
0.2008108667712492
 10
21.92536719341632
 20
3.037626844614074
 10
21.92536719341632
 20
3.037626844614074
 72
     4
 94
        3
 73
     0
 74
     0
 95
        8
 96
        4
 40
18.0
 40
18.0
 40
18.0
 40
18.0
 40
19.0
 40
19.0
 40
19.0
 40
19.0
 10
21.92536719341632
 20
3.037626844614074
 10
21.84988615994354
 20
3.088597136039553
 10
21.71370564078194
 20
3.130228959421075
 10
21.62265938072932
 20
3.130228959421075
 72
     4
 94
        3
 73
     0
 74
     0
 95
        8
 96
        4
 40
19.0
 40
19.0
 40
19.0
 40
19.0
 40
20.0
 40
20.0
 40
20.0
 40
20.0
 10
21.62265938072932
 20
3.130228959421075
 10
21.62265938072932
 20
3.130228959421075
 10
20.85577475230303
 20
3.130228959421075
 10
20.85577475230303
 20
3.130228959421075
 72
     4
 94
        3
 73
     0
 74
     0
 95
        8
 96
        4
 40
20.0
 40
20.0
 40
20.0
 40
20.0
 40
21.0
 40
21.0
 40
21.0
 40
21.0
 10
20.85577475230303
 20
3.130228959421075
 10
20.76433962132563
 20
3.130228959421075
 10
20.69002371638288
 20
3.055913796599135
 10
20.69002371638288
 20
2.964867907602837
 72
     4
 94
        3
 73
     0
 74
     0
 95
        8
 96
        4
 40
21.0
 40
21.0
 40
21.0
 40
21.0
 40
22.0
 40
22.0
 40
22.0
 40
22.0
 10
20.69002371638288
 20
2.964867907602837
 10
20.69002371638288
 20
2.964867907602837
 10
20.69002371638288
 20
0.273569803783964
 10
20.69002371638288
 20
0.273569803783964
 72
     4
 94
        3
 73
     0
 74
     0
 95
        8
 96
        4
 40
22.0
 40
22.0
 40
22.0
 40
22.0
 40
23.0
 40
23.0
 40
23.0
 40
23.0
 10
20.69002371638288
 20
0.273569803783964
 10
20.69002371638288
 20
0.1825235437274877
 10
20.61570929567364
 20
0.1082083809041805
 10
20.524663035625
 20
0.1082083809041805
 72
     4
 94
        3
 73
     0
 74
     0
 95
        8
 96
        4
 40
23.0
 40
23.0
 40
23.0
 40
23.0
 40
24.0
 40
24.0
 40
24.0
 40
24.0
 10
20.524663035625
 20
0.1082083809041805
 10
20.524663035625
 20
0.1082083809041805
 10
19.83753998929143
 20
0.1082083809041805
 10
19.83753998929143
 20
0.1082083809041805
 72
     4
 94
        3
 73
     0
 74
     0
 95
       11
 96
        7
 40
24.0
 40
24.0
 40
24.0
 40
24.0
 40
25.0
 40
25.0
 40
25.0
 40
26.0
 40
26.0
 40
26.0
 40
26.0
 10
19.83753998929143
 20
0.1082083809041805
 10
19.74649372924267
 20
0.1082083809041805
 10
19.67217930853707
 20
0.1825235437274877
 10
19.67217930853707
 20
0.273569803783964
 10
19.67217930853707
 20
0.273569803783964
 10
19.67217930853707
 20
6.756108937500585
 10
19.67217930853707
 20
6.756108937500585
 72
     4
 94
        3
 73
     0
 74
     0
 95
        8
 96
        4
 40
0.0
 40
0.0
 40
0.0
 40
0.0
 40
1.0
 40
1.0
 40
1.0
 40
1.0
 10
19.67217930853707
 20
6.756108937500585
 10
19.67217930853707
 20
6.847154455436097
 10
19.74649372924267
 20
6.92146961825884
 10
19.83753998929143
 20
6.92146961825884
 72
     4
 94
        3
 73
     0
 74
     0
 95
        8
 96
        4
 40
1.0
 40
1.0
 40
1.0
 40
1.0
 40
2.0
 40
2.0
 40
2.0
 40
2.0
 10
19.83753998929143
 20
6.92146961825884
 10
19.83753998929143
 20
6.92146961825884
 10
20.524663035625
 20
6.92146961825884
 10
20.524663035625
 20
6.92146961825884
 72
     4
 94
        3
 73
     0
 74
     0
 95
        8
 96
        4
 40
2.0
 40
2.0
 40
2.0
 40
2.0
 40
3.0
 40
3.0
 40
3.0
 40
3.0
 10
20.524663035625
 20
6.92146961825884
 10
20.61570929567364
 20
6.92146961825884
 10
20.69002371638288
 20
6.847154455436097
 10
20.69002371638288
 20
6.756108937500585
 72
     4
 94
        3
 73
     0
 74
     0
 95
        8
 96
        4
 40
3.0
 40
3.0
 40
3.0
 40
3.0
 40
4.0
 40
4.0
 40
4.0
 40
4.0
 10
20.69002371638288
 20
6.756108937500585
 10
20.69002371638288
 20
6.756108937500585
 10
20.69002371638288
 20
4.213829659188804
 10
20.69002371638288
 20
4.213829659188804
 72
     4
 94
        3
 73
     0
 74
     0
 95
        8
 96
        4
 40
4.0
 40
4.0
 40
4.0
 40
4.0
 40
5.0
 40
5.0
 40
5.0
 40
5.0
 10
20.69002371638288
 20
4.213829659188804
 10
20.69002371638288
 20
4.122783770193834
 10
20.76433962132563
 20
4.048079736447818
 10
20.85577475230303
 20
4.048079736447818
 72
     4
 94
        3
 73
     0
 74
     0
 95
        8
 96
        4
 40
5.0
 40
5.0
 40
5.0
 40
5.0
 40
6.0
 40
6.0
 40
6.0
 40
6.0
 10
20.85577475230303
 20
4.048079736447818
 10
20.85577475230303
 20
4.048079736447818
 10
21.52305499189657
 20
4.048079736447818
 10
21.52305499189657
 20
4.048079736447818
 72
     4
 94
        3
 73
     0
 74
     0
 95
        8
 96
        4
 40
6.0
 40
6.0
 40
6.0
 40
6.0
 40
7.0
 40
7.0
 40
7.0
 40
7.0
 10
21.52305499189657
 20
4.048079736447818
 10
21.61409976771182
 20
4.048079736447818
 10
21.7506691577907
 20
4.088933446924187
 10
21.8269294173511
 20
4.138736383461584
 72
     4
 94
        3
 73
     0
 74
     0
 95
        8
 96
        4
 40
7.0
 40
7.0
 40
7.0
 40
7.0
 40
8.0
 40
8.0
 40
8.0
 40
8.0
 10
21.8269294173511
 20
4.138736383461584
 10
21.8269294173511
 20
4.138736383461584
 10
25.95745253495926
 20
6.83120184216834
 10
25.95745253495926
 20
6.83120184216834
 72
     4
 94
        3
 73
     0
 74
     0
 95
        8
 96
        4
 40
8.0
 40
8.0
 40
8.0
 40
8.0
 40
9.0
 40
9.0
 40
9.0
 40
9.0
 10
25.95745253495926
 20
6.83120184216834
 10
26.03371279451579
 20
6.881004778705339
 10
26.17028070036127
 20
6.92146961825884
 10
26.26132696041765
 20
6.92146961825884
 72
     4
 94
        3
 73
     0
 74
     0
 95
        8
 96
        4
 40
9.0
 40
9.0
 40
9.0
 40
9.0
 40
10.0
 40
10.0
 40
10.0
 40
10.0
 10
26.26132696041765
 20
6.92146961825884
 10
26.26132696041765
 20
6.92146961825884
 10
27.70560840938441
 20
6.92146961825884
 10
27.70560840938441
 20
6.92146961825884
 72
     4
 94
        3
 73
     0
 74
     0
 95
        8
 96
        4
 40
10.0
 40
10.0
 40
10.0
 40
10.0
 40
11.0
 40
11.0
 40
11.0
 40
11.0
 10
27.70560840938441
 20
6.92146961825884
 10
27.79665466943726
 20
6.92146961825884
 10
27.80871560499844
 20
6.880615907782833
 10
27.73284421636316
 20
6.830812971246033
 72
     4
 94
        3
 73
     0
 74
     0
 95
        8
 96
        4
 40
11.0
 40
11.0
 40
11.0
 40
11.0
 40
12.0
 40
12.0
 40
12.0
 40
12.0
 10
27.73284421636316
 20
6.830812971246033
 10
27.73284421636316
 20
6.830812971246033
 10
22.96383511831965
 20
3.700626906638753
 10
22.96383511831965
 20
3.700626906638753
 72
     4
 94
        3
 73
     0
 74
     0
 95
        8
 96
        4
 40
12.0
 40
12.0
 40
12.0
 40
12.0
 40
13.0
 40
13.0
 40
13.0
 40
13.0
 10
22.96383511831965
 20
3.700626906638753
 10
22.88796372968403
 20
3.650824341162021
 10
22.88718450360051
 20
3.568338436244467
 10
22.96266702131055
 20
3.517368144818988
 72
     4
 94
        3
 73
     0
 74
     0
 95
        8
 96
        4
 40
13.0
 40
13.0
 40
13.0
 40
13.0
 40
14.0
 40
14.0
 40
14.0
 40
14.0
 10
22.96266702131055
 20
3.517368144818988
 10
22.96266702131055
 20
3.517368144818988
 10
27.86552341298483
 20
0.2008108667712492
 10
27.86552341298483
 20
0.2008108667712492
 72
     4
 94
        3
 73
     0
 74
     0
 95
        8
 96
        4
 40
14.0
 40
14.0
 40
14.0
 40
14.0
 40
15.0
 40
15.0
 40
15.0
 40
15.0
 10
27.86552341298483
 20
0.2008108667712492
 10
27.94100593069544
 20
0.1498405753473335
 10
27.92816428480506
 20
0.1082083809041805
 10
27.83712099323117
 20
0.1082083809041805
 72
     4
 94
        3
 73
     0
 74
     0
 95
        8
 96
        4
 40
15.0
 40
15.0
 40
15.0
 40
15.0
 40
16.0
 40
16.0
 40
16.0
 40
16.0
 10
27.83712099323117
 20
0.1082083809041805
 10
27.83712099323117
 20
0.1082083809041805
 10
26.4414721574347
 20
0.1082083809041805
 10
26.4414721574347
 20
0.1082083809041805
 72
     4
 94
        3
 73
     0
 74
     0
 95
        8
 96
        4
 40
16.0
 40
16.0
 40
16.0
 40
16.0
 40
17.0
 40
17.0
 40
17.0
 40
17.0
 10
26.4414721574347
 20
0.1082083809041805
 10
26.35042589737787
 20
0.1082083809041805
 10
26.21424686245786
 20
0.1498405753473335
 10
26.13876434474736
 20
0.2008108667712492
 97
       25
330
8742
330
8743
330
8744
330
8745
330
8746
330
8747
330
8748
330
8749
330
8731
330
8732
330
8733
330
8734
330
8735
330
8736
330
8737
330
8738
330
8739
330
873A
330
873B
330
873C
330
873D
330
873E
330
873F
330
8740
330
8741
 75
     1
 76
     1
 98
        1
 10
-349.6033406415021
 20
-2.919596279967777
1001
GradientColor1ACI
1070
     5
1001
GradientColor2ACI
1070
     2
1001
ACAD
1010
0.0
1020
0.0
1030
0.0
  0
SPLINE
  5
8731
102
{ACAD_REACTORS
330
8730
102
}
330
86FF
100
AcDbEntity
  8
Capa 1
 62
     9
100
AcDbSpline
210
0.0
220
0.0
230
1.0
 70
     8
 71
     3
 72
     8
 73
     4
 74
     0
 42
0.000000001
 43
0.0000000001
 40
0.0
 40
0.0
 40
0.0
 40
0.0
 40
1.0
 40
1.0
 40
1.0
 40
1.0
 10
19.67217930853707
 20
6.756108937500585
 30
0.0
 10
19.67217930853707
 20
6.847154455436097
 30
0.0
 10
19.74649372924267
 20
6.92146961825884
 30
0.0
 10
19.83753998929143
 20
6.92146961825884
 30
0.0
  0
SPLINE
  5
8732
102
{ACAD_REACTORS
330
8730
102
}
330
86FF
100
AcDbEntity
  8
Capa 1
 62
     9
100
AcDbSpline
210
0.0
220
0.0
230
1.0
 70
    24
 71
     3
 72
     8
 73
     4
 74
     0
 42
0.000000001
 43
0.0000000001
 40
1.0
 40
1.0
 40
1.0
 40
1.0
 40
2.0
 40
2.0
 40
2.0
 40
2.0
 10
19.83753998929143
 20
6.92146961825884
 30
0.0
 10
19.83753998929143
 20
6.92146961825884
 30
0.0
 10
20.524663035625
 20
6.92146961825884
 30
0.0
 10
20.524663035625
 20
6.92146961825884
 30
0.0
  0
SPLINE
  5
8733
102
{ACAD_REACTORS
330
8730
102
}
330
86FF
100
AcDbEntity
  8
Capa 1
 62
     9
100
AcDbSpline
210
0.0
220
0.0
230
1.0
 70
     8
 71
     3
 72
     8
 73
     4
 74
     0
 42
0.000000001
 43
0.0000000001
 40
2.0
 40
2.0
 40
2.0
 40
2.0
 40
3.0
 40
3.0
 40
3.0
 40
3.0
 10
20.524663035625
 20
6.92146961825884
 30
0.0
 10
20.61570929567364
 20
6.92146961825884
 30
0.0
 10
20.69002371638288
 20
6.847154455436097
 30
0.0
 10
20.69002371638288
 20
6.756108937500585
 30
0.0
  0
SPLINE
  5
8734
102
{ACAD_REACTORS
330
8730
102
}
330
86FF
100
AcDbEntity
  8
Capa 1
 62
     9
100
AcDbSpline
210
0.0
220
0.0
230
1.0
 70
    24
 71
     3
 72
     8
 73
     4
 74
     0
 42
0.000000001
 43
0.0000000001
 40
3.0
 40
3.0
 40
3.0
 40
3.0
 40
4.0
 40
4.0
 40
4.0
 40
4.0
 10
20.69002371638288
 20
6.756108937500585
 30
0.0
 10
20.69002371638288
 20
6.756108937500585
 30
0.0
 10
20.69002371638288
 20
4.213829659188804
 30
0.0
 10
20.69002371638288
 20
4.213829659188804
 30
0.0
  0
SPLINE
  5
8735
102
{ACAD_REACTORS
330
8730
102
}
330
86FF
100
AcDbEntity
  8
Capa 1
 62
     9
100
AcDbSpline
210
0.0
220
0.0
230
1.0
 70
     8
 71
     3
 72
     8
 73
     4
 74
     0
 42
0.000000001
 43
0.0000000001
 40
4.0
 40
4.0
 40
4.0
 40
4.0
 40
5.0
 40
5.0
 40
5.0
 40
5.0
 10
20.69002371638288
 20
4.213829659188804
 30
0.0
 10
20.69002371638288
 20
4.122783770193834
 30
0.0
 10
20.76433962132563
 20
4.048079736447818
 30
0.0
 10
20.85577475230303
 20
4.048079736447818
 30
0.0
  0
SPLINE
  5
8736
102
{ACAD_REACTORS
330
8730
102
}
330
86FF
100
AcDbEntity
  8
Capa 1
 62
     9
100
AcDbSpline
210
0.0
220
0.0
230
1.0
 70
    24
 71
     3
 72
     8
 73
     4
 74
     0
 42
0.000000001
 43
0.0000000001
 40
5.0
 40
5.0
 40
5.0
 40
5.0
 40
6.0
 40
6.0
 40
6.0
 40
6.0
 10
20.85577475230303
 20
4.048079736447818
 30
0.0
 10
20.85577475230303
 20
4.048079736447818
 30
0.0
 10
21.52305499189657
 20
4.048079736447818
 30
0.0
 10
21.52305499189657
 20
4.048079736447818
 30
0.0
  0
SPLINE
  5
8737
102
{ACAD_REACTORS
330
8730
102
}
330
86FF
100
AcDbEntity
  8
Capa 1
 62
     9
100
AcDbSpline
210
0.0
220
0.0
230
1.0
 70
     8
 71
     3
 72
     8
 73
     4
 74
     0
 42
0.000000001
 43
0.0000000001
 40
6.0
 40
6.0
 40
6.0
 40
6.0
 40
7.0
 40
7.0
 40
7.0
 40
7.0
 10
21.52305499189657
 20
4.048079736447818
 30
0.0
 10
21.61409976771182
 20
4.048079736447818
 30
0.0
 10
21.7506691577907
 20
4.088933446924187
 30
0.0
 10
21.8269294173511
 20
4.138736383461584
 30
0.0
  0
SPLINE
  5
8738
102
{ACAD_REACTORS
330
8730
102
}
330
86FF
100
AcDbEntity
  8
Capa 1
 62
     9
100
AcDbSpline
210
0.0
220
0.0
230
1.0
 70
    24
 71
     3
 72
     8
 73
     4
 74
     0
 42
0.000000001
 43
0.0000000001
 40
7.0
 40
7.0
 40
7.0
 40
7.0
 40
8.0
 40
8.0
 40
8.0
 40
8.0
 10
21.8269294173511
 20
4.138736383461584
 30
0.0
 10
21.8269294173511
 20
4.138736383461584
 30
0.0
 10
25.95745253495926
 20
6.83120184216834
 30
0.0
 10
25.95745253495926
 20
6.83120184216834
 30
0.0
  0
SPLINE
  5
8739
102
{ACAD_REACTORS
330
8730
102
}
330
86FF
100
AcDbEntity
  8
Capa 1
 62
     9
100
AcDbSpline
210
0.0
220
0.0
230
1.0
 70
     8
 71
     3
 72
     8
 73
     4
 74
     0
 42
0.000000001
 43
0.0000000001
 40
8.0
 40
8.0
 40
8.0
 40
8.0
 40
9.0
 40
9.0
 40
9.0
 40
9.0
 10
25.95745253495926
 20
6.83120184216834
 30
0.0
 10
26.03371279451579
 20
6.881004778705339
 30
0.0
 10
26.17028070036127
 20
6.92146961825884
 30
0.0
 10
26.26132696041765
 20
6.92146961825884
 30
0.0
  0
SPLINE
  5
873A
102
{ACAD_REACTORS
330
8730
102
}
330
86FF
100
AcDbEntity
  8
Capa 1
 62
     9
100
AcDbSpline
210
0.0
220
0.0
230
1.0
 70
    24
 71
     3
 72
     8
 73
     4
 74
     0
 42
0.000000001
 43
0.0000000001
 40
9.0
 40
9.0
 40
9.0
 40
9.0
 40
10.0
 40
10.0
 40
10.0
 40
10.0
 10
26.26132696041765
 20
6.92146961825884
 30
0.0
 10
26.26132696041765
 20
6.92146961825884
 30
0.0
 10
27.70560840938441
 20
6.92146961825884
 30
0.0
 10
27.70560840938441
 20
6.92146961825884
 30
0.0
  0
SPLINE
  5
873B
102
{ACAD_REACTORS
330
8730
102
}
330
86FF
100
AcDbEntity
  8
Capa 1
 62
     9
100
AcDbSpline
210
0.0
220
0.0
230
1.0
 70
     8
 71
     3
 72
     8
 73
     4
 74
     0
 42
0.000000001
 43
0.0000000001
 40
10.0
 40
10.0
 40
10.0
 40
10.0
 40
11.0
 40
11.0
 40
11.0
 40
11.0
 10
27.70560840938441
 20
6.92146961825884
 30
0.0
 10
27.79665466943726
 20
6.92146961825884
 30
0.0
 10
27.80871560499844
 20
6.880615907782833
 30
0.0
 10
27.73284421636316
 20
6.830812971246033
 30
0.0
  0
SPLINE
  5
873C
102
{ACAD_REACTORS
330
8730
102
}
330
86FF
100
AcDbEntity
  8
Capa 1
 62
     9
100
AcDbSpline
210
0.0
220
0.0
230
1.0
 70
    24
 71
     3
 72
     8
 73
     4
 74
     0
 42
0.000000001
 43
0.0000000001
 40
11.0
 40
11.0
 40
11.0
 40
11.0
 40
12.0
 40
12.0
 40
12.0
 40
12.0
 10
27.73284421636316
 20
6.830812971246033
 30
0.0
 10
27.73284421636316
 20
6.830812971246033
 30
0.0
 10
22.96383511831965
 20
3.700626906638753
 30
0.0
 10
22.96383511831965
 20
3.700626906638753
 30
0.0
  0
SPLINE
  5
873D
102
{ACAD_REACTORS
330
8730
102
}
330
86FF
100
AcDbEntity
  8
Capa 1
 62
     9
100
AcDbSpline
210
0.0
220
0.0
230
1.0
 70
     8
 71
     3
 72
     8
 73
     4
 74
     0
 42
0.000000001
 43
0.0000000001
 40
12.0
 40
12.0
 40
12.0
 40
12.0
 40
13.0
 40
13.0
 40
13.0
 40
13.0
 10
22.96383511831965
 20
3.700626906638753
 30
0.0
 10
22.88796372968403
 20
3.650824341162021
 30
0.0
 10
22.88718450360051
 20
3.568338436244467
 30
0.0
 10
22.96266702131055
 20
3.517368144818988
 30
0.0
  0
SPLINE
  5
873E
102
{ACAD_REACTORS
330
8730
102
}
330
86FF
100
AcDbEntity
  8
Capa 1
 62
     9
100
AcDbSpline
210
0.0
220
0.0
230
1.0
 70
    24
 71
     3
 72
     8
 73
     4
 74
     0
 42
0.000000001
 43
0.0000000001
 40
13.0
 40
13.0
 40
13.0
 40
13.0
 40
14.0
 40
14.0
 40
14.0
 40
14.0
 10
22.96266702131055
 20
3.517368144818988
 30
0.0
 10
22.96266702131055
 20
3.517368144818988
 30
0.0
 10
27.86552341298483
 20
0.2008108667712492
 30
0.0
 10
27.86552341298483
 20
0.2008108667712492
 30
0.0
  0
SPLINE
  5
873F
102
{ACAD_REACTORS
330
8730
102
}
330
86FF
100
AcDbEntity
  8
Capa 1
 62
     9
100
AcDbSpline
210
0.0
220
0.0
230
1.0
 70
     8
 71
     3
 72
     8
 73
     4
 74
     0
 42
0.000000001
 43
0.0000000001
 40
14.0
 40
14.0
 40
14.0
 40
14.0
 40
15.0
 40
15.0
 40
15.0
 40
15.0
 10
27.86552341298483
 20
0.2008108667712492
 30
0.0
 10
27.94100593069544
 20
0.1498405753473335
 30
0.0
 10
27.92816428480506
 20
0.1082083809041805
 30
0.0
 10
27.83712099323117
 20
0.1082083809041805
 30
0.0
  0
SPLINE
  5
8740
102
{ACAD_REACTORS
330
8730
102
}
330
86FF
100
AcDbEntity
  8
Capa 1
 62
     9
100
AcDbSpline
210
0.0
220
0.0
230
1.0
 70
    24
 71
     3
 72
     8
 73
     4
 74
     0
 42
0.000000001
 43
0.0000000001
 40
15.0
 40
15.0
 40
15.0
 40
15.0
 40
16.0
 40
16.0
 40
16.0
 40
16.0
 10
27.83712099323117
 20
0.1082083809041805
 30
0.0
 10
27.83712099323117
 20
0.1082083809041805
 30
0.0
 10
26.4414721574347
 20
0.1082083809041805
 30
0.0
 10
26.4414721574347
 20
0.1082083809041805
 30
0.0
  0
SPLINE
  5
8741
102
{ACAD_REACTORS
330
8730
102
}
330
86FF
100
AcDbEntity
  8
Capa 1
 62
     9
100
AcDbSpline
210
0.0
220
0.0
230
1.0
 70
     8
 71
     3
 72
     8
 73
     4
 74
     0
 42
0.000000001
 43
0.0000000001
 40
16.0
 40
16.0
 40
16.0
 40
16.0
 40
17.0
 40
17.0
 40
17.0
 40
17.0
 10
26.4414721574347
 20
0.1082083809041805
 30
0.0
 10
26.35042589737787
 20
0.1082083809041805
 30
0.0
 10
26.21424686245786
 20
0.1498405753473335
 30
0.0
 10
26.13876434474736
 20
0.2008108667712492
 30
0.0
  0
SPLINE
  5
8742
102
{ACAD_REACTORS
330
8730
102
}
330
86FF
100
AcDbEntity
  8
Capa 1
 62
     9
100
AcDbSpline
210
0.0
220
0.0
230
1.0
 70
    24
 71
     3
 72
     8
 73
     4
 74
     0
 42
0.000000001
 43
0.0000000001
 40
17.0
 40
17.0
 40
17.0
 40
17.0
 40
18.0
 40
18.0
 40
18.0
 40
18.0
 10
26.13876434474736
 20
0.2008108667712492
 30
0.0
 10
26.13876434474736
 20
0.2008108667712492
 30
0.0
 10
21.92536719341632
 20
3.037626844614074
 30
0.0
 10
21.92536719341632
 20
3.037626844614074
 30
0.0
  0
SPLINE
  5
8743
102
{ACAD_REACTORS
330
8730
102
}
330
86FF
100
AcDbEntity
  8
Capa 1
 62
     9
100
AcDbSpline
210
0.0
220
0.0
230
1.0
 70
     8
 71
     3
 72
     8
 73
     4
 74
     0
 42
0.000000001
 43
0.0000000001
 40
18.0
 40
18.0
 40
18.0
 40
18.0
 40
19.0
 40
19.0
 40
19.0
 40
19.0
 10
21.92536719341632
 20
3.037626844614074
 30
0.0
 10
21.84988615994354
 20
3.088597136039553
 30
0.0
 10
21.71370564078194
 20
3.130228959421075
 30
0.0
 10
21.62265938072932
 20
3.130228959421075
 30
0.0
  0
SPLINE
  5
8744
102
{ACAD_REACTORS
330
8730
102
}
330
86FF
100
AcDbEntity
  8
Capa 1
 62
     9
100
AcDbSpline
210
0.0
220
0.0
230
1.0
 70
    24
 71
     3
 72
     8
 73
     4
 74
     0
 42
0.000000001
 43
0.0000000001
 40
19.0
 40
19.0
 40
19.0
 40
19.0
 40
20.0
 40
20.0
 40
20.0
 40
20.0
 10
21.62265938072932
 20
3.130228959421075
 30
0.0
 10
21.62265938072932
 20
3.130228959421075
 30
0.0
 10
20.85577475230303
 20
3.130228959421075
 30
0.0
 10
20.85577475230303
 20
3.130228959421075
 30
0.0
  0
SPLINE
  5
8745
102
{ACAD_REACTORS
330
8730
102
}
330
86FF
100
AcDbEntity
  8
Capa 1
 62
     9
100
AcDbSpline
210
0.0
220
0.0
230
1.0
 70
     8
 71
     3
 72
     8
 73
     4
 74
     0
 42
0.000000001
 43
0.0000000001
 40
20.0
 40
20.0
 40
20.0
 40
20.0
 40
21.0
 40
21.0
 40
21.0
 40
21.0
 10
20.85577475230303
 20
3.130228959421075
 30
0.0
 10
20.76433962132563
 20
3.130228959421075
 30
0.0
 10
20.69002371638288
 20
3.055913796599135
 30
0.0
 10
20.69002371638288
 20
2.964867907602837
 30
0.0
  0
SPLINE
  5
8746
102
{ACAD_REACTORS
330
8730
102
}
330
86FF
100
AcDbEntity
  8
Capa 1
 62
     9
100
AcDbSpline
210
0.0
220
0.0
230
1.0
 70
    24
 71
     3
 72
     8
 73
     4
 74
     0
 42
0.000000001
 43
0.0000000001
 40
21.0
 40
21.0
 40
21.0
 40
21.0
 40
22.0
 40
22.0
 40
22.0
 40
22.0
 10
20.69002371638288
 20
2.964867907602837
 30
0.0
 10
20.69002371638288
 20
2.964867907602837
 30
0.0
 10
20.69002371638288
 20
0.273569803783964
 30
0.0
 10
20.69002371638288
 20
0.273569803783964
 30
0.0
  0
SPLINE
  5
8747
102
{ACAD_REACTORS
330
8730
102
}
330
86FF
100
AcDbEntity
  8
Capa 1
 62
     9
100
AcDbSpline
210
0.0
220
0.0
230
1.0
 70
     8
 71
     3
 72
     8
 73
     4
 74
     0
 42
0.000000001
 43
0.0000000001
 40
22.0
 40
22.0
 40
22.0
 40
22.0
 40
23.0
 40
23.0
 40
23.0
 40
23.0
 10
20.69002371638288
 20
0.273569803783964
 30
0.0
 10
20.69002371638288
 20
0.1825235437274877
 30
0.0
 10
20.61570929567364
 20
0.1082083809041805
 30
0.0
 10
20.524663035625
 20
0.1082083809041805
 30
0.0
  0
SPLINE
  5
8748
102
{ACAD_REACTORS
330
8730
102
}
330
86FF
100
AcDbEntity
  8
Capa 1
 62
     9
100
AcDbSpline
210
0.0
220
0.0
230
1.0
 70
    24
 71
     3
 72
     8
 73
     4
 74
     0
 42
0.000000001
 43
0.0000000001
 40
23.0
 40
23.0
 40
23.0
 40
23.0
 40
24.0
 40
24.0
 40
24.0
 40
24.0
 10
20.524663035625
 20
0.1082083809041805
 30
0.0
 10
20.524663035625
 20
0.1082083809041805
 30
0.0
 10
19.83753998929143
 20
0.1082083809041805
 30
0.0
 10
19.83753998929143
 20
0.1082083809041805
 30
0.0
  0
SPLINE
  5
8749
102
{ACAD_REACTORS
330
8730
102
}
330
86FF
100
AcDbEntity
  8
Capa 1
 62
     9
100
AcDbSpline
210
0.0
220
0.0
230
1.0
 70
     8
 71
     3
 72
    11
 73
     7
 74
     0
 42
0.000000001
 43
0.0000000001
 40
24.0
 40
24.0
 40
24.0
 40
24.0
 40
25.0
 40
25.0
 40
25.0
 40
26.0
 40
26.0
 40
26.0
 40
26.0
 10
19.83753998929143
 20
0.1082083809041805
 30
0.0
 10
19.74649372924267
 20
0.1082083809041805
 30
0.0
 10
19.67217930853707
 20
0.1825235437274877
 30
0.0
 10
19.67217930853707
 20
0.273569803783964
 30
0.0
 10
19.67217930853707
 20
0.273569803783964
 30
0.0
 10
19.67217930853707
 20
6.756108937500585
 30
0.0
 10
19.67217930853707
 20
6.756108937500585
 30
0.0
  0
HATCH
  5
874A
330
86FF
100
AcDbEntity
  8
COTAS
 62
     9
100
AcDbHatch
 10
0.0
 20
0.0
 30
0.0
210
0.0
220
0.0
230
1.0
  2
SOLID
 70
     1
 71
     1
 91
        1
 92
        1
 93
       12
 72
     4
 94
        3
 73
     0
 74
     0
 95
        8
 96
        4
 40
11.0
 40
11.0
 40
11.0
 40
11.0
 40
12.0
 40
12.0
 40
12.0
 40
12.0
 10
46.77176321747123
 20
0.270822514668005
 10
46.77176321747123
 20
0.270822514668005
 10
46.77176321747123
 20
6.759073869090017
 10
46.77176321747123
 20
6.759073869090017
 72
     4
 94
        3
 73
     0
 74
     0
 95
        8
 96
        4
 40
0.0
 40
0.0
 40
0.0
 40
0.0
 40
1.0
 40
1.0
 40
1.0
 40
1.0
 10
46.77176321747123
 20
6.759073869090017
 10
46.77176321747123
 20
6.848125777402075
 10
46.8448292909348
 20
6.92081367259992
 10
46.93388192511776
 20
6.92081367259992
 72
     4
 94
        3
 73
     0
 74
     0
 95
        8
 96
        4
 40
1.0
 40
1.0
 40
1.0
 40
1.0
 40
2.0
 40
2.0
 40
2.0
 40
2.0
 10
46.93388192511776
 20
6.92081367259992
 10
46.93388192511776
 20
6.92081367259992
 10
47.61661201239446
 20
6.92081367259992
 10
47.61661201239446
 20
6.92081367259992
 72
     4
 94
        3
 73
     0
 74
     0
 95
        8
 96
        4
 40
2.0
 40
2.0
 40
2.0
 40
2.0
 40
3.0
 40
3.0
 40
3.0
 40
3.0
 10
47.61661201239446
 20
6.92081367259992
 10
47.70566755005922
 20
6.92081367259992
 10
47.77835326764051
 20
6.848125777402075
 10
47.77835326764051
 20
6.759073869090017
 72
     4
 94
        3
 73
     0
 74
     0
 95
        8
 96
        4
 40
3.0
 40
3.0
 40
3.0
 40
3.0
 40
4.0
 40
4.0
 40
4.0
 40
4.0
 10
47.77835326764051
 20
6.759073869090017
 10
47.77835326764051
 20
6.759073869090017
 10
47.77835326764051
 20
1.1872228553162
 10
47.77835326764051
 20
1.1872228553162
 72
     4
 94
        3
 73
     0
 74
     0
 95
        8
 96
        4
 40
4.0
 40
4.0
 40
4.0
 40
4.0
 40
5.0
 40
5.0
 40
5.0
 40
5.0
 10
47.77835326764051
 20
1.1872228553162
 10
47.77835326764051
 20
1.098170584069067
 10
47.85104479219405
 20
1.025482688870863
 10
47.94009452289509
 20
1.025482688870863
 72
     4
 94
        3
 73
     0
 74
     0
 95
        8
 96
        4
 40
5.0
 40
5.0
 40
5.0
 40
5.0
 40
6.0
 40
6.0
 40
6.0
 40
6.0
 10
47.94009452289509
 20
1.025482688870863
 10
47.94009452289509
 20
1.025482688870863
 10
52.84595945544839
 20
1.025482688870863
 10
52.84595945544839
 20
1.025482688870863
 72
     4
 94
        3
 73
     0
 74
     0
 95
        8
 96
        4
 40
6.0
 40
6.0
 40
6.0
 40
6.0
 40
7.0
 40
7.0
 40
7.0
 40
7.0
 10
52.84595945544839
 20
1.025482688870863
 10
52.9346317337525
 20
1.025482688870863
 10
53.00769490373824
 20
0.9527947936741867
 10
53.00769490373824
 20
0.8637425224266906
 72
     4
 94
        3
 73
     0
 74
     0
 95
        8
 96
        4
 40
7.0
 40
7.0
 40
7.0
 40
7.0
 40
8.0
 40
8.0
 40
8.0
 40
8.0
 10
53.00769490373824
 20
0.8637425224266906
 10
53.00769490373824
 20
0.8637425224266906
 10
53.00769490373824
 20
0.270822514668005
 10
53.00769490373824
 20
0.270822514668005
 72
     4
 94
        3
 73
     0
 74
     0
 95
        8
 96
        4
 40
8.0
 40
8.0
 40
8.0
 40
8.0
 40
9.0
 40
9.0
 40
9.0
 40
9.0
 10
53.00769490373824
 20
0.270822514668005
 10
53.00769490373824
 20
0.1817698804853585
 10
52.9346317337525
 20
0.1090819852875597
 10
52.84595945544839
 20
0.1090819852875597
 72
     4
 94
        3
 73
     0
 74
     0
 95
        8
 96
        4
 40
9.0
 40
9.0
 40
9.0
 40
9.0
 40
10.0
 40
10.0
 40
10.0
 40
10.0
 10
52.84595945544839
 20
0.1090819852875597
 10
52.84595945544839
 20
0.1090819852875597
 10
46.93388192511776
 20
0.1090819852875597
 10
46.93388192511776
 20
0.1090819852875597
 72
     4
 94
        3
 73
     0
 74
     0
 95
        8
 96
        4
 40
10.0
 40
10.0
 40
10.0
 40
10.0
 40
11.0
 40
11.0
 40
11.0
 40
11.0
 10
46.93388192511776
 20
0.1090819852875597
 10
46.8448292909348
 20
0.1090819852875597
 10
46.77176321747123
 20
0.1817698804853585
 10
46.77176321747123
 20
0.270822514668005
 97
       12
330
8756
330
874B
330
874C
330
874D
330
874E
330
874F
330
8750
330
8751
330
8752
330
8753
330
8754
330
8755
 75
     1
 76
     1
 98
        1
 10
-349.6033406415021
 20
-2.919596279967777
1001
GradientColor1ACI
1070
     5
1001
GradientColor2ACI
1070
     2
1001
ACAD
1010
0.0
1020
0.0
1030
0.0
  0
SPLINE
  5
874B
102
{ACAD_REACTORS
330
874A
102
}
330
86FF
100
AcDbEntity
  8
Capa 1
 62
     9
100
AcDbSpline
210
0.0
220
0.0
230
1.0
 70
     8
 71
     3
 72
     8
 73
     4
 74
     0
 42
0.000000001
 43
0.0000000001
 40
0.0
 40
0.0
 40
0.0
 40
0.0
 40
1.0
 40
1.0
 40
1.0
 40
1.0
 10
46.77176321747123
 20
6.759073869090017
 30
0.0
 10
46.77176321747123
 20
6.848125777402075
 30
0.0
 10
46.8448292909348
 20
6.92081367259992
 30
0.0
 10
46.93388192511776
 20
6.92081367259992
 30
0.0
  0
SPLINE
  5
874C
102
{ACAD_REACTORS
330
874A
102
}
330
86FF
100
AcDbEntity
  8
Capa 1
 62
     9
100
AcDbSpline
210
0.0
220
0.0
230
1.0
 70
    24
 71
     3
 72
     8
 73
     4
 74
     0
 42
0.000000001
 43
0.0000000001
 40
1.0
 40
1.0
 40
1.0
 40
1.0
 40
2.0
 40
2.0
 40
2.0
 40
2.0
 10
46.93388192511776
 20
6.92081367259992
 30
0.0
 10
46.93388192511776
 20
6.92081367259992
 30
0.0
 10
47.61661201239446
 20
6.92081367259992
 30
0.0
 10
47.61661201239446
 20
6.92081367259992
 30
0.0
  0
SPLINE
  5
874D
102
{ACAD_REACTORS
330
874A
102
}
330
86FF
100
AcDbEntity
  8
Capa 1
 62
     9
100
AcDbSpline
210
0.0
220
0.0
230
1.0
 70
     8
 71
     3
 72
     8
 73
     4
 74
     0
 42
0.000000001
 43
0.0000000001
 40
2.0
 40
2.0
 40
2.0
 40
2.0
 40
3.0
 40
3.0
 40
3.0
 40
3.0
 10
47.61661201239446
 20
6.92081367259992
 30
0.0
 10
47.70566755005922
 20
6.92081367259992
 30
0.0
 10
47.77835326764051
 20
6.848125777402075
 30
0.0
 10
47.77835326764051
 20
6.759073869090017
 30
0.0
  0
SPLINE
  5
874E
102
{ACAD_REACTORS
330
874A
102
}
330
86FF
100
AcDbEntity
  8
Capa 1
 62
     9
100
AcDbSpline
210
0.0
220
0.0
230
1.0
 70
    24
 71
     3
 72
     8
 73
     4
 74
     0
 42
0.000000001
 43
0.0000000001
 40
3.0
 40
3.0
 40
3.0
 40
3.0
 40
4.0
 40
4.0
 40
4.0
 40
4.0
 10
47.77835326764051
 20
6.759073869090017
 30
0.0
 10
47.77835326764051
 20
6.759073869090017
 30
0.0
 10
47.77835326764051
 20
1.1872228553162
 30
0.0
 10
47.77835326764051
 20
1.1872228553162
 30
0.0
  0
SPLINE
  5
874F
102
{ACAD_REACTORS
330
874A
102
}
330
86FF
100
AcDbEntity
  8
Capa 1
 62
     9
100
AcDbSpline
210
0.0
220
0.0
230
1.0
 70
     8
 71
     3
 72
     8
 73
     4
 74
     0
 42
0.000000001
 43
0.0000000001
 40
4.0
 40
4.0
 40
4.0
 40
4.0
 40
5.0
 40
5.0
 40
5.0
 40
5.0
 10
47.77835326764051
 20
1.1872228553162
 30
0.0
 10
47.77835326764051
 20
1.098170584069067
 30
0.0
 10
47.85104479219405
 20
1.025482688870863
 30
0.0
 10
47.94009452289509
 20
1.025482688870863
 30
0.0
  0
SPLINE
  5
8750
102
{ACAD_REACTORS
330
874A
102
}
330
86FF
100
AcDbEntity
  8
Capa 1
 62
     9
100
AcDbSpline
210
0.0
220
0.0
230
1.0
 70
    24
 71
     3
 72
     8
 73
     4
 74
     0
 42
0.000000001
 43
0.0000000001
 40
5.0
 40
5.0
 40
5.0
 40
5.0
 40
6.0
 40
6.0
 40
6.0
 40
6.0
 10
47.94009452289509
 20
1.025482688870863
 30
0.0
 10
47.94009452289509
 20
1.025482688870863
 30
0.0
 10
52.84595945544839
 20
1.025482688870863
 30
0.0
 10
52.84595945544839
 20
1.025482688870863
 30
0.0
  0
SPLINE
  5
8751
102
{ACAD_REACTORS
330
874A
102
}
330
86FF
100
AcDbEntity
  8
Capa 1
 62
     9
100
AcDbSpline
210
0.0
220
0.0
230
1.0
 70
     8
 71
     3
 72
     8
 73
     4
 74
     0
 42
0.000000001
 43
0.0000000001
 40
6.0
 40
6.0
 40
6.0
 40
6.0
 40
7.0
 40
7.0
 40
7.0
 40
7.0
 10
52.84595945544839
 20
1.025482688870863
 30
0.0
 10
52.9346317337525
 20
1.025482688870863
 30
0.0
 10
53.00769490373824
 20
0.9527947936741867
 30
0.0
 10
53.00769490373824
 20
0.8637425224266906
 30
0.0
  0
SPLINE
  5
8752
102
{ACAD_REACTORS
330
874A
102
}
330
86FF
100
AcDbEntity
  8
Capa 1
 62
     9
100
AcDbSpline
210
0.0
220
0.0
230
1.0
 70
    24
 71
     3
 72
     8
 73
     4
 74
     0
 42
0.000000001
 43
0.0000000001
 40
7.0
 40
7.0
 40
7.0
 40
7.0
 40
8.0
 40
8.0
 40
8.0
 40
8.0
 10
53.00769490373824
 20
0.8637425224266906
 30
0.0
 10
53.00769490373824
 20
0.8637425224266906
 30
0.0
 10
53.00769490373824
 20
0.270822514668005
 30
0.0
 10
53.00769490373824
 20
0.270822514668005
 30
0.0
  0
SPLINE
  5
8753
102
{ACAD_REACTORS
330
874A
102
}
330
86FF
100
AcDbEntity
  8
Capa 1
 62
     9
100
AcDbSpline
210
0.0
220
0.0
230
1.0
 70
     8
 71
     3
 72
     8
 73
     4
 74
     0
 42
0.000000001
 43
0.0000000001
 40
8.0
 40
8.0
 40
8.0
 40
8.0
 40
9.0
 40
9.0
 40
9.0
 40
9.0
 10
53.00769490373824
 20
0.270822514668005
 30
0.0
 10
53.00769490373824
 20
0.1817698804853585
 30
0.0
 10
52.9346317337525
 20
0.1090819852875597
 30
0.0
 10
52.84595945544839
 20
0.1090819852875597
 30
0.0
  0
SPLINE
  5
8754
102
{ACAD_REACTORS
330
874A
102
}
330
86FF
100
AcDbEntity
  8
Capa 1
 62
     9
100
AcDbSpline
210
0.0
220
0.0
230
1.0
 70
    24
 71
     3
 72
     8
 73
     4
 74
     0
 42
0.000000001
 43
0.0000000001
 40
9.0
 40
9.0
 40
9.0
 40
9.0
 40
10.0
 40
10.0
 40
10.0
 40
10.0
 10
52.84595945544839
 20
0.1090819852875597
 30
0.0
 10
52.84595945544839
 20
0.1090819852875597
 30
0.0
 10
46.93388192511776
 20
0.1090819852875597
 30
0.0
 10
46.93388192511776
 20
0.1090819852875597
 30
0.0
  0
SPLINE
  5
8755
102
{ACAD_REACTORS
330
874A
102
}
330
86FF
100
AcDbEntity
  8
Capa 1
 62
     9
100
AcDbSpline
210
0.0
220
0.0
230
1.0
 70
     8
 71
     3
 72
     8
 73
     4
 74
     0
 42
0.000000001
 43
0.0000000001
 40
10.0
 40
10.0
 40
10.0
 40
10.0
 40
11.0
 40
11.0
 40
11.0
 40
11.0
 10
46.93388192511776
 20
0.1090819852875597
 30
0.0
 10
46.8448292909348
 20
0.1090819852875597
 30
0.0
 10
46.77176321747123
 20
0.1817698804853585
 30
0.0
 10
46.77176321747123
 20
0.270822514668005
 30
0.0
  0
SPLINE
  5
8756
102
{ACAD_REACTORS
330
874A
102
}
330
86FF
100
AcDbEntity
  8
Capa 1
 62
     9
100
AcDbSpline
210
0.0
220
0.0
230
1.0
 70
    24
 71
     3
 72
     8
 73
     4
 74
     0
 42
0.000000001
 43
0.0000000001
 40
11.0
 40
11.0
 40
11.0
 40
11.0
 40
12.0
 40
12.0
 40
12.0
 40
12.0
 10
46.77176321747123
 20
0.270822514668005
 30
0.0
 10
46.77176321747123
 20
0.270822514668005
 30
0.0
 10
46.77176321747123
 20
6.759073869090017
 30
0.0
 10
46.77176321747123
 20
6.759073869090017
 30
0.0
  0
HATCH
  5
8757
330
86FF
100
AcDbEntity
  8
COTAS
 62
     9
100
AcDbHatch
 10
0.0
 20
0.0
 30
0.0
210
0.0
220
0.0
230
1.0
  2
SOLID
 70
     1
 71
     1
 91
        1
 92
        1
 93
        8
 72
     4
 94
        3
 73
     0
 74
     0
 95
        8
 96
        4
 40
7.0
 40
7.0
 40
7.0
 40
7.0
 40
8.0
 40
8.0
 40
8.0
 40
8.0
 10
55.45485904726019
 20
6.761567192695559
 10
55.45485904726019
 20
6.761567192695559
 10
55.45485904726019
 20
0.2683280338756724
 10
55.45485904726019
 20
0.2683280338756724
 72
     4
 94
        3
 73
     0
 74
     0
 95
        8
 96
        4
 40
0.0
 40
0.0
 40
0.0
 40
0.0
 40
1.0
 40
1.0
 40
1.0
 40
1.0
 10
55.45485904726019
 20
0.2683280338756724
 10
55.45485904726019
 20
0.1792073833690395
 10
55.38211164128535
 20
0.1064635981817545
 10
55.29299345382157
 20
0.1064635981817545
 72
     4
 94
        3
 73
     0
 74
     0
 95
        8
 96
        4
 40
1.0
 40
1.0
 40
1.0
 40
1.0
 40
2.0
 40
2.0
 40
2.0
 40
2.0
 10
55.29299345382157
 20
0.1064635981817545
 10
55.29299345382157
 20
0.1064635981817545
 10
54.59983004151803
 20
0.1064635981817545
 10
54.59983004151803
 20
0.1064635981817545
 72
     4
 94
        3
 73
     0
 74
     0
 95
        8
 96
        4
 40
2.0
 40
2.0
 40
2.0
 40
2.0
 40
3.0
 40
3.0
 40
3.0
 40
3.0
 10
54.59983004151803
 20
0.1064635981817545
 10
54.51071185405823
 20
0.1064635981817545
 10
54.43796444808305
 20
0.1792073833690395
 10
54.43796444808305
 20
0.2683280338756724
 72
     4
 94
        3
 73
     0
 74
     0
 95
        8
 96
        4
 40
3.0
 40
3.0
 40
3.0
 40
3.0
 40
4.0
 40
4.0
 40
4.0
 40
4.0
 10
54.43796444808305
 20
0.2683280338756724
 10
54.43796444808305
 20
0.2683280338756724
 10
54.43796444808305
 20
6.761567192695559
 10
54.43796444808305
 20
6.761567192695559
 72
     4
 94
        3
 73
     0
 74
     0
 95
        8
 96
        4
 40
4.0
 40
4.0
 40
4.0
 40
4.0
 40
5.0
 40
5.0
 40
5.0
 40
5.0
 10
54.43796444808305
 20
6.761567192695559
 10
54.43796444808305
 20
6.850688285868841
 10
54.51071185405823
 20
6.923432059705519
 10
54.59983004151803
 20
6.923432059705519
 72
     4
 94
        3
 73
     0
 74
     0
 95
        8
 96
        4
 40
5.0
 40
5.0
 40
5.0
 40
5.0
 40
6.0
 40
6.0
 40
6.0
 40
6.0
 10
54.59983004151803
 20
6.923432059705519
 10
54.59983004151803
 20
6.923432059705519
 10
55.29299345382157
 20
6.923432059705519
 10
55.29299345382157
 20
6.923432059705519
 72
     4
 94
        3
 73
     0
 74
     0
 95
        8
 96
        4
 40
6.0
 40
6.0
 40
6.0
 40
6.0
 40
7.0
 40
7.0
 40
7.0
 40
7.0
 10
55.29299345382157
 20
6.923432059705519
 10
55.38211164128535
 20
6.923432059705519
 10
55.45485904726019
 20
6.850688285868841
 10
55.45485904726019
 20
6.761567192695559
 97
        8
330
875F
330
8758
330
8759
330
875A
330
875B
330
875C
330
875D
330
875E
 75
     1
 76
     1
 98
        1
 10
-349.6033406415021
 20
-2.919596279967777
1001
GradientColor1ACI
1070
     5
1001
GradientColor2ACI
1070
     2
1001
ACAD
1010
0.0
1020
0.0
1030
0.0
  0
SPLINE
  5
8758
102
{ACAD_REACTORS
330
8757
102
}
330
86FF
100
AcDbEntity
  8
Capa 1
 62
     9
100
AcDbSpline
210
0.0
220
0.0
230
1.0
 70
     8
 71
     3
 72
     8
 73
     4
 74
     0
 42
0.000000001
 43
0.0000000001
 40
0.0
 40
0.0
 40
0.0
 40
0.0
 40
1.0
 40
1.0
 40
1.0
 40
1.0
 10
55.45485904726019
 20
0.2683280338756724
 30
0.0
 10
55.45485904726019
 20
0.1792073833690395
 30
0.0
 10
55.38211164128535
 20
0.1064635981817545
 30
0.0
 10
55.29299345382157
 20
0.1064635981817545
 30
0.0
  0
SPLINE
  5
8759
102
{ACAD_REACTORS
330
8757
102
}
330
86FF
100
AcDbEntity
  8
Capa 1
 62
     9
100
AcDbSpline
210
0.0
220
0.0
230
1.0
 70
    24
 71
     3
 72
     8
 73
     4
 74
     0
 42
0.000000001
 43
0.0000000001
 40
1.0
 40
1.0
 40
1.0
 40
1.0
 40
2.0
 40
2.0
 40
2.0
 40
2.0
 10
55.29299345382157
 20
0.1064635981817545
 30
0.0
 10
55.29299345382157
 20
0.1064635981817545
 30
0.0
 10
54.59983004151803
 20
0.1064635981817545
 30
0.0
 10
54.59983004151803
 20
0.1064635981817545
 30
0.0
  0
SPLINE
  5
875A
102
{ACAD_REACTORS
330
8757
102
}
330
86FF
100
AcDbEntity
  8
Capa 1
 62
     9
100
AcDbSpline
210
0.0
220
0.0
230
1.0
 70
     8
 71
     3
 72
     8
 73
     4
 74
     0
 42
0.000000001
 43
0.0000000001
 40
2.0
 40
2.0
 40
2.0
 40
2.0
 40
3.0
 40
3.0
 40
3.0
 40
3.0
 10
54.59983004151803
 20
0.1064635981817545
 30
0.0
 10
54.51071185405823
 20
0.1064635981817545
 30
0.0
 10
54.43796444808305
 20
0.1792073833690395
 30
0.0
 10
54.43796444808305
 20
0.2683280338756724
 30
0.0
  0
SPLINE
  5
875B
102
{ACAD_REACTORS
330
8757
102
}
330
86FF
100
AcDbEntity
  8
Capa 1
 62
     9
100
AcDbSpline
210
0.0
220
0.0
230
1.0
 70
    24
 71
     3
 72
     8
 73
     4
 74
     0
 42
0.000000001
 43
0.0000000001
 40
3.0
 40
3.0
 40
3.0
 40
3.0
 40
4.0
 40
4.0
 40
4.0
 40
4.0
 10
54.43796444808305
 20
0.2683280338756724
 30
0.0
 10
54.43796444808305
 20
0.2683280338756724
 30
0.0
 10
54.43796444808305
 20
6.761567192695559
 30
0.0
 10
54.43796444808305
 20
6.761567192695559
 30
0.0
  0
SPLINE
  5
875C
102
{ACAD_REACTORS
330
8757
102
}
330
86FF
100
AcDbEntity
  8
Capa 1
 62
     9
100
AcDbSpline
210
0.0
220
0.0
230
1.0
 70
     8
 71
     3
 72
     8
 73
     4
 74
     0
 42
0.000000001
 43
0.0000000001
 40
4.0
 40
4.0
 40
4.0
 40
4.0
 40
5.0
 40
5.0
 40
5.0
 40
5.0
 10
54.43796444808305
 20
6.761567192695559
 30
0.0
 10
54.43796444808305
 20
6.850688285868841
 30
0.0
 10
54.51071185405823
 20
6.923432059705519
 30
0.0
 10
54.59983004151803
 20
6.923432059705519
 30
0.0
  0
SPLINE
  5
875D
102
{ACAD_REACTORS
330
8757
102
}
330
86FF
100
AcDbEntity
  8
Capa 1
 62
     9
100
AcDbSpline
210
0.0
220
0.0
230
1.0
 70
    24
 71
     3
 72
     8
 73
     4
 74
     0
 42
0.000000001
 43
0.0000000001
 40
5.0
 40
5.0
 40
5.0
 40
5.0
 40
6.0
 40
6.0
 40
6.0
 40
6.0
 10
54.59983004151803
 20
6.923432059705519
 30
0.0
 10
54.59983004151803
 20
6.923432059705519
 30
0.0
 10
55.29299345382157
 20
6.923432059705519
 30
0.0
 10
55.29299345382157
 20
6.923432059705519
 30
0.0
  0
SPLINE
  5
875E
102
{ACAD_REACTORS
330
8757
102
}
330
86FF
100
AcDbEntity
  8
Capa 1
 62
     9
100
AcDbSpline
210
0.0
220
0.0
230
1.0
 70
     8
 71
     3
 72
     8
 73
     4
 74
     0
 42
0.000000001
 43
0.0000000001
 40
6.0
 40
6.0
 40
6.0
 40
6.0
 40
7.0
 40
7.0
 40
7.0
 40
7.0
 10
55.29299345382157
 20
6.923432059705519
 30
0.0
 10
55.38211164128535
 20
6.923432059705519
 30
0.0
 10
55.45485904726019
 20
6.850688285868841
 30
0.0
 10
55.45485904726019
 20
6.761567192695559
 30
0.0
  0
SPLINE
  5
875F
102
{ACAD_REACTORS
330
8757
102
}
330
86FF
100
AcDbEntity
  8
Capa 1
 62
     9
100
AcDbSpline
210
0.0
220
0.0
230
1.0
 70
    24
 71
     3
 72
     8
 73
     4
 74
     0
 42
0.000000001
 43
0.0000000001
 40
7.0
 40
7.0
 40
7.0
 40
7.0
 40
8.0
 40
8.0
 40
8.0
 40
8.0
 10
55.45485904726019
 20
6.761567192695559
 30
0.0
 10
55.45485904726019
 20
6.761567192695559
 30
0.0
 10
55.45485904726019
 20
0.2683280338756724
 30
0.0
 10
55.45485904726019
 20
0.2683280338756724
 30
0.0
  0
HATCH
  5
8760
330
86FF
100
AcDbEntity
  8
COTAS
 62
     9
100
AcDbHatch
 10
0.0
 20
0.0
 30
0.0
210
0.0
220
0.0
230
1.0
  2
SOLID
 70
     1
 71
     1
 91
        1
 92
        1
 93
       29
 72
     4
 94
        3
 73
     0
 74
     0
 95
        8
 96
        4
 40
34.0
 40
34.0
 40
34.0
 40
34.0
 40
35.0
 40
35.0
 40
35.0
 40
35.0
 10
63.73950102520172
 20
2.679689310644889
 10
63.73950102520172
 20
2.679689310644889
 10
60.8041464761472
 20
2.674846599234346
 10
60.8041464761472
 20
2.674846599234346
 72
     4
 94
        3
 73
     0
 74
     0
 95
        8
 96
        4
 40
0.0
 40
0.0
 40
0.0
 40
0.0
 40
1.0
 40
1.0
 40
1.0
 40
1.0
 10
60.8041464761472
 20
2.674846599234346
 10
60.71273135237351
 20
2.674846599234346
 10
60.63791981057949
 20
2.749491150979672
 10
60.63791981057949
 20
2.840953986196041
 72
     4
 94
        3
 73
     0
 74
     0
 95
        8
 96
        4
 40
1.0
 40
1.0
 40
1.0
 40
1.0
 40
2.0
 40
2.0
 40
2.0
 40
2.0
 10
60.63791981057949
 20
2.840953986196041
 10
60.63791981057949
 20
2.840953986196041
 10
60.63791981057949
 20
3.427232191275891
 10
60.63791981057949
 20
3.427232191275891
 72
     4
 94
        3
 73
     0
 74
     0
 95
        8
 96
        4
 40
2.0
 40
2.0
 40
2.0
 40
2.0
 40
3.0
 40
3.0
 40
3.0
 40
3.0
 10
60.63791981057949
 20
3.427232191275891
 10
60.63791981057949
 20
3.518695026491898
 10
60.71273135237351
 20
3.593339578237426
 10
60.8041464761472
 20
3.593339578237426
 72
     4
 94
        3
 73
     0
 74
     0
 95
        8
 96
        4
 40
3.0
 40
3.0
 40
3.0
 40
3.0
 40
4.0
 40
4.0
 40
4.0
 40
4.0
 10
60.8041464761472
 20
3.593339578237426
 10
60.8041464761472
 20
3.593339578237426
 10
60.85109453553815
 20
3.593339578237426
 10
60.85109453553815
 20
3.593339578237426
 72
     4
 94
        3
 73
     0
 74
     0
 95
        8
 96
        4
 40
4.0
 40
4.0
 40
4.0
 40
4.0
 40
5.0
 40
5.0
 40
5.0
 40
5.0
 10
60.85109453553815
 20
3.593339578237426
 10
60.85109453553815
 20
3.593339578237426
 10
60.85109453553815
 20
3.59350656828601
 10
60.85109453553815
 20
3.59350656828601
 72
     4
 94
        3
 73
     0
 74
     0
 95
        8
 96
        4
 40
5.0
 40
5.0
 40
5.0
 40
5.0
 40
6.0
 40
6.0
 40
6.0
 40
6.0
 10
60.85109453553815
 20
3.59350656828601
 10
60.85109453553815
 20
3.59350656828601
 10
64.72986842560209
 20
3.59350656828601
 10
64.72986842560209
 20
3.59350656828601
 72
     4
 94
        3
 73
     0
 74
     0
 95
        8
 96
        4
 40
6.0
 40
6.0
 40
6.0
 40
6.0
 40
7.0
 40
7.0
 40
7.0
 40
7.0
 10
64.72986842560209
 20
3.59350656828601
 10
64.72986842560209
 20
3.59350656828601
 10
64.81326316006067
 20
3.588942969394886
 10
64.86537905455754
 20
3.546302692079244
 72
     4
 94
        3
 73
     0
 74
     0
 95
        8
 96
        4
 40
7.0
 40
7.0
 40
7.0
 40
7.0
 40
8.0
 40
8.0
 40
8.0
 40
8.0
 10
64.86537905455754
 20
3.546302692079244
 10
64.93503405074881
 20
3.489312240649511
 10
64.92450446981974
 20
3.380397155694936
 10
64.92450446981974
 20
3.380397155694936
 72
     4
 94
        3
 73
     0
 74
     0
 95
        8
 96
        4
 40
8.0
 40
8.0
 40
8.0
 40
8.0
 40
9.0
 40
9.0
 40
9.0
 40
9.0
 10
64.92450446981974
 20
3.380397155694936
 10
64.92450446981974
 20
3.380397155694936
 10
64.92450446981974
 20
2.679689310644889
 10
64.92450446981974
 20
2.679689310644889
 72
     4
 94
        3
 73
     0
 74
     0
 95
        8
 96
        4
 40
9.0
 40
9.0
 40
9.0
 40
9.0
 40
10.0
 40
10.0
 40
10.0
 40
10.0
 10
64.92450446981974
 20
2.679689310644889
 10
64.92450446981974
 20
1.508707378086847
 10
64.68652197287196
 20
0.7703728058529293
 10
64.20978923970512
 20
0.4651149969256707
 72
     4
 94
        3
 73
     0
 74
     0
 95
       11
 96
        7
 40
10.0
 40
10.0
 40
10.0
 40
10.0
 40
11.0
 40
11.0
 40
11.0
 40
12.0
 40
12.0
 40
12.0
 40
12.0
 10
64.20978923970512
 20
0.4651149969256707
 10
63.7332473523075
 20
0.1551814666358524
 10
62.62825034468648
 20
0.0000000000000178
 10
60.89517990838118
 20
0.0000000000000178
 10
59.13443683544273
 20
0.0000000000000178
 10
58.02562291242424
 20
0.2017001230447661
 10
57.56835644778533
 20
0.6058398964928529
 72
     4
 94
        3
 73
     0
 74
     0
 95
       11
 96
        7
 40
12.0
 40
12.0
 40
12.0
 40
12.0
 40
13.0
 40
13.0
 40
13.0
 40
14.0
 40
14.0
 40
14.0
 40
14.0
 10
57.56835644778533
 20
0.6058398964928529
 10
57.11299844084527
 20
1.008023500799808
 10
56.885128591605
 20
1.980454265515945
 10
56.885128591605
 20
3.523156046363134
 10
56.885128591605
 20
5.064283349608701
 10
57.11299844084527
 20
6.033207323303159
 10
57.56835644778533
 20
6.430691350526281
 72
     4
 94
        3
 73
     0
 74
     0
 95
       11
 96
        7
 40
14.0
 40
14.0
 40
14.0
 40
14.0
 40
15.0
 40
15.0
 40
15.0
 40
16.0
 40
16.0
 40
16.0
 40
16.0
 10
57.56835644778533
 20
6.430691350526281
 10
58.01894331047828
 20
6.821543487246196
 10
59.12794807926736
 20
7.016969555606138
 10
60.89517990838118
 20
7.016969555606138
 10
62.63492994663244
 20
7.016969555606138
 10
63.74298048657175
 20
6.888005526607841
 10
64.2195223739688
 20
6.62924251836823
 72
     4
 94
        3
 73
     0
 74
     0
 95
        8
 96
        4
 40
16.0
 40
16.0
 40
16.0
 40
16.0
 40
17.0
 40
17.0
 40
17.0
 40
17.0
 10
64.2195223739688
 20
6.62924251836823
 10
64.6867128186422
 20
6.366328614633154
 10
64.90599460823756
 20
5.905770060463944
 10
64.90885729478583
 20
4.899941286018283
 72
     4
 94
        3
 73
     0
 74
     0
 95
        8
 96
        4
 40
17.0
 40
17.0
 40
17.0
 40
17.0
 40
18.0
 40
18.0
 40
18.0
 40
18.0
 10
64.90885729478583
 20
4.899941286018283
 10
64.90885729478583
 20
4.89870078851407
 10
64.90942983209476
 20
4.897651136779906
 10
64.90942983209476
 20
4.896410639275693
 72
     4
 94
        3
 73
     0
 74
     0
 95
        8
 96
        4
 40
18.0
 40
18.0
 40
18.0
 40
18.0
 40
19.0
 40
19.0
 40
19.0
 40
19.0
 10
64.90942983209476
 20
4.896410639275693
 10
64.90942983209476
 20
4.896410639275693
 10
64.90942983209476
 20
4.867091957877292
 10
64.90942983209476
 20
4.867091957877292
 72
     4
 94
        3
 73
     0
 74
     0
 95
        8
 96
        4
 40
19.0
 40
19.0
 40
19.0
 40
19.0
 40
20.0
 40
20.0
 40
20.0
 40
20.0
 10
64.90942983209476
 20
4.867091957877292
 10
64.90942983209476
 20
4.775629122661243
 10
64.83480913607099
 20
4.700984570915551
 10
64.74339401229685
 20
4.700984570915551
 72
     4
 94
        3
 73
     0
 74
     0
 95
        8
 96
        4
 40
20.0
 40
20.0
 40
20.0
 40
20.0
 40
21.0
 40
21.0
 40
21.0
 40
21.0
 10
64.74339401229685
 20
4.700984570915551
 10
64.74339401229685
 20
4.700984570915551
 10
64.07734227540647
 20
4.700984570915551
 10
64.07734227540647
 20
4.700984570915551
 72
     4
 94
        3
 73
     0
 74
     0
 95
        8
 96
        4
 40
21.0
 40
21.0
 40
21.0
 40
21.0
 40
22.0
 40
22.0
 40
22.0
 40
22.0
 10
64.07734227540647
 20
4.700984570915551
 10
63.98592715163232
 20
4.700984570915551
 10
63.9113064556081
 20
4.775629122661243
 10
63.9113064556081
 20
4.867091957877292
 72
     4
 94
        3
 73
     0
 74
     0
 95
        8
 96
        4
 40
22.0
 40
22.0
 40
22.0
 40
22.0
 40
23.0
 40
23.0
 40
23.0
 40
23.0
 10
63.9113064556081
 20
4.867091957877292
 10
63.9113064556081
 20
4.867091957877292
 10
63.9113064556081
 20
4.881763226437023
 10
63.9113064556081
 20
4.881763226437023
 72
     4
 94
        3
 73
     0
 74
     0
 95
        8
 96
        4
 40
23.0
 40
23.0
 40
23.0
 40
23.0
 40
24.0
 40
24.0
 40
24.0
 40
24.0
 10
63.9113064556081
 20
4.881763226437023
 10
63.9113064556081
 20
4.881763226437023
 10
63.90882546059942
 20
4.881763226437023
 10
63.90882546059942
 20
4.881763226437023
 72
     4
 94
        3
 73
     0
 74
     0
 95
        8
 96
        4
 40
24.0
 40
24.0
 40
24.0
 40
24.0
 40
25.0
 40
25.0
 40
25.0
 40
25.0
 10
63.90882546059942
 20
4.881763226437023
 10
63.90882546059942
 20
5.537604714638618
 10
63.75233192929585
 20
5.756480956973014
 10
63.43419203090167
 20
5.89522583167799
 72
     4
 94
        3
 73
     0
 74
     0
 95
       11
 96
        7
 40
25.0
 40
25.0
 40
25.0
 40
25.0
 40
26.0
 40
26.0
 40
26.0
 40
27.0
 40
27.0
 40
27.0
 40
27.0
 10
63.43419203090167
 20
5.89522583167799
 10
63.11776974443598
 20
6.027720507418636
 10
62.2715596007759
 20
6.093776999519505
 10
60.89517990838118
 20
6.093776999519505
 10
59.42490409720421
 20
6.093776999519505
 10
58.55751007308749
 20
5.977695059988243
 10
58.29299783602988
 20
5.745149489386336
 72
     4
 94
        3
 73
     0
 74
     0
 95
       11
 96
        7
 40
27.0
 40
27.0
 40
27.0
 40
27.0
 40
28.0
 40
28.0
 40
28.0
 40
29.0
 40
29.0
 40
29.0
 40
29.0
 10
58.29299783602988
 20
5.745149489386336
 10
58.02963067359184
 20
5.514154540664407
 10
57.89775624660314
 20
4.770357008268086
 10
57.89775624660314
 20
3.513375200656441
 10
57.89775624660314
 20
2.263049139269722
 10
58.03344758898965
 20
1.518464368072063
 10
58.30502111953291
 20
1.279263051245636
 72
     4
 94
        3
 73
     0
 74
     0
 95
       11
 96
        7
 40
29.0
 40
29.0
 40
29.0
 40
29.0
 40
30.0
 40
30.0
 40
30.0
 40
31.0
 40
31.0
 40
31.0
 40
31.0
 10
58.30502111953291
 20
1.279263051245636
 10
58.57640380430604
 20
1.042017903559771
 10
59.43979006725561
 20
0.9231925560864482
 10
60.89517990838118
 20
0.9231925560864482
 10
62.31679004823781
 20
0.9231925560864482
 10
63.1771227788692
 20
1.005661784397258
 10
63.47560556296577
 20
1.170218549478605
 72
     4
 94
        3
 73
     0
 74
     0
 95
        8
 96
        4
 40
31.0
 40
31.0
 40
31.0
 40
31.0
 40
32.0
 40
32.0
 40
32.0
 40
32.0
 10
63.47560556296577
 20
1.170218549478605
 10
63.74333206725265
 20
1.322009118411664
 10
63.88787170203312
 20
1.761354111530824
 10
63.90891161877568
 20
2.487940680303346
 72
     4
 94
        3
 73
     0
 74
     0
 95
        8
 96
        4
 40
32.0
 40
32.0
 40
32.0
 40
32.0
 40
33.0
 40
33.0
 40
33.0
 40
33.0
 10
63.90891161877568
 20
2.487940680303346
 10
63.90891161877568
 20
2.487940680303346
 10
63.91490497015803
 20
2.559734655107903
 10
63.86445786685528
 20
2.619680166982192
 72
     4
 94
        3
 73
     0
 74
     0
 95
        8
 96
        4
 40
33.0
 40
33.0
 40
33.0
 40
33.0
 40
34.0
 40
34.0
 40
34.0
 40
34.0
 10
63.86445786685528
 20
2.619680166982192
 10
63.82519777809256
 20
2.669916194538615
 10
63.75239518055224
 20
2.679689310644889
 10
63.73950102520172
 20
2.679689310644889
 97
       29
330
877D
330
8761
330
8762
330
8763
330
8764
330
8765
330
8766
330
8767
330
8768
330
8769
330
876A
330
876B
330
876C
330
876D
330
876E
330
876F
330
8770
330
8771
330
8772
330
8773
330
8774
330
8775
330
8776
330
8777
330
8778
330
8779
330
877A
330
877B
330
877C
 75
     1
 76
     1
 98
        1
 10
-349.6033406415021
 20
-2.919596279967777
1001
GradientColor1ACI
1070
     5
1001
GradientColor2ACI
1070
     2
1001
ACAD
1010
0.0
1020
0.0
1030
0.0
  0
SPLINE
  5
8761
102
{ACAD_REACTORS
330
8760
102
}
330
86FF
100
AcDbEntity
  8
Capa 1
 62
     9
100
AcDbSpline
210
0.0
220
0.0
230
1.0
 70
     8
 71
     3
 72
     8
 73
     4
 74
     0
 42
0.000000001
 43
0.0000000001
 40
0.0
 40
0.0
 40
0.0
 40
0.0
 40
1.0
 40
1.0
 40
1.0
 40
1.0
 10
60.8041464761472
 20
2.674846599234346
 30
0.0
 10
60.71273135237351
 20
2.674846599234346
 30
0.0
 10
60.63791981057949
 20
2.749491150979672
 30
0.0
 10
60.63791981057949
 20
2.840953986196041
 30
0.0
  0
SPLINE
  5
8762
102
{ACAD_REACTORS
330
8760
102
}
330
86FF
100
AcDbEntity
  8
Capa 1
 62
     9
100
AcDbSpline
210
0.0
220
0.0
230
1.0
 70
    24
 71
     3
 72
     8
 73
     4
 74
     0
 42
0.000000001
 43
0.0000000001
 40
1.0
 40
1.0
 40
1.0
 40
1.0
 40
2.0
 40
2.0
 40
2.0
 40
2.0
 10
60.63791981057949
 20
2.840953986196041
 30
0.0
 10
60.63791981057949
 20
2.840953986196041
 30
0.0
 10
60.63791981057949
 20
3.427232191275891
 30
0.0
 10
60.63791981057949
 20
3.427232191275891
 30
0.0
  0
SPLINE
  5
8763
102
{ACAD_REACTORS
330
8760
102
}
330
86FF
100
AcDbEntity
  8
Capa 1
 62
     9
100
AcDbSpline
210
0.0
220
0.0
230
1.0
 70
     8
 71
     3
 72
     8
 73
     4
 74
     0
 42
0.000000001
 43
0.0000000001
 40
2.0
 40
2.0
 40
2.0
 40
2.0
 40
3.0
 40
3.0
 40
3.0
 40
3.0
 10
60.63791981057949
 20
3.427232191275891
 30
0.0
 10
60.63791981057949
 20
3.518695026491898
 30
0.0
 10
60.71273135237351
 20
3.593339578237426
 30
0.0
 10
60.8041464761472
 20
3.593339578237426
 30
0.0
  0
SPLINE
  5
8764
102
{ACAD_REACTORS
330
8760
102
}
330
86FF
100
AcDbEntity
  8
Capa 1
 62
     9
100
AcDbSpline
210
0.0
220
0.0
230
1.0
 70
    24
 71
     3
 72
     8
 73
     4
 74
     0
 42
0.000000001
 43
0.0000000001
 40
3.0
 40
3.0
 40
3.0
 40
3.0
 40
4.0
 40
4.0
 40
4.0
 40
4.0
 10
60.8041464761472
 20
3.593339578237426
 30
0.0
 10
60.8041464761472
 20
3.593339578237426
 30
0.0
 10
60.85109453553815
 20
3.593339578237426
 30
0.0
 10
60.85109453553815
 20
3.593339578237426
 30
0.0
  0
SPLINE
  5
8765
102
{ACAD_REACTORS
330
8760
102
}
330
86FF
100
AcDbEntity
  8
Capa 1
 62
     9
100
AcDbSpline
210
0.0
220
0.0
230
1.0
 70
    24
 71
     3
 72
     8
 73
     4
 74
     0
 42
0.000000001
 43
0.0000000001
 40
4.0
 40
4.0
 40
4.0
 40
4.0
 40
5.0
 40
5.0
 40
5.0
 40
5.0
 10
60.85109453553815
 20
3.593339578237426
 30
0.0
 10
60.85109453553815
 20
3.593339578237426
 30
0.0
 10
60.85109453553815
 20
3.59350656828601
 30
0.0
 10
60.85109453553815
 20
3.59350656828601
 30
0.0
  0
SPLINE
  5
8766
102
{ACAD_REACTORS
330
8760
102
}
330
86FF
100
AcDbEntity
  8
Capa 1
 62
     9
100
AcDbSpline
210
0.0
220
0.0
230
1.0
 70
    24
 71
     3
 72
     8
 73
     4
 74
     0
 42
0.000000001
 43
0.0000000001
 40
5.0
 40
5.0
 40
5.0
 40
5.0
 40
6.0
 40
6.0
 40
6.0
 40
6.0
 10
60.85109453553815
 20
3.59350656828601
 30
0.0
 10
60.85109453553815
 20
3.59350656828601
 30
0.0
 10
64.72986842560209
 20
3.59350656828601
 30
0.0
 10
64.72986842560209
 20
3.59350656828601
 30
0.0
  0
SPLINE
  5
8767
102
{ACAD_REACTORS
330
8760
102
}
330
86FF
100
AcDbEntity
  8
Capa 1
 62
     9
100
AcDbSpline
210
0.0
220
0.0
230
1.0
 70
     8
 71
     3
 72
     8
 73
     4
 74
     0
 42
0.000000001
 43
0.0000000001
 40
6.0
 40
6.0
 40
6.0
 40
6.0
 40
7.0
 40
7.0
 40
7.0
 40
7.0
 10
64.72986842560209
 20
3.59350656828601
 30
0.0
 10
64.72986842560209
 20
3.59350656828601
 30
0.0
 10
64.81326316006067
 20
3.588942969394886
 30
0.0
 10
64.86537905455754
 20
3.546302692079244
 30
0.0
  0
SPLINE
  5
8768
102
{ACAD_REACTORS
330
8760
102
}
330
86FF
100
AcDbEntity
  8
Capa 1
 62
     9
100
AcDbSpline
210
0.0
220
0.0
230
1.0
 70
     8
 71
     3
 72
     8
 73
     4
 74
     0
 42
0.000000001
 43
0.0000000001
 40
7.0
 40
7.0
 40
7.0
 40
7.0
 40
8.0
 40
8.0
 40
8.0
 40
8.0
 10
64.86537905455754
 20
3.546302692079244
 30
0.0
 10
64.93503405074881
 20
3.489312240649511
 30
0.0
 10
64.92450446981974
 20
3.380397155694936
 30
0.0
 10
64.92450446981974
 20
3.380397155694936
 30
0.0
  0
SPLINE
  5
8769
102
{ACAD_REACTORS
330
8760
102
}
330
86FF
100
AcDbEntity
  8
Capa 1
 62
     9
100
AcDbSpline
210
0.0
220
0.0
230
1.0
 70
    24
 71
     3
 72
     8
 73
     4
 74
     0
 42
0.000000001
 43
0.0000000001
 40
8.0
 40
8.0
 40
8.0
 40
8.0
 40
9.0
 40
9.0
 40
9.0
 40
9.0
 10
64.92450446981974
 20
3.380397155694936
 30
0.0
 10
64.92450446981974
 20
3.380397155694936
 30
0.0
 10
64.92450446981974
 20
2.679689310644889
 30
0.0
 10
64.92450446981974
 20
2.679689310644889
 30
0.0
  0
SPLINE
  5
876A
102
{ACAD_REACTORS
330
8760
102
}
330
86FF
100
AcDbEntity
  8
Capa 1
 62
     9
100
AcDbSpline
210
0.0
220
0.0
230
1.0
 70
     8
 71
     3
 72
     8
 73
     4
 74
     0
 42
0.000000001
 43
0.0000000001
 40
9.0
 40
9.0
 40
9.0
 40
9.0
 40
10.0
 40
10.0
 40
10.0
 40
10.0
 10
64.92450446981974
 20
2.679689310644889
 30
0.0
 10
64.92450446981974
 20
1.508707378086847
 30
0.0
 10
64.68652197287196
 20
0.7703728058529293
 30
0.0
 10
64.20978923970512
 20
0.4651149969256707
 30
0.0
  0
SPLINE
  5
876B
102
{ACAD_REACTORS
330
8760
102
}
330
86FF
100
AcDbEntity
  8
Capa 1
 62
     9
100
AcDbSpline
210
0.0
220
0.0
230
1.0
 70
     8
 71
     3
 72
    11
 73
     7
 74
     0
 42
0.000000001
 43
0.0000000001
 40
10.0
 40
10.0
 40
10.0
 40
10.0
 40
11.0
 40
11.0
 40
11.0
 40
12.0
 40
12.0
 40
12.0
 40
12.0
 10
64.20978923970512
 20
0.4651149969256707
 30
0.0
 10
63.7332473523075
 20
0.1551814666358524
 30
0.0
 10
62.62825034468648
 20
0.0000000000000178
 30
0.0
 10
60.89517990838118
 20
0.0000000000000178
 30
0.0
 10
59.13443683544273
 20
0.0000000000000178
 30
0.0
 10
58.02562291242424
 20
0.2017001230447661
 30
0.0
 10
57.56835644778533
 20
0.6058398964928529
 30
0.0
  0
SPLINE
  5
876C
102
{ACAD_REACTORS
330
8760
102
}
330
86FF
100
AcDbEntity
  8
Capa 1
 62
     9
100
AcDbSpline
210
0.0
220
0.0
230
1.0
 70
     8
 71
     3
 72
    11
 73
     7
 74
     0
 42
0.000000001
 43
0.0000000001
 40
12.0
 40
12.0
 40
12.0
 40
12.0
 40
13.0
 40
13.0
 40
13.0
 40
14.0
 40
14.0
 40
14.0
 40
14.0
 10
57.56835644778533
 20
0.6058398964928529
 30
0.0
 10
57.11299844084527
 20
1.008023500799808
 30
0.0
 10
56.885128591605
 20
1.980454265515945
 30
0.0
 10
56.885128591605
 20
3.523156046363134
 30
0.0
 10
56.885128591605
 20
5.064283349608701
 30
0.0
 10
57.11299844084527
 20
6.033207323303159
 30
0.0
 10
57.56835644778533
 20
6.430691350526281
 30
0.0
  0
SPLINE
  5
876D
102
{ACAD_REACTORS
330
8760
102
}
330
86FF
100
AcDbEntity
  8
Capa 1
 62
     9
100
AcDbSpline
210
0.0
220
0.0
230
1.0
 70
     8
 71
     3
 72
    11
 73
     7
 74
     0
 42
0.000000001
 43
0.0000000001
 40
14.0
 40
14.0
 40
14.0
 40
14.0
 40
15.0
 40
15.0
 40
15.0
 40
16.0
 40
16.0
 40
16.0
 40
16.0
 10
57.56835644778533
 20
6.430691350526281
 30
0.0
 10
58.01894331047828
 20
6.821543487246196
 30
0.0
 10
59.12794807926736
 20
7.016969555606138
 30
0.0
 10
60.89517990838118
 20
7.016969555606138
 30
0.0
 10
62.63492994663244
 20
7.016969555606138
 30
0.0
 10
63.74298048657175
 20
6.888005526607841
 30
0.0
 10
64.2195223739688
 20
6.62924251836823
 30
0.0
  0
SPLINE
  5
876E
102
{ACAD_REACTORS
330
8760
102
}
330
86FF
100
AcDbEntity
  8
Capa 1
 62
     9
100
AcDbSpline
210
0.0
220
0.0
230
1.0
 70
     8
 71
     3
 72
     8
 73
     4
 74
     0
 42
0.000000001
 43
0.0000000001
 40
16.0
 40
16.0
 40
16.0
 40
16.0
 40
17.0
 40
17.0
 40
17.0
 40
17.0
 10
64.2195223739688
 20
6.62924251836823
 30
0.0
 10
64.6867128186422
 20
6.366328614633154
 30
0.0
 10
64.90599460823756
 20
5.905770060463944
 30
0.0
 10
64.90885729478583
 20
4.899941286018283
 30
0.0
  0
SPLINE
  5
876F
102
{ACAD_REACTORS
330
8760
102
}
330
86FF
100
AcDbEntity
  8
Capa 1
 62
     9
100
AcDbSpline
210
0.0
220
0.0
230
1.0
 70
     8
 71
     3
 72
     8
 73
     4
 74
     0
 42
0.000000001
 43
0.0000000001
 40
17.0
 40
17.0
 40
17.0
 40
17.0
 40
18.0
 40
18.0
 40
18.0
 40
18.0
 10
64.90885729478583
 20
4.899941286018283
 30
0.0
 10
64.90885729478583
 20
4.89870078851407
 30
0.0
 10
64.90942983209476
 20
4.897651136779906
 30
0.0
 10
64.90942983209476
 20
4.896410639275693
 30
0.0
  0
SPLINE
  5
8770
102
{ACAD_REACTORS
330
8760
102
}
330
86FF
100
AcDbEntity
  8
Capa 1
 62
     9
100
AcDbSpline
210
0.0
220
0.0
230
1.0
 70
    24
 71
     3
 72
     8
 73
     4
 74
     0
 42
0.000000001
 43
0.0000000001
 40
18.0
 40
18.0
 40
18.0
 40
18.0
 40
19.0
 40
19.0
 40
19.0
 40
19.0
 10
64.90942983209476
 20
4.896410639275693
 30
0.0
 10
64.90942983209476
 20
4.896410639275693
 30
0.0
 10
64.90942983209476
 20
4.867091957877292
 30
0.0
 10
64.90942983209476
 20
4.867091957877292
 30
0.0
  0
SPLINE
  5
8771
102
{ACAD_REACTORS
330
8760
102
}
330
86FF
100
AcDbEntity
  8
Capa 1
 62
     9
100
AcDbSpline
210
0.0
220
0.0
230
1.0
 70
     8
 71
     3
 72
     8
 73
     4
 74
     0
 42
0.000000001
 43
0.0000000001
 40
19.0
 40
19.0
 40
19.0
 40
19.0
 40
20.0
 40
20.0
 40
20.0
 40
20.0
 10
64.90942983209476
 20
4.867091957877292
 30
0.0
 10
64.90942983209476
 20
4.775629122661243
 30
0.0
 10
64.83480913607099
 20
4.700984570915551
 30
0.0
 10
64.74339401229685
 20
4.700984570915551
 30
0.0
  0
SPLINE
  5
8772
102
{ACAD_REACTORS
330
8760
102
}
330
86FF
100
AcDbEntity
  8
Capa 1
 62
     9
100
AcDbSpline
210
0.0
220
0.0
230
1.0
 70
    24
 71
     3
 72
     8
 73
     4
 74
     0
 42
0.000000001
 43
0.0000000001
 40
20.0
 40
20.0
 40
20.0
 40
20.0
 40
21.0
 40
21.0
 40
21.0
 40
21.0
 10
64.74339401229685
 20
4.700984570915551
 30
0.0
 10
64.74339401229685
 20
4.700984570915551
 30
0.0
 10
64.07734227540647
 20
4.700984570915551
 30
0.0
 10
64.07734227540647
 20
4.700984570915551
 30
0.0
  0
SPLINE
  5
8773
102
{ACAD_REACTORS
330
8760
102
}
330
86FF
100
AcDbEntity
  8
Capa 1
 62
     9
100
AcDbSpline
210
0.0
220
0.0
230
1.0
 70
     8
 71
     3
 72
     8
 73
     4
 74
     0
 42
0.000000001
 43
0.0000000001
 40
21.0
 40
21.0
 40
21.0
 40
21.0
 40
22.0
 40
22.0
 40
22.0
 40
22.0
 10
64.07734227540647
 20
4.700984570915551
 30
0.0
 10
63.98592715163232
 20
4.700984570915551
 30
0.0
 10
63.9113064556081
 20
4.775629122661243
 30
0.0
 10
63.9113064556081
 20
4.867091957877292
 30
0.0
  0
SPLINE
  5
8774
102
{ACAD_REACTORS
330
8760
102
}
330
86FF
100
AcDbEntity
  8
Capa 1
 62
     9
100
AcDbSpline
210
0.0
220
0.0
230
1.0
 70
    24
 71
     3
 72
     8
 73
     4
 74
     0
 42
0.000000001
 43
0.0000000001
 40
22.0
 40
22.0
 40
22.0
 40
22.0
 40
23.0
 40
23.0
 40
23.0
 40
23.0
 10
63.9113064556081
 20
4.867091957877292
 30
0.0
 10
63.9113064556081
 20
4.867091957877292
 30
0.0
 10
63.9113064556081
 20
4.881763226437023
 30
0.0
 10
63.9113064556081
 20
4.881763226437023
 30
0.0
  0
SPLINE
  5
8775
102
{ACAD_REACTORS
330
8760
102
}
330
86FF
100
AcDbEntity
  8
Capa 1
 62
     9
100
AcDbSpline
210
0.0
220
0.0
230
1.0
 70
    24
 71
     3
 72
     8
 73
     4
 74
     0
 42
0.000000001
 43
0.0000000001
 40
23.0
 40
23.0
 40
23.0
 40
23.0
 40
24.0
 40
24.0
 40
24.0
 40
24.0
 10
63.9113064556081
 20
4.881763226437023
 30
0.0
 10
63.9113064556081
 20
4.881763226437023
 30
0.0
 10
63.90882546059942
 20
4.881763226437023
 30
0.0
 10
63.90882546059942
 20
4.881763226437023
 30
0.0
  0
SPLINE
  5
8776
102
{ACAD_REACTORS
330
8760
102
}
330
86FF
100
AcDbEntity
  8
Capa 1
 62
     9
100
AcDbSpline
210
0.0
220
0.0
230
1.0
 70
     8
 71
     3
 72
     8
 73
     4
 74
     0
 42
0.000000001
 43
0.0000000001
 40
24.0
 40
24.0
 40
24.0
 40
24.0
 40
25.0
 40
25.0
 40
25.0
 40
25.0
 10
63.90882546059942
 20
4.881763226437023
 30
0.0
 10
63.90882546059942
 20
5.537604714638618
 30
0.0
 10
63.75233192929585
 20
5.756480956973014
 30
0.0
 10
63.43419203090167
 20
5.89522583167799
 30
0.0
  0
SPLINE
  5
8777
102
{ACAD_REACTORS
330
8760
102
}
330
86FF
100
AcDbEntity
  8
Capa 1
 62
     9
100
AcDbSpline
210
0.0
220
0.0
230
1.0
 70
     8
 71
     3
 72
    11
 73
     7
 74
     0
 42
0.000000001
 43
0.0000000001
 40
25.0
 40
25.0
 40
25.0
 40
25.0
 40
26.0
 40
26.0
 40
26.0
 40
27.0
 40
27.0
 40
27.0
 40
27.0
 10
63.43419203090167
 20
5.89522583167799
 30
0.0
 10
63.11776974443598
 20
6.027720507418636
 30
0.0
 10
62.2715596007759
 20
6.093776999519505
 30
0.0
 10
60.89517990838118
 20
6.093776999519505
 30
0.0
 10
59.42490409720421
 20
6.093776999519505
 30
0.0
 10
58.55751007308749
 20
5.977695059988243
 30
0.0
 10
58.29299783602988
 20
5.745149489386336
 30
0.0
  0
SPLINE
  5
8778
102
{ACAD_REACTORS
330
8760
102
}
330
86FF
100
AcDbEntity
  8
Capa 1
 62
     9
100
AcDbSpline
210
0.0
220
0.0
230
1.0
 70
     8
 71
     3
 72
    11
 73
     7
 74
     0
 42
0.000000001
 43
0.0000000001
 40
27.0
 40
27.0
 40
27.0
 40
27.0
 40
28.0
 40
28.0
 40
28.0
 40
29.0
 40
29.0
 40
29.0
 40
29.0
 10
58.29299783602988
 20
5.745149489386336
 30
0.0
 10
58.02963067359184
 20
5.514154540664407
 30
0.0
 10
57.89775624660314
 20
4.770357008268086
 30
0.0
 10
57.89775624660314
 20
3.513375200656441
 30
0.0
 10
57.89775624660314
 20
2.263049139269722
 30
0.0
 10
58.03344758898965
 20
1.518464368072063
 30
0.0
 10
58.30502111953291
 20
1.279263051245636
 30
0.0
  0
SPLINE
  5
8779
102
{ACAD_REACTORS
330
8760
102
}
330
86FF
100
AcDbEntity
  8
Capa 1
 62
     9
100
AcDbSpline
210
0.0
220
0.0
230
1.0
 70
     8
 71
     3
 72
    11
 73
     7
 74
     0
 42
0.000000001
 43
0.0000000001
 40
29.0
 40
29.0
 40
29.0
 40
29.0
 40
30.0
 40
30.0
 40
30.0
 40
31.0
 40
31.0
 40
31.0
 40
31.0
 10
58.30502111953291
 20
1.279263051245636
 30
0.0
 10
58.57640380430604
 20
1.042017903559771
 30
0.0
 10
59.43979006725561
 20
0.9231925560864482
 30
0.0
 10
60.89517990838118
 20
0.9231925560864482
 30
0.0
 10
62.31679004823781
 20
0.9231925560864482
 30
0.0
 10
63.1771227788692
 20
1.005661784397258
 30
0.0
 10
63.47560556296577
 20
1.170218549478605
 30
0.0
  0
SPLINE
  5
877A
102
{ACAD_REACTORS
330
8760
102
}
330
86FF
100
AcDbEntity
  8
Capa 1
 62
     9
100
AcDbSpline
210
0.0
220
0.0
230
1.0
 70
     8
 71
     3
 72
     8
 73
     4
 74
     0
 42
0.000000001
 43
0.0000000001
 40
31.0
 40
31.0
 40
31.0
 40
31.0
 40
32.0
 40
32.0
 40
32.0
 40
32.0
 10
63.47560556296577
 20
1.170218549478605
 30
0.0
 10
63.74333206725265
 20
1.322009118411664
 30
0.0
 10
63.88787170203312
 20
1.761354111530824
 30
0.0
 10
63.90891161877568
 20
2.487940680303346
 30
0.0
  0
SPLINE
  5
877B
102
{ACAD_REACTORS
330
8760
102
}
330
86FF
100
AcDbEntity
  8
Capa 1
 62
     9
100
AcDbSpline
210
0.0
220
0.0
230
1.0
 70
     8
 71
     3
 72
     8
 73
     4
 74
     0
 42
0.000000001
 43
0.0000000001
 40
32.0
 40
32.0
 40
32.0
 40
32.0
 40
33.0
 40
33.0
 40
33.0
 40
33.0
 10
63.90891161877568
 20
2.487940680303346
 30
0.0
 10
63.90891161877568
 20
2.487940680303346
 30
0.0
 10
63.91490497015803
 20
2.559734655107903
 30
0.0
 10
63.86445786685528
 20
2.619680166982192
 30
0.0
  0
SPLINE
  5
877C
102
{ACAD_REACTORS
330
8760
102
}
330
86FF
100
AcDbEntity
  8
Capa 1
 62
     9
100
AcDbSpline
210
0.0
220
0.0
230
1.0
 70
     8
 71
     3
 72
     8
 73
     4
 74
     0
 42
0.000000001
 43
0.0000000001
 40
33.0
 40
33.0
 40
33.0
 40
33.0
 40
34.0
 40
34.0
 40
34.0
 40
34.0
 10
63.86445786685528
 20
2.619680166982192
 30
0.0
 10
63.82519777809256
 20
2.669916194538615
 30
0.0
 10
63.75239518055224
 20
2.679689310644889
 30
0.0
 10
63.73950102520172
 20
2.679689310644889
 30
0.0
  0
SPLINE
  5
877D
102
{ACAD_REACTORS
330
8760
102
}
330
86FF
100
AcDbEntity
  8
Capa 1
 62
     9
100
AcDbSpline
210
0.0
220
0.0
230
1.0
 70
    24
 71
     3
 72
     8
 73
     4
 74
     0
 42
0.000000001
 43
0.0000000001
 40
34.0
 40
34.0
 40
34.0
 40
34.0
 40
35.0
 40
35.0
 40
35.0
 40
35.0
 10
63.73950102520172
 20
2.679689310644889
 30
0.0
 10
63.73950102520172
 20
2.679689310644889
 30
0.0
 10
60.8041464761472
 20
2.674846599234346
 30
0.0
 10
60.8041464761472
 20
2.674846599234346
 30
0.0
  0
HATCH
  5
877E
330
86FF
100
AcDbEntity
  8
COTAS
 62
     9
100
AcDbHatch
 10
0.0
 20
0.0
 30
0.0
210
0.0
220
0.0
230
1.0
  2
SOLID
 70
     1
 71
     1
 91
        1
 92
        1
 93
       23
 72
     4
 94
        3
 73
     0
 74
     0
 95
       11
 96
        7
 40
22.0
 40
22.0
 40
22.0
 40
22.0
 40
23.0
 40
23.0
 40
23.0
 40
24.0
 40
24.0
 40
24.0
 40
24.0
 10
66.4706179307554
 20
0.1091096659547759
 10
66.38142300979024
 20
0.1091096659547759
 10
66.30861878248487
 20
0.1819160744192097
 10
66.30861878248487
 20
0.2711139035964365
 10
66.30861878248487
 20
0.2711139035964365
 10
66.30861878248487
 20
6.769943963863554
 10
66.30861878248487
 20
6.769943963863554
 72
     4
 94
        3
 73
     0
 74
     0
 95
        8
 96
        4
 40
0.0
 40
0.0
 40
0.0
 40
0.0
 40
1.0
 40
1.0
 40
1.0
 40
1.0
 10
66.30861878248487
 20
6.769943963863554
 10
66.30861878248487
 20
6.859141065987188
 10
66.38142300979024
 20
6.931947474451022
 10
66.4706179307554
 20
6.931947474451022
 72
     4
 94
        3
 73
     0
 74
     0
 95
        8
 96
        4
 40
1.0
 40
1.0
 40
1.0
 40
1.0
 40
2.0
 40
2.0
 40
2.0
 40
2.0
 10
66.4706179307554
 20
6.931947474451022
 10
66.4706179307554
 20
6.931947474451022
 10
67.1643781780877
 20
6.931947474451022
 10
67.1643781780877
 20
6.931947474451022
 72
     4
 94
        3
 73
     0
 74
     0
 95
        8
 96
        4
 40
2.0
 40
2.0
 40
2.0
 40
2.0
 40
3.0
 40
3.0
 40
3.0
 40
3.0
 10
67.1643781780877
 20
6.931947474451022
 10
67.25357309904535
 20
6.931947474451022
 10
67.32638314277875
 20
6.859141065987188
 10
67.32638314277875
 20
6.769943963863554
 72
     4
 94
        3
 73
     0
 74
     0
 95
        8
 96
        4
 40
3.0
 40
3.0
 40
3.0
 40
3.0
 40
4.0
 40
4.0
 40
4.0
 40
4.0
 10
67.32638314277875
 20
6.769943963863554
 10
67.32638314277875
 20
6.769943963863554
 10
67.32638314277875
 20
4.201135329494889
 10
67.32638314277875
 20
4.201135329494889
 72
     4
 94
        3
 73
     0
 74
     0
 95
        8
 96
        4
 40
4.0
 40
4.0
 40
4.0
 40
4.0
 40
5.0
 40
5.0
 40
5.0
 40
5.0
 10
67.32638314277875
 20
4.201135329494889
 10
67.32638314277875
 20
4.111937863844986
 10
67.39957125432232
 20
4.039131455380591
 10
67.48838229104621
 20
4.039131455380591
 72
     4
 94
        3
 73
     0
 74
     0
 95
        8
 96
        4
 40
5.0
 40
5.0
 40
5.0
 40
5.0
 40
6.0
 40
6.0
 40
6.0
 40
6.0
 10
67.48838229104621
 20
4.039131455380591
 10
67.48838229104621
 20
4.039131455380591
 10
73.0399707245046
 20
4.039131455380591
 10
73.0399707245046
 20
4.039131455380591
 72
     4
 94
        3
 73
     0
 74
     0
 95
        8
 96
        4
 40
6.0
 40
6.0
 40
6.0
 40
6.0
 40
7.0
 40
7.0
 40
7.0
 40
7.0
 10
73.0399707245046
 20
4.039131455380591
 10
73.12954952970455
 20
4.039131455380591
 10
73.20235375700685
 20
4.111937863844986
 10
73.20235375700685
 20
4.201135329494889
 72
     4
 94
        3
 73
     0
 74
     0
 95
        8
 96
        4
 40
7.0
 40
7.0
 40
7.0
 40
7.0
 40
8.0
 40
8.0
 40
8.0
 40
8.0
 10
73.20235375700685
 20
4.201135329494889
 10
73.20235375700685
 20
4.201135329494889
 10
73.20235375700685
 20
6.769943963863554
 10
73.20235375700685
 20
6.769943963863554
 72
     4
 94
        3
 73
     0
 74
     0
 95
        8
 96
        4
 40
8.0
 40
8.0
 40
8.0
 40
8.0
 40
9.0
 40
9.0
 40
9.0
 40
9.0
 10
73.20235375700685
 20
6.769943963863554
 10
73.20235375700685
 20
6.859141065987188
 10
73.27515798431176
 20
6.931947474451022
 10
73.36435872170586
 20
6.931947474451022
 72
     4
 94
        3
 73
     0
 74
     0
 95
        8
 96
        4
 40
9.0
 40
9.0
 40
9.0
 40
9.0
 40
10.0
 40
10.0
 40
10.0
 40
10.0
 10
73.36435872170586
 20
6.931947474451022
 10
73.36435872170586
 20
6.931947474451022
 10
74.04820777598985
 20
6.931947474451022
 10
74.04820777598985
 20
6.931947474451022
 72
     4
 94
        3
 73
     0
 74
     0
 95
        8
 96
        4
 40
10.0
 40
10.0
 40
10.0
 40
10.0
 40
11.0
 40
11.0
 40
11.0
 40
11.0
 10
74.04820777598985
 20
6.931947474451022
 10
74.13740269695285
 20
6.931947474451022
 10
74.21020692425424
 20
6.859141065987188
 10
74.21020692425424
 20
6.769943963863554
 72
     4
 94
        3
 73
     0
 74
     0
 95
        8
 96
        4
 40
11.0
 40
11.0
 40
11.0
 40
11.0
 40
12.0
 40
12.0
 40
12.0
 40
12.0
 10
74.21020692425424
 20
6.769943963863554
 10
74.21020692425424
 20
6.769943963863554
 10
74.21020692425424
 20
0.2711139035964365
 10
74.21020692425424
 20
0.2711139035964365
 72
     4
 94
        3
 73
     0
 74
     0
 95
        8
 96
        4
 40
12.0
 40
12.0
 40
12.0
 40
12.0
 40
13.0
 40
13.0
 40
13.0
 40
13.0
 10
74.21020692425424
 20
0.2711139035964365
 10
74.21020692425424
 20
0.1819160744192097
 10
74.13740269695285
 20
0.1091096659547759
 10
74.04820777598985
 20
0.1091096659547759
 72
     4
 94
        3
 73
     0
 74
     0
 95
        8
 96
        4
 40
13.0
 40
13.0
 40
13.0
 40
13.0
 40
14.0
 40
14.0
 40
14.0
 40
14.0
 10
74.04820777598985
 20
0.1091096659547759
 10
74.04820777598985
 20
0.1091096659547759
 10
73.36435872170586
 20
0.1091096659547759
 10
73.36435872170586
 20
0.1091096659547759
 72
     4
 94
        3
 73
     0
 74
     0
 95
        8
 96
        4
 40
14.0
 40
14.0
 40
14.0
 40
14.0
 40
15.0
 40
15.0
 40
15.0
 40
15.0
 10
73.36435872170586
 20
0.1091096659547759
 10
73.27515798431176
 20
0.1091096659547759
 10
73.20235375700685
 20
0.1819160744192097
 10
73.20235375700685
 20
0.2711139035964365
 72
     4
 94
        3
 73
     0
 74
     0
 95
        8
 96
        4
 40
15.0
 40
15.0
 40
15.0
 40
15.0
 40
16.0
 40
16.0
 40
16.0
 40
16.0
 10
73.20235375700685
 20
0.2711139035964365
 10
73.20235375700685
 20
0.2711139035964365
 10
73.20235375700685
 20
2.959233468188572
 10
73.20235375700685
 20
2.959233468188572
 72
     4
 94
        3
 73
     0
 74
     0
 95
        8
 96
        4
 40
16.0
 40
16.0
 40
16.0
 40
16.0
 40
17.0
 40
17.0
 40
17.0
 40
17.0
 10
73.20235375700685
 20
2.959233468188572
 10
73.20235375700685
 20
3.048049594289466
 10
73.12954952970455
 20
3.121237342303239
 10
73.0399707245046
 20
3.121237342303239
 72
     4
 94
        3
 73
     0
 74
     0
 95
        8
 96
        4
 40
17.0
 40
17.0
 40
17.0
 40
17.0
 40
18.0
 40
18.0
 40
18.0
 40
18.0
 10
73.0399707245046
 20
3.121237342303239
 10
73.0399707245046
 20
3.121237342303239
 10
67.48838229104621
 20
3.121237342303239
 10
67.48838229104621
 20
3.121237342303239
 72
     4
 94
        3
 73
     0
 74
     0
 95
        8
 96
        4
 40
18.0
 40
18.0
 40
18.0
 40
18.0
 40
19.0
 40
19.0
 40
19.0
 40
19.0
 10
67.48838229104621
 20
3.121237342303239
 10
67.39957125432232
 20
3.121237342303239
 10
67.32638314277875
 20
3.048049594289466
 10
67.32638314277875
 20
2.959233468188572
 72
     4
 94
        3
 73
     0
 74
     0
 95
        8
 96
        4
 40
19.0
 40
19.0
 40
19.0
 40
19.0
 40
20.0
 40
20.0
 40
20.0
 40
20.0
 10
67.32638314277875
 20
2.959233468188572
 10
67.32638314277875
 20
2.959233468188572
 10
67.32638314277875
 20
0.2711139035964365
 10
67.32638314277875
 20
0.2711139035964365
 72
     4
 94
        3
 73
     0
 74
     0
 95
        8
 96
        4
 40
20.0
 40
20.0
 40
20.0
 40
20.0
 40
21.0
 40
21.0
 40
21.0
 40
21.0
 10
67.32638314277875
 20
0.2711139035964365
 10
67.32638314277875
 20
0.1819160744192097
 10
67.25357309904535
 20
0.1091096659547759
 10
67.1643781780877
 20
0.1091096659547759
 72
     4
 94
        3
 73
     0
 74
     0
 95
        8
 96
        4
 40
21.0
 40
21.0
 40
21.0
 40
21.0
 40
22.0
 40
22.0
 40
22.0
 40
22.0
 10
67.1643781780877
 20
0.1091096659547759
 10
67.1643781780877
 20
0.1091096659547759
 10
66.4706179307554
 20
0.1091096659547759
 10
66.4706179307554
 20
0.1091096659547759
 97
       23
330
8795
330
877F
330
8780
330
8781
330
8782
330
8783
330
8784
330
8785
330
8786
330
8787
330
8788
330
8789
330
878A
330
878B
330
878C
330
878D
330
878E
330
878F
330
8790
330
8791
330
8792
330
8793
330
8794
 75
     1
 76
     1
 98
        1
 10
-349.6033406415021
 20
-2.919596279967777
1001
GradientColor1ACI
1070
     5
1001
GradientColor2ACI
1070
     2
1001
ACAD
1010
0.0
1020
0.0
1030
0.0
  0
SPLINE
  5
877F
102
{ACAD_REACTORS
330
877E
102
}
330
86FF
100
AcDbEntity
  8
Capa 1
 62
     9
100
AcDbSpline
210
0.0
220
0.0
230
1.0
 70
     8
 71
     3
 72
     8
 73
     4
 74
     0
 42
0.000000001
 43
0.0000000001
 40
0.0
 40
0.0
 40
0.0
 40
0.0
 40
1.0
 40
1.0
 40
1.0
 40
1.0
 10
66.30861878248487
 20
6.769943963863554
 30
0.0
 10
66.30861878248487
 20
6.859141065987188
 30
0.0
 10
66.38142300979024
 20
6.931947474451022
 30
0.0
 10
66.4706179307554
 20
6.931947474451022
 30
0.0
  0
SPLINE
  5
8780
102
{ACAD_REACTORS
330
877E
102
}
330
86FF
100
AcDbEntity
  8
Capa 1
 62
     9
100
AcDbSpline
210
0.0
220
0.0
230
1.0
 70
    24
 71
     3
 72
     8
 73
     4
 74
     0
 42
0.000000001
 43
0.0000000001
 40
1.0
 40
1.0
 40
1.0
 40
1.0
 40
2.0
 40
2.0
 40
2.0
 40
2.0
 10
66.4706179307554
 20
6.931947474451022
 30
0.0
 10
66.4706179307554
 20
6.931947474451022
 30
0.0
 10
67.1643781780877
 20
6.931947474451022
 30
0.0
 10
67.1643781780877
 20
6.931947474451022
 30
0.0
  0
SPLINE
  5
8781
102
{ACAD_REACTORS
330
877E
102
}
330
86FF
100
AcDbEntity
  8
Capa 1
 62
     9
100
AcDbSpline
210
0.0
220
0.0
230
1.0
 70
     8
 71
     3
 72
     8
 73
     4
 74
     0
 42
0.000000001
 43
0.0000000001
 40
2.0
 40
2.0
 40
2.0
 40
2.0
 40
3.0
 40
3.0
 40
3.0
 40
3.0
 10
67.1643781780877
 20
6.931947474451022
 30
0.0
 10
67.25357309904535
 20
6.931947474451022
 30
0.0
 10
67.32638314277875
 20
6.859141065987188
 30
0.0
 10
67.32638314277875
 20
6.769943963863554
 30
0.0
  0
SPLINE
  5
8782
102
{ACAD_REACTORS
330
877E
102
}
330
86FF
100
AcDbEntity
  8
Capa 1
 62
     9
100
AcDbSpline
210
0.0
220
0.0
230
1.0
 70
    24
 71
     3
 72
     8
 73
     4
 74
     0
 42
0.000000001
 43
0.0000000001
 40
3.0
 40
3.0
 40
3.0
 40
3.0
 40
4.0
 40
4.0
 40
4.0
 40
4.0
 10
67.32638314277875
 20
6.769943963863554
 30
0.0
 10
67.32638314277875
 20
6.769943963863554
 30
0.0
 10
67.32638314277875
 20
4.201135329494889
 30
0.0
 10
67.32638314277875
 20
4.201135329494889
 30
0.0
  0
SPLINE
  5
8783
102
{ACAD_REACTORS
330
877E
102
}
330
86FF
100
AcDbEntity
  8
Capa 1
 62
     9
100
AcDbSpline
210
0.0
220
0.0
230
1.0
 70
     8
 71
     3
 72
     8
 73
     4
 74
     0
 42
0.000000001
 43
0.0000000001
 40
4.0
 40
4.0
 40
4.0
 40
4.0
 40
5.0
 40
5.0
 40
5.0
 40
5.0
 10
67.32638314277875
 20
4.201135329494889
 30
0.0
 10
67.32638314277875
 20
4.111937863844986
 30
0.0
 10
67.39957125432232
 20
4.039131455380591
 30
0.0
 10
67.48838229104621
 20
4.039131455380591
 30
0.0
  0
SPLINE
  5
8784
102
{ACAD_REACTORS
330
877E
102
}
330
86FF
100
AcDbEntity
  8
Capa 1
 62
     9
100
AcDbSpline
210
0.0
220
0.0
230
1.0
 70
    24
 71
     3
 72
     8
 73
     4
 74
     0
 42
0.000000001
 43
0.0000000001
 40
5.0
 40
5.0
 40
5.0
 40
5.0
 40
6.0
 40
6.0
 40
6.0
 40
6.0
 10
67.48838229104621
 20
4.039131455380591
 30
0.0
 10
67.48838229104621
 20
4.039131455380591
 30
0.0
 10
73.0399707245046
 20
4.039131455380591
 30
0.0
 10
73.0399707245046
 20
4.039131455380591
 30
0.0
  0
SPLINE
  5
8785
102
{ACAD_REACTORS
330
877E
102
}
330
86FF
100
AcDbEntity
  8
Capa 1
 62
     9
100
AcDbSpline
210
0.0
220
0.0
230
1.0
 70
     8
 71
     3
 72
     8
 73
     4
 74
     0
 42
0.000000001
 43
0.0000000001
 40
6.0
 40
6.0
 40
6.0
 40
6.0
 40
7.0
 40
7.0
 40
7.0
 40
7.0
 10
73.0399707245046
 20
4.039131455380591
 30
0.0
 10
73.12954952970455
 20
4.039131455380591
 30
0.0
 10
73.20235375700685
 20
4.111937863844986
 30
0.0
 10
73.20235375700685
 20
4.201135329494889
 30
0.0
  0
SPLINE
  5
8786
102
{ACAD_REACTORS
330
877E
102
}
330
86FF
100
AcDbEntity
  8
Capa 1
 62
     9
100
AcDbSpline
210
0.0
220
0.0
230
1.0
 70
    24
 71
     3
 72
     8
 73
     4
 74
     0
 42
0.000000001
 43
0.0000000001
 40
7.0
 40
7.0
 40
7.0
 40
7.0
 40
8.0
 40
8.0
 40
8.0
 40
8.0
 10
73.20235375700685
 20
4.201135329494889
 30
0.0
 10
73.20235375700685
 20
4.201135329494889
 30
0.0
 10
73.20235375700685
 20
6.769943963863554
 30
0.0
 10
73.20235375700685
 20
6.769943963863554
 30
0.0
  0
SPLINE
  5
8787
102
{ACAD_REACTORS
330
877E
102
}
330
86FF
100
AcDbEntity
  8
Capa 1
 62
     9
100
AcDbSpline
210
0.0
220
0.0
230
1.0
 70
     8
 71
     3
 72
     8
 73
     4
 74
     0
 42
0.000000001
 43
0.0000000001
 40
8.0
 40
8.0
 40
8.0
 40
8.0
 40
9.0
 40
9.0
 40
9.0
 40
9.0
 10
73.20235375700685
 20
6.769943963863554
 30
0.0
 10
73.20235375700685
 20
6.859141065987188
 30
0.0
 10
73.27515798431176
 20
6.931947474451022
 30
0.0
 10
73.36435872170586
 20
6.931947474451022
 30
0.0
  0
SPLINE
  5
8788
102
{ACAD_REACTORS
330
877E
102
}
330
86FF
100
AcDbEntity
  8
Capa 1
 62
     9
100
AcDbSpline
210
0.0
220
0.0
230
1.0
 70
    24
 71
     3
 72
     8
 73
     4
 74
     0
 42
0.000000001
 43
0.0000000001
 40
9.0
 40
9.0
 40
9.0
 40
9.0
 40
10.0
 40
10.0
 40
10.0
 40
10.0
 10
73.36435872170586
 20
6.931947474451022
 30
0.0
 10
73.36435872170586
 20
6.931947474451022
 30
0.0
 10
74.04820777598985
 20
6.931947474451022
 30
0.0
 10
74.04820777598985
 20
6.931947474451022
 30
0.0
  0
SPLINE
  5
8789
102
{ACAD_REACTORS
330
877E
102
}
330
86FF
100
AcDbEntity
  8
Capa 1
 62
     9
100
AcDbSpline
210
0.0
220
0.0
230
1.0
 70
     8
 71
     3
 72
     8
 73
     4
 74
     0
 42
0.000000001
 43
0.0000000001
 40
10.0
 40
10.0
 40
10.0
 40
10.0
 40
11.0
 40
11.0
 40
11.0
 40
11.0
 10
74.04820777598985
 20
6.931947474451022
 30
0.0
 10
74.13740269695285
 20
6.931947474451022
 30
0.0
 10
74.21020692425424
 20
6.859141065987188
 30
0.0
 10
74.21020692425424
 20
6.769943963863554
 30
0.0
  0
SPLINE
  5
878A
102
{ACAD_REACTORS
330
877E
102
}
330
86FF
100
AcDbEntity
  8
Capa 1
 62
     9
100
AcDbSpline
210
0.0
220
0.0
230
1.0
 70
    24
 71
     3
 72
     8
 73
     4
 74
     0
 42
0.000000001
 43
0.0000000001
 40
11.0
 40
11.0
 40
11.0
 40
11.0
 40
12.0
 40
12.0
 40
12.0
 40
12.0
 10
74.21020692425424
 20
6.769943963863554
 30
0.0
 10
74.21020692425424
 20
6.769943963863554
 30
0.0
 10
74.21020692425424
 20
0.2711139035964365
 30
0.0
 10
74.21020692425424
 20
0.2711139035964365
 30
0.0
  0
SPLINE
  5
878B
102
{ACAD_REACTORS
330
877E
102
}
330
86FF
100
AcDbEntity
  8
Capa 1
 62
     9
100
AcDbSpline
210
0.0
220
0.0
230
1.0
 70
     8
 71
     3
 72
     8
 73
     4
 74
     0
 42
0.000000001
 43
0.0000000001
 40
12.0
 40
12.0
 40
12.0
 40
12.0
 40
13.0
 40
13.0
 40
13.0
 40
13.0
 10
74.21020692425424
 20
0.2711139035964365
 30
0.0
 10
74.21020692425424
 20
0.1819160744192097
 30
0.0
 10
74.13740269695285
 20
0.1091096659547759
 30
0.0
 10
74.04820777598985
 20
0.1091096659547759
 30
0.0
  0
SPLINE
  5
878C
102
{ACAD_REACTORS
330
877E
102
}
330
86FF
100
AcDbEntity
  8
Capa 1
 62
     9
100
AcDbSpline
210
0.0
220
0.0
230
1.0
 70
    24
 71
     3
 72
     8
 73
     4
 74
     0
 42
0.000000001
 43
0.0000000001
 40
13.0
 40
13.0
 40
13.0
 40
13.0
 40
14.0
 40
14.0
 40
14.0
 40
14.0
 10
74.04820777598985
 20
0.1091096659547759
 30
0.0
 10
74.04820777598985
 20
0.1091096659547759
 30
0.0
 10
73.36435872170586
 20
0.1091096659547759
 30
0.0
 10
73.36435872170586
 20
0.1091096659547759
 30
0.0
  0
SPLINE
  5
878D
102
{ACAD_REACTORS
330
877E
102
}
330
86FF
100
AcDbEntity
  8
Capa 1
 62
     9
100
AcDbSpline
210
0.0
220
0.0
230
1.0
 70
     8
 71
     3
 72
     8
 73
     4
 74
     0
 42
0.000000001
 43
0.0000000001
 40
14.0
 40
14.0
 40
14.0
 40
14.0
 40
15.0
 40
15.0
 40
15.0
 40
15.0
 10
73.36435872170586
 20
0.1091096659547759
 30
0.0
 10
73.27515798431176
 20
0.1091096659547759
 30
0.0
 10
73.20235375700685
 20
0.1819160744192097
 30
0.0
 10
73.20235375700685
 20
0.2711139035964365
 30
0.0
  0
SPLINE
  5
878E
102
{ACAD_REACTORS
330
877E
102
}
330
86FF
100
AcDbEntity
  8
Capa 1
 62
     9
100
AcDbSpline
210
0.0
220
0.0
230
1.0
 70
    24
 71
     3
 72
     8
 73
     4
 74
     0
 42
0.000000001
 43
0.0000000001
 40
15.0
 40
15.0
 40
15.0
 40
15.0
 40
16.0
 40
16.0
 40
16.0
 40
16.0
 10
73.20235375700685
 20
0.2711139035964365
 30
0.0
 10
73.20235375700685
 20
0.2711139035964365
 30
0.0
 10
73.20235375700685
 20
2.959233468188572
 30
0.0
 10
73.20235375700685
 20
2.959233468188572
 30
0.0
  0
SPLINE
  5
878F
102
{ACAD_REACTORS
330
877E
102
}
330
86FF
100
AcDbEntity
  8
Capa 1
 62
     9
100
AcDbSpline
210
0.0
220
0.0
230
1.0
 70
     8
 71
     3
 72
     8
 73
     4
 74
     0
 42
0.000000001
 43
0.0000000001
 40
16.0
 40
16.0
 40
16.0
 40
16.0
 40
17.0
 40
17.0
 40
17.0
 40
17.0
 10
73.20235375700685
 20
2.959233468188572
 30
0.0
 10
73.20235375700685
 20
3.048049594289466
 30
0.0
 10
73.12954952970455
 20
3.121237342303239
 30
0.0
 10
73.0399707245046
 20
3.121237342303239
 30
0.0
  0
SPLINE
  5
8790
102
{ACAD_REACTORS
330
877E
102
}
330
86FF
100
AcDbEntity
  8
Capa 1
 62
     9
100
AcDbSpline
210
0.0
220
0.0
230
1.0
 70
    24
 71
     3
 72
     8
 73
     4
 74
     0
 42
0.000000001
 43
0.0000000001
 40
17.0
 40
17.0
 40
17.0
 40
17.0
 40
18.0
 40
18.0
 40
18.0
 40
18.0
 10
73.0399707245046
 20
3.121237342303239
 30
0.0
 10
73.0399707245046
 20
3.121237342303239
 30
0.0
 10
67.48838229104621
 20
3.121237342303239
 30
0.0
 10
67.48838229104621
 20
3.121237342303239
 30
0.0
  0
SPLINE
  5
8791
102
{ACAD_REACTORS
330
877E
102
}
330
86FF
100
AcDbEntity
  8
Capa 1
 62
     9
100
AcDbSpline
210
0.0
220
0.0
230
1.0
 70
     8
 71
     3
 72
     8
 73
     4
 74
     0
 42
0.000000001
 43
0.0000000001
 40
18.0
 40
18.0
 40
18.0
 40
18.0
 40
19.0
 40
19.0
 40
19.0
 40
19.0
 10
67.48838229104621
 20
3.121237342303239
 30
0.0
 10
67.39957125432232
 20
3.121237342303239
 30
0.0
 10
67.32638314277875
 20
3.048049594289466
 30
0.0
 10
67.32638314277875
 20
2.959233468188572
 30
0.0
  0
SPLINE
  5
8792
102
{ACAD_REACTORS
330
877E
102
}
330
86FF
100
AcDbEntity
  8
Capa 1
 62
     9
100
AcDbSpline
210
0.0
220
0.0
230
1.0
 70
    24
 71
     3
 72
     8
 73
     4
 74
     0
 42
0.000000001
 43
0.0000000001
 40
19.0
 40
19.0
 40
19.0
 40
19.0
 40
20.0
 40
20.0
 40
20.0
 40
20.0
 10
67.32638314277875
 20
2.959233468188572
 30
0.0
 10
67.32638314277875
 20
2.959233468188572
 30
0.0
 10
67.32638314277875
 20
0.2711139035964365
 30
0.0
 10
67.32638314277875
 20
0.2711139035964365
 30
0.0
  0
SPLINE
  5
8793
102
{ACAD_REACTORS
330
877E
102
}
330
86FF
100
AcDbEntity
  8
Capa 1
 62
     9
100
AcDbSpline
210
0.0
220
0.0
230
1.0
 70
     8
 71
     3
 72
     8
 73
     4
 74
     0
 42
0.000000001
 43
0.0000000001
 40
20.0
 40
20.0
 40
20.0
 40
20.0
 40
21.0
 40
21.0
 40
21.0
 40
21.0
 10
67.32638314277875
 20
0.2711139035964365
 30
0.0
 10
67.32638314277875
 20
0.1819160744192097
 30
0.0
 10
67.25357309904535
 20
0.1091096659547759
 30
0.0
 10
67.1643781780877
 20
0.1091096659547759
 30
0.0
  0
SPLINE
  5
8794
102
{ACAD_REACTORS
330
877E
102
}
330
86FF
100
AcDbEntity
  8
Capa 1
 62
     9
100
AcDbSpline
210
0.0
220
0.0
230
1.0
 70
    24
 71
     3
 72
     8
 73
     4
 74
     0
 42
0.000000001
 43
0.0000000001
 40
21.0
 40
21.0
 40
21.0
 40
21.0
 40
22.0
 40
22.0
 40
22.0
 40
22.0
 10
67.1643781780877
 20
0.1091096659547759
 30
0.0
 10
67.1643781780877
 20
0.1091096659547759
 30
0.0
 10
66.4706179307554
 20
0.1091096659547759
 30
0.0
 10
66.4706179307554
 20
0.1091096659547759
 30
0.0
  0
SPLINE
  5
8795
102
{ACAD_REACTORS
330
877E
102
}
330
86FF
100
AcDbEntity
  8
Capa 1
 62
     9
100
AcDbSpline
210
0.0
220
0.0
230
1.0
 70
     8
 71
     3
 72
    11
 73
     7
 74
     0
 42
0.000000001
 43
0.0000000001
 40
22.0
 40
22.0
 40
22.0
 40
22.0
 40
23.0
 40
23.0
 40
23.0
 40
24.0
 40
24.0
 40
24.0
 40
24.0
 10
66.4706179307554
 20
0.1091096659547759
 30
0.0
 10
66.38142300979024
 20
0.1091096659547759
 30
0.0
 10
66.30861878248487
 20
0.1819160744192097
 30
0.0
 10
66.30861878248487
 20
0.2711139035964365
 30
0.0
 10
66.30861878248487
 20
0.2711139035964365
 30
0.0
 10
66.30861878248487
 20
6.769943963863554
 30
0.0
 10
66.30861878248487
 20
6.769943963863554
 30
0.0
  0
HATCH
  5
8796
330
86FF
100
AcDbEntity
  8
COTAS
 62
     9
100
AcDbHatch
 10
0.0
 20
0.0
 30
0.0
210
0.0
220
0.0
230
1.0
  2
SOLID
 70
     1
 71
     1
 91
        1
 92
        1
 93
       16
 72
     4
 94
        3
 73
     0
 74
     0
 95
        8
 96
        4
 40
15.0
 40
15.0
 40
15.0
 40
15.0
 40
16.0
 40
16.0
 40
16.0
 40
16.0
 10
75.59431905882303
 20
6.158668878740713
 10
75.59431905882303
 20
6.158668878740713
 10
75.59431905882303
 20
6.758318019659228
 10
75.59431905882303
 20
6.758318019659228
 72
     4
 94
        3
 73
     0
 74
     0
 95
        8
 96
        4
 40
0.0
 40
0.0
 40
0.0
 40
0.0
 40
1.0
 40
1.0
 40
1.0
 40
1.0
 10
75.59431905882303
 20
6.758318019659228
 10
75.59431905882303
 20
6.848380535565539
 10
75.6678296519213
 20
6.921893330983849
 10
75.7578899655037
 20
6.921893330983849
 72
     4
 94
        3
 73
     0
 74
     0
 95
        8
 96
        4
 40
1.0
 40
1.0
 40
1.0
 40
1.0
 40
2.0
 40
2.0
 40
2.0
 40
2.0
 10
75.7578899655037
 20
6.921893330983849
 10
75.7578899655037
 20
6.921893330983849
 10
82.63191444682099
 20
6.921893330983849
 10
82.63191444682099
 20
6.921893330983849
 72
     4
 94
        3
 73
     0
 74
     0
 95
        8
 96
        4
 40
2.0
 40
2.0
 40
2.0
 40
2.0
 40
3.0
 40
3.0
 40
3.0
 40
3.0
 10
82.63191444682099
 20
6.921893330983849
 10
82.72198063326772
 20
6.921893330983849
 10
82.7954912263611
 20
6.848380535565539
 10
82.7954912263611
 20
6.758318019659228
 72
     4
 94
        3
 73
     0
 74
     0
 95
        8
 96
        4
 40
3.0
 40
3.0
 40
3.0
 40
3.0
 40
4.0
 40
4.0
 40
4.0
 40
4.0
 10
82.7954912263611
 20
6.758318019659228
 10
82.7954912263611
 20
6.758318019659228
 10
82.7954912263611
 20
6.158668878740713
 10
82.7954912263611
 20
6.158668878740713
 72
     4
 94
        3
 73
     0
 74
     0
 95
        8
 96
        4
 40
4.0
 40
4.0
 40
4.0
 40
4.0
 40
5.0
 40
5.0
 40
5.0
 40
5.0
 10
82.7954912263611
 20
6.158668878740713
 10
82.7954912263611
 20
6.06860599578107
 10
82.72198063326772
 20
5.995093200363122
 10
82.63191444682099
 20
5.995093200363122
 72
     4
 94
        3
 73
     0
 74
     0
 95
        8
 96
        4
 40
5.0
 40
5.0
 40
5.0
 40
5.0
 40
6.0
 40
6.0
 40
6.0
 40
6.0
 10
82.63191444682099
 20
5.995093200363122
 10
82.63191444682099
 20
5.995093200363122
 10
79.87615107121081
 20
5.995093200363122
 10
79.87615107121081
 20
5.995093200363122
 72
     4
 94
        3
 73
     0
 74
     0
 95
        8
 96
        4
 40
6.0
 40
6.0
 40
6.0
 40
6.0
 40
7.0
 40
7.0
 40
7.0
 40
7.0
 10
79.87615107121081
 20
5.995093200363122
 10
79.78608488476897
 20
5.995093200363122
 10
79.7125742916707
 20
5.921580404944216
 10
79.7125742916707
 20
5.831517889038146
 72
     4
 94
        3
 73
     0
 74
     0
 95
        8
 96
        4
 40
7.0
 40
7.0
 40
7.0
 40
7.0
 40
8.0
 40
8.0
 40
8.0
 40
8.0
 10
79.7125742916707
 20
5.831517889038146
 10
79.7125742916707
 20
5.831517889038146
 10
79.7125742916707
 20
0.1964345981314288
 10
79.7125742916707
 20
0.1964345981314288
 72
     4
 94
        3
 73
     0
 74
     0
 95
        8
 96
        4
 40
8.0
 40
8.0
 40
8.0
 40
8.0
 40
9.0
 40
9.0
 40
9.0
 40
9.0
 10
79.7125742916707
 20
0.1964345981314288
 10
79.7125742916707
 20
0.1063713481178077
 10
79.63905782571231
 20
0.0328585526992597
 10
79.54899751213435
 20
0.0328585526992597
 72
     4
 94
        3
 73
     0
 74
     0
 95
        8
 96
        4
 40
9.0
 40
9.0
 40
9.0
 40
9.0
 40
10.0
 40
10.0
 40
10.0
 40
10.0
 10
79.54899751213435
 20
0.0328585526992597
 10
79.54899751213435
 20
0.0328585526992597
 10
78.84850622012226
 20
0.0328585526992597
 10
78.84850622012226
 20
0.0328585526992597
 72
     4
 94
        3
 73
     0
 74
     0
 95
        8
 96
        4
 40
10.0
 40
10.0
 40
10.0
 40
10.0
 40
11.0
 40
11.0
 40
11.0
 40
11.0
 10
78.84850622012226
 20
0.0328585526992597
 10
78.75844590653634
 20
0.0328585526992597
 10
78.68493531343898
 20
0.1063713481178077
 10
78.68493531343898
 20
0.1964345981314288
 72
     4
 94
        3
 73
     0
 74
     0
 95
        8
 96
        4
 40
11.0
 40
11.0
 40
11.0
 40
11.0
 40
12.0
 40
12.0
 40
12.0
 40
12.0
 10
78.68493531343898
 20
0.1964345981314288
 10
78.68493531343898
 20
0.1964345981314288
 10
78.68493531343898
 20
5.831517889038146
 10
78.68493531343898
 20
5.831517889038146
 72
     4
 94
        3
 73
     0
 74
     0
 95
        8
 96
        4
 40
12.0
 40
12.0
 40
12.0
 40
12.0
 40
13.0
 40
13.0
 40
13.0
 40
13.0
 10
78.68493531343898
 20
5.831517889038146
 10
78.68493531343898
 20
5.921580404944216
 10
78.61103711156471
 20
5.995093200363122
 10
78.52097092511787
 20
5.995093200363122
 72
     4
 94
        3
 73
     0
 74
     0
 95
        8
 96
        4
 40
13.0
 40
13.0
 40
13.0
 40
13.0
 40
14.0
 40
14.0
 40
14.0
 40
14.0
 10
78.52097092511787
 20
5.995093200363122
 10
78.52097092511787
 20
5.995093200363122
 10
75.7578899655037
 20
5.995093200363122
 10
75.7578899655037
 20
5.995093200363122
 72
     4
 94
        3
 73
     0
 74
     0
 95
        8
 96
        4
 40
14.0
 40
14.0
 40
14.0
 40
14.0
 40
15.0
 40
15.0
 40
15.0
 40
15.0
 10
75.7578899655037
 20
5.995093200363122
 10
75.6678296519213
 20
5.995093200363122
 10
75.59431905882303
 20
6.06860599578107
 10
75.59431905882303
 20
6.158668878740713
 97
       16
330
87A6
330
8797
330
8798
330
8799
330
879A
330
879B
330
879C
330
879D
330
879E
330
879F
330
87A0
330
87A1
330
87A2
330
87A3
330
87A4
330
87A5
 75
     1
 76
     1
 98
        1
 10
-349.6033406415021
 20
-2.919596279967777
1001
GradientColor1ACI
1070
     5
1001
GradientColor2ACI
1070
     2
1001
ACAD
1010
0.0
1020
0.0
1030
0.0
  0
SPLINE
  5
8797
102
{ACAD_REACTORS
330
8796
102
}
330
86FF
100
AcDbEntity
  8
Capa 1
 62
     9
100
AcDbSpline
210
0.0
220
0.0
230
1.0
 70
     8
 71
     3
 72
     8
 73
     4
 74
     0
 42
0.000000001
 43
0.0000000001
 40
0.0
 40
0.0
 40
0.0
 40
0.0
 40
1.0
 40
1.0
 40
1.0
 40
1.0
 10
75.59431905882303
 20
6.758318019659228
 30
0.0
 10
75.59431905882303
 20
6.848380535565539
 30
0.0
 10
75.6678296519213
 20
6.921893330983849
 30
0.0
 10
75.7578899655037
 20
6.921893330983849
 30
0.0
  0
SPLINE
  5
8798
102
{ACAD_REACTORS
330
8796
102
}
330
86FF
100
AcDbEntity
  8
Capa 1
 62
     9
100
AcDbSpline
210
0.0
220
0.0
230
1.0
 70
    24
 71
     3
 72
     8
 73
     4
 74
     0
 42
0.000000001
 43
0.0000000001
 40
1.0
 40
1.0
 40
1.0
 40
1.0
 40
2.0
 40
2.0
 40
2.0
 40
2.0
 10
75.7578899655037
 20
6.921893330983849
 30
0.0
 10
75.7578899655037
 20
6.921893330983849
 30
0.0
 10
82.63191444682099
 20
6.921893330983849
 30
0.0
 10
82.63191444682099
 20
6.921893330983849
 30
0.0
  0
SPLINE
  5
8799
102
{ACAD_REACTORS
330
8796
102
}
330
86FF
100
AcDbEntity
  8
Capa 1
 62
     9
100
AcDbSpline
210
0.0
220
0.0
230
1.0
 70
     8
 71
     3
 72
     8
 73
     4
 74
     0
 42
0.000000001
 43
0.0000000001
 40
2.0
 40
2.0
 40
2.0
 40
2.0
 40
3.0
 40
3.0
 40
3.0
 40
3.0
 10
82.63191444682099
 20
6.921893330983849
 30
0.0
 10
82.72198063326772
 20
6.921893330983849
 30
0.0
 10
82.7954912263611
 20
6.848380535565539
 30
0.0
 10
82.7954912263611
 20
6.758318019659228
 30
0.0
  0
SPLINE
  5
879A
102
{ACAD_REACTORS
330
8796
102
}
330
86FF
100
AcDbEntity
  8
Capa 1
 62
     9
100
AcDbSpline
210
0.0
220
0.0
230
1.0
 70
    24
 71
     3
 72
     8
 73
     4
 74
     0
 42
0.000000001
 43
0.0000000001
 40
3.0
 40
3.0
 40
3.0
 40
3.0
 40
4.0
 40
4.0
 40
4.0
 40
4.0
 10
82.7954912263611
 20
6.758318019659228
 30
0.0
 10
82.7954912263611
 20
6.758318019659228
 30
0.0
 10
82.7954912263611
 20
6.158668878740713
 30
0.0
 10
82.7954912263611
 20
6.158668878740713
 30
0.0
  0
SPLINE
  5
879B
102
{ACAD_REACTORS
330
8796
102
}
330
86FF
100
AcDbEntity
  8
Capa 1
 62
     9
100
AcDbSpline
210
0.0
220
0.0
230
1.0
 70
     8
 71
     3
 72
     8
 73
     4
 74
     0
 42
0.000000001
 43
0.0000000001
 40
4.0
 40
4.0
 40
4.0
 40
4.0
 40
5.0
 40
5.0
 40
5.0
 40
5.0
 10
82.7954912263611
 20
6.158668878740713
 30
0.0
 10
82.7954912263611
 20
6.06860599578107
 30
0.0
 10
82.72198063326772
 20
5.995093200363122
 30
0.0
 10
82.63191444682099
 20
5.995093200363122
 30
0.0
  0
SPLINE
  5
879C
102
{ACAD_REACTORS
330
8796
102
}
330
86FF
100
AcDbEntity
  8
Capa 1
 62
     9
100
AcDbSpline
210
0.0
220
0.0
230
1.0
 70
    24
 71
     3
 72
     8
 73
     4
 74
     0
 42
0.000000001
 43
0.0000000001
 40
5.0
 40
5.0
 40
5.0
 40
5.0
 40
6.0
 40
6.0
 40
6.0
 40
6.0
 10
82.63191444682099
 20
5.995093200363122
 30
0.0
 10
82.63191444682099
 20
5.995093200363122
 30
0.0
 10
79.87615107121081
 20
5.995093200363122
 30
0.0
 10
79.87615107121081
 20
5.995093200363122
 30
0.0
  0
SPLINE
  5
879D
102
{ACAD_REACTORS
330
8796
102
}
330
86FF
100
AcDbEntity
  8
Capa 1
 62
     9
100
AcDbSpline
210
0.0
220
0.0
230
1.0
 70
     8
 71
     3
 72
     8
 73
     4
 74
     0
 42
0.000000001
 43
0.0000000001
 40
6.0
 40
6.0
 40
6.0
 40
6.0
 40
7.0
 40
7.0
 40
7.0
 40
7.0
 10
79.87615107121081
 20
5.995093200363122
 30
0.0
 10
79.78608488476897
 20
5.995093200363122
 30
0.0
 10
79.7125742916707
 20
5.921580404944216
 30
0.0
 10
79.7125742916707
 20
5.831517889038146
 30
0.0
  0
SPLINE
  5
879E
102
{ACAD_REACTORS
330
8796
102
}
330
86FF
100
AcDbEntity
  8
Capa 1
 62
     9
100
AcDbSpline
210
0.0
220
0.0
230
1.0
 70
    24
 71
     3
 72
     8
 73
     4
 74
     0
 42
0.000000001
 43
0.0000000001
 40
7.0
 40
7.0
 40
7.0
 40
7.0
 40
8.0
 40
8.0
 40
8.0
 40
8.0
 10
79.7125742916707
 20
5.831517889038146
 30
0.0
 10
79.7125742916707
 20
5.831517889038146
 30
0.0
 10
79.7125742916707
 20
0.1964345981314288
 30
0.0
 10
79.7125742916707
 20
0.1964345981314288
 30
0.0
  0
SPLINE
  5
879F
102
{ACAD_REACTORS
330
8796
102
}
330
86FF
100
AcDbEntity
  8
Capa 1
 62
     9
100
AcDbSpline
210
0.0
220
0.0
230
1.0
 70
     8
 71
     3
 72
     8
 73
     4
 74
     0
 42
0.000000001
 43
0.0000000001
 40
8.0
 40
8.0
 40
8.0
 40
8.0
 40
9.0
 40
9.0
 40
9.0
 40
9.0
 10
79.7125742916707
 20
0.1964345981314288
 30
0.0
 10
79.7125742916707
 20
0.1063713481178077
 30
0.0
 10
79.63905782571231
 20
0.0328585526992597
 30
0.0
 10
79.54899751213435
 20
0.0328585526992597
 30
0.0
  0
SPLINE
  5
87A0
102
{ACAD_REACTORS
330
8796
102
}
330
86FF
100
AcDbEntity
  8
Capa 1
 62
     9
100
AcDbSpline
210
0.0
220
0.0
230
1.0
 70
    24
 71
     3
 72
     8
 73
     4
 74
     0
 42
0.000000001
 43
0.0000000001
 40
9.0
 40
9.0
 40
9.0
 40
9.0
 40
10.0
 40
10.0
 40
10.0
 40
10.0
 10
79.54899751213435
 20
0.0328585526992597
 30
0.0
 10
79.54899751213435
 20
0.0328585526992597
 30
0.0
 10
78.84850622012226
 20
0.0328585526992597
 30
0.0
 10
78.84850622012226
 20
0.0328585526992597
 30
0.0
  0
SPLINE
  5
87A1
102
{ACAD_REACTORS
330
8796
102
}
330
86FF
100
AcDbEntity
  8
Capa 1
 62
     9
100
AcDbSpline
210
0.0
220
0.0
230
1.0
 70
     8
 71
     3
 72
     8
 73
     4
 74
     0
 42
0.000000001
 43
0.0000000001
 40
10.0
 40
10.0
 40
10.0
 40
10.0
 40
11.0
 40
11.0
 40
11.0
 40
11.0
 10
78.84850622012226
 20
0.0328585526992597
 30
0.0
 10
78.75844590653634
 20
0.0328585526992597
 30
0.0
 10
78.68493531343898
 20
0.1063713481178077
 30
0.0
 10
78.68493531343898
 20
0.1964345981314288
 30
0.0
  0
SPLINE
  5
87A2
102
{ACAD_REACTORS
330
8796
102
}
330
86FF
100
AcDbEntity
  8
Capa 1
 62
     9
100
AcDbSpline
210
0.0
220
0.0
230
1.0
 70
    24
 71
     3
 72
     8
 73
     4
 74
     0
 42
0.000000001
 43
0.0000000001
 40
11.0
 40
11.0
 40
11.0
 40
11.0
 40
12.0
 40
12.0
 40
12.0
 40
12.0
 10
78.68493531343898
 20
0.1964345981314288
 30
0.0
 10
78.68493531343898
 20
0.1964345981314288
 30
0.0
 10
78.68493531343898
 20
5.831517889038146
 30
0.0
 10
78.68493531343898
 20
5.831517889038146
 30
0.0
  0
SPLINE
  5
87A3
102
{ACAD_REACTORS
330
8796
102
}
330
86FF
100
AcDbEntity
  8
Capa 1
 62
     9
100
AcDbSpline
210
0.0
220
0.0
230
1.0
 70
     8
 71
     3
 72
     8
 73
     4
 74
     0
 42
0.000000001
 43
0.0000000001
 40
12.0
 40
12.0
 40
12.0
 40
12.0
 40
13.0
 40
13.0
 40
13.0
 40
13.0
 10
78.68493531343898
 20
5.831517889038146
 30
0.0
 10
78.68493531343898
 20
5.921580404944216
 30
0.0
 10
78.61103711156471
 20
5.995093200363122
 30
0.0
 10
78.52097092511787
 20
5.995093200363122
 30
0.0
  0
SPLINE
  5
87A4
102
{ACAD_REACTORS
330
8796
102
}
330
86FF
100
AcDbEntity
  8
Capa 1
 62
     9
100
AcDbSpline
210
0.0
220
0.0
230
1.0
 70
    24
 71
     3
 72
     8
 73
     4
 74
     0
 42
0.000000001
 43
0.0000000001
 40
13.0
 40
13.0
 40
13.0
 40
13.0
 40
14.0
 40
14.0
 40
14.0
 40
14.0
 10
78.52097092511787
 20
5.995093200363122
 30
0.0
 10
78.52097092511787
 20
5.995093200363122
 30
0.0
 10
75.7578899655037
 20
5.995093200363122
 30
0.0
 10
75.7578899655037
 20
5.995093200363122
 30
0.0
  0
SPLINE
  5
87A5
102
{ACAD_REACTORS
330
8796
102
}
330
86FF
100
AcDbEntity
  8
Capa 1
 62
     9
100
AcDbSpline
210
0.0
220
0.0
230
1.0
 70
     8
 71
     3
 72
     8
 73
     4
 74
     0
 42
0.000000001
 43
0.0000000001
 40
14.0
 40
14.0
 40
14.0
 40
14.0
 40
15.0
 40
15.0
 40
15.0
 40
15.0
 10
75.7578899655037
 20
5.995093200363122
 30
0.0
 10
75.6678296519213
 20
5.995093200363122
 30
0.0
 10
75.59431905882303
 20
6.06860599578107
 30
0.0
 10
75.59431905882303
 20
6.158668878740713
 30
0.0
  0
SPLINE
  5
87A6
102
{ACAD_REACTORS
330
8796
102
}
330
86FF
100
AcDbEntity
  8
Capa 1
 62
     9
100
AcDbSpline
210
0.0
220
0.0
230
1.0
 70
    24
 71
     3
 72
     8
 73
     4
 74
     0
 42
0.000000001
 43
0.0000000001
 40
15.0
 40
15.0
 40
15.0
 40
15.0
 40
16.0
 40
16.0
 40
16.0
 40
16.0
 10
75.59431905882303
 20
6.158668878740713
 30
0.0
 10
75.59431905882303
 20
6.158668878740713
 30
0.0
 10
75.59431905882303
 20
6.758318019659228
 30
0.0
 10
75.59431905882303
 20
6.758318019659228
 30
0.0
  0
HATCH
  5
87A7
330
86FF
100
AcDbEntity
  8
COTAS
 62
     9
100
AcDbHatch
 10
0.0
 20
0.0
 30
0.0
210
0.0
220
0.0
230
1.0
  2
SOLID
 70
     1
 71
     1
 91
        2
 92
       16
 93
        1
 72
     4
 94
        3
 73
     0
 74
     0
 95
       17
 96
       13
 40
0.0
 40
0.0
 40
0.0
 40
0.0
 40
1.0
 40
1.0
 40
1.0
 40
2.0
 40
2.0
 40
2.0
 40
3.0
 40
3.0
 40
3.0
 40
4.0
 40
4.0
 40
4.0
 40
4.0
 10
86.06511634028408
 20
8.985495139427641
 10
86.06511634028408
 20
8.328883657686106
 10
85.5359011477421
 20
7.790815862262463
 10
84.8865977066078
 20
7.790815862262463
 10
84.2369184024106
 20
7.790815862262463
 10
83.71078058869972
 20
8.328883657686106
 10
83.71078058869972
 20
8.985495139427641
 10
83.71078058869972
 20
9.642106621169148
 10
84.2369184024106
 20
10.17901966542551
 10
84.8865977066078
 20
10.17901966542551
 10
85.5359011477421
 20
10.17901966542551
 10
86.06511634028408
 20
9.642106621169148
 10
86.06511634028408
 20
8.985495139427641
 97
        1
330
87A9
 92
        1
 93
        1
 72
     4
 94
        3
 73
     0
 74
     0
 95
       17
 96
       13
 40
0.0
 40
0.0
 40
0.0
 40
0.0
 40
1.0
 40
1.0
 40
1.0
 40
2.0
 40
2.0
 40
2.0
 40
3.0
 40
3.0
 40
3.0
 40
4.0
 40
4.0
 40
4.0
 40
4.0
 10
86.28488464772573
 20
8.985495139427641
 10
86.28488464772573
 20
9.75757219455243
 10
85.65944851108503
 20
10.38416308236095
 10
84.8865977066078
 20
10.38416308236095
 10
84.11337103907118
 20
10.38416308236095
 10
83.48754729364595
 20
9.75757219455243
 10
83.48754729364595
 20
8.985495139427641
 10
83.48754729364595
 20
8.212264067242891
 10
84.11337103907118
 20
7.586057851787686
 10
84.8865977066078
 20
7.586057851787686
 10
85.65944851108503
 20
7.586057851787686
 10
86.28488464772573
 20
8.212264067242891
 10
86.28488464772573
 20
8.985495139427641
 97
        1
330
87A8
 75
     1
 76
     1
 98
        1
 10
-349.6033406415021
 20
-2.919596279967777
1001
GradientColor1ACI
1070
     5
1001
GradientColor2ACI
1070
     2
1001
ACAD
1010
0.0
1020
0.0
1030
0.0
  0
SPLINE
  5
87A8
102
{ACAD_REACTORS
330
87A7
102
}
330
86FF
100
AcDbEntity
  8
Capa 1
 62
     9
100
AcDbSpline
210
0.0
220
0.0
230
1.0
 70
    11
 71
     3
 72
    17
 73
    13
 74
     0
 42
0.000000001
 43
0.0000000001
 40
0.0
 40
0.0
 40
0.0
 40
0.0
 40
1.0
 40
1.0
 40
1.0
 40
2.0
 40
2.0
 40
2.0
 40
3.0
 40
3.0
 40
3.0
 40
4.0
 40
4.0
 40
4.0
 40
4.0
 10
86.28488464772573
 20
8.985495139427641
 30
0.0
 10
86.28488464772573
 20
9.75757219455243
 30
0.0
 10
85.65944851108503
 20
10.38416308236095
 30
0.0
 10
84.8865977066078
 20
10.38416308236095
 30
0.0
 10
84.11337103907118
 20
10.38416308236095
 30
0.0
 10
83.48754729364595
 20
9.75757219455243
 30
0.0
 10
83.48754729364595
 20
8.985495139427641
 30
0.0
 10
83.48754729364595
 20
8.212264067242891
 30
0.0
 10
84.11337103907118
 20
7.586057851787686
 30
0.0
 10
84.8865977066078
 20
7.586057851787686
 30
0.0
 10
85.65944851108503
 20
7.586057851787686
 30
0.0
 10
86.28488464772573
 20
8.212264067242891
 30
0.0
 10
86.28488464772573
 20
8.985495139427641
 30
0.0
  0
SPLINE
  5
87A9
102
{ACAD_REACTORS
330
87A7
102
}
330
86FF
100
AcDbEntity
  8
Capa 1
 62
     9
100
AcDbSpline
210
0.0
220
0.0
230
1.0
 70
    11
 71
     3
 72
    17
 73
    13
 74
     0
 42
0.000000001
 43
0.0000000001
 40
0.0
 40
0.0
 40
0.0
 40
0.0
 40
1.0
 40
1.0
 40
1.0
 40
2.0
 40
2.0
 40
2.0
 40
3.0
 40
3.0
 40
3.0
 40
4.0
 40
4.0
 40
4.0
 40
4.0
 10
86.06511634028408
 20
8.985495139427641
 30
0.0
 10
86.06511634028408
 20
8.328883657686106
 30
0.0
 10
85.5359011477421
 20
7.790815862262463
 30
0.0
 10
84.8865977066078
 20
7.790815862262463
 30
0.0
 10
84.2369184024106
 20
7.790815862262463
 30
0.0
 10
83.71078058869972
 20
8.328883657686106
 30
0.0
 10
83.71078058869972
 20
8.985495139427641
 30
0.0
 10
83.71078058869972
 20
9.642106621169148
 30
0.0
 10
84.2369184024106
 20
10.17901966542551
 30
0.0
 10
84.8865977066078
 20
10.17901966542551
 30
0.0
 10
85.5359011477421
 20
10.17901966542551
 30
0.0
 10
86.06511634028408
 20
9.642106621169148
 30
0.0
 10
86.06511634028408
 20
8.985495139427641
 30
0.0
  0
HATCH
  5
87AA
330
86FF
100
AcDbEntity
  8
COTAS
 62
     9
100
AcDbHatch
 10
0.0
 20
0.0
 30
0.0
210
0.0
220
0.0
230
1.0
  2
SOLID
 70
     1
 71
     1
 91
        2
 92
       16
 93
        5
 72
     4
 94
        3
 73
     0
 74
     0
 95
        8
 96
        4
 40
4.0
 40
4.0
 40
4.0
 40
4.0
 40
5.0
 40
5.0
 40
5.0
 40
5.0
 10
84.92932276571315
 20
9.564745634001639
 10
85.09867256698175
 20
9.564745634001639
 10
85.21837320678907
 20
9.448510715911944
 10
85.21837320678907
 20
9.293402601007962
 72
     4
 94
        3
 73
     0
 74
     0
 95
        8
 96
        4
 40
0.0
 40
0.0
 40
0.0
 40
0.0
 40
1.0
 40
1.0
 40
1.0
 40
1.0
 10
85.21837320678907
 20
9.293402601007962
 10
85.21837320678907
 20
9.139448503164147
 10
85.09867256698175
 20
9.02783258974533
 10
84.92932276571315
 20
9.02783258974533
 72
     4
 94
        3
 73
     0
 74
     0
 95
        8
 96
        4
 40
1.0
 40
1.0
 40
1.0
 40
1.0
 40
2.0
 40
2.0
 40
2.0
 40
2.0
 10
84.92932276571315
 20
9.02783258974533
 10
84.92932276571315
 20
9.02783258974533
 10
84.64258623161317
 20
9.02783258974533
 10
84.64258623161317
 20
9.02783258974533
 72
     4
 94
        3
 73
     0
 74
     0
 95
        8
 96
        4
 40
2.0
 40
2.0
 40
2.0
 40
2.0
 40
3.0
 40
3.0
 40
3.0
 40
3.0
 10
84.64258623161317
 20
9.02783258974533
 10
84.64258623161317
 20
9.02783258974533
 10
84.64258623161317
 20
9.564745634001639
 10
84.64258623161317
 20
9.564745634001639
 72
     4
 94
        3
 73
     0
 74
     0
 95
        8
 96
        4
 40
3.0
 40
3.0
 40
3.0
 40
3.0
 40
4.0
 40
4.0
 40
4.0
 40
4.0
 10
84.64258623161317
 20
9.564745634001639
 10
84.64258623161317
 20
9.564745634001639
 10
84.92932276571315
 20
9.564745634001639
 10
84.92932276571315
 20
9.564745634001639
 97
        5
330
87B8
330
87B4
330
87B5
330
87B6
330
87B7
 92
        1
 93
        9
 72
     4
 94
        3
 73
     0
 74
     0
 95
        8
 96
        4
 40
9.0
 40
9.0
 40
9.0
 40
9.0
 40
10.0
 40
10.0
 40
10.0
 40
10.0
 10
85.22568491793726
 20
8.219961184849154
 10
85.22568491793726
 20
8.219961184849154
 10
85.4731613805431
 20
8.219961184849154
 10
85.4731613805431
 20
8.219961184849154
 72
     4
 94
        3
 73
     0
 74
     0
 95
        8
 96
        4
 40
0.0
 40
0.0
 40
0.0
 40
0.0
 40
1.0
 40
1.0
 40
1.0
 40
1.0
 10
85.4731613805431
 20
8.219961184849154
 10
85.4731613805431
 20
8.219961184849154
 10
85.10598427812982
 20
8.872724474841704
 10
85.10598427812982
 20
8.872724474841704
 72
     4
 94
        3
 73
     0
 74
     0
 95
       11
 96
        7
 40
1.0
 40
1.0
 40
1.0
 40
1.0
 40
2.0
 40
2.0
 40
2.0
 40
3.0
 40
3.0
 40
3.0
 40
3.0
 10
85.10598427812982
 20
8.872724474841704
 10
85.29573052342295
 20
8.931226973293434
 10
85.43467652662304
 20
9.07016930595546
 10
85.43467652662304
 20
9.293402601007962
 10
85.43467652662304
 20
9.55281418407705
 10
85.21837320678907
 20
9.753723268695126
 10
84.95280246142107
 20
9.753723268695126
 72
     4
 94
        3
 73
     0
 74
     0
 95
        8
 96
        4
 40
3.0
 40
3.0
 40
3.0
 40
3.0
 40
4.0
 40
4.0
 40
4.0
 40
4.0
 10
84.95280246142107
 20
9.753723268695126
 10
84.95280246142107
 20
9.753723268695126
 10
84.43051137123967
 20
9.753723268695126
 10
84.43051137123967
 20
9.753723268695126
 72
     4
 94
        3
 73
     0
 74
     0
 95
        8
 96
        4
 40
4.0
 40
4.0
 40
4.0
 40
4.0
 40
5.0
 40
5.0
 40
5.0
 40
5.0
 10
84.43051137123967
 20
9.753723268695126
 10
84.43051137123967
 20
9.753723268695126
 10
84.43051137123967
 20
8.219961184849154
 10
84.43051137123967
 20
8.219961184849154
 72
     4
 94
        3
 73
     0
 74
     0
 95
        8
 96
        4
 40
5.0
 40
5.0
 40
5.0
 40
5.0
 40
6.0
 40
6.0
 40
6.0
 40
6.0
 10
84.43051137123967
 20
8.219961184849154
 10
84.43051137123967
 20
8.219961184849154
 10
84.64258623161317
 20
8.219961184849154
 10
84.64258623161317
 20
8.219961184849154
 72
     4
 94
        3
 73
     0
 74
     0
 95
        8
 96
        4
 40
6.0
 40
6.0
 40
6.0
 40
6.0
 40
7.0
 40
7.0
 40
7.0
 40
7.0
 10
84.64258623161317
 20
8.219961184849154
 10
84.64258623161317
 20
8.219961184849154
 10
84.64258623161317
 20
8.845012649136926
 10
84.64258623161317
 20
8.845012649136926
 72
     4
 94
        3
 73
     0
 74
     0
 95
        8
 96
        4
 40
7.0
 40
7.0
 40
7.0
 40
7.0
 40
8.0
 40
8.0
 40
8.0
 40
8.0
 10
84.64258623161317
 20
8.845012649136926
 10
84.64258623161317
 20
8.845012649136926
 10
84.87505166314764
 20
8.845012649136926
 10
84.87505166314764
 20
8.845012649136926
 72
     4
 94
        3
 73
     0
 74
     0
 95
        8
 96
        4
 40
8.0
 40
8.0
 40
8.0
 40
8.0
 40
9.0
 40
9.0
 40
9.0
 40
9.0
 10
84.87505166314764
 20
8.845012649136926
 10
84.87505166314764
 20
8.845012649136926
 10
85.22568491793726
 20
8.219961184849154
 10
85.22568491793726
 20
8.219961184849154
 97
        9
330
87B3
330
87AB
330
87AC
330
87AD
330
87AE
330
87AF
330
87B0
330
87B1
330
87B2
 75
     1
 76
     1
 98
        1
 10
-349.6033406415021
 20
-2.919596279967777
1001
GradientColor1ACI
1070
     5
1001
GradientColor2ACI
1070
     2
1001
ACAD
1010
0.0
1020
0.0
1030
0.0
  0
SPLINE
  5
87AB
102
{ACAD_REACTORS
330
87AA
102
}
330
86FF
100
AcDbEntity
  8
Capa 1
 62
     9
100
AcDbSpline
210
0.0
220
0.0
230
1.0
 70
    24
 71
     3
 72
     8
 73
     4
 74
     0
 42
0.000000001
 43
0.0000000001
 40
0.0
 40
0.0
 40
0.0
 40
0.0
 40
1.0
 40
1.0
 40
1.0
 40
1.0
 10
85.4731613805431
 20
8.219961184849154
 30
0.0
 10
85.4731613805431
 20
8.219961184849154
 30
0.0
 10
85.10598427812982
 20
8.872724474841704
 30
0.0
 10
85.10598427812982
 20
8.872724474841704
 30
0.0
  0
SPLINE
  5
87AC
102
{ACAD_REACTORS
330
87AA
102
}
330
86FF
100
AcDbEntity
  8
Capa 1
 62
     9
100
AcDbSpline
210
0.0
220
0.0
230
1.0
 70
     8
 71
     3
 72
    11
 73
     7
 74
     0
 42
0.000000001
 43
0.0000000001
 40
1.0
 40
1.0
 40
1.0
 40
1.0
 40
2.0
 40
2.0
 40
2.0
 40
3.0
 40
3.0
 40
3.0
 40
3.0
 10
85.10598427812982
 20
8.872724474841704
 30
0.0
 10
85.29573052342295
 20
8.931226973293434
 30
0.0
 10
85.43467652662304
 20
9.07016930595546
 30
0.0
 10
85.43467652662304
 20
9.293402601007962
 30
0.0
 10
85.43467652662304
 20
9.55281418407705
 30
0.0
 10
85.21837320678907
 20
9.753723268695126
 30
0.0
 10
84.95280246142107
 20
9.753723268695126
 30
0.0
  0
SPLINE
  5
87AD
102
{ACAD_REACTORS
330
87AA
102
}
330
86FF
100
AcDbEntity
  8
Capa 1
 62
     9
100
AcDbSpline
210
0.0
220
0.0
230
1.0
 70
    24
 71
     3
 72
     8
 73
     4
 74
     0
 42
0.000000001
 43
0.0000000001
 40
3.0
 40
3.0
 40
3.0
 40
3.0
 40
4.0
 40
4.0
 40
4.0
 40
4.0
 10
84.95280246142107
 20
9.753723268695126
 30
0.0
 10
84.95280246142107
 20
9.753723268695126
 30
0.0
 10
84.43051137123967
 20
9.753723268695126
 30
0.0
 10
84.43051137123967
 20
9.753723268695126
 30
0.0
  0
SPLINE
  5
87AE
102
{ACAD_REACTORS
330
87AA
102
}
330
86FF
100
AcDbEntity
  8
Capa 1
 62
     9
100
AcDbSpline
210
0.0
220
0.0
230
1.0
 70
    24
 71
     3
 72
     8
 73
     4
 74
     0
 42
0.000000001
 43
0.0000000001
 40
4.0
 40
4.0
 40
4.0
 40
4.0
 40
5.0
 40
5.0
 40
5.0
 40
5.0
 10
84.43051137123967
 20
9.753723268695126
 30
0.0
 10
84.43051137123967
 20
9.753723268695126
 30
0.0
 10
84.43051137123967
 20
8.219961184849154
 30
0.0
 10
84.43051137123967
 20
8.219961184849154
 30
0.0
  0
SPLINE
  5
87AF
102
{ACAD_REACTORS
330
87AA
102
}
330
86FF
100
AcDbEntity
  8
Capa 1
 62
     9
100
AcDbSpline
210
0.0
220
0.0
230
1.0
 70
    24
 71
     3
 72
     8
 73
     4
 74
     0
 42
0.000000001
 43
0.0000000001
 40
5.0
 40
5.0
 40
5.0
 40
5.0
 40
6.0
 40
6.0
 40
6.0
 40
6.0
 10
84.43051137123967
 20
8.219961184849154
 30
0.0
 10
84.43051137123967
 20
8.219961184849154
 30
0.0
 10
84.64258623161317
 20
8.219961184849154
 30
0.0
 10
84.64258623161317
 20
8.219961184849154
 30
0.0
  0
SPLINE
  5
87B0
102
{ACAD_REACTORS
330
87AA
102
}
330
86FF
100
AcDbEntity
  8
Capa 1
 62
     9
100
AcDbSpline
210
0.0
220
0.0
230
1.0
 70
    24
 71
     3
 72
     8
 73
     4
 74
     0
 42
0.000000001
 43
0.0000000001
 40
6.0
 40
6.0
 40
6.0
 40
6.0
 40
7.0
 40
7.0
 40
7.0
 40
7.0
 10
84.64258623161317
 20
8.219961184849154
 30
0.0
 10
84.64258623161317
 20
8.219961184849154
 30
0.0
 10
84.64258623161317
 20
8.845012649136926
 30
0.0
 10
84.64258623161317
 20
8.845012649136926
 30
0.0
  0
SPLINE
  5
87B1
102
{ACAD_REACTORS
330
87AA
102
}
330
86FF
100
AcDbEntity
  8
Capa 1
 62
     9
100
AcDbSpline
210
0.0
220
0.0
230
1.0
 70
    24
 71
     3
 72
     8
 73
     4
 74
     0
 42
0.000000001
 43
0.0000000001
 40
7.0
 40
7.0
 40
7.0
 40
7.0
 40
8.0
 40
8.0
 40
8.0
 40
8.0
 10
84.64258623161317
 20
8.845012649136926
 30
0.0
 10
84.64258623161317
 20
8.845012649136926
 30
0.0
 10
84.87505166314764
 20
8.845012649136926
 30
0.0
 10
84.87505166314764
 20
8.845012649136926
 30
0.0
  0
SPLINE
  5
87B2
102
{ACAD_REACTORS
330
87AA
102
}
330
86FF
100
AcDbEntity
  8
Capa 1
 62
     9
100
AcDbSpline
210
0.0
220
0.0
230
1.0
 70
    24
 71
     3
 72
     8
 73
     4
 74
     0
 42
0.000000001
 43
0.0000000001
 40
8.0
 40
8.0
 40
8.0
 40
8.0
 40
9.0
 40
9.0
 40
9.0
 40
9.0
 10
84.87505166314764
 20
8.845012649136926
 30
0.0
 10
84.87505166314764
 20
8.845012649136926
 30
0.0
 10
85.22568491793726
 20
8.219961184849154
 30
0.0
 10
85.22568491793726
 20
8.219961184849154
 30
0.0
  0
SPLINE
  5
87B3
102
{ACAD_REACTORS
330
87AA
102
}
330
86FF
100
AcDbEntity
  8
Capa 1
 62
     9
100
AcDbSpline
210
0.0
220
0.0
230
1.0
 70
    24
 71
     3
 72
     8
 73
     4
 74
     0
 42
0.000000001
 43
0.0000000001
 40
9.0
 40
9.0
 40
9.0
 40
9.0
 40
10.0
 40
10.0
 40
10.0
 40
10.0
 10
85.22568491793726
 20
8.219961184849154
 30
0.0
 10
85.22568491793726
 20
8.219961184849154
 30
0.0
 10
85.4731613805431
 20
8.219961184849154
 30
0.0
 10
85.4731613805431
 20
8.219961184849154
 30
0.0
  0
SPLINE
  5
87B4
102
{ACAD_REACTORS
330
87AA
102
}
330
86FF
100
AcDbEntity
  8
Capa 1
 62
     9
100
AcDbSpline
210
0.0
220
0.0
230
1.0
 70
     8
 71
     3
 72
     8
 73
     4
 74
     0
 42
0.000000001
 43
0.0000000001
 40
0.0
 40
0.0
 40
0.0
 40
0.0
 40
1.0
 40
1.0
 40
1.0
 40
1.0
 10
85.21837320678907
 20
9.293402601007962
 30
0.0
 10
85.21837320678907
 20
9.139448503164147
 30
0.0
 10
85.09867256698175
 20
9.02783258974533
 30
0.0
 10
84.92932276571315
 20
9.02783258974533
 30
0.0
  0
SPLINE
  5
87B5
102
{ACAD_REACTORS
330
87AA
102
}
330
86FF
100
AcDbEntity
  8
Capa 1
 62
     9
100
AcDbSpline
210
0.0
220
0.0
230
1.0
 70
    24
 71
     3
 72
     8
 73
     4
 74
     0
 42
0.000000001
 43
0.0000000001
 40
1.0
 40
1.0
 40
1.0
 40
1.0
 40
2.0
 40
2.0
 40
2.0
 40
2.0
 10
84.92932276571315
 20
9.02783258974533
 30
0.0
 10
84.92932276571315
 20
9.02783258974533
 30
0.0
 10
84.64258623161317
 20
9.02783258974533
 30
0.0
 10
84.64258623161317
 20
9.02783258974533
 30
0.0
  0
SPLINE
  5
87B6
102
{ACAD_REACTORS
330
87AA
102
}
330
86FF
100
AcDbEntity
  8
Capa 1
 62
     9
100
AcDbSpline
210
0.0
220
0.0
230
1.0
 70
    24
 71
     3
 72
     8
 73
     4
 74
     0
 42
0.000000001
 43
0.0000000001
 40
2.0
 40
2.0
 40
2.0
 40
2.0
 40
3.0
 40
3.0
 40
3.0
 40
3.0
 10
84.64258623161317
 20
9.02783258974533
 30
0.0
 10
84.64258623161317
 20
9.02783258974533
 30
0.0
 10
84.64258623161317
 20
9.564745634001639
 30
0.0
 10
84.64258623161317
 20
9.564745634001639
 30
0.0
  0
SPLINE
  5
87B7
102
{ACAD_REACTORS
330
87AA
102
}
330
86FF
100
AcDbEntity
  8
Capa 1
 62
     9
100
AcDbSpline
210
0.0
220
0.0
230
1.0
 70
    24
 71
     3
 72
     8
 73
     4
 74
     0
 42
0.000000001
 43
0.0000000001
 40
3.0
 40
3.0
 40
3.0
 40
3.0
 40
4.0
 40
4.0
 40
4.0
 40
4.0
 10
84.64258623161317
 20
9.564745634001639
 30
0.0
 10
84.64258623161317
 20
9.564745634001639
 30
0.0
 10
84.92932276571315
 20
9.564745634001639
 30
0.0
 10
84.92932276571315
 20
9.564745634001639
 30
0.0
  0
SPLINE
  5
87B8
102
{ACAD_REACTORS
330
87AA
102
}
330
86FF
100
AcDbEntity
  8
Capa 1
 62
     9
100
AcDbSpline
210
0.0
220
0.0
230
1.0
 70
     8
 71
     3
 72
     8
 73
     4
 74
     0
 42
0.000000001
 43
0.0000000001
 40
4.0
 40
4.0
 40
4.0
 40
4.0
 40
5.0
 40
5.0
 40
5.0
 40
5.0
 10
84.92932276571315
 20
9.564745634001639
 30
0.0
 10
85.09867256698175
 20
9.564745634001639
 30
0.0
 10
85.21837320678907
 20
9.448510715911944
 30
0.0
 10
85.21837320678907
 20
9.293402601007962
 30
0.0
  0
HATCH
  5
87B9
330
86FF
100
AcDbEntity
  8
COTAS
 62
     9
100
AcDbHatch
 10
0.0
 20
0.0
 30
0.0
210
0.0
220
0.0
230
1.0
  2
SOLID
 70
     1
 71
     1
 91
        2
 92
       16
 93
        9
 72
     4
 94
        3
 73
     0
 74
     0
 95
        8
 96
        4
 40
10.0
 40
10.0
 40
10.0
 40
10.0
 40
11.0
 40
11.0
 40
11.0
 40
11.0
 10
11.66203830740983
 20
3.674140862870608
 10
11.66203830740983
 20
3.674140862870608
 10
11.66203830740983
 20
5.813158046951983
 10
11.66203830740983
 20
5.813158046951983
 72
     4
 94
        3
 73
     0
 74
     0
 95
       11
 96
        7
 40
0.0
 40
0.0
 40
0.0
 40
0.0
 40
1.0
 40
1.0
 40
1.0
 40
2.0
 40
2.0
 40
2.0
 40
2.0
 10
11.66203830740983
 20
5.813158046951983
 10
11.66203830740983
 20
5.813158046951983
 10
11.65910074620234
 20
5.897286242693866
 10
11.72363813259898
 20
5.955457677180256
 10
11.77650273485841
 20
6.003107728083798
 10
11.83704617614882
 20
6.001470876428144
 10
11.84250613781427
 20
6.002239607492967
 72
     4
 94
        3
 73
     0
 74
     0
 95
        8
 96
        4
 40
2.0
 40
2.0
 40
2.0
 40
2.0
 40
3.0
 40
3.0
 40
3.0
 40
3.0
 10
11.84250613781427
 20
6.002239607492967
 10
11.84250613781427
 20
6.002239607492967
 10
16.3434659444228
 20
6.002239607492967
 10
16.3434659444228
 20
6.002239607492967
 72
     4
 94
        3
 73
     0
 74
     0
 95
        8
 96
        4
 40
3.0
 40
3.0
 40
3.0
 40
3.0
 40
4.0
 40
4.0
 40
4.0
 40
4.0
 10
16.3434659444228
 20
6.002239607492967
 10
16.71567632751572
 20
6.002239607492967
 10
16.98749831796482
 20
5.939019690350506
 10
17.15910931524644
 20
5.812533863608699
 72
     4
 94
        3
 73
     0
 74
     0
 95
       11
 96
        7
 40
4.0
 40
4.0
 40
4.0
 40
4.0
 40
5.0
 40
5.0
 40
5.0
 40
6.0
 40
6.0
 40
6.0
 40
6.0
 10
17.15910931524644
 20
5.812533863608699
 10
17.41786287759356
 20
5.620127705471134
 10
17.5470425482377
 20
5.265558714763102
 10
17.5470425482377
 20
4.749221112543474
 10
17.5470425482377
 20
4.231319766790278
 10
17.42089180939598
 20
3.880252773155284
 10
17.16877430153994
 20
3.695593058824727
 72
     4
 94
        3
 73
     0
 74
     0
 95
        8
 96
        4
 40
6.0
 40
6.0
 40
6.0
 40
6.0
 40
7.0
 40
7.0
 40
7.0
 40
7.0
 10
17.16877430153994
 20
3.695593058824727
 10
16.99071778994568
 20
3.562931102160462
 10
16.71567632751572
 20
3.496583697950889
 10
16.3434659444228
 20
3.496583697950889
 72
     4
 94
        3
 73
     0
 74
     0
 95
        8
 96
        4
 40
7.0
 40
7.0
 40
7.0
 40
7.0
 40
8.0
 40
8.0
 40
8.0
 40
8.0
 10
16.3434659444228
 20
3.496583697950889
 10
16.3434659444228
 20
3.496583697950889
 10
11.82269652960559
 20
3.496583697950889
 10
11.82269652960559
 20
3.496583697950889
 72
     4
 94
        3
 73
     0
 74
     0
 95
        8
 96
        4
 40
8.0
 40
8.0
 40
8.0
 40
8.0
 40
9.0
 40
9.0
 40
9.0
 40
9.0
 10
11.82269652960559
 20
3.496583697950889
 10
11.79441773898185
 20
3.500243383447497
 10
11.75240034445619
 20
3.510723093262712
 10
11.7226497952127
 20
3.540881004267106
 72
     4
 94
        3
 73
     0
 74
     0
 95
        8
 96
        4
 40
9.0
 40
9.0
 40
9.0
 40
9.0
 40
10.0
 40
10.0
 40
10.0
 40
10.0
 10
11.7226497952127
 20
3.540881004267106
 10
11.67400291654684
 20
3.590191488382061
 10
11.66203830740983
 20
3.653687360265721
 10
11.66203830740983
 20
3.674140862870608
 97
        9
330
87DC
330
87D4
330
87D5
330
87D6
330
87D7
330
87D8
330
87D9
330
87DA
330
87DB
 92
        1
 93
       26
 72
     4
 94
        3
 73
     0
 74
     0
 95
        8
 96
        4
 40
27.0
 40
27.0
 40
27.0
 40
27.0
 40
28.0
 40
28.0
 40
28.0
 40
28.0
 10
10.64676139236911
 20
6.752461993595382
 10
10.64676139236911
 20
6.752461993595382
 10
10.64720817623589
 20
0.2773088276234574
 10
10.64720817623589
 20
0.2773088276234574
 72
     4
 94
        3
 73
     0
 74
     0
 95
        8
 96
        4
 40
0.0
 40
0.0
 40
0.0
 40
0.0
 40
1.0
 40
1.0
 40
1.0
 40
1.0
 10
10.64720817623589
 20
0.2773088276234574
 10
10.64720817623589
 20
0.1865328584652559
 10
10.72146628302704
 20
0.1124455807996512
 10
10.8121962597283
 20
0.1124455807996512
 72
     4
 94
        3
 73
     0
 74
     0
 95
        8
 96
        4
 40
1.0
 40
1.0
 40
1.0
 40
1.0
 40
2.0
 40
2.0
 40
2.0
 40
2.0
 10
10.8121962597283
 20
0.1124455807996512
 10
10.8121962597283
 20
0.1124455807996512
 10
11.49733274900956
 20
0.1124455807996512
 10
11.49733274900956
 20
0.1124455807996512
 72
     4
 94
        3
 73
     0
 74
     0
 95
        8
 96
        4
 40
2.0
 40
2.0
 40
2.0
 40
2.0
 40
3.0
 40
3.0
 40
3.0
 40
3.0
 10
11.49733274900956
 20
0.1124455807996512
 10
11.58806272571093
 20
0.1124455807996512
 10
11.66212372197259
 20
0.1865328584652559
 10
11.66212372197259
 20
0.2773088276234574
 72
     4
 94
        3
 73
     0
 74
     0
 95
        8
 96
        4
 40
3.0
 40
3.0
 40
3.0
 40
3.0
 40
4.0
 40
4.0
 40
4.0
 40
4.0
 10
11.66212372197259
 20
0.2773088276234574
 10
11.66212372197259
 20
0.2773088276234574
 10
11.66212372197259
 20
1.121086441349163
 10
11.66212372197259
 20
1.121086441349163
 72
     4
 94
        3
 73
     0
 74
     0
 95
        8
 96
        4
 40
4.0
 40
4.0
 40
4.0
 40
4.0
 40
5.0
 40
5.0
 40
5.0
 40
5.0
 10
11.66212372197259
 20
1.121086441349163
 10
11.66212372197259
 20
1.121296692580568
 10
11.66193318179415
 20
1.1214609513551
 10
11.66193318179415
 20
1.121677772937517
 72
     4
 94
        3
 73
     0
 74
     0
 95
        8
 96
        4
 40
5.0
 40
5.0
 40
5.0
 40
5.0
 40
6.0
 40
6.0
 40
6.0
 40
6.0
 10
11.66193318179415
 20
1.121677772937517
 10
11.66193318179415
 20
1.121677772937517
 10
11.66193318179415
 20
2.382120764495909
 10
11.66193318179415
 20
2.382120764495909
 72
     4
 94
        3
 73
     0
 74
     0
 95
       11
 96
        7
 40
6.0
 40
6.0
 40
6.0
 40
6.0
 40
7.0
 40
7.0
 40
7.0
 40
8.0
 40
8.0
 40
8.0
 40
8.0
 10
11.66193318179415
 20
2.382120764495909
 10
11.66193318179415
 20
2.382120764495909
 10
11.65999092719403
 20
2.466044360771647
 10
11.72363813259898
 20
2.523687170849662
 10
11.78183619067789
 20
2.576394899137227
 10
11.84342598695167
 20
2.571360013460463
 10
11.84342598695167
 20
2.571360013460463
 72
     4
 94
        3
 73
     0
 74
     0
 95
        8
 96
        4
 40
8.0
 40
8.0
 40
8.0
 40
8.0
 40
9.0
 40
9.0
 40
9.0
 40
9.0
 10
11.84342598695167
 20
2.571360013460463
 10
11.84342598695167
 20
2.571360013460463
 10
16.44291477687631
 20
2.571360013460463
 10
16.44291477687631
 20
2.571360013460463
 72
     4
 94
        3
 73
     0
 74
     0
 95
        8
 96
        4
 40
9.0
 40
9.0
 40
9.0
 40
9.0
 40
10.0
 40
10.0
 40
10.0
 40
10.0
 10
16.44291477687631
 20
2.571360013460463
 10
16.74863977838908
 20
2.571360013460463
 10
17.01079678254456
 20
2.498810197924513
 10
17.22919524916432
 20
2.35295497648973
 72
     4
 94
        3
 73
     0
 74
     0
 95
        8
 96
        4
 40
10.0
 40
10.0
 40
10.0
 40
10.0
 40
11.0
 40
11.0
 40
11.0
 40
11.0
 10
17.22919524916432
 20
2.35295497648973
 10
17.44097080199498
 20
2.199333600194997
 10
17.5470425482377
 20
2.010008936667674
 10
17.5470425482377
 20
1.78502697836467
 72
     4
 94
        3
 73
     0
 74
     0
 95
        8
 96
        4
 40
11.0
 40
11.0
 40
11.0
 40
11.0
 40
12.0
 40
12.0
 40
12.0
 40
12.0
 10
17.5470425482377
 20
1.78502697836467
 10
17.5470425482377
 20
1.78502697836467
 10
17.5470425482377
 20
0.4516925130192391
 10
17.5470425482377
 20
0.4516925130192391
 72
     4
 94
        3
 73
     0
 74
     0
 95
        8
 96
        4
 40
12.0
 40
12.0
 40
12.0
 40
12.0
 40
13.0
 40
13.0
 40
13.0
 40
13.0
 10
17.5470425482377
 20
0.4516925130192391
 10
17.5470425482377
 20
0.4516925130192391
 10
17.5470425482377
 20
0.289693939223298
 10
17.5470425482377
 20
0.289693939223298
 72
     4
 94
        3
 73
     0
 74
     0
 95
        8
 96
        4
 40
13.0
 40
13.0
 40
13.0
 40
13.0
 40
14.0
 40
14.0
 40
14.0
 40
14.0
 10
17.5470425482377
 20
0.289693939223298
 10
17.5470425482377
 20
0.1921176567993967
 10
17.62167516503467
 20
0.1124455807996512
 10
17.71203063173022
 20
0.1124455807996512
 72
     4
 94
        3
 73
     0
 74
     0
 95
        8
 96
        4
 40
14.0
 40
14.0
 40
14.0
 40
14.0
 40
15.0
 40
15.0
 40
15.0
 40
15.0
 10
17.71203063173022
 20
0.1124455807996512
 10
17.71203063173022
 20
0.1124455807996512
 10
18.38731159453943
 20
0.1124455807996512
 10
18.38731159453943
 20
0.1124455807996512
 72
     4
 94
        3
 73
     0
 74
     0
 95
        8
 96
        4
 40
15.0
 40
15.0
 40
15.0
 40
15.0
 40
16.0
 40
16.0
 40
16.0
 40
16.0
 10
18.38731159453943
 20
0.1124455807996512
 10
18.47823868177016
 20
0.1124455807996512
 10
18.55229967803183
 20
0.1921176567993967
 10
18.55229967803183
 20
0.289693939223298
 72
     4
 94
        3
 73
     0
 74
     0
 95
        8
 96
        4
 40
16.0
 40
16.0
 40
16.0
 40
16.0
 40
17.0
 40
17.0
 40
17.0
 40
17.0
 10
18.55229967803183
 20
0.289693939223298
 10
18.55229967803183
 20
0.289693939223298
 10
18.55229967803183
 20
0.4516925130192391
 10
18.55229967803183
 20
0.4516925130192391
 72
     4
 94
        3
 73
     0
 74
     0
 95
        8
 96
        4
 40
17.0
 40
17.0
 40
17.0
 40
17.0
 40
18.0
 40
18.0
 40
18.0
 40
18.0
 10
18.55229967803183
 20
0.4516925130192391
 10
18.55229967803183
 20
0.4516925130192391
 10
18.55249021821027
 20
0.4516925130192391
 10
18.55249021821027
 20
0.4516925130192391
 72
     4
 94
        3
 73
     0
 74
     0
 95
        8
 96
        4
 40
18.0
 40
18.0
 40
18.0
 40
18.0
 40
19.0
 40
19.0
 40
19.0
 40
19.0
 10
18.55249021821027
 20
0.4516925130192391
 10
18.55249021821027
 20
0.4516925130192391
 10
18.55249021821027
 20
1.78502697836467
 10
18.55249021821027
 20
1.78502697836467
 72
     4
 94
        3
 73
     0
 74
     0
 95
        8
 96
        4
 40
19.0
 40
19.0
 40
19.0
 40
19.0
 40
20.0
 40
20.0
 40
20.0
 40
20.0
 10
18.55249021821027
 20
1.78502697836467
 10
18.55249021821027
 20
2.116704866253691
 10
18.4532319259352
 20
2.394840963995787
 10
18.25528696192038
 20
2.620230284059701
 72
     4
 94
        3
 73
     0
 74
     0
 95
        8
 96
        4
 40
20.0
 40
20.0
 40
20.0
 40
20.0
 40
21.0
 40
21.0
 40
21.0
 40
21.0
 10
18.25528696192038
 20
2.620230284059701
 10
18.1156867146197
 20
2.778516609551154
 10
17.92285348366846
 20
2.908077360552227
 10
17.67622878923277
 20
3.008564308460898
 72
     4
 94
        3
 73
     0
 74
     0
 95
        8
 96
        4
 40
21.0
 40
21.0
 40
21.0
 40
21.0
 40
22.0
 40
22.0
 40
22.0
 40
22.0
 10
17.67622878923277
 20
3.008564308460898
 10
17.95543585418483
 20
3.128446932466389
 10
18.15792750107886
 20
3.287863358326668
 10
18.28484040063444
 20
3.486872719200463
 72
     4
 94
        3
 73
     0
 74
     0
 95
       11
 96
        7
 40
22.0
 40
22.0
 40
22.0
 40
22.0
 40
23.0
 40
23.0
 40
23.0
 40
24.0
 40
24.0
 40
24.0
 40
24.0
 10
18.28484040063444
 20
3.486872719200463
 10
18.4628969122287
 20
3.765416178703461
 10
18.55249021821027
 20
4.185931782211178
 10
18.55249021821027
 20
4.749221112543474
 10
18.55249021821027
 20
5.404830444514559
 10
18.39697658083293
 20
5.931634615847464
 10
18.08613327590575
 20
6.329653337595133
 72
     4
 94
        3
 73
     0
 74
     0
 95
        8
 96
        4
 40
24.0
 40
24.0
 40
24.0
 40
24.0
 40
25.0
 40
25.0
 40
25.0
 40
25.0
 10
18.08613327590575
 20
6.329653337595133
 10
17.77396933043127
 20
6.721469648016381
 10
17.32920913180232
 20
6.917377803226991
 10
16.75318646126817
 20
6.917377803226991
 72
     4
 94
        3
 73
     0
 74
     0
 95
        8
 96
        4
 40
25.0
 40
25.0
 40
25.0
 40
25.0
 40
26.0
 40
26.0
 40
26.0
 40
26.0
 10
16.75318646126817
 20
6.917377803226991
 10
16.75318646126817
 20
6.917377803226991
 10
10.81162463919298
 20
6.917450077087778
 10
10.81162463919298
 20
6.917450077087778
 72
     4
 94
        3
 73
     0
 74
     0
 95
        8
 96
        4
 40
26.0
 40
26.0
 40
26.0
 40
26.0
 40
27.0
 40
27.0
 40
27.0
 40
27.0
 10
10.81162463919298
 20
6.917450077087778
 10
10.72084867003474
 20
6.917450077087778
 10
10.64676139236911
 20
6.843191970296715
 10
10.64676139236911
 20
6.752461993595382
 97
       26
330
87D3
330
87BA
330
87BB
330
87BC
330
87BD
330
87BE
330
87BF
330
87C0
330
87C1
330
87C2
330
87C3
330
87C4
330
87C5
330
87C6
330
87C7
330
87C8
330
87C9
330
87CA
330
87CB
330
87CC
330
87CD
330
87CE
330
87CF
330
87D0
330
87D1
330
87D2
 75
     1
 76
     1
 98
        1
 10
-349.6033406415021
 20
-2.919596279967777
1001
GradientColor1ACI
1070
     5
1001
GradientColor2ACI
1070
     2
1001
ACAD
1010
0.0
1020
0.0
1030
0.0
  0
SPLINE
  5
87BA
102
{ACAD_REACTORS
330
87B9
102
}
330
86FF
100
AcDbEntity
  8
Capa 1
 62
     9
100
AcDbSpline
210
0.0
220
0.0
230
1.0
 70
     8
 71
     3
 72
     8
 73
     4
 74
     0
 42
0.000000001
 43
0.0000000001
 40
0.0
 40
0.0
 40
0.0
 40
0.0
 40
1.0
 40
1.0
 40
1.0
 40
1.0
 10
10.64720817623589
 20
0.2773088276234574
 30
0.0
 10
10.64720817623589
 20
0.1865328584652559
 30
0.0
 10
10.72146628302704
 20
0.1124455807996512
 30
0.0
 10
10.8121962597283
 20
0.1124455807996512
 30
0.0
  0
SPLINE
  5
87BB
102
{ACAD_REACTORS
330
87B9
102
}
330
86FF
100
AcDbEntity
  8
Capa 1
 62
     9
100
AcDbSpline
210
0.0
220
0.0
230
1.0
 70
    24
 71
     3
 72
     8
 73
     4
 74
     0
 42
0.000000001
 43
0.0000000001
 40
1.0
 40
1.0
 40
1.0
 40
1.0
 40
2.0
 40
2.0
 40
2.0
 40
2.0
 10
10.8121962597283
 20
0.1124455807996512
 30
0.0
 10
10.8121962597283
 20
0.1124455807996512
 30
0.0
 10
11.49733274900956
 20
0.1124455807996512
 30
0.0
 10
11.49733274900956
 20
0.1124455807996512
 30
0.0
  0
SPLINE
  5
87BC
102
{ACAD_REACTORS
330
87B9
102
}
330
86FF
100
AcDbEntity
  8
Capa 1
 62
     9
100
AcDbSpline
210
0.0
220
0.0
230
1.0
 70
     8
 71
     3
 72
     8
 73
     4
 74
     0
 42
0.000000001
 43
0.0000000001
 40
2.0
 40
2.0
 40
2.0
 40
2.0
 40
3.0
 40
3.0
 40
3.0
 40
3.0
 10
11.49733274900956
 20
0.1124455807996512
 30
0.0
 10
11.58806272571093
 20
0.1124455807996512
 30
0.0
 10
11.66212372197259
 20
0.1865328584652559
 30
0.0
 10
11.66212372197259
 20
0.2773088276234574
 30
0.0
  0
SPLINE
  5
87BD
102
{ACAD_REACTORS
330
87B9
102
}
330
86FF
100
AcDbEntity
  8
Capa 1
 62
     9
100
AcDbSpline
210
0.0
220
0.0
230
1.0
 70
    24
 71
     3
 72
     8
 73
     4
 74
     0
 42
0.000000001
 43
0.0000000001
 40
3.0
 40
3.0
 40
3.0
 40
3.0
 40
4.0
 40
4.0
 40
4.0
 40
4.0
 10
11.66212372197259
 20
0.2773088276234574
 30
0.0
 10
11.66212372197259
 20
0.2773088276234574
 30
0.0
 10
11.66212372197259
 20
1.121086441349163
 30
0.0
 10
11.66212372197259
 20
1.121086441349163
 30
0.0
  0
SPLINE
  5
87BE
102
{ACAD_REACTORS
330
87B9
102
}
330
86FF
100
AcDbEntity
  8
Capa 1
 62
     9
100
AcDbSpline
210
0.0
220
0.0
230
1.0
 70
     8
 71
     3
 72
     8
 73
     4
 74
     0
 42
0.000000001
 43
0.0000000001
 40
4.0
 40
4.0
 40
4.0
 40
4.0
 40
5.0
 40
5.0
 40
5.0
 40
5.0
 10
11.66212372197259
 20
1.121086441349163
 30
0.0
 10
11.66212372197259
 20
1.121296692580568
 30
0.0
 10
11.66193318179415
 20
1.1214609513551
 30
0.0
 10
11.66193318179415
 20
1.121677772937517
 30
0.0
  0
SPLINE
  5
87BF
102
{ACAD_REACTORS
330
87B9
102
}
330
86FF
100
AcDbEntity
  8
Capa 1
 62
     9
100
AcDbSpline
210
0.0
220
0.0
230
1.0
 70
    24
 71
     3
 72
     8
 73
     4
 74
     0
 42
0.000000001
 43
0.0000000001
 40
5.0
 40
5.0
 40
5.0
 40
5.0
 40
6.0
 40
6.0
 40
6.0
 40
6.0
 10
11.66193318179415
 20
1.121677772937517
 30
0.0
 10
11.66193318179415
 20
1.121677772937517
 30
0.0
 10
11.66193318179415
 20
2.382120764495909
 30
0.0
 10
11.66193318179415
 20
2.382120764495909
 30
0.0
  0
SPLINE
  5
87C0
102
{ACAD_REACTORS
330
87B9
102
}
330
86FF
100
AcDbEntity
  8
Capa 1
 62
     9
100
AcDbSpline
210
0.0
220
0.0
230
1.0
 70
     8
 71
     3
 72
    11
 73
     7
 74
     0
 42
0.000000001
 43
0.0000000001
 40
6.0
 40
6.0
 40
6.0
 40
6.0
 40
7.0
 40
7.0
 40
7.0
 40
8.0
 40
8.0
 40
8.0
 40
8.0
 10
11.66193318179415
 20
2.382120764495909
 30
0.0
 10
11.66193318179415
 20
2.382120764495909
 30
0.0
 10
11.65999092719403
 20
2.466044360771647
 30
0.0
 10
11.72363813259898
 20
2.523687170849662
 30
0.0
 10
11.78183619067789
 20
2.576394899137227
 30
0.0
 10
11.84342598695167
 20
2.571360013460463
 30
0.0
 10
11.84342598695167
 20
2.571360013460463
 30
0.0
  0
SPLINE
  5
87C1
102
{ACAD_REACTORS
330
87B9
102
}
330
86FF
100
AcDbEntity
  8
Capa 1
 62
     9
100
AcDbSpline
210
0.0
220
0.0
230
1.0
 70
    24
 71
     3
 72
     8
 73
     4
 74
     0
 42
0.000000001
 43
0.0000000001
 40
8.0
 40
8.0
 40
8.0
 40
8.0
 40
9.0
 40
9.0
 40
9.0
 40
9.0
 10
11.84342598695167
 20
2.571360013460463
 30
0.0
 10
11.84342598695167
 20
2.571360013460463
 30
0.0
 10
16.44291477687631
 20
2.571360013460463
 30
0.0
 10
16.44291477687631
 20
2.571360013460463
 30
0.0
  0
SPLINE
  5
87C2
102
{ACAD_REACTORS
330
87B9
102
}
330
86FF
100
AcDbEntity
  8
Capa 1
 62
     9
100
AcDbSpline
210
0.0
220
0.0
230
1.0
 70
     8
 71
     3
 72
     8
 73
     4
 74
     0
 42
0.000000001
 43
0.0000000001
 40
9.0
 40
9.0
 40
9.0
 40
9.0
 40
10.0
 40
10.0
 40
10.0
 40
10.0
 10
16.44291477687631
 20
2.571360013460463
 30
0.0
 10
16.74863977838908
 20
2.571360013460463
 30
0.0
 10
17.01079678254456
 20
2.498810197924513
 30
0.0
 10
17.22919524916432
 20
2.35295497648973
 30
0.0
  0
SPLINE
  5
87C3
102
{ACAD_REACTORS
330
87B9
102
}
330
86FF
100
AcDbEntity
  8
Capa 1
 62
     9
100
AcDbSpline
210
0.0
220
0.0
230
1.0
 70
     8
 71
     3
 72
     8
 73
     4
 74
     0
 42
0.000000001
 43
0.0000000001
 40
10.0
 40
10.0
 40
10.0
 40
10.0
 40
11.0
 40
11.0
 40
11.0
 40
11.0
 10
17.22919524916432
 20
2.35295497648973
 30
0.0
 10
17.44097080199498
 20
2.199333600194997
 30
0.0
 10
17.5470425482377
 20
2.010008936667674
 30
0.0
 10
17.5470425482377
 20
1.78502697836467
 30
0.0
  0
SPLINE
  5
87C4
102
{ACAD_REACTORS
330
87B9
102
}
330
86FF
100
AcDbEntity
  8
Capa 1
 62
     9
100
AcDbSpline
210
0.0
220
0.0
230
1.0
 70
    24
 71
     3
 72
     8
 73
     4
 74
     0
 42
0.000000001
 43
0.0000000001
 40
11.0
 40
11.0
 40
11.0
 40
11.0
 40
12.0
 40
12.0
 40
12.0
 40
12.0
 10
17.5470425482377
 20
1.78502697836467
 30
0.0
 10
17.5470425482377
 20
1.78502697836467
 30
0.0
 10
17.5470425482377
 20
0.4516925130192391
 30
0.0
 10
17.5470425482377
 20
0.4516925130192391
 30
0.0
  0
SPLINE
  5
87C5
102
{ACAD_REACTORS
330
87B9
102
}
330
86FF
100
AcDbEntity
  8
Capa 1
 62
     9
100
AcDbSpline
210
0.0
220
0.0
230
1.0
 70
    24
 71
     3
 72
     8
 73
     4
 74
     0
 42
0.000000001
 43
0.0000000001
 40
12.0
 40
12.0
 40
12.0
 40
12.0
 40
13.0
 40
13.0
 40
13.0
 40
13.0
 10
17.5470425482377
 20
0.4516925130192391
 30
0.0
 10
17.5470425482377
 20
0.4516925130192391
 30
0.0
 10
17.5470425482377
 20
0.289693939223298
 30
0.0
 10
17.5470425482377
 20
0.289693939223298
 30
0.0
  0
SPLINE
  5
87C6
102
{ACAD_REACTORS
330
87B9
102
}
330
86FF
100
AcDbEntity
  8
Capa 1
 62
     9
100
AcDbSpline
210
0.0
220
0.0
230
1.0
 70
     8
 71
     3
 72
     8
 73
     4
 74
     0
 42
0.000000001
 43
0.0000000001
 40
13.0
 40
13.0
 40
13.0
 40
13.0
 40
14.0
 40
14.0
 40
14.0
 40
14.0
 10
17.5470425482377
 20
0.289693939223298
 30
0.0
 10
17.5470425482377
 20
0.1921176567993967
 30
0.0
 10
17.62167516503467
 20
0.1124455807996512
 30
0.0
 10
17.71203063173022
 20
0.1124455807996512
 30
0.0
  0
SPLINE
  5
87C7
102
{ACAD_REACTORS
330
87B9
102
}
330
86FF
100
AcDbEntity
  8
Capa 1
 62
     9
100
AcDbSpline
210
0.0
220
0.0
230
1.0
 70
    24
 71
     3
 72
     8
 73
     4
 74
     0
 42
0.000000001
 43
0.0000000001
 40
14.0
 40
14.0
 40
14.0
 40
14.0
 40
15.0
 40
15.0
 40
15.0
 40
15.0
 10
17.71203063173022
 20
0.1124455807996512
 30
0.0
 10
17.71203063173022
 20
0.1124455807996512
 30
0.0
 10
18.38731159453943
 20
0.1124455807996512
 30
0.0
 10
18.38731159453943
 20
0.1124455807996512
 30
0.0
  0
SPLINE
  5
87C8
102
{ACAD_REACTORS
330
87B9
102
}
330
86FF
100
AcDbEntity
  8
Capa 1
 62
     9
100
AcDbSpline
210
0.0
220
0.0
230
1.0
 70
     8
 71
     3
 72
     8
 73
     4
 74
     0
 42
0.000000001
 43
0.0000000001
 40
15.0
 40
15.0
 40
15.0
 40
15.0
 40
16.0
 40
16.0
 40
16.0
 40
16.0
 10
18.38731159453943
 20
0.1124455807996512
 30
0.0
 10
18.47823868177016
 20
0.1124455807996512
 30
0.0
 10
18.55229967803183
 20
0.1921176567993967
 30
0.0
 10
18.55229967803183
 20
0.289693939223298
 30
0.0
  0
SPLINE
  5
87C9
102
{ACAD_REACTORS
330
87B9
102
}
330
86FF
100
AcDbEntity
  8
Capa 1
 62
     9
100
AcDbSpline
210
0.0
220
0.0
230
1.0
 70
    24
 71
     3
 72
     8
 73
     4
 74
     0
 42
0.000000001
 43
0.0000000001
 40
16.0
 40
16.0
 40
16.0
 40
16.0
 40
17.0
 40
17.0
 40
17.0
 40
17.0
 10
18.55229967803183
 20
0.289693939223298
 30
0.0
 10
18.55229967803183
 20
0.289693939223298
 30
0.0
 10
18.55229967803183
 20
0.4516925130192391
 30
0.0
 10
18.55229967803183
 20
0.4516925130192391
 30
0.0
  0
SPLINE
  5
87CA
102
{ACAD_REACTORS
330
87B9
102
}
330
86FF
100
AcDbEntity
  8
Capa 1
 62
     9
100
AcDbSpline
210
0.0
220
0.0
230
1.0
 70
    24
 71
     3
 72
     8
 73
     4
 74
     0
 42
0.000000001
 43
0.0000000001
 40
17.0
 40
17.0
 40
17.0
 40
17.0
 40
18.0
 40
18.0
 40
18.0
 40
18.0
 10
18.55229967803183
 20
0.4516925130192391
 30
0.0
 10
18.55229967803183
 20
0.4516925130192391
 30
0.0
 10
18.55249021821027
 20
0.4516925130192391
 30
0.0
 10
18.55249021821027
 20
0.4516925130192391
 30
0.0
  0
SPLINE
  5
87CB
102
{ACAD_REACTORS
330
87B9
102
}
330
86FF
100
AcDbEntity
  8
Capa 1
 62
     9
100
AcDbSpline
210
0.0
220
0.0
230
1.0
 70
    24
 71
     3
 72
     8
 73
     4
 74
     0
 42
0.000000001
 43
0.0000000001
 40
18.0
 40
18.0
 40
18.0
 40
18.0
 40
19.0
 40
19.0
 40
19.0
 40
19.0
 10
18.55249021821027
 20
0.4516925130192391
 30
0.0
 10
18.55249021821027
 20
0.4516925130192391
 30
0.0
 10
18.55249021821027
 20
1.78502697836467
 30
0.0
 10
18.55249021821027
 20
1.78502697836467
 30
0.0
  0
SPLINE
  5
87CC
102
{ACAD_REACTORS
330
87B9
102
}
330
86FF
100
AcDbEntity
  8
Capa 1
 62
     9
100
AcDbSpline
210
0.0
220
0.0
230
1.0
 70
     8
 71
     3
 72
     8
 73
     4
 74
     0
 42
0.000000001
 43
0.0000000001
 40
19.0
 40
19.0
 40
19.0
 40
19.0
 40
20.0
 40
20.0
 40
20.0
 40
20.0
 10
18.55249021821027
 20
1.78502697836467
 30
0.0
 10
18.55249021821027
 20
2.116704866253691
 30
0.0
 10
18.4532319259352
 20
2.394840963995787
 30
0.0
 10
18.25528696192038
 20
2.620230284059701
 30
0.0
  0
SPLINE
  5
87CD
102
{ACAD_REACTORS
330
87B9
102
}
330
86FF
100
AcDbEntity
  8
Capa 1
 62
     9
100
AcDbSpline
210
0.0
220
0.0
230
1.0
 70
     8
 71
     3
 72
     8
 73
     4
 74
     0
 42
0.000000001
 43
0.0000000001
 40
20.0
 40
20.0
 40
20.0
 40
20.0
 40
21.0
 40
21.0
 40
21.0
 40
21.0
 10
18.25528696192038
 20
2.620230284059701
 30
0.0
 10
18.1156867146197
 20
2.778516609551154
 30
0.0
 10
17.92285348366846
 20
2.908077360552227
 30
0.0
 10
17.67622878923277
 20
3.008564308460898
 30
0.0
  0
SPLINE
  5
87CE
102
{ACAD_REACTORS
330
87B9
102
}
330
86FF
100
AcDbEntity
  8
Capa 1
 62
     9
100
AcDbSpline
210
0.0
220
0.0
230
1.0
 70
     8
 71
     3
 72
     8
 73
     4
 74
     0
 42
0.000000001
 43
0.0000000001
 40
21.0
 40
21.0
 40
21.0
 40
21.0
 40
22.0
 40
22.0
 40
22.0
 40
22.0
 10
17.67622878923277
 20
3.008564308460898
 30
0.0
 10
17.95543585418483
 20
3.128446932466389
 30
0.0
 10
18.15792750107886
 20
3.287863358326668
 30
0.0
 10
18.28484040063444
 20
3.486872719200463
 30
0.0
  0
SPLINE
  5
87CF
102
{ACAD_REACTORS
330
87B9
102
}
330
86FF
100
AcDbEntity
  8
Capa 1
 62
     9
100
AcDbSpline
210
0.0
220
0.0
230
1.0
 70
     8
 71
     3
 72
    11
 73
     7
 74
     0
 42
0.000000001
 43
0.0000000001
 40
22.0
 40
22.0
 40
22.0
 40
22.0
 40
23.0
 40
23.0
 40
23.0
 40
24.0
 40
24.0
 40
24.0
 40
24.0
 10
18.28484040063444
 20
3.486872719200463
 30
0.0
 10
18.4628969122287
 20
3.765416178703461
 30
0.0
 10
18.55249021821027
 20
4.185931782211178
 30
0.0
 10
18.55249021821027
 20
4.749221112543474
 30
0.0
 10
18.55249021821027
 20
5.404830444514559
 30
0.0
 10
18.39697658083293
 20
5.931634615847464
 30
0.0
 10
18.08613327590575
 20
6.329653337595133
 30
0.0
  0
SPLINE
  5
87D0
102
{ACAD_REACTORS
330
87B9
102
}
330
86FF
100
AcDbEntity
  8
Capa 1
 62
     9
100
AcDbSpline
210
0.0
220
0.0
230
1.0
 70
     8
 71
     3
 72
     8
 73
     4
 74
     0
 42
0.000000001
 43
0.0000000001
 40
24.0
 40
24.0
 40
24.0
 40
24.0
 40
25.0
 40
25.0
 40
25.0
 40
25.0
 10
18.08613327590575
 20
6.329653337595133
 30
0.0
 10
17.77396933043127
 20
6.721469648016381
 30
0.0
 10
17.32920913180232
 20
6.917377803226991
 30
0.0
 10
16.75318646126817
 20
6.917377803226991
 30
0.0
  0
SPLINE
  5
87D1
102
{ACAD_REACTORS
330
87B9
102
}
330
86FF
100
AcDbEntity
  8
Capa 1
 62
     9
100
AcDbSpline
210
0.0
220
0.0
230
1.0
 70
    24
 71
     3
 72
     8
 73
     4
 74
     0
 42
0.000000001
 43
0.0000000001
 40
25.0
 40
25.0
 40
25.0
 40
25.0
 40
26.0
 40
26.0
 40
26.0
 40
26.0
 10
16.75318646126817
 20
6.917377803226991
 30
0.0
 10
16.75318646126817
 20
6.917377803226991
 30
0.0
 10
10.81162463919298
 20
6.917450077087778
 30
0.0
 10
10.81162463919298
 20
6.917450077087778
 30
0.0
  0
SPLINE
  5
87D2
102
{ACAD_REACTORS
330
87B9
102
}
330
86FF
100
AcDbEntity
  8
Capa 1
 62
     9
100
AcDbSpline
210
0.0
220
0.0
230
1.0
 70
     8
 71
     3
 72
     8
 73
     4
 74
     0
 42
0.000000001
 43
0.0000000001
 40
26.0
 40
26.0
 40
26.0
 40
26.0
 40
27.0
 40
27.0
 40
27.0
 40
27.0
 10
10.81162463919298
 20
6.917450077087778
 30
0.0
 10
10.72084867003474
 20
6.917450077087778
 30
0.0
 10
10.64676139236911
 20
6.843191970296715
 30
0.0
 10
10.64676139236911
 20
6.752461993595382
 30
0.0
  0
SPLINE
  5
87D3
102
{ACAD_REACTORS
330
87B9
102
}
330
86FF
100
AcDbEntity
  8
Capa 1
 62
     9
100
AcDbSpline
210
0.0
220
0.0
230
1.0
 70
    24
 71
     3
 72
     8
 73
     4
 74
     0
 42
0.000000001
 43
0.0000000001
 40
27.0
 40
27.0
 40
27.0
 40
27.0
 40
28.0
 40
28.0
 40
28.0
 40
28.0
 10
10.64676139236911
 20
6.752461993595382
 30
0.0
 10
10.64676139236911
 20
6.752461993595382
 30
0.0
 10
10.64720817623589
 20
0.2773088276234574
 30
0.0
 10
10.64720817623589
 20
0.2773088276234574
 30
0.0
  0
SPLINE
  5
87D4
102
{ACAD_REACTORS
330
87B9
102
}
330
86FF
100
AcDbEntity
  8
Capa 1
 62
     9
100
AcDbSpline
210
0.0
220
0.0
230
1.0
 70
     8
 71
     3
 72
    11
 73
     7
 74
     0
 42
0.000000001
 43
0.0000000001
 40
0.0
 40
0.0
 40
0.0
 40
0.0
 40
1.0
 40
1.0
 40
1.0
 40
2.0
 40
2.0
 40
2.0
 40
2.0
 10
11.66203830740983
 20
5.813158046951983
 30
0.0
 10
11.66203830740983
 20
5.813158046951983
 30
0.0
 10
11.65910074620234
 20
5.897286242693866
 30
0.0
 10
11.72363813259898
 20
5.955457677180256
 30
0.0
 10
11.77650273485841
 20
6.003107728083798
 30
0.0
 10
11.83704617614882
 20
6.001470876428144
 30
0.0
 10
11.84250613781427
 20
6.002239607492967
 30
0.0
  0
SPLINE
  5
87D5
102
{ACAD_REACTORS
330
87B9
102
}
330
86FF
100
AcDbEntity
  8
Capa 1
 62
     9
100
AcDbSpline
210
0.0
220
0.0
230
1.0
 70
    24
 71
     3
 72
     8
 73
     4
 74
     0
 42
0.000000001
 43
0.0000000001
 40
2.0
 40
2.0
 40
2.0
 40
2.0
 40
3.0
 40
3.0
 40
3.0
 40
3.0
 10
11.84250613781427
 20
6.002239607492967
 30
0.0
 10
11.84250613781427
 20
6.002239607492967
 30
0.0
 10
16.3434659444228
 20
6.002239607492967
 30
0.0
 10
16.3434659444228
 20
6.002239607492967
 30
0.0
  0
SPLINE
  5
87D6
102
{ACAD_REACTORS
330
87B9
102
}
330
86FF
100
AcDbEntity
  8
Capa 1
 62
     9
100
AcDbSpline
210
0.0
220
0.0
230
1.0
 70
     8
 71
     3
 72
     8
 73
     4
 74
     0
 42
0.000000001
 43
0.0000000001
 40
3.0
 40
3.0
 40
3.0
 40
3.0
 40
4.0
 40
4.0
 40
4.0
 40
4.0
 10
16.3434659444228
 20
6.002239607492967
 30
0.0
 10
16.71567632751572
 20
6.002239607492967
 30
0.0
 10
16.98749831796482
 20
5.939019690350506
 30
0.0
 10
17.15910931524644
 20
5.812533863608699
 30
0.0
  0
SPLINE
  5
87D7
102
{ACAD_REACTORS
330
87B9
102
}
330
86FF
100
AcDbEntity
  8
Capa 1
 62
     9
100
AcDbSpline
210
0.0
220
0.0
230
1.0
 70
     8
 71
     3
 72
    11
 73
     7
 74
     0
 42
0.000000001
 43
0.0000000001
 40
4.0
 40
4.0
 40
4.0
 40
4.0
 40
5.0
 40
5.0
 40
5.0
 40
6.0
 40
6.0
 40
6.0
 40
6.0
 10
17.15910931524644
 20
5.812533863608699
 30
0.0
 10
17.41786287759356
 20
5.620127705471134
 30
0.0
 10
17.5470425482377
 20
5.265558714763102
 30
0.0
 10
17.5470425482377
 20
4.749221112543474
 30
0.0
 10
17.5470425482377
 20
4.231319766790278
 30
0.0
 10
17.42089180939598
 20
3.880252773155284
 30
0.0
 10
17.16877430153994
 20
3.695593058824727
 30
0.0
  0
SPLINE
  5
87D8
102
{ACAD_REACTORS
330
87B9
102
}
330
86FF
100
AcDbEntity
  8
Capa 1
 62
     9
100
AcDbSpline
210
0.0
220
0.0
230
1.0
 70
     8
 71
     3
 72
     8
 73
     4
 74
     0
 42
0.000000001
 43
0.0000000001
 40
6.0
 40
6.0
 40
6.0
 40
6.0
 40
7.0
 40
7.0
 40
7.0
 40
7.0
 10
17.16877430153994
 20
3.695593058824727
 30
0.0
 10
16.99071778994568
 20
3.562931102160462
 30
0.0
 10
16.71567632751572
 20
3.496583697950889
 30
0.0
 10
16.3434659444228
 20
3.496583697950889
 30
0.0
  0
SPLINE
  5
87D9
102
{ACAD_REACTORS
330
87B9
102
}
330
86FF
100
AcDbEntity
  8
Capa 1
 62
     9
100
AcDbSpline
210
0.0
220
0.0
230
1.0
 70
    24
 71
     3
 72
     8
 73
     4
 74
     0
 42
0.000000001
 43
0.0000000001
 40
7.0
 40
7.0
 40
7.0
 40
7.0
 40
8.0
 40
8.0
 40
8.0
 40
8.0
 10
16.3434659444228
 20
3.496583697950889
 30
0.0
 10
16.3434659444228
 20
3.496583697950889
 30
0.0
 10
11.82269652960559
 20
3.496583697950889
 30
0.0
 10
11.82269652960559
 20
3.496583697950889
 30
0.0
  0
SPLINE
  5
87DA
102
{ACAD_REACTORS
330
87B9
102
}
330
86FF
100
AcDbEntity
  8
Capa 1
 62
     9
100
AcDbSpline
210
0.0
220
0.0
230
1.0
 70
     8
 71
     3
 72
     8
 73
     4
 74
     0
 42
0.000000001
 43
0.0000000001
 40
8.0
 40
8.0
 40
8.0
 40
8.0
 40
9.0
 40
9.0
 40
9.0
 40
9.0
 10
11.82269652960559
 20
3.496583697950889
 30
0.0
 10
11.79441773898185
 20
3.500243383447497
 30
0.0
 10
11.75240034445619
 20
3.510723093262712
 30
0.0
 10
11.7226497952127
 20
3.540881004267106
 30
0.0
  0
SPLINE
  5
87DB
102
{ACAD_REACTORS
330
87B9
102
}
330
86FF
100
AcDbEntity
  8
Capa 1
 62
     9
100
AcDbSpline
210
0.0
220
0.0
230
1.0
 70
     8
 71
     3
 72
     8
 73
     4
 74
     0
 42
0.000000001
 43
0.0000000001
 40
9.0
 40
9.0
 40
9.0
 40
9.0
 40
10.0
 40
10.0
 40
10.0
 40
10.0
 10
11.7226497952127
 20
3.540881004267106
 30
0.0
 10
11.67400291654684
 20
3.590191488382061
 30
0.0
 10
11.66203830740983
 20
3.653687360265721
 30
0.0
 10
11.66203830740983
 20
3.674140862870608
 30
0.0
  0
SPLINE
  5
87DC
102
{ACAD_REACTORS
330
87B9
102
}
330
86FF
100
AcDbEntity
  8
Capa 1
 62
     9
100
AcDbSpline
210
0.0
220
0.0
230
1.0
 70
    24
 71
     3
 72
     8
 73
     4
 74
     0
 42
0.000000001
 43
0.0000000001
 40
10.0
 40
10.0
 40
10.0
 40
10.0
 40
11.0
 40
11.0
 40
11.0
 40
11.0
 10
11.66203830740983
 20
3.674140862870608
 30
0.0
 10
11.66203830740983
 20
3.674140862870608
 30
0.0
 10
11.66203830740983
 20
5.813158046951983
 30
0.0
 10
11.66203830740983
 20
5.813158046951983
 30
0.0
  0
HATCH
  5
87DD
330
86FF
100
AcDbEntity
  8
COTAS
 62
     9
100
AcDbHatch
 10
0.0
 20
0.0
 30
0.0
210
0.0
220
0.0
230
1.0
  2
SOLID
 70
     1
 71
     1
 91
        2
 92
        1
 93
        9
 72
     4
 94
        3
 73
     0
 74
     0
 95
        8
 96
        4
 40
11.0
 40
11.0
 40
11.0
 40
11.0
 40
12.0
 40
12.0
 40
12.0
 40
12.0
 10
35.27252435777456
 20
0.2862480420169149
 10
34.70779762809826
 20
0.0997130490898179
 10
33.7145685395015
 20
0.00644555314787
 10
32.2924421698886
 20
0.00644555314787
 72
     4
 94
        3
 73
     0
 74
     0
 95
        8
 96
        4
 40
0.0
 40
0.0
 40
0.0
 40
0.0
 40
1.0
 40
1.0
 40
1.0
 40
1.0
 10
32.2924421698886
 20
0.00644555314787
 10
30.87537258478909
 20
0.00644555314787
 10
29.88447739673899
 20
0.0997130490898179
 10
29.31975363639737
 20
0.2862480420169149
 72
     4
 94
        3
 73
     0
 74
     0
 95
        8
 96
        4
 40
1.0
 40
1.0
 40
1.0
 40
1.0
 40
2.0
 40
2.0
 40
2.0
 40
2.0
 10
29.31975363639737
 20
0.2862480420169149
 10
28.75463792329543
 20
0.4642334737548381
 10
28.39579922945194
 20
0.8097118092409445
 10
28.24284263275632
 20
1.32229443890197
 72
     4
 94
        3
 73
     0
 74
     0
 95
       11
 96
        7
 40
2.0
 40
2.0
 40
2.0
 40
2.0
 40
3.0
 40
3.0
 40
3.0
 40
4.0
 40
4.0
 40
4.0
 40
4.0
 10
28.24284263275632
 20
1.32229443890197
 10
28.13581577355143
 20
1.673990527573153
 10
28.08210636756684
 20
2.401477100747712
 10
28.08210636756684
 20
3.503976429687299
 10
28.08210636756684
 20
4.62590674692072
 10
28.13270093681427
 20
5.353004733684237
 10
28.23311507779925
 20
5.685270019369192
 72
     4
 94
        3
 73
     0
 74
     0
 95
        8
 96
        4
 40
4.0
 40
4.0
 40
4.0
 40
4.0
 40
5.0
 40
5.0
 40
5.0
 40
5.0
 10
28.23311507779925
 20
5.685270019369192
 10
28.38567972173456
 20
6.202904550329031
 10
28.74763325231555
 20
6.554601009611446
 10
29.31936465297514
 20
6.741135828814123
 72
     4
 94
        3
 73
     0
 74
     0
 95
       11
 96
        7
 40
5.0
 40
5.0
 40
5.0
 40
5.0
 40
6.0
 40
6.0
 40
6.0
 40
7.0
 40
7.0
 40
7.0
 40
7.0
 10
29.31936465297514
 20
6.741135828814123
 10
29.89070410087521
 20
6.927670648016807
 10
30.88160225826294
 20
7.02054965651319
 10
32.29205021712477
 20
7.02054965651319
 10
33.70794988260167
 20
7.02054965651319
 10
34.69807007314165
 20
6.930780080526461
 10
35.26279383348293
 20
6.750851045001021
 72
     4
 94
        3
 73
     0
 74
     0
 95
        8
 96
        4
 40
7.0
 40
7.0
 40
7.0
 40
7.0
 40
8.0
 40
8.0
 40
8.0
 40
8.0
 10
35.26279383348293
 20
6.750851045001021
 10
35.82246080930469
 20
6.564316225798947
 10
36.18324442027364
 20
6.212620137128724
 10
36.34398365480109
 20
5.695374007271965
 72
     4
 94
        3
 73
     0
 74
     0
 95
       11
 96
        7
 40
8.0
 40
8.0
 40
8.0
 40
8.0
 40
9.0
 40
9.0
 40
9.0
 40
10.0
 40
10.0
 40
10.0
 40
10.0
 10
36.34398365480109
 20
5.695374007271965
 10
36.44984653306648
 20
5.343289146885304
 10
36.50277500286489
 20
4.612693697118168
 10
36.50277500286489
 20
3.503976429687299
 10
36.50277500286489
 20
2.388264236252041
 10
36.45295840046123
 20
1.6642751260799
 10
36.35371417909226
 20
1.332009840395468
 72
     4
 94
        3
 73
     0
 74
     0
 95
        8
 96
        4
 40
10.0
 40
10.0
 40
10.0
 40
10.0
 40
11.0
 40
11.0
 40
11.0
 40
11.0
 10
36.35371417909226
 20
1.332009840395468
 10
36.20076055173462
 20
0.8132093648967569
 10
35.84036295484958
 20
0.4642334737548381
 10
35.27252435777456
 20
0.2862480420169149
 97
        9
330
87EB
330
87E3
330
87E4
330
87E5
330
87E6
330
87E7
330
87E8
330
87E9
330
87EA
 92
       16
 93
        5
 72
     4
 94
        3
 73
     0
 74
     0
 95
        8
 96
        4
 40
7.0
 40
7.0
 40
7.0
 40
7.0
 40
8.0
 40
8.0
 40
8.0
 40
8.0
 10
29.51902004599168
 20
1.280712728053288
 10
29.79846455048192
 20
1.042491932139313
 10
30.72280794085708
 20
0.9231872873038292
 10
32.2924421698886
 20
0.9231872873038292
 72
     4
 94
        3
 73
     0
 74
     0
 95
        8
 96
        4
 40
0.0
 40
0.0
 40
0.0
 40
0.0
 40
1.0
 40
1.0
 40
1.0
 40
1.0
 10
32.2924421698886
 20
0.9231872873038292
 10
33.86051749587858
 20
0.9231872873038292
 10
34.78407995006438
 20
1.039383055546974
 10
35.06352445454723
 20
1.270997326559794
 72
     4
 94
        3
 73
     0
 74
     0
 95
       11
 96
        7
 40
1.0
 40
1.0
 40
1.0
 40
1.0
 40
2.0
 40
2.0
 40
2.0
 40
3.0
 40
3.0
 40
3.0
 40
3.0
 10
35.06352445454723
 20
1.270997326559794
 10
35.34413590930757
 20
1.504554714933001
 10
35.48463612840061
 20
2.248751522954649
 10
35.48463612840061
 20
3.503976429687299
 10
35.48463612840061
 20
4.765419460217707
 10
35.34802871289247
 20
5.511947879356384
 10
35.07558887939337
 20
5.743950829433039
 72
     4
 94
        3
 73
     0
 74
     0
 95
       11
 96
        7
 40
3.0
 40
3.0
 40
3.0
 40
3.0
 40
4.0
 40
4.0
 40
4.0
 40
5.0
 40
5.0
 40
5.0
 40
5.0
 10
35.07558887939337
 20
5.743950829433039
 10
34.79614734424109
 20
5.977119724047682
 10
33.86868911713242
 20
6.09409257246071
 10
32.2924421698886
 20
6.09409257246071
 10
30.71619225329908
 20
6.09409257246071
 10
29.79184886292381
 20
5.977119724047682
 10
29.51902004599168
 20
5.743950829433039
 72
     4
 94
        3
 73
     0
 74
     0
 95
       11
 96
        7
 40
5.0
 40
5.0
 40
5.0
 40
5.0
 40
6.0
 40
6.0
 40
6.0
 40
7.0
 40
7.0
 40
7.0
 40
7.0
 10
29.51902004599168
 20
5.743950829433039
 10
29.2399674942763
 20
5.511947879356384
 10
29.10024524203089
 20
4.765419460217707
 10
29.10024524203089
 20
3.503976429687299
 10
29.10024524203089
 20
2.255358047855367
 10
29.2399674942763
 20
1.514270116426335
 10
29.51902004599168
 20
1.280712728053288
 97
        5
330
87E2
330
87DE
330
87DF
330
87E0
330
87E1
 75
     1
 76
     1
 98
        1
 10
-349.6033406415021
 20
-2.919596279967777
1001
GradientColor1ACI
1070
     5
1001
GradientColor2ACI
1070
     2
1001
ACAD
1010
0.0
1020
0.0
1030
0.0
  0
SPLINE
  5
87DE
102
{ACAD_REACTORS
330
87DD
102
}
330
86FF
100
AcDbEntity
  8
Capa 1
 62
     9
100
AcDbSpline
210
0.0
220
0.0
230
1.0
 70
     8
 71
     3
 72
     8
 73
     4
 74
     0
 42
0.000000001
 43
0.0000000001
 40
0.0
 40
0.0
 40
0.0
 40
0.0
 40
1.0
 40
1.0
 40
1.0
 40
1.0
 10
32.2924421698886
 20
0.9231872873038292
 30
0.0
 10
33.86051749587858
 20
0.9231872873038292
 30
0.0
 10
34.78407995006438
 20
1.039383055546974
 30
0.0
 10
35.06352445454723
 20
1.270997326559794
 30
0.0
  0
SPLINE
  5
87DF
102
{ACAD_REACTORS
330
87DD
102
}
330
86FF
100
AcDbEntity
  8
Capa 1
 62
     9
100
AcDbSpline
210
0.0
220
0.0
230
1.0
 70
     8
 71
     3
 72
    11
 73
     7
 74
     0
 42
0.000000001
 43
0.0000000001
 40
1.0
 40
1.0
 40
1.0
 40
1.0
 40
2.0
 40
2.0
 40
2.0
 40
3.0
 40
3.0
 40
3.0
 40
3.0
 10
35.06352445454723
 20
1.270997326559794
 30
0.0
 10
35.34413590930757
 20
1.504554714933001
 30
0.0
 10
35.48463612840061
 20
2.248751522954649
 30
0.0
 10
35.48463612840061
 20
3.503976429687299
 30
0.0
 10
35.48463612840061
 20
4.765419460217707
 30
0.0
 10
35.34802871289247
 20
5.511947879356384
 30
0.0
 10
35.07558887939337
 20
5.743950829433039
 30
0.0
  0
SPLINE
  5
87E0
102
{ACAD_REACTORS
330
87DD
102
}
330
86FF
100
AcDbEntity
  8
Capa 1
 62
     9
100
AcDbSpline
210
0.0
220
0.0
230
1.0
 70
     8
 71
     3
 72
    11
 73
     7
 74
     0
 42
0.000000001
 43
0.0000000001
 40
3.0
 40
3.0
 40
3.0
 40
3.0
 40
4.0
 40
4.0
 40
4.0
 40
5.0
 40
5.0
 40
5.0
 40
5.0
 10
35.07558887939337
 20
5.743950829433039
 30
0.0
 10
34.79614734424109
 20
5.977119724047682
 30
0.0
 10
33.86868911713242
 20
6.09409257246071
 30
0.0
 10
32.2924421698886
 20
6.09409257246071
 30
0.0
 10
30.71619225329908
 20
6.09409257246071
 30
0.0
 10
29.79184886292381
 20
5.977119724047682
 30
0.0
 10
29.51902004599168
 20
5.743950829433039
 30
0.0
  0
SPLINE
  5
87E1
102
{ACAD_REACTORS
330
87DD
102
}
330
86FF
100
AcDbEntity
  8
Capa 1
 62
     9
100
AcDbSpline
210
0.0
220
0.0
230
1.0
 70
     8
 71
     3
 72
    11
 73
     7
 74
     0
 42
0.000000001
 43
0.0000000001
 40
5.0
 40
5.0
 40
5.0
 40
5.0
 40
6.0
 40
6.0
 40
6.0
 40
7.0
 40
7.0
 40
7.0
 40
7.0
 10
29.51902004599168
 20
5.743950829433039
 30
0.0
 10
29.2399674942763
 20
5.511947879356384
 30
0.0
 10
29.10024524203089
 20
4.765419460217707
 30
0.0
 10
29.10024524203089
 20
3.503976429687299
 30
0.0
 10
29.10024524203089
 20
2.255358047855367
 30
0.0
 10
29.2399674942763
 20
1.514270116426335
 30
0.0
 10
29.51902004599168
 20
1.280712728053288
 30
0.0
  0
SPLINE
  5
87E2
102
{ACAD_REACTORS
330
87DD
102
}
330
86FF
100
AcDbEntity
  8
Capa 1
 62
     9
100
AcDbSpline
210
0.0
220
0.0
230
1.0
 70
     8
 71
     3
 72
     8
 73
     4
 74
     0
 42
0.000000001
 43
0.0000000001
 40
7.0
 40
7.0
 40
7.0
 40
7.0
 40
8.0
 40
8.0
 40
8.0
 40
8.0
 10
29.51902004599168
 20
1.280712728053288
 30
0.0
 10
29.79846455048192
 20
1.042491932139313
 30
0.0
 10
30.72280794085708
 20
0.9231872873038292
 30
0.0
 10
32.2924421698886
 20
0.9231872873038292
 30
0.0
  0
SPLINE
  5
87E3
102
{ACAD_REACTORS
330
87DD
102
}
330
86FF
100
AcDbEntity
  8
Capa 1
 62
     9
100
AcDbSpline
210
0.0
220
0.0
230
1.0
 70
     8
 71
     3
 72
     8
 73
     4
 74
     0
 42
0.000000001
 43
0.0000000001
 40
0.0
 40
0.0
 40
0.0
 40
0.0
 40
1.0
 40
1.0
 40
1.0
 40
1.0
 10
32.2924421698886
 20
0.00644555314787
 30
0.0
 10
30.87537258478909
 20
0.00644555314787
 30
0.0
 10
29.88447739673899
 20
0.0997130490898179
 30
0.0
 10
29.31975363639737
 20
0.2862480420169149
 30
0.0
  0
SPLINE
  5
87E4
102
{ACAD_REACTORS
330
87DD
102
}
330
86FF
100
AcDbEntity
  8
Capa 1
 62
     9
100
AcDbSpline
210
0.0
220
0.0
230
1.0
 70
     8
 71
     3
 72
     8
 73
     4
 74
     0
 42
0.000000001
 43
0.0000000001
 40
1.0
 40
1.0
 40
1.0
 40
1.0
 40
2.0
 40
2.0
 40
2.0
 40
2.0
 10
29.31975363639737
 20
0.2862480420169149
 30
0.0
 10
28.75463792329543
 20
0.4642334737548381
 30
0.0
 10
28.39579922945194
 20
0.8097118092409445
 30
0.0
 10
28.24284263275632
 20
1.32229443890197
 30
0.0
  0
SPLINE
  5
87E5
102
{ACAD_REACTORS
330
87DD
102
}
330
86FF
100
AcDbEntity
  8
Capa 1
 62
     9
100
AcDbSpline
210
0.0
220
0.0
230
1.0
 70
     8
 71
     3
 72
    11
 73
     7
 74
     0
 42
0.000000001
 43
0.0000000001
 40
2.0
 40
2.0
 40
2.0
 40
2.0
 40
3.0
 40
3.0
 40
3.0
 40
4.0
 40
4.0
 40
4.0
 40
4.0
 10
28.24284263275632
 20
1.32229443890197
 30
0.0
 10
28.13581577355143
 20
1.673990527573153
 30
0.0
 10
28.08210636756684
 20
2.401477100747712
 30
0.0
 10
28.08210636756684
 20
3.503976429687299
 30
0.0
 10
28.08210636756684
 20
4.62590674692072
 30
0.0
 10
28.13270093681427
 20
5.353004733684237
 30
0.0
 10
28.23311507779925
 20
5.685270019369192
 30
0.0
  0
SPLINE
  5
87E6
102
{ACAD_REACTORS
330
87DD
102
}
330
86FF
100
AcDbEntity
  8
Capa 1
 62
     9
100
AcDbSpline
210
0.0
220
0.0
230
1.0
 70
     8
 71
     3
 72
     8
 73
     4
 74
     0
 42
0.000000001
 43
0.0000000001
 40
4.0
 40
4.0
 40
4.0
 40
4.0
 40
5.0
 40
5.0
 40
5.0
 40
5.0
 10
28.23311507779925
 20
5.685270019369192
 30
0.0
 10
28.38567972173456
 20
6.202904550329031
 30
0.0
 10
28.74763325231555
 20
6.554601009611446
 30
0.0
 10
29.31936465297514
 20
6.741135828814123
 30
0.0
  0
SPLINE
  5
87E7
102
{ACAD_REACTORS
330
87DD
102
}
330
86FF
100
AcDbEntity
  8
Capa 1
 62
     9
100
AcDbSpline
210
0.0
220
0.0
230
1.0
 70
     8
 71
     3
 72
    11
 73
     7
 74
     0
 42
0.000000001
 43
0.0000000001
 40
5.0
 40
5.0
 40
5.0
 40
5.0
 40
6.0
 40
6.0
 40
6.0
 40
7.0
 40
7.0
 40
7.0
 40
7.0
 10
29.31936465297514
 20
6.741135828814123
 30
0.0
 10
29.89070410087521
 20
6.927670648016807
 30
0.0
 10
30.88160225826294
 20
7.02054965651319
 30
0.0
 10
32.29205021712477
 20
7.02054965651319
 30
0.0
 10
33.70794988260167
 20
7.02054965651319
 30
0.0
 10
34.69807007314165
 20
6.930780080526461
 30
0.0
 10
35.26279383348293
 20
6.750851045001021
 30
0.0
  0
SPLINE
  5
87E8
102
{ACAD_REACTORS
330
87DD
102
}
330
86FF
100
AcDbEntity
  8
Capa 1
 62
     9
100
AcDbSpline
210
0.0
220
0.0
230
1.0
 70
     8
 71
     3
 72
     8
 73
     4
 74
     0
 42
0.000000001
 43
0.0000000001
 40
7.0
 40
7.0
 40
7.0
 40
7.0
 40
8.0
 40
8.0
 40
8.0
 40
8.0
 10
35.26279383348293
 20
6.750851045001021
 30
0.0
 10
35.82246080930469
 20
6.564316225798947
 30
0.0
 10
36.18324442027364
 20
6.212620137128724
 30
0.0
 10
36.34398365480109
 20
5.695374007271965
 30
0.0
  0
SPLINE
  5
87E9
102
{ACAD_REACTORS
330
87DD
102
}
330
86FF
100
AcDbEntity
  8
Capa 1
 62
     9
100
AcDbSpline
210
0.0
220
0.0
230
1.0
 70
     8
 71
     3
 72
    11
 73
     7
 74
     0
 42
0.000000001
 43
0.0000000001
 40
8.0
 40
8.0
 40
8.0
 40
8.0
 40
9.0
 40
9.0
 40
9.0
 40
10.0
 40
10.0
 40
10.0
 40
10.0
 10
36.34398365480109
 20
5.695374007271965
 30
0.0
 10
36.44984653306648
 20
5.343289146885304
 30
0.0
 10
36.50277500286489
 20
4.612693697118168
 30
0.0
 10
36.50277500286489
 20
3.503976429687299
 30
0.0
 10
36.50277500286489
 20
2.388264236252041
 30
0.0
 10
36.45295840046123
 20
1.6642751260799
 30
0.0
 10
36.35371417909226
 20
1.332009840395468
 30
0.0
  0
SPLINE
  5
87EA
102
{ACAD_REACTORS
330
87DD
102
}
330
86FF
100
AcDbEntity
  8
Capa 1
 62
     9
100
AcDbSpline
210
0.0
220
0.0
230
1.0
 70
     8
 71
     3
 72
     8
 73
     4
 74
     0
 42
0.000000001
 43
0.0000000001
 40
10.0
 40
10.0
 40
10.0
 40
10.0
 40
11.0
 40
11.0
 40
11.0
 40
11.0
 10
36.35371417909226
 20
1.332009840395468
 30
0.0
 10
36.20076055173462
 20
0.8132093648967569
 30
0.0
 10
35.84036295484958
 20
0.4642334737548381
 30
0.0
 10
35.27252435777456
 20
0.2862480420169149
 30
0.0
  0
SPLINE
  5
87EB
102
{ACAD_REACTORS
330
87DD
102
}
330
86FF
100
AcDbEntity
  8
Capa 1
 62
     9
100
AcDbSpline
210
0.0
220
0.0
230
1.0
 70
     8
 71
     3
 72
     8
 73
     4
 74
     0
 42
0.000000001
 43
0.0000000001
 40
11.0
 40
11.0
 40
11.0
 40
11.0
 40
12.0
 40
12.0
 40
12.0
 40
12.0
 10
35.27252435777456
 20
0.2862480420169149
 30
0.0
 10
34.70779762809826
 20
0.0997130490898179
 30
0.0
 10
33.7145685395015
 20
0.00644555314787
 30
0.0
 10
32.2924421698886
 20
0.00644555314787
 30
0.0
  0
HATCH
  5
87EC
330
86FF
100
AcDbEntity
  8
COTAS
 62
     9
100
AcDbHatch
 10
0.0
 20
0.0
 30
0.0
210
0.0
220
0.0
230
1.0
  2
SOLID
 70
     1
 71
     1
 91
        2
 92
       16
 93
        6
 72
     4
 94
        3
 73
     0
 74
     0
 95
        8
 96
        4
 40
6.0
 40
6.0
 40
6.0
 40
6.0
 40
7.0
 40
7.0
 40
7.0
 40
7.0
 10
6.929562709097297
 20
3.197353979600464
 10
6.975514661086038
 20
3.121821224718985
 10
6.944637250619451
 20
3.060158480759128
 10
6.860634781114243
 20
3.060158480759128
 72
     4
 94
        3
 73
     0
 74
     0
 95
        8
 96
        4
 40
0.0
 40
0.0
 40
0.0
 40
0.0
 40
1.0
 40
1.0
 40
1.0
 40
1.0
 10
6.860634781114243
 20
3.060158480759128
 10
6.860634781114243
 20
3.060158480759128
 10
3.076833053082794
 20
3.060158480759128
 10
3.076833053082794
 20
3.060158480759128
 72
     4
 94
        3
 73
     0
 74
     0
 95
        8
 96
        4
 40
1.0
 40
1.0
 40
1.0
 40
1.0
 40
2.0
 40
2.0
 40
2.0
 40
2.0
 10
3.076833053082794
 20
3.060158480759128
 10
2.992830583577643
 20
3.060158480759128
 10
2.961953173111112
 20
3.121821224718985
 10
3.007905125099853
 20
3.197353979600464
 72
     4
 94
        3
 73
     0
 74
     0
 95
        8
 96
        4
 40
2.0
 40
2.0
 40
2.0
 40
2.0
 40
3.0
 40
3.0
 40
3.0
 40
3.0
 10
3.007905125099853
 20
3.197353979600464
 10
3.007905125099853
 20
3.197353979600464
 10
4.752261542313306
 20
6.060390990070601
 10
4.752261542313306
 20
6.060390990070601
 72
     4
 94
        3
 73
     0
 74
     0
 95
       11
 96
        7
 40
3.0
 40
3.0
 40
3.0
 40
3.0
 40
4.0
 40
4.0
 40
4.0
 40
5.0
 40
5.0
 40
5.0
 40
5.0
 10
4.752261542313306
 20
6.060390990070601
 10
4.798213494301933
 20
6.135542664595164
 10
4.895497228566853
 20
6.197205408555064
 10
4.968733917098518
 20
6.197205408555064
 10
5.041970605630297
 20
6.197205408555064
 10
5.139254339895103
 20
6.135542664595164
 10
5.185206291883844
 20
6.060390990070601
 72
     4
 94
        3
 73
     0
 74
     0
 95
        8
 96
        4
 40
5.0
 40
5.0
 40
5.0
 40
5.0
 40
6.0
 40
6.0
 40
6.0
 40
6.0
 10
5.185206291883844
 20
6.060390990070601
 10
5.185206291883844
 20
6.060390990070601
 10
6.929562709097297
 20
3.197353979600464
 10
6.929562709097297
 20
3.197353979600464
 97
        6
330
8802
330
87FD
330
87FE
330
87FF
330
8800
330
8801
 92
        1
 93
       16
 72
     4
 94
        3
 73
     0
 74
     0
 95
        8
 96
        4
 40
15.0
 40
15.0
 40
15.0
 40
15.0
 40
16.0
 40
16.0
 40
16.0
 40
16.0
 10
9.907063137849434
 20
0.2487644290023425
 10
9.907063137849434
 20
0.2487644290023425
 10
5.853651735197047
 20
6.777597362491768
 10
5.853651735197047
 20
6.777597362491768
 72
     4
 94
        3
 73
     0
 74
     0
 95
        8
 96
        4
 40
0.0
 40
0.0
 40
0.0
 40
0.0
 40
1.0
 40
1.0
 40
1.0
 40
1.0
 10
5.853651735197047
 20
6.777597362491768
 10
5.806983696583131
 20
6.852742466665362
 10
5.700366354595531
 20
6.914024130268359
 10
5.616357764691941
 20
6.914024130268359
 72
     4
 94
        3
 73
     0
 74
     0
 95
        8
 96
        4
 40
1.0
 40
1.0
 40
1.0
 40
1.0
 40
2.0
 40
2.0
 40
2.0
 40
2.0
 10
5.616357764691941
 20
6.914024130268359
 10
5.616357764691941
 20
6.914024130268359
 10
4.298489076624321
 20
6.914024130268359
 10
4.298489076624321
 20
6.914024130268359
 72
     4
 94
        3
 73
     0
 74
     0
 95
        8
 96
        4
 40
2.0
 40
2.0
 40
2.0
 40
2.0
 40
3.0
 40
3.0
 40
3.0
 40
3.0
 10
4.298489076624321
 20
6.914024130268359
 10
4.214486607119113
 20
6.914024130268359
 10
4.107863144733017
 20
6.852742466665362
 10
4.061556209630965
 20
6.777597362491768
 72
     4
 94
        3
 73
     0
 74
     0
 95
        8
 96
        4
 40
3.0
 40
3.0
 40
3.0
 40
3.0
 40
4.0
 40
4.0
 40
4.0
 40
4.0
 10
4.061556209630965
 20
6.777597362491768
 10
4.061556209630965
 20
6.777597362491768
 10
0.0217932956487061
 20
0.2487644290023425
 10
0.0217932956487061
 20
0.2487644290023425
 72
     4
 94
        3
 73
     0
 74
     0
 95
        8
 96
        4
 40
4.0
 40
4.0
 40
4.0
 40
4.0
 40
5.0
 40
5.0
 40
5.0
 40
5.0
 10
0.0217932956487061
 20
0.2487644290023425
 10
-0.0248808633638191
 20
0.1739938348346826
 10
0.0059965471027112
 20
0.1123376612257516
 10
0.0896379130959986
 20
0.1123376612257516
 72
     4
 94
        3
 73
     0
 74
     0
 95
        8
 96
        4
 40
5.0
 40
5.0
 40
5.0
 40
5.0
 40
6.0
 40
6.0
 40
6.0
 40
6.0
 10
0.0896379130959986
 20
0.1123376612257516
 10
0.0896379130959986
 20
0.1123376612257516
 10
0.9663054340074382
 20
0.1123376612257516
 10
0.9663054340074382
 20
0.1123376612257516
 72
     4
 94
        3
 73
     0
 74
     0
 95
        8
 96
        4
 40
6.0
 40
6.0
 40
6.0
 40
6.0
 40
7.0
 40
7.0
 40
7.0
 40
7.0
 10
0.9663054340074382
 20
0.1123376612257516
 10
1.050307903512646
 20
0.1123376612257516
 10
1.156931365898743
 20
0.1739938348346826
 10
1.203599404512659
 20
0.2491455093592521
 72
     4
 94
        3
 73
     0
 74
     0
 95
        8
 96
        4
 40
7.0
 40
7.0
 40
7.0
 40
7.0
 40
8.0
 40
8.0
 40
8.0
 40
8.0
 10
1.203599404512659
 20
0.2491455093592521
 10
1.203599404512659
 20
0.2491455093592521
 10
2.365667228192422
 20
2.128292171426565
 10
2.365667228192422
 20
2.128292171426565
 72
     4
 94
        3
 73
     0
 74
     0
 95
        8
 96
        4
 40
8.0
 40
8.0
 40
8.0
 40
8.0
 40
9.0
 40
9.0
 40
9.0
 40
9.0
 10
2.365667228192422
 20
2.128292171426565
 10
2.411974163294474
 20
2.203056195243249
 10
2.518597625680684
 20
2.264718939203071
 10
2.602600095185778
 20
2.264718939203071
 72
     4
 94
        3
 73
     0
 74
     0
 95
        8
 96
        4
 40
9.0
 40
9.0
 40
9.0
 40
9.0
 40
10.0
 40
10.0
 40
10.0
 40
10.0
 10
2.602600095185778
 20
2.264718939203071
 10
2.602600095185778
 20
2.264718939203071
 10
7.31224674613037
 20
2.264718939203071
 10
7.31224674613037
 20
2.264718939203071
 72
     4
 94
        3
 73
     0
 74
     0
 95
        8
 96
        4
 40
10.0
 40
10.0
 40
10.0
 40
10.0
 40
11.0
 40
11.0
 40
11.0
 40
11.0
 10
7.31224674613037
 20
2.264718939203071
 10
7.395894232522153
 20
2.264718939203071
 10
7.502517694908249
 20
2.203056195243249
 10
7.548824630010301
 20
2.127904520718644
 72
     4
 94
        3
 73
     0
 74
     0
 95
        8
 96
        4
 40
11.0
 40
11.0
 40
11.0
 40
11.0
 40
12.0
 40
12.0
 40
12.0
 40
12.0
 10
7.548824630010301
 20
2.127904520718644
 10
7.548824630010301
 20
2.127904520718644
 10
8.698688379067619
 20
0.2495331600671307
 10
8.698688379067619
 20
0.2495331600671307
 72
     4
 94
        3
 73
     0
 74
     0
 95
        8
 96
        4
 40
12.0
 40
12.0
 40
12.0
 40
12.0
 40
13.0
 40
13.0
 40
13.0
 40
13.0
 10
8.698688379067619
 20
0.2495331600671307
 10
8.744995314169728
 20
0.1739938348346826
 10
8.851257673043904
 20
0.1123376612257516
 10
8.935260142548998
 20
0.1123376612257516
 72
     4
 94
        3
 73
     0
 74
     0
 95
        8
 96
        4
 40
13.0
 40
13.0
 40
13.0
 40
13.0
 40
14.0
 40
14.0
 40
14.0
 40
14.0
 10
8.935260142548998
 20
0.1123376612257516
 10
8.935260142548998
 20
0.1123376612257516
 10
9.839212400003532
 20
0.1123376612257516
 10
9.839212400003532
 20
0.1123376612257516
 72
     4
 94
        3
 73
     0
 74
     0
 95
        8
 96
        4
 40
14.0
 40
14.0
 40
14.0
 40
14.0
 40
15.0
 40
15.0
 40
15.0
 40
15.0
 10
9.839212400003532
 20
0.1123376612257516
 10
9.92321486950874
 20
0.1123376612257516
 10
9.95373117646335
 20
0.1739938348346826
 10
9.907063137849434
 20
0.2487644290023425
 97
       16
330
87FC
330
87ED
330
87EE
330
87EF
330
87F0
330
87F1
330
87F2
330
87F3
330
87F4
330
87F5
330
87F6
330
87F7
330
87F8
330
87F9
330
87FA
330
87FB
 75
     1
 76
     1
 98
        1
 10
-349.6033406415021
 20
-2.919596279967777
1001
GradientColor1ACI
1070
     5
1001
GradientColor2ACI
1070
     2
1001
ACAD
1010
0.0
1020
0.0
1030
0.0
  0
SPLINE
  5
87ED
102
{ACAD_REACTORS
330
87EC
102
}
330
86FF
100
AcDbEntity
  8
Capa 1
 62
     9
100
AcDbSpline
210
0.0
220
0.0
230
1.0
 70
     8
 71
     3
 72
     8
 73
     4
 74
     0
 42
0.000000001
 43
0.0000000001
 40
0.0
 40
0.0
 40
0.0
 40
0.0
 40
1.0
 40
1.0
 40
1.0
 40
1.0
 10
5.853651735197047
 20
6.777597362491768
 30
0.0
 10
5.806983696583131
 20
6.852742466665362
 30
0.0
 10
5.700366354595531
 20
6.914024130268359
 30
0.0
 10
5.616357764691941
 20
6.914024130268359
 30
0.0
  0
SPLINE
  5
87EE
102
{ACAD_REACTORS
330
87EC
102
}
330
86FF
100
AcDbEntity
  8
Capa 1
 62
     9
100
AcDbSpline
210
0.0
220
0.0
230
1.0
 70
    24
 71
     3
 72
     8
 73
     4
 74
     0
 42
0.000000001
 43
0.0000000001
 40
1.0
 40
1.0
 40
1.0
 40
1.0
 40
2.0
 40
2.0
 40
2.0
 40
2.0
 10
5.616357764691941
 20
6.914024130268359
 30
0.0
 10
5.616357764691941
 20
6.914024130268359
 30
0.0
 10
4.298489076624321
 20
6.914024130268359
 30
0.0
 10
4.298489076624321
 20
6.914024130268359
 30
0.0
  0
SPLINE
  5
87EF
102
{ACAD_REACTORS
330
87EC
102
}
330
86FF
100
AcDbEntity
  8
Capa 1
 62
     9
100
AcDbSpline
210
0.0
220
0.0
230
1.0
 70
     8
 71
     3
 72
     8
 73
     4
 74
     0
 42
0.000000001
 43
0.0000000001
 40
2.0
 40
2.0
 40
2.0
 40
2.0
 40
3.0
 40
3.0
 40
3.0
 40
3.0
 10
4.298489076624321
 20
6.914024130268359
 30
0.0
 10
4.214486607119113
 20
6.914024130268359
 30
0.0
 10
4.107863144733017
 20
6.852742466665362
 30
0.0
 10
4.061556209630965
 20
6.777597362491768
 30
0.0
  0
SPLINE
  5
87F0
102
{ACAD_REACTORS
330
87EC
102
}
330
86FF
100
AcDbEntity
  8
Capa 1
 62
     9
100
AcDbSpline
210
0.0
220
0.0
230
1.0
 70
    24
 71
     3
 72
     8
 73
     4
 74
     0
 42
0.000000001
 43
0.0000000001
 40
3.0
 40
3.0
 40
3.0
 40
3.0
 40
4.0
 40
4.0
 40
4.0
 40
4.0
 10
4.061556209630965
 20
6.777597362491768
 30
0.0
 10
4.061556209630965
 20
6.777597362491768
 30
0.0
 10
0.0217932956487061
 20
0.2487644290023425
 30
0.0
 10
0.0217932956487061
 20
0.2487644290023425
 30
0.0
  0
SPLINE
  5
87F1
102
{ACAD_REACTORS
330
87EC
102
}
330
86FF
100
AcDbEntity
  8
Capa 1
 62
     9
100
AcDbSpline
210
0.0
220
0.0
230
1.0
 70
     8
 71
     3
 72
     8
 73
     4
 74
     0
 42
0.000000001
 43
0.0000000001
 40
4.0
 40
4.0
 40
4.0
 40
4.0
 40
5.0
 40
5.0
 40
5.0
 40
5.0
 10
0.0217932956487061
 20
0.2487644290023425
 30
0.0
 10
-0.0248808633638191
 20
0.1739938348346826
 30
0.0
 10
0.0059965471027112
 20
0.1123376612257516
 30
0.0
 10
0.0896379130959986
 20
0.1123376612257516
 30
0.0
  0
SPLINE
  5
87F2
102
{ACAD_REACTORS
330
87EC
102
}
330
86FF
100
AcDbEntity
  8
Capa 1
 62
     9
100
AcDbSpline
210
0.0
220
0.0
230
1.0
 70
    24
 71
     3
 72
     8
 73
     4
 74
     0
 42
0.000000001
 43
0.0000000001
 40
5.0
 40
5.0
 40
5.0
 40
5.0
 40
6.0
 40
6.0
 40
6.0
 40
6.0
 10
0.0896379130959986
 20
0.1123376612257516
 30
0.0
 10
0.0896379130959986
 20
0.1123376612257516
 30
0.0
 10
0.9663054340074382
 20
0.1123376612257516
 30
0.0
 10
0.9663054340074382
 20
0.1123376612257516
 30
0.0
  0
SPLINE
  5
87F3
102
{ACAD_REACTORS
330
87EC
102
}
330
86FF
100
AcDbEntity
  8
Capa 1
 62
     9
100
AcDbSpline
210
0.0
220
0.0
230
1.0
 70
     8
 71
     3
 72
     8
 73
     4
 74
     0
 42
0.000000001
 43
0.0000000001
 40
6.0
 40
6.0
 40
6.0
 40
6.0
 40
7.0
 40
7.0
 40
7.0
 40
7.0
 10
0.9663054340074382
 20
0.1123376612257516
 30
0.0
 10
1.050307903512646
 20
0.1123376612257516
 30
0.0
 10
1.156931365898743
 20
0.1739938348346826
 30
0.0
 10
1.203599404512659
 20
0.2491455093592521
 30
0.0
  0
SPLINE
  5
87F4
102
{ACAD_REACTORS
330
87EC
102
}
330
86FF
100
AcDbEntity
  8
Capa 1
 62
     9
100
AcDbSpline
210
0.0
220
0.0
230
1.0
 70
    24
 71
     3
 72
     8
 73
     4
 74
     0
 42
0.000000001
 43
0.0000000001
 40
7.0
 40
7.0
 40
7.0
 40
7.0
 40
8.0
 40
8.0
 40
8.0
 40
8.0
 10
1.203599404512659
 20
0.2491455093592521
 30
0.0
 10
1.203599404512659
 20
0.2491455093592521
 30
0.0
 10
2.365667228192422
 20
2.128292171426565
 30
0.0
 10
2.365667228192422
 20
2.128292171426565
 30
0.0
  0
SPLINE
  5
87F5
102
{ACAD_REACTORS
330
87EC
102
}
330
86FF
100
AcDbEntity
  8
Capa 1
 62
     9
100
AcDbSpline
210
0.0
220
0.0
230
1.0
 70
     8
 71
     3
 72
     8
 73
     4
 74
     0
 42
0.000000001
 43
0.0000000001
 40
8.0
 40
8.0
 40
8.0
 40
8.0
 40
9.0
 40
9.0
 40
9.0
 40
9.0
 10
2.365667228192422
 20
2.128292171426565
 30
0.0
 10
2.411974163294474
 20
2.203056195243249
 30
0.0
 10
2.518597625680684
 20
2.264718939203071
 30
0.0
 10
2.602600095185778
 20
2.264718939203071
 30
0.0
  0
SPLINE
  5
87F6
102
{ACAD_REACTORS
330
87EC
102
}
330
86FF
100
AcDbEntity
  8
Capa 1
 62
     9
100
AcDbSpline
210
0.0
220
0.0
230
1.0
 70
    24
 71
     3
 72
     8
 73
     4
 74
     0
 42
0.000000001
 43
0.0000000001
 40
9.0
 40
9.0
 40
9.0
 40
9.0
 40
10.0
 40
10.0
 40
10.0
 40
10.0
 10
2.602600095185778
 20
2.264718939203071
 30
0.0
 10
2.602600095185778
 20
2.264718939203071
 30
0.0
 10
7.31224674613037
 20
2.264718939203071
 30
0.0
 10
7.31224674613037
 20
2.264718939203071
 30
0.0
  0
SPLINE
  5
87F7
102
{ACAD_REACTORS
330
87EC
102
}
330
86FF
100
AcDbEntity
  8
Capa 1
 62
     9
100
AcDbSpline
210
0.0
220
0.0
230
1.0
 70
     8
 71
     3
 72
     8
 73
     4
 74
     0
 42
0.000000001
 43
0.0000000001
 40
10.0
 40
10.0
 40
10.0
 40
10.0
 40
11.0
 40
11.0
 40
11.0
 40
11.0
 10
7.31224674613037
 20
2.264718939203071
 30
0.0
 10
7.395894232522153
 20
2.264718939203071
 30
0.0
 10
7.502517694908249
 20
2.203056195243249
 30
0.0
 10
7.548824630010301
 20
2.127904520718644
 30
0.0
  0
SPLINE
  5
87F8
102
{ACAD_REACTORS
330
87EC
102
}
330
86FF
100
AcDbEntity
  8
Capa 1
 62
     9
100
AcDbSpline
210
0.0
220
0.0
230
1.0
 70
    24
 71
     3
 72
     8
 73
     4
 74
     0
 42
0.000000001
 43
0.0000000001
 40
11.0
 40
11.0
 40
11.0
 40
11.0
 40
12.0
 40
12.0
 40
12.0
 40
12.0
 10
7.548824630010301
 20
2.127904520718644
 30
0.0
 10
7.548824630010301
 20
2.127904520718644
 30
0.0
 10
8.698688379067619
 20
0.2495331600671307
 30
0.0
 10
8.698688379067619
 20
0.2495331600671307
 30
0.0
  0
SPLINE
  5
87F9
102
{ACAD_REACTORS
330
87EC
102
}
330
86FF
100
AcDbEntity
  8
Capa 1
 62
     9
100
AcDbSpline
210
0.0
220
0.0
230
1.0
 70
     8
 71
     3
 72
     8
 73
     4
 74
     0
 42
0.000000001
 43
0.0000000001
 40
12.0
 40
12.0
 40
12.0
 40
12.0
 40
13.0
 40
13.0
 40
13.0
 40
13.0
 10
8.698688379067619
 20
0.2495331600671307
 30
0.0
 10
8.744995314169728
 20
0.1739938348346826
 30
0.0
 10
8.851257673043904
 20
0.1123376612257516
 30
0.0
 10
8.935260142548998
 20
0.1123376612257516
 30
0.0
  0
SPLINE
  5
87FA
102
{ACAD_REACTORS
330
87EC
102
}
330
86FF
100
AcDbEntity
  8
Capa 1
 62
     9
100
AcDbSpline
210
0.0
220
0.0
230
1.0
 70
    24
 71
     3
 72
     8
 73
     4
 74
     0
 42
0.000000001
 43
0.0000000001
 40
13.0
 40
13.0
 40
13.0
 40
13.0
 40
14.0
 40
14.0
 40
14.0
 40
14.0
 10
8.935260142548998
 20
0.1123376612257516
 30
0.0
 10
8.935260142548998
 20
0.1123376612257516
 30
0.0
 10
9.839212400003532
 20
0.1123376612257516
 30
0.0
 10
9.839212400003532
 20
0.1123376612257516
 30
0.0
  0
SPLINE
  5
87FB
102
{ACAD_REACTORS
330
87EC
102
}
330
86FF
100
AcDbEntity
  8
Capa 1
 62
     9
100
AcDbSpline
210
0.0
220
0.0
230
1.0
 70
     8
 71
     3
 72
     8
 73
     4
 74
     0
 42
0.000000001
 43
0.0000000001
 40
14.0
 40
14.0
 40
14.0
 40
14.0
 40
15.0
 40
15.0
 40
15.0
 40
15.0
 10
9.839212400003532
 20
0.1123376612257516
 30
0.0
 10
9.92321486950874
 20
0.1123376612257516
 30
0.0
 10
9.95373117646335
 20
0.1739938348346826
 30
0.0
 10
9.907063137849434
 20
0.2487644290023425
 30
0.0
  0
SPLINE
  5
87FC
102
{ACAD_REACTORS
330
87EC
102
}
330
86FF
100
AcDbEntity
  8
Capa 1
 62
     9
100
AcDbSpline
210
0.0
220
0.0
230
1.0
 70
    24
 71
     3
 72
     8
 73
     4
 74
     0
 42
0.000000001
 43
0.0000000001
 40
15.0
 40
15.0
 40
15.0
 40
15.0
 40
16.0
 40
16.0
 40
16.0
 40
16.0
 10
9.907063137849434
 20
0.2487644290023425
 30
0.0
 10
9.907063137849434
 20
0.2487644290023425
 30
0.0
 10
5.853651735197047
 20
6.777597362491768
 30
0.0
 10
5.853651735197047
 20
6.777597362491768
 30
0.0
  0
SPLINE
  5
87FD
102
{ACAD_REACTORS
330
87EC
102
}
330
86FF
100
AcDbEntity
  8
Capa 1
 62
     9
100
AcDbSpline
210
0.0
220
0.0
230
1.0
 70
    24
 71
     3
 72
     8
 73
     4
 74
     0
 42
0.000000001
 43
0.0000000001
 40
0.0
 40
0.0
 40
0.0
 40
0.0
 40
1.0
 40
1.0
 40
1.0
 40
1.0
 10
6.860634781114243
 20
3.060158480759128
 30
0.0
 10
6.860634781114243
 20
3.060158480759128
 30
0.0
 10
3.076833053082794
 20
3.060158480759128
 30
0.0
 10
3.076833053082794
 20
3.060158480759128
 30
0.0
  0
SPLINE
  5
87FE
102
{ACAD_REACTORS
330
87EC
102
}
330
86FF
100
AcDbEntity
  8
Capa 1
 62
     9
100
AcDbSpline
210
0.0
220
0.0
230
1.0
 70
     8
 71
     3
 72
     8
 73
     4
 74
     0
 42
0.000000001
 43
0.0000000001
 40
1.0
 40
1.0
 40
1.0
 40
1.0
 40
2.0
 40
2.0
 40
2.0
 40
2.0
 10
3.076833053082794
 20
3.060158480759128
 30
0.0
 10
2.992830583577643
 20
3.060158480759128
 30
0.0
 10
2.961953173111112
 20
3.121821224718985
 30
0.0
 10
3.007905125099853
 20
3.197353979600464
 30
0.0
  0
SPLINE
  5
87FF
102
{ACAD_REACTORS
330
87EC
102
}
330
86FF
100
AcDbEntity
  8
Capa 1
 62
     9
100
AcDbSpline
210
0.0
220
0.0
230
1.0
 70
    24
 71
     3
 72
     8
 73
     4
 74
     0
 42
0.000000001
 43
0.0000000001
 40
2.0
 40
2.0
 40
2.0
 40
2.0
 40
3.0
 40
3.0
 40
3.0
 40
3.0
 10
3.007905125099853
 20
3.197353979600464
 30
0.0
 10
3.007905125099853
 20
3.197353979600464
 30
0.0
 10
4.752261542313306
 20
6.060390990070601
 30
0.0
 10
4.752261542313306
 20
6.060390990070601
 30
0.0
  0
SPLINE
  5
8800
102
{ACAD_REACTORS
330
87EC
102
}
330
86FF
100
AcDbEntity
  8
Capa 1
 62
     9
100
AcDbSpline
210
0.0
220
0.0
230
1.0
 70
     8
 71
     3
 72
    11
 73
     7
 74
     0
 42
0.000000001
 43
0.0000000001
 40
3.0
 40
3.0
 40
3.0
 40
3.0
 40
4.0
 40
4.0
 40
4.0
 40
5.0
 40
5.0
 40
5.0
 40
5.0
 10
4.752261542313306
 20
6.060390990070601
 30
0.0
 10
4.798213494301933
 20
6.135542664595164
 30
0.0
 10
4.895497228566853
 20
6.197205408555064
 30
0.0
 10
4.968733917098518
 20
6.197205408555064
 30
0.0
 10
5.041970605630297
 20
6.197205408555064
 30
0.0
 10
5.139254339895103
 20
6.135542664595164
 30
0.0
 10
5.185206291883844
 20
6.060390990070601
 30
0.0
  0
SPLINE
  5
8801
102
{ACAD_REACTORS
330
87EC
102
}
330
86FF
100
AcDbEntity
  8
Capa 1
 62
     9
100
AcDbSpline
210
0.0
220
0.0
230
1.0
 70
    24
 71
     3
 72
     8
 73
     4
 74
     0
 42
0.000000001
 43
0.0000000001
 40
5.0
 40
5.0
 40
5.0
 40
5.0
 40
6.0
 40
6.0
 40
6.0
 40
6.0
 10
5.185206291883844
 20
6.060390990070601
 30
0.0
 10
5.185206291883844
 20
6.060390990070601
 30
0.0
 10
6.929562709097297
 20
3.197353979600464
 30
0.0
 10
6.929562709097297
 20
3.197353979600464
 30
0.0
  0
SPLINE
  5
8802
102
{ACAD_REACTORS
330
87EC
102
}
330
86FF
100
AcDbEntity
  8
Capa 1
 62
     9
100
AcDbSpline
210
0.0
220
0.0
230
1.0
 70
     8
 71
     3
 72
     8
 73
     4
 74
     0
 42
0.000000001
 43
0.0000000001
 40
6.0
 40
6.0
 40
6.0
 40
6.0
 40
7.0
 40
7.0
 40
7.0
 40
7.0
 10
6.929562709097297
 20
3.197353979600464
 30
0.0
 10
6.975514661086038
 20
3.121821224718985
 30
0.0
 10
6.944637250619451
 20
3.060158480759128
 30
0.0
 10
6.860634781114243
 20
3.060158480759128
 30
0.0
  0
HATCH
  5
8803
330
86FF
100
AcDbEntity
  8
COTAS
 62
     9
100
AcDbHatch
 10
0.0
 20
0.0
 30
0.0
210
0.0
220
0.0
230
1.0
  2
SOLID
 70
     1
 71
     1
 91
        1
 92
        1
 93
       32
 72
     4
 94
        3
 73
     0
 74
     0
 95
       11
 96
        7
 40
41.0
 40
41.0
 40
41.0
 40
41.0
 40
42.0
 40
42.0
 40
42.0
 40
43.0
 40
43.0
 40
43.0
 40
43.0
 10
44.4726305721652
 20
0.3246720009491604
 10
45.08961326753769
 20
0.5838956886854803
 10
45.39772563322441
 20
1.131098323378964
 10
45.39772563322441
 20
1.966232532279545
 10
45.39772563322441
 20
2.848715804756722
 10
45.1419127834842
 20
3.406008835189894
 10
44.63047657500437
 20
3.637306286829656
 72
     4
 94
        3
 73
     0
 74
     0
 95
       11
 96
        7
 40
0.0
 40
0.0
 40
0.0
 40
0.0
 40
1.0
 40
1.0
 40
1.0
 40
2.0
 40
2.0
 40
2.0
 40
2.0
 10
44.63047657500437
 20
3.637306286829656
 10
44.21909161442301
 20
3.823575939640165
 10
43.22104251843808
 20
3.916710766045355
 10
41.63576081405091
 20
3.916710766045355
 10
40.51530053219057
 20
3.916710766045355
 10
39.77609614194222
 20
3.999376214711617
 10
39.41833713430623
 20
4.164304443668755
 72
     4
 94
        3
 73
     0
 74
     0
 95
       11
 96
        7
 40
2.0
 40
2.0
 40
2.0
 40
2.0
 40
3.0
 40
3.0
 40
3.0
 40
4.0
 40
4.0
 40
4.0
 40
4.0
 10
39.41833713430623
 20
4.164304443668755
 10
39.06038863567034
 20
4.331174955373946
 10
38.88150913185206
 20
4.645919506053872
 10
38.88150913185206
 20
5.109272373332381
 10
38.88150913185206
 20
5.6599569051467
 10
39.21254990851554
 20
5.974677769451738
 10
39.87501044384152
 20
6.05386132099644
 72
     4
 94
        3
 73
     0
 74
     0
 95
       11
 96
        7
 40
4.0
 40
4.0
 40
4.0
 40
4.0
 40
5.0
 40
5.0
 40
5.0
 40
6.0
 40
6.0
 40
6.0
 40
6.0
 10
39.87501044384152
 20
6.05386132099644
 10
40.09538847661742
 20
6.081408575093391
 10
40.68186312102108
 20
6.095383536329095
 10
41.63576081405091
 20
6.095383536329095
 10
42.74996789291748
 20
6.095383536329095
 10
43.45620084919909
 20
6.018923917907024
 10
43.7546491738953
 20
5.865625699062875
 72
     4
 94
        3
 73
     0
 74
     0
 95
        8
 96
        4
 40
6.0
 40
6.0
 40
6.0
 40
6.0
 40
7.0
 40
7.0
 40
7.0
 40
7.0
 10
43.7546491738953
 20
5.865625699062875
 10
44.05347648059177
 20
5.712730148593387
 10
44.19862658644394
 20
5.498131591311513
 10
44.19862658644394
 20
4.915233589529848
 72
     4
 94
        3
 73
     0
 74
     0
 95
        8
 96
        4
 40
7.0
 40
7.0
 40
7.0
 40
7.0
 40
8.0
 40
8.0
 40
8.0
 40
8.0
 10
44.19862658644394
 20
4.915233589529848
 10
44.19862658644394
 20
4.915233589529848
 10
44.20146895144086
 20
4.915257275904892
 10
44.20146895144086
 20
4.915257275904892
 72
     4
 94
        3
 73
     0
 74
     0
 95
        8
 96
        4
 40
8.0
 40
8.0
 40
8.0
 40
8.0
 40
9.0
 40
9.0
 40
9.0
 40
9.0
 10
44.20146895144086
 20
4.915257275904892
 10
44.20829062743366
 20
4.83072060361598
 10
44.27783382436297
 20
4.763190748559524
 10
44.3636732472757
 20
4.763190748559524
 72
     4
 94
        3
 73
     0
 74
     0
 95
        8
 96
        4
 40
9.0
 40
9.0
 40
9.0
 40
9.0
 40
10.0
 40
10.0
 40
10.0
 40
10.0
 10
44.3636732472757
 20
4.763190748559524
 10
44.3636732472757
 20
4.763190748559524
 10
45.03238698559591
 20
4.763190748559524
 10
45.03238698559591
 20
4.763190748559524
 72
     4
 94
        3
 73
     0
 74
     0
 95
        8
 96
        4
 40
10.0
 40
10.0
 40
10.0
 40
10.0
 40
11.0
 40
11.0
 40
11.0
 40
11.0
 10
45.03238698559591
 20
4.763190748559524
 10
45.12239521050395
 20
4.763190748559524
 10
45.19534924542978
 20
4.836050037985345
 10
45.19686517342842
 20
4.925702967269295
 72
     4
 94
        3
 73
     0
 74
     0
 95
        8
 96
        4
 40
11.0
 40
11.0
 40
11.0
 40
11.0
 40
12.0
 40
12.0
 40
12.0
 40
12.0
 10
45.19686517342842
 20
4.925702967269295
 10
45.19686517342842
 20
4.925702967269295
 10
45.19743364642778
 20
4.925702967269295
 10
45.19743364642778
 20
4.925702967269295
 72
     4
 94
        3
 73
     0
 74
     0
 95
        8
 96
        4
 40
12.0
 40
12.0
 40
12.0
 40
12.0
 40
13.0
 40
13.0
 40
13.0
 40
13.0
 10
45.19743364642778
 20
4.925702967269295
 10
45.19743364642778
 20
4.927976859266771
 10
45.19724415542788
 20
4.929824396514938
 10
45.19724415542788
 20
4.932098288512812
 72
     4
 94
        3
 73
     0
 74
     0
 95
        8
 96
        4
 40
13.0
 40
13.0
 40
13.0
 40
13.0
 40
14.0
 40
14.0
 40
14.0
 40
14.0
 10
45.19724415542788
 20
4.932098288512812
 10
45.19724415542788
 20
4.932098288512812
 10
45.19724415542788
 20
5.030965217662342
 10
45.19724415542788
 20
5.030965217662342
 72
     4
 94
        3
 73
     0
 74
     0
 95
        8
 96
        4
 40
14.0
 40
14.0
 40
14.0
 40
14.0
 40
15.0
 40
15.0
 40
15.0
 40
15.0
 10
45.19724415542788
 20
5.030965217662342
 10
45.19724415542788
 20
5.03695787053104
 10
45.19459128143086
 20
5.042074127525638
 10
45.19383331743148
 20
5.047900975769899
 72
     4
 94
        3
 73
     0
 74
     0
 95
        8
 96
        4
 40
15.0
 40
15.0
 40
15.0
 40
15.0
 40
16.0
 40
16.0
 40
16.0
 40
16.0
 10
45.19383331743148
 20
5.047900975769899
 10
45.17564218145031
 20
5.810602249993771
 10
44.9899410016389
 20
6.19531635235257
 10
44.63047657500437
 20
6.471807407446072
 72
     4
 94
        3
 73
     0
 74
     0
 95
       11
 96
        7
 40
16.0
 40
16.0
 40
16.0
 40
16.0
 40
17.0
 40
17.0
 40
17.0
 40
18.0
 40
18.0
 40
18.0
 40
18.0
 10
44.63047657500437
 20
6.471807407446072
 10
44.15276976449053
 20
6.837761900824006
 10
43.1547206685056
 20
7.02054965651319
 10
41.63576081405091
 20
7.02054965651319
 10
40.11054775660199
 20
7.02054965651319
 10
39.10283461962689
 20
6.904131123506431
 10
38.61186343912647
 20
6.670891389118694
 72
     4
 94
        3
 73
     0
 74
     0
 95
       11
 96
        7
 40
18.0
 40
18.0
 40
18.0
 40
18.0
 40
19.0
 40
19.0
 40
19.0
 40
20.0
 40
20.0
 40
20.0
 40
20.0
 10
38.61186343912647
 20
6.670891389118694
 10
38.11463905563204
 20
6.433009125235692
 10
37.86640584588446
 20
5.91259578063999
 10
37.86640584588446
 20
5.109272373332381
 10
37.86640584588446
 20
4.367651972836754
 10
38.07200358067547
 20
3.853444458484887
 10
38.48338854125728
 20
3.567052498651258
 72
     4
 94
        3
 73
     0
 74
     0
 95
       11
 96
        7
 40
20.0
 40
20.0
 40
20.0
 40
20.0
 40
21.0
 40
21.0
 40
21.0
 40
22.0
 40
22.0
 40
22.0
 40
22.0
 10
38.48338854125728
 20
3.567052498651258
 10
39.02097450771026
 20
3.189846977159817
 10
40.07170210164173
 20
3.001232373226685
 10
41.63576081405091
 20
3.001232373226685
 10
42.9163409907481
 20
3.001232373226685
 10
43.6960964549549
 20
2.944574564284302
 10
43.97464822467174
 20
2.831258946399657
 72
     4
 94
        3
 73
     0
 74
     0
 95
       11
 96
        7
 40
22.0
 40
22.0
 40
22.0
 40
22.0
 40
23.0
 40
23.0
 40
23.0
 40
24.0
 40
24.0
 40
24.0
 40
24.0
 10
43.97464822467174
 20
2.831258946399657
 10
44.2467573003949
 20
2.719482942888369
 10
44.3826223472567
 20
2.431148700306451
 10
44.3826223472567
 20
1.966232532279545
 10
44.3826223472567
 20
1.50830384487017
 10
44.20052149644158
 20
1.219969602288494
 10
43.83613030381235
 20
1.101987768533572
 72
     4
 94
        3
 73
     0
 74
     0
 95
       11
 96
        7
 40
24.0
 40
24.0
 40
24.0
 40
24.0
 40
25.0
 40
25.0
 40
25.0
 40
26.0
 40
26.0
 40
26.0
 40
26.0
 10
43.83613030381235
 20
1.101987768533572
 10
43.46396998019117
 20
0.9820636520304014
 10
42.65749628501186
 20
0.9219239459666966
 10
41.41727769127277
 20
0.9219239459666966
 10
40.15128832156034
 20
0.9219239459666966
 10
39.37513318634996
 20
1.004589394632397
 10
39.09032821363968
 20
1.169896605589585
 72
     4
 94
        3
 73
     0
 74
     0
 95
        8
 96
        4
 40
26.0
 40
26.0
 40
26.0
 40
26.0
 40
27.0
 40
27.0
 40
27.0
 40
27.0
 10
39.09032821363968
 20
1.169896605589585
 10
38.80552324092952
 20
1.330182305051586
 10
38.66852124806888
 20
1.692252232933058
 10
38.66454193707267
 20
2.253406142487194
 72
     4
 94
        3
 73
     0
 74
     0
 95
        8
 96
        4
 40
27.0
 40
27.0
 40
27.0
 40
27.0
 40
28.0
 40
28.0
 40
28.0
 40
28.0
 10
38.66454193707267
 20
2.253406142487194
 10
38.66454193707267
 20
2.253406142487194
 10
38.66283651807447
 20
2.253453515237574
 10
38.66283651807447
 20
2.253453515237574
 72
     4
 94
        3
 73
     0
 74
     0
 95
        8
 96
        4
 40
28.0
 40
28.0
 40
28.0
 40
28.0
 40
29.0
 40
29.0
 40
29.0
 40
29.0
 10
38.66283651807447
 20
2.253453515237574
 10
38.66302600907437
 20
2.255514229860033
 10
38.66397346407319
 20
2.257219648858459
 10
38.66397346407319
 20
2.259304049856208
 72
     4
 94
        3
 73
     0
 74
     0
 95
        8
 96
        4
 40
29.0
 40
29.0
 40
29.0
 40
29.0
 40
30.0
 40
30.0
 40
30.0
 40
30.0
 10
38.66397346407319
 20
2.259304049856208
 10
38.66397346407319
 20
2.259304049856208
 10
38.66397346407319
 20
2.266694198848715
 10
38.66397346407319
 20
2.266694198848715
 72
     4
 94
        3
 73
     0
 74
     0
 95
        8
 96
        4
 40
30.0
 40
30.0
 40
30.0
 40
30.0
 40
31.0
 40
31.0
 40
31.0
 40
31.0
 10
38.66397346407319
 20
2.266694198848715
 10
38.66397346407319
 20
2.357484074131644
 10
38.58988248314864
 20
2.431622427806097
 10
38.49911629424133
 20
2.431622427806097
 72
     4
 94
        3
 73
     0
 74
     0
 95
        8
 96
        4
 40
31.0
 40
31.0
 40
31.0
 40
31.0
 40
32.0
 40
32.0
 40
32.0
 40
32.0
 10
38.49911629424133
 20
2.431622427806097
 10
38.49911629424133
 20
2.431622427806097
 10
37.81259040193942
 20
2.431622427806097
 10
37.81259040193942
 20
2.431622427806097
 72
     4
 94
        3
 73
     0
 74
     0
 95
        8
 96
        4
 40
32.0
 40
32.0
 40
32.0
 40
32.0
 40
33.0
 40
33.0
 40
33.0
 40
33.0
 10
37.81259040193942
 20
2.431622427806097
 10
37.72807741602543
 20
2.431622427806097
 10
37.65986065609485
 20
2.365916423622927
 10
37.65095457910405
 20
2.283203602207166
 72
     4
 94
        3
 73
     0
 74
     0
 95
        8
 96
        4
 40
33.0
 40
33.0
 40
33.0
 40
33.0
 40
34.0
 40
34.0
 40
34.0
 40
34.0
 10
37.65095457910405
 20
2.283203602207166
 10
37.65095457910405
 20
2.283203602207166
 10
37.64792272310711
 20
2.283298347707007
 10
37.64792272310711
 20
2.283298347707007
 72
     4
 94
        3
 73
     0
 74
     0
 95
       11
 96
        7
 40
34.0
 40
34.0
 40
34.0
 40
34.0
 40
35.0
 40
35.0
 40
35.0
 40
36.0
 40
36.0
 40
36.0
 40
36.0
 10
37.64792272310711
 20
2.283298347707007
 10
37.64792272310711
 20
2.278466327211937
 10
37.64830170510658
 20
2.274392270716199
 10
37.64830170510658
 20
2.269583936595978
 10
37.64830170510658
 20
2.26856542247193
 10
37.6477332321071
 20
2.267712712972759
 10
37.6477332321071
 20
2.266694198848715
 72
     4
 94
        3
 73
     0
 74
     0
 95
        8
 96
        4
 40
36.0
 40
36.0
 40
36.0
 40
36.0
 40
37.0
 40
37.0
 40
37.0
 40
37.0
 10
37.6477332321071
 20
2.266694198848715
 10
37.6477332321071
 20
2.266694198848715
 10
37.6477332321071
 20
2.259304049856208
 10
37.6477332321071
 20
2.259304049856208
 72
     4
 94
        3
 73
     0
 74
     0
 95
        8
 96
        4
 40
37.0
 40
37.0
 40
37.0
 40
37.0
 40
38.0
 40
38.0
 40
38.0
 40
38.0
 10
37.6477332321071
 20
2.259304049856208
 10
37.6477332321071
 20
2.257598630858023
 10
37.64868068710592
 20
2.256177448359562
 10
37.64868068710592
 20
2.254495715736226
 72
     4
 94
        3
 73
     0
 74
     0
 95
        8
 96
        4
 40
38.0
 40
38.0
 40
38.0
 40
38.0
 40
39.0
 40
39.0
 40
39.0
 40
39.0
 10
37.64868068710592
 20
2.254495715736226
 10
37.65247050710224
 20
1.3376435131688
 10
37.83381339391798
 20
0.8284575103116794
 10
38.19422527555145
 20
0.5528665374670929
 72
     4
 94
        3
 73
     0
 74
     0
 95
       11
 96
        7
 40
39.0
 40
39.0
 40
39.0
 40
39.0
 40
40.0
 40
40.0
 40
40.0
 40
41.0
 40
41.0
 40
41.0
 40
41.0
 10
38.19422527555145
 20
0.5528665374670929
 10
38.67193208606517
 20
0.1884516584629132
 10
39.74312470797537
 20
0.00644555314787
 10
41.40761365028249
 20
0.00644555314787
 10
42.94552260471852
 20
0.00644555314787
 10
43.96725807567913
 20
0.1123947084150991
 10
44.4726305721652
 20
0.3246720009491604
 97
       32
330
8823
330
8804
330
8805
330
8806
330
8807
330
8808
330
8809
330
880A
330
880B
330
880C
330
880D
330
880E
330
880F
330
8810
330
8811
330
8812
330
8813
330
8814
330
8815
330
8816
330
8817
330
8818
330
8819
330
881A
330
881B
330
881C
330
881D
330
881E
330
881F
330
8820
330
8821
330
8822
 75
     1
 76
     1
 98
        1
 10
-349.6033406415021
 20
-2.919596279967777
1001
GradientColor1ACI
1070
     5
1001
GradientColor2ACI
1070
     2
1001
ACAD
1010
0.0
1020
0.0
1030
0.0
  0
SPLINE
  5
8804
102
{ACAD_REACTORS
330
8803
102
}
330
86FF
100
AcDbEntity
  8
Capa 1
 62
     9
100
AcDbSpline
210
0.0
220
0.0
230
1.0
 70
     8
 71
     3
 72
    11
 73
     7
 74
     0
 42
0.000000001
 43
0.0000000001
 40
0.0
 40
0.0
 40
0.0
 40
0.0
 40
1.0
 40
1.0
 40
1.0
 40
2.0
 40
2.0
 40
2.0
 40
2.0
 10
44.63047657500437
 20
3.637306286829656
 30
0.0
 10
44.21909161442301
 20
3.823575939640165
 30
0.0
 10
43.22104251843808
 20
3.916710766045355
 30
0.0
 10
41.63576081405091
 20
3.916710766045355
 30
0.0
 10
40.51530053219057
 20
3.916710766045355
 30
0.0
 10
39.77609614194222
 20
3.999376214711617
 30
0.0
 10
39.41833713430623
 20
4.164304443668755
 30
0.0
  0
SPLINE
  5
8805
102
{ACAD_REACTORS
330
8803
102
}
330
86FF
100
AcDbEntity
  8
Capa 1
 62
     9
100
AcDbSpline
210
0.0
220
0.0
230
1.0
 70
     8
 71
     3
 72
    11
 73
     7
 74
     0
 42
0.000000001
 43
0.0000000001
 40
2.0
 40
2.0
 40
2.0
 40
2.0
 40
3.0
 40
3.0
 40
3.0
 40
4.0
 40
4.0
 40
4.0
 40
4.0
 10
39.41833713430623
 20
4.164304443668755
 30
0.0
 10
39.06038863567034
 20
4.331174955373946
 30
0.0
 10
38.88150913185206
 20
4.645919506053872
 30
0.0
 10
38.88150913185206
 20
5.109272373332381
 30
0.0
 10
38.88150913185206
 20
5.6599569051467
 30
0.0
 10
39.21254990851554
 20
5.974677769451738
 30
0.0
 10
39.87501044384152
 20
6.05386132099644
 30
0.0
  0
SPLINE
  5
8806
102
{ACAD_REACTORS
330
8803
102
}
330
86FF
100
AcDbEntity
  8
Capa 1
 62
     9
100
AcDbSpline
210
0.0
220
0.0
230
1.0
 70
     8
 71
     3
 72
    11
 73
     7
 74
     0
 42
0.000000001
 43
0.0000000001
 40
4.0
 40
4.0
 40
4.0
 40
4.0
 40
5.0
 40
5.0
 40
5.0
 40
6.0
 40
6.0
 40
6.0
 40
6.0
 10
39.87501044384152
 20
6.05386132099644
 30
0.0
 10
40.09538847661742
 20
6.081408575093391
 30
0.0
 10
40.68186312102108
 20
6.095383536329095
 30
0.0
 10
41.63576081405091
 20
6.095383536329095
 30
0.0
 10
42.74996789291748
 20
6.095383536329095
 30
0.0
 10
43.45620084919909
 20
6.018923917907024
 30
0.0
 10
43.7546491738953
 20
5.865625699062875
 30
0.0
  0
SPLINE
  5
8807
102
{ACAD_REACTORS
330
8803
102
}
330
86FF
100
AcDbEntity
  8
Capa 1
 62
     9
100
AcDbSpline
210
0.0
220
0.0
230
1.0
 70
     8
 71
     3
 72
     8
 73
     4
 74
     0
 42
0.000000001
 43
0.0000000001
 40
6.0
 40
6.0
 40
6.0
 40
6.0
 40
7.0
 40
7.0
 40
7.0
 40
7.0
 10
43.7546491738953
 20
5.865625699062875
 30
0.0
 10
44.05347648059177
 20
5.712730148593387
 30
0.0
 10
44.19862658644394
 20
5.498131591311513
 30
0.0
 10
44.19862658644394
 20
4.915233589529848
 30
0.0
  0
SPLINE
  5
8808
102
{ACAD_REACTORS
330
8803
102
}
330
86FF
100
AcDbEntity
  8
Capa 1
 62
     9
100
AcDbSpline
210
0.0
220
0.0
230
1.0
 70
    24
 71
     3
 72
     8
 73
     4
 74
     0
 42
0.000000001
 43
0.0000000001
 40
7.0
 40
7.0
 40
7.0
 40
7.0
 40
8.0
 40
8.0
 40
8.0
 40
8.0
 10
44.19862658644394
 20
4.915233589529848
 30
0.0
 10
44.19862658644394
 20
4.915233589529848
 30
0.0
 10
44.20146895144086
 20
4.915257275904892
 30
0.0
 10
44.20146895144086
 20
4.915257275904892
 30
0.0
  0
SPLINE
  5
8809
102
{ACAD_REACTORS
330
8803
102
}
330
86FF
100
AcDbEntity
  8
Capa 1
 62
     9
100
AcDbSpline
210
0.0
220
0.0
230
1.0
 70
     8
 71
     3
 72
     8
 73
     4
 74
     0
 42
0.000000001
 43
0.0000000001
 40
8.0
 40
8.0
 40
8.0
 40
8.0
 40
9.0
 40
9.0
 40
9.0
 40
9.0
 10
44.20146895144086
 20
4.915257275904892
 30
0.0
 10
44.20829062743366
 20
4.83072060361598
 30
0.0
 10
44.27783382436297
 20
4.763190748559524
 30
0.0
 10
44.3636732472757
 20
4.763190748559524
 30
0.0
  0
SPLINE
  5
880A
102
{ACAD_REACTORS
330
8803
102
}
330
86FF
100
AcDbEntity
  8
Capa 1
 62
     9
100
AcDbSpline
210
0.0
220
0.0
230
1.0
 70
    24
 71
     3
 72
     8
 73
     4
 74
     0
 42
0.000000001
 43
0.0000000001
 40
9.0
 40
9.0
 40
9.0
 40
9.0
 40
10.0
 40
10.0
 40
10.0
 40
10.0
 10
44.3636732472757
 20
4.763190748559524
 30
0.0
 10
44.3636732472757
 20
4.763190748559524
 30
0.0
 10
45.03238698559591
 20
4.763190748559524
 30
0.0
 10
45.03238698559591
 20
4.763190748559524
 30
0.0
  0
SPLINE
  5
880B
102
{ACAD_REACTORS
330
8803
102
}
330
86FF
100
AcDbEntity
  8
Capa 1
 62
     9
100
AcDbSpline
210
0.0
220
0.0
230
1.0
 70
     8
 71
     3
 72
     8
 73
     4
 74
     0
 42
0.000000001
 43
0.0000000001
 40
10.0
 40
10.0
 40
10.0
 40
10.0
 40
11.0
 40
11.0
 40
11.0
 40
11.0
 10
45.03238698559591
 20
4.763190748559524
 30
0.0
 10
45.12239521050395
 20
4.763190748559524
 30
0.0
 10
45.19534924542978
 20
4.836050037985345
 30
0.0
 10
45.19686517342842
 20
4.925702967269295
 30
0.0
  0
SPLINE
  5
880C
102
{ACAD_REACTORS
330
8803
102
}
330
86FF
100
AcDbEntity
  8
Capa 1
 62
     9
100
AcDbSpline
210
0.0
220
0.0
230
1.0
 70
    24
 71
     3
 72
     8
 73
     4
 74
     0
 42
0.000000001
 43
0.0000000001
 40
11.0
 40
11.0
 40
11.0
 40
11.0
 40
12.0
 40
12.0
 40
12.0
 40
12.0
 10
45.19686517342842
 20
4.925702967269295
 30
0.0
 10
45.19686517342842
 20
4.925702967269295
 30
0.0
 10
45.19743364642778
 20
4.925702967269295
 30
0.0
 10
45.19743364642778
 20
4.925702967269295
 30
0.0
  0
SPLINE
  5
880D
102
{ACAD_REACTORS
330
8803
102
}
330
86FF
100
AcDbEntity
  8
Capa 1
 62
     9
100
AcDbSpline
210
0.0
220
0.0
230
1.0
 70
     8
 71
     3
 72
     8
 73
     4
 74
     0
 42
0.000000001
 43
0.0000000001
 40
12.0
 40
12.0
 40
12.0
 40
12.0
 40
13.0
 40
13.0
 40
13.0
 40
13.0
 10
45.19743364642778
 20
4.925702967269295
 30
0.0
 10
45.19743364642778
 20
4.927976859266771
 30
0.0
 10
45.19724415542788
 20
4.929824396514938
 30
0.0
 10
45.19724415542788
 20
4.932098288512812
 30
0.0
  0
SPLINE
  5
880E
102
{ACAD_REACTORS
330
8803
102
}
330
86FF
100
AcDbEntity
  8
Capa 1
 62
     9
100
AcDbSpline
210
0.0
220
0.0
230
1.0
 70
    24
 71
     3
 72
     8
 73
     4
 74
     0
 42
0.000000001
 43
0.0000000001
 40
13.0
 40
13.0
 40
13.0
 40
13.0
 40
14.0
 40
14.0
 40
14.0
 40
14.0
 10
45.19724415542788
 20
4.932098288512812
 30
0.0
 10
45.19724415542788
 20
4.932098288512812
 30
0.0
 10
45.19724415542788
 20
5.030965217662342
 30
0.0
 10
45.19724415542788
 20
5.030965217662342
 30
0.0
  0
SPLINE
  5
880F
102
{ACAD_REACTORS
330
8803
102
}
330
86FF
100
AcDbEntity
  8
Capa 1
 62
     9
100
AcDbSpline
210
0.0
220
0.0
230
1.0
 70
     8
 71
     3
 72
     8
 73
     4
 74
     0
 42
0.000000001
 43
0.0000000001
 40
14.0
 40
14.0
 40
14.0
 40
14.0
 40
15.0
 40
15.0
 40
15.0
 40
15.0
 10
45.19724415542788
 20
5.030965217662342
 30
0.0
 10
45.19724415542788
 20
5.03695787053104
 30
0.0
 10
45.19459128143086
 20
5.042074127525638
 30
0.0
 10
45.19383331743148
 20
5.047900975769899
 30
0.0
  0
SPLINE
  5
8810
102
{ACAD_REACTORS
330
8803
102
}
330
86FF
100
AcDbEntity
  8
Capa 1
 62
     9
100
AcDbSpline
210
0.0
220
0.0
230
1.0
 70
     8
 71
     3
 72
     8
 73
     4
 74
     0
 42
0.000000001
 43
0.0000000001
 40
15.0
 40
15.0
 40
15.0
 40
15.0
 40
16.0
 40
16.0
 40
16.0
 40
16.0
 10
45.19383331743148
 20
5.047900975769899
 30
0.0
 10
45.17564218145031
 20
5.810602249993771
 30
0.0
 10
44.9899410016389
 20
6.19531635235257
 30
0.0
 10
44.63047657500437
 20
6.471807407446072
 30
0.0
  0
SPLINE
  5
8811
102
{ACAD_REACTORS
330
8803
102
}
330
86FF
100
AcDbEntity
  8
Capa 1
 62
     9
100
AcDbSpline
210
0.0
220
0.0
230
1.0
 70
     8
 71
     3
 72
    11
 73
     7
 74
     0
 42
0.000000001
 43
0.0000000001
 40
16.0
 40
16.0
 40
16.0
 40
16.0
 40
17.0
 40
17.0
 40
17.0
 40
18.0
 40
18.0
 40
18.0
 40
18.0
 10
44.63047657500437
 20
6.471807407446072
 30
0.0
 10
44.15276976449053
 20
6.837761900824006
 30
0.0
 10
43.1547206685056
 20
7.02054965651319
 30
0.0
 10
41.63576081405091
 20
7.02054965651319
 30
0.0
 10
40.11054775660199
 20
7.02054965651319
 30
0.0
 10
39.10283461962689
 20
6.904131123506431
 30
0.0
 10
38.61186343912647
 20
6.670891389118694
 30
0.0
  0
SPLINE
  5
8812
102
{ACAD_REACTORS
330
8803
102
}
330
86FF
100
AcDbEntity
  8
Capa 1
 62
     9
100
AcDbSpline
210
0.0
220
0.0
230
1.0
 70
     8
 71
     3
 72
    11
 73
     7
 74
     0
 42
0.000000001
 43
0.0000000001
 40
18.0
 40
18.0
 40
18.0
 40
18.0
 40
19.0
 40
19.0
 40
19.0
 40
20.0
 40
20.0
 40
20.0
 40
20.0
 10
38.61186343912647
 20
6.670891389118694
 30
0.0
 10
38.11463905563204
 20
6.433009125235692
 30
0.0
 10
37.86640584588446
 20
5.91259578063999
 30
0.0
 10
37.86640584588446
 20
5.109272373332381
 30
0.0
 10
37.86640584588446
 20
4.367651972836754
 30
0.0
 10
38.07200358067547
 20
3.853444458484887
 30
0.0
 10
38.48338854125728
 20
3.567052498651258
 30
0.0
  0
SPLINE
  5
8813
102
{ACAD_REACTORS
330
8803
102
}
330
86FF
100
AcDbEntity
  8
Capa 1
 62
     9
100
AcDbSpline
210
0.0
220
0.0
230
1.0
 70
     8
 71
     3
 72
    11
 73
     7
 74
     0
 42
0.000000001
 43
0.0000000001
 40
20.0
 40
20.0
 40
20.0
 40
20.0
 40
21.0
 40
21.0
 40
21.0
 40
22.0
 40
22.0
 40
22.0
 40
22.0
 10
38.48338854125728
 20
3.567052498651258
 30
0.0
 10
39.02097450771026
 20
3.189846977159817
 30
0.0
 10
40.07170210164173
 20
3.001232373226685
 30
0.0
 10
41.63576081405091
 20
3.001232373226685
 30
0.0
 10
42.9163409907481
 20
3.001232373226685
 30
0.0
 10
43.6960964549549
 20
2.944574564284302
 30
0.0
 10
43.97464822467174
 20
2.831258946399657
 30
0.0
  0
SPLINE
  5
8814
102
{ACAD_REACTORS
330
8803
102
}
330
86FF
100
AcDbEntity
  8
Capa 1
 62
     9
100
AcDbSpline
210
0.0
220
0.0
230
1.0
 70
     8
 71
     3
 72
    11
 73
     7
 74
     0
 42
0.000000001
 43
0.0000000001
 40
22.0
 40
22.0
 40
22.0
 40
22.0
 40
23.0
 40
23.0
 40
23.0
 40
24.0
 40
24.0
 40
24.0
 40
24.0
 10
43.97464822467174
 20
2.831258946399657
 30
0.0
 10
44.2467573003949
 20
2.719482942888369
 30
0.0
 10
44.3826223472567
 20
2.431148700306451
 30
0.0
 10
44.3826223472567
 20
1.966232532279545
 30
0.0
 10
44.3826223472567
 20
1.50830384487017
 30
0.0
 10
44.20052149644158
 20
1.219969602288494
 30
0.0
 10
43.83613030381235
 20
1.101987768533572
 30
0.0
  0
SPLINE
  5
8815
102
{ACAD_REACTORS
330
8803
102
}
330
86FF
100
AcDbEntity
  8
Capa 1
 62
     9
100
AcDbSpline
210
0.0
220
0.0
230
1.0
 70
     8
 71
     3
 72
    11
 73
     7
 74
     0
 42
0.000000001
 43
0.0000000001
 40
24.0
 40
24.0
 40
24.0
 40
24.0
 40
25.0
 40
25.0
 40
25.0
 40
26.0
 40
26.0
 40
26.0
 40
26.0
 10
43.83613030381235
 20
1.101987768533572
 30
0.0
 10
43.46396998019117
 20
0.9820636520304014
 30
0.0
 10
42.65749628501186
 20
0.9219239459666966
 30
0.0
 10
41.41727769127277
 20
0.9219239459666966
 30
0.0
 10
40.15128832156034
 20
0.9219239459666966
 30
0.0
 10
39.37513318634996
 20
1.004589394632397
 30
0.0
 10
39.09032821363968
 20
1.169896605589585
 30
0.0
  0
SPLINE
  5
8816
102
{ACAD_REACTORS
330
8803
102
}
330
86FF
100
AcDbEntity
  8
Capa 1
 62
     9
100
AcDbSpline
210
0.0
220
0.0
230
1.0
 70
     8
 71
     3
 72
     8
 73
     4
 74
     0
 42
0.000000001
 43
0.0000000001
 40
26.0
 40
26.0
 40
26.0
 40
26.0
 40
27.0
 40
27.0
 40
27.0
 40
27.0
 10
39.09032821363968
 20
1.169896605589585
 30
0.0
 10
38.80552324092952
 20
1.330182305051586
 30
0.0
 10
38.66852124806888
 20
1.692252232933058
 30
0.0
 10
38.66454193707267
 20
2.253406142487194
 30
0.0
  0
SPLINE
  5
8817
102
{ACAD_REACTORS
330
8803
102
}
330
86FF
100
AcDbEntity
  8
Capa 1
 62
     9
100
AcDbSpline
210
0.0
220
0.0
230
1.0
 70
    24
 71
     3
 72
     8
 73
     4
 74
     0
 42
0.000000001
 43
0.0000000001
 40
27.0
 40
27.0
 40
27.0
 40
27.0
 40
28.0
 40
28.0
 40
28.0
 40
28.0
 10
38.66454193707267
 20
2.253406142487194
 30
0.0
 10
38.66454193707267
 20
2.253406142487194
 30
0.0
 10
38.66283651807447
 20
2.253453515237574
 30
0.0
 10
38.66283651807447
 20
2.253453515237574
 30
0.0
  0
SPLINE
  5
8818
102
{ACAD_REACTORS
330
8803
102
}
330
86FF
100
AcDbEntity
  8
Capa 1
 62
     9
100
AcDbSpline
210
0.0
220
0.0
230
1.0
 70
     8
 71
     3
 72
     8
 73
     4
 74
     0
 42
0.000000001
 43
0.0000000001
 40
28.0
 40
28.0
 40
28.0
 40
28.0
 40
29.0
 40
29.0
 40
29.0
 40
29.0
 10
38.66283651807447
 20
2.253453515237574
 30
0.0
 10
38.66302600907437
 20
2.255514229860033
 30
0.0
 10
38.66397346407319
 20
2.257219648858459
 30
0.0
 10
38.66397346407319
 20
2.259304049856208
 30
0.0
  0
SPLINE
  5
8819
102
{ACAD_REACTORS
330
8803
102
}
330
86FF
100
AcDbEntity
  8
Capa 1
 62
     9
100
AcDbSpline
210
0.0
220
0.0
230
1.0
 70
    24
 71
     3
 72
     8
 73
     4
 74
     0
 42
0.000000001
 43
0.0000000001
 40
29.0
 40
29.0
 40
29.0
 40
29.0
 40
30.0
 40
30.0
 40
30.0
 40
30.0
 10
38.66397346407319
 20
2.259304049856208
 30
0.0
 10
38.66397346407319
 20
2.259304049856208
 30
0.0
 10
38.66397346407319
 20
2.266694198848715
 30
0.0
 10
38.66397346407319
 20
2.266694198848715
 30
0.0
  0
SPLINE
  5
881A
102
{ACAD_REACTORS
330
8803
102
}
330
86FF
100
AcDbEntity
  8
Capa 1
 62
     9
100
AcDbSpline
210
0.0
220
0.0
230
1.0
 70
     8
 71
     3
 72
     8
 73
     4
 74
     0
 42
0.000000001
 43
0.0000000001
 40
30.0
 40
30.0
 40
30.0
 40
30.0
 40
31.0
 40
31.0
 40
31.0
 40
31.0
 10
38.66397346407319
 20
2.266694198848715
 30
0.0
 10
38.66397346407319
 20
2.357484074131644
 30
0.0
 10
38.58988248314864
 20
2.431622427806097
 30
0.0
 10
38.49911629424133
 20
2.431622427806097
 30
0.0
  0
SPLINE
  5
881B
102
{ACAD_REACTORS
330
8803
102
}
330
86FF
100
AcDbEntity
  8
Capa 1
 62
     9
100
AcDbSpline
210
0.0
220
0.0
230
1.0
 70
    24
 71
     3
 72
     8
 73
     4
 74
     0
 42
0.000000001
 43
0.0000000001
 40
31.0
 40
31.0
 40
31.0
 40
31.0
 40
32.0
 40
32.0
 40
32.0
 40
32.0
 10
38.49911629424133
 20
2.431622427806097
 30
0.0
 10
38.49911629424133
 20
2.431622427806097
 30
0.0
 10
37.81259040193942
 20
2.431622427806097
 30
0.0
 10
37.81259040193942
 20
2.431622427806097
 30
0.0
  0
SPLINE
  5
881C
102
{ACAD_REACTORS
330
8803
102
}
330
86FF
100
AcDbEntity
  8
Capa 1
 62
     9
100
AcDbSpline
210
0.0
220
0.0
230
1.0
 70
     8
 71
     3
 72
     8
 73
     4
 74
     0
 42
0.000000001
 43
0.0000000001
 40
32.0
 40
32.0
 40
32.0
 40
32.0
 40
33.0
 40
33.0
 40
33.0
 40
33.0
 10
37.81259040193942
 20
2.431622427806097
 30
0.0
 10
37.72807741602543
 20
2.431622427806097
 30
0.0
 10
37.65986065609485
 20
2.365916423622927
 30
0.0
 10
37.65095457910405
 20
2.283203602207166
 30
0.0
  0
SPLINE
  5
881D
102
{ACAD_REACTORS
330
8803
102
}
330
86FF
100
AcDbEntity
  8
Capa 1
 62
     9
100
AcDbSpline
210
0.0
220
0.0
230
1.0
 70
    24
 71
     3
 72
     8
 73
     4
 74
     0
 42
0.000000001
 43
0.0000000001
 40
33.0
 40
33.0
 40
33.0
 40
33.0
 40
34.0
 40
34.0
 40
34.0
 40
34.0
 10
37.65095457910405
 20
2.283203602207166
 30
0.0
 10
37.65095457910405
 20
2.283203602207166
 30
0.0
 10
37.64792272310711
 20
2.283298347707007
 30
0.0
 10
37.64792272310711
 20
2.283298347707007
 30
0.0
  0
SPLINE
  5
881E
102
{ACAD_REACTORS
330
8803
102
}
330
86FF
100
AcDbEntity
  8
Capa 1
 62
     9
100
AcDbSpline
210
0.0
220
0.0
230
1.0
 70
     8
 71
     3
 72
    11
 73
     7
 74
     0
 42
0.000000001
 43
0.0000000001
 40
34.0
 40
34.0
 40
34.0
 40
34.0
 40
35.0
 40
35.0
 40
35.0
 40
36.0
 40
36.0
 40
36.0
 40
36.0
 10
37.64792272310711
 20
2.283298347707007
 30
0.0
 10
37.64792272310711
 20
2.278466327211937
 30
0.0
 10
37.64830170510658
 20
2.274392270716199
 30
0.0
 10
37.64830170510658
 20
2.269583936595978
 30
0.0
 10
37.64830170510658
 20
2.26856542247193
 30
0.0
 10
37.6477332321071
 20
2.267712712972759
 30
0.0
 10
37.6477332321071
 20
2.266694198848715
 30
0.0
  0
SPLINE
  5
881F
102
{ACAD_REACTORS
330
8803
102
}
330
86FF
100
AcDbEntity
  8
Capa 1
 62
     9
100
AcDbSpline
210
0.0
220
0.0
230
1.0
 70
    24
 71
     3
 72
     8
 73
     4
 74
     0
 42
0.000000001
 43
0.0000000001
 40
36.0
 40
36.0
 40
36.0
 40
36.0
 40
37.0
 40
37.0
 40
37.0
 40
37.0
 10
37.6477332321071
 20
2.266694198848715
 30
0.0
 10
37.6477332321071
 20
2.266694198848715
 30
0.0
 10
37.6477332321071
 20
2.259304049856208
 30
0.0
 10
37.6477332321071
 20
2.259304049856208
 30
0.0
  0
SPLINE
  5
8820
102
{ACAD_REACTORS
330
8803
102
}
330
86FF
100
AcDbEntity
  8
Capa 1
 62
     9
100
AcDbSpline
210
0.0
220
0.0
230
1.0
 70
     8
 71
     3
 72
     8
 73
     4
 74
     0
 42
0.000000001
 43
0.0000000001
 40
37.0
 40
37.0
 40
37.0
 40
37.0
 40
38.0
 40
38.0
 40
38.0
 40
38.0
 10
37.6477332321071
 20
2.259304049856208
 30
0.0
 10
37.6477332321071
 20
2.257598630858023
 30
0.0
 10
37.64868068710592
 20
2.256177448359562
 30
0.0
 10
37.64868068710592
 20
2.254495715736226
 30
0.0
  0
SPLINE
  5
8821
102
{ACAD_REACTORS
330
8803
102
}
330
86FF
100
AcDbEntity
  8
Capa 1
 62
     9
100
AcDbSpline
210
0.0
220
0.0
230
1.0
 70
     8
 71
     3
 72
     8
 73
     4
 74
     0
 42
0.000000001
 43
0.0000000001
 40
38.0
 40
38.0
 40
38.0
 40
38.0
 40
39.0
 40
39.0
 40
39.0
 40
39.0
 10
37.64868068710592
 20
2.254495715736226
 30
0.0
 10
37.65247050710224
 20
1.3376435131688
 30
0.0
 10
37.83381339391798
 20
0.8284575103116794
 30
0.0
 10
38.19422527555145
 20
0.5528665374670929
 30
0.0
  0
SPLINE
  5
8822
102
{ACAD_REACTORS
330
8803
102
}
330
86FF
100
AcDbEntity
  8
Capa 1
 62
     9
100
AcDbSpline
210
0.0
220
0.0
230
1.0
 70
     8
 71
     3
 72
    11
 73
     7
 74
     0
 42
0.000000001
 43
0.0000000001
 40
39.0
 40
39.0
 40
39.0
 40
39.0
 40
40.0
 40
40.0
 40
40.0
 40
41.0
 40
41.0
 40
41.0
 40
41.0
 10
38.19422527555145
 20
0.5528665374670929
 30
0.0
 10
38.67193208606517
 20
0.1884516584629132
 30
0.0
 10
39.74312470797537
 20
0.00644555314787
 30
0.0
 10
41.40761365028249
 20
0.00644555314787
 30
0.0
 10
42.94552260471852
 20
0.00644555314787
 30
0.0
 10
43.96725807567913
 20
0.1123947084150991
 30
0.0
 10
44.4726305721652
 20
0.3246720009491604
 30
0.0
  0
SPLINE
  5
8823
102
{ACAD_REACTORS
330
8803
102
}
330
86FF
100
AcDbEntity
  8
Capa 1
 62
     9
100
AcDbSpline
210
0.0
220
0.0
230
1.0
 70
     8
 71
     3
 72
    11
 73
     7
 74
     0
 42
0.000000001
 43
0.0000000001
 40
41.0
 40
41.0
 40
41.0
 40
41.0
 40
42.0
 40
42.0
 40
42.0
 40
43.0
 40
43.0
 40
43.0
 40
43.0
 10
44.4726305721652
 20
0.3246720009491604
 30
0.0
 10
45.08961326753769
 20
0.5838956886854803
 30
0.0
 10
45.39772563322441
 20
1.131098323378964
 30
0.0
 10
45.39772563322441
 20
1.966232532279545
 30
0.0
 10
45.39772563322441
 20
2.848715804756722
 30
0.0
 10
45.1419127834842
 20
3.406008835189894
 30
0.0
 10
44.63047657500437
 20
3.637306286829656
 30
0.0
  0
ENDBLK
  5
8825
330
86FF
100
AcDbEntity
  8
0
100
AcDbBlockEnd
  0
BLOCK
  5
9D53
330
9D52
100
AcDbEntity
  8
0
100
AcDbBlockBegin
  2
*D19
 70
     1
 10
0.0
 20
0.0
 30
0.0
  3
*D19
  1

  0
LINE
  5
9D55
330
9D52
100
AcDbEntity
  8
COTAS
 62
     0
370
    -2
100
AcDbLine
 10
364.5151516450487
 20
609.5811744236403
 30
0.0
 11
93.1796098441736
 21
609.5811744236403
 31
0.0
  0
LINE
  5
9D56
330
9D52
100
AcDbEntity
  8
COTAS
 62
     0
370
    -2
100
AcDbLine
 10
172.2651516450487
 20
720.0811744236403
 30
0.0
 11
93.1796098441736
 21
720.0811744236403
 31
0.0
  0
LINE
  5
9D57
330
9D52
100
AcDbEntity
  8
COTAS
 62
     0
370
    -2
100
AcDbLine
 10
94.4296098441736
 20
614.5811744236403
 30
0.0
 11
94.4296098441736
 21
715.0811744236403
 31
0.0
  0
SOLID
  5
9D58
330
9D52
100
AcDbEntity
  8
COTAS
 62
     0
100
AcDbTrace
 10
93.59627651084027
 20
614.5811744236403
 30
0.0
 11
95.26294317750693
 21
614.5811744236403
 31
0.0
 12
94.4296098441736
 22
609.5811744236403
 32
0.0
 13
94.4296098441736
 23
609.5811744236403
 33
0.0
  0
SOLID
  5
9D59
330
9D52
100
AcDbEntity
  8
COTAS
 62
     0
100
AcDbTrace
 10
95.26294317750693
 20
715.0811744236403
 30
0.0
 11
93.59627651084027
 21
715.0811744236403
 31
0.0
 12
94.4296098441736
 22
720.0811744236403
 32
0.0
 13
94.4296098441736
 23
720.0811744236403
 33
0.0
  0
MTEXT
  5
9D5A
330
9D52
100
AcDbEntity
  8
COTAS
 62
     0
100
AcDbMText
 10
87.32460984417358
 20
664.8311744236403
 30
0.0
 40
10.0
 41
0.0
 71
     5
 72
     1
  1
110
 11
0.0
 21
1.0
 31
0.0
 73
     1
 44
1.0
  0
POINT
  5
9D5B
330
9D52
100
AcDbEntity
  8
Defpoints
 62
     0
100
AcDbPoint
 10
365.1401516450487
 20
609.5811744236403
 30
0.0
  0
POINT
  5
9D5C
330
9D52
100
AcDbEntity
  8
Defpoints
 62
     0
100
AcDbPoint
 10
172.8901516450487
 20
720.0811744236403
 30
0.0
  0
POINT
  5
9D5D
330
9D52
100
AcDbEntity
  8
Defpoints
 62
     0
100
AcDbPoint
 10
94.4296098441736
 20
720.0811744236403
 30
0.0
  0
ENDBLK
  5
9D54
330
9D52
100
AcDbEntity
  8
0
100
AcDbBlockEnd
  0
BLOCK
  5
9D62
330
9D61
100
AcDbEntity
  8
0
100
AcDbBlockBegin
  2
*D20
 70
     1
 10
0.0
 20
0.0
 30
0.0
  3
*D20
  1

  0
LINE
  5
9D64
330
9D61
100
AcDbEntity
  8
COTAS
 62
     0
370
    -2
100
AcDbLine
 10
364.8901516450487
 20
720.2061744236403
 30
0.0
 11
364.8901516450487
 21
770.3678076335664
 31
0.0
  0
LINE
  5
9D65
330
9D61
100
AcDbEntity
  8
COTAS
 62
     0
370
    -2
100
AcDbLine
 10
430.8901516450487
 20
720.2061744236403
 30
0.0
 11
430.8901516450487
 21
770.3678076335664
 31
0.0
  0
LINE
  5
9D66
330
9D61
100
AcDbEntity
  8
COTAS
 62
     0
370
    -2
100
AcDbLine
 10
369.8901516450487
 20
769.1178076335664
 30
0.0
 11
425.8901516450487
 21
769.1178076335664
 31
0.0
  0
SOLID
  5
9D67
330
9D61
100
AcDbEntity
  8
COTAS
 62
     0
100
AcDbTrace
 10
369.8901516450487
 20
769.9511409668997
 30
0.0
 11
369.8901516450487
 21
768.284474300233
 31
0.0
 12
364.8901516450487
 22
769.1178076335664
 32
0.0
 13
364.8901516450487
 23
769.1178076335664
 33
0.0
  0
SOLID
  5
9D68
330
9D61
100
AcDbEntity
  8
COTAS
 62
     0
100
AcDbTrace
 10
425.8901516450487
 20
768.284474300233
 30
0.0
 11
425.8901516450487
 21
769.9511409668997
 31
0.0
 12
430.8901516450487
 22
769.1178076335664
 32
0.0
 13
430.8901516450487
 23
769.1178076335664
 33
0.0
  0
MTEXT
  5
9D69
330
9D61
100
AcDbEntity
  8
COTAS
 62
     0
100
AcDbMText
 10
397.8901516450487
 20
776.4994482585664
 30
0.0
 40
10.0
 41
0.0
 71
     5
 72
     1
  1
Ø66
 73
     1
 44
1.0
  0
POINT
  5
9D6A
330
9D61
100
AcDbEntity
  8
Defpoints
 62
     0
100
AcDbPoint
 10
364.8901516450487
 20
719.5811744236403
 30
0.0
  0
POINT
  5
9D6B
330
9D61
100
AcDbEntity
  8
Defpoints
 62
     0
100
AcDbPoint
 10
430.8901516450487
 20
719.5811744236403
 30
0.0
  0
POINT
  5
9D6C
330
9D61
100
AcDbEntity
  8
Defpoints
 62
     0
100
AcDbPoint
 10
430.8901516450487
 20
769.1178076335664
 30
0.0
  0
ENDBLK
  5
9D63
330
9D61
100
AcDbEntity
  8
0
100
AcDbBlockEnd
  0
BLOCK
  5
A1EE
330
A1ED
100
AcDbEntity
  8
0
100
AcDbBlockBegin
  2
_NONE
 70
     0
 10
0.0
 20
0.0
 30
0.0
  3
_NONE
  1

  0
ENDBLK
  5
A1EF
330
A1ED
100
AcDbEntity
  8
0
100
AcDbBlockEnd
  0
BLOCK
  5
A2B4
330
A2B3
100
AcDbEntity
  8
0
100
AcDbBlockBegin
  2
*D28
 70
     1
 10
0.0
 20
0.0
 30
0.0
  3
*D28
  1

  0
LINE
  5
A2B6
330
A2B3
100
AcDbEntity
  8
COTAS
 62
     0
370
    -2
100
AcDbLine
 10
123.6401516450486
 20
142.4552464236402
 30
0.0
 11
123.6401516450486
 21
105.5932936474359
 31
0.0
  0
LINE
  5
A2B7
330
A2B3
100
AcDbEntity
  8
COTAS
 62
     0
370
    -2
100
AcDbLine
 10
672.1401516450487
 20
142.4552464236402
 30
0.0
 11
672.1401516450487
 21
105.5932936474359
 31
0.0
  0
LINE
  5
A2B8
330
A2B3
100
AcDbEntity
  8
COTAS
 62
     0
370
    -2
100
AcDbLine
 10
128.6401516450486
 20
106.8432936474359
 30
0.0
 11
667.1401516450487
 21
106.8432936474359
 31
0.0
  0
SOLID
  5
A2B9
330
A2B3
100
AcDbEntity
  8
COTAS
 62
     0
100
AcDbTrace
 10
128.6401516450486
 20
107.6766269807692
 30
0.0
 11
128.6401516450486
 21
106.0099603141025
 31
0.0
 12
123.6401516450486
 22
106.8432936474359
 32
0.0
 13
123.6401516450486
 23
106.8432936474359
 33
0.0
  0
SOLID
  5
A2BA
330
A2B3
100
AcDbEntity
  8
COTAS
 62
     0
100
AcDbTrace
 10
667.1401516450487
 20
106.0099603141025
 30
0.0
 11
667.1401516450487
 21
107.6766269807692
 31
0.0
 12
672.1401516450487
 22
106.8432936474359
 32
0.0
 13
672.1401516450487
 23
106.8432936474359
 33
0.0
  0
MTEXT
  5
A2BB
330
A2B3
100
AcDbEntity
  8
COTAS
 62
     0
100
AcDbMText
 10
397.8901516450487
 20
114.2249342724359
 30
0.0
 40
10.0
 41
0.0
 71
     5
 72
     1
  1
Ø550
 73
     1
 44
1.0
  0
POINT
  5
A2BC
330
A2B3
100
AcDbEntity
  8
Defpoints
 62
     0
100
AcDbPoint
 10
123.6401516450486
 20
143.0802464236402
 30
0.0
  0
POINT
  5
A2BD
330
A2B3
100
AcDbEntity
  8
Defpoints
 62
     0
100
AcDbPoint
 10
672.1401516450487
 20
143.0802464236402
 30
0.0
  0
POINT
  5
A2BE
330
A2B3
100
AcDbEntity
  8
Defpoints
 62
     0
100
AcDbPoint
 10
672.1401516450487
 20
106.8432936474359
 30
0.0
  0
ENDBLK
  5
A2B5
330
A2B3
100
AcDbEntity
  8
0
100
AcDbBlockEnd
  0
BLOCK
  5
A2C0
330
A2BF
100
AcDbEntity
  8
0
100
AcDbBlockBegin
  2
*D29
 70
     1
 10
0.0
 20
0.0
 30
0.0
  3
*D29
  1

  0
LINE
  5
A2C2
330
A2BF
100
AcDbEntity
  8
COTAS
 62
     0
370
    -2
100
AcDbLine
 10
123.0151516450486
 20
143.0802464236402
 30
0.0
 11
93.17960984417357
 21
143.0802464236402
 31
0.0
  0
LINE
  5
A2C3
330
A2BF
100
AcDbEntity
  8
COTAS
 62
     0
370
    -2
100
AcDbLine
 10
397.2651516450486
 20
242.2975114236402
 30
0.0
 11
93.17960984417357
 21
242.2975114236403
 31
0.0
  0
LINE
  5
A2C4
330
A2BF
100
AcDbEntity
  8
COTAS
 62
     0
370
    -2
100
AcDbLine
 10
94.42960984417357
 20
148.0802464236402
 30
0.0
 11
94.42960984417357
 21
237.2975114236403
 31
0.0
  0
SOLID
  5
A2C5
330
A2BF
100
AcDbEntity
  8
COTAS
 62
     0
100
AcDbTrace
 10
93.59627651084024
 20
148.0802464236402
 30
0.0
 11
95.2629431775069
 21
148.0802464236402
 31
0.0
 12
94.42960984417357
 22
143.0802464236402
 32
0.0
 13
94.42960984417357
 23
143.0802464236402
 33
0.0
  0
SOLID
  5
A2C6
330
A2BF
100
AcDbEntity
  8
COTAS
 62
     0
100
AcDbTrace
 10
95.2629431775069
 20
237.2975114236403
 30
0.0
 11
93.59627651084024
 21
237.2975114236403
 31
0.0
 12
94.42960984417357
 22
242.2975114236403
 32
0.0
 13
94.42960984417357
 23
242.2975114236403
 33
0.0
  0
MTEXT
  5
A2C7
330
A2BF
100
AcDbEntity
  8
COTAS
 62
     0
100
AcDbMText
 10
87.32460984417358
 20
192.6888789236402
 30
0.0
 40
10.0
 41
0.0
 71
     5
 72
     1
  1
100
 11
0.0
 21
1.0
 31
0.0
 73
     1
 44
1.0
  0
POINT
  5
A2C8
330
A2BF
100
AcDbEntity
  8
Defpoints
 62
     0
100
AcDbPoint
 10
123.6401516450486
 20
143.0802464236402
 30
0.0
  0
POINT
  5
A2C9
330
A2BF
100
AcDbEntity
  8
Defpoints
 62
     0
100
AcDbPoint
 10
397.8901516450486
 20
242.2975114236402
 30
0.0
  0
POINT
  5
A2CA
330
A2BF
100
AcDbEntity
  8
Defpoints
 62
     0
100
AcDbPoint
 10
94.42960984417357
 20
242.2975114236403
 30
0.0
  0
ENDBLK
  5
A2C1
330
A2BF
100
AcDbEntity
  8
0
100
AcDbBlockEnd
  0
BLOCK
  5
A2CC
330
A2CB
100
AcDbEntity
  8
0
100
AcDbBlockBegin
  2
*D30
 70
     1
 10
0.0
 20
0.0
 30
0.0
  3
*D30
  1

  0
LINE
  5
A2CE
330
A2CB
100
AcDbEntity
  8
COTAS
 62
     0
370
    -2
100
AcDbLine
 10
397.2651516450486
 20
242.2975114236402
 30
0.0
 11
93.17960984417357
 21
242.2975114236402
 31
0.0
  0
LINE
  5
A2CF
330
A2CB
100
AcDbEntity
  8
COTAS
 62
     0
370
    -2
100
AcDbLine
 10
142.7594764011639
 20
609.5811744236403
 30
0.0
 11
93.1796098441736
 21
609.5811744236403
 31
0.0
  0
LINE
  5
A2D0
330
A2CB
100
AcDbEntity
  8
COTAS
 62
     0
370
    -2
100
AcDbLine
 10
94.42960984417357
 20
247.2975114236402
 30
0.0
 11
94.4296098441736
 21
604.5811744236403
 31
0.0
  0
SOLID
  5
A2D1
330
A2CB
100
AcDbEntity
  8
COTAS
 62
     0
100
AcDbTrace
 10
93.59627651084024
 20
247.2975114236402
 30
0.0
 11
95.2629431775069
 21
247.2975114236402
 31
0.0
 12
94.42960984417357
 22
242.2975114236402
 32
0.0
 13
94.42960984417357
 23
242.2975114236402
 33
0.0
  0
SOLID
  5
A2D2
330
A2CB
100
AcDbEntity
  8
COTAS
 62
     0
100
AcDbTrace
 10
95.26294317750693
 20
604.5811744236403
 30
0.0
 11
93.59627651084027
 21
604.5811744236403
 31
0.0
 12
94.4296098441736
 22
609.5811744236403
 32
0.0
 13
94.4296098441736
 23
609.5811744236403
 33
0.0
  0
MTEXT
  5
A2D3
330
A2CB
100
AcDbEntity
  8
COTAS
 62
     0
100
AcDbMText
 10
85.87960984417357
 20
425.9393429236403
 30
0.0
 40
10.0
 41
0.0
 71
     5
 72
     1
  1
MAX. L (2-3-5m)
 11
7.738353837536195E-17
 21
1.0
 31
0.0
 73
     1
 44
1.0
  0
POINT
  5
A2D4
330
A2CB
100
AcDbEntity
  8
Defpoints
 62
     0
100
AcDbPoint
 10
397.8901516450486
 20
242.2975114236402
 30
0.0
  0
POINT
  5
A2D5
330
A2CB
100
AcDbEntity
  8
Defpoints
 62
     0
100
AcDbPoint
 10
143.3844764011639
 20
609.5811744236403
 30
0.0
  0
POINT
  5
A2D6
330
A2CB
100
AcDbEntity
  8
Defpoints
 62
     0
100
AcDbPoint
 10
94.4296098441736
 20
609.5811744236403
 30
0.0
  0
ENDBLK
  5
A2CD
330
A2CB
100
AcDbEntity
  8
0
100
AcDbBlockEnd
  0
ENDSEC
  0
SECTION
  2
ENTITIES
  0
LINE
  5
DCC
330
1F
100
AcDbEntity
  8
CAJETIN
100
AcDbLine
 10
-0.0000006591429837
 20
1611.643008398005
 30
0.0
 11
0.0
 21
0.0
 31
0.0
  0
MTEXT
  5
345D
102
{ACAD_XDICTIONARY
360
A2DB
102
}
330
1F
100
AcDbEntity
  8
TEXTO
100
AcDbMText
 10
482.4957572681208
 20
12.07382677039518
 30
0.0
 40
3.5
 41
38.43419131591941
 71
     1
 72
     5
  1
Scale 1/1
 73
     1
 44
1.0
1001
ACAD
1000
ACAD_MTEXT_DEFINED_HEIGHT_BEGIN
1070
    46
1040
3.5595
1000
ACAD_MTEXT_DEFINED_HEIGHT_END
  0
MTEXT
  5
345F
102
{ACAD_XDICTIONARY
360
A2DD
102
}
330
1F
100
AcDbEntity
  8
TEXTO
100
AcDbMText
 10
521.9672233394272
 20
12.35007798249878
 30
0.0
 40
3.5
 41
39.52056910239639
 71
     1
 72
     5
  1
Units: mm.
 73
     1
 44
1.0
1001
ACAD
1000
ACAD_MTEXT_DEFINED_HEIGHT_BEGIN
1070
    46
1040
3.556
1000
ACAD_MTEXT_DEFINED_HEIGHT_END
  0
LINE
  5
3461
330
1F
100
AcDbEntity
  8
CAJETIN
100
AcDbLine
 10
0.0
 20
0.0
 30
0.0
 11
775.1877584072392
 21
-0.0000003950418426
 31
0.0
  0
LINE
  5
3462
330
1F
100
AcDbEntity
  8
CAJETIN
100
AcDbLine
 10
-0.0000003401497178
 20
294.4438372261435
 30
0.0
 11
0.0
 21
0.0
 31
0.0
  0
LINE
  5
3463
330
1F
100
AcDbEntity
  8
CAJETIN
100
AcDbLine
 10
478.1877590663823
 20
14.99999947372671
 30
0.0
 11
775.1877584072392
 21
14.99999947372671
 31
0.0
  0
LINE
  5
3464
330
1F
100
AcDbEntity
  8
CAJETIN
100
AcDbLine
 10
478.1877590663823
 20
29.99999935521796
 30
0.0
 11
775.1877607723889
 21
29.99999935521796
 31
0.0
  0
LINE
  5
3465
330
1F
100
AcDbEntity
  8
CAJETIN
100
AcDbLine
 10
775.1877584072395
 20
1611.643008398006
 30
0.0
 11
775.1877584072392
 21
-0.0000003950417522
 31
0.0
  0
LINE
  5
3466
330
1F
100
AcDbEntity
  8
CAJETIN
100
AcDbLine
 10
-0.0000006591429837
 20
1611.643008398005
 30
0.0
 11
775.1877584072395
 21
1611.643008398006
 31
0.0
  0
LINE
  5
3467
330
1F
100
AcDbEntity
  8
CAJETIN
100
AcDbLine
 10
478.1877590663823
 20
29.99999935521796
 30
0.0
 11
478.1877590663823
 21
-0.0000001279142674
 31
0.0
  0
LINE
  5
3469
330
1F
100
AcDbEntity
  8
CAJETIN
100
AcDbLine
 10
561.2517686433387
 20
14.99999947372671
 30
0.0
 11
561.2517686433387
 21
-0.000000197520796
 31
0.0
  0
MTEXT
  5
3794
102
{ACAD_XDICTIONARY
360
A2DF
102
}
330
1F
100
AcDbEntity
  8
TEXTO
100
AcDbMText
 10
627.7490939198235
 20
26.29083267603616
 30
0.0
 40
8.0
 41
140.3893042734439
 71
     1
 72
     5
  1
{\fArial|b0|i0|c0|p34;\W9.81529;  }DUNE 55 BASE
 73
     1
 44
1.0
1001
ACAD
1000
ACAD_MTEXT_DEFINED_HEIGHT_BEGIN
1070
    46
1040
8.136
1000
ACAD_MTEXT_DEFINED_HEIGHT_END
  0
MTEXT
  5
3798
102
{ACAD_XDICTIONARY
360
3799
102
}
330
1F
100
AcDbEntity
  8
TEXTO
100
AcDbMText
 10
483.4414644449793
 20
27.40414871942438
 30
0.0
 40
3.5
 41
38.43419131591941
 71
     1
 72
     5
  1
{28/03/2023}
 73
     1
 44
1.0
1001
ACAD
1000
ACAD_MTEXT_DEFINED_HEIGHT_BEGIN
1070
    46
1040
3.5595
1000
ACAD_MTEXT_DEFINED_HEIGHT_END
  0
INSERT
  5
8826
330
1F
100
AcDbEntity
  8
TEXTO
100
AcDbBlockReference
  2
A$C13222
 10
685.4103026206647
 20
2.758884865111555
 30
0.0
  0
LINE
  5
9C30
102
{ACAD_REACTORS
330
A2D8
102
}
330
1F
100
AcDbEntity
  8
COTAS
100
AcDbLine
 10
622.8901516450487
 20
735.0811744236403
 30
0.0
 11
622.8901516450487
 21
720.0811744236403
 31
0.0
  0
LINE
  5
9C32
102
{ACAD_REACTORS
330
A2D8
102
}
330
1F
100
AcDbEntity
  8
COTAS
100
AcDbLine
 10
622.8901516450487
 20
735.0811744236403
 30
0.0
 11
172.8901516450487
 21
735.0811744236403
 31
0.0
  0
LINE
  5
9C33
102
{ACAD_REACTORS
330
A2D8
102
}
330
1F
100
AcDbEntity
  8
COTAS
100
AcDbLine
 10
172.8901516450487
 20
735.0811744236403
 30
0.0
 11
172.8901516450487
 21
720.0811744236403
 31
0.0
  0
LINE
  5
9C69
102
{ACAD_REACTORS
330
A2D8
102
}
330
1F
100
AcDbEntity
  8
COTAS
100
AcDbLine
 10
172.8901516450487
 20
720.0811744236403
 30
0.0
 11
622.8901516450487
 21
720.0811744236403
 31
0.0
  0
LINE
  5
9D34
102
{ACAD_REACTORS
102
}
330
1F
100
AcDbEntity
  8
PIEZA
100
AcDbLine
 10
364.8901516450487
 20
719.5811744236403
 30
0.0
 11
364.8901516450487
 21
609.8311744236403
 31
0.0
  0
LINE
  5
9D35
330
1F
100
AcDbEntity
  8
PIEZA
100
AcDbLine
 10
364.8901516450487
 20
609.8311744236403
 30
0.0
 11
365.1401516450487
 21
609.5811744236403
 31
0.0
  0
LINE
  5
9D36
330
1F
100
AcDbEntity
  8
PIEZA
100
AcDbLine
 10
430.6401516450487
 20
609.5811744236403
 30
0.0
 11
430.8901516450487
 21
609.8311744236403
 31
0.0
  0
LINE
  5
9D37
330
1F
100
AcDbEntity
  8
PIEZA
100
AcDbLine
 10
368.3065806450487
 20
719.5899014236402
 30
0.0
 11
368.3064276450487
 21
719.5811554236402
 31
0.0
  0
LINE
  5
9D38
102
{ACAD_REACTORS
102
}
330
1F
100
AcDbEntity
  8
PIEZA
100
AcDbLine
 10
430.8901516450487
 20
609.8311744236403
 30
0.0
 11
430.8901516450487
 21
719.5811744236403
 31
0.0
  0
LINE
  5
9D39
330
1F
100
AcDbEntity
  8
PIEZA
100
AcDbLine
 10
427.4738756450487
 20
719.5811554236402
 30
0.0
 11
427.4737236450487
 21
719.5899014236402
 31
0.0
  0
LINE
  5
9D3A
102
{ACAD_REACTORS
102
}
330
1F
100
AcDbEntity
  8
PIEZA
100
AcDbLine
 10
365.1401516450487
 20
609.5811744236403
 30
0.0
 11
430.6401516450487
 21
609.5811744236403
 31
0.0
  0
LINE
  5
9D3B
330
1F
100
AcDbEntity
  8
PIEZA
100
AcDbLine
 10
364.8901516450487
 20
719.5811744236403
 30
0.0
 11
430.8901516450487
 21
719.5811744236403
 31
0.0
  0
LINE
  5
9D3C
330
1F
100
AcDbEntity
  8
PIEZA
100
AcDbLine
 10
368.8065046450487
 20
720.0811744236403
 30
0.0
 11
426.9737996450487
 21
720.0811744236403
 31
0.0
  0
LINE
  5
9D3D
330
1F
100
AcDbEntity
  8
PIEZA
100
AcDbLine
 10
368.3065806450487
 20
719.5899014236402
 30
0.0
 11
427.4737236450487
 21
719.5899014236402
 31
0.0
  0
ARC
  5
9D3E
330
1F
100
AcDbEntity
  8
PIEZA
100
AcDbCircle
 10
368.8065046450487
 20
719.5811744236403
 30
0.0
 40
0.5
100
AcDbArc
 50
90.0
 51
178.9999999999983
  0
ARC
  5
9D3F
330
1F
100
AcDbEntity
  8
PIEZA
100
AcDbCircle
 10
426.9737996450487
 20
719.5811744236403
 30
0.0
 40
0.5
100
AcDbArc
 50
1.000000000001762
 51
90.0
  0
DIMENSION
  5
9D4F
102
{ACAD_REACTORS
102
}
102
{ACAD_XDICTIONARY
360
9D50
102
}
330
1F
100
AcDbEntity
  8
COTAS
100
AcDbDimension
  2
*D19
 10
94.4296098441736
 20
720.0811744236403
 30
0.0
 11
87.32460984417358
 21
664.8311744236403
 31
0.0
 70
    32
  1
110
 71
     5
 42
110.5
  3
ISO-25
100
AcDbAlignedDimension
 13
365.1401516450487
 23
609.5811744236403
 33
0.0
 14
172.8901516450487
 24
720.0811744236403
 34
0.0
 50
90.0
100
AcDbRotatedDimension
  0
DIMENSION
  5
9D5E
102
{ACAD_REACTORS
102
}
102
{ACAD_XDICTIONARY
360
9D5F
102
}
330
1F
100
AcDbEntity
  8
COTAS
100
AcDbDimension
  2
*D20
 10
430.8901516450487
 20
769.1178076335664
 30
0.0
 11
397.8901516450487
 21
776.4994482585664
 31
0.0
 70
    32
  1
Ø66
 71
     5
 42
66.0
  3
ISO-25
100
AcDbAlignedDimension
 13
364.8901516450487
 23
719.5811744236403
 33
0.0
 14
430.8901516450487
 24
719.5811744236403
 34
0.0
100
AcDbRotatedDimension
  0
LINE
  5
9FAD
330
1F
100
AcDbEntity
  8
PIEZA
 62
     2
100
AcDbLine
 10
405.3901516450487
 20
841.0783094463447
 30
0.0
 11
405.3901516450487
 21
854.5783094463447
 31
0.0
  0
LINE
  5
9FAE
330
1F
100
AcDbEntity
  8
PIEZA
 62
     2
100
AcDbLine
 10
390.3901516450487
 20
854.5783094463447
 30
0.0
 11
390.3901516450487
 21
841.0783094463447
 31
0.0
  0
CIRCLE
  5
9FF5
330
1F
100
AcDbEntity
  8
1
  6
Continuous
 62
   163
100
AcDbCircle
 10
397.8901516450487
 20
854.5783094463447
 30
0.0
 40
33.0
  0
CIRCLE
  5
9FFA
330
1F
100
AcDbEntity
  8
PIEZA
100
AcDbCircle
 10
397.8901516450487
 20
854.5783094463447
 30
0.0
 40
30.58690703921541
  0
ARC
  5
9FFB
330
1F
100
AcDbEntity
  8
PIEZA
 62
     2
100
AcDbCircle
 10
397.8901516450487
 20
841.0783094463447
 30
0.0
 40
7.5
100
AcDbArc
 50
180.0
 51
0.0
  0
CIRCLE
  5
9FFC
330
1F
100
AcDbEntity
  8
PIEZA
 62
     2
100
AcDbCircle
 10
397.8901516450487
 20
880.0783094463447
 30
0.0
 40
2.0
  0
CIRCLE
  5
9FFD
330
1F
100
AcDbEntity
  8
PIEZA
 62
     2
100
AcDbCircle
 10
375.8065036450487
 20
841.8283094463447
 30
0.0
 40
2.0
  0
CIRCLE
  5
9FFE
330
1F
100
AcDbEntity
  8
PIEZA
 62
     2
100
AcDbCircle
 10
419.9737986450487
 20
841.8283094463447
 30
0.0
 40
2.0
  0
ARC
  5
9FFF
330
1F
100
AcDbEntity
  8
PIEZA
 62
     2
100
AcDbCircle
 10
397.8901516450487
 20
854.5783094463447
 30
0.0
 40
7.5
100
AcDbArc
 50
0.0
 51
180.0
  0
LINE
  5
A1D6
330
1F
100
AcDbEntity
  8
PIEZA
  6
CENTER
 62
     8
100
AcDbLine
 10
410.9737986450487
 20
841.8283094463447
 30
0.0
 11
428.9737986450487
 21
841.8283094463447
 31
0.0
  0
LINE
  5
A1D7
330
1F
100
AcDbEntity
  8
PIEZA
  6
CENTER
 62
     8
100
AcDbLine
 10
419.9737986450487
 20
832.8283094463447
 30
0.0
 11
419.9737986450487
 21
850.8283094463447
 31
0.0
  0
LINE
  5
A1D8
330
1F
100
AcDbEntity
  8
PIEZA
  6
CENTER
 62
     8
100
AcDbLine
 10
362.3032446450487
 20
854.5783094463447
 30
0.0
 11
433.4770586450487
 21
854.5783094463447
 31
0.0
  0
LINE
  5
A1D9
330
1F
100
AcDbEntity
  8
PIEZA
  6
CENTER
 62
     8
100
AcDbLine
 10
397.8901516450487
 20
818.9914024463448
 30
0.0
 11
397.8901516450487
 21
890.1652164463447
 31
0.0
  0
LINE
  5
A1DA
330
1F
100
AcDbEntity
  8
PIEZA
  6
CENTER
 62
     8
100
AcDbLine
 10
366.8065036450487
 20
841.8283094463447
 30
0.0
 11
384.8065036450487
 21
841.8283094463447
 31
0.0
  0
LINE
  5
A1DB
330
1F
100
AcDbEntity
  8
PIEZA
  6
CENTER
 62
     8
100
AcDbLine
 10
375.8065036450487
 20
832.8283094463447
 30
0.0
 11
375.8065036450487
 21
850.8283094463447
 31
0.0
  0
LINE
  5
A1DC
330
1F
100
AcDbEntity
  8
PIEZA
  6
CENTER
 62
     8
100
AcDbLine
 10
388.8901516450487
 20
880.0783094463447
 30
0.0
 11
406.8901516450487
 21
880.0783094463447
 31
0.0
  0
LINE
  5
A1DD
330
1F
100
AcDbEntity
  8
PIEZA
  6
CENTER
 62
     8
100
AcDbLine
 10
397.8901516450487
 20
871.0783094463447
 30
0.0
 11
397.8901516450487
 21
889.0783094463447
 31
0.0
  0
MTEXT
  5
A209
102
{ACAD_XDICTIONARY
360
A2E1
102
}
330
1F
100
AcDbEntity
  8
COTAS
100
AcDbMText
 10
434.1981916806953
 20
918.826091018777
 30
0.0
 40
3.0
 41
19.50166117687829
 71
     1
 72
     5
  1
{\fArial|b0|i0|c0|p0;\W1.20174; }{\fArial|b0|i0|c0|p0;CEILING}\P{\fArial|b0|i0|c0|p0;\W2.34350; }{\fArial|b0|i0|c0|p0;FIXING}\P{\fArial|b0|i0|c0|p0;\W2.77649; }{\fArial|b0|i0|c0|p0;POINT}
  7
iso-1
 73
     1
 44
1.0
1001
ACAD
1000
ACAD_MTEXT_DEFINED_HEIGHT_BEGIN
1070
    46
1040
13.221
1000
ACAD_MTEXT_DEFINED_HEIGHT_END
  0
LEADER
  5
A20A
102
{ACAD_REACTORS
102
}
102
{ACAD_XDICTIONARY
360
A20B
102
}
330
1F
100
AcDbEntity
  8
COTAS
100
AcDbLeader
  3
ISO-25
 76
     3
 10
397.8901516450487
 20
880.0783094463447
 30
0.0
 10
426.4969647033499
 20
912.3979117292744
 30
0.0
 10
433.9446076252055
 20
912.3979117292744
 30
0.0
  0
LEADER
  5
A20D
102
{ACAD_REACTORS
102
}
102
{ACAD_XDICTIONARY
360
A20E
102
}
330
1F
100
AcDbEntity
  8
COTAS
100
AcDbLeader
  3
ISO-25
 76
     3
 10
375.8065036450487
 20
841.8283094463447
 30
0.0
 10
338.6932129654546
 20
812.5830618485294
 30
0.0
 10
332.9734232014695
 20
812.5830618485294
 30
0.0
  0
MTEXT
  5
A210
102
{ACAD_XDICTIONARY
360
A2E3
102
}
330
1F
100
AcDbEntity
  8
COTAS
100
AcDbMText
 10
314.1651922403701
 20
818.9212660299436
 30
0.0
 40
3.0
 41
19.50166117687829
 71
     1
 72
     5
  1
{\fArial|b0|i0|c0|p0;\W1.20174; }{\fArial|b0|i0|c0|p0;CEILING}\P{\fArial|b0|i0|c0|p0;\W2.34350; }{\fArial|b0|i0|c0|p0;FIXING}\P{\fArial|b0|i0|c0|p0;\W2.77649; }{\fArial|b0|i0|c0|p0;POINT}
  7
iso-1
 73
     1
 44
1.0
1001
ACAD
1000
ACAD_MTEXT_DEFINED_HEIGHT_BEGIN
1070
    46
1040
13.221
1000
ACAD_MTEXT_DEFINED_HEIGHT_END
  0
MTEXT
  5
A211
102
{ACAD_XDICTIONARY
360
A2E5
102
}
330
1F
100
AcDbEntity
  8
COTAS
100
AcDbMText
 10
315.1910366264505
 20
867.2899254917091
 30
0.0
 40
3.0
 41
32.88974634773424
 71
     1
 72
     5
  1
{\fArial|b0|i0|c0|p0;\W2.88048; }{\fArial|b0|i0|c0|p0;FEED CABLE}\P{\fArial|b0|i0|c0|p0;\W8.59955; }{\fArial|b0|i0|c0|p0;INPUT}
  7
iso-1
 73
     1
 44
1.0
1001
ACAD
1000
ACAD_MTEXT_DEFINED_HEIGHT_BEGIN
1070
    46
1040
8.136000000000001
1000
ACAD_MTEXT_DEFINED_HEIGHT_END
  0
LEADER
  5
A212
330
1F
100
AcDbEntity
  8
COTAS
100
AcDbLeader
  3
ISO-25
 76
     3
 10
395.7456976740607
 20
845.8779520913741
 30
0.0
 10
359.2522473569682
 20
866.1727790534308
 30
0.0
 10
347.708400828092
 20
866.1727790534308
 30
0.0
  0
MTEXT
  5
A239
102
{ACAD_XDICTIONARY
360
A2E7
102
}
330
1F
100
AcDbEntity
  8
COTAS
100
AcDbMText
 10
449.5067373840113
 20
823.4984946472539
 30
0.0
 40
3.0
 41
19.50166117687829
 71
     1
 72
     5
  1
{\fArial|b0|i0|c0|p0;\W1.20174; }{\fArial|b0|i0|c0|p0;CEILING}\P{\fArial|b0|i0|c0|p0;\W2.34350; }{\fArial|b0|i0|c0|p0;FIXING}\P{\fArial|b0|i0|c0|p0;\W2.77649; }{\fArial|b0|i0|c0|p0;POINT}
  7
iso-1
 73
     1
 44
1.0
1001
ACAD
1000
ACAD_MTEXT_DEFINED_HEIGHT_BEGIN
1070
    46
1040
13.221
1000
ACAD_MTEXT_DEFINED_HEIGHT_END
  0
LEADER
  5
A23A
102
{ACAD_REACTORS
102
}
102
{ACAD_XDICTIONARY
360
A23B
102
}
330
1F
100
AcDbEntity
  8
COTAS
100
AcDbLeader
  3
ISO-25
 76
     3
 10
419.9737986450487
 20
841.8283094463447
 30
0.0
 10
441.8055104066659
 20
818.1546438914438
 30
0.0
 10
449.2531533285215
 20
818.1546438914438
 30
0.0
  0
LINE
  5
A29C
330
1F
100
AcDbEntity
  8
PIEZA
100
AcDbLine
 10
672.1401516450487
 20
143.0802464236402
 30
0.0
 11
672.1401516450487
 21
143.3529744236403
 31
0.0
  0
LINE
  5
A29D
330
1F
100
AcDbEntity
  8
PIEZA
100
AcDbLine
 10
393.5401516450486
 20
241.4984284236402
 30
0.0
 11
123.6401516450486
 21
143.3529744236403
 31
0.0
  0
LINE
  5
A29E
330
1F
100
AcDbEntity
  8
PIEZA
100
AcDbLine
 10
672.1401516450487
 20
143.3529744236403
 30
0.0
 11
402.2401516450486
 21
241.4984284236402
 31
0.0
  0
LINE
  5
A29F
330
1F
100
AcDbEntity
  8
PIEZA
100
AcDbLine
 10
123.6401516450486
 20
143.3529744236403
 30
0.0
 11
123.6401516450486
 21
143.0802464236402
 31
0.0
  0
LINE
  5
A2A0
330
1F
100
AcDbEntity
  8
PIEZA
100
AcDbLine
 10
396.3901516450487
 20
609.5811744236403
 30
0.0
 11
396.3901516450487
 21
242.3034564236402
 31
0.0
  0
LINE
  5
A2A1
330
1F
100
AcDbEntity
  8
PIEZA
100
AcDbLine
 10
395.7376286450486
 20
242.2975114236402
 30
0.0
 11
393.5401516450486
 21
241.4984284236402
 31
0.0
  0
LINE
  5
A2A2
330
1F
100
AcDbEntity
  8
PIEZA
100
AcDbLine
 10
399.3901516450487
 20
242.3034564236402
 30
0.0
 11
399.3901516450487
 21
609.5811744236403
 31
0.0
  0
LINE
  5
A2A3
330
1F
100
AcDbEntity
  8
PIEZA
100
AcDbLine
 10
402.2401516450486
 20
241.4984284236402
 30
0.0
 11
400.0426746450486
 21
242.2975114236402
 31
0.0
  0
LINE
  5
A2A4
102
{ACAD_REACTORS
102
}
330
1F
100
AcDbEntity
  8
PIEZA
100
AcDbLine
 10
672.1401516450487
 20
143.0802464236402
 30
0.0
 11
123.6401516450486
 21
143.0802464236402
 31
0.0
  0
LINE
  5
A2A5
102
{ACAD_REACTORS
102
}
330
1F
100
AcDbEntity
  8
PIEZA
100
AcDbLine
 10
400.0426746450486
 20
242.2975114236402
 30
0.0
 11
395.7376286450486
 21
242.2975114236402
 31
0.0
  0
LINE
  5
A2A6
330
1F
100
AcDbEntity
  8
PIEZA
100
AcDbLine
 10
402.2401516450486
 20
241.4984284236402
 30
0.0
 11
393.5401516450486
 21
241.4984284236402
 31
0.0
  0
CIRCLE
  5
A2A7
330
1F
100
AcDbEntity
  8
PIEZA
100
AcDbCircle
 10
-397.8901516450487
 20
1263.269623352408
 30
0.0
 40
48.50920066255025
210
0.0
220
0.0
230
-1.0
  0
CIRCLE
  5
A2A8
330
1F
100
AcDbEntity
  8
PIEZA
100
AcDbCircle
 10
-397.8901516450487
 20
1263.269623352408
 30
0.0
 40
269.1476500446403
210
0.0
220
0.0
230
-1.0
  0
CIRCLE
  5
A2A9
330
1F
100
AcDbEntity
  8
PIEZA
100
AcDbCircle
 10
-397.8901516450487
 20
1263.269623352408
 30
0.0
 40
274.25
210
0.0
220
0.0
230
-1.0
  0
DIMENSION
  5
A2AA
102
{ACAD_REACTORS
102
}
102
{ACAD_XDICTIONARY
360
A2AB
102
}
330
1F
100
AcDbEntity
  8
COTAS
100
AcDbDimension
  2
*D28
 10
672.1401516450487
 20
106.8432936474359
 30
0.0
 11
397.8901516450487
 21
114.2249342724359
 31
0.0
 70
    32
  1
Ø550
 71
     5
 42
548.5000000000001
  3
ISO-25
100
AcDbAlignedDimension
 13
123.6401516450486
 23
143.0802464236402
 33
0.0
 14
672.1401516450487
 24
143.0802464236402
 34
0.0
100
AcDbRotatedDimension
  0
DIMENSION
  5
A2AD
102
{ACAD_REACTORS
102
}
102
{ACAD_XDICTIONARY
360
A2AE
102
}
330
1F
100
AcDbEntity
  8
COTAS
100
AcDbDimension
  2
*D29
 10
94.42960984417357
 20
242.2975114236403
 30
0.0
 11
87.32460984417358
 21
192.6888789236402
 31
0.0
 70
    32
  1
100
 71
     5
 42
99.21726500000001
  3
ISO-25
100
AcDbAlignedDimension
 13
123.6401516450486
 23
143.0802464236402
 33
0.0
 14
397.8901516450486
 24
242.2975114236402
 34
0.0
 50
90.0
100
AcDbRotatedDimension
  0
DIMENSION
  5
A2B0
102
{ACAD_REACTORS
102
}
102
{ACAD_XDICTIONARY
360
A2B1
102
}
330
1F
100
AcDbEntity
  8
COTAS
100
AcDbDimension
  2
*D30
 10
94.4296098441736
 20
609.5811744236403
 30
0.0
 11
85.87960984417357
 21
425.9393429236403
 31
0.0
 70
    32
  1
MAX. L (2-3-5m)
 71
     5
 42
367.283663
  3
ISO-25
100
AcDbAlignedDimension
 13
397.8901516450486
 23
242.2975114236402
 33
0.0
 14
143.3844764011639
 24
609.5811744236403
 34
0.0
 50
90.0
100
AcDbRotatedDimension
  0
HATCH
  5
A2D8
330
1F
100
AcDbEntity
  8
COTAS
100
AcDbHatch
 10
0.0
 20
0.0
 30
0.0
210
0.0
220
0.0
230
1.0
  2
SOLID
 70
     1
 71
     1
 91
        1
 92
        7
 72
     0
 73
     1
 93
        4
 10
622.8901516450487
 20
720.0811744236403
 10
622.8901516450487
 20
735.0811744236403
 10
172.8901516450487
 20
735.0811744236403
 10
172.8901516450487
 20
720.0811744236403
 97
        4
330
9C30
330
9C32
330
9C33
330
9C69
 75
     0
 76
     1
 47
0.0
 98
        1
 10
538.7900058499274
 20
732.1522525308944
1001
ACAD
1010
0.0
1020
0.0
1030
0.0
1001
HATCHBACKGROUNDCOLOR
1071
-939524096
1000

1000

  0
ENDSEC
  0
SECTION
  2
OBJECTS
  0
DICTIONARY
  5
C
330
0
100
AcDbDictionary
281
     1
  3
ACAD_CIP_PREVIOUS_PRODUCT_INFO
350
2D3A
  3
ACAD_DETAILVIEWSTYLE
350
2D33
  3
ACAD_GROUP
350
D
  3
ACAD_LAYOUT
350
1A
  3
ACAD_MLINESTYLE
350
17
  3
ACAD_PLOTSETTINGS
350
19
  3
ACAD_PLOTSTYLENAME
350
E
  3
ACAD_SCALELIST
350
10C
  3
ACAD_SECTIONVIEWSTYLE
350
2D31
  3
ACDB_RECOMPOSE_DATA
350
A2EF
  3
AcDbVariableDictionary
350
5E
  3
AcDsDecomposeData
350
A2F0
  3
APPDATA
350
86EB
  3
DWGPROPS
350
A2DA
  3
Siberia
350
376C
  0
DICTIONARY
  5
558
330
2
100
AcDbDictionary
280
     1
281
     1
  3
ACAD_LAYERSTATES
360
559
  3
ACLYDICTIONARY
360
97D5
  0
DICTIONARY
  5
1CE
330
1F
100
AcDbDictionary
280
     1
281
     1
  3
ACAD_SORTENTS
360
8EA
  0
DICTIONARY
  5
20E6
330
20E4
100
AcDbDictionary
280
     1
281
     1
  3
ACAD_SORTENTS
360
20E7
  0
DICTIONARY
  5
872E
330
86FF
100
AcDbDictionary
280
     1
281
     1
  3
ACAD_SORTENTS
360
872F
  0
DICTIONARY
  5
A2DB
330
345D
100
AcDbDictionary
280
     1
281
     1
  3
ACAD_MTEXT_RT
360
A2DC
  0
DICTIONARY
  5
A2DD
330
345F
100
AcDbDictionary
280
     1
281
     1
  3
ACAD_MTEXT_RT
360
A2DE
  0
DICTIONARY
  5
A2DF
330
3794
100
AcDbDictionary
280
     1
281
     1
  3
ACAD_MTEXT_RT
360
A2E0
  0
DICTIONARY
  5
3799
330
3798
100
AcDbDictionary
280
     1
281
     1
  0
DICTIONARY
  5
9D50
330
9D4F
100
AcDbDictionary
280
     1
281
     1
  0
DICTIONARY
  5
9D5F
330
9D5E
100
AcDbDictionary
280
     1
281
     1
  0
DICTIONARY
  5
A2E1
330
A209
100
AcDbDictionary
280
     1
281
     1
  3
ACAD_MTEXT_RT
360
A2E2
  0
DICTIONARY
  5
A20B
330
A20A
100
AcDbDictionary
280
     1
281
     1
  0
DICTIONARY
  5
A20E
330
A20D
100
AcDbDictionary
280
     1
281
     1
  0
DICTIONARY
  5
A2E3
330
A210
100
AcDbDictionary
280
     1
281
     1
  3
ACAD_MTEXT_RT
360
A2E4
  0
DICTIONARY
  5
A2E5
330
A211
100
AcDbDictionary
280
     1
281
     1
  3
ACAD_MTEXT_RT
360
A2E6
  0
DICTIONARY
  5
A2E7
330
A239
100
AcDbDictionary
280
     1
281
     1
  3
ACAD_MTEXT_RT
360
A2E8
  0
DICTIONARY
  5
A23B
330
A23A
100
AcDbDictionary
280
     1
281
     1
  0
DICTIONARY
  5
A2AB
330
A2AA
100
AcDbDictionary
280
     1
281
     1
  0
DICTIONARY
  5
A2AE
330
A2AD
100
AcDbDictionary
280
     1
281
     1
  0
DICTIONARY
  5
A2B1
330
A2B0
100
AcDbDictionary
280
     1
281
     1
  0
XRECORD
  5
2D3A
102
{ACAD_REACTORS
330
C
102
}
330
C
100
AcDbXrecord
280
     1
300
ACD
300
2016
300
ACD_F_S
  0
DICTIONARY
  5
2D33
102
{ACAD_REACTORS
330
C
102
}
330
C
100
AcDbDictionary
281
     1
  3
Imperial24
350
57AE
  3
Metric50
350
2D34
  0
DICTIONARY
  5
D
102
{ACAD_REACTORS
330
C
102
}
330
C
100
AcDbDictionary
281
     1
  0
DICTIONARY
  5
1A
102
{ACAD_REACTORS
330
C
102
}
330
C
100
AcDbDictionary
281
     1
  3
Model
350
22
  3
Presentación1
350
D3
  3
Presentación2
350
D7
  0
DICTIONARY
  5
17
102
{ACAD_REACTORS
330
C
102
}
330
C
100
AcDbDictionary
281
     1
  3
Standard
350
18
  0
DICTIONARY
  5
19
102
{ACAD_REACTORS
330
C
102
}
330
C
100
AcDbDictionary
281
     1
  0
ACDBDICTIONARYWDFLT
  5
E
102
{ACAD_REACTORS
330
C
102
}
330
C
100
AcDbDictionary
281
     1
  3
Color_7
350
1E6
  3
Normal
350
F
100
AcDbDictionaryWithDefault
340
F
  0
DICTIONARY
  5
10C
102
{ACAD_REACTORS
330
C
102
}
330
C
100
AcDbDictionary
281
     1
  3
A0
350
10D
  3
A1
350
1BE
  3
A2
350
1BF
  3
A3
350
1C0
  3
A4
350
1C1
  3
A5
350
1C2
  3
A6
350
1C3
  3
A7
350
1C4
  3
A8
350
1C5
  3
A9
350
1C6
  3
B0
350
1C7
  3
B1
350
1C8
  3
B2
350
1C9
  3
B3
350
1CA
  3
B4
350
1CB
  3
B5
350
1CC
  3
B6
350
1CD
  0
DICTIONARY
  5
2D31
102
{ACAD_REACTORS
330
C
102
}
330
C
100
AcDbDictionary
281
     1
  3
Imperial24
350
57AD
  3
Metric50
350
2D32
  0
XRECORD
  5
A2EF
102
{ACAD_REACTORS
330
C
102
}
330
C
100
AcDbXrecord
280
     1
 90
        1
330
A211
330
A209
330
A210
330
A239
330
3794
330
345D
330
345F
  0
DICTIONARY
  5
5E
102
{ACAD_REACTORS
330
C
102
}
330
C
100
AcDbDictionary
281
     1
  3
DIMASSOC
350
5F
  3
HIDETEXT
350
63
  0
DICTIONARY
  5
A2F0
102
{ACAD_REACTORS
330
C
102
}
330
C
100
AcDbDictionary
281
     1
  3
AcDsRecords
350
A2F1
  3
AcDsSchemas
350
A2F2
1001
ACAD
1070
     2
  0
DICTIONARY
  5
86EB
102
{ACAD_REACTORS
330
C
102
}
330
C
100
AcDbDictionary
281
     1
  0
XRECORD
  5
A2DA
102
{ACAD_REACTORS
330
C
102
}
330
C
100
AcDbXrecord
280
     1
  1
DWGPROPS COOKIE
  2

  3

  4

  6

  7

  8
tecnico5
  9

300
=
301
=
302
=
303
=
304
=
305
=
306
=
307
=
308
=
309
=
 40
0.0
 41
2456723.730696273
 42
2460032.403869491
  1

 90
        0
  0
DICTIONARY
  5
376C
102
{ACAD_REACTORS
330
C
102
}
330
C
100
AcDbDictionary
280
     1
281
     1
  3
Styles
360
376D
  0
DICTIONARY
  5
559
102
{ACAD_REACTORS
330
558
102
}
330
558
100
AcDbDictionary
281
     1
  0
DICTIONARY
  5
97D5
102
{ACAD_REACTORS
330
558
102
}
330
558
100
AcDbDictionary
281
     1
1001
ACAD
1000
<All
  0
SORTENTSTABLE
  5
8EA
102
{ACAD_REACTORS
330
1CE
102
}
330
1CE
100
AcDbSortentsTable
330
1F
331
DCC
  5
DD4
331
345D
  5
345F
331
345F
  5
3461
331
3461
  5
3463
331
3462
  5
3464
331
3463
  5
3465
331
3464
  5
3466
331
3465
  5
3467
331
3466
  5
3468
331
3467
  5
3469
331
3469
  5
3796
331
3794
  5
3EA3
331
3798
  5
589E
331
9C30
  5
9C33
331
9C32
  5
9C3A
331
9C33
  5
9C5A
331
9C69
  5
9C7A
331
9D34
  5
9D36
331
9D35
  5
9D37
331
9D36
  5
9D38
331
9D37
  5
9D39
331
9D38
  5
9D3A
331
9D39
  5
9D3B
331
9D3A
  5
9D3C
331
9D3B
  5
9D3D
331
9D3C
  5
9D3E
331
9D3D
  5
9D3F
331
9D3E
  5
9D4F
331
9D3F
  5
9D5E
331
9D4F
  5
9FAD
331
9D5E
  5
9FAE
331
9FAD
  5
9FF5
331
9FAE
  5
9FFA
331
9FF5
  5
9FFB
331
9FFA
  5
9FFC
331
9FFB
  5
9FFD
331
9FFC
  5
9FFE
331
9FFD
  5
9FFF
331
9FFE
  5
A1D6
331
9FFF
  5
A1D7
331
A1D6
  5
A1D8
331
A1D7
  5
A1D9
331
A1D8
  5
A1DA
331
A1D9
  5
A1DB
331
A1DA
  5
A1DC
331
A1DB
  5
A1DD
331
A1DC
  5
A209
331
A1DD
  5
A20A
331
A209
  5
A20D
331
A20A
  5
A210
331
A20D
  5
A211
331
A210
  5
A212
331
A211
  5
A239
331
A212
  5
A23A
331
A239
  5
A29B
331
A23A
  5
A29C
331
A29C
  5
A29E
331
A29D
  5
A29F
331
A29E
  5
A2A0
331
A29F
  5
A2A1
331
A2A0
  5
A2A2
331
A2A1
  5
A2A3
331
A2A2
  5
A2A4
331
A2A3
  5
A2A5
331
A2A4
  5
A2A6
331
A2A5
  5
A2A7
331
A2A6
  5
A2A8
331
A2A7
  5
A2A9
331
A2A8
  5
A2AA
331
A2A9
  5
A2AD
331
A2AA
  5
A2B0
331
A2AD
  5
A2D7
331
A2B0
  5
A2D8
331
A2D8
  5
9C32
  0
SORTENTSTABLE
  5
20E7
102
{ACAD_REACTORS
330
20E6
102
}
330
20E6
100
AcDbSortentsTable
330
20E4
  0
SORTENTSTABLE
  5
872F
102
{ACAD_REACTORS
330
872E
102
}
330
872E
100
AcDbSortentsTable
330
86FF
  0
XRECORD
  5
A2DC
102
{ACAD_REACTORS
330
A2DB
102
}
330
A2DB
100
AcDbXrecord
280
     1
 40
2861.0
  1
{\pxql;Scale 1/1}
  0
XRECORD
  5
A2DE
102
{ACAD_REACTORS
330
A2DD
102
}
330
A2DD
100
AcDbXrecord
280
     1
 40
4544.0
  1
{\pxql;Units: mm.}
  0
XRECORD
  5
A2E0
102
{ACAD_REACTORS
330
A2DF
102
}
330
A2DF
100
AcDbXrecord
280
     1
 40
75908.0
  1
{\pxqr;DUNE 55 BASE}
  0
XRECORD
  5
A2E2
102
{ACAD_REACTORS
330
A2E1
102
}
330
A2E1
100
AcDbXrecord
280
     1
 40
1512740.0
  1
{\pxqc;\fArial|b0|i0|c0|p0;CEILING\PFIXING\PPOINT}
  0
XRECORD
  5
A2E4
102
{ACAD_REACTORS
330
A2E3
102
}
330
A2E3
100
AcDbXrecord
280
     1
 40
1512740.0
  1
{\pxqc;\fArial|b0|i0|c0|p0;CEILING\PFIXING\PPOINT}
  0
XRECORD
  5
A2E6
102
{ACAD_REACTORS
330
A2E5
102
}
330
A2E5
100
AcDbXrecord
280
     1
 40
693137.0
  1
{\pxqc;\fArial|b0|i0|c0|p0;FEED CABLE\PINPUT}
  0
XRECORD
  5
A2E8
102
{ACAD_REACTORS
330
A2E7
102
}
330
A2E7
100
AcDbXrecord
280
     1
 40
1512740.0
  1
{\pxqc;\fArial|b0|i0|c0|p0;CEILING\PFIXING\PPOINT}
  0
ACDBDETAILVIEWSTYLE
  5
57AE
102
{ACAD_REACTORS
330
2D33
102
}
102
{ACAD_XDICTIONARY
360
6B37
102
}
330
2D33
100
AcDbModelDocViewStyle
 70
     0
  3
Imperial24
290
     0
100
AcDbDetailViewStyle
 70
     0
 71
     0
 90
        3
 71
     1
340
11
 40
0.24
340
0
 40
0.24
300

 40
0.36
280
     3
 71
     2
340
16
 90
       25
 71
     3
340
11
 40
0.24
 90
        1
 40
0.75
 90
        1
300
%<\AcVar ViewType \f "%tc1">% %<\AcVar ViewDetailId>%\PESCALA %<\AcVar ViewScale \f "%sn">%
 71
     4
340
16
 90
       25
340
16
 90
       25
280
     0
  0
ACDBDETAILVIEWSTYLE
  5
2D34
102
{ACAD_REACTORS
330
2D33
102
}
102
{ACAD_XDICTIONARY
360
377A
102
}
330
2D33
100
AcDbModelDocViewStyle
 70
     0
  3
Metric50
290
     0
100
AcDbDetailViewStyle
 70
     0
 71
     0
 90
        3
 71
     1
340
11
 40
5.0
340
0
 40
5.0
300

 40
0.0
280
     1
 71
     2
340
16
 90
       25
 71
     3
340
11
 40
5.0
 90
        0
 40
15.0
 90
        1
300
%<\AcVar ViewDetailId>% (%<\AcVar ViewScale \f "%sn">%)
 71
     4
340
16
 90
       25
340
16
 90
       25
280
     0
  0
LAYOUT
  5
22
102
{ACAD_REACTORS
330
1A
102
}
102
{ACAD_XDICTIONARY
360
A2EB
102
}
330
1A
100
AcDbPlotSettings
  1

  2
none_device
  4
ISO_A4_(210.00_x_297.00_MM)
  6

 40
7.5
 41
20.0
 42
7.5
 43
20.0
 44
210.0
 45
297.0
 46
11.54999923706055
 47
-13.65000009536743
 48
0.0
 49
0.0
140
0.0
141
0.0
142
1.0
143
8.704084754739808
 70
 11952
 72
     1
 73
     0
 74
     0
  7

 75
     0
147
0.1148885871608098
148
0.0
149
0.0
100
AcDbLayout
  1
Model
 70
     1
 71
     0
 10
0.0
 20
0.0
 11
12.0
 21
9.0
 12
0.0
 22
0.0
 32
0.0
 14
-0.0000006591429837
 24
-0.0000003950417238
 34
-240.4366158723723
 15
775.187760772389
 25
1611.643008398006
 35
240.4366158723723
146
0.0
 13
0.0
 23
0.0
 33
0.0
 16
1.0
 26
0.0
 36
0.0
 17
0.0
 27
1.0
 37
0.0
 76
     0
330
1F
331
EA
1001
ACAD_PSEXT
1000
None
1000
None
1000
Not applicable
1000
The layout will not be plotted unless a new plotter configuration name is selected.
1070
     0
  0
LAYOUT
  5
D3
102
{ACAD_REACTORS
330
1A
102
}
330
1A
100
AcDbPlotSettings
  1

  2
C:\Documents and Settings\basas\Application Data\Autodesk\AutoCAD 2005\R16.1\enu\plotters\Default Windows System Printer.pc3
  4

  6

 40
0.0
 41
0.0
 42
0.0
 43
0.0
 44
0.0
 45
0.0
 46
0.0
 47
0.0
 48
0.0
 49
0.0
140
0.0
141
0.0
142
1.0
143
1.0
 70
   688
 72
     0
 73
     0
 74
     5
  7

 75
    16
147
1.0
148
0.0
149
0.0
100
AcDbLayout
  1
Presentación1
 70
     1
 71
     1
 10
0.0
 20
0.0
 11
12.0
 21
9.0
 12
0.0
 22
0.0
 32
0.0
 14
0.0
 24
0.0
 34
0.0
 15
0.0
 25
0.0
 35
0.0
146
0.0
 13
0.0
 23
0.0
 33
0.0
 16
1.0
 26
0.0
 36
0.0
 17
0.0
 27
1.0
 37
0.0
 76
     0
330
D2
  0
LAYOUT
  5
D7
102
{ACAD_REACTORS
330
1A
102
}
330
1A
100
AcDbPlotSettings
  1

  2
C:\Documents and Settings\basas\Application Data\Autodesk\AutoCAD 2005\R16.1\enu\plotters\Default Windows System Printer.pc3
  4

  6

 40
0.0
 41
0.0
 42
0.0
 43
0.0
 44
0.0
 45
0.0
 46
0.0
 47
0.0
 48
0.0
 49
0.0
140
0.0
141
0.0
142
1.0
143
1.0
 70
   688
 72
     0
 73
     0
 74
     5
  7

 75
    16
147
1.0
148
0.0
149
0.0
100
AcDbLayout
  1
Presentación2
 70
     1
 71
     2
 10
0.0
 20
0.0
 11
12.0
 21
9.0
 12
0.0
 22
0.0
 32
0.0
 14
0.0
 24
0.0
 34
0.0
 15
0.0
 25
0.0
 35
0.0
146
0.0
 13
0.0
 23
0.0
 33
0.0
 16
1.0
 26
0.0
 36
0.0
 17
0.0
 27
1.0
 37
0.0
 76
     0
330
D6
  0
MLINESTYLE
  5
18
102
{ACAD_REACTORS
330
17
102
}
330
17
100
AcDbMlineStyle
  2
STANDARD
 70
     0
  3

 62
   256
 51
90.0
 52
90.0
 71
     2
 49
0.5
 62
   256
  6
BYLAYER
 49
-0.5
 62
   256
  6
BYLAYER
  0
ACDBPLACEHOLDER
  5
1E6
102
{ACAD_REACTORS
330
E
102
}
330
E
  0
ACDBPLACEHOLDER
  5
F
102
{ACAD_REACTORS
330
E
102
}
330
E
  0
SCALE
  5
10D
102
{ACAD_REACTORS
330
10C
102
}
330
10C
100
AcDbScale
 70
     0
300
1:1
140
1.0
141
1.0
290
     1
  0
SCALE
  5
1BE
102
{ACAD_REACTORS
330
10C
102
}
330
10C
100
AcDbScale
 70
     0
300
1:2
140
1.0
141
2.0
290
     0
  0
SCALE
  5
1BF
102
{ACAD_REACTORS
330
10C
102
}
330
10C
100
AcDbScale
 70
     0
300
1:4
140
1.0
141
4.0
290
     0
  0
SCALE
  5
1C0
102
{ACAD_REACTORS
330
10C
102
}
330
10C
100
AcDbScale
 70
     0
300
1:5
140
1.0
141
5.0
290
     0
  0
SCALE
  5
1C1
102
{ACAD_REACTORS
330
10C
102
}
330
10C
100
AcDbScale
 70
     0
300
1:8
140
1.0
141
8.0
290
     0
  0
SCALE
  5
1C2
102
{ACAD_REACTORS
330
10C
102
}
330
10C
100
AcDbScale
 70
     0
300
1:10
140
1.0
141
10.0
290
     0
  0
SCALE
  5
1C3
102
{ACAD_REACTORS
330
10C
102
}
330
10C
100
AcDbScale
 70
     0
300
1:16
140
1.0
141
16.0
290
     0
  0
SCALE
  5
1C4
102
{ACAD_REACTORS
330
10C
102
}
330
10C
100
AcDbScale
 70
     0
300
1:20
140
1.0
141
20.0
290
     0
  0
SCALE
  5
1C5
102
{ACAD_REACTORS
330
10C
102
}
330
10C
100
AcDbScale
 70
     0
300
1:30
140
1.0
141
30.0
290
     0
  0
SCALE
  5
1C6
102
{ACAD_REACTORS
330
10C
102
}
330
10C
100
AcDbScale
 70
     0
300
1:40
140
1.0
141
40.0
290
     0
  0
SCALE
  5
1C7
102
{ACAD_REACTORS
330
10C
102
}
330
10C
100
AcDbScale
 70
     0
300
1:50
140
1.0
141
50.0
290
     0
  0
SCALE
  5
1C8
102
{ACAD_REACTORS
330
10C
102
}
330
10C
100
AcDbScale
 70
     0
300
1:100
140
1.0
141
100.0
290
     0
  0
SCALE
  5
1C9
102
{ACAD_REACTORS
330
10C
102
}
330
10C
100
AcDbScale
 70
     0
300
2:1
140
2.0
141
1.0
290
     0
  0
SCALE
  5
1CA
102
{ACAD_REACTORS
330
10C
102
}
330
10C
100
AcDbScale
 70
     0
300
4:1
140
4.0
141
1.0
290
     0
  0
SCALE
  5
1CB
102
{ACAD_REACTORS
330
10C
102
}
330
10C
100
AcDbScale
 70
     0
300
8:1
140
8.0
141
1.0
290
     0
  0
SCALE
  5
1CC
102
{ACAD_REACTORS
330
10C
102
}
330
10C
100
AcDbScale
 70
     0
300
10:1
140
10.0
141
1.0
290
     0
  0
SCALE
  5
1CD
102
{ACAD_REACTORS
330
10C
102
}
330
10C
100
AcDbScale
 70
     0
300
100:1
140
100.0
141
1.0
290
     0
  0
ACDBSECTIONVIEWSTYLE
  5
57AD
102
{ACAD_REACTORS
330
2D31
102
}
102
{ACAD_XDICTIONARY
360
6B35
102
}
330
2D31
100
AcDbModelDocViewStyle
 70
     0
  3
Imperial24
290
     0
100
AcDbSectionViewStyle
 70
     0
 71
     0
 90
       78
 71
     1
340
11
 40
0.24
340
0
340
0
 40
0.24
300
I, O, Q, S, X, Z
 40
0.48
 90
        3
 40
0.18
 90
        1
 71
     2
340
16
 90
       25
340
16
 90
       50
 40
0.24
 40
0.0
 40
0.24
 71
     3
340
11
 40
0.24
 90
        1
 40
0.75
 90
        1
300
%<\AcVar ViewType \f "%tc1">% %<\AcVar ViewSectionStartId>%-%<\AcVar ViewSectionEndId>%\PESCALA %<\AcVar ViewScale \f "%sn">%
 71
     4
300
ANSI31
 40
1.0
 90
        0
290
     0
290
     0
 90
        6
 40
0.0
 40
1.570796326794897
 40
0.2617993877991494
 40
1.308996938995747
 40
-0.2617993877991494
 40
1.832595714594046
  0
ACDBSECTIONVIEWSTYLE
  5
2D32
102
{ACAD_REACTORS
330
2D31
102
}
102
{ACAD_XDICTIONARY
360
3778
102
}
330
2D31
100
AcDbModelDocViewStyle
 70
     0
  3
Metric50
290
     0
100
AcDbSectionViewStyle
 70
     0
 71
     0
 90
      102
 71
     1
340
11
 40
5.0
340
0
340
0
 40
5.0
300
I, O, Q, S, X, Z
 40
10.0
 90
        0
 40
2.5
 90
        0
 71
     2
340
16
 90
       25
340
16
 90
       50
 40
5.0
 40
2.5
 40
5.0
 71
     3
340
11
 40
5.0
 90
        0
 40
15.0
 90
        1
300
%<\AcVar ViewSectionStartId>%-%<\AcVar ViewSectionEndId>% (%<\AcVar ViewScale \f "%sn">%)
 71
     4
300
ANSI31
 40
1.0
 90
        0
290
     0
290
     0
 90
        6
 40
0.0
 40
1.570796326794897
 40
0.2617993877991494
 40
1.308996938995747
 40
-0.2617993877991494
 40
1.832595714594046
  0
DICTIONARYVAR
  5
5F
102
{ACAD_REACTORS
330
5E
102
}
330
5E
100
DictionaryVariables
280
     0
  1
2
  0
DICTIONARYVAR
  5
63
102
{ACAD_REACTORS
330
5E
102
}
330
5E
100
DictionaryVariables
280
     0
  1
1
  0
DICTIONARY
  5
A2F1
102
{ACAD_REACTORS
330
A2F0
102
}
330
A2F0
100
AcDbDictionary
281
     1
  0
DICTIONARY
  5
A2F2
102
{ACAD_REACTORS
330
A2F0
102
}
330
A2F0
100
AcDbDictionary
281
     1
  3
8796078527096
350
A2F3
  3
8796078527112
350
A2F4
  3
8796078527128
350
A2F5
  3
8796078527144
350
A2F6
  3
8796078527160
350
A2F7
  3
8796078527176
350
A2F8
  0
DICTIONARY
  5
376D
102
{ACAD_REACTORS
330
376C
102
}
330
376C
100
AcDbDictionary
280
     1
281
     1
  0
DICTIONARY
  5
6B37
330
57AE
100
AcDbDictionary
280
     1
281
     1
  3
ACAD_XREC_ROUNDTRIP
360
A2E9
  0
DICTIONARY
  5
377A
330
2D34
100
AcDbDictionary
280
     1
281
     1
  3
ACAD_XREC_ROUNDTRIP
360
A2EA
  0
DICTIONARY
  5
A2EB
330
22
100
AcDbDictionary
280
     1
281
     1
  3
ADSK_XREC_LAYOUTTHUMBNAIL
360
A2EC
  0
DICTIONARY
  5
6B35
330
57AD
100
AcDbDictionary
280
     1
281
     1
  3
ACAD_XREC_ROUNDTRIP
360
A2ED
  0
DICTIONARY
  5
3778
330
2D32
100
AcDbDictionary
280
     1
281
     1
  3
ACAD_XREC_ROUNDTRIP
360
A2EE
  0
XRECORD
  5
A2F3
102
{ACAD_REACTORS
330
A2F2
102
}
330
A2F2
100
AcDbXrecord
280
     1
  1
AcDb_Thumbnail_Schema
102
{ATTRRECORD
341
A2F5
  2
AcDbDs::TreatedAsObjectData
280
     1
291
     1
102
ATTRRECORD}
102
{ATTRRECORD
341
A2F6
  2
AcDbDs::Legacy
280
     1
291
     1
102
ATTRRECORD}
  2
AcDbDs::ID
280
    10
 91
        8
102
{ATTRRECORD
341
A2F7
  2
AcDs:Indexable
280
     1
291
     1
102
ATTRRECORD}
102
{ATTRRECORD
341
A2F8
  2
AcDbDs::HandleAttribute
280
     7
282
     1
102
ATTRRECORD}
  2
Thumbnail_Data
280
    15
 91
        0
  0
XRECORD
  5
A2F4
102
{ACAD_REACTORS
330
A2F2
102
}
330
A2F2
100
AcDbXrecord
280
     1
  1
AcDb3DSolid_ASM_Data
102
{ATTRRECORD
341
A2F5
  2
AcDbDs::TreatedAsObjectData
280
     1
291
     1
102
ATTRRECORD}
102
{ATTRRECORD
341
A2F6
  2
AcDbDs::Legacy
280
     1
291
     1
102
ATTRRECORD}
  2
AcDbDs::ID
280
    10
 91
        8
102
{ATTRRECORD
341
A2F7
  2
AcDs:Indexable
280
     1
291
     1
102
ATTRRECORD}
102
{ATTRRECORD
341
A2F8
  2
AcDbDs::HandleAttribute
280
     7
282
     1
102
ATTRRECORD}
  2
ASM_Data
280
    15
 91
        0
  0
XRECORD
  5
A2F5
102
{ACAD_REACTORS
330
A2F2
102
}
330
A2F2
100
AcDbXrecord
280
     1
  1
AcDbDs::TreatedAsObjectDataSchema
  2
AcDbDs::TreatedAsObjectData
280
     1
 91
        0
  0
XRECORD
  5
A2F6
102
{ACAD_REACTORS
330
A2F2
102
}
330
A2F2
100
AcDbXrecord
280
     1
  1
AcDbDs::LegacySchema
  2
AcDbDs::Legacy
280
     1
 91
        0
  0
XRECORD
  5
A2F7
102
{ACAD_REACTORS
330
A2F2
102
}
330
A2F2
100
AcDbXrecord
280
     1
  1
AcDbDs::IndexedPropertySchema
  2
AcDs:Indexable
280
     1
 91
        0
  0
XRECORD
  5
A2F8
102
{ACAD_REACTORS
330
A2F2
102
}
330
A2F2
100
AcDbXrecord
280
     1
  1
AcDbDs::HandleAttributeSchema
  2
AcDbDs::HandleAttribute
280
     7
 91
        1
284
     1
  0
XRECORD
  5
A2E9
102
{ACAD_REACTORS
330
6B37
102
}
330
6B37
100
AcDbXrecord
280
     1
102
DISPLAYNAME
  1
Imperial24
102
FLAGS
 90
        0
  0
XRECORD
  5
A2EA
102
{ACAD_REACTORS
330
377A
102
}
330
377A
100
AcDbXrecord
280
     1
102
DISPLAYNAME
  1
Metric50
102
FLAGS
 90
        0
  0
XRECORD
  5
A2EC
102
{ACAD_REACTORS
330
A2EB
102
}
330
A2EB
100
AcDbXrecord
280
     1
310
28000000000100007400000001000800000000000074000000000000000000000000000000000000302821FF000000FFC8C8C8FF000000FF000000FF000000FF000000FF000000FF000000FF000000FF000000FF330000FF660000FF990000FFCC0000FFFF0000FF003300FF333300FF663300FF993300FFCC3300FFFF3300
310
FF006600FF336600FF666600FF996600FFCC6600FFFF6600FF009900FF339900FF669900FF999900FFCC9900FFFF9900FF00CC00FF33CC00FF66CC00FF99CC00FFCCCC00FFFFCC00FF00FF00FF33FF00FF66FF00FF99FF00FFCCFF00FFFFFF00FF000033FF330033FF660033FF990033FFCC0033FFFF0033FF003333FF3333
310
33FF663333FF993333FFCC3333FFFF3333FF006633FF336633FF666633FF996633FFCC6633FFFF6633FF009933FF339933FF669933FF999933FFCC9933FFFF9933FF00CC33FF33CC33FF66CC33FF99CC33FFCCCC33FFFFCC33FF00FF33FF33FF33FF66FF33FF99FF33FFCCFF33FFFFFF33FF000066FF330066FF660066FF99
310
0066FFCC0066FFFF0066FF003366FF333366FF663366FF993366FFCC3366FFFF3366FF006666FF336666FF666666FF996666FFCC6666FFFF6666FF009966FF339966FF669966FF999966FFCC9966FFFF9966FF00CC66FF33CC66FF66CC66FF99CC66FFCCCC66FFFFCC66FF00FF66FF33FF66FF66FF66FF99FF66FFCCFF66FF
310
FFFF66FF000099FF330099FF660099FF990099FFCC0099FFFF0099FF003399FF333399FF663399FF993399FFCC3399FFFF3399FF006699FF336699FF666699FF996699FFCC6699FFFF6699FF009999FF339999FF669999FF999999FFCC9999FFFF9999FF00CC99FF33CC99FF66CC99FF99CC99FFCCCC99FFFFCC99FF00FF99
310
FF33FF99FF66FF99FF99FF99FFCCFF99FFFFFF99FF0000CCFF3300CCFF6600CCFF9900CCFFCC00CCFFFF00CCFF0033CCFF3333CCFF6633CCFF9933CCFFCC33CCFFFF33CCFF0066CCFF3366CCFF6666CCFF9966CCFFCC66CCFFFF66CCFF0099CCFF3399CCFF6699CCFF9999CCFFCC99CCFFFF99CCFF00CCCCFF33CCCCFF66CC
310
CCFF99CCCCFFCCCCCCFFFFCCCCFF00FFCCFF33FFCCFF66FFCCFF99FFCCFFCCFFCCFFFFFFCCFF0000FFFF3300FFFF6600FFFF9900FFFFCC00FFFFFF00FFFF0033FFFF3333FFFF6633FFFF9933FFFFCC33FFFFFF33FFFF0066FFFF3366FFFF6666FFFF9966FFFFCC66FFFFFF66FFFF0099FFFF3399FFFF6699FFFF9999FFFFCC
310
99FFFFFF99FFFF00CCFFFF33CCFFFF66CCFFFF99CCFFFFCCCCFFFFFFCCFFFF00FFFFFF33FFFFFF66FFFFFF99FFFFFFCCFFFFFFFFFFFFFF000000FF0D0D0DFF1A1A1AFF282828FF353535FF434343FF505050FF5D5D5DFF6B6B6BFF787878FF868686FF939393FFA1A1A1FFAEAEAEFFBBBBBBFFC9C9C9FFD6D6D6FFE4E4E4FF
310
F1F1F1FFFFFFFFFF000000FF000000FF000000FF000000FF000000FF000000FF000000FF000000FF000000FF000000FF00000000000000000000000000000000000000000000000000000000000000000000000000000000000000000000000000000000000000000000000000000000000000000000000000000000000000
310
00000000000000000000000000000000000000000000000000000000000000000000000000000000000000000000000000000000000000000000000000000000000000000000000000000000000000000000000000000000000000000000000000000000000000000000000000000000000000000000000000000000000000
310
00000000000000000000000000000000000000000000000000000000000000000000000000000000000000000000000000000000000000000000000000000000000000000000000000000000000000000000000000000000000000000000000000000000000000000000000000000000000000000000000000000000000000
310
00000000000000000000000000000000000000000000000000000000000000000000000000000000000000000000000000000000000000000000000000000000000000000000000000000000000000000000000000000000000000000000000000000000000000000000000000000000000000000000000000000000000000
310
00000000000000000000000000000000000000000000000000000000000000000000000000000000000000000000000000000000000000000000000000000000000000000000000000000000000000000000000000000000000000000000000000000000000000000000000000000000000000000000000000000000000000
310
00000000000000000000000000000000000000000000000000000000000000000000000000000000000000000000000000000000000000000000000000000000000000000000000000000000000000000000000000000000000000000000000000000000000000000000000000000000000000000000000000000000000000
310
00000000000000000000000000000000000000000000000000000000000000000000000000000000000000000000000000000000000000000000000000000000000000000000000000000000000000000000000000000000000000000000000000000000000000000000000000000000000000000000000000000000000000
310
00000000000000000000000000000000000000000000000000000000000000000000000000000000000000000000000000000000000000000000000000000000000000000000000000000000000000000000000000000000000000000000000000000000000000000000000000000000000000000000000000000000000000
310
00000000000000000000000000000000000000000000000000000000000000000000000000000000000000000000000000000000000000000000000000000000000000000000000000000000000000000000000000000000000000000000000000000000000000000000000000000000000000000000000000000000000000
310
00000000000000000000000000000000000000000000000000000000000000000000000000000000000000000000000000000000000000000000000000000000000000000000000000000000000000000000000000000000000000000000000000000000000000000000000000000000000000000000000000000000000000
310
00000000000000000000000000000000000000000000000000000000000000000000000000000000000000000000000000000000000000000000000000000000000000000000000000000000000000000000000000000000000000000000000000000000000000000000000000000000000000000000000000000000000000
310
00000000000000000000000000000000000000000000000000000000000000000000000000000000000000000000000000000000000000000000000000000000000000000000000000000000000000000000000000000000000000000000000000000000000000000000000000000000000000000000000000000000000000
310
00000000000000000000000000000000000000000000000000000000000000000000000000000000000000000000000000000000000000000000000000000000000000000000000000000000000000000000000000000000000000000000000000000000000000000000000000000000000000000000000000000000000000
310
000000000000000000000000000000000000000000000000000000000000EDEDEDEDEDEDEDEDEDEDEDEDEDEDEDEDEDEDEDEDEDEDEDEDEDEDEDEDEDEDEDEDEDEDEDEDEDEDEDEDEDEDEDEDEDEDEDEDEDEDEDEDEDEDEDEDEDEDEDEDEDEDEDEDEDEDEDEDEDEDEDEDEDEDEDEDEDEDEDEDEDED000000000000000000000000000000
310
00000000000000000000000000000000000000000000000000000000000000000000000000000000000000000000000000000000000000000000000000000000000000000000000000000000000000000000000000000000000000000000000000000000000000000000000000000000000000000000000000000000000000
310
0000000000000000000000000000000000000000000000000000000000000000ED0000000000000000000000000000000000000000000000000000000000000000000000000000000000000000000000000000000000000000000000000000000000000000000000000000000000000000ED00000000000000000000000000
310
00000000000000000000000000000000000000000000000000000000000000000000000000000000000000000000000000000000000000000000000000000000000000000000000000000000000000000000000000000000000000000000000000000000000000000000000000000000000000000000000000000000000000
310
00000000000000000000000000000000000000000000000000000000000000000000ED0000000000000000000000000000000000000000000000000000000000000000000000000000000000000000000000000000000000000000000000000000000000000000000000000000000000000000ED0000000000000000000000
310
00000000000000000000000000000000000000000000000000000000000000000000000000000000000000000000000000000000000000000000000000000000000000000000000000000000000000000000000000000000000000000000000000000000000000000000000000000000000000000000000000000000000000
310
000000000000000000000000000000000000000000000000000000000000000000000000ED0000000000000000000000000000000000000000000000000000000000000000000000000000000000000000000000000000000000000000000000000000000000000000000000000000000000000000ED000000000000000000
310
00000000000000000000000000000000000000000000000000000000000000000000000000000000000000000000000000000000000000000000000000000000000000000000000000000000000000000000000000000000000000000000000000000000000000000000000000000000000000000000000000000000000000
310
0000000000000000000000000000000000000000000000000000000000000000000000000000ED0000000000000000000000000000000000000000000000000000000000000000000000000000000000000000000000000000000000000000000000000000000000000000000000000000000000000000ED00000000000000
310
00000000000000000000000000000000000000000000000000000000000000000000000000000000000000000000000000000000000000000000000000000000000000000000000000000000000000000000000000000000000000000000000000000000000000000000000000000000000000000000000000000000000000
310
00000000000000000000000000000000000000000000000000000000000000000000000000000000ED0000000000000000000000000000000000000000000000000000000000000000000000000000000000000000000000000000000000000000000000000000000000000000000000000000000000000000ED0000000000
310
00000000000000000000000000000000000000000000000000000000000000000000000000000000000000000000000000000000000000000000000000000000000000000000000000000000000000000000000000000000000000000000000000000000000000000000000000000000000000000000000000000000000000
310
000000000000000000000000000000000000000000000000000000000000000000000000000000000000ED0000000000000000000000000000000000000000000000000000000000000000000000000000000000000000000000000000000000000000000000000000000000000000000000000000000000000000ED000000
310
00000000000000000000000000000000000000000000000000000000000000000000000000000000000000000000000000000000000000000000000000000000000000000000000000000000000000000000000000000000000000000000000000000000000000000000000000000000000000000000000000000000000000
310
0000000000000000000000000000000000000000000000000000000000000000000000000000000000000000ED0000000000000000000000000000000000000000000000000000000000000000000000000000000000000000000000000000000000000000000000000000000000000000000000000000000000000000ED00
310
00000000000000000000000000000000000000000000000000000000000000000000000000000000000000000000000000000000000000000000000000000000000000000000000000000000000000000000000000000000000000000000000000000000000000000000000000000000000000000000000000000000000000
310
00000000000000000000000000000000000000000000000000000000000000000000000000000000000000000000ED0000000000000000000000000000000000000000000000000000000000000000000000000000000000000000000000000000000000000000000000000000000000000000000000000000000000000000
310
ED000000000000000000000000000000000000000000000000000000000000000000000000000000000000000000000000000000000000000000000000000000000000000000000000000000000000000000000000000000000000000000000000000000000000000000000000000000000000000000000000000000000000
310
000000000000000000000000000000000000000000000000000000000000000000000000000000000000000000000000ED000000000000000000000000000000000000000000000000000000000000000000000000000000000000000000000000000000000000000000000000000000000000000000000000000000000000
310
0000ED00000000000000000000000000000000000000000000000000000000000000000000000000000000000000000000000000000000000000000000000000000000000000000000000000000000000000000000000000000000000000000000000000000000000000000000000000000000000000000000000000000000
310
0000000000000000000000000000000000000000000000000000000000000000000000000000000000000000000000000000ED00000000000000000000000000000000000000000000000000000000000000000000000000000000000000000000000000000000000000000000000000000000000000000000000000000000
310
00000000ED0000000000000000000000000000000000000000000000000000000000000000000000000000000000000000000000000000000000000000000000000000000000000000000000000000000000000000000000000000000000000000000000000000000000000000000000000000000000000000000000000000
310
00000000000000000000000000000000000000000000000000000000000000000000000000000000000000000000000000000000ED0000000000000000000000000000000000000000000000000000000000000000000000000000000000000000000000000000000000000000000000000000000000000000000000000000
310
000000000000ED000000000000000000000000000000000000000000000000000000000000000000000000000000000000000000000000000000000000000000000000000000000000000000000000000000000000000000000000000000000000000000000000000000000000000000000000000000000000000000000000
310
000000000000000000000000000000000000000000000000000000000000000000000000000000000000000000000000000000000000ED000000000000000000000000000000000000000000000000000000000000000000000000000000000000000000000000000000000000000000000000000000000000000000000000
310
0000000000000000ED00000000000000000000000000000000000000000000000000000000000000000000000000000000000000000000000000000000000000000000000000000000000000000000000000000000000000000000000000000000000000000000000000000000000000000000000000000000000000000000
310
0000000000000000000000000000000000000000000000000000000000000000000000000000000000000000000000000000000000000000ED00000000000000000000000000000000000000000000000000000000000000000000000000000000000000000000000000000000000000000000000000000000000000000000
310
00000000000000000000ED0000000000000000000000000000000000000000000000000000000000000000000000000000000000000000000000000000000000000000000000000000000000000000000000000000000000000000000000000000000000000000000000000000000000000000000000000000000000000000
310
00000000000000000000000000000000000000000000000000000000000000000000000000000000000000000000000000000000000000000000ED0000000000000000000000000000000000000000000000000000000000000000000000000000000000000000000000000000000000000000000000000000000000000000
310
000000000000000000000000ED000000000000000000000000000000000000000000000000000000000000000000000000000000000000000000000000000000000000000000000000000000000000000000000000000000000000000000000000000000000000000000000000000000000000000000000000000000000000
310
000000000000000000000000000000000000000000000000000000000000000000000000000000000000000000000000000000000000000000000000ED000000000000000000000000000000000000000000000000000000000000000000000000000000000000000000000000000000000000000000000000000000000000
310
0000000000000000000000000000ED00000000000000000000000000000000000000000000000000000000000000000000000000000000000000000000000000000000000000000000000000000000000000000000000000000000000000000000000000000000000000000000000000000000000000000000000000000000
310
0000000000000000000000000000000000000000000000000000000000000000000000000000000000000000000000000000000000000000000000000000ED00000000000000000000000000000000000000000000000000000000000000000000000000000000000000000000000000000000000000000000000000000000
310
00000000000000000000000000000000ED0000000000000000000000000000000000000000000000000000000000000000000000000000000000000000000000000000000000000000000000000000000000000000000000000000000000000000000000000000000000000000000000000000000000000000000000000000
310
00000000000000000000000000000000000000000000000000000000000000000000000000000000000000000000000000000000000000000000000000000000ED0000000000000000000000000000000000000000000000000000000000000000000000000000000000000000000000000000000000000000000000000000
310
000000000000000000000000000000000000ED000000000000000000000000000000000000000000000000000000000000000000000000000000000000000000000000000000000000000000000000000000000000000000000000000000000000000000000000000000000000000000000000000000000000000000000000
310
000000000000000000000000000000000000000000000000000000000000000000000000000000000000000000000000000000000000000000000000000000000000ED000000000000000000000000000000000000000000000000000000000000000000000000000000000000000000000000000000000000000000000000
310
0000000000000000000000000000000000000000ED00000000000000000000000000000000000000000000000000000000000000000000000000000000000000000000000000000000000000000000000000000000000000000000000000000000000000000000000000000000000000000000000000000000000000000000
310
0000000000000000000000000000000000000000000000000000000000000000000000000000000000000000000000000000000000000000000000000000000000000000ED00000000000000000000000000000000000000000000000000000000000000000000000000000000000000000000000000000000000000000000
310
00000000000000000000000000000000000000000000ED0000000000000000000000000000000000000000000000000000000000000000000000000000000000000000000000000000000000000000000000000000000000000000000000000000000000000000000000000000000000000000000000000000000000000000
310
00000000000000000000000000000000000000000000000000000000000000000000000000000000000000000000000000000000000000000000000000000000000000000000ED0000000000000000000000000000000000000000000000000000000000000000000000000000000000000000000000000000000000000000
310
000000000000000000000000000000000000000000000000ED000000000000000000000000000000000000000000000000000000000000000000000000000000000000000000000000000000000000000000000000000000000000000000000000000000000000000000000000000000000000000000000000000000000000
310
000000000000000000000000000000000000000000000000000000000000000000000000000000000000000000000000000000000000000000000000000000000000000000000000ED000000000000000000000000000000000000000000000000000000000000000000000000000000000000000000000000000000000000
310
0000000000000000000000000000000000000000000000000000ED00000000000000000000000000000000000000000000000000000000000000000000000000000000000000000000000000000000000000000000000000000000000000000000000000000000000000000000000000000000000000000000000000000000
310
0000000000000000000000000000000000000000000000000000000000000000000000000000000000000000000000000000000000000000000000000000000000000000000000000000ED00000000000000000000000000000000000000000000000000000000000000000000000000000000000000000000000000000000
310
00000000000000000000000000000000000000000000000000000000ED0000000000000000000000000000000000000000000000000000000000000000000000000000000000000000000000000000000000000000000000000000000000000000000000000000000000000000000000000000000000000000000000000000
310
00000000000000000000000000000000000000000000000000000000000000000000000000000000000000000000000000000000000000000000000000000000000000000000000000000000ED0000000000000000000000000000000000000000000000000000000000000000000000000000000000000000000000000000
310
000000000000000000000000000000000000000000000000000000000000ED000000000000000000000000000000000000000000000000000000000000000000000000000000000000000000000000000000000000000000000000000000000000000000000000000000000000000000000000000000000000000000000000
310
000000000000000000000000000000000000000000000000000000000000000000000000000000000000000000000000000000000000000000000000000000000000000000000000000000000000ED000000000000000000000000000000000000000000000000000000000000000000000000000000000000000000000000
310
0000000000000000000000000000000000000000000000000000000000000000ED00000000000000000000000000000000000000000000000000000000000000000000000000000000000000000000000000000000000000000000000000000000000000000000000000000000000000000000000000000000000000000000
310
0000000000000000000000000000000000000000000000000000000000000000000000000000000000000000000000000000000000000000000000000000000000000000000000000000000000000000ED00000000000000000000000000000000000000000000000000000000000000000000000000000000000000000000
310
00000000000000000000000000000000000000000000000000000000000000000000ED0000000000000000000000000000000000000000000000000000000000000000000000000000000000000000000000000000000000000000000000000000000000000000000000000000000000000000000000000000000000000000
310
00000000000000000000000000000000000000000000000000000000000000000000000000000000000000000000000000000000000000000000000000000000000000000000000000000000000000000000ED0000000000000000000000000000000000000000000000000000000000000000000000000000000000000000
310
000000000000000000000000000000000000000000000000000000000000000000000000ED000000000000000000000000000000000000000000000000000000000000000000000000000000000000000000000000000000000000000000000000000000000000000000000000000000000000000000000000000000000000
310
000000000000000000000000000000000000000000000000000000000000000000000000000000000000000000000000000000000000000000000000000000000000000000000000000000000000000000000000ED000000000000000000000000000000000000000000000000000000000000000000000000000000000000
310
0000000000000000000000000000000000000000000000000000000000000000000000000000ED00000000000000000000000000000000000000000000000000000000000000000000000000000000000000000000000000000000000000000000000000000000000000000000000000000000000000000000000000000000
310
0000000000000000000000000000000000000000000000000000000000000000000000000000000000000000000000000000000000000000000000000000000000000000000000000000000000000000000000000000ED00000000000000000000000000000000000000000000000000000000000000000000000000000000
310
00000000000000000000000000000000000000000000000000000000000000000000000000000000ED0000000000000000000000000000000000000000000000000000000000000000000000000000000000000000000000000000000000000000000000000000000000000000000000000000000000000000000000000000
310
00000000000000000000000000000000000000000000000000000000000000000000000000000000000000000000000000000000000000000000000000000000000000000000000000000000000000000000000000000000ED0000000000000000000000000000000000000000000000000000000000000000000000000000
310
000000000000000000000000000000000000000000000000000000000000000000000000000000000000ED000000000000000000000000000000000000000000000000000000000000000000000000000000000000000000000000000000000000000000000000000000000000000000000000000000000000000000000000
310
000000000000000000000000000000000000000000000000000000000000000000000000000000000000000000000000000000000000000000000000000000000000000000000000000000000000000000000000000000000000ED000000000000000000000000000000000000000000000000000000000000000000000000
310
0000000000000000000000000000000000000000000000000000000000000000000000000000000000000000ED00000000000000000000000000000000000000000000000000000000000000000000000000000000000000000000000000000000000000000000000000000000000000000000000000000000000000000000
310
0000000000000000000000000000000000000000000000000000000000000000000000000000000000000000000000000000000000000000000000000000000000000000000000000000000000000000000000000000000000000000ED00000000000000000000000000000000000000000000000000000000000000000000
310
00000000000000000000000000000000000000000000000000000000000000000000000000000000000000000000ED00000000000000000000000000000000000000000000000000000000000000BEBEBEBEBE000000000000000000BEBEBEBEBE000000000000000000000000000000000000000000000000000000000000
310
00000000000000000000000000000000000000000000000000000000000000000000000000000000000000000000000000000000000000000000000000000000000000000000000000000000000000000000000000000000000000000000ED0000000000000000000000000000000000000000000000000000000000000000
310
000000000000000000000000000000000000000000000000000000000000000000000000000000000000000000000000ED000000000000000000000000000000000000000000000000000000000000BEBEBEBEBEBE0000000000000000BEBEBEBEBEBE00000000000000000000000000000000000000000000000000000000
310
000000000000000000000000000000000000000000000000000000000000000000000000000000000000000000000000000000000000000000000000000000000000000000000000000000000000000000000000000000000000000000000000ED000000000000000000000000000000000000000000000000000000000000
310
0000000000000000000000000000000000000000000000000000000000000000000000000000000000000000000000000000ED000000000000000000000000000000000000000000000000000000000000BEBEBEBEBEBEBE00000000000000BEBEBEBE28BEBE00000000000000000000000000000000000000000000000000
310
0000000000000000000000000000000000000000000000000000000000000000000000000000000000000000000000000000000000000000000000000000000000000000000000000000000000000000000000000000000000000000000000000000ED00000000000000000000000000000000000000000000000000000000
310
00000000000000000000000000000000000000000000000000000000000000000000000000000000000000000000000000000000ED000000000000000000000000000000000000000000000000000000000000BEBEBEBEBEBEBE00000000000000BEBEBEBEBEBEBE0000000000000000000000000000000000000000000000
310
00000000000000000000000000000000000000000000000000000000000000000000000000000000000000000000000000000000000000000000000000000000000000000000000000000000000000000000000000000000000000000000000000000000ED0000000000000000000000000000000000000000000000000000
310
000000000000000000000000000000000000000000000000000000000000000000000000000000000000000000000000000000000000ED00000000000000000000000000000000000000000000000000000000000028BEBEBEBEBEBE0000000000000028BEBEBEBEBEBE000000000000000000000000000000000000000000
310
000000000000000000000000000000000000000000000000000000000000000000000000000000000000000000000000000000000000000000000000000000000000000000000000000000000000000000000000000000000000000000000000000000000000ED000000000000000000000000000000000000000000000000
310
0000000000000000000000000000000000000000000000000000000000000000000000000000000000000000000000000000000000000000ED00000000000000000000000000000000000000000000000000000000000000BE28BEBEBE000000000000000000BEBE2828BE0000000000000000000000000000000000000000
310
0000000000000000000000000000000000000000000000000000000000000000000000000000000000000000000000000000000000000000000000000000000000000000000000000000000000000000000000000000000000000000000000000000000000000000ED00000000000000000000000000000000000000000000
310
00000000000000000000000000000000000000000000000000000000000000000000000000000000000000000000000000000000000000000000ED0000000000000000000000000000000000000000000000000000000000000000BEBEBEBE00000000000000000000BEBEBEBE000000000000000000000000000000000000
310
00000000000000000000000000000000000000000000000000000000000000000000000000000000000000000000000000000000000000000000000000000000000000000000000000000000000000000000000000000000000000000000000000000000000000000000ED0000000000000000000000000000000000000000
310
000000000000000000000000000000000000000000000000000000000000000000000000000000000000000000000000000000000000000000000000ED000000000000000000000000000000000000000000000000000000000000000000000000000000000000000000000000000000000000000000000000000000000000
310
000000000000000000000000000000000000000000000000000000000000000000000000000000000000000000000000000000000000000000000000000000000000000000000000000000000000000000000000000000000000000000000000000000000000000000000000ED000000000000000000000000000000000000
310
0000000000000000000000000000000000000000000000000000000000000000000000000000000000000000000000000000000000000000000000000000ED00000000000000000000000000000000000000000000000000000000000000000000000000000000000000000000000000000000000000000000000000000000
310
0000000000000000000000000000000000000000000000000000000000000000000000000000000000000000000000000000000000000000000000000000000000000000000000000000000000000000000000000000000000000000000000000000000000000000000000000000ED00000000000000000000000000000000
310
00000000000000000000000000000000000000000000000000000000000000000000000000000000000000000000000000000000000000000000000000000000ED0000000000000000000000000000000000000000000000000000000000000000000000000000000000000000000000000000000000000000000000000000
310
00000000000000000000000000000000000000000000000000000000000000000000000000000000000000000000000000000000000000000000000000000000000000000000000000000000000000000000000000000000000000000000000000000000000000000000000000000000ED0000000000000000000000000000
310
000000000000000000000000000000000000000000000000000000000000000000000000000000000000000000000000000000000000000000000000000000000000ED000000000000000000000000000000000000000000000000000000000000000000000000000000000000000000000000000000000000000000000000
310
000000000000000000000000000000000000000000000000000000000000000000000000000000000000000000000000000000000000000000000000000000000000000000000000000000000000000000000000000000000000000000000000000000000000000000000000000000000000ED000000000000000000000000
310
0000000000000000000000000000000000000000000000000000000000000000000000000000000000000000000000000000000000000000000000000000000000000000ED0000000000000000000000000000000000000000000000000000000000BEBEBEBEBEBEBEBE000000000000BEBEBEBEBEBEBEBE00000000000000
310
0000000000000000000000000000000000000000000000000000000000000000000000000000000000000000000000000000000000000000000000000000000000000000000000000000000000000000000000000000000000000000000000000000000000000000000000000000000000000000ED00000000000000000000
310
00000000000000000000000000000000000000000000000000000000000000000000000000000000000000000000000000000000000000000000000000000000000000000000ED0000000000000000000000000000000000000000000000000000000000BE000000000000BE000000000000BE000000000000BE0000000000
310
00000000000000000000000000000000000000000000000000000000000000000000000000000000000000000000000000000000000000000000000000000000000000000000000000000000000000000000000000000000000000000000000000000000000000000000000000000000000000000000ED0000000000000000
310
000000000000000000000000000000000000000000000000000000000000000000000000000000000000000000000000000000000000000000000000000000000000000000000000ED0000000000000000000000000000000000000000000000000000000000BE000000000000BE000000000000BE000000000000BE000000
310
000000000000000000000000000000000000000000000000000000000000000000000000000000000000000000000000000000000000000000000000000000000000000000000000000000000000000000000000000000000000000000000000000000000000000000000000000000000000000000000000ED000000000000
310
0000000000000000000000000000000000000000000000000000000000000000000000000000000000000000000000000000000000000000000000000000000000000000000000000000ED0000000000000000000000000000000000000000000000000000000000BE000000000000BE000000000000BE000000000000BE00
310
0000000000000000000000000000000000000000000000000000000000000000000000000000000000000000000000000000000000000000000000000000000000000000000000000000000000000000000000000000000000000000000000000000000000000000000000000000000000000000000000000000ED00000000
310
00000000000000000000000000000000000000000000000000000000000000000000000000000000000000000000000000000000000000000000000000000000000000000000000000000000ED0000000000000000000000000000000000000000000000000000000000BE000000000000BE000000000000BE000000000000
310
BE000000000000000000000000000000000000000000000000000000000000000000000000000000000000000000000000000000000000000000000000000000000000000000000000000000000000000000000000000000000000000000000000000000000000000000000000000000000000000000000000000000ED0000
310
000000000000000000000000000000000000000000000000000000000000000000000000000000000000000000000000000000000000000000000000000000000000000000000000000000000000ED0000000000000000000000000000000000000000000000000000000000BE000000000000BE000000000000BE00000000
310
0000BE000000000000000000000000000000000000000000000000000000000000000000000000000000000000000000000000000000000000000000000000000000000000000000000000000000000000000000000000000000000000000000000000000000000000000000000000000000000000000000000000000000ED
310
0000000000000000000000000000000000000000000000000000000000000000000000000000000000000000000000000000000000000000000000000000000000000000000000000000000000000000ED0000000000000000000000000000000000000000000000000000000000BE000000000000BE000000000000BE0000
310
00000000BE0000000000000000000000000000000000000000000000000000000000000000000000000000000000000000000000000000000000000000000000000000000000000000000000000000000000000000000000000000000000000000000000000000000000000000000000000000000000000000000000000000
310
00ED0000000000000000000000000000000000000000000000000000000000000000000000000000000000000000000000000000000000000000000000000000000000000000000000000000000000000000ED0000000000000000000000000000000000000000000000000000000000BE000000000000BE000000000000BE
310
BEBEBEBEBEBEBE000000000000000000000000000000000000000000000000000000000000000000000000000000000000000000000000000000000000000000000000000000000000000000000000000000000000000000000000000000000000000000000000000000000000000000000000000000000000000000000000
310
000000ED0000000000000000000000000000000000000000000000000000000000000000000000000000000000000000000000000000000000000000000000000000000000000000000000000000000000000000ED0000000000000000000000000000000000000000000000000000000000BE000000000000BE0000000000
310
00BEBEBEBEBEBEBEBE00000000000000000000000000000000000000000000000000000000000000000000000000000000000000000000000000000000000000000000000000000000000000000000000000000000000000000000000000000000000000000000000000000000000000000000000000000000000000000000
310
0000000000ED0000000000000000000000000000000000000000000000000000000000000000000000000000000000000000000000000000000000000000000000000000000000000000000000000000000000000000ED0000000000000000000000000000000000000000000000000000000000BE000000000000BE000000
310
00000000000000000000000000000000000000000000000000000000000000000000000000000000000000000000000000000000000000000000000000000000000000000000000000000000000000000000000000000000000000000000000000000000000000000000000000000000000000000000000000000000000000
310
00000000000000ED0000000000000000000000000000000000000000000000000000000000000000000000000000000000000000000000000000000000000000000000000000000000000000000000000000000000000000ED0000000000000000000000000000000000000000000000000000000000BE000000000000BE00
310
00000000000000000000000000000000000000000000000000000000000000000000000000000000000000000000000000000000000000000000000000000000000000000000000000000000000000000000000000000000000000000000000000000000000000000000000000000000000000000000000000000000000000
310
000000000000000000ED0000000000000000000000000000000000000000000000000000000000000000000000000000000000000000000000000000000000000000000000000000000000000000000000000000000000000000ED0000000000000000000000000000000000000000000000000000000000BE000000000000
310
BE000000000000000000000000000000000000000000000000000000000000000000000000000000000000000000000000000000000000000000000000000000000000000000000000000000000000000000000000000000000000000000000000000000000000000000000000000000000000000000000000000000000000
310
0000000000000000000000ED0000000000000000000000000000000000000000000000000000000000000000000000000000000000000000000000000000000000000000000000000000000000000000000000000000000000000000ED0000000000000000000000000000000000000000000000000000000000BE00000000
310
0000BE00000000000000000000000000000000000000000000000000000000000000000000000000000000000000000000000000000000000000000000000000000000000000000000000000000000000000000000000000000000000000000000000000000000000000000000000000000000000000000000000000000000
310
00000000000000000000000000ED0000000000000000000000000000000000000000000000000000000000000000000000000000000000000000000000000000000000000000000000000000000000000000000000000000000000000000ED0000000000000000000000000000000000000000000000000000000000BE0000
310
00000000BE0000000000000000000000000000000000000000000000000000000000000000000000000000000000000000000000000000000000000000000000000000000000000000000000000000000000000000000000000000000000000000000000000000000000000000000000000000000000000000000000000000
310
000000000000000000000000000000ED0000000000000000000000000000000000000000000000000000000000000000000000000000000000000000000000000000000000000000000000000000000000000000000000000000000000000000ED0000000000000000000000000000000000000000000000000000000000BE
310
000000000000BE000000000000000000000000000000000000000000000000000000000000000000000000000000000000000000000000000000000000000000000000000000000000000000000000000000000000000000000000000000000000000000000000000000000000000000000000000000000000000000000000
310
0000000000000000000000000000000000ED0000000000000000000000000000000000000000000000000000000000000000000000000000000000000000000000000000000000000000000000000000000000000000000000000000000000000000ED00000000000000000000000000000000000000000000000000000000
310
00BE000000000000BE00000000000000000000000000000000000000000000000000000000000000000000000000000000000000000000000000000000000000000000000000000000000000000000000000000000000000000000000000000000000000000000000000000000000000000000000000000000000000000000
310
00000000000000000000000000000000000000ED0000000000000000000000000000000000000000000000000000000000000000000000000000000000000000000000000000000000000000000000000000000000000000000000000000000000000000ED0000000000000000000000000000000000000000000000000000
310
000000BE000000000000BE0000000000000000000000000000000000000000000000000000000000000000000000000000000000000000000000000000000000000000000000000000000000000000000000000000000000000000000000000000000000000000000000000000000000000000000000000000000000000000
310
000000000000000000000000000000000000000000ED0000000000000000000000000000000000000000000000000000000000000000000000000000000000000000000000000000000000000000000000000000000000000000000000000000000000000000ED000000000000000000000000000000000000000000000000
310
0000000000BEBEBEBEBEBEBEBE000000000000000000000000000000000000000000000000000000000000000000000000000000000000000000000000000000000000000000000000000000000000000000000000000000000000000000000000000000000000000000000000000000000000000000000000000000000000
310
0000000000000000000000000000000000000000000000ED0000000000000000000000000000000000000000000000000000000000000000000000000000000000000000000000000000000000000000000000000000000000000000000000000000000000000000ED00000000000000000000000000000000000000000000
310
00000000000000BEBEBEBEBEBEBEBE00000000000000000000000000000000000000000000000000000000000000000000000000000000000000000000000000000000000000000000000000000000000000000000000000000000000000000000000000000000000000000000000000000000000000000000000000000000
310
00000000000000000000000000000000000000000000000000ED0000000000000000000000000000000000000000000000000000000000000000000000000000000000000000000000000000000000000000000000000000000000000000000000000000000000000000ED0000000000000000000000000000000000000000
310
00000000000000000000000000000000000000000000000000000000000000000000000000000000000000000000000000000000000000000000000000000000000000000000000000000000000000000000000000000000000000000000000000000000000000000000000000000000000000000000000000000000000000
310
000000000000000000000000000000000000000000000000000000ED0000000000000000000000000000000000000000000000000000000000000000000000000000000000000000000000000000000000000000000000000000000000000000000000000000000000000000ED000000000000000000000000000000000000
310
00000000000000000000000000000000000000000000000000000000000000000000000000000000000000000000000000000000000000000000000000000000000000000000000000000000000000000000000000000000000000000000000000000000000000000000000000000000000000000000000000000000000000
310
0000000000000000000000000000000000000000000000000000000000ED0000000000000000000000000000000000000000000000000000000000000000000000000000000000000000000000000000000000000000000000000000000000000000000000000000000000000000ED00000000000000000000000000000000
310
00000000000000000000000000000000000000000000000000000000000000000000000000000000000000000000000000000000000000000000000000000000000000000000000000000000000000000000000000000000000000000000000000000000000000000000000000000000000000000000000000000000000000
310
00000000000000000000000000000000000000000000000000000000000000ED0000000000000000000000000000000000000000000000000000000000000000000000000000000000000000000000000000000000000000000000000000000000000000000000000000000000000000ED0000000000000000000000000000
310
00000000000000000000000000000000000000000000000000000000000000000000000000000000000000000000000000000000000000000000000000000000000000000000000000000000000000000000000000000000000000000000000000000000000000000000000000000000000000000000000000000000000000
310
000000000000000000000000000000000000000000000000000000000000000000ED0000000000000000000000000000000000000000000000000000000000000000000000000000000000000000000000000000000000000000000000000000000000000000000000000000000000000000ED000000000000000000000000
310
00000000000000000000000000000000000000000000000000000000000000000000000000000000000000000000000000000000000000000000000000000000000000000000000000000000000000000000000000000000000000000000000000000000000000000000000000000000000000000000000000000000000000
310
0000000000000000000000000000000000000000000000000000000000000000000000ED0000000000000000000000000000000000000000000000000000000000000000000000000000000000000000000000000000000000000000000000000000000000000000000000000000000000000000ED00000000000000000000
310
00000000000000000000000000000000000000000000000000000000000000000000000000000000000000000000000000000000000000000000000000000000000000000000000000000000000000000000000000000000000000000000000000000000000000000000000000000000000000000000000000000000000000
310
00000000000000000000000000000000000000000000000000000000000000000000000000ED0000000000000000000000000000000000000000000000000000000000000000000000000000000000000000000000000000000000000000000000000000000000000000000000000000000000000000ED0000000000000000
310
00000000000000000000000000000000000000000000000000000000000000000000000000000000000000000000000000000000000000000000000000000000000000000000000000000000000000000000000000000000000000000000000000000000000000000000000000000000000000000000000000000000000000
310
000000000000000000000000000000000000000000000000000000000000000000000000000000ED0000000000000000000000000000000000000000000000000000000000000000000000000000000000000000000000000000000000000000000000000000000000000000000000000000000000000000ED000000000000
310
00000000000000000000000000000000000000000000000000000000000000000000000000000000000000000000000000000000000000000000000000000000000000000000000000000000000000000000000000000000000000000000000000000000000000000000000000000000000000000000000000000000000000
310
0000000000000000000000000000000000000000000000000000000000000000000000000000000000ED0000000000000000000000000000000000000000000000000000000000000000000000000000000000000000000000000000000000000000000000000000000000000000000000000000000000000000ED00000000
310
00000000000000000000000000000000000000000000000000000000000000000000000000000000000000000000000000000000000000000000000000000000000000000000000000000000000000000000000000000000000000000000000000000000000000000000000000000000000000000000000000000000000000
310
00000000000000000000000000000000000000000000000000000000000000000000000000000000000000ED0000000000000000000000000000000000000000000000000000000000000000000000000000000000000000000000000000000000000000000000000000000000000000000000000000000000000000ED0000
310
00000000000000000000000000000000000000000000000000000000000000000000000000000000000000000000000000000000000000000000000000000000000000000000000000000000000000000000000000000000000000000000000000000000000000000000000000000000000000000000000000000000000000
310
000000000000000000000000000000000000000000000000000000000000000000000000000000000000000000ED0000000000000000000000000000000000000000000000000000000000000000000000000000000000000000000000000000000000000000000000000000000000000000000000000000000000000000ED
310
00000000000000000000000000000000000000000000000000000000000000000000000000000000000000000000000000000000000000000000000000000000000000000000000000000000000000000000000000000000000000000000000000000000000000000000000000000000000000000000000000000000000000
310
0000000000000000000000000000000000000000000000000000000000000000000000000000000000000000000000ED00000000000000000000000000000000000000000000000000000000000000000000000000000000000000000000000000000000000000000000000000000000000000000000000000000000000000
310
00ED0000000000000000000000000000000000000000000000000000000000000000000000000000000000000000000000000000000000000000000000000000000000000000000000000000000000000000000000000000000000000000000000000000000000000000000000000000000000000000000000000000000000
310
00000000000000000000000000000000000000000000000000000000000000000000000000000000000000000000000000ED0000000000000000000000000000000000000000000000000000000000000000000000000000000000000000000000000000000000000000000000000000000000000000000000000000000000
310
000000ED000000000000000000000000000000000000000000000000000000000000000000000000000000000000000000000000000000000000000000000000000000000000000000000000000000000000000000000000000000000000000000000000000000000000000000000000000000000000000000000000000000
310
000000000000000000000000000000000000000000000000000000000000000000000000000000000000000000000000000000ED000000000000000000000000000000000000000000000000000000000000000000000000000000000000000000000000000000000000000000000000000000000000000000000000000000
310
0000000000ED00000000000000000000000000000000000000000000000000000000000000000000000000000000000000000000000000000000000000000000000000000000000000000000000000000000000000000000000000000000000000000000000000000000000000000000000000000000000000000000000000
310
0000000000000000000000000000000000000000000000000000000000000000000000000000000000000000000000000000000000ED00000000000000000000000000000000000000000000000000000000000000000000000000000000000000000000000000000000000000000000000000000000000000000000000000
310
00000000000000ED0000000000000000000000000000000000000000000000000000000000000000000000000000000000000000000000000000000000000000000000000000000000000000000000000000000000000000000000000000000000000000000000000000000000000000000000000000000000000000000000
310
00000000000000000000000000000000000000000000000000000000000000000000000000000000000000000000000000000000000000ED0000000000000000000000000000000000000000000000000000000000000000000000000000000000000000000000000000000000000000000000000000000000000000000000
310
000000000000000000ED000000000000000000000000000000000000000000000000000000000000000000000000000000000000000000000000000000000000000000000000000000000000000000000000000000000000000000000000000000000000000000000000000000000000000000000000000000000000000000
310
000000000000000000000000000000000000000000000000000000000000000000000000000000000000000000000000000000000000000000ED000000000000000000000000000000000000000000000000000000000000000000000000000000000000000000000000000000000000000000000000000000000000000000
310
0000000000000000000000ED00000000000000000000000000000000000000000000000000000000000000000000000000000000000000000000000000000000000000000000000000000000000000000000000000000000000000000000000000000000000000000000000000000000000000000000000000000000000000
310
0000000000000000000000000000000000000000000000000000000000000000000000000000000000000000000000000000000000000000000000ED00000000000000000000000000000000000000000000000000000000000000000000000000000000000000000000000000000000000000000000000000000000000000
310
00000000000000000000000000ED0000000000000000000000000000000000000000000000000000000000000000000000000000000000000000000000000000000000000000000000000000000000000000000000000000000000000000000000000000000000000000000000000000000000000000000000000000000000
310
00000000000000000000000000000000000000000000000000000000000000000000000000000000000000000000000000000000000000000000000000ED0000000000000000000000000000000000000000000000000000000000000000000000000000000000000000000000000000000000000000000000000000000000
310
000000000000000000000000000000ED000000000000000000000000000000000000000000000000000000000000000000000000000000000000000000000000000000000000000000000000000000000000000000000000000000000000000000000000000000000000000000000000000000000000000000000000000000
310
000000000000000000000000000000000000000000000000000000000000000000000000000000000000000000000000000000000000000000000000000000ED000000000000000000000000000000000000000000000000000000000000000000000000000000000000000000000000000000000000000000000000000000
310
0000000000000000000000000000000000ED00000000000000000000000000000000000000000000000000000000000000000000000000000000000000000000000000000000000000000000000000000000000000000000000000000000000000000000000000000000000000000000000000000000000000000000000000
310
0000000000000000000000000000000000000000000000000000000000000000000000000000000000000000000000000000000000000000000000000000000000ED00000000000000000000000000000000000000000000000000000000000000000000000000000000000000000000000000000000000000000000000000
310
00000000000000000000000000000000000000ED0000000000000000000000000000000000000000000000000000000000000000000000000000000000000000000000000000000000000000000000000000000000000000000000000000000000000000000000000000000000000000000000000000000000000000000000
310
00000000000000000000000000000000000000000000000000000000000000000000000000000000000000000000000000000000000000000000000000000000000000ED0000000000000000000000000000000000000000000000000000000000000000000000000000000000000000000000000000000000000000000000
310
000000000000000000000000000000000000000000ED000000000000000000000000000000000000000000000000000000000000000000000000000000000000000000000000000000000000000000000000000000000000000000000000000000000000000000000000000000000000000000000000000000000000000000
310
000000000000000000000000000000000000000000000000000000000000000000000000000000000000000000000000000000000000000000000000000000000000000000ED000000000000000000000000000000000000000000000000000000000000000000000000000000000000000000000000000000000000000000
310
0000000000000000000000000000000000000000000000ED00000000000000000000000000000000000000000000000000000000000000000000000000000000000000000000000000000000000000000000000000000000000000000000000000000000000000000000000000000000000000000000000000000000000000
310
0000000000000000000000000000000000000000000000000000000000000000000000000000000000000000000000000000000000000000000000000000000000000000000000ED00000000000000000000000000000000000000000000000000000000000000000000000000000000000000000000000000000000000000
310
00000000000000000000000000000000000000000000000000ED0000000000000000000000000000000000000000000000000000000000000000000000000000000000000000000000000000000000000000000000000000000000000000000000000000000000000000000000000000000000000000000000000000000000
310
00000000000000000000000000000000000000000000000000000000000000000000000000000000000000000000000000000000000000000000000000000000000000000000000000ED0000000000000000000000000000000000000000000000000000000000000000000000000000000000000000000000000000000000
310
000000000000000000000000000000000000000000000000000000ED000000000000000000000000000000000000000000000000000000000000000000000000000000000000000000000000000000000000000000000000000000000000000000000000000000000000000000000000000000000000000000000000000000
310
000000000000000000000000000000000000000000000000000000000000000000000000000000000000000000000000000000000000000000000000000000000000000000000000000000ED000000000000000000000000000000000000000000000000000000000000000000000000000000000000000000000000000000
310
0000000000000000000000000000000000000000000000000000000000ED00000000000000000000000000000000000000000000000000000000000000000000000000000000000000000000000000000000000000000000000000000000000000000000000000000000000000000000000000000000000000000000000000
310
0000000000000000000000000000000000000000000000000000000000000000000000000000000000000000000000000000000000000000000000000000000000000000000000000000000000ED00000000000000000000000000000000000000000000000000000000000000000000000000000000000000000000000000
310
00000000000000000000000000000000000000000000000000000000000000ED0000000000000000000000000000000000000000000000000000000000000000000000000000000000000000000000000000000000000000000000000000000000000000000000000000000000000000000000000000000000000000000000
310
00000000000000000000000000000000000000000000000000000000000000000000000000000000000000000000000000000000000000000000000000000000000000000000000000000000000000ED0000000000000000000000000000000000000000000000000000000000000000000000000000000000000000000000
310
000000000000000000000000000000000000000000000000000000000000000000ED000000000000000000000000000000000000000000000000000000000000000000000000000000000000000000000000000000000000000000000000000000000000000000000000000000000000000000000000000000000000000000
310
000000000000000000000000000000000000000000000000000000000000000000000000000000000000000000000000000000000000000000000000000000000000000000000000000000000000000000ED00000000000000000000000000000000000000000000000000F5EDEDEDEDEDEDEDEDEDEDEDEDEDEDEDEDEDEDED
310
EDEDEDEDEDEDEDEDEDEDEDEDEDEDEDEDEDEDEDEDEDEDEDEDEDEDEDEDEDEDEDEDEDEDEDED00000000000000000000000000000000000000000000000000000000000000000000000000000000000000000000000000000000000000000000000000000000000000000000000000000000000000000000000000000000000000
310
0000000000000000000000000000000000000000000000000000000000000000000000000000000000000000000000000000000000000000000000000000000000000000000000000000000000000000000000ED00000000000000000000000000000000000000000000000000F50000000000000000000000000000000000
310
00000000000000000000000000000000000000000000000000000000000000000000000000ED0000000000000000000000000000000000000000000000000000000000000000000000000000000000000000000000000000000000000000000000000000000000000000000000000000000000000000000000000000000000
310
00000000000000000000000000000000000000000000000000000000000000000000000000000000000000000000000000000000000000000000000000000000000000000000000000000000000000000000000000ED00000000000000000000000000000000000000000000000000F5E9E9E9E9E900000000000000000000
310
0000000000000000000000000000000000000000000000000000000000E9E9E9E9E9E9E9E9E900ED000000000000000000000000000000000000000000000000000000000000000000000000000000000000000000000000000000000000000000000000000000000000000000000000000000000000000000000000000000
310
000000000000000000000000000000000000000000000000000000000000000000000000000000000000000000000000000000000000000000000000000000000000000000000000000000000000000000000000000000ED00000000000000000000000000000000000000000000000000F5EDEDEDEDEDEDEDEDEDEDEDEDED
310
EDEDE2EDEDEDEDEDEDEDEDEDEDEDEDEDEDEDEDEDEDEDEDEDEDEDEDEDEDEDEDE9E9E9E9E9E9E9E9E9F0ED00000000000000000000000000000000000000000000000000000000000000000000000000000000000000000000000000000000000000000000000000000000000000000000000000000000000000000000000000
310
0000000000000000000000000000000000000000000000000000000000000000000000000000000000000000000000000000000000000000000000000000000000000000000000000000000000000000000000000000000000ED00000000000000000000000000000000000000000000000000F500000000000000E9E9E9E9
310
E9E90000E2E9E90000000000000000000000000000000000000000F0F0F0F0F0F0F0F0F000F0F0F0F0F0F0F00000000000000000000000000000000000000000000000000000000000000000000000000000000000000000000000000000000000000000000000000000000000000000000000000000000000000000000000
310
00000000000000000000000000000000000000000000000000000000000000000000000000000000000000000000000000000000000000000000000000000000000000000000000000000000000000000000000000000000000000ED00000000000000000000000000000000000000000000000000F5E9E9E9E90000000000
310
000000000000E2E9E9E9E9E9E900000000000000000000000000000000F0F0F0F0F0F0F0F0F0F0F0F0F0F0F000ED000000000000000000000000000000000000000000000000000000000000000000000000000000000000000000000000000000000000000000000000000000000000000000000000000000000000000000
310
000000000000000000000000000000000000000000000000000000000000000000000000000000000000000000000000000000000000000000000000000000000000000000000000000000000000000000000000000000000000000000EDEDEDEDEDEDEDEDEDEDEDEDEDEDEDEDEDEDEDEDEDEDEDEDEDEDF5EDEDEDEDEDEDED
310
EDEDEDEDEDEDEDEDE2E9EDEDEDEDEDEDEDEDEDEDEDEDEDEDEDEDEDEDEDEDEDEDEDEDEDEDEDEDEDEDEDEDEDEDEDEDEDED00000000000000000000000000000000000000000000000000000000000000000000000000000000000000000000000000000000000000000000000000000000000000000000000000000000000000
310
00000000000000000000000000000000000000000000000000000000000000000000000000000000000000000000000000000000000000000000000000000000000000000000000000000000000000000000000000000000000000000000000000000000000000000000000000000000000000000000000000000000000000
310
00000000000000000000000000000000000000000000000000000000000000000000000000000000000000000000000000000000000000000000000000000000000000000000000000000000000000000000000000000000000000000000000000000000000000000000000000000000000000000000000000000000000000
310
00000000000000000000000000000000000000000000000000000000000000000000000000000000000000000000000000000000000000000000000000000000000000000000000000000000000000000000000000000000000000000000000000000000000000000000000000000000000000000000000000000000000000
310
00000000000000000000000000000000000000000000000000000000000000000000000000000000000000000000000000000000000000000000000000000000000000000000000000000000000000000000000000000000000000000000000000000000000000000000000000000000000000000000000000000000000000
310
00000000000000000000000000000000000000000000000000000000000000000000000000000000000000000000000000000000000000000000000000000000000000000000000000000000000000000000000000000000000000000000000000000000000000000000000000000000000000000000000000000000000000
310
00000000000000000000000000000000000000000000000000000000000000000000000000000000000000000000000000000000000000000000000000000000000000000000000000000000000000000000000000000000000000000000000000000000000000000000000000000000000000000000000000000000000000
310
00000000000000000000000000000000000000000000000000000000000000000000000000000000000000000000000000000000000000000000000000000000000000000000000000000000000000000000000000000000000000000000000000000000000000000000000000000000000000000000000000000000000000
310
00000000000000000000000000000000000000000000000000000000000000000000000000000000000000000000000000000000000000000000000000000000000000000000000000000000000000000000000000000000000000000000000000000000000000000000000000000000000000000000000000000000000000
310
00000000000000000000000000000000000000000000000000000000000000000000000000000000000000000000000000000000000000000000000000000000000000000000000000000000000000000000000000000000000000000000000000000000000000000000000000000000000000000000000000000000000000
310
00000000000000000000000000000000000000000000000000000000000000000000000000000000000000000000000000000000000000000000000000000000000000000000000000000000000000000000000000000000000000000000000000000000000000000000000000000000000000000000000000000000000000
310
00000000000000000000000000000000000000000000000000000000000000000000000000000000000000000000000000000000000000000000000000000000000000000000000000000000000000000000000000000000000000000000000000000000000000000000000000000000000000000000000000000000000000
310
00000000000000000000000000000000000000000000000000000000000000000000000000000000000000000000000000000000000000000000000000000000000000000000000000000000000000000000000000000000000000000000000000000000000000000000000000000000000000000000000000000000000000
310
00000000000000000000000000000000000000000000000000000000000000000000000000000000000000000000000000000000000000000000000000000000000000000000000000000000000000000000000000000000000000000000000000000000000000000000000000000000000000000000000000000000000000
310
00000000000000000000000000000000000000000000000000000000000000000000000000000000000000000000000000000000000000000000000000000000000000000000000000000000000000000000000000000000000000000000000000000000000000000000000000000000000000000000000000000000000000
310
00000000000000000000000000000000000000000000000000000000000000000000000000000000000000000000000000000000000000000000000000000000000000000000000000000000000000000000000000000000000000000000000000000000000000000000000000000000000000000000000000000000000000
310
00000000000000000000000000000000000000000000000000000000000000000000000000000000000000000000000000000000000000000000000000000000000000000000000000000000000000000000000000000000000000000000000000000000000000000000000000000000000000000000000000000000000000
310
00000000000000000000000000000000000000000000000000000000000000000000000000000000000000000000000000000000000000000000000000000000000000000000000000000000000000000000000000000000000000000000000000000000000000000000000000000000000000000000000000000000000000
310
00000000000000000000000000000000000000000000000000000000000000000000000000000000000000000000000000000000000000000000000000000000000000000000000000000000000000000000000000000000000000000000000000000000000000000000000000000000000000000000000000000000000000
310
00000000000000000000000000000000000000000000000000000000000000000000000000000000000000000000000000000000000000000000000000000000000000000000000000000000000000000000000000000000000000000000000000000000000000000000000000000000000000000000000000000000000000
310
00000000000000000000000000000000000000000000000000000000000000000000000000000000000000000000000000000000000000000000000000000000000000000000000000000000000000000000000000000000000000000000000000000000000000000000000000000000000000000000000000000000000000
310
00000000000000000000000000000000000000000000000000000000000000000000000000000000000000000000000000000000000000000000000000000000000000000000000000000000000000000000000000000000000000000000000000000000000000000000000000000000000000000000000000000000000000
310
00000000000000000000000000000000000000000000000000000000000000000000000000000000000000000000000000000000000000000000000000000000000000000000000000000000000000000000000000000000000000000000000000000000000000000000000000000000000000000000000000000000000000
310
00000000000000000000000000000000000000000000000000000000000000000000000000000000000000000000000000000000000000000000000000000000000000000000000000000000000000000000000000000000000000000000000000000000000000000000000000000000000000000000000000000000000000
310
00000000000000000000000000000000000000000000000000000000000000000000000000000000000000000000000000000000000000000000000000000000000000000000000000000000000000000000000000000000000000000000000000000000000000000000000000000000000000000000000000000000000000
310
00000000000000000000000000000000000000000000000000000000000000000000000000000000000000000000000000000000000000000000000000000000000000000000000000000000000000000000000000000000000000000000000000000000000000000000000000000000000000000000000000000000000000
310
00000000000000000000000000000000000000000000000000000000000000000000000000000000000000000000000000000000000000000000000000000000000000000000000000000000000000000000000000000000000000000000000000000000000000000000000000000000000000000000000000000000000000
310
00000000000000000000000000000000000000000000000000000000000000000000000000000000000000000000000000000000000000000000000000000000000000000000000000000000000000000000000000000000000000000000000000000000000000000000000000000000000000000000000000000000000000
310
00000000000000000000000000000000000000000000000000000000000000000000000000000000000000000000000000000000000000000000000000000000000000000000000000000000000000000000000000000000000000000000000000000000000000000000000000000000000000000000000000000000000000
310
0000000000000000000000000000000000000000000000000000
  0
XRECORD
  5
A2ED
102
{ACAD_REACTORS
330
6B35
102
}
330
6B35
100
AcDbXrecord
280
     1
102
DISPLAYNAME
  1
Imperial24
102
FLAGS
 90
        0
  0
XRECORD
  5
A2EE
102
{ACAD_REACTORS
330
3778
102
}
330
3778
100
AcDbXrecord
280
     1
102
DISPLAYNAME
  1
Metric50
102
FLAGS
 90
        0
  0
ENDSEC
  0
EOF
