  0
SECTION
  2
HEADER
  9
$ACADVER
  1
AC1015
  9
$ACADMAINTVER
 70
     6
  9
$DWGCODEPAGE
  3
ANSI_1252
  9
$INSBASE
 10
0.0
 20
0.0
 30
0.0
  9
$EXTMIN
 10
0.0
 20
0.0
 30
0.0
  9
$EXTMAX
 10
1850.0
 20
1200.0
 30
0.0
  9
$LIMMIN
 10
0.0
 20
0.0
  9
$LIMMAX
 10
1850.0
 20
1200.0
  9
$ORTHOMODE
 70
     0
  9
$REGENMODE
 70
     1
  9
$FILLMODE
 70
     1
  9
$QTEXTMODE
 70
     0
  9
$MIRRTEXT
 70
     1
  9
$LTSCALE
 40
1.0
  9
$ATTMODE
 70
     1
  9
$TEXTSIZE
 40
3.5
  9
$TRACEWID
 40
1.0
  9
$TEXTSTYLE
  7
STANDARD
  9
$CLAYER
  8
0
  9
$CELTYPE
  6
ByLayer
  9
$CECOLOR
 62
   256
  9
$CELTSCALE
 40
1.0
  9
$DISPSILH
 70
     0
  9
$DIMSCALE
 40
1.0
  9
$DIMASZ
 40
3.302
  9
$DIMEXO
 40
1.0
  9
$DIMDLI
 40
3.75
  9
$DIMRND
 40
0.0
  9
$DIMDLE
 40
0.0
  9
$DIMEXE
 40
1.0
  9
$DIMTP
 40
0.0
  9
$DIMTM
 40
0.0
  9
$DIMTXT
 40
3.5
  9
$DIMCEN
 40
2.5
  9
$DIMTSZ
 40
0.0
  9
$DIMTOL
 70
     0
  9
$DIMLIM
 70
     0
  9
$DIMTIH
 70
     1
  9
$DIMTOH
 70
     1
  9
$DIMSE1
 70
     0
  9
$DIMSE2
 70
     0
  9
$DIMTAD
 70
     1
  9
$DIMZIN
 70
     1
  9
$DIMBLK
  1

  9
$DIMASO
 70
     1
  9
$DIMSHO
 70
     1
  9
$DIMPOST
  1

  9
$DIMAPOST
  1

  9
$DIMALT
 70
     0
  9
$DIMALTD
 70
     3
  9
$DIMALTF
 40
0.0393700787
  9
$DIMLFAC
 40
1.0
  9
$DIMTOFL
 70
     1
  9
$DIMTVP
 40
0.0
  9
$DIMTIX
 70
     0
  9
$DIMSOXD
 70
     0
  9
$DIMSAH
 70
     0
  9
$DIMBLK1
  1

  9
$DIMBLK2
  1

  9
$DIMSTYLE
  2
ISO-25
  9
$DIMCLRD
 70
     0
  9
$DIMCLRE
 70
     0
  9
$DIMCLRT
 70
     0
  9
$DIMTFAC
 40
1.0
  9
$DIMGAP
 40
1.524
  9
$DIMJUST
 70
     0
  9
$DIMSD1
 70
     0
  9
$DIMSD2
 70
     0
  9
$DIMTOLJ
 70
     0
  9
$DIMTZIN
 70
     1
  9
$DIMALTZ
 70
     0
  9
$DIMALTTZ
 70
     0
  9
$DIMUPT
 70
     0
  9
$DIMDEC
 70
     0
  9
$DIMTDEC
 70
     0
  9
$DIMALTU
 70
     2
  9
$DIMALTTD
 70
     3
  9
$DIMTXSTY
  7
STANDARD
  9
$DIMAUNIT
 70
     0
  9
$DIMADEC
 70
     0
  9
$DIMALTRND
 40
0.0
  9
$DIMAZIN
 70
     0
  9
$DIMDSEP
 70
    44
  9
$DIMATFIT
 70
     3
  9
$DIMFRAC
 70
     0
  9
$DIMLDRBLK
  1

  9
$DIMLUNIT
 70
     2
  9
$DIMLWD
 70
    -2
  9
$DIMLWE
 70
    -2
  9
$DIMTMOVE
 70
     0
  9
$LUNITS
 70
     2
  9
$LUPREC
 70
     4
  9
$SKETCHINC
 40
1.0
  9
$FILLETRAD
 40
10.0
  9
$AUNITS
 70
     0
  9
$AUPREC
 70
     0
  9
$MENU
  1
.
  9
$ELEVATION
 40
0.0
  9
$PELEVATION
 40
0.0
  9
$THICKNESS
 40
0.0
  9
$LIMCHECK
 70
     0
  9
$CHAMFERA
 40
10.0
  9
$CHAMFERB
 40
10.0
  9
$CHAMFERC
 40
20.0
  9
$CHAMFERD
 40
0.0
  9
$SKPOLY
 70
     0
  9
$TDCREATE
 40
2456744.486039583
  9
$TDUCREATE
 40
2456744.444372917
  9
$TDUPDATE
 40
2456744.486040197
  9
$TDUUPDATE
 40
2456744.44437353
  9
$TDINDWG
 40
0.0000000116
  9
$TDUSRTIMER
 40
0.0000000116
  9
$USRTIMER
 70
     1
  9
$ANGBASE
 50
0.0
  9
$ANGDIR
 70
     0
  9
$PDMODE
 70
     0
  9
$PDSIZE
 40
-1.0
  9
$PLINEWID
 40
0.0
  9
$SPLFRAME
 70
     0
  9
$SPLINETYPE
 70
     6
  9
$SPLINESEGS
 70
     8
  9
$HANDSEED
  5
23A
  9
$SURFTAB1
 70
     6
  9
$SURFTAB2
 70
     6
  9
$SURFTYPE
 70
     6
  9
$SURFU
 70
     6
  9
$SURFV
 70
     6
  9
$UCSBASE
  2

  9
$UCSNAME
  2

  9
$UCSORG
 10
0.0
 20
0.0
 30
0.0
  9
$UCSXDIR
 10
1.0
 20
0.0
 30
0.0
  9
$UCSYDIR
 10
0.0
 20
1.0
 30
0.0
  9
$UCSORTHOREF
  2

  9
$UCSORTHOVIEW
 70
     0
  9
$UCSORGTOP
 10
0.0
 20
0.0
 30
0.0
  9
$UCSORGBOTTOM
 10
0.0
 20
0.0
 30
0.0
  9
$UCSORGLEFT
 10
0.0
 20
0.0
 30
0.0
  9
$UCSORGRIGHT
 10
0.0
 20
0.0
 30
0.0
  9
$UCSORGFRONT
 10
0.0
 20
0.0
 30
0.0
  9
$UCSORGBACK
 10
0.0
 20
0.0
 30
0.0
  9
$PUCSBASE
  2

  9
$PUCSNAME
  2

  9
$PUCSORG
 10
0.0
 20
0.0
 30
0.0
  9
$PUCSXDIR
 10
1.0
 20
0.0
 30
0.0
  9
$PUCSYDIR
 10
0.0
 20
1.0
 30
0.0
  9
$PUCSORTHOREF
  2

  9
$PUCSORTHOVIEW
 70
     0
  9
$PUCSORGTOP
 10
0.0
 20
0.0
 30
0.0
  9
$PUCSORGBOTTOM
 10
0.0
 20
0.0
 30
0.0
  9
$PUCSORGLEFT
 10
0.0
 20
0.0
 30
0.0
  9
$PUCSORGRIGHT
 10
0.0
 20
0.0
 30
0.0
  9
$PUCSORGFRONT
 10
0.0
 20
0.0
 30
0.0
  9
$PUCSORGBACK
 10
0.0
 20
0.0
 30
0.0
  9
$USERI1
 70
     0
  9
$USERI2
 70
     0
  9
$USERI3
 70
     0
  9
$USERI4
 70
     0
  9
$USERI5
 70
     0
  9
$USERR1
 40
0.0
  9
$USERR2
 40
0.0
  9
$USERR3
 40
0.0
  9
$USERR4
 40
0.0
  9
$USERR5
 40
0.0
  9
$WORLDVIEW
 70
     1
  9
$SHADEDGE
 70
     3
  9
$SHADEDIF
 70
    70
  9
$TILEMODE
 70
     1
  9
$MAXACTVP
 70
    64
  9
$PINSBASE
 10
0.0
 20
0.0
 30
0.0
  9
$PLIMCHECK
 70
     0
  9
$PEXTMIN
 10
1.0000000000E+20
 20
1.0000000000E+20
 30
1.0000000000E+20
  9
$PEXTMAX
 10
-1.0000000000E+20
 20
-1.0000000000E+20
 30
-1.0000000000E+20
  9
$PLIMMIN
 10
0.0
 20
0.0
  9
$PLIMMAX
 10
420.0
 20
297.0
  9
$UNITMODE
 70
     0
  9
$VISRETAIN
 70
     1
  9
$PLINEGEN
 70
     0
  9
$PSLTSCALE
 70
     1
  9
$TREEDEPTH
 70
  3020
  9
$CMLSTYLE
  2
Standard
  9
$CMLJUST
 70
     0
  9
$CMLSCALE
 40
20.0
  9
$PROXYGRAPHICS
 70
     1
  9
$MEASUREMENT
 70
     1
  9
$CELWEIGHT
370
    -1
  9
$ENDCAPS
280
     0
  9
$JOINSTYLE
280
     0
  9
$LWDISPLAY
290
     1
  9
$INSUNITS
 70
     4
  9
$HYPERLINKBASE
  1

  9
$STYLESHEET
  1

  9
$XEDIT
290
     1
  9
$CEPSNTYPE
380
     0
  9
$PSTYLEMODE
290
     1
  9
$FINGERPRINTGUID
  2
{63CE0D2A-4EF8-4B70-B52B-29D7D2AB9961}
  9
$VERSIONGUID
  2
{FAEB1C32-E019-11D5-929B-00C0DF256EC4}
  9
$EXTNAMES
290
     1
  9
$PSVPSCALE
 40
0.0
  9
$OLESTARTUP
290
     0
  0
ENDSEC
  0
SECTION
  2
CLASSES
  0
CLASS
  1
ACDBDICTIONARYWDFLT
  2
AcDbDictionaryWithDefault
  3
ObjectDBX Classes
 90
        0
280
     0
281
     0
  0
CLASS
  1
VISUALSTYLE
  2
AcDbVisualStyle
  3
ObjectDBX Classes
 90
     4095
280
     0
281
     0
  0
CLASS
  1
MATERIAL
  2
AcDbMaterial
  3
ObjectDBX Classes
 90
     1153
280
     0
281
     0
  0
CLASS
  1
ACDBPLACEHOLDER
  2
AcDbPlaceHolder
  3
ObjectDBX Classes
 90
        0
280
     0
281
     0
  0
CLASS
  1
LAYOUT
  2
AcDbLayout
  3
ObjectDBX Classes
 90
        0
280
     0
281
     0
  0
ENDSEC
  0
SECTION
  2
TABLES
  0
TABLE
  2
VPORT
  5
8
330
0
100
AcDbSymbolTable
 70
     1
  0
VPORT
  5
29
330
8
100
AcDbSymbolTableRecord
100
AcDbViewportTableRecord
  2
*Active
 70
     0
 10
0.0
 20
0.0
 11
1.0
 21
1.0
 12
925.0
 22
600.0
 13
0.0
 23
0.0
 14
10.0
 24
10.0
 15
10.0
 25
10.0
 16
0.0
 26
0.0
 36
1.0
 17
0.0
 27
0.0
 37
0.0
 40
1200.0
 41
1.5416666667
 42
50.0
 43
0.0
 44
0.0
 50
0.0
 51
0.0
 71
     0
 72
  2000
 73
     1
 74
     3
 75
     0
 76
     0
 77
     0
 78
     0
281
     0
 65
     1
110
0.0
120
0.0
130
0.0
111
1.0
121
0.0
131
0.0
112
0.0
122
1.0
132
0.0
 79
     0
146
0.0
  0
ENDTAB
  0
TABLE
  2
LTYPE
  5
5
330
0
100
AcDbSymbolTable
 70
     8
  0
LTYPE
  5
14
330
5
100
AcDbSymbolTableRecord
100
AcDbLinetypeTableRecord
  2
ByBlock
 70
     0
  3

 72
    65
 73
     0
 40
0.0
  0
LTYPE
  5
15
330
5
100
AcDbSymbolTableRecord
100
AcDbLinetypeTableRecord
  2
ByLayer
 70
     0
  3

 72
    65
 73
     0
 40
0.0
  0
LTYPE
  5
16
330
5
100
AcDbSymbolTableRecord
100
AcDbLinetypeTableRecord
  2
Continuous
 70
     0
  3
Solid line
 72
    65
 73
     0
 40
0.0
  0
LTYPE
  5
3F
330
5
100
AcDbSymbolTableRecord
100
AcDbLinetypeTableRecord
  2
SLD-Continua
 70
     0
  3
SolidWorks Line Style
 72
    65
 73
     0
 40
0.0
  0
LTYPE
  5
40
330
5
100
AcDbSymbolTableRecord
100
AcDbLinetypeTableRecord
  2
SLD-Discontinua
 70
     0
  3
SolidWorks Line Style
 72
    65
 73
     2
 40
1.905
 49
1.27
 74
     0
 49
-0.635
 74
     0
  0
LTYPE
  5
41
330
5
100
AcDbSymbolTableRecord
100
AcDbLinetypeTableRecord
  2
SLD-Centrada-doble
 70
     0
  3
SolidWorks Line Style
 72
    65
 73
     6
 40
12.7
 49
6.35
 74
     0
 49
-1.27
 74
     0
 49
1.27
 74
     0
 49
-1.27
 74
     0
 49
1.27
 74
     0
 49
-1.27
 74
     0
  0
LTYPE
  5
42
330
5
100
AcDbSymbolTableRecord
100
AcDbLinetypeTableRecord
  2
SLD-Centrada-simple
 70
     0
  3
SolidWorks Line Style
 72
    65
 73
     4
 40
10.16
 49
6.35
 74
     0
 49
-1.27
 74
     0
 49
1.27
 74
     0
 49
-1.27
 74
     0
  0
LTYPE
  5
43
330
5
100
AcDbSymbolTableRecord
100
AcDbLinetypeTableRecord
  2
SLD-Centrada-trazos-largos
 70
     0
  3
SolidWorks Line Style
 72
    65
 73
     4
 40
19.05
 49
15.24
 74
     0
 49
-1.27
 74
     0
 49
1.27
 74
     0
 49
-1.27
 74
     0
  0
LTYPE
  5
44
330
5
100
AcDbSymbolTableRecord
100
AcDbLinetypeTableRecord
  2
SLD-Puntos
 70
     0
  3
SolidWorks Line Style
 72
    65
 73
     2
 40
0.635
 49
0.0
 74
     0
 49
-0.635
 74
     0
  0
LTYPE
  5
45
330
5
100
AcDbSymbolTableRecord
100
AcDbLinetypeTableRecord
  2
SLD-Delgada-Gruesa
 70
     0
  3
SolidWorks Line Style
 72
    65
 73
     4
 40
10.16
 49
6.35
 74
     0
 49
-1.27
 74
     0
 49
1.27
 74
     0
 49
-1.27
 74
     0
  0
ENDTAB
  0
TABLE
  2
LAYER
  5
2
330
0
100
AcDbSymbolTable
 70
     8
  0
LAYER
  5
10
330
2
100
AcDbSymbolTableRecord
100
AcDbLayerTableRecord
  2
0
 70
     0
 62
     7
  6
Continuous
370
    -3
390
F
  0
LAYER
  5
46
330
2
100
AcDbSymbolTableRecord
100
AcDbLayerTableRecord
  2
SLD-0
 70
     0
 62
   179
  6
SLD-Continua
370
    -3
390
F
  0
LAYER
  5
47
330
2
100
AcDbSymbolTableRecord
100
AcDbLayerTableRecord
  2
1
 70
     0
 62
     7
  6
SLD-Continua
370
    -3
390
F
  0
LAYER
  5
48
330
2
100
AcDbSymbolTableRecord
100
AcDbLayerTableRecord
  2
SLD-DEFPOINTS
 70
     0
 62
   179
  6
SLD-Continua
370
    -3
390
F
  0
LAYER
  5
49
330
2
100
AcDbSymbolTableRecord
100
AcDbLayerTableRecord
  2
TEXTO
 70
     0
 62
     8
  6
SLD-Continua
370
    -3
390
F
  0
LAYER
  5
4A
330
2
100
AcDbSymbolTableRecord
100
AcDbLayerTableRecord
  2
COTAS
 70
     0
 62
   250
  6
SLD-Continua
370
    -3
390
F
  0
LAYER
  5
4B
330
2
100
AcDbSymbolTableRecord
100
AcDbLayerTableRecord
  2
CAJETIN
 70
     0
 62
     9
  6
SLD-Continua
370
    -3
390
F
  0
LAYER
  5
4C
330
2
100
AcDbSymbolTableRecord
100
AcDbLayerTableRecord
  2
PIEZA
 70
     0
 62
   255
  6
SLD-Continua
370
    -3
390
F
  0
ENDTAB
  0
TABLE
  2
STYLE
  5
3
330
0
100
AcDbSymbolTable
 70
     3
  0
STYLE
  5
11
330
3
100
AcDbSymbolTableRecord
100
AcDbTextStyleTableRecord
  2
STANDARD
 70
     0
 40
0.0
 41
1.0
 50
0.0
 71
     0
 42
3.5
  3
GOTHIC.TTF
  4

1001
ACAD
1000
CENTURY GOTHIC
1071
       34
  0
STYLE
  5
1FF
330
3
100
AcDbSymbolTableRecord
100
AcDbTextStyleTableRecord
  2
SLDTEXTSTYLE0
 70
     0
 40
0.0
 41
1.0
 50
0.0
 71
     0
 42
0.2
  3
ARIAL.TTF
  4

1001
ACAD
1000
ARIAL
1071
      290
  0
STYLE
  5
20A
330
3
100
AcDbSymbolTableRecord
100
AcDbTextStyleTableRecord
  2
SLDTEXTSTYLE1
 70
     0
 40
0.0
 41
0.948
 50
0.0
 71
     0
 42
0.2
  3
ARIAL.TTF
  4

1001
ACAD
1000
ARIAL
1071
      290
  0
ENDTAB
  0
TABLE
  2
VIEW
  5
6
330
0
100
AcDbSymbolTable
 70
     0
  0
ENDTAB
  0
TABLE
  2
UCS
  5
7
330
0
100
AcDbSymbolTable
 70
     0
  0
ENDTAB
  0
TABLE
  2
APPID
  5
9
330
0
100
AcDbSymbolTable
 70
     1
  0
APPID
  5
12
330
9
100
AcDbSymbolTableRecord
100
AcDbRegAppTableRecord
  2
ACAD
 70
     0
  0
ENDTAB
  0
TABLE
  2
DIMSTYLE
  5
A
330
0
100
AcDbSymbolTable
 70
     2
100
AcDbDimStyleTable
  0
DIMSTYLE
105
27
330
A
100
AcDbSymbolTableRecord
100
AcDbDimStyleTableRecord
  2
ISO-25
 70
     0
 41
2.5
 42
0.625
 43
3.75
 44
1.25
 73
     0
 74
     0
 77
     1
 78
     8
140
2.5
141
2.5
143
0.0393700787
147
0.625
171
     3
172
     1
178
     0
271
     2
272
     2
274
     3
278
    44
283
     0
284
     8
340
11
  0
DIMSTYLE
105
200
102
{ACAD_REACTORS
330
1FE
330
20E
330
219
330
223
102
}
330
A
100
AcDbSymbolTableRecord
100
AcDbDimStyleTableRecord
  2
SLDDIMSTYLE0
 70
     0
 41
3.302
 44
0.0
 45
0.000000001
 73
     0
 74
     0
 77
     1
 78
    12
 79
     3
140
15.0
147
3.75
173
     1
178
     0
271
     0
272
     0
276
     2
284
    12
340
1FF
341
201
343
201
344
201
  0
ENDTAB
  0
TABLE
  2
BLOCK_RECORD
  5
1
330
0
100
AcDbSymbolTable
 70
     8
  0
BLOCK_RECORD
  5
1F
330
1
100
AcDbSymbolTableRecord
100
AcDbBlockTableRecord
  2
*Model_Space
340
22
  0
BLOCK_RECORD
  5
1B
330
1
100
AcDbSymbolTableRecord
100
AcDbBlockTableRecord
  2
*Paper_Space
340
1E
  0
BLOCK_RECORD
  5
23
330
1
100
AcDbSymbolTableRecord
100
AcDbBlockTableRecord
  2
*Paper_Space0
340
26
  0
BLOCK_RECORD
  5
201
330
1
100
AcDbSymbolTableRecord
100
AcDbBlockTableRecord
  2
_NONE
340
0
  0
BLOCK_RECORD
  5
204
330
1
100
AcDbSymbolTableRecord
100
AcDbBlockTableRecord
  2
_D
340
0
  0
BLOCK_RECORD
  5
20F
330
1
100
AcDbSymbolTableRecord
100
AcDbBlockTableRecord
  2
_D_1
340
0
  0
BLOCK_RECORD
  5
21A
330
1
100
AcDbSymbolTableRecord
100
AcDbBlockTableRecord
  2
_D_2
340
0
  0
BLOCK_RECORD
  5
224
330
1
100
AcDbSymbolTableRecord
100
AcDbBlockTableRecord
  2
_D_3
340
0
  0
BLOCK_RECORD
  5
22E
330
1
100
AcDbSymbolTableRecord
100
AcDbBlockTableRecord
  2
SW_NOTE_0
340
0
102
{BLKREFS
331
233
102
}
  0
BLOCK_RECORD
  5
234
330
1
100
AcDbSymbolTableRecord
100
AcDbBlockTableRecord
  2
SW_NOTE_1
340
0
102
{BLKREFS
331
239
102
}
  0
ENDTAB
  0
ENDSEC
  0
SECTION
  2
BLOCKS
  0
BLOCK
  5
20
330
1F
100
AcDbEntity
  8
0
100
AcDbBlockBegin
  2
*Model_Space
 70
     0
 10
0.0
 20
0.0
 30
0.0
  3
*Model_Space
  1

  0
ENDBLK
  5
21
330
1F
100
AcDbEntity
  8
0
100
AcDbBlockEnd
  0
BLOCK
  5
1C
330
1B
100
AcDbEntity
 67
     1
  8
0
100
AcDbBlockBegin
  2
*Paper_Space
 70
     0
 10
0.0
 20
0.0
 30
0.0
  3
*Paper_Space
  1

  0
ENDBLK
  5
1D
330
1B
100
AcDbEntity
 67
     1
  8
0
100
AcDbBlockEnd
  0
BLOCK
  5
24
330
23
100
AcDbEntity
  8
0
100
AcDbBlockBegin
  2
*Paper_Space0
 70
     0
 10
0.0
 20
0.0
 30
0.0
  3
*Paper_Space0
  1

  0
ENDBLK
  5
25
330
23
100
AcDbEntity
  8
0
100
AcDbBlockEnd
  0
BLOCK
  5
202
330
201
100
AcDbEntity
  8
0
100
AcDbBlockBegin
  2
_NONE
 70
     0
 10
0.0
 20
0.0
 30
0.0
  3
_NONE
  1

  0
ENDBLK
  5
203
330
201
100
AcDbEntity
  8
0
100
AcDbBlockEnd
  0
BLOCK
  5
205
330
204
100
AcDbEntity
  8
0
100
AcDbBlockBegin
  2
_D
 70
     0
 10
0.0
 20
0.0
 30
0.0
  3
_D
  1

  0
LINE
  5
207
330
204
100
AcDbEntity
  8
COTAS
100
AcDbLine
 10
1683.5247666972
 20
203.7835850873
 30
0.0
 11
1729.0113961497
 21
203.7835850873
 31
0.0
  0
LINE
  5
208
330
204
100
AcDbEntity
  8
COTAS
100
AcDbLine
 10
1370.0230119149
 20
839.4792855604
 30
0.0
 11
1729.0113961497
 21
839.4792855604
 31
0.0
  0
LINE
  5
209
330
204
100
AcDbEntity
  8
COTAS
100
AcDbLine
 10
1727.7613961497
 20
211.7835850873
 30
0.0
 11
1727.7613961497
 21
831.4792855604
 31
0.0
  0
MTEXT
  5
20B
330
204
100
AcDbEntity
  8
COTAS
100
AcDbMText
 10
1709.7995604306
 20
443.7155249778
 30
0.1
 40
15.0
 41
0.0
 71
     1
 72
     1
  1
Máx 2000 mm.
  7
SLDTEXTSTYLE1
 11
6.123233995736766E-17
 21
1.0
 31
0.0
 73
     1
 44
1.0
  0
SOLID
  5
20C
330
204
100
AcDbEntity
  8
COTAS
100
AcDbTrace
 10
1726.4280628163
 20
211.7835850873
 30
0.0
 11
1729.094729483
 21
211.7835850873
 31
0.0
 12
1727.7613961497
 22
203.7835850873
 32
0.0
 13
1727.7613961497
 23
203.7835850873
 33
0.0
  0
SOLID
  5
20D
330
204
100
AcDbEntity
  8
COTAS
100
AcDbTrace
 10
1726.4280628163
 20
831.4792855604
 30
0.0
 11
1729.094729483
 21
831.4792855604
 31
0.0
 12
1727.7613961497
 22
839.4792855604
 32
0.0
 13
1727.7613961497
 23
839.4792855604
 33
0.0
  0
ENDBLK
  5
206
330
204
100
AcDbEntity
  8
0
100
AcDbBlockEnd
  0
BLOCK
  5
210
330
20F
100
AcDbEntity
  8
0
100
AcDbBlockBegin
  2
_D_1
 70
     0
 10
0.0
 20
0.0
 30
0.0
  3
_D_1
  1

  0
LINE
  5
212
330
20F
100
AcDbEntity
  8
COTAS
100
AcDbLine
 10
206.5722431801
 20
229.0845711347
 30
0.0
 11
160.3441528113
 21
229.0845711347
 31
0.0
  0
LINE
  5
213
330
20F
100
AcDbEntity
  8
COTAS
100
AcDbLine
 10
181.4322071617
 20
203.9445351164
 30
0.0
 11
160.3441528113
 21
203.9445351164
 31
0.0
  0
LINE
  5
214
330
20F
100
AcDbEntity
  8
COTAS
100
AcDbLine
 10
161.5941528113
 20
211.9445351164
 30
0.0
 11
161.5941528113
 21
221.0845711347
 31
0.0
  0
LINE
  5
215
330
20F
100
AcDbEntity
  8
COTAS
100
AcDbLine
 10
161.5941528113
 20
229.0845711347
 30
0.0
 11
161.5941528113
 21
263.1320634132
 31
0.0
  0
MTEXT
  5
216
330
20F
100
AcDbEntity
  8
COTAS
100
AcDbMText
 10
143.6425490158
 20
239.4951318468
 30
0.1
 40
15.0
 41
0.0
 71
     1
 72
     1
  1
25
  7
SLDTEXTSTYLE1
 11
6.123233995736766E-17
 21
1.0
 31
0.0
 73
     1
 44
1.0
  0
SOLID
  5
217
330
20F
100
AcDbEntity
  8
COTAS
100
AcDbTrace
 10
160.2608194779
 20
211.9445351164
 30
0.0
 11
162.9274861446
 21
211.9445351164
 31
0.0
 12
161.5941528113
 22
203.9445351164
 32
0.0
 13
161.5941528113
 23
203.9445351164
 33
0.0
  0
SOLID
  5
218
330
20F
100
AcDbEntity
  8
COTAS
100
AcDbTrace
 10
160.2608194779
 20
221.0845711347
 30
0.0
 11
162.9274861446
 21
221.0845711347
 31
0.0
 12
161.5941528113
 22
229.0845711347
 32
0.0
 13
161.5941528113
 23
229.0845711347
 33
0.0
  0
ENDBLK
  5
211
330
20F
100
AcDbEntity
  8
0
100
AcDbBlockEnd
  0
BLOCK
  5
21B
330
21A
100
AcDbEntity
  8
0
100
AcDbBlockBegin
  2
_D_2
 70
     0
 10
0.0
 20
0.0
 30
0.0
  3
_D_2
  1

  0
LINE
  5
21D
330
21A
100
AcDbEntity
  8
COTAS
100
AcDbLine
 10
186.9728313663
 20
1094.2997261213
 30
0.0
 11
149.6705780681
 21
1094.2997261213
 31
0.0
  0
LINE
  5
21E
330
21A
100
AcDbEntity
  8
COTAS
100
AcDbLine
 10
186.9734749327
 20
1003.68410209
 30
0.0
 11
149.6705780681
 21
1003.68410209
 31
0.0
  0
LINE
  5
21F
330
21A
100
AcDbEntity
  8
COTAS
100
AcDbLine
 10
150.9205780681
 20
1086.2997261213
 30
0.0
 11
150.9205780681
 21
1011.68410209
 31
0.0
  0
MTEXT
  5
220
330
21A
100
AcDbEntity
  8
COTAS
100
AcDbMText
 10
132.9689742727
 20
1036.9076769459
 30
0.1
 40
15.0
 41
0.0
 71
     1
 72
     1
  1
90
  7
SLDTEXTSTYLE1
 11
6.123233995736766E-17
 21
1.0
 31
0.0
 73
     1
 44
1.0
  0
SOLID
  5
221
330
21A
100
AcDbEntity
  8
COTAS
100
AcDbTrace
 10
149.5872447348
 20
1086.2997261213
 30
0.0
 11
152.2539114015
 21
1086.2997261213
 31
0.0
 12
150.9205780681
 22
1094.2997261213
 32
0.0
 13
150.9205780681
 23
1094.2997261213
 33
0.0
  0
SOLID
  5
222
330
21A
100
AcDbEntity
  8
COTAS
100
AcDbTrace
 10
149.5872447348
 20
1011.68410209
 30
0.0
 11
152.2539114015
 21
1011.68410209
 31
0.0
 12
150.9205780681
 22
1003.68410209
 32
0.0
 13
150.9205780681
 23
1003.68410209
 33
0.0
  0
ENDBLK
  5
21C
330
21A
100
AcDbEntity
  8
0
100
AcDbBlockEnd
  0
BLOCK
  5
225
330
224
100
AcDbEntity
  8
0
100
AcDbBlockBegin
  2
_D_3
 70
     0
 10
0.0
 20
0.0
 30
0.0
  3
_D_3
  1

  0
LINE
  5
227
330
224
100
AcDbEntity
  8
COTAS
100
AcDbLine
 10
181.8962571327
 20
1003.5156970086
 30
0.0
 11
181.8962571327
 21
967.9240147632
 31
0.0
  0
LINE
  5
228
330
224
100
AcDbEntity
  8
COTAS
100
AcDbLine
 10
1682.8997666972
 20
1003.5156970086
 30
0.0
 11
1682.8997666972
 21
967.9240147632
 31
0.0
  0
LINE
  5
229
330
224
100
AcDbEntity
  8
COTAS
100
AcDbLine
 10
189.8962571327
 20
969.1740147632
 30
0.0
 11
1674.8997666972
 21
969.1740147632
 31
0.0
  0
MTEXT
  5
22A
330
224
100
AcDbEntity
  8
COTAS
100
AcDbMText
 10
908.2295375953
 20
987.1256185586
 30
0.1
 40
15.0
 41
0.0
 71
     1
 72
     1
  1
1500
  7
SLDTEXTSTYLE1
 73
     1
 44
1.0
  0
SOLID
  5
22B
330
224
100
AcDbEntity
  8
COTAS
100
AcDbTrace
 10
189.8962571327
 20
970.5073480965
 30
0.0
 11
189.8962571327
 21
967.8406814298
 31
0.0
 12
181.8962571327
 22
969.1740147632
 32
0.0
 13
181.8962571327
 23
969.1740147632
 33
0.0
  0
SOLID
  5
22C
330
224
100
AcDbEntity
  8
COTAS
100
AcDbTrace
 10
1674.8997666972
 20
970.5073480965
 30
0.0
 11
1674.8997666972
 21
967.8406814298
 31
0.0
 12
1682.8997666972
 22
969.1740147632
 32
0.0
 13
1682.8997666972
 23
969.1740147632
 33
0.0
  0
ENDBLK
  5
226
330
224
100
AcDbEntity
  8
0
100
AcDbBlockEnd
  0
BLOCK
  5
22F
330
22E
100
AcDbEntity
  8
0
100
AcDbBlockBegin
  2
SW_NOTE_0
 70
     0
 10
0.0
 20
0.0
 30
0.0
  3
SW_NOTE_0
  1

  0
MTEXT
  5
231
330
22E
100
AcDbEntity
  8
TEXTO
 62
     0
100
AcDbMText
 10
0.0
 20
9.0234741784
 30
0.0
 40
7.0
 41
0.0
 71
     1
 72
     1
  1
Escala 1/1
  7
SLDTEXTSTYLE0
 73
     1
 44
1.0
  0
MTEXT
  5
232
330
22E
100
AcDbEntity
  8
TEXTO
 62
     0
100
AcDbMText
 10
0.0
 20
-2.5965258264
 30
0.0
 40
7.0
 41
0.0
 71
     1
 72
     1
  1
Scale 1/1
  7
SLDTEXTSTYLE0
 73
     1
 44
1.0
  0
ENDBLK
  5
230
330
22E
100
AcDbEntity
  8
0
100
AcDbBlockEnd
  0
BLOCK
  5
235
330
234
100
AcDbEntity
  8
0
100
AcDbBlockBegin
  2
SW_NOTE_1
 70
     0
 10
0.0
 20
0.0
 30
0.0
  3
SW_NOTE_1
  1

  0
MTEXT
  5
237
330
234
100
AcDbEntity
  8
TEXTO
 62
     0
100
AcDbMText
 10
0.0
 20
9.0234741784
 30
0.0
 40
7.0
 41
0.0
 71
     1
 72
     1
  1
Unidades: mm.
  7
SLDTEXTSTYLE0
 73
     1
 44
1.0
  0
MTEXT
  5
238
330
234
100
AcDbEntity
  8
TEXTO
 62
     0
100
AcDbMText
 10
0.0
 20
-2.5965258264
 30
0.0
 40
7.0
 41
0.0
 71
     1
 72
     1
  1
Units: mm.
  7
SLDTEXTSTYLE0
 73
     1
 44
1.0
  0
ENDBLK
  5
236
330
234
100
AcDbEntity
  8
0
100
AcDbBlockEnd
  0
ENDSEC
  0
SECTION
  2
ENTITIES
  0
LINE
  5
4D
330
1F
100
AcDbEntity
  8
COTAS
100
AcDbLine
 10
1677.1975488971
 20
869.4792855604
 30
0.0
 11
187.5984749327
 21
869.4792855604
 31
0.0
  0
LINE
  5
4E
330
1F
100
AcDbEntity
  8
COTAS
100
AcDbLine
 10
187.5984749327
 20
869.4792855604
 30
0.0
 11
187.5984749327
 21
839.4792855604
 31
0.0
  0
LINE
  5
4F
330
1F
100
AcDbEntity
  8
COTAS
100
AcDbLine
 10
187.5984749327
 20
839.4792855604
 30
0.0
 11
1677.1975488971
 21
839.4792855604
 31
0.0
  0
LINE
  5
50
330
1F
100
AcDbEntity
  8
COTAS
100
AcDbLine
 10
1677.1975488971
 20
839.4792855604
 30
0.0
 11
1677.1975488971
 21
869.4792855604
 31
0.0
  0
LINE
  5
51
330
1F
100
AcDbEntity
  8
CAJETIN
100
AcDbLine
 10
15.0
 20
15.0
 30
0.0
 11
1835.477928841
 21
15.0
 31
0.0
  0
LINE
  5
52
330
1F
100
AcDbEntity
  8
CAJETIN
100
AcDbLine
 10
15.0
 20
1187.3907558017
 30
0.0
 11
15.0
 21
15.0
 31
0.0
  0
LINE
  5
53
330
1F
100
AcDbEntity
  8
CAJETIN
100
AcDbLine
 10
1415.477928841
 20
44.9999997375
 30
0.0
 11
1835.477928841
 21
44.9999997375
 31
0.0
  0
LINE
  5
54
330
1F
100
AcDbEntity
  8
CAJETIN
100
AcDbLine
 10
1415.4779335713
 20
74.9999995005
 30
0.0
 11
1835.4779335713
 21
74.9999995005
 31
0.0
  0
LINE
  5
55
330
1F
100
AcDbEntity
  8
CAJETIN
100
AcDbLine
 10
15.0
 20
1187.3907558017
 30
0.0
 11
1835.477928841
 21
1187.3907558017
 31
0.0
  0
LINE
  5
56
330
1F
100
AcDbEntity
  8
CAJETIN
100
AcDbLine
 10
1415.4779335713
 20
74.9999995005
 30
0.0
 11
1415.4779335713
 21
15.0000003307
 31
0.0
  0
LINE
  5
57
330
1F
100
AcDbEntity
  8
CAJETIN
100
AcDbLine
 10
1835.477928841
 20
1187.3907558017
 30
0.0
 11
1835.477928841
 21
15.0
 31
0.0
  0
LINE
  5
58
330
1F
100
AcDbEntity
  8
PIEZA
  6
SLD-Continua
100
AcDbLine
 10
1364.5230119149
 20
809.6792855604
 30
0.0
 11
1364.2230119149
 21
809.9792855604
 31
0.0
  0
LINE
  5
59
330
1F
100
AcDbEntity
  8
PIEZA
  6
SLD-Continua
100
AcDbLine
 10
1358.6480119149
 20
812.6792855604
 30
0.0
 11
1358.6480119149
 21
809.9792855604
 31
0.0
  0
LINE
  5
5A
330
1F
100
AcDbEntity
  8
PIEZA
  6
SLD-Continua
100
AcDbLine
 10
1366.3980119149
 20
816.9792855604
 30
0.0
 11
1366.3980119149
 21
837.4792855604
 31
0.0
  0
LINE
  5
5B
330
1F
100
AcDbEntity
  8
PIEZA
  6
SLD-Continua
100
AcDbLine
 10
1358.5730119149
 20
809.9792855604
 30
0.0
 11
1358.2730119149
 21
809.6792855604
 31
0.0
  0
LINE
  5
5C
330
1F
100
AcDbEntity
  8
PIEZA
  6
SLD-Continua
100
AcDbLine
 10
1364.1480119149
 20
812.6792855604
 30
0.0
 11
1363.8480119149
 21
812.9792855604
 31
0.0
  0
LINE
  5
5D
330
1F
100
AcDbEntity
  8
PIEZA
  6
SLD-Continua
100
AcDbLine
 10
1365.6480119149
 20
229.2835850873
 30
0.0
 11
1365.6480119149
 21
247.2507423748
 31
0.0
  0
LINE
  5
5E
330
1F
100
AcDbEntity
  8
PIEZA
  6
SLD-Continua
100
AcDbLine
 10
1357.1480119149
 20
247.2507423748
 30
0.0
 11
1357.1480119149
 21
229.2835850873
 31
0.0
  0
LINE
  5
5F
330
1F
100
AcDbEntity
  8
PIEZA
  6
SLD-Continua
100
AcDbLine
 10
500.2730119149
 20
809.6792855604
 30
0.0
 11
500.2730119149
 21
805.2792855604
 31
0.0
  0
LINE
  5
60
330
1F
100
AcDbEntity
  8
PIEZA
  6
SLD-Continua
100
AcDbLine
 10
1356.3980119149
 20
837.4792855604
 30
0.0
 11
1356.3980119149
 21
816.9792855604
 31
0.0
  0
LINE
  5
61
330
1F
100
AcDbEntity
  8
PIEZA
  6
SLD-Continua
100
AcDbLine
 10
1353.3980119149
 20
839.4792855604
 30
0.0
 11
1353.3980119149
 21
838.4792855604
 31
0.0
  0
LINE
  5
62
330
1F
100
AcDbEntity
  8
PIEZA
  6
SLD-Continua
100
AcDbLine
 10
506.5230119149
 20
805.2792855604
 30
0.0
 11
506.5230119149
 21
809.6792855604
 31
0.0
  0
LINE
  5
63
330
1F
100
AcDbEntity
  8
PIEZA
  6
SLD-Continua
100
AcDbLine
 10
505.3980119149
 20
812.9792894667
 30
0.0
 11
505.3980119149
 21
814.4792855604
 31
0.0
  0
LINE
  5
64
330
1F
100
AcDbEntity
  8
PIEZA
  6
SLD-Continua
100
AcDbLine
 10
501.3980119149
 20
814.4792855604
 30
0.0
 11
501.3980119149
 21
812.9792894667
 31
0.0
  0
LINE
  5
65
330
1F
100
AcDbEntity
  8
PIEZA
  6
SLD-Continua
100
AcDbLine
 10
1360.1808546274
 20
250.2835850873
 30
0.0
 11
1357.1480119149
 21
247.2507423748
 31
0.0
  0
LINE
  5
66
330
1F
100
AcDbEntity
  8
PIEZA
  6
SLD-Continua
100
AcDbLine
 10
1365.6480119149
 20
247.2507423748
 30
0.0
 11
1362.6151692024
 21
250.2835850873
 31
0.0
  0
LINE
  5
67
330
1F
100
AcDbEntity
  8
PIEZA
  6
SLD-Continua
100
AcDbLine
 10
1369.3980119149
 20
838.4792855604
 30
0.0
 11
1369.3980119149
 21
839.4792855604
 31
0.0
  0
LINE
  5
68
330
1F
100
AcDbEntity
  8
PIEZA
  6
SLD-Continua
100
AcDbLine
 10
1358.9480119149
 20
812.9792855604
 30
0.0
 11
1358.6480119149
 21
812.6792855604
 31
0.0
  0
LINE
  5
69
330
1F
100
AcDbEntity
  8
PIEZA
  6
SLD-Continua
100
AcDbLine
 10
1364.1480119149
 20
809.9792855604
 30
0.0
 11
1364.1480119149
 21
812.6792855604
 31
0.0
  0
LINE
  5
6A
330
1F
100
AcDbEntity
  8
PIEZA
  6
SLD-Continua
100
AcDbLine
 10
508.3980119149
 20
814.4792855604
 30
0.0
 11
508.3980119149
 21
816.4792855604
 31
0.0
  0
LINE
  5
6B
330
1F
100
AcDbEntity
  8
PIEZA
  6
SLD-Continua
100
AcDbLine
 10
498.3980119149
 20
816.4792855604
 30
0.0
 11
498.3980119149
 21
814.4792855604
 31
0.0
  0
LINE
  5
6C
330
1F
100
AcDbEntity
  8
PIEZA
  6
SLD-Continua
100
AcDbLine
 10
500.5730119149
 20
809.9792855604
 30
0.0
 11
500.2730119149
 21
809.6792855604
 31
0.0
  0
LINE
  5
6D
330
1F
100
AcDbEntity
  8
PIEZA
  6
SLD-Continua
100
AcDbLine
 10
500.2730119149
 20
805.0792855604
 30
0.0
 11
500.5730119149
 21
804.7792855604
 31
0.0
  0
LINE
  5
6E
330
1F
100
AcDbEntity
  8
PIEZA
  6
SLD-Continua
100
AcDbLine
 10
506.2230119149
 20
804.7792855604
 30
0.0
 11
506.5230119149
 21
805.0792855604
 31
0.0
  0
LINE
  5
6F
330
1F
100
AcDbEntity
  8
PIEZA
  6
SLD-Continua
100
AcDbLine
 10
506.5230119149
 20
809.6792855604
 30
0.0
 11
506.2230119149
 21
809.9792855604
 31
0.0
  0
LINE
  5
70
330
1F
100
AcDbEntity
  8
PIEZA
  6
SLD-Continua
100
AcDbLine
 10
500.6480119149
 20
812.6792855604
 30
0.0
 11
500.6480119149
 21
809.9792855604
 31
0.0
  0
LINE
  5
71
330
1F
100
AcDbEntity
  8
PIEZA
  6
SLD-Continua
 62
     8
100
AcDbLine
 10
1361.8980119149
 20
250.3020616498
 30
0.0
 11
1361.8980119149
 21
804.7792855604
 31
0.0
  0
LINE
  5
72
330
1F
100
AcDbEntity
  8
PIEZA
  6
SLD-Continua
100
AcDbLine
 10
506.1480119149
 20
809.9792855604
 30
0.0
 11
506.1480119149
 21
812.6792855604
 31
0.0
  0
LINE
  5
73
330
1F
100
AcDbEntity
  8
PIEZA
  6
SLD-Continua
100
AcDbLine
 10
506.1480119149
 20
812.6792855604
 30
0.0
 11
505.8480119149
 21
812.9792855604
 31
0.0
  0
LINE
  5
74
330
1F
100
AcDbEntity
  8
PIEZA
  6
SLD-Continua
 62
     8
100
AcDbLine
 10
503.8980119149
 20
250.3020616498
 30
0.0
 11
503.8980119149
 21
804.7792855604
 31
0.0
  0
LINE
  5
75
330
1F
100
AcDbEntity
  8
PIEZA
  6
SLD-Continua
 62
     8
100
AcDbLine
 10
1360.8980119149
 20
804.7792855604
 30
0.0
 11
1360.8980119149
 21
250.3020616498
 31
0.0
  0
LINE
  5
76
330
1F
100
AcDbEntity
  8
PIEZA
  6
SLD-Continua
100
AcDbLine
 10
500.9480119149
 20
812.9792855604
 30
0.0
 11
500.6480119149
 21
812.6792855604
 31
0.0
  0
LINE
  5
77
330
1F
100
AcDbEntity
  8
PIEZA
  6
SLD-Continua
100
AcDbLine
 10
1359.3980119149
 20
814.4792855604
 30
0.0
 11
1359.3980119149
 21
812.9794519667
 31
0.0
  0
LINE
  5
78
330
1F
100
AcDbEntity
  8
PIEZA
  6
SLD-Continua
100
AcDbLine
 10
1363.3980119149
 20
812.9794519667
 30
0.0
 11
1363.3980119149
 21
814.4792855604
 31
0.0
  0
LINE
  5
79
330
1F
100
AcDbEntity
  8
PIEZA
  6
SLD-Continua
100
AcDbLine
 10
1366.3980119149
 20
814.4792855604
 30
0.0
 11
1366.3980119149
 21
816.4792855604
 31
0.0
  0
LINE
  5
7A
330
1F
100
AcDbEntity
  8
PIEZA
  6
SLD-Continua
100
AcDbLine
 10
1358.2730119149
 20
809.6792855604
 30
0.0
 11
1358.2730119149
 21
805.2792855604
 31
0.0
  0
LINE
  5
7B
330
1F
100
AcDbEntity
  8
PIEZA
  6
SLD-Continua
100
AcDbLine
 10
1364.5230119149
 20
805.2792855604
 30
0.0
 11
1364.5230119149
 21
809.6792855604
 31
0.0
  0
LINE
  5
7C
330
1F
100
AcDbEntity
  8
PIEZA
  6
SLD-Continua
100
AcDbLine
 10
574.8345421418
 20
797.4792627876
 30
0.0
 11
575.1436725135
 21
785.6740501707
 31
0.0
  0
LINE
  5
7D
330
1F
100
AcDbEntity
  8
PIEZA
  6
SLD-Continua
100
AcDbLine
 10
587.1538726951
 20
785.6740501707
 30
0.0
 11
587.4630020555
 21
797.4792241676
 31
0.0
  0
LINE
  5
7E
330
1F
100
AcDbEntity
  8
PIEZA
  6
SLD-Continua
100
AcDbLine
 10
1653.8484698539
 20
227.3348819306
 30
0.0
 11
1653.8466847805
 21
227.3348195945
 31
0.0
  0
LINE
  5
7F
330
1F
100
AcDbEntity
  8
PIEZA
  6
SLD-Continua
100
AcDbLine
 10
1356.3980119149
 20
816.4792855604
 30
0.0
 11
1356.3980119149
 21
814.4792855604
 31
0.0
  0
LINE
  5
80
330
1F
100
AcDbEntity
  8
PIEZA
  6
SLD-Continua
100
AcDbLine
 10
507.6480119149
 20
247.2507423748
 30
0.0
 11
504.6151692024
 21
250.2835850873
 31
0.0
  0
LINE
  5
81
330
1F
100
AcDbEntity
  8
PIEZA
  6
SLD-Continua
100
AcDbLine
 10
502.1808546274
 20
250.2835850873
 30
0.0
 11
499.1480119149
 21
247.2507423748
 31
0.0
  0
LINE
  5
82
330
1F
100
AcDbEntity
  8
PIEZA
  6
SLD-Continua
100
AcDbLine
 10
507.6480119149
 20
243.081224805
 30
0.0
 11
507.6480119149
 21
247.2507423748
 31
0.0
  0
LINE
  5
83
330
1F
100
AcDbEntity
  8
PIEZA
  6
SLD-Continua
100
AcDbLine
 10
507.6480119149
 20
229.2835850873
 30
0.0
 11
507.6480119149
 21
238.9571035103
 31
0.0
  0
LINE
  5
84
330
1F
100
AcDbEntity
  8
PIEZA
  6
SLD-Continua
100
AcDbLine
 10
499.1480119149
 20
247.2507423748
 30
0.0
 11
499.1480119149
 21
229.2835850873
 31
0.0
  0
LINE
  5
85
330
1F
100
AcDbEntity
  8
PIEZA
  6
SLD-Continua
100
AcDbLine
 10
511.3980119149
 20
838.4792855604
 30
0.0
 11
511.3980119149
 21
839.4792855604
 31
0.0
  0
LINE
  5
86
330
1F
100
AcDbEntity
  8
PIEZA
  6
SLD-Continua
100
AcDbLine
 10
495.3980119149
 20
839.4792855604
 30
0.0
 11
495.3980119149
 21
838.4792855604
 31
0.0
  0
LINE
  5
87
330
1F
100
AcDbEntity
  8
PIEZA
  6
SLD-Continua
100
AcDbLine
 10
508.3980119149
 20
816.9792855604
 30
0.0
 11
508.3980119149
 21
837.4792855604
 31
0.0
  0
LINE
  5
88
330
1F
100
AcDbEntity
  8
PIEZA
  6
SLD-Continua
100
AcDbLine
 10
498.3980119149
 20
837.4792855604
 30
0.0
 11
498.3980119149
 21
816.9792855604
 31
0.0
  0
LINE
  5
89
330
1F
100
AcDbEntity
  8
PIEZA
  6
SLD-Continua
100
AcDbLine
 10
1358.2730119149
 20
805.0792855604
 30
0.0
 11
1358.5730119149
 21
804.7792855604
 31
0.0
  0
LINE
  5
8A
330
1F
100
AcDbEntity
  8
PIEZA
  6
SLD-Continua
100
AcDbLine
 10
1364.2230119149
 20
804.7792855604
 30
0.0
 11
1364.5230119149
 21
805.0792855604
 31
0.0
  0
LINE
  5
8B
330
1F
100
AcDbEntity
  8
PIEZA
  6
SLD-Continua
100
AcDbLine
 10
586.9539412302
 20
785.4792855604
 30
0.0
 11
575.3436039785
 21
785.4792855604
 31
0.0
  0
LINE
  5
8C
330
1F
100
AcDbEntity
  8
PIEZA
  6
SLD-Continua
100
AcDbLine
 10
548.2414251693
 20
797.4792855604
 30
0.0
 11
542.4434126844
 21
797.4792855604
 31
0.0
  0
LINE
  5
8D
330
1F
100
AcDbEntity
  8
PIEZA
  6
SLD-Continua
100
AcDbLine
 10
753.1508286545
 20
839.4792855604
 30
0.0
 11
547.1467165542
 21
839.4792855604
 31
0.0
  0
LINE
  5
8E
330
1F
100
AcDbEntity
  8
PIEZA
  6
SLD-Continua
100
AcDbLine
 10
541.1487726043
 20
839.4792855604
 30
0.0
 11
547.1467165542
 21
839.4792855604
 31
0.0
  0
LINE
  5
8F
330
1F
100
AcDbEntity
  8
PIEZA
  6
SLD-Continua
100
AcDbLine
 10
759.1487726043
 20
839.4792855604
 30
0.0
 11
753.1508286545
 21
839.4792855604
 31
0.0
  0
LINE
  5
90
330
1F
100
AcDbEntity
  8
PIEZA
  6
SLD-Continua
100
AcDbLine
 10
758.0540639892
 20
797.6740501707
 30
0.0
 11
759.1487726043
 21
839.4792855604
 31
0.0
  0
LINE
  5
91
330
1F
100
AcDbEntity
  8
PIEZA
  6
SLD-Continua
100
AcDbLine
 10
757.8541325242
 20
797.4792855604
 30
0.0
 11
752.0561200394
 21
797.4792855604
 31
0.0
  0
LINE
  5
92
330
1F
100
AcDbEntity
  8
PIEZA
  6
SLD-Continua
100
AcDbLine
 10
752.0561200394
 20
797.4792855604
 30
0.0
 11
548.2414251693
 21
797.4792855604
 31
0.0
  0
LINE
  5
93
330
1F
100
AcDbEntity
  8
PIEZA
  6
SLD-Continua
100
AcDbLine
 10
542.2434812194
 20
797.6740501707
 30
0.0
 11
541.1487726043
 21
839.4792855604
 31
0.0
  0
LINE
  5
94
330
1F
100
AcDbEntity
  8
PIEZA
  6
SLD-Continua
100
AcDbLine
 10
187.7181571908
 20
204.1054851455
 30
0.0
 11
187.3962571327
 21
203.7835850873
 31
0.0
  0
LINE
  5
95
330
1F
100
AcDbEntity
  8
PIEZA
  6
SLD-Continua
100
AcDbLine
 10
187.3962571327
 20
203.7835850873
 30
0.0
 11
187.3983408493
 21
203.7835850873
 31
0.0
  0
LINE
  5
96
330
1F
100
AcDbEntity
  8
PIEZA
  6
SLD-Continua
100
AcDbLine
 10
187.3962571327
 20
203.7835850873
 30
0.0
 11
181.8962571327
 21
203.7835850873
 31
0.0
  0
LINE
  5
97
330
1F
100
AcDbEntity
  8
PIEZA
  6
SLD-Continua
100
AcDbLine
 10
181.8962571327
 20
203.7835850873
 30
0.0
 11
182.2181571908
 21
204.1054851455
 31
0.0
  0
LINE
  5
98
330
1F
100
AcDbEntity
  8
PIEZA
  6
SLD-Continua
100
AcDbLine
 10
1677.3997666972
 20
203.7835850873
 30
0.0
 11
1677.077866639
 21
204.1054851455
 31
0.0
  0
LINE
  5
99
330
1F
100
AcDbEntity
  8
PIEZA
  6
SLD-Continua
100
AcDbLine
 10
1682.8997666972
 20
203.7835850873
 30
0.0
 11
1677.3997666972
 21
203.7835850873
 31
0.0
  0
LINE
  5
9A
330
1F
100
AcDbEntity
  8
PIEZA
  6
SLD-Continua
100
AcDbLine
 10
1682.577866639
 20
204.1054851455
 30
0.0
 11
1682.8997666972
 21
203.7835850873
 31
0.0
  0
LINE
  5
9B
330
1F
100
AcDbEntity
  8
PIEZA
  6
SLD-Continua
100
AcDbLine
 10
1682.577866639
 20
204.1054851455
 30
0.0
 11
1657.6795803445
 21
229.00377144
 31
0.0
  0
LINE
  5
9C
330
1F
100
AcDbEntity
  8
PIEZA
  6
SLD-Continua
100
AcDbLine
 10
1651.9805663919
 20
229.2027853925
 30
0.0
 11
1677.077866639
 21
204.1054851455
 31
0.0
  0
LINE
  5
9D
330
1F
100
AcDbEntity
  8
PIEZA
  6
SLD-Continua
100
AcDbLine
 10
1657.5987806497
 20
229.0845711347
 30
0.0
 11
1657.6795803445
 21
229.00377144
 31
0.0
  0
LINE
  5
9E
330
1F
100
AcDbEntity
  8
PIEZA
  6
SLD-Continua
100
AcDbLine
 10
1653.7500364769
 20
227.4315599942
 30
0.0
 11
1653.7500364769
 21
227.4333153075
 31
0.0
  0
LINE
  5
9F
330
1F
100
AcDbEntity
  8
PIEZA
  6
SLD-Continua
100
AcDbLine
 10
1651.9805663919
 20
229.2027853925
 30
0.0
 11
1651.8997666972
 21
229.2835850873
 31
0.0
  0
LINE
  5
A0
330
1F
100
AcDbEntity
  8
PIEZA
  6
SLD-Continua
100
AcDbLine
 10
212.8980119154
 20
229.2835850873
 30
0.0
 11
1651.9805663914
 21
229.2010306103
 31
0.0
  0
LINE
  5
A1
330
1F
100
AcDbEntity
  8
PIEZA
  6
SLD-Continua
100
AcDbLine
 10
207.1164434853
 20
229.00377144
 30
0.0
 11
207.1972431801
 21
229.0845711347
 31
0.0
  0
LINE
  5
A2
330
1F
100
AcDbEntity
  8
PIEZA
  6
SLD-Continua
100
AcDbLine
 10
189.2422045688
 20
205.6275257753
 30
0.0
 11
189.2401438591
 21
205.6274718137
 31
0.0
  0
LINE
  5
A3
330
1F
100
AcDbEntity
  8
PIEZA
  6
SLD-Continua
100
AcDbLine
 10
182.2181571908
 20
204.1054851455
 30
0.0
 11
207.1164434853
 21
229.00377144
 31
0.0
  0
LINE
  5
A4
330
1F
100
AcDbEntity
  8
PIEZA
  6
SLD-Continua
100
AcDbLine
 10
212.8154574379
 20
229.2027853925
 30
0.0
 11
187.7181571908
 21
204.1054851455
 31
0.0
  0
LINE
  5
A5
330
1F
100
AcDbEntity
  8
PIEZA
  6
SLD-Continua
100
AcDbLine
 10
212.8962571327
 20
229.2835850873
 30
0.0
 11
212.8154574379
 21
229.2027853925
 31
0.0
  0
LINE
  5
A6
330
1F
100
AcDbEntity
  8
PIEZA
  6
SLD-Continua
100
AcDbLine
 10
1360.4980119149
 20
814.4792855604
 30
0.0
 11
1356.3980119149
 21
814.4792855604
 31
0.0
  0
LINE
  5
A7
330
1F
100
AcDbEntity
  8
PIEZA
  6
SLD-Continua
100
AcDbLine
 10
1366.3980119149
 20
814.4792855604
 30
0.0
 11
1362.2980119149
 21
814.4792855604
 31
0.0
  0
LINE
  5
A8
330
1F
100
AcDbEntity
  8
PIEZA
  6
SLD-Continua
100
AcDbLine
 10
1360.4980119149
 20
814.4792855604
 30
0.0
 11
1360.4980119149
 21
815.9792855604
 31
0.0
  0
LINE
  5
A9
330
1F
100
AcDbEntity
  8
PIEZA
  6
SLD-Continua
100
AcDbLine
 10
1362.2980119149
 20
815.9792855604
 30
0.0
 11
1362.2980119149
 21
814.4792855604
 31
0.0
  0
LINE
  5
AA
330
1F
100
AcDbEntity
  8
PIEZA
  6
SLD-Continua
100
AcDbLine
 10
1360.4980119149
 20
815.9792855604
 30
0.0
 11
1362.2980119149
 21
815.9792855604
 31
0.0
  0
LINE
  5
AB
330
1F
100
AcDbEntity
  8
PIEZA
  6
SLD-Continua
100
AcDbLine
 10
1356.3980119149
 20
816.4792855604
 30
0.0
 11
1366.3980119149
 21
816.4792855604
 31
0.0
  0
LINE
  5
AC
330
1F
100
AcDbEntity
  8
PIEZA
  6
SLD-Continua
100
AcDbLine
 10
507.6480119149
 20
247.2507423748
 30
0.0
 11
499.1480119149
 21
247.2507423748
 31
0.0
  0
LINE
  5
AD
330
1F
100
AcDbEntity
  8
PIEZA
  6
SLD-Continua
100
AcDbLine
 10
502.1808546274
 20
250.2835850873
 30
0.0
 11
504.6151692024
 21
250.2835850873
 31
0.0
  0
LINE
  5
AE
330
1F
100
AcDbEntity
  8
PIEZA
  6
SLD-Continua
100
AcDbLine
 10
207.1972431801
 20
229.0845711347
 30
0.0
 11
212.8962571327
 21
229.2835850873
 31
0.0
  0
LINE
  5
AF
330
1F
100
AcDbEntity
  8
PIEZA
  6
SLD-Continua
100
AcDbLine
 10
510.3980119149
 20
837.4792855604
 30
0.0
 11
496.3980119149
 21
837.4792855604
 31
0.0
  0
LINE
  5
B0
330
1F
100
AcDbEntity
  8
PIEZA
  6
SLD-Continua
100
AcDbLine
 10
495.3980119149
 20
839.4792855604
 30
0.0
 11
511.3980119149
 21
839.4792855604
 31
0.0
  0
LINE
  5
B1
330
1F
100
AcDbEntity
  8
PIEZA
  6
SLD-Continua
100
AcDbLine
 10
1366.3980119149
 20
816.2792855604
 30
0.0
 11
1356.3980119149
 21
816.2792855604
 31
0.0
  0
LINE
  5
B2
330
1F
100
AcDbEntity
  8
PIEZA
  6
SLD-Continua
100
AcDbLine
 10
1358.2730119149
 20
805.0792855604
 30
0.0
 11
1364.5230119149
 21
805.0792855604
 31
0.0
  0
LINE
  5
B3
330
1F
100
AcDbEntity
  8
PIEZA
  6
SLD-Continua
100
AcDbLine
 10
1364.2230119149
 20
804.7792855604
 30
0.0
 11
1358.5730119149
 21
804.7792855604
 31
0.0
  0
LINE
  5
B4
330
1F
100
AcDbEntity
  8
PIEZA
  6
SLD-Continua
100
AcDbLine
 10
1364.5230119149
 20
809.6792855604
 30
0.0
 11
1358.2730119149
 21
809.6792855604
 31
0.0
  0
LINE
  5
B5
330
1F
100
AcDbEntity
  8
PIEZA
  6
SLD-Continua
100
AcDbLine
 10
1364.2230119149
 20
809.9792855604
 30
0.0
 11
1358.5730119149
 21
809.9792855604
 31
0.0
  0
LINE
  5
B6
330
1F
100
AcDbEntity
  8
PIEZA
  6
SLD-Continua
100
AcDbLine
 10
1358.6480119149
 20
812.6792855604
 30
0.0
 11
1364.1480119149
 21
812.6792855604
 31
0.0
  0
LINE
  5
B7
330
1F
100
AcDbEntity
  8
PIEZA
  6
SLD-Continua
100
AcDbLine
 10
1358.9480119149
 20
812.9792855604
 30
0.0
 11
1363.8480119149
 21
812.9792855604
 31
0.0
  0
LINE
  5
B8
330
1F
100
AcDbEntity
  8
PIEZA
  6
SLD-Continua
100
AcDbLine
 10
1354.3980119149
 20
837.4792855604
 30
0.0
 11
1368.3980119149
 21
837.4792855604
 31
0.0
  0
LINE
  5
B9
330
1F
100
AcDbEntity
  8
PIEZA
  6
SLD-Continua
100
AcDbLine
 10
1369.3980119149
 20
839.4792855604
 30
0.0
 11
1353.3980119149
 21
839.4792855604
 31
0.0
  0
LINE
  5
BA
330
1F
100
AcDbEntity
  8
PIEZA
  6
SLD-Continua
100
AcDbLine
 10
1357.1480119149
 20
247.2507423748
 30
0.0
 11
1365.6480119149
 21
247.2507423748
 31
0.0
  0
LINE
  5
BB
330
1F
100
AcDbEntity
  8
PIEZA
  6
SLD-Continua
100
AcDbLine
 10
1362.6151692024
 20
250.2835850873
 30
0.0
 11
1360.1808546274
 21
250.2835850873
 31
0.0
  0
LINE
  5
BC
330
1F
100
AcDbEntity
  8
PIEZA
  6
SLD-Continua
100
AcDbLine
 10
500.2730119149
 20
809.6792855604
 30
0.0
 11
506.5230119149
 21
809.6792855604
 31
0.0
  0
LINE
  5
BD
330
1F
100
AcDbEntity
  8
PIEZA
  6
SLD-Continua
100
AcDbLine
 10
500.5730119149
 20
809.9792855604
 30
0.0
 11
506.2230119149
 21
809.9792855604
 31
0.0
  0
LINE
  5
BE
330
1F
100
AcDbEntity
  8
PIEZA
  6
SLD-Continua
100
AcDbLine
 10
506.1480119149
 20
812.6792855604
 30
0.0
 11
500.6480119149
 21
812.6792855604
 31
0.0
  0
LINE
  5
BF
330
1F
100
AcDbEntity
  8
PIEZA
  6
SLD-Continua
100
AcDbLine
 10
505.8480119149
 20
812.9792855604
 30
0.0
 11
500.9480119149
 21
812.9792855604
 31
0.0
  0
LINE
  5
C0
330
1F
100
AcDbEntity
  8
PIEZA
  6
SLD-Continua
100
AcDbLine
 10
498.3980119149
 20
814.4792855604
 30
0.0
 11
502.4980119149
 21
814.4792855604
 31
0.0
  0
LINE
  5
C1
330
1F
100
AcDbEntity
  8
PIEZA
  6
SLD-Continua
100
AcDbLine
 10
504.2980119149
 20
814.4792855604
 30
0.0
 11
504.2980119149
 21
815.9792855604
 31
0.0
  0
LINE
  5
C2
330
1F
100
AcDbEntity
  8
PIEZA
  6
SLD-Continua
100
AcDbLine
 10
502.4980119149
 20
815.9792855604
 30
0.0
 11
502.4980119149
 21
814.4792855604
 31
0.0
  0
LINE
  5
C3
330
1F
100
AcDbEntity
  8
PIEZA
  6
SLD-Continua
100
AcDbLine
 10
504.2980119149
 20
814.4792855604
 30
0.0
 11
508.3980119149
 21
814.4792855604
 31
0.0
  0
LINE
  5
C4
330
1F
100
AcDbEntity
  8
PIEZA
  6
SLD-Continua
100
AcDbLine
 10
504.2980119149
 20
815.9792855604
 30
0.0
 11
502.4980119149
 21
815.9792855604
 31
0.0
  0
LINE
  5
C5
330
1F
100
AcDbEntity
  8
PIEZA
  6
SLD-Continua
100
AcDbLine
 10
508.3980119149
 20
816.4792855604
 30
0.0
 11
498.3980119149
 21
816.4792855604
 31
0.0
  0
LINE
  5
C6
330
1F
100
AcDbEntity
  8
PIEZA
  6
SLD-Continua
100
AcDbLine
 10
506.5230119149
 20
805.0792855604
 30
0.0
 11
500.2730119149
 21
805.0792855604
 31
0.0
  0
LINE
  5
C7
330
1F
100
AcDbEntity
  8
PIEZA
  6
SLD-Continua
100
AcDbLine
 10
500.5730119149
 20
804.7792855604
 30
0.0
 11
506.2230119149
 21
804.7792855604
 31
0.0
  0
LINE
  5
C8
330
1F
100
AcDbEntity
  8
PIEZA
  6
SLD-Continua
100
AcDbLine
 10
1651.8997666972
 20
229.2835850873
 30
0.0
 11
1657.5987806497
 21
229.0845711347
 31
0.0
  0
LINE
  5
C9
330
1F
100
AcDbEntity
  8
PIEZA
  6
SLD-Continua
100
AcDbLine
 10
182.0962571327
 20
1003.931690127
 30
0.0
 11
187.5962571327
 21
1003.6893378081
 31
0.0
  0
LINE
  5
CA
330
1F
100
AcDbEntity
  8
PIEZA
  6
SLD-Continua
100
AcDbLine
 10
187.5557805702
 20
1094.2927068417
 30
0.0
 11
182.0962571327
 21
1094.0521380844
 31
0.0
  0
LINE
  5
CB
330
1F
100
AcDbEntity
  8
PIEZA
  6
SLD-Continua
100
AcDbLine
 10
1677.1980709862
 20
1094.3001564078
 30
0.0
 11
187.5978313663
 21
1094.2997261213
 31
0.0
  0
LINE
  5
CC
330
1F
100
AcDbEntity
  8
PIEZA
  6
SLD-Continua
100
AcDbLine
 10
187.5984749327
 20
1003.68410209
 30
0.0
 11
1677.1972572455
 21
1003.6834547134
 31
0.0
  0
LINE
  5
CD
330
1F
100
AcDbEntity
  8
PIEZA
  6
SLD-Continua
100
AcDbLine
 10
1682.6997666972
 20
1094.0521380844
 30
0.0
 11
1677.2402432597
 21
1094.2927068417
 31
0.0
  0
LINE
  5
CE
330
1F
100
AcDbEntity
  8
PIEZA
  6
SLD-Continua
100
AcDbLine
 10
1677.1997666972
 20
1003.6893378081
 30
0.0
 11
1682.6997666972
 21
1003.931690127
 31
0.0
  0
LINE
  5
CF
330
1F
100
AcDbEntity
  8
PIEZA
  6
SLD-Continua
100
AcDbLine
 10
187.3962571327
 20
1094.0854835217
 30
0.0
 11
187.3962571327
 21
1084.7791492497
 31
0.0
  0
LINE
  5
D0
330
1F
100
AcDbEntity
  8
PIEZA
  6
SLD-Continua
100
AcDbLine
 10
187.3962571327
 20
1003.8983446897
 30
0.0
 11
187.3962571327
 21
1013.2046789616
 31
0.0
  0
LINE
  5
D1
330
1F
100
AcDbEntity
  8
PIEZA
  6
SLD-Continua
100
AcDbLine
 10
187.3962571327
 20
1084.7791492497
 30
0.0
 11
214.0678300079
 21
1084.7547598857
 31
0.0
  0
LINE
  5
D2
330
1F
100
AcDbEntity
  8
PIEZA
  6
SLD-Continua
100
AcDbLine
 10
187.3962571327
 20
1013.2046789616
 30
0.0
 11
214.0678300079
 21
1013.2290683257
 31
0.0
  0
LINE
  5
D3
330
1F
100
AcDbEntity
  8
PIEZA
  6
SLD-Continua
100
AcDbLine
 10
214.0678300079
 20
1084.7547598857
 30
0.0
 11
214.0678300079
 21
1013.2290683257
 31
0.0
  0
LINE
  5
D4
330
1F
100
AcDbEntity
  8
PIEZA
  6
SLD-Continua
100
AcDbLine
 10
181.8962571327
 20
1004.1406970086
 30
0.0
 11
181.8962571327
 21
1093.8431312028
 31
0.0
  0
LINE
  5
D5
330
1F
100
AcDbEntity
  8
PIEZA
  6
SLD-Continua
100
AcDbLine
 10
187.5980119154
 20
1085.1919141057
 30
0.0
 11
1677.1980119145
 21
1085.1919141057
 31
0.0
  0
LINE
  5
D6
330
1F
100
AcDbEntity
  8
PIEZA
  6
SLD-Continua
100
AcDbLine
 10
187.5980119154
 20
1012.7919141057
 30
0.0
 11
1677.3980119145
 21
1012.5919141057
 31
0.0
  0
LINE
  5
D7
330
1F
100
AcDbEntity
  8
PIEZA
  6
SLD-Continua
100
AcDbLine
 10
1677.3997666972
 20
1003.8983446897
 30
0.0
 11
1677.3997666972
 21
1013.2046789616
 31
0.0
  0
LINE
  5
D8
330
1F
100
AcDbEntity
  8
PIEZA
  6
SLD-Continua
100
AcDbLine
 10
1677.3997666972
 20
1094.0854835217
 30
0.0
 11
1677.3997666972
 21
1084.7791492497
 31
0.0
  0
LINE
  5
D9
330
1F
100
AcDbEntity
  8
PIEZA
  6
SLD-Continua
100
AcDbLine
 10
1677.3997666972
 20
1013.2046789616
 30
0.0
 11
1650.7281938219
 21
1013.2290683257
 31
0.0
  0
LINE
  5
DA
330
1F
100
AcDbEntity
  8
PIEZA
  6
SLD-Continua
100
AcDbLine
 10
1650.7281938219
 20
1013.2290683257
 30
0.0
 11
1650.7281938219
 21
1084.7547598857
 31
0.0
  0
LINE
  5
DB
330
1F
100
AcDbEntity
  8
PIEZA
  6
SLD-Continua
100
AcDbLine
 10
1677.3997666972
 20
1084.7791492497
 30
0.0
 11
1650.7281938219
 21
1084.7547598857
 31
0.0
  0
LINE
  5
DC
330
1F
100
AcDbEntity
  8
PIEZA
  6
SLD-Continua
100
AcDbLine
 10
1682.8997666972
 20
1093.8431312028
 30
0.0
 11
1682.8997666972
 21
1004.1406970086
 31
0.0
  0
LINE
  5
DD
330
1F
100
AcDbEntity
  8
PIEZA
  6
SLD-Continua
100
AcDbLine
 10
187.3983408493
 20
203.7835850873
 30
0.0
 11
1682.8997666972
 21
203.7835850873
 31
0.0
  0
LINE
  5
DE
330
1F
100
AcDbEntity
  8
PIEZA
  6
SLD-Continua
100
AcDbLine
 10
500.2730119149
 20
805.0792855604
 30
0.0
 11
500.2730119149
 21
805.2792855604
 31
0.0
  0
LINE
  5
DF
330
1F
100
AcDbEntity
  8
PIEZA
  6
SLD-Continua
100
AcDbLine
 10
506.5230119149
 20
805.0792855604
 30
0.0
 11
506.5230119149
 21
805.2792855604
 31
0.0
  0
LINE
  5
E0
330
1F
100
AcDbEntity
  8
PIEZA
  6
SLD-Continua
100
AcDbLine
 10
1359.3980119149
 20
812.9792894667
 30
0.0
 11
1359.3980119149
 21
812.9794519667
 31
0.0
  0
LINE
  5
E1
330
1F
100
AcDbEntity
  8
PIEZA
  6
SLD-Continua
100
AcDbLine
 10
1363.3980119149
 20
812.9792894667
 30
0.0
 11
1363.3980119149
 21
812.9794519667
 31
0.0
  0
LINE
  5
E2
330
1F
100
AcDbEntity
  8
PIEZA
  6
SLD-Continua
100
AcDbLine
 10
1358.2730119149
 20
805.0792855604
 30
0.0
 11
1358.2730119149
 21
805.2792855604
 31
0.0
  0
LINE
  5
E3
330
1F
100
AcDbEntity
  8
PIEZA
  6
SLD-Continua
100
AcDbLine
 10
1364.5230119149
 20
805.0792855604
 30
0.0
 11
1364.5230119149
 21
805.2792855604
 31
0.0
  0
LINE
  5
E4
330
1F
100
AcDbEntity
  8
PIEZA
  6
SLD-Continua
 62
     8
100
AcDbLine
 10
502.8980098123
 20
250.3020622057
 30
0.0
 11
502.8980098123
 21
804.7792861163
 31
0.0
  0
LINE
  5
E5
330
1F
100
AcDbEntity
  8
COTAS
  6
SLD-Continua
100
AcDbLine
 10
187.5984749327
 20
839.4792855604
 30
0.0
 11
1677.1975488971
 21
839.4792855604
 31
0.0
  0
LINE
  5
E6
330
1F
100
AcDbEntity
  8
COTAS
  6
SLD-Continua
100
AcDbLine
 10
187.5984749327
 20
869.4792855604
 30
0.0
 11
1677.1975488971
 21
869.4792855604
 31
0.0
  0
LINE
  5
E7
330
1F
100
AcDbEntity
  8
COTAS
100
AcDbLine
 10
187.5984749327
 20
869.4792855604
 30
0.0
 11
187.5984749327
 21
839.4792855604
 31
0.0
  0
LINE
  5
E8
330
1F
100
AcDbEntity
  8
COTAS
100
AcDbLine
 10
1677.1975488971
 20
869.4792855604
 30
0.0
 11
1677.1975488971
 21
839.4792855604
 31
0.0
  0
LINE
  5
E9
330
1F
100
AcDbEntity
  8
PIEZA
370
     0
100
AcDbLine
 10
1758.2895779745
 20
24.4061684159
 30
0.0
 11
1762.3837913627
 21
24.4061684159
 31
0.0
  0
LINE
  5
EA
330
1F
100
AcDbEntity
  8
PIEZA
370
     0
100
AcDbLine
 10
1762.3837913627
 20
24.4061684159
 30
0.0
 11
1764.0304458147
 21
24.4061684159
 31
0.0
  0
LINE
  5
EB
330
1F
100
AcDbEntity
  8
PIEZA
370
     0
100
AcDbLine
 10
1766.3890243354
 20
20.0451591212
 30
0.0
 11
1766.3890243354
 21
18.3095081048
 31
0.0
  0
LINE
  5
EC
330
1F
100
AcDbEntity
  8
PIEZA
370
     0
100
AcDbLine
 10
1766.3890243354
 20
18.3095081048
 30
0.0
 11
1765.23189136
 21
18.3095081048
 31
0.0
  0
LINE
  5
ED
330
1F
100
AcDbEntity
  8
PIEZA
370
     0
100
AcDbLine
 10
1765.23189136
 20
18.3095081048
 30
0.0
 11
1765.23189136
 21
19.7780886835
 31
0.0
  0
LINE
  5
EE
330
1F
100
AcDbEntity
  8
PIEZA
370
     0
100
AcDbLine
 10
1763.9413846547
 20
20.6680866255
 30
0.0
 11
1762.3837913627
 21
20.6680866255
 31
0.0
  0
LINE
  5
EF
330
1F
100
AcDbEntity
  8
PIEZA
370
     0
100
AcDbLine
 10
1762.3837913627
 20
20.6680866255
 30
0.0
 11
1759.4466302054
 21
20.6680866255
 31
0.0
  0
LINE
  5
F0
330
1F
100
AcDbEntity
  8
PIEZA
370
     0
100
AcDbLine
 10
1759.4466302054
 20
20.6680866255
 30
0.0
 11
1759.4466302054
 21
18.3095081048
 31
0.0
  0
LINE
  5
F1
330
1F
100
AcDbEntity
  8
PIEZA
370
     0
100
AcDbLine
 10
1759.4466302054
 20
18.3095081048
 30
0.0
 11
1758.2895779745
 21
18.3095081048
 31
0.0
  0
LINE
  5
F2
330
1F
100
AcDbEntity
  8
PIEZA
370
     0
100
AcDbLine
 10
1758.2895779745
 20
18.3095081048
 30
0.0
 11
1758.2895779745
 21
24.4061684159
 31
0.0
  0
LINE
  5
F3
330
1F
100
AcDbEntity
  8
PIEZA
370
     0
100
AcDbLine
 10
1762.3837913628
 20
23.5162027717
 30
0.0
 11
1759.4466302054
 21
23.5162027717
 31
0.0
  0
LINE
  5
F4
330
1F
100
AcDbEntity
  8
PIEZA
370
     0
100
AcDbLine
 10
1759.4466302054
 20
23.5162027717
 30
0.0
 11
1759.4466302054
 21
21.5580845676
 31
0.0
  0
LINE
  5
F5
330
1F
100
AcDbEntity
  8
PIEZA
370
     0
100
AcDbLine
 10
1759.4466302054
 20
21.5580845676
 30
0.0
 11
1762.3837913627
 21
21.5580845676
 31
0.0
  0
LINE
  5
F6
330
1F
100
AcDbEntity
  8
PIEZA
370
     0
100
AcDbLine
 10
1762.3837913627
 20
21.5580845676
 30
0.0
 11
1763.8967006602
 21
21.5580845676
 31
0.0
  0
LINE
  5
F7
330
1F
100
AcDbEntity
  8
PIEZA
370
     0
100
AcDbLine
 10
1763.8523880903
 20
23.5162027717
 30
0.0
 11
1762.3837913628
 21
23.5162027717
 31
0.0
  0
LINE
  5
F8
330
1F
100
AcDbEntity
  8
PIEZA
370
     0
100
AcDbLine
 10
1781.8313089937
 20
24.4952457249
 30
0.0
 11
1782.899396958
 21
24.4952457249
 31
0.0
  0
LINE
  5
F9
330
1F
100
AcDbEntity
  8
PIEZA
370
     0
100
AcDbLine
 10
1782.3654821671
 20
18.2650017482
 30
0.0
 11
1781.8313089938
 21
18.2650017482
 31
0.0
  0
LINE
  5
FA
330
1F
100
AcDbEntity
  8
PIEZA
370
     0
100
AcDbLine
 10
1781.8313089938
 20
18.2650017482
 30
0.0
 11
1780.8078888751
 21
18.2650017482
 31
0.0
  0
LINE
  5
FB
330
1F
100
AcDbEntity
  8
PIEZA
370
     0
100
AcDbLine
 10
1781.8313089938
 20
23.5162027717
 30
0.0
 11
1780.2293708341
 21
23.5162027717
 31
0.0
  0
LINE
  5
FC
330
1F
100
AcDbEntity
  8
PIEZA
370
     0
100
AcDbLine
 10
1778.4937198177
 20
22.2256799175
 30
0.0
 11
1778.4493426522
 21
21.3356819754
 31
0.0
  0
LINE
  5
FD
330
1F
100
AcDbEntity
  8
PIEZA
370
     0
100
AcDbLine
 10
1778.4493426522
 20
21.3356819754
 30
0.0
 11
1778.4493426522
 21
20.9351570633
 31
0.0
  0
LINE
  5
FE
330
1F
100
AcDbEntity
  8
PIEZA
370
     0
100
AcDbLine
 10
1780.0069036463
 20
19.2440124036
 30
0.0
 11
1781.7869318282
 21
19.199506047
 31
0.0
  0
LINE
  5
FF
330
1F
100
AcDbEntity
  8
PIEZA
370
     0
100
AcDbLine
 10
1781.7869318282
 20
19.199506047
 30
0.0
 11
1781.8313089937
 21
19.199506047
 31
0.0
  0
LINE
  5
100
330
1F
100
AcDbEntity
  8
PIEZA
370
     0
100
AcDbLine
 10
1781.8313089937
 20
19.199506047
 30
0.0
 11
1782.4098593325
 21
19.199506047
 31
0.0
  0
LINE
  5
101
330
1F
100
AcDbEntity
  8
PIEZA
370
     0
100
AcDbLine
 10
1785.1689627654
 20
20.5790093167
 30
0.0
 11
1785.1689627654
 21
21.736142292
 31
0.0
  0
LINE
  5
102
330
1F
100
AcDbEntity
  8
PIEZA
370
     0
100
AcDbLine
 10
1783.4335378336
 20
23.5162027717
 30
0.0
 11
1781.8313089938
 21
23.5162027717
 31
0.0
  0
LINE
  5
103
330
1F
100
AcDbEntity
  8
PIEZA
370
     0
100
AcDbLine
 10
1752.9491381532
 20
19.5999986612
 30
0.0
 11
1750.1900993159
 21
19.5999986612
 31
0.0
  0
LINE
  5
104
330
1F
100
AcDbEntity
  8
PIEZA
370
     0
100
AcDbLine
 10
1750.1900993159
 20
19.5999986612
 30
0.0
 11
1749.3000529272
 21
18.3095081048
 31
0.0
  0
LINE
  5
105
330
1F
100
AcDbEntity
  8
PIEZA
370
     0
100
AcDbLine
 10
1749.3000529272
 20
18.3095081048
 30
0.0
 11
1747.875849514
 21
18.3095081048
 31
0.0
  0
LINE
  5
106
330
1F
100
AcDbEntity
  8
PIEZA
370
     0
100
AcDbLine
 10
1747.875849514
 20
18.3095081048
 30
0.0
 11
1752.2816073988
 21
24.4061684159
 31
0.0
  0
LINE
  5
107
330
1F
100
AcDbEntity
  8
PIEZA
370
     0
100
AcDbLine
 10
1752.2816073988
 20
24.4061684159
 30
0.0
 11
1752.9491381532
 21
24.4061684159
 31
0.0
  0
LINE
  5
108
330
1F
100
AcDbEntity
  8
PIEZA
370
     0
100
AcDbLine
 10
1752.9491381532
 20
24.4061684159
 30
0.0
 11
1753.5723724865
 21
24.4061684159
 31
0.0
  0
LINE
  5
109
330
1F
100
AcDbEntity
  8
PIEZA
370
     0
100
AcDbLine
 10
1753.5723724865
 20
24.4061684159
 30
0.0
 11
1758.0671107868
 21
18.3095081048
 31
0.0
  0
LINE
  5
10A
330
1F
100
AcDbEntity
  8
PIEZA
370
     0
100
AcDbLine
 10
1758.0671107868
 20
18.3095081048
 30
0.0
 11
1756.6429073737
 21
18.3095081048
 31
0.0
  0
LINE
  5
10B
330
1F
100
AcDbEntity
  8
PIEZA
370
     0
100
AcDbLine
 10
1756.6429073737
 20
18.3095081048
 30
0.0
 11
1755.708548415
 21
19.5999986612
 31
0.0
  0
LINE
  5
10C
330
1F
100
AcDbEntity
  8
PIEZA
370
     0
100
AcDbLine
 10
1755.708548415
 20
19.5999986612
 30
0.0
 11
1752.9491381532
 21
19.5999986612
 31
0.0
  0
LINE
  5
10D
330
1F
100
AcDbEntity
  8
PIEZA
370
     0
100
AcDbLine
 10
1752.9491381532
 20
23.4717933084
 30
0.0
 11
1750.8130106713
 21
20.5346967467
 31
0.0
  0
LINE
  5
10E
330
1F
100
AcDbEntity
  8
PIEZA
370
     0
100
AcDbLine
 10
1750.8130106713
 20
20.5346967467
 30
0.0
 11
1752.9491381532
 21
20.5346967467
 31
0.0
  0
LINE
  5
10F
330
1F
100
AcDbEntity
  8
PIEZA
370
     0
100
AcDbLine
 10
1752.9491381532
 20
20.5346967467
 30
0.0
 11
1755.0853302306
 21
20.5346967467
 31
0.0
  0
LINE
  5
110
330
1F
100
AcDbEntity
  8
PIEZA
370
     0
100
AcDbLine
 10
1755.0853302306
 20
20.5346967467
 30
0.0
 11
1752.9491381532
 21
23.4717933084
 31
0.0
  0
LINE
  5
111
330
1F
100
AcDbEntity
  8
PIEZA
370
     0
100
AcDbLine
 10
1769.2818083271
 20
21.9142323142
 30
0.0
 11
1770.3051799991
 21
21.9142323142
 31
0.0
  0
LINE
  5
112
330
1F
100
AcDbEntity
  8
PIEZA
370
     0
100
AcDbLine
 10
1770.3051799991
 20
21.9142323142
 30
0.0
 11
1774.7999344483
 21
24.4061684159
 31
0.0
  0
LINE
  5
113
330
1F
100
AcDbEntity
  8
PIEZA
370
     0
100
AcDbLine
 10
1774.7999344483
 20
24.4061684159
 30
0.0
 11
1776.268515027
 21
24.4061684159
 31
0.0
  0
LINE
  5
114
330
1F
100
AcDbEntity
  8
PIEZA
370
     0
100
AcDbLine
 10
1776.268515027
 20
24.4061684159
 30
0.0
 11
1776.8917332114
 21
24.4061684159
 31
0.0
  0
LINE
  5
115
330
1F
100
AcDbEntity
  8
PIEZA
370
     0
100
AcDbLine
 10
1776.8917332114
 20
24.4061684159
 30
0.0
 11
1771.5513095389
 21
21.4690718542
 31
0.0
  0
LINE
  5
116
330
1F
100
AcDbEntity
  8
PIEZA
370
     0
100
AcDbLine
 10
1771.5513095389
 20
21.4690718542
 30
0.0
 11
1777.2475095334
 21
18.3095081048
 31
0.0
  0
LINE
  5
117
330
1F
100
AcDbEntity
  8
PIEZA
370
     0
100
AcDbLine
 10
1777.2475095334
 20
18.3095081048
 30
0.0
 11
1775.0223208916
 21
18.3095081048
 31
0.0
  0
LINE
  5
118
330
1F
100
AcDbEntity
  8
PIEZA
370
     0
100
AcDbLine
 10
1775.0223208916
 20
18.3095081048
 30
0.0
 11
1770.3051799991
 21
21.0242343722
 31
0.0
  0
LINE
  5
119
330
1F
100
AcDbEntity
  8
PIEZA
370
     0
100
AcDbLine
 10
1770.3051799991
 20
21.0242343722
 30
0.0
 11
1769.2818083271
 21
21.0242343722
 31
0.0
  0
LINE
  5
11A
330
1F
100
AcDbEntity
  8
PIEZA
370
     0
100
AcDbLine
 10
1769.2818083271
 20
21.0242343722
 30
0.0
 11
1769.2818083271
 21
18.3095081048
 31
0.0
  0
LINE
  5
11B
330
1F
100
AcDbEntity
  8
PIEZA
370
     0
100
AcDbLine
 10
1769.2818083271
 20
18.3095081048
 30
0.0
 11
1768.1246753517
 21
18.3095081048
 31
0.0
  0
LINE
  5
11C
330
1F
100
AcDbEntity
  8
PIEZA
370
     0
100
AcDbLine
 10
1768.1246753517
 20
18.3095081048
 30
0.0
 11
1768.1246753517
 21
24.4061684159
 31
0.0
  0
LINE
  5
11D
330
1F
100
AcDbEntity
  8
PIEZA
370
     0
100
AcDbLine
 10
1768.1246753517
 20
24.4061684159
 30
0.0
 11
1769.2818083271
 21
24.4061684159
 31
0.0
  0
LINE
  5
11E
330
1F
100
AcDbEntity
  8
PIEZA
370
     0
100
AcDbLine
 10
1769.2818083271
 20
24.4061684159
 30
0.0
 11
1769.2818083271
 21
21.9142323142
 31
0.0
  0
LINE
  5
11F
330
1F
100
AcDbEntity
  8
PIEZA
370
     0
100
AcDbLine
 10
1794.737248087
 20
22.4927503552
 30
0.0
 11
1794.737248087
 21
22.6708080797
 31
0.0
  0
LINE
  5
120
330
1F
100
AcDbEntity
  8
PIEZA
370
     0
100
AcDbLine
 10
1792.2449567096
 20
23.5162027717
 30
0.0
 11
1791.9335091064
 21
23.5162027717
 31
0.0
  0
LINE
  5
121
330
1F
100
AcDbEntity
  8
PIEZA
370
     0
100
AcDbLine
 10
1791.0878560321
 20
21.8695321709
 30
0.0
 11
1792.6898264896
 21
21.9142323143
 31
0.0
  0
LINE
  5
122
330
1F
100
AcDbEntity
  8
PIEZA
370
     0
100
AcDbLine
 10
1792.4674238974
 20
18.2650017482
 30
0.0
 11
1791.9335091065
 21
18.2650017482
 31
0.0
  0
LINE
  5
123
330
1F
100
AcDbEntity
  8
PIEZA
370
     0
100
AcDbLine
 10
1787.9726694483
 20
20.2675617134
 30
0.0
 11
1787.9726694483
 21
20.4456194378
 31
0.0
  0
LINE
  5
124
330
1F
100
AcDbEntity
  8
PIEZA
370
     0
100
AcDbLine
 10
1787.9726694483
 20
20.4456194378
 30
0.0
 11
1789.1298024237
 21
20.4456194378
 31
0.0
  0
LINE
  5
125
330
1F
100
AcDbEntity
  8
PIEZA
370
     0
100
AcDbLine
 10
1789.1298024237
 20
20.4456194378
 30
0.0
 11
1789.1298024237
 21
20.178549
 31
0.0
  0
LINE
  5
126
330
1F
100
AcDbEntity
  8
PIEZA
370
     0
100
AcDbLine
 10
1793.535479564
 20
20.8905538132
 30
0.0
 11
1791.977886272
 21
20.9351570633
 31
0.0
  0
LINE
  5
127
330
1F
100
AcDbEntity
  8
PIEZA
370
     0
100
AcDbLine
 10
1795.8943810626
 20
22.6708080797
 30
0.0
 11
1795.8943810626
 21
22.4927503552
 31
0.0
  0
LINE
  5
128
330
1F
100
AcDbEntity
  8
PIEZA
370
     0
100
AcDbLine
 10
1795.8943810626
 20
22.4927503552
 30
0.0
 11
1794.737248087
 21
22.4927503552
 31
0.0
  0
LINE
  5
129
330
1F
100
AcDbEntity
  8
PIEZA
370
     0
100
AcDbLine
 10
1825.6665498453
 20
18.3095081048
 30
0.0
 11
1824.0642564099
 21
18.3095081048
 31
0.0
  0
LINE
  5
12A
330
1F
100
AcDbEntity
  8
PIEZA
370
     0
100
AcDbLine
 10
1824.0642564099
 20
18.3095081048
 30
0.0
 11
1824.0642564099
 21
20.7570993388
 31
0.0
  0
LINE
  5
12B
330
1F
100
AcDbEntity
  8
PIEZA
370
     0
100
AcDbLine
 10
1824.0642564099
 20
20.7570993388
 30
0.0
 11
1821.8391000658
 21
20.7570993388
 31
0.0
  0
LINE
  5
12C
330
1F
100
AcDbEntity
  8
PIEZA
370
     0
100
AcDbLine
 10
1821.8391000658
 20
20.7570993388
 30
0.0
 11
1821.8391000658
 21
21.5580845676
 31
0.0
  0
LINE
  5
12D
330
1F
100
AcDbEntity
  8
PIEZA
370
     0
100
AcDbLine
 10
1821.8391000658
 20
21.5580845676
 30
0.0
 11
1827.891447807
 21
21.5580845676
 31
0.0
  0
LINE
  5
12E
330
1F
100
AcDbEntity
  8
PIEZA
370
     0
100
AcDbLine
 10
1827.891447807
 20
21.5580845676
 30
0.0
 11
1827.891447807
 21
20.7570993388
 31
0.0
  0
LINE
  5
12F
330
1F
100
AcDbEntity
  8
PIEZA
370
     0
100
AcDbLine
 10
1827.891447807
 20
20.7570993388
 30
0.0
 11
1825.6665498453
 21
20.7570993388
 31
0.0
  0
LINE
  5
130
330
1F
100
AcDbEntity
  8
PIEZA
370
     0
100
AcDbLine
 10
1825.6665498453
 20
20.7570993388
 30
0.0
 11
1825.6665498453
 21
18.3095081048
 31
0.0
  0
LINE
  5
131
330
1F
100
AcDbEntity
  8
PIEZA
370
     0
100
AcDbLine
 10
1816.1428677735
 20
18.3095081048
 30
0.0
 11
1814.5408973161
 21
18.3095081048
 31
0.0
  0
LINE
  5
132
330
1F
100
AcDbEntity
  8
PIEZA
370
     0
100
AcDbLine
 10
1814.5408973161
 20
18.3095081048
 30
0.0
 11
1814.5408973161
 21
21.5580845676
 31
0.0
  0
LINE
  5
133
330
1F
100
AcDbEntity
  8
PIEZA
370
     0
100
AcDbLine
 10
1814.5408973161
 20
21.5580845676
 30
0.0
 11
1816.1428677735
 21
21.5580845676
 31
0.0
  0
LINE
  5
134
330
1F
100
AcDbEntity
  8
PIEZA
370
     0
100
AcDbLine
 10
1816.1428677735
 20
21.5580845676
 30
0.0
 11
1816.1428677735
 21
20.3566390223
 31
0.0
  0
LINE
  5
135
330
1F
100
AcDbEntity
  8
PIEZA
370
     0
100
AcDbLine
 10
1816.1428677735
 20
20.3566390223
 30
0.0
 11
1819.4805215451
 21
20.3566390223
 31
0.0
  0
LINE
  5
136
330
1F
100
AcDbEntity
  8
PIEZA
370
     0
100
AcDbLine
 10
1819.4805215451
 20
20.3566390223
 30
0.0
 11
1819.4805215451
 21
21.5580845676
 31
0.0
  0
LINE
  5
137
330
1F
100
AcDbEntity
  8
PIEZA
370
     0
100
AcDbLine
 10
1819.4805215451
 20
21.5580845676
 30
0.0
 11
1821.0827826827
 21
21.5580845676
 31
0.0
  0
LINE
  5
138
330
1F
100
AcDbEntity
  8
PIEZA
370
     0
100
AcDbLine
 10
1821.0827826827
 20
21.5580845676
 30
0.0
 11
1821.0827826827
 21
18.3095081048
 31
0.0
  0
LINE
  5
139
330
1F
100
AcDbEntity
  8
PIEZA
370
     0
100
AcDbLine
 10
1821.0827826827
 20
18.3095081048
 30
0.0
 11
1819.4805215451
 21
18.3095081048
 31
0.0
  0
LINE
  5
13A
330
1F
100
AcDbEntity
  8
PIEZA
370
     0
100
AcDbLine
 10
1819.4805215451
 20
18.3095081048
 30
0.0
 11
1819.4805215451
 21
19.5999986612
 31
0.0
  0
LINE
  5
13B
330
1F
100
AcDbEntity
  8
PIEZA
370
     0
100
AcDbLine
 10
1819.4805215451
 20
19.5999986612
 30
0.0
 11
1816.1428677735
 21
19.5999986612
 31
0.0
  0
LINE
  5
13C
330
1F
100
AcDbEntity
  8
PIEZA
370
     0
100
AcDbLine
 10
1816.1428677735
 20
19.5999986612
 30
0.0
 11
1816.1428677735
 21
18.3095081048
 31
0.0
  0
LINE
  5
13D
330
1F
100
AcDbEntity
  8
PIEZA
370
     0
100
AcDbLine
 10
1811.870580512
 20
20.5346967467
 30
0.0
 11
1811.870580512
 21
20.5790093166
 31
0.0
  0
LINE
  5
13E
330
1F
100
AcDbEntity
  8
PIEZA
370
     0
100
AcDbLine
 10
1810.6244025255
 20
20.8014765044
 30
0.0
 11
1809.690027418
 21
20.8014765044
 31
0.0
  0
LINE
  5
13F
330
1F
100
AcDbEntity
  8
PIEZA
370
     0
100
AcDbLine
 10
1808.3992138836
 20
20.1341718346
 30
0.0
 11
1808.3992138836
 21
19.6890113747
 31
0.0
  0
LINE
  5
140
330
1F
100
AcDbEntity
  8
PIEZA
370
     0
100
AcDbLine
 10
1809.690027418
 20
19.065986977
 30
0.0
 11
1810.6244025255
 21
19.065986977
 31
0.0
  0
LINE
  5
141
330
1F
100
AcDbEntity
  8
PIEZA
370
     0
100
AcDbLine
 10
1811.870580512
 20
19.5999986613
 30
0.0
 11
1809.9571624513
 21
19.5999986613
 31
0.0
  0
LINE
  5
142
330
1F
100
AcDbEntity
  8
PIEZA
370
     0
100
AcDbLine
 10
1809.9571624513
 20
19.5999986613
 30
0.0
 11
1809.9571624513
 21
20.0451591213
 31
0.0
  0
LINE
  5
143
330
1F
100
AcDbEntity
  8
PIEZA
370
     0
100
AcDbLine
 10
1809.9571624513
 20
20.0451591213
 30
0.0
 11
1813.5618543629
 21
20.0451591213
 31
0.0
  0
LINE
  5
144
330
1F
100
AcDbEntity
  8
PIEZA
370
     0
100
AcDbLine
 10
1813.5618543629
 20
20.0451591213
 30
0.0
 11
1813.5618543629
 21
19.1104933335
 31
0.0
  0
LINE
  5
145
330
1F
100
AcDbEntity
  8
PIEZA
370
     0
100
AcDbLine
 10
1811.0695952833
 20
18.2650017481
 30
0.0
 11
1809.244866958
 21
18.2650017481
 31
0.0
  0
LINE
  5
146
330
1F
100
AcDbEntity
  8
PIEZA
370
     0
100
AcDbLine
 10
1806.7529308563
 20
19.4665764846
 30
0.0
 11
1806.7529308563
 21
20.3566390223
 31
0.0
  0
LINE
  5
147
330
1F
100
AcDbEntity
  8
PIEZA
370
     0
100
AcDbLine
 10
1809.244866958
 20
21.6027524132
 30
0.0
 11
1811.0695952833
 21
21.6027524132
 31
0.0
  0
LINE
  5
148
330
1F
100
AcDbEntity
  8
PIEZA
370
     0
100
AcDbLine
 10
1813.4725509695
 20
20.5346967467
 30
0.0
 11
1811.870580512
 21
20.5346967467
 31
0.0
  0
LINE
  5
149
330
1F
100
AcDbEntity
  8
PIEZA
370
     0
100
AcDbLine
 10
1805.6848105942
 20
18.3095081048
 30
0.0
 11
1804.0825817544
 21
18.3095081048
 31
0.0
  0
LINE
  5
14A
330
1F
100
AcDbEntity
  8
PIEZA
370
     0
100
AcDbLine
 10
1804.0825817544
 20
18.3095081048
 30
0.0
 11
1804.0825817544
 21
21.5580845676
 31
0.0
  0
LINE
  5
14B
330
1F
100
AcDbEntity
  8
PIEZA
370
     0
100
AcDbLine
 10
1804.0825817544
 20
21.5580845676
 30
0.0
 11
1805.6848105942
 21
21.5580845676
 31
0.0
  0
LINE
  5
14C
330
1F
100
AcDbEntity
  8
PIEZA
370
     0
100
AcDbLine
 10
1805.6848105942
 20
21.5580845676
 30
0.0
 11
1805.6848105942
 21
18.3095081048
 31
0.0
  0
LINE
  5
14D
330
1F
100
AcDbEntity
  8
PIEZA
370
     0
100
AcDbLine
 10
1799.8105205775
 20
19.1104933336
 30
0.0
 11
1803.370609239
 21
19.1104933336
 31
0.0
  0
LINE
  5
14E
330
1F
100
AcDbEntity
  8
PIEZA
370
     0
100
AcDbLine
 10
1803.370609239
 20
19.1104933336
 30
0.0
 11
1803.370609239
 21
18.3095081048
 31
0.0
  0
LINE
  5
14F
330
1F
100
AcDbEntity
  8
PIEZA
370
     0
100
AcDbLine
 10
1803.370609239
 20
18.3095081048
 30
0.0
 11
1798.2083240355
 21
18.3095081048
 31
0.0
  0
LINE
  5
150
330
1F
100
AcDbEntity
  8
PIEZA
370
     0
100
AcDbLine
 10
1798.2083240355
 20
18.3095081048
 30
0.0
 11
1798.2083240355
 21
21.5580845676
 31
0.0
  0
LINE
  5
151
330
1F
100
AcDbEntity
  8
PIEZA
370
     0
100
AcDbLine
 10
1798.2083240355
 20
21.5580845676
 30
0.0
 11
1799.8105205775
 21
21.5580845676
 31
0.0
  0
LINE
  5
152
330
1F
100
AcDbEntity
  8
PIEZA
370
     0
100
AcDbLine
 10
1799.8105205775
 20
21.5580845676
 30
0.0
 11
1799.8105205775
 21
19.1104933336
 31
0.0
  0
LINE
  5
153
330
1F
100
AcDbEntity
  8
PIEZA
370
     0
100
AcDbLine
 10
1828.3518205268
 20
23.939788307
 30
0.0
 11
1828.3518205268
 21
25.4036857059
 31
0.0
  0
LINE
  5
154
330
1F
100
AcDbEntity
  8
PIEZA
370
     0
100
AcDbLine
 10
1828.3518205268
 20
25.4036857059
 30
0.0
 11
1828.9743281598
 21
25.4036857059
 31
0.0
  0
LINE
  5
155
330
1F
100
AcDbEntity
  8
PIEZA
370
     0
100
AcDbLine
 10
1829.4898009118
 20
24.2253976771
 30
0.0
 11
1829.6684722943
 21
23.939788307
 31
0.0
  0
LINE
  5
156
330
1F
100
AcDbEntity
  8
PIEZA
370
     0
100
AcDbLine
 10
1829.6684722943
 20
23.939788307
 30
0.0
 11
1829.3151344555
 21
23.939788307
 31
0.0
  0
LINE
  5
157
330
1F
100
AcDbEntity
  8
PIEZA
370
     0
100
AcDbLine
 10
1829.3151344555
 20
23.939788307
 30
0.0
 11
1829.1031963478
 21
24.2593103581
 31
0.0
  0
LINE
  5
158
330
1F
100
AcDbEntity
  8
PIEZA
370
     0
100
AcDbLine
 10
1828.7083881447
 20
24.5510886063
 30
0.0
 11
1828.6482819548
 21
24.5510886063
 31
0.0
  0
LINE
  5
159
330
1F
100
AcDbEntity
  8
PIEZA
370
     0
100
AcDbLine
 10
1828.6482819548
 20
24.5510886063
 30
0.0
 11
1828.6482819548
 21
23.939788307
 31
0.0
  0
LINE
  5
15A
330
1F
100
AcDbEntity
  8
PIEZA
370
     0
100
AcDbLine
 10
1828.6482819548
 20
23.939788307
 30
0.0
 11
1828.3518205268
 21
23.939788307
 31
0.0
  0
LINE
  5
15B
330
1F
100
AcDbEntity
  8
PIEZA
370
     0
100
AcDbLine
 10
1828.6482819548
 20
24.7841817675
 30
0.0
 11
1828.8669057053
 21
24.7841817675
 31
0.0
  0
LINE
  5
15C
330
1F
100
AcDbEntity
  8
PIEZA
370
     0
100
AcDbLine
 10
1828.8788881859
 20
25.1562846231
 30
0.0
 11
1828.6482819548
 21
25.1562846231
 31
0.0
  0
LINE
  5
15D
330
1F
100
AcDbEntity
  8
PIEZA
370
     0
100
AcDbLine
 10
1828.6482819548
 20
25.1562846231
 30
0.0
 11
1828.6482819548
 21
24.7841817675
 31
0.0
  0
ARC
  5
15E
330
1F
100
AcDbEntity
  8
PIEZA
  6
SLD-Continua
100
AcDbCircle
 10
496.3980119149
 20
838.4792855604
 30
0.0
 40
1.0
100
AcDbArc
 50
180.0
 51
270.0
  0
ARC
  5
15F
330
1F
100
AcDbEntity
  8
PIEZA
  6
SLD-Continua
100
AcDbCircle
 10
510.3980119149
 20
838.4792855604
 30
0.0
 40
1.0
100
AcDbArc
 50
270.0
 51
0.0
  0
ARC
  5
160
330
1F
100
AcDbEntity
  8
PIEZA
  6
SLD-Continua
100
AcDbCircle
 10
507.8980119149
 20
816.9792855604
 30
0.0
 40
0.4999999999999432
100
AcDbArc
 50
270.0
 51
0.0
  0
ARC
  5
161
330
1F
100
AcDbEntity
  8
PIEZA
  6
SLD-Continua
100
AcDbCircle
 10
498.8980119149
 20
816.9792855604
 30
0.0
 40
0.5
100
AcDbArc
 50
180.0
 51
270.0
  0
ARC
  5
162
330
1F
100
AcDbEntity
  8
PIEZA
  6
SLD-Continua
100
AcDbCircle
 10
1354.3980119149
 20
838.4792855604
 30
0.0
 40
1.0
100
AcDbArc
 50
180.0
 51
270.0
  0
ARC
  5
163
330
1F
100
AcDbEntity
  8
PIEZA
  6
SLD-Continua
100
AcDbCircle
 10
1368.3980119149
 20
838.4792855604
 30
0.0
 40
1.0
100
AcDbArc
 50
270.0
 51
0.0
  0
ARC
  5
164
330
1F
100
AcDbEntity
  8
PIEZA
  6
SLD-Continua
100
AcDbCircle
 10
1365.8980119149
 20
816.9792855604
 30
0.0
 40
0.5
100
AcDbArc
 50
270.0
 51
0.0
  0
ARC
  5
165
330
1F
100
AcDbEntity
  8
PIEZA
  6
SLD-Continua
100
AcDbCircle
 10
1356.8980119149
 20
816.9792855604
 30
0.0
 40
0.5
100
AcDbArc
 50
180.0
 51
270.0
  0
ARC
  5
166
330
1F
100
AcDbEntity
  8
PIEZA
  6
SLD-Continua
100
AcDbCircle
 10
586.9539412302
 20
785.6792855604
 30
0.0
 40
0.2000000000000748
100
AcDbArc
 50
270.0
 51
358.5
  0
ARC
  5
167
330
1F
100
AcDbEntity
  8
PIEZA
  6
SLD-Continua
100
AcDbCircle
 10
575.3436039785
 20
785.6792855604
 30
0.0
 40
0.2000000000000778
100
AcDbArc
 50
181.5
 51
270.0
  0
ARC
  5
168
330
1F
100
AcDbEntity
  8
PIEZA
  6
SLD-Continua
100
AcDbCircle
 10
542.4434126844
 20
797.6792855604
 30
0.0
 40
0.1999999999998356
100
AcDbArc
 50
181.4999999998
 51
270.0
  0
ARC
  5
169
330
1F
100
AcDbEntity
  8
PIEZA
  6
SLD-Continua
100
AcDbCircle
 10
757.8541325242
 20
797.6792855604
 30
0.0
 40
0.1999999999998356
100
AcDbArc
 50
270.0
 51
358.5000000002
  0
SPLINE
  5
16A
330
1F
100
AcDbEntity
  8
PIEZA
  6
SLD-Continua
100
AcDbSpline
210
0.0
220
0.0
230
1.0
 70
    24
 71
     3
 72
    12
 73
     8
 74
     0
 42
0.00000001
 43
0.00000001
 12
1.0
 22
0.0
 32
0.0
 13
1.0
 23
0.0
 33
0.0
 40
0.0
 40
0.0
 40
0.0
 40
0.0
 40
0.4999999999999483
 40
0.4999999999999483
 40
0.7499999999999741
 40
0.7499999999999741
 40
1.0
 40
1.0
 40
1.0
 40
1.0
 10
187.7154539025054
 20
204.1010270744375
 30
0.0
 10
187.656925017887
 20
204.0424981898191
 30
0.0
 10
187.5872292340092
 20
203.9728024059412
 30
0.0
 10
187.4938772291351
 20
203.8794504010671
 30
0.0
 10
187.4636216034784
 20
203.8491947754104
 30
0.0
 10
187.4153595542776
 20
203.8009327262097
 30
0.0
 10
187.3980006005154
 20
203.7835737724474
 30
0.0
 10
187.3980117385611
 20
203.7835849104927
 30
0.0
  0
SPLINE
  5
16B
330
1F
100
AcDbEntity
  8
PIEZA
  6
SLD-Continua
100
AcDbSpline
210
0.0
220
0.0
230
1.0
 70
    24
 71
     3
 72
    12
 73
     8
 74
     0
 42
0.00000001
 43
0.00000001
 12
1.0
 22
0.0
 32
0.0
 13
1.0
 23
0.0
 33
0.0
 40
0.0
 40
0.0
 40
0.0
 40
0.0
 40
0.5
 40
0.5
 40
0.75
 40
0.75
 40
1.0
 40
1.0
 40
1.0
 40
1.0
 10
1677.080566391437
 20
204.1010306103245
 30
0.0
 10
1677.139095276055
 20
204.0425017257058
 30
0.0
 10
1677.208791059933
 20
203.9728059418279
 30
0.0
 10
1677.302143064808
 20
203.8794539369536
 30
0.0
 10
1677.332398690464
 20
203.849198311297
 30
0.0
 10
1677.380660739665
 20
203.8009362620964
 30
0.0
 10
1677.398019693427
 20
203.7835773083345
 30
0.0
 10
1677.398008555381
 20
203.7835884463794
 30
0.0
  0
SPLINE
  5
16C
330
1F
100
AcDbEntity
  8
PIEZA
  6
SLD-Continua
100
AcDbSpline
210
0.0
220
0.0
230
1.0
 70
    24
 71
     3
 72
    10
 73
     6
 74
     0
 42
0.00000001
 43
0.00000001
 12
1.0
 22
0.0
 32
0.0
 13
1.0
 23
0.0
 33
0.0
 40
0.0
 40
0.0
 40
0.0
 40
0.0
 40
0.5000000000000018
 40
0.5000000000000018
 40
1.0
 40
1.0
 40
1.0
 40
1.0
 10
212.8154539025057
 20
229.2010270744374
 30
0.0
 10
208.6321205691722
 20
225.0176937411041
 30
0.0
 10
204.4487872358388
 20
220.8343604077708
 30
0.0
 10
196.082120569172
 20
212.4676937411041
 30
0.0
 10
191.8987872358388
 20
208.2843604077708
 30
0.0
 10
187.7154539025054
 20
204.1010270744375
 30
0.0
  0
SPLINE
  5
16D
330
1F
100
AcDbEntity
  8
PIEZA
  6
SLD-Continua
100
AcDbSpline
210
0.0
220
0.0
230
1.0
 70
    24
 71
     3
 72
    10
 73
     6
 74
     0
 42
0.00000001
 43
0.00000001
 12
1.0
 22
0.0
 32
0.0
 13
1.0
 23
0.0
 33
0.0
 40
0.0
 40
0.0
 40
0.0
 40
0.0
 40
0.5
 40
0.5
 40
1.0
 40
1.0
 40
1.0
 40
1.0
 10
212.8980119153561
 20
229.2835850872866
 30
0.0
 10
212.8980048435805
 20
229.2835780155123
 30
0.0
 10
212.8883638134184
 20
229.2739369853502
 30
0.0
 10
212.857638863134
 20
229.2432120350657
 30
0.0
 10
212.8375935981744
 20
229.2231667701062
 30
0.0
 10
212.8154539025057
 20
229.2010270744374
 30
0.0
  0
SPLINE
  5
16E
330
1F
100
AcDbEntity
  8
PIEZA
  6
SLD-Continua
100
AcDbSpline
210
0.0
220
0.0
230
1.0
 70
    24
 71
     3
 72
    10
 73
     6
 74
     0
 42
0.00000001
 43
0.00000001
 12
1.0
 22
0.0
 32
0.0
 13
1.0
 23
0.0
 33
0.0
 40
0.0
 40
0.0
 40
0.0
 40
0.0
 40
0.5000000000000169
 40
0.5000000000000169
 40
1.0
 40
1.0
 40
1.0
 40
1.0
 10
1651.980566391439
 20
229.2010306103243
 30
0.0
 10
1656.163899724772
 20
225.017697276991
 30
0.0
 10
1660.347233058105
 20
220.8343639436577
 30
0.0
 10
1668.713899724772
 20
212.4676972769913
 30
0.0
 10
1672.897233058104
 20
208.2843639436576
 30
0.0
 10
1677.080566391437
 20
204.1010306103245
 30
0.0
  0
SPLINE
  5
16F
330
1F
100
AcDbEntity
  8
PIEZA
  6
SLD-Continua
100
AcDbSpline
210
0.0
220
0.0
230
1.0
 70
    24
 71
     3
 72
    10
 73
     6
 74
     0
 42
0.00000001
 43
0.00000001
 12
1.0
 22
0.0
 32
0.0
 13
1.0
 23
0.0
 33
0.0
 40
0.0
 40
0.0
 40
0.0
 40
0.0
 40
0.5
 40
0.5
 40
1.0
 40
1.0
 40
1.0
 40
1.0
 10
1651.898008378587
 20
229.2835886231738
 30
0.0
 10
1651.898015450362
 20
229.2835815513992
 30
0.0
 10
1651.907656480525
 20
229.273940521237
 30
0.0
 10
1651.938381430809
 20
229.2432155709525
 30
0.0
 10
1651.95842669577
 20
229.2231703059931
 30
0.0
 10
1651.980566391439
 20
229.2010306103243
 30
0.0
  0
SPLINE
  5
170
330
1F
100
AcDbEntity
  8
PIEZA
  6
SLD-Continua
100
AcDbSpline
210
0.0
220
0.0
230
1.0
 70
     8
 71
     3
 72
    30
 73
    26
 74
     0
 42
0.00000001
 43
0.00000001
 12
1.0
 22
0.0
 32
0.0
 13
1.0
 23
0.0
 33
0.0
 40
0.0
 40
0.0
 40
0.0
 40
0.0
 40
0.0656124641392181
 40
0.0656124641392181
 40
0.1312249282784362
 40
0.1312249282784362
 40
0.1968373924176542
 40
0.1968373924176542
 40
0.2624498565568722
 40
0.2624498565568722
 40
0.3280623206960902
 40
0.3280623206960902
 40
0.3936747848353083
 40
0.3936747848353083
 40
0.5248997131137443
 40
0.5248997131137443
 40
0.6561246413921803
 40
0.6561246413921803
 40
0.7873495696706164
 40
0.7873495696706164
 40
0.9185744979490524
 40
0.9185744979490524
 40
0.9841869620882704
 40
0.9841869620882704
 40
1.0
 40
1.0
 40
1.0
 40
1.0
 10
507.637594938867
 20
238.9752850069721
 30
0.0
 10
507.6284409270631
 20
238.9929974066987
 30
0.0
 10
507.6135543651727
 20
239.0224964890238
 30
0.0
 10
507.5742563322253
 20
239.1049989845642
 30
0.0
 10
507.5494548405136
 20
239.1588621637306
 30
0.0
 10
507.4945425847969
 20
239.2879690970407
 30
0.0
 10
507.4644718670534
 20
239.3629994424273
 30
0.0
 10
507.4027712507491
 20
239.5359876791801
 30
0.0
 10
507.371365543298
 20
239.6337493637951
 30
0.0
 10
507.3146505901757
 20
239.8440894679476
 30
0.0
 10
507.2891422648686
 20
239.9596738194641
 30
0.0
 10
507.2483390847217
 20
240.2036532993921
 30
0.0
 10
507.233236589761
 20
240.3295833160303
 30
0.0
 10
507.204243812756
 20
240.7176852564402
 30
0.0
 10
507.2073980094451
 20
240.9845521590789
 30
0.0
 10
507.2556099059812
 20
241.4980674388453
 30
0.0
 10
507.2951313792403
 20
241.7411539815052
 30
0.0
 10
507.3899896432884
 20
242.2020383632966
 30
0.0
 10
507.4433897833997
 20
242.4103821017568
 30
0.0
 10
507.544333274496
 20
242.7729778888989
 30
0.0
 10
507.5919123309743
 20
242.9218301740486
 30
0.0
 10
507.6343412792981
 20
243.0543029142862
 30
0.0
 10
507.6435984793918
 20
243.08279263784
 30
0.0
 10
507.6475462169246
 20
243.0951185972611
 30
0.0
 10
507.6479534615968
 20
243.096412937872
 30
0.0
 10
507.6480074762797
 20
243.0966188056086
 30
0.0
  0
SPLINE
  5
171
330
1F
100
AcDbEntity
  8
PIEZA
  6
SLD-Continua
100
AcDbSpline
210
0.0
220
0.0
230
1.0
 70
     8
 71
     3
 72
     8
 73
     4
 74
     0
 42
0.00000001
 43
0.00000001
 12
1.0
 22
0.0
 32
0.0
 13
1.0
 23
0.0
 33
0.0
 40
0.0
 40
0.0
 40
0.0
 40
0.0
 40
0.3381896462795166
 40
0.3381896462795166
 40
0.3381896462795166
 40
0.3381896462795166
 10
507.6375647978002
 20
238.9754324911273
 30
0.0
 10
507.642181239113
 20
238.9663982658508
 30
0.0
 10
507.6453197925532
 20
238.9603099429085
 30
0.0
 10
507.6468762136943
 20
238.9572928470042
 30
0.0
  0
SPLINE
  5
172
330
1F
100
AcDbEntity
  8
PIEZA
  6
SLD-Continua
100
AcDbSpline
210
0.0
220
0.0
230
1.0
 70
     8
 71
     3
 72
    12
 73
     8
 74
     0
 42
0.00000001
 43
0.00000001
 12
1.0
 22
0.0
 32
0.0
 13
1.0
 23
0.0
 33
0.0
 40
0.0
 40
0.0
 40
0.0
 40
0.0
 40
0.2748176632706646
 40
0.2748176632706646
 40
0.6374088316353324
 40
0.6374088316353324
 40
1.0
 40
1.0
 40
1.0
 40
1.0
 10
187.5979528436351
 20
1094.300156407762
 30
0.0
 10
187.5732389569102
 20
1094.300015976827
 30
0.0
 10
187.5485827706142
 20
1094.295170559328
 30
0.0
 10
187.4938807650229
 20
1094.273720043348
 30
0.0
 10
187.4636251393662
 20
1094.253043976998
 30
0.0
 10
187.4153630901655
 20
1094.19031076176
 30
0.0
 10
187.3980119153557
 20
1094.146607250573
 30
0.0
 10
187.3980119153557
 20
1094.099726121348
 30
0.0
  0
SPLINE
  5
173
330
1F
100
AcDbEntity
  8
PIEZA
  6
SLD-Continua
100
AcDbSpline
210
0.0
220
0.0
230
1.0
 70
     8
 71
     3
 72
    12
 73
     8
 74
     0
 42
0.00000001
 43
0.00000001
 12
1.0
 22
0.0
 32
0.0
 13
1.0
 23
0.0
 33
0.0
 40
0.0
 40
0.0
 40
0.0
 40
0.0
 40
0.2748176632704744
 40
0.2748176632704744
 40
0.6374088316352372
 40
0.6374088316352372
 40
1.0
 40
1.0
 40
1.0
 40
1.0
 10
1677.198070986195
 20
1094.300156407762
 30
0.0
 10
1677.22278487292
 20
1094.300015976827
 30
0.0
 10
1677.247441059216
 20
1094.295170559328
 30
0.0
 10
1677.302143064808
 20
1094.273720043347
 30
0.0
 10
1677.332398690464
 20
1094.253043976997
 30
0.0
 10
1677.380660739665
 20
1094.190310761759
 30
0.0
 10
1677.398011914474
 20
1094.146607250573
 30
0.0
 10
1677.398011914474
 20
1094.099726121348
 30
0.0
  0
SPLINE
  5
174
330
1F
100
AcDbEntity
  8
PIEZA
  6
SLD-Continua
100
AcDbSpline
210
0.0
220
0.0
230
1.0
 70
    24
 71
     3
 72
     8
 73
     4
 74
     0
 42
0.00000001
 43
0.00000001
 12
1.0
 22
0.0
 32
0.0
 13
1.0
 23
0.0
 33
0.0
 40
0.0
 40
0.0
 40
0.0
 40
0.0
 40
1.0
 40
1.0
 40
1.0
 40
1.0
 10
1677.398011914474
 20
1094.099726121348
 30
0.0
 10
1677.398011914474
 20
1091.19712211613
 30
0.0
 10
1677.398011914474
 20
1088.294518110911
 30
0.0
 10
1677.398011914474
 20
1085.391914105693
 30
0.0
  0
SPLINE
  5
175
330
1F
100
AcDbEntity
  8
PIEZA
  6
SLD-Continua
100
AcDbSpline
210
0.0
220
0.0
230
1.0
 70
    24
 71
     3
 72
     8
 73
     4
 74
     0
 42
0.00000001
 43
0.00000001
 12
1.0
 22
0.0
 32
0.0
 13
1.0
 23
0.0
 33
0.0
 40
0.0
 40
0.0
 40
0.0
 40
0.0
 40
1.0
 40
1.0
 40
1.0
 40
1.0
 10
187.3980119153557
 20
1094.099726121348
 30
0.0
 10
187.3980119153557
 20
1091.19712211613
 30
0.0
 10
187.3980119153557
 20
1088.294518110911
 30
0.0
 10
187.3980119153557
 20
1085.391914105693
 30
0.0
  0
SPLINE
  5
176
330
1F
100
AcDbEntity
  8
PIEZA
  6
SLD-Continua
100
AcDbSpline
210
0.0
220
0.0
230
1.0
 70
     8
 71
     3
 72
    12
 73
     8
 74
     0
 42
0.00000001
 43
0.00000001
 12
1.0
 22
0.0
 32
0.0
 13
1.0
 23
0.0
 33
0.0
 40
0.0
 40
0.0
 40
0.0
 40
0.0
 40
0.250000000000007
 40
0.250000000000007
 40
0.500000000000014
 40
0.500000000000014
 40
1.0
 40
1.0
 40
1.0
 40
1.0
 10
1677.398011914474
 20
1085.391914105693
 30
0.0
 10
1677.398011914474
 20
1085.359644178128
 30
0.0
 10
1677.389974856054
 20
1085.328657628358
 30
0.0
 10
1677.363905318395
 20
1085.276456185218
 30
0.0
 10
1677.346384257611
 20
1085.255427841868
 30
0.0
 10
1677.288256645199
 20
1085.206368159199
 30
0.0
 10
1677.243238909215
 20
1085.191914105693
 30
0.0
 10
1677.198011914475
 20
1085.191914105693
 30
0.0
  0
SPLINE
  5
177
330
1F
100
AcDbEntity
  8
PIEZA
  6
SLD-Continua
100
AcDbSpline
210
0.0
220
0.0
230
1.0
 70
     8
 71
     3
 72
    12
 73
     8
 74
     0
 42
0.00000001
 43
0.00000001
 12
1.0
 22
0.0
 32
0.0
 13
1.0
 23
0.0
 33
0.0
 40
0.0
 40
0.0
 40
0.0
 40
0.0
 40
0.2500000000000289
 40
0.2500000000000289
 40
0.5000000000000577
 40
0.5000000000000577
 40
1.0
 40
1.0
 40
1.0
 40
1.0
 10
187.3980119153557
 20
1085.391914105693
 30
0.0
 10
187.3980119153557
 20
1085.359644178128
 30
0.0
 10
187.4060489737756
 20
1085.328657628358
 30
0.0
 10
187.432118511435
 20
1085.276456185218
 30
0.0
 10
187.449639572219
 20
1085.255427841867
 30
0.0
 10
187.5077671846318
 20
1085.206368159199
 30
0.0
 10
187.5527849206155
 20
1085.191914105693
 30
0.0
 10
187.5980119153558
 20
1085.191914105693
 30
0.0
  0
SPLINE
  5
178
330
1F
100
AcDbEntity
  8
PIEZA
  6
SLD-Continua
100
AcDbSpline
210
0.0
220
0.0
230
1.0
 70
     8
 71
     3
 72
    12
 73
     8
 74
     0
 42
0.00000001
 43
0.00000001
 12
1.0
 22
0.0
 32
0.0
 13
1.0
 23
0.0
 33
0.0
 40
0.0
 40
0.0
 40
0.0
 40
0.0
 40
0.4999999999999777
 40
0.4999999999999777
 40
0.7499999999999888
 40
0.7499999999999888
 40
1.0
 40
1.0
 40
1.0
 40
1.0
 10
1677.198011914475
 20
1012.791914105693
 30
0.0
 10
1677.243252208053
 20
1012.791914105693
 30
0.0
 10
1677.288269004644
 20
1012.777368841104
 30
0.0
 10
1677.346097788261
 20
1012.72868224631
 30
0.0
 10
1677.363684435074
 20
1012.707720851883
 30
0.0
 10
1677.389941902048
 20
1012.655329138727
 30
0.0
 10
1677.398011914474
 20
1012.62419398696
 30
0.0
 10
1677.398011914474
 20
1012.591914105693
 30
0.0
  0
SPLINE
  5
179
330
1F
100
AcDbEntity
  8
PIEZA
  6
SLD-Continua
100
AcDbSpline
210
0.0
220
0.0
230
1.0
 70
     8
 71
     3
 72
    12
 73
     8
 74
     0
 42
0.00000001
 43
0.00000001
 12
1.0
 22
0.0
 32
0.0
 13
1.0
 23
0.0
 33
0.0
 40
0.0
 40
0.0
 40
0.0
 40
0.0
 40
0.5
 40
0.5
 40
0.75
 40
0.75
 40
1.0
 40
1.0
 40
1.0
 40
1.0
 10
187.5980119153558
 20
1012.791914105693
 30
0.0
 10
187.552771621778
 20
1012.791914105693
 30
0.0
 10
187.5077548251858
 20
1012.777368841104
 30
0.0
 10
187.4499260415693
 20
1012.72868224631
 30
0.0
 10
187.4323393947565
 20
1012.707720851883
 30
0.0
 10
187.4060819277818
 20
1012.655329138727
 30
0.0
 10
187.3980119153557
 20
1012.62419398696
 30
0.0
 10
187.3980119153557
 20
1012.591914105693
 30
0.0
  0
SPLINE
  5
17A
330
1F
100
AcDbEntity
  8
PIEZA
  6
SLD-Continua
100
AcDbSpline
210
0.0
220
0.0
230
1.0
 70
     8
 71
     3
 72
    12
 73
     8
 74
     0
 42
0.00000001
 43
0.00000001
 12
1.0
 22
0.0
 32
0.0
 13
1.0
 23
0.0
 33
0.0
 40
0.0
 40
0.0
 40
0.0
 40
0.0
 40
0.3621522532375492
 40
0.3621522532375492
 40
0.7243045064750985
 40
0.7243045064750985
 40
1.0
 40
1.0
 40
1.0
 40
1.0
 10
1677.398011914474
 20
1003.884102090039
 30
0.0
 10
1677.398011914474
 20
1003.837176759269
 30
0.0
 10
1677.380589851933
 20
1003.793462128848
 30
0.0
 10
1677.332608409281
 20
1003.731020120503
 30
0.0
 10
1677.302469495975
 20
1003.71020505542
 30
0.0
 10
1677.246807832469
 20
1003.68843316961
 30
0.0
 10
1677.221998011787
 20
1003.683547806835
 30
0.0
 10
1677.197257245494
 20
1003.683454713423
 30
0.0
  0
SPLINE
  5
17B
330
1F
100
AcDbEntity
  8
PIEZA
  6
SLD-Continua
100
AcDbSpline
210
0.0
220
0.0
230
1.0
 70
    24
 71
     3
 72
     8
 73
     4
 74
     0
 42
0.00000001
 43
0.00000001
 12
1.0
 22
0.0
 32
0.0
 13
1.0
 23
0.0
 33
0.0
 40
0.0
 40
0.0
 40
0.0
 40
0.0
 40
1.0
 40
1.0
 40
1.0
 40
1.0
 10
1677.398011914474
 20
1012.591914105693
 30
0.0
 10
1677.398011914474
 20
1009.689310100475
 30
0.0
 10
1677.398011914474
 20
1006.786706095257
 30
0.0
 10
1677.398011914474
 20
1003.884102090039
 30
0.0
  0
SPLINE
  5
17C
330
1F
100
AcDbEntity
  8
PIEZA
  6
SLD-Continua
100
AcDbSpline
210
0.0
220
0.0
230
1.0
 70
    24
 71
     3
 72
     8
 73
     4
 74
     0
 42
0.00000001
 43
0.00000001
 12
1.0
 22
0.0
 32
0.0
 13
1.0
 23
0.0
 33
0.0
 40
0.0
 40
0.0
 40
0.0
 40
0.0
 40
1.0
 40
1.0
 40
1.0
 40
1.0
 10
187.3980119153557
 20
1012.591914105693
 30
0.0
 10
187.3980119153557
 20
1009.689310100475
 30
0.0
 10
187.3980119153557
 20
1006.786706095257
 30
0.0
 10
187.3980119153557
 20
1003.884102090039
 30
0.0
  0
SPLINE
  5
17D
330
1F
100
AcDbEntity
  8
PIEZA
100
AcDbSpline
210
0.0
220
0.0
230
1.0
 70
     8
 71
     3
 72
    68
 73
    64
 74
     0
 42
0.00000001
 43
0.00000001
 12
1.0
 22
0.0
 32
0.0
 13
1.0
 23
0.0
 33
0.0
 40
1.154182806312819
 40
1.154182806312819
 40
1.154182806312819
 40
1.154182806312819
 40
31.03514395979975
 40
31.03514395979975
 40
45.39708058845228
 40
45.39708058845228
 40
56.36568519251878
 40
56.36568519251878
 40
74.12378746069004
 40
74.12378746069004
 40
91.8818897288613
 40
91.8818897288613
 40
104.2005902831916
 40
104.2005902831916
 40
118.0326058259805
 40
118.0326058259805
 40
126.1094492652745
 40
126.1094492652745
 40
143.8407889877056
 40
143.8407889877056
 40
177.1353678877009
 40
177.1353678877009
 40
210.4299467876961
 40
210.4299467876961
 40
243.7245256876914
 40
243.7245256876914
 40
258.2850678967487
 40
258.2850678967487
 40
267.8218967666706
 40
267.8218967666706
 40
277.3587256365925
 40
277.3587256365925
 40
296.4323833764363
 40
296.4323833764363
 40
334.5796988561239
 40
334.5796988561239
 40
383.1109811734711
 40
383.1109811734711
 40
413.8015558787934
 40
413.8015558787934
 40
427.7163337783017
 40
427.7163337783017
 40
437.5016251317913
 40
437.5016251317913
 40
447.286916485281
 40
447.286916485281
 40
466.8574991922603
 40
466.8574991922603
 40
501.3235779182963
 40
501.3235779182963
 40
535.7896566443324
 40
535.7896566443324
 40
545.7030209357487
 40
545.7030209357487
 40
552.4257043622595
 40
552.4257043622595
 40
559.1483877887703
 40
559.1483877887703
 40
572.593754641792
 40
572.593754641792
 40
610.3854473548369
 40
610.3854473548369
 40
627.3216426181642
 40
627.3216426181642
 40
627.3216426181642
 40
627.3216426181642
 10
507.4233207151528
 20
242.325213354841
 30
0.0
 10
515.5786296027061
 20
248.3786277142675
 30
0.0
 10
523.6782020074131
 20
254.4393800194502
 30
0.0
 10
534.4712834986042
 20
264.3745402340749
 30
0.0
 10
537.7878986451758
 20
267.7492802042466
 30
0.0
 10
543.1636818166048
 20
274.09008778749
 30
0.0
 10
545.334854386091
 20
276.9642871202025
 30
0.0
 10
550.5177821417695
 20
284.9128809258601
 30
0.0
 10
553.2186382270968
 20
290.2750880403639
 30
0.0
 10
557.5742086196722
 20
301.5417328507896
 30
0.0
 10
559.2283867973099
 20
307.4437518989973
 30
0.0
 10
561.1103359153674
 20
317.5793115622247
 30
0.0
 10
561.6198674863365
 20
321.7701416367757
 30
0.0
 10
562.1344834126041
 20
330.6180507033295
 30
0.0
 10
562.0698781028946
 20
335.2691501116861
 30
0.0
 10
561.4224133290297
 20
342.450274478161
 30
0.0
 10
561.066397747634
 20
345.0573976834719
 30
0.0
 10
559.5497837607827
 20
353.2055350593571
 30
0.0
 10
557.9373392212367
 20
358.5417855019701
 30
0.0
 10
551.9600299784186
 20
373.3408035252325
 30
0.0
 10
546.4190144171505
 20
382.3156015296676
 30
0.0
 10
533.4737599498294
 20
399.7355430084484
 30
0.0
 10
526.0707814579946
 20
408.1784829895369
 30
0.0
 10
510.8619695343384
 20
425.3602827712003
 30
0.0
 10
503.056390538658
 20
434.0993097207825
 30
0.0
 10
492.6048617383615
 20
447.4835709025542
 30
0.0
 10
489.5270603535266
 20
451.6655866415998
 30
0.0
 10
484.7051418695535
 20
458.827435872872
 30
0.0
 10
482.867252551838
 20
461.7249138073482
 30
0.0
 10
479.367542539291
 20
467.6616014911711
 30
0.0
 10
477.7048303547867
 20
470.6978761616947
 30
0.0
 10
472.9858562695665
 20
479.9818062339879
 30
0.0
 10
470.1987368702046
 20
486.40455631677
 30
0.0
 10
462.9765410840173
 20
506.144265124723
 30
0.0
 10
459.6802848119485
 20
519.9326329039351
 30
0.0
 10
456.0289912679375
 20
551.3071556591933
 30
0.0
 10
456.71799954844
 20
568.9063702511966
 30
0.0
 10
462.9033681982103
 20
595.6364211449519
 30
0.0
 10
466.540057912151
 20
605.5021100938147
 30
0.0
 10
473.7666701511919
 20
618.6578561420033
 30
0.0
 10
476.2955653775334
 20
622.5943976003718
 30
0.0
 10
481.0848934277346
 20
628.9615109696635
 30
0.0
 10
483.2062360436234
 20
631.487633778214
 30
0.0
 10
487.6857924542003
 20
636.3532919759484
 30
0.0
 10
490.0432520407164
 20
638.6953860027464
 30
0.0
 10
497.3866238254061
 20
645.5048554437694
 30
0.0
 10
502.6434007112214
 20
649.755614919884
 30
0.0
 10
517.5598885180509
 20
661.099793167961
 30
0.0
 10
527.5259617700787
 20
667.896192385756
 30
0.0
 10
546.0189551091528
 20
682.1676152139604
 30
0.0
 10
554.5420936082975
 20
689.6414896045687
 30
0.0
 10
563.1035467836039
 20
700.6674312235265
 30
0.0
 10
564.8613605678015
 20
703.2204384030038
 30
0.0
 10
567.5078369621992
 20
707.6869789164991
 30
0.0
 10
568.4917157102882
 20
709.5430032079098
 30
0.0
 10
570.2948680534382
 20
713.3636740221064
 30
0.0
 10
571.1154641250225
 20
715.3261292785123
 30
0.0
 10
573.357409927373
 20
721.3505821471881
 30
0.0
 10
574.5588469820909
 20
725.5497708588945
 30
0.0
 10
578.255652309688
 20
742.0456383483366
 30
0.0
 10
579.150928199007
 20
755.2351687721243
 30
0.0
 10
579.8420897138844
 20
774.0699513444922
 30
0.0
 10
579.9726370352125
 20
779.8619292316324
 30
0.0
 10
580.1492611085855
 20
785.5105388780875
 30
0.0
  0
SPLINE
  5
17E
330
1F
100
AcDbEntity
  8
PIEZA
100
AcDbSpline
210
0.0
220
0.0
230
1.0
 70
     8
 71
     3
 72
    66
 73
    62
 74
     0
 42
0.00000001
 43
0.00000001
 12
1.0
 22
0.0
 32
0.0
 13
1.0
 23
0.0
 33
0.0
 40
0.0
 40
0.0
 40
0.0
 40
0.0
 40
31.07080208087751
 40
31.07080208087751
 40
44.00973633026791
 40
44.00973633026791
 40
54.86950093675312
 40
54.86950093675312
 40
64.57047879925894
 40
64.57047879925894
 40
74.27145666176474
 40
74.27145666176474
 40
93.67341238677638
 40
93.67341238677638
 40
105.8807533144447
 40
105.8807533144447
 40
119.1157143005978
 40
119.1157143005978
 40
127.2417130408762
 40
127.2417130408762
 40
142.3826447719915
 40
142.3826447719915
 40
175.261135004885
 40
175.261135004885
 40
208.1396252377785
 40
208.1396252377785
 40
241.0181154706721
 40
241.0181154706721
 40
255.1286963105184
 40
255.1286963105184
 40
266.6332022840893
 40
266.6332022840893
 40
289.642214231231
 40
289.642214231231
 40
335.6602381255144
 40
335.6602381255144
 40
381.6782620197977
 40
381.6782620197977
 40
427.6962859140811
 40
427.6962859140811
 40
437.4346326127372
 40
437.4346326127372
 40
447.1729793113932
 40
447.1729793113932
 40
466.6496727087054
 40
466.6496727087054
 40
501.1274877921345
 40
501.1274877921345
 40
535.6053028755637
 40
535.6053028755637
 40
545.3626633400739
 40
545.3626633400739
 40
553.1110621684101
 40
553.1110621684101
 40
560.8594609967462
 40
560.8594609967462
 40
576.3562586534184
 40
576.3562586534184
 40
615.4672970241403
 40
615.4672970241403
 40
627.3216426181642
 40
627.3216426181642
 40
627.3216426181642
 40
627.3216426181642
 10
507.2930036324797
 20
239.6577840963801
 30
0.0
 10
516.1532350844125
 20
246.3124880977096
 30
0.0
 10
524.665352730454
 20
252.6262252044201
 30
0.0
 10
535.5482461267386
 20
262.649023674547
 30
0.0
 10
538.6039502666056
 20
265.7282305157847
 30
0.0
 10
543.8430915041899
 20
271.7350625440432
 30
0.0
 10
546.0877619074887
 20
274.6075731261868
 30
0.0
 10
549.9886741869018
 20
280.3544249806023
 30
0.0
 10
551.6780650526744
 20
283.2024294281517
 30
0.0
 10
554.736209407889
 20
289.1184326735434
 30
0.0
 10
556.1070121340265
 20
292.1852222040387
 30
0.0
 10
559.7377460912135
 20
301.6220708828874
 30
0.0
 10
561.5162032100391
 20
308.2285398537806
 30
0.0
 10
563.333940472608
 20
319.1174624515145
 30
0.0
 10
563.7735301812645
 20
323.3533061305791
 30
0.0
 10
564.1306975667633
 20
332.122210164986
 30
0.0
 10
564.0012399452664
 20
336.650285188054
 30
0.0
 10
563.2702458321605
 20
343.7830435233309
 30
0.0
 10
562.8697428518553
 20
346.4553519872962
 30
0.0
 10
561.3708759425547
 20
353.9400037368228
 30
0.0
 10
559.9744763963322
 20
358.6154278120355
 30
0.0
 10
554.4378197999561
 20
372.9418511300368
 30
0.0
 10
549.0018016266753
 20
382.0034589966233
 30
0.0
 10
536.2926643749215
 20
399.4553704783522
 30
0.0
 10
529.0184274440473
 20
407.8479706400739
 30
0.0
 10
514.044487739649
 20
424.7972991124151
 30
0.0
 10
506.3444524588658
 20
433.3539272597143
 30
0.0
 10
496.0366116521454
 20
446.2801986022816
 30
0.0
 10
493.0309668875971
 20
450.2516603986442
 30
0.0
 10
487.8374873651519
 20
457.6818257194426
 30
0.0
 10
485.6011498634207
 20
461.0997240083543
 30
0.0
 10
479.2693755267128
 20
471.64801949694
 30
0.0
 10
475.5441774808758
 20
479.0829972976903
 30
0.0
 10
465.9724872470586
 20
502.1912156242683
 30
0.0
 10
461.7306163048945
 20
518.6678471109358
 30
0.0
 10
458.1273818763993
 20
551.5952062368904
 30
0.0
 10
458.7663136241174
 20
568.045091590179
 30
0.0
 10
465.5001891720358
 20
598.753708225433
 30
0.0
 10
471.5928491349075
 20
613.0099627790158
 30
0.0
 10
482.6198550694644
 20
627.6761738763511
 30
0.0
 10
484.6850965241738
 20
630.1381649596376
 30
0.0
 10
489.0593966705583
 20
634.8953487420026
 30
0.0
 10
491.3661402384171
 20
637.1909125715408
 30
0.0
 10
498.5676515869398
 20
643.8795544506663
 30
0.0
 10
503.7438281428331
 20
648.0743906535146
 30
0.0
 10
518.5410311824758
 20
659.3426891593386
 30
0.0
 10
528.5144411664412
 20
666.1429724129914
 30
0.0
 10
547.1563230761042
 20
680.508961653635
 30
0.0
 10
555.8285414145266
 20
688.0757802215027
 30
0.0
 10
564.5950747901281
 20
699.3167597602419
 30
0.0
 10
566.3810626155048
 20
701.8920077409655
 30
0.0
 10
569.2697896087304
 20
706.7159040424008
 30
0.0
 10
570.4340519975362
 20
708.9259581991076
 30
0.0
 10
572.531836153769
 20
713.4784572238036
 30
0.0
 10
573.468881570655
 20
715.8199413806751
 30
0.0
 10
575.9835452411886
 20
723.0080666579973
 30
0.0
 10
577.2648296093776
 20
728.0182436270198
 30
0.0
 10
580.7518978312285
 20
746.1512846067661
 30
0.0
 10
581.394757294812
 20
760.0050464706254
 30
0.0
 10
581.923894866344
 20
777.4792330530872
 30
0.0
 10
582.0249188630326
 20
781.5026919800126
 30
0.0
 10
582.1482841000833
 20
785.4480322427164
 30
0.0
  0
SPLINE
  5
17F
330
1F
100
AcDbEntity
  8
PIEZA
370
     0
100
AcDbSpline
210
0.0
220
0.0
230
1.0
 70
     8
 71
     3
 72
    11
 73
     7
 74
     0
 42
0.00000001
 43
0.00000001
 12
1.0
 22
0.0
 32
0.0
 13
1.0
 23
0.0
 33
0.0
 40
2.0
 40
2.0
 40
2.0
 40
2.0
 40
3.0
 40
3.0
 40
3.0
 40
4.0
 40
4.0
 40
4.0
 40
4.0
 10
1828.915094010182
 20
23.47179330838192
 30
0.0
 10
1829.582689360092
 20
23.47179330838192
 30
0.0
 10
1830.160981316556
 20
24.05040824276212
 30
0.0
 10
1830.160981316556
 20
24.71764831696585
 30
0.0
 10
1830.160981316556
 20
25.38524366687581
 30
0.0
 10
1829.582689360092
 20
25.96382630346453
 30
0.0
 10
1828.915094010182
 20
25.96382630346453
 30
0.0
  0
SPLINE
  5
180
330
1F
100
AcDbEntity
  8
PIEZA
370
     0
100
AcDbSpline
210
0.0
220
0.0
230
1.0
 70
     8
 71
     3
 72
    11
 73
     7
 74
     0
 42
0.00000001
 43
0.00000001
 12
1.0
 22
0.0
 32
0.0
 13
1.0
 23
0.0
 33
0.0
 40
0.0
 40
0.0
 40
0.0
 40
0.0
 40
1.0
 40
1.0
 40
1.0
 40
2.0
 40
2.0
 40
2.0
 40
2.0
 10
1828.915094010182
 20
25.96382630346453
 30
0.0
 10
1828.247563255854
 20
25.96382630346453
 30
0.0
 10
1827.668980619266
 20
25.38524366687581
 30
0.0
 10
1827.668980619266
 20
24.71764831696585
 30
0.0
 10
1827.668980619266
 20
24.05040824276212
 30
0.0
 10
1828.247563255854
 20
23.47179330838192
 30
0.0
 10
1828.915094010182
 20
23.47179330838192
 30
0.0
  0
SPLINE
  5
181
330
1F
100
AcDbEntity
  8
PIEZA
370
     0
100
AcDbSpline
210
0.0
220
0.0
230
1.0
 70
     8
 71
     3
 72
    11
 73
     7
 74
     0
 42
0.00000001
 43
0.00000001
 12
1.0
 22
0.0
 32
0.0
 13
1.0
 23
0.0
 33
0.0
 40
2.0
 40
2.0
 40
2.0
 40
2.0
 40
3.0
 40
3.0
 40
3.0
 40
4.0
 40
4.0
 40
4.0
 40
4.0
 10
1828.915094010182
 20
26.14185173010721
 30
0.0
 10
1829.671443691081
 20
26.14185173010721
 30
0.0
 10
1830.338974445408
 20
25.47432097578012
 30
0.0
 10
1830.338974445408
 20
24.71764831696585
 30
0.0
 10
1830.338974445408
 20
23.91672768382272
 30
0.0
 10
1829.671443691081
 20
23.29373558394783
 30
0.0
 10
1828.915094010182
 20
23.29373558394783
 30
0.0
  0
SPLINE
  5
182
330
1F
100
AcDbEntity
  8
PIEZA
370
     0
100
AcDbSpline
210
0.0
220
0.0
230
1.0
 70
     8
 71
     3
 72
    11
 73
     7
 74
     0
 42
0.00000001
 43
0.00000001
 12
1.0
 22
0.0
 32
0.0
 13
1.0
 23
0.0
 33
0.0
 40
0.0
 40
0.0
 40
0.0
 40
0.0
 40
1.0
 40
1.0
 40
1.0
 40
2.0
 40
2.0
 40
2.0
 40
2.0
 10
1828.915094010182
 20
23.29373558394783
 30
0.0
 10
1828.114108781455
 20
23.29373558394783
 30
0.0
 10
1827.49089059704
 20
23.91672768382272
 30
0.0
 10
1827.49089059704
 20
24.71764831696585
 30
0.0
 10
1827.49089059704
 20
25.47432097578012
 30
0.0
 10
1828.114108781455
 20
26.14185173010721
 30
0.0
 10
1828.915094010182
 20
26.14185173010721
 30
0.0
  0
SPLINE
  5
183
330
1F
100
AcDbEntity
  8
PIEZA
370
     0
100
AcDbSpline
210
0.0
220
0.0
230
1.0
 70
     8
 71
     3
 72
     8
 73
     4
 74
     0
 42
0.00000001
 43
0.00000001
 12
1.0
 22
0.0
 32
0.0
 13
1.0
 23
0.0
 33
0.0
 40
2.0
 40
2.0
 40
2.0
 40
2.0
 40
3.0
 40
3.0
 40
3.0
 40
3.0
 10
1764.030445814673
 20
24.40616841590001
 30
0.0
 10
1764.831431043399
 20
24.40616841590001
 30
0.0
 10
1765.454649227814
 20
24.31747868049349
 30
0.0
 10
1765.855109544386
 20
24.09472081264981
 30
0.0
  0
SPLINE
  5
184
330
1F
100
AcDbEntity
  8
PIEZA
370
     0
100
AcDbSpline
210
0.0
220
0.0
230
1.0
 70
     8
 71
     3
 72
    11
 73
     7
 74
     0
 42
0.00000001
 43
0.00000001
 12
1.0
 22
0.0
 32
0.0
 13
1.0
 23
0.0
 33
0.0
 40
3.0
 40
3.0
 40
3.0
 40
3.0
 40
4.0
 40
4.0
 40
4.0
 40
5.0
 40
5.0
 40
5.0
 40
5.0
 10
1765.855109544386
 20
24.09472081264981
 30
0.0
 10
1766.299963175348
 20
23.78327320939952
 30
0.0
 10
1766.522414214173
 20
23.24910003609712
 30
0.0
 10
1766.522414214173
 20
22.53712752069232
 30
0.0
 10
1766.522414214173
 20
22.04758989521652
 30
0.0
 10
1766.433643734287
 20
21.64716187643641
 30
0.0
 10
1766.210950462027
 20
21.3799945453065
 30
0.0
  0
SPLINE
  5
185
330
1F
100
AcDbEntity
  8
PIEZA
370
     0
100
AcDbSpline
210
0.0
220
0.0
230
1.0
 70
     8
 71
     3
 72
     8
 73
     4
 74
     0
 42
0.00000001
 43
0.00000001
 12
1.0
 22
0.0
 32
0.0
 13
1.0
 23
0.0
 33
0.0
 40
5.0
 40
5.0
 40
5.0
 40
5.0
 40
6.0
 40
6.0
 40
6.0
 40
6.0
 10
1766.210950462027
 20
21.3799945453065
 30
0.0
 10
1766.121889302018
 20
21.2466046664904
 30
0.0
 10
1765.944122257707
 20
21.15759195316902
 30
0.0
 10
1765.721428985447
 20
21.06854694205622
 30
0.0
  0
SPLINE
  5
186
330
1F
100
AcDbEntity
  8
PIEZA
370
     0
100
AcDbSpline
210
0.0
220
0.0
230
1.0
 70
     8
 71
     3
 72
     8
 73
     4
 74
     0
 42
0.00000001
 43
0.00000001
 12
1.0
 22
0.0
 32
0.0
 13
1.0
 23
0.0
 33
0.0
 40
6.0
 40
6.0
 40
6.0
 40
6.0
 40
7.0
 40
7.0
 40
7.0
 40
7.0
 10
1765.721428985447
 20
21.06854694205622
 30
0.0
 10
1765.810425549872
 20
21.02423437214442
 30
0.0
 10
1765.899486709881
 20
21.02423437214442
 30
0.0
 10
1765.944122257707
 20
20.97953422873492
 30
0.0
  0
SPLINE
  5
187
330
1F
100
AcDbEntity
  8
PIEZA
370
     0
100
AcDbSpline
210
0.0
220
0.0
230
1.0
 70
     8
 71
     3
 72
     8
 73
     4
 74
     0
 42
0.00000001
 43
0.00000001
 12
1.0
 22
0.0
 32
0.0
 13
1.0
 23
0.0
 33
0.0
 40
7.0
 40
7.0
 40
7.0
 40
7.0
 40
8.0
 40
8.0
 40
8.0
 40
8.0
 10
1765.944122257707
 20
20.97953422873492
 30
0.0
 10
1766.077560583211
 20
20.8905538132051
 30
0.0
 10
1766.210950462027
 20
20.75709933880601
 30
0.0
 10
1766.299963175348
 20
20.62370945998991
 30
0.0
  0
SPLINE
  5
188
330
1F
100
AcDbEntity
  8
PIEZA
370
     0
100
AcDbSpline
210
0.0
220
0.0
230
1.0
 70
     8
 71
     3
 72
     8
 73
     4
 74
     0
 42
0.00000001
 43
0.00000001
 12
1.0
 22
0.0
 32
0.0
 13
1.0
 23
0.0
 33
0.0
 40
8.0
 40
8.0
 40
8.0
 40
8.0
 40
9.0
 40
9.0
 40
9.0
 40
9.0
 10
1766.299963175348
 20
20.62370945998991
 30
0.0
 10
1766.344647169862
 20
20.44561943776434
 30
0.0
 10
1766.389024335357
 20
20.2675617133301
 30
0.0
 10
1766.389024335357
 20
20.04515912119273
 30
0.0
  0
SPLINE
  5
189
330
1F
100
AcDbEntity
  8
PIEZA
370
     0
100
AcDbSpline
210
0.0
220
0.0
230
1.0
 70
     8
 71
     3
 72
     8
 73
     4
 74
     0
 42
0.00000001
 43
0.00000001
 12
1.0
 22
0.0
 32
0.0
 13
1.0
 23
0.0
 33
0.0
 40
12.0
 40
12.0
 40
12.0
 40
12.0
 40
13.0
 40
13.0
 40
13.0
 40
13.0
 10
1765.231891359979
 20
19.77808868345263
 30
0.0
 10
1765.231891359979
 20
20.17854900002421
 30
0.0
 10
1765.142878646657
 20
20.40098388995314
 30
0.0
 10
1764.965127751243
 20
20.48999660327441
 30
0.0
  0
SPLINE
  5
18A
330
1F
100
AcDbEntity
  8
PIEZA
370
     0
100
AcDbSpline
210
0.0
220
0.0
230
1.0
 70
     8
 71
     3
 72
     8
 73
     4
 74
     0
 42
0.00000001
 43
0.00000001
 12
1.0
 22
0.0
 32
0.0
 13
1.0
 23
0.0
 33
0.0
 40
13.0
 40
13.0
 40
13.0
 40
13.0
 40
14.0
 40
14.0
 40
14.0
 40
14.0
 10
1764.965127751243
 20
20.48999660327441
 30
0.0
 10
1764.787053877913
 20
20.57900931659582
 30
0.0
 10
1764.475606274663
 20
20.66808662550001
 30
0.0
 10
1763.941384654673
 20
20.66808662550001
 30
0.0
  0
SPLINE
  5
18B
330
1F
100
AcDbEntity
  8
PIEZA
370
     0
100
AcDbSpline
210
0.0
220
0.0
230
1.0
 70
     8
 71
     3
 72
     8
 73
     4
 74
     0
 42
0.00000001
 43
0.00000001
 12
1.0
 22
0.0
 32
0.0
 13
1.0
 23
0.0
 33
0.0
 40
4.0
 40
4.0
 40
4.0
 40
4.0
 40
5.0
 40
5.0
 40
5.0
 40
5.0
 10
1763.896700660173
 20
21.55808456760001
 30
0.0
 10
1764.475606274676
 20
21.55808456760001
 30
0.0
 10
1764.831431043421
 20
21.64716187650432
 30
0.0
 10
1765.009440321168
 20
21.78051945752891
 30
0.0
  0
SPLINE
  5
18C
330
1F
100
AcDbEntity
  8
PIEZA
370
     0
100
AcDbSpline
210
0.0
220
0.0
230
1.0
 70
     8
 71
     3
 72
    11
 73
     7
 74
     0
 42
0.00000001
 43
0.00000001
 12
1.0
 22
0.0
 32
0.0
 13
1.0
 23
0.0
 33
0.0
 40
5.0
 40
5.0
 40
5.0
 40
5.0
 40
6.0
 40
6.0
 40
6.0
 40
7.0
 40
7.0
 40
7.0
 40
7.0
 10
1765.009440321168
 20
21.78051945752891
 30
0.0
 10
1765.187514194498
 20
21.86953217085021
 30
0.0
 10
1765.320904073315
 20
22.1366672041887
 30
0.0
 10
1765.320904073315
 20
22.58182766416981
 30
0.0
 10
1765.320904073315
 20
22.80419795851573
 30
0.0
 10
1765.276591503402
 20
22.9822879807413
 30
0.0
 10
1765.231891359993
 20
23.11574245514039
 30
0.0
  0
SPLINE
  5
18D
330
1F
100
AcDbEntity
  8
PIEZA
370
     0
100
AcDbSpline
210
0.0
220
0.0
230
1.0
 70
     8
 71
     3
 72
     8
 73
     4
 74
     0
 42
0.00000001
 43
0.00000001
 12
1.0
 22
0.0
 32
0.0
 13
1.0
 23
0.0
 33
0.0
 40
7.0
 40
7.0
 40
7.0
 40
7.0
 40
8.0
 40
8.0
 40
8.0
 40
8.0
 10
1765.231891359993
 20
23.11574245514039
 30
0.0
 10
1765.187514194498
 20
23.20472287067032
 30
0.0
 10
1765.098501481177
 20
23.29373558399162
 30
0.0
 10
1765.009440321168
 20
23.33811274948631
 30
0.0
  0
SPLINE
  5
18E
330
1F
100
AcDbEntity
  8
PIEZA
370
     0
100
AcDbSpline
210
0.0
220
0.0
230
1.0
 70
     8
 71
     3
 72
     8
 73
     4
 74
     0
 42
0.00000001
 43
0.00000001
 12
1.0
 22
0.0
 32
0.0
 13
1.0
 23
0.0
 33
0.0
 40
8.0
 40
8.0
 40
8.0
 40
8.0
 40
9.0
 40
9.0
 40
9.0
 40
9.0
 10
1765.009440321168
 20
23.33811274948631
 30
0.0
 10
1764.875743613333
 20
23.42719005839062
 30
0.0
 10
1764.742369883412
 20
23.47179330842572
 30
0.0
 10
1764.564296010083
 20
23.47179330842572
 30
0.0
  0
SPLINE
  5
18F
330
1F
100
AcDbEntity
  8
PIEZA
370
     0
100
AcDbSpline
210
0.0
220
0.0
230
1.0
 70
     8
 71
     3
 72
     8
 73
     4
 74
     0
 42
0.00000001
 43
0.00000001
 12
1.0
 22
0.0
 32
0.0
 13
1.0
 23
0.0
 33
0.0
 40
9.0
 40
9.0
 40
9.0
 40
9.0
 40
10.0
 40
10.0
 40
10.0
 40
10.0
 10
1764.564296010083
 20
23.47179330842572
 30
0.0
 10
1764.341909566841
 20
23.516202771712
 30
0.0
 10
1764.119458528017
 20
23.516202771712
 30
0.0
 10
1763.852388090261
 20
23.516202771712
 30
0.0
  0
SPLINE
  5
190
330
1F
100
AcDbEntity
  8
PIEZA
370
     0
100
AcDbSpline
210
0.0
220
0.0
230
1.0
 70
     8
 71
     3
 72
     8
 73
     4
 74
     0
 42
0.00000001
 43
0.00000001
 12
1.0
 22
0.0
 32
0.0
 13
1.0
 23
0.0
 33
0.0
 40
0.0
 40
0.0
 40
0.0
 40
0.0
 40
1.0
 40
1.0
 40
1.0
 40
1.0
 10
1777.381254687908
 20
23.11574245513201
 30
0.0
 10
1777.55928011455
 20
23.64988333064302
 30
0.0
 10
1777.8707277178
 20
24.00570809938803
 30
0.0
 10
1778.360265343276
 20
24.22817528710833
 30
0.0
  0
SPLINE
  5
191
330
1F
100
AcDbEntity
  8
PIEZA
370
     0
100
AcDbSpline
210
0.0
220
0.0
230
1.0
 70
     8
 71
     3
 72
    11
 73
     7
 74
     0
 42
0.00000001
 43
0.00000001
 12
1.0
 22
0.0
 32
0.0
 13
1.0
 23
0.0
 33
0.0
 40
1.0
 40
1.0
 40
1.0
 40
1.0
 40
2.0
 40
2.0
 40
2.0
 40
3.0
 40
3.0
 40
3.0
 40
3.0
 10
1778.360265343276
 20
24.22817528710833
 30
0.0
 10
1778.760790255431
 20
24.40616841595953
 30
0.0
 10
1779.294705046402
 20
24.45086855936911
 30
0.0
 10
1779.873223087407
 20
24.45086855936911
 30
0.0
 10
1780.496441271823
 20
24.45086855936911
 30
0.0
 10
1781.164036621733
 20
24.49524572486384
 30
0.0
 10
1781.831308993728
 20
24.49524572486384
 30
0.0
  0
SPLINE
  5
192
330
1F
100
AcDbEntity
  8
PIEZA
370
     0
100
AcDbSpline
210
0.0
220
0.0
230
1.0
 70
     8
 71
     3
 72
     8
 73
     4
 74
     0
 42
0.00000001
 43
0.00000001
 12
1.0
 22
0.0
 32
0.0
 13
1.0
 23
0.0
 33
0.0
 40
4.0
 40
4.0
 40
4.0
 40
4.0
 40
5.0
 40
5.0
 40
5.0
 40
5.0
 10
1782.899396958028
 20
24.49524572486384
 30
0.0
 10
1784.279223205674
 20
24.49524572486384
 30
0.0
 10
1785.213598313216
 20
24.36185584604774
 30
0.0
 10
1785.703103640901
 20
23.96136323168473
 30
0.0
  0
SPLINE
  5
193
330
1F
100
AcDbEntity
  8
PIEZA
370
     0
100
AcDbSpline
210
0.0
220
0.0
230
1.0
 70
     8
 71
     3
 72
     8
 73
     4
 74
     0
 42
0.00000001
 43
0.00000001
 12
1.0
 22
0.0
 32
0.0
 13
1.0
 23
0.0
 33
0.0
 40
5.0
 40
5.0
 40
5.0
 40
5.0
 40
6.0
 40
6.0
 40
6.0
 40
6.0
 10
1785.703103640901
 20
23.96136323168473
 30
0.0
 10
1786.192641266377
 20
23.56087061732162
 30
0.0
 10
1786.415076156305
 20
22.75959470847225
 30
0.0
 10
1786.370698990811
 20
21.60275241320962
 30
0.0
  0
SPLINE
  5
194
330
1F
100
AcDbEntity
  8
PIEZA
370
     0
100
AcDbSpline
210
0.0
220
0.0
230
1.0
 70
     8
 71
     3
 72
     8
 73
     4
 74
     0
 42
0.00000001
 43
0.00000001
 12
1.0
 22
0.0
 32
0.0
 13
1.0
 23
0.0
 33
0.0
 40
6.0
 40
6.0
 40
6.0
 40
6.0
 40
7.0
 40
7.0
 40
7.0
 40
7.0
 10
1786.370698990811
 20
21.60275241320962
 30
0.0
 10
1786.370698990811
 20
21.06854694211573
 30
0.0
 10
1786.370698990811
 20
20.53469674672813
 30
0.0
 10
1786.326031145192
 20
20.04515912125224
 30
0.0
  0
SPLINE
  5
195
330
1F
100
AcDbEntity
  8
PIEZA
370
     0
100
AcDbSpline
210
0.0
220
0.0
230
1.0
 70
     8
 71
     3
 72
     8
 73
     4
 74
     0
 42
0.00000001
 43
0.00000001
 12
1.0
 22
0.0
 32
0.0
 13
1.0
 23
0.0
 33
0.0
 40
7.0
 40
7.0
 40
7.0
 40
7.0
 40
8.0
 40
8.0
 40
8.0
 40
8.0
 10
1786.326031145192
 20
20.04515912125224
 30
0.0
 10
1786.237309111995
 20
19.46657648466352
 30
0.0
 10
1786.014583541942
 20
19.02141602468244
 30
0.0
 10
1785.61409092758
 20
18.75447477809285
 30
0.0
  0
SPLINE
  5
196
330
1F
100
AcDbEntity
  8
PIEZA
370
     0
100
AcDbSpline
210
0.0
220
0.0
230
1.0
 70
     8
 71
     3
 72
     8
 73
     4
 74
     0
 42
0.00000001
 43
0.00000001
 12
1.0
 22
0.0
 32
0.0
 13
1.0
 23
0.0
 33
0.0
 40
8.0
 40
8.0
 40
8.0
 40
8.0
 40
9.0
 40
9.0
 40
9.0
 40
9.0
 10
1785.61409092758
 20
18.75447477809285
 30
0.0
 10
1785.258266158834
 20
18.48756582929484
 30
0.0
 10
1784.72406068774
 20
18.35401446152132
 30
0.0
 10
1784.056529933413
 20
18.30950810486063
 30
0.0
  0
SPLINE
  5
197
330
1F
100
AcDbEntity
  8
PIEZA
370
     0
100
AcDbSpline
210
0.0
220
0.0
230
1.0
 70
     8
 71
     3
 72
     8
 73
     4
 74
     0
 42
0.00000001
 43
0.00000001
 12
1.0
 22
0.0
 32
0.0
 13
1.0
 23
0.0
 33
0.0
 40
9.0
 40
9.0
 40
9.0
 40
9.0
 40
10.0
 40
10.0
 40
10.0
 40
10.0
 10
1784.056529933413
 20
18.30950810486063
 30
0.0
 10
1783.477914999033
 20
18.26500174820002
 30
0.0
 10
1782.944064803646
 20
18.26500174820002
 30
0.0
 10
1782.365482167057
 20
18.26500174820002
 30
0.0
  0
SPLINE
  5
198
330
1F
100
AcDbEntity
  8
PIEZA
370
     0
100
AcDbSpline
210
0.0
220
0.0
230
1.0
 70
     8
 71
     3
 72
     8
 73
     4
 74
     0
 42
0.00000001
 43
0.00000001
 12
1.0
 22
0.0
 32
0.0
 13
1.0
 23
0.0
 33
0.0
 40
12.0
 40
12.0
 40
12.0
 40
12.0
 40
13.0
 40
13.0
 40
13.0
 40
13.0
 10
1780.807888875073
 20
18.26500174820002
 30
0.0
 10
1780.362760712883
 20
18.26500174820002
 30
0.0
 10
1779.873223087407
 20
18.26500174820002
 30
0.0
 10
1779.383685461932
 20
18.30950810486063
 30
0.0
  0
SPLINE
  5
199
330
1F
100
AcDbEntity
  8
PIEZA
370
     0
100
AcDbSpline
210
0.0
220
0.0
230
1.0
 70
     8
 71
     3
 72
     8
 73
     4
 74
     0
 42
0.00000001
 43
0.00000001
 12
1.0
 22
0.0
 32
0.0
 13
1.0
 23
0.0
 33
0.0
 40
13.0
 40
13.0
 40
13.0
 40
13.0
 40
14.0
 40
14.0
 40
14.0
 40
14.0
 10
1779.383685461932
 20
18.30950810486063
 30
0.0
 10
1779.072237858681
 20
18.35401446152132
 30
0.0
 10
1778.760790255431
 20
18.39852081818201
 30
0.0
 10
1778.493719817676
 20
18.48756582929484
 30
0.0
  0
SPLINE
  5
19A
330
1F
100
AcDbEntity
  8
PIEZA
370
     0
100
AcDbSpline
210
0.0
220
0.0
230
1.0
 70
     8
 71
     3
 72
     8
 73
     4
 74
     0
 42
0.00000001
 43
0.00000001
 12
1.0
 22
0.0
 32
0.0
 13
1.0
 23
0.0
 33
0.0
 40
14.0
 40
14.0
 40
14.0
 40
14.0
 40
15.0
 40
15.0
 40
15.0
 40
15.0
 10
1778.493719817676
 20
18.48756582929484
 30
0.0
 10
1778.182239916634
 20
18.57644935145025
 30
0.0
 10
1777.915104883295
 20
18.75447477809285
 30
0.0
 10
1777.692702291158
 20
19.02141602468244
 30
0.0
  0
SPLINE
  5
19B
330
1F
100
AcDbEntity
  8
PIEZA
370
     0
100
AcDbSpline
210
0.0
220
0.0
230
1.0
 70
     8
 71
     3
 72
     8
 73
     4
 74
     0
 42
0.00000001
 43
0.00000001
 12
1.0
 22
0.0
 32
0.0
 13
1.0
 23
0.0
 33
0.0
 40
15.0
 40
15.0
 40
15.0
 40
15.0
 40
16.0
 40
16.0
 40
16.0
 40
16.0
 10
1777.692702291158
 20
19.02141602468244
 30
0.0
 10
1777.470267401229
 20
19.33305741468151
 30
0.0
 10
1777.33658684229
 20
19.73371151800201
 30
0.0
 10
1777.292193527899
 20
20.17854900006832
 30
0.0
  0
SPLINE
  5
19C
330
1F
100
AcDbEntity
  8
PIEZA
370
     0
100
AcDbSpline
210
0.0
220
0.0
230
1.0
 70
     8
 71
     3
 72
    11
 73
     7
 74
     0
 42
0.00000001
 43
0.00000001
 12
1.0
 22
0.0
 32
0.0
 13
1.0
 23
0.0
 33
0.0
 40
16.0
 40
16.0
 40
16.0
 40
16.0
 40
17.0
 40
17.0
 40
17.0
 40
18.0
 40
18.0
 40
18.0
 40
18.0
 10
1777.292193527899
 20
20.17854900006832
 30
0.0
 10
1777.247509533385
 20
20.62370946004943
 30
0.0
 10
1777.247509533385
 20
20.97953422879444
 30
0.0
 10
1777.247509533385
 20
21.33568197545425
 30
0.0
 10
1777.247509533385
 20
21.91423231425144
 30
0.0
 10
1777.292193527899
 20
22.49275035525712
 30
0.0
 10
1777.381254687908
 20
23.11574245513201
 30
0.0
  0
SPLINE
  5
19D
330
1F
100
AcDbEntity
  8
PIEZA
370
     0
100
AcDbSpline
210
0.0
220
0.0
230
1.0
 70
     8
 71
     3
 72
     8
 73
     4
 74
     0
 42
0.00000001
 43
0.00000001
 12
1.0
 22
0.0
 32
0.0
 13
1.0
 23
0.0
 33
0.0
 40
1.0
 40
1.0
 40
1.0
 40
1.0
 40
2.0
 40
2.0
 40
2.0
 40
2.0
 10
1780.229370834064
 20
23.51620277170203
 30
0.0
 10
1779.517366020868
 20
23.51620277170203
 30
0.0
 10
1779.072237858679
 20
23.42719005838065
 30
0.0
 10
1778.805167420923
 20
23.29373558398165
 30
0.0
  0
SPLINE
  5
19E
330
1F
100
AcDbEntity
  8
PIEZA
370
     0
100
AcDbSpline
210
0.0
220
0.0
230
1.0
 70
     8
 71
     3
 72
     8
 73
     4
 74
     0
 42
0.00000001
 43
0.00000001
 12
1.0
 22
0.0
 32
0.0
 13
1.0
 23
0.0
 33
0.0
 40
2.0
 40
2.0
 40
2.0
 40
2.0
 40
3.0
 40
3.0
 40
3.0
 40
3.0
 10
1778.805167420923
 20
23.29373558398165
 30
0.0
 10
1778.627077398697
 20
23.16034570516551
 30
0.0
 10
1778.493719817673
 20
22.84857512400054
 30
0.0
 10
1778.493719817673
 20
22.22567991750002
 30
0.0
  0
SPLINE
  5
19F
330
1F
100
AcDbEntity
  8
PIEZA
370
     0
100
AcDbSpline
210
0.0
220
0.0
230
1.0
 70
     8
 71
     3
 72
     8
 73
     4
 74
     0
 42
0.00000001
 43
0.00000001
 12
1.0
 22
0.0
 32
0.0
 13
1.0
 23
0.0
 33
0.0
 40
5.0
 40
5.0
 40
5.0
 40
5.0
 40
6.0
 40
6.0
 40
6.0
 40
6.0
 10
1778.449342652173
 20
20.93515706330003
 30
0.0
 10
1778.449342652173
 20
20.62370946004985
 30
0.0
 10
1778.449342652173
 20
20.35663902229435
 30
0.0
 10
1778.493719817668
 20
20.13417183457405
 30
0.0
  0
SPLINE
  5
1A0
330
1F
100
AcDbEntity
  8
PIEZA
370
     0
100
AcDbSpline
210
0.0
220
0.0
230
1.0
 70
     8
 71
     3
 72
     8
 73
     4
 74
     0
 42
0.00000001
 43
0.00000001
 12
1.0
 22
0.0
 32
0.0
 13
1.0
 23
0.0
 33
0.0
 40
6.0
 40
6.0
 40
6.0
 40
6.0
 40
7.0
 40
7.0
 40
7.0
 40
7.0
 10
1778.493719817668
 20
20.13417183457405
 30
0.0
 10
1778.493719817668
 20
19.91147856231326
 30
0.0
 10
1778.582700233197
 20
19.77808868349716
 30
0.0
 10
1778.671712946519
 20
19.64434352897486
 30
0.0
  0
SPLINE
  5
1A1
330
1F
100
AcDbEntity
  8
PIEZA
370
     0
100
AcDbSpline
210
0.0
220
0.0
230
1.0
 70
     8
 71
     3
 72
     8
 73
     4
 74
     0
 42
0.00000001
 43
0.00000001
 12
1.0
 22
0.0
 32
0.0
 13
1.0
 23
0.0
 33
0.0
 40
7.0
 40
7.0
 40
7.0
 40
7.0
 40
8.0
 40
8.0
 40
8.0
 40
8.0
 10
1778.671712946519
 20
19.64434352897486
 30
0.0
 10
1778.716380792137
 20
19.51095365015875
 30
0.0
 10
1778.894147836448
 20
19.42194093683734
 30
0.0
 10
1779.072237858673
 20
19.37756377134268
 30
0.0
  0
SPLINE
  5
1A2
330
1F
100
AcDbEntity
  8
PIEZA
370
     0
100
AcDbSpline
210
0.0
220
0.0
230
1.0
 70
     8
 71
     3
 72
     8
 73
     4
 74
     0
 42
0.00000001
 43
0.00000001
 12
1.0
 22
0.0
 32
0.0
 13
1.0
 23
0.0
 33
0.0
 40
8.0
 40
8.0
 40
8.0
 40
8.0
 40
9.0
 40
9.0
 40
9.0
 40
9.0
 10
1779.072237858673
 20
19.37756377134268
 30
0.0
 10
1779.294705046394
 20
19.28855105802135
 30
0.0
 10
1779.606152649644
 20
19.24401240356916
 30
0.0
 10
1780.006903646339
 20
19.24401240356916
 30
0.0
  0
SPLINE
  5
1A3
330
1F
100
AcDbEntity
  8
PIEZA
370
     0
100
AcDbSpline
210
0.0
220
0.0
230
1.0
 70
     8
 71
     3
 72
     8
 73
     4
 74
     0
 42
0.00000001
 43
0.00000001
 12
1.0
 22
0.0
 32
0.0
 13
1.0
 23
0.0
 33
0.0
 40
12.0
 40
12.0
 40
12.0
 40
12.0
 40
13.0
 40
13.0
 40
13.0
 40
13.0
 10
1782.409859332539
 20
19.19950604696918
 30
0.0
 10
1782.988409671336
 20
19.19950604696918
 30
0.0
 10
1783.52261514243
 20
19.19950604696918
 30
0.0
 10
1784.101133183435
 20
19.24401240362979
 30
0.0
  0
SPLINE
  5
1A4
330
1F
100
AcDbEntity
  8
PIEZA
370
     0
100
AcDbSpline
210
0.0
220
0.0
230
1.0
 70
     8
 71
     3
 72
     8
 73
     4
 74
     0
 42
0.00000001
 43
0.00000001
 12
1.0
 22
0.0
 32
0.0
 13
1.0
 23
0.0
 33
0.0
 40
13.0
 40
13.0
 40
13.0
 40
13.0
 40
14.0
 40
14.0
 40
14.0
 40
14.0
 10
1784.101133183435
 20
19.24401240362979
 30
0.0
 10
1784.590670808911
 20
19.33305741474256
 30
0.0
 10
1784.857515162127
 20
19.46657648472457
 30
0.0
 10
1784.991195721066
 20
19.64434352903548
 30
0.0
  0
SPLINE
  5
1A5
330
1F
100
AcDbEntity
  8
PIEZA
370
     0
100
AcDbSpline
210
0.0
220
0.0
230
1.0
 70
     8
 71
     3
 72
     8
 73
     4
 74
     0
 42
0.00000001
 43
0.00000001
 12
1.0
 22
0.0
 32
0.0
 13
1.0
 23
0.0
 33
0.0
 40
14.0
 40
14.0
 40
14.0
 40
14.0
 40
15.0
 40
15.0
 40
15.0
 40
15.0
 10
1784.991195721066
 20
19.64434352903548
 30
0.0
 10
1785.124585599882
 20
19.86710139687917
 30
0.0
 10
1785.168962765377
 20
20.17854900012937
 30
0.0
 10
1785.168962765377
 20
20.57900931670098
 30
0.0
  0
SPLINE
  5
1A6
330
1F
100
AcDbEntity
  8
PIEZA
370
     0
100
AcDbSpline
210
0.0
220
0.0
230
1.0
 70
     8
 71
     3
 72
     8
 73
     4
 74
     0
 42
0.00000001
 43
0.00000001
 12
1.0
 22
0.0
 32
0.0
 13
1.0
 23
0.0
 33
0.0
 40
16.0
 40
16.0
 40
16.0
 40
16.0
 40
17.0
 40
17.0
 40
17.0
 40
17.0
 10
1785.168962765424
 20
21.73614229202416
 30
0.0
 10
1785.168962765424
 20
22.00321272977964
 30
0.0
 10
1785.168962765424
 20
22.31475722640435
 30
0.0
 10
1785.124585599929
 20
22.58182766415984
 30
0.0
  0
SPLINE
  5
1A7
330
1F
100
AcDbEntity
  8
PIEZA
370
     0
100
AcDbSpline
210
0.0
220
0.0
230
1.0
 70
     8
 71
     3
 72
     8
 73
     4
 74
     0
 42
0.00000001
 43
0.00000001
 12
1.0
 22
0.0
 32
0.0
 13
1.0
 23
0.0
 33
0.0
 40
17.0
 40
17.0
 40
17.0
 40
17.0
 40
18.0
 40
18.0
 40
18.0
 40
18.0
 10
1785.124585599929
 20
22.58182766415984
 30
0.0
 10
1785.124585599929
 20
22.89327526741004
 30
0.0
 10
1785.035508291025
 20
23.07136528963573
 30
0.0
 10
1784.946495577704
 20
23.20472287066035
 30
0.0
  0
SPLINE
  5
1A8
330
1F
100
AcDbEntity
  8
PIEZA
370
     0
100
AcDbSpline
210
0.0
220
0.0
230
1.0
 70
     8
 71
     3
 72
     8
 73
     4
 74
     0
 42
0.00000001
 43
0.00000001
 12
1.0
 22
0.0
 32
0.0
 13
1.0
 23
0.0
 33
0.0
 40
18.0
 40
18.0
 40
18.0
 40
18.0
 40
19.0
 40
19.0
 40
19.0
 40
19.0
 10
1784.946495577704
 20
23.20472287066035
 30
0.0
 10
1784.813105698888
 20
23.33811274947634
 30
0.0
 10
1784.679425139948
 20
23.38281289288592
 30
0.0
 10
1784.546035261132
 20
23.42719005838065
 30
0.0
  0
SPLINE
  5
1A9
330
1F
100
AcDbEntity
  8
PIEZA
370
     0
100
AcDbSpline
210
0.0
220
0.0
230
1.0
 70
     8
 71
     3
 72
     8
 73
     4
 74
     0
 42
0.00000001
 43
0.00000001
 12
1.0
 22
0.0
 32
0.0
 13
1.0
 23
0.0
 33
0.0
 40
19.0
 40
19.0
 40
19.0
 40
19.0
 40
20.0
 40
20.0
 40
20.0
 40
20.0
 10
1784.546035261132
 20
23.42719005838065
 30
0.0
 10
1784.189887514472
 20
23.51620277170203
 30
0.0
 10
1783.789685580232
 20
23.51620277170203
 30
0.0
 10
1783.433537833573
 20
23.51620277170203
 30
0.0
  0
SPLINE
  5
1AA
330
1F
100
AcDbEntity
  8
PIEZA
370
     0
100
AcDbSpline
210
0.0
220
0.0
230
1.0
 70
     8
 71
     3
 72
     8
 73
     4
 74
     0
 42
0.00000001
 43
0.00000001
 12
1.0
 22
0.0
 32
0.0
 13
1.0
 23
0.0
 33
0.0
 40
2.0
 40
2.0
 40
2.0
 40
2.0
 40
3.0
 40
3.0
 40
3.0
 40
3.0
 10
1794.737248087028
 20
22.67080807971125
 30
0.0
 10
1794.737248087028
 20
22.80419795852735
 30
0.0
 10
1794.692612539201
 20
22.93765243292633
 30
0.0
 10
1794.648235373707
 20
23.11574245515202
 30
0.0
  0
SPLINE
  5
1AB
330
1F
100
AcDbEntity
  8
PIEZA
370
     0
100
AcDbSpline
210
0.0
220
0.0
230
1.0
 70
     8
 71
     3
 72
     8
 73
     4
 74
     0
 42
0.00000001
 43
0.00000001
 12
1.0
 22
0.0
 32
0.0
 13
1.0
 23
0.0
 33
0.0
 40
3.0
 40
3.0
 40
3.0
 40
3.0
 40
4.0
 40
4.0
 40
4.0
 40
4.0
 10
1794.648235373707
 20
23.11574245515202
 30
0.0
 10
1794.648235373707
 20
23.20472287068183
 30
0.0
 10
1794.559158064803
 20
23.29373558400324
 30
0.0
 10
1794.425768185986
 20
23.33811274949794
 30
0.0
  0
SPLINE
  5
1AC
330
1F
100
AcDbEntity
  8
PIEZA
370
     0
100
AcDbSpline
210
0.0
220
0.0
230
1.0
 70
     8
 71
     3
 72
     8
 73
     4
 74
     0
 42
0.00000001
 43
0.00000001
 12
1.0
 22
0.0
 32
0.0
 13
1.0
 23
0.0
 33
0.0
 40
4.0
 40
4.0
 40
4.0
 40
4.0
 40
5.0
 40
5.0
 40
5.0
 40
5.0
 10
1794.425768185986
 20
23.33811274949794
 30
0.0
 10
1794.203107211517
 20
23.42719005840225
 30
0.0
 10
1793.846959464857
 20
23.47179330843734
 30
0.0
 10
1793.446466850494
 20
23.51620277172351
 30
0.0
  0
SPLINE
  5
1AD
330
1F
100
AcDbEntity
  8
PIEZA
370
     0
100
AcDbSpline
210
0.0
220
0.0
230
1.0
 70
    24
 71
     3
 72
     8
 73
     4
 74
     0
 42
0.00000001
 43
0.00000001
 12
1.0
 22
0.0
 32
0.0
 13
1.0
 23
0.0
 33
0.0
 40
5.0
 40
5.0
 40
5.0
 40
5.0
 40
6.0
 40
6.0
 40
6.0
 40
6.0
 10
1793.446466850494
 20
23.51620277172351
 30
0.0
 10
1793.001564772845
 20
23.51620277172351
 30
0.0
 10
1792.601104456273
 20
23.51620277172351
 30
0.0
 10
1792.244956709613
 20
23.51620277172351
 30
0.0
  0
SPLINE
  5
1AE
330
1F
100
AcDbEntity
  8
PIEZA
370
     0
100
AcDbSpline
210
0.0
220
0.0
230
1.0
 70
    24
 71
     3
 72
     8
 73
     4
 74
     0
 42
0.00000001
 43
0.00000001
 12
1.0
 22
0.0
 32
0.0
 13
1.0
 23
0.0
 33
0.0
 40
9.0
 40
9.0
 40
9.0
 40
9.0
 40
10.0
 40
10.0
 40
10.0
 40
10.0
 10
1791.933509106413
 20
23.51620277172351
 30
0.0
 10
1791.622061503163
 20
23.51620277172351
 30
0.0
 10
1791.176933340973
 20
23.51620277172351
 30
0.0
 10
1790.687395715498
 20
23.51620277172351
 30
0.0
  0
SPLINE
  5
1AF
330
1F
100
AcDbEntity
  8
PIEZA
370
     0
100
AcDbSpline
210
0.0
220
0.0
230
1.0
 70
     8
 71
     3
 72
     8
 73
     4
 74
     0
 42
0.00000001
 43
0.00000001
 12
1.0
 22
0.0
 32
0.0
 13
1.0
 23
0.0
 33
0.0
 40
10.0
 40
10.0
 40
10.0
 40
10.0
 40
11.0
 40
11.0
 40
11.0
 40
11.0
 10
1790.687395715498
 20
23.51620277172351
 30
0.0
 10
1790.197858090022
 20
23.47179330843734
 30
0.0
 10
1789.797333177867
 20
23.38281289290744
 30
0.0
 10
1789.485885574617
 20
23.29373558400324
 30
0.0
  0
SPLINE
  5
1B0
330
1F
100
AcDbEntity
  8
PIEZA
370
     0
100
AcDbSpline
210
0.0
220
0.0
230
1.0
 70
     8
 71
     3
 72
     8
 73
     4
 74
     0
 42
0.00000001
 43
0.00000001
 12
1.0
 22
0.0
 32
0.0
 13
1.0
 23
0.0
 33
0.0
 40
11.0
 40
11.0
 40
11.0
 40
11.0
 40
12.0
 40
12.0
 40
12.0
 40
12.0
 10
1789.485885574617
 20
23.29373558400324
 30
0.0
 10
1789.352495695801
 20
23.24910003617653
 30
0.0
 10
1789.263192302356
 20
23.16034570518711
 30
0.0
 10
1789.218815136862
 20
23.07136528965732
 30
0.0
  0
SPLINE
  5
1B1
330
1F
100
AcDbEntity
  8
PIEZA
370
     0
100
AcDbSpline
210
0.0
220
0.0
230
1.0
 70
     8
 71
     3
 72
     8
 73
     4
 74
     0
 42
0.00000001
 43
0.00000001
 12
1.0
 22
0.0
 32
0.0
 13
1.0
 23
0.0
 33
0.0
 40
12.0
 40
12.0
 40
12.0
 40
12.0
 40
13.0
 40
13.0
 40
13.0
 40
13.0
 10
1789.218815136862
 20
23.07136528965732
 30
0.0
 10
1789.174437971367
 20
22.93765243292633
 30
0.0
 10
1789.12980242354
 20
22.80419795852735
 30
0.0
 10
1789.174437971367
 20
22.67080807971125
 30
0.0
  0
SPLINE
  5
1B2
330
1F
100
AcDbEntity
  8
PIEZA
370
     0
100
AcDbSpline
210
0.0
220
0.0
230
1.0
 70
     8
 71
     3
 72
     8
 73
     4
 74
     0
 42
0.00000001
 43
0.00000001
 12
1.0
 22
0.0
 32
0.0
 13
1.0
 23
0.0
 33
0.0
 40
13.0
 40
13.0
 40
13.0
 40
13.0
 40
14.0
 40
14.0
 40
14.0
 40
14.0
 10
1789.174437971367
 20
22.67080807971125
 30
0.0
 10
1789.174437971367
 20
22.35906979633775
 30
0.0
 10
1789.263192302356
 20
22.18130275202684
 30
0.0
 10
1789.44125002679
 20
22.09229003870554
 30
0.0
  0
SPLINE
  5
1B3
330
1F
100
AcDbEntity
  8
PIEZA
370
     0
100
AcDbSpline
210
0.0
220
0.0
230
1.0
 70
     8
 71
     3
 72
     8
 73
     4
 74
     0
 42
0.00000001
 43
0.00000001
 12
1.0
 22
0.0
 32
0.0
 13
1.0
 23
0.0
 33
0.0
 40
14.0
 40
14.0
 40
14.0
 40
14.0
 40
15.0
 40
15.0
 40
15.0
 40
15.0
 10
1789.44125002679
 20
22.09229003870554
 30
0.0
 10
1789.663943299051
 20
21.95860947976614
 30
0.0
 10
1789.930787652266
 20
21.91423231427144
 30
0.0
 10
1790.331570946753
 20
21.91423231427144
 30
0.0
  0
SPLINE
  5
1B4
330
1F
100
AcDbEntity
  8
PIEZA
370
     0
100
AcDbSpline
210
0.0
220
0.0
230
1.0
 70
     8
 71
     3
 72
     8
 73
     4
 74
     0
 42
0.00000001
 43
0.00000001
 12
1.0
 22
0.0
 32
0.0
 13
1.0
 23
0.0
 33
0.0
 40
15.0
 40
15.0
 40
15.0
 40
15.0
 40
16.0
 40
16.0
 40
16.0
 40
16.0
 10
1790.331570946753
 20
21.91423231427144
 30
0.0
 10
1790.598318406593
 20
21.91423231427144
 30
0.0
 10
1790.821076274437
 20
21.86953217086183
 30
0.0
 10
1791.087856032069
 20
21.86953217086183
 30
0.0
  0
SPLINE
  5
1B5
330
1F
100
AcDbEntity
  8
PIEZA
370
     0
100
AcDbSpline
210
0.0
220
0.0
230
1.0
 70
     8
 71
     3
 72
     8
 73
     4
 74
     0
 42
0.00000001
 43
0.00000001
 12
1.0
 22
0.0
 32
0.0
 13
1.0
 23
0.0
 33
0.0
 40
19.0
 40
19.0
 40
19.0
 40
19.0
 40
20.0
 40
20.0
 40
20.0
 40
20.0
 10
1792.689826489569
 20
21.91423231426184
 30
0.0
 10
1793.179331817254
 20
21.91423231426184
 30
0.0
 10
1793.669192420644
 20
21.86953217085222
 30
0.0
 10
1794.114029902711
 20
21.86953217085222
 30
0.0
  0
SPLINE
  5
1B6
330
1F
100
AcDbEntity
  8
PIEZA
370
     0
100
AcDbSpline
210
0.0
220
0.0
230
1.0
 70
     8
 71
     3
 72
     8
 73
     4
 74
     0
 42
0.00000001
 43
0.00000001
 12
1.0
 22
0.0
 32
0.0
 13
1.0
 23
0.0
 33
0.0
 40
20.0
 40
20.0
 40
20.0
 40
20.0
 40
21.0
 40
21.0
 40
21.0
 40
21.0
 10
1794.114029902711
 20
21.86953217085222
 30
0.0
 10
1794.781625252621
 20
21.82521960094043
 30
0.0
 10
1795.271130580305
 20
21.64716187650633
 30
0.0
 10
1795.582610481347
 20
21.37999454537633
 30
0.0
  0
SPLINE
  5
1B7
330
1F
100
AcDbEntity
  8
PIEZA
370
     0
100
AcDbSpline
210
0.0
220
0.0
230
1.0
 70
     8
 71
     3
 72
     8
 73
     4
 74
     0
 42
0.00000001
 43
0.00000001
 12
1.0
 22
0.0
 32
0.0
 13
1.0
 23
0.0
 33
0.0
 40
21.0
 40
21.0
 40
21.0
 40
21.0
 40
22.0
 40
22.0
 40
22.0
 40
22.0
 10
1795.582610481347
 20
21.37999454537633
 30
0.0
 10
1795.938758228006
 20
21.11324708553571
 30
0.0
 10
1796.072148106823
 20
20.66808662555452
 30
0.0
 10
1796.072148106823
 20
20.13417183458393
 30
0.0
  0
SPLINE
  5
1B8
330
1F
100
AcDbEntity
  8
PIEZA
370
     0
100
AcDbSpline
210
0.0
220
0.0
230
1.0
 70
     8
 71
     3
 72
     8
 73
     4
 74
     0
 42
0.00000001
 43
0.00000001
 12
1.0
 22
0.0
 32
0.0
 13
1.0
 23
0.0
 33
0.0
 40
22.0
 40
22.0
 40
22.0
 40
22.0
 40
23.0
 40
23.0
 40
23.0
 40
23.0
 10
1796.072148106823
 20
20.13417183458393
 30
0.0
 10
1796.072148106823
 20
19.77808868350714
 30
0.0
 10
1795.983135393501
 20
19.46657648467392
 30
0.0
 10
1795.849680919102
 20
19.19950604691842
 30
0.0
  0
SPLINE
  5
1B9
330
1F
100
AcDbEntity
  8
PIEZA
370
     0
100
AcDbSpline
210
0.0
220
0.0
230
1.0
 70
     8
 71
     3
 72
     8
 73
     4
 74
     0
 42
0.00000001
 43
0.00000001
 12
1.0
 22
0.0
 32
0.0
 13
1.0
 23
0.0
 33
0.0
 40
23.0
 40
23.0
 40
23.0
 40
23.0
 40
24.0
 40
24.0
 40
24.0
 40
24.0
 10
1795.849680919102
 20
19.19950604691842
 30
0.0
 10
1795.716291040286
 20
18.88802614587674
 30
0.0
 10
1795.44922060253
 20
18.70996842144264
 30
0.0
 10
1795.048695690376
 20
18.53191069700842
 30
0.0
  0
SPLINE
  5
1BA
330
1F
100
AcDbEntity
  8
PIEZA
370
     0
100
AcDbSpline
210
0.0
220
0.0
230
1.0
 70
     8
 71
     3
 72
     8
 73
     4
 74
     0
 42
0.00000001
 43
0.00000001
 12
1.0
 22
0.0
 32
0.0
 13
1.0
 23
0.0
 33
0.0
 40
24.0
 40
24.0
 40
24.0
 40
24.0
 40
25.0
 40
25.0
 40
25.0
 40
25.0
 10
1795.048695690376
 20
18.53191069700842
 30
0.0
 10
1794.692612539299
 20
18.39852081819241
 30
0.0
 10
1794.292087627145
 20
18.35401446153172
 30
0.0
 10
1793.802550001669
 20
18.30950810487103
 30
0.0
  0
SPLINE
  5
1BB
330
1F
100
AcDbEntity
  8
PIEZA
370
     0
100
AcDbSpline
210
0.0
220
0.0
230
1.0
 70
     8
 71
     3
 72
     8
 73
     4
 74
     0
 42
0.00000001
 43
0.00000001
 12
1.0
 22
0.0
 32
0.0
 13
1.0
 23
0.0
 33
0.0
 40
25.0
 40
25.0
 40
25.0
 40
25.0
 40
26.0
 40
26.0
 40
26.0
 40
26.0
 10
1793.802550001669
 20
18.30950810487103
 30
0.0
 10
1793.35742183948
 20
18.26500174821042
 30
0.0
 10
1792.912584357413
 20
18.26500174821042
 30
0.0
 10
1792.467423897432
 20
18.26500174821042
 30
0.0
  0
SPLINE
  5
1BC
330
1F
100
AcDbEntity
  8
PIEZA
370
     0
100
AcDbSpline
210
0.0
220
0.0
230
1.0
 70
     8
 71
     3
 72
     8
 73
     4
 74
     0
 42
0.00000001
 43
0.00000001
 12
1.0
 22
0.0
 32
0.0
 13
1.0
 23
0.0
 33
0.0
 40
29.0
 40
29.0
 40
29.0
 40
29.0
 40
30.0
 40
30.0
 40
30.0
 40
30.0
 10
1791.933509106532
 20
18.26500174821042
 30
0.0
 10
1791.221310506587
 20
18.26500174821042
 30
0.0
 10
1790.5540058368
 20
18.30950810487103
 30
0.0
 10
1789.842033321396
 20
18.35401446153172
 30
0.0
  0
SPLINE
  5
1BD
330
1F
100
AcDbEntity
  8
PIEZA
370
     0
100
AcDbSpline
210
0.0
220
0.0
230
1.0
 70
     8
 71
     3
 72
     8
 73
     4
 74
     0
 42
0.00000001
 43
0.00000001
 12
1.0
 22
0.0
 32
0.0
 13
1.0
 23
0.0
 33
0.0
 40
30.0
 40
30.0
 40
30.0
 40
30.0
 40
31.0
 40
31.0
 40
31.0
 40
31.0
 10
1789.842033321396
 20
18.35401446153172
 30
0.0
 10
1789.129802423659
 20
18.44289798368716
 30
0.0
 10
1788.595887632688
 20
18.57644935146065
 30
0.0
 10
1788.328817194933
 20
18.93240331137152
 30
0.0
  0
SPLINE
  5
1BE
330
1F
100
AcDbEntity
  8
PIEZA
370
     0
100
AcDbSpline
210
0.0
220
0.0
230
1.0
 70
     8
 71
     3
 72
     8
 73
     4
 74
     0
 42
0.00000001
 43
0.00000001
 12
1.0
 22
0.0
 32
0.0
 13
1.0
 23
0.0
 33
0.0
 40
31.0
 40
31.0
 40
31.0
 40
31.0
 40
32.0
 40
32.0
 40
32.0
 40
32.0
 10
1788.328817194933
 20
18.93240331137152
 30
0.0
 10
1788.061682161594
 20
19.19950604691842
 30
0.0
 10
1787.928292282778
 20
19.68901137460283
 30
0.0
 10
1787.972669448273
 20
20.26756171340001
 30
0.0
  0
SPLINE
  5
1BF
330
1F
100
AcDbEntity
  8
PIEZA
370
     0
100
AcDbSpline
210
0.0
220
0.0
230
1.0
 70
     8
 71
     3
 72
     8
 73
     4
 74
     0
 42
0.00000001
 43
0.00000001
 12
1.0
 22
0.0
 32
0.0
 13
1.0
 23
0.0
 33
0.0
 40
37.0
 40
37.0
 40
37.0
 40
37.0
 40
38.0
 40
38.0
 40
38.0
 40
38.0
 10
1789.129802423673
 20
20.17854900000002
 30
0.0
 10
1789.129802423673
 20
19.95611411007114
 30
0.0
 10
1789.174437971499
 20
19.77808868342844
 30
0.0
 10
1789.218815136994
 20
19.64434352890602
 30
0.0
  0
SPLINE
  5
1C0
330
1F
100
AcDbEntity
  8
PIEZA
370
     0
100
AcDbSpline
210
0.0
220
0.0
230
1.0
 70
     8
 71
     3
 72
     8
 73
     4
 74
     0
 42
0.00000001
 43
0.00000001
 12
1.0
 22
0.0
 32
0.0
 13
1.0
 23
0.0
 33
0.0
 40
38.0
 40
38.0
 40
38.0
 40
38.0
 40
39.0
 40
39.0
 40
39.0
 40
39.0
 10
1789.218815136994
 20
19.64434352890602
 30
0.0
 10
1789.218815136994
 20
19.59999866120283
 30
0.0
 10
1789.263192302489
 20
19.55546000675064
 30
0.0
 10
1789.352495695933
 20
19.46657648459523
 30
0.0
  0
SPLINE
  5
1C1
330
1F
100
AcDbEntity
  8
PIEZA
370
     0
100
AcDbSpline
210
0.0
220
0.0
230
1.0
 70
     8
 71
     3
 72
     8
 73
     4
 74
     0
 42
0.00000001
 43
0.00000001
 12
1.0
 22
0.0
 32
0.0
 13
1.0
 23
0.0
 33
0.0
 40
39.0
 40
39.0
 40
39.0
 40
39.0
 40
40.0
 40
40.0
 40
40.0
 40
40.0
 10
1789.352495695933
 20
19.46657648459523
 30
0.0
 10
1789.396872861428
 20
19.42194093676862
 30
0.0
 10
1789.48588557475
 20
19.37756377127396
 30
0.0
 10
1789.619340049148
 20
19.37756377127396
 30
0.0
  0
SPLINE
  5
1C2
330
1F
100
AcDbEntity
  8
PIEZA
370
     0
100
AcDbSpline
210
0.0
220
0.0
230
1.0
 70
     8
 71
     3
 72
     8
 73
     4
 74
     0
 42
0.00000001
 43
0.00000001
 12
1.0
 22
0.0
 32
0.0
 13
1.0
 23
0.0
 33
0.0
 40
40.0
 40
40.0
 40
40.0
 40
40.0
 40
41.0
 40
41.0
 40
41.0
 40
41.0
 10
1789.619340049148
 20
19.37756377127396
 30
0.0
 10
1789.930787652399
 20
19.28855105795252
 30
0.0
 10
1790.331570946885
 20
19.24401240350043
 30
0.0
 10
1790.776408428952
 20
19.24401240350043
 30
0.0
  0
SPLINE
  5
1C3
330
1F
100
AcDbEntity
  8
PIEZA
370
     0
100
AcDbSpline
210
0.0
220
0.0
230
1.0
 70
     8
 71
     3
 72
     8
 73
     4
 74
     0
 42
0.00000001
 43
0.00000001
 12
1.0
 22
0.0
 32
0.0
 13
1.0
 23
0.0
 33
0.0
 40
41.0
 40
41.0
 40
41.0
 40
41.0
 40
42.0
 40
42.0
 40
42.0
 40
42.0
 10
1790.776408428952
 20
19.24401240350043
 30
0.0
 10
1791.221310506601
 20
19.19950604683972
 30
0.0
 10
1791.622061503296
 20
19.19950604683972
 30
0.0
 10
1791.977886272041
 20
19.19950604683972
 30
0.0
  0
SPLINE
  5
1C4
330
1F
100
AcDbEntity
  8
PIEZA
370
     0
100
AcDbSpline
210
0.0
220
0.0
230
1.0
 70
     8
 71
     3
 72
     8
 73
     4
 74
     0
 42
0.00000001
 43
0.00000001
 12
1.0
 22
0.0
 32
0.0
 13
1.0
 23
0.0
 33
0.0
 40
42.0
 40
42.0
 40
42.0
 40
42.0
 40
43.0
 40
43.0
 40
43.0
 40
43.0
 10
1791.977886272041
 20
19.19950604683972
 30
0.0
 10
1792.601104456456
 20
19.19950604683972
 30
0.0
 10
1793.268732104158
 20
19.24401240350043
 30
0.0
 10
1793.891627310658
 20
19.28855105795252
 30
0.0
  0
SPLINE
  5
1C5
330
1F
100
AcDbEntity
  8
PIEZA
370
     0
100
AcDbSpline
210
0.0
220
0.0
230
1.0
 70
     8
 71
     3
 72
     8
 73
     4
 74
     0
 42
0.00000001
 43
0.00000001
 12
1.0
 22
0.0
 32
0.0
 13
1.0
 23
0.0
 33
0.0
 40
43.0
 40
43.0
 40
43.0
 40
43.0
 40
44.0
 40
44.0
 40
44.0
 40
44.0
 10
1793.891627310658
 20
19.28855105795252
 30
0.0
 10
1794.247710461734
 20
19.33305741461321
 30
0.0
 10
1794.51455481495
 20
19.42194093676862
 30
0.0
 10
1794.648235373889
 20
19.55546000675064
 30
0.0
  0
SPLINE
  5
1C6
330
1F
100
AcDbEntity
  8
PIEZA
370
     0
100
AcDbSpline
210
0.0
220
0.0
230
1.0
 70
     8
 71
     3
 72
     8
 73
     4
 74
     0
 42
0.00000001
 43
0.00000001
 12
1.0
 22
0.0
 32
0.0
 13
1.0
 23
0.0
 33
0.0
 40
44.0
 40
44.0
 40
44.0
 40
44.0
 40
45.0
 40
45.0
 40
45.0
 40
45.0
 10
1794.648235373889
 20
19.55546000675064
 30
0.0
 10
1794.781625252705
 20
19.64434352890602
 30
0.0
 10
1794.87070256161
 20
19.82240125334024
 30
0.0
 10
1794.87070256161
 20
20.13417183450524
 30
0.0
  0
SPLINE
  5
1C7
330
1F
100
AcDbEntity
  8
PIEZA
370
     0
100
AcDbSpline
210
0.0
220
0.0
230
1.0
 70
     8
 71
     3
 72
     8
 73
     4
 74
     0
 42
0.00000001
 43
0.00000001
 12
1.0
 22
0.0
 32
0.0
 13
1.0
 23
0.0
 33
0.0
 40
45.0
 40
45.0
 40
45.0
 40
45.0
 40
46.0
 40
46.0
 40
46.0
 40
46.0
 10
1794.87070256161
 20
20.13417183450524
 30
0.0
 10
1794.87070256161
 20
20.31193887881604
 30
0.0
 10
1794.8260024182
 20
20.48999660325022
 30
0.0
 10
1794.781625252705
 20
20.57900931657155
 30
0.0
  0
SPLINE
  5
1C8
330
1F
100
AcDbEntity
  8
PIEZA
370
     0
100
AcDbSpline
210
0.0
220
0.0
230
1.0
 70
     8
 71
     3
 72
     8
 73
     4
 74
     0
 42
0.00000001
 43
0.00000001
 12
1.0
 22
0.0
 32
0.0
 13
1.0
 23
0.0
 33
0.0
 40
46.0
 40
46.0
 40
46.0
 40
46.0
 40
47.0
 40
47.0
 40
47.0
 40
47.0
 10
1794.781625252705
 20
20.57900931657155
 30
0.0
 10
1794.73724808721
 20
20.66808662547582
 30
0.0
 10
1794.692612539384
 20
20.75709933879724
 30
0.0
 10
1794.559158064985
 20
20.80147650429195
 30
0.0
  0
SPLINE
  5
1C9
330
1F
100
AcDbEntity
  8
PIEZA
370
     0
100
AcDbSpline
210
0.0
220
0.0
230
1.0
 70
     8
 71
     3
 72
     8
 73
     4
 74
     0
 42
0.00000001
 43
0.00000001
 12
1.0
 22
0.0
 32
0.0
 13
1.0
 23
0.0
 33
0.0
 40
47.0
 40
47.0
 40
47.0
 40
47.0
 40
48.0
 40
48.0
 40
48.0
 40
48.0
 10
1794.559158064985
 20
20.80147650429195
 30
0.0
 10
1794.470177649455
 20
20.84614434991003
 30
0.0
 10
1794.336464792724
 20
20.84614434991003
 30
0.0
 10
1794.158697748413
 20
20.89055381319623
 30
0.0
  0
SPLINE
  5
1CA
330
1F
100
AcDbEntity
  8
PIEZA
370
     0
100
AcDbSpline
210
0.0
220
0.0
230
1.0
 70
    24
 71
     3
 72
     8
 73
     4
 74
     0
 42
0.00000001
 43
0.00000001
 12
1.0
 22
0.0
 32
0.0
 13
1.0
 23
0.0
 33
0.0
 40
48.0
 40
48.0
 40
48.0
 40
48.0
 40
49.0
 40
49.0
 40
49.0
 40
49.0
 10
1794.158697748413
 20
20.89055381319623
 30
0.0
 10
1793.98064002398
 20
20.89055381319623
 30
0.0
 10
1793.758172836259
 20
20.89055381319623
 30
0.0
 10
1793.535479563998
 20
20.89055381319623
 30
0.0
  0
SPLINE
  5
1CB
330
1F
100
AcDbEntity
  8
PIEZA
370
     0
100
AcDbSpline
210
0.0
220
0.0
230
1.0
 70
     8
 71
     3
 72
     8
 73
     4
 74
     0
 42
0.00000001
 43
0.00000001
 12
1.0
 22
0.0
 32
0.0
 13
1.0
 23
0.0
 33
0.0
 40
52.0
 40
52.0
 40
52.0
 40
52.0
 40
53.0
 40
53.0
 40
53.0
 40
53.0
 10
1791.977886271998
 20
20.93515706329624
 30
0.0
 10
1791.354991065497
 20
20.93515706329624
 30
0.0
 10
1790.731772881082
 20
20.93515706329624
 30
0.0
 10
1790.10884537679
 20
20.97953422879108
 30
0.0
  0
SPLINE
  5
1CC
330
1F
100
AcDbEntity
  8
PIEZA
370
     0
100
AcDbSpline
210
0.0
220
0.0
230
1.0
 70
     8
 71
     3
 72
     8
 73
     4
 74
     0
 42
0.00000001
 43
0.00000001
 12
1.0
 22
0.0
 32
0.0
 13
1.0
 23
0.0
 33
0.0
 40
53.0
 40
53.0
 40
53.0
 40
53.0
 40
54.0
 40
54.0
 40
54.0
 40
54.0
 10
1790.10884537679
 20
20.97953422879108
 30
0.0
 10
1789.797333177957
 20
20.97953422879108
 30
0.0
 10
1789.530262740201
 20
21.02423437220058
 30
0.0
 10
1789.263192302446
 20
21.06854694211238
 30
0.0
  0
SPLINE
  5
1CD
330
1F
100
AcDbEntity
  8
PIEZA
370
     0
100
AcDbSpline
210
0.0
220
0.0
230
1.0
 70
     8
 71
     3
 72
     8
 73
     4
 74
     0
 42
0.00000001
 43
0.00000001
 12
1.0
 22
0.0
 32
0.0
 13
1.0
 23
0.0
 33
0.0
 40
54.0
 40
54.0
 40
54.0
 40
54.0
 40
55.0
 40
55.0
 40
55.0
 40
55.0
 10
1789.263192302446
 20
21.06854694211238
 30
0.0
 10
1789.040725114725
 20
21.11324708552196
 30
0.0
 10
1788.818354820379
 20
21.20222750105175
 30
0.0
 10
1788.595887632659
 20
21.29098183204125
 30
0.0
  0
SPLINE
  5
1CE
330
1F
100
AcDbEntity
  8
PIEZA
370
     0
100
AcDbSpline
210
0.0
220
0.0
230
1.0
 70
     8
 71
     3
 72
     8
 73
     4
 74
     0
 42
0.00000001
 43
0.00000001
 12
1.0
 22
0.0
 32
0.0
 13
1.0
 23
0.0
 33
0.0
 40
55.0
 40
55.0
 40
55.0
 40
55.0
 40
56.0
 40
56.0
 40
56.0
 40
56.0
 10
1788.595887632659
 20
21.29098183204125
 30
0.0
 10
1788.15075947047
 20
21.51377199767647
 30
0.0
 10
1787.928292282749
 20
21.95860947974278
 30
0.0
 10
1787.928292282749
 20
22.49275035525376
 30
0.0
  0
SPLINE
  5
1CF
330
1F
100
AcDbEntity
  8
PIEZA
370
     0
100
AcDbSpline
210
0.0
220
0.0
230
1.0
 70
     8
 71
     3
 72
     8
 73
     4
 74
     0
 42
0.00000001
 43
0.00000001
 12
1.0
 22
0.0
 32
0.0
 13
1.0
 23
0.0
 33
0.0
 40
56.0
 40
56.0
 40
56.0
 40
56.0
 40
57.0
 40
57.0
 40
57.0
 40
57.0
 10
1787.928292282749
 20
22.49275035525376
 30
0.0
 10
1787.928292282749
 20
22.89327526740827
 30
0.0
 10
1788.017369591654
 20
23.24910003615317
 30
0.0
 10
1788.195395018296
 20
23.56087061731826
 30
0.0
  0
SPLINE
  5
1D0
330
1F
100
AcDbEntity
  8
PIEZA
370
     0
100
AcDbSpline
210
0.0
220
0.0
230
1.0
 70
     8
 71
     3
 72
     8
 73
     4
 74
     0
 42
0.00000001
 43
0.00000001
 12
1.0
 22
0.0
 32
0.0
 13
1.0
 23
0.0
 33
0.0
 40
57.0
 40
57.0
 40
57.0
 40
57.0
 40
58.0
 40
58.0
 40
58.0
 40
58.0
 10
1788.195395018296
 20
23.56087061731826
 30
0.0
 10
1788.373129764816
 20
23.87235051835997
 30
0.0
 10
1788.68490034598
 20
24.09472081270589
 30
0.0
 10
1789.12980242363
 20
24.22817528710497
 30
0.0
  0
SPLINE
  5
1D1
330
1F
100
AcDbEntity
  8
PIEZA
370
     0
100
AcDbSpline
210
0.0
220
0.0
230
1.0
 70
     8
 71
     3
 72
     8
 73
     4
 74
     0
 42
0.00000001
 43
0.00000001
 12
1.0
 22
0.0
 32
0.0
 13
1.0
 23
0.0
 33
0.0
 40
58.0
 40
58.0
 40
58.0
 40
58.0
 40
59.0
 40
59.0
 40
59.0
 40
59.0
 10
1789.12980242363
 20
24.22817528710497
 30
0.0
 10
1789.530262740201
 20
24.36185584604438
 30
0.0
 10
1790.019800365677
 20
24.40616841595617
 30
0.0
 10
1790.554005836771
 20
24.45086855936568
 30
0.0
  0
SPLINE
  5
1D2
330
1F
100
AcDbEntity
  8
PIEZA
370
     0
100
AcDbSpline
210
0.0
220
0.0
230
1.0
 70
     8
 71
     3
 72
     8
 73
     4
 74
     0
 42
0.00000001
 43
0.00000001
 12
1.0
 22
0.0
 32
0.0
 13
1.0
 23
0.0
 33
0.0
 40
59.0
 40
59.0
 40
59.0
 40
59.0
 40
60.0
 40
60.0
 40
60.0
 40
60.0
 10
1790.554005836771
 20
24.45086855936568
 30
0.0
 10
1791.087856032159
 20
24.45086855936568
 30
0.0
 10
1791.577361359843
 20
24.49524572486048
 30
0.0
 10
1792.022521819824
 20
24.49524572486048
 30
0.0
  0
SPLINE
  5
1D3
330
1F
100
AcDbEntity
  8
PIEZA
370
     0
100
AcDbSpline
210
0.0
220
0.0
230
1.0
 70
     8
 71
     3
 72
     8
 73
     4
 74
     0
 42
0.00000001
 43
0.00000001
 12
1.0
 22
0.0
 32
0.0
 13
1.0
 23
0.0
 33
0.0
 40
60.0
 40
60.0
 40
60.0
 40
60.0
 40
61.0
 40
61.0
 40
61.0
 40
61.0
 10
1792.022521819824
 20
24.49524572486048
 30
0.0
 10
1792.689826489611
 20
24.49524572486048
 30
0.0
 10
1793.357421839521
 20
24.45086855936568
 30
0.0
 10
1794.025017189431
 20
24.40616841595617
 30
0.0
  0
SPLINE
  5
1D4
330
1F
100
AcDbEntity
  8
PIEZA
370
     0
100
AcDbSpline
210
0.0
220
0.0
230
1.0
 70
     8
 71
     3
 72
     8
 73
     4
 74
     0
 42
0.00000001
 43
0.00000001
 12
1.0
 22
0.0
 32
0.0
 13
1.0
 23
0.0
 33
0.0
 40
61.0
 40
61.0
 40
61.0
 40
61.0
 40
62.0
 40
62.0
 40
62.0
 40
62.0
 10
1794.025017189431
 20
24.40616841595617
 30
0.0
 10
1795.226753414852
 20
24.31747868054966
 30
0.0
 10
1795.894381062554
 20
23.73863766162909
 30
0.0
 10
1795.894381062554
 20
22.67080807968789
 30
0.0
  0
SPLINE
  5
1D5
330
1F
100
AcDbEntity
  8
PIEZA
370
     0
100
AcDbSpline
210
0.0
220
0.0
230
1.0
 70
     8
 71
     3
 72
     8
 73
     4
 74
     0
 42
0.00000001
 43
0.00000001
 12
1.0
 22
0.0
 32
0.0
 13
1.0
 23
0.0
 33
0.0
 40
1.0
 40
1.0
 40
1.0
 40
1.0
 40
2.0
 40
2.0
 40
2.0
 40
2.0
 10
1811.870580511952
 20
20.57900931663421
 30
0.0
 10
1811.826203346457
 20
20.6680866255384
 30
0.0
 10
1811.737126037553
 20
20.6680866255384
 30
0.0
 10
1811.648113324231
 20
20.71278676894802
 30
0.0
  0
SPLINE
  5
1D6
330
1F
100
AcDbEntity
  8
PIEZA
370
     0
100
AcDbSpline
210
0.0
220
0.0
230
1.0
 70
     8
 71
     3
 72
     8
 73
     4
 74
     0
 42
0.00000001
 43
0.00000001
 12
1.0
 22
0.0
 32
0.0
 13
1.0
 23
0.0
 33
0.0
 40
2.0
 40
2.0
 40
2.0
 40
2.0
 40
3.0
 40
3.0
 40
3.0
 40
3.0
 10
1811.648113324231
 20
20.71278676894802
 30
0.0
 10
1811.470055599797
 20
20.75709933885982
 30
0.0
 10
1811.158607996547
 20
20.80147650435462
 30
0.0
 10
1810.624402525453
 20
20.80147650435462
 30
0.0
  0
SPLINE
  5
1D7
330
1F
100
AcDbEntity
  8
PIEZA
370
     0
100
AcDbSpline
210
0.0
220
0.0
230
1.0
 70
     8
 71
     3
 72
     8
 73
     4
 74
     0
 42
0.00000001
 43
0.00000001
 12
1.0
 22
0.0
 32
0.0
 13
1.0
 23
0.0
 33
0.0
 40
4.0
 40
4.0
 40
4.0
 40
4.0
 40
5.0
 40
5.0
 40
5.0
 40
5.0
 10
1809.690027417953
 20
20.80147650435462
 30
0.0
 10
1809.155886542442
 20
20.80147650435462
 30
0.0
 10
1808.800029475905
 20
20.75709933885982
 30
0.0
 10
1808.621971751471
 20
20.6680866255384
 30
0.0
  0
SPLINE
  5
1D8
330
1F
100
AcDbEntity
  8
PIEZA
370
     0
100
AcDbSpline
210
0.0
220
0.0
230
1.0
 70
     8
 71
     3
 72
     8
 73
     4
 74
     0
 42
0.00000001
 43
0.00000001
 12
1.0
 22
0.0
 32
0.0
 13
1.0
 23
0.0
 33
0.0
 40
5.0
 40
5.0
 40
5.0
 40
5.0
 40
6.0
 40
6.0
 40
6.0
 40
6.0
 10
1808.621971751471
 20
20.6680866255384
 30
0.0
 10
1808.488549574864
 20
20.57900931663421
 30
0.0
 10
1808.399213883627
 20
20.40098388999154
 30
0.0
 10
1808.399213883627
 20
20.13417183456791
 30
0.0
  0
SPLINE
  5
1D9
330
1F
100
AcDbEntity
  8
PIEZA
370
     0
100
AcDbSpline
210
0.0
220
0.0
230
1.0
 70
     8
 71
     3
 72
     8
 73
     4
 74
     0
 42
0.00000001
 43
0.00000001
 12
1.0
 22
0.0
 32
0.0
 13
1.0
 23
0.0
 33
0.0
 40
7.0
 40
7.0
 40
7.0
 40
7.0
 40
8.0
 40
8.0
 40
8.0
 40
8.0
 10
1808.399213883627
 20
19.68901137466791
 30
0.0
 10
1808.399213883627
 20
19.466576484739
 30
0.0
 10
1808.488549574864
 20
19.28855105809641
 30
0.0
 10
1808.666316619174
 20
19.19950604698361
 30
0.0
  0
SPLINE
  5
1DA
330
1F
100
AcDbEntity
  8
PIEZA
370
     0
100
AcDbSpline
210
0.0
220
0.0
230
1.0
 70
     8
 71
     3
 72
     8
 73
     4
 74
     0
 42
0.00000001
 43
0.00000001
 12
1.0
 22
0.0
 32
0.0
 13
1.0
 23
0.0
 33
0.0
 40
8.0
 40
8.0
 40
8.0
 40
8.0
 40
9.0
 40
9.0
 40
9.0
 40
9.0
 10
1808.666316619174
 20
19.19950604698361
 30
0.0
 10
1808.8444066414
 20
19.11049333366223
 30
0.0
 10
1809.200489792477
 20
19.0659869770016
 30
0.0
 10
1809.690027417953
 20
19.0659869770016
 30
0.0
  0
SPLINE
  5
1DB
330
1F
100
AcDbEntity
  8
PIEZA
370
     0
100
AcDbSpline
210
0.0
220
0.0
230
1.0
 70
     8
 71
     3
 72
     8
 73
     4
 74
     0
 42
0.00000001
 43
0.00000001
 12
1.0
 22
0.0
 32
0.0
 13
1.0
 23
0.0
 33
0.0
 40
10.0
 40
10.0
 40
10.0
 40
10.0
 40
11.0
 40
11.0
 40
11.0
 40
11.0
 10
1810.624402525453
 20
19.0659869770016
 30
0.0
 10
1811.114230831052
 20
19.0659869770016
 30
0.0
 10
1811.425678434303
 20
19.11049333366223
 30
0.0
 10
1811.603736158737
 20
19.15499969032292
 30
0.0
  0
SPLINE
  5
1DC
330
1F
100
AcDbEntity
  8
PIEZA
370
     0
100
AcDbSpline
210
0.0
220
0.0
230
1.0
 70
     8
 71
     3
 72
    11
 73
     7
 74
     0
 42
0.00000001
 43
0.00000001
 12
1.0
 22
0.0
 32
0.0
 13
1.0
 23
0.0
 33
0.0
 40
11.0
 40
11.0
 40
11.0
 40
11.0
 40
12.0
 40
12.0
 40
12.0
 40
13.0
 40
13.0
 40
13.0
 40
13.0
 10
1811.603736158737
 20
19.15499969032292
 30
0.0
 10
1811.781503203047
 20
19.19950604698361
 30
0.0
 10
1811.870580511952
 20
19.28855105809641
 30
0.0
 10
1811.870580511952
 20
19.4219409369124
 30
0.0
 10
1811.870580511952
 20
19.466576484739
 30
0.0
 10
1811.870580511952
 20
19.5554600068945
 30
0.0
 10
1811.870580511952
 20
19.59999866134661
 30
0.0
  0
SPLINE
  5
1DD
330
1F
100
AcDbEntity
  8
PIEZA
370
     0
100
AcDbSpline
210
0.0
220
0.0
230
1.0
 70
     8
 71
     3
 72
     8
 73
     4
 74
     0
 42
0.00000001
 43
0.00000001
 12
1.0
 22
0.0
 32
0.0
 13
1.0
 23
0.0
 33
0.0
 40
18.0
 40
18.0
 40
18.0
 40
18.0
 40
19.0
 40
19.0
 40
19.0
 40
19.0
 10
1813.561854362904
 20
19.11049333352322
 30
0.0
 10
1813.561854362904
 20
18.79904573027299
 30
0.0
 10
1813.33909649506
 20
18.57644935138673
 30
0.0
 10
1812.983013343983
 20
18.48756582923131
 30
0.0
  0
SPLINE
  5
1DE
330
1F
100
AcDbEntity
  8
PIEZA
370
     0
100
AcDbSpline
210
0.0
220
0.0
230
1.0
 70
     8
 71
     3
 72
     8
 73
     4
 74
     0
 42
0.00000001
 43
0.00000001
 12
1.0
 22
0.0
 32
0.0
 13
1.0
 23
0.0
 33
0.0
 40
19.0
 40
19.0
 40
19.0
 40
19.0
 40
20.0
 40
20.0
 40
20.0
 40
20.0
 10
1812.983013343983
 20
18.48756582923131
 30
0.0
 10
1812.627188575239
 20
18.35401446145779
 30
0.0
 10
1811.959593225328
 20
18.2650017481365
 30
0.0
 10
1811.069595283281
 20
18.2650017481365
 30
0.0
  0
SPLINE
  5
1DF
330
1F
100
AcDbEntity
  8
PIEZA
370
     0
100
AcDbSpline
210
0.0
220
0.0
230
1.0
 70
     8
 71
     3
 72
     8
 73
     4
 74
     0
 42
0.00000001
 43
0.00000001
 12
1.0
 22
0.0
 32
0.0
 13
1.0
 23
0.0
 33
0.0
 40
21.0
 40
21.0
 40
21.0
 40
21.0
 40
22.0
 40
22.0
 40
22.0
 40
22.0
 10
1809.244866957981
 20
18.2650017481365
 30
0.0
 10
1808.71095216701
 20
18.2650017481365
 30
0.0
 10
1808.265824004821
 20
18.3095081047971
 30
0.0
 10
1808.043421412684
 20
18.3095081047971
 30
0.0
  0
SPLINE
  5
1E0
330
1F
100
AcDbEntity
  8
PIEZA
370
     0
100
AcDbSpline
210
0.0
220
0.0
230
1.0
 70
     8
 71
     3
 72
     8
 73
     4
 74
     0
 42
0.00000001
 43
0.00000001
 12
1.0
 22
0.0
 32
0.0
 13
1.0
 23
0.0
 33
0.0
 40
22.0
 40
22.0
 40
22.0
 40
22.0
 40
23.0
 40
23.0
 40
23.0
 40
23.0
 10
1808.043421412684
 20
18.3095081047971
 30
0.0
 10
1807.776286379345
 20
18.35401446145779
 30
0.0
 10
1807.553916084999
 20
18.44289798361324
 30
0.0
 10
1807.331448897279
 20
18.53191069693459
 30
0.0
  0
SPLINE
  5
1E1
330
1F
100
AcDbEntity
  8
PIEZA
370
     0
100
AcDbSpline
210
0.0
220
0.0
230
1.0
 70
     8
 71
     3
 72
     8
 73
     4
 74
     0
 42
0.00000001
 43
0.00000001
 12
1.0
 22
0.0
 32
0.0
 13
1.0
 23
0.0
 33
0.0
 40
23.0
 40
23.0
 40
23.0
 40
23.0
 40
24.0
 40
24.0
 40
24.0
 40
24.0
 10
1807.331448897279
 20
18.53191069693459
 30
0.0
 10
1807.153358875053
 20
18.62095570804742
 30
0.0
 10
1806.975301150619
 20
18.75447477802932
 30
0.0
 10
1806.886288437297
 20
18.8880261458029
 30
0.0
  0
SPLINE
  5
1E2
330
1F
100
AcDbEntity
  8
PIEZA
370
     0
100
AcDbSpline
210
0.0
220
0.0
230
1.0
 70
     8
 71
     3
 72
     8
 73
     4
 74
     0
 42
0.00000001
 43
0.00000001
 12
1.0
 22
0.0
 32
0.0
 13
1.0
 23
0.0
 33
0.0
 40
24.0
 40
24.0
 40
24.0
 40
24.0
 40
25.0
 40
25.0
 40
25.0
 40
25.0
 10
1806.886288437297
 20
18.8880261458029
 30
0.0
 10
1806.797308021768
 20
19.06598697686259
 30
0.0
 10
1806.752930856273
 20
19.24401240350521
 30
0.0
 10
1806.752930856273
 20
19.4665764846
 30
0.0
  0
SPLINE
  5
1E3
330
1F
100
AcDbEntity
  8
PIEZA
370
     0
100
AcDbSpline
210
0.0
220
0.0
230
1.0
 70
     8
 71
     3
 72
     8
 73
     4
 74
     0
 42
0.00000001
 43
0.00000001
 12
1.0
 22
0.0
 32
0.0
 13
1.0
 23
0.0
 33
0.0
 40
26.0
 40
26.0
 40
26.0
 40
26.0
 40
27.0
 40
27.0
 40
27.0
 40
27.0
 10
1806.752930856273
 20
20.3566390223
 30
0.0
 10
1806.752930856273
 20
20.80147650436642
 30
0.0
 10
1806.930697900584
 20
21.15759195323461
 30
0.0
 10
1807.286748753869
 20
21.33568197546033
 30
0.0
  0
SPLINE
  5
1E4
330
1F
100
AcDbEntity
  8
PIEZA
370
     0
100
AcDbSpline
210
0.0
220
0.0
230
1.0
 70
     8
 71
     3
 72
     8
 73
     4
 74
     0
 42
0.00000001
 43
0.00000001
 12
1.0
 22
0.0
 32
0.0
 13
1.0
 23
0.0
 33
0.0
 40
27.0
 40
27.0
 40
27.0
 40
27.0
 40
28.0
 40
28.0
 40
28.0
 40
28.0
 10
1807.286748753869
 20
21.33568197546033
 30
0.0
 10
1807.642896500529
 20
21.51377199768591
 30
0.0
 10
1808.310491850439
 20
21.6027524132157
 30
0.0
 10
1809.244866957981
 20
21.6027524132157
 30
0.0
  0
SPLINE
  5
1E5
330
1F
100
AcDbEntity
  8
PIEZA
370
     0
100
AcDbSpline
210
0.0
220
0.0
230
1.0
 70
     8
 71
     3
 72
     8
 73
     4
 74
     0
 42
0.00000001
 43
0.00000001
 12
1.0
 22
0.0
 32
0.0
 13
1.0
 23
0.0
 33
0.0
 40
29.0
 40
29.0
 40
29.0
 40
29.0
 40
30.0
 40
30.0
 40
30.0
 40
30.0
 10
1811.069595283273
 20
21.6027524132157
 30
0.0
 10
1811.648113324279
 20
21.6027524132157
 30
0.0
 10
1812.048605938642
 20
21.6027524132157
 30
0.0
 10
1812.360118137475
 20
21.5580845675977
 30
0.0
  0
SPLINE
  5
1E6
330
1F
100
AcDbEntity
  8
PIEZA
370
     0
100
AcDbSpline
210
0.0
220
0.0
230
1.0
 70
     8
 71
     3
 72
     8
 73
     4
 74
     0
 42
0.00000001
 43
0.00000001
 12
1.0
 22
0.0
 32
0.0
 13
1.0
 23
0.0
 33
0.0
 40
30.0
 40
30.0
 40
30.0
 40
30.0
 40
31.0
 40
31.0
 40
31.0
 40
31.0
 10
1812.360118137475
 20
21.5580845675977
 30
0.0
 10
1812.62718857523
 20
21.51377199768591
 30
0.0
 10
1812.849591167368
 20
21.46907185427632
 30
0.0
 10
1813.027648891802
 20
21.3799945453721
 30
0.0
  0
SPLINE
  5
1E7
330
1F
100
AcDbEntity
  8
PIEZA
370
     0
100
AcDbSpline
210
0.0
220
0.0
230
1.0
 70
     8
 71
     3
 72
     8
 73
     4
 74
     0
 42
0.00000001
 43
0.00000001
 12
1.0
 22
0.0
 32
0.0
 13
1.0
 23
0.0
 33
0.0
 40
31.0
 40
31.0
 40
31.0
 40
31.0
 40
32.0
 40
32.0
 40
32.0
 40
32.0
 10
1813.027648891802
 20
21.3799945453721
 30
0.0
 10
1813.161071068409
 20
21.33568197546033
 30
0.0
 10
1813.294783925141
 20
21.20222750106119
 30
0.0
 10
1813.383796638462
 20
21.06854694212181
 30
0.0
  0
SPLINE
  5
1E8
330
1F
100
AcDbEntity
  8
PIEZA
370
     0
100
AcDbSpline
210
0.0
220
0.0
230
1.0
 70
     8
 71
     3
 72
    11
 73
     7
 74
     0
 42
0.00000001
 43
0.00000001
 12
1.0
 22
0.0
 32
0.0
 13
1.0
 23
0.0
 33
0.0
 40
32.0
 40
32.0
 40
32.0
 40
32.0
 40
33.0
 40
33.0
 40
33.0
 40
34.0
 40
34.0
 40
34.0
 40
34.0
 10
1813.383796638462
 20
21.06854694212181
 30
0.0
 10
1813.472550969452
 20
20.93515706330568
 30
0.0
 10
1813.472550969452
 20
20.84614434998441
 30
0.0
 10
1813.472550969452
 20
20.6680866255502
 30
0.0
 10
1813.472550969452
 20
20.62370946005551
 30
0.0
 10
1813.472550969452
 20
20.62370946005551
 30
0.0
 10
1813.472550969452
 20
20.53469674673421
 30
0.0
  0
SPLINE
  5
1E9
330
1F
100
AcDbEntity
  8
PIEZA
370
     0
100
AcDbSpline
210
0.0
220
0.0
230
1.0
 70
     8
 71
     3
 72
    11
 73
     7
 74
     0
 42
0.00000001
 43
0.00000001
 12
1.0
 22
0.0
 32
0.0
 13
1.0
 23
0.0
 33
0.0
 40
2.0
 40
2.0
 40
2.0
 40
2.0
 40
3.0
 40
3.0
 40
3.0
 40
4.0
 40
4.0
 40
4.0
 40
4.0
 10
1828.974328159766
 20
25.40368570585915
 30
0.0
 10
1829.130907852865
 20
25.40368570585915
 30
0.0
 10
1829.244660674461
 20
25.39054050472643
 30
0.0
 10
1829.315586624553
 20
25.36425010246099
 30
0.0
 10
1829.386512574645
 20
25.33795970019554
 30
0.0
 10
1829.44332438986
 20
25.29119249813121
 30
0.0
 10
1829.485957474615
 20
25.22394849626799
 30
0.0
  0
SPLINE
  5
1EA
330
1F
100
AcDbEntity
  8
PIEZA
370
     0
100
AcDbSpline
210
0.0
220
0.0
230
1.0
 70
     8
 71
     3
 72
    11
 73
     7
 74
     0
 42
0.00000001
 43
0.00000001
 12
1.0
 22
0.0
 32
0.0
 13
1.0
 23
0.0
 33
0.0
 40
4.0
 40
4.0
 40
4.0
 40
4.0
 40
5.0
 40
5.0
 40
5.0
 40
6.0
 40
6.0
 40
6.0
 40
6.0
 10
1829.485957474615
 20
25.22394849626799
 30
0.0
 10
1829.52859055937
 20
25.15673679219626
 30
0.0
 10
1829.549907101747
 20
25.07986804847174
 30
0.0
 10
1829.549907101747
 20
24.99334226509443
 30
0.0
 10
1829.549907101747
 20
24.88349747626792
 30
0.0
 10
1829.517738501432
 20
24.79280527778958
 30
0.0
 10
1829.45336900301
 20
24.72123337186793
 30
0.0
  0
SPLINE
  5
1EB
330
1F
100
AcDbEntity
  8
PIEZA
370
     0
100
AcDbSpline
210
0.0
220
0.0
230
1.0
 70
     8
 71
     3
 72
     8
 73
     4
 74
     0
 42
0.00000001
 43
0.00000001
 12
1.0
 22
0.0
 32
0.0
 13
1.0
 23
0.0
 33
0.0
 40
6.0
 40
6.0
 40
6.0
 40
6.0
 40
7.0
 40
7.0
 40
7.0
 40
7.0
 10
1829.45336900301
 20
24.72123337186793
 30
0.0
 10
1829.38903180238
 20
24.64969376373775
 30
0.0
 10
1829.29284897935
 20
24.60457374903895
 30
0.0
 10
1829.16482053392
 20
24.58593792335448
 30
0.0
  0
SPLINE
  5
1EC
330
1F
100
AcDbEntity
  8
PIEZA
370
     0
100
AcDbSpline
210
0.0
220
0.0
230
1.0
 70
     8
 71
     3
 72
     8
 73
     4
 74
     0
 42
0.00000001
 43
0.00000001
 12
1.0
 22
0.0
 32
0.0
 13
1.0
 23
0.0
 33
0.0
 40
7.0
 40
7.0
 40
7.0
 40
7.0
 40
8.0
 40
8.0
 40
8.0
 40
8.0
 10
1829.16482053392
 20
24.58593792335448
 30
0.0
 10
1829.228414885346
 20
24.54866627198553
 30
0.0
 10
1829.280931094294
 20
24.50771267238776
 30
0.0
 10
1829.322336862972
 20
24.46310942235264
 30
0.0
  0
SPLINE
  5
1ED
330
1F
100
AcDbEntity
  8
PIEZA
370
     0
100
AcDbSpline
210
0.0
220
0.0
230
1.0
 70
     8
 71
     3
 72
     8
 73
     4
 74
     0
 42
0.00000001
 43
0.00000001
 12
1.0
 22
0.0
 32
0.0
 13
1.0
 23
0.0
 33
0.0
 40
8.0
 40
8.0
 40
8.0
 40
8.0
 40
9.0
 40
9.0
 40
9.0
 40
9.0
 10
1829.322336862972
 20
24.46310942235264
 30
0.0
 10
1829.363774929443
 20
24.41850617231754
 30
0.0
 10
1829.419585513122
 20
24.33927968981492
 30
0.0
 10
1829.489800911801
 20
24.22539767705329
 30
0.0
  0
SPLINE
  5
1EE
330
1F
100
AcDbEntity
  8
PIEZA
370
     0
100
AcDbSpline
210
0.0
220
0.0
230
1.0
 70
     8
 71
     3
 72
     8
 73
     4
 74
     0
 42
0.00000001
 43
0.00000001
 12
1.0
 22
0.0
 32
0.0
 13
1.0
 23
0.0
 33
0.0
 40
12.0
 40
12.0
 40
12.0
 40
12.0
 40
13.0
 40
13.0
 40
13.0
 40
13.0
 10
1829.103196347775
 20
24.25931035810823
 30
0.0
 10
1829.027038155463
 20
24.37283709516356
 30
0.0
 10
1828.974909520013
 20
24.44437670329373
 30
0.0
 10
1828.946875037007
 20
24.47392918249875
 30
0.0
  0
SPLINE
  5
1EF
330
1F
100
AcDbEntity
  8
PIEZA
370
     0
100
AcDbSpline
210
0.0
220
0.0
230
1.0
 70
     8
 71
     3
 72
     8
 73
     4
 74
     0
 42
0.00000001
 43
0.00000001
 12
1.0
 22
0.0
 32
0.0
 13
1.0
 23
0.0
 33
0.0
 40
13.0
 40
13.0
 40
13.0
 40
13.0
 40
14.0
 40
14.0
 40
14.0
 40
14.0
 10
1828.946875037007
 20
24.47392918249875
 30
0.0
 10
1828.91880825621
 20
24.50344936391228
 30
0.0
 10
1828.889094288048
 20
24.5237000791708
 30
0.0
 10
1828.857700834728
 20
24.53464903048283
 30
0.0
  0
SPLINE
  5
1F0
330
1F
100
AcDbEntity
  8
PIEZA
370
     0
100
AcDbSpline
210
0.0
220
0.0
230
1.0
 70
     8
 71
     3
 72
     8
 73
     4
 74
     0
 42
0.00000001
 43
0.00000001
 12
1.0
 22
0.0
 32
0.0
 13
1.0
 23
0.0
 33
0.0
 40
14.0
 40
14.0
 40
14.0
 40
14.0
 40
15.0
 40
15.0
 40
15.0
 40
15.0
 10
1828.857700834728
 20
24.53464903048283
 30
0.0
 10
1828.826275083617
 20
24.54563027958633
 30
0.0
 10
1828.776536484737
 20
24.5510886063466
 30
0.0
 10
1828.708388144712
 20
24.5510886063466
 30
0.0
  0
SPLINE
  5
1F1
330
1F
100
AcDbEntity
  8
PIEZA
370
     0
100
AcDbSpline
210
0.0
220
0.0
230
1.0
 70
     8
 71
     3
 72
     8
 73
     4
 74
     0
 42
0.00000001
 43
0.00000001
 12
1.0
 22
0.0
 32
0.0
 13
1.0
 23
0.0
 33
0.0
 40
1.0
 40
1.0
 40
1.0
 40
1.0
 40
2.0
 40
2.0
 40
2.0
 40
2.0
 10
1828.866905705301
 20
24.78418176746418
 30
0.0
 10
1829.00866071211
 20
24.78418176746418
 30
0.0
 10
1829.097188958559
 20
24.79018915667963
 30
0.0
 10
1829.132458146856
 20
24.80217163731904
 30
0.0
  0
SPLINE
  5
1F2
330
1F
100
AcDbEntity
  8
PIEZA
370
     0
100
AcDbSpline
210
0.0
220
0.0
230
1.0
 70
     8
 71
     3
 72
     8
 73
     4
 74
     0
 42
0.00000001
 43
0.00000001
 12
1.0
 22
0.0
 32
0.0
 13
1.0
 23
0.0
 33
0.0
 40
2.0
 40
2.0
 40
2.0
 40
2.0
 40
3.0
 40
3.0
 40
3.0
 40
3.0
 10
1829.132458146856
 20
24.80217163731904
 30
0.0
 10
1829.167727335153
 20
24.81418641574994
 30
0.0
 10
1829.195374244661
 20
24.8348570022977
 30
0.0
 10
1829.215334279796
 20
24.86418339696235
 30
0.0
  0
SPLINE
  5
1F3
330
1F
100
AcDbEntity
  8
PIEZA
370
     0
100
AcDbSpline
210
0.0
220
0.0
230
1.0
 70
     8
 71
     3
 72
    14
 73
    10
 74
     0
 42
0.00000001
 43
0.00000001
 12
1.0
 22
0.0
 32
0.0
 13
1.0
 23
0.0
 33
0.0
 40
3.0
 40
3.0
 40
3.0
 40
3.0
 40
4.0
 40
4.0
 40
4.0
 40
5.0
 40
5.0
 40
5.0
 40
6.0
 40
6.0
 40
6.0
 40
6.0
 10
1829.215334279796
 20
24.86418339696235
 30
0.0
 10
1829.235294314931
 20
24.89354208941848
 30
0.0
 10
1829.245274332499
 20
24.93023238054077
 30
0.0
 10
1829.245274332499
 20
24.97422197253775
 30
0.0
 10
1829.245274332499
 20
25.02357299792055
 30
0.0
 10
1829.232129131366
 20
25.06339617481649
 30
0.0
 10
1829.205838729101
 20
25.09375609880852
 30
0.0
 10
1829.179548326836
 20
25.12411602280056
 30
0.0
 10
1829.142438164424
 20
25.14326861314873
 30
0.0
 10
1829.094540539658
 20
25.15127846543599
 30
0.0
  0
SPLINE
  5
1F4
330
1F
100
AcDbEntity
  8
PIEZA
370
     0
100
AcDbSpline
210
0.0
220
0.0
230
1.0
 70
     8
 71
     3
 72
     8
 73
     4
 74
     0
 42
0.00000001
 43
0.00000001
 12
1.0
 22
0.0
 32
0.0
 13
1.0
 23
0.0
 33
0.0
 40
6.0
 40
6.0
 40
6.0
 40
6.0
 40
7.0
 40
7.0
 40
7.0
 40
7.0
 10
1829.094540539658
 20
25.15127846543599
 30
0.0
 10
1829.070575578379
 20
25.15460513795852
 30
0.0
 10
1828.998680694543
 20
25.15628462311553
 30
0.0
 10
1828.87888818594
 20
25.15628462311553
 30
0.0
  0
ELLIPSE
  5
1F5
330
1F
100
AcDbEntity
  8
PIEZA
  6
SLD-Continua
100
AcDbEllipse
 10
187.5962571327
 20
1094.0942963333
 30
0.0
 11
-0.1414213562388795
 21
-0.147790183262714
 31
0.0
210
0.0
220
0.0
230
1.0
 40
0.9569062918
 41
3.927011413117334
 42
5.497787143794455
  0
ELLIPSE
  5
1F6
330
1F
100
AcDbEntity
  8
PIEZA
  6
SLD-Continua
100
AcDbEllipse
 10
187.5962571327
 20
1003.8895318781
 30
0.0
 11
0.1414213562362931
 21
-0.1477901832655562
 31
0.0
210
0.0
220
0.0
230
1.0
 40
0.9569062918
 41
3.926990816994034
 42
5.497787143789636
  0
ELLIPSE
  5
1F7
330
1F
100
AcDbEntity
  8
PIEZA
  6
SLD-Continua
100
AcDbEllipse
 10
182.0962571327
 20
1004.131884197
 30
0.0
 11
0.1414213562368331
 21
-0.147790183264874
 31
0.0
210
0.0
220
0.0
230
1.0
 40
0.9569062918
 41
3.926990816991713
 42
5.497787143785166
  0
ELLIPSE
  5
1F8
330
1F
100
AcDbEntity
  8
PIEZA
  6
SLD-Continua
100
AcDbEllipse
 10
182.0962571327
 20
1093.8519440144
 30
0.0
 11
-0.1414213562368047
 21
-0.1477901832649877
 31
0.0
210
0.0
220
0.0
230
1.0
 40
0.9569062918
 41
3.926990816983093
 42
5.497787143778329
  0
ELLIPSE
  5
1F9
330
1F
100
AcDbEntity
  8
PIEZA
  6
SLD-Continua
100
AcDbEllipse
 10
1677.1997666972
 20
1003.8895318781
 30
0.0
 11
-0.1414213562391069
 21
-0.1477901832624866
 31
0.0
210
0.0
220
0.0
230
1.0
 40
0.9569062918
 41
0.7853981634124245
 42
2.356194490207203
  0
ELLIPSE
  5
1FA
330
1F
100
AcDbEntity
  8
PIEZA
  6
SLD-Continua
100
AcDbEllipse
 10
1677.1997666972
 20
1094.0942963333
 30
0.0
 11
0.1414213562436544
 21
-0.147790183257257
 31
0.0
210
0.0
220
0.0
230
1.0
 40
0.9569062918
 41
0.7853981633476588
 42
2.356173894027677
  0
ELLIPSE
  5
1FB
330
1F
100
AcDbEntity
  8
PIEZA
  6
SLD-Continua
100
AcDbEllipse
 10
1682.6997666972
 20
1093.8519440144
 30
0.0
 11
0.1414213562375153
 21
-0.1477901832643056
 31
0.0
210
0.0
220
0.0
230
1.0
 40
0.9569062918
 41
0.7853981633965454
 42
2.356194490191619
  0
ELLIPSE
  5
1FC
330
1F
100
AcDbEntity
  8
PIEZA
  6
SLD-Continua
100
AcDbEllipse
 10
1682.6997666972
 20
1004.131884197
 30
0.0
 11
-0.1414213562368332
 21
-0.1477901832651014
 31
0.0
210
0.0
220
0.0
230
1.0
 40
0.9569062918
 41
0.7853981633930318
 42
2.356194490187046
  0
HATCH
  5
1FD
330
1F
100
AcDbEntity
  8
COTAS
100
AcDbHatch
 10
0.0
 20
0.0
 30
0.0
210
0.0
220
0.0
230
1.0
  2
ANSI31
 70
     0
 71
     0
 91
        1
 92
        0
 93
        4
 72
     1
 10
1677.197548897128
 20
839.479285560402
 11
1677.197548897129
 21
869.4792855604018
 72
     1
 10
1677.197548897129
 20
869.4792855604018
 11
187.5984749327031
 21
869.4792855604016
 72
     1
 10
187.5984749327032
 20
869.4792855604016
 11
187.5984749327032
 21
839.4792855604018
 72
     1
 10
187.5984749327032
 20
839.4792855604018
 11
1677.197548897128
 21
839.479285560402
 97
        0
 75
     0
 76
     1
 52
0.0
 41
1.0
 77
     0
 78
     1
 53
45.0
 43
0.0
 44
0.0
 45
-2.245064030267288
 46
2.245064030267288
 79
     0
 98
        1
 10
0.0
 20
0.0
  0
DIMENSION
  5
1FE
330
1F
100
AcDbEntity
  8
COTAS
100
AcDbDimension
  2
_D
 10
1727.7613961497
 20
203.7835850873
 30
0.0
 11
1727.7613961497
 21
515.5948970959
 31
0.0
 70
   160
  1
Máx <> mm.
 71
     2
 42
-1.0
  3
SLDDIMSTYLE0
100
AcDbAlignedDimension
 13
1369.3980119149
 23
839.4792855604
 33
0.0
 14
1682.8997666972
 24
203.7835850873
 34
0.0
 50
90.0
100
AcDbRotatedDimension
  0
DIMENSION
  5
20E
330
1F
100
AcDbEntity
  8
COTAS
100
AcDbDimension
  2
_D_1
 10
161.5941528113
 20
229.0845711347
 30
0.0
 11
161.5941528113
 21
251.5793690067
 31
0.0
 70
   160
  1
<>
 71
     2
 42
-1.0
  3
SLDDIMSTYLE0
100
AcDbAlignedDimension
 13
182.0572071617
 23
203.9445351164
 33
0.0
 14
207.1972431801
 24
229.0845711347
 34
0.0
 50
90.0
100
AcDbRotatedDimension
  0
DIMENSION
  5
219
330
1F
100
AcDbEntity
  8
COTAS
100
AcDbDimension
  2
_D_2
 10
142.6369832523
 20
1094.2997261213
 30
0.0
 11
142.6369832523
 21
1048.9919141057
 31
0.0
 70
   160
  1
<>
 71
     2
 42
-1.0
  3
SLDDIMSTYLE0
100
AcDbAlignedDimension
 13
187.5984749327
 23
1003.68410209
 33
0.0
 14
187.5978313663
 24
1094.2997261213
 34
0.0
 50
90.0
100
AcDbRotatedDimension
  0
DIMENSION
  5
223
330
1F
100
AcDbEntity
  8
COTAS
100
AcDbDimension
  2
_D_3
 10
181.8962571327
 20
977.457609579
 30
0.0
 11
932.3980119149
 21
977.457609579
 31
0.0
 70
   160
  1
<>
 71
     2
 42
-1.0
  3
SLDDIMSTYLE0
100
AcDbAlignedDimension
 13
1682.8997666972
 23
1004.1406970086
 33
0.0
 14
181.8962571327
 24
1004.1406970086
 34
0.0
100
AcDbRotatedDimension
  0
MTEXT
  5
22D
330
1F
100
AcDbEntity
  8
TEXTO
100
AcDbMText
 10
1680.773585076
 20
67.5400827183
 30
0.0
 40
16.0
 41
0.0
 71
     1
 72
     1
  1
SLIMGOT 150
  7
SLDTEXTSTYLE0
 73
     1
 44
1.0
  0
INSERT
  5
233
330
1F
100
AcDbEntity
  8
TEXTO
100
AcDbBlockReference
  2
SW_NOTE_0
 10
1422.327826594
 20
30.4590172877
 30
0.0
  0
INSERT
  5
239
330
1F
100
AcDbEntity
  8
TEXTO
100
AcDbBlockReference
  2
SW_NOTE_1
 10
1501.2707587367
 20
31.0115197119
 30
0.0
  0
ENDSEC
  0
SECTION
  2
OBJECTS
  0
DICTIONARY
  5
C
330
0
100
AcDbDictionary
281
     1
  3
ACAD_GROUP
350
D
  3
ACAD_LAYOUT
350
1A
  3
ACAD_MLINESTYLE
350
17
  3
ACAD_PLOTSETTINGS
350
19
  3
ACAD_PLOTSTYLENAME
350
E
  0
DICTIONARY
  5
D
102
{ACAD_REACTORS
330
C
102
}
330
C
100
AcDbDictionary
281
     1
  0
DICTIONARY
  5
1A
102
{ACAD_REACTORS
330
C
102
}
330
C
100
AcDbDictionary
281
     1
  3
Layout1
350
1E
  3
Layout2
350
26
  3
Model
350
22
  0
DICTIONARY
  5
17
102
{ACAD_REACTORS
330
C
102
}
330
C
100
AcDbDictionary
281
     1
  3
Standard
350
18
  0
DICTIONARY
  5
19
102
{ACAD_REACTORS
330
C
102
}
330
C
100
AcDbDictionary
281
     1
  0
ACDBDICTIONARYWDFLT
  5
E
102
{ACAD_REACTORS
330
C
102
}
330
C
100
AcDbDictionary
281
     1
  3
Normal
350
F
100
AcDbDictionaryWithDefault
340
F
  0
LAYOUT
  5
1E
102
{ACAD_REACTORS
330
1A
102
}
330
1A
100
AcDbPlotSettings
  1

  2
none_device
  4

  6

 40
0.0
 41
0.0
 42
0.0
 43
0.0
 44
0.0
 45
0.0
 46
0.0
 47
0.0
 48
0.0
 49
0.0
140
0.0
141
0.0
142
1.0
143
1.0
 70
   688
 72
     0
 73
     0
 74
     5
  7

 75
    16
147
1.0
148
0.0
149
0.0
100
AcDbLayout
  1
Layout1
 70
     1
 71
     1
 10
0.0
 20
0.0
 11
420.0
 21
297.0
 12
0.0
 22
0.0
 32
0.0
 14
1.0000000000E+20
 24
1.0000000000E+20
 34
1.0000000000E+20
 15
-1.0000000000E+20
 25
-1.0000000000E+20
 35
-1.0000000000E+20
146
0.0
 13
0.0
 23
0.0
 33
0.0
 16
1.0
 26
0.0
 36
0.0
 17
0.0
 27
1.0
 37
0.0
 76
     0
330
1B
  0
LAYOUT
  5
26
102
{ACAD_REACTORS
330
1A
102
}
330
1A
100
AcDbPlotSettings
  1

  2
none_device
  4

  6

 40
0.0
 41
0.0
 42
0.0
 43
0.0
 44
0.0
 45
0.0
 46
0.0
 47
0.0
 48
0.0
 49
0.0
140
0.0
141
0.0
142
1.0
143
1.0
 70
   688
 72
     0
 73
     0
 74
     5
  7

 75
    16
147
1.0
148
0.0
149
0.0
100
AcDbLayout
  1
Layout2
 70
     1
 71
     2
 10
0.0
 20
0.0
 11
0.0
 21
0.0
 12
0.0
 22
0.0
 32
0.0
 14
0.0
 24
0.0
 34
0.0
 15
0.0
 25
0.0
 35
0.0
146
0.0
 13
0.0
 23
0.0
 33
0.0
 16
1.0
 26
0.0
 36
0.0
 17
0.0
 27
1.0
 37
0.0
 76
     0
330
23
  0
LAYOUT
  5
22
102
{ACAD_REACTORS
330
1A
102
}
330
1A
100
AcDbPlotSettings
  1

  2
none_device
  4

  6

 40
0.0
 41
0.0
 42
0.0
 43
0.0
 44
0.0
 45
0.0
 46
0.0
 47
0.0
 48
0.0
 49
0.0
140
0.0
141
0.0
142
1.0
143
1.0
 70
  1712
 72
     0
 73
     0
 74
     0
  7

 75
     0
147
1.0
148
0.0
149
0.0
100
AcDbLayout
  1
Model
 70
     1
 71
     0
 10
0.0
 20
0.0
 11
1850.0
 21
1200.0
 12
0.0
 22
0.0
 32
0.0
 14
0.0
 24
0.0
 34
0.0
 15
1850.0
 25
1200.0
 35
0.0
146
0.0
 13
0.0
 23
0.0
 33
0.0
 16
1.0
 26
0.0
 36
0.0
 17
0.0
 27
1.0
 37
0.0
 76
     0
330
1F
331
29
  0
MLINESTYLE
  5
18
102
{ACAD_REACTORS
330
17
102
}
330
17
100
AcDbMlineStyle
  2
Standard
 70
     0
  3

 62
   256
 51
90.0
 52
90.0
 71
     2
 49
0.5
 62
   256
  6
BYLAYER
 49
-0.5
 62
   256
  6
BYLAYER
  0
ACDBPLACEHOLDER
  5
F
102
{ACAD_REACTORS
330
E
102
}
330
E
  0
ENDSEC
  0
EOF
