  0
SECTION
  2
HEADER
  9
$ACADVER
  1
AC1015
  9
$ACADMAINTVER
 70
     6
  9
$DWGCODEPAGE
  3
ANSI_1252
  9
$INSBASE
 10
0.0
 20
0.0
 30
0.0
  9
$EXTMIN
 10
0.0
 20
0.0
 30
0.0
  9
$EXTMAX
 10
1600.0
 20
2800.0
 30
0.0
  9
$LIMMIN
 10
0.0
 20
0.0
  9
$LIMMAX
 10
1600.0
 20
2800.0
  9
$ORTHOMODE
 70
     0
  9
$REGENMODE
 70
     1
  9
$FILLMODE
 70
     1
  9
$QTEXTMODE
 70
     0
  9
$MIRRTEXT
 70
     1
  9
$LTSCALE
 40
1.0
  9
$ATTMODE
 70
     1
  9
$TEXTSIZE
 40
3.5
  9
$TRACEWID
 40
1.0
  9
$TEXTSTYLE
  7
STANDARD
  9
$CLAYER
  8
0
  9
$CELTYPE
  6
ByLayer
  9
$CECOLOR
 62
   256
  9
$CELTSCALE
 40
1.0
  9
$DISPSILH
 70
     0
  9
$DIMSCALE
 40
1.0
  9
$DIMASZ
 40
3.302
  9
$DIMEXO
 40
1.0
  9
$DIMDLI
 40
3.75
  9
$DIMRND
 40
0.0
  9
$DIMDLE
 40
0.0
  9
$DIMEXE
 40
1.0
  9
$DIMTP
 40
0.0
  9
$DIMTM
 40
0.0
  9
$DIMTXT
 40
3.5
  9
$DIMCEN
 40
2.5
  9
$DIMTSZ
 40
0.0
  9
$DIMTOL
 70
     0
  9
$DIMLIM
 70
     0
  9
$DIMTIH
 70
     1
  9
$DIMTOH
 70
     1
  9
$DIMSE1
 70
     0
  9
$DIMSE2
 70
     0
  9
$DIMTAD
 70
     1
  9
$DIMZIN
 70
     1
  9
$DIMBLK
  1

  9
$DIMASO
 70
     1
  9
$DIMSHO
 70
     1
  9
$DIMPOST
  1

  9
$DIMAPOST
  1

  9
$DIMALT
 70
     0
  9
$DIMALTD
 70
     3
  9
$DIMALTF
 40
0.0393700787
  9
$DIMLFAC
 40
1.0
  9
$DIMTOFL
 70
     1
  9
$DIMTVP
 40
0.0
  9
$DIMTIX
 70
     0
  9
$DIMSOXD
 70
     0
  9
$DIMSAH
 70
     0
  9
$DIMBLK1
  1

  9
$DIMBLK2
  1

  9
$DIMSTYLE
  2
ISO-25
  9
$DIMCLRD
 70
     0
  9
$DIMCLRE
 70
     0
  9
$DIMCLRT
 70
     0
  9
$DIMTFAC
 40
1.0
  9
$DIMGAP
 40
1.524
  9
$DIMJUST
 70
     0
  9
$DIMSD1
 70
     0
  9
$DIMSD2
 70
     0
  9
$DIMTOLJ
 70
     0
  9
$DIMTZIN
 70
     1
  9
$DIMALTZ
 70
     0
  9
$DIMALTTZ
 70
     0
  9
$DIMUPT
 70
     0
  9
$DIMDEC
 70
     0
  9
$DIMTDEC
 70
     0
  9
$DIMALTU
 70
     2
  9
$DIMALTTD
 70
     3
  9
$DIMTXSTY
  7
STANDARD
  9
$DIMAUNIT
 70
     0
  9
$DIMADEC
 70
     0
  9
$DIMALTRND
 40
0.0
  9
$DIMAZIN
 70
     0
  9
$DIMDSEP
 70
    44
  9
$DIMATFIT
 70
     3
  9
$DIMFRAC
 70
     0
  9
$DIMLDRBLK
  1

  9
$DIMLUNIT
 70
     2
  9
$DIMLWD
 70
    -2
  9
$DIMLWE
 70
    -2
  9
$DIMTMOVE
 70
     0
  9
$LUNITS
 70
     2
  9
$LUPREC
 70
     4
  9
$SKETCHINC
 40
1.0
  9
$FILLETRAD
 40
10.0
  9
$AUNITS
 70
     0
  9
$AUPREC
 70
     0
  9
$MENU
  1
.
  9
$ELEVATION
 40
0.0
  9
$PELEVATION
 40
0.0
  9
$THICKNESS
 40
0.0
  9
$LIMCHECK
 70
     0
  9
$CHAMFERA
 40
0.0
  9
$CHAMFERB
 40
0.0
  9
$CHAMFERC
 40
0.0
  9
$CHAMFERD
 40
0.0
  9
$SKPOLY
 70
     0
  9
$TDCREATE
 40
2457219.720073449
  9
$TDUCREATE
 40
2457219.636740116
  9
$TDUPDATE
 40
2457219.720073993
  9
$TDUUPDATE
 40
2457219.63674066
  9
$TDINDWG
 40
0.0000000116
  9
$TDUSRTIMER
 40
0.0000000116
  9
$USRTIMER
 70
     1
  9
$ANGBASE
 50
0.0
  9
$ANGDIR
 70
     0
  9
$PDMODE
 70
     0
  9
$PDSIZE
 40
-1.0
  9
$PLINEWID
 40
0.0
  9
$SPLFRAME
 70
     0
  9
$SPLINETYPE
 70
     6
  9
$SPLINESEGS
 70
     8
  9
$HANDSEED
  5
208
  9
$SURFTAB1
 70
     6
  9
$SURFTAB2
 70
     6
  9
$SURFTYPE
 70
     6
  9
$SURFU
 70
     6
  9
$SURFV
 70
     6
  9
$UCSBASE
  2

  9
$UCSNAME
  2

  9
$UCSORG
 10
0.0
 20
0.0
 30
0.0
  9
$UCSXDIR
 10
1.0
 20
0.0
 30
0.0
  9
$UCSYDIR
 10
0.0
 20
1.0
 30
0.0
  9
$UCSORTHOREF
  2

  9
$UCSORTHOVIEW
 70
     0
  9
$UCSORGTOP
 10
0.0
 20
0.0
 30
0.0
  9
$UCSORGBOTTOM
 10
0.0
 20
0.0
 30
0.0
  9
$UCSORGLEFT
 10
0.0
 20
0.0
 30
0.0
  9
$UCSORGRIGHT
 10
0.0
 20
0.0
 30
0.0
  9
$UCSORGFRONT
 10
0.0
 20
0.0
 30
0.0
  9
$UCSORGBACK
 10
0.0
 20
0.0
 30
0.0
  9
$PUCSBASE
  2

  9
$PUCSNAME
  2

  9
$PUCSORG
 10
0.0
 20
0.0
 30
0.0
  9
$PUCSXDIR
 10
1.0
 20
0.0
 30
0.0
  9
$PUCSYDIR
 10
0.0
 20
1.0
 30
0.0
  9
$PUCSORTHOREF
  2

  9
$PUCSORTHOVIEW
 70
     0
  9
$PUCSORGTOP
 10
0.0
 20
0.0
 30
0.0
  9
$PUCSORGBOTTOM
 10
0.0
 20
0.0
 30
0.0
  9
$PUCSORGLEFT
 10
0.0
 20
0.0
 30
0.0
  9
$PUCSORGRIGHT
 10
0.0
 20
0.0
 30
0.0
  9
$PUCSORGFRONT
 10
0.0
 20
0.0
 30
0.0
  9
$PUCSORGBACK
 10
0.0
 20
0.0
 30
0.0
  9
$USERI1
 70
     0
  9
$USERI2
 70
     0
  9
$USERI3
 70
     0
  9
$USERI4
 70
     0
  9
$USERI5
 70
     0
  9
$USERR1
 40
0.0
  9
$USERR2
 40
0.0
  9
$USERR3
 40
0.0
  9
$USERR4
 40
0.0
  9
$USERR5
 40
0.0
  9
$WORLDVIEW
 70
     1
  9
$SHADEDGE
 70
     3
  9
$SHADEDIF
 70
    70
  9
$TILEMODE
 70
     1
  9
$MAXACTVP
 70
    64
  9
$PINSBASE
 10
0.0
 20
0.0
 30
0.0
  9
$PLIMCHECK
 70
     0
  9
$PEXTMIN
 10
1.0000000000E+20
 20
1.0000000000E+20
 30
1.0000000000E+20
  9
$PEXTMAX
 10
-1.0000000000E+20
 20
-1.0000000000E+20
 30
-1.0000000000E+20
  9
$PLIMMIN
 10
0.0
 20
0.0
  9
$PLIMMAX
 10
420.0
 20
297.0
  9
$UNITMODE
 70
     0
  9
$VISRETAIN
 70
     1
  9
$PLINEGEN
 70
     0
  9
$PSLTSCALE
 70
     1
  9
$TREEDEPTH
 70
  3020
  9
$CMLSTYLE
  2
Standard
  9
$CMLJUST
 70
     0
  9
$CMLSCALE
 40
20.0
  9
$PROXYGRAPHICS
 70
     1
  9
$MEASUREMENT
 70
     1
  9
$CELWEIGHT
370
    -1
  9
$ENDCAPS
280
     0
  9
$JOINSTYLE
280
     0
  9
$LWDISPLAY
290
     1
  9
$INSUNITS
 70
     4
  9
$HYPERLINKBASE
  1

  9
$STYLESHEET
  1

  9
$XEDIT
290
     1
  9
$CEPSNTYPE
380
     0
  9
$PSTYLEMODE
290
     1
  9
$FINGERPRINTGUID
  2
{1DEB02FD-1481-46CC-9A3C-0786AE7AE48F}
  9
$VERSIONGUID
  2
{FAEB1C32-E019-11D5-929B-00C0DF256EC4}
  9
$EXTNAMES
290
     1
  9
$PSVPSCALE
 40
0.0
  9
$OLESTARTUP
290
     0
  0
ENDSEC
  0
SECTION
  2
CLASSES
  0
CLASS
  1
ACDBDICTIONARYWDFLT
  2
AcDbDictionaryWithDefault
  3
ObjectDBX Classes
 90
        0
280
     0
281
     0
  0
CLASS
  1
VISUALSTYLE
  2
AcDbVisualStyle
  3
ObjectDBX Classes
 90
     4095
280
     0
281
     0
  0
CLASS
  1
MATERIAL
  2
AcDbMaterial
  3
ObjectDBX Classes
 90
     1153
280
     0
281
     0
  0
CLASS
  1
SCALE
  2
AcDbScale
  3
ObjectDBX Classes
 90
     1153
280
     0
281
     0
  0
CLASS
  1
TABLESTYLE
  2
AcDbTableStyle
  3
ObjectDBX Classes
 90
     4095
280
     0
281
     0
  0
CLASS
  1
MLEADERSTYLE
  2
AcDbMLeaderStyle
  3
ACDB_MLEADERSTYLE_CLASS
 90
     4095
280
     0
281
     0
  0
CLASS
  1
SUN
  2
AcDbSun
  3
SCENEOE
 90
     1153
280
     0
281
     0
  0
CLASS
  1
ACDBPLACEHOLDER
  2
AcDbPlaceHolder
  3
ObjectDBX Classes
 90
        0
280
     0
281
     0
  0
CLASS
  1
LAYOUT
  2
AcDbLayout
  3
ObjectDBX Classes
 90
        0
280
     0
281
     0
  0
ENDSEC
  0
SECTION
  2
TABLES
  0
TABLE
  2
VPORT
  5
8
330
0
100
AcDbSymbolTable
 70
     1
  0
VPORT
  5
29
330
8
100
AcDbSymbolTableRecord
100
AcDbViewportTableRecord
  2
*Active
 70
     0
 10
0.0
 20
0.0
 11
1.0
 21
1.0
 12
800.0
 22
1400.0
 13
0.0
 23
0.0
 14
10.0
 24
10.0
 15
10.0
 25
10.0
 16
0.0
 26
0.0
 36
1.0
 17
0.0
 27
0.0
 37
0.0
 40
2800.0
 41
0.5714285714
 42
50.0
 43
0.0
 44
0.0
 50
0.0
 51
0.0
 71
     0
 72
  2000
 73
     1
 74
     3
 75
     0
 76
     0
 77
     0
 78
     0
281
     0
 65
     1
110
0.0
120
0.0
130
0.0
111
1.0
121
0.0
131
0.0
112
0.0
122
1.0
132
0.0
 79
     0
146
0.0
  0
ENDTAB
  0
TABLE
  2
LTYPE
  5
5
330
0
100
AcDbSymbolTable
 70
     6
  0
LTYPE
  5
14
330
5
100
AcDbSymbolTableRecord
100
AcDbLinetypeTableRecord
  2
ByBlock
 70
     0
  3

 72
    65
 73
     0
 40
0.0
  0
LTYPE
  5
15
330
5
100
AcDbSymbolTableRecord
100
AcDbLinetypeTableRecord
  2
ByLayer
 70
     0
  3

 72
    65
 73
     0
 40
0.0
  0
LTYPE
  5
16
330
5
100
AcDbSymbolTableRecord
100
AcDbLinetypeTableRecord
  2
Continuous
 70
     0
  3
Solid line
 72
    65
 73
     0
 40
0.0
  0
LTYPE
  5
6E
330
5
100
AcDbSymbolTableRecord
100
AcDbLinetypeTableRecord
  2
HIDDEN
 70
     0
  3
Hidden __ __ __ __ __ __ __ __ __ __ __ __ __ __
 72
    65
 73
     2
 40
1.905
 49
1.27
 74
     0
 49
-0.635
 74
     0
  0
LTYPE
  5
6F
330
5
100
AcDbSymbolTableRecord
100
AcDbLinetypeTableRecord
  2
PHANTOM
 70
     0
  3
Phantom ______  __  __  ______  __  __  ______
 72
    65
 73
     6
 40
12.7
 49
6.35
 74
     0
 49
-1.27
 74
     0
 49
1.27
 74
     0
 49
-1.27
 74
     0
 49
1.27
 74
     0
 49
-1.27
 74
     0
  0
LTYPE
  5
70
330
5
100
AcDbSymbolTableRecord
100
AcDbLinetypeTableRecord
  2
CENTER
 70
     0
  3
Center ____ _ ____ _ ____ _ ____ _ ____ _ ____
 72
    65
 73
     4
 40
10.16
 49
6.35
 74
     0
 49
-1.27
 74
     0
 49
1.27
 74
     0
 49
-1.27
 74
     0
  0
LTYPE
  5
71
330
5
100
AcDbSymbolTableRecord
100
AcDbLinetypeTableRecord
  2
CENTERX2
 70
     0
  3
Center (2x) ________  __  ________  __  _____
 72
    65
 73
     4
 40
20.32
 49
12.7
 74
     0
 49
-2.54
 74
     0
 49
2.54
 74
     0
 49
-2.54
 74
     0
  0
LTYPE
  5
72
330
5
100
AcDbSymbolTableRecord
100
AcDbLinetypeTableRecord
  2
DOT2
 70
     0
  3
Dot (.5x) ........................................
 72
    65
 73
     2
 40
0.635
 49
0.0
 74
     0
 49
-0.635
 74
     0
  0
ENDTAB
  0
TABLE
  2
LAYER
  5
2
330
0
100
AcDbSymbolTable
 70
    11
  0
LAYER
  5
10
330
2
100
AcDbSymbolTableRecord
100
AcDbLayerTableRecord
  2
0
 70
     0
 62
     7
  6
Continuous
370
    -3
390
F
  0
LAYER
  5
73
330
2
100
AcDbSymbolTableRecord
100
AcDbLayerTableRecord
  2
SLD-0
 70
     0
 62
   179
  6
Continuous
370
    -3
390
F
  0
LAYER
  5
74
330
2
100
AcDbSymbolTableRecord
100
AcDbLayerTableRecord
  2
1
 70
     0
 62
     7
  6
Continuous
370
    -3
390
F
  0
LAYER
  5
75
330
2
100
AcDbSymbolTableRecord
100
AcDbLayerTableRecord
  2
SLD-DEFPOINTS
 70
     0
 62
   179
  6
Continuous
290
     0
370
    -3
390
F
  0
LAYER
  5
76
330
2
100
AcDbSymbolTableRecord
100
AcDbLayerTableRecord
  2
TEXTO
 70
     0
 62
     8
  6
Continuous
370
    -3
390
F
  0
LAYER
  5
77
330
2
100
AcDbSymbolTableRecord
100
AcDbLayerTableRecord
  2
COTAS
 70
     0
 62
   250
  6
Continuous
370
    -3
390
F
  0
LAYER
  5
78
330
2
100
AcDbSymbolTableRecord
100
AcDbLayerTableRecord
  2
CAJETIN
 70
     0
 62
     9
  6
Continuous
370
    -3
390
F
  0
LAYER
  5
79
330
2
100
AcDbSymbolTableRecord
100
AcDbLayerTableRecord
  2
5
 70
     0
 62
     7
  6
Continuous
370
    -3
390
F
  0
LAYER
  5
7A
330
2
100
AcDbSymbolTableRecord
100
AcDbLayerTableRecord
  2
250
 70
     0
 62
     7
  6
Continuous
370
    -3
390
F
  0
LAYER
  5
7B
330
2
100
AcDbSymbolTableRecord
100
AcDbLayerTableRecord
  2
PIEZA
 70
     0
 62
   255
  6
Continuous
370
    -3
390
F
  0
LAYER
  5
7C
330
2
100
AcDbSymbolTableRecord
100
AcDbLayerTableRecord
  2
TOP
 70
     0
 62
   179
  6
Continuous
370
    -3
390
F
  0
ENDTAB
  0
TABLE
  2
STYLE
  5
3
330
0
100
AcDbSymbolTable
 70
     3
  0
STYLE
  5
11
330
3
100
AcDbSymbolTableRecord
100
AcDbTextStyleTableRecord
  2
STANDARD
 70
     0
 40
0.0
 41
1.0
 50
0.0
 71
     0
 42
3.5
  3
GOTHIC.TTF
  4

1001
ACAD
1000
CENTURY GOTHIC
1071
       34
  0
STYLE
  5
1AE
330
3
100
AcDbSymbolTableRecord
100
AcDbTextStyleTableRecord
  2
SLDTEXTSTYLE0
 70
     0
 40
0.0
 41
1.0
 50
0.0
 71
     0
 42
3.5
  3
ARIAL.TTF
  4

1001
ACAD
1000
ARIAL
1071
      290
  0
STYLE
  5
1B9
330
3
100
AcDbSymbolTableRecord
100
AcDbTextStyleTableRecord
  2
SLDTEXTSTYLE1
 70
     0
 40
0.0
 41
0.948
 50
0.0
 71
     0
 42
3.5
  3
ARIAL.TTF
  4

1001
ACAD
1000
ARIAL
1071
      290
  0
ENDTAB
  0
TABLE
  2
VIEW
  5
6
330
0
100
AcDbSymbolTable
 70
     0
  0
ENDTAB
  0
TABLE
  2
UCS
  5
7
330
0
100
AcDbSymbolTable
 70
     0
  0
ENDTAB
  0
TABLE
  2
APPID
  5
9
330
0
100
AcDbSymbolTable
 70
     1
  0
APPID
  5
12
330
9
100
AcDbSymbolTableRecord
100
AcDbRegAppTableRecord
  2
ACAD
 70
     0
  0
ENDTAB
  0
TABLE
  2
DIMSTYLE
  5
A
330
0
100
AcDbSymbolTable
 70
     2
100
AcDbDimStyleTable
  0
DIMSTYLE
105
27
330
A
100
AcDbSymbolTableRecord
100
AcDbDimStyleTableRecord
  2
ISO-25
 70
     0
 41
2.5
 42
0.625
 43
3.75
 44
1.25
 73
     0
 74
     0
 77
     1
 78
     8
140
2.5
141
2.5
143
0.0393700787
147
0.625
171
     3
172
     1
178
     0
271
     2
272
     2
274
     3
278
    44
283
     0
284
     8
340
11
  0
DIMSTYLE
105
1AF
102
{ACAD_REACTORS
330
1AD
330
1BD
330
1C7
330
1D1
330
1DB
330
1E5
102
}
330
A
100
AcDbSymbolTableRecord
100
AcDbDimStyleTableRecord
  2
SLDDIMSTYLE0
 70
     0
 41
3.302
 44
0.0
 45
0.000000001
 73
     0
 74
     0
 77
     1
 78
    12
 79
     3
140
15.0
147
3.75
173
     1
178
     0
271
     0
272
     0
276
     2
284
    12
340
1AE
341
1B0
343
1B0
344
1B0
  0
ENDTAB
  0
TABLE
  2
BLOCK_RECORD
  5
1
330
0
100
AcDbSymbolTable
 70
    12
  0
BLOCK_RECORD
  5
1F
330
1
100
AcDbSymbolTableRecord
100
AcDbBlockTableRecord
  2
*Model_Space
340
22
  0
BLOCK_RECORD
  5
1B
330
1
100
AcDbSymbolTableRecord
100
AcDbBlockTableRecord
  2
*Paper_Space
340
1E
  0
BLOCK_RECORD
  5
23
330
1
100
AcDbSymbolTableRecord
100
AcDbBlockTableRecord
  2
*Paper_Space0
340
26
  0
BLOCK_RECORD
  5
1B0
330
1
100
AcDbSymbolTableRecord
100
AcDbBlockTableRecord
  2
_NONE
340
0
  0
BLOCK_RECORD
  5
1B3
330
1
100
AcDbSymbolTableRecord
100
AcDbBlockTableRecord
  2
_D
340
0
  0
BLOCK_RECORD
  5
1BE
330
1
100
AcDbSymbolTableRecord
100
AcDbBlockTableRecord
  2
_D_1
340
0
  0
BLOCK_RECORD
  5
1C8
330
1
100
AcDbSymbolTableRecord
100
AcDbBlockTableRecord
  2
_D_2
340
0
  0
BLOCK_RECORD
  5
1D2
330
1
100
AcDbSymbolTableRecord
100
AcDbBlockTableRecord
  2
_D_3
340
0
  0
BLOCK_RECORD
  5
1DC
330
1
100
AcDbSymbolTableRecord
100
AcDbBlockTableRecord
  2
_D_4
340
0
  0
BLOCK_RECORD
  5
1E6
330
1
100
AcDbSymbolTableRecord
100
AcDbBlockTableRecord
  2
_D_5
340
0
  0
BLOCK_RECORD
  5
1F0
330
1
100
AcDbSymbolTableRecord
100
AcDbBlockTableRecord
  2
SW_NOTE_0
340
0
102
{BLKREFS
331
1F5
102
}
  0
BLOCK_RECORD
  5
1F6
330
1
100
AcDbSymbolTableRecord
100
AcDbBlockTableRecord
  2
SW_NOTE_1
340
0
102
{BLKREFS
331
1FB
102
}
  0
BLOCK_RECORD
  5
1FC
330
1
100
AcDbSymbolTableRecord
100
AcDbBlockTableRecord
  2
SW_NOTE_2
340
0
102
{BLKREFS
331
201
102
}
  0
BLOCK_RECORD
  5
202
330
1
100
AcDbSymbolTableRecord
100
AcDbBlockTableRecord
  2
SW_NOTE_3
340
0
102
{BLKREFS
331
207
102
}
  0
ENDTAB
  0
ENDSEC
  0
SECTION
  2
BLOCKS
  0
BLOCK
  5
20
330
1F
100
AcDbEntity
  8
0
100
AcDbBlockBegin
  2
*Model_Space
 70
     0
 10
0.0
 20
0.0
 30
0.0
  3
*Model_Space
  1

  0
ENDBLK
  5
21
330
1F
100
AcDbEntity
  8
0
100
AcDbBlockEnd
  0
BLOCK
  5
1C
330
1B
100
AcDbEntity
 67
     1
  8
0
100
AcDbBlockBegin
  2
*Paper_Space
 70
     0
 10
0.0
 20
0.0
 30
0.0
  3
*Paper_Space
  1

  0
ENDBLK
  5
1D
330
1B
100
AcDbEntity
 67
     1
  8
0
100
AcDbBlockEnd
  0
BLOCK
  5
24
330
23
100
AcDbEntity
  8
0
100
AcDbBlockBegin
  2
*Paper_Space0
 70
     0
 10
0.0
 20
0.0
 30
0.0
  3
*Paper_Space0
  1

  0
ENDBLK
  5
25
330
23
100
AcDbEntity
  8
0
100
AcDbBlockEnd
  0
BLOCK
  5
1B1
330
1B0
100
AcDbEntity
  8
0
100
AcDbBlockBegin
  2
_NONE
 70
     0
 10
0.0
 20
0.0
 30
0.0
  3
_NONE
  1

  0
ENDBLK
  5
1B2
330
1B0
100
AcDbEntity
  8
0
100
AcDbBlockEnd
  0
BLOCK
  5
1B4
330
1B3
100
AcDbEntity
  8
0
100
AcDbBlockBegin
  2
_D
 70
     0
 10
0.0
 20
0.0
 30
0.0
  3
_D
  1

  0
LINE
  5
1B6
330
1B3
100
AcDbEntity
  8
COTAS
100
AcDbLine
 10
783.5115358994
 20
2173.5992152189
 30
0.0
 11
1042.3428212905
 21
2173.5992152189
 31
0.0
  0
LINE
  5
1B7
330
1B3
100
AcDbEntity
  8
COTAS
100
AcDbLine
 10
1008.5115358994
 20
2398.5992152189
 30
0.0
 11
1042.3428212905
 21
2398.5992152189
 31
0.0
  0
LINE
  5
1B8
330
1B3
100
AcDbEntity
  8
COTAS
100
AcDbLine
 10
1041.0928212905
 20
2183.5992152189
 30
0.0
 11
1041.0928212905
 21
2388.5992152189
 31
0.0
  0
MTEXT
  5
1BA
330
1B3
100
AcDbEntity
  8
COTAS
100
AcDbMText
 10
1023.1412174951
 20
2267.9868829505
 30
0.0
 40
15.0
 41
0.0
 71
     1
 72
     1
  1
225
  7
SLDTEXTSTYLE1
 11
6.123233995736766E-17
 21
1.0
 31
0.0
 73
     1
 44
1.0
  0
SOLID
  5
1BB
330
1B3
100
AcDbEntity
  8
COTAS
100
AcDbTrace
 10
1039.4261546238
 20
2183.5992152189
 30
0.0
 11
1042.7594879572
 21
2183.5992152189
 31
0.0
 12
1041.0928212905
 22
2173.5992152189
 32
0.0
 13
1041.0928212905
 23
2173.5992152189
 33
0.0
  0
SOLID
  5
1BC
330
1B3
100
AcDbEntity
  8
COTAS
100
AcDbTrace
 10
1039.4261546238
 20
2388.5992152189
 30
0.0
 11
1042.7594879572
 21
2388.5992152189
 31
0.0
 12
1041.0928212905
 22
2398.5992152189
 32
0.0
 13
1041.0928212905
 23
2398.5992152189
 33
0.0
  0
ENDBLK
  5
1B5
330
1B3
100
AcDbEntity
  8
0
100
AcDbBlockEnd
  0
BLOCK
  5
1BF
330
1BE
100
AcDbEntity
  8
0
100
AcDbBlockBegin
  2
_D_1
 70
     0
 10
0.0
 20
0.0
 30
0.0
  3
_D_1
  1

  0
LINE
  5
1C1
330
1BE
100
AcDbEntity
  8
COTAS
100
AcDbLine
 10
1007.8865358994
 20
2399.2242152189
 30
0.0
 11
1007.8865358994
 21
2449.3385154392
 31
0.0
  0
LINE
  5
1C2
330
1BE
100
AcDbEntity
  8
COTAS
100
AcDbLine
 10
782.8865358994
 20
2174.2242152189
 30
0.0
 11
782.8865358994
 21
2449.3385154392
 31
0.0
  0
LINE
  5
1C3
330
1BE
100
AcDbEntity
  8
COTAS
100
AcDbLine
 10
997.8865358994
 20
2448.0885154392
 30
0.0
 11
792.8865358994
 21
2448.0885154392
 31
0.0
  0
MTEXT
  5
1C4
330
1BE
100
AcDbEntity
  8
COTAS
100
AcDbMText
 10
877.274203631
 20
2466.0401192346
 30
0.0
 40
15.0
 41
0.0
 71
     1
 72
     1
  1
225
  7
SLDTEXTSTYLE1
 73
     1
 44
1.0
  0
SOLID
  5
1C5
330
1BE
100
AcDbEntity
  8
COTAS
100
AcDbTrace
 10
997.8865358994
 20
2449.7551821059
 30
0.0
 11
997.8865358994
 21
2446.4218487725
 31
0.0
 12
1007.8865358994
 22
2448.0885154392
 32
0.0
 13
1007.8865358994
 23
2448.0885154392
 33
0.0
  0
SOLID
  5
1C6
330
1BE
100
AcDbEntity
  8
COTAS
100
AcDbTrace
 10
792.8865358994
 20
2449.7551821059
 30
0.0
 11
792.8865358994
 21
2446.4218487725
 31
0.0
 12
782.8865358994
 22
2448.0885154392
 32
0.0
 13
782.8865358994
 23
2448.0885154392
 33
0.0
  0
ENDBLK
  5
1C0
330
1BE
100
AcDbEntity
  8
0
100
AcDbBlockEnd
  0
BLOCK
  5
1C9
330
1C8
100
AcDbEntity
  8
0
100
AcDbBlockBegin
  2
_D_2
 70
     0
 10
0.0
 20
0.0
 30
0.0
  3
_D_2
  1

  0
LINE
  5
1CB
330
1C8
100
AcDbEntity
  8
COTAS
100
AcDbLine
 10
557.8865358994
 20
1941.9742152189
 30
0.0
 11
557.8865358994
 21
1906.6916900727
 31
0.0
  0
LINE
  5
1CC
330
1C8
100
AcDbEntity
  8
COTAS
100
AcDbLine
 10
1007.8865358994
 20
1941.9742152189
 30
0.0
 11
1007.8865358994
 21
1906.6916900727
 31
0.0
  0
LINE
  5
1CD
330
1C8
100
AcDbEntity
  8
COTAS
100
AcDbLine
 10
567.8865358994
 20
1907.9416900727
 30
0.0
 11
997.8865358994
 21
1907.9416900727
 31
0.0
  0
MTEXT
  5
1CE
330
1C8
100
AcDbEntity
  8
COTAS
100
AcDbMText
 10
762.3622678813
 20
1925.8932938682
 30
0.0
 40
15.0
 41
0.0
 71
     1
 72
     1
  1
450
  7
SLDTEXTSTYLE1
 73
     1
 44
1.0
  0
SOLID
  5
1CF
330
1C8
100
AcDbEntity
  8
COTAS
100
AcDbTrace
 10
567.8865358994
 20
1909.6083567394
 30
0.0
 11
567.8865358994
 21
1906.2750234061
 31
0.0
 12
557.8865358994
 22
1907.9416900727
 32
0.0
 13
557.8865358994
 23
1907.9416900727
 33
0.0
  0
SOLID
  5
1D0
330
1C8
100
AcDbEntity
  8
COTAS
100
AcDbTrace
 10
997.8865358994
 20
1909.6083567394
 30
0.0
 11
997.8865358994
 21
1906.2750234061
 31
0.0
 12
1007.8865358994
 22
1907.9416900727
 32
0.0
 13
1007.8865358994
 23
1907.9416900727
 33
0.0
  0
ENDBLK
  5
1CA
330
1C8
100
AcDbEntity
  8
0
100
AcDbBlockEnd
  0
BLOCK
  5
1D3
330
1D2
100
AcDbEntity
  8
0
100
AcDbBlockBegin
  2
_D_3
 70
     0
 10
0.0
 20
0.0
 30
0.0
  3
_D_3
  1

  0
LINE
  5
1D5
330
1D2
100
AcDbEntity
  8
COTAS
100
AcDbLine
 10
551.2615358994
 20
1948.5992152189
 30
0.0
 11
504.9255293753
 21
1948.5992152189
 31
0.0
  0
LINE
  5
1D6
330
1D2
100
AcDbEntity
  8
COTAS
100
AcDbLine
 10
551.2615358994
 20
2398.5992152189
 30
0.0
 11
504.9255293753
 21
2398.5992152189
 31
0.0
  0
LINE
  5
1D7
330
1D2
100
AcDbEntity
  8
COTAS
100
AcDbLine
 10
506.1755293753
 20
1958.5992152189
 30
0.0
 11
506.1755293753
 21
2388.5992152189
 31
0.0
  0
MTEXT
  5
1D8
330
1D2
100
AcDbEntity
  8
COTAS
100
AcDbMText
 10
488.2239255798
 20
2155.4868829505
 30
0.0
 40
15.0
 41
0.0
 71
     1
 72
     1
  1
450
  7
SLDTEXTSTYLE1
 11
6.123233995736766E-17
 21
1.0
 31
0.0
 73
     1
 44
1.0
  0
SOLID
  5
1D9
330
1D2
100
AcDbEntity
  8
COTAS
100
AcDbTrace
 10
504.5088627086
 20
1958.5992152189
 30
0.0
 11
507.842196042
 21
1958.5992152189
 31
0.0
 12
506.1755293753
 22
1948.5992152189
 32
0.0
 13
506.1755293753
 23
1948.5992152189
 33
0.0
  0
SOLID
  5
1DA
330
1D2
100
AcDbEntity
  8
COTAS
100
AcDbTrace
 10
504.5088627086
 20
2388.5992152189
 30
0.0
 11
507.842196042
 21
2388.5992152189
 31
0.0
 12
506.1755293753
 22
2398.5992152189
 32
0.0
 13
506.1755293753
 23
2398.5992152189
 33
0.0
  0
ENDBLK
  5
1D4
330
1D2
100
AcDbEntity
  8
0
100
AcDbBlockEnd
  0
BLOCK
  5
1DD
330
1DC
100
AcDbEntity
  8
0
100
AcDbBlockBegin
  2
_D_4
 70
     0
 10
0.0
 20
0.0
 30
0.0
  3
_D_4
  1

  0
LINE
  5
1DF
330
1DC
100
AcDbEntity
  8
COTAS
100
AcDbLine
 10
345.4377628994
 20
306.5179205714
 30
0.0
 11
295.7828522311
 21
306.5179205714
 31
0.0
  0
LINE
  5
1E0
330
1DC
100
AcDbEntity
  8
COTAS
100
AcDbLine
 10
345.4377628994
 20
426.5179205714
 30
0.0
 11
295.7828522311
 21
426.5179205714
 31
0.0
  0
LINE
  5
1E1
330
1DC
100
AcDbEntity
  8
COTAS
100
AcDbLine
 10
297.0328522311
 20
316.5179205714
 30
0.0
 11
297.0328522311
 21
416.5179205714
 31
0.0
  0
MTEXT
  5
1E2
330
1DC
100
AcDbEntity
  8
COTAS
100
AcDbMText
 10
279.0812484356
 20
348.405588303
 30
0.0
 40
15.0
 41
0.0
 71
     1
 72
     1
  1
120
  7
SLDTEXTSTYLE1
 11
6.123233995736766E-17
 21
1.0
 31
0.0
 73
     1
 44
1.0
  0
SOLID
  5
1E3
330
1DC
100
AcDbEntity
  8
COTAS
100
AcDbTrace
 10
295.3661855644
 20
316.5179205714
 30
0.0
 11
298.6995188977
 21
316.5179205714
 31
0.0
 12
297.0328522311
 22
306.5179205714
 32
0.0
 13
297.0328522311
 23
306.5179205714
 33
0.0
  0
SOLID
  5
1E4
330
1DC
100
AcDbEntity
  8
COTAS
100
AcDbTrace
 10
295.3661855644
 20
416.5179205714
 30
0.0
 11
298.6995188977
 21
416.5179205714
 31
0.0
 12
297.0328522311
 22
426.5179205714
 32
0.0
 13
297.0328522311
 23
426.5179205714
 33
0.0
  0
ENDBLK
  5
1DE
330
1DC
100
AcDbEntity
  8
0
100
AcDbBlockEnd
  0
BLOCK
  5
1E7
330
1E6
100
AcDbEntity
  8
0
100
AcDbBlockBegin
  2
_D_5
 70
     0
 10
0.0
 20
0.0
 30
0.0
  3
_D_5
  1

  0
LINE
  5
1E9
330
1E6
100
AcDbEntity
  8
COTAS
100
AcDbLine
 10
332.8838248994
 20
365.8929205714
 30
0.0
 11
332.8838248994
 21
254.6914900329
 31
0.0
  0
LINE
  5
1EA
330
1E6
100
AcDbEntity
  8
COTAS
100
AcDbLine
 10
1232.8892648994
 20
365.8929205714
 30
0.0
 11
1232.8892648994
 21
254.6914900329
 31
0.0
  0
LINE
  5
1EB
330
1E6
100
AcDbEntity
  8
COTAS
100
AcDbLine
 10
342.8838248994
 20
255.9414900329
 30
0.0
 11
1222.8892648994
 21
255.9414900329
 31
0.0
  0
MTEXT
  5
1EC
330
1E6
100
AcDbEntity
  8
COTAS
100
AcDbMText
 10
756.33395704
 20
274.312602696
 30
0.0
 40
15.0
 41
0.0
 71
     1
 72
     1
  1
Ø900
  7
SLDTEXTSTYLE1
 73
     1
 44
1.0
  0
SOLID
  5
1ED
330
1E6
100
AcDbEntity
  8
COTAS
100
AcDbTrace
 10
342.8838248994
 20
257.6081566995
 30
0.0
 11
342.8838248994
 21
254.2748233662
 31
0.0
 12
332.8838248994
 22
255.9414900329
 32
0.0
 13
332.8838248994
 23
255.9414900329
 33
0.0
  0
SOLID
  5
1EE
330
1E6
100
AcDbEntity
  8
COTAS
100
AcDbTrace
 10
1222.8892648994
 20
257.6081566995
 30
0.0
 11
1222.8892648994
 21
254.2748233662
 31
0.0
 12
1232.8892648994
 22
255.9414900329
 32
0.0
 13
1232.8892648994
 23
255.9414900329
 33
0.0
  0
ENDBLK
  5
1E8
330
1E6
100
AcDbEntity
  8
0
100
AcDbBlockEnd
  0
BLOCK
  5
1F1
330
1F0
100
AcDbEntity
  8
0
100
AcDbBlockBegin
  2
SW_NOTE_0
 70
     0
 10
0.0
 20
0.0
 30
0.0
  3
SW_NOTE_0
  1

  0
MTEXT
  5
1F3
330
1F0
100
AcDbEntity
  8
TEXTO
 62
     0
100
AcDbMText
 10
0.0
 20
4.5117370892
 30
0.0
 40
3.5
 41
0.0
 71
     1
 72
     1
  1
Escala 1/1
  7
SLDTEXTSTYLE0
 73
     1
 44
1.0
  0
MTEXT
  5
1F4
330
1F0
100
AcDbEntity
  8
TEXTO
 62
     0
100
AcDbMText
 10
0.0
 20
-1.2982629132
 30
0.0
 40
3.5
 41
0.0
 71
     1
 72
     1
  1
Scale 1/1
  7
SLDTEXTSTYLE0
 73
     1
 44
1.0
  0
ENDBLK
  5
1F2
330
1F0
100
AcDbEntity
  8
0
100
AcDbBlockEnd
  0
BLOCK
  5
1F7
330
1F6
100
AcDbEntity
  8
0
100
AcDbBlockBegin
  2
SW_NOTE_1
 70
     0
 10
0.0
 20
0.0
 30
0.0
  3
SW_NOTE_1
  1

  0
MTEXT
  5
1F9
330
1F6
100
AcDbEntity
  8
TEXTO
 62
     0
100
AcDbMText
 10
0.0
 20
4.5117370892
 30
0.0
 40
3.5
 41
0.0
 71
     1
 72
     1
  1
Unidades: mm.
  7
SLDTEXTSTYLE0
 73
     1
 44
1.0
  0
MTEXT
  5
1FA
330
1F6
100
AcDbEntity
  8
TEXTO
 62
     0
100
AcDbMText
 10
0.0
 20
-1.2982629132
 30
0.0
 40
3.5
 41
0.0
 71
     1
 72
     1
  1
Units: mm.
  7
SLDTEXTSTYLE0
 73
     1
 44
1.0
  0
ENDBLK
  5
1F8
330
1F6
100
AcDbEntity
  8
0
100
AcDbBlockEnd
  0
BLOCK
  5
1FD
330
1FC
100
AcDbEntity
  8
0
100
AcDbBlockBegin
  2
SW_NOTE_2
 70
     0
 10
0.0
 20
0.0
 30
0.0
  3
SW_NOTE_2
  1

  0
MTEXT
  5
1FF
330
1FC
100
AcDbEntity
  8
COTAS
 62
     0
100
AcDbMText
 10
0.0
 20
19.3360160966
 30
0.0
 40
15.0
 41
0.0
 71
     1
 72
     1
  1
DRUM 90
  7
SLDTEXTSTYLE0
 73
     1
 44
1.0
  0
MTEXT
  5
200
330
1FC
100
AcDbEntity
  8
COTAS
 62
     0
100
AcDbMText
 10
0.0
 20
-5.5639844458
 30
0.0
 40
15.0
 41
0.0
 71
     1
 72
     1
  1
INSTALLATION TEMPLATE
  7
SLDTEXTSTYLE0
 73
     1
 44
1.0
  0
ENDBLK
  5
1FE
330
1FC
100
AcDbEntity
  8
0
100
AcDbBlockEnd
  0
BLOCK
  5
203
330
202
100
AcDbEntity
  8
0
100
AcDbBlockBegin
  2
SW_NOTE_3
 70
     0
 10
0.0
 20
0.0
 30
0.0
  3
SW_NOTE_3
  1

  0
MTEXT
  5
205
330
202
100
AcDbEntity
  8
CAJETIN
 62
     0
100
AcDbMText
 10
0.0
 20
3.2226693494
 30
0.0
 40
2.5
 41
0.0
 71
     1
 72
     1
  1
ELECTRICAL
  7
SLDTEXTSTYLE0
 73
     1
 44
1.0
  0
MTEXT
  5
206
330
202
100
AcDbEntity
  8
CAJETIN
 62
     0
100
AcDbMText
 10
0.0
 20
-0.9273305858
 30
0.0
 40
2.5
 41
0.0
 71
     1
 72
     1
  1
WIRE EXIT
  7
SLDTEXTSTYLE0
 73
     1
 44
1.0
  0
ENDBLK
  5
204
330
202
100
AcDbEntity
  8
0
100
AcDbBlockEnd
  0
ENDSEC
  0
SECTION
  2
ENTITIES
  0
LINE
  5
7D
330
1F
100
AcDbEntity
  8
COTAS
100
AcDbLine
 10
1407.8865358994
 20
427.5179205714
 30
0.0
 11
157.8865358994
 21
427.5179205714
 31
0.0
  0
LINE
  5
7E
330
1F
100
AcDbEntity
  8
COTAS
100
AcDbLine
 10
157.8865358994
 20
427.5179205714
 30
0.0
 11
157.8865358994
 21
457.5179205714
 31
0.0
  0
LINE
  5
7F
330
1F
100
AcDbEntity
  8
COTAS
100
AcDbLine
 10
157.8865358994
 20
457.5179205714
 30
0.0
 11
1407.8865358994
 21
457.5179205714
 31
0.0
  0
LINE
  5
80
330
1F
100
AcDbEntity
  8
COTAS
100
AcDbLine
 10
1407.8865358994
 20
457.5179205714
 30
0.0
 11
1407.8865358994
 21
427.5179205714
 31
0.0
  0
LINE
  5
81
330
1F
100
AcDbEntity
  8
CAJETIN
100
AcDbLine
 10
30.0
 20
24.9999999928
 30
0.0
 11
1568.237671086
 21
24.9999999928
 31
0.0
  0
LINE
  5
82
330
1F
100
AcDbEntity
  8
CAJETIN
100
AcDbLine
 10
30.0
 20
2776.5042456259
 30
0.0
 11
30.0
 21
24.9999999928
 31
0.0
  0
LINE
  5
83
330
1F
100
AcDbEntity
  8
CAJETIN
100
AcDbLine
 10
1271.237671745
 20
40.0000001518
 30
0.0
 11
1568.2376710859
 21
40.0000001518
 31
0.0
  0
LINE
  5
84
330
1F
100
AcDbEntity
  8
CAJETIN
100
AcDbLine
 10
1271.237671745
 20
55.0000000333
 30
0.0
 11
1568.237673451
 21
55.0000000333
 31
0.0
  0
LINE
  5
85
330
1F
100
AcDbEntity
  8
CAJETIN
100
AcDbLine
 10
1568.0665366742
 20
2776.5042456259
 30
0.0
 11
1568.237671086
 21
24.9999999928
 31
0.0
  0
LINE
  5
86
330
1F
100
AcDbEntity
  8
CAJETIN
100
AcDbLine
 10
30.0
 20
2776.5042456259
 30
0.0
 11
1568.0665366742
 21
2776.5042456259
 31
0.0
  0
LINE
  5
87
330
1F
100
AcDbEntity
  8
CAJETIN
100
AcDbLine
 10
1271.237671745
 20
55.0000000333
 30
0.0
 11
1271.237671745
 21
25.0000002562
 31
0.0
  0
LINE
  5
88
330
1F
100
AcDbEntity
  8
PIEZA
370
     0
100
AcDbLine
 10
1491.0493202194
 20
34.4061684358
 30
0.0
 11
1495.1435336076
 21
34.4061684358
 31
0.0
  0
LINE
  5
89
330
1F
100
AcDbEntity
  8
PIEZA
370
     0
100
AcDbLine
 10
1495.1435336076
 20
34.4061684358
 30
0.0
 11
1496.7901880596
 21
34.4061684358
 31
0.0
  0
LINE
  5
8A
330
1F
100
AcDbEntity
  8
PIEZA
370
     0
100
AcDbLine
 10
1499.1487665803
 20
30.0451591411
 30
0.0
 11
1499.1487665803
 21
28.3095081246
 31
0.0
  0
LINE
  5
8B
330
1F
100
AcDbEntity
  8
PIEZA
370
     0
100
AcDbLine
 10
1499.1487665803
 20
28.3095081246
 30
0.0
 11
1497.9916336049
 21
28.3095081246
 31
0.0
  0
LINE
  5
8C
330
1F
100
AcDbEntity
  8
PIEZA
370
     0
100
AcDbLine
 10
1497.9916336049
 20
28.3095081246
 30
0.0
 11
1497.9916336049
 21
29.7780887033
 31
0.0
  0
LINE
  5
8D
330
1F
100
AcDbEntity
  8
PIEZA
370
     0
100
AcDbLine
 10
1496.7011268996
 20
30.6680866454
 30
0.0
 11
1495.1435336076
 21
30.6680866454
 31
0.0
  0
LINE
  5
8E
330
1F
100
AcDbEntity
  8
PIEZA
370
     0
100
AcDbLine
 10
1495.1435336076
 20
30.6680866454
 30
0.0
 11
1492.2063724503
 21
30.6680866454
 31
0.0
  0
LINE
  5
8F
330
1F
100
AcDbEntity
  8
PIEZA
370
     0
100
AcDbLine
 10
1492.2063724503
 20
30.6680866454
 30
0.0
 11
1492.2063724503
 21
28.3095081247
 31
0.0
  0
LINE
  5
90
330
1F
100
AcDbEntity
  8
PIEZA
370
     0
100
AcDbLine
 10
1492.2063724503
 20
28.3095081247
 30
0.0
 11
1491.0493202194
 21
28.3095081247
 31
0.0
  0
LINE
  5
91
330
1F
100
AcDbEntity
  8
PIEZA
370
     0
100
AcDbLine
 10
1491.0493202194
 20
28.3095081247
 30
0.0
 11
1491.0493202194
 21
34.4061684358
 31
0.0
  0
LINE
  5
92
330
1F
100
AcDbEntity
  8
PIEZA
370
     0
100
AcDbLine
 10
1495.1435336077
 20
33.5162027916
 30
0.0
 11
1492.2063724503
 21
33.5162027916
 31
0.0
  0
LINE
  5
93
330
1F
100
AcDbEntity
  8
PIEZA
370
     0
100
AcDbLine
 10
1492.2063724503
 20
33.5162027916
 30
0.0
 11
1492.2063724503
 21
31.5580845875
 31
0.0
  0
LINE
  5
94
330
1F
100
AcDbEntity
  8
PIEZA
370
     0
100
AcDbLine
 10
1492.2063724503
 20
31.5580845875
 30
0.0
 11
1495.1435336076
 21
31.5580845875
 31
0.0
  0
LINE
  5
95
330
1F
100
AcDbEntity
  8
PIEZA
370
     0
100
AcDbLine
 10
1495.1435336076
 20
31.5580845875
 30
0.0
 11
1496.6564429051
 21
31.5580845875
 31
0.0
  0
LINE
  5
96
330
1F
100
AcDbEntity
  8
PIEZA
370
     0
100
AcDbLine
 10
1496.6121303352
 20
33.5162027916
 30
0.0
 11
1495.1435336077
 21
33.5162027916
 31
0.0
  0
LINE
  5
97
330
1F
100
AcDbEntity
  8
PIEZA
370
     0
100
AcDbLine
 10
1514.5910512386
 20
34.4952457448
 30
0.0
 11
1515.6591392029
 21
34.4952457448
 31
0.0
  0
LINE
  5
98
330
1F
100
AcDbEntity
  8
PIEZA
370
     0
100
AcDbLine
 10
1515.125224412
 20
28.2650017681
 30
0.0
 11
1514.5910512387
 21
28.2650017681
 31
0.0
  0
LINE
  5
99
330
1F
100
AcDbEntity
  8
PIEZA
370
     0
100
AcDbLine
 10
1514.5910512387
 20
28.2650017681
 30
0.0
 11
1513.56763112
 21
28.2650017681
 31
0.0
  0
LINE
  5
9A
330
1F
100
AcDbEntity
  8
PIEZA
370
     0
100
AcDbLine
 10
1514.5910512387
 20
33.5162027916
 30
0.0
 11
1512.989113079
 21
33.5162027916
 31
0.0
  0
LINE
  5
9B
330
1F
100
AcDbEntity
  8
PIEZA
370
     0
100
AcDbLine
 10
1511.2534620626
 20
32.2256799374
 30
0.0
 11
1511.2090848971
 21
31.3356819953
 31
0.0
  0
LINE
  5
9C
330
1F
100
AcDbEntity
  8
PIEZA
370
     0
100
AcDbLine
 10
1511.2090848971
 20
31.3356819953
 30
0.0
 11
1511.2090848971
 21
30.9351570832
 31
0.0
  0
LINE
  5
9D
330
1F
100
AcDbEntity
  8
PIEZA
370
     0
100
AcDbLine
 10
1512.7666458912
 20
29.2440124235
 30
0.0
 11
1514.5466740731
 21
29.1995060669
 31
0.0
  0
LINE
  5
9E
330
1F
100
AcDbEntity
  8
PIEZA
370
     0
100
AcDbLine
 10
1514.5466740731
 20
29.1995060669
 30
0.0
 11
1514.5910512386
 21
29.1995060669
 31
0.0
  0
LINE
  5
9F
330
1F
100
AcDbEntity
  8
PIEZA
370
     0
100
AcDbLine
 10
1514.5910512386
 20
29.1995060669
 30
0.0
 11
1515.1696015774
 21
29.1995060669
 31
0.0
  0
LINE
  5
A0
330
1F
100
AcDbEntity
  8
PIEZA
370
     0
100
AcDbLine
 10
1517.9287050103
 20
30.5790093366
 30
0.0
 11
1517.9287050103
 21
31.7361423119
 31
0.0
  0
LINE
  5
A1
330
1F
100
AcDbEntity
  8
PIEZA
370
     0
100
AcDbLine
 10
1516.1932800785
 20
33.5162027916
 30
0.0
 11
1514.5910512387
 21
33.5162027916
 31
0.0
  0
LINE
  5
A2
330
1F
100
AcDbEntity
  8
PIEZA
370
     0
100
AcDbLine
 10
1485.7088803981
 20
29.5999986811
 30
0.0
 11
1482.9498415608
 21
29.5999986811
 31
0.0
  0
LINE
  5
A3
330
1F
100
AcDbEntity
  8
PIEZA
370
     0
100
AcDbLine
 10
1482.9498415608
 20
29.5999986811
 30
0.0
 11
1482.0597951721
 21
28.3095081247
 31
0.0
  0
LINE
  5
A4
330
1F
100
AcDbEntity
  8
PIEZA
370
     0
100
AcDbLine
 10
1482.0597951721
 20
28.3095081247
 30
0.0
 11
1480.6355917589
 21
28.3095081247
 31
0.0
  0
LINE
  5
A5
330
1F
100
AcDbEntity
  8
PIEZA
370
     0
100
AcDbLine
 10
1480.6355917589
 20
28.3095081247
 30
0.0
 11
1485.0413496437
 21
34.4061684358
 31
0.0
  0
LINE
  5
A6
330
1F
100
AcDbEntity
  8
PIEZA
370
     0
100
AcDbLine
 10
1485.0413496437
 20
34.4061684358
 30
0.0
 11
1485.7088803981
 21
34.4061684358
 31
0.0
  0
LINE
  5
A7
330
1F
100
AcDbEntity
  8
PIEZA
370
     0
100
AcDbLine
 10
1485.7088803981
 20
34.4061684358
 30
0.0
 11
1486.3321147314
 21
34.4061684358
 31
0.0
  0
LINE
  5
A8
330
1F
100
AcDbEntity
  8
PIEZA
370
     0
100
AcDbLine
 10
1486.3321147314
 20
34.4061684358
 30
0.0
 11
1490.8268530317
 21
28.3095081247
 31
0.0
  0
LINE
  5
A9
330
1F
100
AcDbEntity
  8
PIEZA
370
     0
100
AcDbLine
 10
1490.8268530317
 20
28.3095081247
 30
0.0
 11
1489.4026496186
 21
28.3095081247
 31
0.0
  0
LINE
  5
AA
330
1F
100
AcDbEntity
  8
PIEZA
370
     0
100
AcDbLine
 10
1489.4026496186
 20
28.3095081247
 30
0.0
 11
1488.4682906599
 21
29.5999986811
 31
0.0
  0
LINE
  5
AB
330
1F
100
AcDbEntity
  8
PIEZA
370
     0
100
AcDbLine
 10
1488.4682906599
 20
29.5999986811
 30
0.0
 11
1485.7088803981
 21
29.5999986811
 31
0.0
  0
LINE
  5
AC
330
1F
100
AcDbEntity
  8
PIEZA
370
     0
100
AcDbLine
 10
1485.7088803981
 20
33.4717933283
 30
0.0
 11
1483.5727529162
 21
30.5346967666
 31
0.0
  0
LINE
  5
AD
330
1F
100
AcDbEntity
  8
PIEZA
370
     0
100
AcDbLine
 10
1483.5727529162
 20
30.5346967666
 30
0.0
 11
1485.7088803981
 21
30.5346967666
 31
0.0
  0
LINE
  5
AE
330
1F
100
AcDbEntity
  8
PIEZA
370
     0
100
AcDbLine
 10
1485.7088803981
 20
30.5346967666
 30
0.0
 11
1487.8450724755
 21
30.5346967666
 31
0.0
  0
LINE
  5
AF
330
1F
100
AcDbEntity
  8
PIEZA
370
     0
100
AcDbLine
 10
1487.8450724755
 20
30.5346967666
 30
0.0
 11
1485.7088803981
 21
33.4717933283
 31
0.0
  0
LINE
  5
B0
330
1F
100
AcDbEntity
  8
PIEZA
370
     0
100
AcDbLine
 10
1502.041550572
 20
31.9142323341
 30
0.0
 11
1503.064922244
 21
31.9142323341
 31
0.0
  0
LINE
  5
B1
330
1F
100
AcDbEntity
  8
PIEZA
370
     0
100
AcDbLine
 10
1503.064922244
 20
31.9142323341
 30
0.0
 11
1507.5596766932
 21
34.4061684358
 31
0.0
  0
LINE
  5
B2
330
1F
100
AcDbEntity
  8
PIEZA
370
     0
100
AcDbLine
 10
1507.5596766932
 20
34.4061684358
 30
0.0
 11
1509.0282572719
 21
34.4061684358
 31
0.0
  0
LINE
  5
B3
330
1F
100
AcDbEntity
  8
PIEZA
370
     0
100
AcDbLine
 10
1509.0282572719
 20
34.4061684358
 30
0.0
 11
1509.6514754563
 21
34.4061684358
 31
0.0
  0
LINE
  5
B4
330
1F
100
AcDbEntity
  8
PIEZA
370
     0
100
AcDbLine
 10
1509.6514754563
 20
34.4061684358
 30
0.0
 11
1504.3110517838
 21
31.4690718741
 31
0.0
  0
LINE
  5
B5
330
1F
100
AcDbEntity
  8
PIEZA
370
     0
100
AcDbLine
 10
1504.3110517838
 20
31.4690718741
 30
0.0
 11
1510.0072517783
 21
28.3095081247
 31
0.0
  0
LINE
  5
B6
330
1F
100
AcDbEntity
  8
PIEZA
370
     0
100
AcDbLine
 10
1510.0072517783
 20
28.3095081247
 30
0.0
 11
1507.7820631365
 21
28.3095081247
 31
0.0
  0
LINE
  5
B7
330
1F
100
AcDbEntity
  8
PIEZA
370
     0
100
AcDbLine
 10
1507.7820631365
 20
28.3095081247
 30
0.0
 11
1503.064922244
 21
31.0242343921
 31
0.0
  0
LINE
  5
B8
330
1F
100
AcDbEntity
  8
PIEZA
370
     0
100
AcDbLine
 10
1503.064922244
 20
31.0242343921
 30
0.0
 11
1502.041550572
 21
31.0242343921
 31
0.0
  0
LINE
  5
B9
330
1F
100
AcDbEntity
  8
PIEZA
370
     0
100
AcDbLine
 10
1502.041550572
 20
31.0242343921
 30
0.0
 11
1502.041550572
 21
28.3095081247
 31
0.0
  0
LINE
  5
BA
330
1F
100
AcDbEntity
  8
PIEZA
370
     0
100
AcDbLine
 10
1502.041550572
 20
28.3095081247
 30
0.0
 11
1500.8844175966
 21
28.3095081247
 31
0.0
  0
LINE
  5
BB
330
1F
100
AcDbEntity
  8
PIEZA
370
     0
100
AcDbLine
 10
1500.8844175966
 20
28.3095081247
 30
0.0
 11
1500.8844175966
 21
34.4061684358
 31
0.0
  0
LINE
  5
BC
330
1F
100
AcDbEntity
  8
PIEZA
370
     0
100
AcDbLine
 10
1500.8844175966
 20
34.4061684358
 30
0.0
 11
1502.041550572
 21
34.4061684358
 31
0.0
  0
LINE
  5
BD
330
1F
100
AcDbEntity
  8
PIEZA
370
     0
100
AcDbLine
 10
1502.041550572
 20
34.4061684358
 30
0.0
 11
1502.041550572
 21
31.9142323341
 31
0.0
  0
LINE
  5
BE
330
1F
100
AcDbEntity
  8
PIEZA
370
     0
100
AcDbLine
 10
1527.4969903319
 20
32.4927503751
 30
0.0
 11
1527.4969903319
 21
32.6708080996
 31
0.0
  0
LINE
  5
BF
330
1F
100
AcDbEntity
  8
PIEZA
370
     0
100
AcDbLine
 10
1525.0046989545
 20
33.5162027916
 30
0.0
 11
1524.6932513513
 21
33.5162027916
 31
0.0
  0
LINE
  5
C0
330
1F
100
AcDbEntity
  8
PIEZA
370
     0
100
AcDbLine
 10
1523.847598277
 20
31.8695321908
 30
0.0
 11
1525.4495687345
 21
31.9142323342
 31
0.0
  0
LINE
  5
C1
330
1F
100
AcDbEntity
  8
PIEZA
370
     0
100
AcDbLine
 10
1525.2271661423
 20
28.2650017681
 30
0.0
 11
1524.6932513514
 21
28.2650017681
 31
0.0
  0
LINE
  5
C2
330
1F
100
AcDbEntity
  8
PIEZA
370
     0
100
AcDbLine
 10
1520.7324116932
 20
30.2675617333
 30
0.0
 11
1520.7324116932
 21
30.4456194577
 31
0.0
  0
LINE
  5
C3
330
1F
100
AcDbEntity
  8
PIEZA
370
     0
100
AcDbLine
 10
1520.7324116932
 20
30.4456194577
 30
0.0
 11
1521.8895446686
 21
30.4456194577
 31
0.0
  0
LINE
  5
C4
330
1F
100
AcDbEntity
  8
PIEZA
370
     0
100
AcDbLine
 10
1521.8895446686
 20
30.4456194577
 30
0.0
 11
1521.8895446686
 21
30.1785490199
 31
0.0
  0
LINE
  5
C5
330
1F
100
AcDbEntity
  8
PIEZA
370
     0
100
AcDbLine
 10
1526.2952218089
 20
30.8905538331
 30
0.0
 11
1524.7376285169
 21
30.9351570832
 31
0.0
  0
LINE
  5
C6
330
1F
100
AcDbEntity
  8
PIEZA
370
     0
100
AcDbLine
 10
1528.6541233075
 20
32.6708080996
 30
0.0
 11
1528.6541233075
 21
32.4927503751
 31
0.0
  0
LINE
  5
C7
330
1F
100
AcDbEntity
  8
PIEZA
370
     0
100
AcDbLine
 10
1528.6541233075
 20
32.4927503751
 30
0.0
 11
1527.4969903319
 21
32.4927503751
 31
0.0
  0
LINE
  5
C8
330
1F
100
AcDbEntity
  8
PIEZA
370
     0
100
AcDbLine
 10
1558.4262920902
 20
28.3095081247
 30
0.0
 11
1556.8239986548
 21
28.3095081247
 31
0.0
  0
LINE
  5
C9
330
1F
100
AcDbEntity
  8
PIEZA
370
     0
100
AcDbLine
 10
1556.8239986548
 20
28.3095081247
 30
0.0
 11
1556.8239986548
 21
30.7570993587
 31
0.0
  0
LINE
  5
CA
330
1F
100
AcDbEntity
  8
PIEZA
370
     0
100
AcDbLine
 10
1556.8239986548
 20
30.7570993587
 30
0.0
 11
1554.5988423107
 21
30.7570993587
 31
0.0
  0
LINE
  5
CB
330
1F
100
AcDbEntity
  8
PIEZA
370
     0
100
AcDbLine
 10
1554.5988423107
 20
30.7570993587
 30
0.0
 11
1554.5988423107
 21
31.5580845875
 31
0.0
  0
LINE
  5
CC
330
1F
100
AcDbEntity
  8
PIEZA
370
     0
100
AcDbLine
 10
1554.5988423107
 20
31.5580845875
 30
0.0
 11
1560.6511900519
 21
31.5580845875
 31
0.0
  0
LINE
  5
CD
330
1F
100
AcDbEntity
  8
PIEZA
370
     0
100
AcDbLine
 10
1560.6511900519
 20
31.5580845875
 30
0.0
 11
1560.6511900519
 21
30.7570993587
 31
0.0
  0
LINE
  5
CE
330
1F
100
AcDbEntity
  8
PIEZA
370
     0
100
AcDbLine
 10
1560.6511900519
 20
30.7570993587
 30
0.0
 11
1558.4262920902
 21
30.7570993587
 31
0.0
  0
LINE
  5
CF
330
1F
100
AcDbEntity
  8
PIEZA
370
     0
100
AcDbLine
 10
1558.4262920902
 20
30.7570993587
 30
0.0
 11
1558.4262920902
 21
28.3095081247
 31
0.0
  0
LINE
  5
D0
330
1F
100
AcDbEntity
  8
PIEZA
370
     0
100
AcDbLine
 10
1548.9026100184
 20
28.3095081247
 30
0.0
 11
1547.300639561
 21
28.3095081247
 31
0.0
  0
LINE
  5
D1
330
1F
100
AcDbEntity
  8
PIEZA
370
     0
100
AcDbLine
 10
1547.300639561
 20
28.3095081247
 30
0.0
 11
1547.300639561
 21
31.5580845875
 31
0.0
  0
LINE
  5
D2
330
1F
100
AcDbEntity
  8
PIEZA
370
     0
100
AcDbLine
 10
1547.300639561
 20
31.5580845875
 30
0.0
 11
1548.9026100184
 21
31.5580845875
 31
0.0
  0
LINE
  5
D3
330
1F
100
AcDbEntity
  8
PIEZA
370
     0
100
AcDbLine
 10
1548.9026100184
 20
31.5580845875
 30
0.0
 11
1548.9026100184
 21
30.3566390422
 31
0.0
  0
LINE
  5
D4
330
1F
100
AcDbEntity
  8
PIEZA
370
     0
100
AcDbLine
 10
1548.9026100184
 20
30.3566390422
 30
0.0
 11
1552.24026379
 21
30.3566390422
 31
0.0
  0
LINE
  5
D5
330
1F
100
AcDbEntity
  8
PIEZA
370
     0
100
AcDbLine
 10
1552.24026379
 20
30.3566390422
 30
0.0
 11
1552.24026379
 21
31.5580845875
 31
0.0
  0
LINE
  5
D6
330
1F
100
AcDbEntity
  8
PIEZA
370
     0
100
AcDbLine
 10
1552.24026379
 20
31.5580845875
 30
0.0
 11
1553.8425249276
 21
31.5580845875
 31
0.0
  0
LINE
  5
D7
330
1F
100
AcDbEntity
  8
PIEZA
370
     0
100
AcDbLine
 10
1553.8425249276
 20
31.5580845875
 30
0.0
 11
1553.8425249276
 21
28.3095081247
 31
0.0
  0
LINE
  5
D8
330
1F
100
AcDbEntity
  8
PIEZA
370
     0
100
AcDbLine
 10
1553.8425249276
 20
28.3095081247
 30
0.0
 11
1552.24026379
 21
28.3095081247
 31
0.0
  0
LINE
  5
D9
330
1F
100
AcDbEntity
  8
PIEZA
370
     0
100
AcDbLine
 10
1552.24026379
 20
28.3095081247
 30
0.0
 11
1552.24026379
 21
29.5999986811
 31
0.0
  0
LINE
  5
DA
330
1F
100
AcDbEntity
  8
PIEZA
370
     0
100
AcDbLine
 10
1552.24026379
 20
29.5999986811
 30
0.0
 11
1548.9026100184
 21
29.5999986811
 31
0.0
  0
LINE
  5
DB
330
1F
100
AcDbEntity
  8
PIEZA
370
     0
100
AcDbLine
 10
1548.9026100184
 20
29.5999986811
 30
0.0
 11
1548.9026100184
 21
28.3095081247
 31
0.0
  0
LINE
  5
DC
330
1F
100
AcDbEntity
  8
PIEZA
370
     0
100
AcDbLine
 10
1544.6303227569
 20
30.5346967666
 30
0.0
 11
1544.6303227569
 21
30.5790093365
 31
0.0
  0
LINE
  5
DD
330
1F
100
AcDbEntity
  8
PIEZA
370
     0
100
AcDbLine
 10
1543.3841447704
 20
30.8014765242
 30
0.0
 11
1542.4497696629
 21
30.8014765242
 31
0.0
  0
LINE
  5
DE
330
1F
100
AcDbEntity
  8
PIEZA
370
     0
100
AcDbLine
 10
1541.1589561285
 20
30.1341718545
 30
0.0
 11
1541.1589561285
 21
29.6890113946
 31
0.0
  0
LINE
  5
DF
330
1F
100
AcDbEntity
  8
PIEZA
370
     0
100
AcDbLine
 10
1542.4497696629
 20
29.0659869969
 30
0.0
 11
1543.3841447704
 21
29.0659869969
 31
0.0
  0
LINE
  5
E0
330
1F
100
AcDbEntity
  8
PIEZA
370
     0
100
AcDbLine
 10
1544.6303227569
 20
29.5999986812
 30
0.0
 11
1542.7169046962
 21
29.5999986812
 31
0.0
  0
LINE
  5
E1
330
1F
100
AcDbEntity
  8
PIEZA
370
     0
100
AcDbLine
 10
1542.7169046962
 20
29.5999986812
 30
0.0
 11
1542.7169046962
 21
30.0451591412
 31
0.0
  0
LINE
  5
E2
330
1F
100
AcDbEntity
  8
PIEZA
370
     0
100
AcDbLine
 10
1542.7169046962
 20
30.0451591412
 30
0.0
 11
1546.3215966078
 21
30.0451591412
 31
0.0
  0
LINE
  5
E3
330
1F
100
AcDbEntity
  8
PIEZA
370
     0
100
AcDbLine
 10
1546.3215966078
 20
30.0451591412
 30
0.0
 11
1546.3215966078
 21
29.1104933534
 31
0.0
  0
LINE
  5
E4
330
1F
100
AcDbEntity
  8
PIEZA
370
     0
100
AcDbLine
 10
1543.8293375282
 20
28.265001768
 30
0.0
 11
1542.0046092029
 21
28.265001768
 31
0.0
  0
LINE
  5
E5
330
1F
100
AcDbEntity
  8
PIEZA
370
     0
100
AcDbLine
 10
1539.5126731012
 20
29.4665765045
 30
0.0
 11
1539.5126731012
 21
30.3566390422
 31
0.0
  0
LINE
  5
E6
330
1F
100
AcDbEntity
  8
PIEZA
370
     0
100
AcDbLine
 10
1542.0046092029
 20
31.6027524331
 30
0.0
 11
1543.8293375282
 21
31.6027524331
 31
0.0
  0
LINE
  5
E7
330
1F
100
AcDbEntity
  8
PIEZA
370
     0
100
AcDbLine
 10
1546.2322932144
 20
30.5346967666
 30
0.0
 11
1544.6303227569
 21
30.5346967666
 31
0.0
  0
LINE
  5
E8
330
1F
100
AcDbEntity
  8
PIEZA
370
     0
100
AcDbLine
 10
1538.4445528391
 20
28.3095081247
 30
0.0
 11
1536.8423239993
 21
28.3095081247
 31
0.0
  0
LINE
  5
E9
330
1F
100
AcDbEntity
  8
PIEZA
370
     0
100
AcDbLine
 10
1536.8423239993
 20
28.3095081247
 30
0.0
 11
1536.8423239993
 21
31.5580845875
 31
0.0
  0
LINE
  5
EA
330
1F
100
AcDbEntity
  8
PIEZA
370
     0
100
AcDbLine
 10
1536.8423239993
 20
31.5580845875
 30
0.0
 11
1538.4445528391
 21
31.5580845875
 31
0.0
  0
LINE
  5
EB
330
1F
100
AcDbEntity
  8
PIEZA
370
     0
100
AcDbLine
 10
1538.4445528391
 20
31.5580845875
 30
0.0
 11
1538.4445528391
 21
28.3095081247
 31
0.0
  0
LINE
  5
EC
330
1F
100
AcDbEntity
  8
PIEZA
370
     0
100
AcDbLine
 10
1532.5702628224
 20
29.1104933535
 30
0.0
 11
1536.1303514839
 21
29.1104933535
 31
0.0
  0
LINE
  5
ED
330
1F
100
AcDbEntity
  8
PIEZA
370
     0
100
AcDbLine
 10
1536.1303514839
 20
29.1104933535
 30
0.0
 11
1536.1303514839
 21
28.3095081247
 31
0.0
  0
LINE
  5
EE
330
1F
100
AcDbEntity
  8
PIEZA
370
     0
100
AcDbLine
 10
1536.1303514839
 20
28.3095081247
 30
0.0
 11
1530.9680662804
 21
28.3095081247
 31
0.0
  0
LINE
  5
EF
330
1F
100
AcDbEntity
  8
PIEZA
370
     0
100
AcDbLine
 10
1530.9680662804
 20
28.3095081247
 30
0.0
 11
1530.9680662804
 21
31.5580845875
 31
0.0
  0
LINE
  5
F0
330
1F
100
AcDbEntity
  8
PIEZA
370
     0
100
AcDbLine
 10
1530.9680662804
 20
31.5580845875
 30
0.0
 11
1532.5702628224
 21
31.5580845875
 31
0.0
  0
LINE
  5
F1
330
1F
100
AcDbEntity
  8
PIEZA
370
     0
100
AcDbLine
 10
1532.5702628224
 20
31.5580845875
 30
0.0
 11
1532.5702628224
 21
29.1104933535
 31
0.0
  0
LINE
  5
F2
330
1F
100
AcDbEntity
  8
PIEZA
370
     0
100
AcDbLine
 10
1561.1115627717
 20
33.9397883269
 30
0.0
 11
1561.1115627717
 21
35.4036857257
 31
0.0
  0
LINE
  5
F3
330
1F
100
AcDbEntity
  8
PIEZA
370
     0
100
AcDbLine
 10
1561.1115627717
 20
35.4036857257
 30
0.0
 11
1561.7340704047
 21
35.4036857257
 31
0.0
  0
LINE
  5
F4
330
1F
100
AcDbEntity
  8
PIEZA
370
     0
100
AcDbLine
 10
1562.2495431567
 20
34.2253976969
 30
0.0
 11
1562.4282145392
 21
33.9397883269
 31
0.0
  0
LINE
  5
F5
330
1F
100
AcDbEntity
  8
PIEZA
370
     0
100
AcDbLine
 10
1562.4282145392
 20
33.9397883269
 30
0.0
 11
1562.0748767004
 21
33.9397883269
 31
0.0
  0
LINE
  5
F6
330
1F
100
AcDbEntity
  8
PIEZA
370
     0
100
AcDbLine
 10
1562.0748767004
 20
33.9397883269
 30
0.0
 11
1561.8629385927
 21
34.259310378
 31
0.0
  0
LINE
  5
F7
330
1F
100
AcDbEntity
  8
PIEZA
370
     0
100
AcDbLine
 10
1561.4681303896
 20
34.5510886262
 30
0.0
 11
1561.4080241997
 21
34.5510886262
 31
0.0
  0
LINE
  5
F8
330
1F
100
AcDbEntity
  8
PIEZA
370
     0
100
AcDbLine
 10
1561.4080241997
 20
34.5510886262
 30
0.0
 11
1561.4080241997
 21
33.9397883269
 31
0.0
  0
LINE
  5
F9
330
1F
100
AcDbEntity
  8
PIEZA
370
     0
100
AcDbLine
 10
1561.4080241997
 20
33.9397883269
 30
0.0
 11
1561.1115627717
 21
33.9397883269
 31
0.0
  0
LINE
  5
FA
330
1F
100
AcDbEntity
  8
PIEZA
370
     0
100
AcDbLine
 10
1561.4080241997
 20
34.7841817874
 30
0.0
 11
1561.6266479502
 21
34.7841817874
 31
0.0
  0
LINE
  5
FB
330
1F
100
AcDbEntity
  8
PIEZA
370
     0
100
AcDbLine
 10
1561.6386304308
 20
35.156284643
 30
0.0
 11
1561.4080241997
 21
35.156284643
 31
0.0
  0
LINE
  5
FC
330
1F
100
AcDbEntity
  8
PIEZA
370
     0
100
AcDbLine
 10
1561.4080241997
 20
35.156284643
 30
0.0
 11
1561.4080241997
 21
34.7841817874
 31
0.0
  0
LINE
  5
FD
330
1F
100
AcDbEntity
  8
PIEZA
100
AcDbLine
 10
1219.7103158994
 20
426.5179205867
 30
0.0
 11
346.0627558994
 21
426.5179205867
 31
0.0
  0
LINE
  5
FE
330
1F
100
AcDbEntity
  8
PIEZA
100
AcDbLine
 10
567.8865358994
 20
427.0179205714
 30
0.0
 11
567.3865358994
 21
427.5179205714
 31
0.0
  0
LINE
  5
FF
330
1F
100
AcDbEntity
  8
PIEZA
100
AcDbLine
 10
548.3865358994
 20
427.5179205714
 30
0.0
 11
547.8865358994
 21
427.0179205714
 31
0.0
  0
LINE
  5
100
330
1F
100
AcDbEntity
  8
PIEZA
100
AcDbLine
 10
547.8865358994
 20
427.0179205714
 30
0.0
 11
547.8865358994
 21
426.5178815714
 31
0.0
  0
LINE
  5
101
330
1F
100
AcDbEntity
  8
PIEZA
100
AcDbLine
 10
567.8865358994
 20
426.5178815714
 30
0.0
 11
567.8865358994
 21
427.0179205714
 31
0.0
  0
LINE
  5
102
330
1F
100
AcDbEntity
  8
PIEZA
100
AcDbLine
 10
997.8865358994
 20
427.0179205714
 30
0.0
 11
997.8865358994
 21
426.5178815714
 31
0.0
  0
LINE
  5
103
330
1F
100
AcDbEntity
  8
PIEZA
100
AcDbLine
 10
1017.8865358994
 20
426.5178815714
 30
0.0
 11
1017.8865358994
 21
427.0179205714
 31
0.0
  0
LINE
  5
104
330
1F
100
AcDbEntity
  8
PIEZA
100
AcDbLine
 10
1017.8865358994
 20
427.0179205714
 30
0.0
 11
1017.3865358994
 21
427.5179205714
 31
0.0
  0
LINE
  5
105
330
1F
100
AcDbEntity
  8
PIEZA
100
AcDbLine
 10
998.3865358994
 20
427.5179205714
 30
0.0
 11
997.8865358994
 21
427.0179205714
 31
0.0
  0
LINE
  5
106
330
1F
100
AcDbEntity
  8
COTAS
100
AcDbLine
 10
1407.8865358994
 20
457.5179205714
 30
0.0
 11
1407.8865358994
 21
427.5179205714
 31
0.0
  0
LINE
  5
107
330
1F
100
AcDbEntity
  8
COTAS
100
AcDbLine
 10
1407.8865358994
 20
457.5179205714
 30
0.0
 11
157.8865358994
 21
457.5179205714
 31
0.0
  0
LINE
  5
108
330
1F
100
AcDbEntity
  8
COTAS
100
AcDbLine
 10
1407.8865358994
 20
427.5179205714
 30
0.0
 11
157.8865358994
 21
427.5179205714
 31
0.0
  0
LINE
  5
109
330
1F
100
AcDbEntity
  8
COTAS
100
AcDbLine
 10
157.8865358994
 20
457.5179205714
 30
0.0
 11
157.8865358994
 21
427.5179205714
 31
0.0
  0
LINE
  5
10A
330
1F
100
AcDbEntity
  8
PIEZA
100
AcDbLine
 10
1219.7103158994
 20
306.5179205714
 30
0.0
 11
346.0627558994
 21
306.5179205714
 31
0.0
  0
LINE
  5
10B
330
1F
100
AcDbEntity
  8
PIEZA
100
AcDbLine
 10
567.3865358994
 20
427.5179205714
 30
0.0
 11
557.8865358994
 21
427.5179205714
 31
0.0
  0
LINE
  5
10C
330
1F
100
AcDbEntity
  8
PIEZA
100
AcDbLine
 10
557.8865358994
 20
427.5179205714
 30
0.0
 11
548.3865358994
 21
427.5179205714
 31
0.0
  0
LINE
  5
10D
330
1F
100
AcDbEntity
  8
PIEZA
100
AcDbLine
 10
1017.3865358994
 20
427.5179205714
 30
0.0
 11
1007.8865358994
 21
427.5179205714
 31
0.0
  0
LINE
  5
10E
330
1F
100
AcDbEntity
  8
PIEZA
100
AcDbLine
 10
1007.8865358994
 20
427.5179205714
 30
0.0
 11
998.3865358994
 21
427.5179205714
 31
0.0
  0
LINE
  5
10F
330
1F
100
AcDbEntity
  8
PIEZA
  6
CENTERX2
 62
     8
100
AcDbLine
 10
782.8865358994
 20
2220.0992152189
 30
0.0
 11
782.8865358994
 21
2235.0992152189
 31
0.0
  0
LINE
  5
110
330
1F
100
AcDbEntity
  8
PIEZA
  6
CENTERX2
 62
     8
100
AcDbLine
 10
551.8865358994
 20
2398.5992152189
 30
0.0
 11
1013.8865358994
 21
2398.5992152189
 31
0.0
  0
LINE
  5
111
330
1F
100
AcDbEntity
  8
PIEZA
  6
CENTERX2
 62
     8
100
AcDbLine
 10
1007.8865358994
 20
2392.5992152189
 30
0.0
 11
1007.8865358994
 21
2404.5992152189
 31
0.0
  0
LINE
  5
112
330
1F
100
AcDbEntity
  8
PIEZA
  6
CENTERX2
 62
     8
100
AcDbLine
 10
557.8865358994
 20
2392.5992152189
 30
0.0
 11
557.8865358994
 21
2404.5992152189
 31
0.0
  0
LINE
  5
113
330
1F
100
AcDbEntity
  8
PIEZA
  6
CENTERX2
 62
     8
100
AcDbLine
 10
1007.8865358994
 20
1942.5992152189
 30
0.0
 11
1007.8865358994
 21
2404.5992152189
 31
0.0
  0
LINE
  5
114
330
1F
100
AcDbEntity
  8
PIEZA
  6
CENTERX2
 62
     8
100
AcDbLine
 10
1001.8865358994
 20
2398.5992152189
 30
0.0
 11
1013.8865358994
 21
2398.5992152189
 31
0.0
  0
LINE
  5
115
330
1F
100
AcDbEntity
  8
PIEZA
  6
CENTERX2
 62
     8
100
AcDbLine
 10
1001.8865358994
 20
1948.5992152189
 30
0.0
 11
1013.8865358994
 21
1948.5992152189
 31
0.0
  0
LINE
  5
116
330
1F
100
AcDbEntity
  8
PIEZA
  6
CENTERX2
 62
     8
100
AcDbLine
 10
551.8865358994
 20
1948.5992152189
 30
0.0
 11
1013.8865358994
 21
1948.5992152189
 31
0.0
  0
LINE
  5
117
330
1F
100
AcDbEntity
  8
PIEZA
  6
CENTERX2
 62
     8
100
AcDbLine
 10
1007.8865358994
 20
1942.5992152189
 30
0.0
 11
1007.8865358994
 21
1954.5992152189
 31
0.0
  0
LINE
  5
118
330
1F
100
AcDbEntity
  8
PIEZA
  6
CENTERX2
 62
     8
100
AcDbLine
 10
557.8865358994
 20
1942.5992152189
 30
0.0
 11
557.8865358994
 21
1954.5992152189
 31
0.0
  0
LINE
  5
119
330
1F
100
AcDbEntity
  8
PIEZA
  6
CENTERX2
 62
     8
100
AcDbLine
 10
557.8865358994
 20
1942.5992152189
 30
0.0
 11
557.8865358994
 21
2404.5992152189
 31
0.0
  0
LINE
  5
11A
330
1F
100
AcDbEntity
  8
PIEZA
  6
CENTERX2
 62
     8
100
AcDbLine
 10
551.8865358994
 20
2398.5992152189
 30
0.0
 11
563.8865358994
 21
2398.5992152189
 31
0.0
  0
LINE
  5
11B
330
1F
100
AcDbEntity
  8
PIEZA
  6
CENTERX2
 62
     8
100
AcDbLine
 10
551.8865358994
 20
1948.5992152189
 30
0.0
 11
563.8865358994
 21
1948.5992152189
 31
0.0
  0
LINE
  5
11C
330
1F
100
AcDbEntity
  8
COTAS
100
AcDbLine
 10
856.3093168432
 20
1446.0681698394
 30
0.0
 11
503.2823149033
 21
1297.2387993
 31
0.0
  0
LINE
  5
11D
330
1F
100
AcDbEntity
  8
COTAS
100
AcDbLine
 10
982.6572769157
 20
1377.2453383527
 30
0.0
 11
488.8275897301
 21
1169.0562732284
 31
0.0
  0
LINE
  5
11E
330
1F
100
AcDbEntity
  8
COTAS
100
AcDbLine
 10
1084.5178054848
 20
1298.0990789062
 30
0.0
 11
476.4134891329
 21
1041.7340356442
 31
0.0
  0
LINE
  5
11F
330
1F
100
AcDbEntity
  8
COTAS
100
AcDbLine
 10
782.8865358994
 20
2398.5992152189
 30
0.0
 11
782.8865358994
 21
1948.5992152189
 31
0.0
  0
LINE
  5
120
330
1F
100
AcDbEntity
  8
CAJETIN
100
AcDbLine
 10
393.2338005847
 20
2629.7805754174
 30
0.0
 11
1185.4514251887
 21
2629.7805754174
 31
0.0
  0
LINE
  5
121
330
1F
100
AcDbEntity
  8
CAJETIN
100
AcDbLine
 10
1185.4514251887
 20
2629.7805754174
 30
0.0
 11
1185.4514251887
 21
1825.2639233661
 31
0.0
  0
LINE
  5
122
330
1F
100
AcDbEntity
  8
CAJETIN
100
AcDbLine
 10
1185.4514251887
 20
1825.2639233661
 30
0.0
 11
393.2338005847
 21
1825.2639233661
 31
0.0
  0
LINE
  5
123
330
1F
100
AcDbEntity
  8
CAJETIN
100
AcDbLine
 10
393.2338005847
 20
1825.2639233661
 30
0.0
 11
393.2338005847
 21
2629.7805754174
 31
0.0
  0
LINE
  5
124
330
1F
100
AcDbEntity
  8
COTAS
100
AcDbLine
 10
557.8865358994
 20
427.5179205714
 30
0.0
 11
1007.8865358994
 21
427.5179205714
 31
0.0
  0
LINE
  5
125
330
1F
100
AcDbEntity
  8
PIEZA
  6
CENTERX2
 62
     8
100
AcDbLine
 10
782.8865358994
 20
2167.5992152189
 30
0.0
 11
782.8865358994
 21
2179.5992152189
 31
0.0
  0
LINE
  5
126
330
1F
100
AcDbEntity
  8
PIEZA
  6
CENTERX2
 62
     8
100
AcDbLine
 10
776.8865358994
 20
2173.5992152189
 30
0.0
 11
788.8865358994
 21
2173.5992152189
 31
0.0
  0
ARC
  5
127
330
1F
100
AcDbEntity
  8
PIEZA
100
AcDbCircle
 10
1082.8892648944
 20
366.5179205791
 30
0.0
 40
150.0000000000002
100
AcDbArc
 50
336.673319
 51
23.326681
  0
ARC
  5
128
330
1F
100
AcDbEntity
  8
PIEZA
100
AcDbCircle
 10
1219.7103158994
 20
307.5179205769
 30
0.0
 40
1.000000005462198
100
AcDbArc
 50
270.0
 51
336.6733246962
  0
ARC
  5
129
330
1F
100
AcDbEntity
  8
PIEZA
100
AcDbCircle
 10
1219.7103158994
 20
425.5179205812
 30
0.0
 40
1.000000005462198
100
AcDbArc
 50
23.3266753038
 51
90.0
  0
ARC
  5
12A
330
1F
100
AcDbEntity
  8
PIEZA
100
AcDbCircle
 10
782.8865358994
 20
1147.4616931949
 30
0.0
 40
450.002729151307
100
AcDbArc
 50
179.99
 51
270.0
  0
ARC
  5
12B
330
1F
100
AcDbEntity
  8
PIEZA
100
AcDbCircle
 10
782.8865358994
 20
1147.4616931949
 30
0.0
 40
450.002729151307
100
AcDbArc
 50
270.0
 51
179.98
  0
ARC
  5
12C
330
1F
100
AcDbEntity
  8
PIEZA
100
AcDbCircle
 10
782.8865358994
 20
1147.4616931949
 30
0.0
 40
430.429999999982
100
AcDbArc
 50
179.99
 51
179.98
  0
ARC
  5
12D
330
1F
100
AcDbEntity
  8
PIEZA
 62
     8
100
AcDbCircle
 10
782.8865358994
 20
1147.4616931949
 30
0.0
 40
437.742042250532
100
AcDbArc
 50
179.99
 51
179.98
  0
CIRCLE
  5
12E
330
1F
100
AcDbEntity
  8
PIEZA
100
AcDbCircle
 10
557.8865358994
 20
2398.5992152189
 30
0.0
 40
2.350000000000023
  0
CIRCLE
  5
12F
330
1F
100
AcDbEntity
  8
PIEZA
100
AcDbCircle
 10
1007.8865358994
 20
2398.5992152189
 30
0.0
 40
2.350000000000023
  0
CIRCLE
  5
130
330
1F
100
AcDbEntity
  8
PIEZA
100
AcDbCircle
 10
1007.8865358994
 20
1948.5992152189
 30
0.0
 40
2.350000000000023
  0
CIRCLE
  5
131
330
1F
100
AcDbEntity
  8
PIEZA
100
AcDbCircle
 10
557.8865358994
 20
1948.5992152189
 30
0.0
 40
2.350000000000023
  0
CIRCLE
  5
132
330
1F
100
AcDbEntity
  8
PIEZA
100
AcDbCircle
 10
782.8865358994
 20
2173.5992152189
 30
0.0
 40
4.0
  0
SPLINE
  5
133
330
1F
100
AcDbEntity
  8
PIEZA
370
     0
100
AcDbSpline
210
0.0
220
0.0
230
1.0
 70
     8
 71
     3
 72
    11
 73
     7
 74
     0
 42
0.000000001
 43
0.00000001
 40
2.0
 40
2.0
 40
2.0
 40
2.0
 40
3.0
 40
3.0
 40
3.0
 40
4.0
 40
4.0
 40
4.0
 40
4.0
 10
1561.674836255079
 20
33.47179332827263
 30
0.0
 10
1562.342431604989
 20
33.47179332827263
 30
0.0
 10
1562.920723561454
 20
34.05040826265284
 30
0.0
 10
1562.920723561454
 20
34.71764833685656
 30
0.0
 10
1562.920723561454
 20
35.38524368676652
 30
0.0
 10
1562.342431604989
 20
35.96382632335524
 30
0.0
 10
1561.674836255079
 20
35.96382632335524
 30
0.0
  0
SPLINE
  5
134
330
1F
100
AcDbEntity
  8
PIEZA
370
     0
100
AcDbSpline
210
0.0
220
0.0
230
1.0
 70
     8
 71
     3
 72
    11
 73
     7
 74
     0
 42
0.000000001
 43
0.00000001
 40
0.0
 40
0.0
 40
0.0
 40
0.0
 40
1.0
 40
1.0
 40
1.0
 40
2.0
 40
2.0
 40
2.0
 40
2.0
 10
1561.674836255079
 20
35.96382632335524
 30
0.0
 10
1561.007305500752
 20
35.96382632335524
 30
0.0
 10
1560.428722864162
 20
35.38524368676652
 30
0.0
 10
1560.428722864162
 20
34.71764833685656
 30
0.0
 10
1560.428722864162
 20
34.05040826265284
 30
0.0
 10
1561.007305500752
 20
33.47179332827263
 30
0.0
 10
1561.674836255079
 20
33.47179332827263
 30
0.0
  0
SPLINE
  5
135
330
1F
100
AcDbEntity
  8
PIEZA
370
     0
100
AcDbSpline
210
0.0
220
0.0
230
1.0
 70
     8
 71
     3
 72
    11
 73
     7
 74
     0
 42
0.000000001
 43
0.00000001
 40
2.0
 40
2.0
 40
2.0
 40
2.0
 40
3.0
 40
3.0
 40
3.0
 40
4.0
 40
4.0
 40
4.0
 40
4.0
 10
1561.674836255079
 20
36.14185174999792
 30
0.0
 10
1562.431185935978
 20
36.14185174999792
 30
0.0
 10
1563.098716690305
 20
35.47432099567083
 30
0.0
 10
1563.098716690305
 20
34.71764833685656
 30
0.0
 10
1563.098716690305
 20
33.91672770371343
 30
0.0
 10
1562.431185935978
 20
33.29373560383853
 30
0.0
 10
1561.674836255079
 20
33.29373560383853
 30
0.0
  0
SPLINE
  5
136
330
1F
100
AcDbEntity
  8
PIEZA
370
     0
100
AcDbSpline
210
0.0
220
0.0
230
1.0
 70
     8
 71
     3
 72
    11
 73
     7
 74
     0
 42
0.000000001
 43
0.00000001
 40
0.0
 40
0.0
 40
0.0
 40
0.0
 40
1.0
 40
1.0
 40
1.0
 40
2.0
 40
2.0
 40
2.0
 40
2.0
 10
1561.674836255079
 20
33.29373560383853
 30
0.0
 10
1560.873851026352
 20
33.29373560383853
 30
0.0
 10
1560.250632841937
 20
33.91672770371343
 30
0.0
 10
1560.250632841937
 20
34.71764833685656
 30
0.0
 10
1560.250632841937
 20
35.47432099567083
 30
0.0
 10
1560.873851026352
 20
36.14185174999792
 30
0.0
 10
1561.674836255079
 20
36.14185174999792
 30
0.0
  0
SPLINE
  5
137
330
1F
100
AcDbEntity
  8
PIEZA
370
     0
100
AcDbSpline
210
0.0
220
0.0
230
1.0
 70
     8
 71
     3
 72
     8
 73
     4
 74
     0
 42
0.000000001
 43
0.00000001
 40
2.0
 40
2.0
 40
2.0
 40
2.0
 40
3.0
 40
3.0
 40
3.0
 40
3.0
 10
1496.79018805957
 20
34.40616843579073
 30
0.0
 10
1497.591173288296
 20
34.40616843579073
 30
0.0
 10
1498.214391472711
 20
34.3174787003842
 30
0.0
 10
1498.614851789283
 20
34.09472083254052
 30
0.0
  0
SPLINE
  5
138
330
1F
100
AcDbEntity
  8
PIEZA
370
     0
100
AcDbSpline
210
0.0
220
0.0
230
1.0
 70
     8
 71
     3
 72
    11
 73
     7
 74
     0
 42
0.000000001
 43
0.00000001
 40
3.0
 40
3.0
 40
3.0
 40
3.0
 40
4.0
 40
4.0
 40
4.0
 40
5.0
 40
5.0
 40
5.0
 40
5.0
 10
1498.614851789283
 20
34.09472083254052
 30
0.0
 10
1499.059705420245
 20
33.78327322929024
 30
0.0
 10
1499.282156459069
 20
33.24910005598783
 30
0.0
 10
1499.282156459069
 20
32.53712754058304
 30
0.0
 10
1499.282156459069
 20
32.04758991510722
 30
0.0
 10
1499.193385979184
 20
31.64716189632712
 30
0.0
 10
1498.970692706924
 20
31.37999456519721
 30
0.0
  0
SPLINE
  5
139
330
1F
100
AcDbEntity
  8
PIEZA
370
     0
100
AcDbSpline
210
0.0
220
0.0
230
1.0
 70
     8
 71
     3
 72
     8
 73
     4
 74
     0
 42
0.000000001
 43
0.00000001
 40
5.0
 40
5.0
 40
5.0
 40
5.0
 40
6.0
 40
6.0
 40
6.0
 40
6.0
 10
1498.970692706924
 20
31.37999456519721
 30
0.0
 10
1498.881631546915
 20
31.24660468638111
 30
0.0
 10
1498.703864502604
 20
31.15759197305973
 30
0.0
 10
1498.481171230343
 20
31.06854696194693
 30
0.0
  0
SPLINE
  5
13A
330
1F
100
AcDbEntity
  8
PIEZA
370
     0
100
AcDbSpline
210
0.0
220
0.0
230
1.0
 70
     8
 71
     3
 72
     8
 73
     4
 74
     0
 42
0.000000001
 43
0.00000001
 40
6.0
 40
6.0
 40
6.0
 40
6.0
 40
7.0
 40
7.0
 40
7.0
 40
7.0
 10
1498.481171230343
 20
31.06854696194693
 30
0.0
 10
1498.570167794769
 20
31.02423439203513
 30
0.0
 10
1498.659228954778
 20
31.02423439203513
 30
0.0
 10
1498.703864502604
 20
30.97953424862563
 30
0.0
  0
SPLINE
  5
13B
330
1F
100
AcDbEntity
  8
PIEZA
370
     0
100
AcDbSpline
210
0.0
220
0.0
230
1.0
 70
     8
 71
     3
 72
     8
 73
     4
 74
     0
 42
0.000000001
 43
0.00000001
 40
7.0
 40
7.0
 40
7.0
 40
7.0
 40
8.0
 40
8.0
 40
8.0
 40
8.0
 10
1498.703864502604
 20
30.97953424862563
 30
0.0
 10
1498.837302828108
 20
30.89055383309581
 30
0.0
 10
1498.970692706924
 20
30.75709935869672
 30
0.0
 10
1499.059705420245
 20
30.62370947988062
 30
0.0
  0
SPLINE
  5
13C
330
1F
100
AcDbEntity
  8
PIEZA
370
     0
100
AcDbSpline
210
0.0
220
0.0
230
1.0
 70
     8
 71
     3
 72
     8
 73
     4
 74
     0
 42
0.000000001
 43
0.00000001
 40
8.0
 40
8.0
 40
8.0
 40
8.0
 40
9.0
 40
9.0
 40
9.0
 40
9.0
 10
1499.059705420245
 20
30.62370947988062
 30
0.0
 10
1499.104389414759
 20
30.44561945765505
 30
0.0
 10
1499.148766580254
 20
30.26756173322081
 30
0.0
 10
1499.148766580254
 20
30.04515914108343
 30
0.0
  0
SPLINE
  5
13D
330
1F
100
AcDbEntity
  8
PIEZA
370
     0
100
AcDbSpline
210
0.0
220
0.0
230
1.0
 70
     8
 71
     3
 72
     8
 73
     4
 74
     0
 42
0.000000001
 43
0.00000001
 40
12.0
 40
12.0
 40
12.0
 40
12.0
 40
13.0
 40
13.0
 40
13.0
 40
13.0
 10
1497.991633604876
 20
29.77808870334334
 30
0.0
 10
1497.991633604876
 20
30.17854901991492
 30
0.0
 10
1497.902620891555
 20
30.40098390984385
 30
0.0
 10
1497.72486999614
 20
30.48999662316512
 30
0.0
  0
SPLINE
  5
13E
330
1F
100
AcDbEntity
  8
PIEZA
370
     0
100
AcDbSpline
210
0.0
220
0.0
230
1.0
 70
     8
 71
     3
 72
     8
 73
     4
 74
     0
 42
0.000000001
 43
0.00000001
 40
13.0
 40
13.0
 40
13.0
 40
13.0
 40
14.0
 40
14.0
 40
14.0
 40
14.0
 10
1497.72486999614
 20
30.48999662316512
 30
0.0
 10
1497.54679612281
 20
30.57900933648653
 30
0.0
 10
1497.23534851956
 20
30.66808664539072
 30
0.0
 10
1496.70112689957
 20
30.66808664539072
 30
0.0
  0
SPLINE
  5
13F
330
1F
100
AcDbEntity
  8
PIEZA
370
     0
100
AcDbSpline
210
0.0
220
0.0
230
1.0
 70
     8
 71
     3
 72
     8
 73
     4
 74
     0
 42
0.000000001
 43
0.00000001
 40
4.0
 40
4.0
 40
4.0
 40
4.0
 40
5.0
 40
5.0
 40
5.0
 40
5.0
 10
1496.65644290507
 20
31.55808458749071
 30
0.0
 10
1497.235348519573
 20
31.55808458749071
 30
0.0
 10
1497.591173288318
 20
31.64716189639502
 30
0.0
 10
1497.769182566065
 20
31.78051947741962
 30
0.0
  0
SPLINE
  5
140
330
1F
100
AcDbEntity
  8
PIEZA
370
     0
100
AcDbSpline
210
0.0
220
0.0
230
1.0
 70
     8
 71
     3
 72
    11
 73
     7
 74
     0
 42
0.000000001
 43
0.00000001
 40
5.0
 40
5.0
 40
5.0
 40
5.0
 40
6.0
 40
6.0
 40
6.0
 40
7.0
 40
7.0
 40
7.0
 40
7.0
 10
1497.769182566065
 20
31.78051947741962
 30
0.0
 10
1497.947256439395
 20
31.86953219074092
 30
0.0
 10
1498.080646318211
 20
32.1366672240794
 30
0.0
 10
1498.080646318211
 20
32.58182768406052
 30
0.0
 10
1498.080646318211
 20
32.80419797840644
 30
0.0
 10
1498.036333748299
 20
32.98228800063201
 30
0.0
 10
1497.99163360489
 20
33.1157424750311
 30
0.0
  0
SPLINE
  5
141
330
1F
100
AcDbEntity
  8
PIEZA
370
     0
100
AcDbSpline
210
0.0
220
0.0
230
1.0
 70
     8
 71
     3
 72
     8
 73
     4
 74
     0
 42
0.000000001
 43
0.00000001
 40
7.0
 40
7.0
 40
7.0
 40
7.0
 40
8.0
 40
8.0
 40
8.0
 40
8.0
 10
1497.99163360489
 20
33.1157424750311
 30
0.0
 10
1497.947256439395
 20
33.20472289056104
 30
0.0
 10
1497.858243726074
 20
33.29373560388233
 30
0.0
 10
1497.769182566065
 20
33.33811276937703
 30
0.0
  0
SPLINE
  5
142
330
1F
100
AcDbEntity
  8
PIEZA
370
     0
100
AcDbSpline
210
0.0
220
0.0
230
1.0
 70
     8
 71
     3
 72
     8
 73
     4
 74
     0
 42
0.000000001
 43
0.00000001
 40
8.0
 40
8.0
 40
8.0
 40
8.0
 40
9.0
 40
9.0
 40
9.0
 40
9.0
 10
1497.769182566065
 20
33.33811276937703
 30
0.0
 10
1497.63548585823
 20
33.42719007828133
 30
0.0
 10
1497.50211212831
 20
33.47179332831642
 30
0.0
 10
1497.32403825498
 20
33.47179332831642
 30
0.0
  0
SPLINE
  5
143
330
1F
100
AcDbEntity
  8
PIEZA
370
     0
100
AcDbSpline
210
0.0
220
0.0
230
1.0
 70
     8
 71
     3
 72
     8
 73
     4
 74
     0
 42
0.000000001
 43
0.00000001
 40
9.0
 40
9.0
 40
9.0
 40
9.0
 40
10.0
 40
10.0
 40
10.0
 40
10.0
 10
1497.32403825498
 20
33.47179332831642
 30
0.0
 10
1497.101651811738
 20
33.51620279160271
 30
0.0
 10
1496.879200772913
 20
33.51620279160271
 30
0.0
 10
1496.612130335158
 20
33.51620279160271
 30
0.0
  0
SPLINE
  5
144
330
1F
100
AcDbEntity
  8
PIEZA
370
     0
100
AcDbSpline
210
0.0
220
0.0
230
1.0
 70
     8
 71
     3
 72
     8
 73
     4
 74
     0
 42
0.000000001
 43
0.00000001
 40
0.0
 40
0.0
 40
0.0
 40
0.0
 40
1.0
 40
1.0
 40
1.0
 40
1.0
 10
1510.140996932804
 20
33.11574247502273
 30
0.0
 10
1510.319022359447
 20
33.64988335053374
 30
0.0
 10
1510.630469962697
 20
34.00570811927875
 30
0.0
 10
1511.120007588173
 20
34.22817530699904
 30
0.0
  0
SPLINE
  5
145
330
1F
100
AcDbEntity
  8
PIEZA
370
     0
100
AcDbSpline
210
0.0
220
0.0
230
1.0
 70
     8
 71
     3
 72
    11
 73
     7
 74
     0
 42
0.000000001
 43
0.00000001
 40
1.0
 40
1.0
 40
1.0
 40
1.0
 40
2.0
 40
2.0
 40
2.0
 40
3.0
 40
3.0
 40
3.0
 40
3.0
 10
1511.120007588173
 20
34.22817530699904
 30
0.0
 10
1511.520532500328
 20
34.40616843585025
 30
0.0
 10
1512.054447291298
 20
34.45086857925983
 30
0.0
 10
1512.632965332304
 20
34.45086857925983
 30
0.0
 10
1513.256183516719
 20
34.45086857925983
 30
0.0
 10
1513.923778866629
 20
34.49524574475455
 30
0.0
 10
1514.591051238624
 20
34.49524574475455
 30
0.0
  0
SPLINE
  5
146
330
1F
100
AcDbEntity
  8
PIEZA
370
     0
100
AcDbSpline
210
0.0
220
0.0
230
1.0
 70
     8
 71
     3
 72
     8
 73
     4
 74
     0
 42
0.000000001
 43
0.00000001
 40
4.0
 40
4.0
 40
4.0
 40
4.0
 40
5.0
 40
5.0
 40
5.0
 40
5.0
 10
1515.659139202924
 20
34.49524574475455
 30
0.0
 10
1517.038965450571
 20
34.49524574475455
 30
0.0
 10
1517.973340558113
 20
34.36185586593845
 30
0.0
 10
1518.462845885797
 20
33.96136325157544
 30
0.0
  0
SPLINE
  5
147
330
1F
100
AcDbEntity
  8
PIEZA
370
     0
100
AcDbSpline
210
0.0
220
0.0
230
1.0
 70
     8
 71
     3
 72
     8
 73
     4
 74
     0
 42
0.000000001
 43
0.00000001
 40
5.0
 40
5.0
 40
5.0
 40
5.0
 40
6.0
 40
6.0
 40
6.0
 40
6.0
 10
1518.462845885797
 20
33.96136325157544
 30
0.0
 10
1518.952383511273
 20
33.56087063721233
 30
0.0
 10
1519.174818401202
 20
32.75959472836296
 30
0.0
 10
1519.130441235707
 20
31.60275243310033
 30
0.0
  0
SPLINE
  5
148
330
1F
100
AcDbEntity
  8
PIEZA
370
     0
100
AcDbSpline
210
0.0
220
0.0
230
1.0
 70
     8
 71
     3
 72
     8
 73
     4
 74
     0
 42
0.000000001
 43
0.00000001
 40
6.0
 40
6.0
 40
6.0
 40
6.0
 40
7.0
 40
7.0
 40
7.0
 40
7.0
 10
1519.130441235707
 20
31.60275243310033
 30
0.0
 10
1519.130441235707
 20
31.06854696200645
 30
0.0
 10
1519.130441235707
 20
30.53469676661885
 30
0.0
 10
1519.085773390089
 20
30.04515914114296
 30
0.0
  0
SPLINE
  5
149
330
1F
100
AcDbEntity
  8
PIEZA
370
     0
100
AcDbSpline
210
0.0
220
0.0
230
1.0
 70
     8
 71
     3
 72
     8
 73
     4
 74
     0
 42
0.000000001
 43
0.00000001
 40
7.0
 40
7.0
 40
7.0
 40
7.0
 40
8.0
 40
8.0
 40
8.0
 40
8.0
 10
1519.085773390089
 20
30.04515914114296
 30
0.0
 10
1518.997051356891
 20
29.46657650455424
 30
0.0
 10
1518.774325786839
 20
29.02141604457315
 30
0.0
 10
1518.373833172476
 20
28.75447479798356
 30
0.0
  0
SPLINE
  5
14A
330
1F
100
AcDbEntity
  8
PIEZA
370
     0
100
AcDbSpline
210
0.0
220
0.0
230
1.0
 70
     8
 71
     3
 72
     8
 73
     4
 74
     0
 42
0.000000001
 43
0.00000001
 40
8.0
 40
8.0
 40
8.0
 40
8.0
 40
9.0
 40
9.0
 40
9.0
 40
9.0
 10
1518.373833172476
 20
28.75447479798356
 30
0.0
 10
1518.018008403731
 20
28.48756584918555
 30
0.0
 10
1517.483802932637
 20
28.35401448141203
 30
0.0
 10
1516.81627217831
 20
28.30950812475134
 30
0.0
  0
SPLINE
  5
14B
330
1F
100
AcDbEntity
  8
PIEZA
370
     0
100
AcDbSpline
210
0.0
220
0.0
230
1.0
 70
     8
 71
     3
 72
     8
 73
     4
 74
     0
 42
0.000000001
 43
0.00000001
 40
9.0
 40
9.0
 40
9.0
 40
9.0
 40
10.0
 40
10.0
 40
10.0
 40
10.0
 10
1516.81627217831
 20
28.30950812475134
 30
0.0
 10
1516.23765724393
 20
28.26500176809074
 30
0.0
 10
1515.703807048542
 20
28.26500176809074
 30
0.0
 10
1515.125224411953
 20
28.26500176809074
 30
0.0
  0
SPLINE
  5
14C
330
1F
100
AcDbEntity
  8
PIEZA
370
     0
100
AcDbSpline
210
0.0
220
0.0
230
1.0
 70
     8
 71
     3
 72
     8
 73
     4
 74
     0
 42
0.000000001
 43
0.00000001
 40
12.0
 40
12.0
 40
12.0
 40
12.0
 40
13.0
 40
13.0
 40
13.0
 40
13.0
 10
1513.56763111997
 20
28.26500176809073
 30
0.0
 10
1513.12250295778
 20
28.26500176809073
 30
0.0
 10
1512.632965332304
 20
28.26500176809073
 30
0.0
 10
1512.143427706828
 20
28.30950812475134
 30
0.0
  0
SPLINE
  5
14D
330
1F
100
AcDbEntity
  8
PIEZA
370
     0
100
AcDbSpline
210
0.0
220
0.0
230
1.0
 70
     8
 71
     3
 72
     8
 73
     4
 74
     0
 42
0.000000001
 43
0.00000001
 40
13.0
 40
13.0
 40
13.0
 40
13.0
 40
14.0
 40
14.0
 40
14.0
 40
14.0
 10
1512.143427706828
 20
28.30950812475134
 30
0.0
 10
1511.831980103578
 20
28.35401448141203
 30
0.0
 10
1511.520532500328
 20
28.39852083807272
 30
0.0
 10
1511.253462062572
 20
28.48756584918555
 30
0.0
  0
SPLINE
  5
14E
330
1F
100
AcDbEntity
  8
PIEZA
370
     0
100
AcDbSpline
210
0.0
220
0.0
230
1.0
 70
     8
 71
     3
 72
     8
 73
     4
 74
     0
 42
0.000000001
 43
0.00000001
 40
14.0
 40
14.0
 40
14.0
 40
14.0
 40
15.0
 40
15.0
 40
15.0
 40
15.0
 10
1511.253462062572
 20
28.48756584918555
 30
0.0
 10
1510.941982161531
 20
28.57644937134096
 30
0.0
 10
1510.674847128192
 20
28.75447479798355
 30
0.0
 10
1510.452444536055
 20
29.02141604457315
 30
0.0
  0
SPLINE
  5
14F
330
1F
100
AcDbEntity
  8
PIEZA
370
     0
100
AcDbSpline
210
0.0
220
0.0
230
1.0
 70
     8
 71
     3
 72
     8
 73
     4
 74
     0
 42
0.000000001
 43
0.00000001
 40
15.0
 40
15.0
 40
15.0
 40
15.0
 40
16.0
 40
16.0
 40
16.0
 40
16.0
 10
1510.452444536055
 20
29.02141604457315
 30
0.0
 10
1510.230009646126
 20
29.33305743457222
 30
0.0
 10
1510.096329087186
 20
29.73371153789272
 30
0.0
 10
1510.051935772796
 20
30.17854901995903
 30
0.0
  0
SPLINE
  5
150
330
1F
100
AcDbEntity
  8
PIEZA
370
     0
100
AcDbSpline
210
0.0
220
0.0
230
1.0
 70
     8
 71
     3
 72
    11
 73
     7
 74
     0
 42
0.000000001
 43
0.00000001
 40
16.0
 40
16.0
 40
16.0
 40
16.0
 40
17.0
 40
17.0
 40
17.0
 40
18.0
 40
18.0
 40
18.0
 40
18.0
 10
1510.051935772796
 20
30.17854901995903
 30
0.0
 10
1510.007251778282
 20
30.62370947994014
 30
0.0
 10
1510.007251778282
 20
30.97953424868515
 30
0.0
 10
1510.007251778282
 20
31.33568199534496
 30
0.0
 10
1510.007251778282
 20
31.91423233414215
 30
0.0
 10
1510.051935772796
 20
32.49275037514783
 30
0.0
 10
1510.140996932804
 20
33.11574247502273
 30
0.0
  0
SPLINE
  5
151
330
1F
100
AcDbEntity
  8
PIEZA
370
     0
100
AcDbSpline
210
0.0
220
0.0
230
1.0
 70
     8
 71
     3
 72
     8
 73
     4
 74
     0
 42
0.000000001
 43
0.00000001
 40
1.0
 40
1.0
 40
1.0
 40
1.0
 40
2.0
 40
2.0
 40
2.0
 40
2.0
 10
1512.989113078962
 20
33.51620279159274
 30
0.0
 10
1512.277108265765
 20
33.51620279159274
 30
0.0
 10
1511.831980103575
 20
33.42719007827136
 30
0.0
 10
1511.56490966582
 20
33.29373560387235
 30
0.0
  0
SPLINE
  5
152
330
1F
100
AcDbEntity
  8
PIEZA
370
     0
100
AcDbSpline
210
0.0
220
0.0
230
1.0
 70
     8
 71
     3
 72
     8
 73
     4
 74
     0
 42
0.000000001
 43
0.00000001
 40
2.0
 40
2.0
 40
2.0
 40
2.0
 40
3.0
 40
3.0
 40
3.0
 40
3.0
 10
1511.56490966582
 20
33.29373560387235
 30
0.0
 10
1511.386819643594
 20
33.16034572505622
 30
0.0
 10
1511.25346206257
 20
32.84857514389125
 30
0.0
 10
1511.25346206257
 20
32.22567993739073
 30
0.0
  0
SPLINE
  5
153
330
1F
100
AcDbEntity
  8
PIEZA
370
     0
100
AcDbSpline
210
0.0
220
0.0
230
1.0
 70
     8
 71
     3
 72
     8
 73
     4
 74
     0
 42
0.000000001
 43
0.00000001
 40
5.0
 40
5.0
 40
5.0
 40
5.0
 40
6.0
 40
6.0
 40
6.0
 40
6.0
 10
1511.20908489707
 20
30.93515708319074
 30
0.0
 10
1511.20908489707
 20
30.62370947994057
 30
0.0
 10
1511.20908489707
 20
30.35663904218506
 30
0.0
 10
1511.253462062565
 20
30.13417185446476
 30
0.0
  0
SPLINE
  5
154
330
1F
100
AcDbEntity
  8
PIEZA
370
     0
100
AcDbSpline
210
0.0
220
0.0
230
1.0
 70
     8
 71
     3
 72
     8
 73
     4
 74
     0
 42
0.000000001
 43
0.00000001
 40
6.0
 40
6.0
 40
6.0
 40
6.0
 40
7.0
 40
7.0
 40
7.0
 40
7.0
 10
1511.253462062565
 20
30.13417185446476
 30
0.0
 10
1511.253462062565
 20
29.91147858220398
 30
0.0
 10
1511.342442478094
 20
29.77808870338788
 30
0.0
 10
1511.431455191416
 20
29.64434354886557
 30
0.0
  0
SPLINE
  5
155
330
1F
100
AcDbEntity
  8
PIEZA
370
     0
100
AcDbSpline
210
0.0
220
0.0
230
1.0
 70
     8
 71
     3
 72
     8
 73
     4
 74
     0
 42
0.000000001
 43
0.00000001
 40
7.0
 40
7.0
 40
7.0
 40
7.0
 40
8.0
 40
8.0
 40
8.0
 40
8.0
 10
1511.431455191416
 20
29.64434354886557
 30
0.0
 10
1511.476123037034
 20
29.51095367004947
 30
0.0
 10
1511.653890081345
 20
29.42194095672806
 30
0.0
 10
1511.83198010357
 20
29.3775637912334
 30
0.0
  0
SPLINE
  5
156
330
1F
100
AcDbEntity
  8
PIEZA
370
     0
100
AcDbSpline
210
0.0
220
0.0
230
1.0
 70
     8
 71
     3
 72
     8
 73
     4
 74
     0
 42
0.000000001
 43
0.00000001
 40
8.0
 40
8.0
 40
8.0
 40
8.0
 40
9.0
 40
9.0
 40
9.0
 40
9.0
 10
1511.83198010357
 20
29.3775637912334
 30
0.0
 10
1512.054447291291
 20
29.28855107791207
 30
0.0
 10
1512.365894894541
 20
29.24401242345987
 30
0.0
 10
1512.766645891236
 20
29.24401242345987
 30
0.0
  0
SPLINE
  5
157
330
1F
100
AcDbEntity
  8
PIEZA
370
     0
100
AcDbSpline
210
0.0
220
0.0
230
1.0
 70
     8
 71
     3
 72
     8
 73
     4
 74
     0
 42
0.000000001
 43
0.00000001
 40
12.0
 40
12.0
 40
12.0
 40
12.0
 40
13.0
 40
13.0
 40
13.0
 40
13.0
 10
1515.169601577436
 20
29.19950606685989
 30
0.0
 10
1515.748151916232
 20
29.19950606685989
 30
0.0
 10
1516.282357387327
 20
29.19950606685989
 30
0.0
 10
1516.860875428332
 20
29.24401242352049
 30
0.0
  0
SPLINE
  5
158
330
1F
100
AcDbEntity
  8
PIEZA
370
     0
100
AcDbSpline
210
0.0
220
0.0
230
1.0
 70
     8
 71
     3
 72
     8
 73
     4
 74
     0
 42
0.000000001
 43
0.00000001
 40
13.0
 40
13.0
 40
13.0
 40
13.0
 40
14.0
 40
14.0
 40
14.0
 40
14.0
 10
1516.860875428332
 20
29.24401242352049
 30
0.0
 10
1517.350413053808
 20
29.33305743463327
 30
0.0
 10
1517.617257407024
 20
29.46657650461529
 30
0.0
 10
1517.750937965963
 20
29.6443435489262
 30
0.0
  0
SPLINE
  5
159
330
1F
100
AcDbEntity
  8
PIEZA
370
     0
100
AcDbSpline
210
0.0
220
0.0
230
1.0
 70
     8
 71
     3
 72
     8
 73
     4
 74
     0
 42
0.000000001
 43
0.00000001
 40
14.0
 40
14.0
 40
14.0
 40
14.0
 40
15.0
 40
15.0
 40
15.0
 40
15.0
 10
1517.750937965963
 20
29.6443435489262
 30
0.0
 10
1517.884327844779
 20
29.86710141676988
 30
0.0
 10
1517.928705010274
 20
30.17854902002008
 30
0.0
 10
1517.928705010274
 20
30.57900933659169
 30
0.0
  0
SPLINE
  5
15A
330
1F
100
AcDbEntity
  8
PIEZA
370
     0
100
AcDbSpline
210
0.0
220
0.0
230
1.0
 70
     8
 71
     3
 72
     8
 73
     4
 74
     0
 42
0.000000001
 43
0.00000001
 40
16.0
 40
16.0
 40
16.0
 40
16.0
 40
17.0
 40
17.0
 40
17.0
 40
17.0
 10
1517.928705010321
 20
31.73614231191486
 30
0.0
 10
1517.928705010321
 20
32.00321274967034
 30
0.0
 10
1517.928705010321
 20
32.31475724629507
 30
0.0
 10
1517.884327844826
 20
32.58182768405054
 30
0.0
  0
SPLINE
  5
15B
330
1F
100
AcDbEntity
  8
PIEZA
370
     0
100
AcDbSpline
210
0.0
220
0.0
230
1.0
 70
     8
 71
     3
 72
     8
 73
     4
 74
     0
 42
0.000000001
 43
0.00000001
 40
17.0
 40
17.0
 40
17.0
 40
17.0
 40
18.0
 40
18.0
 40
18.0
 40
18.0
 10
1517.884327844826
 20
32.58182768405054
 30
0.0
 10
1517.884327844826
 20
32.89327528730075
 30
0.0
 10
1517.795250535922
 20
33.07136530952643
 30
0.0
 10
1517.706237822601
 20
33.20472289055106
 30
0.0
  0
SPLINE
  5
15C
330
1F
100
AcDbEntity
  8
PIEZA
370
     0
100
AcDbSpline
210
0.0
220
0.0
230
1.0
 70
     8
 71
     3
 72
     8
 73
     4
 74
     0
 42
0.000000001
 43
0.00000001
 40
18.0
 40
18.0
 40
18.0
 40
18.0
 40
19.0
 40
19.0
 40
19.0
 40
19.0
 10
1517.706237822601
 20
33.20472289055106
 30
0.0
 10
1517.572847943784
 20
33.33811276936705
 30
0.0
 10
1517.439167384845
 20
33.38281291277664
 30
0.0
 10
1517.305777506029
 20
33.42719007827136
 30
0.0
  0
SPLINE
  5
15D
330
1F
100
AcDbEntity
  8
PIEZA
370
     0
100
AcDbSpline
210
0.0
220
0.0
230
1.0
 70
     8
 71
     3
 72
     8
 73
     4
 74
     0
 42
0.000000001
 43
0.00000001
 40
19.0
 40
19.0
 40
19.0
 40
19.0
 40
20.0
 40
20.0
 40
20.0
 40
20.0
 10
1517.305777506029
 20
33.42719007827136
 30
0.0
 10
1516.949629759369
 20
33.51620279159274
 30
0.0
 10
1516.54942782513
 20
33.51620279159274
 30
0.0
 10
1516.19328007847
 20
33.51620279159274
 30
0.0
  0
SPLINE
  5
15E
330
1F
100
AcDbEntity
  8
PIEZA
370
     0
100
AcDbSpline
210
0.0
220
0.0
230
1.0
 70
     8
 71
     3
 72
     8
 73
     4
 74
     0
 42
0.000000001
 43
0.00000001
 40
2.0
 40
2.0
 40
2.0
 40
2.0
 40
3.0
 40
3.0
 40
3.0
 40
3.0
 10
1527.496990331924
 20
32.67080809960196
 30
0.0
 10
1527.496990331924
 20
32.80419797841807
 30
0.0
 10
1527.452354784097
 20
32.93765245281704
 30
0.0
 10
1527.407977618603
 20
33.11574247504273
 30
0.0
  0
SPLINE
  5
15F
330
1F
100
AcDbEntity
  8
PIEZA
370
     0
100
AcDbSpline
210
0.0
220
0.0
230
1.0
 70
     8
 71
     3
 72
     8
 73
     4
 74
     0
 42
0.000000001
 43
0.00000001
 40
3.0
 40
3.0
 40
3.0
 40
3.0
 40
4.0
 40
4.0
 40
4.0
 40
4.0
 10
1527.407977618603
 20
33.11574247504273
 30
0.0
 10
1527.407977618603
 20
33.20472289057255
 30
0.0
 10
1527.318900309699
 20
33.29373560389396
 30
0.0
 10
1527.185510430882
 20
33.33811276938865
 30
0.0
  0
SPLINE
  5
160
330
1F
100
AcDbEntity
  8
PIEZA
370
     0
100
AcDbSpline
210
0.0
220
0.0
230
1.0
 70
     8
 71
     3
 72
     8
 73
     4
 74
     0
 42
0.000000001
 43
0.00000001
 40
4.0
 40
4.0
 40
4.0
 40
4.0
 40
5.0
 40
5.0
 40
5.0
 40
5.0
 10
1527.185510430882
 20
33.33811276938865
 30
0.0
 10
1526.962849456413
 20
33.42719007829296
 30
0.0
 10
1526.606701709753
 20
33.47179332832805
 30
0.0
 10
1526.20620909539
 20
33.51620279161423
 30
0.0
  0
SPLINE
  5
161
330
1F
100
AcDbEntity
  8
PIEZA
370
     0
100
AcDbSpline
210
0.0
220
0.0
230
1.0
 70
    24
 71
     3
 72
     8
 73
     4
 74
     0
 42
0.000000001
 43
0.00000001
 40
5.0
 40
5.0
 40
5.0
 40
5.0
 40
6.0
 40
6.0
 40
6.0
 40
6.0
 10
1526.20620909539
 20
33.51620279161423
 30
0.0
 10
1525.761307017741
 20
33.51620279161423
 30
0.0
 10
1525.360846701169
 20
33.51620279161423
 30
0.0
 10
1525.004698954509
 20
33.51620279161423
 30
0.0
  0
SPLINE
  5
162
330
1F
100
AcDbEntity
  8
PIEZA
370
     0
100
AcDbSpline
210
0.0
220
0.0
230
1.0
 70
    24
 71
     3
 72
     8
 73
     4
 74
     0
 42
0.000000001
 43
0.00000001
 40
9.0
 40
9.0
 40
9.0
 40
9.0
 40
10.0
 40
10.0
 40
10.0
 40
10.0
 10
1524.69325135131
 20
33.51620279161423
 30
0.0
 10
1524.38180374806
 20
33.51620279161423
 30
0.0
 10
1523.93667558587
 20
33.51620279161423
 30
0.0
 10
1523.447137960394
 20
33.51620279161423
 30
0.0
  0
SPLINE
  5
163
330
1F
100
AcDbEntity
  8
PIEZA
370
     0
100
AcDbSpline
210
0.0
220
0.0
230
1.0
 70
     8
 71
     3
 72
     8
 73
     4
 74
     0
 42
0.000000001
 43
0.00000001
 40
10.0
 40
10.0
 40
10.0
 40
10.0
 40
11.0
 40
11.0
 40
11.0
 40
11.0
 10
1523.447137960394
 20
33.51620279161423
 30
0.0
 10
1522.957600334918
 20
33.47179332832805
 30
0.0
 10
1522.557075422764
 20
33.38281291279814
 30
0.0
 10
1522.245627819514
 20
33.29373560389396
 30
0.0
  0
SPLINE
  5
164
330
1F
100
AcDbEntity
  8
PIEZA
370
     0
100
AcDbSpline
210
0.0
220
0.0
230
1.0
 70
     8
 71
     3
 72
     8
 73
     4
 74
     0
 42
0.000000001
 43
0.00000001
 40
11.0
 40
11.0
 40
11.0
 40
11.0
 40
12.0
 40
12.0
 40
12.0
 40
12.0
 10
1522.245627819514
 20
33.29373560389396
 30
0.0
 10
1522.112237940697
 20
33.24910005606723
 30
0.0
 10
1522.022934547253
 20
33.16034572507782
 30
0.0
 10
1521.978557381758
 20
33.07136530954803
 30
0.0
  0
SPLINE
  5
165
330
1F
100
AcDbEntity
  8
PIEZA
370
     0
100
AcDbSpline
210
0.0
220
0.0
230
1.0
 70
     8
 71
     3
 72
     8
 73
     4
 74
     0
 42
0.000000001
 43
0.00000001
 40
12.0
 40
12.0
 40
12.0
 40
12.0
 40
13.0
 40
13.0
 40
13.0
 40
13.0
 10
1521.978557381758
 20
33.07136530954803
 30
0.0
 10
1521.934180216263
 20
32.93765245281704
 30
0.0
 10
1521.889544668437
 20
32.80419797841807
 30
0.0
 10
1521.934180216263
 20
32.67080809960196
 30
0.0
  0
SPLINE
  5
166
330
1F
100
AcDbEntity
  8
PIEZA
370
     0
100
AcDbSpline
210
0.0
220
0.0
230
1.0
 70
     8
 71
     3
 72
     8
 73
     4
 74
     0
 42
0.000000001
 43
0.00000001
 40
13.0
 40
13.0
 40
13.0
 40
13.0
 40
14.0
 40
14.0
 40
14.0
 40
14.0
 10
1521.934180216263
 20
32.67080809960196
 30
0.0
 10
1521.934180216263
 20
32.35906981622846
 30
0.0
 10
1522.022934547253
 20
32.18130277191755
 30
0.0
 10
1522.200992271687
 20
32.09229005859626
 30
0.0
  0
SPLINE
  5
167
330
1F
100
AcDbEntity
  8
PIEZA
370
     0
100
AcDbSpline
210
0.0
220
0.0
230
1.0
 70
     8
 71
     3
 72
     8
 73
     4
 74
     0
 42
0.000000001
 43
0.00000001
 40
14.0
 40
14.0
 40
14.0
 40
14.0
 40
15.0
 40
15.0
 40
15.0
 40
15.0
 10
1522.200992271687
 20
32.09229005859626
 30
0.0
 10
1522.423685543948
 20
31.95860949965685
 30
0.0
 10
1522.690529897163
 20
31.91423233416216
 30
0.0
 10
1523.091313191649
 20
31.91423233416216
 30
0.0
  0
SPLINE
  5
168
330
1F
100
AcDbEntity
  8
PIEZA
370
     0
100
AcDbSpline
210
0.0
220
0.0
230
1.0
 70
     8
 71
     3
 72
     8
 73
     4
 74
     0
 42
0.000000001
 43
0.00000001
 40
15.0
 40
15.0
 40
15.0
 40
15.0
 40
16.0
 40
16.0
 40
16.0
 40
16.0
 10
1523.091313191649
 20
31.91423233416216
 30
0.0
 10
1523.35806065149
 20
31.91423233416216
 30
0.0
 10
1523.580818519333
 20
31.86953219075254
 30
0.0
 10
1523.847598276966
 20
31.86953219075254
 30
0.0
  0
SPLINE
  5
169
330
1F
100
AcDbEntity
  8
PIEZA
370
     0
100
AcDbSpline
210
0.0
220
0.0
230
1.0
 70
     8
 71
     3
 72
     8
 73
     4
 74
     0
 42
0.000000001
 43
0.00000001
 40
19.0
 40
19.0
 40
19.0
 40
19.0
 40
20.0
 40
20.0
 40
20.0
 40
20.0
 10
1525.449568734466
 20
31.91423233415255
 30
0.0
 10
1525.93907406215
 20
31.91423233415255
 30
0.0
 10
1526.428934665541
 20
31.86953219074294
 30
0.0
 10
1526.873772147607
 20
31.86953219074294
 30
0.0
  0
SPLINE
  5
16A
330
1F
100
AcDbEntity
  8
PIEZA
370
     0
100
AcDbSpline
210
0.0
220
0.0
230
1.0
 70
     8
 71
     3
 72
     8
 73
     4
 74
     0
 42
0.000000001
 43
0.00000001
 40
20.0
 40
20.0
 40
20.0
 40
20.0
 40
21.0
 40
21.0
 40
21.0
 40
21.0
 10
1526.873772147607
 20
31.86953219074294
 30
0.0
 10
1527.541367497517
 20
31.82521962083115
 30
0.0
 10
1528.030872825202
 20
31.64716189639705
 30
0.0
 10
1528.342352726243
 20
31.37999456526705
 30
0.0
  0
SPLINE
  5
16B
330
1F
100
AcDbEntity
  8
PIEZA
370
     0
100
AcDbSpline
210
0.0
220
0.0
230
1.0
 70
     8
 71
     3
 72
     8
 73
     4
 74
     0
 42
0.000000001
 43
0.00000001
 40
21.0
 40
21.0
 40
21.0
 40
21.0
 40
22.0
 40
22.0
 40
22.0
 40
22.0
 10
1528.342352726243
 20
31.37999456526705
 30
0.0
 10
1528.698500472903
 20
31.11324710542644
 30
0.0
 10
1528.831890351719
 20
30.66808664544524
 30
0.0
 10
1528.831890351719
 20
30.13417185447465
 30
0.0
  0
SPLINE
  5
16C
330
1F
100
AcDbEntity
  8
PIEZA
370
     0
100
AcDbSpline
210
0.0
220
0.0
230
1.0
 70
     8
 71
     3
 72
     8
 73
     4
 74
     0
 42
0.000000001
 43
0.00000001
 40
22.0
 40
22.0
 40
22.0
 40
22.0
 40
23.0
 40
23.0
 40
23.0
 40
23.0
 10
1528.831890351719
 20
30.13417185447465
 30
0.0
 10
1528.831890351719
 20
29.77808870339785
 30
0.0
 10
1528.742877638398
 20
29.46657650456464
 30
0.0
 10
1528.609423163999
 20
29.19950606680913
 30
0.0
  0
SPLINE
  5
16D
330
1F
100
AcDbEntity
  8
PIEZA
370
     0
100
AcDbSpline
210
0.0
220
0.0
230
1.0
 70
     8
 71
     3
 72
     8
 73
     4
 74
     0
 42
0.000000001
 43
0.00000001
 40
23.0
 40
23.0
 40
23.0
 40
23.0
 40
24.0
 40
24.0
 40
24.0
 40
24.0
 10
1528.609423163999
 20
29.19950606680913
 30
0.0
 10
1528.476033285183
 20
28.88802616576745
 30
0.0
 10
1528.208962847427
 20
28.70996844133336
 30
0.0
 10
1527.808437935273
 20
28.53191071689914
 30
0.0
  0
SPLINE
  5
16E
330
1F
100
AcDbEntity
  8
PIEZA
370
     0
100
AcDbSpline
210
0.0
220
0.0
230
1.0
 70
     8
 71
     3
 72
     8
 73
     4
 74
     0
 42
0.000000001
 43
0.00000001
 40
24.0
 40
24.0
 40
24.0
 40
24.0
 40
25.0
 40
25.0
 40
25.0
 40
25.0
 10
1527.808437935273
 20
28.53191071689914
 30
0.0
 10
1527.452354784196
 20
28.39852083808312
 30
0.0
 10
1527.051829872042
 20
28.35401448142243
 30
0.0
 10
1526.562292246566
 20
28.30950812476174
 30
0.0
  0
SPLINE
  5
16F
330
1F
100
AcDbEntity
  8
PIEZA
370
     0
100
AcDbSpline
210
0.0
220
0.0
230
1.0
 70
     8
 71
     3
 72
     8
 73
     4
 74
     0
 42
0.000000001
 43
0.00000001
 40
25.0
 40
25.0
 40
25.0
 40
25.0
 40
26.0
 40
26.0
 40
26.0
 40
26.0
 10
1526.562292246566
 20
28.30950812476174
 30
0.0
 10
1526.117164084376
 20
28.26500176810114
 30
0.0
 10
1525.67232660231
 20
28.26500176810114
 30
0.0
 10
1525.227166142329
 20
28.26500176810114
 30
0.0
  0
SPLINE
  5
170
330
1F
100
AcDbEntity
  8
PIEZA
370
     0
100
AcDbSpline
210
0.0
220
0.0
230
1.0
 70
     8
 71
     3
 72
     8
 73
     4
 74
     0
 42
0.000000001
 43
0.00000001
 40
29.0
 40
29.0
 40
29.0
 40
29.0
 40
30.0
 40
30.0
 40
30.0
 40
30.0
 10
1524.693251351429
 20
28.26500176810114
 30
0.0
 10
1523.981052751484
 20
28.26500176810114
 30
0.0
 10
1523.313748081697
 20
28.30950812476174
 30
0.0
 10
1522.601775566293
 20
28.35401448142243
 30
0.0
  0
SPLINE
  5
171
330
1F
100
AcDbEntity
  8
PIEZA
370
     0
100
AcDbSpline
210
0.0
220
0.0
230
1.0
 70
     8
 71
     3
 72
     8
 73
     4
 74
     0
 42
0.000000001
 43
0.00000001
 40
30.0
 40
30.0
 40
30.0
 40
30.0
 40
31.0
 40
31.0
 40
31.0
 40
31.0
 10
1522.601775566293
 20
28.35401448142243
 30
0.0
 10
1521.889544668556
 20
28.44289800357787
 30
0.0
 10
1521.355629877585
 20
28.57644937135137
 30
0.0
 10
1521.08855943983
 20
28.93240333126223
 30
0.0
  0
SPLINE
  5
172
330
1F
100
AcDbEntity
  8
PIEZA
370
     0
100
AcDbSpline
210
0.0
220
0.0
230
1.0
 70
     8
 71
     3
 72
     8
 73
     4
 74
     0
 42
0.000000001
 43
0.00000001
 40
31.0
 40
31.0
 40
31.0
 40
31.0
 40
32.0
 40
32.0
 40
32.0
 40
32.0
 10
1521.08855943983
 20
28.93240333126223
 30
0.0
 10
1520.821424406492
 20
29.19950606680913
 30
0.0
 10
1520.688034527675
 20
29.68901139449354
 30
0.0
 10
1520.73241169317
 20
30.26756173329073
 30
0.0
  0
SPLINE
  5
173
330
1F
100
AcDbEntity
  8
PIEZA
370
     0
100
AcDbSpline
210
0.0
220
0.0
230
1.0
 70
     8
 71
     3
 72
     8
 73
     4
 74
     0
 42
0.000000001
 43
0.00000001
 40
37.0
 40
37.0
 40
37.0
 40
37.0
 40
38.0
 40
38.0
 40
38.0
 40
38.0
 10
1521.88954466857
 20
30.17854901989073
 30
0.0
 10
1521.88954466857
 20
29.95611412996185
 30
0.0
 10
1521.934180216396
 20
29.77808870331915
 30
0.0
 10
1521.978557381891
 20
29.64434354879673
 30
0.0
  0
SPLINE
  5
174
330
1F
100
AcDbEntity
  8
PIEZA
370
     0
100
AcDbSpline
210
0.0
220
0.0
230
1.0
 70
     8
 71
     3
 72
     8
 73
     4
 74
     0
 42
0.000000001
 43
0.00000001
 40
38.0
 40
38.0
 40
38.0
 40
38.0
 40
39.0
 40
39.0
 40
39.0
 40
39.0
 10
1521.978557381891
 20
29.64434354879673
 30
0.0
 10
1521.978557381891
 20
29.59999868109354
 30
0.0
 10
1522.022934547386
 20
29.55546002664135
 30
0.0
 10
1522.11223794083
 20
29.46657650448593
 30
0.0
  0
SPLINE
  5
175
330
1F
100
AcDbEntity
  8
PIEZA
370
     0
100
AcDbSpline
210
0.0
220
0.0
230
1.0
 70
     8
 71
     3
 72
     8
 73
     4
 74
     0
 42
0.000000001
 43
0.00000001
 40
39.0
 40
39.0
 40
39.0
 40
39.0
 40
40.0
 40
40.0
 40
40.0
 40
40.0
 10
1522.11223794083
 20
29.46657650448593
 30
0.0
 10
1522.156615106325
 20
29.42194095665933
 30
0.0
 10
1522.245627819647
 20
29.37756379116467
 30
0.0
 10
1522.379082294045
 20
29.37756379116467
 30
0.0
  0
SPLINE
  5
176
330
1F
100
AcDbEntity
  8
PIEZA
370
     0
100
AcDbSpline
210
0.0
220
0.0
230
1.0
 70
     8
 71
     3
 72
     8
 73
     4
 74
     0
 42
0.000000001
 43
0.00000001
 40
40.0
 40
40.0
 40
40.0
 40
40.0
 40
41.0
 40
41.0
 40
41.0
 40
41.0
 10
1522.379082294045
 20
29.37756379116467
 30
0.0
 10
1522.690529897296
 20
29.28855107784323
 30
0.0
 10
1523.091313191782
 20
29.24401242339114
 30
0.0
 10
1523.536150673849
 20
29.24401242339114
 30
0.0
  0
SPLINE
  5
177
330
1F
100
AcDbEntity
  8
PIEZA
370
     0
100
AcDbSpline
210
0.0
220
0.0
230
1.0
 70
     8
 71
     3
 72
     8
 73
     4
 74
     0
 42
0.000000001
 43
0.00000001
 40
41.0
 40
41.0
 40
41.0
 40
41.0
 40
42.0
 40
42.0
 40
42.0
 40
42.0
 10
1523.536150673849
 20
29.24401242339114
 30
0.0
 10
1523.981052751498
 20
29.19950606673043
 30
0.0
 10
1524.381803748193
 20
29.19950606673043
 30
0.0
 10
1524.737628516938
 20
29.19950606673043
 30
0.0
  0
SPLINE
  5
178
330
1F
100
AcDbEntity
  8
PIEZA
370
     0
100
AcDbSpline
210
0.0
220
0.0
230
1.0
 70
     8
 71
     3
 72
     8
 73
     4
 74
     0
 42
0.000000001
 43
0.00000001
 40
42.0
 40
42.0
 40
42.0
 40
42.0
 40
43.0
 40
43.0
 40
43.0
 40
43.0
 10
1524.737628516938
 20
29.19950606673043
 30
0.0
 10
1525.360846701353
 20
29.19950606673043
 30
0.0
 10
1526.028474349054
 20
29.24401242339114
 30
0.0
 10
1526.651369555555
 20
29.28855107784323
 30
0.0
  0
SPLINE
  5
179
330
1F
100
AcDbEntity
  8
PIEZA
370
     0
100
AcDbSpline
210
0.0
220
0.0
230
1.0
 70
     8
 71
     3
 72
     8
 73
     4
 74
     0
 42
0.000000001
 43
0.00000001
 40
43.0
 40
43.0
 40
43.0
 40
43.0
 40
44.0
 40
44.0
 40
44.0
 40
44.0
 10
1526.651369555555
 20
29.28855107784323
 30
0.0
 10
1527.007452706632
 20
29.33305743450392
 30
0.0
 10
1527.274297059847
 20
29.42194095665933
 30
0.0
 10
1527.407977618786
 20
29.55546002664135
 30
0.0
  0
SPLINE
  5
17A
330
1F
100
AcDbEntity
  8
PIEZA
370
     0
100
AcDbSpline
210
0.0
220
0.0
230
1.0
 70
     8
 71
     3
 72
     8
 73
     4
 74
     0
 42
0.000000001
 43
0.00000001
 40
44.0
 40
44.0
 40
44.0
 40
44.0
 40
45.0
 40
45.0
 40
45.0
 40
45.0
 10
1527.407977618786
 20
29.55546002664135
 30
0.0
 10
1527.541367497602
 20
29.64434354879673
 30
0.0
 10
1527.630444806507
 20
29.82240127323094
 30
0.0
 10
1527.630444806507
 20
30.13417185439595
 30
0.0
  0
SPLINE
  5
17B
330
1F
100
AcDbEntity
  8
PIEZA
370
     0
100
AcDbSpline
210
0.0
220
0.0
230
1.0
 70
     8
 71
     3
 72
     8
 73
     4
 74
     0
 42
0.000000001
 43
0.00000001
 40
45.0
 40
45.0
 40
45.0
 40
45.0
 40
46.0
 40
46.0
 40
46.0
 40
46.0
 10
1527.630444806507
 20
30.13417185439595
 30
0.0
 10
1527.630444806507
 20
30.31193889870675
 30
0.0
 10
1527.585744663097
 20
30.48999662314093
 30
0.0
 10
1527.541367497602
 20
30.57900933646226
 30
0.0
  0
SPLINE
  5
17C
330
1F
100
AcDbEntity
  8
PIEZA
370
     0
100
AcDbSpline
210
0.0
220
0.0
230
1.0
 70
     8
 71
     3
 72
     8
 73
     4
 74
     0
 42
0.000000001
 43
0.00000001
 40
46.0
 40
46.0
 40
46.0
 40
46.0
 40
47.0
 40
47.0
 40
47.0
 40
47.0
 10
1527.541367497602
 20
30.57900933646226
 30
0.0
 10
1527.496990332107
 20
30.66808664536654
 30
0.0
 10
1527.452354784281
 20
30.75709935868794
 30
0.0
 10
1527.318900309882
 20
30.80147652418267
 30
0.0
  0
SPLINE
  5
17D
330
1F
100
AcDbEntity
  8
PIEZA
370
     0
100
AcDbSpline
210
0.0
220
0.0
230
1.0
 70
     8
 71
     3
 72
     8
 73
     4
 74
     0
 42
0.000000001
 43
0.00000001
 40
47.0
 40
47.0
 40
47.0
 40
47.0
 40
48.0
 40
48.0
 40
48.0
 40
48.0
 10
1527.318900309882
 20
30.80147652418267
 30
0.0
 10
1527.229919894352
 20
30.84614436980074
 30
0.0
 10
1527.096207037621
 20
30.84614436980074
 30
0.0
 10
1526.91843999331
 20
30.89055383308694
 30
0.0
  0
SPLINE
  5
17E
330
1F
100
AcDbEntity
  8
PIEZA
370
     0
100
AcDbSpline
210
0.0
220
0.0
230
1.0
 70
    24
 71
     3
 72
     8
 73
     4
 74
     0
 42
0.000000001
 43
0.00000001
 40
48.0
 40
48.0
 40
48.0
 40
48.0
 40
49.0
 40
49.0
 40
49.0
 40
49.0
 10
1526.91843999331
 20
30.89055383308694
 30
0.0
 10
1526.740382268876
 20
30.89055383308694
 30
0.0
 10
1526.517915081156
 20
30.89055383308694
 30
0.0
 10
1526.295221808895
 20
30.89055383308694
 30
0.0
  0
SPLINE
  5
17F
330
1F
100
AcDbEntity
  8
PIEZA
370
     0
100
AcDbSpline
210
0.0
220
0.0
230
1.0
 70
     8
 71
     3
 72
     8
 73
     4
 74
     0
 42
0.000000001
 43
0.00000001
 40
52.0
 40
52.0
 40
52.0
 40
52.0
 40
53.0
 40
53.0
 40
53.0
 40
53.0
 10
1524.737628516895
 20
30.93515708318695
 30
0.0
 10
1524.114733310395
 20
30.93515708318695
 30
0.0
 10
1523.49151512598
 20
30.93515708318695
 30
0.0
 10
1522.868587621688
 20
30.97953424868179
 30
0.0
  0
SPLINE
  5
180
330
1F
100
AcDbEntity
  8
PIEZA
370
     0
100
AcDbSpline
210
0.0
220
0.0
230
1.0
 70
     8
 71
     3
 72
     8
 73
     4
 74
     0
 42
0.000000001
 43
0.00000001
 40
53.0
 40
53.0
 40
53.0
 40
53.0
 40
54.0
 40
54.0
 40
54.0
 40
54.0
 10
1522.868587621688
 20
30.97953424868179
 30
0.0
 10
1522.557075422854
 20
30.97953424868179
 30
0.0
 10
1522.290004985099
 20
31.02423439209129
 30
0.0
 10
1522.022934547343
 20
31.06854696200309
 30
0.0
  0
SPLINE
  5
181
330
1F
100
AcDbEntity
  8
PIEZA
370
     0
100
AcDbSpline
210
0.0
220
0.0
230
1.0
 70
     8
 71
     3
 72
     8
 73
     4
 74
     0
 42
0.000000001
 43
0.00000001
 40
54.0
 40
54.0
 40
54.0
 40
54.0
 40
55.0
 40
55.0
 40
55.0
 40
55.0
 10
1522.022934547343
 20
31.06854696200309
 30
0.0
 10
1521.800467359623
 20
31.11324710541268
 30
0.0
 10
1521.578097065277
 20
31.20222752094246
 30
0.0
 10
1521.355629877557
 20
31.29098185193196
 30
0.0
  0
SPLINE
  5
182
330
1F
100
AcDbEntity
  8
PIEZA
370
     0
100
AcDbSpline
210
0.0
220
0.0
230
1.0
 70
     8
 71
     3
 72
     8
 73
     4
 74
     0
 42
0.000000001
 43
0.00000001
 40
55.0
 40
55.0
 40
55.0
 40
55.0
 40
56.0
 40
56.0
 40
56.0
 40
56.0
 10
1521.355629877557
 20
31.29098185193196
 30
0.0
 10
1520.910501715367
 20
31.51377201756718
 30
0.0
 10
1520.688034527647
 20
31.95860949963349
 30
0.0
 10
1520.688034527647
 20
32.49275037514447
 30
0.0
  0
SPLINE
  5
183
330
1F
100
AcDbEntity
  8
PIEZA
370
     0
100
AcDbSpline
210
0.0
220
0.0
230
1.0
 70
     8
 71
     3
 72
     8
 73
     4
 74
     0
 42
0.000000001
 43
0.00000001
 40
56.0
 40
56.0
 40
56.0
 40
56.0
 40
57.0
 40
57.0
 40
57.0
 40
57.0
 10
1520.688034527647
 20
32.49275037514447
 30
0.0
 10
1520.688034527647
 20
32.89327528729898
 30
0.0
 10
1520.777111836551
 20
33.24910005604387
 30
0.0
 10
1520.955137263194
 20
33.56087063720897
 30
0.0
  0
SPLINE
  5
184
330
1F
100
AcDbEntity
  8
PIEZA
370
     0
100
AcDbSpline
210
0.0
220
0.0
230
1.0
 70
     8
 71
     3
 72
     8
 73
     4
 74
     0
 42
0.000000001
 43
0.00000001
 40
57.0
 40
57.0
 40
57.0
 40
57.0
 40
58.0
 40
58.0
 40
58.0
 40
58.0
 10
1520.955137263194
 20
33.56087063720897
 30
0.0
 10
1521.132872009713
 20
33.87235053825068
 30
0.0
 10
1521.444642590878
 20
34.0947208325966
 30
0.0
 10
1521.889544668527
 20
34.22817530699569
 30
0.0
  0
SPLINE
  5
185
330
1F
100
AcDbEntity
  8
PIEZA
370
     0
100
AcDbSpline
210
0.0
220
0.0
230
1.0
 70
     8
 71
     3
 72
     8
 73
     4
 74
     0
 42
0.000000001
 43
0.00000001
 40
58.0
 40
58.0
 40
58.0
 40
58.0
 40
59.0
 40
59.0
 40
59.0
 40
59.0
 10
1521.889544668527
 20
34.22817530699569
 30
0.0
 10
1522.290004985099
 20
34.36185586593509
 30
0.0
 10
1522.779542610575
 20
34.40616843584689
 30
0.0
 10
1523.313748081668
 20
34.45086857925639
 30
0.0
  0
SPLINE
  5
186
330
1F
100
AcDbEntity
  8
PIEZA
370
     0
100
AcDbSpline
210
0.0
220
0.0
230
1.0
 70
     8
 71
     3
 72
     8
 73
     4
 74
     0
 42
0.000000001
 43
0.00000001
 40
59.0
 40
59.0
 40
59.0
 40
59.0
 40
60.0
 40
60.0
 40
60.0
 40
60.0
 10
1523.313748081668
 20
34.45086857925639
 30
0.0
 10
1523.847598277056
 20
34.45086857925639
 30
0.0
 10
1524.337103604741
 20
34.49524574475119
 30
0.0
 10
1524.782264064722
 20
34.49524574475119
 30
0.0
  0
SPLINE
  5
187
330
1F
100
AcDbEntity
  8
PIEZA
370
     0
100
AcDbSpline
210
0.0
220
0.0
230
1.0
 70
     8
 71
     3
 72
     8
 73
     4
 74
     0
 42
0.000000001
 43
0.00000001
 40
60.0
 40
60.0
 40
60.0
 40
60.0
 40
61.0
 40
61.0
 40
61.0
 40
61.0
 10
1524.782264064722
 20
34.49524574475119
 30
0.0
 10
1525.449568734508
 20
34.49524574475119
 30
0.0
 10
1526.117164084419
 20
34.45086857925639
 30
0.0
 10
1526.784759434329
 20
34.40616843584689
 30
0.0
  0
SPLINE
  5
188
330
1F
100
AcDbEntity
  8
PIEZA
370
     0
100
AcDbSpline
210
0.0
220
0.0
230
1.0
 70
     8
 71
     3
 72
     8
 73
     4
 74
     0
 42
0.000000001
 43
0.00000001
 40
61.0
 40
61.0
 40
61.0
 40
61.0
 40
62.0
 40
62.0
 40
62.0
 40
62.0
 10
1526.784759434329
 20
34.40616843584689
 30
0.0
 10
1527.98649565975
 20
34.31747870044036
 30
0.0
 10
1528.654123307451
 20
33.73863768151979
 30
0.0
 10
1528.654123307451
 20
32.6708080995786
 30
0.0
  0
SPLINE
  5
189
330
1F
100
AcDbEntity
  8
PIEZA
370
     0
100
AcDbSpline
210
0.0
220
0.0
230
1.0
 70
     8
 71
     3
 72
     8
 73
     4
 74
     0
 42
0.000000001
 43
0.00000001
 40
1.0
 40
1.0
 40
1.0
 40
1.0
 40
2.0
 40
2.0
 40
2.0
 40
2.0
 10
1544.630322756856
 20
30.57900933652493
 30
0.0
 10
1544.585945591361
 20
30.66808664542912
 30
0.0
 10
1544.496868282457
 20
30.66808664542912
 30
0.0
 10
1544.407855569136
 20
30.71278678883874
 30
0.0
  0
SPLINE
  5
18A
330
1F
100
AcDbEntity
  8
PIEZA
370
     0
100
AcDbSpline
210
0.0
220
0.0
230
1.0
 70
     8
 71
     3
 72
     8
 73
     4
 74
     0
 42
0.000000001
 43
0.00000001
 40
2.0
 40
2.0
 40
2.0
 40
2.0
 40
3.0
 40
3.0
 40
3.0
 40
3.0
 10
1544.407855569136
 20
30.71278678883874
 30
0.0
 10
1544.229797844702
 20
30.75709935875053
 30
0.0
 10
1543.918350241451
 20
30.80147652424534
 30
0.0
 10
1543.384144770357
 20
30.80147652424534
 30
0.0
  0
SPLINE
  5
18B
330
1F
100
AcDbEntity
  8
PIEZA
370
     0
100
AcDbSpline
210
0.0
220
0.0
230
1.0
 70
     8
 71
     3
 72
     8
 73
     4
 74
     0
 42
0.000000001
 43
0.00000001
 40
4.0
 40
4.0
 40
4.0
 40
4.0
 40
5.0
 40
5.0
 40
5.0
 40
5.0
 10
1542.449769662857
 20
30.80147652424534
 30
0.0
 10
1541.915628787346
 20
30.80147652424534
 30
0.0
 10
1541.55977172081
 20
30.75709935875053
 30
0.0
 10
1541.381713996375
 20
30.66808664542912
 30
0.0
  0
SPLINE
  5
18C
330
1F
100
AcDbEntity
  8
PIEZA
370
     0
100
AcDbSpline
210
0.0
220
0.0
230
1.0
 70
     8
 71
     3
 72
     8
 73
     4
 74
     0
 42
0.000000001
 43
0.00000001
 40
5.0
 40
5.0
 40
5.0
 40
5.0
 40
6.0
 40
6.0
 40
6.0
 40
6.0
 10
1541.381713996375
 20
30.66808664542912
 30
0.0
 10
1541.248291819768
 20
30.57900933652493
 30
0.0
 10
1541.158956128532
 20
30.40098390988225
 30
0.0
 10
1541.158956128532
 20
30.13417185445862
 30
0.0
  0
SPLINE
  5
18D
330
1F
100
AcDbEntity
  8
PIEZA
370
     0
100
AcDbSpline
210
0.0
220
0.0
230
1.0
 70
     8
 71
     3
 72
     8
 73
     4
 74
     0
 42
0.000000001
 43
0.00000001
 40
7.0
 40
7.0
 40
7.0
 40
7.0
 40
8.0
 40
8.0
 40
8.0
 40
8.0
 10
1541.158956128532
 20
29.68901139455863
 30
0.0
 10
1541.158956128532
 20
29.46657650462972
 30
0.0
 10
1541.248291819768
 20
29.28855107798713
 30
0.0
 10
1541.426058864079
 20
29.19950606687433
 30
0.0
  0
SPLINE
  5
18E
330
1F
100
AcDbEntity
  8
PIEZA
370
     0
100
AcDbSpline
210
0.0
220
0.0
230
1.0
 70
     8
 71
     3
 72
     8
 73
     4
 74
     0
 42
0.000000001
 43
0.00000001
 40
8.0
 40
8.0
 40
8.0
 40
8.0
 40
9.0
 40
9.0
 40
9.0
 40
9.0
 10
1541.426058864079
 20
29.19950606687433
 30
0.0
 10
1541.604148886304
 20
29.11049335355295
 30
0.0
 10
1541.960232037381
 20
29.06598699689231
 30
0.0
 10
1542.449769662857
 20
29.06598699689231
 30
0.0
  0
SPLINE
  5
18F
330
1F
100
AcDbEntity
  8
PIEZA
370
     0
100
AcDbSpline
210
0.0
220
0.0
230
1.0
 70
     8
 71
     3
 72
     8
 73
     4
 74
     0
 42
0.000000001
 43
0.00000001
 40
10.0
 40
10.0
 40
10.0
 40
10.0
 40
11.0
 40
11.0
 40
11.0
 40
11.0
 10
1543.384144770357
 20
29.06598699689231
 30
0.0
 10
1543.873973075956
 20
29.06598699689231
 30
0.0
 10
1544.185420679207
 20
29.11049335355295
 30
0.0
 10
1544.363478403641
 20
29.15499971021364
 30
0.0
  0
SPLINE
  5
190
330
1F
100
AcDbEntity
  8
PIEZA
370
     0
100
AcDbSpline
210
0.0
220
0.0
230
1.0
 70
     8
 71
     3
 72
    11
 73
     7
 74
     0
 42
0.000000001
 43
0.00000001
 40
11.0
 40
11.0
 40
11.0
 40
11.0
 40
12.0
 40
12.0
 40
12.0
 40
13.0
 40
13.0
 40
13.0
 40
13.0
 10
1544.363478403641
 20
29.15499971021364
 30
0.0
 10
1544.541245447952
 20
29.19950606687433
 30
0.0
 10
1544.630322756856
 20
29.28855107798713
 30
0.0
 10
1544.630322756856
 20
29.42194095680312
 30
0.0
 10
1544.630322756856
 20
29.46657650462972
 30
0.0
 10
1544.630322756856
 20
29.55546002678522
 30
0.0
 10
1544.630322756856
 20
29.59999868123733
 30
0.0
  0
SPLINE
  5
191
330
1F
100
AcDbEntity
  8
PIEZA
370
     0
100
AcDbSpline
210
0.0
220
0.0
230
1.0
 70
     8
 71
     3
 72
     8
 73
     4
 74
     0
 42
0.000000001
 43
0.00000001
 40
18.0
 40
18.0
 40
18.0
 40
18.0
 40
19.0
 40
19.0
 40
19.0
 40
19.0
 10
1546.321596607801
 20
29.11049335341394
 30
0.0
 10
1546.321596607801
 20
28.79904575016371
 30
0.0
 10
1546.098838739957
 20
28.57644937127744
 30
0.0
 10
1545.74275558888
 20
28.48756584912203
 30
0.0
  0
SPLINE
  5
192
330
1F
100
AcDbEntity
  8
PIEZA
370
     0
100
AcDbSpline
210
0.0
220
0.0
230
1.0
 70
     8
 71
     3
 72
     8
 73
     4
 74
     0
 42
0.000000001
 43
0.00000001
 40
19.0
 40
19.0
 40
19.0
 40
19.0
 40
20.0
 40
20.0
 40
20.0
 40
20.0
 10
1545.74275558888
 20
28.48756584912203
 30
0.0
 10
1545.386930820135
 20
28.35401448134851
 30
0.0
 10
1544.719335470225
 20
28.26500176802721
 30
0.0
 10
1543.829337528178
 20
28.26500176802721
 30
0.0
  0
SPLINE
  5
193
330
1F
100
AcDbEntity
  8
PIEZA
370
     0
100
AcDbSpline
210
0.0
220
0.0
230
1.0
 70
     8
 71
     3
 72
     8
 73
     4
 74
     0
 42
0.000000001
 43
0.00000001
 40
21.0
 40
21.0
 40
21.0
 40
21.0
 40
22.0
 40
22.0
 40
22.0
 40
22.0
 10
1542.004609202877
 20
28.26500176802721
 30
0.0
 10
1541.470694411907
 20
28.26500176802721
 30
0.0
 10
1541.025566249717
 20
28.30950812468782
 30
0.0
 10
1540.80316365758
 20
28.30950812468782
 30
0.0
  0
SPLINE
  5
194
330
1F
100
AcDbEntity
  8
PIEZA
370
     0
100
AcDbSpline
210
0.0
220
0.0
230
1.0
 70
     8
 71
     3
 72
     8
 73
     4
 74
     0
 42
0.000000001
 43
0.00000001
 40
22.0
 40
22.0
 40
22.0
 40
22.0
 40
23.0
 40
23.0
 40
23.0
 40
23.0
 10
1540.80316365758
 20
28.30950812468782
 30
0.0
 10
1540.536028624241
 20
28.35401448134851
 30
0.0
 10
1540.313658329896
 20
28.44289800350395
 30
0.0
 10
1540.091191142175
 20
28.5319107168253
 30
0.0
  0
SPLINE
  5
195
330
1F
100
AcDbEntity
  8
PIEZA
370
     0
100
AcDbSpline
210
0.0
220
0.0
230
1.0
 70
     8
 71
     3
 72
     8
 73
     4
 74
     0
 42
0.000000001
 43
0.00000001
 40
23.0
 40
23.0
 40
23.0
 40
23.0
 40
24.0
 40
24.0
 40
24.0
 40
24.0
 10
1540.091191142175
 20
28.5319107168253
 30
0.0
 10
1539.913101119949
 20
28.62095572793814
 30
0.0
 10
1539.735043395515
 20
28.75447479792004
 30
0.0
 10
1539.646030682194
 20
28.88802616569361
 30
0.0
  0
SPLINE
  5
196
330
1F
100
AcDbEntity
  8
PIEZA
370
     0
100
AcDbSpline
210
0.0
220
0.0
230
1.0
 70
     8
 71
     3
 72
     8
 73
     4
 74
     0
 42
0.000000001
 43
0.00000001
 40
24.0
 40
24.0
 40
24.0
 40
24.0
 40
25.0
 40
25.0
 40
25.0
 40
25.0
 10
1539.646030682194
 20
28.88802616569361
 30
0.0
 10
1539.557050266664
 20
29.0659869967533
 30
0.0
 10
1539.51267310117
 20
29.24401242339592
 30
0.0
 10
1539.51267310117
 20
29.46657650449071
 30
0.0
  0
SPLINE
  5
197
330
1F
100
AcDbEntity
  8
PIEZA
370
     0
100
AcDbSpline
210
0.0
220
0.0
230
1.0
 70
     8
 71
     3
 72
     8
 73
     4
 74
     0
 42
0.000000001
 43
0.00000001
 40
26.0
 40
26.0
 40
26.0
 40
26.0
 40
27.0
 40
27.0
 40
27.0
 40
27.0
 10
1539.51267310117
 20
30.35663904219071
 30
0.0
 10
1539.51267310117
 20
30.80147652425713
 30
0.0
 10
1539.69044014548
 20
31.15759197312533
 30
0.0
 10
1540.046490998766
 20
31.33568199535104
 30
0.0
  0
SPLINE
  5
198
330
1F
100
AcDbEntity
  8
PIEZA
370
     0
100
AcDbSpline
210
0.0
220
0.0
230
1.0
 70
     8
 71
     3
 72
     8
 73
     4
 74
     0
 42
0.000000001
 43
0.00000001
 40
27.0
 40
27.0
 40
27.0
 40
27.0
 40
28.0
 40
28.0
 40
28.0
 40
28.0
 10
1540.046490998766
 20
31.33568199535104
 30
0.0
 10
1540.402638745426
 20
31.51377201757662
 30
0.0
 10
1541.070234095335
 20
31.60275243310641
 30
0.0
 10
1542.004609202877
 20
31.60275243310641
 30
0.0
  0
SPLINE
  5
199
330
1F
100
AcDbEntity
  8
PIEZA
370
     0
100
AcDbSpline
210
0.0
220
0.0
230
1.0
 70
     8
 71
     3
 72
     8
 73
     4
 74
     0
 42
0.000000001
 43
0.00000001
 40
29.0
 40
29.0
 40
29.0
 40
29.0
 40
30.0
 40
30.0
 40
30.0
 40
30.0
 10
1543.829337528178
 20
31.60275243310641
 30
0.0
 10
1544.407855569184
 20
31.60275243310641
 30
0.0
 10
1544.808348183547
 20
31.60275243310641
 30
0.0
 10
1545.11986038238
 20
31.55808458748842
 30
0.0
  0
SPLINE
  5
19A
330
1F
100
AcDbEntity
  8
PIEZA
370
     0
100
AcDbSpline
210
0.0
220
0.0
230
1.0
 70
     8
 71
     3
 72
     8
 73
     4
 74
     0
 42
0.000000001
 43
0.00000001
 40
30.0
 40
30.0
 40
30.0
 40
30.0
 40
31.0
 40
31.0
 40
31.0
 40
31.0
 10
1545.11986038238
 20
31.55808458748842
 30
0.0
 10
1545.386930820135
 20
31.51377201757662
 30
0.0
 10
1545.609333412272
 20
31.46907187416703
 30
0.0
 10
1545.787391136707
 20
31.37999456526281
 30
0.0
  0
SPLINE
  5
19B
330
1F
100
AcDbEntity
  8
PIEZA
370
     0
100
AcDbSpline
210
0.0
220
0.0
230
1.0
 70
     8
 71
     3
 72
     8
 73
     4
 74
     0
 42
0.000000001
 43
0.00000001
 40
31.0
 40
31.0
 40
31.0
 40
31.0
 40
32.0
 40
32.0
 40
32.0
 40
32.0
 10
1545.787391136707
 20
31.37999456526281
 30
0.0
 10
1545.920813313315
 20
31.33568199535104
 30
0.0
 10
1546.054526170045
 20
31.2022275209519
 30
0.0
 10
1546.143538883366
 20
31.06854696201252
 30
0.0
  0
SPLINE
  5
19C
330
1F
100
AcDbEntity
  8
PIEZA
370
     0
100
AcDbSpline
210
0.0
220
0.0
230
1.0
 70
     8
 71
     3
 72
    11
 73
     7
 74
     0
 42
0.000000001
 43
0.00000001
 40
32.0
 40
32.0
 40
32.0
 40
32.0
 40
33.0
 40
33.0
 40
33.0
 40
34.0
 40
34.0
 40
34.0
 40
34.0
 10
1546.143538883366
 20
31.06854696201252
 30
0.0
 10
1546.232293214356
 20
30.93515708319639
 30
0.0
 10
1546.232293214356
 20
30.84614436987513
 30
0.0
 10
1546.232293214356
 20
30.66808664544092
 30
0.0
 10
1546.232293214356
 20
30.62370947994622
 30
0.0
 10
1546.232293214356
 20
30.62370947994622
 30
0.0
 10
1546.232293214356
 20
30.53469676662493
 30
0.0
  0
SPLINE
  5
19D
330
1F
100
AcDbEntity
  8
PIEZA
370
     0
100
AcDbSpline
210
0.0
220
0.0
230
1.0
 70
     8
 71
     3
 72
    11
 73
     7
 74
     0
 42
0.000000001
 43
0.00000001
 40
2.0
 40
2.0
 40
2.0
 40
2.0
 40
3.0
 40
3.0
 40
3.0
 40
4.0
 40
4.0
 40
4.0
 40
4.0
 10
1561.734070404663
 20
35.40368572574987
 30
0.0
 10
1561.890650097762
 20
35.40368572574987
 30
0.0
 10
1562.004402919358
 20
35.39054052461715
 30
0.0
 10
1562.07532886945
 20
35.36425012235171
 30
0.0
 10
1562.146254819542
 20
35.33795972008626
 30
0.0
 10
1562.203066634757
 20
35.29119251802192
 30
0.0
 10
1562.245699719512
 20
35.22394851615872
 30
0.0
  0
SPLINE
  5
19E
330
1F
100
AcDbEntity
  8
PIEZA
370
     0
100
AcDbSpline
210
0.0
220
0.0
230
1.0
 70
     8
 71
     3
 72
    11
 73
     7
 74
     0
 42
0.000000001
 43
0.00000001
 40
4.0
 40
4.0
 40
4.0
 40
4.0
 40
5.0
 40
5.0
 40
5.0
 40
6.0
 40
6.0
 40
6.0
 40
6.0
 10
1562.245699719512
 20
35.22394851615872
 30
0.0
 10
1562.288332804266
 20
35.15673681208698
 30
0.0
 10
1562.309649346644
 20
35.07986806836246
 30
0.0
 10
1562.309649346644
 20
34.99334228498515
 30
0.0
 10
1562.309649346644
 20
34.88349749615864
 30
0.0
 10
1562.277480746329
 20
34.79280529768031
 30
0.0
 10
1562.213111247907
 20
34.72123339175864
 30
0.0
  0
SPLINE
  5
19F
330
1F
100
AcDbEntity
  8
PIEZA
370
     0
100
AcDbSpline
210
0.0
220
0.0
230
1.0
 70
     8
 71
     3
 72
     8
 73
     4
 74
     0
 42
0.000000001
 43
0.00000001
 40
6.0
 40
6.0
 40
6.0
 40
6.0
 40
7.0
 40
7.0
 40
7.0
 40
7.0
 10
1562.213111247907
 20
34.72123339175864
 30
0.0
 10
1562.148774047278
 20
34.64969378362846
 30
0.0
 10
1562.052591224247
 20
34.60457376892967
 30
0.0
 10
1561.924562778818
 20
34.5859379432452
 30
0.0
  0
SPLINE
  5
1A0
330
1F
100
AcDbEntity
  8
PIEZA
370
     0
100
AcDbSpline
210
0.0
220
0.0
230
1.0
 70
     8
 71
     3
 72
     8
 73
     4
 74
     0
 42
0.000000001
 43
0.00000001
 40
7.0
 40
7.0
 40
7.0
 40
7.0
 40
8.0
 40
8.0
 40
8.0
 40
8.0
 10
1561.924562778818
 20
34.5859379432452
 30
0.0
 10
1561.988157130243
 20
34.54866629187624
 30
0.0
 10
1562.040673339191
 20
34.50771269227847
 30
0.0
 10
1562.08207910787
 20
34.46310944224336
 30
0.0
  0
SPLINE
  5
1A1
330
1F
100
AcDbEntity
  8
PIEZA
370
     0
100
AcDbSpline
210
0.0
220
0.0
230
1.0
 70
     8
 71
     3
 72
     8
 73
     4
 74
     0
 42
0.000000001
 43
0.00000001
 40
8.0
 40
8.0
 40
8.0
 40
8.0
 40
9.0
 40
9.0
 40
9.0
 40
9.0
 10
1562.08207910787
 20
34.46310944224336
 30
0.0
 10
1562.12351717434
 20
34.41850619220826
 30
0.0
 10
1562.179327758019
 20
34.33927970970563
 30
0.0
 10
1562.249543156698
 20
34.22539769694401
 30
0.0
  0
SPLINE
  5
1A2
330
1F
100
AcDbEntity
  8
PIEZA
370
     0
100
AcDbSpline
210
0.0
220
0.0
230
1.0
 70
     8
 71
     3
 72
     8
 73
     4
 74
     0
 42
0.000000001
 43
0.00000001
 40
12.0
 40
12.0
 40
12.0
 40
12.0
 40
13.0
 40
13.0
 40
13.0
 40
13.0
 10
1561.862938592672
 20
34.25931037799894
 30
0.0
 10
1561.78678040036
 20
34.37283711505428
 30
0.0
 10
1561.73465176491
 20
34.44437672318445
 30
0.0
 10
1561.706617281904
 20
34.47392920238947
 30
0.0
  0
SPLINE
  5
1A3
330
1F
100
AcDbEntity
  8
PIEZA
370
     0
100
AcDbSpline
210
0.0
220
0.0
230
1.0
 70
     8
 71
     3
 72
     8
 73
     4
 74
     0
 42
0.000000001
 43
0.00000001
 40
13.0
 40
13.0
 40
13.0
 40
13.0
 40
14.0
 40
14.0
 40
14.0
 40
14.0
 10
1561.706617281904
 20
34.47392920238947
 30
0.0
 10
1561.678550501107
 20
34.503449383803
 30
0.0
 10
1561.648836532945
 20
34.52370009906151
 30
0.0
 10
1561.617443079625
 20
34.53464905037354
 30
0.0
  0
SPLINE
  5
1A4
330
1F
100
AcDbEntity
  8
PIEZA
370
     0
100
AcDbSpline
210
0.0
220
0.0
230
1.0
 70
     8
 71
     3
 72
     8
 73
     4
 74
     0
 42
0.000000001
 43
0.00000001
 40
14.0
 40
14.0
 40
14.0
 40
14.0
 40
15.0
 40
15.0
 40
15.0
 40
15.0
 10
1561.617443079625
 20
34.53464905037354
 30
0.0
 10
1561.586017328515
 20
34.54563029947704
 30
0.0
 10
1561.536278729634
 20
34.55108862623732
 30
0.0
 10
1561.468130389609
 20
34.55108862623732
 30
0.0
  0
SPLINE
  5
1A5
330
1F
100
AcDbEntity
  8
PIEZA
370
     0
100
AcDbSpline
210
0.0
220
0.0
230
1.0
 70
     8
 71
     3
 72
     8
 73
     4
 74
     0
 42
0.000000001
 43
0.00000001
 40
1.0
 40
1.0
 40
1.0
 40
1.0
 40
2.0
 40
2.0
 40
2.0
 40
2.0
 10
1561.626647950197
 20
34.7841817873549
 30
0.0
 10
1561.768402957007
 20
34.7841817873549
 30
0.0
 10
1561.856931203456
 20
34.79018917657036
 30
0.0
 10
1561.892200391753
 20
34.80217165720976
 30
0.0
  0
SPLINE
  5
1A6
330
1F
100
AcDbEntity
  8
PIEZA
370
     0
100
AcDbSpline
210
0.0
220
0.0
230
1.0
 70
     8
 71
     3
 72
     8
 73
     4
 74
     0
 42
0.000000001
 43
0.00000001
 40
2.0
 40
2.0
 40
2.0
 40
2.0
 40
3.0
 40
3.0
 40
3.0
 40
3.0
 10
1561.892200391753
 20
34.80217165720976
 30
0.0
 10
1561.92746958005
 20
34.81418643564065
 30
0.0
 10
1561.955116489558
 20
34.83485702218842
 30
0.0
 10
1561.975076524693
 20
34.86418341685307
 30
0.0
  0
SPLINE
  5
1A7
330
1F
100
AcDbEntity
  8
PIEZA
370
     0
100
AcDbSpline
210
0.0
220
0.0
230
1.0
 70
     8
 71
     3
 72
    14
 73
    10
 74
     0
 42
0.000000001
 43
0.00000001
 40
3.0
 40
3.0
 40
3.0
 40
3.0
 40
4.0
 40
4.0
 40
4.0
 40
5.0
 40
5.0
 40
5.0
 40
6.0
 40
6.0
 40
6.0
 40
6.0
 10
1561.975076524693
 20
34.86418341685307
 30
0.0
 10
1561.995036559828
 20
34.89354210930919
 30
0.0
 10
1562.005016577396
 20
34.93023240043149
 30
0.0
 10
1562.005016577396
 20
34.97422199242846
 30
0.0
 10
1562.005016577396
 20
35.02357301781127
 30
0.0
 10
1561.991871376264
 20
35.06339619470721
 30
0.0
 10
1561.965580973998
 20
35.09375611869923
 30
0.0
 10
1561.939290571733
 20
35.12411604269128
 30
0.0
 10
1561.902180409321
 20
35.14326863303944
 30
0.0
 10
1561.854282784555
 20
35.15127848532671
 30
0.0
  0
SPLINE
  5
1A8
330
1F
100
AcDbEntity
  8
PIEZA
370
     0
100
AcDbSpline
210
0.0
220
0.0
230
1.0
 70
     8
 71
     3
 72
     8
 73
     4
 74
     0
 42
0.000000001
 43
0.00000001
 40
6.0
 40
6.0
 40
6.0
 40
6.0
 40
7.0
 40
7.0
 40
7.0
 40
7.0
 10
1561.854282784555
 20
35.15127848532671
 30
0.0
 10
1561.830317823276
 20
35.15460515784923
 30
0.0
 10
1561.758422939439
 20
35.15628464300625
 30
0.0
 10
1561.638630430837
 20
35.15628464300625
 30
0.0
  0
ELLIPSE
  5
1A9
330
1F
100
AcDbEntity
  8
PIEZA
100
AcDbEllipse
 10
346.0627628994
 20
307.5179205714
 30
0.0
 11
0.0
 21
1.0
 31
0.0
210
0.0
220
0.0
230
1.0
 40
1.0
 41
1.977923714442737
 42
3.141585653589299
  0
ELLIPSE
  5
1AA
330
1F
100
AcDbEntity
  8
PIEZA
100
AcDbEllipse
 10
482.8838248994
 20
366.5179205714
 30
0.0
 11
-150.0
 21
0.0
 31
0.0
210
0.0
220
0.0
230
1.0
 40
1.0
 41
5.876057919531657
 42
6.690312694827528
  0
ELLIPSE
  5
1AB
330
1F
100
AcDbEntity
  8
PIEZA
100
AcDbEllipse
 10
346.0627628994
 20
425.5179205867
 30
0.0
 11
0.0
 21
1.0
 31
0.0
210
0.0
220
0.0
230
1.0
 40
1.0
 41
0.000007000000494
 42
1.163668939146751
  0
HATCH
  5
1AC
330
1F
100
AcDbEntity
  8
COTAS
100
AcDbHatch
 10
0.0
 20
0.0
 30
0.0
210
0.0
220
0.0
230
1.0
  2
ANSI31
 70
     0
 71
     0
 91
        1
 92
        0
 93
        4
 72
     1
 10
1407.886535899412
 20
457.5179205714187
 11
1407.886535899412
 21
427.5179205714187
 72
     1
 10
1407.886535899412
 20
427.5179205714187
 11
157.8865358994115
 21
427.5179205714187
 72
     1
 10
157.8865358994115
 20
427.5179205714187
 11
157.8865358994115
 21
457.5179205714187
 72
     1
 10
157.8865358994115
 20
457.5179205714187
 11
1407.886535899412
 21
457.5179205714187
 97
        0
 75
     0
 76
     1
 52
0.0
 41
1.0
 77
     0
 78
     1
 53
45.0
 43
0.0
 44
0.0
 45
-2.245064030267288
 46
2.245064030267288
 79
     0
 98
        1
 10
0.0
 20
0.0
  0
DIMENSION
  5
1AD
330
1F
100
AcDbEntity
  8
COTAS
100
AcDbDimension
  2
_D
 10
1032.8092264747
 20
2173.5992152189
 30
0.0
 11
1032.8092264747
 21
2286.0992152189
 31
0.0
 70
   160
  1
<>
 71
     2
 42
-1.0
  3
SLDDIMSTYLE0
100
AcDbAlignedDimension
 13
1007.8865358994
 23
2398.5992152189
 33
0.0
 14
782.8865358994
 24
2173.5992152189
 34
0.0
 50
90.0
100
AcDbRotatedDimension
  0
DIMENSION
  5
1BD
330
1F
100
AcDbEntity
  8
COTAS
100
AcDbDimension
  2
_D_1
 10
1007.8865358994
 20
2456.372110255
 30
0.0
 11
895.3865358994
 21
2456.372110255
 31
0.0
 70
   160
  1
<>
 71
     2
 42
-1.0
  3
SLDDIMSTYLE0
100
AcDbAlignedDimension
 13
782.8865358994
 23
2173.5992152189
 33
0.0
 14
1007.8865358994
 24
2398.5992152189
 34
0.0
100
AcDbRotatedDimension
  0
DIMENSION
  5
1C7
330
1F
100
AcDbEntity
  8
COTAS
100
AcDbDimension
  2
_D_2
 10
557.8865358994
 20
1907.9416900727
 30
0.0
 11
780.4746001496
 21
1907.9416900727
 31
0.0
 70
   160
  1
<>
 71
     2
 42
-1.0
  3
SLDDIMSTYLE0
100
AcDbAlignedDimension
 13
1007.8865358994
 23
1942.5992152189
 33
0.0
 14
557.8865358994
 24
1942.5992152189
 34
0.0
100
AcDbRotatedDimension
  0
DIMENSION
  5
1D1
330
1F
100
AcDbEntity
  8
COTAS
100
AcDbDimension
  2
_D_3
 10
497.8919345595
 20
1948.5992152189
 30
0.0
 11
497.8919345595
 21
2173.5992152189
 31
0.0
 70
   160
  1
<>
 71
     2
 42
-1.0
  3
SLDDIMSTYLE0
100
AcDbAlignedDimension
 13
551.8865358994
 23
2398.5992152189
 33
0.0
 14
551.8865358994
 24
1948.5992152189
 34
0.0
 50
90.0
100
AcDbRotatedDimension
  0
DIMENSION
  5
1DB
330
1F
100
AcDbEntity
  8
COTAS
100
AcDbDimension
  2
_D_4
 10
288.7492574153
 20
306.5179205714
 30
0.0
 11
288.7492574153
 21
366.5179205714
 31
0.0
 70
   160
  1
<>
 71
     2
 42
-1.0
  3
SLDDIMSTYLE0
100
AcDbAlignedDimension
 13
346.0627628994
 23
426.5179205714
 33
0.0
 14
346.0627628994
 24
306.5179205714
 34
0.0
 50
90.0
100
AcDbRotatedDimension
  0
DIMENSION
  5
1E5
330
1F
100
AcDbEntity
  8
COTAS
100
AcDbDimension
  2
_D_5
 10
332.8838248994
 20
264.6445937164
 30
0.0
 11
782.8865448994
 21
264.6445937164
 31
0.0
 70
   160
  1
Ø<>
 71
     2
 42
-1.0
  3
SLDDIMSTYLE0
100
AcDbAlignedDimension
 13
1232.8892648994
 23
366.5179205714
 33
0.0
 14
332.8838248994
 24
366.5179205714
 34
0.0
100
AcDbRotatedDimension
  0
MTEXT
  5
1EF
330
1F
100
AcDbEntity
  8
TEXTO
100
AcDbMText
 10
1368.7246416024
 20
51.4335237401
 30
0.0
 40
8.0
 41
0.0
 71
     1
 72
     1
  1
DRUM 90
  7
SLDTEXTSTYLE0
 73
     1
 44
1.0
  0
INSERT
  5
1F5
330
1F
100
AcDbEntity
  8
TEXTO
100
AcDbBlockReference
  2
SW_NOTE_0
 10
1275.2226642147
 20
32.5620903239
 30
0.0
  0
INSERT
  5
1FB
330
1F
100
AcDbEntity
  8
TEXTO
100
AcDbBlockReference
  2
SW_NOTE_1
 10
1314.694130286
 20
32.838341536
 30
0.0
  0
INSERT
  5
201
330
1F
100
AcDbEntity
  8
COTAS
100
AcDbBlockReference
  2
SW_NOTE_2
 10
600.093231089
 20
2542.2398866863
 30
0.0
  0
INSERT
  5
207
330
1F
100
AcDbEntity
  8
CAJETIN
100
AcDbBlockReference
  2
SW_NOTE_3
 10
746.9865977887
 20
2174.6622357116
 30
0.0
  0
ENDSEC
  0
SECTION
  2
OBJECTS
  0
DICTIONARY
  5
C
330
0
100
AcDbDictionary
281
     1
  3
ACAD_GROUP
350
D
  3
ACAD_LAYOUT
350
1A
  3
ACAD_MLINESTYLE
350
17
  3
ACAD_PLOTSETTINGS
350
19
  3
ACAD_PLOTSTYLENAME
350
E
  3
ACAD_SCALELIST
350
47
  0
DICTIONARY
  5
D
102
{ACAD_REACTORS
330
C
102
}
330
C
100
AcDbDictionary
281
     1
  0
DICTIONARY
  5
1A
102
{ACAD_REACTORS
330
C
102
}
330
C
100
AcDbDictionary
281
     1
  3
Layout1
350
1E
  3
Layout2
350
26
  3
Model
350
22
  0
DICTIONARY
  5
17
102
{ACAD_REACTORS
330
C
102
}
330
C
100
AcDbDictionary
281
     1
  3
Standard
350
18
  0
DICTIONARY
  5
19
102
{ACAD_REACTORS
330
C
102
}
330
C
100
AcDbDictionary
281
     1
  0
ACDBDICTIONARYWDFLT
  5
E
102
{ACAD_REACTORS
330
C
102
}
330
C
100
AcDbDictionary
281
     1
  3
Normal
350
F
100
AcDbDictionaryWithDefault
340
F
  0
DICTIONARY
  5
47
102
{ACAD_REACTORS
330
C
102
}
330
C
100
AcDbDictionary
281
     1
  3
A0
350
48
  3
A1
350
49
  3
A2
350
4A
  3
A3
350
4B
  3
A4
350
4C
  3
A5
350
4D
  3
A6
350
4E
  3
A7
350
4F
  3
A8
350
50
  3
A9
350
51
  3
B0
350
52
  3
B1
350
53
  3
B2
350
54
  3
B3
350
55
  3
B4
350
56
  3
B5
350
57
  3
B6
350
58
  3
B7
350
59
  3
B8
350
5A
  3
B9
350
5B
  3
C0
350
5C
  3
C1
350
5D
  3
C2
350
5E
  3
C3
350
5F
  3
C4
350
60
  3
C5
350
61
  3
C6
350
62
  3
C7
350
63
  3
C8
350
64
  3
C9
350
65
  3
D0
350
66
  3
D1
350
67
  3
D2
350
68
  0
LAYOUT
  5
1E
102
{ACAD_REACTORS
330
1A
102
}
330
1A
100
AcDbPlotSettings
  1

  2
none_device
  4

  6

 40
0.0
 41
0.0
 42
0.0
 43
0.0
 44
0.0
 45
0.0
 46
0.0
 47
0.0
 48
0.0
 49
0.0
140
0.0
141
0.0
142
1.0
143
1.0
 70
   688
 72
     1
 73
     0
 74
     5
  7

 75
    16
147
1.0
148
0.0
149
0.0
100
AcDbLayout
  1
Layout1
 70
     1
 71
     1
 10
0.0
 20
0.0
 11
420.0
 21
297.0
 12
0.0
 22
0.0
 32
0.0
 14
1.0000000000E+20
 24
1.0000000000E+20
 34
1.0000000000E+20
 15
-1.0000000000E+20
 25
-1.0000000000E+20
 35
-1.0000000000E+20
146
0.0
 13
0.0
 23
0.0
 33
0.0
 16
1.0
 26
0.0
 36
0.0
 17
0.0
 27
1.0
 37
0.0
 76
     0
330
1B
  0
LAYOUT
  5
26
102
{ACAD_REACTORS
330
1A
102
}
330
1A
100
AcDbPlotSettings
  1

  2
none_device
  4

  6

 40
0.0
 41
0.0
 42
0.0
 43
0.0
 44
0.0
 45
0.0
 46
0.0
 47
0.0
 48
0.0
 49
0.0
140
0.0
141
0.0
142
1.0
143
1.0
 70
   688
 72
     1
 73
     0
 74
     5
  7

 75
    16
147
1.0
148
0.0
149
0.0
100
AcDbLayout
  1
Layout2
 70
     1
 71
     2
 10
0.0
 20
0.0
 11
0.0
 21
0.0
 12
0.0
 22
0.0
 32
0.0
 14
0.0
 24
0.0
 34
0.0
 15
0.0
 25
0.0
 35
0.0
146
0.0
 13
0.0
 23
0.0
 33
0.0
 16
1.0
 26
0.0
 36
0.0
 17
0.0
 27
1.0
 37
0.0
 76
     0
330
23
  0
LAYOUT
  5
22
102
{ACAD_REACTORS
330
1A
102
}
330
1A
100
AcDbPlotSettings
  1

  2
none_device
  4
Letter_(8.50_x_11.00_Inches)
  6

 40
6.35
 41
6.35
 42
6.35000508
 43
6.35000508
 44
215.9
 45
279.4
 46
0.0
 47
0.0
 48
0.0
 49
0.0
140
0.0
141
0.0
142
1.0
143
1.0
 70
  1712
 72
     1
 73
     0
 74
     0
  7

 75
     0
147
1.0
148
0.0
149
0.0
100
AcDbLayout
  1
Model
 70
     1
 71
     0
 10
0.0
 20
0.0
 11
1600.0
 21
2800.0
 12
0.0
 22
0.0
 32
0.0
 14
0.0
 24
0.0
 34
0.0
 15
1600.0
 25
2800.0
 35
0.0
146
0.0
 13
0.0
 23
0.0
 33
0.0
 16
1.0
 26
0.0
 36
0.0
 17
0.0
 27
1.0
 37
0.0
 76
     0
330
1F
331
29
  0
MLINESTYLE
  5
18
102
{ACAD_REACTORS
330
17
102
}
330
17
100
AcDbMlineStyle
  2
Standard
 70
     0
  3

 62
   256
 51
90.0
 52
90.0
 71
     2
 49
0.5
 62
   256
  6
BYLAYER
 49
-0.5
 62
   256
  6
BYLAYER
  0
ACDBPLACEHOLDER
  5
F
102
{ACAD_REACTORS
330
E
102
}
330
E
  0
SCALE
  5
48
102
{ACAD_REACTORS
330
47
102
}
330
47
100
AcDbScale
 70
     0
300
1:1
140
1.0
141
1.0
290
     1
  0
SCALE
  5
49
102
{ACAD_REACTORS
330
47
102
}
330
47
100
AcDbScale
 70
     0
300
1:2
140
1.0
141
2.0
290
     0
  0
SCALE
  5
4A
102
{ACAD_REACTORS
330
47
102
}
330
47
100
AcDbScale
 70
     0
300
1:4
140
1.0
141
4.0
290
     0
  0
SCALE
  5
4B
102
{ACAD_REACTORS
330
47
102
}
330
47
100
AcDbScale
 70
     0
300
1:5
140
1.0
141
5.0
290
     0
  0
SCALE
  5
4C
102
{ACAD_REACTORS
330
47
102
}
330
47
100
AcDbScale
 70
     0
300
1:8
140
1.0
141
8.0
290
     0
  0
SCALE
  5
4D
102
{ACAD_REACTORS
330
47
102
}
330
47
100
AcDbScale
 70
     0
300
1:10
140
1.0
141
10.0
290
     0
  0
SCALE
  5
4E
102
{ACAD_REACTORS
330
47
102
}
330
47
100
AcDbScale
 70
     0
300
1:16
140
1.0
141
16.0
290
     0
  0
SCALE
  5
4F
102
{ACAD_REACTORS
330
47
102
}
330
47
100
AcDbScale
 70
     0
300
1:20
140
1.0
141
20.0
290
     0
  0
SCALE
  5
50
102
{ACAD_REACTORS
330
47
102
}
330
47
100
AcDbScale
 70
     0
300
1:30
140
1.0
141
30.0
290
     0
  0
SCALE
  5
51
102
{ACAD_REACTORS
330
47
102
}
330
47
100
AcDbScale
 70
     0
300
1:40
140
1.0
141
40.0
290
     0
  0
SCALE
  5
52
102
{ACAD_REACTORS
330
47
102
}
330
47
100
AcDbScale
 70
     0
300
1:50
140
1.0
141
50.0
290
     0
  0
SCALE
  5
53
102
{ACAD_REACTORS
330
47
102
}
330
47
100
AcDbScale
 70
     0
300
1:100
140
1.0
141
100.0
290
     0
  0
SCALE
  5
54
102
{ACAD_REACTORS
330
47
102
}
330
47
100
AcDbScale
 70
     0
300
2:1
140
2.0
141
1.0
290
     0
  0
SCALE
  5
55
102
{ACAD_REACTORS
330
47
102
}
330
47
100
AcDbScale
 70
     0
300
4:1
140
4.0
141
1.0
290
     0
  0
SCALE
  5
56
102
{ACAD_REACTORS
330
47
102
}
330
47
100
AcDbScale
 70
     0
300
8:1
140
8.0
141
1.0
290
     0
  0
SCALE
  5
57
102
{ACAD_REACTORS
330
47
102
}
330
47
100
AcDbScale
 70
     0
300
10:1
140
10.0
141
1.0
290
     0
  0
SCALE
  5
58
102
{ACAD_REACTORS
330
47
102
}
330
47
100
AcDbScale
 70
     0
300
100:1
140
100.0
141
1.0
290
     0
  0
SCALE
  5
59
102
{ACAD_REACTORS
330
47
102
}
330
47
100
AcDbScale
 70
     0
300
1/128" = 1'-0"
140
0.0078125
141
12.0
290
     0
  0
SCALE
  5
5A
102
{ACAD_REACTORS
330
47
102
}
330
47
100
AcDbScale
 70
     0
300
1/64" = 1'-0"
140
0.015625
141
12.0
290
     0
  0
SCALE
  5
5B
102
{ACAD_REACTORS
330
47
102
}
330
47
100
AcDbScale
 70
     0
300
1/32" = 1'-0"
140
0.03125
141
12.0
290
     0
  0
SCALE
  5
5C
102
{ACAD_REACTORS
330
47
102
}
330
47
100
AcDbScale
 70
     0
300
1/16" = 1'-0"
140
0.0625
141
12.0
290
     0
  0
SCALE
  5
5D
102
{ACAD_REACTORS
330
47
102
}
330
47
100
AcDbScale
 70
     0
300
3/32" = 1'-0"
140
0.09375
141
12.0
290
     0
  0
SCALE
  5
5E
102
{ACAD_REACTORS
330
47
102
}
330
47
100
AcDbScale
 70
     0
300
1/8" = 1'-0"
140
0.125
141
12.0
290
     0
  0
SCALE
  5
5F
102
{ACAD_REACTORS
330
47
102
}
330
47
100
AcDbScale
 70
     0
300
3/16" = 1'-0"
140
0.1875
141
12.0
290
     0
  0
SCALE
  5
60
102
{ACAD_REACTORS
330
47
102
}
330
47
100
AcDbScale
 70
     0
300
1/4" = 1'-0"
140
0.25
141
12.0
290
     0
  0
SCALE
  5
61
102
{ACAD_REACTORS
330
47
102
}
330
47
100
AcDbScale
 70
     0
300
3/8" = 1'-0"
140
0.375
141
12.0
290
     0
  0
SCALE
  5
62
102
{ACAD_REACTORS
330
47
102
}
330
47
100
AcDbScale
 70
     0
300
1/2" = 1'-0"
140
0.5
141
12.0
290
     0
  0
SCALE
  5
63
102
{ACAD_REACTORS
330
47
102
}
330
47
100
AcDbScale
 70
     0
300
3/4" = 1'-0"
140
0.75
141
12.0
290
     0
  0
SCALE
  5
64
102
{ACAD_REACTORS
330
47
102
}
330
47
100
AcDbScale
 70
     0
300
1" = 1'-0"
140
1.0
141
12.0
290
     0
  0
SCALE
  5
65
102
{ACAD_REACTORS
330
47
102
}
330
47
100
AcDbScale
 70
     0
300
1-1/2" = 1'-0"
140
1.5
141
12.0
290
     0
  0
SCALE
  5
66
102
{ACAD_REACTORS
330
47
102
}
330
47
100
AcDbScale
 70
     0
300
3" = 1'-0"
140
3.0
141
12.0
290
     0
  0
SCALE
  5
67
102
{ACAD_REACTORS
330
47
102
}
330
47
100
AcDbScale
 70
     0
300
6" = 1'-0"
140
6.0
141
12.0
290
     0
  0
SCALE
  5
68
102
{ACAD_REACTORS
330
47
102
}
330
47
100
AcDbScale
 70
     0
300
1'-0" = 1'-0"
140
12.0
141
12.0
290
     0
  0
ENDSEC
  0
EOF
