  0
SECTION
  2
HEADER
  9
$ACADVER
  1
AC1021
  9
$ACADMAINTVER
 70
    25
  9
$DWGCODEPAGE
  3
ANSI_1252
  9
$INSBASE
 10
0.0
 20
0.0
 30
0.0
  9
$EXTMIN
 10
0.0
 20
0.0
 30
0.0
  9
$EXTMAX
 10
700.0
 20
850.0
 30
0.0
  9
$LIMMIN
 10
0.0
 20
0.0
  9
$LIMMAX
 10
700.0
 20
850.0
  9
$ORTHOMODE
 70
     0
  9
$REGENMODE
 70
     1
  9
$FILLMODE
 70
     1
  9
$QTEXTMODE
 70
     0
  9
$MIRRTEXT
 70
     1
  9
$LTSCALE
 40
1.0
  9
$ATTMODE
 70
     1
  9
$TEXTSIZE
 40
3.5
  9
$TRACEWID
 40
1.0
  9
$TEXTSTYLE
  7
STANDARD
  9
$CLAYER
  8
0
  9
$CELTYPE
  6
ByLayer
  9
$CECOLOR
 62
   256
  9
$CELTSCALE
 40
1.0
  9
$DISPSILH
 70
     0
  9
$DIMSCALE
 40
1.0
  9
$DIMASZ
 40
3.302
  9
$DIMEXO
 40
1.0
  9
$DIMDLI
 40
3.75
  9
$DIMRND
 40
0.0
  9
$DIMDLE
 40
0.0
  9
$DIMEXE
 40
1.0
  9
$DIMTP
 40
0.0
  9
$DIMTM
 40
0.0
  9
$DIMTXT
 40
3.5
  9
$DIMCEN
 40
2.5
  9
$DIMTSZ
 40
0.0
  9
$DIMTOL
 70
     0
  9
$DIMLIM
 70
     0
  9
$DIMTIH
 70
     1
  9
$DIMTOH
 70
     1
  9
$DIMSE1
 70
     0
  9
$DIMSE2
 70
     0
  9
$DIMTAD
 70
     1
  9
$DIMZIN
 70
     1
  9
$DIMBLK
  1

  9
$DIMASO
 70
     1
  9
$DIMSHO
 70
     1
  9
$DIMPOST
  1

  9
$DIMAPOST
  1

  9
$DIMALT
 70
     0
  9
$DIMALTD
 70
     3
  9
$DIMALTF
 40
0.0393700787
  9
$DIMLFAC
 40
1.0
  9
$DIMTOFL
 70
     1
  9
$DIMTVP
 40
0.0
  9
$DIMTIX
 70
     0
  9
$DIMSOXD
 70
     0
  9
$DIMSAH
 70
     0
  9
$DIMBLK1
  1

  9
$DIMBLK2
  1

  9
$DIMSTYLE
  2
ISO-25
  9
$DIMCLRD
 70
     0
  9
$DIMCLRE
 70
     0
  9
$DIMCLRT
 70
     0
  9
$DIMTFAC
 40
1.0
  9
$DIMGAP
 40
1.524
  9
$DIMJUST
 70
     0
  9
$DIMSD1
 70
     0
  9
$DIMSD2
 70
     0
  9
$DIMTOLJ
 70
     0
  9
$DIMTZIN
 70
     1
  9
$DIMALTZ
 70
     0
  9
$DIMALTTZ
 70
     0
  9
$DIMUPT
 70
     0
  9
$DIMDEC
 70
     0
  9
$DIMTDEC
 70
     0
  9
$DIMALTU
 70
     2
  9
$DIMALTTD
 70
     3
  9
$DIMTXSTY
  7
STANDARD
  9
$DIMAUNIT
 70
     0
  9
$DIMADEC
 70
     0
  9
$DIMALTRND
 40
0.0
  9
$DIMAZIN
 70
     0
  9
$DIMDSEP
 70
    44
  9
$DIMATFIT
 70
     3
  9
$DIMFRAC
 70
     0
  9
$DIMLDRBLK
  1

  9
$DIMLUNIT
 70
     2
  9
$DIMLWD
 70
    -2
  9
$DIMLWE
 70
    -2
  9
$DIMTMOVE
 70
     0
  9
$DIMFXL
 40
1.0
  9
$DIMFXLON
 70
     0
  9
$DIMJOGANG
 40
0.7853981634
  9
$DIMTFILL
 70
     0
  9
$DIMTFILLCLR
 70
     0
  9
$DIMARCSYM
 70
     0
  9
$DIMLTYPE
  6

  9
$DIMLTEX1
  6

  9
$DIMLTEX2
  6

  9
$LUNITS
 70
     2
  9
$LUPREC
 70
     4
  9
$SKETCHINC
 40
1.0
  9
$FILLETRAD
 40
10.0
  9
$AUNITS
 70
     0
  9
$AUPREC
 70
     0
  9
$MENU
  1
.
  9
$ELEVATION
 40
0.0
  9
$PELEVATION
 40
0.0
  9
$THICKNESS
 40
0.0
  9
$LIMCHECK
 70
     0
  9
$CHAMFERA
 40
0.0
  9
$CHAMFERB
 40
0.0
  9
$CHAMFERC
 40
0.0
  9
$CHAMFERD
 40
0.0
  9
$SKPOLY
 70
     0
  9
$TDCREATE
 40
2457862.633410648
  9
$TDUCREATE
 40
2457862.550077315
  9
$TDUPDATE
 40
2457862.633411319
  9
$TDUUPDATE
 40
2457862.550077986
  9
$TDINDWG
 40
0.0000000116
  9
$TDUSRTIMER
 40
0.0000000116
  9
$USRTIMER
 70
     1
  9
$ANGBASE
 50
0.0
  9
$ANGDIR
 70
     0
  9
$PDMODE
 70
     0
  9
$PDSIZE
 40
-1.0
  9
$PLINEWID
 40
0.0
  9
$SPLFRAME
 70
     0
  9
$SPLINETYPE
 70
     6
  9
$SPLINESEGS
 70
     8
  9
$HANDSEED
  5
2EC
  9
$SURFTAB1
 70
     6
  9
$SURFTAB2
 70
     6
  9
$SURFTYPE
 70
     6
  9
$SURFU
 70
     6
  9
$SURFV
 70
     6
  9
$UCSBASE
  2

  9
$UCSNAME
  2

  9
$UCSORG
 10
0.0
 20
0.0
 30
0.0
  9
$UCSXDIR
 10
1.0
 20
0.0
 30
0.0
  9
$UCSYDIR
 10
0.0
 20
1.0
 30
0.0
  9
$UCSORTHOREF
  2

  9
$UCSORTHOVIEW
 70
     0
  9
$UCSORGTOP
 10
0.0
 20
0.0
 30
0.0
  9
$UCSORGBOTTOM
 10
0.0
 20
0.0
 30
0.0
  9
$UCSORGLEFT
 10
0.0
 20
0.0
 30
0.0
  9
$UCSORGRIGHT
 10
0.0
 20
0.0
 30
0.0
  9
$UCSORGFRONT
 10
0.0
 20
0.0
 30
0.0
  9
$UCSORGBACK
 10
0.0
 20
0.0
 30
0.0
  9
$PUCSBASE
  2

  9
$PUCSNAME
  2

  9
$PUCSORG
 10
0.0
 20
0.0
 30
0.0
  9
$PUCSXDIR
 10
1.0
 20
0.0
 30
0.0
  9
$PUCSYDIR
 10
0.0
 20
1.0
 30
0.0
  9
$PUCSORTHOREF
  2

  9
$PUCSORTHOVIEW
 70
     0
  9
$PUCSORGTOP
 10
0.0
 20
0.0
 30
0.0
  9
$PUCSORGBOTTOM
 10
0.0
 20
0.0
 30
0.0
  9
$PUCSORGLEFT
 10
0.0
 20
0.0
 30
0.0
  9
$PUCSORGRIGHT
 10
0.0
 20
0.0
 30
0.0
  9
$PUCSORGFRONT
 10
0.0
 20
0.0
 30
0.0
  9
$PUCSORGBACK
 10
0.0
 20
0.0
 30
0.0
  9
$USERI1
 70
     0
  9
$USERI2
 70
     0
  9
$USERI3
 70
     0
  9
$USERI4
 70
     0
  9
$USERI5
 70
     0
  9
$USERR1
 40
0.0
  9
$USERR2
 40
0.0
  9
$USERR3
 40
0.0
  9
$USERR4
 40
0.0
  9
$USERR5
 40
0.0
  9
$WORLDVIEW
 70
     1
  9
$SHADEDGE
 70
     3
  9
$SHADEDIF
 70
    70
  9
$TILEMODE
 70
     1
  9
$MAXACTVP
 70
    64
  9
$PINSBASE
 10
0.0
 20
0.0
 30
0.0
  9
$PLIMCHECK
 70
     0
  9
$PEXTMIN
 10
1.0000000000E+20
 20
1.0000000000E+20
 30
1.0000000000E+20
  9
$PEXTMAX
 10
-1.0000000000E+20
 20
-1.0000000000E+20
 30
-1.0000000000E+20
  9
$PLIMMIN
 10
0.0
 20
0.0
  9
$PLIMMAX
 10
420.0
 20
297.0
  9
$UNITMODE
 70
     0
  9
$VISRETAIN
 70
     1
  9
$PLINEGEN
 70
     0
  9
$PSLTSCALE
 70
     1
  9
$TREEDEPTH
 70
  3020
  9
$CMLSTYLE
  2
Standard
  9
$CMLJUST
 70
     0
  9
$CMLSCALE
 40
20.0
  9
$PROXYGRAPHICS
 70
     1
  9
$MEASUREMENT
 70
     1
  9
$CELWEIGHT
370
    -1
  9
$ENDCAPS
280
     0
  9
$JOINSTYLE
280
     0
  9
$LWDISPLAY
290
     1
  9
$INSUNITS
 70
     4
  9
$HYPERLINKBASE
  1

  9
$STYLESHEET
  1

  9
$XEDIT
290
     1
  9
$CEPSNTYPE
380
     0
  9
$PSTYLEMODE
290
     1
  9
$FINGERPRINTGUID
  2
{B0FCDA8B-663C-4959-9992-5B2E2EB01006}
  9
$VERSIONGUID
  2
{FAEB1C32-E019-11D5-929B-00C0DF256EC4}
  9
$EXTNAMES
290
     1
  9
$PSVPSCALE
 40
0.0
  9
$OLESTARTUP
290
     0
  9
$SORTENTS
280
   127
  9
$INDEXCTL
280
     0
  9
$HIDETEXT
280
     1
  9
$XCLIPFRAME
290
     0
  9
$HALOGAP
280
     0
  9
$OBSCOLOR
 70
   257
  9
$OBSLTYPE
280
     0
  9
$INTERSECTIONDISPLAY
280
     0
  9
$INTERSECTIONCOLOR
 70
   257
  9
$DIMASSOC
280
     2
  9
$PROJECTNAME
  1

  9
$CAMERADISPLAY
290
     0
  9
$LENSLENGTH
 40
50.0
  9
$CAMERAHEIGHT
 40
0.0
  9
$STEPSPERSEC
 40
2.0
  9
$STEPSIZE
 40
6.0
  9
$3DDWFPREC
 40
2.0
  9
$PSOLWIDTH
 40
5.0
  9
$PSOLHEIGHT
 40
80.0
  9
$LOFTANG1
 40
1.5707963268
  9
$LOFTANG2
 40
1.5707963268
  9
$LOFTMAG1
 40
0.0
  9
$LOFTMAG2
 40
0.0
  9
$LOFTPARAM
 70
     7
  9
$LOFTNORMALS
280
     1
  9
$LATITUDE
 40
37.795
  9
$LONGITUDE
 40
-122.394
  9
$NORTHDIRECTION
 40
0.0
  9
$TIMEZONE
 70
 -8000
  9
$LIGHTGLYPHDISPLAY
280
     1
  9
$TILEMODELIGHTSYNCH
280
     1
  9
$CMATERIAL
347
44
  9
$SOLIDHIST
280
     0
  9
$SHOWHIST
280
     1
  9
$DWFFRAME
280
     2
  9
$DGNFRAME
280
     2
  9
$REALWORLDSCALE
290
     1
  9
$INTERFERECOLOR
 62
   256
  9
$CSHADOW
280
     0
  9
$SHADOWPLANELOCATION
 40
0.0
  0
ENDSEC
  0
SECTION
  2
CLASSES
  0
CLASS
  1
ACDBDICTIONARYWDFLT
  2
AcDbDictionaryWithDefault
  3
ObjectDBX Classes
 90
        0
 91
        4
280
     0
281
     0
  0
CLASS
  1
VISUALSTYLE
  2
AcDbVisualStyle
  3
ObjectDBX Classes
 90
     4095
 91
        4
280
     0
281
     0
  0
CLASS
  1
MATERIAL
  2
AcDbMaterial
  3
ObjectDBX Classes
 90
     1153
 91
        4
280
     0
281
     0
  0
CLASS
  1
SCALE
  2
AcDbScale
  3
ObjectDBX Classes
 90
     1153
 91
        4
280
     0
281
     0
  0
CLASS
  1
TABLESTYLE
  2
AcDbTableStyle
  3
ObjectDBX Classes
 90
     4095
 91
        4
280
     0
281
     0
  0
CLASS
  1
MLEADERSTYLE
  2
AcDbMLeaderStyle
  3
ACDB_MLEADERSTYLE_CLASS
 90
     4095
 91
        4
280
     0
281
     0
  0
CLASS
  1
SUN
  2
AcDbSun
  3
SCENEOE
 90
     1153
 91
        4
280
     0
281
     0
  0
CLASS
  1
DICTIONARYVAR
  2
AcDbDictionaryVar
  3
ObjectDBX Classes
 90
        0
 91
        4
280
     0
281
     0
  0
CLASS
  1
CELLSTYLEMAP
  2
AcDbCellStyleMap
  3
ObjectDBX Classes
 90
     1152
 91
        4
280
     0
281
     0
  0
ENDSEC
  0
SECTION
  2
TABLES
  0
TABLE
  2
VPORT
  5
8
330
0
100
AcDbSymbolTable
 70
     1
  0
VPORT
  5
29
330
8
100
AcDbSymbolTableRecord
100
AcDbViewportTableRecord
  2
*Active
 70
     0
 10
0.0
 20
0.0
 11
1.0
 21
1.0
 12
350.0
 22
425.0
 13
0.0
 23
0.0
 14
10.0
 24
10.0
 15
10.0
 25
10.0
 16
0.0
 26
0.0
 36
1.0
 17
0.0
 27
0.0
 37
0.0
 40
850.0
 41
0.8235294118
 42
50.0
 43
0.0
 44
0.0
 50
0.0
 51
0.0
 71
     0
 72
  2000
 73
     1
 74
     3
 75
     0
 76
     0
 77
     0
 78
     0
281
     0
 65
     1
110
0.0
120
0.0
130
0.0
111
1.0
121
0.0
131
0.0
112
0.0
122
1.0
132
0.0
 79
     0
146
0.0
 60
     3
 61
     5
292
     1
282
     1
141
0.0
142
0.0
 63
   250
361
6D
  0
ENDTAB
  0
TABLE
  2
LTYPE
  5
5
330
0
100
AcDbSymbolTable
 70
     6
  0
LTYPE
  5
14
330
5
100
AcDbSymbolTableRecord
100
AcDbLinetypeTableRecord
  2
ByBlock
 70
     0
  3

 72
    65
 73
     0
 40
0.0
  0
LTYPE
  5
15
330
5
100
AcDbSymbolTableRecord
100
AcDbLinetypeTableRecord
  2
ByLayer
 70
     0
  3

 72
    65
 73
     0
 40
0.0
  0
LTYPE
  5
16
330
5
100
AcDbSymbolTableRecord
100
AcDbLinetypeTableRecord
  2
Continuous
 70
     0
  3
Solid line
 72
    65
 73
     0
 40
0.0
  0
LTYPE
  5
6E
330
5
100
AcDbSymbolTableRecord
100
AcDbLinetypeTableRecord
  2
HIDDEN
 70
     0
  3
Hidden __ __ __ __ __ __ __ __ __ __ __ __ __ __
 72
    65
 73
     2
 40
1.905
 49
1.27
 74
     0
 49
-0.635
 74
     0
  0
LTYPE
  5
6F
330
5
100
AcDbSymbolTableRecord
100
AcDbLinetypeTableRecord
  2
PHANTOM
 70
     0
  3
Phantom ______  __  __  ______  __  __  ______
 72
    65
 73
     6
 40
12.7
 49
6.35
 74
     0
 49
-1.27
 74
     0
 49
1.27
 74
     0
 49
-1.27
 74
     0
 49
1.27
 74
     0
 49
-1.27
 74
     0
  0
LTYPE
  5
70
330
5
100
AcDbSymbolTableRecord
100
AcDbLinetypeTableRecord
  2
CENTER
 70
     0
  3
Center ____ _ ____ _ ____ _ ____ _ ____ _ ____
 72
    65
 73
     4
 40
10.16
 49
6.35
 74
     0
 49
-1.27
 74
     0
 49
1.27
 74
     0
 49
-1.27
 74
     0
  0
LTYPE
  5
71
330
5
100
AcDbSymbolTableRecord
100
AcDbLinetypeTableRecord
  2
CENTERX2
 70
     0
  3
Center (2x) ________  __  ________  __  _____
 72
    65
 73
     4
 40
20.32
 49
12.7
 74
     0
 49
-2.54
 74
     0
 49
2.54
 74
     0
 49
-2.54
 74
     0
  0
LTYPE
  5
72
330
5
100
AcDbSymbolTableRecord
100
AcDbLinetypeTableRecord
  2
DOT2
 70
     0
  3
Dot (.5x) ........................................
 72
    65
 73
     2
 40
0.635
 49
0.0
 74
     0
 49
-0.635
 74
     0
  0
ENDTAB
  0
TABLE
  2
LAYER
  5
2
330
0
100
AcDbSymbolTable
 70
     9
  0
LAYER
  5
10
330
2
100
AcDbSymbolTableRecord
100
AcDbLayerTableRecord
  2
0
 70
     0
 62
     7
  6
Continuous
370
    -3
390
F
347
46
  0
LAYER
  5
73
330
2
100
AcDbSymbolTableRecord
100
AcDbLayerTableRecord
  2
SLD-0
 70
     0
 62
   179
  6
Continuous
370
    -3
390
F
347
46
  0
LAYER
  5
74
330
2
100
AcDbSymbolTableRecord
100
AcDbLayerTableRecord
  2
1
 70
     0
 62
     7
  6
Continuous
370
    -3
390
F
347
46
  0
LAYER
  5
75
330
2
100
AcDbSymbolTableRecord
100
AcDbLayerTableRecord
  2
SLD-DEFPOINTS
 70
     0
 62
   179
  6
Continuous
290
     0
370
    -3
390
F
347
46
  0
LAYER
  5
76
330
2
100
AcDbSymbolTableRecord
100
AcDbLayerTableRecord
  2
TEXTO
 70
     0
 62
     8
  6
Continuous
370
    -3
390
F
347
46
  0
LAYER
  5
77
330
2
100
AcDbSymbolTableRecord
100
AcDbLayerTableRecord
  2
COTAS
 70
     0
 62
   250
  6
Continuous
370
    -3
390
F
347
46
  0
LAYER
  5
78
330
2
100
AcDbSymbolTableRecord
100
AcDbLayerTableRecord
  2
CAJETIN
 70
     0
 62
     9
  6
Continuous
370
    -3
390
F
347
46
  0
LAYER
  5
79
330
2
100
AcDbSymbolTableRecord
100
AcDbLayerTableRecord
  2
PIEZA
 70
     0
 62
   255
  6
Continuous
370
    -3
390
F
347
46
  0
LAYER
  5
7A
330
2
100
AcDbSymbolTableRecord
100
AcDbLayerTableRecord
  2
TOP
 70
     0
 62
     7
  6
Continuous
370
    -3
390
F
347
46
  0
ENDTAB
  0
TABLE
  2
STYLE
  5
3
330
0
100
AcDbSymbolTable
 70
     3
  0
STYLE
  5
11
330
3
100
AcDbSymbolTableRecord
100
AcDbTextStyleTableRecord
  2
STANDARD
 70
     0
 40
0.0
 41
1.0
 50
0.0
 71
     0
 42
3.5
  3
GOTHIC.TTF
  4

1001
ACAD
1000
CENTURY GOTHIC
1071
       34
  0
STYLE
  5
2A6
330
3
100
AcDbSymbolTableRecord
100
AcDbTextStyleTableRecord
  2
SLDTEXTSTYLE0
 70
     0
 40
0.0
 41
1.0
 50
0.0
 71
     0
 42
3.5
  3
ARIAL.TTF
  4

1001
ACAD
1000
ARIAL
1071
      290
  0
STYLE
  5
2B1
330
3
100
AcDbSymbolTableRecord
100
AcDbTextStyleTableRecord
  2
SLDTEXTSTYLE1
 70
     0
 40
0.0
 41
0.948
 50
0.0
 71
     0
 42
3.5
  3
ARIAL.TTF
  4

1001
ACAD
1000
ARIAL
1071
      290
  0
ENDTAB
  0
TABLE
  2
VIEW
  5
6
330
0
100
AcDbSymbolTable
 70
     0
  0
ENDTAB
  0
TABLE
  2
UCS
  5
7
330
0
100
AcDbSymbolTable
 70
     0
  0
ENDTAB
  0
TABLE
  2
APPID
  5
9
330
0
100
AcDbSymbolTable
 70
     2
  0
APPID
  5
12
330
9
100
AcDbSymbolTableRecord
100
AcDbRegAppTableRecord
  2
ACAD
 70
     0
  0
APPID
  5
2E6
330
9
100
AcDbSymbolTableRecord
100
AcDbRegAppTableRecord
  2
ACAD_MLEADERVER
 70
     0
  0
ENDTAB
  0
TABLE
  2
DIMSTYLE
  5
A
330
0
100
AcDbSymbolTable
 70
     2
100
AcDbDimStyleTable
  0
DIMSTYLE
105
27
330
A
100
AcDbSymbolTableRecord
100
AcDbDimStyleTableRecord
  2
ISO-25
 70
     0
 41
2.5
 42
0.625
 43
3.75
 44
1.25
 73
     0
 74
     0
 77
     1
 78
     8
140
2.5
141
2.5
143
0.0393700787
147
0.625
171
     3
172
     1
178
     0
271
     2
272
     2
274
     3
278
    44
283
     0
284
     8
340
11
  0
DIMSTYLE
105
2A7
102
{ACAD_REACTORS
330
2A5
330
2B5
330
2BF
330
2C9
102
}
330
A
100
AcDbSymbolTableRecord
100
AcDbDimStyleTableRecord
  2
SLDDIMSTYLE0
 70
     0
 41
3.302
 44
0.0
 45
0.000000001
 73
     0
 74
     0
 77
     1
 78
    12
 79
     3
140
8.0
147
2.0
173
     1
178
     0
271
     0
272
     0
276
     2
284
    12
340
2A6
341
2A8
343
2A8
344
2A8
  0
ENDTAB
  0
TABLE
  2
BLOCK_RECORD
  5
1
330
0
100
AcDbSymbolTable
 70
     9
  0
BLOCK_RECORD
  5
1F
330
1
100
AcDbSymbolTableRecord
100
AcDbBlockTableRecord
  2
*Model_Space
340
22
 70
     0
280
     1
281
     0
  0
BLOCK_RECORD
  5
1B
330
1
100
AcDbSymbolTableRecord
100
AcDbBlockTableRecord
  2
*Paper_Space
340
1E
 70
     0
280
     1
281
     0
  0
BLOCK_RECORD
  5
23
330
1
100
AcDbSymbolTableRecord
100
AcDbBlockTableRecord
  2
*Paper_Space0
340
26
 70
     0
280
     1
281
     0
  0
BLOCK_RECORD
  5
7B
330
1
100
AcDbSymbolTableRecord
100
AcDbBlockTableRecord
  2
EMPOT RECTANG
340
0
102
{BLKREFS
331
29F
102
}
 70
     0
280
     1
281
     0
  0
BLOCK_RECORD
  5
2A8
330
1
100
AcDbSymbolTableRecord
100
AcDbBlockTableRecord
  2
_NONE
340
0
 70
     0
280
     1
281
     0
  0
BLOCK_RECORD
  5
2AB
330
1
100
AcDbSymbolTableRecord
100
AcDbBlockTableRecord
  2
_D
340
0
 70
     0
280
     1
281
     0
  0
BLOCK_RECORD
  5
2B6
330
1
100
AcDbSymbolTableRecord
100
AcDbBlockTableRecord
  2
_D_1
340
0
 70
     0
280
     1
281
     0
  0
BLOCK_RECORD
  5
2C0
330
1
100
AcDbSymbolTableRecord
100
AcDbBlockTableRecord
  2
_D_2
340
0
 70
     0
280
     1
281
     0
  0
BLOCK_RECORD
  5
2CA
330
1
100
AcDbSymbolTableRecord
100
AcDbBlockTableRecord
  2
_D_3
340
0
 70
     0
280
     1
281
     0
  0
BLOCK_RECORD
  5
2D4
330
1
100
AcDbSymbolTableRecord
100
AcDbBlockTableRecord
  2
SW_NOTE_0
340
0
102
{BLKREFS
331
2D9
102
}
 70
     0
280
     1
281
     0
  0
BLOCK_RECORD
  5
2DA
330
1
100
AcDbSymbolTableRecord
100
AcDbBlockTableRecord
  2
SW_NOTE_1
340
0
102
{BLKREFS
331
2DF
102
}
 70
     0
280
     1
281
     0
  0
ENDTAB
  0
ENDSEC
  0
SECTION
  2
BLOCKS
  0
BLOCK
  5
20
330
1F
100
AcDbEntity
  8
0
100
AcDbBlockBegin
  2
*Model_Space
 70
     0
 10
0.0
 20
0.0
 30
0.0
  3
*Model_Space
  1

  0
ENDBLK
  5
21
330
1F
100
AcDbEntity
  8
0
100
AcDbBlockEnd
  0
BLOCK
  5
1C
330
1B
100
AcDbEntity
 67
     1
  8
0
100
AcDbBlockBegin
  2
*Paper_Space
 70
     0
 10
0.0
 20
0.0
 30
0.0
  3
*Paper_Space
  1

  0
ENDBLK
  5
1D
330
1B
100
AcDbEntity
 67
     1
  8
0
100
AcDbBlockEnd
  0
BLOCK
  5
24
330
23
100
AcDbEntity
  8
0
100
AcDbBlockBegin
  2
*Paper_Space0
 70
     0
 10
0.0
 20
0.0
 30
0.0
  3
*Paper_Space0
  1

  0
ENDBLK
  5
25
330
23
100
AcDbEntity
  8
0
100
AcDbBlockEnd
  0
BLOCK
  5
7C
330
7B
100
AcDbEntity
  8
0
100
AcDbBlockBegin
  2
EMPOT RECTANG
 70
     0
 10
0.0
 20
0.0
 30
0.0
  3
EMPOT RECTANG
  1

  0
LINE
  5
7E
330
7B
100
AcDbEntity
  8
TEXTO
370
    25
100
AcDbLine
 10
89.3656234538
 20
2.7686644334
 30
0.0
 11
89.3521857224
 21
10.0346977775
 31
0.0
  0
LINE
  5
7F
330
7B
100
AcDbEntity
  8
TEXTO
370
    25
100
AcDbLine
 10
89.3521857224
 20
10.0346977775
 30
0.0
 11
90.5716598501
 21
11.1500294866
 31
0.0
  0
LINE
  5
80
330
7B
100
AcDbEntity
  8
TEXTO
370
    25
100
AcDbLine
 10
90.5716598501
 20
11.1500294866
 30
0.0
 11
91.7911339777
 21
9.9305553589
 31
0.0
  0
LINE
  5
81
330
7B
100
AcDbEntity
  8
TEXTO
370
    25
100
AcDbLine
 10
91.7911339777
 20
9.9305553589
 30
0.0
 11
90.9361583152
 21
8.7127609476
 31
0.0
  0
LINE
  5
82
330
7B
100
AcDbEntity
  8
TEXTO
370
    25
100
AcDbLine
 10
90.9361583152
 20
8.7127609476
 30
0.0
 11
91.7911339777
 21
7.4932868199
 31
0.0
  0
LINE
  5
83
330
7B
100
AcDbEntity
  8
TEXTO
370
    25
100
AcDbLine
 10
91.7911339777
 20
7.4932868199
 30
0.0
 11
90.9361583152
 21
6.2754924087
 31
0.0
  0
LINE
  5
84
330
7B
100
AcDbEntity
  8
TEXTO
370
    25
100
AcDbLine
 10
90.9361583152
 20
6.2754924087
 30
0.0
 11
91.7911339777
 21
5.056018281
 31
0.0
  0
LINE
  5
85
330
7B
100
AcDbEntity
  8
TEXTO
370
    25
100
AcDbLine
 10
91.7911339777
 20
5.056018281
 30
0.0
 11
90.9361583152
 21
3.8386437988
 31
0.0
  0
LINE
  5
86
330
7B
100
AcDbEntity
  8
TEXTO
370
    25
100
AcDbLine
 10
90.9361583152
 20
3.8386437988
 30
0.0
 11
91.7037887234
 21
2.7434686869
 31
0.0
  0
LINE
  5
87
330
7B
100
AcDbEntity
  8
TEXTO
100
AcDbLine
 10
91.6861285146
 20
2.7686644334
 30
0.0
 11
95.5200958135
 21
2.7686644334
 31
0.0
  0
LINE
  5
88
330
7B
100
AcDbEntity
  8
TEXTO
100
AcDbLine
 10
95.5200958135
 20
2.7686644334
 30
0.0
 11
95.5200958135
 21
12.7686644334
 31
0.0
  0
LINE
  5
89
330
7B
100
AcDbEntity
  8
TEXTO
100
AcDbLine
 10
95.5200958135
 20
12.7686644334
 30
0.0
 11
85.5200958135
 21
12.7686644334
 31
0.0
  0
LINE
  5
8A
330
7B
100
AcDbEntity
  8
TEXTO
100
AcDbLine
 10
85.5200958135
 20
12.7686644334
 30
0.0
 11
85.5200958135
 21
2.7686644334
 31
0.0
  0
LINE
  5
8B
330
7B
100
AcDbEntity
  8
TEXTO
100
AcDbLine
 10
89.3656234538
 20
2.7686644334
 30
0.0
 11
85.5200958135
 21
2.7686644334
 31
0.0
  0
ENDBLK
  5
7D
330
7B
100
AcDbEntity
  8
0
100
AcDbBlockEnd
  0
BLOCK
  5
2A9
330
2A8
100
AcDbEntity
  8
0
100
AcDbBlockBegin
  2
_NONE
 70
     0
 10
0.0
 20
0.0
 30
0.0
  3
_NONE
  1

  0
ENDBLK
  5
2AA
330
2A8
100
AcDbEntity
  8
0
100
AcDbBlockEnd
  0
BLOCK
  5
2AC
330
2AB
100
AcDbEntity
  8
0
100
AcDbBlockBegin
  2
_D
 70
     0
 10
0.0
 20
0.0
 30
0.0
  3
_D
  1

  0
LINE
  5
2AE
330
2AB
100
AcDbEntity
  8
COTAS
100
AcDbLine
 10
593.3835300491
 20
126.2709075341
 30
0.0
 11
618.2743282297
 21
126.2709075341
 31
0.0
  0
LINE
  5
2AF
330
2AB
100
AcDbEntity
  8
COTAS
100
AcDbLine
 10
593.3835300491
 20
288.2709075341
 30
0.0
 11
618.2743282297
 21
288.2709075341
 31
0.0
  0
LINE
  5
2B0
330
2AB
100
AcDbEntity
  8
COTAS
100
AcDbLine
 10
617.0243282297
 20
132.2709075341
 30
0.0
 11
617.0243282297
 21
282.2709075341
 31
0.0
  0
MTEXT
  5
2B2
330
2AB
100
AcDbEntity
  8
COTAS
100
AcDbMText
 10
607.158473136
 20
172.5525022184
 30
0.0
 40
8.0
 41
0.0
 46
0.0
 71
     1
 72
     1
  1
MIN 162 mm.
  7
SLDTEXTSTYLE1
 11
6.123233995736766E-17
 21
1.0
 31
0.0
 73
     1
 44
1.0
  0
SOLID
  5
2B3
330
2AB
100
AcDbEntity
  8
COTAS
100
AcDbTrace
 10
616.0243282297
 20
132.2709075341
 30
0.0
 11
618.0243282297
 21
132.2709075341
 31
0.0
 12
617.0243282297
 22
126.2709075341
 32
0.0
 13
617.0243282297
 23
126.2709075341
 33
0.0
  0
SOLID
  5
2B4
330
2AB
100
AcDbEntity
  8
COTAS
100
AcDbTrace
 10
616.0243282297
 20
282.2709075341
 30
0.0
 11
618.0243282297
 21
282.2709075341
 31
0.0
 12
617.0243282297
 22
288.2709075341
 32
0.0
 13
617.0243282297
 23
288.2709075341
 33
0.0
  0
ENDBLK
  5
2AD
330
2AB
100
AcDbEntity
  8
0
100
AcDbBlockEnd
  0
BLOCK
  5
2B7
330
2B6
100
AcDbEntity
  8
0
100
AcDbBlockBegin
  2
_D_1
 70
     0
 10
0.0
 20
0.0
 30
0.0
  3
_D_1
  1

  0
LINE
  5
2B9
330
2B6
100
AcDbEntity
  8
COTAS
100
AcDbLine
 10
122.1335300491
 20
126.2709075341
 30
0.0
 11
110.0427744591
 21
126.2709075341
 31
0.0
  0
LINE
  5
2BA
330
2B6
100
AcDbEntity
  8
COTAS
100
AcDbLine
 10
316.2482001195
 20
268.4209025532
 30
0.0
 11
110.0427744591
 21
268.4209025532
 31
0.0
  0
LINE
  5
2BB
330
2B6
100
AcDbEntity
  8
COTAS
100
AcDbLine
 10
111.2927744591
 20
132.2709075341
 30
0.0
 11
111.2927744591
 21
262.4209025532
 31
0.0
  0
MTEXT
  5
2BC
330
2B6
100
AcDbEntity
  8
COTAS
100
AcDbMText
 10
101.4951321894
 20
187.6965694954
 30
0.0
 40
8.0
 41
0.0
 46
0.0
 71
     1
 72
     1
  1
142
  7
SLDTEXTSTYLE1
 11
6.123233995736766E-17
 21
1.0
 31
0.0
 73
     1
 44
1.0
  0
SOLID
  5
2BD
330
2B6
100
AcDbEntity
  8
COTAS
100
AcDbTrace
 10
110.2927744591
 20
132.2709075341
 30
0.0
 11
112.2927744591
 21
132.2709075341
 31
0.0
 12
111.2927744591
 22
126.2709075341
 32
0.0
 13
111.2927744591
 23
126.2709075341
 33
0.0
  0
SOLID
  5
2BE
330
2B6
100
AcDbEntity
  8
COTAS
100
AcDbTrace
 10
110.2927744591
 20
262.4209025532
 30
0.0
 11
112.2927744591
 21
262.4209025532
 31
0.0
 12
111.2927744591
 22
268.4209025532
 32
0.0
 13
111.2927744591
 23
268.4209025532
 33
0.0
  0
ENDBLK
  5
2B8
330
2B6
100
AcDbEntity
  8
0
100
AcDbBlockEnd
  0
BLOCK
  5
2C1
330
2C0
100
AcDbEntity
  8
0
100
AcDbBlockBegin
  2
_D_2
 70
     0
 10
0.0
 20
0.0
 30
0.0
  3
_D_2
  1

  0
LINE
  5
2C3
330
2C0
100
AcDbEntity
  8
COTAS
100
AcDbLine
 10
264.8335300491
 20
407.7619395563
 30
0.0
 11
238.5645885907
 21
407.7619395563
 31
0.0
  0
LINE
  5
2C4
330
2C0
100
AcDbEntity
  8
COTAS
100
AcDbLine
 10
264.8335300491
 20
747.5619395563
 30
0.0
 11
238.5645885907
 21
747.5619395563
 31
0.0
  0
LINE
  5
2C5
330
2C0
100
AcDbEntity
  8
COTAS
100
AcDbLine
 10
239.8145885907
 20
413.7619395563
 30
0.0
 11
239.8145885907
 21
741.5619395563
 31
0.0
  0
MTEXT
  5
2C6
330
2C0
100
AcDbEntity
  8
COTAS
100
AcDbMText
 10
229.9460049841
 20
568.0126040081
 30
0.0
 40
8.0
 41
0.0
 46
0.0
 71
     1
 72
     1
  1
340
  7
SLDTEXTSTYLE1
 11
6.123233995736766E-17
 21
1.0
 31
0.0
 73
     1
 44
1.0
  0
SOLID
  5
2C7
330
2C0
100
AcDbEntity
  8
COTAS
100
AcDbTrace
 10
238.8145885907
 20
413.7619395563
 30
0.0
 11
240.8145885907
 21
413.7619395563
 31
0.0
 12
239.8145885907
 22
407.7619395563
 32
0.0
 13
239.8145885907
 23
407.7619395563
 33
0.0
  0
SOLID
  5
2C8
330
2C0
100
AcDbEntity
  8
COTAS
100
AcDbTrace
 10
238.8145885907
 20
741.5619395563
 30
0.0
 11
240.8145885907
 21
741.5619395563
 31
0.0
 12
239.8145885907
 22
747.5619395563
 32
0.0
 13
239.8145885907
 23
747.5619395563
 33
0.0
  0
ENDBLK
  5
2C2
330
2C0
100
AcDbEntity
  8
0
100
AcDbBlockEnd
  0
BLOCK
  5
2CB
330
2CA
100
AcDbEntity
  8
0
100
AcDbBlockBegin
  2
_D_3
 70
     0
 10
0.0
 20
0.0
 30
0.0
  3
_D_3
  1

  0
LINE
  5
2CD
330
2CA
100
AcDbEntity
  8
COTAS
100
AcDbLine
 10
265.2585300491
 20
747.9869395563
 30
0.0
 11
265.2585300491
 21
768.1802215981
 31
0.0
  0
LINE
  5
2CE
330
2CA
100
AcDbEntity
  8
COTAS
100
AcDbLine
 10
450.2585300491
 20
747.9869395563
 30
0.0
 11
450.2585300491
 21
768.1802215981
 31
0.0
  0
LINE
  5
2CF
330
2CA
100
AcDbEntity
  8
COTAS
100
AcDbLine
 10
271.2585300491
 20
766.9302215981
 30
0.0
 11
444.2585300491
 21
766.9302215981
 31
0.0
  0
MTEXT
  5
2D0
330
2CA
100
AcDbEntity
  8
COTAS
100
AcDbMText
 10
348.1091945009
 20
776.7960766918
 30
0.0
 40
8.0
 41
0.0
 46
0.0
 71
     1
 72
     1
  1
185
  7
SLDTEXTSTYLE1
 73
     1
 44
1.0
  0
SOLID
  5
2D1
330
2CA
100
AcDbEntity
  8
COTAS
100
AcDbTrace
 10
271.2585300491
 20
767.9302215981
 30
0.0
 11
271.2585300491
 21
765.9302215981
 31
0.0
 12
265.2585300491
 22
766.9302215981
 32
0.0
 13
265.2585300491
 23
766.9302215981
 33
0.0
  0
SOLID
  5
2D2
330
2CA
100
AcDbEntity
  8
COTAS
100
AcDbTrace
 10
444.2585300491
 20
767.9302215981
 30
0.0
 11
444.2585300491
 21
765.9302215981
 31
0.0
 12
450.2585300491
 22
766.9302215981
 32
0.0
 13
450.2585300491
 23
766.9302215981
 33
0.0
  0
ENDBLK
  5
2CC
330
2CA
100
AcDbEntity
  8
0
100
AcDbBlockEnd
  0
BLOCK
  5
2D5
330
2D4
100
AcDbEntity
  8
0
100
AcDbBlockBegin
  2
SW_NOTE_0
 70
     0
 10
0.0
 20
0.0
 30
0.0
  3
SW_NOTE_0
  1

  0
MTEXT
  5
2D7
330
2D4
100
AcDbEntity
  8
TEXTO
 62
     0
100
AcDbMText
 10
0.0
 20
4.5117370892
 30
0.0
 40
3.5
 41
0.0
 46
0.0
 71
     1
 72
     1
  1
Escala 1/1
  7
SLDTEXTSTYLE0
 73
     1
 44
1.0
  0
MTEXT
  5
2D8
330
2D4
100
AcDbEntity
  8
TEXTO
 62
     0
100
AcDbMText
 10
0.0
 20
-1.2982629132
 30
0.0
 40
3.5
 41
0.0
 46
0.0
 71
     1
 72
     1
  1
Scale 1/1
  7
SLDTEXTSTYLE0
 73
     1
 44
1.0
  0
ENDBLK
  5
2D6
330
2D4
100
AcDbEntity
  8
0
100
AcDbBlockEnd
  0
BLOCK
  5
2DB
330
2DA
100
AcDbEntity
  8
0
100
AcDbBlockBegin
  2
SW_NOTE_1
 70
     0
 10
0.0
 20
0.0
 30
0.0
  3
SW_NOTE_1
  1

  0
MTEXT
  5
2DD
330
2DA
100
AcDbEntity
  8
TEXTO
 62
     0
100
AcDbMText
 10
0.0
 20
4.5117370892
 30
0.0
 40
3.5
 41
0.0
 46
0.0
 71
     1
 72
     1
  1
Unidades: mm.
  7
SLDTEXTSTYLE0
 73
     1
 44
1.0
  0
MTEXT
  5
2DE
330
2DA
100
AcDbEntity
  8
TEXTO
 62
     0
100
AcDbMText
 10
0.0
 20
-1.2982629132
 30
0.0
 40
3.5
 41
0.0
 46
0.0
 71
     1
 72
     1
  1
Units: mm.
  7
SLDTEXTSTYLE0
 73
     1
 44
1.0
  0
ENDBLK
  5
2DC
330
2DA
100
AcDbEntity
  8
0
100
AcDbBlockEnd
  0
ENDSEC
  0
SECTION
  2
ENTITIES
  0
LINE
  5
8C
330
1F
100
AcDbEntity
  8
COTAS
100
AcDbLine
 10
592.7585300491
 20
313.2709075341
 30
0.0
 11
122.7585300491
 21
313.2709075341
 31
0.0
  0
LINE
  5
8D
330
1F
100
AcDbEntity
  8
COTAS
100
AcDbLine
 10
122.7585300491
 20
313.2709075341
 30
0.0
 11
122.7585300491
 21
288.2709075341
 31
0.0
  0
LINE
  5
8E
330
1F
100
AcDbEntity
  8
COTAS
100
AcDbLine
 10
122.7585300491
 20
288.2709075341
 30
0.0
 11
592.7585300491
 21
288.2709075341
 31
0.0
  0
LINE
  5
8F
330
1F
100
AcDbEntity
  8
COTAS
100
AcDbLine
 10
592.7585300491
 20
288.2709075341
 30
0.0
 11
592.7585300491
 21
313.2709075341
 31
0.0
  0
LINE
  5
90
330
1F
100
AcDbEntity
  8
COTAS
100
AcDbLine
 10
272.7585300491
 20
151.2709075341
 30
0.0
 11
228.5623777341
 21
151.2709075341
 31
0.0
  0
LINE
  5
91
330
1F
100
AcDbEntity
  8
COTAS
100
AcDbLine
 10
226.0777192725
 20
151.2709075341
 30
0.0
 11
122.7585300491
 21
151.2709075341
 31
0.0
  0
LINE
  5
92
330
1F
100
AcDbEntity
  8
COTAS
100
AcDbLine
 10
122.7585300491
 20
151.2709075341
 30
0.0
 11
122.7585300491
 21
126.2709075341
 31
0.0
  0
LINE
  5
93
330
1F
100
AcDbEntity
  8
COTAS
100
AcDbLine
 10
122.7585300491
 20
126.2709075341
 30
0.0
 11
272.7585300491
 21
126.2709075341
 31
0.0
  0
LINE
  5
94
330
1F
100
AcDbEntity
  8
COTAS
100
AcDbLine
 10
272.7585300491
 20
126.2709075341
 30
0.0
 11
272.7585300491
 21
151.2709075341
 31
0.0
  0
LINE
  5
95
330
1F
100
AcDbEntity
  8
COTAS
100
AcDbLine
 10
592.7585300491
 20
151.2709075341
 30
0.0
 11
489.4393408257
 21
151.2709075341
 31
0.0
  0
LINE
  5
96
330
1F
100
AcDbEntity
  8
COTAS
100
AcDbLine
 10
486.9546823641
 20
151.2709075341
 30
0.0
 11
442.7585300491
 21
151.2709075341
 31
0.0
  0
LINE
  5
97
330
1F
100
AcDbEntity
  8
COTAS
100
AcDbLine
 10
442.7585300491
 20
151.2709075341
 30
0.0
 11
442.7585300491
 21
126.2709075341
 31
0.0
  0
LINE
  5
98
330
1F
100
AcDbEntity
  8
COTAS
100
AcDbLine
 10
442.7585300491
 20
126.2709075341
 30
0.0
 11
592.7585300491
 21
126.2709075341
 31
0.0
  0
LINE
  5
99
330
1F
100
AcDbEntity
  8
COTAS
100
AcDbLine
 10
592.7585300491
 20
126.2709075341
 30
0.0
 11
592.7585300491
 21
151.2709075341
 31
0.0
  0
LINE
  5
9A
330
1F
100
AcDbEntity
  8
CAJETIN
100
AcDbLine
 10
30.0
 20
25.0
 30
0.0
 11
669.7475546879
 21
25.0
 31
0.0
  0
LINE
  5
9B
330
1F
100
AcDbEntity
  8
CAJETIN
100
AcDbLine
 10
380.6466466867
 20
39.9999996349
 30
0.0
 11
669.7475546879
 21
39.9999996349
 31
0.0
  0
LINE
  5
9C
330
1F
100
AcDbEntity
  8
CAJETIN
100
AcDbLine
 10
380.6466466867
 20
54.9999994568
 30
0.0
 11
669.747557053
 21
54.9999994568
 31
0.0
  0
LINE
  5
9D
330
1F
100
AcDbEntity
  8
CAJETIN
100
AcDbLine
 10
30.0
 20
823.4263519492
 30
0.0
 11
669.7475546879
 21
823.4263519492
 31
0.0
  0
LINE
  5
9E
330
1F
100
AcDbEntity
  8
CAJETIN
100
AcDbLine
 10
380.6466466867
 20
54.9999994568
 30
0.0
 11
380.6466466867
 21
24.9999998718
 31
0.0
  0
LINE
  5
9F
330
1F
100
AcDbEntity
  8
PIEZA
370
    18
100
AcDbLine
 10
592.5592038214
 20
34.4061681821
 30
0.0
 11
596.6534172096
 21
34.4061681821
 31
0.0
  0
LINE
  5
A0
330
1F
100
AcDbEntity
  8
PIEZA
370
    18
100
AcDbLine
 10
596.6534172096
 20
34.4061681821
 30
0.0
 11
598.3000716616
 21
34.4061681821
 31
0.0
  0
LINE
  5
A1
330
1F
100
AcDbEntity
  8
PIEZA
370
    18
100
AcDbLine
 10
600.6586501823
 20
30.0451588874
 30
0.0
 11
600.6586501823
 21
28.3095078709
 31
0.0
  0
LINE
  5
A2
330
1F
100
AcDbEntity
  8
PIEZA
370
    18
100
AcDbLine
 10
600.6586501823
 20
28.3095078709
 30
0.0
 11
599.5015172069
 21
28.3095078709
 31
0.0
  0
LINE
  5
A3
330
1F
100
AcDbEntity
  8
PIEZA
370
    18
100
AcDbLine
 10
599.5015172069
 20
28.3095078709
 30
0.0
 11
599.5015172069
 21
29.7780884496
 31
0.0
  0
LINE
  5
A4
330
1F
100
AcDbEntity
  8
PIEZA
370
    18
100
AcDbLine
 10
598.2110105016
 20
30.6680863917
 30
0.0
 11
596.6534172096
 21
30.6680863917
 31
0.0
  0
LINE
  5
A5
330
1F
100
AcDbEntity
  8
PIEZA
370
    18
100
AcDbLine
 10
596.6534172096
 20
30.6680863917
 30
0.0
 11
593.7162560523
 21
30.6680863917
 31
0.0
  0
LINE
  5
A6
330
1F
100
AcDbEntity
  8
PIEZA
370
    18
100
AcDbLine
 10
593.7162560523
 20
30.6680863917
 30
0.0
 11
593.7162560523
 21
28.309507871
 31
0.0
  0
LINE
  5
A7
330
1F
100
AcDbEntity
  8
PIEZA
370
    18
100
AcDbLine
 10
593.7162560523
 20
28.309507871
 30
0.0
 11
592.5592038214
 21
28.309507871
 31
0.0
  0
LINE
  5
A8
330
1F
100
AcDbEntity
  8
PIEZA
370
    18
100
AcDbLine
 10
592.5592038214
 20
28.309507871
 30
0.0
 11
592.5592038214
 21
34.4061681821
 31
0.0
  0
LINE
  5
A9
330
1F
100
AcDbEntity
  8
PIEZA
370
    18
100
AcDbLine
 10
596.6534172097
 20
33.5162025379
 30
0.0
 11
593.7162560523
 21
33.5162025379
 31
0.0
  0
LINE
  5
AA
330
1F
100
AcDbEntity
  8
PIEZA
370
    18
100
AcDbLine
 10
593.7162560523
 20
33.5162025379
 30
0.0
 11
593.7162560523
 21
31.5580843338
 31
0.0
  0
LINE
  5
AB
330
1F
100
AcDbEntity
  8
PIEZA
370
    18
100
AcDbLine
 10
593.7162560523
 20
31.5580843338
 30
0.0
 11
596.6534172096
 21
31.5580843338
 31
0.0
  0
LINE
  5
AC
330
1F
100
AcDbEntity
  8
PIEZA
370
    18
100
AcDbLine
 10
596.6534172096
 20
31.5580843338
 30
0.0
 11
598.1663265071
 21
31.5580843338
 31
0.0
  0
LINE
  5
AD
330
1F
100
AcDbEntity
  8
PIEZA
370
    18
100
AcDbLine
 10
598.1220139372
 20
33.5162025379
 30
0.0
 11
596.6534172097
 21
33.5162025379
 31
0.0
  0
LINE
  5
AE
330
1F
100
AcDbEntity
  8
PIEZA
370
    18
100
AcDbLine
 10
616.1009348406
 20
34.495245491
 30
0.0
 11
617.1690228049
 21
34.495245491
 31
0.0
  0
LINE
  5
AF
330
1F
100
AcDbEntity
  8
PIEZA
370
    18
100
AcDbLine
 10
616.635108014
 20
28.2650015144
 30
0.0
 11
616.1009348407
 21
28.2650015144
 31
0.0
  0
LINE
  5
B0
330
1F
100
AcDbEntity
  8
PIEZA
370
    18
100
AcDbLine
 10
616.1009348407
 20
28.2650015144
 30
0.0
 11
615.077514722
 21
28.2650015144
 31
0.0
  0
LINE
  5
B1
330
1F
100
AcDbEntity
  8
PIEZA
370
    18
100
AcDbLine
 10
616.1009348407
 20
33.5162025379
 30
0.0
 11
614.498996681
 21
33.5162025379
 31
0.0
  0
LINE
  5
B2
330
1F
100
AcDbEntity
  8
PIEZA
370
    18
100
AcDbLine
 10
612.7633456646
 20
32.2256796837
 30
0.0
 11
612.7189684991
 21
31.3356817416
 31
0.0
  0
LINE
  5
B3
330
1F
100
AcDbEntity
  8
PIEZA
370
    18
100
AcDbLine
 10
612.7189684991
 20
31.3356817416
 30
0.0
 11
612.7189684991
 21
30.9351568295
 31
0.0
  0
LINE
  5
B4
330
1F
100
AcDbEntity
  8
PIEZA
370
    18
100
AcDbLine
 10
614.2765294932
 20
29.2440121697
 30
0.0
 11
616.0565576751
 21
29.1995058131
 31
0.0
  0
LINE
  5
B5
330
1F
100
AcDbEntity
  8
PIEZA
370
    18
100
AcDbLine
 10
616.0565576751
 20
29.1995058131
 30
0.0
 11
616.1009348406
 21
29.1995058131
 31
0.0
  0
LINE
  5
B6
330
1F
100
AcDbEntity
  8
PIEZA
370
    18
100
AcDbLine
 10
616.1009348406
 20
29.1995058131
 30
0.0
 11
616.6794851794
 21
29.1995058131
 31
0.0
  0
LINE
  5
B7
330
1F
100
AcDbEntity
  8
PIEZA
370
    18
100
AcDbLine
 10
619.4385886123
 20
30.5790090829
 30
0.0
 11
619.4385886123
 21
31.7361420582
 31
0.0
  0
LINE
  5
B8
330
1F
100
AcDbEntity
  8
PIEZA
370
    18
100
AcDbLine
 10
617.7031636805
 20
33.5162025379
 30
0.0
 11
616.1009348407
 21
33.5162025379
 31
0.0
  0
LINE
  5
B9
330
1F
100
AcDbEntity
  8
PIEZA
370
    18
100
AcDbLine
 10
587.2187640001
 20
29.5999984274
 30
0.0
 11
584.4597251628
 21
29.5999984274
 31
0.0
  0
LINE
  5
BA
330
1F
100
AcDbEntity
  8
PIEZA
370
    18
100
AcDbLine
 10
584.4597251628
 20
29.5999984274
 30
0.0
 11
583.5696787741
 21
28.309507871
 31
0.0
  0
LINE
  5
BB
330
1F
100
AcDbEntity
  8
PIEZA
370
    18
100
AcDbLine
 10
583.5696787741
 20
28.309507871
 30
0.0
 11
582.1454753609
 21
28.309507871
 31
0.0
  0
LINE
  5
BC
330
1F
100
AcDbEntity
  8
PIEZA
370
    18
100
AcDbLine
 10
582.1454753609
 20
28.309507871
 30
0.0
 11
586.5512332457
 21
34.4061681821
 31
0.0
  0
LINE
  5
BD
330
1F
100
AcDbEntity
  8
PIEZA
370
    18
100
AcDbLine
 10
586.5512332457
 20
34.4061681821
 30
0.0
 11
587.2187640001
 21
34.4061681821
 31
0.0
  0
LINE
  5
BE
330
1F
100
AcDbEntity
  8
PIEZA
370
    18
100
AcDbLine
 10
587.2187640001
 20
34.4061681821
 30
0.0
 11
587.8419983334
 21
34.4061681821
 31
0.0
  0
LINE
  5
BF
330
1F
100
AcDbEntity
  8
PIEZA
370
    18
100
AcDbLine
 10
587.8419983334
 20
34.4061681821
 30
0.0
 11
592.3367366337
 21
28.309507871
 31
0.0
  0
LINE
  5
C0
330
1F
100
AcDbEntity
  8
PIEZA
370
    18
100
AcDbLine
 10
592.3367366337
 20
28.309507871
 30
0.0
 11
590.9125332206
 21
28.309507871
 31
0.0
  0
LINE
  5
C1
330
1F
100
AcDbEntity
  8
PIEZA
370
    18
100
AcDbLine
 10
590.9125332206
 20
28.309507871
 30
0.0
 11
589.9781742619
 21
29.5999984274
 31
0.0
  0
LINE
  5
C2
330
1F
100
AcDbEntity
  8
PIEZA
370
    18
100
AcDbLine
 10
589.9781742619
 20
29.5999984274
 30
0.0
 11
587.2187640001
 21
29.5999984274
 31
0.0
  0
LINE
  5
C3
330
1F
100
AcDbEntity
  8
PIEZA
370
    18
100
AcDbLine
 10
587.2187640001
 20
33.4717930746
 30
0.0
 11
585.0826365182
 21
30.5346965129
 31
0.0
  0
LINE
  5
C4
330
1F
100
AcDbEntity
  8
PIEZA
370
    18
100
AcDbLine
 10
585.0826365182
 20
30.5346965129
 30
0.0
 11
587.2187640001
 21
30.5346965129
 31
0.0
  0
LINE
  5
C5
330
1F
100
AcDbEntity
  8
PIEZA
370
    18
100
AcDbLine
 10
587.2187640001
 20
30.5346965129
 30
0.0
 11
589.3549560775
 21
30.5346965129
 31
0.0
  0
LINE
  5
C6
330
1F
100
AcDbEntity
  8
PIEZA
370
    18
100
AcDbLine
 10
589.3549560775
 20
30.5346965129
 30
0.0
 11
587.2187640001
 21
33.4717930746
 31
0.0
  0
LINE
  5
C7
330
1F
100
AcDbEntity
  8
PIEZA
370
    18
100
AcDbLine
 10
603.551434174
 20
31.9142320804
 30
0.0
 11
604.574805846
 21
31.9142320804
 31
0.0
  0
LINE
  5
C8
330
1F
100
AcDbEntity
  8
PIEZA
370
    18
100
AcDbLine
 10
604.574805846
 20
31.9142320804
 30
0.0
 11
609.0695602952
 21
34.4061681821
 31
0.0
  0
LINE
  5
C9
330
1F
100
AcDbEntity
  8
PIEZA
370
    18
100
AcDbLine
 10
609.0695602952
 20
34.4061681821
 30
0.0
 11
610.5381408739
 21
34.4061681821
 31
0.0
  0
LINE
  5
CA
330
1F
100
AcDbEntity
  8
PIEZA
370
    18
100
AcDbLine
 10
610.5381408739
 20
34.4061681821
 30
0.0
 11
611.1613590583
 21
34.4061681821
 31
0.0
  0
LINE
  5
CB
330
1F
100
AcDbEntity
  8
PIEZA
370
    18
100
AcDbLine
 10
611.1613590583
 20
34.4061681821
 30
0.0
 11
605.8209353858
 21
31.4690716204
 31
0.0
  0
LINE
  5
CC
330
1F
100
AcDbEntity
  8
PIEZA
370
    18
100
AcDbLine
 10
605.8209353858
 20
31.4690716204
 30
0.0
 11
611.5171353803
 21
28.309507871
 31
0.0
  0
LINE
  5
CD
330
1F
100
AcDbEntity
  8
PIEZA
370
    18
100
AcDbLine
 10
611.5171353803
 20
28.309507871
 30
0.0
 11
609.2919467385
 21
28.309507871
 31
0.0
  0
LINE
  5
CE
330
1F
100
AcDbEntity
  8
PIEZA
370
    18
100
AcDbLine
 10
609.2919467385
 20
28.309507871
 30
0.0
 11
604.574805846
 21
31.0242341384
 31
0.0
  0
LINE
  5
CF
330
1F
100
AcDbEntity
  8
PIEZA
370
    18
100
AcDbLine
 10
604.574805846
 20
31.0242341384
 30
0.0
 11
603.551434174
 21
31.0242341384
 31
0.0
  0
LINE
  5
D0
330
1F
100
AcDbEntity
  8
PIEZA
370
    18
100
AcDbLine
 10
603.551434174
 20
31.0242341384
 30
0.0
 11
603.551434174
 21
28.309507871
 31
0.0
  0
LINE
  5
D1
330
1F
100
AcDbEntity
  8
PIEZA
370
    18
100
AcDbLine
 10
603.551434174
 20
28.309507871
 30
0.0
 11
602.3943011986
 21
28.309507871
 31
0.0
  0
LINE
  5
D2
330
1F
100
AcDbEntity
  8
PIEZA
370
    18
100
AcDbLine
 10
602.3943011986
 20
28.309507871
 30
0.0
 11
602.3943011986
 21
34.4061681821
 31
0.0
  0
LINE
  5
D3
330
1F
100
AcDbEntity
  8
PIEZA
370
    18
100
AcDbLine
 10
602.3943011986
 20
34.4061681821
 30
0.0
 11
603.551434174
 21
34.4061681821
 31
0.0
  0
LINE
  5
D4
330
1F
100
AcDbEntity
  8
PIEZA
370
    18
100
AcDbLine
 10
603.551434174
 20
34.4061681821
 30
0.0
 11
603.551434174
 21
31.9142320804
 31
0.0
  0
LINE
  5
D5
330
1F
100
AcDbEntity
  8
PIEZA
370
    18
100
AcDbLine
 10
629.0068739339
 20
32.4927501214
 30
0.0
 11
629.0068739339
 21
32.6708078459
 31
0.0
  0
LINE
  5
D6
330
1F
100
AcDbEntity
  8
PIEZA
370
    18
100
AcDbLine
 10
626.5145825565
 20
33.5162025379
 30
0.0
 11
626.2031349533
 21
33.5162025379
 31
0.0
  0
LINE
  5
D7
330
1F
100
AcDbEntity
  8
PIEZA
370
    18
100
AcDbLine
 10
625.357481879
 20
31.869531937
 30
0.0
 11
626.9594523365
 21
31.9142320804
 31
0.0
  0
LINE
  5
D8
330
1F
100
AcDbEntity
  8
PIEZA
370
    18
100
AcDbLine
 10
626.7370497443
 20
28.2650015144
 30
0.0
 11
626.2031349534
 21
28.2650015144
 31
0.0
  0
LINE
  5
D9
330
1F
100
AcDbEntity
  8
PIEZA
370
    18
100
AcDbLine
 10
622.2422952952
 20
30.2675614796
 30
0.0
 11
622.2422952952
 21
30.445619204
 31
0.0
  0
LINE
  5
DA
330
1F
100
AcDbEntity
  8
PIEZA
370
    18
100
AcDbLine
 10
622.2422952952
 20
30.445619204
 30
0.0
 11
623.3994282706
 21
30.445619204
 31
0.0
  0
LINE
  5
DB
330
1F
100
AcDbEntity
  8
PIEZA
370
    18
100
AcDbLine
 10
623.3994282706
 20
30.445619204
 30
0.0
 11
623.3994282706
 21
30.1785487662
 31
0.0
  0
LINE
  5
DC
330
1F
100
AcDbEntity
  8
PIEZA
370
    18
100
AcDbLine
 10
627.8051054109
 20
30.8905535794
 30
0.0
 11
626.2475121189
 21
30.9351568295
 31
0.0
  0
LINE
  5
DD
330
1F
100
AcDbEntity
  8
PIEZA
370
    18
100
AcDbLine
 10
630.1640069095
 20
32.6708078459
 30
0.0
 11
630.1640069095
 21
32.4927501214
 31
0.0
  0
LINE
  5
DE
330
1F
100
AcDbEntity
  8
PIEZA
370
    18
100
AcDbLine
 10
630.1640069095
 20
32.4927501214
 30
0.0
 11
629.0068739339
 21
32.4927501214
 31
0.0
  0
LINE
  5
DF
330
1F
100
AcDbEntity
  8
PIEZA
370
    18
100
AcDbLine
 10
659.9361756922
 20
28.309507871
 30
0.0
 11
658.3338822568
 21
28.309507871
 31
0.0
  0
LINE
  5
E0
330
1F
100
AcDbEntity
  8
PIEZA
370
    18
100
AcDbLine
 10
658.3338822568
 20
28.309507871
 30
0.0
 11
658.3338822568
 21
30.757099105
 31
0.0
  0
LINE
  5
E1
330
1F
100
AcDbEntity
  8
PIEZA
370
    18
100
AcDbLine
 10
658.3338822568
 20
30.757099105
 30
0.0
 11
656.1087259127
 21
30.757099105
 31
0.0
  0
LINE
  5
E2
330
1F
100
AcDbEntity
  8
PIEZA
370
    18
100
AcDbLine
 10
656.1087259127
 20
30.757099105
 30
0.0
 11
656.1087259127
 21
31.5580843338
 31
0.0
  0
LINE
  5
E3
330
1F
100
AcDbEntity
  8
PIEZA
370
    18
100
AcDbLine
 10
656.1087259127
 20
31.5580843338
 30
0.0
 11
662.1610736539
 21
31.5580843338
 31
0.0
  0
LINE
  5
E4
330
1F
100
AcDbEntity
  8
PIEZA
370
    18
100
AcDbLine
 10
662.1610736539
 20
31.5580843338
 30
0.0
 11
662.1610736539
 21
30.757099105
 31
0.0
  0
LINE
  5
E5
330
1F
100
AcDbEntity
  8
PIEZA
370
    18
100
AcDbLine
 10
662.1610736539
 20
30.757099105
 30
0.0
 11
659.9361756922
 21
30.757099105
 31
0.0
  0
LINE
  5
E6
330
1F
100
AcDbEntity
  8
PIEZA
370
    18
100
AcDbLine
 10
659.9361756922
 20
30.757099105
 30
0.0
 11
659.9361756922
 21
28.309507871
 31
0.0
  0
LINE
  5
E7
330
1F
100
AcDbEntity
  8
PIEZA
370
    18
100
AcDbLine
 10
650.4124936204
 20
28.309507871
 30
0.0
 11
648.810523163
 21
28.309507871
 31
0.0
  0
LINE
  5
E8
330
1F
100
AcDbEntity
  8
PIEZA
370
    18
100
AcDbLine
 10
648.810523163
 20
28.309507871
 30
0.0
 11
648.810523163
 21
31.5580843338
 31
0.0
  0
LINE
  5
E9
330
1F
100
AcDbEntity
  8
PIEZA
370
    18
100
AcDbLine
 10
648.810523163
 20
31.5580843338
 30
0.0
 11
650.4124936204
 21
31.5580843338
 31
0.0
  0
LINE
  5
EA
330
1F
100
AcDbEntity
  8
PIEZA
370
    18
100
AcDbLine
 10
650.4124936204
 20
31.5580843338
 30
0.0
 11
650.4124936204
 21
30.3566387885
 31
0.0
  0
LINE
  5
EB
330
1F
100
AcDbEntity
  8
PIEZA
370
    18
100
AcDbLine
 10
650.4124936204
 20
30.3566387885
 30
0.0
 11
653.750147392
 21
30.3566387885
 31
0.0
  0
LINE
  5
EC
330
1F
100
AcDbEntity
  8
PIEZA
370
    18
100
AcDbLine
 10
653.750147392
 20
30.3566387885
 30
0.0
 11
653.750147392
 21
31.5580843338
 31
0.0
  0
LINE
  5
ED
330
1F
100
AcDbEntity
  8
PIEZA
370
    18
100
AcDbLine
 10
653.750147392
 20
31.5580843338
 30
0.0
 11
655.3524085296
 21
31.5580843338
 31
0.0
  0
LINE
  5
EE
330
1F
100
AcDbEntity
  8
PIEZA
370
    18
100
AcDbLine
 10
655.3524085296
 20
31.5580843338
 30
0.0
 11
655.3524085296
 21
28.309507871
 31
0.0
  0
LINE
  5
EF
330
1F
100
AcDbEntity
  8
PIEZA
370
    18
100
AcDbLine
 10
655.3524085296
 20
28.309507871
 30
0.0
 11
653.750147392
 21
28.309507871
 31
0.0
  0
LINE
  5
F0
330
1F
100
AcDbEntity
  8
PIEZA
370
    18
100
AcDbLine
 10
653.750147392
 20
28.309507871
 30
0.0
 11
653.750147392
 21
29.5999984274
 31
0.0
  0
LINE
  5
F1
330
1F
100
AcDbEntity
  8
PIEZA
370
    18
100
AcDbLine
 10
653.750147392
 20
29.5999984274
 30
0.0
 11
650.4124936204
 21
29.5999984274
 31
0.0
  0
LINE
  5
F2
330
1F
100
AcDbEntity
  8
PIEZA
370
    18
100
AcDbLine
 10
650.4124936204
 20
29.5999984274
 30
0.0
 11
650.4124936204
 21
28.309507871
 31
0.0
  0
LINE
  5
F3
330
1F
100
AcDbEntity
  8
PIEZA
370
    18
100
AcDbLine
 10
646.1402063589
 20
30.5346965129
 30
0.0
 11
646.1402063589
 21
30.5790090828
 31
0.0
  0
LINE
  5
F4
330
1F
100
AcDbEntity
  8
PIEZA
370
    18
100
AcDbLine
 10
644.8940283724
 20
30.8014762705
 30
0.0
 11
643.9596532649
 21
30.8014762705
 31
0.0
  0
LINE
  5
F5
330
1F
100
AcDbEntity
  8
PIEZA
370
    18
100
AcDbLine
 10
642.6688397305
 20
30.1341716007
 30
0.0
 11
642.6688397305
 21
29.6890111408
 31
0.0
  0
LINE
  5
F6
330
1F
100
AcDbEntity
  8
PIEZA
370
    18
100
AcDbLine
 10
643.9596532649
 20
29.0659867432
 30
0.0
 11
644.8940283724
 21
29.0659867432
 31
0.0
  0
LINE
  5
F7
330
1F
100
AcDbEntity
  8
PIEZA
370
    18
100
AcDbLine
 10
646.1402063589
 20
29.5999984275
 30
0.0
 11
644.2267882982
 21
29.5999984275
 31
0.0
  0
LINE
  5
F8
330
1F
100
AcDbEntity
  8
PIEZA
370
    18
100
AcDbLine
 10
644.2267882982
 20
29.5999984275
 30
0.0
 11
644.2267882982
 21
30.0451588875
 31
0.0
  0
LINE
  5
F9
330
1F
100
AcDbEntity
  8
PIEZA
370
    18
100
AcDbLine
 10
644.2267882982
 20
30.0451588875
 30
0.0
 11
647.8314802098
 21
30.0451588875
 31
0.0
  0
LINE
  5
FA
330
1F
100
AcDbEntity
  8
PIEZA
370
    18
100
AcDbLine
 10
647.8314802098
 20
30.0451588875
 30
0.0
 11
647.8314802098
 21
29.1104930997
 31
0.0
  0
LINE
  5
FB
330
1F
100
AcDbEntity
  8
PIEZA
370
    18
100
AcDbLine
 10
645.3392211302
 20
28.2650015143
 30
0.0
 11
643.5144928049
 21
28.2650015143
 31
0.0
  0
LINE
  5
FC
330
1F
100
AcDbEntity
  8
PIEZA
370
    18
100
AcDbLine
 10
641.0225567032
 20
29.4665762508
 30
0.0
 11
641.0225567032
 21
30.3566387885
 31
0.0
  0
LINE
  5
FD
330
1F
100
AcDbEntity
  8
PIEZA
370
    18
100
AcDbLine
 10
643.5144928049
 20
31.6027521794
 30
0.0
 11
645.3392211302
 21
31.6027521794
 31
0.0
  0
LINE
  5
FE
330
1F
100
AcDbEntity
  8
PIEZA
370
    18
100
AcDbLine
 10
647.7421768164
 20
30.5346965129
 30
0.0
 11
646.1402063589
 21
30.5346965129
 31
0.0
  0
LINE
  5
FF
330
1F
100
AcDbEntity
  8
PIEZA
370
    18
100
AcDbLine
 10
639.9544364411
 20
28.309507871
 30
0.0
 11
638.3522076013
 21
28.309507871
 31
0.0
  0
LINE
  5
100
330
1F
100
AcDbEntity
  8
PIEZA
370
    18
100
AcDbLine
 10
638.3522076013
 20
28.309507871
 30
0.0
 11
638.3522076013
 21
31.5580843338
 31
0.0
  0
LINE
  5
101
330
1F
100
AcDbEntity
  8
PIEZA
370
    18
100
AcDbLine
 10
638.3522076013
 20
31.5580843338
 30
0.0
 11
639.9544364411
 21
31.5580843338
 31
0.0
  0
LINE
  5
102
330
1F
100
AcDbEntity
  8
PIEZA
370
    18
100
AcDbLine
 10
639.9544364411
 20
31.5580843338
 30
0.0
 11
639.9544364411
 21
28.309507871
 31
0.0
  0
LINE
  5
103
330
1F
100
AcDbEntity
  8
PIEZA
370
    18
100
AcDbLine
 10
634.0801464244
 20
29.1104930998
 30
0.0
 11
637.6402350859
 21
29.1104930998
 31
0.0
  0
LINE
  5
104
330
1F
100
AcDbEntity
  8
PIEZA
370
    18
100
AcDbLine
 10
637.6402350859
 20
29.1104930998
 30
0.0
 11
637.6402350859
 21
28.309507871
 31
0.0
  0
LINE
  5
105
330
1F
100
AcDbEntity
  8
PIEZA
370
    18
100
AcDbLine
 10
637.6402350859
 20
28.309507871
 30
0.0
 11
632.4779498824
 21
28.309507871
 31
0.0
  0
LINE
  5
106
330
1F
100
AcDbEntity
  8
PIEZA
370
    18
100
AcDbLine
 10
632.4779498824
 20
28.309507871
 30
0.0
 11
632.4779498824
 21
31.5580843338
 31
0.0
  0
LINE
  5
107
330
1F
100
AcDbEntity
  8
PIEZA
370
    18
100
AcDbLine
 10
632.4779498824
 20
31.5580843338
 30
0.0
 11
634.0801464244
 21
31.5580843338
 31
0.0
  0
LINE
  5
108
330
1F
100
AcDbEntity
  8
PIEZA
370
    18
100
AcDbLine
 10
634.0801464244
 20
31.5580843338
 30
0.0
 11
634.0801464244
 21
29.1104930998
 31
0.0
  0
LINE
  5
109
330
1F
100
AcDbEntity
  8
PIEZA
370
    18
100
AcDbLine
 10
662.6214463737
 20
33.9397880732
 30
0.0
 11
662.6214463737
 21
35.403685472
 31
0.0
  0
LINE
  5
10A
330
1F
100
AcDbEntity
  8
PIEZA
370
    18
100
AcDbLine
 10
662.6214463737
 20
35.403685472
 30
0.0
 11
663.2439540067
 21
35.403685472
 31
0.0
  0
LINE
  5
10B
330
1F
100
AcDbEntity
  8
PIEZA
370
    18
100
AcDbLine
 10
663.7594267587
 20
34.2253974432
 30
0.0
 11
663.9380981412
 21
33.9397880732
 31
0.0
  0
LINE
  5
10C
330
1F
100
AcDbEntity
  8
PIEZA
370
    18
100
AcDbLine
 10
663.9380981412
 20
33.9397880732
 30
0.0
 11
663.5847603024
 21
33.9397880732
 31
0.0
  0
LINE
  5
10D
330
1F
100
AcDbEntity
  8
PIEZA
370
    18
100
AcDbLine
 10
663.5847603024
 20
33.9397880732
 30
0.0
 11
663.3728221947
 21
34.2593101243
 31
0.0
  0
LINE
  5
10E
330
1F
100
AcDbEntity
  8
PIEZA
370
    18
100
AcDbLine
 10
662.9780139916
 20
34.5510883725
 30
0.0
 11
662.9179078017
 21
34.5510883725
 31
0.0
  0
LINE
  5
10F
330
1F
100
AcDbEntity
  8
PIEZA
370
    18
100
AcDbLine
 10
662.9179078017
 20
34.5510883725
 30
0.0
 11
662.9179078017
 21
33.9397880732
 31
0.0
  0
LINE
  5
110
330
1F
100
AcDbEntity
  8
PIEZA
370
    18
100
AcDbLine
 10
662.9179078017
 20
33.9397880732
 30
0.0
 11
662.6214463737
 21
33.9397880732
 31
0.0
  0
LINE
  5
111
330
1F
100
AcDbEntity
  8
PIEZA
370
    18
100
AcDbLine
 10
662.9179078017
 20
34.7841815336
 30
0.0
 11
663.1365315522
 21
34.7841815336
 31
0.0
  0
LINE
  5
112
330
1F
100
AcDbEntity
  8
PIEZA
370
    18
100
AcDbLine
 10
663.1485140329
 20
35.1562843893
 30
0.0
 11
662.9179078017
 21
35.1562843893
 31
0.0
  0
LINE
  5
113
330
1F
100
AcDbEntity
  8
PIEZA
370
    18
100
AcDbLine
 10
662.9179078017
 20
35.1562843893
 30
0.0
 11
662.9179078017
 21
34.7841815336
 31
0.0
  0
LINE
  5
114
330
1F
100
AcDbEntity
  8
1
100
AcDbLine
 10
316.8732001195
 20
268.4209025532
 30
0.0
 11
316.8732001195
 21
223.4209025532
 31
0.0
  0
LINE
  5
115
330
1F
100
AcDbEntity
  8
1
100
AcDbLine
 10
338.2585300491
 20
213.2709832563
 30
0.0
 11
338.2585300491
 21
213.4209832563
 31
0.0
  0
LINE
  5
116
330
1F
100
AcDbEntity
  8
1
100
AcDbLine
 10
363.2503245094
 20
268.4209025532
 30
0.0
 11
363.2503245094
 21
223.4209025532
 31
0.0
  0
LINE
  5
117
330
1F
100
AcDbEntity
  8
1
100
AcDbLine
 10
375.8833366336
 20
268.4209025532
 30
0.0
 11
375.8833366336
 21
223.4209025532
 31
0.0
  0
LINE
  5
118
330
1F
100
AcDbEntity
  8
1
100
AcDbLine
 10
323.7585300491
 20
213.4209806782
 30
0.0
 11
323.7585300491
 21
213.2709806782
 31
0.0
  0
LINE
  5
119
330
1F
100
AcDbEntity
  8
1
100
AcDbLine
 10
326.7585300491
 20
213.2709806782
 30
0.0
 11
326.7585300491
 21
213.4209806782
 31
0.0
  0
LINE
  5
11A
330
1F
100
AcDbEntity
  8
1
100
AcDbLine
 10
375.4010482586
 20
268.4209025532
 30
0.0
 11
375.4010482586
 21
223.4209025532
 31
0.0
  0
LINE
  5
11B
330
1F
100
AcDbEntity
  8
1
100
AcDbLine
 10
316.2445617413
 20
212.7709025532
 30
0.0
 11
315.8172310544
 21
200.5337527666
 31
0.0
  0
LINE
  5
11C
330
1F
100
AcDbEntity
  8
1
100
AcDbLine
 10
316.7585300491
 20
213.4209025532
 30
0.0
 11
316.7585300491
 21
212.7709025532
 31
0.0
  0
LINE
  5
11D
330
1F
100
AcDbEntity
  8
1
100
AcDbLine
 10
335.2585300491
 20
213.4209832563
 30
0.0
 11
335.2585300491
 21
213.2709832563
 31
0.0
  0
LINE
  5
11E
330
1F
100
AcDbEntity
  8
1
100
AcDbLine
 10
331.2887434167
 20
268.4209025532
 30
0.0
 11
331.2887434167
 21
223.4209025532
 31
0.0
  0
LINE
  5
11F
330
1F
100
AcDbEntity
  8
1
100
AcDbLine
 10
370.3048159836
 20
268.4209025532
 30
0.0
 11
370.3048159836
 21
223.4209025532
 31
0.0
  0
LINE
  5
120
330
1F
100
AcDbEntity
  8
1
100
AcDbLine
 10
375.5085300491
 20
213.2709806782
 30
0.0
 11
375.5085300491
 21
213.4209806782
 31
0.0
  0
LINE
  5
121
330
1F
100
AcDbEntity
  8
1
100
AcDbLine
 10
372.5085300491
 20
213.4209806782
 30
0.0
 11
372.5085300491
 21
213.2709806782
 31
0.0
  0
LINE
  5
122
330
1F
100
AcDbEntity
  8
COTAS
100
AcDbLine
 10
122.7585300491
 20
126.2709075341
 30
0.0
 11
272.7585300491
 21
126.2709075341
 31
0.0
  0
LINE
  5
123
330
1F
100
AcDbEntity
  8
1
100
AcDbLine
 10
369.7585300491
 20
213.2709832563
 30
0.0
 11
369.7585300491
 21
213.4209832563
 31
0.0
  0
LINE
  5
124
330
1F
100
AcDbEntity
  8
COTAS
100
AcDbLine
 10
592.7585300491
 20
288.2709075341
 30
0.0
 11
592.7585300491
 21
313.2709075341
 31
0.0
  0
LINE
  5
125
330
1F
100
AcDbEntity
  8
1
100
AcDbLine
 10
366.7585300491
 20
213.4209832563
 30
0.0
 11
366.7585300491
 21
213.2709832563
 31
0.0
  0
LINE
  5
126
330
1F
100
AcDbEntity
  8
1
100
AcDbLine
 10
399.2585300491
 20
213.4209025532
 30
0.0
 11
399.2585300491
 21
223.4209025532
 31
0.0
  0
LINE
  5
127
330
1F
100
AcDbEntity
  8
1
100
AcDbLine
 10
316.2585300491
 20
223.4209025532
 30
0.0
 11
316.2585300491
 21
213.4209025532
 31
0.0
  0
LINE
  5
128
330
1F
100
AcDbEntity
  8
COTAS
100
AcDbLine
 10
122.7585300491
 20
313.2709075341
 30
0.0
 11
122.7585300491
 21
288.2709075341
 31
0.0
  0
LINE
  5
129
330
1F
100
AcDbEntity
  8
COTAS
100
AcDbLine
 10
122.7585300491
 20
313.2709075341
 30
0.0
 11
592.7585300491
 21
313.2709075341
 31
0.0
  0
LINE
  5
12A
330
1F
100
AcDbEntity
  8
1
100
AcDbLine
 10
361.7001364103
 20
223.4209025532
 30
0.0
 11
361.7001364103
 21
268.4209025532
 31
0.0
  0
LINE
  5
12B
330
1F
100
AcDbEntity
  8
1
100
AcDbLine
 10
358.7001364103
 20
268.4209025532
 30
0.0
 11
358.7001364103
 21
223.4209025532
 31
0.0
  0
LINE
  5
12C
330
1F
100
AcDbEntity
  8
COTAS
100
AcDbLine
 10
122.7585300491
 20
288.2709075341
 30
0.0
 11
592.7585300491
 21
288.2709075341
 31
0.0
  0
LINE
  5
12D
330
1F
100
AcDbEntity
  8
1
100
AcDbLine
 10
354.6408673991
 20
223.4209025532
 30
0.0
 11
354.6408673991
 21
268.4209025532
 31
0.0
  0
LINE
  5
12E
330
1F
100
AcDbEntity
  8
1
100
AcDbLine
 10
351.6408673991
 20
268.4209025532
 30
0.0
 11
351.6408673991
 21
223.4209025532
 31
0.0
  0
LINE
  5
12F
330
1F
100
AcDbEntity
  8
1
100
AcDbLine
 10
368.680930184
 20
223.4209025532
 30
0.0
 11
368.680930184
 21
268.4209025532
 31
0.0
  0
LINE
  5
130
330
1F
100
AcDbEntity
  8
COTAS
100
AcDbLine
 10
442.7585300491
 20
126.2709075341
 30
0.0
 11
442.7585300491
 21
151.2709075341
 31
0.0
  0
LINE
  5
131
330
1F
100
AcDbEntity
  8
1
100
AcDbLine
 10
319.6218837137
 20
268.4209025532
 30
0.0
 11
319.6218837137
 21
223.4209025532
 31
0.0
  0
LINE
  5
132
330
1F
100
AcDbEntity
  8
1
100
AcDbLine
 10
331.1777327001
 20
223.4209025532
 30
0.0
 11
331.1777327001
 21
268.4209025532
 31
0.0
  0
LINE
  5
133
330
1F
100
AcDbEntity
  8
1
100
AcDbLine
 10
387.8618830286
 20
223.4209025532
 30
0.0
 11
387.8618830286
 21
268.4209025532
 31
0.0
  0
LINE
  5
134
330
1F
100
AcDbEntity
  8
1
100
AcDbLine
 10
336.6337234647
 20
268.4209025532
 30
0.0
 11
336.6337234647
 21
223.4209025532
 31
0.0
  0
LINE
  5
135
330
1F
100
AcDbEntity
  8
1
100
AcDbLine
 10
376.3283685827
 20
268.4209025532
 30
0.0
 11
376.3283685827
 21
223.4209025532
 31
0.0
  0
LINE
  5
136
330
1F
100
AcDbEntity
  8
1
100
AcDbLine
 10
397.4041721029
 20
223.4209025532
 30
0.0
 11
397.4041721029
 21
268.4209025532
 31
0.0
  0
LINE
  5
137
330
1F
100
AcDbEntity
  8
1
100
AcDbLine
 10
317.6267127189
 20
268.4209025532
 30
0.0
 11
317.6267127189
 21
223.4209025532
 31
0.0
  0
LINE
  5
138
330
1F
100
AcDbEntity
  8
1
100
AcDbLine
 10
363.4066363891
 20
268.4209025532
 30
0.0
 11
363.4066363891
 21
223.4209025532
 31
0.0
  0
LINE
  5
139
330
1F
100
AcDbEntity
  8
1
100
AcDbLine
 10
398.5458369707
 20
223.4209025532
 30
0.0
 11
398.5458369707
 21
268.4209025532
 31
0.0
  0
LINE
  5
13A
330
1F
100
AcDbEntity
  8
1
100
AcDbLine
 10
365.680930184
 20
268.4209025532
 30
0.0
 11
365.680930184
 21
223.4209025532
 31
0.0
  0
LINE
  5
13B
330
1F
100
AcDbEntity
  8
1
100
AcDbLine
 10
347.730013865
 20
223.4209025532
 30
0.0
 11
347.730013865
 21
268.4209025532
 31
0.0
  0
LINE
  5
13C
330
1F
100
AcDbEntity
  8
1
100
AcDbLine
 10
344.730013865
 20
268.4209025532
 30
0.0
 11
344.730013865
 21
223.4209025532
 31
0.0
  0
LINE
  5
13D
330
1F
100
AcDbEntity
  8
1
100
AcDbLine
 10
375.3588802646
 20
223.4209025532
 30
0.0
 11
375.3588802646
 21
268.4209025532
 31
0.0
  0
LINE
  5
13E
330
1F
100
AcDbEntity
  8
1
100
AcDbLine
 10
372.3588802646
 20
268.4209025532
 30
0.0
 11
372.3588802646
 21
223.4209025532
 31
0.0
  0
LINE
  5
13F
330
1F
100
AcDbEntity
  8
1
100
AcDbLine
 10
341.1896963267
 20
223.4209025532
 30
0.0
 11
341.1896963267
 21
268.4209025532
 31
0.0
  0
LINE
  5
140
330
1F
100
AcDbEntity
  8
1
100
AcDbLine
 10
338.1896963267
 20
268.4209025532
 30
0.0
 11
338.1896963267
 21
223.4209025532
 31
0.0
  0
LINE
  5
141
330
1F
100
AcDbEntity
  8
1
100
AcDbLine
 10
381.5193518418
 20
223.4209025532
 30
0.0
 11
381.5193518418
 21
268.4209025532
 31
0.0
  0
LINE
  5
142
330
1F
100
AcDbEntity
  8
1
100
AcDbLine
 10
378.5193518418
 20
268.4209025532
 30
0.0
 11
378.5193518418
 21
223.4209025532
 31
0.0
  0
LINE
  5
143
330
1F
100
AcDbEntity
  8
1
100
AcDbLine
 10
356.8607139792
 20
268.4209025532
 30
0.0
 11
356.8607139792
 21
223.4209025532
 31
0.0
  0
LINE
  5
144
330
1F
100
AcDbEntity
  8
1
100
AcDbLine
 10
335.2301259714
 20
223.4209025532
 30
0.0
 11
335.2301259714
 21
268.4209025532
 31
0.0
  0
LINE
  5
145
330
1F
100
AcDbEntity
  8
1
100
AcDbLine
 10
332.2301259714
 20
268.4209025532
 30
0.0
 11
332.2301259714
 21
223.4209025532
 31
0.0
  0
LINE
  5
146
330
1F
100
AcDbEntity
  8
1
100
AcDbLine
 10
349.8457014782
 20
268.4209025532
 30
0.0
 11
349.8457014782
 21
223.4209025532
 31
0.0
  0
LINE
  5
147
330
1F
100
AcDbEntity
  8
1
100
AcDbLine
 10
363.8455304634
 20
268.4209025532
 30
0.0
 11
363.8455304634
 21
223.4209025532
 31
0.0
  0
LINE
  5
148
330
1F
100
AcDbEntity
  8
1
100
AcDbLine
 10
343.1522549794
 20
268.4209025532
 30
0.0
 11
343.1522549794
 21
223.4209025532
 31
0.0
  0
LINE
  5
149
330
1F
100
AcDbEntity
  8
1
100
AcDbLine
 10
370.4499030663
 20
268.4209025532
 30
0.0
 11
370.4499030663
 21
223.4209025532
 31
0.0
  0
LINE
  5
14A
330
1F
100
AcDbEntity
  8
1
100
AcDbLine
 10
386.9643422904
 20
223.4209025532
 30
0.0
 11
386.9643422904
 21
268.4209025532
 31
0.0
  0
LINE
  5
14B
330
1F
100
AcDbEntity
  8
1
100
AcDbLine
 10
383.9643422904
 20
268.4209025532
 30
0.0
 11
383.9643422904
 21
223.4209025532
 31
0.0
  0
LINE
  5
14C
330
1F
100
AcDbEntity
  8
1
100
AcDbLine
 10
330.0428482937
 20
223.4209025532
 30
0.0
 11
330.0428482937
 21
268.4209025532
 31
0.0
  0
LINE
  5
14D
330
1F
100
AcDbEntity
  8
1
100
AcDbLine
 10
327.0428482937
 20
268.4209025532
 30
0.0
 11
327.0428482937
 21
223.4209025532
 31
0.0
  0
LINE
  5
14E
330
1F
100
AcDbEntity
  8
1
100
AcDbLine
 10
337.1160118397
 20
268.4209025532
 30
0.0
 11
337.1160118397
 21
223.4209025532
 31
0.0
  0
LINE
  5
14F
330
1F
100
AcDbEntity
  8
1
100
AcDbLine
 10
376.3426609681
 20
268.4209025532
 30
0.0
 11
376.3426609681
 21
223.4209025532
 31
0.0
  0
LINE
  5
150
330
1F
100
AcDbEntity
  8
1
100
AcDbLine
 10
356.3083479354
 20
223.4209025532
 30
0.0
 11
356.3083479354
 21
268.4209025532
 31
0.0
  0
LINE
  5
151
330
1F
100
AcDbEntity
  8
1
100
AcDbLine
 10
363.0234900179
 20
223.4209025532
 30
0.0
 11
363.0234900179
 21
268.4209025532
 31
0.0
  0
LINE
  5
152
330
1F
100
AcDbEntity
  8
1
100
AcDbLine
 10
391.5188451372
 20
223.4209025532
 30
0.0
 11
391.5188451372
 21
268.4209025532
 31
0.0
  0
LINE
  5
153
330
1F
100
AcDbEntity
  8
1
100
AcDbLine
 10
388.5188451372
 20
268.4209025532
 30
0.0
 11
388.5188451372
 21
223.4209025532
 31
0.0
  0
LINE
  5
154
330
1F
100
AcDbEntity
  8
1
100
AcDbLine
 10
349.8322120625
 20
223.4209025532
 30
0.0
 11
349.8322120625
 21
268.4209025532
 31
0.0
  0
LINE
  5
155
330
1F
100
AcDbEntity
  8
1
100
AcDbLine
 10
369.4336174347
 20
223.4209025532
 30
0.0
 11
369.4336174347
 21
268.4209025532
 31
0.0
  0
LINE
  5
156
330
1F
100
AcDbEntity
  8
1
100
AcDbLine
 10
325.7945866664
 20
223.4209025532
 30
0.0
 11
325.7945866664
 21
268.4209025532
 31
0.0
  0
LINE
  5
157
330
1F
100
AcDbEntity
  8
1
100
AcDbLine
 10
322.7945866664
 20
268.4209025532
 30
0.0
 11
322.7945866664
 21
223.4209025532
 31
0.0
  0
LINE
  5
158
330
1F
100
AcDbEntity
  8
1
100
AcDbLine
 10
332.0396544951
 20
268.4209025532
 30
0.0
 11
332.0396544951
 21
223.4209025532
 31
0.0
  0
LINE
  5
159
330
1F
100
AcDbEntity
  8
1
100
AcDbLine
 10
395.0364749131
 20
223.4209025532
 30
0.0
 11
395.0364749131
 21
268.4209025532
 31
0.0
  0
LINE
  5
15A
330
1F
100
AcDbEntity
  8
1
100
AcDbLine
 10
392.0364749131
 20
268.4209025532
 30
0.0
 11
392.0364749131
 21
223.4209025532
 31
0.0
  0
LINE
  5
15B
330
1F
100
AcDbEntity
  8
1
100
AcDbLine
 10
363.1043745405
 20
223.4209025532
 30
0.0
 11
363.1043745405
 21
268.4209025532
 31
0.0
  0
LINE
  5
15C
330
1F
100
AcDbEntity
  8
1
100
AcDbLine
 10
322.6218837137
 20
223.4209025532
 30
0.0
 11
322.6218837137
 21
268.4209025532
 31
0.0
  0
LINE
  5
15D
330
1F
100
AcDbEntity
  8
COTAS
100
AcDbLine
 10
272.7585300491
 20
151.2709075341
 30
0.0
 11
272.7585300491
 21
126.2709075341
 31
0.0
  0
LINE
  5
15E
330
1F
100
AcDbEntity
  8
COTAS
100
AcDbLine
 10
122.7585300491
 20
151.2709075341
 30
0.0
 11
122.7585300491
 21
126.2709075341
 31
0.0
  0
LINE
  5
15F
330
1F
100
AcDbEntity
  8
COTAS
100
AcDbLine
 10
122.7585300491
 20
151.2709075341
 30
0.0
 11
272.7585300491
 21
151.2709075341
 31
0.0
  0
LINE
  5
160
330
1F
100
AcDbEntity
  8
COTAS
100
AcDbLine
 10
592.7585300491
 20
126.2709075341
 30
0.0
 11
592.7585300491
 21
151.2709075341
 31
0.0
  0
LINE
  5
161
330
1F
100
AcDbEntity
  8
COTAS
100
AcDbLine
 10
442.7585300491
 20
126.2709075341
 30
0.0
 11
592.7585300491
 21
126.2709075341
 31
0.0
  0
LINE
  5
162
330
1F
100
AcDbEntity
  8
COTAS
100
AcDbLine
 10
442.7585300491
 20
151.2709075341
 30
0.0
 11
592.7585300491
 21
151.2709075341
 31
0.0
  0
LINE
  5
163
330
1F
100
AcDbEntity
  8
1
100
AcDbLine
 10
450.0585300491
 20
123.7709075341
 30
0.0
 11
265.4585300491
 21
123.7709075341
 31
0.0
  0
LINE
  5
164
330
1F
100
AcDbEntity
  8
1
100
AcDbLine
 10
418.3530815647
 20
189.2709894193
 30
0.0
 11
419.601375502
 21
193.4851591263
 31
0.0
  0
LINE
  5
165
330
1F
100
AcDbEntity
  8
1
100
AcDbLine
 10
475.9097596882
 20
154.5390160884
 30
0.0
 11
486.7769348714
 21
151.320012147
 31
0.0
  0
LINE
  5
166
330
1F
100
AcDbEntity
  8
1
100
AcDbLine
 10
434.5696515044
 20
177.9115248801
 30
0.0
 11
431.5666160437
 21
176.4142666311
 31
0.0
  0
LINE
  5
167
330
1F
100
AcDbEntity
  8
1
100
AcDbLine
 10
437.0738718924
 20
177.3711527244
 30
0.0
 11
436.1783923609
 21
176.9246830996
 31
0.0
  0
LINE
  5
168
330
1F
100
AcDbEntity
  8
1
100
AcDbLine
 10
419.2725055226
 20
194.4900332677
 30
0.0
 11
419.5189639795
 21
194.0942497423
 31
0.0
  0
LINE
  5
169
330
1F
100
AcDbEntity
  8
1
100
AcDbLine
 10
437.2981034875
 20
178.041310321
 30
0.0
 11
437.0296778243
 21
178.5796889112
 31
0.0
  0
LINE
  5
16A
330
1F
100
AcDbEntity
  8
1
100
AcDbLine
 10
420.9010719335
 20
196.1303224046
 30
0.0
 11
424.4179204483
 21
193.975194863
 31
0.0
  0
LINE
  5
16B
330
1F
100
AcDbEntity
  8
1
100
AcDbLine
 10
435.5082347643
 20
177.1489146948
 30
0.0
 11
435.2398091011
 21
177.687293285
 31
0.0
  0
LINE
  5
16C
330
1F
100
AcDbEntity
  8
1
100
AcDbLine
 10
437.2539094194
 20
179.2498465078
 30
0.0
 11
438.1236118975
 21
179.6834641679
 31
0.0
  0
LINE
  5
16D
330
1F
100
AcDbEntity
  8
1
100
AcDbLine
 10
280.9474085938
 20
177.9115248801
 30
0.0
 11
283.9504440545
 21
176.4142666311
 31
0.0
  0
LINE
  5
16E
330
1F
100
AcDbEntity
  8
1
100
AcDbLine
 10
278.4431882059
 20
177.3711527244
 30
0.0
 11
279.3386677373
 21
176.9246830996
 31
0.0
  0
LINE
  5
16F
330
1F
100
AcDbEntity
  8
1
100
AcDbLine
 10
278.2189566107
 20
178.041310321
 30
0.0
 11
278.487382274
 21
178.5796889112
 31
0.0
  0
LINE
  5
170
330
1F
100
AcDbEntity
  8
1
100
AcDbLine
 10
280.0088253339
 20
177.1489146948
 30
0.0
 11
280.2772509972
 21
177.687293285
 31
0.0
  0
LINE
  5
171
330
1F
100
AcDbEntity
  8
1
100
AcDbLine
 10
278.2631506788
 20
179.2498465078
 30
0.0
 11
277.3934482007
 21
179.6834641679
 31
0.0
  0
LINE
  5
172
330
1F
100
AcDbEntity
  8
1
100
AcDbLine
 10
239.60730041
 20
154.5390160884
 30
0.0
 11
228.7401252269
 21
151.320012147
 31
0.0
  0
LINE
  5
173
330
1F
100
AcDbEntity
  8
1
100
AcDbLine
 10
296.2445545757
 20
194.4900332677
 30
0.0
 11
295.9980961187
 21
194.0942497423
 31
0.0
  0
LINE
  5
174
330
1F
100
AcDbEntity
  8
1
100
AcDbLine
 10
297.1639785335
 20
189.2709894193
 30
0.0
 11
295.9156845962
 21
193.4851591263
 31
0.0
  0
LINE
  5
175
330
1F
100
AcDbEntity
  8
1
100
AcDbLine
 10
294.6159881648
 20
196.1303224046
 30
0.0
 11
291.09913965
 21
193.975194863
 31
0.0
  0
LINE
  5
176
330
1F
100
AcDbEntity
  8
1
100
AcDbLine
 10
376.966015975
 20
213.4208973188
 30
0.0
 11
376.966015975
 21
213.2709051313
 31
0.0
  0
LINE
  5
177
330
1F
100
AcDbEntity
  8
1
100
AcDbLine
 10
338.5510362989
 20
213.4208973188
 30
0.0
 11
338.5510362989
 21
213.2709051313
 31
0.0
  0
LINE
  5
178
330
1F
100
AcDbEntity
  8
1
100
AcDbLine
 10
350.5771415914
 20
213.4208973188
 30
0.0
 11
350.5771415914
 21
213.2709051313
 31
0.0
  0
LINE
  5
179
330
1F
100
AcDbEntity
  8
1
100
AcDbLine
 10
431.2585300491
 20
172.2709075341
 30
0.0
 11
431.2585300491
 21
175.7709075341
 31
0.0
  0
LINE
  5
17A
330
1F
100
AcDbEntity
  8
1
100
AcDbLine
 10
413.2585300491
 20
172.2709075341
 30
0.0
 11
413.2585300491
 21
175.7709075341
 31
0.0
  0
LINE
  5
17B
330
1F
100
AcDbEntity
  8
1
100
AcDbLine
 10
413.2585300491
 20
184.2709075341
 30
0.0
 11
413.2585300491
 21
175.7709075341
 31
0.0
  0
LINE
  5
17C
330
1F
100
AcDbEntity
  8
1
100
AcDbLine
 10
431.2585300491
 20
184.2709075341
 30
0.0
 11
431.2585300491
 21
175.7709075341
 31
0.0
  0
LINE
  5
17D
330
1F
100
AcDbEntity
  8
1
100
AcDbLine
 10
418.2585300491
 20
189.2709075341
 30
0.0
 11
426.2585300491
 21
189.2709075341
 31
0.0
  0
LINE
  5
17E
330
1F
100
AcDbEntity
  8
1
100
AcDbLine
 10
450.2585300491
 20
126.2709075341
 30
0.0
 11
450.2585300491
 21
123.7709075341
 31
0.0
  0
LINE
  5
17F
330
1F
100
AcDbEntity
  8
1
 62
   252
420
  9672088
100
AcDbLine
 10
450.0585300491
 20
123.7709075341
 30
0.0
 11
450.0585300491
 21
126.2709075341
 31
0.0
  0
LINE
  5
180
330
1F
100
AcDbEntity
  8
1
 62
   252
420
  9672088
100
AcDbLine
 10
265.4585300491
 20
126.2709075341
 30
0.0
 11
265.4585300491
 21
123.7709075341
 31
0.0
  0
LINE
  5
181
330
1F
100
AcDbEntity
  8
1
100
AcDbLine
 10
265.2585300491
 20
123.7709075341
 30
0.0
 11
265.2585300491
 21
126.2709075341
 31
0.0
  0
LINE
  5
182
330
1F
100
AcDbEntity
  8
1
100
AcDbLine
 10
265.2585300491
 20
126.2709075341
 30
0.0
 11
265.4585300491
 21
126.2709075341
 31
0.0
  0
LINE
  5
183
330
1F
100
AcDbEntity
  8
1
100
AcDbLine
 10
450.0585300491
 20
126.2709075341
 30
0.0
 11
265.4585300491
 21
126.2709075341
 31
0.0
  0
LINE
  5
184
330
1F
100
AcDbEntity
  8
1
100
AcDbLine
 10
450.0585300491
 20
126.2709075341
 30
0.0
 11
450.2585300491
 21
126.2709075341
 31
0.0
  0
LINE
  5
185
330
1F
100
AcDbEntity
  8
1
100
AcDbLine
 10
441.7585300041
 20
126.2709075122
 30
0.0
 11
441.7585300041
 21
170.3109075122
 31
0.0
  0
LINE
  5
186
330
1F
100
AcDbEntity
  8
1
100
AcDbLine
 10
440.7585300041
 20
126.2709075122
 30
0.0
 11
440.7585300041
 21
170.3109075122
 31
0.0
  0
LINE
  5
187
330
1F
100
AcDbEntity
  8
1
100
AcDbLine
 10
440.7485300041
 20
170.3109075122
 30
0.0
 11
440.7485300041
 21
126.2709075122
 31
0.0
  0
LINE
  5
188
330
1F
100
AcDbEntity
  8
1
100
AcDbLine
 10
274.7585300491
 20
126.2709075341
 30
0.0
 11
274.7585300491
 21
170.3109075341
 31
0.0
  0
LINE
  5
189
330
1F
100
AcDbEntity
  8
1
100
AcDbLine
 10
274.7685300148
 20
126.2709075151
 30
0.0
 11
274.7685300148
 21
170.3109075151
 31
0.0
  0
LINE
  5
18A
330
1F
100
AcDbEntity
  8
1
100
AcDbLine
 10
273.7585300261
 20
126.2709075341
 30
0.0
 11
273.7585300261
 21
170.3109075341
 31
0.0
  0
LINE
  5
18B
330
1F
100
AcDbEntity
  8
1
100
AcDbLine
 10
440.7585300041
 20
172.0197082612
 30
0.0
 11
440.7585300041
 21
170.3109075122
 31
0.0
  0
LINE
  5
18C
330
1F
100
AcDbEntity
  8
1
100
AcDbLine
 10
441.7585300041
 20
170.3109075122
 30
0.0
 11
440.7585300041
 21
170.3109075122
 31
0.0
  0
LINE
  5
18D
330
1F
100
AcDbEntity
  8
1
100
AcDbLine
 10
274.7585300491
 20
172.0197082831
 30
0.0
 11
274.7585300491
 21
170.3109075341
 31
0.0
  0
LINE
  5
18E
330
1F
100
AcDbEntity
  8
1
100
AcDbLine
 10
273.7585300261
 20
170.3109075341
 30
0.0
 11
274.7585300491
 21
170.3109075341
 31
0.0
  0
LINE
  5
18F
330
1F
100
AcDbEntity
  8
1
100
AcDbLine
 10
275.7185300041
 20
172.2709075122
 30
0.0
 11
439.7985300041
 21
172.2709075122
 31
0.0
  0
LINE
  5
190
330
1F
100
AcDbEntity
  8
1
100
AcDbLine
 10
274.7685300148
 20
170.3109075151
 30
0.0
 11
274.7685300148
 21
172.0197082641
 31
0.0
  0
LINE
  5
191
330
1F
100
AcDbEntity
  8
1
100
AcDbLine
 10
440.7485300041
 20
170.3109075122
 30
0.0
 11
440.7485300041
 21
172.0197082612
 31
0.0
  0
LINE
  5
192
330
1F
100
AcDbEntity
  8
1
100
AcDbLine
 10
440.7504785948
 20
172.0242066339
 30
0.0
 11
440.7504785948
 21
170.4349795906
 31
0.0
  0
LINE
  5
193
330
1F
100
AcDbEntity
  8
1
100
AcDbLine
 10
274.7665814584
 20
172.0242066558
 30
0.0
 11
274.766581458
 21
170.4349796067
 31
0.0
  0
LINE
  5
194
330
1F
100
AcDbEntity
  8
1
100
AcDbLine
 10
284.2585300491
 20
172.2709075341
 30
0.0
 11
284.2585300491
 21
175.7709075341
 31
0.0
  0
LINE
  5
195
330
1F
100
AcDbEntity
  8
1
100
AcDbLine
 10
284.2585300491
 20
184.2709075341
 30
0.0
 11
284.2585300491
 21
175.7709075341
 31
0.0
  0
LINE
  5
196
330
1F
100
AcDbEntity
  8
1
100
AcDbLine
 10
302.2585300491
 20
184.2709075341
 30
0.0
 11
302.2585300491
 21
175.8675950341
 31
0.0
  0
LINE
  5
197
330
1F
100
AcDbEntity
  8
1
100
AcDbLine
 10
297.2585300491
 20
189.2709075341
 30
0.0
 11
289.2585300491
 21
189.2709075341
 31
0.0
  0
LINE
  5
198
330
1F
100
AcDbEntity
  8
1
100
AcDbLine
 10
399.2585300491
 20
213.4209025532
 30
0.0
 11
316.2585300491
 21
213.4209025532
 31
0.0
  0
LINE
  5
199
330
1F
100
AcDbEntity
  8
1
100
AcDbLine
 10
399.2585300491
 20
223.4209025532
 30
0.0
 11
316.2585300491
 21
223.4209025532
 31
0.0
  0
LINE
  5
19A
330
1F
100
AcDbEntity
  8
1
100
AcDbLine
 10
316.7585300491
 20
213.2709025532
 30
0.0
 11
398.507651188
 21
213.2709025532
 31
0.0
  0
LINE
  5
19B
330
1F
100
AcDbEntity
  8
1
100
AcDbLine
 10
316.2445617413
 20
212.7709025532
 30
0.0
 11
399.0188234821
 21
212.7709025532
 31
0.0
  0
LINE
  5
19C
330
1F
100
AcDbEntity
  8
1
100
AcDbLine
 10
450.2585300491
 20
123.7709075341
 30
0.0
 11
450.0585300491
 21
123.7709075341
 31
0.0
  0
LINE
  5
19D
330
1F
100
AcDbEntity
  8
1
100
AcDbLine
 10
265.4585300491
 20
123.7709075341
 30
0.0
 11
265.2585300491
 21
123.7709075341
 31
0.0
  0
LINE
  5
19E
330
1F
100
AcDbEntity
  8
1
100
AcDbLine
 10
364.5087556845
 20
432.345797098
 30
0.0
 11
364.5087556845
 21
437.4244482005
 31
0.0
  0
LINE
  5
19F
330
1F
100
AcDbEntity
  8
1
100
AcDbLine
 10
351.0083044137
 20
437.4244151379
 30
0.0
 11
351.0083044137
 21
432.345797098
 31
0.0
  0
LINE
  5
1A0
330
1F
100
AcDbEntity
  8
1
100
AcDbLine
 10
364.5087556845
 20
562.6994309121
 30
0.0
 11
364.5087556845
 21
567.7780820145
 31
0.0
  0
LINE
  5
1A1
330
1F
100
AcDbEntity
  8
1
100
AcDbLine
 10
351.0083044137
 20
567.7780820145
 30
0.0
 11
351.0083044137
 21
562.6994639746
 31
0.0
  0
LINE
  5
1A2
330
1F
100
AcDbEntity
  8
1
100
AcDbLine
 10
450.2585300491
 20
407.7619395563
 30
0.0
 11
450.2585300491
 21
592.3619395563
 31
0.0
  0
LINE
  5
1A3
330
1F
100
AcDbEntity
  8
1
100
AcDbLine
 10
450.0585300491
 20
407.5619395563
 30
0.0
 11
265.4585300491
 21
407.5619395563
 31
0.0
  0
LINE
  5
1A4
330
1F
100
AcDbEntity
  8
1
100
AcDbLine
 10
265.2585300491
 20
407.7619395563
 30
0.0
 11
265.2585300491
 21
592.3619395563
 31
0.0
  0
LINE
  5
1A5
330
1F
100
AcDbEntity
  8
1
100
AcDbLine
 10
283.2585300491
 20
425.5619395563
 30
0.0
 11
283.2585300491
 21
574.5619395563
 31
0.0
  0
LINE
  5
1A6
330
1F
100
AcDbEntity
  8
1
100
AcDbLine
 10
432.2585300491
 20
425.5619395563
 30
0.0
 11
283.2585300491
 21
425.5619395563
 31
0.0
  0
LINE
  5
1A7
330
1F
100
AcDbEntity
  8
1
100
AcDbLine
 10
432.2585300491
 20
425.5619395563
 30
0.0
 11
432.2585300491
 21
574.5619395563
 31
0.0
  0
LINE
  5
1A8
330
1F
100
AcDbEntity
  8
COTAS
100
AcDbLine
 10
318.5210026799
 20
489.4091211224
 30
0.0
 11
345.9843120119
 21
539.0523518072
 31
0.0
  0
LINE
  5
1A9
330
1F
100
AcDbEntity
  8
COTAS
100
AcDbLine
 10
326.1152042941
 20
479.6714099541
 30
0.0
 11
359.0711754925
 21
539.2432867758
 31
0.0
  0
LINE
  5
1AA
330
1F
100
AcDbEntity
  8
COTAS
100
AcDbLine
 10
336.1631735067
 20
470.2209667767
 30
0.0
 11
371.4639325436
 21
534.0313292873
 31
0.0
  0
LINE
  5
1AB
330
1F
100
AcDbEntity
  8
SLD-0
100
AcDbLine
 10
316.8732001195
 20
268.4209025532
 30
0.0
 11
398.5458369707
 21
268.4209025532
 31
0.0
  0
LINE
  5
1AC
330
1F
100
AcDbEntity
  8
1
100
AcDbLine
 10
399.2724983569
 20
212.7709025532
 30
0.0
 11
399.6998290438
 21
200.5337527666
 31
0.0
  0
LINE
  5
1AD
330
1F
100
AcDbEntity
  8
1
100
AcDbLine
 10
398.7585300491
 20
213.4209025532
 30
0.0
 11
398.7585300491
 21
212.7709025532
 31
0.0
  0
LINE
  5
1AE
330
1F
100
AcDbEntity
  8
CAJETIN
100
AcDbLine
 10
521.1254948955
 20
38.380188041
 30
0.0
 11
521.1254948955
 21
26.5175922983
 31
0.0
  0
LINE
  5
1AF
330
1F
100
AcDbEntity
  8
1
100
AcDbLine
 10
450.0585300491
 20
747.5619395563
 30
0.0
 11
265.4585300491
 21
747.5619395563
 31
0.0
  0
LINE
  5
1B0
330
1F
100
AcDbEntity
  8
1
100
AcDbLine
 10
450.2585300491
 20
407.7619395563
 30
0.0
 11
450.2585300491
 21
747.3619395563
 31
0.0
  0
LINE
  5
1B1
330
1F
100
AcDbEntity
  8
1
100
AcDbLine
 10
265.2585300491
 20
407.7619395563
 30
0.0
 11
265.2585300491
 21
747.3619395563
 31
0.0
  0
LINE
  5
1B2
330
1F
100
AcDbEntity
  8
1
100
AcDbLine
 10
432.2585300491
 20
729.5619395563
 30
0.0
 11
283.2585300491
 21
729.5619395563
 31
0.0
  0
LINE
  5
1B3
330
1F
100
AcDbEntity
  8
1
100
AcDbLine
 10
283.2585300491
 20
425.5619395563
 30
0.0
 11
283.2585300491
 21
729.5619395563
 31
0.0
  0
LINE
  5
1B4
330
1F
100
AcDbEntity
  8
1
100
AcDbLine
 10
432.2585300491
 20
425.5619395563
 30
0.0
 11
432.2585300491
 21
729.5619395563
 31
0.0
  0
LINE
  5
1B5
330
1F
100
AcDbEntity
  8
1
100
AcDbLine
 10
364.5087535429
 20
587.3457990178
 30
0.0
 11
364.5087535429
 21
592.4244501203
 31
0.0
  0
LINE
  5
1B6
330
1F
100
AcDbEntity
  8
1
100
AcDbLine
 10
351.0083022721
 20
592.4244170577
 30
0.0
 11
351.0083022721
 21
587.3457990178
 31
0.0
  0
LINE
  5
1B7
330
1F
100
AcDbEntity
  8
1
100
AcDbLine
 10
364.5087535429
 20
717.6994328319
 30
0.0
 11
364.5087535429
 21
722.7780839343
 31
0.0
  0
LINE
  5
1B8
330
1F
100
AcDbEntity
  8
1
100
AcDbLine
 10
351.0083022721
 20
722.7780839343
 30
0.0
 11
351.0083022721
 21
717.6994658944
 31
0.0
  0
LINE
  5
1B9
330
1F
100
AcDbEntity
  8
COTAS
100
AcDbLine
 10
318.5210005383
 20
644.4091230422
 30
0.0
 11
345.9843098703
 21
694.052353727
 31
0.0
  0
LINE
  5
1BA
330
1F
100
AcDbEntity
  8
COTAS
100
AcDbLine
 10
326.1152021524
 20
634.6714118739
 30
0.0
 11
359.0711733508
 21
694.2432886956
 31
0.0
  0
LINE
  5
1BB
330
1F
100
AcDbEntity
  8
COTAS
100
AcDbLine
 10
336.1631713651
 20
625.2209686965
 30
0.0
 11
371.463930402
 21
689.0313312071
 31
0.0
  0
LINE
  5
1BC
330
1F
100
AcDbEntity
  8
CAJETIN
100
AcDbLine
 10
30.0
 20
25.0
 30
0.0
 11
30.0
 21
823.4263519492
 31
0.0
  0
LINE
  5
1BD
330
1F
100
AcDbEntity
  8
CAJETIN
100
AcDbLine
 10
669.7475546879
 20
25.0
 30
0.0
 11
669.7475546879
 21
823.4263519492
 31
0.0
  0
CIRCLE
  5
1BE
330
1F
100
AcDbEntity
  8
COTAS
100
AcDbCircle
 10
357.7585280491
 20
500.0619365563
 30
0.0
 40
11.0
  0
CIRCLE
  5
1BF
330
1F
100
AcDbEntity
  8
COTAS
100
AcDbCircle
 10
357.7585259075
 20
655.0619384761
 30
0.0
 40
11.0
  0
ARC
  5
1C0
330
1F
100
AcDbEntity
  8
COTAS
100
AcDbCircle
 10
227.3200485033
 20
156.1141108214
 30
0.0
 40
4.999999999999883
100
AcDbArc
 50
255.6132525772
 51
284.3867474228
  0
ARC
  5
1C1
330
1F
100
AcDbEntity
  8
COTAS
100
AcDbCircle
 10
488.1970115949
 20
156.1141108214
 30
0.0
 40
4.999999999999991
100
AcDbArc
 50
255.6132525772
 51
284.3867474228
  0
ARC
  5
1C2
330
1F
100
AcDbEntity
  8
1
100
AcDbCircle
 10
438.7585300491
 20
133.1111095594
 30
0.0
 40
2.000000000000057
100
AcDbArc
 50
0.0
 51
5.7325859797
  0
ARC
  5
1C3
330
1F
100
AcDbEntity
  8
1
100
AcDbCircle
 10
438.7585300491
 20
144.4307055087
 30
0.0
 40
2.000000000000029
100
AcDbArc
 50
354.2674140203
 51
0.0
  0
ARC
  5
1C4
330
1F
100
AcDbEntity
  8
1
100
AcDbCircle
 10
276.7585300491
 20
144.4307055087
 30
0.0
 40
2.000000000000029
100
AcDbArc
 50
180.0
 51
185.7325859797
  0
ARC
  5
1C5
330
1F
100
AcDbEntity
  8
1
100
AcDbCircle
 10
276.7585300491
 20
133.1111095594
 30
0.0
 40
2.000000000000026
100
AcDbArc
 50
174.2674140203
 51
180.0
  0
ARC
  5
1C6
330
1F
100
AcDbEntity
  8
1
100
AcDbCircle
 10
399.492104521
 20
136.9473413514
 30
0.0
 40
104.7337261849493
100
AcDbArc
 50
143.3873560694
 51
160.2895200908
  0
ARC
  5
1C7
330
1F
100
AcDbEntity
  8
1
100
AcDbCircle
 10
316.0249555772
 20
136.9473413514
 30
0.0
 40
104.7337261849492
100
AcDbArc
 50
21.8150054443
 51
36.6126439306
  0
ARC
  5
1C8
330
1F
100
AcDbEntity
  8
1
100
AcDbCircle
 10
401.6986106979
 20
200.60355176
 30
0.0
 40
2.00000000000004
100
AcDbArc
 50
182.0
 51
216.6126439307
  0
ARC
  5
1C9
330
1F
100
AcDbEntity
  8
1
100
AcDbCircle
 10
313.8184494004
 20
200.60355176
 30
0.0
 40
2.000000000000147
100
AcDbArc
 50
323.3873560693
 51
358.0
  0
ARC
  5
1CA
330
1F
100
AcDbEntity
  8
1
100
AcDbCircle
 10
488.1970115949
 20
156.1141108214
 30
0.0
 40
5.000000000000048
100
AcDbArc
 50
253.5
 51
42.4867484127
  0
ARC
  5
1CB
330
1F
100
AcDbEntity
  8
1
100
AcDbCircle
 10
416.0024697322
 20
89.990712652
 30
0.0
 40
102.8997224727177
100
AcDbArc
 50
42.4867484127
 51
82.0763239533
  0
ARC
  5
1CC
330
1F
100
AcDbEntity
  8
1
100
AcDbCircle
 10
420.2805799789
 20
195.1177715617
 30
0.0
 40
1.187547672839746
100
AcDbArc
 50
58.5
 51
211.9109449554
  0
ARC
  5
1CD
330
1F
100
AcDbEntity
  8
1
100
AcDbCircle
 10
416.0024697322
 20
89.990712652
 30
0.0
 40
95.89972247271915
100
AcDbArc
 50
62.289079319
 51
70.3217208521
  0
ARC
  5
1CE
330
1F
100
AcDbEntity
  8
1
100
AcDbCircle
 10
477.3298364117
 20
159.3331147627
 30
0.0
 40
5.000000000001222
100
AcDbArc
 50
183.2304635839
 51
253.5
  0
ARC
  5
1CF
330
1F
100
AcDbEntity
  8
1
100
AcDbCircle
 10
432.255398919
 20
206.7647973283
 30
0.0
 40
14.99999999999996
100
AcDbArc
 50
238.5
 51
262.0763239533
  0
ARC
  5
1D0
330
1F
100
AcDbEntity
  8
1
100
AcDbCircle
 10
238.1872236865
 20
159.3331147627
 30
0.0
 40
5.00000000000001
100
AcDbArc
 50
286.5
 51
356.7695364161
  0
ARC
  5
1D1
330
1F
100
AcDbEntity
  8
1
100
AcDbCircle
 10
283.2616611792
 20
206.7647973283
 30
0.0
 40
15.00000000000003
100
AcDbArc
 50
277.9236760467
 51
301.5
  0
ARC
  5
1D2
330
1F
100
AcDbEntity
  8
1
100
AcDbCircle
 10
299.514590366
 20
89.990712652
 30
0.0
 40
95.8997224727169
100
AcDbArc
 50
109.6782791479
 51
117.710920681
  0
ARC
  5
1D3
330
1F
100
AcDbEntity
  8
1
100
AcDbCircle
 10
227.3200485033
 20
156.1141108214
 30
0.0
 40
5.000000000000067
100
AcDbArc
 50
137.5132515873
 51
286.5
  0
ARC
  5
1D4
330
1F
100
AcDbEntity
  8
1
100
AcDbCircle
 10
295.2364801194
 20
195.1177715617
 30
0.0
 40
1.187547672840516
100
AcDbArc
 50
328.0890550446
 51
121.5
  0
ARC
  5
1D5
330
1F
100
AcDbEntity
  8
1
100
AcDbCircle
 10
299.514590366
 20
89.990712652
 30
0.0
 40
102.899722472717
100
AcDbArc
 50
97.9236760467
 51
137.5132515873
  0
ARC
  5
1D6
330
1F
100
AcDbEntity
  8
1
100
AcDbCircle
 10
426.2585300491
 20
184.2709075341
 30
0.0
 40
5.0
100
AcDbArc
 50
0.0
 51
90.0
  0
ARC
  5
1D7
330
1F
100
AcDbEntity
  8
1
100
AcDbCircle
 10
418.2585300491
 20
184.2709075341
 30
0.0
 40
5.0
100
AcDbArc
 50
90.0
 51
180.0
  0
ARC
  5
1D8
330
1F
100
AcDbEntity
  8
1
100
AcDbCircle
 10
439.7985300041
 20
170.3109075122
 30
0.0
 40
1.960000000001661
100
AcDbArc
 50
60.9424381647
 51
90.0
  0
ARC
  5
1D9
330
1F
100
AcDbEntity
  8
1
100
AcDbCircle
 10
439.7985300041
 20
170.3109075122
 30
0.0
 40
1.960000000001641
100
AcDbArc
 50
0.0000000001
 51
60.6728312347
  0
ARC
  5
1DA
330
1F
100
AcDbEntity
  8
1
100
AcDbCircle
 10
275.7185300041
 20
170.3109075341
 30
0.0
 40
1.95999997812031
100
AcDbArc
 50
90.0
 51
119.057560684
  0
ARC
  5
1DB
330
1F
100
AcDbEntity
  8
1
100
AcDbCircle
 10
275.7185300041
 20
170.3109075341
 30
0.0
 40
1.959999977935453
100
AcDbArc
 50
119.327167617
 51
179.9999999999
  0
ARC
  5
1DC
330
1F
100
AcDbEntity
  8
1
100
AcDbCircle
 10
297.2585300491
 20
184.2709075341
 30
0.0
 40
5.0
100
AcDbArc
 50
0.0
 51
90.0
  0
ARC
  5
1DD
330
1F
100
AcDbEntity
  8
1
100
AcDbCircle
 10
289.2585300491
 20
184.2709075341
 30
0.0
 40
5.0
100
AcDbArc
 50
90.0
 51
180.0
  0
ARC
  5
1DE
330
1F
100
AcDbEntity
  8
1
100
AcDbCircle
 10
357.7585280491
 20
500.0619365563
 30
0.0
 40
68.05175530580476
100
AcDbArc
 50
191.1159199219
 51
275.7305709151
  0
CIRCLE
  5
1DF
330
1F
100
AcDbEntity
  8
1
100
AcDbCircle
 10
357.7585280491
 20
500.0619365563
 30
0.0
 40
63.00015371308054
  0
ARC
  5
1E0
330
1F
100
AcDbEntity
  8
1
100
AcDbCircle
 10
357.7585280491
 20
500.0619365563
 30
0.0
 40
72.27388913838296
100
AcDbArc
 50
190.4589978317
 51
275.3445754534
  0
ARC
  5
1E1
330
1F
100
AcDbEntity
  8
1
100
AcDbCircle
 10
357.7585280491
 20
500.0619365563
 30
0.0
 40
72.27388913838296
100
AcDbArc
 50
275.3445754534
 51
349.541002744
  0
ARC
  5
1E2
330
1F
100
AcDbEntity
  8
1
100
AcDbCircle
 10
357.7585280491
 20
500.0619365563
 30
0.0
 40
68.05175530580476
100
AcDbArc
 50
275.7305709151
 51
348.8840807274
  0
ARC
  5
1E3
330
1F
100
AcDbEntity
  8
1
100
AcDbCircle
 10
357.7585280491
 20
500.0619365563
 30
0.0
 40
72.27389266993612
100
AcDbArc
 50
10.4590019335
 51
84.6554249897
  0
ARC
  5
1E4
330
1F
100
AcDbEntity
  8
1
100
AcDbCircle
 10
357.7585280491
 20
500.0619365563
 30
0.0
 40
68.05175886919584
100
AcDbArc
 50
11.1159242295
 51
84.2694295893
  0
CIRCLE
  5
1E5
330
1F
100
AcDbEntity
  8
1
 62
   252
420
  9672088
100
AcDbCircle
 10
357.7585280491
 20
500.0619365563
 30
0.0
 40
59.20686895094499
  0
ARC
  5
1E6
330
1F
100
AcDbEntity
  8
1
100
AcDbCircle
 10
265.4585300491
 20
407.7619395563
 30
0.0
 40
0.2000000000001023
100
AcDbArc
 50
180.0
 51
270.0
  0
ARC
  5
1E7
330
1F
100
AcDbEntity
  8
1
100
AcDbCircle
 10
450.0585300491
 20
407.7619395563
 30
0.0
 40
0.2000000000000455
100
AcDbArc
 50
270.0
 51
0.0
  0
CIRCLE
  5
1E8
330
1F
100
AcDbEntity
  8
SLD-0
100
AcDbCircle
 10
357.7585280491
 20
500.0619365563
 30
0.0
 40
72.27388776620023
  0
CIRCLE
  5
1E9
330
1F
100
AcDbEntity
  8
SLD-0
100
AcDbCircle
 10
357.7585280491
 20
500.0619365563
 30
0.0
 40
68.05175394498163
  0
CIRCLE
  5
1EA
330
1F
100
AcDbEntity
  8
PIEZA
100
AcDbCircle
 10
357.7585280491
 20
500.0619365563
 30
0.0
 40
50.50000200000008
  0
CIRCLE
  5
1EB
330
1F
100
AcDbEntity
  8
PIEZA
100
AcDbCircle
 10
357.7585280491
 20
500.0619365563
 30
0.0
 40
15.66430641374956
  0
CIRCLE
  5
1EC
330
1F
100
AcDbEntity
  8
PIEZA
100
AcDbCircle
 10
357.7585280491
 20
500.0619365563
 30
0.0
 40
17.66430641374947
  0
CIRCLE
  5
1ED
330
1F
100
AcDbEntity
  8
PIEZA
100
AcDbCircle
 10
357.7585280491
 20
500.0619365563
 30
0.0
 40
27.45388660297157
  0
CIRCLE
  5
1EE
330
1F
100
AcDbEntity
  8
PIEZA
100
AcDbCircle
 10
357.7585280491
 20
500.0619365563
 30
0.0
 40
11.0
  0
CIRCLE
  5
1EF
330
1F
100
AcDbEntity
  8
PIEZA
100
AcDbCircle
 10
357.7585280491
 20
500.0619365563
 30
0.0
 40
12.25
  0
CIRCLE
  5
1F0
330
1F
100
AcDbEntity
  8
PIEZA
100
AcDbCircle
 10
357.7585280491
 20
500.0619365563
 30
0.0
 40
13.60690987826768
  0
ARC
  5
1F1
330
1F
100
AcDbEntity
  8
1
100
AcDbCircle
 10
401.6986106979
 20
200.60355176
 30
0.0
 40
2.00000000000004
100
AcDbArc
 50
182.0
 51
216.6126439307
  0
ARC
  5
1F2
330
1F
100
AcDbEntity
  8
1
100
AcDbCircle
 10
450.0585300491
 20
747.3619395563
 30
0.0
 40
0.2000000000000455
100
AcDbArc
 50
0.0
 51
90.0
  0
ARC
  5
1F3
330
1F
100
AcDbEntity
  8
1
100
AcDbCircle
 10
265.4585300491
 20
407.7619395563
 30
0.0
 40
0.2000000000001023
100
AcDbArc
 50
180.0
 51
270.0
  0
CIRCLE
  5
1F4
330
1F
100
AcDbEntity
  8
1
100
AcDbCircle
 10
357.7585259075
 20
655.0619384761
 30
0.0
 40
11.00000200000046
  0
CIRCLE
  5
1F5
330
1F
100
AcDbEntity
  8
1
100
AcDbCircle
 10
357.7585280491
 20
500.0619365563
 30
0.0
 40
11.00000414163889
  0
ARC
  5
1F6
330
1F
100
AcDbEntity
  8
1
100
AcDbCircle
 10
357.7585259075
 20
655.0619384761
 30
0.0
 40
68.05175530580475
100
AcDbArc
 50
191.1159199219
 51
275.7305709151
  0
CIRCLE
  5
1F7
330
1F
100
AcDbEntity
  8
1
100
AcDbCircle
 10
357.7585259075
 20
655.0619384761
 30
0.0
 40
63.00015371308054
  0
ARC
  5
1F8
330
1F
100
AcDbEntity
  8
1
100
AcDbCircle
 10
357.7585259075
 20
655.0619384761
 30
0.0
 40
72.27388913838298
100
AcDbArc
 50
190.4589978317
 51
275.3445754534
  0
ARC
  5
1F9
330
1F
100
AcDbEntity
  8
1
100
AcDbCircle
 10
357.7585259075
 20
655.0619384761
 30
0.0
 40
72.27388913838301
100
AcDbArc
 50
275.3445754534
 51
349.541002744
  0
ARC
  5
1FA
330
1F
100
AcDbEntity
  8
1
100
AcDbCircle
 10
357.7585259075
 20
655.0619384761
 30
0.0
 40
68.05175530580475
100
AcDbArc
 50
275.7305709151
 51
348.8840807274
  0
ARC
  5
1FB
330
1F
100
AcDbEntity
  8
1
100
AcDbCircle
 10
357.7585259075
 20
655.0619384761
 30
0.0
 40
72.27389266993606
100
AcDbArc
 50
10.4590019335
 51
84.6554249897
  0
ARC
  5
1FC
330
1F
100
AcDbEntity
  8
1
100
AcDbCircle
 10
357.7585259075
 20
655.0619384761
 30
0.0
 40
68.05175886919588
100
AcDbArc
 50
11.1159242295
 51
84.2694295893
  0
CIRCLE
  5
1FD
330
1F
100
AcDbEntity
  8
1
 62
   252
420
  9672088
100
AcDbCircle
 10
357.7585259075
 20
655.0619384761
 30
0.0
 40
59.20686895094499
  0
CIRCLE
  5
1FE
330
1F
100
AcDbEntity
  8
SLD-0
100
AcDbCircle
 10
357.7585259075
 20
655.0619384761
 30
0.0
 40
72.27388776620023
  0
CIRCLE
  5
1FF
330
1F
100
AcDbEntity
  8
SLD-0
100
AcDbCircle
 10
357.7585259075
 20
655.0619384761
 30
0.0
 40
68.05175394498163
  0
CIRCLE
  5
200
330
1F
100
AcDbEntity
  8
PIEZA
100
AcDbCircle
 10
357.7585259075
 20
655.0619384761
 30
0.0
 40
50.50000200000008
  0
CIRCLE
  5
201
330
1F
100
AcDbEntity
  8
PIEZA
100
AcDbCircle
 10
357.7585259075
 20
655.0619384761
 30
0.0
 40
15.66430641374956
  0
CIRCLE
  5
202
330
1F
100
AcDbEntity
  8
PIEZA
100
AcDbCircle
 10
357.7585259075
 20
655.0619384761
 30
0.0
 40
17.66430641374947
  0
CIRCLE
  5
203
330
1F
100
AcDbEntity
  8
PIEZA
100
AcDbCircle
 10
357.7585259075
 20
655.0619384761
 30
0.0
 40
27.45388660297157
  0
CIRCLE
  5
204
330
1F
100
AcDbEntity
  8
PIEZA
100
AcDbCircle
 10
357.7585259075
 20
655.0619384761
 30
0.0
 40
11.0
  0
CIRCLE
  5
205
330
1F
100
AcDbEntity
  8
PIEZA
100
AcDbCircle
 10
357.7585259075
 20
655.0619384761
 30
0.0
 40
12.25
  0
CIRCLE
  5
206
330
1F
100
AcDbEntity
  8
PIEZA
100
AcDbCircle
 10
357.7585259075
 20
655.0619384761
 30
0.0
 40
13.60690987826768
  0
CIRCLE
  5
207
330
1F
100
AcDbEntity
  8
1
100
AcDbCircle
 10
357.7585259075
 20
655.0619384761
 30
0.0
 40
11.00000414163884
  0
SPLINE
  5
208
330
1F
100
AcDbEntity
  8
PIEZA
370
    18
100
AcDbSpline
210
0.0
220
0.0
230
1.0
 70
     8
 71
     3
 72
    11
 73
     7
 74
     0
 42
0.000000001
 43
0.00000001
 40
2.0
 40
2.0
 40
2.0
 40
2.0
 40
3.0
 40
3.0
 40
3.0
 40
4.0
 40
4.0
 40
4.0
 40
4.0
 10
663.1847198570916
 20
33.47179307454923
 30
0.0
 10
663.8523152070015
 20
33.47179307454923
 30
0.0
 10
664.4306071634667
 20
34.05040800892943
 30
0.0
 10
664.4306071634667
 20
34.71764808313316
 30
0.0
 10
664.4306071634667
 20
35.38524343304313
 30
0.0
 10
663.8523152070015
 20
35.96382606963185
 30
0.0
 10
663.1847198570916
 20
35.96382606963185
 30
0.0
  0
SPLINE
  5
209
330
1F
100
AcDbEntity
  8
PIEZA
370
    18
100
AcDbSpline
210
0.0
220
0.0
230
1.0
 70
     8
 71
     3
 72
    11
 73
     7
 74
     0
 42
0.000000001
 43
0.00000001
 40
0.0
 40
0.0
 40
0.0
 40
0.0
 40
1.0
 40
1.0
 40
1.0
 40
2.0
 40
2.0
 40
2.0
 40
2.0
 10
663.1847198570916
 20
35.96382606963185
 30
0.0
 10
662.5171891027646
 20
35.96382606963185
 30
0.0
 10
661.9386064661757
 20
35.38524343304313
 30
0.0
 10
661.9386064661757
 20
34.71764808313316
 30
0.0
 10
661.9386064661757
 20
34.05040800892943
 30
0.0
 10
662.5171891027646
 20
33.47179307454923
 30
0.0
 10
663.1847198570916
 20
33.47179307454923
 30
0.0
  0
SPLINE
  5
20A
330
1F
100
AcDbEntity
  8
PIEZA
370
    18
100
AcDbSpline
210
0.0
220
0.0
230
1.0
 70
     8
 71
     3
 72
    11
 73
     7
 74
     0
 42
0.000000001
 43
0.00000001
 40
2.0
 40
2.0
 40
2.0
 40
2.0
 40
3.0
 40
3.0
 40
3.0
 40
4.0
 40
4.0
 40
4.0
 40
4.0
 10
663.1847198570916
 20
36.14185149627452
 30
0.0
 10
663.941069537991
 20
36.14185149627452
 30
0.0
 10
664.6086002923182
 20
35.47432074194743
 30
0.0
 10
664.6086002923182
 20
34.71764808313316
 30
0.0
 10
664.6086002923182
 20
33.91672744999003
 30
0.0
 10
663.941069537991
 20
33.29373535011513
 30
0.0
 10
663.1847198570916
 20
33.29373535011513
 30
0.0
  0
SPLINE
  5
20B
330
1F
100
AcDbEntity
  8
PIEZA
370
    18
100
AcDbSpline
210
0.0
220
0.0
230
1.0
 70
     8
 71
     3
 72
    11
 73
     7
 74
     0
 42
0.000000001
 43
0.00000001
 40
0.0
 40
0.0
 40
0.0
 40
0.0
 40
1.0
 40
1.0
 40
1.0
 40
2.0
 40
2.0
 40
2.0
 40
2.0
 10
663.1847198570916
 20
33.29373535011513
 30
0.0
 10
662.3837346283656
 20
33.29373535011513
 30
0.0
 10
661.7605164439502
 20
33.91672744999003
 30
0.0
 10
661.7605164439502
 20
34.71764808313316
 30
0.0
 10
661.7605164439502
 20
35.47432074194743
 30
0.0
 10
662.3837346283656
 20
36.14185149627452
 30
0.0
 10
663.1847198570916
 20
36.14185149627452
 30
0.0
  0
SPLINE
  5
20C
330
1F
100
AcDbEntity
  8
PIEZA
370
    18
100
AcDbSpline
210
0.0
220
0.0
230
1.0
 70
     8
 71
     3
 72
     8
 73
     4
 74
     0
 42
0.000000001
 43
0.00000001
 40
2.0
 40
2.0
 40
2.0
 40
2.0
 40
3.0
 40
3.0
 40
3.0
 40
3.0
 10
598.3000716615829
 20
34.40616818206733
 30
0.0
 10
599.1010568903091
 20
34.40616818206733
 30
0.0
 10
599.7242750747242
 20
34.31747844666081
 30
0.0
 10
600.124735391296
 20
34.09472057881713
 30
0.0
  0
SPLINE
  5
20D
330
1F
100
AcDbEntity
  8
PIEZA
370
    18
100
AcDbSpline
210
0.0
220
0.0
230
1.0
 70
     8
 71
     3
 72
    11
 73
     7
 74
     0
 42
0.000000001
 43
0.00000001
 40
3.0
 40
3.0
 40
3.0
 40
3.0
 40
4.0
 40
4.0
 40
4.0
 40
5.0
 40
5.0
 40
5.0
 40
5.0
 10
600.124735391296
 20
34.09472057881713
 30
0.0
 10
600.569589022258
 20
33.78327297556684
 30
0.0
 10
600.7920400610827
 20
33.24909980226443
 30
0.0
 10
600.7920400610827
 20
32.53712728685964
 30
0.0
 10
600.7920400610827
 20
32.04758966138384
 30
0.0
 10
600.7032695811973
 20
31.64716164260373
 30
0.0
 10
600.4805763089369
 20
31.37999431147382
 30
0.0
  0
SPLINE
  5
20E
330
1F
100
AcDbEntity
  8
PIEZA
370
    18
100
AcDbSpline
210
0.0
220
0.0
230
1.0
 70
     8
 71
     3
 72
     8
 73
     4
 74
     0
 42
0.000000001
 43
0.00000001
 40
5.0
 40
5.0
 40
5.0
 40
5.0
 40
6.0
 40
6.0
 40
6.0
 40
6.0
 10
600.4805763089369
 20
31.37999431147382
 30
0.0
 10
600.3915151489283
 20
31.24660443265772
 30
0.0
 10
600.2137481046173
 20
31.15759171933633
 30
0.0
 10
599.9910548323566
 20
31.06854670822353
 30
0.0
  0
SPLINE
  5
20F
330
1F
100
AcDbEntity
  8
PIEZA
370
    18
100
AcDbSpline
210
0.0
220
0.0
230
1.0
 70
     8
 71
     3
 72
     8
 73
     4
 74
     0
 42
0.000000001
 43
0.00000001
 40
6.0
 40
6.0
 40
6.0
 40
6.0
 40
7.0
 40
7.0
 40
7.0
 40
7.0
 10
599.9910548323566
 20
31.06854670822353
 30
0.0
 10
600.0800513967822
 20
31.02423413831174
 30
0.0
 10
600.1691125567909
 20
31.02423413831174
 30
0.0
 10
600.2137481046173
 20
30.97953399490224
 30
0.0
  0
SPLINE
  5
210
330
1F
100
AcDbEntity
  8
PIEZA
370
    18
100
AcDbSpline
210
0.0
220
0.0
230
1.0
 70
     8
 71
     3
 72
     8
 73
     4
 74
     0
 42
0.000000001
 43
0.00000001
 40
7.0
 40
7.0
 40
7.0
 40
7.0
 40
8.0
 40
8.0
 40
8.0
 40
8.0
 10
600.2137481046173
 20
30.97953399490224
 30
0.0
 10
600.3471864301206
 20
30.89055357937242
 30
0.0
 10
600.4805763089369
 20
30.75709910497333
 30
0.0
 10
600.569589022258
 20
30.62370922615723
 30
0.0
  0
SPLINE
  5
211
330
1F
100
AcDbEntity
  8
PIEZA
370
    18
100
AcDbSpline
210
0.0
220
0.0
230
1.0
 70
     8
 71
     3
 72
     8
 73
     4
 74
     0
 42
0.000000001
 43
0.00000001
 40
8.0
 40
8.0
 40
8.0
 40
8.0
 40
9.0
 40
9.0
 40
9.0
 40
9.0
 10
600.569589022258
 20
30.62370922615723
 30
0.0
 10
600.6142730167718
 20
30.44561920393165
 30
0.0
 10
600.6586501822667
 20
30.26756147949741
 30
0.0
 10
600.6586501822667
 20
30.04515888736004
 30
0.0
  0
SPLINE
  5
212
330
1F
100
AcDbEntity
  8
PIEZA
370
    18
100
AcDbSpline
210
0.0
220
0.0
230
1.0
 70
     8
 71
     3
 72
     8
 73
     4
 74
     0
 42
0.000000001
 43
0.00000001
 40
12.0
 40
12.0
 40
12.0
 40
12.0
 40
13.0
 40
13.0
 40
13.0
 40
13.0
 10
599.5015172068892
 20
29.77808844961994
 30
0.0
 10
599.5015172068892
 20
30.17854876619152
 30
0.0
 10
599.4125044935678
 20
30.40098365612045
 30
0.0
 10
599.2347535981527
 20
30.48999636944172
 30
0.0
  0
SPLINE
  5
213
330
1F
100
AcDbEntity
  8
PIEZA
370
    18
100
AcDbSpline
210
0.0
220
0.0
230
1.0
 70
     8
 71
     3
 72
     8
 73
     4
 74
     0
 42
0.000000001
 43
0.00000001
 40
13.0
 40
13.0
 40
13.0
 40
13.0
 40
14.0
 40
14.0
 40
14.0
 40
14.0
 10
599.2347535981527
 20
30.48999636944172
 30
0.0
 10
599.0566797248226
 20
30.57900908276313
 30
0.0
 10
598.7452321215728
 20
30.66808639166732
 30
0.0
 10
598.2110105015829
 20
30.66808639166732
 30
0.0
  0
SPLINE
  5
214
330
1F
100
AcDbEntity
  8
PIEZA
370
    18
100
AcDbSpline
210
0.0
220
0.0
230
1.0
 70
     8
 71
     3
 72
     8
 73
     4
 74
     0
 42
0.000000001
 43
0.00000001
 40
4.0
 40
4.0
 40
4.0
 40
4.0
 40
5.0
 40
5.0
 40
5.0
 40
5.0
 10
598.1663265070829
 20
31.55808433376732
 30
0.0
 10
598.7452321215866
 20
31.55808433376732
 30
0.0
 10
599.1010568903313
 20
31.64716164267163
 30
0.0
 10
599.2790661680781
 20
31.78051922369623
 30
0.0
  0
SPLINE
  5
215
330
1F
100
AcDbEntity
  8
PIEZA
370
    18
100
AcDbSpline
210
0.0
220
0.0
230
1.0
 70
     8
 71
     3
 72
    11
 73
     7
 74
     0
 42
0.000000001
 43
0.00000001
 40
5.0
 40
5.0
 40
5.0
 40
5.0
 40
6.0
 40
6.0
 40
6.0
 40
7.0
 40
7.0
 40
7.0
 40
7.0
 10
599.2790661680781
 20
31.78051922369623
 30
0.0
 10
599.457140041408
 20
31.86953193701752
 30
0.0
 10
599.5905299202243
 20
32.13666697035601
 30
0.0
 10
599.5905299202243
 20
32.58182743033712
 30
0.0
 10
599.5905299202243
 20
32.80419772468304
 30
0.0
 10
599.5462173503123
 20
32.98228774690862
 30
0.0
 10
599.5015172069029
 20
33.11574222130771
 30
0.0
  0
SPLINE
  5
216
330
1F
100
AcDbEntity
  8
PIEZA
370
    18
100
AcDbSpline
210
0.0
220
0.0
230
1.0
 70
     8
 71
     3
 72
     8
 73
     4
 74
     0
 42
0.000000001
 43
0.00000001
 40
7.0
 40
7.0
 40
7.0
 40
7.0
 40
8.0
 40
8.0
 40
8.0
 40
8.0
 10
599.5015172069029
 20
33.11574222130771
 30
0.0
 10
599.457140041408
 20
33.20472263683764
 30
0.0
 10
599.368127328087
 20
33.29373535015893
 30
0.0
 10
599.2790661680781
 20
33.33811251565363
 30
0.0
  0
SPLINE
  5
217
330
1F
100
AcDbEntity
  8
PIEZA
370
    18
100
AcDbSpline
210
0.0
220
0.0
230
1.0
 70
     8
 71
     3
 72
     8
 73
     4
 74
     0
 42
0.000000001
 43
0.00000001
 40
8.0
 40
8.0
 40
8.0
 40
8.0
 40
9.0
 40
9.0
 40
9.0
 40
9.0
 10
599.2790661680781
 20
33.33811251565363
 30
0.0
 10
599.145369460243
 20
33.42718982455794
 30
0.0
 10
599.0119957303228
 20
33.47179307459303
 30
0.0
 10
598.8339218569929
 20
33.47179307459303
 30
0.0
  0
SPLINE
  5
218
330
1F
100
AcDbEntity
  8
PIEZA
370
    18
100
AcDbSpline
210
0.0
220
0.0
230
1.0
 70
     8
 71
     3
 72
     8
 73
     4
 74
     0
 42
0.000000001
 43
0.00000001
 40
9.0
 40
9.0
 40
9.0
 40
9.0
 40
10.0
 40
10.0
 40
10.0
 40
10.0
 10
598.8339218569929
 20
33.47179307459303
 30
0.0
 10
598.6115354137512
 20
33.51620253787932
 30
0.0
 10
598.3890843749266
 20
33.51620253787932
 30
0.0
 10
598.1220139371711
 20
33.51620253787932
 30
0.0
  0
SPLINE
  5
219
330
1F
100
AcDbEntity
  8
PIEZA
370
    18
100
AcDbSpline
210
0.0
220
0.0
230
1.0
 70
     8
 71
     3
 72
     8
 73
     4
 74
     0
 42
0.000000001
 43
0.00000001
 40
0.0
 40
0.0
 40
0.0
 40
0.0
 40
1.0
 40
1.0
 40
1.0
 40
1.0
 10
611.6508805348176
 20
33.11574222129932
 30
0.0
 10
611.8289059614604
 20
33.64988309681033
 30
0.0
 10
612.1403535647105
 20
34.00570786555534
 30
0.0
 10
612.6298911901862
 20
34.22817505327565
 30
0.0
  0
SPLINE
  5
21A
330
1F
100
AcDbEntity
  8
PIEZA
370
    18
100
AcDbSpline
210
0.0
220
0.0
230
1.0
 70
     8
 71
     3
 72
    11
 73
     7
 74
     0
 42
0.000000001
 43
0.00000001
 40
1.0
 40
1.0
 40
1.0
 40
1.0
 40
2.0
 40
2.0
 40
2.0
 40
3.0
 40
3.0
 40
3.0
 40
3.0
 10
612.6298911901862
 20
34.22817505327565
 30
0.0
 10
613.0304161023411
 20
34.40616818212684
 30
0.0
 10
613.5643308933115
 20
34.45086832553643
 30
0.0
 10
614.1428489343173
 20
34.45086832553643
 30
0.0
 10
614.7660671187325
 20
34.45086832553643
 30
0.0
 10
615.4336624686425
 20
34.49524549103116
 30
0.0
 10
616.1009348406377
 20
34.49524549103116
 30
0.0
  0
SPLINE
  5
21B
330
1F
100
AcDbEntity
  8
PIEZA
370
    18
100
AcDbSpline
210
0.0
220
0.0
230
1.0
 70
     8
 71
     3
 72
     8
 73
     4
 74
     0
 42
0.000000001
 43
0.00000001
 40
4.0
 40
4.0
 40
4.0
 40
4.0
 40
5.0
 40
5.0
 40
5.0
 40
5.0
 10
617.1690228049375
 20
34.49524549103116
 30
0.0
 10
618.5488490525843
 20
34.49524549103116
 30
0.0
 10
619.4832241601264
 20
34.36185561221505
 30
0.0
 10
619.9727294878106
 20
33.96136299785205
 30
0.0
  0
SPLINE
  5
21C
330
1F
100
AcDbEntity
  8
PIEZA
370
    18
100
AcDbSpline
210
0.0
220
0.0
230
1.0
 70
     8
 71
     3
 72
     8
 73
     4
 74
     0
 42
0.000000001
 43
0.00000001
 40
5.0
 40
5.0
 40
5.0
 40
5.0
 40
6.0
 40
6.0
 40
6.0
 40
6.0
 10
619.9727294878106
 20
33.96136299785205
 30
0.0
 10
620.4622671132867
 20
33.56087038348893
 30
0.0
 10
620.6847020032154
 20
32.75959447463957
 30
0.0
 10
620.6403248377208
 20
31.60275217937694
 30
0.0
  0
SPLINE
  5
21D
330
1F
100
AcDbEntity
  8
PIEZA
370
    18
100
AcDbSpline
210
0.0
220
0.0
230
1.0
 70
     8
 71
     3
 72
     8
 73
     4
 74
     0
 42
0.000000001
 43
0.00000001
 40
6.0
 40
6.0
 40
6.0
 40
6.0
 40
7.0
 40
7.0
 40
7.0
 40
7.0
 10
620.6403248377208
 20
31.60275217937694
 30
0.0
 10
620.6403248377208
 20
31.06854670828305
 30
0.0
 10
620.6403248377208
 20
30.53469651289545
 30
0.0
 10
620.5956569921026
 20
30.04515888741956
 30
0.0
  0
SPLINE
  5
21E
330
1F
100
AcDbEntity
  8
PIEZA
370
    18
100
AcDbSpline
210
0.0
220
0.0
230
1.0
 70
     8
 71
     3
 72
     8
 73
     4
 74
     0
 42
0.000000001
 43
0.00000001
 40
7.0
 40
7.0
 40
7.0
 40
7.0
 40
8.0
 40
8.0
 40
8.0
 40
8.0
 10
620.5956569921026
 20
30.04515888741956
 30
0.0
 10
620.5069349589047
 20
29.46657625083084
 30
0.0
 10
620.2842093888526
 20
29.02141579084975
 30
0.0
 10
619.8837167744896
 20
28.75447454426016
 30
0.0
  0
SPLINE
  5
21F
330
1F
100
AcDbEntity
  8
PIEZA
370
    18
100
AcDbSpline
210
0.0
220
0.0
230
1.0
 70
     8
 71
     3
 72
     8
 73
     4
 74
     0
 42
0.000000001
 43
0.00000001
 40
8.0
 40
8.0
 40
8.0
 40
8.0
 40
9.0
 40
9.0
 40
9.0
 40
9.0
 10
619.8837167744896
 20
28.75447454426016
 30
0.0
 10
619.5278920057445
 20
28.48756559546215
 30
0.0
 10
618.9936865346505
 20
28.35401422768863
 30
0.0
 10
618.3261557803235
 20
28.30950787102794
 30
0.0
  0
SPLINE
  5
220
330
1F
100
AcDbEntity
  8
PIEZA
370
    18
100
AcDbSpline
210
0.0
220
0.0
230
1.0
 70
     8
 71
     3
 72
     8
 73
     4
 74
     0
 42
0.000000001
 43
0.00000001
 40
9.0
 40
9.0
 40
9.0
 40
9.0
 40
10.0
 40
10.0
 40
10.0
 40
10.0
 10
618.3261557803235
 20
28.30950787102794
 30
0.0
 10
617.7475408459433
 20
28.26500151436734
 30
0.0
 10
617.2136906505558
 20
28.26500151436734
 30
0.0
 10
616.635108013967
 20
28.26500151436734
 30
0.0
  0
SPLINE
  5
221
330
1F
100
AcDbEntity
  8
PIEZA
370
    18
100
AcDbSpline
210
0.0
220
0.0
230
1.0
 70
     8
 71
     3
 72
     8
 73
     4
 74
     0
 42
0.000000001
 43
0.00000001
 40
12.0
 40
12.0
 40
12.0
 40
12.0
 40
13.0
 40
13.0
 40
13.0
 40
13.0
 10
615.0775147219828
 20
28.26500151436733
 30
0.0
 10
614.6323865597931
 20
28.26500151436733
 30
0.0
 10
614.1428489343173
 20
28.26500151436733
 30
0.0
 10
613.6533113088414
 20
28.30950787102794
 30
0.0
  0
SPLINE
  5
222
330
1F
100
AcDbEntity
  8
PIEZA
370
    18
100
AcDbSpline
210
0.0
220
0.0
230
1.0
 70
     8
 71
     3
 72
     8
 73
     4
 74
     0
 42
0.000000001
 43
0.00000001
 40
13.0
 40
13.0
 40
13.0
 40
13.0
 40
14.0
 40
14.0
 40
14.0
 40
14.0
 10
613.6533113088414
 20
28.30950787102794
 30
0.0
 10
613.3418637055912
 20
28.35401422768863
 30
0.0
 10
613.0304161023411
 20
28.39852058434932
 30
0.0
 10
612.7633456645855
 20
28.48756559546215
 30
0.0
  0
SPLINE
  5
223
330
1F
100
AcDbEntity
  8
PIEZA
370
    18
100
AcDbSpline
210
0.0
220
0.0
230
1.0
 70
     8
 71
     3
 72
     8
 73
     4
 74
     0
 42
0.000000001
 43
0.00000001
 40
14.0
 40
14.0
 40
14.0
 40
14.0
 40
15.0
 40
15.0
 40
15.0
 40
15.0
 10
612.7633456645855
 20
28.48756559546215
 30
0.0
 10
612.4518657635439
 20
28.57644911761756
 30
0.0
 10
612.1847307302053
 20
28.75447454426016
 30
0.0
 10
611.9623281380678
 20
29.02141579084975
 30
0.0
  0
SPLINE
  5
224
330
1F
100
AcDbEntity
  8
PIEZA
370
    18
100
AcDbSpline
210
0.0
220
0.0
230
1.0
 70
     8
 71
     3
 72
     8
 73
     4
 74
     0
 42
0.000000001
 43
0.00000001
 40
15.0
 40
15.0
 40
15.0
 40
15.0
 40
16.0
 40
16.0
 40
16.0
 40
16.0
 10
611.9623281380678
 20
29.02141579084975
 30
0.0
 10
611.739893248139
 20
29.33305718084882
 30
0.0
 10
611.6062126891994
 20
29.73371128416932
 30
0.0
 10
611.5618193748091
 20
30.17854876623563
 30
0.0
  0
SPLINE
  5
225
330
1F
100
AcDbEntity
  8
PIEZA
370
    18
100
AcDbSpline
210
0.0
220
0.0
230
1.0
 70
     8
 71
     3
 72
    11
 73
     7
 74
     0
 42
0.000000001
 43
0.00000001
 40
16.0
 40
16.0
 40
16.0
 40
16.0
 40
17.0
 40
17.0
 40
17.0
 40
18.0
 40
18.0
 40
18.0
 40
18.0
 10
611.5618193748091
 20
30.17854876623563
 30
0.0
 10
611.5171353802954
 20
30.62370922621674
 30
0.0
 10
611.5171353802954
 20
30.97953399496175
 30
0.0
 10
611.5171353802954
 20
31.33568174162157
 30
0.0
 10
611.5171353802954
 20
31.91423208041876
 30
0.0
 10
611.5618193748091
 20
32.49275012142444
 30
0.0
 10
611.6508805348176
 20
33.11574222129932
 30
0.0
  0
SPLINE
  5
226
330
1F
100
AcDbEntity
  8
PIEZA
370
    18
100
AcDbSpline
210
0.0
220
0.0
230
1.0
 70
     8
 71
     3
 72
     8
 73
     4
 74
     0
 42
0.000000001
 43
0.00000001
 40
1.0
 40
1.0
 40
1.0
 40
1.0
 40
2.0
 40
2.0
 40
2.0
 40
2.0
 10
614.4989966809746
 20
33.51620253786934
 30
0.0
 10
613.7869918677783
 20
33.51620253786934
 30
0.0
 10
613.3418637055886
 20
33.42718982454796
 30
0.0
 10
613.0747932678332
 20
33.29373535014896
 30
0.0
  0
SPLINE
  5
227
330
1F
100
AcDbEntity
  8
PIEZA
370
    18
100
AcDbSpline
210
0.0
220
0.0
230
1.0
 70
     8
 71
     3
 72
     8
 73
     4
 74
     0
 42
0.000000001
 43
0.00000001
 40
2.0
 40
2.0
 40
2.0
 40
2.0
 40
3.0
 40
3.0
 40
3.0
 40
3.0
 10
613.0747932678332
 20
33.29373535014896
 30
0.0
 10
612.8967032456075
 20
33.16034547133282
 30
0.0
 10
612.7633456645829
 20
32.84857489016785
 30
0.0
 10
612.7633456645829
 20
32.22567968366733
 30
0.0
  0
SPLINE
  5
228
330
1F
100
AcDbEntity
  8
PIEZA
370
    18
100
AcDbSpline
210
0.0
220
0.0
230
1.0
 70
     8
 71
     3
 72
     8
 73
     4
 74
     0
 42
0.000000001
 43
0.00000001
 40
5.0
 40
5.0
 40
5.0
 40
5.0
 40
6.0
 40
6.0
 40
6.0
 40
6.0
 10
612.7189684990828
 20
30.93515682946734
 30
0.0
 10
612.7189684990828
 20
30.62370922621717
 30
0.0
 10
612.7189684990828
 20
30.35663878846166
 30
0.0
 10
612.7633456645776
 20
30.13417160074136
 30
0.0
  0
SPLINE
  5
229
330
1F
100
AcDbEntity
  8
PIEZA
370
    18
100
AcDbSpline
210
0.0
220
0.0
230
1.0
 70
     8
 71
     3
 72
     8
 73
     4
 74
     0
 42
0.000000001
 43
0.00000001
 40
6.0
 40
6.0
 40
6.0
 40
6.0
 40
7.0
 40
7.0
 40
7.0
 40
7.0
 10
612.7633456645776
 20
30.13417160074136
 30
0.0
 10
612.7633456645776
 20
29.91147832848058
 30
0.0
 10
612.8523260801074
 20
29.77808844966447
 30
0.0
 10
612.9413387934288
 20
29.64434329514217
 30
0.0
  0
SPLINE
  5
22A
330
1F
100
AcDbEntity
  8
PIEZA
370
    18
100
AcDbSpline
210
0.0
220
0.0
230
1.0
 70
     8
 71
     3
 72
     8
 73
     4
 74
     0
 42
0.000000001
 43
0.00000001
 40
7.0
 40
7.0
 40
7.0
 40
7.0
 40
8.0
 40
8.0
 40
8.0
 40
8.0
 10
612.9413387934288
 20
29.64434329514217
 30
0.0
 10
612.986006639047
 20
29.51095341632607
 30
0.0
 10
613.1637736833576
 20
29.42194070300466
 30
0.0
 10
613.3418637055833
 20
29.37756353750999
 30
0.0
  0
SPLINE
  5
22B
330
1F
100
AcDbEntity
  8
PIEZA
370
    18
100
AcDbSpline
210
0.0
220
0.0
230
1.0
 70
     8
 71
     3
 72
     8
 73
     4
 74
     0
 42
0.000000001
 43
0.00000001
 40
8.0
 40
8.0
 40
8.0
 40
8.0
 40
9.0
 40
9.0
 40
9.0
 40
9.0
 10
613.3418637055833
 20
29.37756353750999
 30
0.0
 10
613.5643308933037
 20
29.28855082418867
 30
0.0
 10
613.8757784965538
 20
29.24401216973647
 30
0.0
 10
614.2765294932487
 20
29.24401216973647
 30
0.0
  0
SPLINE
  5
22C
330
1F
100
AcDbEntity
  8
PIEZA
370
    18
100
AcDbSpline
210
0.0
220
0.0
230
1.0
 70
     8
 71
     3
 72
     8
 73
     4
 74
     0
 42
0.000000001
 43
0.00000001
 40
12.0
 40
12.0
 40
12.0
 40
12.0
 40
13.0
 40
13.0
 40
13.0
 40
13.0
 10
616.6794851794488
 20
29.19950581313649
 30
0.0
 10
617.258035518246
 20
29.19950581313649
 30
0.0
 10
617.7922409893397
 20
29.19950581313649
 30
0.0
 10
618.3707590303455
 20
29.24401216979709
 30
0.0
  0
SPLINE
  5
22D
330
1F
100
AcDbEntity
  8
PIEZA
370
    18
100
AcDbSpline
210
0.0
220
0.0
230
1.0
 70
     8
 71
     3
 72
     8
 73
     4
 74
     0
 42
0.000000001
 43
0.00000001
 40
13.0
 40
13.0
 40
13.0
 40
13.0
 40
14.0
 40
14.0
 40
14.0
 40
14.0
 10
618.3707590303455
 20
29.24401216979709
 30
0.0
 10
618.8602966558215
 20
29.33305718090987
 30
0.0
 10
619.1271410090368
 20
29.46657625089188
 30
0.0
 10
619.260821567976
 20
29.64434329520279
 30
0.0
  0
SPLINE
  5
22E
330
1F
100
AcDbEntity
  8
PIEZA
370
    18
100
AcDbSpline
210
0.0
220
0.0
230
1.0
 70
     8
 71
     3
 72
     8
 73
     4
 74
     0
 42
0.000000001
 43
0.00000001
 40
14.0
 40
14.0
 40
14.0
 40
14.0
 40
15.0
 40
15.0
 40
15.0
 40
15.0
 10
619.260821567976
 20
29.64434329520279
 30
0.0
 10
619.394211446792
 20
29.86710116304647
 30
0.0
 10
619.4385886122868
 20
30.17854876629668
 30
0.0
 10
619.4385886122868
 20
30.57900908286829
 30
0.0
  0
SPLINE
  5
22F
330
1F
100
AcDbEntity
  8
PIEZA
370
    18
100
AcDbSpline
210
0.0
220
0.0
230
1.0
 70
     8
 71
     3
 72
     8
 73
     4
 74
     0
 42
0.000000001
 43
0.00000001
 40
16.0
 40
16.0
 40
16.0
 40
16.0
 40
17.0
 40
17.0
 40
17.0
 40
17.0
 10
619.4385886123257
 20
31.73614205819147
 30
0.0
 10
619.4385886123257
 20
32.00321249594695
 30
0.0
 10
619.4385886123257
 20
32.31475699257167
 30
0.0
 10
619.3942114468309
 20
32.58182743032715
 30
0.0
  0
SPLINE
  5
230
330
1F
100
AcDbEntity
  8
PIEZA
370
    18
100
AcDbSpline
210
0.0
220
0.0
230
1.0
 70
     8
 71
     3
 72
     8
 73
     4
 74
     0
 42
0.000000001
 43
0.00000001
 40
17.0
 40
17.0
 40
17.0
 40
17.0
 40
18.0
 40
18.0
 40
18.0
 40
18.0
 10
619.3942114468309
 20
32.58182743032715
 30
0.0
 10
619.3942114468309
 20
32.89327503357734
 30
0.0
 10
619.3051341379265
 20
33.07136505580304
 30
0.0
 10
619.2161214246054
 20
33.20472263682766
 30
0.0
  0
SPLINE
  5
231
330
1F
100
AcDbEntity
  8
PIEZA
370
    18
100
AcDbSpline
210
0.0
220
0.0
230
1.0
 70
     8
 71
     3
 72
     8
 73
     4
 74
     0
 42
0.000000001
 43
0.00000001
 40
18.0
 40
18.0
 40
18.0
 40
18.0
 40
19.0
 40
19.0
 40
19.0
 40
19.0
 10
619.2161214246054
 20
33.20472263682766
 30
0.0
 10
619.0827315457891
 20
33.33811251564365
 30
0.0
 10
618.9490509868498
 20
33.38281265905324
 30
0.0
 10
618.8156611080336
 20
33.42718982454796
 30
0.0
  0
SPLINE
  5
232
330
1F
100
AcDbEntity
  8
PIEZA
370
    18
100
AcDbSpline
210
0.0
220
0.0
230
1.0
 70
     8
 71
     3
 72
     8
 73
     4
 74
     0
 42
0.000000001
 43
0.00000001
 40
19.0
 40
19.0
 40
19.0
 40
19.0
 40
20.0
 40
20.0
 40
20.0
 40
20.0
 10
618.8156611080336
 20
33.42718982454796
 30
0.0
 10
618.459513361374
 20
33.51620253786934
 30
0.0
 10
618.0593114271342
 20
33.51620253786934
 30
0.0
 10
617.7031636804745
 20
33.51620253786934
 30
0.0
  0
SPLINE
  5
233
330
1F
100
AcDbEntity
  8
PIEZA
370
    18
100
AcDbSpline
210
0.0
220
0.0
230
1.0
 70
     8
 71
     3
 72
     8
 73
     4
 74
     0
 42
0.000000001
 43
0.00000001
 40
2.0
 40
2.0
 40
2.0
 40
2.0
 40
3.0
 40
3.0
 40
3.0
 40
3.0
 10
629.0068739339371
 20
32.67080784587858
 30
0.0
 10
629.0068739339371
 20
32.80419772469468
 30
0.0
 10
628.9622383861106
 20
32.93765219909366
 30
0.0
 10
628.9178612206159
 20
33.11574222131934
 30
0.0
  0
SPLINE
  5
234
330
1F
100
AcDbEntity
  8
PIEZA
370
    18
100
AcDbSpline
210
0.0
220
0.0
230
1.0
 70
     8
 71
     3
 72
     8
 73
     4
 74
     0
 42
0.000000001
 43
0.00000001
 40
3.0
 40
3.0
 40
3.0
 40
3.0
 40
4.0
 40
4.0
 40
4.0
 40
4.0
 10
628.9178612206159
 20
33.11574222131934
 30
0.0
 10
628.9178612206159
 20
33.20472263684916
 30
0.0
 10
628.8287839117118
 20
33.29373535017057
 30
0.0
 10
628.6953940328955
 20
33.33811251566527
 30
0.0
  0
SPLINE
  5
235
330
1F
100
AcDbEntity
  8
PIEZA
370
    18
100
AcDbSpline
210
0.0
220
0.0
230
1.0
 70
     8
 71
     3
 72
     8
 73
     4
 74
     0
 42
0.000000001
 43
0.00000001
 40
4.0
 40
4.0
 40
4.0
 40
4.0
 40
5.0
 40
5.0
 40
5.0
 40
5.0
 10
628.6953940328955
 20
33.33811251566527
 30
0.0
 10
628.4727330584261
 20
33.42718982456957
 30
0.0
 10
628.1165853117664
 20
33.47179307460467
 30
0.0
 10
627.7160926974033
 20
33.51620253789084
 30
0.0
  0
SPLINE
  5
236
330
1F
100
AcDbEntity
  8
PIEZA
370
    18
100
AcDbSpline
210
0.0
220
0.0
230
1.0
 70
    24
 71
     3
 72
     8
 73
     4
 74
     0
 42
0.000000001
 43
0.00000001
 40
5.0
 40
5.0
 40
5.0
 40
5.0
 40
6.0
 40
6.0
 40
6.0
 40
6.0
 10
627.7160926974033
 20
33.51620253789084
 30
0.0
 10
627.2711906197541
 20
33.51620253789084
 30
0.0
 10
626.8707303031824
 20
33.51620253789084
 30
0.0
 10
626.5145825565227
 20
33.51620253789084
 30
0.0
  0
SPLINE
  5
237
330
1F
100
AcDbEntity
  8
PIEZA
370
    18
100
AcDbSpline
210
0.0
220
0.0
230
1.0
 70
    24
 71
     3
 72
     8
 73
     4
 74
     0
 42
0.000000001
 43
0.00000001
 40
9.0
 40
9.0
 40
9.0
 40
9.0
 40
10.0
 40
10.0
 40
10.0
 40
10.0
 10
626.2031349533228
 20
33.51620253789084
 30
0.0
 10
625.8916873500727
 20
33.51620253789084
 30
0.0
 10
625.4465591878832
 20
33.51620253789084
 30
0.0
 10
624.9570215624072
 20
33.51620253789084
 30
0.0
  0
SPLINE
  5
238
330
1F
100
AcDbEntity
  8
PIEZA
370
    18
100
AcDbSpline
210
0.0
220
0.0
230
1.0
 70
     8
 71
     3
 72
     8
 73
     4
 74
     0
 42
0.000000001
 43
0.00000001
 40
10.0
 40
10.0
 40
10.0
 40
10.0
 40
11.0
 40
11.0
 40
11.0
 40
11.0
 10
624.9570215624072
 20
33.51620253789084
 30
0.0
 10
624.4674839369314
 20
33.47179307460467
 30
0.0
 10
624.0669590247768
 20
33.38281265907477
 30
0.0
 10
623.7555114215268
 20
33.29373535017057
 30
0.0
  0
SPLINE
  5
239
330
1F
100
AcDbEntity
  8
PIEZA
370
    18
100
AcDbSpline
210
0.0
220
0.0
230
1.0
 70
     8
 71
     3
 72
     8
 73
     4
 74
     0
 42
0.000000001
 43
0.00000001
 40
11.0
 40
11.0
 40
11.0
 40
11.0
 40
12.0
 40
12.0
 40
12.0
 40
12.0
 10
623.7555114215268
 20
33.29373535017057
 30
0.0
 10
623.6221215427106
 20
33.24909980234386
 30
0.0
 10
623.5328181492657
 20
33.16034547135443
 30
0.0
 10
623.488440983771
 20
33.07136505582465
 30
0.0
  0
SPLINE
  5
23A
330
1F
100
AcDbEntity
  8
PIEZA
370
    18
100
AcDbSpline
210
0.0
220
0.0
230
1.0
 70
     8
 71
     3
 72
     8
 73
     4
 74
     0
 42
0.000000001
 43
0.00000001
 40
12.0
 40
12.0
 40
12.0
 40
12.0
 40
13.0
 40
13.0
 40
13.0
 40
13.0
 10
623.488440983771
 20
33.07136505582465
 30
0.0
 10
623.4440638182764
 20
32.93765219909366
 30
0.0
 10
623.3994282704497
 20
32.80419772469468
 30
0.0
 10
623.4440638182764
 20
32.67080784587858
 30
0.0
  0
SPLINE
  5
23B
330
1F
100
AcDbEntity
  8
PIEZA
370
    18
100
AcDbSpline
210
0.0
220
0.0
230
1.0
 70
     8
 71
     3
 72
     8
 73
     4
 74
     0
 42
0.000000001
 43
0.00000001
 40
13.0
 40
13.0
 40
13.0
 40
13.0
 40
14.0
 40
14.0
 40
14.0
 40
14.0
 10
623.4440638182764
 20
32.67080784587858
 30
0.0
 10
623.4440638182764
 20
32.35906956250508
 30
0.0
 10
623.5328181492657
 20
32.18130251819417
 30
0.0
 10
623.7108758737
 20
32.09228980487286
 30
0.0
  0
SPLINE
  5
23C
330
1F
100
AcDbEntity
  8
PIEZA
370
    18
100
AcDbSpline
210
0.0
220
0.0
230
1.0
 70
     8
 71
     3
 72
     8
 73
     4
 74
     0
 42
0.000000001
 43
0.00000001
 40
14.0
 40
14.0
 40
14.0
 40
14.0
 40
15.0
 40
15.0
 40
15.0
 40
15.0
 10
623.7108758737
 20
32.09228980487286
 30
0.0
 10
623.9335691459607
 20
31.95860924593347
 30
0.0
 10
624.2004134991759
 20
31.91423208043878
 30
0.0
 10
624.6011967936623
 20
31.91423208043878
 30
0.0
  0
SPLINE
  5
23D
330
1F
100
AcDbEntity
  8
PIEZA
370
    18
100
AcDbSpline
210
0.0
220
0.0
230
1.0
 70
     8
 71
     3
 72
     8
 73
     4
 74
     0
 42
0.000000001
 43
0.00000001
 40
15.0
 40
15.0
 40
15.0
 40
15.0
 40
16.0
 40
16.0
 40
16.0
 40
16.0
 10
624.6011967936623
 20
31.91423208043878
 30
0.0
 10
624.8679442535029
 20
31.91423208043878
 30
0.0
 10
625.0907021213467
 20
31.86953193702915
 30
0.0
 10
625.3574818789789
 20
31.86953193702915
 30
0.0
  0
SPLINE
  5
23E
330
1F
100
AcDbEntity
  8
PIEZA
370
    18
100
AcDbSpline
210
0.0
220
0.0
230
1.0
 70
     8
 71
     3
 72
     8
 73
     4
 74
     0
 42
0.000000001
 43
0.00000001
 40
19.0
 40
19.0
 40
19.0
 40
19.0
 40
20.0
 40
20.0
 40
20.0
 40
20.0
 10
626.9594523364789
 20
31.91423208042916
 30
0.0
 10
627.4489576641635
 20
31.91423208042916
 30
0.0
 10
627.9388182675542
 20
31.86953193701954
 30
0.0
 10
628.3836557496204
 20
31.86953193701954
 30
0.0
  0
SPLINE
  5
23F
330
1F
100
AcDbEntity
  8
PIEZA
370
    18
100
AcDbSpline
210
0.0
220
0.0
230
1.0
 70
     8
 71
     3
 72
     8
 73
     4
 74
     0
 42
0.000000001
 43
0.00000001
 40
20.0
 40
20.0
 40
20.0
 40
20.0
 40
21.0
 40
21.0
 40
21.0
 40
21.0
 10
628.3836557496204
 20
31.86953193701954
 30
0.0
 10
629.0512510995304
 20
31.82521936710774
 30
0.0
 10
629.540756427215
 20
31.64716164267365
 30
0.0
 10
629.8522363282564
 20
31.37999431154365
 30
0.0
  0
SPLINE
  5
240
330
1F
100
AcDbEntity
  8
PIEZA
370
    18
100
AcDbSpline
210
0.0
220
0.0
230
1.0
 70
     8
 71
     3
 72
     8
 73
     4
 74
     0
 42
0.000000001
 43
0.00000001
 40
21.0
 40
21.0
 40
21.0
 40
21.0
 40
22.0
 40
22.0
 40
22.0
 40
22.0
 10
629.8522363282564
 20
31.37999431154365
 30
0.0
 10
630.2083840749164
 20
31.11324685170304
 30
0.0
 10
630.3417739537326
 20
30.66808639172184
 30
0.0
 10
630.3417739537326
 20
30.13417160075126
 30
0.0
  0
SPLINE
  5
241
330
1F
100
AcDbEntity
  8
PIEZA
370
    18
100
AcDbSpline
210
0.0
220
0.0
230
1.0
 70
     8
 71
     3
 72
     8
 73
     4
 74
     0
 42
0.000000001
 43
0.00000001
 40
22.0
 40
22.0
 40
22.0
 40
22.0
 40
23.0
 40
23.0
 40
23.0
 40
23.0
 10
630.3417739537326
 20
30.13417160075126
 30
0.0
 10
630.3417739537326
 20
29.77808844967445
 30
0.0
 10
630.2527612404111
 20
29.46657625084124
 30
0.0
 10
630.119306766012
 20
29.19950581308573
 30
0.0
  0
SPLINE
  5
242
330
1F
100
AcDbEntity
  8
PIEZA
370
    18
100
AcDbSpline
210
0.0
220
0.0
230
1.0
 70
     8
 71
     3
 72
     8
 73
     4
 74
     0
 42
0.000000001
 43
0.00000001
 40
23.0
 40
23.0
 40
23.0
 40
23.0
 40
24.0
 40
24.0
 40
24.0
 40
24.0
 10
630.119306766012
 20
29.19950581308573
 30
0.0
 10
629.9859168871959
 20
28.88802591204405
 30
0.0
 10
629.7188464494403
 20
28.70996818760996
 30
0.0
 10
629.3183215372859
 20
28.53191046317574
 30
0.0
  0
SPLINE
  5
243
330
1F
100
AcDbEntity
  8
PIEZA
370
    18
100
AcDbSpline
210
0.0
220
0.0
230
1.0
 70
     8
 71
     3
 72
     8
 73
     4
 74
     0
 42
0.000000001
 43
0.00000001
 40
24.0
 40
24.0
 40
24.0
 40
24.0
 40
25.0
 40
25.0
 40
25.0
 40
25.0
 10
629.3183215372859
 20
28.53191046317574
 30
0.0
 10
628.9622383862092
 20
28.39852058435972
 30
0.0
 10
628.5617134740546
 20
28.35401422769903
 30
0.0
 10
628.0721758485788
 20
28.30950787103834
 30
0.0
  0
SPLINE
  5
244
330
1F
100
AcDbEntity
  8
PIEZA
370
    18
100
AcDbSpline
210
0.0
220
0.0
230
1.0
 70
     8
 71
     3
 72
     8
 73
     4
 74
     0
 42
0.000000001
 43
0.00000001
 40
25.0
 40
25.0
 40
25.0
 40
25.0
 40
26.0
 40
26.0
 40
26.0
 40
26.0
 10
628.0721758485788
 20
28.30950787103834
 30
0.0
 10
627.6270476863892
 20
28.26500151437774
 30
0.0
 10
627.1822102043228
 20
28.26500151437774
 30
0.0
 10
626.7370497443418
 20
28.26500151437774
 30
0.0
  0
SPLINE
  5
245
330
1F
100
AcDbEntity
  8
PIEZA
370
    18
100
AcDbSpline
210
0.0
220
0.0
230
1.0
 70
     8
 71
     3
 72
     8
 73
     4
 74
     0
 42
0.000000001
 43
0.00000001
 40
29.0
 40
29.0
 40
29.0
 40
29.0
 40
30.0
 40
30.0
 40
30.0
 40
30.0
 10
626.2031349534419
 20
28.26500151437774
 30
0.0
 10
625.4909363534971
 20
28.26500151437774
 30
0.0
 10
624.8236316837101
 20
28.30950787103834
 30
0.0
 10
624.1116591683057
 20
28.35401422769903
 30
0.0
  0
SPLINE
  5
246
330
1F
100
AcDbEntity
  8
PIEZA
370
    18
100
AcDbSpline
210
0.0
220
0.0
230
1.0
 70
     8
 71
     3
 72
     8
 73
     4
 74
     0
 42
0.000000001
 43
0.00000001
 40
30.0
 40
30.0
 40
30.0
 40
30.0
 40
31.0
 40
31.0
 40
31.0
 40
31.0
 10
624.1116591683057
 20
28.35401422769903
 30
0.0
 10
623.3994282705688
 20
28.44289774985447
 30
0.0
 10
622.8655134795982
 20
28.57644911762797
 30
0.0
 10
622.5984430418428
 20
28.93240307753883
 30
0.0
  0
SPLINE
  5
247
330
1F
100
AcDbEntity
  8
PIEZA
370
    18
100
AcDbSpline
210
0.0
220
0.0
230
1.0
 70
     8
 71
     3
 72
     8
 73
     4
 74
     0
 42
0.000000001
 43
0.00000001
 40
31.0
 40
31.0
 40
31.0
 40
31.0
 40
32.0
 40
32.0
 40
32.0
 40
32.0
 10
622.5984430418428
 20
28.93240307753883
 30
0.0
 10
622.3313080085044
 20
29.19950581308573
 30
0.0
 10
622.1979181296883
 20
29.68901114077014
 30
0.0
 10
622.2422952951829
 20
30.26756147956733
 30
0.0
  0
SPLINE
  5
248
330
1F
100
AcDbEntity
  8
PIEZA
370
    18
100
AcDbSpline
210
0.0
220
0.0
230
1.0
 70
     8
 71
     3
 72
     8
 73
     4
 74
     0
 42
0.000000001
 43
0.00000001
 40
37.0
 40
37.0
 40
37.0
 40
37.0
 40
38.0
 40
38.0
 40
38.0
 40
38.0
 10
623.3994282705828
 20
30.17854876616733
 30
0.0
 10
623.3994282705828
 20
29.95611387623845
 30
0.0
 10
623.4440638184095
 20
29.77808844959575
 30
0.0
 10
623.4884409839042
 20
29.64434329507333
 30
0.0
  0
SPLINE
  5
249
330
1F
100
AcDbEntity
  8
PIEZA
370
    18
100
AcDbSpline
210
0.0
220
0.0
230
1.0
 70
     8
 71
     3
 72
     8
 73
     4
 74
     0
 42
0.000000001
 43
0.00000001
 40
38.0
 40
38.0
 40
38.0
 40
38.0
 40
39.0
 40
39.0
 40
39.0
 40
39.0
 10
623.4884409839042
 20
29.64434329507333
 30
0.0
 10
623.4884409839042
 20
29.59999842737015
 30
0.0
 10
623.5328181493988
 20
29.55545977291795
 30
0.0
 10
623.6221215428437
 20
29.46657625076253
 30
0.0
  0
SPLINE
  5
24A
330
1F
100
AcDbEntity
  8
PIEZA
370
    18
100
AcDbSpline
210
0.0
220
0.0
230
1.0
 70
     8
 71
     3
 72
     8
 73
     4
 74
     0
 42
0.000000001
 43
0.00000001
 40
39.0
 40
39.0
 40
39.0
 40
39.0
 40
40.0
 40
40.0
 40
40.0
 40
40.0
 10
623.6221215428437
 20
29.46657625076253
 30
0.0
 10
623.6664987083385
 20
29.42194070293593
 30
0.0
 10
623.7555114216599
 20
29.37756353744127
 30
0.0
 10
623.8889658960588
 20
29.37756353744127
 30
0.0
  0
SPLINE
  5
24B
330
1F
100
AcDbEntity
  8
PIEZA
370
    18
100
AcDbSpline
210
0.0
220
0.0
230
1.0
 70
     8
 71
     3
 72
     8
 73
     4
 74
     0
 42
0.000000001
 43
0.00000001
 40
40.0
 40
40.0
 40
40.0
 40
40.0
 40
41.0
 40
41.0
 40
41.0
 40
41.0
 10
623.8889658960588
 20
29.37756353744127
 30
0.0
 10
624.200413499309
 20
29.28855082411983
 30
0.0
 10
624.6011967937955
 20
29.24401216966774
 30
0.0
 10
625.0460342758618
 20
29.24401216966774
 30
0.0
  0
SPLINE
  5
24C
330
1F
100
AcDbEntity
  8
PIEZA
370
    18
100
AcDbSpline
210
0.0
220
0.0
230
1.0
 70
     8
 71
     3
 72
     8
 73
     4
 74
     0
 42
0.000000001
 43
0.00000001
 40
41.0
 40
41.0
 40
41.0
 40
41.0
 40
42.0
 40
42.0
 40
42.0
 40
42.0
 10
625.0460342758618
 20
29.24401216966774
 30
0.0
 10
625.4909363535111
 20
29.19950581300703
 30
0.0
 10
625.8916873502059
 20
29.19950581300703
 30
0.0
 10
626.2475121189509
 20
29.19950581300703
 30
0.0
  0
SPLINE
  5
24D
330
1F
100
AcDbEntity
  8
PIEZA
370
    18
100
AcDbSpline
210
0.0
220
0.0
230
1.0
 70
     8
 71
     3
 72
     8
 73
     4
 74
     0
 42
0.000000001
 43
0.00000001
 40
42.0
 40
42.0
 40
42.0
 40
42.0
 40
43.0
 40
43.0
 40
43.0
 40
43.0
 10
626.2475121189509
 20
29.19950581300703
 30
0.0
 10
626.870730303366
 20
29.19950581300703
 30
0.0
 10
627.5383579510676
 20
29.24401216966774
 30
0.0
 10
628.1612531575681
 20
29.28855082411983
 30
0.0
  0
SPLINE
  5
24E
330
1F
100
AcDbEntity
  8
PIEZA
370
    18
100
AcDbSpline
210
0.0
220
0.0
230
1.0
 70
     8
 71
     3
 72
     8
 73
     4
 74
     0
 42
0.000000001
 43
0.00000001
 40
43.0
 40
43.0
 40
43.0
 40
43.0
 40
44.0
 40
44.0
 40
44.0
 40
44.0
 10
628.1612531575681
 20
29.28855082411983
 30
0.0
 10
628.5173363086448
 20
29.33305718078052
 30
0.0
 10
628.7841806618601
 20
29.42194070293593
 30
0.0
 10
628.9178612207995
 20
29.55545977291795
 30
0.0
  0
SPLINE
  5
24F
330
1F
100
AcDbEntity
  8
PIEZA
370
    18
100
AcDbSpline
210
0.0
220
0.0
230
1.0
 70
     8
 71
     3
 72
     8
 73
     4
 74
     0
 42
0.000000001
 43
0.00000001
 40
44.0
 40
44.0
 40
44.0
 40
44.0
 40
45.0
 40
45.0
 40
45.0
 40
45.0
 10
628.9178612207995
 20
29.55545977291795
 30
0.0
 10
629.0512510996155
 20
29.64434329507333
 30
0.0
 10
629.1403284085198
 20
29.82240101950754
 30
0.0
 10
629.1403284085198
 20
30.13417160067255
 30
0.0
  0
SPLINE
  5
250
330
1F
100
AcDbEntity
  8
PIEZA
370
    18
100
AcDbSpline
210
0.0
220
0.0
230
1.0
 70
     8
 71
     3
 72
     8
 73
     4
 74
     0
 42
0.000000001
 43
0.00000001
 40
45.0
 40
45.0
 40
45.0
 40
45.0
 40
46.0
 40
46.0
 40
46.0
 40
46.0
 10
629.1403284085198
 20
30.13417160067255
 30
0.0
 10
629.1403284085198
 20
30.31193864498335
 30
0.0
 10
629.0956282651105
 20
30.48999636941753
 30
0.0
 10
629.0512510996155
 20
30.57900908273885
 30
0.0
  0
SPLINE
  5
251
330
1F
100
AcDbEntity
  8
PIEZA
370
    18
100
AcDbSpline
210
0.0
220
0.0
230
1.0
 70
     8
 71
     3
 72
     8
 73
     4
 74
     0
 42
0.000000001
 43
0.00000001
 40
46.0
 40
46.0
 40
46.0
 40
46.0
 40
47.0
 40
47.0
 40
47.0
 40
47.0
 10
629.0512510996155
 20
30.57900908273885
 30
0.0
 10
629.0068739341207
 20
30.66808639164314
 30
0.0
 10
628.9622383862942
 20
30.75709910496454
 30
0.0
 10
628.8287839118954
 20
30.80147627045927
 30
0.0
  0
SPLINE
  5
252
330
1F
100
AcDbEntity
  8
PIEZA
370
    18
100
AcDbSpline
210
0.0
220
0.0
230
1.0
 70
     8
 71
     3
 72
     8
 73
     4
 74
     0
 42
0.000000001
 43
0.00000001
 40
47.0
 40
47.0
 40
47.0
 40
47.0
 40
48.0
 40
48.0
 40
48.0
 40
48.0
 10
628.8287839118954
 20
30.80147627045927
 30
0.0
 10
628.7398034963652
 20
30.84614411607734
 30
0.0
 10
628.6060906396343
 20
30.84614411607734
 30
0.0
 10
628.4283235953234
 20
30.89055357936354
 30
0.0
  0
SPLINE
  5
253
330
1F
100
AcDbEntity
  8
PIEZA
370
    18
100
AcDbSpline
210
0.0
220
0.0
230
1.0
 70
    24
 71
     3
 72
     8
 73
     4
 74
     0
 42
0.000000001
 43
0.00000001
 40
48.0
 40
48.0
 40
48.0
 40
48.0
 40
49.0
 40
49.0
 40
49.0
 40
49.0
 10
628.4283235953234
 20
30.89055357936354
 30
0.0
 10
628.2502658708895
 20
30.89055357936354
 30
0.0
 10
628.0277986831691
 20
30.89055357936354
 30
0.0
 10
627.8051054109083
 20
30.89055357936354
 30
0.0
  0
SPLINE
  5
254
330
1F
100
AcDbEntity
  8
PIEZA
370
    18
100
AcDbSpline
210
0.0
220
0.0
230
1.0
 70
     8
 71
     3
 72
     8
 73
     4
 74
     0
 42
0.000000001
 43
0.00000001
 40
52.0
 40
52.0
 40
52.0
 40
52.0
 40
53.0
 40
53.0
 40
53.0
 40
53.0
 10
626.2475121189084
 20
30.93515682946355
 30
0.0
 10
625.6246169124079
 20
30.93515682946355
 30
0.0
 10
625.0013987279925
 20
30.93515682946355
 30
0.0
 10
624.3784712237006
 20
30.97953399495839
 30
0.0
  0
SPLINE
  5
255
330
1F
100
AcDbEntity
  8
PIEZA
370
    18
100
AcDbSpline
210
0.0
220
0.0
230
1.0
 70
     8
 71
     3
 72
     8
 73
     4
 74
     0
 42
0.000000001
 43
0.00000001
 40
53.0
 40
53.0
 40
53.0
 40
53.0
 40
54.0
 40
54.0
 40
54.0
 40
54.0
 10
624.3784712237006
 20
30.97953399495839
 30
0.0
 10
624.0669590248674
 20
30.97953399495839
 30
0.0
 10
623.799888587112
 20
31.02423413836789
 30
0.0
 10
623.5328181493563
 20
31.06854670827969
 30
0.0
  0
SPLINE
  5
256
330
1F
100
AcDbEntity
  8
PIEZA
370
    18
100
AcDbSpline
210
0.0
220
0.0
230
1.0
 70
     8
 71
     3
 72
     8
 73
     4
 74
     0
 42
0.000000001
 43
0.00000001
 40
54.0
 40
54.0
 40
54.0
 40
54.0
 40
55.0
 40
55.0
 40
55.0
 40
55.0
 10
623.5328181493563
 20
31.06854670827969
 30
0.0
 10
623.3103509616359
 20
31.11324685168927
 30
0.0
 10
623.0879806672903
 20
31.20222726721907
 30
0.0
 10
622.8655134795697
 20
31.29098159820857
 30
0.0
  0
SPLINE
  5
257
330
1F
100
AcDbEntity
  8
PIEZA
370
    18
100
AcDbSpline
210
0.0
220
0.0
230
1.0
 70
     8
 71
     3
 72
     8
 73
     4
 74
     0
 42
0.000000001
 43
0.00000001
 40
55.0
 40
55.0
 40
55.0
 40
55.0
 40
56.0
 40
56.0
 40
56.0
 40
56.0
 10
622.8655134795697
 20
31.29098159820857
 30
0.0
 10
622.4203853173804
 20
31.51377176384378
 30
0.0
 10
622.1979181296598
 20
31.95860924591009
 30
0.0
 10
622.1979181296598
 20
32.49275012142107
 30
0.0
  0
SPLINE
  5
258
330
1F
100
AcDbEntity
  8
PIEZA
370
    18
100
AcDbSpline
210
0.0
220
0.0
230
1.0
 70
     8
 71
     3
 72
     8
 73
     4
 74
     0
 42
0.000000001
 43
0.00000001
 40
56.0
 40
56.0
 40
56.0
 40
56.0
 40
57.0
 40
57.0
 40
57.0
 40
57.0
 10
622.1979181296598
 20
32.49275012142107
 30
0.0
 10
622.1979181296598
 20
32.89327503357558
 30
0.0
 10
622.2869954385643
 20
33.24909980232048
 30
0.0
 10
622.4650208652067
 20
33.56087038348557
 30
0.0
  0
SPLINE
  5
259
330
1F
100
AcDbEntity
  8
PIEZA
370
    18
100
AcDbSpline
210
0.0
220
0.0
230
1.0
 70
     8
 71
     3
 72
     8
 73
     4
 74
     0
 42
0.000000001
 43
0.00000001
 40
57.0
 40
57.0
 40
57.0
 40
57.0
 40
58.0
 40
58.0
 40
58.0
 40
58.0
 10
622.4650208652067
 20
33.56087038348557
 30
0.0
 10
622.6427556117261
 20
33.87235028452728
 30
0.0
 10
622.9545261928912
 20
34.0947205788732
 30
0.0
 10
623.3994282705403
 20
34.22817505327229
 30
0.0
  0
SPLINE
  5
25A
330
1F
100
AcDbEntity
  8
PIEZA
370
    18
100
AcDbSpline
210
0.0
220
0.0
230
1.0
 70
     8
 71
     3
 72
     8
 73
     4
 74
     0
 42
0.000000001
 43
0.00000001
 40
58.0
 40
58.0
 40
58.0
 40
58.0
 40
59.0
 40
59.0
 40
59.0
 40
59.0
 10
623.3994282705403
 20
34.22817505327229
 30
0.0
 10
623.799888587112
 20
34.36185561221168
 30
0.0
 10
624.2894262125878
 20
34.40616818212349
 30
0.0
 10
624.8236316836816
 20
34.45086832553299
 30
0.0
  0
SPLINE
  5
25B
330
1F
100
AcDbEntity
  8
PIEZA
370
    18
100
AcDbSpline
210
0.0
220
0.0
230
1.0
 70
     8
 71
     3
 72
     8
 73
     4
 74
     0
 42
0.000000001
 43
0.00000001
 40
59.0
 40
59.0
 40
59.0
 40
59.0
 40
60.0
 40
60.0
 40
60.0
 40
60.0
 10
624.8236316836816
 20
34.45086832553299
 30
0.0
 10
625.3574818790695
 20
34.45086832553299
 30
0.0
 10
625.846987206754
 20
34.4952454910278
 30
0.0
 10
626.2921476667348
 20
34.4952454910278
 30
0.0
  0
SPLINE
  5
25C
330
1F
100
AcDbEntity
  8
PIEZA
370
    18
100
AcDbSpline
210
0.0
220
0.0
230
1.0
 70
     8
 71
     3
 72
     8
 73
     4
 74
     0
 42
0.000000001
 43
0.00000001
 40
60.0
 40
60.0
 40
60.0
 40
60.0
 40
61.0
 40
61.0
 40
61.0
 40
61.0
 10
626.2921476667348
 20
34.4952454910278
 30
0.0
 10
626.9594523365214
 20
34.4952454910278
 30
0.0
 10
627.6270476864318
 20
34.45086832553299
 30
0.0
 10
628.2946430363417
 20
34.40616818212349
 30
0.0
  0
SPLINE
  5
25D
330
1F
100
AcDbEntity
  8
PIEZA
370
    18
100
AcDbSpline
210
0.0
220
0.0
230
1.0
 70
     8
 71
     3
 72
     8
 73
     4
 74
     0
 42
0.000000001
 43
0.00000001
 40
61.0
 40
61.0
 40
61.0
 40
61.0
 40
62.0
 40
62.0
 40
62.0
 40
62.0
 10
628.2946430363417
 20
34.40616818212349
 30
0.0
 10
629.4963792617626
 20
34.31747844671697
 30
0.0
 10
630.1640069094642
 20
33.7386374277964
 30
0.0
 10
630.1640069094642
 20
32.6708078458552
 30
0.0
  0
SPLINE
  5
25E
330
1F
100
AcDbEntity
  8
PIEZA
370
    18
100
AcDbSpline
210
0.0
220
0.0
230
1.0
 70
     8
 71
     3
 72
     8
 73
     4
 74
     0
 42
0.000000001
 43
0.00000001
 40
1.0
 40
1.0
 40
1.0
 40
1.0
 40
2.0
 40
2.0
 40
2.0
 40
2.0
 10
646.1402063588695
 20
30.57900908280153
 30
0.0
 10
646.095829193375
 20
30.66808639170572
 30
0.0
 10
646.0067518844705
 20
30.66808639170572
 30
0.0
 10
645.9177391711493
 20
30.71278653511533
 30
0.0
  0
SPLINE
  5
25F
330
1F
100
AcDbEntity
  8
PIEZA
370
    18
100
AcDbSpline
210
0.0
220
0.0
230
1.0
 70
     8
 71
     3
 72
     8
 73
     4
 74
     0
 42
0.000000001
 43
0.00000001
 40
2.0
 40
2.0
 40
2.0
 40
2.0
 40
3.0
 40
3.0
 40
3.0
 40
3.0
 10
645.9177391711493
 20
30.71278653511533
 30
0.0
 10
645.739681446715
 20
30.75709910502713
 30
0.0
 10
645.4282338434649
 20
30.80147627052194
 30
0.0
 10
644.8940283723706
 20
30.80147627052194
 30
0.0
  0
SPLINE
  5
260
330
1F
100
AcDbEntity
  8
PIEZA
370
    18
100
AcDbSpline
210
0.0
220
0.0
230
1.0
 70
     8
 71
     3
 72
     8
 73
     4
 74
     0
 42
0.000000001
 43
0.00000001
 40
4.0
 40
4.0
 40
4.0
 40
4.0
 40
5.0
 40
5.0
 40
5.0
 40
5.0
 10
643.9596532648707
 20
30.80147627052194
 30
0.0
 10
643.4255123893596
 20
30.80147627052194
 30
0.0
 10
643.0696553228232
 20
30.75709910502713
 30
0.0
 10
642.8915975983891
 20
30.66808639170572
 30
0.0
  0
SPLINE
  5
261
330
1F
100
AcDbEntity
  8
PIEZA
370
    18
100
AcDbSpline
210
0.0
220
0.0
230
1.0
 70
     8
 71
     3
 72
     8
 73
     4
 74
     0
 42
0.000000001
 43
0.00000001
 40
5.0
 40
5.0
 40
5.0
 40
5.0
 40
6.0
 40
6.0
 40
6.0
 40
6.0
 10
642.8915975983891
 20
30.66808639170572
 30
0.0
 10
642.7581754217816
 20
30.57900908280153
 30
0.0
 10
642.6688397305452
 20
30.40098365615885
 30
0.0
 10
642.6688397305452
 20
30.13417160073522
 30
0.0
  0
SPLINE
  5
262
330
1F
100
AcDbEntity
  8
PIEZA
370
    18
100
AcDbSpline
210
0.0
220
0.0
230
1.0
 70
     8
 71
     3
 72
     8
 73
     4
 74
     0
 42
0.000000001
 43
0.00000001
 40
7.0
 40
7.0
 40
7.0
 40
7.0
 40
8.0
 40
8.0
 40
8.0
 40
8.0
 10
642.6688397305452
 20
29.68901114083523
 30
0.0
 10
642.6688397305452
 20
29.46657625090632
 30
0.0
 10
642.7581754217816
 20
29.28855082426373
 30
0.0
 10
642.9359424660923
 20
29.19950581315093
 30
0.0
  0
SPLINE
  5
263
330
1F
100
AcDbEntity
  8
PIEZA
370
    18
100
AcDbSpline
210
0.0
220
0.0
230
1.0
 70
     8
 71
     3
 72
     8
 73
     4
 74
     0
 42
0.000000001
 43
0.00000001
 40
8.0
 40
8.0
 40
8.0
 40
8.0
 40
9.0
 40
9.0
 40
9.0
 40
9.0
 10
642.9359424660923
 20
29.19950581315093
 30
0.0
 10
643.1140324883179
 20
29.11049309982955
 30
0.0
 10
643.4701156393949
 20
29.06598674316892
 30
0.0
 10
643.9596532648707
 20
29.06598674316892
 30
0.0
  0
SPLINE
  5
264
330
1F
100
AcDbEntity
  8
PIEZA
370
    18
100
AcDbSpline
210
0.0
220
0.0
230
1.0
 70
     8
 71
     3
 72
     8
 73
     4
 74
     0
 42
0.000000001
 43
0.00000001
 40
10.0
 40
10.0
 40
10.0
 40
10.0
 40
11.0
 40
11.0
 40
11.0
 40
11.0
 10
644.8940283723706
 20
29.06598674316892
 30
0.0
 10
645.3838566779699
 20
29.06598674316892
 30
0.0
 10
645.6953042812203
 20
29.11049309982955
 30
0.0
 10
645.8733620056545
 20
29.15499945649024
 30
0.0
  0
SPLINE
  5
265
330
1F
100
AcDbEntity
  8
PIEZA
370
    18
100
AcDbSpline
210
0.0
220
0.0
230
1.0
 70
     8
 71
     3
 72
    11
 73
     7
 74
     0
 42
0.000000001
 43
0.00000001
 40
11.0
 40
11.0
 40
11.0
 40
11.0
 40
12.0
 40
12.0
 40
12.0
 40
13.0
 40
13.0
 40
13.0
 40
13.0
 10
645.8733620056545
 20
29.15499945649024
 30
0.0
 10
646.0511290499651
 20
29.19950581315093
 30
0.0
 10
646.1402063588695
 20
29.28855082426373
 30
0.0
 10
646.1402063588695
 20
29.42194070307972
 30
0.0
 10
646.1402063588695
 20
29.46657625090632
 30
0.0
 10
646.1402063588695
 20
29.55545977306182
 30
0.0
 10
646.1402063588695
 20
29.59999842751393
 30
0.0
  0
SPLINE
  5
266
330
1F
100
AcDbEntity
  8
PIEZA
370
    18
100
AcDbSpline
210
0.0
220
0.0
230
1.0
 70
     8
 71
     3
 72
     8
 73
     4
 74
     0
 42
0.000000001
 43
0.00000001
 40
18.0
 40
18.0
 40
18.0
 40
18.0
 40
19.0
 40
19.0
 40
19.0
 40
19.0
 10
647.8314802098141
 20
29.11049309969054
 30
0.0
 10
647.8314802098141
 20
28.79904549644031
 30
0.0
 10
647.6087223419702
 20
28.57644911755404
 30
0.0
 10
647.2526391908933
 20
28.48756559539863
 30
0.0
  0
SPLINE
  5
267
330
1F
100
AcDbEntity
  8
PIEZA
370
    18
100
AcDbSpline
210
0.0
220
0.0
230
1.0
 70
     8
 71
     3
 72
     8
 73
     4
 74
     0
 42
0.000000001
 43
0.00000001
 40
19.0
 40
19.0
 40
19.0
 40
19.0
 40
20.0
 40
20.0
 40
20.0
 40
20.0
 10
647.2526391908933
 20
28.48756559539863
 30
0.0
 10
646.8968144221483
 20
28.35401422762511
 30
0.0
 10
646.2292190722383
 20
28.26500151430381
 30
0.0
 10
645.3392211301907
 20
28.26500151430381
 30
0.0
  0
SPLINE
  5
268
330
1F
100
AcDbEntity
  8
PIEZA
370
    18
100
AcDbSpline
210
0.0
220
0.0
230
1.0
 70
     8
 71
     3
 72
     8
 73
     4
 74
     0
 42
0.000000001
 43
0.00000001
 40
21.0
 40
21.0
 40
21.0
 40
21.0
 40
22.0
 40
22.0
 40
22.0
 40
22.0
 10
643.5144928048908
 20
28.26500151430381
 30
0.0
 10
642.9805780139204
 20
28.26500151430381
 30
0.0
 10
642.5354498517306
 20
28.30950787096442
 30
0.0
 10
642.3130472595933
 20
28.30950787096442
 30
0.0
  0
SPLINE
  5
269
330
1F
100
AcDbEntity
  8
PIEZA
370
    18
100
AcDbSpline
210
0.0
220
0.0
230
1.0
 70
     8
 71
     3
 72
     8
 73
     4
 74
     0
 42
0.000000001
 43
0.00000001
 40
22.0
 40
22.0
 40
22.0
 40
22.0
 40
23.0
 40
23.0
 40
23.0
 40
23.0
 10
642.3130472595933
 20
28.30950787096442
 30
0.0
 10
642.0459122262548
 20
28.35401422762511
 30
0.0
 10
641.8235419319092
 20
28.44289774978055
 30
0.0
 10
641.6010747441886
 20
28.5319104631019
 30
0.0
  0
SPLINE
  5
26A
330
1F
100
AcDbEntity
  8
PIEZA
370
    18
100
AcDbSpline
210
0.0
220
0.0
230
1.0
 70
     8
 71
     3
 72
     8
 73
     4
 74
     0
 42
0.000000001
 43
0.00000001
 40
23.0
 40
23.0
 40
23.0
 40
23.0
 40
24.0
 40
24.0
 40
24.0
 40
24.0
 10
641.6010747441886
 20
28.5319104631019
 30
0.0
 10
641.4229847219628
 20
28.62095547421473
 30
0.0
 10
641.2449269975285
 20
28.75447454419663
 30
0.0
 10
641.1559142842073
 20
28.88802591197021
 30
0.0
  0
SPLINE
  5
26B
330
1F
100
AcDbEntity
  8
PIEZA
370
    18
100
AcDbSpline
210
0.0
220
0.0
230
1.0
 70
     8
 71
     3
 72
     8
 73
     4
 74
     0
 42
0.000000001
 43
0.00000001
 40
24.0
 40
24.0
 40
24.0
 40
24.0
 40
25.0
 40
25.0
 40
25.0
 40
25.0
 10
641.1559142842073
 20
28.88802591197021
 30
0.0
 10
641.0669338686777
 20
29.0659867430299
 30
0.0
 10
641.0225567031829
 20
29.24401216967252
 30
0.0
 10
641.0225567031829
 20
29.46657625076731
 30
0.0
  0
SPLINE
  5
26C
330
1F
100
AcDbEntity
  8
PIEZA
370
    18
100
AcDbSpline
210
0.0
220
0.0
230
1.0
 70
     8
 71
     3
 72
     8
 73
     4
 74
     0
 42
0.000000001
 43
0.00000001
 40
26.0
 40
26.0
 40
26.0
 40
26.0
 40
27.0
 40
27.0
 40
27.0
 40
27.0
 10
641.0225567031829
 20
30.35663878846731
 30
0.0
 10
641.0225567031829
 20
30.80147627053373
 30
0.0
 10
641.2003237474937
 20
31.15759171940193
 30
0.0
 10
641.556374600779
 20
31.33568174162765
 30
0.0
  0
SPLINE
  5
26D
330
1F
100
AcDbEntity
  8
PIEZA
370
    18
100
AcDbSpline
210
0.0
220
0.0
230
1.0
 70
     8
 71
     3
 72
     8
 73
     4
 74
     0
 42
0.000000001
 43
0.00000001
 40
27.0
 40
27.0
 40
27.0
 40
27.0
 40
28.0
 40
28.0
 40
28.0
 40
28.0
 10
641.556374600779
 20
31.33568174162765
 30
0.0
 10
641.9125223474387
 20
31.51377176385322
 30
0.0
 10
642.5801176973487
 20
31.60275217938301
 30
0.0
 10
643.5144928048908
 20
31.60275217938301
 30
0.0
  0
SPLINE
  5
26E
330
1F
100
AcDbEntity
  8
PIEZA
370
    18
100
AcDbSpline
210
0.0
220
0.0
230
1.0
 70
     8
 71
     3
 72
     8
 73
     4
 74
     0
 42
0.000000001
 43
0.00000001
 40
29.0
 40
29.0
 40
29.0
 40
29.0
 40
30.0
 40
30.0
 40
30.0
 40
30.0
 10
645.3392211301907
 20
31.60275217938301
 30
0.0
 10
645.9177391711968
 20
31.60275217938301
 30
0.0
 10
646.3182317855596
 20
31.60275217938301
 30
0.0
 10
646.6297439843929
 20
31.55808433376502
 30
0.0
  0
SPLINE
  5
26F
330
1F
100
AcDbEntity
  8
PIEZA
370
    18
100
AcDbSpline
210
0.0
220
0.0
230
1.0
 70
     8
 71
     3
 72
     8
 73
     4
 74
     0
 42
0.000000001
 43
0.00000001
 40
30.0
 40
30.0
 40
30.0
 40
30.0
 40
31.0
 40
31.0
 40
31.0
 40
31.0
 10
646.6297439843929
 20
31.55808433376502
 30
0.0
 10
646.8968144221483
 20
31.51377176385322
 30
0.0
 10
647.1192170142857
 20
31.46907162044364
 30
0.0
 10
647.29727473872
 20
31.37999431153941
 30
0.0
  0
SPLINE
  5
270
330
1F
100
AcDbEntity
  8
PIEZA
370
    18
100
AcDbSpline
210
0.0
220
0.0
230
1.0
 70
     8
 71
     3
 72
     8
 73
     4
 74
     0
 42
0.000000001
 43
0.00000001
 40
31.0
 40
31.0
 40
31.0
 40
31.0
 40
32.0
 40
32.0
 40
32.0
 40
32.0
 10
647.29727473872
 20
31.37999431153941
 30
0.0
 10
647.4306969153275
 20
31.33568174162765
 30
0.0
 10
647.5644097720584
 20
31.2022272672285
 30
0.0
 10
647.6534224853796
 20
31.06854670828913
 30
0.0
  0
SPLINE
  5
271
330
1F
100
AcDbEntity
  8
PIEZA
370
    18
100
AcDbSpline
210
0.0
220
0.0
230
1.0
 70
     8
 71
     3
 72
    11
 73
     7
 74
     0
 42
0.000000001
 43
0.00000001
 40
32.0
 40
32.0
 40
32.0
 40
32.0
 40
33.0
 40
33.0
 40
33.0
 40
34.0
 40
34.0
 40
34.0
 40
34.0
 10
647.6534224853796
 20
31.06854670828913
 30
0.0
 10
647.7421768163695
 20
30.93515682947299
 30
0.0
 10
647.7421768163695
 20
30.84614411615173
 30
0.0
 10
647.7421768163695
 20
30.66808639171752
 30
0.0
 10
647.7421768163695
 20
30.62370922622282
 30
0.0
 10
647.7421768163695
 20
30.62370922622282
 30
0.0
 10
647.7421768163695
 20
30.53469651290153
 30
0.0
  0
SPLINE
  5
272
330
1F
100
AcDbEntity
  8
PIEZA
370
    18
100
AcDbSpline
210
0.0
220
0.0
230
1.0
 70
     8
 71
     3
 72
    11
 73
     7
 74
     0
 42
0.000000001
 43
0.00000001
 40
2.0
 40
2.0
 40
2.0
 40
2.0
 40
3.0
 40
3.0
 40
3.0
 40
4.0
 40
4.0
 40
4.0
 40
4.0
 10
663.2439540066762
 20
35.40368547202647
 30
0.0
 10
663.4005336997753
 20
35.40368547202647
 30
0.0
 10
663.5142865213711
 20
35.39054027089374
 30
0.0
 10
663.5852124714631
 20
35.3642498686283
 30
0.0
 10
663.6561384215552
 20
35.33795946636285
 30
0.0
 10
663.7129502367701
 20
35.29119226429852
 30
0.0
 10
663.7555833215248
 20
35.22394826243531
 30
0.0
  0
SPLINE
  5
273
330
1F
100
AcDbEntity
  8
PIEZA
370
    18
100
AcDbSpline
210
0.0
220
0.0
230
1.0
 70
     8
 71
     3
 72
    11
 73
     7
 74
     0
 42
0.000000001
 43
0.00000001
 40
4.0
 40
4.0
 40
4.0
 40
4.0
 40
5.0
 40
5.0
 40
5.0
 40
6.0
 40
6.0
 40
6.0
 40
6.0
 10
663.7555833215248
 20
35.22394826243531
 30
0.0
 10
663.7982164062797
 20
35.15673655836357
 30
0.0
 10
663.819532948657
 20
35.07986781463905
 30
0.0
 10
663.819532948657
 20
34.99334203126175
 30
0.0
 10
663.819532948657
 20
34.88349724243523
 30
0.0
 10
663.7873643483421
 20
34.7928050439569
 30
0.0
 10
663.7229948499206
 20
34.72123313803525
 30
0.0
  0
SPLINE
  5
274
330
1F
100
AcDbEntity
  8
PIEZA
370
    18
100
AcDbSpline
210
0.0
220
0.0
230
1.0
 70
     8
 71
     3
 72
     8
 73
     4
 74
     0
 42
0.000000001
 43
0.00000001
 40
6.0
 40
6.0
 40
6.0
 40
6.0
 40
7.0
 40
7.0
 40
7.0
 40
7.0
 10
663.7229948499206
 20
34.72123313803525
 30
0.0
 10
663.6586576492907
 20
34.64969352990506
 30
0.0
 10
663.5624748262605
 20
34.60457351520626
 30
0.0
 10
663.4344463808304
 20
34.58593768952179
 30
0.0
  0
SPLINE
  5
275
330
1F
100
AcDbEntity
  8
PIEZA
370
    18
100
AcDbSpline
210
0.0
220
0.0
230
1.0
 70
     8
 71
     3
 72
     8
 73
     4
 74
     0
 42
0.000000001
 43
0.00000001
 40
7.0
 40
7.0
 40
7.0
 40
7.0
 40
8.0
 40
8.0
 40
8.0
 40
8.0
 10
663.4344463808304
 20
34.58593768952179
 30
0.0
 10
663.4980407322562
 20
34.54866603815285
 30
0.0
 10
663.5505569412041
 20
34.50771243855507
 30
0.0
 10
663.5919627098826
 20
34.46310918851997
 30
0.0
  0
SPLINE
  5
276
330
1F
100
AcDbEntity
  8
PIEZA
370
    18
100
AcDbSpline
210
0.0
220
0.0
230
1.0
 70
     8
 71
     3
 72
     8
 73
     4
 74
     0
 42
0.000000001
 43
0.00000001
 40
8.0
 40
8.0
 40
8.0
 40
8.0
 40
9.0
 40
9.0
 40
9.0
 40
9.0
 10
663.5919627098826
 20
34.46310918851997
 30
0.0
 10
663.6334007763527
 20
34.41850593848485
 30
0.0
 10
663.6892113600317
 20
34.33927945598223
 30
0.0
 10
663.759426758711
 20
34.22539744322061
 30
0.0
  0
SPLINE
  5
277
330
1F
100
AcDbEntity
  8
PIEZA
370
    18
100
AcDbSpline
210
0.0
220
0.0
230
1.0
 70
     8
 71
     3
 72
     8
 73
     4
 74
     0
 42
0.000000001
 43
0.00000001
 40
12.0
 40
12.0
 40
12.0
 40
12.0
 40
13.0
 40
13.0
 40
13.0
 40
13.0
 10
663.3728221946848
 20
34.25931012427554
 30
0.0
 10
663.2966640023728
 20
34.37283686133088
 30
0.0
 10
663.2445353669227
 20
34.44437646946105
 30
0.0
 10
663.2165008839173
 20
34.47392894866606
 30
0.0
  0
SPLINE
  5
278
330
1F
100
AcDbEntity
  8
PIEZA
370
    18
100
AcDbSpline
210
0.0
220
0.0
230
1.0
 70
     8
 71
     3
 72
     8
 73
     4
 74
     0
 42
0.000000001
 43
0.00000001
 40
13.0
 40
13.0
 40
13.0
 40
13.0
 40
14.0
 40
14.0
 40
14.0
 40
14.0
 10
663.2165008839173
 20
34.47392894866606
 30
0.0
 10
663.1884341031204
 20
34.50344913007959
 30
0.0
 10
663.158720134958
 20
34.52369984533811
 30
0.0
 10
663.1273266816386
 20
34.53464879665014
 30
0.0
  0
SPLINE
  5
279
330
1F
100
AcDbEntity
  8
PIEZA
370
    18
100
AcDbSpline
210
0.0
220
0.0
230
1.0
 70
     8
 71
     3
 72
     8
 73
     4
 74
     0
 42
0.000000001
 43
0.00000001
 40
14.0
 40
14.0
 40
14.0
 40
14.0
 40
15.0
 40
15.0
 40
15.0
 40
15.0
 10
663.1273266816386
 20
34.53464879665014
 30
0.0
 10
663.0959009305276
 20
34.54563004575364
 30
0.0
 10
663.046162331647
 20
34.55108837251391
 30
0.0
 10
662.9780139916223
 20
34.55108837251391
 30
0.0
  0
SPLINE
  5
27A
330
1F
100
AcDbEntity
  8
PIEZA
370
    18
100
AcDbSpline
210
0.0
220
0.0
230
1.0
 70
     8
 71
     3
 72
     8
 73
     4
 74
     0
 42
0.000000001
 43
0.00000001
 40
1.0
 40
1.0
 40
1.0
 40
1.0
 40
2.0
 40
2.0
 40
2.0
 40
2.0
 10
663.1365315522106
 20
34.7841815336315
 30
0.0
 10
663.2782865590202
 20
34.7841815336315
 30
0.0
 10
663.3668148054693
 20
34.79018892284694
 30
0.0
 10
663.4020839937665
 20
34.80217140348635
 30
0.0
  0
SPLINE
  5
27B
330
1F
100
AcDbEntity
  8
PIEZA
370
    18
100
AcDbSpline
210
0.0
220
0.0
230
1.0
 70
     8
 71
     3
 72
     8
 73
     4
 74
     0
 42
0.000000001
 43
0.00000001
 40
2.0
 40
2.0
 40
2.0
 40
2.0
 40
3.0
 40
3.0
 40
3.0
 40
3.0
 10
663.4020839937665
 20
34.80217140348635
 30
0.0
 10
663.4373531820637
 20
34.81418618191725
 30
0.0
 10
663.4650000915713
 20
34.83485676846502
 30
0.0
 10
663.4849601267066
 20
34.86418316312967
 30
0.0
  0
SPLINE
  5
27C
330
1F
100
AcDbEntity
  8
PIEZA
370
    18
100
AcDbSpline
210
0.0
220
0.0
230
1.0
 70
     8
 71
     3
 72
    14
 73
    10
 74
     0
 42
0.000000001
 43
0.00000001
 40
3.0
 40
3.0
 40
3.0
 40
3.0
 40
4.0
 40
4.0
 40
4.0
 40
5.0
 40
5.0
 40
5.0
 40
6.0
 40
6.0
 40
6.0
 40
6.0
 10
663.4849601267066
 20
34.86418316312967
 30
0.0
 10
663.5049201618416
 20
34.8935418555858
 30
0.0
 10
663.5149001794092
 20
34.93023214670809
 30
0.0
 10
663.5149001794092
 20
34.97422173870506
 30
0.0
 10
663.5149001794092
 20
35.02357276408787
 30
0.0
 10
663.5017549782765
 20
35.0633959409838
 30
0.0
 10
663.4754645760111
 20
35.09375586497583
 30
0.0
 10
663.4491741737456
 20
35.12411578896788
 30
0.0
 10
663.4120640113341
 20
35.14326837931604
 30
0.0
 10
663.364166386568
 20
35.15127823160331
 30
0.0
  0
SPLINE
  5
27D
330
1F
100
AcDbEntity
  8
PIEZA
370
    18
100
AcDbSpline
210
0.0
220
0.0
230
1.0
 70
     8
 71
     3
 72
     8
 73
     4
 74
     0
 42
0.000000001
 43
0.00000001
 40
6.0
 40
6.0
 40
6.0
 40
6.0
 40
7.0
 40
7.0
 40
7.0
 40
7.0
 10
663.364166386568
 20
35.15127823160331
 30
0.0
 10
663.3402014252891
 20
35.15460490412583
 30
0.0
 10
663.2683065414526
 20
35.15628438928285
 30
0.0
 10
663.14851403285
 20
35.15628438928285
 30
0.0
  0
SPLINE
  5
27E
330
1F
100
AcDbEntity
  8
1
100
AcDbSpline
210
0.0
220
0.0
230
1.0
 70
     8
 71
     3
 72
    18
 73
    14
 74
     0
 42
0.000000001
 43
0.00000001
 40
0.0
 40
0.0
 40
0.0
 40
0.0
 40
0.2499999999999995
 40
0.2499999999999995
 40
0.3749999999999994
 40
0.3749999999999994
 40
0.4999999999999991
 40
0.4999999999999991
 40
0.6249999999999992
 40
0.6249999999999992
 40
0.7499999999999989
 40
0.7499999999999989
 40
1.0
 40
1.0
 40
1.0
 40
1.0
 10
471.1502929565812
 20
164.1869661817883
 30
0.0
 10
470.6302459647077
 20
165.3620155644318
 30
0.0
 10
469.9994169959314
 20
166.46375357874
 30
0.0
 10
468.9054921709278
 20
168.0184013228407
 30
0.0
 10
468.5161160570063
 20
168.5202242930492
 30
0.0
 10
467.6896928487929
 20
169.4922760003635
 30
0.0
 10
467.2515230875954
 20
169.9633680565748
 30
0.0
 10
466.3418592953542
 20
170.8624517210209
 30
0.0
 10
465.8691120967258
 20
171.2921083888217
 30
0.0
 10
464.8901330282142
 20
172.1142552744977
 30
0.0
 10
464.3827841643258
 20
172.5075049334014
 30
0.0
 10
462.8223209706971
 20
173.6275074525429
 30
0.0
 10
461.7320314049395
 20
174.2949714229853
 30
0.0
 10
460.5968759131856
 20
174.8912174073047
 30
0.0
  0
SPLINE
  5
27F
330
1F
100
AcDbEntity
  8
1
100
AcDbSpline
210
0.0
220
0.0
230
1.0
 70
     8
 71
     3
 72
    10
 73
     6
 74
     0
 42
0.000000001
 43
0.00000001
 40
0.0
 40
0.0
 40
0.0
 40
0.0
 40
0.4999999999999999
 40
0.4999999999999999
 40
1.0
 40
1.0
 40
1.0
 40
1.0
 10
472.3377816950903
 20
159.0513529733021
 30
0.0
 10
472.2879593387117
 20
159.9340700232165
 30
0.0
 10
472.1717121794274
 20
160.81324753749
 30
0.0
 10
471.7812635055429
 20
162.5379262405797
 30
0.0
 10
471.5079853868953
 20
163.3787579263674
 30
0.0
 10
471.1502929565812
 20
164.1869661817883
 30
0.0
  0
SPLINE
  5
280
330
1F
100
AcDbEntity
  8
1
100
AcDbSpline
210
0.0
220
0.0
230
1.0
 70
     8
 71
     3
 72
    18
 73
    14
 74
     0
 42
0.000000001
 43
0.00000001
 40
0.0
 40
0.0
 40
0.0
 40
0.0
 40
0.2500000000000004
 40
0.2500000000000004
 40
0.374999999999999
 40
0.374999999999999
 40
0.4999999999999976
 40
0.4999999999999976
 40
0.7499999999999987
 40
0.7499999999999987
 40
0.8749999999999993
 40
0.8749999999999993
 40
1.0
 40
1.0
 40
1.0
 40
1.0
 10
438.1236118975103
 20
179.6834641678767
 30
0.0
 10
438.9109822376002
 20
180.0760325381727
 30
0.0
 10
439.7243336442983
 20
180.3827427379967
 30
0.0
 10
440.9817644804038
 20
180.719202046623
 30
0.0
 10
441.4071904611359
 20
180.8105941587864
 30
0.0
 10
442.2709261647063
 20
180.9508022047455
 30
0.0
 10
442.709577899374
 20
180.9993219508405
 30
0.0
 10
444.0151965874261
 20
181.0774304358443
 30
0.0
 10
444.8818058036509
 20
181.0422056323293
 30
0.0
 10
446.1760255069618
 20
180.8586693173845
 30
0.0
 10
446.6081606664651
 20
180.7750857098686
 30
0.0
 10
447.4610304056775
 20
180.5645190826285
 30
0.0
 10
447.8813679831474
 20
180.4378581719236
 30
0.0
 10
448.2955813926299
 20
180.2897254352373
 30
0.0
  0
SPLINE
  5
281
330
1F
100
AcDbEntity
  8
1
100
AcDbSpline
210
0.0
220
0.0
230
1.0
 70
     8
 71
     3
 72
    18
 73
    14
 74
     0
 42
0.000000001
 43
0.00000001
 40
0.0
 40
0.0
 40
0.0
 40
0.0
 40
0.2500000000000004
 40
0.2500000000000004
 40
0.374999999999999
 40
0.374999999999999
 40
0.4999999999999976
 40
0.4999999999999976
 40
0.7499999999999987
 40
0.7499999999999987
 40
0.8749999999999993
 40
0.8749999999999993
 40
1.0
 40
1.0
 40
1.0
 40
1.0
 10
277.3934482007247
 20
179.6834641678771
 30
0.0
 10
276.6060778606347
 20
180.076032538173
 30
0.0
 10
275.7927264539364
 20
180.3827427379969
 30
0.0
 10
274.5352956178308
 20
180.7192020466231
 30
0.0
 10
274.1098696370989
 20
180.8105941587864
 30
0.0
 10
273.2461339335283
 20
180.9508022047454
 30
0.0
 10
272.8074821988606
 20
180.9993219508403
 30
0.0
 10
271.5018635108086
 20
181.077430435844
 30
0.0
 10
270.6352542945838
 20
181.0422056323288
 30
0.0
 10
269.3410345912731
 20
180.8586693173839
 30
0.0
 10
268.9088994317696
 20
180.7750857098679
 30
0.0
 10
268.0560296925572
 20
180.5645190826278
 30
0.0
 10
267.6356921150874
 20
180.4378581719228
 30
0.0
 10
267.2214787056049
 20
180.2897254352364
 30
0.0
  0
SPLINE
  5
282
330
1F
100
AcDbEntity
  8
1
100
AcDbSpline
210
0.0
220
0.0
230
1.0
 70
     8
 71
     3
 72
    18
 73
    14
 74
     0
 42
0.000000001
 43
0.00000001
 40
0.0
 40
0.0
 40
0.0
 40
0.0
 40
0.2499999999999995
 40
0.2499999999999995
 40
0.3749999999999994
 40
0.3749999999999994
 40
0.4999999999999991
 40
0.4999999999999991
 40
0.6249999999999992
 40
0.6249999999999992
 40
0.7499999999999989
 40
0.7499999999999989
 40
1.0
 40
1.0
 40
1.0
 40
1.0
 10
244.3667671416512
 20
164.1869661817855
 30
0.0
 10
244.8868141335245
 20
165.3620155644291
 30
0.0
 10
245.5176431023008
 20
166.4637535787373
 30
0.0
 10
246.6115679273042
 20
168.018401322838
 30
0.0
 10
247.0009440412259
 20
168.5202242930465
 30
0.0
 10
247.8273672494392
 20
169.4922760003607
 30
0.0
 10
248.2655370106368
 20
169.9633680565721
 30
0.0
 10
249.1752008028779
 20
170.8624517210182
 30
0.0
 10
249.6479480015063
 20
171.292108388819
 30
0.0
 10
250.6269270700179
 20
172.1142552744951
 30
0.0
 10
251.1342759339063
 20
172.5075049333987
 30
0.0
 10
252.694739127535
 20
173.6275074525402
 30
0.0
 10
253.7850286932925
 20
174.2949714229827
 30
0.0
 10
254.9201841850464
 20
174.8912174073021
 30
0.0
  0
SPLINE
  5
283
330
1F
100
AcDbEntity
  8
1
100
AcDbSpline
210
0.0
220
0.0
230
1.0
 70
     8
 71
     3
 72
    10
 73
     6
 74
     0
 42
0.000000001
 43
0.00000001
 40
0.0
 40
0.0
 40
0.0
 40
0.0
 40
0.4999999999999999
 40
0.4999999999999999
 40
1.0
 40
1.0
 40
1.0
 40
1.0
 10
243.1792784031441
 20
159.0513529732988
 30
0.0
 10
243.2291007595223
 20
159.9340700232133
 30
0.0
 10
243.3453479188064
 20
160.8132475374868
 30
0.0
 10
243.7357965926902
 20
162.5379262405766
 30
0.0
 10
244.0090747113375
 20
163.3787579263645
 30
0.0
 10
244.3667671416512
 20
164.1869661817855
 30
0.0
  0
SPLINE
  5
284
330
1F
100
AcDbEntity
  8
1
100
AcDbSpline
210
0.0
220
0.0
230
1.0
 70
     8
 71
     2
 72
     6
 73
     3
 74
     0
 42
0.000000001
 43
0.00000001
 40
0.0
 40
0.0
 40
0.0
 40
1.0
 40
1.0
 40
1.0
 10
285.980602894373
 20
508.2115135581413
 30
0.0
 10
284.6196956785406
 20
508.2504999417989
 30
0.0
 10
283.2585944237329
 20
508.288321566232
 30
0.0
  0
SPLINE
  5
285
330
1F
100
AcDbEntity
  8
1
100
AcDbSpline
210
0.0
220
0.0
230
1.0
 70
     8
 71
     2
 72
     6
 73
     3
 74
     0
 42
0.000000001
 43
0.00000001
 40
0.0
 40
0.0
 40
0.0
 40
1.0
 40
1.0
 40
1.0
 10
283.2585953904589
 20
491.8355575732043
 30
0.0
 10
284.619696645255
 20
491.8733791980526
 30
0.0
 10
285.9806038610758
 20
491.9123655821254
 30
0.0
  0
SPLINE
  5
286
330
1F
100
AcDbEntity
  8
1
100
AcDbSpline
210
0.0
220
0.0
230
1.0
 70
     8
 71
     2
 72
     6
 73
     3
 74
     0
 42
0.000000001
 43
0.00000001
 40
0.0
 40
0.0
 40
0.0
 40
1.0
 40
1.0
 40
1.0
 10
432.2584647077744
 20
508.2883215393691
 30
0.0
 10
430.8973634529783
 20
508.2504999145208
 30
0.0
 10
429.5364562371577
 20
508.2115135304479
 30
0.0
  0
SPLINE
  5
287
330
1F
100
AcDbEntity
  8
1
100
AcDbSpline
210
0.0
220
0.0
230
1.0
 70
     8
 71
     2
 72
     6
 73
     3
 74
     0
 42
0.000000001
 43
0.00000001
 40
0.0
 40
0.0
 40
0.0
 40
1.0
 40
1.0
 40
1.0
 10
429.5364572038604
 20
491.912365554432
 30
0.0
 10
430.897364419693
 20
491.8733791707745
 30
0.0
 10
432.2584656745006
 20
491.8355575463414
 30
0.0
  0
SPLINE
  5
288
330
1F
100
AcDbEntity
  8
1
100
AcDbSpline
210
0.0
220
0.0
230
1.0
 70
     8
 71
     3
 72
    18
 73
    14
 74
     0
 42
0.000000001
 43
0.00000001
 40
0.0
 40
0.0
 40
0.0
 40
0.0
 40
0.2499999999999984
 40
0.2499999999999984
 40
0.3749999999999977
 40
0.3749999999999977
 40
0.4999999999999971
 40
0.4999999999999971
 40
0.7499999999999976
 40
0.7499999999999976
 40
0.8749999999999988
 40
0.8749999999999988
 40
1.0
 40
1.0
 40
1.0
 40
1.0
 10
290.3444143266581
 20
491.2449590235044
 30
0.0
 10
290.3712049600071
 20
490.9615966093529
 30
0.0
 10
290.404134042237
 20
490.6541310904884
 30
0.0
 10
290.4638828904683
 20
490.1586559111502
 30
0.0
 10
290.4855345211146
 20
489.9877398876854
 30
0.0
 10
290.5326286264831
 20
489.6341803037146
 30
0.0
 10
290.5581035532397
 20
489.451432139435
 30
0.0
 10
290.6388081748511
 20
488.8980371789373
 30
0.0
 10
290.6988119763794
 20
488.5182824289283
 30
0.0
 10
290.7989217695508
 20
487.932794188539
 30
0.0
 10
290.8341906082899
 20
487.7338565124007
 30
0.0
 10
290.9071077312983
 20
487.3370166065447
 30
0.0
 10
290.9447249311954
 20
487.1391842291195
 30
0.0
 10
290.9834826797048
 20
486.9419245092654
 30
0.0
  0
SPLINE
  5
289
330
1F
100
AcDbEntity
  8
1
100
AcDbSpline
210
0.0
220
0.0
230
1.0
 70
     8
 71
     2
 72
     6
 73
     3
 74
     0
 42
0.000000001
 43
0.00000001
 40
0.0
 40
0.0
 40
0.0
 40
1.0
 40
1.0
 40
1.0
 10
285.9806007527352
 20
663.2115154779316
 30
0.0
 10
284.6196935369028
 20
663.2505018615892
 30
0.0
 10
283.2585922820952
 20
663.2883234860223
 30
0.0
  0
SPLINE
  5
28A
330
1F
100
AcDbEntity
  8
1
100
AcDbSpline
210
0.0
220
0.0
230
1.0
 70
     8
 71
     2
 72
     6
 73
     3
 74
     0
 42
0.000000001
 43
0.00000001
 40
0.0
 40
0.0
 40
0.0
 40
1.0
 40
1.0
 40
1.0
 10
283.2585932488212
 20
646.8355594929945
 30
0.0
 10
284.6196945036172
 20
646.8733811178429
 30
0.0
 10
285.980601719438
 20
646.9123675019157
 30
0.0
  0
SPLINE
  5
28B
330
1F
100
AcDbEntity
  8
1
100
AcDbSpline
210
0.0
220
0.0
230
1.0
 70
     8
 71
     2
 72
     6
 73
     3
 74
     0
 42
0.000000001
 43
0.00000001
 40
0.0
 40
0.0
 40
0.0
 40
1.0
 40
1.0
 40
1.0
 10
432.2584625661366
 20
663.2883234591594
 30
0.0
 10
430.8973613113405
 20
663.2505018343111
 30
0.0
 10
429.53645409552
 20
663.2115154502382
 30
0.0
  0
SPLINE
  5
28C
330
1F
100
AcDbEntity
  8
1
100
AcDbSpline
210
0.0
220
0.0
230
1.0
 70
     8
 71
     2
 72
     6
 73
     3
 74
     0
 42
0.000000001
 43
0.00000001
 40
0.0
 40
0.0
 40
0.0
 40
1.0
 40
1.0
 40
1.0
 10
429.5364550622226
 20
646.9123674742223
 30
0.0
 10
430.8973622780552
 20
646.8733810905647
 30
0.0
 10
432.2584635328628
 20
646.8355594661316
 30
0.0
  0
SPLINE
  5
28D
330
1F
100
AcDbEntity
  8
1
100
AcDbSpline
210
0.0
220
0.0
230
1.0
 70
     8
 71
     3
 72
    18
 73
    14
 74
     0
 42
0.000000001
 43
0.00000001
 40
0.0
 40
0.0
 40
0.0
 40
0.0
 40
0.2499999999999984
 40
0.2499999999999984
 40
0.3749999999999977
 40
0.3749999999999977
 40
0.4999999999999971
 40
0.4999999999999971
 40
0.7499999999999976
 40
0.7499999999999976
 40
0.8749999999999988
 40
0.8749999999999988
 40
1.0
 40
1.0
 40
1.0
 40
1.0
 10
290.3444121850195
 20
646.2449609432994
 30
0.0
 10
290.3712028183685
 20
645.9615985291479
 30
0.0
 10
290.4041319005984
 20
645.6541330102834
 30
0.0
 10
290.4638807488296
 20
645.1586578309451
 30
0.0
 10
290.485532379476
 20
644.9877418074805
 30
0.0
 10
290.5326264848444
 20
644.6341822235097
 30
0.0
 10
290.5581014116011
 20
644.45143405923
 30
0.0
 10
290.6388060332125
 20
643.8980390987322
 30
0.0
 10
290.6988098347406
 20
643.5182843487232
 30
0.0
 10
290.7989196279121
 20
642.9327961083341
 30
0.0
 10
290.8341884666512
 20
642.7338584321958
 30
0.0
 10
290.9071055896596
 20
642.3370185263398
 30
0.0
 10
290.9447227895567
 20
642.1391861489145
 30
0.0
 10
290.9834805380661
 20
641.9419264290605
 30
0.0
  0
ELLIPSE
  5
28E
330
1F
100
AcDbEntity
  8
1
100
AcDbEllipse
 10
436.8500916612
 20
177.8186207618
 30
0.0
 11
0.4747396969229953
 21
-0.1588456805722558
 31
0.0
210
0.0
220
0.0
230
1.0
 40
0.998782766
 41
5.49839613136661
 42
7.067974482991314
  0
ELLIPSE
  5
28F
330
1F
100
AcDbEntity
  8
1
100
AcDbEllipse
 10
435.9557028017
 20
177.372694926
 30
0.0
 11
-0.158845680572199
 21
-0.4747396969229385
 31
0.0
210
0.0
220
0.0
230
1.0
 40
0.998782766
 41
5.498396131367958
 42
7.067974482991248
  0
ELLIPSE
  5
290
330
1F
100
AcDbEntity
  8
1
100
AcDbEllipse
 10
437.4776896506
 20
178.8023784704
 30
0.0
 11
-0.4747396969229384
 21
0.1588456805722558
 31
0.0
210
0.0
220
0.0
230
1.0
 40
0.998782766
 41
5.49839613136701
 42
7.067974482993018
  0
ELLIPSE
  5
291
330
1F
100
AcDbEntity
  8
1
100
AcDbEllipse
 10
431.1189766508
 20
177.3091633525
 30
0.0
 11
0.9600758329086717
 21
-0.2843874178945214
 31
0.0
210
0.0
220
0.0
230
1.0
 40
0.9986916679
 41
5.139849296080424
 42
5.463533588178061
  0
ELLIPSE
  5
292
330
1F
100
AcDbEntity
  8
1
100
AcDbEllipse
 10
434.7923410637
 20
177.4635130538
 30
0.0
 11
0.1588456805722558
 21
0.4747396969229384
 31
0.0
210
0.0
220
0.0
230
1.0
 40
0.998782766
 41
5.498396131367109
 42
7.067974482991879
  0
ELLIPSE
  5
293
330
1F
100
AcDbEntity
  8
1
100
AcDbEllipse
 10
418.8817056695
 20
193.6979065054
 30
0.0
 11
0.7437723432739746
 21
0.1006343055802574
 31
0.0
210
0.0
220
0.0
230
1.0
 40
0.9992678608
 41
5.860993941724553
 42
6.705376672634054
  0
ELLIPSE
  5
294
330
1F
100
AcDbEntity
  8
1
100
AcDbEllipse
 10
278.0393704476
 20
178.8023784704
 30
0.0
 11
0.4747396969229953
 21
0.1588456805722558
 31
0.0
210
0.0
220
0.0
230
1.0
 40
0.998782766
 41
5.498396131369144
 42
7.067974482990618
  0
ELLIPSE
  5
295
330
1F
100
AcDbEntity
  8
1
100
AcDbEllipse
 10
278.6669684371
 20
177.8186207618
 30
0.0
 11
-0.4747396969229953
 21
-0.1588456805722558
 31
0.0
210
0.0
220
0.0
230
1.0
 40
0.998782766
 41
5.498396131367581
 42
7.067974482991518
  0
ELLIPSE
  5
296
330
1F
100
AcDbEntity
  8
1
100
AcDbEllipse
 10
279.5613572965
 20
177.372694926
 30
0.0
 11
0.158845680572199
 21
-0.4747396969229385
 31
0.0
210
0.0
220
0.0
230
1.0
 40
0.998782766
 41
5.498396131368146
 42
7.067974482991683
  0
ELLIPSE
  5
297
330
1F
100
AcDbEntity
  8
1
100
AcDbEllipse
 10
284.3980834474
 20
177.3091633525
 30
0.0
 11
-0.9600758329086717
 21
-0.2843874178945214
 31
0.0
210
0.0
220
0.0
230
1.0
 40
0.9986916679
 41
0.819651719001616
 42
1.143336011099232
  0
ELLIPSE
  5
298
330
1F
100
AcDbEntity
  8
1
100
AcDbEllipse
 10
280.7247190345
 20
177.4635130538
 30
0.0
 11
-0.158845680572199
 21
0.4747396969229385
 31
0.0
210
0.0
220
0.0
230
1.0
 40
0.998782766
 41
5.498396131367842
 42
7.067974482991223
  0
ELLIPSE
  5
299
330
1F
100
AcDbEntity
  8
1
100
AcDbEllipse
 10
296.6353544288
 20
193.6979065054
 30
0.0
 11
-0.7437723432739746
 21
0.1006343055802574
 31
0.0
210
0.0
220
0.0
230
1.0
 40
0.9992678608
 41
5.860993941725005
 42
6.705376672634074
  0
ELLIPSE
  5
29A
330
1F
100
AcDbEntity
  8
1
100
AcDbEllipse
 10
439.7974035569
 20
170.308890021
 30
0.0
 11
-0.956626393679528
 21
-1.713338575094695
 31
0.0
210
0.0
220
0.0
230
1.0
 40
0.9994110653
 41
3.138962688430641
 42
3.143665445801761
  0
ELLIPSE
  5
29B
330
1F
100
AcDbEntity
  8
1
100
AcDbEllipse
 10
275.7182274494
 20
170.3114507339
 30
0.0
 11
-1.711975408849924
 21
-0.9536883573842944
 31
0.0
210
0.0
220
0.0
230
1.0
 40
0.9998413645
 41
4.711284702475225
 42
4.715990977665769
  0
ELLIPSE
  5
29C
330
1F
100
AcDbEntity
  8
1
100
AcDbEllipse
 10
275.7185300041
 20
170.3109075341
 30
0.0
 11
-0.06210216548919335
 21
-0.9579891958490521
 31
0.0
210
0.0
220
0.0
230
1.0
 40
0.9999999647
 41
4.64751966616338
 42
4.77712393832304
  0
ELLIPSE
  5
29D
330
1F
100
AcDbEntity
  8
1
100
AcDbEllipse
 10
275.7185300041
 20
170.3109075341
 30
0.0
 11
-2.273736754432321E-13
 21
-1.959999978120095
 31
0.0
210
0.0
220
0.0
230
1.0
 40
0.9895833333
 41
3.141592653589925
 42
3.653448308730348
  0
ELLIPSE
  5
29E
330
1F
100
AcDbEntity
  8
1
100
AcDbEllipse
 10
439.7985300041
 20
170.3109075122
 30
0.0
 11
0.0
 21
-1.960000000001628
 31
0.0
210
0.0
220
0.0
230
1.0
 40
0.9895833333
 41
2.62973699834758
 42
3.141592653589793
  0
INSERT
  5
29F
330
1F
100
AcDbEntity
  8
0
  6
Continuous
 62
     7
100
AcDbBlockReference
  2
EMPOT RECTANG
 10
381.5719965649
 20
24.6478777538
 30
0.0
  0
HATCH
  5
2A0
330
1F
100
AcDbEntity
  8
COTAS
 62
     2
420
 16776960
100
AcDbHatch
 10
0.0
 20
0.0
 30
0.0
210
0.0
220
0.0
230
1.0
  2
ANSI31
 70
     0
 71
     0
 91
        1
 92
        0
 93
        1
 72
     2
 10
357.7585280491174
 20
500.0619365562875
 40
11.00000000000001
 50
0.0
 51
360.0
 73
     1
 97
        0
 75
     0
 76
     1
 52
0.0
 41
1.0
 77
     0
 78
     1
 53
45.0
 43
0.0
 44
0.0
 45
-2.245064030267288
 46
2.245064030267288
 79
     0
 98
        1
 10
0.0
 20
0.0
  0
HATCH
  5
2A1
330
1F
100
AcDbEntity
  8
COTAS
 62
     2
420
 16776960
100
AcDbHatch
 10
0.0
 20
0.0
 30
0.0
210
0.0
220
0.0
230
1.0
  2
ANSI31
 70
     0
 71
     0
 91
        1
 92
        0
 93
        1
 72
     2
 10
357.7585259074797
 20
655.0619384760778
 40
11.00000000000001
 50
0.0
 51
360.0
 73
     1
 97
        0
 75
     0
 76
     1
 52
0.0
 41
1.0
 77
     0
 78
     1
 53
45.0
 43
0.0
 44
0.0
 45
-2.245064030267288
 46
2.245064030267288
 79
     0
 98
        1
 10
0.0
 20
0.0
  0
HATCH
  5
2A2
330
1F
100
AcDbEntity
  8
COTAS
100
AcDbHatch
 10
0.0
 20
0.0
 30
0.0
210
0.0
220
0.0
230
1.0
  2
ANSI31
 70
     0
 71
     0
 91
        1
 92
        0
 93
        6
 72
     1
 10
592.7585300491174
 20
151.2709075340561
 11
489.4393408256844
 21
151.2709075340564
 72
     2
 10
488.1970115948976
 20
156.114110821379
 40
4.999999999999988
 50
75.61325257720517
 51
104.3867474227948
 73
     0
 72
     1
 10
486.9546823641108
 20
151.2709075340564
 11
442.7585300491176
 21
151.2709075340564
 72
     1
 10
442.7585300491176
 20
151.2709075340564
 11
442.7585300491175
 21
126.2709075340564
 72
     1
 10
442.7585300491175
 20
126.2709075340564
 11
592.7585300491174
 21
126.2709075340561
 72
     1
 10
592.7585300491174
 20
126.2709075340561
 11
592.7585300491174
 21
151.2709075340561
 97
        0
 75
     0
 76
     1
 52
0.0
 41
1.0
 77
     0
 78
     1
 53
45.0
 43
0.0
 44
0.0
 45
-2.245064030267288
 46
2.245064030267288
 79
     0
 98
        1
 10
0.0
 20
0.0
  0
HATCH
  5
2A3
330
1F
100
AcDbEntity
  8
COTAS
100
AcDbHatch
 10
0.0
 20
0.0
 30
0.0
210
0.0
220
0.0
230
1.0
  2
ANSI31
 70
     0
 71
     0
 91
        1
 92
        0
 93
        6
 72
     1
 10
272.7585300491174
 20
151.2709075340569
 11
228.5623777341274
 21
151.270907534057
 72
     2
 10
227.320048503338
 20
156.1141108213789
 40
4.99999999999989
 50
75.61325257717459
 51
104.3867474228254
 73
     0
 72
     1
 10
226.0777192725486
 20
151.270907534057
 11
122.7585300491174
 21
151.2709075340572
 72
     1
 10
122.7585300491174
 20
151.2709075340572
 11
122.7585300491174
 21
126.2709075340573
 72
     1
 10
122.7585300491174
 20
126.2709075340573
 11
272.7585300491174
 21
126.2709075340569
 72
     1
 10
272.7585300491174
 20
126.2709075340569
 11
272.7585300491174
 21
151.2709075340569
 97
        0
 75
     0
 76
     1
 52
0.0
 41
1.0
 77
     0
 78
     1
 53
45.0
 43
0.0
 44
0.0
 45
-2.245064030267288
 46
2.245064030267288
 79
     0
 98
        1
 10
0.0
 20
0.0
  0
HATCH
  5
2A4
330
1F
100
AcDbEntity
  8
COTAS
100
AcDbHatch
 10
0.0
 20
0.0
 30
0.0
210
0.0
220
0.0
230
1.0
  2
ANSI31
 70
     0
 71
     0
 91
        1
 92
        0
 93
        4
 72
     1
 10
122.7585300491178
 20
288.2709075340572
 11
592.7585300491177
 21
288.2709075340561
 72
     1
 10
592.7585300491177
 20
288.2709075340561
 11
592.7585300491179
 21
313.2709075340561
 72
     1
 10
592.7585300491179
 20
313.2709075340561
 11
122.7585300491179
 21
313.2709075340572
 72
     1
 10
122.7585300491179
 20
313.2709075340572
 11
122.7585300491178
 21
288.2709075340572
 97
        0
 75
     0
 76
     1
 52
0.0
 41
1.0
 77
     0
 78
     1
 53
45.0
 43
0.0
 44
0.0
 45
-2.245064030267288
 46
2.245064030267288
 79
     0
 98
        1
 10
0.0
 20
0.0
  0
DIMENSION
  5
2A5
330
1F
100
AcDbEntity
  8
COTAS
100
AcDbDimension
  2
_D
 10
612.3147443279
 20
126.2709075341
 30
0.0
 11
612.3147443279
 21
207.2709075341
 31
0.0
 70
   160
  1
MIN <> mm.
 71
     2
 42
-1.0
 73
     0
 74
     0
 75
     0
  3
SLDDIMSTYLE0
100
AcDbAlignedDimension
 13
592.7585300491
 23
288.2709075341
 33
0.0
 14
592.7585300491
 24
126.2709075341
 34
0.0
 50
90.0
100
AcDbRotatedDimension
  0
DIMENSION
  5
2B5
330
1F
100
AcDbEntity
  8
COTAS
100
AcDbDimension
  2
_D_1
 10
106.6514033813
 20
126.2709075341
 30
0.0
 11
106.6514033813
 21
197.3459050436
 31
0.0
 70
   160
  1
<>
 71
     2
 42
-1.0
 73
     0
 74
     0
 75
     0
  3
SLDDIMSTYLE0
100
AcDbAlignedDimension
 13
316.8732001195
 23
268.4209025532
 33
0.0
 14
122.7585300491
 24
126.2709075341
 34
0.0
 50
90.0
100
AcDbRotatedDimension
  0
DIMENSION
  5
2BF
330
1F
100
AcDbEntity
  8
COTAS
100
AcDbDimension
  2
_D_2
 10
235.102276176
 20
407.7619395563
 30
0.0
 11
235.102276176
 21
577.6619395563
 31
0.0
 70
   160
  1
<>
 71
     2
 42
-1.0
 73
     0
 74
     0
 75
     0
  3
SLDDIMSTYLE0
100
AcDbAlignedDimension
 13
265.4585300491
 23
747.5619395563
 33
0.0
 14
265.4585300491
 24
407.7619395563
 34
0.0
 50
90.0
100
AcDbRotatedDimension
  0
DIMENSION
  5
2C9
330
1F
100
AcDbEntity
  8
COTAS
100
AcDbDimension
  2
_D_3
 10
265.2585300491
 20
771.6398054999
 30
0.0
 11
357.7585300491
 21
771.6398054999
 31
0.0
 70
   160
  1
<>
 71
     2
 42
-1.0
 73
     0
 74
     0
 75
     0
  3
SLDDIMSTYLE0
100
AcDbAlignedDimension
 13
450.2585300491
 23
747.3619395563
 33
0.0
 14
265.2585300491
 24
747.3619395563
 34
0.0
100
AcDbRotatedDimension
  0
MTEXT
  5
2D3
330
1F
100
AcDbEntity
  8
TEXTO
100
AcDbMText
 10
592.3953828054
 20
51.2700411253
 30
0.0
 40
8.0
 41
0.0
 46
0.0
 71
     1
 72
     1
  1
HUBBLE 2X
  7
SLDTEXTSTYLE0
 73
     1
 44
1.0
  0
INSERT
  5
2D9
330
1F
100
AcDbEntity
  8
TEXTO
100
AcDbBlockReference
  2
SW_NOTE_0
 10
384.0715931981
 20
32.7295083504
 30
0.0
  0
INSERT
  5
2DF
330
1F
100
AcDbEntity
  8
TEXTO
100
AcDbBlockReference
  2
SW_NOTE_1
 10
423.5430592694
 20
33.0057595625
 30
0.0
  0
MTEXT
  5
2E0
330
1F
100
AcDbEntity
  8
TEXTO
100
AcDbMText
 10
481.0742553755
 20
34.4369949474
 30
0.0
 40
3.5
 41
0.0
 46
0.0
 71
     1
 72
     1
  1
170 x 325 mm.
  7
SLDTEXTSTYLE0
 73
     1
 44
1.0
  0
MTEXT
  5
2E1
330
1F
100
AcDbEntity
  8
TEXTO
100
AcDbMText
 10
526.0551697167
 20
34.2495498214
 30
0.0
 40
3.5
 41
0.0
 46
0.0
 71
     1
 72
     1
  1
18/04/2017
  7
SLDTEXTSTYLE0
 73
     1
 44
1.0
  0
ENDSEC
  0
SECTION
  2
OBJECTS
  0
DICTIONARY
  5
C
330
0
100
AcDbDictionary
281
     1
  3
ACAD_DETAILVIEWSTYLE
350
2EA
  3
ACAD_GROUP
350
D
  3
ACAD_LAYOUT
350
1A
  3
ACAD_MATERIAL
350
43
  3
ACAD_MLEADERSTYLE
350
6B
  3
ACAD_MLINESTYLE
350
17
  3
ACAD_PLOTSETTINGS
350
19
  3
ACAD_PLOTSTYLENAME
350
E
  3
ACAD_SCALELIST
350
47
  3
ACAD_SECTIONVIEWSTYLE
350
2EB
  3
ACAD_TABLESTYLE
350
69
  3
ACAD_VISUALSTYLE
350
2A
  3
ACDB_RECOMPOSE_DATA
350
2E7
  3
AcDbVariableDictionary
350
2E2
  0
SUN
  5
6D
330
29
100
AcDbSun
 90
        1
290
     0
 63
     7
421
 16777215
 40
1.0
291
     1
 91
  2455826
 92
 54000000
292
     0
 70
     2
 71
   256
280
     1
  0
DICTIONARY
  5
2EA
102
{ACAD_REACTORS
330
C
102
}
330
C
100
AcDbDictionary
281
     1
  0
DICTIONARY
  5
D
102
{ACAD_REACTORS
330
C
102
}
330
C
100
AcDbDictionary
281
     1
  0
DICTIONARY
  5
1A
102
{ACAD_REACTORS
330
C
102
}
330
C
100
AcDbDictionary
281
     1
  3
Layout1
350
1E
  3
Layout2
350
26
  3
Model
350
22
  0
DICTIONARY
  5
43
102
{ACAD_REACTORS
330
C
102
}
330
C
100
AcDbDictionary
281
     1
  3
ByBlock
350
45
  3
ByLayer
350
44
  3
Global
350
46
  0
DICTIONARY
  5
6B
102
{ACAD_REACTORS
330
C
102
}
330
C
100
AcDbDictionary
281
     1
  3
Standard
350
6C
  0
DICTIONARY
  5
17
102
{ACAD_REACTORS
330
C
102
}
330
C
100
AcDbDictionary
281
     1
  3
Standard
350
18
  0
DICTIONARY
  5
19
102
{ACAD_REACTORS
330
C
102
}
330
C
100
AcDbDictionary
281
     1
  0
ACDBDICTIONARYWDFLT
  5
E
102
{ACAD_REACTORS
330
C
102
}
330
C
100
AcDbDictionary
281
     1
  3
Normal
350
F
100
AcDbDictionaryWithDefault
340
F
  0
DICTIONARY
  5
47
102
{ACAD_REACTORS
330
C
102
}
330
C
100
AcDbDictionary
281
     1
  3
A0
350
48
  3
A1
350
49
  3
A2
350
4A
  3
A3
350
4B
  3
A4
350
4C
  3
A5
350
4D
  3
A6
350
4E
  3
A7
350
4F
  3
A8
350
50
  3
A9
350
51
  3
B0
350
52
  3
B1
350
53
  3
B2
350
54
  3
B3
350
55
  3
B4
350
56
  3
B5
350
57
  3
B6
350
58
  3
B7
350
59
  3
B8
350
5A
  3
B9
350
5B
  3
C0
350
5C
  3
C1
350
5D
  3
C2
350
5E
  3
C3
350
5F
  3
C4
350
60
  3
C5
350
61
  3
C6
350
62
  3
C7
350
63
  3
C8
350
64
  3
C9
350
65
  3
D0
350
66
  3
D1
350
67
  3
D2
350
68
  0
DICTIONARY
  5
2EB
102
{ACAD_REACTORS
330
C
102
}
330
C
100
AcDbDictionary
281
     1
  0
DICTIONARY
  5
69
102
{ACAD_REACTORS
330
C
102
}
330
C
100
AcDbDictionary
281
     1
  3
Standard
350
6A
  0
DICTIONARY
  5
2A
102
{ACAD_REACTORS
330
C
102
}
330
C
100
AcDbDictionary
281
     1
  3
2dWireframe
350
2F
  3
Basic
350
32
  3
Brighten
350
36
  3
ColorChange
350
3A
  3
Conceptual
350
34
  3
Dim
350
35
  3
EdgeColorOff
350
3D
  3
Facepattern
350
39
  3
Flat
350
2B
  3
FlatWithEdges
350
2C
  3
Gouraud
350
2D
  3
GouraudWithEdges
350
2E
  3
Hidden
350
31
  3
JitterOff
350
3B
  3
Linepattern
350
38
  3
OverhangOff
350
3C
  3
Realistic
350
33
  3
Shaded
350
42
  3
Shaded with edges
350
41
  3
Shades of Gray
350
3E
  3
Sketchy
350
3F
  3
Thicken
350
37
  3
Wireframe
350
30
  3
X-Ray
350
40
  0
XRECORD
  5
2E7
102
{ACAD_REACTORS
330
C
102
}
330
C
100
AcDbXrecord
280
     1
 90
        1
330
6A
  0
DICTIONARY
  5
2E2
102
{ACAD_REACTORS
330
C
102
}
330
C
100
AcDbDictionary
281
     1
  3
CANNOSCALE
350
2E3
  3
CMLEADERSTYLE
350
2E9
  3
CTABLESTYLE
350
2E8
  0
LAYOUT
  5
1E
102
{ACAD_REACTORS
330
1A
102
}
330
1A
100
AcDbPlotSettings
  1

  2
none_device
  4

  6

 40
0.0
 41
0.0
 42
0.0
 43
0.0
 44
0.0
 45
0.0
 46
0.0
 47
0.0
 48
0.0
 49
0.0
140
0.0
141
0.0
142
1.0
143
1.0
 70
   688
 72
     1
 73
     0
 74
     5
  7

 75
    16
 76
     0
 77
     2
 78
   300
147
1.0
148
0.0
149
0.0
100
AcDbLayout
  1
Layout1
 70
     1
 71
     1
 10
0.0
 20
0.0
 11
420.0
 21
297.0
 12
0.0
 22
0.0
 32
0.0
 14
1.0000000000E+20
 24
1.0000000000E+20
 34
1.0000000000E+20
 15
-1.0000000000E+20
 25
-1.0000000000E+20
 35
-1.0000000000E+20
146
0.0
 13
0.0
 23
0.0
 33
0.0
 16
1.0
 26
0.0
 36
0.0
 17
0.0
 27
1.0
 37
0.0
 76
     0
330
1B
  0
LAYOUT
  5
26
102
{ACAD_REACTORS
330
1A
102
}
330
1A
100
AcDbPlotSettings
  1

  2
none_device
  4

  6

 40
0.0
 41
0.0
 42
0.0
 43
0.0
 44
0.0
 45
0.0
 46
0.0
 47
0.0
 48
0.0
 49
0.0
140
0.0
141
0.0
142
1.0
143
1.0
 70
   688
 72
     1
 73
     0
 74
     5
  7

 75
    16
 76
     0
 77
     2
 78
   300
147
1.0
148
0.0
149
0.0
100
AcDbLayout
  1
Layout2
 70
     1
 71
     2
 10
0.0
 20
0.0
 11
0.0
 21
0.0
 12
0.0
 22
0.0
 32
0.0
 14
0.0
 24
0.0
 34
0.0
 15
0.0
 25
0.0
 35
0.0
146
0.0
 13
0.0
 23
0.0
 33
0.0
 16
1.0
 26
0.0
 36
0.0
 17
0.0
 27
1.0
 37
0.0
 76
     0
330
23
  0
LAYOUT
  5
22
102
{ACAD_REACTORS
330
1A
102
}
330
1A
100
AcDbPlotSettings
  1

  2
none_device
  4
Letter_(8.50_x_11.00_Inches)
  6

 40
6.35
 41
6.35
 42
6.35000508
 43
6.35000508
 44
215.9
 45
279.4
 46
0.0
 47
0.0
 48
0.0
 49
0.0
140
0.0
141
0.0
142
1.0
143
1.0
 70
  1712
 72
     1
 73
     0
 74
     0
  7

 75
     0
 76
     0
 77
     2
 78
   300
147
1.0
148
0.0
149
0.0
100
AcDbLayout
  1
Model
 70
     1
 71
     0
 10
0.0
 20
0.0
 11
700.0
 21
850.0
 12
0.0
 22
0.0
 32
0.0
 14
0.0
 24
0.0
 34
0.0
 15
700.0
 25
850.0
 35
0.0
146
0.0
 13
0.0
 23
0.0
 33
0.0
 16
1.0
 26
0.0
 36
0.0
 17
0.0
 27
1.0
 37
0.0
 76
     0
330
1F
331
29
  0
MATERIAL
  5
45
102
{ACAD_REACTORS
330
43
102
}
330
43
100
AcDbMaterial
  1
ByBlock
 72
     1
 94
      127
  0
MATERIAL
  5
44
102
{ACAD_REACTORS
330
43
102
}
330
43
100
AcDbMaterial
  1
ByLayer
 72
     1
 94
      127
  0
MATERIAL
  5
46
102
{ACAD_REACTORS
330
43
102
}
330
43
100
AcDbMaterial
  1
Global
 72
     1
 94
      127
  0
MLEADERSTYLE
  5
6C
102
{ACAD_REACTORS
330
6B
102
}
330
6B
100
AcDbMLeaderStyle
170
     2
171
     1
172
     0
 90
        2
 40
0.0
 41
0.0
173
     1
 91
-1056964608
340
14
 92
       -2
290
     1
 42
2.0
291
     1
 43
8.0
  3
Standard
341
0
 44
4.0
300

342
11
174
     1
178
     6
175
     1
176
     0
 93
-1056964608
 45
4.0
292
     0
297
     0
 46
4.0
343
0
 94
-1056964608
 47
1.0
 49
1.0
140
1.0
293
     1
141
0.0
294
     1
177
     0
142
1.0
295
     0
296
     0
143
3.75
1001
ACAD_MLEADERVER
1070
     2
  0
MLINESTYLE
  5
18
102
{ACAD_REACTORS
330
17
102
}
330
17
100
AcDbMlineStyle
  2
Standard
 70
     0
  3

 62
   256
 51
90.0
 52
90.0
 71
     2
 49
0.5
 62
   256
  6
BYLAYER
 49
-0.5
 62
   256
  6
BYLAYER
  0
ACDBPLACEHOLDER
  5
F
102
{ACAD_REACTORS
330
E
102
}
330
E
  0
SCALE
  5
48
102
{ACAD_REACTORS
330
47
102
}
330
47
100
AcDbScale
 70
     0
300
1:1
140
1.0
141
1.0
290
     1
  0
SCALE
  5
49
102
{ACAD_REACTORS
330
47
102
}
330
47
100
AcDbScale
 70
     0
300
1:2
140
1.0
141
2.0
290
     0
  0
SCALE
  5
4A
102
{ACAD_REACTORS
330
47
102
}
330
47
100
AcDbScale
 70
     0
300
1:4
140
1.0
141
4.0
290
     0
  0
SCALE
  5
4B
102
{ACAD_REACTORS
330
47
102
}
330
47
100
AcDbScale
 70
     0
300
1:5
140
1.0
141
5.0
290
     0
  0
SCALE
  5
4C
102
{ACAD_REACTORS
330
47
102
}
330
47
100
AcDbScale
 70
     0
300
1:8
140
1.0
141
8.0
290
     0
  0
SCALE
  5
4D
102
{ACAD_REACTORS
330
47
102
}
330
47
100
AcDbScale
 70
     0
300
1:10
140
1.0
141
10.0
290
     0
  0
SCALE
  5
4E
102
{ACAD_REACTORS
330
47
102
}
330
47
100
AcDbScale
 70
     0
300
1:16
140
1.0
141
16.0
290
     0
  0
SCALE
  5
4F
102
{ACAD_REACTORS
330
47
102
}
330
47
100
AcDbScale
 70
     0
300
1:20
140
1.0
141
20.0
290
     0
  0
SCALE
  5
50
102
{ACAD_REACTORS
330
47
102
}
330
47
100
AcDbScale
 70
     0
300
1:30
140
1.0
141
30.0
290
     0
  0
SCALE
  5
51
102
{ACAD_REACTORS
330
47
102
}
330
47
100
AcDbScale
 70
     0
300
1:40
140
1.0
141
40.0
290
     0
  0
SCALE
  5
52
102
{ACAD_REACTORS
330
47
102
}
330
47
100
AcDbScale
 70
     0
300
1:50
140
1.0
141
50.0
290
     0
  0
SCALE
  5
53
102
{ACAD_REACTORS
330
47
102
}
330
47
100
AcDbScale
 70
     0
300
1:100
140
1.0
141
100.0
290
     0
  0
SCALE
  5
54
102
{ACAD_REACTORS
330
47
102
}
330
47
100
AcDbScale
 70
     0
300
2:1
140
2.0
141
1.0
290
     0
  0
SCALE
  5
55
102
{ACAD_REACTORS
330
47
102
}
330
47
100
AcDbScale
 70
     0
300
4:1
140
4.0
141
1.0
290
     0
  0
SCALE
  5
56
102
{ACAD_REACTORS
330
47
102
}
330
47
100
AcDbScale
 70
     0
300
8:1
140
8.0
141
1.0
290
     0
  0
SCALE
  5
57
102
{ACAD_REACTORS
330
47
102
}
330
47
100
AcDbScale
 70
     0
300
10:1
140
10.0
141
1.0
290
     0
  0
SCALE
  5
58
102
{ACAD_REACTORS
330
47
102
}
330
47
100
AcDbScale
 70
     0
300
100:1
140
100.0
141
1.0
290
     0
  0
SCALE
  5
59
102
{ACAD_REACTORS
330
47
102
}
330
47
100
AcDbScale
 70
     0
300
1/128" = 1'-0"
140
0.0078125
141
12.0
290
     0
  0
SCALE
  5
5A
102
{ACAD_REACTORS
330
47
102
}
330
47
100
AcDbScale
 70
     0
300
1/64" = 1'-0"
140
0.015625
141
12.0
290
     0
  0
SCALE
  5
5B
102
{ACAD_REACTORS
330
47
102
}
330
47
100
AcDbScale
 70
     0
300
1/32" = 1'-0"
140
0.03125
141
12.0
290
     0
  0
SCALE
  5
5C
102
{ACAD_REACTORS
330
47
102
}
330
47
100
AcDbScale
 70
     0
300
1/16" = 1'-0"
140
0.0625
141
12.0
290
     0
  0
SCALE
  5
5D
102
{ACAD_REACTORS
330
47
102
}
330
47
100
AcDbScale
 70
     0
300
3/32" = 1'-0"
140
0.09375
141
12.0
290
     0
  0
SCALE
  5
5E
102
{ACAD_REACTORS
330
47
102
}
330
47
100
AcDbScale
 70
     0
300
1/8" = 1'-0"
140
0.125
141
12.0
290
     0
  0
SCALE
  5
5F
102
{ACAD_REACTORS
330
47
102
}
330
47
100
AcDbScale
 70
     0
300
3/16" = 1'-0"
140
0.1875
141
12.0
290
     0
  0
SCALE
  5
60
102
{ACAD_REACTORS
330
47
102
}
330
47
100
AcDbScale
 70
     0
300
1/4" = 1'-0"
140
0.25
141
12.0
290
     0
  0
SCALE
  5
61
102
{ACAD_REACTORS
330
47
102
}
330
47
100
AcDbScale
 70
     0
300
3/8" = 1'-0"
140
0.375
141
12.0
290
     0
  0
SCALE
  5
62
102
{ACAD_REACTORS
330
47
102
}
330
47
100
AcDbScale
 70
     0
300
1/2" = 1'-0"
140
0.5
141
12.0
290
     0
  0
SCALE
  5
63
102
{ACAD_REACTORS
330
47
102
}
330
47
100
AcDbScale
 70
     0
300
3/4" = 1'-0"
140
0.75
141
12.0
290
     0
  0
SCALE
  5
64
102
{ACAD_REACTORS
330
47
102
}
330
47
100
AcDbScale
 70
     0
300
1" = 1'-0"
140
1.0
141
12.0
290
     0
  0
SCALE
  5
65
102
{ACAD_REACTORS
330
47
102
}
330
47
100
AcDbScale
 70
     0
300
1-1/2" = 1'-0"
140
1.5
141
12.0
290
     0
  0
SCALE
  5
66
102
{ACAD_REACTORS
330
47
102
}
330
47
100
AcDbScale
 70
     0
300
3" = 1'-0"
140
3.0
141
12.0
290
     0
  0
SCALE
  5
67
102
{ACAD_REACTORS
330
47
102
}
330
47
100
AcDbScale
 70
     0
300
6" = 1'-0"
140
6.0
141
12.0
290
     0
  0
SCALE
  5
68
102
{ACAD_REACTORS
330
47
102
}
330
47
100
AcDbScale
 70
     0
300
1'-0" = 1'-0"
140
12.0
141
12.0
290
     0
  0
TABLESTYLE
  5
6A
102
{ACAD_REACTORS
330
69
102
}
102
{ACAD_XDICTIONARY
360
2E4
102
}
330
69
100
AcDbTableStyle
  3
Standard
 70
     0
 71
     0
 40
0.06
 41
0.06
280
     0
281
     0
  7
STANDARD
140
4.5
170
     2
 62
     0
 63
   257
283
     0
 90
        4
 91
        0
  1

274
    -2
284
     1
 64
     0
275
    -2
285
     1
 65
     0
276
    -2
286
     1
 66
     0
277
    -2
287
     1
 67
     0
278
    -2
288
     1
 68
     0
279
    -2
289
     1
 69
     0
  7
STANDARD
140
6.0
170
     5
 62
     0
 63
   257
283
     0
 90
        4
 91
        0
  1

274
    -2
284
     1
 64
     0
275
    -2
285
     1
 65
     0
276
    -2
286
     1
 66
     0
277
    -2
287
     1
 67
     0
278
    -2
288
     1
 68
     0
279
    -2
289
     1
 69
     0
  7
STANDARD
140
4.5
170
     5
 62
     0
 63
   257
283
     0
 90
        4
 91
        0
  1

274
    -2
284
     1
 64
     0
275
    -2
285
     1
 65
     0
276
    -2
286
     1
 66
     0
277
    -2
287
     1
 67
     0
278
    -2
288
     1
 68
     0
279
    -2
289
     1
 69
     0
  0
VISUALSTYLE
  5
2F
102
{ACAD_REACTORS
330
2A
102
}
330
2A
100
AcDbVisualStyle
  2
2dWireframe
 70
     4
 71
     0
 72
     2
 73
     0
 90
        0
 40
0.6
 41
30.0
 62
     5
 63
     7
421
 16777215
 74
     1
 91
        4
 64
     7
 65
   257
 75
     1
175
     1
 42
1.0
 92
        0
 66
   257
 43
1.0
 76
     1
 77
     6
 78
     2
 67
     7
 79
     5
170
     0
171
     0
290
     0
174
     0
 93
        1
 44
0.0
173
     0
291
     0
 45
0.0
  0
VISUALSTYLE
  5
32
102
{ACAD_REACTORS
330
2A
102
}
330
2A
100
AcDbVisualStyle
  2
Basic
 70
     7
 71
     1
 72
     0
 73
     1
 90
        0
 40
0.6
 41
30.0
 62
     5
 63
     7
421
 16777215
 74
     0
 91
        4
 64
     7
 65
   257
 75
     1
175
     1
 42
1.0
 92
        8
 66
     7
 43
1.0
 76
     1
 77
     6
 78
     2
 67
     7
 79
     5
170
     0
171
     0
290
     0
174
     0
 93
        1
 44
0.0
173
     0
291
     1
 45
0.0
  0
VISUALSTYLE
  5
36
102
{ACAD_REACTORS
330
2A
102
}
330
2A
100
AcDbVisualStyle
  2
Brighten
 70
    12
 71
     2
 72
     2
 73
     0
 90
        0
 40
0.6
 41
30.0
 62
     5
 63
     7
421
 16777215
 74
     1
 91
        4
 64
     7
 65
   257
 75
     1
175
     1
 42
1.0
 92
        8
 66
     7
 43
1.0
 76
     1
 77
     6
 78
     2
 67
     7
 79
     5
170
     0
171
     0
290
     0
174
     0
 93
        1
 44
50.0
173
     0
291
     1
 45
0.0
  0
VISUALSTYLE
  5
3A
102
{ACAD_REACTORS
330
2A
102
}
330
2A
100
AcDbVisualStyle
  2
ColorChange
 70
    16
 71
     2
 72
     2
 73
     3
 90
        0
 40
0.6
 41
30.0
 62
     5
 63
     8
421
  8421504
 74
     1
 91
        4
 64
     7
 65
   257
 75
     1
175
     1
 42
1.0
 92
        8
 66
     8
424
  8421504
 43
1.0
 76
     1
 77
     6
 78
     2
 67
     7
 79
     5
170
     0
171
     0
290
     0
174
     0
 93
        1
 44
0.0
173
     0
291
     1
 45
0.0
  0
VISUALSTYLE
  5
34
102
{ACAD_REACTORS
330
2A
102
}
330
2A
100
AcDbVisualStyle
  2
Conceptual
 70
     9
 71
     3
 72
     2
 73
     0
 90
        0
 40
0.6
 41
30.0
 62
     5
 63
     7
421
 16777215
 74
     2
 91
        2
 64
     7
 65
   257
 75
     1
175
     1
 42
179.0
 92
        8
 66
     7
 43
1.0
 76
     1
 77
     6
 78
     2
 67
     7
 79
     3
170
     0
171
     0
290
     0
174
     0
 93
        1
 44
0.0
173
     0
291
     0
 45
0.0
  0
VISUALSTYLE
  5
35
102
{ACAD_REACTORS
330
2A
102
}
330
2A
100
AcDbVisualStyle
  2
Dim
 70
    11
 71
     2
 72
     2
 73
     0
 90
        0
 40
0.6
 41
30.0
 62
     5
 63
     7
421
 16777215
 74
     1
 91
        4
 64
     7
 65
   257
 75
     1
175
     1
 42
1.0
 92
        8
 66
     7
 43
1.0
 76
     1
 77
     6
 78
     2
 67
     7
 79
     5
170
     0
171
     0
290
     0
174
     0
 93
        1
 44
-50.0
173
     0
291
     1
 45
0.0
  0
VISUALSTYLE
  5
3D
102
{ACAD_REACTORS
330
2A
102
}
330
2A
100
AcDbVisualStyle
  2
EdgeColorOff
 70
    22
 71
     2
 72
     2
 73
     0
 90
        0
 40
0.6
 41
30.0
 62
     5
 63
     7
421
 16777215
 74
     1
 91
        4
 64
     7
 65
   257
 75
     1
175
     1
 42
1.0
 92
        8
 66
     7
 43
1.0
 76
     1
 77
     6
 78
     2
 67
     7
 79
     5
170
     0
171
     0
290
     0
174
     0
 93
        1
 44
0.0
173
     0
291
     1
 45
0.0
  0
VISUALSTYLE
  5
39
102
{ACAD_REACTORS
330
2A
102
}
330
2A
100
AcDbVisualStyle
  2
Facepattern
 70
    15
 71
     2
 72
     2
 73
     0
 90
        0
 40
0.6
 41
30.0
 62
     5
 63
     7
421
 16777215
 74
     1
 91
        4
 64
     7
 65
   257
 75
     1
175
     1
 42
1.0
 92
        8
 66
     7
 43
1.0
 76
     1
 77
     6
 78
     2
 67
     7
 79
     5
170
     0
171
     0
290
     0
174
     0
 93
        1
 44
0.0
173
     0
291
     1
 45
0.0
  0
VISUALSTYLE
  5
2B
102
{ACAD_REACTORS
330
2A
102
}
330
2A
100
AcDbVisualStyle
  2
Flat
 70
     0
 71
     2
 72
     1
 73
     1
 90
        2
 40
0.6
 41
30.0
 62
     5
 63
     7
421
 16777215
 74
     0
 91
        0
 64
     7
 65
   257
 75
     1
175
     1
 42
1.0
 92
        8
 66
     7
 43
1.0
 76
     1
 77
     6
 78
     2
 67
     7
 79
     5
170
     0
171
     0
290
     0
174
     0
 93
       13
 44
0.0
173
     0
291
     1
 45
0.0
  0
VISUALSTYLE
  5
2C
102
{ACAD_REACTORS
330
2A
102
}
330
2A
100
AcDbVisualStyle
  2
FlatWithEdges
 70
     1
 71
     2
 72
     1
 73
     1
 90
        2
 40
0.6
 41
30.0
 62
     5
 63
     7
421
 16777215
 74
     1
 91
        0
 64
     7
 65
   257
 75
     1
175
     1
 42
1.0
 92
        0
 66
   257
 43
1.0
 76
     1
 77
     6
 78
     2
 67
     7
 79
     5
170
     0
171
     0
290
     0
174
     0
 93
       13
 44
0.0
173
     0
291
     1
 45
0.0
  0
VISUALSTYLE
  5
2D
102
{ACAD_REACTORS
330
2A
102
}
330
2A
100
AcDbVisualStyle
  2
Gouraud
 70
     2
 71
     2
 72
     2
 73
     1
 90
        2
 40
0.6
 41
30.0
 62
     5
 63
     7
421
 16777215
 74
     0
 91
        0
 64
     7
 65
   257
 75
     1
175
     1
 42
1.0
 92
        0
 66
     7
 43
1.0
 76
     1
 77
     6
 78
     2
 67
     7
 79
     5
170
     0
171
     0
290
     0
174
     0
 93
       13
 44
0.0
173
     0
291
     1
 45
0.0
  0
VISUALSTYLE
  5
2E
102
{ACAD_REACTORS
330
2A
102
}
330
2A
100
AcDbVisualStyle
  2
GouraudWithEdges
 70
     3
 71
     2
 72
     2
 73
     1
 90
        2
 40
0.6
 41
30.0
 62
     5
 63
     7
421
 16777215
 74
     1
 91
        0
 64
     7
 65
   257
 75
     1
175
     1
 42
1.0
 92
        0
 66
   257
 43
1.0
 76
     1
 77
     6
 78
     2
 67
     7
 79
     5
170
     0
171
     0
290
     0
174
     0
 93
       13
 44
0.0
173
     0
291
     1
 45
0.0
  0
VISUALSTYLE
  5
31
102
{ACAD_REACTORS
330
2A
102
}
330
2A
100
AcDbVisualStyle
  2
Hidden
 70
     6
 71
     1
 72
     2
 73
     2
 90
        0
 40
0.6
 41
30.0
 62
     5
 63
     7
421
 16777215
 74
     2
 91
        2
 64
     7
 65
   257
 75
     2
175
     1
 42
40.0
 92
        0
 66
   257
 43
1.0
 76
     1
 77
     6
 78
     2
 67
     7
 79
     3
170
     0
171
     0
290
     0
174
     0
 93
        1
 44
0.0
173
     0
291
     0
 45
0.0
  0
VISUALSTYLE
  5
3B
102
{ACAD_REACTORS
330
2A
102
}
330
2A
100
AcDbVisualStyle
  2
JitterOff
 70
    20
 71
     2
 72
     2
 73
     0
 90
        0
 40
0.6
 41
30.0
 62
     5
 63
     7
421
 16777215
 74
     1
 91
        4
 64
     7
 65
   257
 75
     1
175
     1
 42
1.0
 92
       10
 66
     7
 43
1.0
 76
     1
 77
     6
 78
     2
 67
     7
 79
     5
170
     0
171
     0
290
     0
174
     0
 93
        1
 44
0.0
173
     0
291
     1
 45
0.0
  0
VISUALSTYLE
  5
38
102
{ACAD_REACTORS
330
2A
102
}
330
2A
100
AcDbVisualStyle
  2
Linepattern
 70
    14
 71
     2
 72
     2
 73
     0
 90
        0
 40
0.6
 41
30.0
 62
     5
 63
     7
421
 16777215
 74
     1
 91
        4
 64
     7
 65
   257
 75
     7
175
     7
 42
1.0
 92
        8
 66
     7
 43
1.0
 76
     1
 77
     6
 78
     2
 67
     7
 79
     5
170
     0
171
     0
290
     0
174
     0
 93
        1
 44
0.0
173
     0
291
     1
 45
0.0
  0
VISUALSTYLE
  5
3C
102
{ACAD_REACTORS
330
2A
102
}
330
2A
100
AcDbVisualStyle
  2
OverhangOff
 70
    21
 71
     2
 72
     2
 73
     0
 90
        0
 40
0.6
 41
30.0
 62
     5
 63
     7
421
 16777215
 74
     1
 91
        4
 64
     7
 65
   257
 75
     1
175
     1
 42
1.0
 92
        9
 66
     7
 43
1.0
 76
     1
 77
     6
 78
     2
 67
     7
 79
     5
170
     0
171
     0
290
     0
174
     0
 93
        1
 44
0.0
173
     0
291
     1
 45
0.0
  0
VISUALSTYLE
  5
33
102
{ACAD_REACTORS
330
2A
102
}
330
2A
100
AcDbVisualStyle
  2
Realistic
 70
     8
 71
     2
 72
     3
 73
     0
 90
        2
 40
0.6
 41
30.0
 62
     5
 63
     7
421
 16777215
 74
     0
 91
        0
 64
     7
 65
   257
 75
     1
175
     1
 42
1.0
 92
        8
 66
   257
 43
1.0
 76
     1
 77
     6
 78
     2
 67
     7
 79
     3
170
     0
171
     0
290
     0
174
     0
 93
       13
 44
0.0
173
     0
291
     0
 45
0.0
  0
VISUALSTYLE
  5
42
102
{ACAD_REACTORS
330
2A
102
}
330
2A
100
AcDbVisualStyle
  2
Shaded
 70
    27
 71
     2
 72
     2
 73
     1
 90
        2
 40
0.6
 41
30.0
 62
     5
 63
     7
421
 16777215
 74
     0
 91
        4
 64
     7
 65
   257
 75
     1
175
     1
 42
1.0
 92
        8
 66
   257
 43
1.0
 76
     1
 77
     6
 78
     2
 67
     8
425
  7895160
 79
     3
170
     0
171
     0
290
     0
174
     0
 93
        5
 44
0.0
173
     0
291
     0
 45
0.0
  0
VISUALSTYLE
  5
41
102
{ACAD_REACTORS
330
2A
102
}
330
2A
100
AcDbVisualStyle
  2
Shaded with edges
 70
    26
 71
     2
 72
     2
 73
     1
 90
        2
 40
0.6
 41
30.0
 62
     5
 63
     7
421
 16777215
 74
     1
 91
       10
 64
     7
 65
   257
 75
     2
175
     1
 42
1.0
 92
        8
 66
   257
 43
1.0
 76
     1
 77
     6
 78
     2
 67
     7
 79
     3
170
     0
171
     0
290
     0
174
     0
 93
        5
 44
0.0
173
     0
291
     0
 45
0.0
  0
VISUALSTYLE
  5
3E
102
{ACAD_REACTORS
330
2A
102
}
330
2A
100
AcDbVisualStyle
  2
Shades of Gray
 70
    23
 71
     2
 72
     2
 73
     3
 90
        0
 40
0.6
 41
30.0
 62
     5
 63
     7
421
 16777215
 74
     2
 91
        2
 64
     7
 65
     7
 75
     1
175
     1
 42
40.0
 92
        8
 66
     7
 43
1.0
 76
     1
 77
     6
 78
     2
 67
     7
 79
     3
170
     0
171
     0
290
     0
174
     0
 93
        1
 44
0.0
173
     0
291
     0
 45
0.0
  0
VISUALSTYLE
  5
3F
102
{ACAD_REACTORS
330
2A
102
}
330
2A
100
AcDbVisualStyle
  2
Sketchy
 70
    24
 71
     1
 72
     2
 73
     2
 90
        0
 40
0.6
 41
30.0
 62
     5
 63
     7
421
 16777215
 74
     2
 91
        2
 64
     7
 65
     7
 75
     1
175
     1
 42
40.0
 92
       11
 66
     7
 43
1.0
 76
     1
 77
     6
 78
     2
 67
     7
 79
     6
170
     0
171
     0
290
     0
174
     0
 93
        1
 44
0.0
173
     0
291
     0
 45
0.0
  0
VISUALSTYLE
  5
37
102
{ACAD_REACTORS
330
2A
102
}
330
2A
100
AcDbVisualStyle
  2
Thicken
 70
    13
 71
     2
 72
     2
 73
     0
 90
        0
 40
0.6
 41
30.0
 62
     5
 63
     7
421
 16777215
 74
     1
 91
        4
 64
     7
 65
   257
 75
     1
175
     1
 42
1.0
 92
       12
 66
     7
 43
1.0
 76
     1
 77
     6
 78
     2
 67
     7
 79
     5
170
     0
171
     0
290
     0
174
     0
 93
        1
 44
0.0
173
     0
291
     1
 45
0.0
  0
VISUALSTYLE
  5
30
102
{ACAD_REACTORS
330
2A
102
}
330
2A
100
AcDbVisualStyle
  2
Wireframe
 70
     5
 71
     0
 72
     2
 73
     0
 90
        0
 40
0.6
 41
30.0
 62
     5
 63
     7
421
 16777215
 74
     1
 91
        4
 64
     7
 65
   257
 75
     1
175
     1
 42
1.0
 92
        0
 66
   257
 43
1.0
 76
     1
 77
     6
 78
     2
 67
     7
 79
     3
170
     0
171
     0
290
     0
174
     0
 93
        1
 44
0.0
173
     0
291
     0
 45
0.0
  0
VISUALSTYLE
  5
40
102
{ACAD_REACTORS
330
2A
102
}
330
2A
100
AcDbVisualStyle
  2
X-Ray
 70
    25
 71
     2
 72
     2
 73
     1
 90
        1
 40
0.5
 41
30.0
 62
     5
 63
     7
421
 16777215
 74
     1
 91
        0
 64
     7
 65
   257
 75
     1
175
     1
 42
1.0
 92
        8
 66
     7
 43
1.0
 76
     1
 77
     6
 78
     2
 67
     7
 79
     3
170
     0
171
     0
290
     0
174
     0
 93
       13
 44
0.0
173
     0
291
     0
 45
0.0
  0
DICTIONARYVAR
  5
2E3
102
{ACAD_REACTORS
330
2E2
102
}
330
2E2
100
DictionaryVariables
280
     0
  1
1:1
  0
DICTIONARYVAR
  5
2E9
102
{ACAD_REACTORS
330
2E2
102
}
330
2E2
100
DictionaryVariables
280
     0
  1
Standard
  0
DICTIONARYVAR
  5
2E8
102
{ACAD_REACTORS
330
2E2
102
}
330
2E2
100
DictionaryVariables
280
     0
  1
Standard
  0
DICTIONARY
  5
2E4
330
6A
100
AcDbDictionary
280
     1
281
     1
  3
ACAD_ROUNDTRIP_2008_TABLESTYLE_CELLSTYLEMAP
360
2E5
  0
CELLSTYLEMAP
  5
2E5
102
{ACAD_REACTORS
330
2E4
102
}
330
2E4
100
AcDbCellStyleMap
 90
        3
300
CELLSTYLE
  1
TABLEFORMAT_BEGIN
 90
        5
170
     1
 91
        0
 92
    32768
 62
   257
 93
        1
300
CONTENTFORMAT
  1
CONTENTFORMAT_BEGIN
 90
        0
 91
        0
 92
        4
 93
        0
300

 40
0.0
140
1.0
 94
        5
 62
     0
340
11
144
6.0
309
CONTENTFORMAT_END
171
     1
301
MARGIN
  1
CELLMARGIN_BEGIN
 40
1.5
 40
1.5
 40
1.5
 40
1.5
 40
1.5
 40
1.5
309
CELLMARGIN_END
 94
        6
 95
        1
302
GRIDFORMAT
  1
GRIDFORMAT_BEGIN
 90
        0
 91
        1
 62
     0
 92
       -2
340
14
 93
        0
 40
0.045
309
GRIDFORMAT_END
 95
        2
302
GRIDFORMAT
  1
GRIDFORMAT_BEGIN
 90
        0
 91
        1
 62
     0
 92
       -2
340
14
 93
        0
 40
0.045
309
GRIDFORMAT_END
 95
        4
302
GRIDFORMAT
  1
GRIDFORMAT_BEGIN
 90
        0
 91
        1
 62
     0
 92
       -2
340
14
 93
        0
 40
0.045
309
GRIDFORMAT_END
 95
        8
302
GRIDFORMAT
  1
GRIDFORMAT_BEGIN
 90
        0
 91
        1
 62
     0
 92
       -2
340
14
 93
        0
 40
0.045
309
GRIDFORMAT_END
 95
       16
302
GRIDFORMAT
  1
GRIDFORMAT_BEGIN
 90
        0
 91
        1
 62
     0
 92
       -2
340
14
 93
        0
 40
0.045
309
GRIDFORMAT_END
 95
       32
302
GRIDFORMAT
  1
GRIDFORMAT_BEGIN
 90
        0
 91
        1
 62
     0
 92
       -2
340
14
 93
        0
 40
0.045
309
GRIDFORMAT_END
309
TABLEFORMAT_END
  1
CELLSTYLE_BEGIN
 90
        1
 91
        1
300
_TITLE
309
CELLSTYLE_END
300
CELLSTYLE
  1
TABLEFORMAT_BEGIN
 90
        5
170
     1
 91
        0
 92
        0
 62
   257
 93
        1
300
CONTENTFORMAT
  1
CONTENTFORMAT_BEGIN
 90
        0
 91
        0
 92
        4
 93
        0
300

 40
0.0
140
1.0
 94
        5
 62
     0
340
11
144
4.5
309
CONTENTFORMAT_END
171
     1
301
MARGIN
  1
CELLMARGIN_BEGIN
 40
1.5
 40
1.5
 40
1.5
 40
1.5
 40
1.5
 40
1.5
309
CELLMARGIN_END
 94
        6
 95
        1
302
GRIDFORMAT
  1
GRIDFORMAT_BEGIN
 90
        0
 91
        1
 62
     0
 92
       -2
340
14
 93
        0
 40
0.045
309
GRIDFORMAT_END
 95
        2
302
GRIDFORMAT
  1
GRIDFORMAT_BEGIN
 90
        0
 91
        1
 62
     0
 92
       -2
340
14
 93
        0
 40
0.045
309
GRIDFORMAT_END
 95
        4
302
GRIDFORMAT
  1
GRIDFORMAT_BEGIN
 90
        0
 91
        1
 62
     0
 92
       -2
340
14
 93
        0
 40
0.045
309
GRIDFORMAT_END
 95
        8
302
GRIDFORMAT
  1
GRIDFORMAT_BEGIN
 90
        0
 91
        1
 62
     0
 92
       -2
340
14
 93
        0
 40
0.045
309
GRIDFORMAT_END
 95
       16
302
GRIDFORMAT
  1
GRIDFORMAT_BEGIN
 90
        0
 91
        1
 62
     0
 92
       -2
340
14
 93
        0
 40
0.045
309
GRIDFORMAT_END
 95
       32
302
GRIDFORMAT
  1
GRIDFORMAT_BEGIN
 90
        0
 91
        1
 62
     0
 92
       -2
340
14
 93
        0
 40
0.045
309
GRIDFORMAT_END
309
TABLEFORMAT_END
  1
CELLSTYLE_BEGIN
 90
        2
 91
        1
300
_HEADER
309
CELLSTYLE_END
300
CELLSTYLE
  1
TABLEFORMAT_BEGIN
 90
        5
170
     1
 91
        0
 92
        0
 62
   257
 93
        1
300
CONTENTFORMAT
  1
CONTENTFORMAT_BEGIN
 90
        0
 91
        0
 92
        4
 93
        0
300

 40
0.0
140
1.0
 94
        2
 62
     0
340
11
144
4.5
309
CONTENTFORMAT_END
171
     1
301
MARGIN
  1
CELLMARGIN_BEGIN
 40
1.5
 40
1.5
 40
1.5
 40
1.5
 40
1.5
 40
1.5
309
CELLMARGIN_END
 94
        6
 95
        1
302
GRIDFORMAT
  1
GRIDFORMAT_BEGIN
 90
        0
 91
        1
 62
     0
 92
       -2
340
14
 93
        0
 40
0.045
309
GRIDFORMAT_END
 95
        2
302
GRIDFORMAT
  1
GRIDFORMAT_BEGIN
 90
        0
 91
        1
 62
     0
 92
       -2
340
14
 93
        0
 40
0.045
309
GRIDFORMAT_END
 95
        4
302
GRIDFORMAT
  1
GRIDFORMAT_BEGIN
 90
        0
 91
        1
 62
     0
 92
       -2
340
14
 93
        0
 40
0.045
309
GRIDFORMAT_END
 95
        8
302
GRIDFORMAT
  1
GRIDFORMAT_BEGIN
 90
        0
 91
        1
 62
     0
 92
       -2
340
14
 93
        0
 40
0.045
309
GRIDFORMAT_END
 95
       16
302
GRIDFORMAT
  1
GRIDFORMAT_BEGIN
 90
        0
 91
        1
 62
     0
 92
       -2
340
14
 93
        0
 40
0.045
309
GRIDFORMAT_END
 95
       32
302
GRIDFORMAT
  1
GRIDFORMAT_BEGIN
 90
        0
 91
        1
 62
     0
 92
       -2
340
14
 93
        0
 40
0.045
309
GRIDFORMAT_END
309
TABLEFORMAT_END
  1
CELLSTYLE_BEGIN
 90
        3
 91
        2
300
_DATA
309
CELLSTYLE_END
  0
ENDSEC
  0
EOF
