  0
SECTION
  2
HEADER
  9
$ACADVER
  1
AC1021
  9
$ACADMAINTVER
 70
    25
  9
$DWGCODEPAGE
  3
ANSI_1252
  9
$INSBASE
 10
0.0
 20
0.0
 30
0.0
  9
$EXTMIN
 10
0.0
 20
0.0
 30
0.0
  9
$EXTMAX
 10
230.0
 20
265.0
 30
0.0
  9
$LIMMIN
 10
0.0
 20
0.0
  9
$LIMMAX
 10
230.0
 20
265.0
  9
$ORTHOMODE
 70
     0
  9
$REGENMODE
 70
     1
  9
$FILLMODE
 70
     1
  9
$QTEXTMODE
 70
     0
  9
$MIRRTEXT
 70
     1
  9
$LTSCALE
 40
1.0
  9
$ATTMODE
 70
     1
  9
$TEXTSIZE
 40
3.5
  9
$TRACEWID
 40
1.0
  9
$TEXTSTYLE
  7
STANDARD
  9
$CLAYER
  8
0
  9
$CELTYPE
  6
ByLayer
  9
$CECOLOR
 62
   256
  9
$CELTSCALE
 40
1.0
  9
$DISPSILH
 70
     0
  9
$DIMSCALE
 40
1.0
  9
$DIMASZ
 40
3.302
  9
$DIMEXO
 40
1.0
  9
$DIMDLI
 40
3.75
  9
$DIMRND
 40
0.0
  9
$DIMDLE
 40
0.0
  9
$DIMEXE
 40
1.0
  9
$DIMTP
 40
0.0
  9
$DIMTM
 40
0.0
  9
$DIMTXT
 40
3.5
  9
$DIMCEN
 40
2.5
  9
$DIMTSZ
 40
0.0
  9
$DIMTOL
 70
     0
  9
$DIMLIM
 70
     0
  9
$DIMTIH
 70
     1
  9
$DIMTOH
 70
     1
  9
$DIMSE1
 70
     0
  9
$DIMSE2
 70
     0
  9
$DIMTAD
 70
     1
  9
$DIMZIN
 70
     1
  9
$DIMBLK
  1

  9
$DIMASO
 70
     1
  9
$DIMSHO
 70
     1
  9
$DIMPOST
  1

  9
$DIMAPOST
  1

  9
$DIMALT
 70
     0
  9
$DIMALTD
 70
     3
  9
$DIMALTF
 40
0.0393700787
  9
$DIMLFAC
 40
1.0
  9
$DIMTOFL
 70
     1
  9
$DIMTVP
 40
0.0
  9
$DIMTIX
 70
     0
  9
$DIMSOXD
 70
     0
  9
$DIMSAH
 70
     0
  9
$DIMBLK1
  1

  9
$DIMBLK2
  1

  9
$DIMSTYLE
  2
ISO-25
  9
$DIMCLRD
 70
     0
  9
$DIMCLRE
 70
     0
  9
$DIMCLRT
 70
     0
  9
$DIMTFAC
 40
1.0
  9
$DIMGAP
 40
1.524
  9
$DIMJUST
 70
     0
  9
$DIMSD1
 70
     0
  9
$DIMSD2
 70
     0
  9
$DIMTOLJ
 70
     0
  9
$DIMTZIN
 70
     1
  9
$DIMALTZ
 70
     0
  9
$DIMALTTZ
 70
     0
  9
$DIMUPT
 70
     0
  9
$DIMDEC
 70
     0
  9
$DIMTDEC
 70
     0
  9
$DIMALTU
 70
     2
  9
$DIMALTTD
 70
     3
  9
$DIMTXSTY
  7
STANDARD
  9
$DIMAUNIT
 70
     0
  9
$DIMADEC
 70
     0
  9
$DIMALTRND
 40
0.0
  9
$DIMAZIN
 70
     0
  9
$DIMDSEP
 70
    44
  9
$DIMATFIT
 70
     3
  9
$DIMFRAC
 70
     0
  9
$DIMLDRBLK
  1

  9
$DIMLUNIT
 70
     2
  9
$DIMLWD
 70
    -2
  9
$DIMLWE
 70
    -2
  9
$DIMTMOVE
 70
     0
  9
$DIMFXL
 40
1.0
  9
$DIMFXLON
 70
     0
  9
$DIMJOGANG
 40
0.7853981634
  9
$DIMTFILL
 70
     0
  9
$DIMTFILLCLR
 70
     0
  9
$DIMARCSYM
 70
     0
  9
$DIMLTYPE
  6

  9
$DIMLTEX1
  6

  9
$DIMLTEX2
  6

  9
$LUNITS
 70
     2
  9
$LUPREC
 70
     4
  9
$SKETCHINC
 40
1.0
  9
$FILLETRAD
 40
10.0
  9
$AUNITS
 70
     0
  9
$AUPREC
 70
     0
  9
$MENU
  1
.
  9
$ELEVATION
 40
0.0
  9
$PELEVATION
 40
0.0
  9
$THICKNESS
 40
0.0
  9
$LIMCHECK
 70
     0
  9
$CHAMFERA
 40
0.0
  9
$CHAMFERB
 40
0.0
  9
$CHAMFERC
 40
0.0
  9
$CHAMFERD
 40
0.0
  9
$SKPOLY
 70
     0
  9
$TDCREATE
 40
2457508.579004479
  9
$TDUCREATE
 40
2457508.495671146
  9
$TDUPDATE
 40
2457508.57900537
  9
$TDUUPDATE
 40
2457508.495672037
  9
$TDINDWG
 40
0.0000000116
  9
$TDUSRTIMER
 40
0.0000000116
  9
$USRTIMER
 70
     1
  9
$ANGBASE
 50
0.0
  9
$ANGDIR
 70
     0
  9
$PDMODE
 70
     0
  9
$PDSIZE
 40
-1.0
  9
$PLINEWID
 40
0.0
  9
$SPLFRAME
 70
     0
  9
$SPLINETYPE
 70
     6
  9
$SPLINESEGS
 70
     8
  9
$HANDSEED
  5
348
  9
$SURFTAB1
 70
     6
  9
$SURFTAB2
 70
     6
  9
$SURFTYPE
 70
     6
  9
$SURFU
 70
     6
  9
$SURFV
 70
     6
  9
$UCSBASE
  2

  9
$UCSNAME
  2

  9
$UCSORG
 10
0.0
 20
0.0
 30
0.0
  9
$UCSXDIR
 10
1.0
 20
0.0
 30
0.0
  9
$UCSYDIR
 10
0.0
 20
1.0
 30
0.0
  9
$UCSORTHOREF
  2

  9
$UCSORTHOVIEW
 70
     0
  9
$UCSORGTOP
 10
0.0
 20
0.0
 30
0.0
  9
$UCSORGBOTTOM
 10
0.0
 20
0.0
 30
0.0
  9
$UCSORGLEFT
 10
0.0
 20
0.0
 30
0.0
  9
$UCSORGRIGHT
 10
0.0
 20
0.0
 30
0.0
  9
$UCSORGFRONT
 10
0.0
 20
0.0
 30
0.0
  9
$UCSORGBACK
 10
0.0
 20
0.0
 30
0.0
  9
$PUCSBASE
  2

  9
$PUCSNAME
  2

  9
$PUCSORG
 10
0.0
 20
0.0
 30
0.0
  9
$PUCSXDIR
 10
1.0
 20
0.0
 30
0.0
  9
$PUCSYDIR
 10
0.0
 20
1.0
 30
0.0
  9
$PUCSORTHOREF
  2

  9
$PUCSORTHOVIEW
 70
     0
  9
$PUCSORGTOP
 10
0.0
 20
0.0
 30
0.0
  9
$PUCSORGBOTTOM
 10
0.0
 20
0.0
 30
0.0
  9
$PUCSORGLEFT
 10
0.0
 20
0.0
 30
0.0
  9
$PUCSORGRIGHT
 10
0.0
 20
0.0
 30
0.0
  9
$PUCSORGFRONT
 10
0.0
 20
0.0
 30
0.0
  9
$PUCSORGBACK
 10
0.0
 20
0.0
 30
0.0
  9
$USERI1
 70
     0
  9
$USERI2
 70
     0
  9
$USERI3
 70
     0
  9
$USERI4
 70
     0
  9
$USERI5
 70
     0
  9
$USERR1
 40
0.0
  9
$USERR2
 40
0.0
  9
$USERR3
 40
0.0
  9
$USERR4
 40
0.0
  9
$USERR5
 40
0.0
  9
$WORLDVIEW
 70
     1
  9
$SHADEDGE
 70
     3
  9
$SHADEDIF
 70
    70
  9
$TILEMODE
 70
     1
  9
$MAXACTVP
 70
    64
  9
$PINSBASE
 10
0.0
 20
0.0
 30
0.0
  9
$PLIMCHECK
 70
     0
  9
$PEXTMIN
 10
1.0000000000E+20
 20
1.0000000000E+20
 30
1.0000000000E+20
  9
$PEXTMAX
 10
-1.0000000000E+20
 20
-1.0000000000E+20
 30
-1.0000000000E+20
  9
$PLIMMIN
 10
0.0
 20
0.0
  9
$PLIMMAX
 10
420.0
 20
297.0
  9
$UNITMODE
 70
     0
  9
$VISRETAIN
 70
     1
  9
$PLINEGEN
 70
     0
  9
$PSLTSCALE
 70
     1
  9
$TREEDEPTH
 70
  3020
  9
$CMLSTYLE
  2
Standard
  9
$CMLJUST
 70
     0
  9
$CMLSCALE
 40
20.0
  9
$PROXYGRAPHICS
 70
     1
  9
$MEASUREMENT
 70
     1
  9
$CELWEIGHT
370
    -1
  9
$ENDCAPS
280
     0
  9
$JOINSTYLE
280
     0
  9
$LWDISPLAY
290
     1
  9
$INSUNITS
 70
     4
  9
$HYPERLINKBASE
  1

  9
$STYLESHEET
  1

  9
$XEDIT
290
     1
  9
$CEPSNTYPE
380
     0
  9
$PSTYLEMODE
290
     1
  9
$FINGERPRINTGUID
  2
{BD93F26A-9289-4AB7-92D5-FCE269B05954}
  9
$VERSIONGUID
  2
{FAEB1C32-E019-11D5-929B-00C0DF256EC4}
  9
$EXTNAMES
290
     1
  9
$PSVPSCALE
 40
0.0
  9
$OLESTARTUP
290
     0
  9
$SORTENTS
280
   127
  9
$INDEXCTL
280
     0
  9
$HIDETEXT
280
     1
  9
$XCLIPFRAME
290
     0
  9
$HALOGAP
280
     0
  9
$OBSCOLOR
 70
   257
  9
$OBSLTYPE
280
     0
  9
$INTERSECTIONDISPLAY
280
     0
  9
$INTERSECTIONCOLOR
 70
   257
  9
$DIMASSOC
280
     2
  9
$PROJECTNAME
  1

  9
$CAMERADISPLAY
290
     0
  9
$LENSLENGTH
 40
50.0
  9
$CAMERAHEIGHT
 40
0.0
  9
$STEPSPERSEC
 40
2.0
  9
$STEPSIZE
 40
6.0
  9
$3DDWFPREC
 40
2.0
  9
$PSOLWIDTH
 40
5.0
  9
$PSOLHEIGHT
 40
80.0
  9
$LOFTANG1
 40
1.5707963268
  9
$LOFTANG2
 40
1.5707963268
  9
$LOFTMAG1
 40
0.0
  9
$LOFTMAG2
 40
0.0
  9
$LOFTPARAM
 70
     7
  9
$LOFTNORMALS
280
     1
  9
$LATITUDE
 40
37.795
  9
$LONGITUDE
 40
-122.394
  9
$NORTHDIRECTION
 40
0.0
  9
$TIMEZONE
 70
 -8000
  9
$LIGHTGLYPHDISPLAY
280
     1
  9
$TILEMODELIGHTSYNCH
280
     1
  9
$CMATERIAL
347
44
  9
$SOLIDHIST
280
     0
  9
$SHOWHIST
280
     1
  9
$DWFFRAME
280
     2
  9
$DGNFRAME
280
     2
  9
$REALWORLDSCALE
290
     1
  9
$INTERFERECOLOR
 62
   256
  9
$CSHADOW
280
     0
  9
$SHADOWPLANELOCATION
 40
0.0
  0
ENDSEC
  0
SECTION
  2
CLASSES
  0
CLASS
  1
ACDBDICTIONARYWDFLT
  2
AcDbDictionaryWithDefault
  3
ObjectDBX Classes
 90
        0
 91
        4
280
     0
281
     0
  0
CLASS
  1
VISUALSTYLE
  2
AcDbVisualStyle
  3
ObjectDBX Classes
 90
     4095
 91
        4
280
     0
281
     0
  0
CLASS
  1
MATERIAL
  2
AcDbMaterial
  3
ObjectDBX Classes
 90
     1153
 91
        4
280
     0
281
     0
  0
CLASS
  1
SCALE
  2
AcDbScale
  3
ObjectDBX Classes
 90
     1153
 91
        4
280
     0
281
     0
  0
CLASS
  1
TABLESTYLE
  2
AcDbTableStyle
  3
ObjectDBX Classes
 90
     4095
 91
        4
280
     0
281
     0
  0
CLASS
  1
MLEADERSTYLE
  2
AcDbMLeaderStyle
  3
ACDB_MLEADERSTYLE_CLASS
 90
     4095
 91
        4
280
     0
281
     0
  0
CLASS
  1
SUN
  2
AcDbSun
  3
SCENEOE
 90
     1153
 91
        4
280
     0
281
     0
  0
CLASS
  1
DICTIONARYVAR
  2
AcDbDictionaryVar
  3
ObjectDBX Classes
 90
        0
 91
        4
280
     0
281
     0
  0
CLASS
  1
CELLSTYLEMAP
  2
AcDbCellStyleMap
  3
ObjectDBX Classes
 90
     1152
 91
        4
280
     0
281
     0
  0
ENDSEC
  0
SECTION
  2
TABLES
  0
TABLE
  2
VPORT
  5
8
330
0
100
AcDbSymbolTable
 70
     1
  0
VPORT
  5
29
330
8
100
AcDbSymbolTableRecord
100
AcDbViewportTableRecord
  2
*Active
 70
     0
 10
0.0
 20
0.0
 11
1.0
 21
1.0
 12
115.0
 22
132.5
 13
0.0
 23
0.0
 14
10.0
 24
10.0
 15
10.0
 25
10.0
 16
0.0
 26
0.0
 36
1.0
 17
0.0
 27
0.0
 37
0.0
 40
265.0
 41
0.8679245283
 42
50.0
 43
0.0
 44
0.0
 50
0.0
 51
0.0
 71
     0
 72
  2000
 73
     1
 74
     3
 75
     0
 76
     0
 77
     0
 78
     0
281
     0
 65
     1
110
0.0
120
0.0
130
0.0
111
1.0
121
0.0
131
0.0
112
0.0
122
1.0
132
0.0
 79
     0
146
0.0
 60
     3
 61
     5
292
     1
282
     1
141
0.0
142
0.0
 63
   250
361
6D
  0
ENDTAB
  0
TABLE
  2
LTYPE
  5
5
330
0
100
AcDbSymbolTable
 70
     6
  0
LTYPE
  5
14
330
5
100
AcDbSymbolTableRecord
100
AcDbLinetypeTableRecord
  2
ByBlock
 70
     0
  3

 72
    65
 73
     0
 40
0.0
  0
LTYPE
  5
15
330
5
100
AcDbSymbolTableRecord
100
AcDbLinetypeTableRecord
  2
ByLayer
 70
     0
  3

 72
    65
 73
     0
 40
0.0
  0
LTYPE
  5
16
330
5
100
AcDbSymbolTableRecord
100
AcDbLinetypeTableRecord
  2
Continuous
 70
     0
  3
Solid line
 72
    65
 73
     0
 40
0.0
  0
LTYPE
  5
6E
330
5
100
AcDbSymbolTableRecord
100
AcDbLinetypeTableRecord
  2
HIDDEN
 70
     0
  3
Hidden __ __ __ __ __ __ __ __ __ __ __ __ __ __
 72
    65
 73
     2
 40
1.905
 49
1.27
 74
     0
 49
-0.635
 74
     0
  0
LTYPE
  5
6F
330
5
100
AcDbSymbolTableRecord
100
AcDbLinetypeTableRecord
  2
PHANTOM
 70
     0
  3
Phantom ______  __  __  ______  __  __  ______
 72
    65
 73
     6
 40
12.7
 49
6.35
 74
     0
 49
-1.27
 74
     0
 49
1.27
 74
     0
 49
-1.27
 74
     0
 49
1.27
 74
     0
 49
-1.27
 74
     0
  0
LTYPE
  5
70
330
5
100
AcDbSymbolTableRecord
100
AcDbLinetypeTableRecord
  2
CENTER
 70
     0
  3
Center ____ _ ____ _ ____ _ ____ _ ____ _ ____
 72
    65
 73
     4
 40
10.16
 49
6.35
 74
     0
 49
-1.27
 74
     0
 49
1.27
 74
     0
 49
-1.27
 74
     0
  0
LTYPE
  5
71
330
5
100
AcDbSymbolTableRecord
100
AcDbLinetypeTableRecord
  2
CENTERX2
 70
     0
  3
Center (2x) ________  __  ________  __  _____
 72
    65
 73
     4
 40
20.32
 49
12.7
 74
     0
 49
-2.54
 74
     0
 49
2.54
 74
     0
 49
-2.54
 74
     0
  0
LTYPE
  5
72
330
5
100
AcDbSymbolTableRecord
100
AcDbLinetypeTableRecord
  2
DOT2
 70
     0
  3
Dot (.5x) ........................................
 72
    65
 73
     2
 40
0.635
 49
0.0
 74
     0
 49
-0.635
 74
     0
  0
ENDTAB
  0
TABLE
  2
LAYER
  5
2
330
0
100
AcDbSymbolTable
 70
     8
  0
LAYER
  5
10
330
2
100
AcDbSymbolTableRecord
100
AcDbLayerTableRecord
  2
0
 70
     0
 62
     7
  6
Continuous
370
    -3
390
F
347
46
  0
LAYER
  5
73
330
2
100
AcDbSymbolTableRecord
100
AcDbLayerTableRecord
  2
SLD-0
 70
     0
 62
   179
  6
Continuous
370
    -3
390
F
347
46
  0
LAYER
  5
74
330
2
100
AcDbSymbolTableRecord
100
AcDbLayerTableRecord
  2
1
 70
     0
 62
     7
  6
Continuous
370
    -3
390
F
347
46
  0
LAYER
  5
75
330
2
100
AcDbSymbolTableRecord
100
AcDbLayerTableRecord
  2
SLD-DEFPOINTS
 70
     0
 62
   179
  6
Continuous
290
     0
370
    -3
390
F
347
46
  0
LAYER
  5
76
330
2
100
AcDbSymbolTableRecord
100
AcDbLayerTableRecord
  2
TEXTO
 70
     0
 62
     8
  6
Continuous
370
    -3
390
F
347
46
  0
LAYER
  5
77
330
2
100
AcDbSymbolTableRecord
100
AcDbLayerTableRecord
  2
COTAS
 70
     0
 62
   250
  6
Continuous
370
    -3
390
F
347
46
  0
LAYER
  5
78
330
2
100
AcDbSymbolTableRecord
100
AcDbLayerTableRecord
  2
CAJETIN
 70
     0
 62
     9
  6
Continuous
370
    -3
390
F
347
46
  0
LAYER
  5
79
330
2
100
AcDbSymbolTableRecord
100
AcDbLayerTableRecord
  2
PIEZA
 70
     0
 62
   255
  6
Continuous
370
    -3
390
F
347
46
  0
ENDTAB
  0
TABLE
  2
STYLE
  5
3
330
0
100
AcDbSymbolTable
 70
     3
  0
STYLE
  5
11
330
3
100
AcDbSymbolTableRecord
100
AcDbTextStyleTableRecord
  2
STANDARD
 70
     0
 40
0.0
 41
1.0
 50
0.0
 71
     0
 42
3.5
  3
GOTHIC.TTF
  4

1001
ACAD
1000
CENTURY GOTHIC
1071
       34
  0
STYLE
  5
304
330
3
100
AcDbSymbolTableRecord
100
AcDbTextStyleTableRecord
  2
SLDTEXTSTYLE0
 70
     0
 40
0.0
 41
1.0
 50
0.0
 71
     0
 42
3.5
  3
ARIAL.TTF
  4

1001
ACAD
1000
ARIAL
1071
      290
  0
STYLE
  5
30F
330
3
100
AcDbSymbolTableRecord
100
AcDbTextStyleTableRecord
  2
SLDTEXTSTYLE1
 70
     0
 40
0.0
 41
0.948
 50
0.0
 71
     0
 42
3.5
  3
ARIAL.TTF
  4

1001
ACAD
1000
ARIAL
1071
      290
  0
ENDTAB
  0
TABLE
  2
VIEW
  5
6
330
0
100
AcDbSymbolTable
 70
     0
  0
ENDTAB
  0
TABLE
  2
UCS
  5
7
330
0
100
AcDbSymbolTable
 70
     0
  0
ENDTAB
  0
TABLE
  2
APPID
  5
9
330
0
100
AcDbSymbolTable
 70
     2
  0
APPID
  5
12
330
9
100
AcDbSymbolTableRecord
100
AcDbRegAppTableRecord
  2
ACAD
 70
     0
  0
APPID
  5
342
330
9
100
AcDbSymbolTableRecord
100
AcDbRegAppTableRecord
  2
ACAD_MLEADERVER
 70
     0
  0
ENDTAB
  0
TABLE
  2
DIMSTYLE
  5
A
330
0
100
AcDbSymbolTable
 70
     2
100
AcDbDimStyleTable
  0
DIMSTYLE
105
27
330
A
100
AcDbSymbolTableRecord
100
AcDbDimStyleTableRecord
  2
ISO-25
 70
     0
 41
2.5
 42
0.625
 43
3.75
 44
1.25
 73
     0
 74
     0
 77
     1
 78
     8
140
2.5
141
2.5
143
0.0393700787
147
0.625
171
     3
172
     1
178
     0
271
     2
272
     2
274
     3
278
    44
283
     0
284
     8
340
11
  0
DIMSTYLE
105
305
102
{ACAD_REACTORS
330
303
330
313
330
31D
330
327
102
}
330
A
100
AcDbSymbolTableRecord
100
AcDbDimStyleTableRecord
  2
SLDDIMSTYLE0
 70
     0
 41
3.302
 44
0.0
 45
0.000000001
 73
     0
 74
     0
 77
     1
 78
    12
 79
     3
140
4.0
147
1.0
173
     1
178
     0
271
     0
272
     0
276
     2
284
    12
340
304
341
306
343
306
344
306
  0
ENDTAB
  0
TABLE
  2
BLOCK_RECORD
  5
1
330
0
100
AcDbSymbolTable
 70
     8
  0
BLOCK_RECORD
  5
1F
330
1
100
AcDbSymbolTableRecord
100
AcDbBlockTableRecord
  2
*Model_Space
340
22
 70
     0
280
     1
281
     0
  0
BLOCK_RECORD
  5
1B
330
1
100
AcDbSymbolTableRecord
100
AcDbBlockTableRecord
  2
*Paper_Space
340
1E
 70
     0
280
     1
281
     0
  0
BLOCK_RECORD
  5
23
330
1
100
AcDbSymbolTableRecord
100
AcDbBlockTableRecord
  2
*Paper_Space0
340
26
 70
     0
280
     1
281
     0
  0
BLOCK_RECORD
  5
306
330
1
100
AcDbSymbolTableRecord
100
AcDbBlockTableRecord
  2
_NONE
340
0
 70
     0
280
     1
281
     0
  0
BLOCK_RECORD
  5
309
330
1
100
AcDbSymbolTableRecord
100
AcDbBlockTableRecord
  2
_D
340
0
 70
     0
280
     1
281
     0
  0
BLOCK_RECORD
  5
314
330
1
100
AcDbSymbolTableRecord
100
AcDbBlockTableRecord
  2
_D_1
340
0
 70
     0
280
     1
281
     0
  0
BLOCK_RECORD
  5
31E
330
1
100
AcDbSymbolTableRecord
100
AcDbBlockTableRecord
  2
_D_2
340
0
 70
     0
280
     1
281
     0
  0
BLOCK_RECORD
  5
328
330
1
100
AcDbSymbolTableRecord
100
AcDbBlockTableRecord
  2
_D_3
340
0
 70
     0
280
     1
281
     0
  0
BLOCK_RECORD
  5
332
330
1
100
AcDbSymbolTableRecord
100
AcDbBlockTableRecord
  2
SW_NOTE_0
340
0
102
{BLKREFS
331
337
102
}
 70
     0
280
     1
281
     0
  0
BLOCK_RECORD
  5
338
330
1
100
AcDbSymbolTableRecord
100
AcDbBlockTableRecord
  2
SW_NOTE_1
340
0
102
{BLKREFS
331
33D
102
}
 70
     0
280
     1
281
     0
  0
ENDTAB
  0
ENDSEC
  0
SECTION
  2
BLOCKS
  0
BLOCK
  5
20
330
1F
100
AcDbEntity
  8
0
100
AcDbBlockBegin
  2
*Model_Space
 70
     0
 10
0.0
 20
0.0
 30
0.0
  3
*Model_Space
  1

  0
ENDBLK
  5
21
330
1F
100
AcDbEntity
  8
0
100
AcDbBlockEnd
  0
BLOCK
  5
1C
330
1B
100
AcDbEntity
 67
     1
  8
0
100
AcDbBlockBegin
  2
*Paper_Space
 70
     0
 10
0.0
 20
0.0
 30
0.0
  3
*Paper_Space
  1

  0
ENDBLK
  5
1D
330
1B
100
AcDbEntity
 67
     1
  8
0
100
AcDbBlockEnd
  0
BLOCK
  5
24
330
23
100
AcDbEntity
  8
0
100
AcDbBlockBegin
  2
*Paper_Space0
 70
     0
 10
0.0
 20
0.0
 30
0.0
  3
*Paper_Space0
  1

  0
ENDBLK
  5
25
330
23
100
AcDbEntity
  8
0
100
AcDbBlockEnd
  0
BLOCK
  5
307
330
306
100
AcDbEntity
  8
0
100
AcDbBlockBegin
  2
_NONE
 70
     0
 10
0.0
 20
0.0
 30
0.0
  3
_NONE
  1

  0
ENDBLK
  5
308
330
306
100
AcDbEntity
  8
0
100
AcDbBlockEnd
  0
BLOCK
  5
30A
330
309
100
AcDbEntity
  8
0
100
AcDbBlockBegin
  2
_D
 70
     0
 10
0.0
 20
0.0
 30
0.0
  3
_D
  1

  0
LINE
  5
30C
330
309
100
AcDbEntity
  8
COTAS
100
AcDbLine
 10
118.8725626549
 20
162.3014546167
 30
0.0
 11
105.8992274629
 21
162.3014546167
 31
0.0
  0
LINE
  5
30D
330
309
100
AcDbEntity
  8
COTAS
100
AcDbLine
 10
118.6225626549
 20
212.3014546167
 30
0.0
 11
105.8992274629
 21
212.3014546167
 31
0.0
  0
LINE
  5
30E
330
309
100
AcDbEntity
  8
COTAS
100
AcDbLine
 10
107.1492274629
 20
164.8014546167
 30
0.0
 11
107.1492274629
 21
209.8014546167
 31
0.0
  0
MTEXT
  5
310
330
309
100
AcDbEntity
  8
COTAS
100
AcDbMText
 10
101.903799916
 20
184.0814874035
 30
0.0
 40
4.0
 41
0.0
 46
0.0
 71
     1
 72
     1
  1
50
  7
SLDTEXTSTYLE1
 11
6.123233995736766E-17
 21
1.0
 31
0.0
 73
     1
 44
1.0
  0
SOLID
  5
311
330
309
100
AcDbEntity
  8
COTAS
100
AcDbTrace
 10
106.7325607962
 20
164.8014546167
 30
0.0
 11
107.5658941295
 21
164.8014546167
 31
0.0
 12
107.1492274629
 22
162.3014546167
 32
0.0
 13
107.1492274629
 23
162.3014546167
 33
0.0
  0
SOLID
  5
312
330
309
100
AcDbEntity
  8
COTAS
100
AcDbTrace
 10
106.7325607962
 20
209.8014546167
 30
0.0
 11
107.5658941295
 21
209.8014546167
 31
0.0
 12
107.1492274629
 22
212.3014546167
 32
0.0
 13
107.1492274629
 23
212.3014546167
 33
0.0
  0
ENDBLK
  5
30B
330
309
100
AcDbEntity
  8
0
100
AcDbBlockEnd
  0
BLOCK
  5
315
330
314
100
AcDbEntity
  8
0
100
AcDbBlockBegin
  2
_D_1
 70
     0
 10
0.0
 20
0.0
 30
0.0
  3
_D_1
  1

  0
LINE
  5
317
330
314
100
AcDbEntity
  8
COTAS
100
AcDbLine
 10
118.8725626549
 20
162.3014546167
 30
0.0
 11
97.2828162414
 21
162.3014546167
 31
0.0
  0
LINE
  5
318
330
314
100
AcDbEntity
  8
COTAS
100
AcDbLine
 10
126.4725626549
 20
219.4014546167
 30
0.0
 11
97.2828162414
 21
219.4014546167
 31
0.0
  0
LINE
  5
319
330
314
100
AcDbEntity
  8
COTAS
100
AcDbLine
 10
98.5328162414
 20
164.8014546167
 30
0.0
 11
98.5328162414
 21
216.9014546167
 31
0.0
  0
MTEXT
  5
31A
330
314
100
AcDbEntity
  8
COTAS
100
AcDbMText
 10
93.2955742334
 20
187.6314874035
 30
0.0
 40
4.0
 41
0.0
 46
0.0
 71
     1
 72
     1
  1
57
  7
SLDTEXTSTYLE1
 11
6.123233995736766E-17
 21
1.0
 31
0.0
 73
     1
 44
1.0
  0
SOLID
  5
31B
330
314
100
AcDbEntity
  8
COTAS
100
AcDbTrace
 10
98.1161495747
 20
164.8014546167
 30
0.0
 11
98.9494829081
 21
164.8014546167
 31
0.0
 12
98.5328162414
 22
162.3014546167
 32
0.0
 13
98.5328162414
 23
162.3014546167
 33
0.0
  0
SOLID
  5
31C
330
314
100
AcDbEntity
  8
COTAS
100
AcDbTrace
 10
98.1161495747
 20
216.9014546167
 30
0.0
 11
98.9494829081
 21
216.9014546167
 31
0.0
 12
98.5328162414
 22
219.4014546167
 32
0.0
 13
98.5328162414
 23
219.4014546167
 33
0.0
  0
ENDBLK
  5
316
330
314
100
AcDbEntity
  8
0
100
AcDbBlockEnd
  0
BLOCK
  5
31F
330
31E
100
AcDbEntity
  8
0
100
AcDbBlockBegin
  2
_D_2
 70
     0
 10
0.0
 20
0.0
 30
0.0
  3
_D_2
  1

  0
LINE
  5
321
330
31E
100
AcDbEntity
  8
COTAS
100
AcDbLine
 10
119.2475626549
 20
161.9264546167
 30
0.0
 11
119.2475626549
 21
148.1497213388
 31
0.0
  0
LINE
  5
322
330
31E
100
AcDbEntity
  8
COTAS
100
AcDbLine
 10
159.2475626549
 20
161.9264546167
 30
0.0
 11
159.2475626549
 21
148.1497213388
 31
0.0
  0
LINE
  5
323
330
31E
100
AcDbEntity
  8
COTAS
100
AcDbLine
 10
121.7475626549
 20
149.3997213388
 30
0.0
 11
156.7475626549
 21
149.3997213388
 31
0.0
  0
MTEXT
  5
324
330
31E
100
AcDbEntity
  8
COTAS
100
AcDbMText
 10
133.7765724909
 20
154.757017917
 30
0.0
 40
4.0
 41
0.0
 46
0.0
 71
     1
 72
     1
  1
Ø40
  7
SLDTEXTSTYLE1
 73
     1
 44
1.0
  0
SOLID
  5
325
330
31E
100
AcDbEntity
  8
COTAS
100
AcDbTrace
 10
121.7475626549
 20
149.8163880055
 30
0.0
 11
121.7475626549
 21
148.9830546722
 31
0.0
 12
119.2475626549
 22
149.3997213388
 32
0.0
 13
119.2475626549
 23
149.3997213388
 33
0.0
  0
SOLID
  5
326
330
31E
100
AcDbEntity
  8
COTAS
100
AcDbTrace
 10
156.7475626549
 20
149.8163880055
 30
0.0
 11
156.7475626549
 21
148.9830546722
 31
0.0
 12
159.2475626549
 22
149.3997213388
 32
0.0
 13
159.2475626549
 23
149.3997213388
 33
0.0
  0
ENDBLK
  5
320
330
31E
100
AcDbEntity
  8
0
100
AcDbBlockEnd
  0
BLOCK
  5
329
330
328
100
AcDbEntity
  8
0
100
AcDbBlockBegin
  2
_D_3
 70
     0
 10
0.0
 20
0.0
 30
0.0
  3
_D_3
  1

  0
LINE
  5
32B
330
328
100
AcDbEntity
  8
COTAS
100
AcDbLine
 10
119.2475626549
 20
186.8014546167
 30
0.0
 11
119.2475626549
 21
138.8504102749
 31
0.0
  0
LINE
  5
32C
330
328
100
AcDbEntity
  8
COTAS
100
AcDbLine
 10
203.2475626549
 20
175.3116546167
 30
0.0
 11
203.2475626549
 21
138.8504102749
 31
0.0
  0
LINE
  5
32D
330
328
100
AcDbEntity
  8
COTAS
100
AcDbLine
 10
121.7475626549
 20
140.1004102749
 30
0.0
 11
200.7475626549
 21
140.1004102749
 31
0.0
  0
MTEXT
  5
32E
330
328
100
AcDbEntity
  8
COTAS
100
AcDbMText
 10
158.0275954417
 20
145.3458378217
 30
0.0
 40
4.0
 41
0.0
 46
0.0
 71
     1
 72
     1
  1
84
  7
SLDTEXTSTYLE1
 73
     1
 44
1.0
  0
SOLID
  5
32F
330
328
100
AcDbEntity
  8
COTAS
100
AcDbTrace
 10
121.7475626549
 20
140.5170769415
 30
0.0
 11
121.7475626549
 21
139.6837436082
 31
0.0
 12
119.2475626549
 22
140.1004102749
 32
0.0
 13
119.2475626549
 23
140.1004102749
 33
0.0
  0
SOLID
  5
330
330
328
100
AcDbEntity
  8
COTAS
100
AcDbTrace
 10
200.7475626549
 20
140.5170769415
 30
0.0
 11
200.7475626549
 21
139.6837436082
 31
0.0
 12
203.2475626549
 22
140.1004102749
 32
0.0
 13
203.2475626549
 23
140.1004102749
 33
0.0
  0
ENDBLK
  5
32A
330
328
100
AcDbEntity
  8
0
100
AcDbBlockEnd
  0
BLOCK
  5
333
330
332
100
AcDbEntity
  8
0
100
AcDbBlockBegin
  2
SW_NOTE_0
 70
     0
 10
0.0
 20
0.0
 30
0.0
  3
SW_NOTE_0
  1

  0
MTEXT
  5
335
330
332
100
AcDbEntity
  8
TEXTO
 62
     0
100
AcDbMText
 10
0.0
 20
4.5117370892
 30
0.0
 40
3.5
 41
0.0
 46
0.0
 71
     1
 72
     1
  1
Escala 1/1
  7
SLDTEXTSTYLE0
 73
     1
 44
1.0
  0
MTEXT
  5
336
330
332
100
AcDbEntity
  8
TEXTO
 62
     0
100
AcDbMText
 10
0.0
 20
-1.2982629132
 30
0.0
 40
3.5
 41
0.0
 46
0.0
 71
     1
 72
     1
  1
Scale 1/1
  7
SLDTEXTSTYLE0
 73
     1
 44
1.0
  0
ENDBLK
  5
334
330
332
100
AcDbEntity
  8
0
100
AcDbBlockEnd
  0
BLOCK
  5
339
330
338
100
AcDbEntity
  8
0
100
AcDbBlockBegin
  2
SW_NOTE_1
 70
     0
 10
0.0
 20
0.0
 30
0.0
  3
SW_NOTE_1
  1

  0
MTEXT
  5
33B
330
338
100
AcDbEntity
  8
TEXTO
 62
     0
100
AcDbMText
 10
0.0
 20
4.5117370892
 30
0.0
 40
3.5
 41
0.0
 46
0.0
 71
     1
 72
     1
  1
Unidades: mm.
  7
SLDTEXTSTYLE0
 73
     1
 44
1.0
  0
MTEXT
  5
33C
330
338
100
AcDbEntity
  8
TEXTO
 62
     0
100
AcDbMText
 10
0.0
 20
-1.2982629132
 30
0.0
 40
3.5
 41
0.0
 46
0.0
 71
     1
 72
     1
  1
Units: mm.
  7
SLDTEXTSTYLE0
 73
     1
 44
1.0
  0
ENDBLK
  5
33A
330
338
100
AcDbEntity
  8
0
100
AcDbBlockEnd
  0
ENDSEC
  0
SECTION
  2
ENTITIES
  0
LINE
  5
7A
330
1F
100
AcDbEntity
  8
CAJETIN
100
AcDbLine
 10
10.0
 20
7.4999999247
 30
0.0
 11
219.9999976349
 21
7.4999999247
 31
0.0
  0
LINE
  5
7B
330
1F
100
AcDbEntity
  8
CAJETIN
100
AcDbLine
 10
10.0
 20
258.5007464021
 30
0.0
 11
10.0
 21
7.4999999247
 31
0.0
  0
LINE
  5
7C
330
1F
100
AcDbEntity
  8
CAJETIN
100
AcDbLine
 10
9.9999976349
 20
22.4999999588
 30
0.0
 11
219.9999976349
 21
22.4999999588
 31
0.0
  0
LINE
  5
7D
330
1F
100
AcDbEntity
  8
CAJETIN
100
AcDbLine
 10
10.0
 20
37.4999998403
 30
0.0
 11
220.0
 21
37.4999998403
 31
0.0
  0
LINE
  5
7E
330
1F
100
AcDbEntity
  8
CAJETIN
100
AcDbLine
 10
10.0
 20
258.5007464021
 30
0.0
 11
219.9999976349
 21
258.5007464021
 31
0.0
  0
LINE
  5
7F
330
1F
100
AcDbEntity
  8
CAJETIN
100
AcDbLine
 10
10.0
 20
37.4999998403
 30
0.0
 11
10.0
 21
7.4999999247
 31
0.0
  0
LINE
  5
80
330
1F
100
AcDbEntity
  8
CAJETIN
100
AcDbLine
 10
219.9999976349
 20
258.5007464021
 30
0.0
 11
219.9999976349
 21
7.4999999247
 31
0.0
  0
LINE
  5
81
330
1F
100
AcDbEntity
  8
PIEZA
370
     0
100
AcDbLine
 10
142.8116467683
 20
16.9061685059
 30
0.0
 11
146.9058601565
 21
16.9061685059
 31
0.0
  0
LINE
  5
82
330
1F
100
AcDbEntity
  8
PIEZA
370
     0
100
AcDbLine
 10
146.9058601565
 20
16.9061685059
 30
0.0
 11
148.5525146085
 21
16.9061685059
 31
0.0
  0
LINE
  5
83
330
1F
100
AcDbEntity
  8
PIEZA
370
     0
100
AcDbLine
 10
150.9110931292
 20
12.5451592112
 30
0.0
 11
150.9110931292
 21
10.8095081948
 31
0.0
  0
LINE
  5
84
330
1F
100
AcDbEntity
  8
PIEZA
370
     0
100
AcDbLine
 10
150.9110931292
 20
10.8095081948
 30
0.0
 11
149.7539601538
 21
10.8095081948
 31
0.0
  0
LINE
  5
85
330
1F
100
AcDbEntity
  8
PIEZA
370
     0
100
AcDbLine
 10
149.7539601538
 20
10.8095081948
 30
0.0
 11
149.7539601538
 21
12.2780887735
 31
0.0
  0
LINE
  5
86
330
1F
100
AcDbEntity
  8
PIEZA
370
     0
100
AcDbLine
 10
148.4634534485
 20
13.1680867155
 30
0.0
 11
146.9058601565
 21
13.1680867155
 31
0.0
  0
LINE
  5
87
330
1F
100
AcDbEntity
  8
PIEZA
370
     0
100
AcDbLine
 10
146.9058601565
 20
13.1680867155
 30
0.0
 11
143.9686989992
 21
13.1680867155
 31
0.0
  0
LINE
  5
88
330
1F
100
AcDbEntity
  8
PIEZA
370
     0
100
AcDbLine
 10
143.9686989992
 20
13.1680867155
 30
0.0
 11
143.9686989992
 21
10.8095081948
 31
0.0
  0
LINE
  5
89
330
1F
100
AcDbEntity
  8
PIEZA
370
     0
100
AcDbLine
 10
143.9686989992
 20
10.8095081948
 30
0.0
 11
142.8116467683
 21
10.8095081948
 31
0.0
  0
LINE
  5
8A
330
1F
100
AcDbEntity
  8
PIEZA
370
     0
100
AcDbLine
 10
142.8116467683
 20
10.8095081948
 30
0.0
 11
142.8116467683
 21
16.9061685059
 31
0.0
  0
LINE
  5
8B
330
1F
100
AcDbEntity
  8
PIEZA
370
     0
100
AcDbLine
 10
146.9058601566
 20
16.0162028617
 30
0.0
 11
143.9686989992
 21
16.0162028617
 31
0.0
  0
LINE
  5
8C
330
1F
100
AcDbEntity
  8
PIEZA
370
     0
100
AcDbLine
 10
143.9686989992
 20
16.0162028617
 30
0.0
 11
143.9686989992
 21
14.0580846576
 31
0.0
  0
LINE
  5
8D
330
1F
100
AcDbEntity
  8
PIEZA
370
     0
100
AcDbLine
 10
143.9686989992
 20
14.0580846576
 30
0.0
 11
146.9058601565
 21
14.0580846576
 31
0.0
  0
LINE
  5
8E
330
1F
100
AcDbEntity
  8
PIEZA
370
     0
100
AcDbLine
 10
146.9058601565
 20
14.0580846576
 30
0.0
 11
148.418769454
 21
14.0580846576
 31
0.0
  0
LINE
  5
8F
330
1F
100
AcDbEntity
  8
PIEZA
370
     0
100
AcDbLine
 10
148.3744568841
 20
16.0162028617
 30
0.0
 11
146.9058601566
 21
16.0162028617
 31
0.0
  0
LINE
  5
90
330
1F
100
AcDbEntity
  8
PIEZA
370
     0
100
AcDbLine
 10
166.3533777876
 20
16.9952458149
 30
0.0
 11
167.4214657519
 21
16.9952458149
 31
0.0
  0
LINE
  5
91
330
1F
100
AcDbEntity
  8
PIEZA
370
     0
100
AcDbLine
 10
166.8875509609
 20
10.7650018382
 30
0.0
 11
166.3533777876
 21
10.7650018382
 31
0.0
  0
LINE
  5
92
330
1F
100
AcDbEntity
  8
PIEZA
370
     0
100
AcDbLine
 10
166.3533777876
 20
10.7650018382
 30
0.0
 11
165.3299576689
 21
10.7650018382
 31
0.0
  0
LINE
  5
93
330
1F
100
AcDbEntity
  8
PIEZA
370
     0
100
AcDbLine
 10
166.3533777876
 20
16.0162028617
 30
0.0
 11
164.7514396279
 21
16.0162028617
 31
0.0
  0
LINE
  5
94
330
1F
100
AcDbEntity
  8
PIEZA
370
     0
100
AcDbLine
 10
163.0157886115
 20
14.7256800075
 30
0.0
 11
162.971411446
 21
13.8356820654
 31
0.0
  0
LINE
  5
95
330
1F
100
AcDbEntity
  8
PIEZA
370
     0
100
AcDbLine
 10
162.971411446
 20
13.8356820654
 30
0.0
 11
162.971411446
 21
13.4351571533
 31
0.0
  0
LINE
  5
96
330
1F
100
AcDbEntity
  8
PIEZA
370
     0
100
AcDbLine
 10
164.5289724402
 20
11.7440124936
 30
0.0
 11
166.3090006221
 21
11.699506137
 31
0.0
  0
LINE
  5
97
330
1F
100
AcDbEntity
  8
PIEZA
370
     0
100
AcDbLine
 10
166.3090006221
 20
11.699506137
 30
0.0
 11
166.3533777876
 21
11.699506137
 31
0.0
  0
LINE
  5
98
330
1F
100
AcDbEntity
  8
PIEZA
370
     0
100
AcDbLine
 10
166.3533777876
 20
11.699506137
 30
0.0
 11
166.9319281264
 21
11.699506137
 31
0.0
  0
LINE
  5
99
330
1F
100
AcDbEntity
  8
PIEZA
370
     0
100
AcDbLine
 10
169.6910315592
 20
13.0790094067
 30
0.0
 11
169.6910315593
 21
14.2361423821
 31
0.0
  0
LINE
  5
9A
330
1F
100
AcDbEntity
  8
PIEZA
370
     0
100
AcDbLine
 10
167.9556066274
 20
16.0162028617
 30
0.0
 11
166.3533777876
 21
16.0162028617
 31
0.0
  0
LINE
  5
9B
330
1F
100
AcDbEntity
  8
PIEZA
370
     0
100
AcDbLine
 10
137.471206947
 20
12.0999987512
 30
0.0
 11
134.7121681097
 21
12.0999987512
 31
0.0
  0
LINE
  5
9C
330
1F
100
AcDbEntity
  8
PIEZA
370
     0
100
AcDbLine
 10
134.7121681097
 20
12.0999987512
 30
0.0
 11
133.822121721
 21
10.8095081948
 31
0.0
  0
LINE
  5
9D
330
1F
100
AcDbEntity
  8
PIEZA
370
     0
100
AcDbLine
 10
133.822121721
 20
10.8095081948
 30
0.0
 11
132.3979183078
 21
10.8095081948
 31
0.0
  0
LINE
  5
9E
330
1F
100
AcDbEntity
  8
PIEZA
370
     0
100
AcDbLine
 10
132.3979183078
 20
10.8095081948
 30
0.0
 11
136.8036761926
 21
16.9061685059
 31
0.0
  0
LINE
  5
9F
330
1F
100
AcDbEntity
  8
PIEZA
370
     0
100
AcDbLine
 10
136.8036761926
 20
16.9061685059
 30
0.0
 11
137.471206947
 21
16.9061685059
 31
0.0
  0
LINE
  5
A0
330
1F
100
AcDbEntity
  8
PIEZA
370
     0
100
AcDbLine
 10
137.471206947
 20
16.9061685059
 30
0.0
 11
138.0944412803
 21
16.9061685059
 31
0.0
  0
LINE
  5
A1
330
1F
100
AcDbEntity
  8
PIEZA
370
     0
100
AcDbLine
 10
138.0944412803
 20
16.9061685059
 30
0.0
 11
142.5891795806
 21
10.8095081948
 31
0.0
  0
LINE
  5
A2
330
1F
100
AcDbEntity
  8
PIEZA
370
     0
100
AcDbLine
 10
142.5891795806
 20
10.8095081948
 30
0.0
 11
141.1649761675
 21
10.8095081948
 31
0.0
  0
LINE
  5
A3
330
1F
100
AcDbEntity
  8
PIEZA
370
     0
100
AcDbLine
 10
141.1649761675
 20
10.8095081948
 30
0.0
 11
140.2306172088
 21
12.0999987512
 31
0.0
  0
LINE
  5
A4
330
1F
100
AcDbEntity
  8
PIEZA
370
     0
100
AcDbLine
 10
140.2306172088
 20
12.0999987512
 30
0.0
 11
137.471206947
 21
12.0999987512
 31
0.0
  0
LINE
  5
A5
330
1F
100
AcDbEntity
  8
PIEZA
370
     0
100
AcDbLine
 10
137.471206947
 20
15.9717933984
 30
0.0
 11
135.3350794651
 21
13.0346968367
 31
0.0
  0
LINE
  5
A6
330
1F
100
AcDbEntity
  8
PIEZA
370
     0
100
AcDbLine
 10
135.3350794651
 20
13.0346968367
 30
0.0
 11
137.471206947
 21
13.0346968367
 31
0.0
  0
LINE
  5
A7
330
1F
100
AcDbEntity
  8
PIEZA
370
     0
100
AcDbLine
 10
137.471206947
 20
13.0346968367
 30
0.0
 11
139.6073990244
 21
13.0346968367
 31
0.0
  0
LINE
  5
A8
330
1F
100
AcDbEntity
  8
PIEZA
370
     0
100
AcDbLine
 10
139.6073990244
 20
13.0346968367
 30
0.0
 11
137.471206947
 21
15.9717933984
 31
0.0
  0
LINE
  5
A9
330
1F
100
AcDbEntity
  8
PIEZA
370
     0
100
AcDbLine
 10
153.8038771209
 20
14.4142324042
 30
0.0
 11
154.8272487929
 21
14.4142324042
 31
0.0
  0
LINE
  5
AA
330
1F
100
AcDbEntity
  8
PIEZA
370
     0
100
AcDbLine
 10
154.8272487929
 20
14.4142324042
 30
0.0
 11
159.3220032421
 21
16.9061685059
 31
0.0
  0
LINE
  5
AB
330
1F
100
AcDbEntity
  8
PIEZA
370
     0
100
AcDbLine
 10
159.3220032421
 20
16.9061685059
 30
0.0
 11
160.7905838208
 21
16.9061685059
 31
0.0
  0
LINE
  5
AC
330
1F
100
AcDbEntity
  8
PIEZA
370
     0
100
AcDbLine
 10
160.7905838208
 20
16.9061685059
 30
0.0
 11
161.4138020052
 21
16.9061685059
 31
0.0
  0
LINE
  5
AD
330
1F
100
AcDbEntity
  8
PIEZA
370
     0
100
AcDbLine
 10
161.4138020052
 20
16.9061685059
 30
0.0
 11
156.0733783327
 21
13.9690719442
 31
0.0
  0
LINE
  5
AE
330
1F
100
AcDbEntity
  8
PIEZA
370
     0
100
AcDbLine
 10
156.0733783327
 20
13.9690719442
 30
0.0
 11
161.7695783272
 21
10.8095081948
 31
0.0
  0
LINE
  5
AF
330
1F
100
AcDbEntity
  8
PIEZA
370
     0
100
AcDbLine
 10
161.7695783272
 20
10.8095081948
 30
0.0
 11
159.5443896854
 21
10.8095081948
 31
0.0
  0
LINE
  5
B0
330
1F
100
AcDbEntity
  8
PIEZA
370
     0
100
AcDbLine
 10
159.5443896854
 20
10.8095081948
 30
0.0
 11
154.8272487929
 21
13.5242344622
 31
0.0
  0
LINE
  5
B1
330
1F
100
AcDbEntity
  8
PIEZA
370
     0
100
AcDbLine
 10
154.8272487929
 20
13.5242344622
 30
0.0
 11
153.8038771209
 21
13.5242344622
 31
0.0
  0
LINE
  5
B2
330
1F
100
AcDbEntity
  8
PIEZA
370
     0
100
AcDbLine
 10
153.8038771209
 20
13.5242344622
 30
0.0
 11
153.8038771209
 21
10.8095081948
 31
0.0
  0
LINE
  5
B3
330
1F
100
AcDbEntity
  8
PIEZA
370
     0
100
AcDbLine
 10
153.8038771209
 20
10.8095081948
 30
0.0
 11
152.6467441455
 21
10.8095081948
 31
0.0
  0
LINE
  5
B4
330
1F
100
AcDbEntity
  8
PIEZA
370
     0
100
AcDbLine
 10
152.6467441455
 20
10.8095081948
 30
0.0
 11
152.6467441455
 21
16.9061685059
 31
0.0
  0
LINE
  5
B5
330
1F
100
AcDbEntity
  8
PIEZA
370
     0
100
AcDbLine
 10
152.6467441455
 20
16.9061685059
 30
0.0
 11
153.8038771209
 21
16.9061685059
 31
0.0
  0
LINE
  5
B6
330
1F
100
AcDbEntity
  8
PIEZA
370
     0
100
AcDbLine
 10
153.8038771209
 20
16.9061685059
 30
0.0
 11
153.8038771209
 21
14.4142324042
 31
0.0
  0
LINE
  5
B7
330
1F
100
AcDbEntity
  8
PIEZA
370
     0
100
AcDbLine
 10
179.2593168809
 20
14.9927504452
 30
0.0
 11
179.2593168809
 21
15.1708081697
 31
0.0
  0
LINE
  5
B8
330
1F
100
AcDbEntity
  8
PIEZA
370
     0
100
AcDbLine
 10
176.7670255035
 20
16.0162028618
 30
0.0
 11
176.4555779003
 21
16.0162028618
 31
0.0
  0
LINE
  5
B9
330
1F
100
AcDbEntity
  8
PIEZA
370
     0
100
AcDbLine
 10
175.6099248259
 20
14.3695322609
 30
0.0
 11
177.2118952834
 21
14.4142324043
 31
0.0
  0
LINE
  5
BA
330
1F
100
AcDbEntity
  8
PIEZA
370
     0
100
AcDbLine
 10
176.9894926913
 20
10.7650018382
 30
0.0
 11
176.4555779004
 21
10.7650018382
 31
0.0
  0
LINE
  5
BB
330
1F
100
AcDbEntity
  8
PIEZA
370
     0
100
AcDbLine
 10
172.4947382421
 20
12.7675618034
 30
0.0
 11
172.4947382421
 21
12.9456195278
 31
0.0
  0
LINE
  5
BC
330
1F
100
AcDbEntity
  8
PIEZA
370
     0
100
AcDbLine
 10
172.4947382421
 20
12.9456195278
 30
0.0
 11
173.6518712175
 21
12.9456195278
 31
0.0
  0
LINE
  5
BD
330
1F
100
AcDbEntity
  8
PIEZA
370
     0
100
AcDbLine
 10
173.6518712175
 20
12.9456195278
 30
0.0
 11
173.6518712175
 21
12.67854909
 31
0.0
  0
LINE
  5
BE
330
1F
100
AcDbEntity
  8
PIEZA
370
     0
100
AcDbLine
 10
178.0575483579
 20
13.3905539032
 30
0.0
 11
176.4999550659
 21
13.4351571533
 31
0.0
  0
LINE
  5
BF
330
1F
100
AcDbEntity
  8
PIEZA
370
     0
100
AcDbLine
 10
180.4164498564
 20
15.1708081697
 30
0.0
 11
180.4164498564
 21
14.9927504452
 31
0.0
  0
LINE
  5
C0
330
1F
100
AcDbEntity
  8
PIEZA
370
     0
100
AcDbLine
 10
180.4164498564
 20
14.9927504452
 30
0.0
 11
179.2593168809
 21
14.9927504452
 31
0.0
  0
LINE
  5
C1
330
1F
100
AcDbEntity
  8
PIEZA
370
     0
100
AcDbLine
 10
210.1886186391
 20
10.8095081948
 30
0.0
 11
208.5863252037
 21
10.8095081948
 31
0.0
  0
LINE
  5
C2
330
1F
100
AcDbEntity
  8
PIEZA
370
     0
100
AcDbLine
 10
208.5863252037
 20
10.8095081948
 30
0.0
 11
208.5863252037
 21
13.2570994288
 31
0.0
  0
LINE
  5
C3
330
1F
100
AcDbEntity
  8
PIEZA
370
     0
100
AcDbLine
 10
208.5863252037
 20
13.2570994288
 30
0.0
 11
206.3611688596
 21
13.2570994288
 31
0.0
  0
LINE
  5
C4
330
1F
100
AcDbEntity
  8
PIEZA
370
     0
100
AcDbLine
 10
206.3611688596
 20
13.2570994288
 30
0.0
 11
206.3611688596
 21
14.0580846576
 31
0.0
  0
LINE
  5
C5
330
1F
100
AcDbEntity
  8
PIEZA
370
     0
100
AcDbLine
 10
206.3611688596
 20
14.0580846576
 30
0.0
 11
212.4135166008
 21
14.0580846576
 31
0.0
  0
LINE
  5
C6
330
1F
100
AcDbEntity
  8
PIEZA
370
     0
100
AcDbLine
 10
212.4135166008
 20
14.0580846576
 30
0.0
 11
212.4135166008
 21
13.2570994288
 31
0.0
  0
LINE
  5
C7
330
1F
100
AcDbEntity
  8
PIEZA
370
     0
100
AcDbLine
 10
212.4135166008
 20
13.2570994288
 30
0.0
 11
210.1886186391
 21
13.2570994288
 31
0.0
  0
LINE
  5
C8
330
1F
100
AcDbEntity
  8
PIEZA
370
     0
100
AcDbLine
 10
210.1886186391
 20
13.2570994288
 30
0.0
 11
210.1886186391
 21
10.8095081948
 31
0.0
  0
LINE
  5
C9
330
1F
100
AcDbEntity
  8
PIEZA
370
     0
100
AcDbLine
 10
200.6649365673
 20
10.8095081948
 30
0.0
 11
199.0629661099
 21
10.8095081948
 31
0.0
  0
LINE
  5
CA
330
1F
100
AcDbEntity
  8
PIEZA
370
     0
100
AcDbLine
 10
199.0629661099
 20
10.8095081948
 30
0.0
 11
199.0629661099
 21
14.0580846576
 31
0.0
  0
LINE
  5
CB
330
1F
100
AcDbEntity
  8
PIEZA
370
     0
100
AcDbLine
 10
199.0629661099
 20
14.0580846576
 30
0.0
 11
200.6649365673
 21
14.0580846576
 31
0.0
  0
LINE
  5
CC
330
1F
100
AcDbEntity
  8
PIEZA
370
     0
100
AcDbLine
 10
200.6649365673
 20
14.0580846576
 30
0.0
 11
200.6649365673
 21
12.8566391123
 31
0.0
  0
LINE
  5
CD
330
1F
100
AcDbEntity
  8
PIEZA
370
     0
100
AcDbLine
 10
200.6649365673
 20
12.8566391123
 30
0.0
 11
204.0025903389
 21
12.8566391123
 31
0.0
  0
LINE
  5
CE
330
1F
100
AcDbEntity
  8
PIEZA
370
     0
100
AcDbLine
 10
204.0025903389
 20
12.8566391123
 30
0.0
 11
204.0025903389
 21
14.0580846576
 31
0.0
  0
LINE
  5
CF
330
1F
100
AcDbEntity
  8
PIEZA
370
     0
100
AcDbLine
 10
204.0025903389
 20
14.0580846576
 30
0.0
 11
205.6048514765
 21
14.0580846576
 31
0.0
  0
LINE
  5
D0
330
1F
100
AcDbEntity
  8
PIEZA
370
     0
100
AcDbLine
 10
205.6048514765
 20
14.0580846576
 30
0.0
 11
205.6048514765
 21
10.8095081948
 31
0.0
  0
LINE
  5
D1
330
1F
100
AcDbEntity
  8
PIEZA
370
     0
100
AcDbLine
 10
205.6048514765
 20
10.8095081948
 30
0.0
 11
204.0025903389
 21
10.8095081948
 31
0.0
  0
LINE
  5
D2
330
1F
100
AcDbEntity
  8
PIEZA
370
     0
100
AcDbLine
 10
204.0025903389
 20
10.8095081948
 30
0.0
 11
204.0025903389
 21
12.0999987512
 31
0.0
  0
LINE
  5
D3
330
1F
100
AcDbEntity
  8
PIEZA
370
     0
100
AcDbLine
 10
204.0025903389
 20
12.0999987512
 30
0.0
 11
200.6649365673
 21
12.0999987512
 31
0.0
  0
LINE
  5
D4
330
1F
100
AcDbEntity
  8
PIEZA
370
     0
100
AcDbLine
 10
200.6649365673
 20
12.0999987512
 30
0.0
 11
200.6649365673
 21
10.8095081948
 31
0.0
  0
LINE
  5
D5
330
1F
100
AcDbEntity
  8
PIEZA
370
     0
100
AcDbLine
 10
196.3926493058
 20
13.0346968368
 30
0.0
 11
196.3926493058
 21
13.0790094067
 31
0.0
  0
LINE
  5
D6
330
1F
100
AcDbEntity
  8
PIEZA
370
     0
100
AcDbLine
 10
195.1464713193
 20
13.3014765944
 30
0.0
 11
194.2120962118
 21
13.3014765944
 31
0.0
  0
LINE
  5
D7
330
1F
100
AcDbEntity
  8
PIEZA
370
     0
100
AcDbLine
 10
192.9212826775
 20
12.6341719246
 30
0.0
 11
192.9212826775
 21
12.1890114647
 31
0.0
  0
LINE
  5
D8
330
1F
100
AcDbEntity
  8
PIEZA
370
     0
100
AcDbLine
 10
194.2120962118
 20
11.565987067
 30
0.0
 11
195.1464713193
 21
11.565987067
 31
0.0
  0
LINE
  5
D9
330
1F
100
AcDbEntity
  8
PIEZA
370
     0
100
AcDbLine
 10
196.3926493058
 20
12.0999987514
 30
0.0
 11
194.4792312451
 21
12.0999987514
 31
0.0
  0
LINE
  5
DA
330
1F
100
AcDbEntity
  8
PIEZA
370
     0
100
AcDbLine
 10
194.4792312451
 20
12.0999987514
 30
0.0
 11
194.4792312451
 21
12.5451592114
 31
0.0
  0
LINE
  5
DB
330
1F
100
AcDbEntity
  8
PIEZA
370
     0
100
AcDbLine
 10
194.4792312451
 20
12.5451592114
 30
0.0
 11
198.0839231568
 21
12.5451592114
 31
0.0
  0
LINE
  5
DC
330
1F
100
AcDbEntity
  8
PIEZA
370
     0
100
AcDbLine
 10
198.0839231568
 20
12.5451592114
 30
0.0
 11
198.0839231568
 21
11.6104934236
 31
0.0
  0
LINE
  5
DD
330
1F
100
AcDbEntity
  8
PIEZA
370
     0
100
AcDbLine
 10
195.5916640771
 20
10.7650018382
 30
0.0
 11
193.7669357518
 21
10.7650018382
 31
0.0
  0
LINE
  5
DE
330
1F
100
AcDbEntity
  8
PIEZA
370
     0
100
AcDbLine
 10
191.2749996501
 20
11.9665765746
 30
0.0
 11
191.2749996501
 21
12.8566391123
 31
0.0
  0
LINE
  5
DF
330
1F
100
AcDbEntity
  8
PIEZA
370
     0
100
AcDbLine
 10
193.7669357518
 20
14.1027525033
 30
0.0
 11
195.5916640771
 21
14.1027525033
 31
0.0
  0
LINE
  5
E0
330
1F
100
AcDbEntity
  8
PIEZA
370
     0
100
AcDbLine
 10
197.9946197633
 20
13.0346968368
 30
0.0
 11
196.3926493058
 21
13.0346968368
 31
0.0
  0
LINE
  5
E1
330
1F
100
AcDbEntity
  8
PIEZA
370
     0
100
AcDbLine
 10
190.206879388
 20
10.8095081948
 30
0.0
 11
188.6046505482
 21
10.8095081948
 31
0.0
  0
LINE
  5
E2
330
1F
100
AcDbEntity
  8
PIEZA
370
     0
100
AcDbLine
 10
188.6046505482
 20
10.8095081948
 30
0.0
 11
188.6046505482
 21
14.0580846576
 31
0.0
  0
LINE
  5
E3
330
1F
100
AcDbEntity
  8
PIEZA
370
     0
100
AcDbLine
 10
188.6046505482
 20
14.0580846576
 30
0.0
 11
190.206879388
 21
14.0580846576
 31
0.0
  0
LINE
  5
E4
330
1F
100
AcDbEntity
  8
PIEZA
370
     0
100
AcDbLine
 10
190.206879388
 20
14.0580846576
 30
0.0
 11
190.206879388
 21
10.8095081948
 31
0.0
  0
LINE
  5
E5
330
1F
100
AcDbEntity
  8
PIEZA
370
     0
100
AcDbLine
 10
184.3325893713
 20
11.6104934236
 30
0.0
 11
187.8926780328
 21
11.6104934236
 31
0.0
  0
LINE
  5
E6
330
1F
100
AcDbEntity
  8
PIEZA
370
     0
100
AcDbLine
 10
187.8926780328
 20
11.6104934236
 30
0.0
 11
187.8926780328
 21
10.8095081948
 31
0.0
  0
LINE
  5
E7
330
1F
100
AcDbEntity
  8
PIEZA
370
     0
100
AcDbLine
 10
187.8926780328
 20
10.8095081948
 30
0.0
 11
182.7303928293
 21
10.8095081948
 31
0.0
  0
LINE
  5
E8
330
1F
100
AcDbEntity
  8
PIEZA
370
     0
100
AcDbLine
 10
182.7303928293
 20
10.8095081948
 30
0.0
 11
182.7303928293
 21
14.0580846576
 31
0.0
  0
LINE
  5
E9
330
1F
100
AcDbEntity
  8
PIEZA
370
     0
100
AcDbLine
 10
182.7303928293
 20
14.0580846576
 30
0.0
 11
184.3325893713
 21
14.0580846576
 31
0.0
  0
LINE
  5
EA
330
1F
100
AcDbEntity
  8
PIEZA
370
     0
100
AcDbLine
 10
184.3325893713
 20
14.0580846576
 30
0.0
 11
184.3325893713
 21
11.6104934236
 31
0.0
  0
LINE
  5
EB
330
1F
100
AcDbEntity
  8
PIEZA
370
     0
100
AcDbLine
 10
212.8738893206
 20
16.439788397
 30
0.0
 11
212.8738893206
 21
17.9036857959
 31
0.0
  0
LINE
  5
EC
330
1F
100
AcDbEntity
  8
PIEZA
370
     0
100
AcDbLine
 10
212.8738893206
 20
17.9036857959
 30
0.0
 11
213.4963969536
 21
17.9036857959
 31
0.0
  0
LINE
  5
ED
330
1F
100
AcDbEntity
  8
PIEZA
370
     0
100
AcDbLine
 10
214.0118697057
 20
16.7253977671
 30
0.0
 11
214.1905410881
 21
16.439788397
 31
0.0
  0
LINE
  5
EE
330
1F
100
AcDbEntity
  8
PIEZA
370
     0
100
AcDbLine
 10
214.1905410881
 20
16.439788397
 30
0.0
 11
213.8372032493
 21
16.439788397
 31
0.0
  0
LINE
  5
EF
330
1F
100
AcDbEntity
  8
PIEZA
370
     0
100
AcDbLine
 10
213.8372032493
 20
16.439788397
 30
0.0
 11
213.6252651416
 21
16.7593104481
 31
0.0
  0
LINE
  5
F0
330
1F
100
AcDbEntity
  8
PIEZA
370
     0
100
AcDbLine
 10
213.2304569386
 20
17.0510886964
 30
0.0
 11
213.1703507486
 21
17.0510886964
 31
0.0
  0
LINE
  5
F1
330
1F
100
AcDbEntity
  8
PIEZA
370
     0
100
AcDbLine
 10
213.1703507486
 20
17.0510886964
 30
0.0
 11
213.1703507486
 21
16.439788397
 31
0.0
  0
LINE
  5
F2
330
1F
100
AcDbEntity
  8
PIEZA
370
     0
100
AcDbLine
 10
213.1703507486
 20
16.439788397
 30
0.0
 11
212.8738893206
 21
16.439788397
 31
0.0
  0
LINE
  5
F3
330
1F
100
AcDbEntity
  8
PIEZA
370
     0
100
AcDbLine
 10
213.1703507486
 20
17.2841818575
 30
0.0
 11
213.3889744992
 21
17.2841818575
 31
0.0
  0
LINE
  5
F4
330
1F
100
AcDbEntity
  8
PIEZA
370
     0
100
AcDbLine
 10
213.4009569798
 20
17.6562847132
 30
0.0
 11
213.1703507486
 21
17.6562847132
 31
0.0
  0
LINE
  5
F5
330
1F
100
AcDbEntity
  8
PIEZA
370
     0
100
AcDbLine
 10
213.1703507486
 20
17.6562847132
 30
0.0
 11
213.1703507486
 21
17.2841818575
 31
0.0
  0
LINE
  5
F6
330
1F
100
AcDbEntity
  8
1
100
AcDbLine
 10
203.2475626549
 20
67.765509747
 30
0.0
 11
203.2475626549
 21
97.565509747
 31
0.0
  0
LINE
  5
F7
330
1F
100
AcDbEntity
  8
1
100
AcDbLine
 10
161.2475626549
 20
74.8405061287
 30
0.0
 11
161.2475626549
 21
67.765509747
 31
0.0
  0
LINE
  5
F8
330
1F
100
AcDbEntity
  8
1
100
AcDbLine
 10
161.2475626549
 20
97.565509747
 30
0.0
 11
161.2475626549
 21
93.9405398333
 31
0.0
  0
LINE
  5
F9
330
1F
100
AcDbEntity
  8
1
100
AcDbLine
 10
203.2475626549
 20
61.565509747
 30
0.0
 11
203.2475626549
 21
67.265509747
 31
0.0
  0
LINE
  5
FA
330
1F
100
AcDbEntity
  8
1
100
AcDbLine
 10
161.2475626549
 20
67.265509747
 30
0.0
 11
161.2475626549
 21
61.565509747
 31
0.0
  0
LINE
  5
FB
330
1F
100
AcDbEntity
  8
1
100
AcDbLine
 10
202.7475626549
 20
67.265509747
 30
0.0
 11
202.7475626549
 21
67.765509747
 31
0.0
  0
LINE
  5
FC
330
1F
100
AcDbEntity
  8
1
100
AcDbLine
 10
161.7475626549
 20
67.765509747
 30
0.0
 11
161.7475626549
 21
67.265509747
 31
0.0
  0
LINE
  5
FD
330
1F
100
AcDbEntity
  8
1
100
AcDbLine
 10
182.2475626549
 20
61.315509747
 30
0.0
 11
161.4975627548
 21
61.315509747
 31
0.0
  0
LINE
  5
FE
330
1F
100
AcDbEntity
  8
1
100
AcDbLine
 10
202.9975626549
 20
61.315509747
 30
0.0
 11
182.2475626549
 21
61.315509747
 31
0.0
  0
LINE
  5
FF
330
1F
100
AcDbEntity
  8
1
100
AcDbLine
 10
198.0876682439
 20
90.940509747
 30
0.0
 11
124.8074570658
 21
90.940509747
 31
0.0
  0
LINE
  5
100
330
1F
100
AcDbEntity
  8
1
100
AcDbLine
 10
127.0975626549
 20
93.940509747
 30
0.0
 11
195.7975626549
 21
93.940509747
 31
0.0
  0
LINE
  5
101
330
1F
100
AcDbEntity
  8
1
100
AcDbLine
 10
202.9975626549
 20
97.815509747
 30
0.0
 11
161.4975626549
 21
97.815509747
 31
0.0
  0
LINE
  5
102
330
1F
100
AcDbEntity
  8
1
100
AcDbLine
 10
124.8074570658
 20
77.840509747
 30
0.0
 11
198.0876682439
 21
77.840509747
 31
0.0
  0
LINE
  5
103
330
1F
100
AcDbEntity
  8
1
100
AcDbLine
 10
182.2475626549
 20
67.265509747
 30
0.0
 11
161.2475626549
 21
67.265509747
 31
0.0
  0
LINE
  5
104
330
1F
100
AcDbEntity
  8
1
100
AcDbLine
 10
203.2475626549
 20
67.265509747
 30
0.0
 11
182.2475626549
 21
67.265509747
 31
0.0
  0
LINE
  5
105
330
1F
100
AcDbEntity
  8
1
100
AcDbLine
 10
203.2475626549
 20
67.765509747
 30
0.0
 11
161.2475626549
 21
67.765509747
 31
0.0
  0
LINE
  5
106
330
1F
100
AcDbEntity
  8
1
100
AcDbLine
 10
127.0975626549
 20
74.840509747
 30
0.0
 11
195.7975626549
 21
74.840509747
 31
0.0
  0
LINE
  5
107
330
1F
100
AcDbEntity
  8
1
100
AcDbLine
 10
197.1845517219
 20
76.440509747
 30
0.0
 11
125.7105735878
 21
76.440509747
 31
0.0
  0
LINE
  5
108
330
1F
100
AcDbEntity
  8
1
100
AcDbLine
 10
160.1475626549
 20
166.9366546167
 30
0.0
 11
163.2939455249
 21
166.8852253124
 31
0.0
  0
LINE
  5
109
330
1F
100
AcDbEntity
  8
1
100
AcDbLine
 10
160.1475626549
 20
184.9366546167
 30
0.0
 11
159.2475157799
 21
184.9366546167
 31
0.0
  0
LINE
  5
10A
330
1F
100
AcDbEntity
  8
1
100
AcDbLine
 10
159.2475157799
 20
166.9366546167
 30
0.0
 11
160.1475626549
 21
166.9366546167
 31
0.0
  0
LINE
  5
10B
330
1F
100
AcDbEntity
  8
1
100
AcDbLine
 10
147.2475665611
 20
213.5014507104
 30
0.0
 11
147.1475626549
 21
213.6014546167
 31
0.0
  0
LINE
  5
10C
330
1F
100
AcDbEntity
  8
1
100
AcDbLine
 10
163.28350855
 20
184.9879017429
 30
0.0
 11
160.1475626549
 21
184.9366546167
 31
0.0
  0
LINE
  5
10D
330
1F
100
AcDbEntity
  8
1
100
AcDbLine
 10
159.2475626549
 20
162.5514546167
 30
0.0
 11
159.2475626549
 21
166.9366546167
 31
0.0
  0
LINE
  5
10E
330
1F
100
AcDbEntity
  8
1
100
AcDbLine
 10
159.2475626549
 20
184.9367145897
 30
0.0
 11
159.2475626549
 21
212.3014546167
 31
0.0
  0
LINE
  5
10F
330
1F
100
AcDbEntity
  8
1
100
AcDbLine
 10
119.2475626549
 20
212.3014546167
 30
0.0
 11
119.2475626549
 21
162.5514546167
 31
0.0
  0
LINE
  5
110
330
1F
100
AcDbEntity
  8
1
100
AcDbLine
 10
186.3373947904
 20
213.8014553459
 30
0.0
 11
199.7975601463
 21
213.8014553459
 31
0.0
  0
LINE
  5
111
330
1F
100
AcDbEntity
  8
1
100
AcDbLine
 10
153.7975626549
 20
213.8014546167
 30
0.0
 11
158.9577280108
 21
213.8014546167
 31
0.0
  0
LINE
  5
112
330
1F
100
AcDbEntity
  8
1
100
AcDbLine
 10
199.7975601463
 20
213.8014553459
 30
0.0
 11
199.7975601463
 21
216.0014546167
 31
0.0
  0
LINE
  5
113
330
1F
100
AcDbEntity
  8
1
100
AcDbLine
 10
131.3475626549
 20
213.6014546167
 30
0.0
 11
131.0975626549
 21
213.3514546167
 31
0.0
  0
LINE
  5
114
330
1F
100
AcDbEntity
  8
1
100
AcDbLine
 10
199.7975601463
 20
216.0014546167
 30
0.0
 11
199.7975601463
 21
229.4014550667
 31
0.0
  0
LINE
  5
115
330
1F
100
AcDbEntity
  8
1
100
AcDbLine
 10
149.7632479242
 20
212.3014692975
 30
0.0
 11
149.7163466383
 21
213.3581061663
 31
0.0
  0
LINE
  5
116
330
1F
100
AcDbEntity
  8
1
100
AcDbLine
 10
186.3975626549
 20
213.7014546167
 30
0.0
 11
186.3975626549
 21
213.8014545113
 31
0.0
  0
LINE
  5
117
330
1F
100
AcDbEntity
  8
1
100
AcDbLine
 10
158.8975626549
 20
213.8075781721
 30
0.0
 11
158.8975626549
 21
213.7014546167
 31
0.0
  0
LINE
  5
118
330
1F
100
AcDbEntity
  8
1
100
AcDbLine
 10
163.6475626549
 20
213.0014546167
 30
0.0
 11
181.6475626549
 21
213.0014546167
 31
0.0
  0
LINE
  5
119
330
1F
100
AcDbEntity
  8
1
100
AcDbLine
 10
131.0975626549
 20
213.3514546167
 30
0.0
 11
131.0975626549
 21
212.3014702417
 31
0.0
  0
LINE
  5
11A
330
1F
100
AcDbEntity
  8
1
100
AcDbLine
 10
151.3975626549
 20
213.8014546167
 30
0.0
 11
153.7975441957
 21
213.8014546167
 31
0.0
  0
LINE
  5
11B
330
1F
100
AcDbEntity
  8
1
100
AcDbLine
 10
131.2975626549
 20
213.8027498323
 30
0.0
 11
131.2975626549
 21
213.6014546167
 31
0.0
  0
LINE
  5
11C
330
1F
100
AcDbEntity
  8
1
100
AcDbLine
 10
147.1708489557
 20
213.8014546167
 30
0.0
 11
147.8975626549
 21
213.8014546167
 31
0.0
  0
LINE
  5
11D
330
1F
100
AcDbEntity
  8
1
100
AcDbLine
 10
147.1975626549
 20
213.6014546167
 30
0.0
 11
147.1975626549
 21
213.8060488329
 31
0.0
  0
LINE
  5
11E
330
1F
100
AcDbEntity
  8
1
100
AcDbLine
 10
123.0975642031
 20
213.8014550667
 30
0.0
 11
131.3051496345
 21
213.8014550667
 31
0.0
  0
LINE
  5
11F
330
1F
100
AcDbEntity
  8
1
100
AcDbLine
 10
123.0975642031
 20
229.4014550667
 30
0.0
 11
123.0975642031
 21
213.8014550667
 31
0.0
  0
LINE
  5
120
330
1F
100
AcDbEntity
  8
1
100
AcDbLine
 10
158.9975626549
 20
162.3014546167
 30
0.0
 11
119.4975626549
 21
162.3014546167
 31
0.0
  0
LINE
  5
121
330
1F
100
AcDbEntity
  8
1
100
AcDbLine
 10
160.1475626549
 20
166.9366546167
 30
0.0
 11
160.1475626549
 21
184.9366546167
 31
0.0
  0
LINE
  5
122
330
1F
100
AcDbEntity
  8
1
100
AcDbLine
 10
131.0975626549
 20
213.3514546167
 30
0.0
 11
146.674499773
 21
213.3514546167
 31
0.0
  0
LINE
  5
123
330
1F
100
AcDbEntity
  8
1
  6
Continuous
 62
   252
420
  9672088
100
AcDbLine
 10
149.7082355766
 20
213.3566895412
 30
0.0
 11
149.7163466383
 21
213.3581061663
 31
0.0
  0
LINE
  5
124
330
1F
100
AcDbEntity
  8
1
100
AcDbLine
 10
146.5930230205
 20
213.5014546167
 30
0.0
 11
149.1724612099
 21
213.5014546167
 31
0.0
  0
LINE
  5
125
330
1F
100
AcDbEntity
  8
1
  6
Continuous
 62
   252
420
  9672088
100
AcDbLine
 10
149.1236557358
 20
213.3566895412
 30
0.0
 11
146.6696042622
 21
213.3566895412
 31
0.0
  0
LINE
  5
126
330
1F
100
AcDbEntity
  8
1
100
AcDbLine
 10
149.1724612099
 20
213.5014546167
 30
0.0
 11
149.5664941879
 21
213.5014546167
 31
0.0
  0
LINE
  5
127
330
1F
100
AcDbEntity
  8
1
  6
Continuous
 62
   252
420
  9672088
100
AcDbLine
 10
149.7082355766
 20
213.3566895412
 30
0.0
 11
149.3142025985
 21
213.3566895412
 31
0.0
  0
LINE
  5
128
330
1F
100
AcDbEntity
  8
1
  6
Continuous
 62
   252
420
  9672088
100
AcDbLine
 10
149.7550746231
 20
212.3014548596
 30
0.0
 11
149.7082355766
 21
213.3566895412
 31
0.0
  0
LINE
  5
129
330
1F
100
AcDbEntity
  8
1
  6
Continuous
 62
   252
420
  9672088
100
AcDbLine
 10
149.1465006652
 20
212.3014548596
 30
0.0
 11
149.1236557358
 21
213.3566895412
 31
0.0
  0
LINE
  5
12A
330
1F
100
AcDbEntity
  8
1
  6
Continuous
 62
   252
420
  9672088
100
AcDbLine
 10
149.3142025985
 20
213.3566895412
 30
0.0
 11
149.337047528
 21
212.3014548596
 31
0.0
  0
LINE
  5
12B
330
1F
100
AcDbEntity
  8
1
100
AcDbLine
 10
124.807458614
 20
229.4014550667
 30
0.0
 11
124.807458614
 21
221.4014550667
 31
0.0
  0
LINE
  5
12C
330
1F
100
AcDbEntity
  8
1
100
AcDbLine
 10
198.0876682439
 20
221.4014550667
 30
0.0
 11
198.0876682439
 21
229.4014550667
 31
0.0
  0
LINE
  5
12D
330
1F
100
AcDbEntity
  8
1
100
AcDbLine
 10
125.7105751361
 20
221.4014550667
 30
0.0
 11
125.7105751361
 21
219.4014550667
 31
0.0
  0
LINE
  5
12E
330
1F
100
AcDbEntity
  8
1
100
AcDbLine
 10
197.1845517219
 20
221.4014550667
 30
0.0
 11
197.1845517219
 21
219.4014550667
 31
0.0
  0
LINE
  5
12F
330
1F
100
AcDbEntity
  8
1
100
AcDbLine
 10
127.0975626549
 20
219.4014550667
 30
0.0
 11
127.0975626549
 21
214.8014546167
 31
0.0
  0
LINE
  5
130
330
1F
100
AcDbEntity
  8
1
100
AcDbLine
 10
195.7975626549
 20
219.4014550667
 30
0.0
 11
195.7975626549
 21
216.0014546167
 31
0.0
  0
LINE
  5
131
330
1F
100
AcDbEntity
  8
1
100
AcDbLine
 10
127.0975626549
 20
214.8014546167
 30
0.0
 11
155.1963479444
 21
214.8014546167
 31
0.0
  0
LINE
  5
132
330
1F
100
AcDbEntity
  8
1
100
AcDbLine
 10
155.1963479444
 20
214.8014546167
 30
0.0
 11
155.1963479444
 21
216.0014546167
 31
0.0
  0
LINE
  5
133
330
1F
100
AcDbEntity
  8
1
100
AcDbLine
 10
155.1963479444
 20
216.0014546167
 30
0.0
 11
195.7975626549
 21
216.0014546167
 31
0.0
  0
LINE
  5
134
330
1F
100
AcDbEntity
  8
1
100
AcDbLine
 10
195.7975626549
 20
216.0014546167
 30
0.0
 11
199.7975601463
 21
216.0014546167
 31
0.0
  0
LINE
  5
135
330
1F
100
AcDbEntity
  8
1
100
AcDbLine
 10
151.3975626549
 20
212.3014824185
 30
0.0
 11
151.3975626549
 21
213.8835482624
 31
0.0
  0
LINE
  5
136
330
1F
100
AcDbEntity
  8
1
100
AcDbLine
 10
147.8975626549
 20
213.5014383689
 30
0.0
 11
147.8975626549
 21
213.8448578198
 31
0.0
  0
LINE
  5
137
330
1F
100
AcDbEntity
  8
1
100
AcDbLine
 10
131.2975626549
 20
213.6014546167
 30
0.0
 11
147.1975626549
 21
213.6014546167
 31
0.0
  0
LINE
  5
138
330
1F
100
AcDbEntity
  8
1
100
AcDbLine
 10
155.1963479444
 20
214.8014546167
 30
0.0
 11
195.7975626549
 21
214.8014546167
 31
0.0
  0
LINE
  5
139
330
1F
100
AcDbEntity
  8
1
100
AcDbLine
 10
155.1963479444
 20
214.8014546167
 30
0.0
 11
155.1963479444
 21
216.0014546167
 31
0.0
  0
LINE
  5
13A
330
1F
100
AcDbEntity
  8
1
100
AcDbLine
 10
195.7975626549
 20
216.0014546167
 30
0.0
 11
195.7975626549
 21
214.8014546167
 31
0.0
  0
LINE
  5
13B
330
1F
100
AcDbEntity
  8
1
100
AcDbLine
 10
195.7975626549
 20
216.0014546167
 30
0.0
 11
199.7975601463
 21
216.0014546167
 31
0.0
  0
LINE
  5
13C
330
1F
100
AcDbEntity
  8
1
100
AcDbLine
 10
155.1963479444
 20
216.0014546167
 30
0.0
 11
195.7975626549
 21
216.0014546167
 31
0.0
  0
LINE
  5
13D
330
1F
100
AcDbEntity
  8
1
100
AcDbLine
 10
163.6475673217
 20
214.0468128968
 30
0.0
 11
181.6475673217
 21
214.0468128968
 31
0.0
  0
LINE
  5
13E
330
1F
100
AcDbEntity
  8
1
100
AcDbLine
 10
163.6475626549
 20
213.7014546167
 30
0.0
 11
181.6475626549
 21
213.7014546167
 31
0.0
  0
LINE
  5
13F
330
1F
100
AcDbEntity
  8
1
100
AcDbLine
 10
186.3975626549
 20
213.7014546167
 30
0.0
 11
181.6475626549
 21
213.7014546167
 31
0.0
  0
LINE
  5
140
330
1F
100
AcDbEntity
  8
1
100
AcDbLine
 10
158.8975626549
 20
213.7014546167
 30
0.0
 11
163.6475626549
 21
213.7014546167
 31
0.0
  0
LINE
  5
141
330
1F
100
AcDbEntity
  8
1
100
AcDbLine
 10
124.807458614
 20
229.4014550667
 30
0.0
 11
123.0975642031
 21
229.4014550667
 31
0.0
  0
LINE
  5
142
330
1F
100
AcDbEntity
  8
1
100
AcDbLine
 10
159.2475626549
 20
212.3014546167
 30
0.0
 11
119.2475626549
 21
212.3014546167
 31
0.0
  0
LINE
  5
143
330
1F
100
AcDbEntity
  8
1
100
AcDbLine
 10
195.7975626549
 20
219.4014550667
 30
0.0
 11
197.1845517219
 21
219.4014550667
 31
0.0
  0
LINE
  5
144
330
1F
100
AcDbEntity
  8
1
100
AcDbLine
 10
127.0975626549
 20
219.4014550667
 30
0.0
 11
125.7105751361
 21
219.4014550667
 31
0.0
  0
LINE
  5
145
330
1F
100
AcDbEntity
  8
1
100
AcDbLine
 10
198.0876682439
 20
221.4014550667
 30
0.0
 11
197.1845517219
 21
221.4014550667
 31
0.0
  0
LINE
  5
146
330
1F
100
AcDbEntity
  8
1
100
AcDbLine
 10
124.807458614
 20
229.4014550667
 30
0.0
 11
198.0876682439
 21
229.4014550667
 31
0.0
  0
LINE
  5
147
330
1F
100
AcDbEntity
  8
1
100
AcDbLine
 10
125.7105751361
 20
221.4014550667
 30
0.0
 11
124.807458614
 21
221.4014550667
 31
0.0
  0
LINE
  5
148
330
1F
100
AcDbEntity
  8
1
100
AcDbLine
 10
127.0975626549
 20
219.4014550667
 30
0.0
 11
195.7975626549
 21
219.4014550667
 31
0.0
  0
LINE
  5
149
330
1F
100
AcDbEntity
  8
1
100
AcDbLine
 10
198.0876682439
 20
229.4014550667
 30
0.0
 11
199.7975601463
 21
229.4014550667
 31
0.0
  0
LINE
  5
14A
330
1F
100
AcDbEntity
  8
1
100
AcDbLine
 10
197.1845517219
 20
221.4014550667
 30
0.0
 11
125.7105751361
 21
221.4014550667
 31
0.0
  0
LINE
  5
14B
330
1F
100
AcDbEntity
  8
1
100
AcDbLine
 10
36.9679487489
 20
212.3014546167
 30
0.0
 11
36.9679487489
 21
196.9364780542
 31
0.0
  0
LINE
  5
14C
330
1F
100
AcDbEntity
  8
1
100
AcDbLine
 10
76.9679487489
 20
162.5514546167
 30
0.0
 11
76.9679487489
 21
212.3014546167
 31
0.0
  0
LINE
  5
14D
330
1F
100
AcDbEntity
  8
1
100
AcDbLine
 10
40.3429487489
 20
154.9366546167
 30
0.0
 11
70.1429487489
 21
154.9366546167
 31
0.0
  0
LINE
  5
14E
330
1F
100
AcDbEntity
  8
1
100
AcDbLine
 10
70.1429487489
 20
196.9366546167
 30
0.0
 11
40.3429487489
 21
196.9366546167
 31
0.0
  0
LINE
  5
14F
330
1F
100
AcDbEntity
  8
1
100
AcDbLine
 10
34.1429487489
 20
154.9366546167
 30
0.0
 11
39.8429487489
 21
154.9366546167
 31
0.0
  0
LINE
  5
150
330
1F
100
AcDbEntity
  8
1
100
AcDbLine
 10
39.8429487489
 20
196.9366546167
 30
0.0
 11
34.1429487489
 21
196.9366546167
 31
0.0
  0
LINE
  5
151
330
1F
100
AcDbEntity
  8
1
100
AcDbLine
 10
39.8429487489
 20
155.4366546167
 30
0.0
 11
40.3429487489
 21
155.4366546167
 31
0.0
  0
LINE
  5
152
330
1F
100
AcDbEntity
  8
1
100
AcDbLine
 10
40.3429487489
 20
196.4366546167
 30
0.0
 11
39.8429487489
 21
196.4366546167
 31
0.0
  0
LINE
  5
153
330
1F
100
AcDbEntity
  8
1
100
AcDbLine
 10
65.1179487489
 20
213.3514546167
 30
0.0
 11
64.8679487489
 21
213.6014546167
 31
0.0
  0
LINE
  5
154
330
1F
100
AcDbEntity
  8
1
100
AcDbLine
 10
49.0679487489
 20
213.6014546167
 30
0.0
 11
48.8179487489
 21
213.3514546167
 31
0.0
  0
LINE
  5
155
330
1F
100
AcDbEntity
  8
1
100
AcDbLine
 10
65.1179487489
 20
212.3014702417
 30
0.0
 11
65.1179487489
 21
213.3514546167
 31
0.0
  0
LINE
  5
156
330
1F
100
AcDbEntity
  8
1
100
AcDbLine
 10
48.8179487489
 20
213.3514546167
 30
0.0
 11
48.8179487489
 21
212.3014702417
 31
0.0
  0
LINE
  5
157
330
1F
100
AcDbEntity
  8
1
100
AcDbLine
 10
49.0179487489
 20
214.4883450539
 30
0.0
 11
49.0179487489
 21
213.6014546167
 31
0.0
  0
LINE
  5
158
330
1F
100
AcDbEntity
  8
1
100
AcDbLine
 10
64.9179487489
 20
213.6014546167
 30
0.0
 11
64.9179487489
 21
214.4921028637
 31
0.0
  0
LINE
  5
159
330
1F
100
AcDbEntity
  8
1
100
AcDbLine
 10
70.3927621562
 20
162.3014546167
 30
0.0
 11
76.7179487489
 21
162.3014546167
 31
0.0
  0
LINE
  5
15A
330
1F
100
AcDbEntity
  8
1
100
AcDbLine
 10
52.9105164694
 20
213.5014546167
 30
0.0
 11
52.9410385592
 21
213.5014546167
 31
0.0
  0
LINE
  5
15B
330
1F
100
AcDbEntity
  8
1
  6
Continuous
 62
   252
420
  9672088
100
AcDbLine
 10
54.1992281367
 20
213.2358802633
 30
0.0
 11
54.2179490211
 21
212.3711401688
 31
0.0
  0
LINE
  5
15C
330
1F
100
AcDbEntity
  8
1
100
AcDbLine
 10
63.5179487489
 20
229.4014546167
 30
0.0
 11
63.5179487489
 21
219.4014546167
 31
0.0
  0
LINE
  5
15D
330
1F
100
AcDbEntity
  8
1
100
AcDbLine
 10
50.4179487489
 20
221.4014546167
 30
0.0
 11
50.4179487489
 21
229.4014546167
 31
0.0
  0
LINE
  5
15E
330
1F
100
AcDbEntity
  8
1
100
AcDbLine
 10
49.0179487489
 20
221.4014546167
 30
0.0
 11
49.0179487489
 21
219.4014546167
 31
0.0
  0
LINE
  5
15F
330
1F
100
AcDbEntity
  8
1
100
AcDbLine
 10
47.4179487489
 20
219.4014546167
 30
0.0
 11
47.4179487489
 21
216.0014546167
 31
0.0
  0
LINE
  5
160
330
1F
100
AcDbEntity
  8
1
100
AcDbLine
 10
66.5179487489
 20
219.4014546167
 30
0.0
 11
66.5179487489
 21
216.0014546167
 31
0.0
  0
LINE
  5
161
330
1F
100
AcDbEntity
  8
1
100
AcDbLine
 10
47.4179487489
 20
216.0014546167
 30
0.0
 11
66.5179487489
 21
216.0014546167
 31
0.0
  0
LINE
  5
162
330
1F
100
AcDbEntity
  8
1
100
AcDbLine
 10
54.2179487489
 20
212.3014824185
 30
0.0
 11
54.2179487489
 21
213.2326988017
 31
0.0
  0
LINE
  5
163
330
1F
100
AcDbEntity
  8
1
100
AcDbLine
 10
59.7179487489
 20
212.3014824185
 30
0.0
 11
59.7179487489
 21
213.2326988017
 31
0.0
  0
LINE
  5
164
330
1F
100
AcDbEntity
  8
1
100
AcDbLine
 10
61.3723943131
 20
213.6014546167
 30
0.0
 11
64.9179487489
 21
213.6014546167
 31
0.0
  0
LINE
  5
165
330
1F
100
AcDbEntity
  8
1
100
AcDbLine
 10
49.0179487489
 20
213.6014546167
 30
0.0
 11
52.5635031847
 21
213.6014546167
 31
0.0
  0
LINE
  5
166
330
1F
100
AcDbEntity
  8
1
100
AcDbLine
 10
66.5179487489
 20
216.0014546167
 30
0.0
 11
66.5179487489
 21
214.8014546167
 31
0.0
  0
LINE
  5
167
330
1F
100
AcDbEntity
  8
1
100
AcDbLine
 10
47.4179487489
 20
216.0014546167
 30
0.0
 11
47.4179487489
 21
214.8014546167
 31
0.0
  0
LINE
  5
168
330
1F
100
AcDbEntity
  8
1
100
AcDbLine
 10
47.4179487489
 20
216.0014546167
 30
0.0
 11
66.5179487489
 21
216.0014546167
 31
0.0
  0
LINE
  5
169
330
1F
100
AcDbEntity
  8
1
100
AcDbLine
 10
61.7179487489
 20
214.0468134841
 30
0.0
 11
61.7179487489
 21
213.7014546167
 31
0.0
  0
LINE
  5
16A
330
1F
100
AcDbEntity
  8
1
100
AcDbLine
 10
52.2179487489
 20
214.0468134841
 30
0.0
 11
52.2179487489
 21
213.7014546167
 31
0.0
  0
LINE
  5
16B
330
1F
100
AcDbEntity
  8
1
100
AcDbLine
 10
33.8929487489
 20
196.6866546167
 30
0.0
 11
33.8929487489
 21
155.1866546167
 31
0.0
  0
LINE
  5
16C
330
1F
100
AcDbEntity
  8
1
100
AcDbLine
 10
76.9679487489
 20
212.3014546167
 30
0.0
 11
56.9679487489
 21
212.3014546167
 31
0.0
  0
LINE
  5
16D
330
1F
100
AcDbEntity
  8
1
100
AcDbLine
 10
56.9679487489
 20
212.3014546167
 30
0.0
 11
36.9679487489
 21
212.3014546167
 31
0.0
  0
LINE
  5
16E
330
1F
100
AcDbEntity
  8
1
100
AcDbLine
 10
63.5179487489
 20
219.4014546167
 30
0.0
 11
66.5179487489
 21
219.4014546167
 31
0.0
  0
LINE
  5
16F
330
1F
100
AcDbEntity
  8
1
100
AcDbLine
 10
47.4179487489
 20
219.4014546167
 30
0.0
 11
49.0179487489
 21
219.4014546167
 31
0.0
  0
LINE
  5
170
330
1F
100
AcDbEntity
  8
1
100
AcDbLine
 10
70.3929487489
 20
155.1866546167
 30
0.0
 11
70.3929487489
 21
196.6866546167
 31
0.0
  0
LINE
  5
171
330
1F
100
AcDbEntity
  8
1
100
AcDbLine
 10
50.4179487489
 20
221.4014546167
 30
0.0
 11
49.0179487489
 21
221.4014546167
 31
0.0
  0
LINE
  5
172
330
1F
100
AcDbEntity
  8
1
100
AcDbLine
 10
39.8429487489
 20
196.9366546167
 30
0.0
 11
39.8429487489
 21
154.9366546167
 31
0.0
  0
LINE
  5
173
330
1F
100
AcDbEntity
  8
1
100
AcDbLine
 10
40.3429487489
 20
154.9366546167
 30
0.0
 11
40.3429487489
 21
196.9366546167
 31
0.0
  0
LINE
  5
174
330
1F
100
AcDbEntity
  8
1
100
AcDbLine
 10
50.4179487489
 20
229.4014546167
 30
0.0
 11
63.5179487489
 21
229.4014546167
 31
0.0
  0
CIRCLE
  5
175
330
1F
100
AcDbEntity
  8
COTAS
100
AcDbCircle
 10
182.2475626549
 20
175.9366546167
 30
0.0
 40
3.0
  0
ARC
  5
176
330
1F
100
AcDbEntity
  8
1
100
AcDbCircle
 10
202.9975626549
 20
97.565509747
 30
0.0
 40
0.25
100
AcDbArc
 50
0.0
 51
90.0
  0
ARC
  5
177
330
1F
100
AcDbEntity
  8
1
100
AcDbCircle
 10
161.4975626549
 20
97.565509747
 30
0.0
 40
0.25
100
AcDbArc
 50
90.0
 51
180.0
  0
ARC
  5
178
330
1F
100
AcDbEntity
  8
1
100
AcDbCircle
 10
161.4975626549
 20
61.565509747
 30
0.0
 40
0.25000000000002
100
AcDbArc
 50
180.0
 51
270.0000229177
  0
ARC
  5
179
330
1F
100
AcDbEntity
  8
1
100
AcDbCircle
 10
202.9975626549
 20
61.565509747
 30
0.0
 40
0.25
100
AcDbArc
 50
270.0
 51
0.0
  0
ARC
  5
17A
330
1F
100
AcDbEntity
  8
1
100
AcDbCircle
 10
136.4978751549
 20
84.390509747
 30
0.0
 40
13.40031250000003
100
AcDbArc
 50
150.738617022
 51
209.261382978
  0
ARC
  5
17B
330
1F
100
AcDbEntity
  8
1
100
AcDbCircle
 10
136.4978751549
 20
84.390509747
 30
0.0
 40
13.40031250000005
100
AcDbArc
 50
134.5474331291
 51
150.738617022
  0
ARC
  5
17C
330
1F
100
AcDbEntity
  8
1
100
AcDbCircle
 10
139.2475626549
 20
84.390509747
 30
0.0
 40
20.00000000000003
100
AcDbArc
 50
28.5243747912
 51
331.4756256201
  0
ARC
  5
17D
330
1F
100
AcDbEntity
  8
1
100
AcDbCircle
 10
186.3972501549
 20
84.390509747
 30
0.0
 40
13.40031249999994
100
AcDbArc
 50
29.261382978
 51
45.4525668709
  0
ARC
  5
17E
330
1F
100
AcDbEntity
  8
1
100
AcDbCircle
 10
186.3972501549
 20
84.390509747
 30
0.0
 40
13.40031249999994
100
AcDbArc
 50
314.5474331291
 51
323.6106157043
  0
ARC
  5
17F
330
1F
100
AcDbEntity
  8
1
100
AcDbCircle
 10
136.4978751549
 20
84.390509747
 30
0.0
 40
13.40031250000006
100
AcDbArc
 50
216.3893842957
 51
225.4525668709
  0
ARC
  5
180
330
1F
100
AcDbEntity
  8
1
100
AcDbCircle
 10
186.3972501549
 20
84.390509747
 30
0.0
 40
13.40031249999994
100
AcDbArc
 50
323.6106157043
 51
330.738617022
  0
ARC
  5
181
330
1F
100
AcDbEntity
  8
1
100
AcDbCircle
 10
136.4978751549
 20
84.390509747
 30
0.0
 40
13.40031250000006
100
AcDbArc
 50
209.261382978
 51
216.3893842957
  0
ARC
  5
182
330
1F
100
AcDbEntity
  8
1
100
AcDbCircle
 10
186.3972501549
 20
84.390509747
 30
0.0
 40
13.40031249999991
100
AcDbArc
 50
330.738617022
 51
29.261382978
  0
ARC
  5
183
330
1F
100
AcDbEntity
  8
1
100
AcDbCircle
 10
181.6475626549
 20
229.4675260452
 30
0.0
 40
16.46607142857121
100
AcDbArc
 50
270.0
 51
286.7664969619
  0
ARC
  5
184
330
1F
100
AcDbEntity
  8
1
100
AcDbCircle
 10
158.9975626549
 20
162.5514546167
 30
0.0
 40
0.25
100
AcDbArc
 50
270.0
 51
0.0
  0
ARC
  5
185
330
1F
100
AcDbEntity
  8
1
100
AcDbCircle
 10
119.4975626549
 20
162.5514546167
 30
0.0
 40
0.25
100
AcDbArc
 50
180.0
 51
270.0
  0
ARC
  5
186
330
1F
100
AcDbEntity
  8
1
100
AcDbCircle
 10
149.5664941879
 20
213.3514546167
 30
0.0
 40
0.1500000000000057
100
AcDbArc
 50
2.5415382178
 51
90.0
  0
ARC
  5
187
330
1F
100
AcDbEntity
  8
1
100
AcDbCircle
 10
163.6475626549
 20
229.4675260452
 30
0.0
 40
16.46607142857121
100
AcDbArc
 50
253.2335030381
 51
270.0
  0
CIRCLE
  5
188
330
1F
100
AcDbEntity
  8
1
100
AcDbCircle
 10
182.2475626549
 20
175.9366546167
 30
0.0
 40
14.0327629298782
  0
CIRCLE
  5
189
330
1F
100
AcDbEntity
  8
1
100
AcDbCircle
 10
182.2475626549
 20
175.9366546167
 30
0.0
 40
13.99999999999997
  0
CIRCLE
  5
18A
330
1F
100
AcDbEntity
  8
1
 62
   252
420
  9672088
100
AcDbCircle
 10
182.2475626549
 20
175.9366546167
 30
0.0
 40
3.700000000000102
  0
CIRCLE
  5
18B
330
1F
100
AcDbEntity
  8
1
100
AcDbCircle
 10
182.2475626549
 20
175.9366546167
 30
0.0
 40
2.999999999999972
  0
CIRCLE
  5
18C
330
1F
100
AcDbEntity
  8
1
100
AcDbCircle
 10
182.2475626549
 20
175.9366546167
 30
0.0
 40
18.7066793817489
  0
CIRCLE
  5
18D
330
1F
100
AcDbEntity
  8
1
100
AcDbCircle
 10
182.2475626549
 20
175.9366546167
 30
0.0
 40
20.99999999999994
  0
ARC
  5
18E
330
1F
100
AcDbEntity
  8
1
100
AcDbCircle
 10
76.7179487489
 20
162.5514546167
 30
0.0
 40
0.25
100
AcDbArc
 50
270.0
 51
0.0
  0
ARC
  5
18F
330
1F
100
AcDbEntity
  8
1
100
AcDbCircle
 10
70.1429487489
 20
196.6866546167
 30
0.0
 40
0.25
100
AcDbArc
 50
0.0
 51
90.0
  0
ARC
  5
190
330
1F
100
AcDbEntity
  8
1
100
AcDbCircle
 10
70.1429487489
 20
155.1866546167
 30
0.0
 40
0.25
100
AcDbArc
 50
270.0
 51
0.0
  0
ARC
  5
191
330
1F
100
AcDbEntity
  8
1
100
AcDbCircle
 10
34.1429487489
 20
196.6866546167
 30
0.0
 40
0.25
100
AcDbArc
 50
90.0
 51
180.0
  0
ARC
  5
192
330
1F
100
AcDbEntity
  8
1
100
AcDbCircle
 10
34.1429487489
 20
155.1866546167
 30
0.0
 40
0.25
100
AcDbArc
 50
180.0
 51
270.0
  0
ARC
  5
193
330
1F
100
AcDbEntity
  8
1
100
AcDbCircle
 10
56.9679487489
 20
229.4675260452
 30
0.0
 40
16.4660714285712
100
AcDbArc
 50
253.2335030381
 51
286.7664969619
  0
SPLINE
  5
194
330
1F
100
AcDbEntity
  8
PIEZA
370
     0
100
AcDbSpline
210
0.0
220
0.0
230
1.0
 70
     8
 71
     3
 72
    11
 73
     7
 74
     0
 42
0.000000001
 43
0.00000001
 40
2.0
 40
2.0
 40
2.0
 40
2.0
 40
3.0
 40
3.0
 40
3.0
 40
4.0
 40
4.0
 40
4.0
 40
4.0
 10
213.4371628040456
 20
15.97179339841984
 30
0.0
 10
214.1047581539555
 20
15.97179339841984
 30
0.0
 10
214.6830501104206
 20
16.55040833280004
 30
0.0
 10
214.6830501104206
 20
17.21764840700377
 30
0.0
 10
214.6830501104206
 20
17.88524375691373
 30
0.0
 10
214.1047581539555
 20
18.46382639350245
 30
0.0
 10
213.4371628040456
 20
18.46382639350245
 30
0.0
  0
SPLINE
  5
195
330
1F
100
AcDbEntity
  8
PIEZA
370
     0
100
AcDbSpline
210
0.0
220
0.0
230
1.0
 70
     8
 71
     3
 72
    11
 73
     7
 74
     0
 42
0.000000001
 43
0.00000001
 40
0.0
 40
0.0
 40
0.0
 40
0.0
 40
1.0
 40
1.0
 40
1.0
 40
2.0
 40
2.0
 40
2.0
 40
2.0
 10
213.4371628040456
 20
18.46382639350245
 30
0.0
 10
212.7696320497184
 20
18.46382639350245
 30
0.0
 10
212.1910494131296
 20
17.88524375691373
 30
0.0
 10
212.1910494131296
 20
17.21764840700377
 30
0.0
 10
212.1910494131296
 20
16.55040833280004
 30
0.0
 10
212.7696320497184
 20
15.97179339841984
 30
0.0
 10
213.4371628040456
 20
15.97179339841984
 30
0.0
  0
SPLINE
  5
196
330
1F
100
AcDbEntity
  8
PIEZA
370
     0
100
AcDbSpline
210
0.0
220
0.0
230
1.0
 70
     8
 71
     3
 72
    11
 73
     7
 74
     0
 42
0.000000001
 43
0.00000001
 40
2.0
 40
2.0
 40
2.0
 40
2.0
 40
3.0
 40
3.0
 40
3.0
 40
4.0
 40
4.0
 40
4.0
 40
4.0
 10
213.4371628040456
 20
18.64185182014513
 30
0.0
 10
214.1935124849449
 20
18.64185182014513
 30
0.0
 10
214.861043239272
 20
17.97432106581804
 30
0.0
 10
214.861043239272
 20
17.21764840700377
 30
0.0
 10
214.861043239272
 20
16.41672777386064
 30
0.0
 10
214.1935124849449
 20
15.79373567398575
 30
0.0
 10
213.4371628040456
 20
15.79373567398575
 30
0.0
  0
SPLINE
  5
197
330
1F
100
AcDbEntity
  8
PIEZA
370
     0
100
AcDbSpline
210
0.0
220
0.0
230
1.0
 70
     8
 71
     3
 72
    11
 73
     7
 74
     0
 42
0.000000001
 43
0.00000001
 40
0.0
 40
0.0
 40
0.0
 40
0.0
 40
1.0
 40
1.0
 40
1.0
 40
2.0
 40
2.0
 40
2.0
 40
2.0
 10
213.4371628040456
 20
15.79373567398575
 30
0.0
 10
212.6361775753194
 20
15.79373567398575
 30
0.0
 10
212.012959390904
 20
16.41672777386064
 30
0.0
 10
212.012959390904
 20
17.21764840700377
 30
0.0
 10
212.012959390904
 20
17.97432106581804
 30
0.0
 10
212.6361775753194
 20
18.64185182014513
 30
0.0
 10
213.4371628040456
 20
18.64185182014513
 30
0.0
  0
SPLINE
  5
198
330
1F
100
AcDbEntity
  8
PIEZA
370
     0
100
AcDbSpline
210
0.0
220
0.0
230
1.0
 70
     8
 71
     3
 72
     8
 73
     4
 74
     0
 42
0.000000001
 43
0.00000001
 40
2.0
 40
2.0
 40
2.0
 40
2.0
 40
3.0
 40
3.0
 40
3.0
 40
3.0
 10
148.5525146085369
 20
16.90616850593793
 30
0.0
 10
149.353499837263
 20
16.90616850593793
 30
0.0
 10
149.9767180216782
 20
16.81747877053142
 30
0.0
 10
150.3771783382498
 20
16.59472090268773
 30
0.0
  0
SPLINE
  5
199
330
1F
100
AcDbEntity
  8
PIEZA
370
     0
100
AcDbSpline
210
0.0
220
0.0
230
1.0
 70
     8
 71
     3
 72
    11
 73
     7
 74
     0
 42
0.000000001
 43
0.00000001
 40
3.0
 40
3.0
 40
3.0
 40
3.0
 40
4.0
 40
4.0
 40
4.0
 40
5.0
 40
5.0
 40
5.0
 40
5.0
 10
150.3771783382498
 20
16.59472090268773
 30
0.0
 10
150.8220319692118
 20
16.28327329943745
 30
0.0
 10
151.0444830080367
 20
15.74910012613504
 30
0.0
 10
151.0444830080367
 20
15.03712761073024
 30
0.0
 10
151.0444830080367
 20
14.54758998525444
 30
0.0
 10
150.9557125281513
 20
14.14716196647433
 30
0.0
 10
150.7330192558907
 20
13.87999463534442
 30
0.0
  0
SPLINE
  5
19A
330
1F
100
AcDbEntity
  8
PIEZA
370
     0
100
AcDbSpline
210
0.0
220
0.0
230
1.0
 70
     8
 71
     3
 72
     8
 73
     4
 74
     0
 42
0.000000001
 43
0.00000001
 40
5.0
 40
5.0
 40
5.0
 40
5.0
 40
6.0
 40
6.0
 40
6.0
 40
6.0
 10
150.7330192558907
 20
13.87999463534442
 30
0.0
 10
150.6439580958823
 20
13.74660475652832
 30
0.0
 10
150.4661910515712
 20
13.65759204320694
 30
0.0
 10
150.2434977793105
 20
13.56854703209414
 30
0.0
  0
SPLINE
  5
19B
330
1F
100
AcDbEntity
  8
PIEZA
370
     0
100
AcDbSpline
210
0.0
220
0.0
230
1.0
 70
     8
 71
     3
 72
     8
 73
     4
 74
     0
 42
0.000000001
 43
0.00000001
 40
6.0
 40
6.0
 40
6.0
 40
6.0
 40
7.0
 40
7.0
 40
7.0
 40
7.0
 10
150.2434977793105
 20
13.56854703209414
 30
0.0
 10
150.3324943437361
 20
13.52423446218234
 30
0.0
 10
150.4215555037447
 20
13.52423446218234
 30
0.0
 10
150.4661910515712
 20
13.47953431877284
 30
0.0
  0
SPLINE
  5
19C
330
1F
100
AcDbEntity
  8
PIEZA
370
     0
100
AcDbSpline
210
0.0
220
0.0
230
1.0
 70
     8
 71
     3
 72
     8
 73
     4
 74
     0
 42
0.000000001
 43
0.00000001
 40
7.0
 40
7.0
 40
7.0
 40
7.0
 40
8.0
 40
8.0
 40
8.0
 40
8.0
 10
150.4661910515712
 20
13.47953431877284
 30
0.0
 10
150.5996293770745
 20
13.39055390324302
 30
0.0
 10
150.7330192558907
 20
13.25709942884394
 30
0.0
 10
150.8220319692118
 20
13.12370955002783
 30
0.0
  0
SPLINE
  5
19D
330
1F
100
AcDbEntity
  8
PIEZA
370
     0
100
AcDbSpline
210
0.0
220
0.0
230
1.0
 70
     8
 71
     3
 72
     8
 73
     4
 74
     0
 42
0.000000001
 43
0.00000001
 40
8.0
 40
8.0
 40
8.0
 40
8.0
 40
9.0
 40
9.0
 40
9.0
 40
9.0
 10
150.8220319692118
 20
13.12370955002783
 30
0.0
 10
150.8667159637257
 20
12.94561952780226
 30
0.0
 10
150.9110931292206
 20
12.76756180336802
 30
0.0
 10
150.9110931292206
 20
12.54515921123065
 30
0.0
  0
SPLINE
  5
19E
330
1F
100
AcDbEntity
  8
PIEZA
370
     0
100
AcDbSpline
210
0.0
220
0.0
230
1.0
 70
     8
 71
     3
 72
     8
 73
     4
 74
     0
 42
0.000000001
 43
0.00000001
 40
12.0
 40
12.0
 40
12.0
 40
12.0
 40
13.0
 40
13.0
 40
13.0
 40
13.0
 10
149.7539601538431
 20
12.27808877349054
 30
0.0
 10
149.7539601538431
 20
12.67854909006213
 30
0.0
 10
149.6649474405217
 20
12.90098397999106
 30
0.0
 10
149.4871965451067
 20
12.98999669331233
 30
0.0
  0
SPLINE
  5
19F
330
1F
100
AcDbEntity
  8
PIEZA
370
     0
100
AcDbSpline
210
0.0
220
0.0
230
1.0
 70
     8
 71
     3
 72
     8
 73
     4
 74
     0
 42
0.000000001
 43
0.00000001
 40
13.0
 40
13.0
 40
13.0
 40
13.0
 40
14.0
 40
14.0
 40
14.0
 40
14.0
 10
149.4871965451067
 20
12.98999669331233
 30
0.0
 10
149.3091226717767
 20
13.07900940663374
 30
0.0
 10
148.9976750685268
 20
13.16808671553793
 30
0.0
 10
148.4634534485369
 20
13.16808671553793
 30
0.0
  0
SPLINE
  5
1A0
330
1F
100
AcDbEntity
  8
PIEZA
370
     0
100
AcDbSpline
210
0.0
220
0.0
230
1.0
 70
     8
 71
     3
 72
     8
 73
     4
 74
     0
 42
0.000000001
 43
0.00000001
 40
4.0
 40
4.0
 40
4.0
 40
4.0
 40
5.0
 40
5.0
 40
5.0
 40
5.0
 10
148.4187694540368
 20
14.05808465763793
 30
0.0
 10
148.9976750685405
 20
14.05808465763793
 30
0.0
 10
149.3534998372853
 20
14.14716196654223
 30
0.0
 10
149.5315091150321
 20
14.28051954756683
 30
0.0
  0
SPLINE
  5
1A1
330
1F
100
AcDbEntity
  8
PIEZA
370
     0
100
AcDbSpline
210
0.0
220
0.0
230
1.0
 70
     8
 71
     3
 72
    11
 73
     7
 74
     0
 42
0.000000001
 43
0.00000001
 40
5.0
 40
5.0
 40
5.0
 40
5.0
 40
6.0
 40
6.0
 40
6.0
 40
7.0
 40
7.0
 40
7.0
 40
7.0
 10
149.5315091150321
 20
14.28051954756683
 30
0.0
 10
149.7095829883619
 20
14.36953226088813
 30
0.0
 10
149.8429728671784
 20
14.63666729422662
 30
0.0
 10
149.8429728671784
 20
15.08182775420773
 30
0.0
 10
149.8429728671784
 20
15.30419804855365
 30
0.0
 10
149.7986602972663
 20
15.48228807077922
 30
0.0
 10
149.7539601538568
 20
15.61574254517831
 30
0.0
  0
SPLINE
  5
1A2
330
1F
100
AcDbEntity
  8
PIEZA
370
     0
100
AcDbSpline
210
0.0
220
0.0
230
1.0
 70
     8
 71
     3
 72
     8
 73
     4
 74
     0
 42
0.000000001
 43
0.00000001
 40
7.0
 40
7.0
 40
7.0
 40
7.0
 40
8.0
 40
8.0
 40
8.0
 40
8.0
 10
149.7539601538568
 20
15.61574254517831
 30
0.0
 10
149.7095829883619
 20
15.70472296070824
 30
0.0
 10
149.6205702750409
 20
15.79373567402954
 30
0.0
 10
149.5315091150321
 20
15.83811283952423
 30
0.0
  0
SPLINE
  5
1A3
330
1F
100
AcDbEntity
  8
PIEZA
370
     0
100
AcDbSpline
210
0.0
220
0.0
230
1.0
 70
     8
 71
     3
 72
     8
 73
     4
 74
     0
 42
0.000000001
 43
0.00000001
 40
8.0
 40
8.0
 40
8.0
 40
8.0
 40
9.0
 40
9.0
 40
9.0
 40
9.0
 10
149.5315091150321
 20
15.83811283952423
 30
0.0
 10
149.397812407197
 20
15.92719014842854
 30
0.0
 10
149.2644386772768
 20
15.97179339846364
 30
0.0
 10
149.0863648039468
 20
15.97179339846364
 30
0.0
  0
SPLINE
  5
1A4
330
1F
100
AcDbEntity
  8
PIEZA
370
     0
100
AcDbSpline
210
0.0
220
0.0
230
1.0
 70
     8
 71
     3
 72
     8
 73
     4
 74
     0
 42
0.000000001
 43
0.00000001
 40
9.0
 40
9.0
 40
9.0
 40
9.0
 40
10.0
 40
10.0
 40
10.0
 40
10.0
 10
149.0863648039468
 20
15.97179339846364
 30
0.0
 10
148.8639783607053
 20
16.01620286174992
 30
0.0
 10
148.6415273218805
 20
16.01620286174992
 30
0.0
 10
148.374456884125
 20
16.01620286174992
 30
0.0
  0
SPLINE
  5
1A5
330
1F
100
AcDbEntity
  8
PIEZA
370
     0
100
AcDbSpline
210
0.0
220
0.0
230
1.0
 70
     8
 71
     3
 72
     8
 73
     4
 74
     0
 42
0.000000001
 43
0.00000001
 40
0.0
 40
0.0
 40
0.0
 40
0.0
 40
1.0
 40
1.0
 40
1.0
 40
1.0
 10
161.9033234817715
 20
15.61574254516993
 30
0.0
 10
162.0813489084143
 20
16.14988342068094
 30
0.0
 10
162.3927965116644
 20
16.50570818942595
 30
0.0
 10
162.8823341371401
 20
16.72817537714625
 30
0.0
  0
SPLINE
  5
1A6
330
1F
100
AcDbEntity
  8
PIEZA
370
     0
100
AcDbSpline
210
0.0
220
0.0
230
1.0
 70
     8
 71
     3
 72
    11
 73
     7
 74
     0
 42
0.000000001
 43
0.00000001
 40
1.0
 40
1.0
 40
1.0
 40
1.0
 40
2.0
 40
2.0
 40
2.0
 40
3.0
 40
3.0
 40
3.0
 40
3.0
 10
162.8823341371401
 20
16.72817537714625
 30
0.0
 10
163.282859049295
 20
16.90616850599745
 30
0.0
 10
163.8167738402654
 20
16.95086864940703
 30
0.0
 10
164.3952918812712
 20
16.95086864940703
 30
0.0
 10
165.0185100656864
 20
16.95086864940703
 30
0.0
 10
165.6861054155964
 20
16.99524581490176
 30
0.0
 10
166.3533777875916
 20
16.99524581490176
 30
0.0
  0
SPLINE
  5
1A7
330
1F
100
AcDbEntity
  8
PIEZA
370
     0
100
AcDbSpline
210
0.0
220
0.0
230
1.0
 70
     8
 71
     3
 72
     8
 73
     4
 74
     0
 42
0.000000001
 43
0.00000001
 40
4.0
 40
4.0
 40
4.0
 40
4.0
 40
5.0
 40
5.0
 40
5.0
 40
5.0
 10
167.4214657518916
 20
16.99524581490176
 30
0.0
 10
168.8012919995382
 20
16.99524581490176
 30
0.0
 10
169.7356671070803
 20
16.86185593608565
 30
0.0
 10
170.2251724347647
 20
16.46136332172265
 30
0.0
  0
SPLINE
  5
1A8
330
1F
100
AcDbEntity
  8
PIEZA
370
     0
100
AcDbSpline
210
0.0
220
0.0
230
1.0
 70
     8
 71
     3
 72
     8
 73
     4
 74
     0
 42
0.000000001
 43
0.00000001
 40
5.0
 40
5.0
 40
5.0
 40
5.0
 40
6.0
 40
6.0
 40
6.0
 40
6.0
 10
170.2251724347647
 20
16.46136332172265
 30
0.0
 10
170.7147100602407
 20
16.06087070735953
 30
0.0
 10
170.9371449501695
 20
15.25959479851017
 30
0.0
 10
170.8927677846748
 20
14.10275250324754
 30
0.0
  0
SPLINE
  5
1A9
330
1F
100
AcDbEntity
  8
PIEZA
370
     0
100
AcDbSpline
210
0.0
220
0.0
230
1.0
 70
     8
 71
     3
 72
     8
 73
     4
 74
     0
 42
0.000000001
 43
0.00000001
 40
6.0
 40
6.0
 40
6.0
 40
6.0
 40
7.0
 40
7.0
 40
7.0
 40
7.0
 10
170.8927677846748
 20
14.10275250324754
 30
0.0
 10
170.8927677846748
 20
13.56854703215365
 30
0.0
 10
170.8927677846748
 20
13.03469683676605
 30
0.0
 10
170.8480999390567
 20
12.54515921129016
 30
0.0
  0
SPLINE
  5
1AA
330
1F
100
AcDbEntity
  8
PIEZA
370
     0
100
AcDbSpline
210
0.0
220
0.0
230
1.0
 70
     8
 71
     3
 72
     8
 73
     4
 74
     0
 42
0.000000001
 43
0.00000001
 40
7.0
 40
7.0
 40
7.0
 40
7.0
 40
8.0
 40
8.0
 40
8.0
 40
8.0
 10
170.8480999390567
 20
12.54515921129016
 30
0.0
 10
170.7593779058587
 20
11.96657657470144
 30
0.0
 10
170.5366523358065
 20
11.52141611472036
 30
0.0
 10
170.1361597214436
 20
11.25447486813076
 30
0.0
  0
SPLINE
  5
1AB
330
1F
100
AcDbEntity
  8
PIEZA
370
     0
100
AcDbSpline
210
0.0
220
0.0
230
1.0
 70
     8
 71
     3
 72
     8
 73
     4
 74
     0
 42
0.000000001
 43
0.00000001
 40
8.0
 40
8.0
 40
8.0
 40
8.0
 40
9.0
 40
9.0
 40
9.0
 40
9.0
 10
170.1361597214436
 20
11.25447486813076
 30
0.0
 10
169.7803349526986
 20
10.98756591933276
 30
0.0
 10
169.2461294816045
 20
10.85401455155924
 30
0.0
 10
168.5785987272775
 20
10.80950819489855
 30
0.0
  0
SPLINE
  5
1AC
330
1F
100
AcDbEntity
  8
PIEZA
370
     0
100
AcDbSpline
210
0.0
220
0.0
230
1.0
 70
     8
 71
     3
 72
     8
 73
     4
 74
     0
 42
0.000000001
 43
0.00000001
 40
9.0
 40
9.0
 40
9.0
 40
9.0
 40
10.0
 40
10.0
 40
10.0
 40
10.0
 10
168.5785987272775
 20
10.80950819489855
 30
0.0
 10
167.9999837928973
 20
10.76500183823794
 30
0.0
 10
167.4661335975097
 20
10.76500183823794
 30
0.0
 10
166.887550960921
 20
10.76500183823794
 30
0.0
  0
SPLINE
  5
1AD
330
1F
100
AcDbEntity
  8
PIEZA
370
     0
100
AcDbSpline
210
0.0
220
0.0
230
1.0
 70
     8
 71
     3
 72
     8
 73
     4
 74
     0
 42
0.000000001
 43
0.00000001
 40
12.0
 40
12.0
 40
12.0
 40
12.0
 40
13.0
 40
13.0
 40
13.0
 40
13.0
 10
165.3299576689367
 20
10.76500183823794
 30
0.0
 10
164.8848295067469
 20
10.76500183823794
 30
0.0
 10
164.3952918812712
 20
10.76500183823794
 30
0.0
 10
163.9057542557953
 20
10.80950819489855
 30
0.0
  0
SPLINE
  5
1AE
330
1F
100
AcDbEntity
  8
PIEZA
370
     0
100
AcDbSpline
210
0.0
220
0.0
230
1.0
 70
     8
 71
     3
 72
     8
 73
     4
 74
     0
 42
0.000000001
 43
0.00000001
 40
13.0
 40
13.0
 40
13.0
 40
13.0
 40
14.0
 40
14.0
 40
14.0
 40
14.0
 10
163.9057542557953
 20
10.80950819489855
 30
0.0
 10
163.5943066525451
 20
10.85401455155924
 30
0.0
 10
163.282859049295
 20
10.89852090821993
 30
0.0
 10
163.0157886115394
 20
10.98756591933276
 30
0.0
  0
SPLINE
  5
1AF
330
1F
100
AcDbEntity
  8
PIEZA
370
     0
100
AcDbSpline
210
0.0
220
0.0
230
1.0
 70
     8
 71
     3
 72
     8
 73
     4
 74
     0
 42
0.000000001
 43
0.00000001
 40
14.0
 40
14.0
 40
14.0
 40
14.0
 40
15.0
 40
15.0
 40
15.0
 40
15.0
 10
163.0157886115394
 20
10.98756591933276
 30
0.0
 10
162.7043087104977
 20
11.07644944148817
 30
0.0
 10
162.4371736771592
 20
11.25447486813076
 30
0.0
 10
162.2147710850218
 20
11.52141611472036
 30
0.0
  0
SPLINE
  5
1B0
330
1F
100
AcDbEntity
  8
PIEZA
370
     0
100
AcDbSpline
210
0.0
220
0.0
230
1.0
 70
     8
 71
     3
 72
     8
 73
     4
 74
     0
 42
0.000000001
 43
0.00000001
 40
15.0
 40
15.0
 40
15.0
 40
15.0
 40
16.0
 40
16.0
 40
16.0
 40
16.0
 10
162.2147710850218
 20
11.52141611472036
 30
0.0
 10
161.9923361950929
 20
11.83305750471943
 30
0.0
 10
161.8586556361533
 20
12.23371160803993
 30
0.0
 10
161.8142623217631
 20
12.67854909010624
 30
0.0
  0
SPLINE
  5
1B1
330
1F
100
AcDbEntity
  8
PIEZA
370
     0
100
AcDbSpline
210
0.0
220
0.0
230
1.0
 70
     8
 71
     3
 72
    11
 73
     7
 74
     0
 42
0.000000001
 43
0.00000001
 40
16.0
 40
16.0
 40
16.0
 40
16.0
 40
17.0
 40
17.0
 40
17.0
 40
18.0
 40
18.0
 40
18.0
 40
18.0
 10
161.8142623217631
 20
12.67854909010624
 30
0.0
 10
161.7695783272493
 20
13.12370955008735
 30
0.0
 10
161.7695783272493
 20
13.47953431883236
 30
0.0
 10
161.7695783272493
 20
13.83568206549217
 30
0.0
 10
161.7695783272493
 20
14.41423240428936
 30
0.0
 10
161.8142623217631
 20
14.99275044529504
 30
0.0
 10
161.9033234817715
 20
15.61574254516993
 30
0.0
  0
SPLINE
  5
1B2
330
1F
100
AcDbEntity
  8
PIEZA
370
     0
100
AcDbSpline
210
0.0
220
0.0
230
1.0
 70
     8
 71
     3
 72
     8
 73
     4
 74
     0
 42
0.000000001
 43
0.00000001
 40
1.0
 40
1.0
 40
1.0
 40
1.0
 40
2.0
 40
2.0
 40
2.0
 40
2.0
 10
164.7514396279284
 20
16.01620286173995
 30
0.0
 10
164.0394348147322
 20
16.01620286173995
 30
0.0
 10
163.5943066525425
 20
15.92719014841857
 30
0.0
 10
163.327236214787
 20
15.79373567401957
 30
0.0
  0
SPLINE
  5
1B3
330
1F
100
AcDbEntity
  8
PIEZA
370
     0
100
AcDbSpline
210
0.0
220
0.0
230
1.0
 70
     8
 71
     3
 72
     8
 73
     4
 74
     0
 42
0.000000001
 43
0.00000001
 40
2.0
 40
2.0
 40
2.0
 40
2.0
 40
3.0
 40
3.0
 40
3.0
 40
3.0
 10
163.327236214787
 20
15.79373567401957
 30
0.0
 10
163.1491461925613
 20
15.66034579520343
 30
0.0
 10
163.0157886115368
 20
15.34857521403845
 30
0.0
 10
163.0157886115368
 20
14.72568000753794
 30
0.0
  0
SPLINE
  5
1B4
330
1F
100
AcDbEntity
  8
PIEZA
370
     0
100
AcDbSpline
210
0.0
220
0.0
230
1.0
 70
     8
 71
     3
 72
     8
 73
     4
 74
     0
 42
0.000000001
 43
0.00000001
 40
5.0
 40
5.0
 40
5.0
 40
5.0
 40
6.0
 40
6.0
 40
6.0
 40
6.0
 10
162.9714114460368
 20
13.43515715333795
 30
0.0
 10
162.9714114460368
 20
13.12370955008778
 30
0.0
 10
162.9714114460368
 20
12.85663911233227
 30
0.0
 10
163.0157886115316
 20
12.63417192461197
 30
0.0
  0
SPLINE
  5
1B5
330
1F
100
AcDbEntity
  8
PIEZA
370
     0
100
AcDbSpline
210
0.0
220
0.0
230
1.0
 70
     8
 71
     3
 72
     8
 73
     4
 74
     0
 42
0.000000001
 43
0.00000001
 40
6.0
 40
6.0
 40
6.0
 40
6.0
 40
7.0
 40
7.0
 40
7.0
 40
7.0
 10
163.0157886115316
 20
12.63417192461197
 30
0.0
 10
163.0157886115316
 20
12.41147865235119
 30
0.0
 10
163.1047690270614
 20
12.27808877353508
 30
0.0
 10
163.1937817403828
 20
12.14434361901278
 30
0.0
  0
SPLINE
  5
1B6
330
1F
100
AcDbEntity
  8
PIEZA
370
     0
100
AcDbSpline
210
0.0
220
0.0
230
1.0
 70
     8
 71
     3
 72
     8
 73
     4
 74
     0
 42
0.000000001
 43
0.00000001
 40
7.0
 40
7.0
 40
7.0
 40
7.0
 40
8.0
 40
8.0
 40
8.0
 40
8.0
 10
163.1937817403828
 20
12.14434361901278
 30
0.0
 10
163.2384495860009
 20
12.01095374019668
 30
0.0
 10
163.4162166303117
 20
11.92194102687527
 30
0.0
 10
163.5943066525373
 20
11.8775638613806
 30
0.0
  0
SPLINE
  5
1B7
330
1F
100
AcDbEntity
  8
PIEZA
370
     0
100
AcDbSpline
210
0.0
220
0.0
230
1.0
 70
     8
 71
     3
 72
     8
 73
     4
 74
     0
 42
0.000000001
 43
0.00000001
 40
8.0
 40
8.0
 40
8.0
 40
8.0
 40
9.0
 40
9.0
 40
9.0
 40
9.0
 10
163.5943066525373
 20
11.8775638613806
 30
0.0
 10
163.8167738402576
 20
11.78855114805928
 30
0.0
 10
164.1282214435078
 20
11.74401249360708
 30
0.0
 10
164.5289724402027
 20
11.74401249360708
 30
0.0
  0
SPLINE
  5
1B8
330
1F
100
AcDbEntity
  8
PIEZA
370
     0
100
AcDbSpline
210
0.0
220
0.0
230
1.0
 70
     8
 71
     3
 72
     8
 73
     4
 74
     0
 42
0.000000001
 43
0.00000001
 40
12.0
 40
12.0
 40
12.0
 40
12.0
 40
13.0
 40
13.0
 40
13.0
 40
13.0
 10
166.9319281264027
 20
11.6995061370071
 30
0.0
 10
167.5104784651998
 20
11.6995061370071
 30
0.0
 10
168.0446839362936
 20
11.6995061370071
 30
0.0
 10
168.6232019772994
 20
11.74401249366771
 30
0.0
  0
SPLINE
  5
1B9
330
1F
100
AcDbEntity
  8
PIEZA
370
     0
100
AcDbSpline
210
0.0
220
0.0
230
1.0
 70
     8
 71
     3
 72
     8
 73
     4
 74
     0
 42
0.000000001
 43
0.00000001
 40
13.0
 40
13.0
 40
13.0
 40
13.0
 40
14.0
 40
14.0
 40
14.0
 40
14.0
 10
168.6232019772994
 20
11.74401249366771
 30
0.0
 10
169.1127396027754
 20
11.83305750478048
 30
0.0
 10
169.3795839559907
 20
11.96657657476249
 30
0.0
 10
169.5132645149299
 20
12.14434361907341
 30
0.0
  0
SPLINE
  5
1BA
330
1F
100
AcDbEntity
  8
PIEZA
370
     0
100
AcDbSpline
210
0.0
220
0.0
230
1.0
 70
     8
 71
     3
 72
     8
 73
     4
 74
     0
 42
0.000000001
 43
0.00000001
 40
14.0
 40
14.0
 40
14.0
 40
14.0
 40
15.0
 40
15.0
 40
15.0
 40
15.0
 10
169.5132645149299
 20
12.14434361907341
 30
0.0
 10
169.6466543937459
 20
12.36710148691709
 30
0.0
 10
169.6910315592407
 20
12.67854909016729
 30
0.0
 10
169.6910315592407
 20
13.0790094067389
 30
0.0
  0
SPLINE
  5
1BB
330
1F
100
AcDbEntity
  8
PIEZA
370
     0
100
AcDbSpline
210
0.0
220
0.0
230
1.0
 70
     8
 71
     3
 72
     8
 73
     4
 74
     0
 42
0.000000001
 43
0.00000001
 40
16.0
 40
16.0
 40
16.0
 40
16.0
 40
17.0
 40
17.0
 40
17.0
 40
17.0
 10
169.6910315592795
 20
14.23614238206208
 30
0.0
 10
169.6910315592795
 20
14.50321281981756
 30
0.0
 10
169.6910315592795
 20
14.81475731644228
 30
0.0
 10
169.6466543937847
 20
15.08182775419776
 30
0.0
  0
SPLINE
  5
1BC
330
1F
100
AcDbEntity
  8
PIEZA
370
     0
100
AcDbSpline
210
0.0
220
0.0
230
1.0
 70
     8
 71
     3
 72
     8
 73
     4
 74
     0
 42
0.000000001
 43
0.00000001
 40
17.0
 40
17.0
 40
17.0
 40
17.0
 40
18.0
 40
18.0
 40
18.0
 40
18.0
 10
169.6466543937847
 20
15.08182775419776
 30
0.0
 10
169.6466543937847
 20
15.39327535744796
 30
0.0
 10
169.5575770848803
 20
15.57136537967365
 30
0.0
 10
169.4685643715592
 20
15.70472296069827
 30
0.0
  0
SPLINE
  5
1BD
330
1F
100
AcDbEntity
  8
PIEZA
370
     0
100
AcDbSpline
210
0.0
220
0.0
230
1.0
 70
     8
 71
     3
 72
     8
 73
     4
 74
     0
 42
0.000000001
 43
0.00000001
 40
18.0
 40
18.0
 40
18.0
 40
18.0
 40
19.0
 40
19.0
 40
19.0
 40
19.0
 10
169.4685643715592
 20
15.70472296069827
 30
0.0
 10
169.3351744927429
 20
15.83811283951426
 30
0.0
 10
169.2014939338036
 20
15.88281298292385
 30
0.0
 10
169.0681040549875
 20
15.92719014841857
 30
0.0
  0
SPLINE
  5
1BE
330
1F
100
AcDbEntity
  8
PIEZA
370
     0
100
AcDbSpline
210
0.0
220
0.0
230
1.0
 70
     8
 71
     3
 72
     8
 73
     4
 74
     0
 42
0.000000001
 43
0.00000001
 40
19.0
 40
19.0
 40
19.0
 40
19.0
 40
20.0
 40
20.0
 40
20.0
 40
20.0
 10
169.0681040549875
 20
15.92719014841857
 30
0.0
 10
168.7119563083278
 20
16.01620286173995
 30
0.0
 10
168.3117543740881
 20
16.01620286173995
 30
0.0
 10
167.9556066274284
 20
16.01620286173995
 30
0.0
  0
SPLINE
  5
1BF
330
1F
100
AcDbEntity
  8
PIEZA
370
     0
100
AcDbSpline
210
0.0
220
0.0
230
1.0
 70
     8
 71
     3
 72
     8
 73
     4
 74
     0
 42
0.000000001
 43
0.00000001
 40
2.0
 40
2.0
 40
2.0
 40
2.0
 40
3.0
 40
3.0
 40
3.0
 40
3.0
 10
179.2593168808911
 20
15.17080816974917
 30
0.0
 10
179.2593168808911
 20
15.30419804856528
 30
0.0
 10
179.2146813330646
 20
15.43765252296425
 30
0.0
 10
179.17030416757
 20
15.61574254518994
 30
0.0
  0
SPLINE
  5
1C0
330
1F
100
AcDbEntity
  8
PIEZA
370
     0
100
AcDbSpline
210
0.0
220
0.0
230
1.0
 70
     8
 71
     3
 72
     8
 73
     4
 74
     0
 42
0.000000001
 43
0.00000001
 40
3.0
 40
3.0
 40
3.0
 40
3.0
 40
4.0
 40
4.0
 40
4.0
 40
4.0
 10
179.17030416757
 20
15.61574254518994
 30
0.0
 10
179.17030416757
 20
15.70472296071976
 30
0.0
 10
179.0812268586658
 20
15.79373567404117
 30
0.0
 10
178.9478369798494
 20
15.83811283953586
 30
0.0
  0
SPLINE
  5
1C1
330
1F
100
AcDbEntity
  8
PIEZA
370
     0
100
AcDbSpline
210
0.0
220
0.0
230
1.0
 70
     8
 71
     3
 72
     8
 73
     4
 74
     0
 42
0.000000001
 43
0.00000001
 40
4.0
 40
4.0
 40
4.0
 40
4.0
 40
5.0
 40
5.0
 40
5.0
 40
5.0
 10
178.9478369798494
 20
15.83811283953586
 30
0.0
 10
178.7251760053802
 20
15.92719014844017
 30
0.0
 10
178.3690282587204
 20
15.97179339847527
 30
0.0
 10
177.9685356443573
 20
16.01620286176144
 30
0.0
  0
SPLINE
  5
1C2
330
1F
100
AcDbEntity
  8
PIEZA
370
     0
100
AcDbSpline
210
0.0
220
0.0
230
1.0
 70
    24
 71
     3
 72
     8
 73
     4
 74
     0
 42
0.000000001
 43
0.00000001
 40
5.0
 40
5.0
 40
5.0
 40
5.0
 40
6.0
 40
6.0
 40
6.0
 40
6.0
 10
177.9685356443573
 20
16.01620286176144
 30
0.0
 10
177.5236335667081
 20
16.01620286176144
 30
0.0
 10
177.1231732501365
 20
16.01620286176144
 30
0.0
 10
176.7670255034767
 20
16.01620286176144
 30
0.0
  0
SPLINE
  5
1C3
330
1F
100
AcDbEntity
  8
PIEZA
370
     0
100
AcDbSpline
210
0.0
220
0.0
230
1.0
 70
    24
 71
     3
 72
     8
 73
     4
 74
     0
 42
0.000000001
 43
0.00000001
 40
9.0
 40
9.0
 40
9.0
 40
9.0
 40
10.0
 40
10.0
 40
10.0
 40
10.0
 10
176.4555779002769
 20
16.01620286176144
 30
0.0
 10
176.1441302970267
 20
16.01620286176144
 30
0.0
 10
175.6990021348373
 20
16.01620286176144
 30
0.0
 10
175.2094645093613
 20
16.01620286176144
 30
0.0
  0
SPLINE
  5
1C4
330
1F
100
AcDbEntity
  8
PIEZA
370
     0
100
AcDbSpline
210
0.0
220
0.0
230
1.0
 70
     8
 71
     3
 72
     8
 73
     4
 74
     0
 42
0.000000001
 43
0.00000001
 40
10.0
 40
10.0
 40
10.0
 40
10.0
 40
11.0
 40
11.0
 40
11.0
 40
11.0
 10
175.2094645093613
 20
16.01620286176144
 30
0.0
 10
174.7199268838854
 20
15.97179339847527
 30
0.0
 10
174.3194019717309
 20
15.88281298294536
 30
0.0
 10
174.0079543684807
 20
15.79373567404117
 30
0.0
  0
SPLINE
  5
1C5
330
1F
100
AcDbEntity
  8
PIEZA
370
     0
100
AcDbSpline
210
0.0
220
0.0
230
1.0
 70
     8
 71
     3
 72
     8
 73
     4
 74
     0
 42
0.000000001
 43
0.00000001
 40
11.0
 40
11.0
 40
11.0
 40
11.0
 40
12.0
 40
12.0
 40
12.0
 40
12.0
 10
174.0079543684807
 20
15.79373567404117
 30
0.0
 10
173.8745644896646
 20
15.74910012621445
 30
0.0
 10
173.7852610962198
 20
15.66034579522504
 30
0.0
 10
173.7408839307251
 20
15.57136537969524
 30
0.0
  0
SPLINE
  5
1C6
330
1F
100
AcDbEntity
  8
PIEZA
370
     0
100
AcDbSpline
210
0.0
220
0.0
230
1.0
 70
     8
 71
     3
 72
     8
 73
     4
 74
     0
 42
0.000000001
 43
0.00000001
 40
12.0
 40
12.0
 40
12.0
 40
12.0
 40
13.0
 40
13.0
 40
13.0
 40
13.0
 10
173.7408839307251
 20
15.57136537969524
 30
0.0
 10
173.6965067652305
 20
15.43765252296425
 30
0.0
 10
173.6518712174037
 20
15.30419804856528
 30
0.0
 10
173.6965067652305
 20
15.17080816974917
 30
0.0
  0
SPLINE
  5
1C7
330
1F
100
AcDbEntity
  8
PIEZA
370
     0
100
AcDbSpline
210
0.0
220
0.0
230
1.0
 70
     8
 71
     3
 72
     8
 73
     4
 74
     0
 42
0.000000001
 43
0.00000001
 40
13.0
 40
13.0
 40
13.0
 40
13.0
 40
14.0
 40
14.0
 40
14.0
 40
14.0
 10
173.6965067652305
 20
15.17080816974917
 30
0.0
 10
173.6965067652305
 20
14.85906988637567
 30
0.0
 10
173.7852610962198
 20
14.68130284206476
 30
0.0
 10
173.963318820654
 20
14.59229012874346
 30
0.0
  0
SPLINE
  5
1C8
330
1F
100
AcDbEntity
  8
PIEZA
370
     0
100
AcDbSpline
210
0.0
220
0.0
230
1.0
 70
     8
 71
     3
 72
     8
 73
     4
 74
     0
 42
0.000000001
 43
0.00000001
 40
14.0
 40
14.0
 40
14.0
 40
14.0
 40
15.0
 40
15.0
 40
15.0
 40
15.0
 10
173.963318820654
 20
14.59229012874346
 30
0.0
 10
174.1860120929148
 20
14.45860956980406
 30
0.0
 10
174.4528564461299
 20
14.41423240430937
 30
0.0
 10
174.8536397406164
 20
14.41423240430937
 30
0.0
  0
SPLINE
  5
1C9
330
1F
100
AcDbEntity
  8
PIEZA
370
     0
100
AcDbSpline
210
0.0
220
0.0
230
1.0
 70
     8
 71
     3
 72
     8
 73
     4
 74
     0
 42
0.000000001
 43
0.00000001
 40
15.0
 40
15.0
 40
15.0
 40
15.0
 40
16.0
 40
16.0
 40
16.0
 40
16.0
 10
174.8536397406164
 20
14.41423240430937
 30
0.0
 10
175.1203872004569
 20
14.41423240430937
 30
0.0
 10
175.3431450683007
 20
14.36953226089975
 30
0.0
 10
175.6099248259329
 20
14.36953226089975
 30
0.0
  0
SPLINE
  5
1CA
330
1F
100
AcDbEntity
  8
PIEZA
370
     0
100
AcDbSpline
210
0.0
220
0.0
230
1.0
 70
     8
 71
     3
 72
     8
 73
     4
 74
     0
 42
0.000000001
 43
0.00000001
 40
19.0
 40
19.0
 40
19.0
 40
19.0
 40
20.0
 40
20.0
 40
20.0
 40
20.0
 10
177.211895283433
 20
14.41423240429976
 30
0.0
 10
177.7014006111174
 20
14.41423240429976
 30
0.0
 10
178.1912612145082
 20
14.36953226089015
 30
0.0
 10
178.6360986965745
 20
14.36953226089015
 30
0.0
  0
SPLINE
  5
1CB
330
1F
100
AcDbEntity
  8
PIEZA
370
     0
100
AcDbSpline
210
0.0
220
0.0
230
1.0
 70
     8
 71
     3
 72
     8
 73
     4
 74
     0
 42
0.000000001
 43
0.00000001
 40
20.0
 40
20.0
 40
20.0
 40
20.0
 40
21.0
 40
21.0
 40
21.0
 40
21.0
 10
178.6360986965745
 20
14.36953226089015
 30
0.0
 10
179.3036940464845
 20
14.32521969097835
 30
0.0
 10
179.7931993741689
 20
14.14716196654425
 30
0.0
 10
180.1046792752105
 20
13.87999463541426
 30
0.0
  0
SPLINE
  5
1CC
330
1F
100
AcDbEntity
  8
PIEZA
370
     0
100
AcDbSpline
210
0.0
220
0.0
230
1.0
 70
     8
 71
     3
 72
     8
 73
     4
 74
     0
 42
0.000000001
 43
0.00000001
 40
21.0
 40
21.0
 40
21.0
 40
21.0
 40
22.0
 40
22.0
 40
22.0
 40
22.0
 10
180.1046792752105
 20
13.87999463541426
 30
0.0
 10
180.4608270218703
 20
13.61324717557364
 30
0.0
 10
180.5942169006866
 20
13.16808671559244
 30
0.0
 10
180.5942169006866
 20
12.63417192462186
 30
0.0
  0
SPLINE
  5
1CD
330
1F
100
AcDbEntity
  8
PIEZA
370
     0
100
AcDbSpline
210
0.0
220
0.0
230
1.0
 70
     8
 71
     3
 72
     8
 73
     4
 74
     0
 42
0.000000001
 43
0.00000001
 40
22.0
 40
22.0
 40
22.0
 40
22.0
 40
23.0
 40
23.0
 40
23.0
 40
23.0
 10
180.5942169006866
 20
12.63417192462186
 30
0.0
 10
180.5942169006866
 20
12.27808877354506
 30
0.0
 10
180.5052041873652
 20
11.96657657471184
 30
0.0
 10
180.3717497129659
 20
11.69950613695634
 30
0.0
  0
SPLINE
  5
1CE
330
1F
100
AcDbEntity
  8
PIEZA
370
     0
100
AcDbSpline
210
0.0
220
0.0
230
1.0
 70
     8
 71
     3
 72
     8
 73
     4
 74
     0
 42
0.000000001
 43
0.00000001
 40
23.0
 40
23.0
 40
23.0
 40
23.0
 40
24.0
 40
24.0
 40
24.0
 40
24.0
 10
180.3717497129659
 20
11.69950613695634
 30
0.0
 10
180.23835983415
 20
11.38802623591466
 30
0.0
 10
179.9712893963944
 20
11.20996851148056
 30
0.0
 10
179.5707644842399
 20
11.03191078704635
 30
0.0
  0
SPLINE
  5
1CF
330
1F
100
AcDbEntity
  8
PIEZA
370
     0
100
AcDbSpline
210
0.0
220
0.0
230
1.0
 70
     8
 71
     3
 72
     8
 73
     4
 74
     0
 42
0.000000001
 43
0.00000001
 40
24.0
 40
24.0
 40
24.0
 40
24.0
 40
25.0
 40
25.0
 40
25.0
 40
25.0
 10
179.5707644842399
 20
11.03191078704635
 30
0.0
 10
179.2146813331632
 20
10.89852090823033
 30
0.0
 10
178.8141564210087
 20
10.85401455156964
 30
0.0
 10
178.3246187955328
 20
10.80950819490895
 30
0.0
  0
SPLINE
  5
1D0
330
1F
100
AcDbEntity
  8
PIEZA
370
     0
100
AcDbSpline
210
0.0
220
0.0
230
1.0
 70
     8
 71
     3
 72
     8
 73
     4
 74
     0
 42
0.000000001
 43
0.00000001
 40
25.0
 40
25.0
 40
25.0
 40
25.0
 40
26.0
 40
26.0
 40
26.0
 40
26.0
 10
178.3246187955328
 20
10.80950819490895
 30
0.0
 10
177.8794906333433
 20
10.76500183824835
 30
0.0
 10
177.4346531512769
 20
10.76500183824835
 30
0.0
 10
176.9894926912957
 20
10.76500183824835
 30
0.0
  0
SPLINE
  5
1D1
330
1F
100
AcDbEntity
  8
PIEZA
370
     0
100
AcDbSpline
210
0.0
220
0.0
230
1.0
 70
     8
 71
     3
 72
     8
 73
     4
 74
     0
 42
0.000000001
 43
0.00000001
 40
29.0
 40
29.0
 40
29.0
 40
29.0
 40
30.0
 40
30.0
 40
30.0
 40
30.0
 10
176.4555779003959
 20
10.76500183824835
 30
0.0
 10
175.7433793004509
 20
10.76500183824835
 30
0.0
 10
175.076074630664
 20
10.80950819490895
 30
0.0
 10
174.3641021152596
 20
10.85401455156964
 30
0.0
  0
SPLINE
  5
1D2
330
1F
100
AcDbEntity
  8
PIEZA
370
     0
100
AcDbSpline
210
0.0
220
0.0
230
1.0
 70
     8
 71
     3
 72
     8
 73
     4
 74
     0
 42
0.000000001
 43
0.00000001
 40
30.0
 40
30.0
 40
30.0
 40
30.0
 40
31.0
 40
31.0
 40
31.0
 40
31.0
 10
174.3641021152596
 20
10.85401455156964
 30
0.0
 10
173.6518712175228
 20
10.94289807372508
 30
0.0
 10
173.1179564265522
 20
11.07644944149857
 30
0.0
 10
172.8508859887967
 20
11.43240340140944
 30
0.0
  0
SPLINE
  5
1D3
330
1F
100
AcDbEntity
  8
PIEZA
370
     0
100
AcDbSpline
210
0.0
220
0.0
230
1.0
 70
     8
 71
     3
 72
     8
 73
     4
 74
     0
 42
0.000000001
 43
0.00000001
 40
31.0
 40
31.0
 40
31.0
 40
31.0
 40
32.0
 40
32.0
 40
32.0
 40
32.0
 10
172.8508859887967
 20
11.43240340140944
 30
0.0
 10
172.5837509554582
 20
11.69950613695634
 30
0.0
 10
172.4503610766422
 20
12.18901146464075
 30
0.0
 10
172.4947382421368
 20
12.76756180343794
 30
0.0
  0
SPLINE
  5
1D4
330
1F
100
AcDbEntity
  8
PIEZA
370
     0
100
AcDbSpline
210
0.0
220
0.0
230
1.0
 70
     8
 71
     3
 72
     8
 73
     4
 74
     0
 42
0.000000001
 43
0.00000001
 40
37.0
 40
37.0
 40
37.0
 40
37.0
 40
38.0
 40
38.0
 40
38.0
 40
38.0
 10
173.6518712175367
 20
12.67854909003794
 30
0.0
 10
173.6518712175367
 20
12.45611420010906
 30
0.0
 10
173.6965067653634
 20
12.27808877346636
 30
0.0
 10
173.7408839308581
 20
12.14434361894394
 30
0.0
  0
SPLINE
  5
1D5
330
1F
100
AcDbEntity
  8
PIEZA
370
     0
100
AcDbSpline
210
0.0
220
0.0
230
1.0
 70
     8
 71
     3
 72
     8
 73
     4
 74
     0
 42
0.000000001
 43
0.00000001
 40
38.0
 40
38.0
 40
38.0
 40
38.0
 40
39.0
 40
39.0
 40
39.0
 40
39.0
 10
173.7408839308581
 20
12.14434361894394
 30
0.0
 10
173.7408839308581
 20
12.09999875124075
 30
0.0
 10
173.7852610963528
 20
12.05546009678856
 30
0.0
 10
173.8745644897975
 20
11.96657657463314
 30
0.0
  0
SPLINE
  5
1D6
330
1F
100
AcDbEntity
  8
PIEZA
370
     0
100
AcDbSpline
210
0.0
220
0.0
230
1.0
 70
     8
 71
     3
 72
     8
 73
     4
 74
     0
 42
0.000000001
 43
0.00000001
 40
39.0
 40
39.0
 40
39.0
 40
39.0
 40
40.0
 40
40.0
 40
40.0
 40
40.0
 10
173.8745644897975
 20
11.96657657463314
 30
0.0
 10
173.9189416552923
 20
11.92194102680654
 30
0.0
 10
174.0079543686137
 20
11.87756386131188
 30
0.0
 10
174.1414088430126
 20
11.87756386131188
 30
0.0
  0
SPLINE
  5
1D7
330
1F
100
AcDbEntity
  8
PIEZA
370
     0
100
AcDbSpline
210
0.0
220
0.0
230
1.0
 70
     8
 71
     3
 72
     8
 73
     4
 74
     0
 42
0.000000001
 43
0.00000001
 40
40.0
 40
40.0
 40
40.0
 40
40.0
 40
41.0
 40
41.0
 40
41.0
 40
41.0
 10
174.1414088430126
 20
11.87756386131188
 30
0.0
 10
174.4528564462629
 20
11.78855114799044
 30
0.0
 10
174.8536397407494
 20
11.74401249353836
 30
0.0
 10
175.2984772228157
 20
11.74401249353836
 30
0.0
  0
SPLINE
  5
1D8
330
1F
100
AcDbEntity
  8
PIEZA
370
     0
100
AcDbSpline
210
0.0
220
0.0
230
1.0
 70
     8
 71
     3
 72
     8
 73
     4
 74
     0
 42
0.000000001
 43
0.00000001
 40
41.0
 40
41.0
 40
41.0
 40
41.0
 40
42.0
 40
42.0
 40
42.0
 40
42.0
 10
175.2984772228157
 20
11.74401249353836
 30
0.0
 10
175.7433793004649
 20
11.69950613687764
 30
0.0
 10
176.1441302971597
 20
11.69950613687764
 30
0.0
 10
176.4999550659048
 20
11.69950613687764
 30
0.0
  0
SPLINE
  5
1D9
330
1F
100
AcDbEntity
  8
PIEZA
370
     0
100
AcDbSpline
210
0.0
220
0.0
230
1.0
 70
     8
 71
     3
 72
     8
 73
     4
 74
     0
 42
0.000000001
 43
0.00000001
 40
42.0
 40
42.0
 40
42.0
 40
42.0
 40
43.0
 40
43.0
 40
43.0
 40
43.0
 10
176.4999550659048
 20
11.69950613687764
 30
0.0
 10
177.12317325032
 20
11.69950613687764
 30
0.0
 10
177.7908008980215
 20
11.74401249353836
 30
0.0
 10
178.4136961045219
 20
11.78855114799044
 30
0.0
  0
SPLINE
  5
1DA
330
1F
100
AcDbEntity
  8
PIEZA
370
     0
100
AcDbSpline
210
0.0
220
0.0
230
1.0
 70
     8
 71
     3
 72
     8
 73
     4
 74
     0
 42
0.000000001
 43
0.00000001
 40
43.0
 40
43.0
 40
43.0
 40
43.0
 40
44.0
 40
44.0
 40
44.0
 40
44.0
 10
178.4136961045219
 20
11.78855114799044
 30
0.0
 10
178.7697792555987
 20
11.83305750465113
 30
0.0
 10
179.0366236088139
 20
11.92194102680654
 30
0.0
 10
179.1703041677534
 20
12.05546009678856
 30
0.0
  0
SPLINE
  5
1DB
330
1F
100
AcDbEntity
  8
PIEZA
370
     0
100
AcDbSpline
210
0.0
220
0.0
230
1.0
 70
     8
 71
     3
 72
     8
 73
     4
 74
     0
 42
0.000000001
 43
0.00000001
 40
44.0
 40
44.0
 40
44.0
 40
44.0
 40
45.0
 40
45.0
 40
45.0
 40
45.0
 10
179.1703041677534
 20
12.05546009678856
 30
0.0
 10
179.3036940465694
 20
12.14434361894394
 30
0.0
 10
179.3927713554738
 20
12.32240134337815
 30
0.0
 10
179.3927713554738
 20
12.63417192454316
 30
0.0
  0
SPLINE
  5
1DC
330
1F
100
AcDbEntity
  8
PIEZA
370
     0
100
AcDbSpline
210
0.0
220
0.0
230
1.0
 70
     8
 71
     3
 72
     8
 73
     4
 74
     0
 42
0.000000001
 43
0.00000001
 40
45.0
 40
45.0
 40
45.0
 40
45.0
 40
46.0
 40
46.0
 40
46.0
 40
46.0
 10
179.3927713554738
 20
12.63417192454316
 30
0.0
 10
179.3927713554738
 20
12.81193896885396
 30
0.0
 10
179.3480712120644
 20
12.98999669328814
 30
0.0
 10
179.3036940465694
 20
13.07900940660946
 30
0.0
  0
SPLINE
  5
1DD
330
1F
100
AcDbEntity
  8
PIEZA
370
     0
100
AcDbSpline
210
0.0
220
0.0
230
1.0
 70
     8
 71
     3
 72
     8
 73
     4
 74
     0
 42
0.000000001
 43
0.00000001
 40
46.0
 40
46.0
 40
46.0
 40
46.0
 40
47.0
 40
47.0
 40
47.0
 40
47.0
 10
179.3036940465694
 20
13.07900940660946
 30
0.0
 10
179.2593168810746
 20
13.16808671551374
 30
0.0
 10
179.2146813332481
 20
13.25709942883515
 30
0.0
 10
179.0812268588493
 20
13.30147659432988
 30
0.0
  0
SPLINE
  5
1DE
330
1F
100
AcDbEntity
  8
PIEZA
370
     0
100
AcDbSpline
210
0.0
220
0.0
230
1.0
 70
     8
 71
     3
 72
     8
 73
     4
 74
     0
 42
0.000000001
 43
0.00000001
 40
47.0
 40
47.0
 40
47.0
 40
47.0
 40
48.0
 40
48.0
 40
48.0
 40
48.0
 10
179.0812268588493
 20
13.30147659432988
 30
0.0
 10
178.992246443319
 20
13.34614443994796
 30
0.0
 10
178.8585335865882
 20
13.34614443994796
 30
0.0
 10
178.6807665422773
 20
13.39055390323415
 30
0.0
  0
SPLINE
  5
1DF
330
1F
100
AcDbEntity
  8
PIEZA
370
     0
100
AcDbSpline
210
0.0
220
0.0
230
1.0
 70
    24
 71
     3
 72
     8
 73
     4
 74
     0
 42
0.000000001
 43
0.00000001
 40
48.0
 40
48.0
 40
48.0
 40
48.0
 40
49.0
 40
49.0
 40
49.0
 40
49.0
 10
178.6807665422773
 20
13.39055390323415
 30
0.0
 10
178.5027088178434
 20
13.39055390323415
 30
0.0
 10
178.280241630123
 20
13.39055390323415
 30
0.0
 10
178.0575483578622
 20
13.39055390323415
 30
0.0
  0
SPLINE
  5
1E0
330
1F
100
AcDbEntity
  8
PIEZA
370
     0
100
AcDbSpline
210
0.0
220
0.0
230
1.0
 70
     8
 71
     3
 72
     8
 73
     4
 74
     0
 42
0.000000001
 43
0.00000001
 40
52.0
 40
52.0
 40
52.0
 40
52.0
 40
53.0
 40
53.0
 40
53.0
 40
53.0
 10
176.4999550658622
 20
13.43515715333417
 30
0.0
 10
175.8770598593617
 20
13.43515715333417
 30
0.0
 10
175.2538416749463
 20
13.43515715333417
 30
0.0
 10
174.6309141706544
 20
13.479534318829
 30
0.0
  0
SPLINE
  5
1E1
330
1F
100
AcDbEntity
  8
PIEZA
370
     0
100
AcDbSpline
210
0.0
220
0.0
230
1.0
 70
     8
 71
     3
 72
     8
 73
     4
 74
     0
 42
0.000000001
 43
0.00000001
 40
53.0
 40
53.0
 40
53.0
 40
53.0
 40
54.0
 40
54.0
 40
54.0
 40
54.0
 10
174.6309141706544
 20
13.479534318829
 30
0.0
 10
174.3194019718212
 20
13.479534318829
 30
0.0
 10
174.0523315340657
 20
13.5242344622385
 30
0.0
 10
173.7852610963101
 20
13.5685470321503
 30
0.0
  0
SPLINE
  5
1E2
330
1F
100
AcDbEntity
  8
PIEZA
370
     0
100
AcDbSpline
210
0.0
220
0.0
230
1.0
 70
     8
 71
     3
 72
     8
 73
     4
 74
     0
 42
0.000000001
 43
0.00000001
 40
54.0
 40
54.0
 40
54.0
 40
54.0
 40
55.0
 40
55.0
 40
55.0
 40
55.0
 10
173.7852610963101
 20
13.5685470321503
 30
0.0
 10
173.5627939085897
 20
13.61324717555988
 30
0.0
 10
173.3404236142439
 20
13.70222759108967
 30
0.0
 10
173.1179564265235
 20
13.79098192207918
 30
0.0
  0
SPLINE
  5
1E3
330
1F
100
AcDbEntity
  8
PIEZA
370
     0
100
AcDbSpline
210
0.0
220
0.0
230
1.0
 70
     8
 71
     3
 72
     8
 73
     4
 74
     0
 42
0.000000001
 43
0.00000001
 40
55.0
 40
55.0
 40
55.0
 40
55.0
 40
56.0
 40
56.0
 40
56.0
 40
56.0
 10
173.1179564265235
 20
13.79098192207918
 30
0.0
 10
172.672828264334
 20
14.01377208771439
 30
0.0
 10
172.4503610766135
 20
14.4586095697807
 30
0.0
 10
172.4503610766135
 20
14.99275044529168
 30
0.0
  0
SPLINE
  5
1E4
330
1F
100
AcDbEntity
  8
PIEZA
370
     0
100
AcDbSpline
210
0.0
220
0.0
230
1.0
 70
     8
 71
     3
 72
     8
 73
     4
 74
     0
 42
0.000000001
 43
0.00000001
 40
56.0
 40
56.0
 40
56.0
 40
56.0
 40
57.0
 40
57.0
 40
57.0
 40
57.0
 10
172.4503610766135
 20
14.99275044529169
 30
0.0
 10
172.4503610766135
 20
15.39327535744619
 30
0.0
 10
172.539438385518
 20
15.74910012619109
 30
0.0
 10
172.7174638121605
 20
16.06087070735618
 30
0.0
  0
SPLINE
  5
1E5
330
1F
100
AcDbEntity
  8
PIEZA
370
     0
100
AcDbSpline
210
0.0
220
0.0
230
1.0
 70
     8
 71
     3
 72
     8
 73
     4
 74
     0
 42
0.000000001
 43
0.00000001
 40
57.0
 40
57.0
 40
57.0
 40
57.0
 40
58.0
 40
58.0
 40
58.0
 40
58.0
 10
172.7174638121605
 20
16.06087070735618
 30
0.0
 10
172.8951985586799
 20
16.37235060839789
 30
0.0
 10
173.2069691398449
 20
16.59472090274381
 30
0.0
 10
173.6518712174941
 20
16.7281753771429
 30
0.0
  0
SPLINE
  5
1E6
330
1F
100
AcDbEntity
  8
PIEZA
370
     0
100
AcDbSpline
210
0.0
220
0.0
230
1.0
 70
     8
 71
     3
 72
     8
 73
     4
 74
     0
 42
0.000000001
 43
0.00000001
 40
58.0
 40
58.0
 40
58.0
 40
58.0
 40
59.0
 40
59.0
 40
59.0
 40
59.0
 10
173.6518712174941
 20
16.7281753771429
 30
0.0
 10
174.0523315340657
 20
16.8618559360823
 30
0.0
 10
174.5418691595416
 20
16.9061685059941
 30
0.0
 10
175.0760746306354
 20
16.9508686494036
 30
0.0
  0
SPLINE
  5
1E7
330
1F
100
AcDbEntity
  8
PIEZA
370
     0
100
AcDbSpline
210
0.0
220
0.0
230
1.0
 70
     8
 71
     3
 72
     8
 73
     4
 74
     0
 42
0.000000001
 43
0.00000001
 40
59.0
 40
59.0
 40
59.0
 40
59.0
 40
60.0
 40
60.0
 40
60.0
 40
60.0
 10
175.0760746306354
 20
16.9508686494036
 30
0.0
 10
175.6099248260233
 20
16.9508686494036
 30
0.0
 10
176.0994301537077
 20
16.9952458148984
 30
0.0
 10
176.5445906136886
 20
16.9952458148984
 30
0.0
  0
SPLINE
  5
1E8
330
1F
100
AcDbEntity
  8
PIEZA
370
     0
100
AcDbSpline
210
0.0
220
0.0
230
1.0
 70
     8
 71
     3
 72
     8
 73
     4
 74
     0
 42
0.000000001
 43
0.00000001
 40
60.0
 40
60.0
 40
60.0
 40
60.0
 40
61.0
 40
61.0
 40
61.0
 40
61.0
 10
176.5445906136886
 20
16.9952458148984
 30
0.0
 10
177.2118952834752
 20
16.9952458148984
 30
0.0
 10
177.8794906333856
 20
16.9508686494036
 30
0.0
 10
178.5470859832955
 20
16.9061685059941
 30
0.0
  0
SPLINE
  5
1E9
330
1F
100
AcDbEntity
  8
PIEZA
370
     0
100
AcDbSpline
210
0.0
220
0.0
230
1.0
 70
     8
 71
     3
 72
     8
 73
     4
 74
     0
 42
0.000000001
 43
0.00000001
 40
61.0
 40
61.0
 40
61.0
 40
61.0
 40
62.0
 40
62.0
 40
62.0
 40
62.0
 10
178.5470859832955
 20
16.9061685059941
 30
0.0
 10
179.7488222087164
 20
16.81747877058758
 30
0.0
 10
180.4164498564179
 20
16.23863775166701
 30
0.0
 10
180.4164498564179
 20
15.17080816972581
 30
0.0
  0
SPLINE
  5
1EA
330
1F
100
AcDbEntity
  8
PIEZA
370
     0
100
AcDbSpline
210
0.0
220
0.0
230
1.0
 70
     8
 71
     3
 72
     8
 73
     4
 74
     0
 42
0.000000001
 43
0.00000001
 40
1.0
 40
1.0
 40
1.0
 40
1.0
 40
2.0
 40
2.0
 40
2.0
 40
2.0
 10
196.3926493058235
 20
13.07900940667214
 30
0.0
 10
196.3482721403291
 20
13.16808671557633
 30
0.0
 10
196.2591948314246
 20
13.16808671557633
 30
0.0
 10
196.1701821181032
 20
13.21278685898594
 30
0.0
  0
SPLINE
  5
1EB
330
1F
100
AcDbEntity
  8
PIEZA
370
     0
100
AcDbSpline
210
0.0
220
0.0
230
1.0
 70
     8
 71
     3
 72
     8
 73
     4
 74
     0
 42
0.000000001
 43
0.00000001
 40
2.0
 40
2.0
 40
2.0
 40
2.0
 40
3.0
 40
3.0
 40
3.0
 40
3.0
 10
196.1701821181032
 20
13.21278685898594
 30
0.0
 10
195.992124393669
 20
13.25709942889774
 30
0.0
 10
195.6806767904189
 20
13.30147659439255
 30
0.0
 10
195.1464713193246
 20
13.30147659439255
 30
0.0
  0
SPLINE
  5
1EC
330
1F
100
AcDbEntity
  8
PIEZA
370
     0
100
AcDbSpline
210
0.0
220
0.0
230
1.0
 70
     8
 71
     3
 72
     8
 73
     4
 74
     0
 42
0.000000001
 43
0.00000001
 40
4.0
 40
4.0
 40
4.0
 40
4.0
 40
5.0
 40
5.0
 40
5.0
 40
5.0
 10
194.2120962118247
 20
13.30147659439255
 30
0.0
 10
193.6779553363137
 20
13.30147659439255
 30
0.0
 10
193.3220982697772
 20
13.25709942889774
 30
0.0
 10
193.1440405453431
 20
13.16808671557633
 30
0.0
  0
SPLINE
  5
1ED
330
1F
100
AcDbEntity
  8
PIEZA
370
     0
100
AcDbSpline
210
0.0
220
0.0
230
1.0
 70
     8
 71
     3
 72
     8
 73
     4
 74
     0
 42
0.000000001
 43
0.00000001
 40
5.0
 40
5.0
 40
5.0
 40
5.0
 40
6.0
 40
6.0
 40
6.0
 40
6.0
 10
193.1440405453431
 20
13.16808671557633
 30
0.0
 10
193.0106183687356
 20
13.07900940667214
 30
0.0
 10
192.9212826774992
 20
12.90098398002946
 30
0.0
 10
192.9212826774992
 20
12.63417192460583
 30
0.0
  0
SPLINE
  5
1EE
330
1F
100
AcDbEntity
  8
PIEZA
370
     0
100
AcDbSpline
210
0.0
220
0.0
230
1.0
 70
     8
 71
     3
 72
     8
 73
     4
 74
     0
 42
0.000000001
 43
0.00000001
 40
7.0
 40
7.0
 40
7.0
 40
7.0
 40
8.0
 40
8.0
 40
8.0
 40
8.0
 10
192.9212826774992
 20
12.18901146470584
 30
0.0
 10
192.9212826774992
 20
11.96657657477693
 30
0.0
 10
193.0106183687356
 20
11.78855114813434
 30
0.0
 10
193.1883854130463
 20
11.69950613702154
 30
0.0
  0
SPLINE
  5
1EF
330
1F
100
AcDbEntity
  8
PIEZA
370
     0
100
AcDbSpline
210
0.0
220
0.0
230
1.0
 70
     8
 71
     3
 72
     8
 73
     4
 74
     0
 42
0.000000001
 43
0.00000001
 40
8.0
 40
8.0
 40
8.0
 40
8.0
 40
9.0
 40
9.0
 40
9.0
 40
9.0
 10
193.1883854130463
 20
11.69950613702154
 30
0.0
 10
193.3664754352719
 20
11.61049342370016
 30
0.0
 10
193.7225585863488
 20
11.56598706703952
 30
0.0
 10
194.2120962118247
 20
11.56598706703952
 30
0.0
  0
SPLINE
  5
1F0
330
1F
100
AcDbEntity
  8
PIEZA
370
     0
100
AcDbSpline
210
0.0
220
0.0
230
1.0
 70
     8
 71
     3
 72
     8
 73
     4
 74
     0
 42
0.000000001
 43
0.00000001
 40
10.0
 40
10.0
 40
10.0
 40
10.0
 40
11.0
 40
11.0
 40
11.0
 40
11.0
 10
195.1464713193246
 20
11.56598706703952
 30
0.0
 10
195.6362996249239
 20
11.56598706703952
 30
0.0
 10
195.9477472281742
 20
11.61049342370016
 30
0.0
 10
196.1258049526084
 20
11.65499978036085
 30
0.0
  0
SPLINE
  5
1F1
330
1F
100
AcDbEntity
  8
PIEZA
370
     0
100
AcDbSpline
210
0.0
220
0.0
230
1.0
 70
     8
 71
     3
 72
    11
 73
     7
 74
     0
 42
0.000000001
 43
0.00000001
 40
11.0
 40
11.0
 40
11.0
 40
11.0
 40
12.0
 40
12.0
 40
12.0
 40
13.0
 40
13.0
 40
13.0
 40
13.0
 10
196.1258049526084
 20
11.65499978036085
 30
0.0
 10
196.3035719969191
 20
11.69950613702154
 30
0.0
 10
196.3926493058235
 20
11.78855114813434
 30
0.0
 10
196.3926493058235
 20
11.92194102695033
 30
0.0
 10
196.3926493058235
 20
11.96657657477693
 30
0.0
 10
196.3926493058235
 20
12.05546009693243
 30
0.0
 10
196.3926493058235
 20
12.09999875138454
 30
0.0
  0
SPLINE
  5
1F2
330
1F
100
AcDbEntity
  8
PIEZA
370
     0
100
AcDbSpline
210
0.0
220
0.0
230
1.0
 70
     8
 71
     3
 72
     8
 73
     4
 74
     0
 42
0.000000001
 43
0.00000001
 40
18.0
 40
18.0
 40
18.0
 40
18.0
 40
19.0
 40
19.0
 40
19.0
 40
19.0
 10
198.083923156768
 20
11.61049342356115
 30
0.0
 10
198.083923156768
 20
11.29904582031092
 30
0.0
 10
197.8611652889242
 20
11.07644944142465
 30
0.0
 10
197.5050821378472
 20
10.98756591926924
 30
0.0
  0
SPLINE
  5
1F3
330
1F
100
AcDbEntity
  8
PIEZA
370
     0
100
AcDbSpline
210
0.0
220
0.0
230
1.0
 70
     8
 71
     3
 72
     8
 73
     4
 74
     0
 42
0.000000001
 43
0.00000001
 40
19.0
 40
19.0
 40
19.0
 40
19.0
 40
20.0
 40
20.0
 40
20.0
 40
20.0
 10
197.5050821378472
 20
10.98756591926924
 30
0.0
 10
197.1492573691023
 20
10.85401455149572
 30
0.0
 10
196.4816620191923
 20
10.76500183817442
 30
0.0
 10
195.5916640771447
 20
10.76500183817442
 30
0.0
  0
SPLINE
  5
1F4
330
1F
100
AcDbEntity
  8
PIEZA
370
     0
100
AcDbSpline
210
0.0
220
0.0
230
1.0
 70
     8
 71
     3
 72
     8
 73
     4
 74
     0
 42
0.000000001
 43
0.00000001
 40
21.0
 40
21.0
 40
21.0
 40
21.0
 40
22.0
 40
22.0
 40
22.0
 40
22.0
 10
193.7669357518448
 20
10.76500183817442
 30
0.0
 10
193.2330209608743
 20
10.76500183817442
 30
0.0
 10
192.7878927986847
 20
10.80950819483503
 30
0.0
 10
192.5654902065472
 20
10.80950819483503
 30
0.0
  0
SPLINE
  5
1F5
330
1F
100
AcDbEntity
  8
PIEZA
370
     0
100
AcDbSpline
210
0.0
220
0.0
230
1.0
 70
     8
 71
     3
 72
     8
 73
     4
 74
     0
 42
0.000000001
 43
0.00000001
 40
22.0
 40
22.0
 40
22.0
 40
22.0
 40
23.0
 40
23.0
 40
23.0
 40
23.0
 10
192.5654902065472
 20
10.80950819483503
 30
0.0
 10
192.2983551732088
 20
10.85401455149572
 30
0.0
 10
192.0759848788631
 20
10.94289807365116
 30
0.0
 10
191.8535176911425
 20
11.03191078697251
 30
0.0
  0
SPLINE
  5
1F6
330
1F
100
AcDbEntity
  8
PIEZA
370
     0
100
AcDbSpline
210
0.0
220
0.0
230
1.0
 70
     8
 71
     3
 72
     8
 73
     4
 74
     0
 42
0.000000001
 43
0.00000001
 40
23.0
 40
23.0
 40
23.0
 40
23.0
 40
24.0
 40
24.0
 40
24.0
 40
24.0
 10
191.8535176911425
 20
11.03191078697251
 30
0.0
 10
191.6754276689168
 20
11.12095579808534
 30
0.0
 10
191.4973699444826
 20
11.25447486806724
 30
0.0
 10
191.4083572311613
 20
11.38802623584082
 30
0.0
  0
SPLINE
  5
1F7
330
1F
100
AcDbEntity
  8
PIEZA
370
     0
100
AcDbSpline
210
0.0
220
0.0
230
1.0
 70
     8
 71
     3
 72
     8
 73
     4
 74
     0
 42
0.000000001
 43
0.00000001
 40
24.0
 40
24.0
 40
24.0
 40
24.0
 40
25.0
 40
25.0
 40
25.0
 40
25.0
 10
191.4083572311613
 20
11.38802623584082
 30
0.0
 10
191.3193768156316
 20
11.56598706690051
 30
0.0
 10
191.2749996501368
 20
11.74401249354313
 30
0.0
 10
191.2749996501368
 20
11.96657657463792
 30
0.0
  0
SPLINE
  5
1F8
330
1F
100
AcDbEntity
  8
PIEZA
370
     0
100
AcDbSpline
210
0.0
220
0.0
230
1.0
 70
     8
 71
     3
 72
     8
 73
     4
 74
     0
 42
0.000000001
 43
0.00000001
 40
26.0
 40
26.0
 40
26.0
 40
26.0
 40
27.0
 40
27.0
 40
27.0
 40
27.0
 10
191.2749996501368
 20
12.85663911233792
 30
0.0
 10
191.2749996501368
 20
13.30147659440434
 30
0.0
 10
191.4527666944476
 20
13.65759204327254
 30
0.0
 10
191.8088175477329
 20
13.83568206549825
 30
0.0
  0
SPLINE
  5
1F9
330
1F
100
AcDbEntity
  8
PIEZA
370
     0
100
AcDbSpline
210
0.0
220
0.0
230
1.0
 70
     8
 71
     3
 72
     8
 73
     4
 74
     0
 42
0.000000001
 43
0.00000001
 40
27.0
 40
27.0
 40
27.0
 40
27.0
 40
28.0
 40
28.0
 40
28.0
 40
28.0
 10
191.8088175477329
 20
13.83568206549825
 30
0.0
 10
192.1649652943927
 20
14.01377208772383
 30
0.0
 10
192.8325606443027
 20
14.10275250325362
 30
0.0
 10
193.7669357518448
 20
14.10275250325362
 30
0.0
  0
SPLINE
  5
1FA
330
1F
100
AcDbEntity
  8
PIEZA
370
     0
100
AcDbSpline
210
0.0
220
0.0
230
1.0
 70
     8
 71
     3
 72
     8
 73
     4
 74
     0
 42
0.000000001
 43
0.00000001
 40
29.0
 40
29.0
 40
29.0
 40
29.0
 40
30.0
 40
30.0
 40
30.0
 40
30.0
 10
195.5916640771447
 20
14.10275250325362
 30
0.0
 10
196.1701821181507
 20
14.10275250325362
 30
0.0
 10
196.5706747325137
 20
14.10275250325362
 30
0.0
 10
196.8821869313468
 20
14.05808465763563
 30
0.0
  0
SPLINE
  5
1FB
330
1F
100
AcDbEntity
  8
PIEZA
370
     0
100
AcDbSpline
210
0.0
220
0.0
230
1.0
 70
     8
 71
     3
 72
     8
 73
     4
 74
     0
 42
0.000000001
 43
0.00000001
 40
30.0
 40
30.0
 40
30.0
 40
30.0
 40
31.0
 40
31.0
 40
31.0
 40
31.0
 10
196.8821869313468
 20
14.05808465763563
 30
0.0
 10
197.1492573691023
 20
14.01377208772383
 30
0.0
 10
197.3716599612397
 20
13.96907194431424
 30
0.0
 10
197.549717685674
 20
13.87999463541002
 30
0.0
  0
SPLINE
  5
1FC
330
1F
100
AcDbEntity
  8
PIEZA
370
     0
100
AcDbSpline
210
0.0
220
0.0
230
1.0
 70
     8
 71
     3
 72
     8
 73
     4
 74
     0
 42
0.000000001
 43
0.00000001
 40
31.0
 40
31.0
 40
31.0
 40
31.0
 40
32.0
 40
32.0
 40
32.0
 40
32.0
 10
197.549717685674
 20
13.87999463541002
 30
0.0
 10
197.6831398622815
 20
13.83568206549825
 30
0.0
 10
197.8168527190124
 20
13.70222759109911
 30
0.0
 10
197.9058654323336
 20
13.56854703215973
 30
0.0
  0
SPLINE
  5
1FD
330
1F
100
AcDbEntity
  8
PIEZA
370
     0
100
AcDbSpline
210
0.0
220
0.0
230
1.0
 70
     8
 71
     3
 72
    11
 73
     7
 74
     0
 42
0.000000001
 43
0.00000001
 40
32.0
 40
32.0
 40
32.0
 40
32.0
 40
33.0
 40
33.0
 40
33.0
 40
34.0
 40
34.0
 40
34.0
 40
34.0
 10
197.9058654323336
 20
13.56854703215973
 30
0.0
 10
197.9946197633235
 20
13.4351571533436
 30
0.0
 10
197.9946197633235
 20
13.34614444002234
 30
0.0
 10
197.9946197633235
 20
13.16808671558812
 30
0.0
 10
197.9946197633235
 20
13.12370955009343
 30
0.0
 10
197.9946197633235
 20
13.12370955009343
 30
0.0
 10
197.9946197633235
 20
13.03469683677213
 30
0.0
  0
SPLINE
  5
1FE
330
1F
100
AcDbEntity
  8
PIEZA
370
     0
100
AcDbSpline
210
0.0
220
0.0
230
1.0
 70
     8
 71
     3
 72
    11
 73
     7
 74
     0
 42
0.000000001
 43
0.00000001
 40
2.0
 40
2.0
 40
2.0
 40
2.0
 40
3.0
 40
3.0
 40
3.0
 40
4.0
 40
4.0
 40
4.0
 40
4.0
 10
213.49639695363
 20
17.90368579589708
 30
0.0
 10
213.6529766467293
 20
17.90368579589708
 30
0.0
 10
213.766729468325
 20
17.89054059476435
 30
0.0
 10
213.8376554184171
 20
17.86425019249891
 30
0.0
 10
213.9085813685091
 20
17.83795979023346
 30
0.0
 10
213.965393183724
 20
17.79119258816913
 30
0.0
 10
214.0080262684787
 20
17.72394858630592
 30
0.0
  0
SPLINE
  5
1FF
330
1F
100
AcDbEntity
  8
PIEZA
370
     0
100
AcDbSpline
210
0.0
220
0.0
230
1.0
 70
     8
 71
     3
 72
    11
 73
     7
 74
     0
 42
0.000000001
 43
0.00000001
 40
4.0
 40
4.0
 40
4.0
 40
4.0
 40
5.0
 40
5.0
 40
5.0
 40
6.0
 40
6.0
 40
6.0
 40
6.0
 10
214.0080262684787
 20
17.72394858630592
 30
0.0
 10
214.0506593532335
 20
17.65673688223418
 30
0.0
 10
214.0719758956109
 20
17.57986813850966
 30
0.0
 10
214.0719758956109
 20
17.49334235513236
 30
0.0
 10
214.0719758956109
 20
17.38349756630584
 30
0.0
 10
214.039807295296
 20
17.2928053678275
 30
0.0
 10
213.9754377968745
 20
17.22123346190585
 30
0.0
  0
SPLINE
  5
200
330
1F
100
AcDbEntity
  8
PIEZA
370
     0
100
AcDbSpline
210
0.0
220
0.0
230
1.0
 70
     8
 71
     3
 72
     8
 73
     4
 74
     0
 42
0.000000001
 43
0.00000001
 40
6.0
 40
6.0
 40
6.0
 40
6.0
 40
7.0
 40
7.0
 40
7.0
 40
7.0
 10
213.9754377968745
 20
17.22123346190585
 30
0.0
 10
213.9111005962446
 20
17.14969385377567
 30
0.0
 10
213.8149177732145
 20
17.10457383907687
 30
0.0
 10
213.6868893277842
 20
17.0859380133924
 30
0.0
  0
SPLINE
  5
201
330
1F
100
AcDbEntity
  8
PIEZA
370
     0
100
AcDbSpline
210
0.0
220
0.0
230
1.0
 70
     8
 71
     3
 72
     8
 73
     4
 74
     0
 42
0.000000001
 43
0.00000001
 40
7.0
 40
7.0
 40
7.0
 40
7.0
 40
8.0
 40
8.0
 40
8.0
 40
8.0
 10
213.6868893277842
 20
17.0859380133924
 30
0.0
 10
213.7504836792101
 20
17.04866636202345
 30
0.0
 10
213.8029998881581
 20
17.00771276242568
 30
0.0
 10
213.8444056568366
 20
16.96310951239057
 30
0.0
  0
SPLINE
  5
202
330
1F
100
AcDbEntity
  8
PIEZA
370
     0
100
AcDbSpline
210
0.0
220
0.0
230
1.0
 70
     8
 71
     3
 72
     8
 73
     4
 74
     0
 42
0.000000001
 43
0.00000001
 40
8.0
 40
8.0
 40
8.0
 40
8.0
 40
9.0
 40
9.0
 40
9.0
 40
9.0
 10
213.8444056568366
 20
16.96310951239057
 30
0.0
 10
213.8858437233066
 20
16.91850626235546
 30
0.0
 10
213.9416543069856
 20
16.83927977985284
 30
0.0
 10
214.0118697056649
 20
16.72539776709122
 30
0.0
  0
SPLINE
  5
203
330
1F
100
AcDbEntity
  8
PIEZA
370
     0
100
AcDbSpline
210
0.0
220
0.0
230
1.0
 70
     8
 71
     3
 72
     8
 73
     4
 74
     0
 42
0.000000001
 43
0.00000001
 40
12.0
 40
12.0
 40
12.0
 40
12.0
 40
13.0
 40
13.0
 40
13.0
 40
13.0
 10
213.6252651416387
 20
16.75931044814615
 30
0.0
 10
213.5491069493268
 20
16.87283718520148
 30
0.0
 10
213.4969783138766
 20
16.94437679333166
 30
0.0
 10
213.4689438308713
 20
16.97392927253667
 30
0.0
  0
SPLINE
  5
204
330
1F
100
AcDbEntity
  8
PIEZA
370
     0
100
AcDbSpline
210
0.0
220
0.0
230
1.0
 70
     8
 71
     3
 72
     8
 73
     4
 74
     0
 42
0.000000001
 43
0.00000001
 40
13.0
 40
13.0
 40
13.0
 40
13.0
 40
14.0
 40
14.0
 40
14.0
 40
14.0
 10
213.4689438308713
 20
16.97392927253667
 30
0.0
 10
213.4408770500743
 20
17.0034494539502
 30
0.0
 10
213.4111630819119
 20
17.02370016920872
 30
0.0
 10
213.3797696285925
 20
17.03464912052075
 30
0.0
  0
SPLINE
  5
205
330
1F
100
AcDbEntity
  8
PIEZA
370
     0
100
AcDbSpline
210
0.0
220
0.0
230
1.0
 70
     8
 71
     3
 72
     8
 73
     4
 74
     0
 42
0.000000001
 43
0.00000001
 40
14.0
 40
14.0
 40
14.0
 40
14.0
 40
15.0
 40
15.0
 40
15.0
 40
15.0
 10
213.3797696285925
 20
17.03464912052075
 30
0.0
 10
213.3483438774815
 20
17.04563036962425
 30
0.0
 10
213.2986052786009
 20
17.05108869638452
 30
0.0
 10
213.2304569385763
 20
17.05108869638452
 30
0.0
  0
SPLINE
  5
206
330
1F
100
AcDbEntity
  8
PIEZA
370
     0
100
AcDbSpline
210
0.0
220
0.0
230
1.0
 70
     8
 71
     3
 72
     8
 73
     4
 74
     0
 42
0.000000001
 43
0.00000001
 40
1.0
 40
1.0
 40
1.0
 40
1.0
 40
2.0
 40
2.0
 40
2.0
 40
2.0
 10
213.3889744991645
 20
17.28418185750211
 30
0.0
 10
213.5307295059742
 20
17.28418185750211
 30
0.0
 10
213.6192577524232
 20
17.29018924671755
 30
0.0
 10
213.6545269407204
 20
17.30217172735696
 30
0.0
  0
SPLINE
  5
207
330
1F
100
AcDbEntity
  8
PIEZA
370
     0
100
AcDbSpline
210
0.0
220
0.0
230
1.0
 70
     8
 71
     3
 72
     8
 73
     4
 74
     0
 42
0.000000001
 43
0.00000001
 40
2.0
 40
2.0
 40
2.0
 40
2.0
 40
3.0
 40
3.0
 40
3.0
 40
3.0
 10
213.6545269407204
 20
17.30217172735696
 30
0.0
 10
213.6897961290175
 20
17.31418650578786
 30
0.0
 10
213.7174430385252
 20
17.33485709233562
 30
0.0
 10
213.7374030736604
 20
17.36418348700028
 30
0.0
  0
SPLINE
  5
208
330
1F
100
AcDbEntity
  8
PIEZA
370
     0
100
AcDbSpline
210
0.0
220
0.0
230
1.0
 70
     8
 71
     3
 72
    14
 73
    10
 74
     0
 42
0.000000001
 43
0.00000001
 40
3.0
 40
3.0
 40
3.0
 40
3.0
 40
4.0
 40
4.0
 40
4.0
 40
5.0
 40
5.0
 40
5.0
 40
6.0
 40
6.0
 40
6.0
 40
6.0
 10
213.7374030736604
 20
17.36418348700028
 30
0.0
 10
213.7573631087955
 20
17.3935421794564
 30
0.0
 10
213.7673431263631
 20
17.43023247057869
 30
0.0
 10
213.7673431263631
 20
17.47422206257567
 30
0.0
 10
213.7673431263631
 20
17.52357308795848
 30
0.0
 10
213.7541979252304
 20
17.56339626485441
 30
0.0
 10
213.727907522965
 20
17.59375618884644
 30
0.0
 10
213.7016171206996
 20
17.62411611283849
 30
0.0
 10
213.664506958288
 20
17.64326870318665
 30
0.0
 10
213.6166093335219
 20
17.65127855547392
 30
0.0
  0
SPLINE
  5
209
330
1F
100
AcDbEntity
  8
PIEZA
370
     0
100
AcDbSpline
210
0.0
220
0.0
230
1.0
 70
     8
 71
     3
 72
     8
 73
     4
 74
     0
 42
0.000000001
 43
0.00000001
 40
6.0
 40
6.0
 40
6.0
 40
6.0
 40
7.0
 40
7.0
 40
7.0
 40
7.0
 10
213.6166093335219
 20
17.65127855547392
 30
0.0
 10
213.5926443722431
 20
17.65460522799644
 30
0.0
 10
213.5207494884065
 20
17.65628471315345
 30
0.0
 10
213.4009569798039
 20
17.65628471315345
 30
0.0
  0
SPLINE
  5
20A
330
1F
100
AcDbEntity
  8
1
100
AcDbSpline
210
0.0
220
0.0
230
1.0
 70
     8
 71
     3
 72
     8
 73
     4
 74
     0
 42
0.000000001
 43
0.00000001
 40
0.0
 40
0.0
 40
0.0
 40
0.0
 40
1.0
 40
1.0
 40
1.0
 40
1.0
 10
176.0178020341528
 20
192.5907356281432
 30
0.0
 10
176.3916282123787
 20
191.6525276907613
 30
0.0
 10
176.7654637119801
 20
190.7143004454485
 30
0.0
 10
177.1393157702167
 20
189.7760389016603
 30
0.0
  0
SPLINE
  5
20B
330
1F
100
AcDbEntity
  8
1
100
AcDbSpline
210
0.0
220
0.0
230
1.0
 70
     8
 71
     3
 72
     8
 73
     4
 74
     0
 42
0.000000001
 43
0.00000001
 40
0.0
 40
0.0
 40
0.0
 40
0.0
 40
1.0
 40
1.0
 40
1.0
 40
1.0
 10
176.0178020341528
 20
192.5907356281432
 30
0.0
 10
175.7843952639679
 20
192.4974943402455
 30
0.0
 10
175.5509073447629
 20
192.4044642558045
 30
0.0
 10
175.3173382819401
 20
192.3116453607601
 30
0.0
  0
SPLINE
  5
20C
330
1F
100
AcDbEntity
  8
1
100
AcDbSpline
210
0.0
220
0.0
230
1.0
 70
     8
 71
     3
 72
     8
 73
     4
 74
     0
 42
0.000000001
 43
0.00000001
 40
0.0
 40
0.0
 40
0.0
 40
0.0
 40
1.0
 40
1.0
 40
1.0
 40
1.0
 10
175.3173382819401
 20
192.3116453607601
 30
0.0
 10
175.6911472526148
 20
191.3734305672631
 30
0.0
 10
176.0649627340665
 20
190.4351953459904
 30
0.0
 10
176.4387897810667
 20
189.4969238368148
 30
0.0
  0
SPLINE
  5
20D
330
1F
100
AcDbEntity
  8
1
100
AcDbSpline
210
0.0
220
0.0
230
1.0
 70
     8
 71
     3
 72
     8
 73
     4
 74
     0
 42
0.000000001
 43
0.00000001
 40
0.0
 40
0.0
 40
0.0
 40
0.0
 40
1.0
 40
1.0
 40
1.0
 40
1.0
 10
179.743585501872
 20
193.5405868519763
 30
0.0
 10
179.9069848584815
 20
192.5439521167031
 30
0.0
 10
180.0703891679035
 20
191.5472965210875
 30
0.0
 10
180.2338022756708
 20
190.5506038692587
 30
0.0
  0
SPLINE
  5
20E
330
1F
100
AcDbEntity
  8
1
100
AcDbSpline
210
0.0
220
0.0
230
1.0
 70
     8
 71
     3
 72
     8
 73
     4
 74
     0
 42
0.000000001
 43
0.00000001
 40
0.0
 40
0.0
 40
0.0
 40
0.0
 40
1.0
 40
1.0
 40
1.0
 40
1.0
 10
179.7435855018719
 20
193.5405868519763
 30
0.0
 10
179.4955902719517
 20
193.4997008420421
 30
0.0
 10
179.247562452038
 20
193.4590387523321
 30
0.0
 10
178.9995020452933
 20
193.4186005611162
 30
0.0
  0
SPLINE
  5
20F
330
1F
100
AcDbEntity
  8
1
100
AcDbSpline
210
0.0
220
0.0
230
1.0
 70
     8
 71
     3
 72
     8
 73
     4
 74
     0
 42
0.000000001
 43
0.00000001
 40
0.0
 40
0.0
 40
0.0
 40
0.0
 40
1.0
 40
1.0
 40
1.0
 40
1.0
 10
178.9995020452933
 20
193.4186005611162
 30
0.0
 10
179.1628831227925
 20
192.421962829135
 30
0.0
 10
179.3262661674825
 20
191.4253037473434
 30
0.0
 10
179.4896527064984
 20
190.428606739789
 30
0.0
  0
SPLINE
  5
210
330
1F
100
AcDbEntity
  8
1
100
AcDbSpline
210
0.0
220
0.0
230
1.0
 70
     8
 71
     3
 72
     8
 73
     4
 74
     0
 42
0.000000001
 43
0.00000001
 40
0.0
 40
0.0
 40
0.0
 40
0.0
 40
1.0
 40
1.0
 40
1.0
 40
1.0
 10
183.5864521582938
 20
193.6672977698514
 30
0.0
 10
183.5317843209771
 20
192.6588377692284
 30
0.0
 10
183.4771168363221
 20
191.6503563312578
 30
0.0
 10
183.4224499783214
 20
190.6418368120437
 30
0.0
  0
SPLINE
  5
211
330
1F
100
AcDbEntity
  8
1
100
AcDbSpline
210
0.0
220
0.0
230
1.0
 70
     8
 71
     3
 72
     8
 73
     4
 74
     0
 42
0.000000001
 43
0.00000001
 40
0.0
 40
0.0
 40
0.0
 40
0.0
 40
1.0
 40
1.0
 40
1.0
 40
1.0
 10
183.5864521582938
 20
193.6672977698514
 30
0.0
 10
183.3354710377636
 20
193.6806790078284
 30
0.0
 10
183.0845008224787
 20
193.6942862150927
 30
0.0
 10
182.8335415127894
 20
193.7081193988971
 30
0.0
  0
SPLINE
  5
212
330
1F
100
AcDbEntity
  8
1
100
AcDbSpline
210
0.0
220
0.0
230
1.0
 70
     8
 71
     3
 72
     8
 73
     4
 74
     0
 42
0.000000001
 43
0.00000001
 40
0.0
 40
0.0
 40
0.0
 40
0.0
 40
1.0
 40
1.0
 40
1.0
 40
1.0
 10
182.8335415127894
 20
193.7081193988972
 30
0.0
 10
182.7788551795142
 20
192.6996604010958
 30
0.0
 10
182.72416617786
 20
191.6911801297431
 30
0.0
 10
182.6694724359182
 20
190.6826620681339
 30
0.0
  0
SPLINE
  5
213
330
1F
100
AcDbEntity
  8
1
100
AcDbSpline
210
0.0
220
0.0
230
1.0
 70
     8
 71
     3
 72
     8
 73
     4
 74
     0
 42
0.000000001
 43
0.00000001
 40
0.0
 40
0.0
 40
0.0
 40
0.0
 40
1.0
 40
1.0
 40
1.0
 40
1.0
 10
185.495623264407
 20
193.4186005611162
 30
0.0
 10
185.3322421869078
 20
192.421962829135
 30
0.0
 10
185.1688591422179
 20
191.4253037473434
 30
0.0
 10
185.0054726032022
 20
190.428606739789
 30
0.0
  0
SPLINE
  5
214
330
1F
100
AcDbEntity
  8
1
100
AcDbSpline
210
0.0
220
0.0
230
1.0
 70
     8
 71
     3
 72
     8
 73
     4
 74
     0
 42
0.000000001
 43
0.00000001
 40
0.0
 40
0.0
 40
0.0
 40
0.0
 40
1.0
 40
1.0
 40
1.0
 40
1.0
 10
185.495623264407
 20
193.4186005611162
 30
0.0
 10
185.2475628576624
 20
193.4590387523321
 30
0.0
 10
184.9995350377485
 20
193.4997008420421
 30
0.0
 10
184.7515398078283
 20
193.5405868519763
 30
0.0
  0
SPLINE
  5
215
330
1F
100
AcDbEntity
  8
1
100
AcDbSpline
210
0.0
220
0.0
230
1.0
 70
     8
 71
     3
 72
     8
 73
     4
 74
     0
 42
0.000000001
 43
0.00000001
 40
0.0
 40
0.0
 40
0.0
 40
0.0
 40
1.0
 40
1.0
 40
1.0
 40
1.0
 10
184.7515398078283
 20
193.5405868519763
 30
0.0
 10
184.5881404512188
 20
192.5439521167031
 30
0.0
 10
184.4247361417969
 20
191.5472965210874
 30
0.0
 10
184.2613230340298
 20
190.5506038692587
 30
0.0
  0
SPLINE
  5
216
330
1F
100
AcDbEntity
  8
1
100
AcDbSpline
210
0.0
220
0.0
230
1.0
 70
     8
 71
     3
 72
     8
 73
     4
 74
     0
 42
0.000000001
 43
0.00000001
 40
0.0
 40
0.0
 40
0.0
 40
0.0
 40
1.0
 40
1.0
 40
1.0
 40
1.0
 10
192.5359012018275
 20
190.4390137927049
 30
0.0
 10
191.9691432299872
 20
189.6030918186854
 30
0.0
 10
191.4023745082203
 20
188.7671512941046
 30
0.0
 10
190.8355866904746
 20
187.9311778162629
 30
0.0
  0
SPLINE
  5
217
330
1F
100
AcDbEntity
  8
1
100
AcDbSpline
210
0.0
220
0.0
230
1.0
 70
     8
 71
     3
 72
     8
 73
     4
 74
     0
 42
0.000000001
 43
0.00000001
 40
0.0
 40
0.0
 40
0.0
 40
0.0
 40
1.0
 40
1.0
 40
1.0
 40
1.0
 10
192.5359012018275
 20
190.4390137927049
 30
0.0
 10
192.3277436461836
 20
190.5798747874703
 30
0.0
 10
192.1197132660142
 20
190.7209228855901
 30
0.0
 10
191.9118100605249
 20
190.8621580858951
 30
0.0
  0
SPLINE
  5
218
330
1F
100
AcDbEntity
  8
1
100
AcDbSpline
210
0.0
220
0.0
230
1.0
 70
     8
 71
     3
 72
     8
 73
     4
 74
     0
 42
0.000000001
 43
0.00000001
 40
0.0
 40
0.0
 40
0.0
 40
0.0
 40
1.0
 40
1.0
 40
1.0
 40
1.0
 10
191.9118100605249
 20
190.8621580858951
 30
0.0
 10
191.3450367572984
 20
190.0262465068132
 30
0.0
 10
190.7782501999907
 20
189.1903180750291
 30
0.0
 10
190.211440098021
 20
188.3543597062662
 30
0.0
  0
SPLINE
  5
219
330
1F
100
AcDbEntity
  8
1
100
AcDbSpline
210
0.0
220
0.0
230
1.0
 70
     8
 71
     3
 72
     8
 73
     4
 74
     0
 42
0.000000001
 43
0.00000001
 40
0.0
 40
0.0
 40
0.0
 40
0.0
 40
1.0
 40
1.0
 40
1.0
 40
1.0
 10
194.0435713593997
 20
189.2416352769397
 30
0.0
 10
193.3897566837635
 20
188.4718908289467
 30
0.0
 10
192.7359293155487
 20
187.7021291014082
 30
0.0
 10
192.0820794004223
 20
186.9323366784208
 30
0.0
  0
SPLINE
  5
21A
330
1F
100
AcDbEntity
  8
1
100
AcDbSpline
210
0.0
220
0.0
230
1.0
 70
     8
 71
     3
 72
     8
 73
     4
 74
     0
 42
0.000000001
 43
0.00000001
 40
0.0
 40
0.0
 40
0.0
 40
0.0
 40
1.0
 40
1.0
 40
1.0
 40
1.0
 10
194.0435713593997
 20
189.2416352769397
 30
0.0
 10
193.8518639784318
 20
189.4041761649006
 30
0.0
 10
193.6603030628871
 20
189.5668894731841
 30
0.0
 10
193.4688886127384
 20
189.729775201758
 30
0.0
  0
SPLINE
  5
21B
330
1F
100
AcDbEntity
  8
1
100
AcDbSpline
210
0.0
220
0.0
230
1.0
 70
     8
 71
     3
 72
     8
 73
     4
 74
     0
 42
0.000000001
 43
0.00000001
 40
0.0
 40
0.0
 40
0.0
 40
0.0
 40
1.0
 40
1.0
 40
1.0
 40
1.0
 10
193.4688886127384
 20
189.729775201758
 30
0.0
 10
192.8150598194796
 20
188.9600427453815
 30
0.0
 10
192.1612160277381
 20
188.1902949681125
 30
0.0
 10
191.5073455925975
 20
187.4205199749821
 30
0.0
  0
SPLINE
  5
21C
330
1F
100
AcDbEntity
  8
1
100
AcDbSpline
210
0.0
220
0.0
230
1.0
 70
     8
 71
     3
 72
     8
 73
     4
 74
     0
 42
0.000000001
 43
0.00000001
 40
0.0
 40
0.0
 40
0.0
 40
0.0
 40
1.0
 40
1.0
 40
1.0
 40
1.0
 10
196.6279647805874
 20
186.3947790388644
 30
0.0
 10
195.8239636259011
 20
185.7835816169486
 30
0.0
 10
195.01994636079
 20
185.1723700480028
 30
0.0
 10
194.2159004772877
 20
184.5611333481701
 30
0.0
  0
SPLINE
  5
21D
330
1F
100
AcDbEntity
  8
1
100
AcDbSpline
210
0.0
220
0.0
230
1.0
 70
     8
 71
     3
 72
     8
 73
     4
 74
     0
 42
0.000000001
 43
0.00000001
 40
0.0
 40
0.0
 40
0.0
 40
0.0
 40
1.0
 40
1.0
 40
1.0
 40
1.0
 10
196.6279647805874
 20
186.3947790388644
 30
0.0
 10
196.4756810513719
 20
186.5947310297436
 30
0.0
 10
196.3235772747274
 20
186.7948201253663
 30
0.0
 10
196.1716534517088
 20
186.9950463265362
 30
0.0
  0
SPLINE
  5
21E
330
1F
100
AcDbEntity
  8
1
100
AcDbSpline
210
0.0
220
0.0
230
1.0
 70
     8
 71
     3
 72
     8
 73
     4
 74
     0
 42
0.000000001
 43
0.00000001
 40
0.0
 40
0.0
 40
0.0
 40
0.0
 40
1.0
 40
1.0
 40
1.0
 40
1.0
 10
196.1716534517088
 20
186.9950463265362
 30
0.0
 10
195.3676410873052
 20
186.3838636507511
 30
0.0
 10
194.5636107815359
 20
185.7726692364981
 30
0.0
 10
193.75954860467
 20
185.1614539702185
 30
0.0
  0
SPLINE
  5
21F
330
1F
100
AcDbEntity
  8
1
100
AcDbSpline
210
0.0
220
0.0
230
1.0
 70
     8
 71
     3
 72
     8
 73
     4
 74
     0
 42
0.000000001
 43
0.00000001
 40
0.0
 40
0.0
 40
0.0
 40
0.0
 40
1.0
 40
1.0
 40
1.0
 40
1.0
 10
198.5399465810446
 20
183.0589125261773
 30
0.0
 10
197.6233531477181
 20
182.6348410424904
 30
0.0
 10
196.7067409394266
 20
182.2107592057883
 30
0.0
 10
195.790095379428
 20
181.7866589778537
 30
0.0
  0
SPLINE
  5
220
330
1F
100
AcDbEntity
  8
1
100
AcDbSpline
210
0.0
220
0.0
230
1.0
 70
     8
 71
     3
 72
     8
 73
     4
 74
     0
 42
0.000000001
 43
0.00000001
 40
0.0
 40
0.0
 40
0.0
 40
0.0
 40
1.0
 40
1.0
 40
1.0
 40
1.0
 10
198.5399465810446
 20
183.0589125261773
 30
0.0
 10
198.4342062403807
 20
183.2869277343241
 30
0.0
 10
198.3286718091538
 20
183.5150366751281
 30
0.0
 10
198.2233432805333
 20
183.7432393454802
 30
0.0
  0
SPLINE
  5
221
330
1F
100
AcDbEntity
  8
1
100
AcDbSpline
210
0.0
220
0.0
230
1.0
 70
     8
 71
     3
 72
     8
 73
     4
 74
     0
 42
0.000000001
 43
0.00000001
 40
0.0
 40
0.0
 40
0.0
 40
0.0
 40
1.0
 40
1.0
 40
1.0
 40
1.0
 10
198.2233432805333
 20
183.7432393454802
 30
0.0
 10
197.306742069549
 20
183.3191846729256
 30
0.0
 10
196.3901208132342
 20
182.8951223932051
 30
0.0
 10
195.4734639483822
 20
182.4710466003106
 30
0.0
  0
SPLINE
  5
222
330
1F
100
AcDbEntity
  8
1
100
AcDbSpline
210
0.0
220
0.0
230
1.0
 70
     8
 71
     3
 72
     8
 73
     4
 74
     0
 42
0.000000001
 43
0.00000001
 40
0.0
 40
0.0
 40
0.0
 40
0.0
 40
1.0
 40
1.0
 40
1.0
 40
1.0
 10
199.6901146167971
 20
179.3900171494622
 30
0.0
 10
198.7037877950525
 20
179.1729007152597
 30
0.0
 10
197.7174404116989
 20
178.9557782061526
 30
0.0
 10
196.7310565028111
 20
178.7386449054206
 30
0.0
  0
SPLINE
  5
223
330
1F
100
AcDbEntity
  8
1
100
AcDbSpline
210
0.0
220
0.0
230
1.0
 70
     8
 71
     3
 72
     8
 73
     4
 74
     0
 42
0.000000001
 43
0.00000001
 40
0.0
 40
0.0
 40
0.0
 40
0.0
 40
1.0
 40
1.0
 40
1.0
 40
1.0
 10
199.6901146167972
 20
179.3900171494621
 30
0.0
 10
199.6358620779454
 20
179.6354365092805
 30
0.0
 10
199.5818316696958
 20
179.8808991743073
 30
0.0
 10
199.5280233631061
 20
180.1264051389002
 30
0.0
  0
SPLINE
  5
224
330
1F
100
AcDbEntity
  8
1
100
AcDbSpline
210
0.0
220
0.0
230
1.0
 70
     8
 71
     3
 72
     8
 73
     4
 74
     0
 42
0.000000001
 43
0.00000001
 40
0.0
 40
0.0
 40
0.0
 40
0.0
 40
1.0
 40
1.0
 40
1.0
 40
1.0
 10
199.528023363106
 20
180.1264051389003
 30
0.0
 10
198.5416925594373
 20
179.9093067947618
 30
0.0
 10
197.5553405437711
 20
179.6922053304621
 30
0.0
 10
196.5689508471424
 20
179.4750983237021
 30
0.0
  0
SPLINE
  5
225
330
1F
100
AcDbEntity
  8
1
100
AcDbSpline
210
0.0
220
0.0
230
1.0
 70
     8
 71
     3
 72
     8
 73
     4
 74
     0
 42
0.000000001
 43
0.00000001
 40
0.0
 40
0.0
 40
0.0
 40
0.0
 40
1.0
 40
1.0
 40
1.0
 40
1.0
 10
171.026236696962
 20
189.729775201758
 30
0.0
 10
171.6800654902207
 20
188.9600427453816
 30
0.0
 10
172.3339092819623
 20
188.1902949681126
 30
0.0
 10
172.9877797171028
 20
187.4205199749822
 30
0.0
  0
SPLINE
  5
226
330
1F
100
AcDbEntity
  8
1
100
AcDbSpline
210
0.0
220
0.0
230
1.0
 70
     8
 71
     3
 72
     8
 73
     4
 74
     0
 42
0.000000001
 43
0.00000001
 40
0.0
 40
0.0
 40
0.0
 40
0.0
 40
1.0
 40
1.0
 40
1.0
 40
1.0
 10
171.026236696962
 20
189.729775201758
 30
0.0
 10
170.8348222468133
 20
189.5668894731841
 30
0.0
 10
170.6432613312686
 20
189.4041761649006
 30
0.0
 10
170.4515539503006
 20
189.2416352769398
 30
0.0
  0
SPLINE
  5
227
330
1F
100
AcDbEntity
  8
1
100
AcDbSpline
210
0.0
220
0.0
230
1.0
 70
     8
 71
     3
 72
     8
 73
     4
 74
     0
 42
0.000000001
 43
0.00000001
 40
0.0
 40
0.0
 40
0.0
 40
0.0
 40
1.0
 40
1.0
 40
1.0
 40
1.0
 10
170.4515539503006
 20
189.2416352769398
 30
0.0
 10
171.1053686259369
 20
188.4718908289467
 30
0.0
 10
171.7591959941517
 20
187.7021291014083
 30
0.0
 10
172.4130459092781
 20
186.9323366784209
 30
0.0
  0
SPLINE
  5
228
330
1F
100
AcDbEntity
  8
1
100
AcDbSpline
210
0.0
220
0.0
230
1.0
 70
     8
 71
     3
 72
     8
 73
     4
 74
     0
 42
0.000000001
 43
0.00000001
 40
0.0
 40
0.0
 40
0.0
 40
0.0
 40
1.0
 40
1.0
 40
1.0
 40
1.0
 10
168.3234718579917
 20
186.9950463265359
 30
0.0
 10
169.1274842223952
 20
186.3838636507509
 30
0.0
 10
169.9315145281645
 20
185.7726692364978
 30
0.0
 10
170.7355767050305
 20
185.1614539702184
 30
0.0
  0
SPLINE
  5
229
330
1F
100
AcDbEntity
  8
1
100
AcDbSpline
210
0.0
220
0.0
230
1.0
 70
     8
 71
     3
 72
     8
 73
     4
 74
     0
 42
0.000000001
 43
0.00000001
 40
0.0
 40
0.0
 40
0.0
 40
0.0
 40
1.0
 40
1.0
 40
1.0
 40
1.0
 10
168.3234718579916
 20
186.9950463265359
 30
0.0
 10
168.171548034973
 20
186.7948201253662
 30
0.0
 10
168.0194442583287
 20
186.5947310297435
 30
0.0
 10
167.8671605291129
 20
186.3947790388642
 30
0.0
  0
SPLINE
  5
22A
330
1F
100
AcDbEntity
  8
1
100
AcDbSpline
210
0.0
220
0.0
230
1.0
 70
     8
 71
     3
 72
     8
 73
     4
 74
     0
 42
0.000000001
 43
0.00000001
 40
0.0
 40
0.0
 40
0.0
 40
0.0
 40
1.0
 40
1.0
 40
1.0
 40
1.0
 10
167.8671605291129
 20
186.3947790388642
 30
0.0
 10
168.6711616837993
 20
185.7835816169485
 30
0.0
 10
169.4751789489104
 20
185.1723700480028
 30
0.0
 10
170.2792248324127
 20
184.5611333481699
 30
0.0
  0
SPLINE
  5
22B
330
1F
100
AcDbEntity
  8
1
100
AcDbSpline
210
0.0
220
0.0
230
1.0
 70
     8
 71
     3
 72
     8
 73
     4
 74
     0
 42
0.000000001
 43
0.00000001
 40
0.0
 40
0.0
 40
0.0
 40
0.0
 40
1.0
 40
1.0
 40
1.0
 40
1.0
 10
166.2717820291668
 20
183.7432393454801
 30
0.0
 10
167.1883832401512
 20
183.3191846729256
 30
0.0
 10
168.1050044964659
 20
182.895122393205
 30
0.0
 10
169.021661361318
 20
182.4710466003104
 30
0.0
  0
SPLINE
  5
22C
330
1F
100
AcDbEntity
  8
1
100
AcDbSpline
210
0.0
220
0.0
230
1.0
 70
     8
 71
     3
 72
     8
 73
     4
 74
     0
 42
0.000000001
 43
0.00000001
 40
0.0
 40
0.0
 40
0.0
 40
0.0
 40
1.0
 40
1.0
 40
1.0
 40
1.0
 10
166.2717820291668
 20
183.7432393454801
 30
0.0
 10
166.1664535005464
 20
183.5150366751281
 30
0.0
 10
166.0609190693196
 20
183.286927734324
 30
0.0
 10
165.9551787286557
 20
183.0589125261771
 30
0.0
  0
SPLINE
  5
22D
330
1F
100
AcDbEntity
  8
1
100
AcDbSpline
210
0.0
220
0.0
230
1.0
 70
     8
 71
     3
 72
     8
 73
     4
 74
     0
 42
0.000000001
 43
0.00000001
 40
0.0
 40
0.0
 40
0.0
 40
0.0
 40
1.0
 40
1.0
 40
1.0
 40
1.0
 10
165.9551787286557
 20
183.0589125261772
 30
0.0
 10
166.8717721619821
 20
182.6348410424903
 30
0.0
 10
167.7883843702736
 20
182.2107592057882
 30
0.0
 10
168.7050299302722
 20
181.7866589778535
 30
0.0
  0
SPLINE
  5
22E
330
1F
100
AcDbEntity
  8
1
100
AcDbSpline
210
0.0
220
0.0
230
1.0
 70
     8
 71
     3
 72
     8
 73
     4
 74
     0
 42
0.000000001
 43
0.00000001
 40
0.0
 40
0.0
 40
0.0
 40
0.0
 40
1.0
 40
1.0
 40
1.0
 40
1.0
 10
164.9671019465943
 20
180.1264051389003
 30
0.0
 10
165.9534327502629
 20
179.9093067947618
 30
0.0
 10
166.9397847659291
 20
179.6922053304622
 30
0.0
 10
167.9261744625578
 20
179.4750983237022
 30
0.0
  0
SPLINE
  5
22F
330
1F
100
AcDbEntity
  8
1
100
AcDbSpline
210
0.0
220
0.0
230
1.0
 70
     8
 71
     3
 72
     8
 73
     4
 74
     0
 42
0.000000001
 43
0.00000001
 40
0.0
 40
0.0
 40
0.0
 40
0.0
 40
1.0
 40
1.0
 40
1.0
 40
1.0
 10
164.9671019465943
 20
180.1264051389003
 30
0.0
 10
164.9132936400045
 20
179.8808991743073
 30
0.0
 10
164.859263231755
 20
179.6354365092805
 30
0.0
 10
164.8050106929031
 20
179.3900171494622
 30
0.0
  0
SPLINE
  5
230
330
1F
100
AcDbEntity
  8
1
100
AcDbSpline
210
0.0
220
0.0
230
1.0
 70
     8
 71
     3
 72
     8
 73
     4
 74
     0
 42
0.000000001
 43
0.00000001
 40
0.0
 40
0.0
 40
0.0
 40
0.0
 40
1.0
 40
1.0
 40
1.0
 40
1.0
 10
164.8050106929031
 20
179.3900171494622
 30
0.0
 10
165.7913375146477
 20
179.1729007152599
 30
0.0
 10
166.7776848980013
 20
178.9557782061526
 30
0.0
 10
167.7640688068891
 20
178.7386449054207
 30
0.0
  0
SPLINE
  5
231
330
1F
100
AcDbEntity
  8
1
100
AcDbSpline
210
0.0
220
0.0
230
1.0
 70
     8
 71
     3
 72
     8
 73
     4
 74
     0
 42
0.000000001
 43
0.00000001
 40
0.0
 40
0.0
 40
0.0
 40
0.0
 40
1.0
 40
1.0
 40
1.0
 40
1.0
 10
164.615409033753
 20
178.2334981921363
 30
0.0
 10
165.6194303838603
 20
178.1243136061269
 30
0.0
 10
166.6234731589682
 20
178.015128211667
 30
0.0
 10
167.6275539933966
 20
177.9059413812657
 30
0.0
  0
SPLINE
  5
232
330
1F
100
AcDbEntity
  8
1
100
AcDbSpline
210
0.0
220
0.0
230
1.0
 70
     8
 71
     3
 72
     8
 73
     4
 74
     0
 42
0.000000001
 43
0.00000001
 40
0.0
 40
0.0
 40
0.0
 40
0.0
 40
1.0
 40
1.0
 40
1.0
 40
1.0
 10
164.6154090337529
 20
178.2334981921363
 30
0.0
 10
164.5884597215837
 20
177.9836109472691
 30
0.0
 10
164.5612852193432
 20
177.733745480556
 30
0.0
 10
164.5338855125331
 20
177.4839017933991
 30
0.0
  0
SPLINE
  5
233
330
1F
100
AcDbEntity
  8
1
100
AcDbSpline
210
0.0
220
0.0
230
1.0
 70
     8
 71
     3
 72
     8
 73
     4
 74
     0
 42
0.000000001
 43
0.00000001
 40
0.0
 40
0.0
 40
0.0
 40
0.0
 40
1.0
 40
1.0
 40
1.0
 40
1.0
 10
164.5338855125331
 20
177.4839017933991
 30
0.0
 10
165.5379048599385
 20
177.3746987928487
 30
0.0
 10
166.5419453052326
 20
177.2654919761057
 30
0.0
 10
167.5460232287265
 20
177.1562783801041
 30
0.0
  0
SPLINE
  5
234
330
1F
100
AcDbEntity
  8
1
100
AcDbSpline
210
0.0
220
0.0
230
1.0
 70
     8
 71
     3
 72
     8
 73
     4
 74
     0
 42
0.000000001
 43
0.00000001
 40
0.0
 40
0.0
 40
0.0
 40
0.0
 40
1.0
 40
1.0
 40
1.0
 40
1.0
 10
165.5213924615642
 20
181.9701910915164
 30
0.0
 10
166.4784688919321
 20
181.6477242688392
 30
0.0
 10
167.435566072603
 20
181.3252520508708
 30
0.0
 10
168.3927001141037
 20
181.0027702489035
 30
0.0
  0
SPLINE
  5
235
330
1F
100
AcDbEntity
  8
1
100
AcDbSpline
210
0.0
220
0.0
230
1.0
 70
     8
 71
     3
 72
     8
 73
     4
 74
     0
 42
0.000000001
 43
0.00000001
 40
0.0
 40
0.0
 40
0.0
 40
0.0
 40
1.0
 40
1.0
 40
1.0
 40
1.0
 10
165.5213924615642
 20
181.9701910915164
 30
0.0
 10
165.4413555449304
 20
181.7319414805135
 30
0.0
 10
165.3611026819068
 20
181.4937594431205
 30
0.0
 10
165.2806338471498
 20
181.2556449872677
 30
0.0
  0
SPLINE
  5
236
330
1F
100
AcDbEntity
  8
1
100
AcDbSpline
210
0.0
220
0.0
230
1.0
 70
     8
 71
     3
 72
     8
 73
     4
 74
     0
 42
0.000000001
 43
0.00000001
 40
0.0
 40
0.0
 40
0.0
 40
0.0
 40
1.0
 40
1.0
 40
1.0
 40
1.0
 10
165.2806338471497
 20
181.2556449872677
 30
0.0
 10
166.2377043630557
 20
180.9331606110929
 30
0.0
 10
167.1947946632251
 20
180.6106679725235
 30
0.0
 10
168.1519201080345
 20
180.2881606564856
 30
0.0
  0
SPLINE
  5
237
330
1F
100
AcDbEntity
  8
1
100
AcDbSpline
210
0.0
220
0.0
230
1.0
 70
     8
 71
     3
 72
     8
 73
     4
 74
     0
 42
0.000000001
 43
0.00000001
 40
0.0
 40
0.0
 40
0.0
 40
0.0
 40
1.0
 40
1.0
 40
1.0
 40
1.0
 10
167.2094730178103
 20
185.4247625311267
 30
0.0
 10
168.0748526982689
 20
184.9040916620137
 30
0.0
 10
168.9402514840719
 20
184.3834110630468
 30
0.0
 10
169.8056842086424
 20
183.8627131801607
 30
0.0
  0
SPLINE
  5
238
330
1F
100
AcDbEntity
  8
1
100
AcDbSpline
210
0.0
220
0.0
230
1.0
 70
     8
 71
     3
 72
     8
 73
     4
 74
     0
 42
0.000000001
 43
0.00000001
 40
0.0
 40
0.0
 40
0.0
 40
0.0
 40
1.0
 40
1.0
 40
1.0
 40
1.0
 10
167.2094730178103
 20
185.4247625311268
 30
0.0
 10
167.0800881494652
 20
185.2092843937351
 30
0.0
 10
166.950509448623
 20
184.9939229177349
 30
0.0
 10
166.8207369154277
 20
184.7786781030399
 30
0.0
  0
SPLINE
  5
239
330
1F
100
AcDbEntity
  8
1
100
AcDbSpline
210
0.0
220
0.0
230
1.0
 70
     8
 71
     3
 72
     8
 73
     4
 74
     0
 42
0.000000001
 43
0.00000001
 40
0.0
 40
0.0
 40
0.0
 40
0.0
 40
1.0
 40
1.0
 40
1.0
 40
1.0
 10
166.8207369154277
 20
184.7786781030399
 30
0.0
 10
167.6861070462181
 20
184.2579913622551
 30
0.0
 10
168.5514947225562
 20
183.7372922992139
 30
0.0
 10
169.4169135666502
 20
183.2165713467966
 30
0.0
  0
SPLINE
  5
23A
330
1F
100
AcDbEntity
  8
1
100
AcDbSpline
210
0.0
220
0.0
230
1.0
 70
     8
 71
     3
 72
     8
 73
     4
 74
     0
 42
0.000000001
 43
0.00000001
 40
0.0
 40
0.0
 40
0.0
 40
0.0
 40
1.0
 40
1.0
 40
1.0
 40
1.0
 10
169.6007179318484
 20
188.4356805899311
 30
0.0
 10
170.3339366703398
 20
187.741151665538
 30
0.0
 10
171.0671719758723
 20
187.0466091316854
 30
0.0
 10
171.800436711171
 20
186.3520424221701
 30
0.0
  0
SPLINE
  5
23B
330
1F
100
AcDbEntity
  8
1
100
AcDbSpline
210
0.0
220
0.0
230
1.0
 70
     8
 71
     3
 72
     8
 73
     4
 74
     0
 42
0.000000001
 43
0.00000001
 40
0.0
 40
0.0
 40
0.0
 40
0.0
 40
1.0
 40
1.0
 40
1.0
 40
1.0
 10
169.6007179318484
 20
188.4356805899311
 30
0.0
 10
169.4280369041781
 20
188.2530544768406
 30
0.0
 10
169.2551913306713
 20
188.0705836222494
 30
0.0
 10
169.0821812095955
 20
187.8882680277926
 30
0.0
  0
SPLINE
  5
23C
330
1F
100
AcDbEntity
  8
1
100
AcDbSpline
210
0.0
220
0.0
230
1.0
 70
     8
 71
     3
 72
     8
 73
     4
 74
     0
 42
0.000000001
 43
0.00000001
 40
0.0
 40
0.0
 40
0.0
 40
0.0
 40
1.0
 40
1.0
 40
1.0
 40
1.0
 10
169.0821812095955
 20
187.8882680277926
 30
0.0
 10
169.8153872097444
 20
187.1937256556948
 30
0.0
 10
170.5486076963147
 20
186.4991674776543
 30
0.0
 10
171.2818539163877
 20
185.8045812218527
 30
0.0
  0
SPLINE
  5
23D
330
1F
100
AcDbEntity
  8
1
100
AcDbSpline
210
0.0
220
0.0
230
1.0
 70
     8
 71
     3
 72
     8
 73
     4
 74
     0
 42
0.000000001
 43
0.00000001
 40
0.0
 40
0.0
 40
0.0
 40
0.0
 40
1.0
 40
1.0
 40
1.0
 40
1.0
 10
172.5833152491756
 20
190.862158085895
 30
0.0
 10
173.1500885524021
 20
190.0262465068132
 30
0.0
 10
173.7168751097098
 20
189.1903180750291
 30
0.0
 10
174.2836852116796
 20
188.3543597062662
 30
0.0
  0
SPLINE
  5
23E
330
1F
100
AcDbEntity
  8
1
100
AcDbSpline
210
0.0
220
0.0
230
1.0
 70
     8
 71
     3
 72
     8
 73
     4
 74
     0
 42
0.000000001
 43
0.00000001
 40
0.0
 40
0.0
 40
0.0
 40
0.0
 40
1.0
 40
1.0
 40
1.0
 40
1.0
 10
172.5833152491756
 20
190.862158085895
 30
0.0
 10
172.3754120436863
 20
190.72092288559
 30
0.0
 10
172.1673816635169
 20
190.5798747874702
 30
0.0
 10
171.959224107873
 20
190.4390137927049
 30
0.0
  0
SPLINE
  5
23F
330
1F
100
AcDbEntity
  8
1
100
AcDbSpline
210
0.0
220
0.0
230
1.0
 70
     8
 71
     3
 72
     8
 73
     4
 74
     0
 42
0.000000001
 43
0.00000001
 40
0.0
 40
0.0
 40
0.0
 40
0.0
 40
1.0
 40
1.0
 40
1.0
 40
1.0
 10
171.959224107873
 20
190.4390137927049
 30
0.0
 10
172.5259820797133
 20
189.6030918186853
 30
0.0
 10
173.0927508014803
 20
188.7671512941045
 30
0.0
 10
173.6595386192259
 20
187.9311778162628
 30
0.0
  0
SPLINE
  5
240
330
1F
100
AcDbEntity
  8
1
100
AcDbSpline
210
0.0
220
0.0
230
1.0
 70
     8
 71
     3
 72
     8
 73
     4
 74
     0
 42
0.000000001
 43
0.00000001
 40
0.0
 40
0.0
 40
0.0
 40
0.0
 40
1.0
 40
1.0
 40
1.0
 40
1.0
 10
199.9612397971672
 20
177.4839017933992
 30
0.0
 10
198.9572204497619
 20
177.3746987928486
 30
0.0
 10
197.9531800044678
 20
177.2654919761057
 30
0.0
 10
196.9491020809739
 20
177.156278380104
 30
0.0
  0
SPLINE
  5
241
330
1F
100
AcDbEntity
  8
1
100
AcDbSpline
210
0.0
220
0.0
230
1.0
 70
     8
 71
     3
 72
     8
 73
     4
 74
     0
 42
0.000000001
 43
0.00000001
 40
0.0
 40
0.0
 40
0.0
 40
0.0
 40
1.0
 40
1.0
 40
1.0
 40
1.0
 10
199.9612397971672
 20
177.4839017933991
 30
0.0
 10
199.9338400903571
 20
177.733745480556
 30
0.0
 10
199.9066655881167
 20
177.9836109472691
 30
0.0
 10
199.8797162759474
 20
178.2334981921363
 30
0.0
  0
SPLINE
  5
242
330
1F
100
AcDbEntity
  8
1
100
AcDbSpline
210
0.0
220
0.0
230
1.0
 70
     8
 71
     3
 72
     8
 73
     4
 74
     0
 42
0.000000001
 43
0.00000001
 40
0.0
 40
0.0
 40
0.0
 40
0.0
 40
1.0
 40
1.0
 40
1.0
 40
1.0
 10
199.8797162759474
 20
178.2334981921363
 30
0.0
 10
198.8756949258401
 20
178.1243136061269
 30
0.0
 10
197.8716521507322
 20
178.015128211667
 30
0.0
 10
196.8675713163038
 20
177.9059413812656
 30
0.0
  0
SPLINE
  5
243
330
1F
100
AcDbEntity
  8
1
100
AcDbSpline
210
0.0
220
0.0
230
1.0
 70
     8
 71
     3
 72
     8
 73
     4
 74
     0
 42
0.000000001
 43
0.00000001
 40
0.0
 40
0.0
 40
0.0
 40
0.0
 40
1.0
 40
1.0
 40
1.0
 40
1.0
 10
199.2144914625507
 20
181.2556449872676
 30
0.0
 10
198.2574209466447
 20
180.9331606110928
 30
0.0
 10
197.3003306464754
 20
180.6106679725235
 30
0.0
 10
196.343205201666
 20
180.2881606564854
 30
0.0
  0
SPLINE
  5
244
330
1F
100
AcDbEntity
  8
1
100
AcDbSpline
210
0.0
220
0.0
230
1.0
 70
     8
 71
     3
 72
     8
 73
     4
 74
     0
 42
0.000000001
 43
0.00000001
 40
0.0
 40
0.0
 40
0.0
 40
0.0
 40
1.0
 40
1.0
 40
1.0
 40
1.0
 10
199.2144914625507
 20
181.2556449872676
 30
0.0
 10
199.1340226277938
 20
181.4937594431205
 30
0.0
 10
199.0537697647703
 20
181.7319414805136
 30
0.0
 10
198.9737328481363
 20
181.9701910915165
 30
0.0
  0
SPLINE
  5
245
330
1F
100
AcDbEntity
  8
1
100
AcDbSpline
210
0.0
220
0.0
230
1.0
 70
     8
 71
     3
 72
     8
 73
     4
 74
     0
 42
0.000000001
 43
0.00000001
 40
0.0
 40
0.0
 40
0.0
 40
0.0
 40
1.0
 40
1.0
 40
1.0
 40
1.0
 10
198.9737328481363
 20
181.9701910915165
 30
0.0
 10
198.0166564177685
 20
181.6477242688391
 30
0.0
 10
197.0595592370975
 20
181.3252520508707
 30
0.0
 10
196.1024251955969
 20
181.0027702489033
 30
0.0
  0
SPLINE
  5
246
330
1F
100
AcDbEntity
  8
1
100
AcDbSpline
210
0.0
220
0.0
230
1.0
 70
     8
 71
     3
 72
     8
 73
     4
 74
     0
 42
0.000000001
 43
0.00000001
 40
0.0
 40
0.0
 40
0.0
 40
0.0
 40
1.0
 40
1.0
 40
1.0
 40
1.0
 10
197.6743883942727
 20
184.7786781030402
 30
0.0
 10
196.8090182634824
 20
184.2579913622552
 30
0.0
 10
195.9436305871443
 20
183.737292299214
 30
0.0
 10
195.0782117430503
 20
183.2165713467966
 30
0.0
  0
SPLINE
  5
247
330
1F
100
AcDbEntity
  8
1
100
AcDbSpline
210
0.0
220
0.0
230
1.0
 70
     8
 71
     3
 72
     8
 73
     4
 74
     0
 42
0.000000001
 43
0.00000001
 40
0.0
 40
0.0
 40
0.0
 40
0.0
 40
1.0
 40
1.0
 40
1.0
 40
1.0
 10
197.6743883942727
 20
184.7786781030402
 30
0.0
 10
197.5446158610773
 20
184.9939229177351
 30
0.0
 10
197.4150371602352
 20
185.2092843937352
 30
0.0
 10
197.28565229189
 20
185.4247625311268
 30
0.0
  0
SPLINE
  5
248
330
1F
100
AcDbEntity
  8
1
100
AcDbSpline
210
0.0
220
0.0
230
1.0
 70
     8
 71
     3
 72
     8
 73
     4
 74
     0
 42
0.000000001
 43
0.00000001
 40
0.0
 40
0.0
 40
0.0
 40
0.0
 40
1.0
 40
1.0
 40
1.0
 40
1.0
 10
197.28565229189
 20
185.4247625311268
 30
0.0
 10
196.4202726114314
 20
184.9040916620138
 30
0.0
 10
195.5548738256284
 20
184.3834110630469
 30
0.0
 10
194.689441101058
 20
183.8627131801608
 30
0.0
  0
SPLINE
  5
249
330
1F
100
AcDbEntity
  8
1
100
AcDbSpline
210
0.0
220
0.0
230
1.0
 70
     8
 71
     3
 72
     8
 73
     4
 74
     0
 42
0.000000001
 43
0.00000001
 40
0.0
 40
0.0
 40
0.0
 40
0.0
 40
1.0
 40
1.0
 40
1.0
 40
1.0
 10
195.4129441001049
 20
187.8882680277927
 30
0.0
 10
194.6797380999561
 20
187.1937256556949
 30
0.0
 10
193.9465176133856
 20
186.4991674776544
 30
0.0
 10
193.2132713933127
 20
185.8045812218527
 30
0.0
  0
SPLINE
  5
24A
330
1F
100
AcDbEntity
  8
1
100
AcDbSpline
210
0.0
220
0.0
230
1.0
 70
     8
 71
     3
 72
     8
 73
     4
 74
     0
 42
0.000000001
 43
0.00000001
 40
0.0
 40
0.0
 40
0.0
 40
0.0
 40
1.0
 40
1.0
 40
1.0
 40
1.0
 10
195.4129441001049
 20
187.8882680277927
 30
0.0
 10
195.2399339790291
 20
188.0705836222496
 30
0.0
 10
195.0670884055224
 20
188.2530544768406
 30
0.0
 10
194.894407377852
 20
188.4356805899311
 30
0.0
  0
SPLINE
  5
24B
330
1F
100
AcDbEntity
  8
1
100
AcDbSpline
210
0.0
220
0.0
230
1.0
 70
     8
 71
     3
 72
     8
 73
     4
 74
     0
 42
0.000000001
 43
0.00000001
 40
0.0
 40
0.0
 40
0.0
 40
0.0
 40
1.0
 40
1.0
 40
1.0
 40
1.0
 10
194.894407377852
 20
188.4356805899311
 30
0.0
 10
194.1611886393606
 20
187.741151665538
 30
0.0
 10
193.4279533338282
 20
187.0466091316854
 30
0.0
 10
192.6946885985294
 20
186.3520424221701
 30
0.0
  0
SPLINE
  5
24C
330
1F
100
AcDbEntity
  8
1
100
AcDbSpline
210
0.0
220
0.0
230
1.0
 70
     8
 71
     3
 72
     8
 73
     4
 74
     0
 42
0.000000001
 43
0.00000001
 40
0.0
 40
0.0
 40
0.0
 40
0.0
 40
1.0
 40
1.0
 40
1.0
 40
1.0
 10
190.9076096815095
 20
191.4663654067644
 30
0.0
 10
190.4345531324932
 20
190.5740663275727
 30
0.0
 10
189.9614879022353
 20
189.6817476442927
 30
0.0
 10
189.4884072508144
 20
188.7893941362867
 30
0.0
  0
SPLINE
  5
24D
330
1F
100
AcDbEntity
  8
1
100
AcDbSpline
210
0.0
220
0.0
230
1.0
 70
     8
 71
     3
 72
     8
 73
     4
 74
     0
 42
0.000000001
 43
0.00000001
 40
0.0
 40
0.0
 40
0.0
 40
0.0
 40
1.0
 40
1.0
 40
1.0
 40
1.0
 10
190.9076096815095
 20
191.4663654067645
 30
0.0
 10
190.6854432692902
 20
191.5838945246839
 30
0.0
 10
190.4633823895679
 20
191.7016237511014
 30
0.0
 10
190.2414270435852
 20
191.8195530883733
 30
0.0
  0
SPLINE
  5
24E
330
1F
100
AcDbEntity
  8
1
100
AcDbSpline
210
0.0
220
0.0
230
1.0
 70
     8
 71
     3
 72
     8
 73
     4
 74
     0
 42
0.000000001
 43
0.00000001
 40
0.0
 40
0.0
 40
0.0
 40
0.0
 40
1.0
 40
1.0
 40
1.0
 40
1.0
 10
190.2414270435852
 20
191.8195530883733
 30
0.0
 10
189.7683541291657
 20
190.9272626855694
 30
0.0
 10
189.2952698604584
 20
190.0349540958363
 30
0.0
 10
188.8221654218657
 20
189.1426131989906
 30
0.0
  0
SPLINE
  5
24F
330
1F
100
AcDbEntity
  8
1
100
AcDbSpline
210
0.0
220
0.0
230
1.0
 70
     8
 71
     3
 72
     8
 73
     4
 74
     0
 42
0.000000001
 43
0.00000001
 40
0.0
 40
0.0
 40
0.0
 40
0.0
 40
1.0
 40
1.0
 40
1.0
 40
1.0
 10
189.1777870277602
 20
192.3116453607602
 30
0.0
 10
188.8039780570856
 20
191.3734305672631
 30
0.0
 10
188.4301625756337
 20
190.4351953459905
 30
0.0
 10
188.0563355286337
 20
189.4969238368148
 30
0.0
  0
SPLINE
  5
250
330
1F
100
AcDbEntity
  8
1
100
AcDbSpline
210
0.0
220
0.0
230
1.0
 70
     8
 71
     3
 72
     8
 73
     4
 74
     0
 42
0.000000001
 43
0.00000001
 40
0.0
 40
0.0
 40
0.0
 40
0.0
 40
1.0
 40
1.0
 40
1.0
 40
1.0
 10
189.1777870277602
 20
192.3116453607603
 30
0.0
 10
188.9442179649373
 20
192.4044642558046
 30
0.0
 10
188.7107300457323
 20
192.4974943402455
 30
0.0
 10
188.4773232755475
 20
192.5907356281434
 30
0.0
  0
SPLINE
  5
251
330
1F
100
AcDbEntity
  8
1
100
AcDbSpline
210
0.0
220
0.0
230
1.0
 70
     8
 71
     3
 72
     8
 73
     4
 74
     0
 42
0.000000001
 43
0.00000001
 40
0.0
 40
0.0
 40
0.0
 40
0.0
 40
1.0
 40
1.0
 40
1.0
 40
1.0
 10
188.4773232755475
 20
192.5907356281434
 30
0.0
 10
188.1034970973216
 20
191.6525276907614
 30
0.0
 10
187.7296615977203
 20
190.7143004454486
 30
0.0
 10
187.3558095394836
 20
189.7760389016603
 30
0.0
  0
SPLINE
  5
252
330
1F
100
AcDbEntity
  8
1
100
AcDbSpline
210
0.0
220
0.0
230
1.0
 70
     8
 71
     3
 72
     8
 73
     4
 74
     0
 42
0.000000001
 43
0.00000001
 40
0.0
 40
0.0
 40
0.0
 40
0.0
 40
1.0
 40
1.0
 40
1.0
 40
1.0
 10
187.3667138296032
 20
192.9649435200778
 30
0.0
 10
187.0965350056745
 20
191.9918127229113
 30
0.0
 10
186.8263519177661
 20
191.0186609137787
 30
0.0
 10
186.5561612555196
 20
190.0454717790089
 30
0.0
  0
SPLINE
  5
253
330
1F
100
AcDbEntity
  8
1
100
AcDbSpline
210
0.0
220
0.0
230
1.0
 70
     8
 71
     3
 72
     8
 73
     4
 74
     0
 42
0.000000001
 43
0.00000001
 40
0.0
 40
0.0
 40
0.0
 40
0.0
 40
1.0
 40
1.0
 40
1.0
 40
1.0
 10
187.3667138296032
 20
192.9649435200778
 30
0.0
 10
187.124482418574
 20
193.0319639567114
 30
0.0
 10
186.8823048924727
 20
193.0992042029835
 30
0.0
 10
186.6401812601567
 20
193.1666642950252
 30
0.0
  0
SPLINE
  5
254
330
1F
100
AcDbEntity
  8
1
100
AcDbSpline
210
0.0
220
0.0
230
1.0
 70
     8
 71
     3
 72
     8
 73
     4
 74
     0
 42
0.000000001
 43
0.00000001
 40
0.0
 40
0.0
 40
0.0
 40
0.0
 40
1.0
 40
1.0
 40
1.0
 40
1.0
 10
186.6401812601567
 20
193.1666642950252
 30
0.0
 10
186.3699845882717
 20
192.1935384533193
 30
0.0
 10
186.0997807372081
 20
191.2203924090485
 30
0.0
 10
185.8295641328941
 20
190.247210477058
 30
0.0
  0
SPLINE
  5
255
330
1F
100
AcDbEntity
  8
1
100
AcDbSpline
210
0.0
220
0.0
230
1.0
 70
     8
 71
     3
 72
     8
 73
     4
 74
     0
 42
0.000000001
 43
0.00000001
 40
0.0
 40
0.0
 40
0.0
 40
0.0
 40
1.0
 40
1.0
 40
1.0
 40
1.0
 10
181.6615837969109
 20
193.7081193988972
 30
0.0
 10
181.7162701301862
 20
192.6996604010959
 30
0.0
 10
181.7709591318405
 20
191.6911801297432
 30
0.0
 10
181.8256528737824
 20
190.6826620681339
 30
0.0
  0
SPLINE
  5
256
330
1F
100
AcDbEntity
  8
1
100
AcDbSpline
210
0.0
220
0.0
230
1.0
 70
     8
 71
     3
 72
     8
 73
     4
 74
     0
 42
0.000000001
 43
0.00000001
 40
0.0
 40
0.0
 40
0.0
 40
0.0
 40
1.0
 40
1.0
 40
1.0
 40
1.0
 10
181.6615837969109
 20
193.7081193988971
 30
0.0
 10
181.4106244872216
 20
193.6942862150927
 30
0.0
 10
181.1596542719368
 20
193.6806790078284
 30
0.0
 10
180.9086731514066
 20
193.6672977698514
 30
0.0
  0
SPLINE
  5
257
330
1F
100
AcDbEntity
  8
1
100
AcDbSpline
210
0.0
220
0.0
230
1.0
 70
     8
 71
     3
 72
     8
 73
     4
 74
     0
 42
0.000000001
 43
0.00000001
 40
0.0
 40
0.0
 40
0.0
 40
0.0
 40
1.0
 40
1.0
 40
1.0
 40
1.0
 10
180.9086731514066
 20
193.6672977698514
 30
0.0
 10
180.9633409887232
 20
192.6588377692285
 30
0.0
 10
181.0180084733784
 20
191.6503563312579
 30
0.0
 10
181.0726753313793
 20
190.6418368120438
 30
0.0
  0
SPLINE
  5
258
330
1F
100
AcDbEntity
  8
1
100
AcDbSpline
210
0.0
220
0.0
230
1.0
 70
     8
 71
     3
 72
     8
 73
     4
 74
     0
 42
0.000000001
 43
0.00000001
 40
0.0
 40
0.0
 40
0.0
 40
0.0
 40
1.0
 40
1.0
 40
1.0
 40
1.0
 10
177.8549440495435
 20
193.1666642950251
 30
0.0
 10
178.1251407214286
 20
192.1935384533193
 30
0.0
 10
178.3953445724921
 20
191.2203924090485
 30
0.0
 10
178.6655611768062
 20
190.247210477058
 30
0.0
  0
SPLINE
  5
259
330
1F
100
AcDbEntity
  8
1
100
AcDbSpline
210
0.0
220
0.0
230
1.0
 70
     8
 71
     3
 72
     8
 73
     4
 74
     0
 42
0.000000001
 43
0.00000001
 40
0.0
 40
0.0
 40
0.0
 40
0.0
 40
1.0
 40
1.0
 40
1.0
 40
1.0
 10
177.8549440495435
 20
193.1666642950251
 30
0.0
 10
177.6128204172276
 20
193.0992042029834
 30
0.0
 10
177.3706428911263
 20
193.0319639567113
 30
0.0
 10
177.1284114800971
 20
192.9649435200779
 30
0.0
  0
SPLINE
  5
25A
330
1F
100
AcDbEntity
  8
1
100
AcDbSpline
210
0.0
220
0.0
230
1.0
 70
     8
 71
     3
 72
     8
 73
     4
 74
     0
 42
0.000000001
 43
0.00000001
 40
0.0
 40
0.0
 40
0.0
 40
0.0
 40
1.0
 40
1.0
 40
1.0
 40
1.0
 10
177.1284114800971
 20
192.9649435200779
 30
0.0
 10
177.3985903040258
 20
191.9918127229114
 30
0.0
 10
177.6687733919341
 20
191.0186609137789
 30
0.0
 10
177.9389640541807
 20
190.0454717790089
 30
0.0
  0
SPLINE
  5
25B
330
1F
100
AcDbEntity
  8
1
100
AcDbSpline
210
0.0
220
0.0
230
1.0
 70
     8
 71
     3
 72
     8
 73
     4
 74
     0
 42
0.000000001
 43
0.00000001
 40
0.0
 40
0.0
 40
0.0
 40
0.0
 40
1.0
 40
1.0
 40
1.0
 40
1.0
 10
174.2536982661152
 20
191.8195530883732
 30
0.0
 10
174.7267711805349
 20
190.9272626855693
 30
0.0
 10
175.1998554492422
 20
190.0349540958364
 30
0.0
 10
175.6729598878348
 20
189.1426131989906
 30
0.0
  0
SPLINE
  5
25C
330
1F
100
AcDbEntity
  8
1
100
AcDbSpline
210
0.0
220
0.0
230
1.0
 70
     8
 71
     3
 72
     8
 73
     4
 74
     0
 42
0.000000001
 43
0.00000001
 40
0.0
 40
0.0
 40
0.0
 40
0.0
 40
1.0
 40
1.0
 40
1.0
 40
1.0
 10
174.2536982661152
 20
191.8195530883732
 30
0.0
 10
174.0317429201325
 20
191.7016237511013
 30
0.0
 10
173.8096820404103
 20
191.583894524684
 30
0.0
 10
173.587515628191
 20
191.4663654067645
 30
0.0
  0
SPLINE
  5
25D
330
1F
100
AcDbEntity
  8
1
100
AcDbSpline
210
0.0
220
0.0
230
1.0
 70
     8
 71
     3
 72
     8
 73
     4
 74
     0
 42
0.000000001
 43
0.00000001
 40
0.0
 40
0.0
 40
0.0
 40
0.0
 40
1.0
 40
1.0
 40
1.0
 40
1.0
 10
173.587515628191
 20
191.4663654067645
 30
0.0
 10
174.0605721772072
 20
190.5740663275728
 30
0.0
 10
174.5336374074651
 20
189.6817476442928
 30
0.0
 10
175.0067180588862
 20
188.7893941362867
 30
0.0
  0
SPLINE
  5
25E
330
1F
100
AcDbEntity
  8
1
100
AcDbSpline
210
0.0
220
0.0
230
1.0
 70
     8
 71
     3
 72
     8
 73
     4
 74
     0
 42
0.000000001
 43
0.00000001
 40
0.0
 40
0.0
 40
0.0
 40
0.0
 40
1.0
 40
1.0
 40
1.0
 40
1.0
 10
164.4704370008872
 20
175.5596463788503
 30
0.0
 10
165.4803776650886
 20
175.5596371172882
 30
0.0
 10
166.4903397161052
 20
175.5596263429871
 30
0.0
 10
167.5003397585895
 20
175.5596128812738
 30
0.0
  0
SPLINE
  5
25F
330
1F
100
AcDbEntity
  8
1
100
AcDbSpline
210
0.0
220
0.0
230
1.0
 70
     8
 71
     3
 72
     8
 73
     4
 74
     0
 42
0.000000001
 43
0.00000001
 40
0.0
 40
0.0
 40
0.0
 40
0.0
 40
1.0
 40
1.0
 40
1.0
 40
1.0
 10
164.4704370008872
 20
176.3136628544739
 30
0.0
 10
165.4803776650886
 20
176.3136721160361
 30
0.0
 10
166.4903397161052
 20
176.313682890337
 30
0.0
 10
167.5003397585895
 20
176.3136963520503
 30
0.0
  0
SPLINE
  5
260
330
1F
100
AcDbEntity
  8
1
100
AcDbSpline
210
0.0
220
0.0
230
1.0
 70
     8
 71
     3
 72
     8
 73
     4
 74
     0
 42
0.000000001
 43
0.00000001
 40
0.0
 40
0.0
 40
0.0
 40
0.0
 40
1.0
 40
1.0
 40
1.0
 40
1.0
 10
164.4704370008872
 20
175.5596463788503
 30
0.0
 10
164.4706632327997
 20
175.8109852040582
 30
0.0
 10
164.4706632327997
 20
176.0623240292661
 30
0.0
 10
164.4704370008872
 20
176.3136628544739
 30
0.0
  0
SPLINE
  5
261
330
1F
100
AcDbEntity
  8
1
100
AcDbSpline
210
0.0
220
0.0
230
1.0
 70
     8
 71
     3
 72
     8
 73
     4
 74
     0
 42
0.000000001
 43
0.00000001
 40
0.0
 40
0.0
 40
0.0
 40
0.0
 40
1.0
 40
1.0
 40
1.0
 40
1.0
 10
175.3173382819401
 20
159.5616638725641
 30
0.0
 10
175.6911472526148
 20
160.4998786660611
 30
0.0
 10
176.0649627340665
 20
161.4381138873339
 30
0.0
 10
176.4387897810667
 20
162.3763853965094
 30
0.0
  0
SPLINE
  5
262
330
1F
100
AcDbEntity
  8
1
100
AcDbSpline
210
0.0
220
0.0
230
1.0
 70
     8
 71
     3
 72
     8
 73
     4
 74
     0
 42
0.000000001
 43
0.00000001
 40
0.0
 40
0.0
 40
0.0
 40
0.0
 40
1.0
 40
1.0
 40
1.0
 40
1.0
 10
176.0178020341527
 20
159.2825736051809
 30
0.0
 10
175.7843952639679
 20
159.3758148930788
 30
0.0
 10
175.5509073447629
 20
159.4688449775198
 30
0.0
 10
175.3173382819401
 20
159.5616638725641
 30
0.0
  0
SPLINE
  5
263
330
1F
100
AcDbEntity
  8
1
100
AcDbSpline
210
0.0
220
0.0
230
1.0
 70
     8
 71
     3
 72
     8
 73
     4
 74
     0
 42
0.000000001
 43
0.00000001
 40
0.0
 40
0.0
 40
0.0
 40
0.0
 40
1.0
 40
1.0
 40
1.0
 40
1.0
 10
176.0178020341527
 20
159.2825736051809
 30
0.0
 10
176.3916282123787
 20
160.2207815425629
 30
0.0
 10
176.76546371198
 20
161.1590087878758
 30
0.0
 10
177.1393157702166
 20
162.0972703316639
 30
0.0
  0
SPLINE
  5
264
330
1F
100
AcDbEntity
  8
1
100
AcDbSpline
210
0.0
220
0.0
230
1.0
 70
     8
 71
     3
 72
     8
 73
     4
 74
     0
 42
0.000000001
 43
0.00000001
 40
0.0
 40
0.0
 40
0.0
 40
0.0
 40
1.0
 40
1.0
 40
1.0
 40
1.0
 10
178.9995020452933
 20
158.454708672208
 30
0.0
 10
179.1628831227924
 20
159.4513464041892
 30
0.0
 10
179.3262661674825
 20
160.4480054859807
 30
0.0
 10
179.4896527064983
 20
161.4447024935351
 30
0.0
  0
SPLINE
  5
265
330
1F
100
AcDbEntity
  8
1
100
AcDbSpline
210
0.0
220
0.0
230
1.0
 70
     8
 71
     3
 72
     8
 73
     4
 74
     0
 42
0.000000001
 43
0.00000001
 40
0.0
 40
0.0
 40
0.0
 40
0.0
 40
1.0
 40
1.0
 40
1.0
 40
1.0
 10
179.743585501872
 20
158.3327223813478
 30
0.0
 10
179.4955902719518
 20
158.373608391282
 30
0.0
 10
179.247562452038
 20
158.4142704809919
 30
0.0
 10
178.9995020452933
 20
158.4547086722079
 30
0.0
  0
SPLINE
  5
266
330
1F
100
AcDbEntity
  8
1
100
AcDbSpline
210
0.0
220
0.0
230
1.0
 70
     8
 71
     3
 72
     8
 73
     4
 74
     0
 42
0.000000001
 43
0.00000001
 40
0.0
 40
0.0
 40
0.0
 40
0.0
 40
1.0
 40
1.0
 40
1.0
 40
1.0
 10
179.743585501872
 20
158.3327223813479
 30
0.0
 10
179.9069848584815
 20
159.3293571166211
 30
0.0
 10
180.0703891679034
 20
160.3260127122368
 30
0.0
 10
180.2338022756707
 20
161.3227053640655
 30
0.0
  0
SPLINE
  5
267
330
1F
100
AcDbEntity
  8
1
100
AcDbSpline
210
0.0
220
0.0
230
1.0
 70
     8
 71
     3
 72
     8
 73
     4
 74
     0
 42
0.000000001
 43
0.00000001
 40
0.0
 40
0.0
 40
0.0
 40
0.0
 40
1.0
 40
1.0
 40
1.0
 40
1.0
 10
182.8335415127894
 20
158.1651898344271
 30
0.0
 10
182.7788551795142
 20
159.1736488322284
 30
0.0
 10
182.72416617786
 20
160.1821291035811
 30
0.0
 10
182.6694724359182
 20
161.1906471651903
 30
0.0
  0
SPLINE
  5
268
330
1F
100
AcDbEntity
  8
1
100
AcDbSpline
210
0.0
220
0.0
230
1.0
 70
     8
 71
     3
 72
     8
 73
     4
 74
     0
 42
0.000000001
 43
0.00000001
 40
0.0
 40
0.0
 40
0.0
 40
0.0
 40
1.0
 40
1.0
 40
1.0
 40
1.0
 10
183.5864521582938
 20
158.2060114634727
 30
0.0
 10
183.3354710377636
 20
158.1926302254957
 30
0.0
 10
183.0845008224787
 20
158.1790230182315
 30
0.0
 10
182.8335415127894
 20
158.1651898344271
 30
0.0
  0
SPLINE
  5
269
330
1F
100
AcDbEntity
  8
1
100
AcDbSpline
210
0.0
220
0.0
230
1.0
 70
     8
 71
     3
 72
     8
 73
     4
 74
     0
 42
0.000000001
 43
0.00000001
 40
0.0
 40
0.0
 40
0.0
 40
0.0
 40
1.0
 40
1.0
 40
1.0
 40
1.0
 10
183.5864521582938
 20
158.2060114634727
 30
0.0
 10
183.5317843209771
 20
159.2144714640957
 30
0.0
 10
183.4771168363221
 20
160.2229529020663
 30
0.0
 10
183.4224499783213
 20
161.2314724212804
 30
0.0
  0
SPLINE
  5
26A
330
1F
100
AcDbEntity
  8
1
100
AcDbSpline
210
0.0
220
0.0
230
1.0
 70
     8
 71
     3
 72
     8
 73
     4
 74
     0
 42
0.000000001
 43
0.00000001
 40
0.0
 40
0.0
 40
0.0
 40
0.0
 40
1.0
 40
1.0
 40
1.0
 40
1.0
 10
184.7515398078283
 20
158.3327223813478
 30
0.0
 10
184.5881404512189
 20
159.3293571166209
 30
0.0
 10
184.424736141797
 20
160.3260127122367
 30
0.0
 10
184.2613230340298
 20
161.3227053640654
 30
0.0
  0
SPLINE
  5
26B
330
1F
100
AcDbEntity
  8
1
100
AcDbSpline
210
0.0
220
0.0
230
1.0
 70
     8
 71
     3
 72
     8
 73
     4
 74
     0
 42
0.000000001
 43
0.00000001
 40
0.0
 40
0.0
 40
0.0
 40
0.0
 40
1.0
 40
1.0
 40
1.0
 40
1.0
 10
185.495623264407
 20
158.4547086722079
 30
0.0
 10
185.2475628576624
 20
158.4142704809918
 30
0.0
 10
184.9995350377485
 20
158.373608391282
 30
0.0
 10
184.7515398078283
 20
158.3327223813478
 30
0.0
  0
SPLINE
  5
26C
330
1F
100
AcDbEntity
  8
1
100
AcDbSpline
210
0.0
220
0.0
230
1.0
 70
     8
 71
     3
 72
     8
 73
     4
 74
     0
 42
0.000000001
 43
0.00000001
 40
0.0
 40
0.0
 40
0.0
 40
0.0
 40
1.0
 40
1.0
 40
1.0
 40
1.0
 10
185.4956232644069
 20
158.4547086722079
 30
0.0
 10
185.3322421869078
 20
159.4513464041891
 30
0.0
 10
185.1688591422179
 20
160.4480054859807
 30
0.0
 10
185.0054726032022
 20
161.4447024935351
 30
0.0
  0
SPLINE
  5
26D
330
1F
100
AcDbEntity
  8
1
100
AcDbSpline
210
0.0
220
0.0
230
1.0
 70
     8
 71
     3
 72
     8
 73
     4
 74
     0
 42
0.000000001
 43
0.00000001
 40
0.0
 40
0.0
 40
0.0
 40
0.0
 40
1.0
 40
1.0
 40
1.0
 40
1.0
 10
191.9118100605247
 20
161.0111511474293
 30
0.0
 10
191.3450367572983
 20
161.8470627265112
 30
0.0
 10
190.7782501999906
 20
162.6829911582952
 30
0.0
 10
190.2114400980209
 20
163.5189495270581
 30
0.0
  0
SPLINE
  5
26E
330
1F
100
AcDbEntity
  8
1
100
AcDbSpline
210
0.0
220
0.0
230
1.0
 70
     8
 71
     3
 72
     8
 73
     4
 74
     0
 42
0.000000001
 43
0.00000001
 40
0.0
 40
0.0
 40
0.0
 40
0.0
 40
1.0
 40
1.0
 40
1.0
 40
1.0
 10
192.5359012018274
 20
161.4342954406194
 30
0.0
 10
192.3277436461835
 20
161.2934344458541
 30
0.0
 10
192.1197132660141
 20
161.1523863477343
 30
0.0
 10
191.9118100605247
 20
161.0111511474293
 30
0.0
  0
SPLINE
  5
26F
330
1F
100
AcDbEntity
  8
1
100
AcDbSpline
210
0.0
220
0.0
230
1.0
 70
     8
 71
     3
 72
     8
 73
     4
 74
     0
 42
0.000000001
 43
0.00000001
 40
0.0
 40
0.0
 40
0.0
 40
0.0
 40
1.0
 40
1.0
 40
1.0
 40
1.0
 10
192.5359012018274
 20
161.4342954406194
 30
0.0
 10
191.9691432299871
 20
162.270217414639
 30
0.0
 10
191.4023745082201
 20
163.1061579392197
 30
0.0
 10
190.8355866904745
 20
163.9421314170614
 30
0.0
  0
SPLINE
  5
270
330
1F
100
AcDbEntity
  8
1
100
AcDbSpline
210
0.0
220
0.0
230
1.0
 70
     8
 71
     3
 72
     8
 73
     4
 74
     0
 42
0.000000001
 43
0.00000001
 40
0.0
 40
0.0
 40
0.0
 40
0.0
 40
1.0
 40
1.0
 40
1.0
 40
1.0
 10
193.4688886127385
 20
162.1435340315661
 30
0.0
 10
192.8150598194797
 20
162.9132664879426
 30
0.0
 10
192.1612160277382
 20
163.6830142652116
 30
0.0
 10
191.5073455925976
 20
164.452789258342
 30
0.0
  0
SPLINE
  5
271
330
1F
100
AcDbEntity
  8
1
100
AcDbSpline
210
0.0
220
0.0
230
1.0
 70
     8
 71
     3
 72
     8
 73
     4
 74
     0
 42
0.000000001
 43
0.00000001
 40
0.0
 40
0.0
 40
0.0
 40
0.0
 40
1.0
 40
1.0
 40
1.0
 40
1.0
 10
194.0435713593997
 20
162.6316739563844
 30
0.0
 10
193.8518639784318
 20
162.4691330684237
 30
0.0
 10
193.6603030628872
 20
162.3064197601402
 30
0.0
 10
193.4688886127385
 20
162.1435340315661
 30
0.0
  0
SPLINE
  5
272
330
1F
100
AcDbEntity
  8
1
100
AcDbSpline
210
0.0
220
0.0
230
1.0
 70
     8
 71
     3
 72
     8
 73
     4
 74
     0
 42
0.000000001
 43
0.00000001
 40
0.0
 40
0.0
 40
0.0
 40
0.0
 40
1.0
 40
1.0
 40
1.0
 40
1.0
 10
194.0435713593997
 20
162.6316739563845
 30
0.0
 10
193.3897566837635
 20
163.4014184043775
 30
0.0
 10
192.7359293155487
 20
164.1711801319159
 30
0.0
 10
192.0820794004223
 20
164.9409725549034
 30
0.0
  0
SPLINE
  5
273
330
1F
100
AcDbEntity
  8
1
100
AcDbSpline
210
0.0
220
0.0
230
1.0
 70
     8
 71
     3
 72
     8
 73
     4
 74
     0
 42
0.000000001
 43
0.00000001
 40
0.0
 40
0.0
 40
0.0
 40
0.0
 40
1.0
 40
1.0
 40
1.0
 40
1.0
 10
196.1716534517087
 20
164.8782629067881
 30
0.0
 10
195.3676410873052
 20
165.4894455825731
 30
0.0
 10
194.5636107815359
 20
166.1006399968262
 30
0.0
 10
193.75954860467
 20
166.7118552631057
 30
0.0
  0
SPLINE
  5
274
330
1F
100
AcDbEntity
  8
1
100
AcDbSpline
210
0.0
220
0.0
230
1.0
 70
     8
 71
     3
 72
     8
 73
     4
 74
     0
 42
0.000000001
 43
0.00000001
 40
0.0
 40
0.0
 40
0.0
 40
0.0
 40
1.0
 40
1.0
 40
1.0
 40
1.0
 10
196.6279647805874
 20
165.4785301944598
 30
0.0
 10
196.4756810513719
 20
165.2785782035806
 30
0.0
 10
196.3235772747273
 20
165.0784891079578
 30
0.0
 10
196.1716534517087
 20
164.8782629067881
 30
0.0
  0
SPLINE
  5
275
330
1F
100
AcDbEntity
  8
1
100
AcDbSpline
210
0.0
220
0.0
230
1.0
 70
     8
 71
     3
 72
     8
 73
     4
 74
     0
 42
0.000000001
 43
0.00000001
 40
0.0
 40
0.0
 40
0.0
 40
0.0
 40
1.0
 40
1.0
 40
1.0
 40
1.0
 10
196.6279647805874
 20
165.4785301944598
 30
0.0
 10
195.8239636259011
 20
166.0897276163756
 30
0.0
 10
195.0199463607901
 20
166.7009391853213
 30
0.0
 10
194.2159004772877
 20
167.3121758851541
 30
0.0
  0
SPLINE
  5
276
330
1F
100
AcDbEntity
  8
1
100
AcDbSpline
210
0.0
220
0.0
230
1.0
 70
     8
 71
     3
 72
     8
 73
     4
 74
     0
 42
0.000000001
 43
0.00000001
 40
0.0
 40
0.0
 40
0.0
 40
0.0
 40
1.0
 40
1.0
 40
1.0
 40
1.0
 10
198.2233432805333
 20
168.130069887844
 30
0.0
 10
197.306742069549
 20
168.5541245603986
 30
0.0
 10
196.3901208132343
 20
168.9781868401192
 30
0.0
 10
195.4734639483823
 20
169.4022626330136
 30
0.0
  0
SPLINE
  5
277
330
1F
100
AcDbEntity
  8
1
100
AcDbSpline
210
0.0
220
0.0
230
1.0
 70
     8
 71
     3
 72
     8
 73
     4
 74
     0
 42
0.000000001
 43
0.00000001
 40
0.0
 40
0.0
 40
0.0
 40
0.0
 40
1.0
 40
1.0
 40
1.0
 40
1.0
 10
198.5399465810447
 20
168.8143967071469
 30
0.0
 10
198.4342062403807
 20
168.5863814990001
 30
0.0
 10
198.3286718091539
 20
168.358272558196
 30
0.0
 10
198.2233432805333
 20
168.130069887844
 30
0.0
  0
SPLINE
  5
278
330
1F
100
AcDbEntity
  8
1
100
AcDbSpline
210
0.0
220
0.0
230
1.0
 70
     8
 71
     3
 72
     8
 73
     4
 74
     0
 42
0.000000001
 43
0.00000001
 40
0.0
 40
0.0
 40
0.0
 40
0.0
 40
1.0
 40
1.0
 40
1.0
 40
1.0
 10
198.5399465810446
 20
168.814396707147
 30
0.0
 10
197.6233531477182
 20
169.2384681908339
 30
0.0
 10
196.7067409394267
 20
169.6625500275359
 30
0.0
 10
195.790095379428
 20
170.0866502554705
 30
0.0
  0
SPLINE
  5
279
330
1F
100
AcDbEntity
  8
1
100
AcDbSpline
210
0.0
220
0.0
230
1.0
 70
     8
 71
     3
 72
     8
 73
     4
 74
     0
 42
0.000000001
 43
0.00000001
 40
0.0
 40
0.0
 40
0.0
 40
0.0
 40
1.0
 40
1.0
 40
1.0
 40
1.0
 10
199.5280233631061
 20
171.7469040944239
 30
0.0
 10
198.5416925594374
 20
171.9640024385624
 30
0.0
 10
197.5553405437712
 20
172.181103902862
 30
0.0
 10
196.5689508471426
 20
172.3982109096221
 30
0.0
  0
SPLINE
  5
27A
330
1F
100
AcDbEntity
  8
1
100
AcDbSpline
210
0.0
220
0.0
230
1.0
 70
     8
 71
     3
 72
     8
 73
     4
 74
     0
 42
0.000000001
 43
0.00000001
 40
0.0
 40
0.0
 40
0.0
 40
0.0
 40
1.0
 40
1.0
 40
1.0
 40
1.0
 10
199.6901146167972
 20
172.483292083862
 30
0.0
 10
199.6358620779454
 20
172.2378727240438
 30
0.0
 10
199.5818316696958
 20
171.9924100590169
 30
0.0
 10
199.5280233631061
 20
171.7469040944239
 30
0.0
  0
SPLINE
  5
27B
330
1F
100
AcDbEntity
  8
1
100
AcDbSpline
210
0.0
220
0.0
230
1.0
 70
     8
 71
     3
 72
     8
 73
     4
 74
     0
 42
0.000000001
 43
0.00000001
 40
0.0
 40
0.0
 40
0.0
 40
0.0
 40
1.0
 40
1.0
 40
1.0
 40
1.0
 10
199.6901146167972
 20
172.483292083862
 30
0.0
 10
198.7037877950527
 20
172.7004085180644
 30
0.0
 10
197.717440411699
 20
172.9175310271717
 30
0.0
 10
196.7310565028113
 20
173.1346643279036
 30
0.0
  0
SPLINE
  5
27C
330
1F
100
AcDbEntity
  8
1
100
AcDbSpline
210
0.0
220
0.0
230
1.0
 70
     8
 71
     3
 72
     8
 73
     4
 74
     0
 42
0.000000001
 43
0.00000001
 40
0.0
 40
0.0
 40
0.0
 40
0.0
 40
1.0
 40
1.0
 40
1.0
 40
1.0
 10
170.4515539503006
 20
162.6316739563844
 30
0.0
 10
171.1053686259369
 20
163.4014184043775
 30
0.0
 10
171.7591959941517
 20
164.1711801319158
 30
0.0
 10
172.4130459092781
 20
164.9409725549033
 30
0.0
  0
SPLINE
  5
27D
330
1F
100
AcDbEntity
  8
1
100
AcDbSpline
210
0.0
220
0.0
230
1.0
 70
     8
 71
     3
 72
     8
 73
     4
 74
     0
 42
0.000000001
 43
0.00000001
 40
0.0
 40
0.0
 40
0.0
 40
0.0
 40
1.0
 40
1.0
 40
1.0
 40
1.0
 10
171.0262366969619
 20
162.1435340315662
 30
0.0
 10
170.8348222468132
 20
162.3064197601401
 30
0.0
 10
170.6432613312686
 20
162.4691330684237
 30
0.0
 10
170.4515539503006
 20
162.6316739563844
 30
0.0
  0
SPLINE
  5
27E
330
1F
100
AcDbEntity
  8
1
100
AcDbSpline
210
0.0
220
0.0
230
1.0
 70
     8
 71
     3
 72
     8
 73
     4
 74
     0
 42
0.000000001
 43
0.00000001
 40
0.0
 40
0.0
 40
0.0
 40
0.0
 40
1.0
 40
1.0
 40
1.0
 40
1.0
 10
171.0262366969619
 20
162.1435340315662
 30
0.0
 10
171.6800654902206
 20
162.9132664879427
 30
0.0
 10
172.3339092819622
 20
163.6830142652117
 30
0.0
 10
172.9877797171028
 20
164.452789258342
 30
0.0
  0
SPLINE
  5
27F
330
1F
100
AcDbEntity
  8
1
100
AcDbSpline
210
0.0
220
0.0
230
1.0
 70
     8
 71
     3
 72
     8
 73
     4
 74
     0
 42
0.000000001
 43
0.00000001
 40
0.0
 40
0.0
 40
0.0
 40
0.0
 40
1.0
 40
1.0
 40
1.0
 40
1.0
 10
167.8671605291129
 20
165.4785301944599
 30
0.0
 10
168.6711616837993
 20
166.0897276163757
 30
0.0
 10
169.4751789489103
 20
166.7009391853214
 30
0.0
 10
170.2792248324126
 20
167.3121758851541
 30
0.0
  0
SPLINE
  5
280
330
1F
100
AcDbEntity
  8
1
100
AcDbSpline
210
0.0
220
0.0
230
1.0
 70
     8
 71
     3
 72
     8
 73
     4
 74
     0
 42
0.000000001
 43
0.00000001
 40
0.0
 40
0.0
 40
0.0
 40
0.0
 40
1.0
 40
1.0
 40
1.0
 40
1.0
 10
168.3234718579915
 20
164.8782629067882
 30
0.0
 10
168.1715480349729
 20
165.0784891079579
 30
0.0
 10
168.0194442583286
 20
165.2785782035807
 30
0.0
 10
167.8671605291129
 20
165.4785301944599
 30
0.0
  0
SPLINE
  5
281
330
1F
100
AcDbEntity
  8
1
100
AcDbSpline
210
0.0
220
0.0
230
1.0
 70
     8
 71
     3
 72
     8
 73
     4
 74
     0
 42
0.000000001
 43
0.00000001
 40
0.0
 40
0.0
 40
0.0
 40
0.0
 40
1.0
 40
1.0
 40
1.0
 40
1.0
 10
168.3234718579915
 20
164.8782629067882
 30
0.0
 10
169.1274842223951
 20
165.4894455825732
 30
0.0
 10
169.9315145281644
 20
166.1006399968263
 30
0.0
 10
170.7355767050303
 20
166.7118552631058
 30
0.0
  0
SPLINE
  5
282
330
1F
100
AcDbEntity
  8
1
100
AcDbSpline
210
0.0
220
0.0
230
1.0
 70
     8
 71
     3
 72
     8
 73
     4
 74
     0
 42
0.000000001
 43
0.00000001
 40
0.0
 40
0.0
 40
0.0
 40
0.0
 40
1.0
 40
1.0
 40
1.0
 40
1.0
 10
165.9551787286557
 20
168.814396707147
 30
0.0
 10
166.8717721619822
 20
169.2384681908339
 30
0.0
 10
167.7883843702737
 20
169.662550027536
 30
0.0
 10
168.7050299302723
 20
170.0866502554706
 30
0.0
  0
SPLINE
  5
283
330
1F
100
AcDbEntity
  8
1
100
AcDbSpline
210
0.0
220
0.0
230
1.0
 70
     8
 71
     3
 72
     8
 73
     4
 74
     0
 42
0.000000001
 43
0.00000001
 40
0.0
 40
0.0
 40
0.0
 40
0.0
 40
1.0
 40
1.0
 40
1.0
 40
1.0
 10
166.2717820291669
 20
168.1300698878441
 30
0.0
 10
166.1664535005465
 20
168.3582725581962
 30
0.0
 10
166.0609190693196
 20
168.5863814990003
 30
0.0
 10
165.9551787286557
 20
168.814396707147
 30
0.0
  0
SPLINE
  5
284
330
1F
100
AcDbEntity
  8
1
100
AcDbSpline
210
0.0
220
0.0
230
1.0
 70
     8
 71
     3
 72
     8
 73
     4
 74
     0
 42
0.000000001
 43
0.00000001
 40
0.0
 40
0.0
 40
0.0
 40
0.0
 40
1.0
 40
1.0
 40
1.0
 40
1.0
 10
166.2717820291669
 20
168.1300698878441
 30
0.0
 10
167.1883832401513
 20
168.5541245603987
 30
0.0
 10
168.105004496466
 20
168.9781868401193
 30
0.0
 10
169.0216613613181
 20
169.4022626330138
 30
0.0
  0
SPLINE
  5
285
330
1F
100
AcDbEntity
  8
1
100
AcDbSpline
210
0.0
220
0.0
230
1.0
 70
     8
 71
     3
 72
     8
 73
     4
 74
     0
 42
0.000000001
 43
0.00000001
 40
0.0
 40
0.0
 40
0.0
 40
0.0
 40
1.0
 40
1.0
 40
1.0
 40
1.0
 10
164.8050106929031
 20
172.483292083862
 30
0.0
 10
165.7913375146477
 20
172.7004085180644
 30
0.0
 10
166.7776848980013
 20
172.9175310271717
 30
0.0
 10
167.7640688068891
 20
173.1346643279036
 30
0.0
  0
SPLINE
  5
286
330
1F
100
AcDbEntity
  8
1
100
AcDbSpline
210
0.0
220
0.0
230
1.0
 70
     8
 71
     3
 72
     8
 73
     4
 74
     0
 42
0.000000001
 43
0.00000001
 40
0.0
 40
0.0
 40
0.0
 40
0.0
 40
1.0
 40
1.0
 40
1.0
 40
1.0
 10
164.9671019465943
 20
171.7469040944239
 30
0.0
 10
164.9132936400046
 20
171.9924100590169
 30
0.0
 10
164.859263231755
 20
172.2378727240438
 30
0.0
 10
164.8050106929032
 20
172.483292083862
 30
0.0
  0
SPLINE
  5
287
330
1F
100
AcDbEntity
  8
1
100
AcDbSpline
210
0.0
220
0.0
230
1.0
 70
     8
 71
     3
 72
     8
 73
     4
 74
     0
 42
0.000000001
 43
0.00000001
 40
0.0
 40
0.0
 40
0.0
 40
0.0
 40
1.0
 40
1.0
 40
1.0
 40
1.0
 10
164.9671019465943
 20
171.7469040944239
 30
0.0
 10
165.953432750263
 20
171.9640024385624
 30
0.0
 10
166.9397847659292
 20
172.181103902862
 30
0.0
 10
167.9261744625578
 20
172.3982109096221
 30
0.0
  0
SPLINE
  5
288
330
1F
100
AcDbEntity
  8
1
100
AcDbSpline
210
0.0
220
0.0
230
1.0
 70
     8
 71
     3
 72
     8
 73
     4
 74
     0
 42
0.000000001
 43
0.00000001
 40
0.0
 40
0.0
 40
0.0
 40
0.0
 40
1.0
 40
1.0
 40
1.0
 40
1.0
 10
164.5338855125331
 20
174.3894074399251
 30
0.0
 10
165.5379048599384
 20
174.4986104404754
 30
0.0
 10
166.5419453052325
 20
174.6078172572184
 30
0.0
 10
167.5460232287265
 20
174.7170308532201
 30
0.0
  0
SPLINE
  5
289
330
1F
100
AcDbEntity
  8
1
100
AcDbSpline
210
0.0
220
0.0
230
1.0
 70
     8
 71
     3
 72
     8
 73
     4
 74
     0
 42
0.000000001
 43
0.00000001
 40
0.0
 40
0.0
 40
0.0
 40
0.0
 40
1.0
 40
1.0
 40
1.0
 40
1.0
 10
164.615409033753
 20
173.639811041188
 30
0.0
 10
164.5884597215837
 20
173.8896982860551
 30
0.0
 10
164.5612852193432
 20
174.1395637527683
 30
0.0
 10
164.5338855125331
 20
174.3894074399251
 30
0.0
  0
SPLINE
  5
28A
330
1F
100
AcDbEntity
  8
1
100
AcDbSpline
210
0.0
220
0.0
230
1.0
 70
     8
 71
     3
 72
     8
 73
     4
 74
     0
 42
0.000000001
 43
0.00000001
 40
0.0
 40
0.0
 40
0.0
 40
0.0
 40
1.0
 40
1.0
 40
1.0
 40
1.0
 10
164.615409033753
 20
173.639811041188
 30
0.0
 10
165.6194303838603
 20
173.7489956271974
 30
0.0
 10
166.6234731589682
 20
173.8581810216572
 30
0.0
 10
167.6275539933966
 20
173.9673678520585
 30
0.0
  0
SPLINE
  5
28B
330
1F
100
AcDbEntity
  8
1
100
AcDbSpline
210
0.0
220
0.0
230
1.0
 70
     8
 71
     3
 72
     8
 73
     4
 74
     0
 42
0.000000001
 43
0.00000001
 40
0.0
 40
0.0
 40
0.0
 40
0.0
 40
1.0
 40
1.0
 40
1.0
 40
1.0
 10
165.2806338471498
 20
170.6176642460565
 30
0.0
 10
166.2377043630558
 20
170.9401486222313
 30
0.0
 10
167.1947946632252
 20
171.2626412608008
 30
0.0
 10
168.1519201080345
 20
171.5851485768387
 30
0.0
  0
SPLINE
  5
28C
330
1F
100
AcDbEntity
  8
1
100
AcDbSpline
210
0.0
220
0.0
230
1.0
 70
     8
 71
     3
 72
     8
 73
     4
 74
     0
 42
0.000000001
 43
0.00000001
 40
0.0
 40
0.0
 40
0.0
 40
0.0
 40
1.0
 40
1.0
 40
1.0
 40
1.0
 10
165.5213924615641
 20
169.9031181418077
 30
0.0
 10
165.4413555449303
 20
170.1413677528105
 30
0.0
 10
165.3611026819067
 20
170.3795497902037
 30
0.0
 10
165.2806338471497
 20
170.6176642460565
 30
0.0
  0
SPLINE
  5
28D
330
1F
100
AcDbEntity
  8
1
100
AcDbSpline
210
0.0
220
0.0
230
1.0
 70
     8
 71
     3
 72
     8
 73
     4
 74
     0
 42
0.000000001
 43
0.00000001
 40
0.0
 40
0.0
 40
0.0
 40
0.0
 40
1.0
 40
1.0
 40
1.0
 40
1.0
 10
165.5213924615641
 20
169.9031181418077
 30
0.0
 10
166.4784688919321
 20
170.2255849644851
 30
0.0
 10
167.4355660726029
 20
170.5480571824534
 30
0.0
 10
168.3927001141037
 20
170.8705389844208
 30
0.0
  0
SPLINE
  5
28E
330
1F
100
AcDbEntity
  8
1
100
AcDbSpline
210
0.0
220
0.0
230
1.0
 70
     8
 71
     3
 72
     8
 73
     4
 74
     0
 42
0.000000001
 43
0.00000001
 40
0.0
 40
0.0
 40
0.0
 40
0.0
 40
1.0
 40
1.0
 40
1.0
 40
1.0
 10
166.8207369154276
 20
167.0946311302842
 30
0.0
 10
167.6861070462181
 20
167.6153178710692
 30
0.0
 10
168.5514947225562
 20
168.1360169341103
 30
0.0
 10
169.4169135666501
 20
168.6567378865277
 30
0.0
  0
SPLINE
  5
28F
330
1F
100
AcDbEntity
  8
1
100
AcDbSpline
210
0.0
220
0.0
230
1.0
 70
     8
 71
     3
 72
     8
 73
     4
 74
     0
 42
0.000000001
 43
0.00000001
 40
0.0
 40
0.0
 40
0.0
 40
0.0
 40
1.0
 40
1.0
 40
1.0
 40
1.0
 10
167.2094730178104
 20
166.4485467021975
 30
0.0
 10
167.0800881494652
 20
166.6640248395892
 30
0.0
 10
166.950509448623
 20
166.8793863155893
 30
0.0
 10
166.8207369154276
 20
167.0946311302842
 30
0.0
  0
SPLINE
  5
290
330
1F
100
AcDbEntity
  8
1
100
AcDbSpline
210
0.0
220
0.0
230
1.0
 70
     8
 71
     3
 72
     8
 73
     4
 74
     0
 42
0.000000001
 43
0.00000001
 40
0.0
 40
0.0
 40
0.0
 40
0.0
 40
1.0
 40
1.0
 40
1.0
 40
1.0
 10
167.2094730178104
 20
166.4485467021975
 30
0.0
 10
168.0748526982689
 20
166.9692175713106
 30
0.0
 10
168.9402514840719
 20
167.4898981702774
 30
0.0
 10
169.8056842086424
 20
168.0105960531635
 30
0.0
  0
SPLINE
  5
291
330
1F
100
AcDbEntity
  8
1
100
AcDbSpline
210
0.0
220
0.0
230
1.0
 70
     8
 71
     3
 72
     8
 73
     4
 74
     0
 42
0.000000001
 43
0.00000001
 40
0.0
 40
0.0
 40
0.0
 40
0.0
 40
1.0
 40
1.0
 40
1.0
 40
1.0
 10
169.0821812095956
 20
163.9850412055316
 30
0.0
 10
169.8153872097444
 20
164.6795835776294
 30
0.0
 10
170.5486076963148
 20
165.3741417556699
 30
0.0
 10
171.2818539163877
 20
166.0687280114715
 30
0.0
  0
SPLINE
  5
292
330
1F
100
AcDbEntity
  8
1
100
AcDbSpline
210
0.0
220
0.0
230
1.0
 70
     8
 71
     3
 72
     8
 73
     4
 74
     0
 42
0.000000001
 43
0.00000001
 40
0.0
 40
0.0
 40
0.0
 40
0.0
 40
1.0
 40
1.0
 40
1.0
 40
1.0
 10
169.6007179318484
 20
163.4376286433932
 30
0.0
 10
169.428036904178
 20
163.6202547564836
 30
0.0
 10
169.2551913306713
 20
163.8027256110747
 30
0.0
 10
169.0821812095956
 20
163.9850412055316
 30
0.0
  0
SPLINE
  5
293
330
1F
100
AcDbEntity
  8
1
100
AcDbSpline
210
0.0
220
0.0
230
1.0
 70
     8
 71
     3
 72
     8
 73
     4
 74
     0
 42
0.000000001
 43
0.00000001
 40
0.0
 40
0.0
 40
0.0
 40
0.0
 40
1.0
 40
1.0
 40
1.0
 40
1.0
 10
169.6007179318484
 20
163.4376286433932
 30
0.0
 10
170.3339366703397
 20
164.1321575677862
 30
0.0
 10
171.0671719758722
 20
164.8267001016388
 30
0.0
 10
171.800436711171
 20
165.521266811154
 30
0.0
  0
SPLINE
  5
294
330
1F
100
AcDbEntity
  8
1
100
AcDbSpline
210
0.0
220
0.0
230
1.0
 70
     8
 71
     3
 72
     8
 73
     4
 74
     0
 42
0.000000001
 43
0.00000001
 40
0.0
 40
0.0
 40
0.0
 40
0.0
 40
1.0
 40
1.0
 40
1.0
 40
1.0
 10
171.959224107873
 20
161.4342954406193
 30
0.0
 10
172.5259820797132
 20
162.270217414639
 30
0.0
 10
173.0927508014802
 20
163.1061579392197
 30
0.0
 10
173.6595386192259
 20
163.9421314170613
 30
0.0
  0
SPLINE
  5
295
330
1F
100
AcDbEntity
  8
1
100
AcDbSpline
210
0.0
220
0.0
230
1.0
 70
     8
 71
     3
 72
     8
 73
     4
 74
     0
 42
0.000000001
 43
0.00000001
 40
0.0
 40
0.0
 40
0.0
 40
0.0
 40
1.0
 40
1.0
 40
1.0
 40
1.0
 10
172.5833152491756
 20
161.0111511474292
 30
0.0
 10
172.3754120436863
 20
161.1523863477343
 30
0.0
 10
172.1673816635169
 20
161.293434445854
 30
0.0
 10
171.959224107873
 20
161.4342954406193
 30
0.0
  0
SPLINE
  5
296
330
1F
100
AcDbEntity
  8
1
100
AcDbSpline
210
0.0
220
0.0
230
1.0
 70
     8
 71
     3
 72
     8
 73
     4
 74
     0
 42
0.000000001
 43
0.00000001
 40
0.0
 40
0.0
 40
0.0
 40
0.0
 40
1.0
 40
1.0
 40
1.0
 40
1.0
 10
172.5833152491756
 20
161.0111511474292
 30
0.0
 10
173.1500885524021
 20
161.8470627265112
 30
0.0
 10
173.7168751097098
 20
162.6829911582952
 30
0.0
 10
174.2836852116796
 20
163.518949527058
 30
0.0
  0
SPLINE
  5
297
330
1F
100
AcDbEntity
  8
1
100
AcDbSpline
210
0.0
220
0.0
230
1.0
 70
     8
 71
     3
 72
     8
 73
     4
 74
     0
 42
0.000000001
 43
0.00000001
 40
0.0
 40
0.0
 40
0.0
 40
0.0
 40
1.0
 40
1.0
 40
1.0
 40
1.0
 10
199.8797162759474
 20
173.639811041188
 30
0.0
 10
198.8756949258401
 20
173.7489956271973
 30
0.0
 10
197.8716521507322
 20
173.8581810216571
 30
0.0
 10
196.8675713163038
 20
173.9673678520585
 30
0.0
  0
SPLINE
  5
298
330
1F
100
AcDbEntity
  8
1
100
AcDbSpline
210
0.0
220
0.0
230
1.0
 70
     8
 71
     3
 72
     8
 73
     4
 74
     0
 42
0.000000001
 43
0.00000001
 40
0.0
 40
0.0
 40
0.0
 40
0.0
 40
1.0
 40
1.0
 40
1.0
 40
1.0
 10
199.9612397971673
 20
174.3894074399251
 30
0.0
 10
199.9338400903571
 20
174.1395637527683
 30
0.0
 10
199.9066655881167
 20
173.8896982860551
 30
0.0
 10
199.8797162759474
 20
173.639811041188
 30
0.0
  0
SPLINE
  5
299
330
1F
100
AcDbEntity
  8
1
100
AcDbSpline
210
0.0
220
0.0
230
1.0
 70
     8
 71
     3
 72
     8
 73
     4
 74
     0
 42
0.000000001
 43
0.00000001
 40
0.0
 40
0.0
 40
0.0
 40
0.0
 40
1.0
 40
1.0
 40
1.0
 40
1.0
 10
199.9612397971672
 20
174.3894074399251
 30
0.0
 10
198.9572204497619
 20
174.4986104404754
 30
0.0
 10
197.9531800044678
 20
174.6078172572184
 30
0.0
 10
196.9491020809739
 20
174.7170308532201
 30
0.0
  0
SPLINE
  5
29A
330
1F
100
AcDbEntity
  8
1
100
AcDbSpline
210
0.0
220
0.0
230
1.0
 70
     8
 71
     3
 72
     8
 73
     4
 74
     0
 42
0.000000001
 43
0.00000001
 40
0.0
 40
0.0
 40
0.0
 40
0.0
 40
1.0
 40
1.0
 40
1.0
 40
1.0
 10
198.9737328481363
 20
169.9031181418078
 30
0.0
 10
198.0166564177684
 20
170.2255849644852
 30
0.0
 10
197.0595592370975
 20
170.5480571824535
 30
0.0
 10
196.1024251955968
 20
170.8705389844208
 30
0.0
  0
SPLINE
  5
29B
330
1F
100
AcDbEntity
  8
1
100
AcDbSpline
210
0.0
220
0.0
230
1.0
 70
     8
 71
     3
 72
     8
 73
     4
 74
     0
 42
0.000000001
 43
0.00000001
 40
0.0
 40
0.0
 40
0.0
 40
0.0
 40
1.0
 40
1.0
 40
1.0
 40
1.0
 10
199.2144914625508
 20
170.6176642460566
 30
0.0
 10
199.1340226277938
 20
170.3795497902037
 30
0.0
 10
199.0537697647703
 20
170.1413677528106
 30
0.0
 10
198.9737328481363
 20
169.9031181418078
 30
0.0
  0
SPLINE
  5
29C
330
1F
100
AcDbEntity
  8
1
100
AcDbSpline
210
0.0
220
0.0
230
1.0
 70
     8
 71
     3
 72
     8
 73
     4
 74
     0
 42
0.000000001
 43
0.00000001
 40
0.0
 40
0.0
 40
0.0
 40
0.0
 40
1.0
 40
1.0
 40
1.0
 40
1.0
 10
199.2144914625507
 20
170.6176642460566
 30
0.0
 10
198.2574209466447
 20
170.9401486222313
 30
0.0
 10
197.3003306464754
 20
171.2626412608006
 30
0.0
 10
196.343205201666
 20
171.5851485768386
 30
0.0
  0
SPLINE
  5
29D
330
1F
100
AcDbEntity
  8
1
100
AcDbSpline
210
0.0
220
0.0
230
1.0
 70
     8
 71
     3
 72
     8
 73
     4
 74
     0
 42
0.000000001
 43
0.00000001
 40
0.0
 40
0.0
 40
0.0
 40
0.0
 40
1.0
 40
1.0
 40
1.0
 40
1.0
 10
197.2856522918899
 20
166.4485467021974
 30
0.0
 10
196.4202726114314
 20
166.9692175713105
 30
0.0
 10
195.5548738256284
 20
167.4898981702773
 30
0.0
 10
194.689441101058
 20
168.0105960531634
 30
0.0
  0
SPLINE
  5
29E
330
1F
100
AcDbEntity
  8
1
100
AcDbSpline
210
0.0
220
0.0
230
1.0
 70
     8
 71
     3
 72
     8
 73
     4
 74
     0
 42
0.000000001
 43
0.00000001
 40
0.0
 40
0.0
 40
0.0
 40
0.0
 40
1.0
 40
1.0
 40
1.0
 40
1.0
 10
197.6743883942727
 20
167.094631130284
 30
0.0
 10
197.5446158610773
 20
166.8793863155892
 30
0.0
 10
197.4150371602352
 20
166.6640248395891
 30
0.0
 10
197.2856522918899
 20
166.4485467021974
 30
0.0
  0
SPLINE
  5
29F
330
1F
100
AcDbEntity
  8
1
100
AcDbSpline
210
0.0
220
0.0
230
1.0
 70
     8
 71
     3
 72
     8
 73
     4
 74
     0
 42
0.000000001
 43
0.00000001
 40
0.0
 40
0.0
 40
0.0
 40
0.0
 40
1.0
 40
1.0
 40
1.0
 40
1.0
 10
197.6743883942727
 20
167.0946311302841
 30
0.0
 10
196.8090182634823
 20
167.615317871069
 30
0.0
 10
195.9436305871443
 20
168.1360169341101
 30
0.0
 10
195.0782117430502
 20
168.6567378865276
 30
0.0
  0
SPLINE
  5
2A0
330
1F
100
AcDbEntity
  8
1
100
AcDbSpline
210
0.0
220
0.0
230
1.0
 70
     8
 71
     3
 72
     8
 73
     4
 74
     0
 42
0.000000001
 43
0.00000001
 40
0.0
 40
0.0
 40
0.0
 40
0.0
 40
1.0
 40
1.0
 40
1.0
 40
1.0
 10
194.894407377852
 20
163.4376286433931
 30
0.0
 10
194.1611886393606
 20
164.1321575677862
 30
0.0
 10
193.4279533338281
 20
164.8267001016387
 30
0.0
 10
192.6946885985294
 20
165.521266811154
 30
0.0
  0
SPLINE
  5
2A1
330
1F
100
AcDbEntity
  8
1
100
AcDbSpline
210
0.0
220
0.0
230
1.0
 70
     8
 71
     3
 72
     8
 73
     4
 74
     0
 42
0.000000001
 43
0.00000001
 40
0.0
 40
0.0
 40
0.0
 40
0.0
 40
1.0
 40
1.0
 40
1.0
 40
1.0
 10
195.4129441001049
 20
163.9850412055316
 30
0.0
 10
195.2399339790291
 20
163.8027256110747
 30
0.0
 10
195.0670884055223
 20
163.6202547564836
 30
0.0
 10
194.894407377852
 20
163.4376286433931
 30
0.0
  0
SPLINE
  5
2A2
330
1F
100
AcDbEntity
  8
1
100
AcDbSpline
210
0.0
220
0.0
230
1.0
 70
     8
 71
     3
 72
     8
 73
     4
 74
     0
 42
0.000000001
 43
0.00000001
 40
0.0
 40
0.0
 40
0.0
 40
0.0
 40
1.0
 40
1.0
 40
1.0
 40
1.0
 10
195.4129441001049
 20
163.9850412055316
 30
0.0
 10
194.6797380999561
 20
164.6795835776294
 30
0.0
 10
193.9465176133855
 20
165.3741417556699
 30
0.0
 10
193.2132713933127
 20
166.0687280114714
 30
0.0
  0
SPLINE
  5
2A3
330
1F
100
AcDbEntity
  8
1
100
AcDbSpline
210
0.0
220
0.0
230
1.0
 70
     8
 71
     3
 72
     8
 73
     4
 74
     0
 42
0.000000001
 43
0.00000001
 40
0.0
 40
0.0
 40
0.0
 40
0.0
 40
1.0
 40
1.0
 40
1.0
 40
1.0
 10
190.2414270435852
 20
160.053756144951
 30
0.0
 10
189.7683541291656
 20
160.9460465477549
 30
0.0
 10
189.2952698604583
 20
161.8383551374878
 30
0.0
 10
188.8221654218656
 20
162.7306960343336
 30
0.0
  0
SPLINE
  5
2A4
330
1F
100
AcDbEntity
  8
1
100
AcDbSpline
210
0.0
220
0.0
230
1.0
 70
     8
 71
     3
 72
     8
 73
     4
 74
     0
 42
0.000000001
 43
0.00000001
 40
0.0
 40
0.0
 40
0.0
 40
0.0
 40
1.0
 40
1.0
 40
1.0
 40
1.0
 10
190.9076096815095
 20
160.4069438265598
 30
0.0
 10
190.6854432692902
 20
160.2894147086403
 30
0.0
 10
190.4633823895678
 20
160.1716854822229
 30
0.0
 10
190.2414270435852
 20
160.053756144951
 30
0.0
  0
SPLINE
  5
2A5
330
1F
100
AcDbEntity
  8
1
100
AcDbSpline
210
0.0
220
0.0
230
1.0
 70
     8
 71
     3
 72
     8
 73
     4
 74
     0
 42
0.000000001
 43
0.00000001
 40
0.0
 40
0.0
 40
0.0
 40
0.0
 40
1.0
 40
1.0
 40
1.0
 40
1.0
 10
190.9076096815095
 20
160.4069438265598
 30
0.0
 10
190.4345531324932
 20
161.2992429057515
 30
0.0
 10
189.9614879022352
 20
162.1915615890315
 30
0.0
 10
189.4884072508143
 20
163.0839150970376
 30
0.0
  0
SPLINE
  5
2A6
330
1F
100
AcDbEntity
  8
1
100
AcDbSpline
210
0.0
220
0.0
230
1.0
 70
     8
 71
     3
 72
     8
 73
     4
 74
     0
 42
0.000000001
 43
0.00000001
 40
0.0
 40
0.0
 40
0.0
 40
0.0
 40
1.0
 40
1.0
 40
1.0
 40
1.0
 10
188.4773232755475
 20
159.2825736051809
 30
0.0
 10
188.1034970973216
 20
160.2207815425628
 30
0.0
 10
187.7296615977203
 20
161.1590087878756
 30
0.0
 10
187.3558095394836
 20
162.0972703316639
 30
0.0
  0
SPLINE
  5
2A7
330
1F
100
AcDbEntity
  8
1
100
AcDbSpline
210
0.0
220
0.0
230
1.0
 70
     8
 71
     3
 72
     8
 73
     4
 74
     0
 42
0.000000001
 43
0.00000001
 40
0.0
 40
0.0
 40
0.0
 40
0.0
 40
1.0
 40
1.0
 40
1.0
 40
1.0
 10
189.1777870277601
 20
159.5616638725641
 30
0.0
 10
188.9442179649373
 20
159.4688449775197
 30
0.0
 10
188.7107300457323
 20
159.3758148930788
 30
0.0
 10
188.4773232755475
 20
159.2825736051809
 30
0.0
  0
SPLINE
  5
2A8
330
1F
100
AcDbEntity
  8
1
100
AcDbSpline
210
0.0
220
0.0
230
1.0
 70
     8
 71
     3
 72
     8
 73
     4
 74
     0
 42
0.000000001
 43
0.00000001
 40
0.0
 40
0.0
 40
0.0
 40
0.0
 40
1.0
 40
1.0
 40
1.0
 40
1.0
 10
189.1777870277601
 20
159.5616638725641
 30
0.0
 10
188.8039780570855
 20
160.4998786660611
 30
0.0
 10
188.4301625756337
 20
161.4381138873338
 30
0.0
 10
188.0563355286336
 20
162.3763853965094
 30
0.0
  0
SPLINE
  5
2A9
330
1F
100
AcDbEntity
  8
1
100
AcDbSpline
210
0.0
220
0.0
230
1.0
 70
     8
 71
     3
 72
     8
 73
     4
 74
     0
 42
0.000000001
 43
0.00000001
 40
0.0
 40
0.0
 40
0.0
 40
0.0
 40
1.0
 40
1.0
 40
1.0
 40
1.0
 10
186.6401812601567
 20
158.706644938299
 30
0.0
 10
186.3699845882717
 20
159.6797707800049
 30
0.0
 10
186.0997807372081
 20
160.6529168242757
 30
0.0
 10
185.829564132894
 20
161.6260987562661
 30
0.0
  0
SPLINE
  5
2AA
330
1F
100
AcDbEntity
  8
1
100
AcDbSpline
210
0.0
220
0.0
230
1.0
 70
     8
 71
     3
 72
     8
 73
     4
 74
     0
 42
0.000000001
 43
0.00000001
 40
0.0
 40
0.0
 40
0.0
 40
0.0
 40
1.0
 40
1.0
 40
1.0
 40
1.0
 10
187.3667138296032
 20
158.9083657132463
 30
0.0
 10
187.124482418574
 20
158.8413452766128
 30
0.0
 10
186.8823048924727
 20
158.7741050303407
 30
0.0
 10
186.6401812601567
 20
158.706644938299
 30
0.0
  0
SPLINE
  5
2AB
330
1F
100
AcDbEntity
  8
1
100
AcDbSpline
210
0.0
220
0.0
230
1.0
 70
     8
 71
     3
 72
     8
 73
     4
 74
     0
 42
0.000000001
 43
0.00000001
 40
0.0
 40
0.0
 40
0.0
 40
0.0
 40
1.0
 40
1.0
 40
1.0
 40
1.0
 10
187.3667138296032
 20
158.9083657132462
 30
0.0
 10
187.0965350056745
 20
159.8814965104127
 30
0.0
 10
186.826351917766
 20
160.8546483195453
 30
0.0
 10
186.5561612555196
 20
161.8278374543153
 30
0.0
  0
SPLINE
  5
2AC
330
1F
100
AcDbEntity
  8
1
100
AcDbSpline
210
0.0
220
0.0
230
1.0
 70
     8
 71
     3
 72
     8
 73
     4
 74
     0
 42
0.000000001
 43
0.00000001
 40
0.0
 40
0.0
 40
0.0
 40
0.0
 40
1.0
 40
1.0
 40
1.0
 40
1.0
 10
180.9086731514066
 20
158.2060114634727
 30
0.0
 10
180.9633409887232
 20
159.2144714640958
 30
0.0
 10
181.0180084733784
 20
160.2229529020663
 30
0.0
 10
181.0726753313793
 20
161.2314724212804
 30
0.0
  0
SPLINE
  5
2AD
330
1F
100
AcDbEntity
  8
1
100
AcDbSpline
210
0.0
220
0.0
230
1.0
 70
     8
 71
     3
 72
     8
 73
     4
 74
     0
 42
0.000000001
 43
0.00000001
 40
0.0
 40
0.0
 40
0.0
 40
0.0
 40
1.0
 40
1.0
 40
1.0
 40
1.0
 10
181.6615837969109
 20
158.1651898344271
 30
0.0
 10
181.4106244872217
 20
158.1790230182315
 30
0.0
 10
181.1596542719368
 20
158.1926302254958
 30
0.0
 10
180.9086731514066
 20
158.2060114634727
 30
0.0
  0
SPLINE
  5
2AE
330
1F
100
AcDbEntity
  8
1
100
AcDbSpline
210
0.0
220
0.0
230
1.0
 70
     8
 71
     3
 72
     8
 73
     4
 74
     0
 42
0.000000001
 43
0.00000001
 40
0.0
 40
0.0
 40
0.0
 40
0.0
 40
1.0
 40
1.0
 40
1.0
 40
1.0
 10
181.6615837969109
 20
158.1651898344271
 30
0.0
 10
181.7162701301861
 20
159.1736488322284
 30
0.0
 10
181.7709591318405
 20
160.1821291035811
 30
0.0
 10
181.8256528737824
 20
161.1906471651903
 30
0.0
  0
SPLINE
  5
2AF
330
1F
100
AcDbEntity
  8
1
100
AcDbSpline
210
0.0
220
0.0
230
1.0
 70
     8
 71
     3
 72
     8
 73
     4
 74
     0
 42
0.000000001
 43
0.00000001
 40
0.0
 40
0.0
 40
0.0
 40
0.0
 40
1.0
 40
1.0
 40
1.0
 40
1.0
 10
177.128411480097
 20
158.9083657132462
 30
0.0
 10
177.3985903040258
 20
159.8814965104127
 30
0.0
 10
177.6687733919342
 20
160.8546483195453
 30
0.0
 10
177.9389640541808
 20
161.8278374543153
 30
0.0
  0
SPLINE
  5
2B0
330
1F
100
AcDbEntity
  8
1
100
AcDbSpline
210
0.0
220
0.0
230
1.0
 70
     8
 71
     3
 72
     8
 73
     4
 74
     0
 42
0.000000001
 43
0.00000001
 40
0.0
 40
0.0
 40
0.0
 40
0.0
 40
1.0
 40
1.0
 40
1.0
 40
1.0
 10
177.8549440495435
 20
158.706644938299
 30
0.0
 10
177.6128204172275
 20
158.7741050303408
 30
0.0
 10
177.3706428911263
 20
158.8413452766128
 30
0.0
 10
177.128411480097
 20
158.9083657132462
 30
0.0
  0
SPLINE
  5
2B1
330
1F
100
AcDbEntity
  8
1
100
AcDbSpline
210
0.0
220
0.0
230
1.0
 70
     8
 71
     3
 72
     8
 73
     4
 74
     0
 42
0.000000001
 43
0.00000001
 40
0.0
 40
0.0
 40
0.0
 40
0.0
 40
1.0
 40
1.0
 40
1.0
 40
1.0
 10
177.8549440495435
 20
158.706644938299
 30
0.0
 10
178.1251407214286
 20
159.6797707800048
 30
0.0
 10
178.3953445724922
 20
160.6529168242756
 30
0.0
 10
178.6655611768063
 20
161.6260987562661
 30
0.0
  0
SPLINE
  5
2B2
330
1F
100
AcDbEntity
  8
1
100
AcDbSpline
210
0.0
220
0.0
230
1.0
 70
     8
 71
     3
 72
     8
 73
     4
 74
     0
 42
0.000000001
 43
0.00000001
 40
0.0
 40
0.0
 40
0.0
 40
0.0
 40
1.0
 40
1.0
 40
1.0
 40
1.0
 10
173.587515628191
 20
160.4069438265597
 30
0.0
 10
174.0605721772071
 20
161.2992429057514
 30
0.0
 10
174.5336374074651
 20
162.1915615890314
 30
0.0
 10
175.0067180588861
 20
163.0839150970375
 30
0.0
  0
SPLINE
  5
2B3
330
1F
100
AcDbEntity
  8
1
100
AcDbSpline
210
0.0
220
0.0
230
1.0
 70
     8
 71
     3
 72
     8
 73
     4
 74
     0
 42
0.000000001
 43
0.00000001
 40
0.0
 40
0.0
 40
0.0
 40
0.0
 40
1.0
 40
1.0
 40
1.0
 40
1.0
 10
174.2536982661152
 20
160.053756144951
 30
0.0
 10
174.0317429201325
 20
160.1716854822228
 30
0.0
 10
173.8096820404103
 20
160.2894147086402
 30
0.0
 10
173.587515628191
 20
160.4069438265597
 30
0.0
  0
SPLINE
  5
2B4
330
1F
100
AcDbEntity
  8
1
100
AcDbSpline
210
0.0
220
0.0
230
1.0
 70
     8
 71
     3
 72
     8
 73
     4
 74
     0
 42
0.000000001
 43
0.00000001
 40
0.0
 40
0.0
 40
0.0
 40
0.0
 40
1.0
 40
1.0
 40
1.0
 40
1.0
 10
174.2536982661152
 20
160.053756144951
 30
0.0
 10
174.7267711805348
 20
160.9460465477548
 30
0.0
 10
175.1998554492421
 20
161.8383551374878
 30
0.0
 10
175.6729598878347
 20
162.7306960343336
 30
0.0
  0
SPLINE
  5
2B5
330
1F
100
AcDbEntity
  8
1
100
AcDbSpline
210
0.0
220
0.0
230
1.0
 70
     8
 71
     3
 72
     8
 73
     4
 74
     0
 42
0.000000001
 43
0.00000001
 40
0.0
 40
0.0
 40
0.0
 40
0.0
 40
1.0
 40
1.0
 40
1.0
 40
1.0
 10
200.0246883088133
 20
175.5596463788503
 30
0.0
 10
199.0147476446119
 20
175.5596371172881
 30
0.0
 10
198.0047855935953
 20
175.5596263429871
 30
0.0
 10
196.994785551111
 20
175.5596128812738
 30
0.0
  0
SPLINE
  5
2B6
330
1F
100
AcDbEntity
  8
1
100
AcDbSpline
210
0.0
220
0.0
230
1.0
 70
     8
 71
     3
 72
     8
 73
     4
 74
     0
 42
0.000000001
 43
0.00000001
 40
0.0
 40
0.0
 40
0.0
 40
0.0
 40
1.0
 40
1.0
 40
1.0
 40
1.0
 10
200.0246883088133
 20
176.3136628544739
 30
0.0
 10
200.0244620769008
 20
176.0623240292661
 30
0.0
 10
200.0244620769008
 20
175.8109852040582
 30
0.0
 10
200.0246883088133
 20
175.5596463788503
 30
0.0
  0
SPLINE
  5
2B7
330
1F
100
AcDbEntity
  8
1
100
AcDbSpline
210
0.0
220
0.0
230
1.0
 70
     8
 71
     3
 72
     8
 73
     4
 74
     0
 42
0.000000001
 43
0.00000001
 40
0.0
 40
0.0
 40
0.0
 40
0.0
 40
1.0
 40
1.0
 40
1.0
 40
1.0
 10
200.0246883088133
 20
176.3136628544739
 30
0.0
 10
199.0147476446119
 20
176.3136721160361
 30
0.0
 10
198.0047855935953
 20
176.313682890337
 30
0.0
 10
196.994785551111
 20
176.3136963520503
 30
0.0
  0
SPLINE
  5
2B8
330
1F
100
AcDbEntity
  8
1
100
AcDbSpline
210
0.0
220
0.0
230
1.0
 70
     8
 71
     3
 72
    10
 73
     6
 74
     0
 42
0.000000001
 43
0.00000001
 40
0.0
 40
0.0
 40
0.0
 40
0.0
 40
0.5
 40
0.5
 40
1.0
 40
1.0
 40
1.0
 40
1.0
 10
146.6696042621754
 20
213.3566895411675
 30
0.0
 10
146.6392622014685
 20
213.3891352301378
 30
0.0
 10
146.6128362331272
 20
213.4218411436512
 30
0.0
 10
146.57947762561
 20
213.4782298457048
 30
0.0
 10
146.5746632895119
 20
213.5014546166621
 30
0.0
 10
146.5930230205222
 20
213.5014546166621
 30
0.0
  0
SPLINE
  5
2B9
330
1F
100
AcDbEntity
  8
1
100
AcDbSpline
210
0.0
220
0.0
230
1.0
 70
     8
 71
     3
 72
     8
 73
     4
 74
     0
 42
0.000000001
 43
0.00000001
 40
0.0
 40
0.0
 40
0.0
 40
0.0
 40
1.0
 40
1.0
 40
1.0
 40
1.0
 10
146.6744997730343
 20
213.3514546166621
 30
0.0
 10
146.6728679369874
 20
213.3531995924438
 30
0.0
 10
146.6712361000349
 20
213.3549445672795
 30
0.0
 10
146.6696042621754
 20
213.3566895411675
 30
0.0
  0
SPLINE
  5
2BA
330
1F
100
AcDbEntity
  8
1
100
AcDbSpline
210
0.0
220
0.0
230
1.0
 70
     8
 71
     3
 72
    18
 73
    14
 74
     0
 42
0.000000001
 43
0.00000001
 40
0.0
 40
0.0
 40
0.0
 40
0.0
 40
0.2500091645428
 40
0.2500091645428
 40
0.3750137468142
 40
0.3750137468142
 40
0.5000183290856
 40
0.5000183290856
 40
0.750027493628401
 40
0.750027493628401
 40
0.8750320758998013
 40
0.8750320758998013
 40
1.0
 40
1.0
 40
1.0
 40
1.0
 10
127.0975626548502
 20
214.8014546166621
 30
0.0
 10
126.4642509082787
 20
214.6694554297727
 30
0.0
 10
125.9026144104795
 20
214.5398593060137
 30
0.0
 10
125.1629714361386
 20
214.3595410707439
 30
0.0
 10
124.9336981790764
 20
214.3017694625951
 30
0.0
 10
124.5105854331659
 20
214.1926377531144
 30
0.0
 10
124.3166116198801
 20
214.1412282438966
 30
0.0
 10
123.8015024939893
 20
214.0023189605912
 30
0.0
 10
123.5414232952349
 20
213.9288215006731
 30
0.0
 10
123.276780862938
 20
213.8533065465755
 30
0.0
 10
123.2094366816077
 20
213.8338687557252
 30
0.0
 10
123.119924820272
 20
213.8079695945809
 30
0.0
 10
123.0977772389173
 20
213.8015169988613
 30
0.0
 10
123.0975642031319
 20
213.801455066707
 30
0.0
  0
SPLINE
  5
2BB
330
1F
100
AcDbEntity
  8
1
100
AcDbSpline
210
0.0
220
0.0
230
1.0
 70
     8
 71
     3
 72
    12
 73
     8
 74
     0
 42
0.000000001
 43
0.00000001
 40
0.0
 40
0.0
 40
0.0
 40
0.0
 40
0.0000007078050079
 40
0.0000007078050079
 40
0.5000003539025042
 40
0.5000003539025042
 40
1.0
 40
1.0
 40
1.0
 40
1.0
 10
153.7975642832994
 20
213.8014557928892
 30
0.0
 10
153.7975650940023
 20
213.801456378518
 30
0.0
 10
153.7975659047238
 20
213.8014569641208
 30
0.0
 10
153.7981925898978
 20
213.8019096333129
 30
0.0
 10
153.9190852672155
 20
213.8894446110161
 30
0.0
 10
154.3874067063472
 20
214.2259814771825
 30
0.0
 10
154.7348911234321
 20
214.4750549464472
 30
0.0
 10
155.1963479444353
 20
214.8014546166621
 30
0.0
  0
SPLINE
  5
2BC
330
1F
100
AcDbEntity
  8
1
100
AcDbSpline
210
0.0
220
0.0
230
1.0
 70
     8
 71
     3
 72
    51
 73
    47
 74
     0
 42
0.000000001
 43
0.00000001
 40
0.0
 40
0.0
 40
0.0
 40
0.0
 40
0.0623887646303925
 40
0.0623887646303925
 40
0.1248917873009974
 40
0.1248917873009974
 40
0.1561432986362999
 40
0.1561432986362999
 40
0.1873948099716023
 40
0.1873948099716023
 40
0.2498978326422076
 40
0.2498978326422076
 40
0.3124008553128129
 40
0.3124008553128129
 40
0.3436523666481153
 40
0.3436523666481153
 40
0.3749038779834178
 40
0.3749038779834178
 40
0.4374069006540231
 40
0.4374069006540231
 40
0.468658411989326
 40
0.468658411989326
 40
0.4999099233246287
 40
0.4999099233246287
 40
0.5624129459952347
 40
0.5624129459952347
 40
0.5936644573305379
 40
0.5936644573305379
 40
0.6249159686658409
 40
0.6561674800011439
 40
0.6561674800011439
 40
0.6874189913364468
 40
0.6874189913364468
 40
0.7499220140070528
 40
0.7499220140070528
 40
0.812425036677659
 40
0.812425036677659
 40
0.8749280593482649
 40
0.8749280593482649
 40
0.9061795706835679
 40
0.9061795706835679
 40
0.9374310820188712
 40
0.9374310820188712
 40
0.9999341046894773
 40
0.9999341046894773
 40
1.0
 40
1.0
 40
1.0
 40
1.0
 10
147.1975624529526
 20
213.8014546522861
 30
0.0
 10
147.1976713507632
 20
213.801436166655
 30
0.0
 10
147.1458333431092
 20
213.8104554037294
 30
0.0
 10
146.9427827211068
 20
213.8448156846758
 30
0.0
 10
146.7924210324678
 20
213.8700112991551
 30
0.0
 10
146.4931710834051
 20
213.9177951712455
 30
0.0
 10
146.3804422158872
 20
213.9354775042211
 30
0.0
 10
146.1346327693443
 20
213.9729785959637
 30
0.0
 10
146.0012116156231
 20
213.992854929632
 30
0.0
 10
145.5700443695242
 20
214.0549607643604
 30
0.0
 10
145.2405021277075
 20
214.099830227834
 30
0.0
 10
144.5006662802351
 20
214.190746920098
 30
0.0
 10
144.1003064443264
 20
214.235552763005
 30
0.0
 10
143.4553893963675
 20
214.2980691220857
 30
0.0
 10
143.2329660449072
 20
214.3181282226188
 30
0.0
 10
142.7727645850327
 20
214.356055854196
 30
0.0
 10
142.5348444860323
 20
214.3739064552793
 30
0.0
 10
141.8137809033533
 20
214.4221793103216
 30
0.0
 10
141.3182772221039
 20
214.4477770369825
 30
0.0
 10
140.5527240683467
 20
214.4740665609062
 30
0.0
 10
140.2924856425545
 20
214.4808315329958
 30
0.0
 10
139.7706371168329
 20
214.4898397293724
 30
0.0
 10
139.5103555278813
 20
214.4920848256014
 30
0.0
 10
138.731384002107
 20
214.4921386152271
 30
0.0
 10
138.2145498713311
 20
214.4832629245254
 30
0.0
 10
137.4431209060004
 20
214.4569928745132
 30
0.0
 10
137.1881238096803
 20
214.4461073335664
 30
0.0
 10
136.6902761935176
 20
214.4208328187044
 30
0.0
 10
136.2021429013398
 20
214.3919767822338
 30
0.0
 10
135.7331335238795
 20
214.3568861987294
 30
0.0
 10
135.2738103121869
 20
214.3191432055185
 30
0.0
 10
135.0479105946438
 20
214.2988308513007
 30
0.0
 10
134.3977568959385
 20
214.2358976215091
 30
0.0
 10
133.998041971807
 20
214.1911334603493
 30
0.0
 10
133.2645357613222
 20
214.1011011405213
 30
0.0
 10
132.9289484851427
 20
214.0554989645148
 30
0.0
 10
132.3524316396415
 20
213.9724943754542
 30
0.0
 10
132.1076872151505
 20
213.9346566660652
 30
0.0
 10
131.8070760541073
 20
213.8866877605586
 30
0.0
 10
131.7179201856634
 20
213.8721423590752
 30
0.0
 10
131.5660944043543
 20
213.8470632627609
 30
0.0
 10
131.5028309985344
 20
213.8364359432099
 30
0.0
 10
131.3503176352041
 20
213.8106316704584
 30
0.0
 10
131.2979778853709
 20
213.8015262216978
 30
0.0
 10
131.29756531095
 20
213.8014550746972
 30
0.0
 10
131.2975643253822
 20
213.801454904826
 30
0.0
 10
131.2975633397398
 20
213.801454735388
 30
0.0
  0
SPLINE
  5
2BD
330
1F
100
AcDbEntity
  8
1
100
AcDbSpline
210
0.0
220
0.0
230
1.0
 70
     8
 71
     3
 72
    12
 73
     8
 74
     0
 42
0.000000001
 43
0.00000001
 40
0.0
 40
0.0
 40
0.0
 40
0.0
 40
0.0000006980839862
 40
0.0000006980839862
 40
0.500000349041993
 40
0.500000349041993
 40
1.0
 40
1.0
 40
1.0
 40
1.0
 10
153.7975642832885
 20
213.8014557929557
 30
0.0
 10
153.7975650940266
 20
213.8014563785356
 30
0.0
 10
153.7975659047481
 20
213.8014569641384
 30
0.0
 10
153.7981925898978
 20
213.8019096333129
 30
0.0
 10
153.9190852672155
 20
213.8894446110162
 30
0.0
 10
154.3874067063472
 20
214.2259814771825
 30
0.0
 10
154.7348911234321
 20
214.4750549464472
 30
0.0
 10
155.1963479444353
 20
214.8014546166621
 30
0.0
  0
SPLINE
  5
2BE
330
1F
100
AcDbEntity
  8
1
100
AcDbSpline
210
0.0
220
0.0
230
1.0
 70
     8
 71
     3
 72
    18
 73
    14
 74
     0
 42
0.000000001
 43
0.00000001
 40
0.0
 40
0.0
 40
0.0
 40
0.0
 40
0.2500504873852577
 40
0.2500504873852577
 40
0.3750757310778866
 40
0.3750757310778866
 40
0.5001009747705154
 40
0.5001009747705154
 40
0.7501514621557742
 40
0.7501514621557742
 40
0.8751767058484032
 40
0.8751767058484032
 40
1.0
 40
1.0
 40
1.0
 40
1.0
 10
195.7975626548503
 20
214.8014546166621
 30
0.0
 10
196.4308744014219
 20
214.6694554297727
 30
0.0
 10
196.9925108992211
 20
214.5398593060137
 30
0.0
 10
197.7321538735619
 20
214.3595410707439
 30
0.0
 10
197.9614271306242
 20
214.3017694625951
 30
0.0
 10
198.3845398765347
 20
214.1926377531144
 30
0.0
 10
198.5785136898205
 20
214.1412282438966
 30
0.0
 10
199.0936228157111
 20
214.0023189605912
 30
0.0
 10
199.3537020144655
 20
213.9288215006731
 30
0.0
 10
199.6183444467625
 20
213.8533065465755
 30
0.0
 10
199.6856886280929
 20
213.8338687557252
 30
0.0
 10
199.7751413127174
 20
213.8079867166379
 30
0.0
 10
199.7972894551888
 20
213.8015340760874
 30
0.0
 10
199.7975601463352
 20
213.8014553459321
 30
0.0
  0
SPLINE
  5
2BF
330
1F
100
AcDbEntity
  8
1
100
AcDbSpline
210
0.0
220
0.0
230
1.0
 70
     8
 71
     3
 72
    24
 73
    20
 74
     0
 42
0.000000001
 43
0.00000001
 40
0.0
 40
0.0
 40
0.0
 40
0.0
 40
0.0004112590487181
 40
0.0004112590487181
 40
0.1253598516676284
 40
0.1253598516676284
 40
0.2503084442865386
 40
0.2503084442865386
 40
0.3752570369054488
 40
0.3752570369054488
 40
0.5002056295243591
 40
0.5002056295243591
 40
0.6251542221432693
 40
0.6251542221432693
 40
0.7501028147621795
 40
0.7501028147621795
 40
0.8750514073810898
 40
0.8750514073810898
 40
1.0
 40
1.0
 40
1.0
 40
1.0
 10
158.8975670100094
 20
213.8014550663632
 30
0.0
 10
158.8975656332902
 20
213.8014549238687
 30
0.0
 10
158.8975645821063
 20
213.801454815235
 30
0.0
 10
158.8973433816516
 20
213.8014320240549
 30
0.0
 10
158.9281597502301
 20
213.8046364912298
 30
0.0
 10
159.0492863810508
 20
213.8168796179593
 30
0.0
 10
159.1389311236163
 20
213.8258503573059
 30
0.0
 10
159.3767529818596
 20
213.8485131090868
 30
0.0
 10
159.5253187470651
 20
213.8622184973989
 30
0.0
 10
159.8688395901486
 20
213.8917035923146
 30
0.0
 10
160.0649803892142
 20
213.9076089865208
 30
0.0
 10
160.5080944885369
 20
213.940000315206
 30
0.0
 10
160.7477480472462
 20
213.9559326835206
 30
0.0
 10
161.2617281616829
 20
213.9855059592262
 30
0.0
 10
161.5393305850358
 20
213.9992750590939
 30
0.0
 10
162.1144097484714
 20
214.0220904041129
 30
0.0
 10
162.4104215796801
 20
214.0311379211469
 30
0.0
 10
163.0192789605421
 20
214.0435195665355
 30
0.0
 10
163.3335650355085
 20
214.0468134840878
 30
0.0
 10
163.6475626548503
 20
214.0468134840878
 30
0.0
  0
SPLINE
  5
2C0
330
1F
100
AcDbEntity
  8
1
100
AcDbSpline
210
0.0
220
0.0
230
1.0
 70
     8
 71
     3
 72
    22
 73
    18
 74
     0
 42
0.000000001
 43
0.00000001
 40
0.0
 40
0.0
 40
0.0
 40
0.0
 40
0.1250552671742704
 40
0.1250552671742704
 40
0.2501105343485409
 40
0.2501105343485409
 40
0.3751658015228113
 40
0.3751658015228113
 40
0.5002210686970817
 40
0.5002210686970817
 40
0.6252763358713521
 40
0.6252763358713521
 40
0.7503316030456226
 40
0.7503316030456226
 40
0.875386870219893
 40
0.875386870219893
 40
1.0
 40
1.0
 40
1.0
 40
1.0
 10
181.647567321696
 20
214.0468128967601
 30
0.0
 10
181.9615655177129
 20
214.0468128967601
 30
0.0
 10
182.2702752100336
 20
214.0435898354527
 30
0.0
 10
182.8775630828291
 20
214.0313242909214
 30
0.0
 10
183.1793029796837
 20
214.0221371621365
 30
0.0
 10
183.7543840759962
 20
213.999339460213
 30
0.0
 10
184.0271063816766
 20
213.985838100924
 30
0.0
 10
184.5432483556189
 20
213.9561988390606
 30
0.0
 10
184.7874727829249
 20
213.9399572748555
 30
0.0
 10
185.2253056374129
 20
213.9079728705739
 30
0.0
 10
185.421854304803
 20
213.8920740841313
 30
0.0
 10
185.7691159042956
 20
213.8622871280693
 30
0.0
 10
185.9165743074118
 20
213.8486786202341
 30
0.0
 10
186.15358249578
 20
213.8261046703643
 30
0.0
 10
186.244902462583
 20
213.8169736096198
 30
0.0
 10
186.3668627593337
 20
213.8046473086818
 30
0.0
 10
186.3971312405984
 20
213.8014991714184
 30
0.0
 10
186.3975626548502
 20
213.8014545112987
 30
0.0
  0
SPLINE
  5
2C1
330
1F
100
AcDbEntity
  8
1
100
AcDbSpline
210
0.0
220
0.0
230
1.0
 70
     8
 71
     3
 72
    30
 73
    26
 74
     0
 42
0.000000001
 43
0.00000001
 40
0.0
 40
0.0
 40
0.0
 40
0.0
 40
0.1249999999999998
 40
0.1249999999999998
 40
0.1874999999999997
 40
0.1874999999999997
 40
0.2499999999999996
 40
0.2499999999999996
 40
0.3749999999999999
 40
0.3749999999999999
 40
0.4374999999999999
 40
0.4374999999999999
 40
0.4999999999999999
 40
0.4999999999999999
 40
0.625
 40
0.625
 40
0.6875
 40
0.6875
 40
0.75
 40
0.75
 40
0.8125
 40
0.8125
 40
0.875
 40
0.875
 40
1.0
 40
1.0
 40
1.0
 40
1.0
 10
47.41794874891707
 20
214.8014546166622
 30
0.0
 10
48.04133391412064
 20
214.6694554297728
 30
0.0
 10
48.71688888203994
 20
214.5398593060138
 30
0.0
 10
49.80686476653159
 20
214.3595410707441
 30
0.0
 10
50.18306245981785
 20
214.3017694625952
 30
0.0
 10
50.96213854450446
 20
214.1926377531145
 30
0.0
 10
51.36603229471257
 20
214.1412282438968
 30
0.0
 10
52.59123845045042
 20
214.0023189605913
 30
0.0
 10
53.43433389680763
 20
213.9288215006732
 30
0.0
 10
54.73905513862496
 20
213.8533065465756
 30
0.0
 10
55.18292214436315
 20
213.8338687557253
 30
0.0
 10
56.07407478580603
 20
213.8079657964998
 30
0.0
 10
56.51853035521879
 20
213.8015132138032
 30
0.0
 10
57.84863065509046
 20
213.8013386139593
 30
0.0
 10
58.73103888564879
 20
213.826787520552
 30
0.0
 10
60.0479956199007
 20
213.9023578167316
 30
0.0
 10
60.48157875773632
 20
213.9335807065285
 30
0.0
 10
61.32864288701035
 20
214.0061873682031
 30
0.0
 10
61.74369404288564
 20
214.0476606048114
 30
0.0
 10
62.55716926035041
 20
214.1396909646286
 30
0.0
 10
62.95559336339625
 20
214.1902505298976
 30
0.0
 10
63.73566225338914
 20
214.2992135158129
 30
0.0
 10
64.11765108363522
 20
214.3577285920591
 30
0.0
 10
65.21652555896969
 20
214.539310077142
 30
0.0
 10
65.89450047838979
 20
214.669442067486
 30
0.0
 10
66.51794874891722
 20
214.8014546166622
 30
0.0
  0
ELLIPSE
  5
2C2
330
1F
100
AcDbEntity
  8
1
100
AcDbEllipse
 10
197.4137176473
 20
137.8724758362
 30
0.0
 11
-20.62569278273674
 21
51.76658539812391
 31
0.0
210
0.0
220
0.0
230
1.0
 40
0.6777373855
 41
6.273201630507566
 42
6.293168983906406
  0
ELLIPSE
  5
2C3
330
1F
100
AcDbEntity
  8
1
100
AcDbEllipse
 10
188.8764670651
 20
135.5021264963
 30
0.0
 11
-9.015188858101453
 21
54.9902193280742
 31
0.0
210
0.0
220
0.0
230
1.0
 40
0.6777374245
 41
6.27320162994073
 42
6.293168984488395
  0
ELLIPSE
  5
2C4
330
1F
100
AcDbEntity
  8
1
100
AcDbEllipse
 10
180.0292583661
 20
135.022439391
 30
0.0
 11
3.016853187443218
 21
55.6425830801158
 31
0.0
210
0.0
220
0.0
230
1.0
 40
0.6777373916
 41
6.273201630311632
 42
6.293168983889807
  0
ELLIPSE
  5
2C5
330
1F
100
AcDbEntity
  8
1
100
AcDbEllipse
 10
175.6186568405
 20
135.5021179269
 30
0.0
 11
9.015190261533121
 21
54.99022789757627
 31
0.0
210
0.0
220
0.0
230
1.0
 40
0.6777373717
 41
6.273201630631078
 42
6.293168983622969
  0
ELLIPSE
  5
2C6
330
1F
100
AcDbEntity
  8
1
100
AcDbEllipse
 10
159.2533155693
 20
142.0226774099
 30
0.0
 11
31.2717562927422
 21
46.12238993423578
 31
0.0
210
0.0
220
0.0
230
1.0
 40
0.6777374385
 41
6.273201629478444
 42
6.293168984439325
  0
ELLIPSE
  5
2C7
330
1F
100
AcDbEntity
  8
1
100
AcDbEllipse
 10
155.7213481964
 20
144.7075807328
 30
0.0
 11
36.07516216380048
 21
42.47096419291032
 31
0.0
210
0.0
220
0.0
230
1.0
 40
0.6777373005
 41
6.2732016319013
 42
6.293168982795411
  0
ELLIPSE
  5
2C8
330
1F
100
AcDbEntity
  8
1
100
AcDbEllipse
 10
149.6281972932
 20
151.1400577529
 30
0.0
 11
44.36173808934322
 21
33.72291652668338
 31
0.0
210
0.0
220
0.0
230
1.0
 40
0.677737367
 41
6.273201631124562
 42
6.293168983978655
  0
ELLIPSE
  5
2C9
330
1F
100
AcDbEntity
  8
1
100
AcDbEllipse
 10
145.060224181
 20
158.7319597835
 30
0.0
 11
50.57407591674985
 21
23.3980590751664
 31
0.0
210
0.0
220
0.0
230
1.0
 40
0.6777369623
 41
6.273201636888858
 42
6.293168977818071
  0
ELLIPSE
  5
2CA
330
1F
100
AcDbEntity
  8
1
100
AcDbEllipse
 10
142.2311236059
 20
167.1283703352
 30
0.0
 11
54.42159225083299
 21
11.97909825107348
 31
0.0
210
0.0
220
0.0
230
1.0
 40
0.6777368436
 41
6.273201639098825
 42
6.293168976532006
  0
ELLIPSE
  5
2CB
330
1F
100
AcDbEntity
  8
1
100
AcDbEllipse
 10
208.7737663375
 20
144.7075933614
 30
0.0
 11
-36.07515136383532
 21
42.47095158483992
 31
0.0
210
0.0
220
0.0
230
1.0
 40
0.6777374015
 41
6.273201630916232
 42
6.293168984784637
  0
ELLIPSE
  5
2CC
330
1F
100
AcDbEntity
  8
1
100
AcDbEllipse
 10
214.8668829941
 20
151.1400919784
 30
0.0
 11
-44.36169306708715
 21
33.72288230093722
 31
0.0
210
0.0
220
0.0
230
1.0
 40
0.677737711
 41
6.273201625307311
 42
6.293168988293973
  0
ELLIPSE
  5
2CD
330
1F
100
AcDbEntity
  8
1
100
AcDbEllipse
 10
219.4347535861
 20
158.7320280675
 30
0.0
 11
-50.57392838171541
 21
23.3979907747424
 31
0.0
210
0.0
220
0.0
230
1.0
 40
0.677737951
 41
6.273201621497609
 42
6.293168991554668
  0
ELLIPSE
  5
2CE
330
1F
100
AcDbEntity
  8
1
100
AcDbEllipse
 10
222.2638173207
 20
167.1284108637
 30
0.0
 11
-54.42140785747361
 21
11.97905776911117
 31
0.0
210
0.0
220
0.0
230
1.0
 40
0.6777379917
 41
6.273201622175595
 42
6.293168993432114
  0
ELLIPSE
  5
2CF
330
1F
100
AcDbEntity
  8
1
100
AcDbEllipse
 10
222.9817380925
 20
171.506546078
 30
0.0
 11
-55.39771030681089
 21
6.024864050244418
 31
0.0
210
0.0
220
0.0
230
1.0
 40
0.6777370184
 41
6.273201635616905
 42
6.293168978200724
  0
ELLIPSE
  5
2D0
330
1F
100
AcDbEntity
  8
1
100
AcDbEllipse
 10
221.0769574198
 20
162.8535082355
 30
0.0
 11
-52.80727904140355
 21
17.79284394622593
 31
0.0
210
0.0
220
0.0
230
1.0
 40
0.6777376339
 41
6.273201626697547
 42
6.29316898741266
  0
ELLIPSE
  5
2D1
330
1F
100
AcDbEntity
  8
1
100
AcDbEllipse
 10
217.3567605679
 20
154.8121510685
 30
0.0
 11
-47.74784123881118
 21
28.72892297924527
 31
0.0
210
0.0
220
0.0
230
1.0
 40
0.6777369058
 41
6.273201638712116
 42
6.293168977977058
  0
ELLIPSE
  5
2D2
330
1F
100
AcDbEntity
  8
1
100
AcDbEllipse
 10
211.9947560765
 20
147.7586162426
 30
0.0
 11
-40.4556269203652
 21
38.32160539972801
 31
0.0
210
0.0
220
0.0
230
1.0
 40
0.6777371332
 41
6.27320163447312
 42
6.2931689804394
  0
ELLIPSE
  5
2D3
330
1F
100
AcDbEntity
  8
1
100
AcDbEllipse
 10
205.2417833078
 20
142.0227164105
 30
0.0
 11
-31.27172986623595
 21
46.12235092949493
 31
0.0
210
0.0
220
0.0
230
1.0
 40
0.6777377251
 41
6.27320162550437
 42
6.293168988906387
  0
ELLIPSE
  5
2D4
330
1F
100
AcDbEntity
  8
1
100
AcDbEllipse
 10
141.5134188571
 20
171.5065494687
 30
0.0
 11
55.39767866223947
 21
6.024860701807485
 31
0.0
210
0.0
220
0.0
230
1.0
 40
0.6777372119
 41
6.273201632182048
 42
6.293168980466937
  0
ELLIPSE
  5
2D5
330
1F
100
AcDbEntity
  8
1
100
AcDbEllipse
 10
143.4181555875
 20
162.8535041097
 30
0.0
 11
52.80729134879607
 21
17.79284805729625
 31
0.0
210
0.0
220
0.0
230
1.0
 40
0.677737555
 41
6.273201628521242
 42
6.293168986911508
  0
ELLIPSE
  5
2D6
330
1F
100
AcDbEntity
  8
1
100
AcDbEllipse
 10
147.1384501545
 20
154.8122025109
 30
0.0
 11
47.74775584535658
 21
28.72887150483984
 31
0.0
210
0.0
220
0.0
230
1.0
 40
0.6777375121
 41
6.273201628438787
 42
6.293168985567712
  0
ELLIPSE
  5
2D7
330
1F
100
AcDbEntity
  8
1
100
AcDbEllipse
 10
152.5004167161
 20
147.7586612965
 30
0.0
 11
40.45557946958949
 21
38.32156031194388
 31
0.0
210
0.0
220
0.0
230
1.0
 40
0.6777375313
 41
6.27320162929247
 42
6.293168986986124
  0
ELLIPSE
  5
2D8
330
1F
100
AcDbEntity
  8
1
100
AcDbEllipse
 10
163.0548604168
 20
139.7353778795
 30
0.0
 11
26.10172674214303
 21
49.23307939077555
 31
0.0
210
0.0
220
0.0
230
1.0
 40
0.6777375122
 41
6.273201628726707
 42
6.293168985857233
  0
ELLIPSE
  5
2D9
330
1F
100
AcDbEntity
  8
1
100
AcDbEllipse
 10
167.0814026388
 20
137.8724631828
 30
0.0
 11
20.6256977932419
 21
51.76659805678261
 31
0.0
210
0.0
220
0.0
230
1.0
 40
0.6777373027
 41
6.273201631297685
 42
6.293168982257316
  0
ELLIPSE
  5
2DA
330
1F
100
AcDbEntity
  8
1
100
AcDbEllipse
 10
171.2857716292
 20
136.4558515582
 30
0.0
 11
14.90783403095463
 21
53.69316544481263
 31
0.0
210
0.0
220
0.0
230
1.0
 40
0.6777373329
 41
6.273201631585954
 42
6.293168983434359
  0
ELLIPSE
  5
2DB
330
1F
100
AcDbEntity
  8
1
100
AcDbEllipse
 10
184.4658664879
 20
135.0224478448
 30
0.0
 11
-3.016852733884719
 21
55.64257462622906
 31
0.0
210
0.0
220
0.0
230
1.0
 40
0.6777374431
 41
6.273201629652725
 42
6.293168984747692
  0
ELLIPSE
  5
2DC
330
1F
100
AcDbEntity
  8
1
100
AcDbEllipse
 10
193.2093493467
 20
136.4558670692
 30
0.0
 11
-14.90782967578227
 21
53.69314993973734
 31
0.0
210
0.0
220
0.0
230
1.0
 40
0.6777374308
 41
6.273201630070518
 42
6.293168984804361
  0
ELLIPSE
  5
2DD
330
1F
100
AcDbEntity
  8
1
100
AcDbEllipse
 10
201.4402553179
 20
139.7353959149
 30
0.0
 11
-26.101717158398
 21
49.23306135997759
 31
0.0
210
0.0
220
0.0
230
1.0
 40
0.6777376364
 41
6.273201626935158
 42
6.293168987724098
  0
ELLIPSE
  5
2DE
330
1F
100
AcDbEntity
  8
1
100
AcDbEllipse
 10
223.2219386389
 20
175.9366546167
 30
0.0
 11
55.72437598400631
 21
0.0
 31
0.0
210
0.0
220
0.0
230
1.0
 40
0.6777369756
 41
3.131608982928689
 42
3.151576324250918
  0
ELLIPSE
  5
2DF
330
1F
100
AcDbEntity
  8
1
100
AcDbEllipse
 10
197.413712765
 20
214.0008211252
 30
0.0
 11
20.62568790583072
 21
51.76657312404575
 31
0.0
210
0.0
220
0.0
230
1.0
 40
0.6777374658
 41
3.131608975832735
 42
3.151576331597899
  0
ELLIPSE
  5
2E0
330
1F
100
AcDbEntity
  8
1
100
AcDbEllipse
 10
188.8764660798
 20
216.3711767901
 30
0.0
 11
9.01518786430583
 21
54.99021338253699
 31
0.0
210
0.0
220
0.0
230
1.0
 40
0.6777374612
 41
3.131608975512054
 42
3.151576331139777
  0
ELLIPSE
  5
2E1
330
1F
100
AcDbEntity
  8
1
100
AcDbEllipse
 10
180.0292579333
 20
216.8508774671
 30
0.0
 11
-3.016853636609653
 21
55.64259070404125
 31
0.0
210
0.0
220
0.0
230
1.0
 40
0.6777373452
 41
3.131608977128827
 42
3.15157632933876
  0
ELLIPSE
  5
2E2
330
1F
100
AcDbEntity
  8
1
100
AcDbEllipse
 10
175.6186563893
 20
216.3711940732
 30
0.0
 11
-9.015190710733094
 21
54.99023066462394
 31
0.0
210
0.0
220
0.0
230
1.0
 40
0.6777373547
 41
3.131608977450773
 42
3.151576329940436
  0
ELLIPSE
  5
2E3
330
1F
100
AcDbEntity
  8
1
100
AcDbEllipse
 10
159.2533234464
 20
209.8506201387
 30
0.0
 11
-31.27174844205354
 21
46.12237823166009
 31
0.0
210
0.0
220
0.0
230
1.0
 40
0.6777375242
 41
3.131608974223577
 42
3.151576331709195
  0
ELLIPSE
  5
2E4
330
1F
100
AcDbEntity
  8
1
100
AcDbEllipse
 10
155.7213719512
 20
207.1657005408
 30
0.0
 11
-36.0751384063731
 21
42.47093623542551
 31
0.0
210
0.0
220
0.0
230
1.0
 40
0.6777375236
 41
3.131608974781276
 42
3.151576332248557
  0
ELLIPSE
  5
2E5
330
1F
100
AcDbEntity
  8
1
100
AcDbEllipse
 10
149.6281777836
 20
200.7332663625
 30
0.0
 11
-44.36175757793735
 21
33.72293143635128
 31
0.0
210
0.0
220
0.0
230
1.0
 40
0.6777372178
 41
3.131608979906924
 42
3.151576328364889
  0
ELLIPSE
  5
2E6
330
1F
100
AcDbEntity
  8
1
100
AcDbEllipse
 10
145.0602475768
 20
193.1413386414
 30
0.0
 11
-50.57405251590084
 21
23.39804827769975
 31
0.0
210
0.0
220
0.0
230
1.0
 40
0.677737119
 41
3.13160898096184
 42
3.151576326508478
  0
ELLIPSE
  5
2E7
330
1F
100
AcDbEntity
  8
1
100
AcDbEllipse
 10
142.2313356784
 20
184.7448922261
 30
0.0
 11
-54.42138017675619
 21
11.97905158624945
 31
0.0
210
0.0
220
0.0
230
1.0
 40
0.6777381641
 41
3.131608964977505
 42
3.151576341315545
  0
ELLIPSE
  5
2E8
330
1F
100
AcDbEntity
  8
1
100
AcDbEllipse
 10
208.7737971201
 20
207.1657521424
 30
0.0
 11
36.07518213384235
 21
42.47098786599965
 31
0.0
210
0.0
220
0.0
230
1.0
 40
0.6777371122
 41
3.131608979806127
 42
3.151576325151413
  0
ELLIPSE
  5
2E9
330
1F
100
AcDbEntity
  8
1
100
AcDbEllipse
 10
214.8668821785
 20
200.7332166864
 30
0.0
 11
44.36169223040282
 21
33.72288176021482
 31
0.0
210
0.0
220
0.0
230
1.0
 40
0.677737717
 41
3.131608971463665
 42
3.151576334628227
  0
ELLIPSE
  5
2EA
330
1F
100
AcDbEntity
  8
1
100
AcDbEllipse
 10
219.4348061226
 20
193.1413054852
 30
0.0
 11
50.57398091391392
 21
23.3980151035936
 31
0.0
210
0.0
220
0.0
230
1.0
 40
0.6777375989
 41
3.131608974126271
 42
3.151576333811199
  0
ELLIPSE
  5
2EB
330
1F
100
AcDbEntity
  8
1
100
AcDbEllipse
 10
222.2639548236
 20
184.7449286596
 30
0.0
 11
54.42154535626338
 21
11.97908807793561
 31
0.0
210
0.0
220
0.0
230
1.0
 40
0.6777371354
 41
3.131608979439024
 42
3.151576325469374
  0
ELLIPSE
  5
2EC
330
1F
100
AcDbEntity
  8
1
100
AcDbEllipse
 10
222.9816281733
 20
180.3667511731
 30
0.0
 11
55.39760039007995
 21
6.024852044714208
 31
0.0
210
0.0
220
0.0
230
1.0
 40
0.6777376908
 41
3.131608973284631
 42
3.151576335678612
  0
ELLIPSE
  5
2ED
330
1F
100
AcDbEntity
  8
1
100
AcDbEllipse
 10
221.0769537896
 20
189.0197997812
 30
0.0
 11
52.80727540954661
 21
17.79284273457168
 31
0.0
210
0.0
220
0.0
230
1.0
 40
0.6777376571
 41
3.131608972874736
 42
3.15157633427584
  0
ELLIPSE
  5
2EE
330
1F
100
AcDbEntity
  8
1
100
AcDbEllipse
 10
217.3566390659
 20
197.0610849969
 30
0.0
 11
47.74771976028853
 21
28.72884977224766
 31
0.0
210
0.0
220
0.0
230
1.0
 40
0.6777377683
 41
3.13160897129354
 42
3.151576335969624
  0
ELLIPSE
  5
2EF
330
1F
100
AcDbEntity
  8
1
100
AcDbEllipse
 10
211.9947515327
 20
204.1146886614
 30
0.0
 11
40.45562238725523
 21
38.32160105917004
 31
0.0
210
0.0
220
0.0
230
1.0
 40
0.6777371714
 41
3.131608980178905
 42
3.151576327269748
  0
ELLIPSE
  5
2F0
330
1F
100
AcDbEntity
  8
1
100
AcDbEllipse
 10
205.241839979
 20
209.8506764058
 30
0.0
 11
31.27178653769247
 21
46.12243451227169
 31
0.0
210
0.0
220
0.0
230
1.0
 40
0.6777371109
 41
3.131608980918642
 42
3.151576326228079
  0
ELLIPSE
  5
2F1
330
1F
100
AcDbEntity
  8
1
100
AcDbEllipse
 10
141.5133243877
 20
180.3667700401
 30
0.0
 11
-55.39777313151854
 21
6.02487097838258
 31
0.0
210
0.0
220
0.0
230
1.0
 40
0.6777366341
 41
3.131608988844299
 42
3.151576320104077
  0
ELLIPSE
  5
2F2
330
1F
100
AcDbEntity
  8
1
100
AcDbEllipse
 10
143.4179531022
 20
189.0198733942
 30
0.0
 11
-52.80749382236875
 21
17.79291636243494
 31
0.0
210
0.0
220
0.0
230
1.0
 40
0.6777362555
 41
3.131608993966386
 42
3.151576314072398
  0
ELLIPSE
  5
2F3
330
1F
100
AcDbEntity
  8
1
100
AcDbEllipse
 10
147.1384766948
 20
197.0610907056
 30
0.0
 11
-47.74772932320636
 21
28.728855457946
 31
0.0
210
0.0
220
0.0
230
1.0
 40
0.6777377007
 41
3.13160897149675
 42
3.151576334179574
  0
ELLIPSE
  5
2F4
330
1F
100
AcDbEntity
  8
1
100
AcDbEllipse
 10
152.5003965333
 20
204.1146671293
 30
0.0
 11
-40.45559962086153
 21
38.32157953772793
 31
0.0
210
0.0
220
0.0
230
1.0
 40
0.6777373619
 41
3.131608977492216
 42
3.15157633019596
  0
ELLIPSE
  5
2F5
330
1F
100
AcDbEntity
  8
1
100
AcDbEllipse
 10
163.0548447332
 20
212.1379609612
 30
0.0
 11
-26.10174241687139
 21
49.23310900284863
 31
0.0
210
0.0
220
0.0
230
1.0
 40
0.6777373084
 41
3.131608978177849
 42
3.15157632930565
  0
ELLIPSE
  5
2F6
330
1F
100
AcDbEntity
  8
1
100
AcDbEllipse
 10
167.0813972098
 20
214.0008595461
 30
0.0
 11
-20.62570326015743
 21
51.76661153721978
 31
0.0
210
0.0
220
0.0
230
1.0
 40
0.6777372143
 41
3.131608978732549
 42
3.151576327086056
  0
ELLIPSE
  5
2F7
330
1F
100
AcDbEntity
  8
1
100
AcDbEllipse
 10
171.2857786831
 20
215.417432347
 30
0.0
 11
-14.90782696010262
 21
53.69314012138301
 31
0.0
210
0.0
220
0.0
230
1.0
 40
0.6777374928
 41
3.131608975446579
 42
3.15157633200558
  0
ELLIPSE
  5
2F8
330
1F
100
AcDbEntity
  8
1
100
AcDbEllipse
 10
184.465866505
 20
216.8508617371
 30
0.0
 11
3.016852749419854
 21
55.64257497488069
 31
0.0
210
0.0
220
0.0
230
1.0
 40
0.677737441
 41
3.131608976012051
 42
3.151576331044518
  0
ELLIPSE
  5
2F9
330
1F
100
AcDbEntity
  8
1
100
AcDbEllipse
 10
193.2093493467
 20
215.4174421641
 30
0.0
 11
14.9078296757823
 21
53.69314993973731
 31
0.0
210
0.0
220
0.0
230
1.0
 40
0.6777374308
 41
3.131608975965019
 42
3.151576330698904
  0
ELLIPSE
  5
2FA
330
1F
100
AcDbEntity
  8
1
100
AcDbEllipse
 10
201.4403010418
 20
212.1379995643
 30
0.0
 11
26.10176288176768
 21
49.23314760615489
 31
0.0
210
0.0
220
0.0
230
1.0
 40
0.6777370427
 41
3.131608981774248
 42
3.151576325073927
  0
ELLIPSE
  5
2FB
330
1F
100
AcDbEntity
  8
1
100
AcDbEllipse
 10
141.2733392431
 20
175.9366546167
 30
0.0
 11
55.7242234117703
 21
0.0
 31
0.0
210
0.0
220
0.0
230
1.0
 40
0.6777379034
 41
6.273201622850765
 42
6.293168991508428
  0
ELLIPSE
  5
2FC
330
1F
100
AcDbEntity
  8
1
  6
Continuous
 62
   252
420
  9672088
100
AcDbEllipse
 10
149.5664941879
 20
213.3514546167
 30
0.0
 11
0.0
 21
0.1500000000000341
 31
0.0
210
0.0
220
0.0
230
1.0
 40
0.9455185756
 41
4.747295565424257
 42
6.283185307179586
  0
ELLIPSE
  5
2FD
330
1F
100
AcDbEntity
  8
1
  6
Continuous
 62
   252
420
  9672088
100
AcDbEllipse
 10
149.1724612099
 20
213.3514546167
 30
0.0
 11
0.0
 21
0.1500000000000341
 31
0.0
210
0.0
220
0.0
230
1.0
 40
0.3255681545
 41
0.0
 42
1.535889741753581
  0
ELLIPSE
  5
2FE
330
1F
100
AcDbEntity
  8
1
100
AcDbEllipse
 10
149.1724612099
 20
213.3514546167
 30
0.0
 11
2.273736754432321E-13
 21
0.1500000000001478
 31
0.0
210
0.0
220
0.0
230
1.0
 40
0.9455185756
 41
4.747295565427187
 42
6.283185307179586
  0
ELLIPSE
  5
2FF
330
1F
100
AcDbEntity
  8
1
  6
Continuous
 62
   252
420
  9672088
100
AcDbEllipse
 10
149.1724612099
 20
213.3514546167
 30
0.0
 11
-0.1499648609377857
 21
-0.00324661113202751
 31
0.0
210
0.0
220
0.0
230
1.0
 40
0.0443332969
 41
3.47333413034398
 42
5.042912481879786
  0
ELLIPSE
  5
300
330
1F
100
AcDbEntity
  8
1
100
AcDbEllipse
 10
139.2487508333
 20
234.9749801651
 30
0.0
 11
2.656180819946428
 21
233.3665542242873
 31
0.0
210
0.0
220
0.0
230
1.0
 40
0.0330113674
 41
4.615452876509453
 42
4.619972557298745
  0
ELLIPSE
  5
301
330
1F
100
AcDbEntity
  8
1
100
AcDbEllipse
 10
138.5642375687
 20
259.9026701307
 30
0.0
 11
215.1390858843162
 21
1.849923762620165E-6
 31
0.0
210
0.0
220
0.0
230
1.0
 40
0.2142856345
 41
4.755785347830042
 42
4.772075706316246
  0
HATCH
  5
302
330
1F
100
AcDbEntity
  8
COTAS
 62
     2
420
 16776960
100
AcDbHatch
 10
0.0
 20
0.0
 30
0.0
210
0.0
220
0.0
230
1.0
  2
ANSI31
 70
     0
 71
     0
 91
        1
 92
        0
 93
        1
 72
     2
 10
182.2475626548502
 20
175.9366546166622
 40
3.000000000000003
 50
0.0
 51
360.0
 73
     1
 97
        0
 75
     0
 76
     1
 52
0.0
 41
1.0
 77
     0
 78
     1
 53
45.0
 43
0.0
 44
0.0
 45
-2.245064030267288
 46
2.245064030267288
 79
     0
 98
        1
 10
0.0
 20
0.0
  0
DIMENSION
  5
303
330
1F
100
AcDbEntity
  8
COTAS
100
AcDbDimension
  2
_D
 10
104.481935512
 20
162.3014546167
 30
0.0
 11
104.481935512
 21
187.3014546167
 31
0.0
 70
   160
  1
<>
 71
     2
 42
-1.0
 73
     0
 74
     0
 75
     0
  3
SLDDIMSTYLE0
100
AcDbAlignedDimension
 13
119.2475626549
 23
212.3014546167
 33
0.0
 14
119.4975626549
 24
162.3014546167
 34
0.0
 50
90.0
100
AcDbRotatedDimension
  0
DIMENSION
  5
313
330
1F
100
AcDbEntity
  8
COTAS
100
AcDbDimension
  2
_D_1
 10
95.8737098294
 20
162.3014546167
 30
0.0
 11
95.8737098294
 21
190.8514546167
 31
0.0
 70
   160
  1
<>
 71
     2
 42
-1.0
 73
     0
 74
     0
 75
     0
  3
SLDDIMSTYLE0
100
AcDbAlignedDimension
 13
127.0975626549
 23
219.4014546167
 33
0.0
 14
119.4975626549
 24
162.3014546167
 34
0.0
 50
90.0
100
AcDbRotatedDimension
  0
DIMENSION
  5
31D
330
1F
100
AcDbEntity
  8
COTAS
100
AcDbDimension
  2
_D_2
 10
119.2475626549
 20
152.1788823211
 30
0.0
 11
139.2475626549
 21
152.1788823211
 31
0.0
 70
   160
  1
Ø<>
 71
     2
 42
-1.0
 73
     0
 74
     0
 75
     0
  3
SLDDIMSTYLE0
100
AcDbAlignedDimension
 13
159.2475626549
 23
162.5514546167
 33
0.0
 14
119.2475626549
 24
162.5514546167
 34
0.0
100
AcDbRotatedDimension
  0
DIMENSION
  5
327
330
1F
100
AcDbEntity
  8
COTAS
100
AcDbDimension
  2
_D_3
 10
119.2475626549
 20
142.7677022258
 30
0.0
 11
161.2475626549
 21
142.7677022258
 31
0.0
 70
   160
  1
<>
 71
     2
 42
-1.0
 73
     0
 74
     0
 75
     0
  3
SLDDIMSTYLE0
100
AcDbAlignedDimension
 13
203.2475626549
 23
175.9366546167
 33
0.0
 14
119.2475626549
 24
187.4264546167
 34
0.0
 50
0.0
100
AcDbRotatedDimension
  0
MTEXT
  5
331
330
1F
100
AcDbEntity
  8
TEXTO
100
AcDbMText
 10
196.2185413126
 20
34.0503339849
 30
0.0
 40
8.0
 41
0.0
 46
0.0
 71
     1
 72
     1
  1
IO
  7
SLDTEXTSTYLE0
 73
     1
 44
1.0
  0
INSERT
  5
337
330
1F
100
AcDbEntity
  8
TEXTO
100
AcDbBlockReference
  2
SW_NOTE_0
 10
13.4249465114
 20
15.2295087339
 30
0.0
  0
INSERT
  5
33D
330
1F
100
AcDbEntity
  8
TEXTO
100
AcDbBlockReference
  2
SW_NOTE_1
 10
52.8964125827
 20
15.505759946
 30
0.0
  0
ENDSEC
  0
SECTION
  2
OBJECTS
  0
DICTIONARY
  5
C
330
0
100
AcDbDictionary
281
     1
  3
ACAD_DETAILVIEWSTYLE
350
346
  3
ACAD_GROUP
350
D
  3
ACAD_LAYOUT
350
1A
  3
ACAD_MATERIAL
350
43
  3
ACAD_MLEADERSTYLE
350
6B
  3
ACAD_MLINESTYLE
350
17
  3
ACAD_PLOTSETTINGS
350
19
  3
ACAD_PLOTSTYLENAME
350
E
  3
ACAD_SCALELIST
350
47
  3
ACAD_SECTIONVIEWSTYLE
350
347
  3
ACAD_TABLESTYLE
350
69
  3
ACAD_VISUALSTYLE
350
2A
  3
ACDB_RECOMPOSE_DATA
350
343
  3
AcDbVariableDictionary
350
33E
  0
SUN
  5
6D
330
29
100
AcDbSun
 90
        1
290
     0
 63
     7
421
 16777215
 40
1.0
291
     1
 91
  2455826
 92
 54000000
292
     0
 70
     2
 71
   256
280
     1
  0
DICTIONARY
  5
346
102
{ACAD_REACTORS
330
C
102
}
330
C
100
AcDbDictionary
281
     1
  0
DICTIONARY
  5
D
102
{ACAD_REACTORS
330
C
102
}
330
C
100
AcDbDictionary
281
     1
  0
DICTIONARY
  5
1A
102
{ACAD_REACTORS
330
C
102
}
330
C
100
AcDbDictionary
281
     1
  3
Layout1
350
1E
  3
Layout2
350
26
  3
Model
350
22
  0
DICTIONARY
  5
43
102
{ACAD_REACTORS
330
C
102
}
330
C
100
AcDbDictionary
281
     1
  3
ByBlock
350
45
  3
ByLayer
350
44
  3
Global
350
46
  0
DICTIONARY
  5
6B
102
{ACAD_REACTORS
330
C
102
}
330
C
100
AcDbDictionary
281
     1
  3
Standard
350
6C
  0
DICTIONARY
  5
17
102
{ACAD_REACTORS
330
C
102
}
330
C
100
AcDbDictionary
281
     1
  3
Standard
350
18
  0
DICTIONARY
  5
19
102
{ACAD_REACTORS
330
C
102
}
330
C
100
AcDbDictionary
281
     1
  0
ACDBDICTIONARYWDFLT
  5
E
102
{ACAD_REACTORS
330
C
102
}
330
C
100
AcDbDictionary
281
     1
  3
Normal
350
F
100
AcDbDictionaryWithDefault
340
F
  0
DICTIONARY
  5
47
102
{ACAD_REACTORS
330
C
102
}
330
C
100
AcDbDictionary
281
     1
  3
A0
350
48
  3
A1
350
49
  3
A2
350
4A
  3
A3
350
4B
  3
A4
350
4C
  3
A5
350
4D
  3
A6
350
4E
  3
A7
350
4F
  3
A8
350
50
  3
A9
350
51
  3
B0
350
52
  3
B1
350
53
  3
B2
350
54
  3
B3
350
55
  3
B4
350
56
  3
B5
350
57
  3
B6
350
58
  3
B7
350
59
  3
B8
350
5A
  3
B9
350
5B
  3
C0
350
5C
  3
C1
350
5D
  3
C2
350
5E
  3
C3
350
5F
  3
C4
350
60
  3
C5
350
61
  3
C6
350
62
  3
C7
350
63
  3
C8
350
64
  3
C9
350
65
  3
D0
350
66
  3
D1
350
67
  3
D2
350
68
  0
DICTIONARY
  5
347
102
{ACAD_REACTORS
330
C
102
}
330
C
100
AcDbDictionary
281
     1
  0
DICTIONARY
  5
69
102
{ACAD_REACTORS
330
C
102
}
330
C
100
AcDbDictionary
281
     1
  3
Standard
350
6A
  0
DICTIONARY
  5
2A
102
{ACAD_REACTORS
330
C
102
}
330
C
100
AcDbDictionary
281
     1
  3
2dWireframe
350
2F
  3
Basic
350
32
  3
Brighten
350
36
  3
ColorChange
350
3A
  3
Conceptual
350
34
  3
Dim
350
35
  3
EdgeColorOff
350
3D
  3
Facepattern
350
39
  3
Flat
350
2B
  3
FlatWithEdges
350
2C
  3
Gouraud
350
2D
  3
GouraudWithEdges
350
2E
  3
Hidden
350
31
  3
JitterOff
350
3B
  3
Linepattern
350
38
  3
OverhangOff
350
3C
  3
Realistic
350
33
  3
Shaded
350
42
  3
Shaded with edges
350
41
  3
Shades of Gray
350
3E
  3
Sketchy
350
3F
  3
Thicken
350
37
  3
Wireframe
350
30
  3
X-Ray
350
40
  0
XRECORD
  5
343
102
{ACAD_REACTORS
330
C
102
}
330
C
100
AcDbXrecord
280
     1
 90
        1
330
6A
  0
DICTIONARY
  5
33E
102
{ACAD_REACTORS
330
C
102
}
330
C
100
AcDbDictionary
281
     1
  3
CANNOSCALE
350
33F
  3
CMLEADERSTYLE
350
345
  3
CTABLESTYLE
350
344
  0
LAYOUT
  5
1E
102
{ACAD_REACTORS
330
1A
102
}
330
1A
100
AcDbPlotSettings
  1

  2
none_device
  4

  6

 40
0.0
 41
0.0
 42
0.0
 43
0.0
 44
0.0
 45
0.0
 46
0.0
 47
0.0
 48
0.0
 49
0.0
140
0.0
141
0.0
142
1.0
143
1.0
 70
   688
 72
     1
 73
     0
 74
     5
  7

 75
    16
 76
     0
 77
     2
 78
   300
147
1.0
148
0.0
149
0.0
100
AcDbLayout
  1
Layout1
 70
     1
 71
     1
 10
0.0
 20
0.0
 11
420.0
 21
297.0
 12
0.0
 22
0.0
 32
0.0
 14
1.0000000000E+20
 24
1.0000000000E+20
 34
1.0000000000E+20
 15
-1.0000000000E+20
 25
-1.0000000000E+20
 35
-1.0000000000E+20
146
0.0
 13
0.0
 23
0.0
 33
0.0
 16
1.0
 26
0.0
 36
0.0
 17
0.0
 27
1.0
 37
0.0
 76
     0
330
1B
  0
LAYOUT
  5
26
102
{ACAD_REACTORS
330
1A
102
}
330
1A
100
AcDbPlotSettings
  1

  2
none_device
  4

  6

 40
0.0
 41
0.0
 42
0.0
 43
0.0
 44
0.0
 45
0.0
 46
0.0
 47
0.0
 48
0.0
 49
0.0
140
0.0
141
0.0
142
1.0
143
1.0
 70
   688
 72
     1
 73
     0
 74
     5
  7

 75
    16
 76
     0
 77
     2
 78
   300
147
1.0
148
0.0
149
0.0
100
AcDbLayout
  1
Layout2
 70
     1
 71
     2
 10
0.0
 20
0.0
 11
0.0
 21
0.0
 12
0.0
 22
0.0
 32
0.0
 14
0.0
 24
0.0
 34
0.0
 15
0.0
 25
0.0
 35
0.0
146
0.0
 13
0.0
 23
0.0
 33
0.0
 16
1.0
 26
0.0
 36
0.0
 17
0.0
 27
1.0
 37
0.0
 76
     0
330
23
  0
LAYOUT
  5
22
102
{ACAD_REACTORS
330
1A
102
}
330
1A
100
AcDbPlotSettings
  1

  2
none_device
  4
Letter_(8.50_x_11.00_Inches)
  6

 40
6.35
 41
6.35
 42
6.35000508
 43
6.35000508
 44
215.9
 45
279.4
 46
0.0
 47
0.0
 48
0.0
 49
0.0
140
0.0
141
0.0
142
1.0
143
1.0
 70
  1712
 72
     1
 73
     0
 74
     0
  7

 75
     0
 76
     0
 77
     2
 78
   300
147
1.0
148
0.0
149
0.0
100
AcDbLayout
  1
Model
 70
     1
 71
     0
 10
0.0
 20
0.0
 11
230.0
 21
265.0
 12
0.0
 22
0.0
 32
0.0
 14
0.0
 24
0.0
 34
0.0
 15
230.0
 25
265.0
 35
0.0
146
0.0
 13
0.0
 23
0.0
 33
0.0
 16
1.0
 26
0.0
 36
0.0
 17
0.0
 27
1.0
 37
0.0
 76
     0
330
1F
331
29
  0
MATERIAL
  5
45
102
{ACAD_REACTORS
330
43
102
}
330
43
100
AcDbMaterial
  1
ByBlock
 72
     1
 94
      127
  0
MATERIAL
  5
44
102
{ACAD_REACTORS
330
43
102
}
330
43
100
AcDbMaterial
  1
ByLayer
 72
     1
 94
      127
  0
MATERIAL
  5
46
102
{ACAD_REACTORS
330
43
102
}
330
43
100
AcDbMaterial
  1
Global
 72
     1
 94
      127
  0
MLEADERSTYLE
  5
6C
102
{ACAD_REACTORS
330
6B
102
}
330
6B
100
AcDbMLeaderStyle
170
     2
171
     1
172
     0
 90
        2
 40
0.0
 41
0.0
173
     1
 91
-1056964608
340
14
 92
       -2
290
     1
 42
2.0
291
     1
 43
8.0
  3
Standard
341
0
 44
4.0
300

342
11
174
     1
178
     6
175
     1
176
     0
 93
-1056964608
 45
4.0
292
     0
297
     0
 46
4.0
343
0
 94
-1056964608
 47
1.0
 49
1.0
140
1.0
293
     1
141
0.0
294
     1
177
     0
142
1.0
295
     0
296
     0
143
3.75
1001
ACAD_MLEADERVER
1070
     2
  0
MLINESTYLE
  5
18
102
{ACAD_REACTORS
330
17
102
}
330
17
100
AcDbMlineStyle
  2
Standard
 70
     0
  3

 62
   256
 51
90.0
 52
90.0
 71
     2
 49
0.5
 62
   256
  6
BYLAYER
 49
-0.5
 62
   256
  6
BYLAYER
  0
ACDBPLACEHOLDER
  5
F
102
{ACAD_REACTORS
330
E
102
}
330
E
  0
SCALE
  5
48
102
{ACAD_REACTORS
330
47
102
}
330
47
100
AcDbScale
 70
     0
300
1:1
140
1.0
141
1.0
290
     1
  0
SCALE
  5
49
102
{ACAD_REACTORS
330
47
102
}
330
47
100
AcDbScale
 70
     0
300
1:2
140
1.0
141
2.0
290
     0
  0
SCALE
  5
4A
102
{ACAD_REACTORS
330
47
102
}
330
47
100
AcDbScale
 70
     0
300
1:4
140
1.0
141
4.0
290
     0
  0
SCALE
  5
4B
102
{ACAD_REACTORS
330
47
102
}
330
47
100
AcDbScale
 70
     0
300
1:5
140
1.0
141
5.0
290
     0
  0
SCALE
  5
4C
102
{ACAD_REACTORS
330
47
102
}
330
47
100
AcDbScale
 70
     0
300
1:8
140
1.0
141
8.0
290
     0
  0
SCALE
  5
4D
102
{ACAD_REACTORS
330
47
102
}
330
47
100
AcDbScale
 70
     0
300
1:10
140
1.0
141
10.0
290
     0
  0
SCALE
  5
4E
102
{ACAD_REACTORS
330
47
102
}
330
47
100
AcDbScale
 70
     0
300
1:16
140
1.0
141
16.0
290
     0
  0
SCALE
  5
4F
102
{ACAD_REACTORS
330
47
102
}
330
47
100
AcDbScale
 70
     0
300
1:20
140
1.0
141
20.0
290
     0
  0
SCALE
  5
50
102
{ACAD_REACTORS
330
47
102
}
330
47
100
AcDbScale
 70
     0
300
1:30
140
1.0
141
30.0
290
     0
  0
SCALE
  5
51
102
{ACAD_REACTORS
330
47
102
}
330
47
100
AcDbScale
 70
     0
300
1:40
140
1.0
141
40.0
290
     0
  0
SCALE
  5
52
102
{ACAD_REACTORS
330
47
102
}
330
47
100
AcDbScale
 70
     0
300
1:50
140
1.0
141
50.0
290
     0
  0
SCALE
  5
53
102
{ACAD_REACTORS
330
47
102
}
330
47
100
AcDbScale
 70
     0
300
1:100
140
1.0
141
100.0
290
     0
  0
SCALE
  5
54
102
{ACAD_REACTORS
330
47
102
}
330
47
100
AcDbScale
 70
     0
300
2:1
140
2.0
141
1.0
290
     0
  0
SCALE
  5
55
102
{ACAD_REACTORS
330
47
102
}
330
47
100
AcDbScale
 70
     0
300
4:1
140
4.0
141
1.0
290
     0
  0
SCALE
  5
56
102
{ACAD_REACTORS
330
47
102
}
330
47
100
AcDbScale
 70
     0
300
8:1
140
8.0
141
1.0
290
     0
  0
SCALE
  5
57
102
{ACAD_REACTORS
330
47
102
}
330
47
100
AcDbScale
 70
     0
300
10:1
140
10.0
141
1.0
290
     0
  0
SCALE
  5
58
102
{ACAD_REACTORS
330
47
102
}
330
47
100
AcDbScale
 70
     0
300
100:1
140
100.0
141
1.0
290
     0
  0
SCALE
  5
59
102
{ACAD_REACTORS
330
47
102
}
330
47
100
AcDbScale
 70
     0
300
1/128" = 1'-0"
140
0.0078125
141
12.0
290
     0
  0
SCALE
  5
5A
102
{ACAD_REACTORS
330
47
102
}
330
47
100
AcDbScale
 70
     0
300
1/64" = 1'-0"
140
0.015625
141
12.0
290
     0
  0
SCALE
  5
5B
102
{ACAD_REACTORS
330
47
102
}
330
47
100
AcDbScale
 70
     0
300
1/32" = 1'-0"
140
0.03125
141
12.0
290
     0
  0
SCALE
  5
5C
102
{ACAD_REACTORS
330
47
102
}
330
47
100
AcDbScale
 70
     0
300
1/16" = 1'-0"
140
0.0625
141
12.0
290
     0
  0
SCALE
  5
5D
102
{ACAD_REACTORS
330
47
102
}
330
47
100
AcDbScale
 70
     0
300
3/32" = 1'-0"
140
0.09375
141
12.0
290
     0
  0
SCALE
  5
5E
102
{ACAD_REACTORS
330
47
102
}
330
47
100
AcDbScale
 70
     0
300
1/8" = 1'-0"
140
0.125
141
12.0
290
     0
  0
SCALE
  5
5F
102
{ACAD_REACTORS
330
47
102
}
330
47
100
AcDbScale
 70
     0
300
3/16" = 1'-0"
140
0.1875
141
12.0
290
     0
  0
SCALE
  5
60
102
{ACAD_REACTORS
330
47
102
}
330
47
100
AcDbScale
 70
     0
300
1/4" = 1'-0"
140
0.25
141
12.0
290
     0
  0
SCALE
  5
61
102
{ACAD_REACTORS
330
47
102
}
330
47
100
AcDbScale
 70
     0
300
3/8" = 1'-0"
140
0.375
141
12.0
290
     0
  0
SCALE
  5
62
102
{ACAD_REACTORS
330
47
102
}
330
47
100
AcDbScale
 70
     0
300
1/2" = 1'-0"
140
0.5
141
12.0
290
     0
  0
SCALE
  5
63
102
{ACAD_REACTORS
330
47
102
}
330
47
100
AcDbScale
 70
     0
300
3/4" = 1'-0"
140
0.75
141
12.0
290
     0
  0
SCALE
  5
64
102
{ACAD_REACTORS
330
47
102
}
330
47
100
AcDbScale
 70
     0
300
1" = 1'-0"
140
1.0
141
12.0
290
     0
  0
SCALE
  5
65
102
{ACAD_REACTORS
330
47
102
}
330
47
100
AcDbScale
 70
     0
300
1-1/2" = 1'-0"
140
1.5
141
12.0
290
     0
  0
SCALE
  5
66
102
{ACAD_REACTORS
330
47
102
}
330
47
100
AcDbScale
 70
     0
300
3" = 1'-0"
140
3.0
141
12.0
290
     0
  0
SCALE
  5
67
102
{ACAD_REACTORS
330
47
102
}
330
47
100
AcDbScale
 70
     0
300
6" = 1'-0"
140
6.0
141
12.0
290
     0
  0
SCALE
  5
68
102
{ACAD_REACTORS
330
47
102
}
330
47
100
AcDbScale
 70
     0
300
1'-0" = 1'-0"
140
12.0
141
12.0
290
     0
  0
TABLESTYLE
  5
6A
102
{ACAD_REACTORS
330
69
102
}
102
{ACAD_XDICTIONARY
360
340
102
}
330
69
100
AcDbTableStyle
  3
Standard
 70
     0
 71
     0
 40
0.06
 41
0.06
280
     0
281
     0
  7
STANDARD
140
4.5
170
     2
 62
     0
 63
   257
283
     0
 90
        4
 91
        0
  1

274
    -2
284
     1
 64
     0
275
    -2
285
     1
 65
     0
276
    -2
286
     1
 66
     0
277
    -2
287
     1
 67
     0
278
    -2
288
     1
 68
     0
279
    -2
289
     1
 69
     0
  7
STANDARD
140
6.0
170
     5
 62
     0
 63
   257
283
     0
 90
        4
 91
        0
  1

274
    -2
284
     1
 64
     0
275
    -2
285
     1
 65
     0
276
    -2
286
     1
 66
     0
277
    -2
287
     1
 67
     0
278
    -2
288
     1
 68
     0
279
    -2
289
     1
 69
     0
  7
STANDARD
140
4.5
170
     5
 62
     0
 63
   257
283
     0
 90
        4
 91
        0
  1

274
    -2
284
     1
 64
     0
275
    -2
285
     1
 65
     0
276
    -2
286
     1
 66
     0
277
    -2
287
     1
 67
     0
278
    -2
288
     1
 68
     0
279
    -2
289
     1
 69
     0
  0
VISUALSTYLE
  5
2F
102
{ACAD_REACTORS
330
2A
102
}
330
2A
100
AcDbVisualStyle
  2
2dWireframe
 70
     4
 71
     0
 72
     2
 73
     0
 90
        0
 40
0.6
 41
30.0
 62
     5
 63
     7
421
 16777215
 74
     1
 91
        4
 64
     7
 65
   257
 75
     1
175
     1
 42
1.0
 92
        0
 66
   257
 43
1.0
 76
     1
 77
     6
 78
     2
 67
     7
 79
     5
170
     0
171
     0
290
     0
174
     0
 93
        1
 44
0.0
173
     0
291
     0
 45
0.0
  0
VISUALSTYLE
  5
32
102
{ACAD_REACTORS
330
2A
102
}
330
2A
100
AcDbVisualStyle
  2
Basic
 70
     7
 71
     1
 72
     0
 73
     1
 90
        0
 40
0.6
 41
30.0
 62
     5
 63
     7
421
 16777215
 74
     0
 91
        4
 64
     7
 65
   257
 75
     1
175
     1
 42
1.0
 92
        8
 66
     7
 43
1.0
 76
     1
 77
     6
 78
     2
 67
     7
 79
     5
170
     0
171
     0
290
     0
174
     0
 93
        1
 44
0.0
173
     0
291
     1
 45
0.0
  0
VISUALSTYLE
  5
36
102
{ACAD_REACTORS
330
2A
102
}
330
2A
100
AcDbVisualStyle
  2
Brighten
 70
    12
 71
     2
 72
     2
 73
     0
 90
        0
 40
0.6
 41
30.0
 62
     5
 63
     7
421
 16777215
 74
     1
 91
        4
 64
     7
 65
   257
 75
     1
175
     1
 42
1.0
 92
        8
 66
     7
 43
1.0
 76
     1
 77
     6
 78
     2
 67
     7
 79
     5
170
     0
171
     0
290
     0
174
     0
 93
        1
 44
50.0
173
     0
291
     1
 45
0.0
  0
VISUALSTYLE
  5
3A
102
{ACAD_REACTORS
330
2A
102
}
330
2A
100
AcDbVisualStyle
  2
ColorChange
 70
    16
 71
     2
 72
     2
 73
     3
 90
        0
 40
0.6
 41
30.0
 62
     5
 63
     8
421
  8421504
 74
     1
 91
        4
 64
     7
 65
   257
 75
     1
175
     1
 42
1.0
 92
        8
 66
     8
424
  8421504
 43
1.0
 76
     1
 77
     6
 78
     2
 67
     7
 79
     5
170
     0
171
     0
290
     0
174
     0
 93
        1
 44
0.0
173
     0
291
     1
 45
0.0
  0
VISUALSTYLE
  5
34
102
{ACAD_REACTORS
330
2A
102
}
330
2A
100
AcDbVisualStyle
  2
Conceptual
 70
     9
 71
     3
 72
     2
 73
     0
 90
        0
 40
0.6
 41
30.0
 62
     5
 63
     7
421
 16777215
 74
     2
 91
        2
 64
     7
 65
   257
 75
     1
175
     1
 42
179.0
 92
        8
 66
     7
 43
1.0
 76
     1
 77
     6
 78
     2
 67
     7
 79
     3
170
     0
171
     0
290
     0
174
     0
 93
        1
 44
0.0
173
     0
291
     0
 45
0.0
  0
VISUALSTYLE
  5
35
102
{ACAD_REACTORS
330
2A
102
}
330
2A
100
AcDbVisualStyle
  2
Dim
 70
    11
 71
     2
 72
     2
 73
     0
 90
        0
 40
0.6
 41
30.0
 62
     5
 63
     7
421
 16777215
 74
     1
 91
        4
 64
     7
 65
   257
 75
     1
175
     1
 42
1.0
 92
        8
 66
     7
 43
1.0
 76
     1
 77
     6
 78
     2
 67
     7
 79
     5
170
     0
171
     0
290
     0
174
     0
 93
        1
 44
-50.0
173
     0
291
     1
 45
0.0
  0
VISUALSTYLE
  5
3D
102
{ACAD_REACTORS
330
2A
102
}
330
2A
100
AcDbVisualStyle
  2
EdgeColorOff
 70
    22
 71
     2
 72
     2
 73
     0
 90
        0
 40
0.6
 41
30.0
 62
     5
 63
     7
421
 16777215
 74
     1
 91
        4
 64
     7
 65
   257
 75
     1
175
     1
 42
1.0
 92
        8
 66
     7
 43
1.0
 76
     1
 77
     6
 78
     2
 67
     7
 79
     5
170
     0
171
     0
290
     0
174
     0
 93
        1
 44
0.0
173
     0
291
     1
 45
0.0
  0
VISUALSTYLE
  5
39
102
{ACAD_REACTORS
330
2A
102
}
330
2A
100
AcDbVisualStyle
  2
Facepattern
 70
    15
 71
     2
 72
     2
 73
     0
 90
        0
 40
0.6
 41
30.0
 62
     5
 63
     7
421
 16777215
 74
     1
 91
        4
 64
     7
 65
   257
 75
     1
175
     1
 42
1.0
 92
        8
 66
     7
 43
1.0
 76
     1
 77
     6
 78
     2
 67
     7
 79
     5
170
     0
171
     0
290
     0
174
     0
 93
        1
 44
0.0
173
     0
291
     1
 45
0.0
  0
VISUALSTYLE
  5
2B
102
{ACAD_REACTORS
330
2A
102
}
330
2A
100
AcDbVisualStyle
  2
Flat
 70
     0
 71
     2
 72
     1
 73
     1
 90
        2
 40
0.6
 41
30.0
 62
     5
 63
     7
421
 16777215
 74
     0
 91
        0
 64
     7
 65
   257
 75
     1
175
     1
 42
1.0
 92
        8
 66
     7
 43
1.0
 76
     1
 77
     6
 78
     2
 67
     7
 79
     5
170
     0
171
     0
290
     0
174
     0
 93
       13
 44
0.0
173
     0
291
     1
 45
0.0
  0
VISUALSTYLE
  5
2C
102
{ACAD_REACTORS
330
2A
102
}
330
2A
100
AcDbVisualStyle
  2
FlatWithEdges
 70
     1
 71
     2
 72
     1
 73
     1
 90
        2
 40
0.6
 41
30.0
 62
     5
 63
     7
421
 16777215
 74
     1
 91
        0
 64
     7
 65
   257
 75
     1
175
     1
 42
1.0
 92
        0
 66
   257
 43
1.0
 76
     1
 77
     6
 78
     2
 67
     7
 79
     5
170
     0
171
     0
290
     0
174
     0
 93
       13
 44
0.0
173
     0
291
     1
 45
0.0
  0
VISUALSTYLE
  5
2D
102
{ACAD_REACTORS
330
2A
102
}
330
2A
100
AcDbVisualStyle
  2
Gouraud
 70
     2
 71
     2
 72
     2
 73
     1
 90
        2
 40
0.6
 41
30.0
 62
     5
 63
     7
421
 16777215
 74
     0
 91
        0
 64
     7
 65
   257
 75
     1
175
     1
 42
1.0
 92
        0
 66
     7
 43
1.0
 76
     1
 77
     6
 78
     2
 67
     7
 79
     5
170
     0
171
     0
290
     0
174
     0
 93
       13
 44
0.0
173
     0
291
     1
 45
0.0
  0
VISUALSTYLE
  5
2E
102
{ACAD_REACTORS
330
2A
102
}
330
2A
100
AcDbVisualStyle
  2
GouraudWithEdges
 70
     3
 71
     2
 72
     2
 73
     1
 90
        2
 40
0.6
 41
30.0
 62
     5
 63
     7
421
 16777215
 74
     1
 91
        0
 64
     7
 65
   257
 75
     1
175
     1
 42
1.0
 92
        0
 66
   257
 43
1.0
 76
     1
 77
     6
 78
     2
 67
     7
 79
     5
170
     0
171
     0
290
     0
174
     0
 93
       13
 44
0.0
173
     0
291
     1
 45
0.0
  0
VISUALSTYLE
  5
31
102
{ACAD_REACTORS
330
2A
102
}
330
2A
100
AcDbVisualStyle
  2
Hidden
 70
     6
 71
     1
 72
     2
 73
     2
 90
        0
 40
0.6
 41
30.0
 62
     5
 63
     7
421
 16777215
 74
     2
 91
        2
 64
     7
 65
   257
 75
     2
175
     1
 42
40.0
 92
        0
 66
   257
 43
1.0
 76
     1
 77
     6
 78
     2
 67
     7
 79
     3
170
     0
171
     0
290
     0
174
     0
 93
        1
 44
0.0
173
     0
291
     0
 45
0.0
  0
VISUALSTYLE
  5
3B
102
{ACAD_REACTORS
330
2A
102
}
330
2A
100
AcDbVisualStyle
  2
JitterOff
 70
    20
 71
     2
 72
     2
 73
     0
 90
        0
 40
0.6
 41
30.0
 62
     5
 63
     7
421
 16777215
 74
     1
 91
        4
 64
     7
 65
   257
 75
     1
175
     1
 42
1.0
 92
       10
 66
     7
 43
1.0
 76
     1
 77
     6
 78
     2
 67
     7
 79
     5
170
     0
171
     0
290
     0
174
     0
 93
        1
 44
0.0
173
     0
291
     1
 45
0.0
  0
VISUALSTYLE
  5
38
102
{ACAD_REACTORS
330
2A
102
}
330
2A
100
AcDbVisualStyle
  2
Linepattern
 70
    14
 71
     2
 72
     2
 73
     0
 90
        0
 40
0.6
 41
30.0
 62
     5
 63
     7
421
 16777215
 74
     1
 91
        4
 64
     7
 65
   257
 75
     7
175
     7
 42
1.0
 92
        8
 66
     7
 43
1.0
 76
     1
 77
     6
 78
     2
 67
     7
 79
     5
170
     0
171
     0
290
     0
174
     0
 93
        1
 44
0.0
173
     0
291
     1
 45
0.0
  0
VISUALSTYLE
  5
3C
102
{ACAD_REACTORS
330
2A
102
}
330
2A
100
AcDbVisualStyle
  2
OverhangOff
 70
    21
 71
     2
 72
     2
 73
     0
 90
        0
 40
0.6
 41
30.0
 62
     5
 63
     7
421
 16777215
 74
     1
 91
        4
 64
     7
 65
   257
 75
     1
175
     1
 42
1.0
 92
        9
 66
     7
 43
1.0
 76
     1
 77
     6
 78
     2
 67
     7
 79
     5
170
     0
171
     0
290
     0
174
     0
 93
        1
 44
0.0
173
     0
291
     1
 45
0.0
  0
VISUALSTYLE
  5
33
102
{ACAD_REACTORS
330
2A
102
}
330
2A
100
AcDbVisualStyle
  2
Realistic
 70
     8
 71
     2
 72
     3
 73
     0
 90
        2
 40
0.6
 41
30.0
 62
     5
 63
     7
421
 16777215
 74
     0
 91
        0
 64
     7
 65
   257
 75
     1
175
     1
 42
1.0
 92
        8
 66
   257
 43
1.0
 76
     1
 77
     6
 78
     2
 67
     7
 79
     3
170
     0
171
     0
290
     0
174
     0
 93
       13
 44
0.0
173
     0
291
     0
 45
0.0
  0
VISUALSTYLE
  5
42
102
{ACAD_REACTORS
330
2A
102
}
330
2A
100
AcDbVisualStyle
  2
Shaded
 70
    27
 71
     2
 72
     2
 73
     1
 90
        2
 40
0.6
 41
30.0
 62
     5
 63
     7
421
 16777215
 74
     0
 91
        4
 64
     7
 65
   257
 75
     1
175
     1
 42
1.0
 92
        8
 66
   257
 43
1.0
 76
     1
 77
     6
 78
     2
 67
     8
425
  7895160
 79
     3
170
     0
171
     0
290
     0
174
     0
 93
        5
 44
0.0
173
     0
291
     0
 45
0.0
  0
VISUALSTYLE
  5
41
102
{ACAD_REACTORS
330
2A
102
}
330
2A
100
AcDbVisualStyle
  2
Shaded with edges
 70
    26
 71
     2
 72
     2
 73
     1
 90
        2
 40
0.6
 41
30.0
 62
     5
 63
     7
421
 16777215
 74
     1
 91
       10
 64
     7
 65
   257
 75
     2
175
     1
 42
1.0
 92
        8
 66
   257
 43
1.0
 76
     1
 77
     6
 78
     2
 67
     7
 79
     3
170
     0
171
     0
290
     0
174
     0
 93
        5
 44
0.0
173
     0
291
     0
 45
0.0
  0
VISUALSTYLE
  5
3E
102
{ACAD_REACTORS
330
2A
102
}
330
2A
100
AcDbVisualStyle
  2
Shades of Gray
 70
    23
 71
     2
 72
     2
 73
     3
 90
        0
 40
0.6
 41
30.0
 62
     5
 63
     7
421
 16777215
 74
     2
 91
        2
 64
     7
 65
     7
 75
     1
175
     1
 42
40.0
 92
        8
 66
     7
 43
1.0
 76
     1
 77
     6
 78
     2
 67
     7
 79
     3
170
     0
171
     0
290
     0
174
     0
 93
        1
 44
0.0
173
     0
291
     0
 45
0.0
  0
VISUALSTYLE
  5
3F
102
{ACAD_REACTORS
330
2A
102
}
330
2A
100
AcDbVisualStyle
  2
Sketchy
 70
    24
 71
     1
 72
     2
 73
     2
 90
        0
 40
0.6
 41
30.0
 62
     5
 63
     7
421
 16777215
 74
     2
 91
        2
 64
     7
 65
     7
 75
     1
175
     1
 42
40.0
 92
       11
 66
     7
 43
1.0
 76
     1
 77
     6
 78
     2
 67
     7
 79
     6
170
     0
171
     0
290
     0
174
     0
 93
        1
 44
0.0
173
     0
291
     0
 45
0.0
  0
VISUALSTYLE
  5
37
102
{ACAD_REACTORS
330
2A
102
}
330
2A
100
AcDbVisualStyle
  2
Thicken
 70
    13
 71
     2
 72
     2
 73
     0
 90
        0
 40
0.6
 41
30.0
 62
     5
 63
     7
421
 16777215
 74
     1
 91
        4
 64
     7
 65
   257
 75
     1
175
     1
 42
1.0
 92
       12
 66
     7
 43
1.0
 76
     1
 77
     6
 78
     2
 67
     7
 79
     5
170
     0
171
     0
290
     0
174
     0
 93
        1
 44
0.0
173
     0
291
     1
 45
0.0
  0
VISUALSTYLE
  5
30
102
{ACAD_REACTORS
330
2A
102
}
330
2A
100
AcDbVisualStyle
  2
Wireframe
 70
     5
 71
     0
 72
     2
 73
     0
 90
        0
 40
0.6
 41
30.0
 62
     5
 63
     7
421
 16777215
 74
     1
 91
        4
 64
     7
 65
   257
 75
     1
175
     1
 42
1.0
 92
        0
 66
   257
 43
1.0
 76
     1
 77
     6
 78
     2
 67
     7
 79
     3
170
     0
171
     0
290
     0
174
     0
 93
        1
 44
0.0
173
     0
291
     0
 45
0.0
  0
VISUALSTYLE
  5
40
102
{ACAD_REACTORS
330
2A
102
}
330
2A
100
AcDbVisualStyle
  2
X-Ray
 70
    25
 71
     2
 72
     2
 73
     1
 90
        1
 40
0.5
 41
30.0
 62
     5
 63
     7
421
 16777215
 74
     1
 91
        0
 64
     7
 65
   257
 75
     1
175
     1
 42
1.0
 92
        8
 66
     7
 43
1.0
 76
     1
 77
     6
 78
     2
 67
     7
 79
     3
170
     0
171
     0
290
     0
174
     0
 93
       13
 44
0.0
173
     0
291
     0
 45
0.0
  0
DICTIONARYVAR
  5
33F
102
{ACAD_REACTORS
330
33E
102
}
330
33E
100
DictionaryVariables
280
     0
  1
1:1
  0
DICTIONARYVAR
  5
345
102
{ACAD_REACTORS
330
33E
102
}
330
33E
100
DictionaryVariables
280
     0
  1
Standard
  0
DICTIONARYVAR
  5
344
102
{ACAD_REACTORS
330
33E
102
}
330
33E
100
DictionaryVariables
280
     0
  1
Standard
  0
DICTIONARY
  5
340
330
6A
100
AcDbDictionary
280
     1
281
     1
  3
ACAD_ROUNDTRIP_2008_TABLESTYLE_CELLSTYLEMAP
360
341
  0
CELLSTYLEMAP
  5
341
102
{ACAD_REACTORS
330
340
102
}
330
340
100
AcDbCellStyleMap
 90
        3
300
CELLSTYLE
  1
TABLEFORMAT_BEGIN
 90
        5
170
     1
 91
        0
 92
    32768
 62
   257
 93
        1
300
CONTENTFORMAT
  1
CONTENTFORMAT_BEGIN
 90
        0
 91
        0
 92
        4
 93
        0
300

 40
0.0
140
1.0
 94
        5
 62
     0
340
11
144
6.0
309
CONTENTFORMAT_END
171
     1
301
MARGIN
  1
CELLMARGIN_BEGIN
 40
1.5
 40
1.5
 40
1.5
 40
1.5
 40
1.5
 40
1.5
309
CELLMARGIN_END
 94
        6
 95
        1
302
GRIDFORMAT
  1
GRIDFORMAT_BEGIN
 90
        0
 91
        1
 62
     0
 92
       -2
340
14
 93
        0
 40
0.045
309
GRIDFORMAT_END
 95
        2
302
GRIDFORMAT
  1
GRIDFORMAT_BEGIN
 90
        0
 91
        1
 62
     0
 92
       -2
340
14
 93
        0
 40
0.045
309
GRIDFORMAT_END
 95
        4
302
GRIDFORMAT
  1
GRIDFORMAT_BEGIN
 90
        0
 91
        1
 62
     0
 92
       -2
340
14
 93
        0
 40
0.045
309
GRIDFORMAT_END
 95
        8
302
GRIDFORMAT
  1
GRIDFORMAT_BEGIN
 90
        0
 91
        1
 62
     0
 92
       -2
340
14
 93
        0
 40
0.045
309
GRIDFORMAT_END
 95
       16
302
GRIDFORMAT
  1
GRIDFORMAT_BEGIN
 90
        0
 91
        1
 62
     0
 92
       -2
340
14
 93
        0
 40
0.045
309
GRIDFORMAT_END
 95
       32
302
GRIDFORMAT
  1
GRIDFORMAT_BEGIN
 90
        0
 91
        1
 62
     0
 92
       -2
340
14
 93
        0
 40
0.045
309
GRIDFORMAT_END
309
TABLEFORMAT_END
  1
CELLSTYLE_BEGIN
 90
        1
 91
        1
300
_TITLE
309
CELLSTYLE_END
300
CELLSTYLE
  1
TABLEFORMAT_BEGIN
 90
        5
170
     1
 91
        0
 92
        0
 62
   257
 93
        1
300
CONTENTFORMAT
  1
CONTENTFORMAT_BEGIN
 90
        0
 91
        0
 92
        4
 93
        0
300

 40
0.0
140
1.0
 94
        5
 62
     0
340
11
144
4.5
309
CONTENTFORMAT_END
171
     1
301
MARGIN
  1
CELLMARGIN_BEGIN
 40
1.5
 40
1.5
 40
1.5
 40
1.5
 40
1.5
 40
1.5
309
CELLMARGIN_END
 94
        6
 95
        1
302
GRIDFORMAT
  1
GRIDFORMAT_BEGIN
 90
        0
 91
        1
 62
     0
 92
       -2
340
14
 93
        0
 40
0.045
309
GRIDFORMAT_END
 95
        2
302
GRIDFORMAT
  1
GRIDFORMAT_BEGIN
 90
        0
 91
        1
 62
     0
 92
       -2
340
14
 93
        0
 40
0.045
309
GRIDFORMAT_END
 95
        4
302
GRIDFORMAT
  1
GRIDFORMAT_BEGIN
 90
        0
 91
        1
 62
     0
 92
       -2
340
14
 93
        0
 40
0.045
309
GRIDFORMAT_END
 95
        8
302
GRIDFORMAT
  1
GRIDFORMAT_BEGIN
 90
        0
 91
        1
 62
     0
 92
       -2
340
14
 93
        0
 40
0.045
309
GRIDFORMAT_END
 95
       16
302
GRIDFORMAT
  1
GRIDFORMAT_BEGIN
 90
        0
 91
        1
 62
     0
 92
       -2
340
14
 93
        0
 40
0.045
309
GRIDFORMAT_END
 95
       32
302
GRIDFORMAT
  1
GRIDFORMAT_BEGIN
 90
        0
 91
        1
 62
     0
 92
       -2
340
14
 93
        0
 40
0.045
309
GRIDFORMAT_END
309
TABLEFORMAT_END
  1
CELLSTYLE_BEGIN
 90
        2
 91
        1
300
_HEADER
309
CELLSTYLE_END
300
CELLSTYLE
  1
TABLEFORMAT_BEGIN
 90
        5
170
     1
 91
        0
 92
        0
 62
   257
 93
        1
300
CONTENTFORMAT
  1
CONTENTFORMAT_BEGIN
 90
        0
 91
        0
 92
        4
 93
        0
300

 40
0.0
140
1.0
 94
        2
 62
     0
340
11
144
4.5
309
CONTENTFORMAT_END
171
     1
301
MARGIN
  1
CELLMARGIN_BEGIN
 40
1.5
 40
1.5
 40
1.5
 40
1.5
 40
1.5
 40
1.5
309
CELLMARGIN_END
 94
        6
 95
        1
302
GRIDFORMAT
  1
GRIDFORMAT_BEGIN
 90
        0
 91
        1
 62
     0
 92
       -2
340
14
 93
        0
 40
0.045
309
GRIDFORMAT_END
 95
        2
302
GRIDFORMAT
  1
GRIDFORMAT_BEGIN
 90
        0
 91
        1
 62
     0
 92
       -2
340
14
 93
        0
 40
0.045
309
GRIDFORMAT_END
 95
        4
302
GRIDFORMAT
  1
GRIDFORMAT_BEGIN
 90
        0
 91
        1
 62
     0
 92
       -2
340
14
 93
        0
 40
0.045
309
GRIDFORMAT_END
 95
        8
302
GRIDFORMAT
  1
GRIDFORMAT_BEGIN
 90
        0
 91
        1
 62
     0
 92
       -2
340
14
 93
        0
 40
0.045
309
GRIDFORMAT_END
 95
       16
302
GRIDFORMAT
  1
GRIDFORMAT_BEGIN
 90
        0
 91
        1
 62
     0
 92
       -2
340
14
 93
        0
 40
0.045
309
GRIDFORMAT_END
 95
       32
302
GRIDFORMAT
  1
GRIDFORMAT_BEGIN
 90
        0
 91
        1
 62
     0
 92
       -2
340
14
 93
        0
 40
0.045
309
GRIDFORMAT_END
309
TABLEFORMAT_END
  1
CELLSTYLE_BEGIN
 90
        3
 91
        2
300
_DATA
309
CELLSTYLE_END
  0
ENDSEC
  0
EOF
