  0
SECTION
  2
HEADER
  9
$ACADVER
  1
AC1021
  9
$ACADMAINTVER
 70
    25
  9
$DWGCODEPAGE
  3
ANSI_1252
  9
$INSBASE
 10
0.0
 20
0.0
 30
0.0
  9
$EXTMIN
 10
0.0
 20
0.0
 30
0.0
  9
$EXTMAX
 10
290.0
 20
270.0
 30
0.0
  9
$LIMMIN
 10
0.0
 20
0.0
  9
$LIMMAX
 10
290.0
 20
270.0
  9
$ORTHOMODE
 70
     0
  9
$REGENMODE
 70
     1
  9
$FILLMODE
 70
     1
  9
$QTEXTMODE
 70
     0
  9
$MIRRTEXT
 70
     1
  9
$LTSCALE
 40
1.0
  9
$ATTMODE
 70
     1
  9
$TEXTSIZE
 40
3.5
  9
$TRACEWID
 40
1.0
  9
$TEXTSTYLE
  7
STANDARD
  9
$CLAYER
  8
0
  9
$CELTYPE
  6
ByLayer
  9
$CECOLOR
 62
   256
  9
$CELTSCALE
 40
1.0
  9
$DISPSILH
 70
     0
  9
$DIMSCALE
 40
1.0
  9
$DIMASZ
 40
3.302
  9
$DIMEXO
 40
1.0
  9
$DIMDLI
 40
3.75
  9
$DIMRND
 40
0.0
  9
$DIMDLE
 40
0.0
  9
$DIMEXE
 40
1.0
  9
$DIMTP
 40
0.0
  9
$DIMTM
 40
0.0
  9
$DIMTXT
 40
3.5
  9
$DIMCEN
 40
2.5
  9
$DIMTSZ
 40
0.0
  9
$DIMTOL
 70
     0
  9
$DIMLIM
 70
     0
  9
$DIMTIH
 70
     1
  9
$DIMTOH
 70
     1
  9
$DIMSE1
 70
     0
  9
$DIMSE2
 70
     0
  9
$DIMTAD
 70
     1
  9
$DIMZIN
 70
     1
  9
$DIMBLK
  1

  9
$DIMASO
 70
     1
  9
$DIMSHO
 70
     1
  9
$DIMPOST
  1

  9
$DIMAPOST
  1

  9
$DIMALT
 70
     0
  9
$DIMALTD
 70
     3
  9
$DIMALTF
 40
0.0393700787
  9
$DIMLFAC
 40
1.0
  9
$DIMTOFL
 70
     1
  9
$DIMTVP
 40
0.0
  9
$DIMTIX
 70
     0
  9
$DIMSOXD
 70
     0
  9
$DIMSAH
 70
     0
  9
$DIMBLK1
  1

  9
$DIMBLK2
  1

  9
$DIMSTYLE
  2
ISO-25
  9
$DIMCLRD
 70
     0
  9
$DIMCLRE
 70
     0
  9
$DIMCLRT
 70
     0
  9
$DIMTFAC
 40
1.0
  9
$DIMGAP
 40
1.524
  9
$DIMJUST
 70
     0
  9
$DIMSD1
 70
     0
  9
$DIMSD2
 70
     0
  9
$DIMTOLJ
 70
     0
  9
$DIMTZIN
 70
     1
  9
$DIMALTZ
 70
     0
  9
$DIMALTTZ
 70
     0
  9
$DIMUPT
 70
     0
  9
$DIMDEC
 70
     0
  9
$DIMTDEC
 70
     0
  9
$DIMALTU
 70
     2
  9
$DIMALTTD
 70
     3
  9
$DIMTXSTY
  7
STANDARD
  9
$DIMAUNIT
 70
     0
  9
$DIMADEC
 70
     0
  9
$DIMALTRND
 40
0.0
  9
$DIMAZIN
 70
     0
  9
$DIMDSEP
 70
    44
  9
$DIMATFIT
 70
     3
  9
$DIMFRAC
 70
     0
  9
$DIMLDRBLK
  1

  9
$DIMLUNIT
 70
     2
  9
$DIMLWD
 70
    -2
  9
$DIMLWE
 70
    -2
  9
$DIMTMOVE
 70
     0
  9
$DIMFXL
 40
1.0
  9
$DIMFXLON
 70
     0
  9
$DIMJOGANG
 40
0.7853981634
  9
$DIMTFILL
 70
     0
  9
$DIMTFILLCLR
 70
     0
  9
$DIMARCSYM
 70
     0
  9
$DIMLTYPE
  6

  9
$DIMLTEX1
  6

  9
$DIMLTEX2
  6

  9
$LUNITS
 70
     2
  9
$LUPREC
 70
     4
  9
$SKETCHINC
 40
1.0
  9
$FILLETRAD
 40
10.0
  9
$AUNITS
 70
     0
  9
$AUPREC
 70
     0
  9
$MENU
  1
.
  9
$ELEVATION
 40
0.0
  9
$PELEVATION
 40
0.0
  9
$THICKNESS
 40
0.0
  9
$LIMCHECK
 70
     0
  9
$CHAMFERA
 40
0.0
  9
$CHAMFERB
 40
0.0
  9
$CHAMFERC
 40
0.0
  9
$CHAMFERD
 40
0.0
  9
$SKPOLY
 70
     0
  9
$TDCREATE
 40
2457508.579701586
  9
$TDUCREATE
 40
2457508.496368252
  9
$TDUPDATE
 40
2457508.579702604
  9
$TDUUPDATE
 40
2457508.496369271
  9
$TDINDWG
 40
0.0000000116
  9
$TDUSRTIMER
 40
0.0000000116
  9
$USRTIMER
 70
     1
  9
$ANGBASE
 50
0.0
  9
$ANGDIR
 70
     0
  9
$PDMODE
 70
     0
  9
$PDSIZE
 40
-1.0
  9
$PLINEWID
 40
0.0
  9
$SPLFRAME
 70
     0
  9
$SPLINETYPE
 70
     6
  9
$SPLINESEGS
 70
     8
  9
$HANDSEED
  5
2EB
  9
$SURFTAB1
 70
     6
  9
$SURFTAB2
 70
     6
  9
$SURFTYPE
 70
     6
  9
$SURFU
 70
     6
  9
$SURFV
 70
     6
  9
$UCSBASE
  2

  9
$UCSNAME
  2

  9
$UCSORG
 10
0.0
 20
0.0
 30
0.0
  9
$UCSXDIR
 10
1.0
 20
0.0
 30
0.0
  9
$UCSYDIR
 10
0.0
 20
1.0
 30
0.0
  9
$UCSORTHOREF
  2

  9
$UCSORTHOVIEW
 70
     0
  9
$UCSORGTOP
 10
0.0
 20
0.0
 30
0.0
  9
$UCSORGBOTTOM
 10
0.0
 20
0.0
 30
0.0
  9
$UCSORGLEFT
 10
0.0
 20
0.0
 30
0.0
  9
$UCSORGRIGHT
 10
0.0
 20
0.0
 30
0.0
  9
$UCSORGFRONT
 10
0.0
 20
0.0
 30
0.0
  9
$UCSORGBACK
 10
0.0
 20
0.0
 30
0.0
  9
$PUCSBASE
  2

  9
$PUCSNAME
  2

  9
$PUCSORG
 10
0.0
 20
0.0
 30
0.0
  9
$PUCSXDIR
 10
1.0
 20
0.0
 30
0.0
  9
$PUCSYDIR
 10
0.0
 20
1.0
 30
0.0
  9
$PUCSORTHOREF
  2

  9
$PUCSORTHOVIEW
 70
     0
  9
$PUCSORGTOP
 10
0.0
 20
0.0
 30
0.0
  9
$PUCSORGBOTTOM
 10
0.0
 20
0.0
 30
0.0
  9
$PUCSORGLEFT
 10
0.0
 20
0.0
 30
0.0
  9
$PUCSORGRIGHT
 10
0.0
 20
0.0
 30
0.0
  9
$PUCSORGFRONT
 10
0.0
 20
0.0
 30
0.0
  9
$PUCSORGBACK
 10
0.0
 20
0.0
 30
0.0
  9
$USERI1
 70
     0
  9
$USERI2
 70
     0
  9
$USERI3
 70
     0
  9
$USERI4
 70
     0
  9
$USERI5
 70
     0
  9
$USERR1
 40
0.0
  9
$USERR2
 40
0.0
  9
$USERR3
 40
0.0
  9
$USERR4
 40
0.0
  9
$USERR5
 40
0.0
  9
$WORLDVIEW
 70
     1
  9
$SHADEDGE
 70
     3
  9
$SHADEDIF
 70
    70
  9
$TILEMODE
 70
     1
  9
$MAXACTVP
 70
    64
  9
$PINSBASE
 10
0.0
 20
0.0
 30
0.0
  9
$PLIMCHECK
 70
     0
  9
$PEXTMIN
 10
1.0000000000E+20
 20
1.0000000000E+20
 30
1.0000000000E+20
  9
$PEXTMAX
 10
-1.0000000000E+20
 20
-1.0000000000E+20
 30
-1.0000000000E+20
  9
$PLIMMIN
 10
0.0
 20
0.0
  9
$PLIMMAX
 10
420.0
 20
297.0
  9
$UNITMODE
 70
     0
  9
$VISRETAIN
 70
     1
  9
$PLINEGEN
 70
     0
  9
$PSLTSCALE
 70
     1
  9
$TREEDEPTH
 70
  3020
  9
$CMLSTYLE
  2
Standard
  9
$CMLJUST
 70
     0
  9
$CMLSCALE
 40
20.0
  9
$PROXYGRAPHICS
 70
     1
  9
$MEASUREMENT
 70
     1
  9
$CELWEIGHT
370
    -1
  9
$ENDCAPS
280
     0
  9
$JOINSTYLE
280
     0
  9
$LWDISPLAY
290
     1
  9
$INSUNITS
 70
     4
  9
$HYPERLINKBASE
  1

  9
$STYLESHEET
  1

  9
$XEDIT
290
     1
  9
$CEPSNTYPE
380
     0
  9
$PSTYLEMODE
290
     1
  9
$FINGERPRINTGUID
  2
{B4D97B3F-A27F-4F53-8402-F35302D3A757}
  9
$VERSIONGUID
  2
{FAEB1C32-E019-11D5-929B-00C0DF256EC4}
  9
$EXTNAMES
290
     1
  9
$PSVPSCALE
 40
0.0
  9
$OLESTARTUP
290
     0
  9
$SORTENTS
280
   127
  9
$INDEXCTL
280
     0
  9
$HIDETEXT
280
     1
  9
$XCLIPFRAME
290
     0
  9
$HALOGAP
280
     0
  9
$OBSCOLOR
 70
   257
  9
$OBSLTYPE
280
     0
  9
$INTERSECTIONDISPLAY
280
     0
  9
$INTERSECTIONCOLOR
 70
   257
  9
$DIMASSOC
280
     2
  9
$PROJECTNAME
  1

  9
$CAMERADISPLAY
290
     0
  9
$LENSLENGTH
 40
50.0
  9
$CAMERAHEIGHT
 40
0.0
  9
$STEPSPERSEC
 40
2.0
  9
$STEPSIZE
 40
6.0
  9
$3DDWFPREC
 40
2.0
  9
$PSOLWIDTH
 40
5.0
  9
$PSOLHEIGHT
 40
80.0
  9
$LOFTANG1
 40
1.5707963268
  9
$LOFTANG2
 40
1.5707963268
  9
$LOFTMAG1
 40
0.0
  9
$LOFTMAG2
 40
0.0
  9
$LOFTPARAM
 70
     7
  9
$LOFTNORMALS
280
     1
  9
$LATITUDE
 40
37.795
  9
$LONGITUDE
 40
-122.394
  9
$NORTHDIRECTION
 40
0.0
  9
$TIMEZONE
 70
 -8000
  9
$LIGHTGLYPHDISPLAY
280
     1
  9
$TILEMODELIGHTSYNCH
280
     1
  9
$CMATERIAL
347
44
  9
$SOLIDHIST
280
     0
  9
$SHOWHIST
280
     1
  9
$DWFFRAME
280
     2
  9
$DGNFRAME
280
     2
  9
$REALWORLDSCALE
290
     1
  9
$INTERFERECOLOR
 62
   256
  9
$CSHADOW
280
     0
  9
$SHADOWPLANELOCATION
 40
0.0
  0
ENDSEC
  0
SECTION
  2
CLASSES
  0
CLASS
  1
ACDBDICTIONARYWDFLT
  2
AcDbDictionaryWithDefault
  3
ObjectDBX Classes
 90
        0
 91
        4
280
     0
281
     0
  0
CLASS
  1
VISUALSTYLE
  2
AcDbVisualStyle
  3
ObjectDBX Classes
 90
     4095
 91
        4
280
     0
281
     0
  0
CLASS
  1
MATERIAL
  2
AcDbMaterial
  3
ObjectDBX Classes
 90
     1153
 91
        4
280
     0
281
     0
  0
CLASS
  1
SCALE
  2
AcDbScale
  3
ObjectDBX Classes
 90
     1153
 91
        4
280
     0
281
     0
  0
CLASS
  1
TABLESTYLE
  2
AcDbTableStyle
  3
ObjectDBX Classes
 90
     4095
 91
        4
280
     0
281
     0
  0
CLASS
  1
MLEADERSTYLE
  2
AcDbMLeaderStyle
  3
ACDB_MLEADERSTYLE_CLASS
 90
     4095
 91
        4
280
     0
281
     0
  0
CLASS
  1
SUN
  2
AcDbSun
  3
SCENEOE
 90
     1153
 91
        4
280
     0
281
     0
  0
CLASS
  1
DICTIONARYVAR
  2
AcDbDictionaryVar
  3
ObjectDBX Classes
 90
        0
 91
        4
280
     0
281
     0
  0
CLASS
  1
CELLSTYLEMAP
  2
AcDbCellStyleMap
  3
ObjectDBX Classes
 90
     1152
 91
        4
280
     0
281
     0
  0
ENDSEC
  0
SECTION
  2
TABLES
  0
TABLE
  2
VPORT
  5
8
330
0
100
AcDbSymbolTable
 70
     1
  0
VPORT
  5
29
330
8
100
AcDbSymbolTableRecord
100
AcDbViewportTableRecord
  2
*Active
 70
     0
 10
0.0
 20
0.0
 11
1.0
 21
1.0
 12
145.0
 22
135.0
 13
0.0
 23
0.0
 14
10.0
 24
10.0
 15
10.0
 25
10.0
 16
0.0
 26
0.0
 36
1.0
 17
0.0
 27
0.0
 37
0.0
 40
270.0
 41
1.0740740741
 42
50.0
 43
0.0
 44
0.0
 50
0.0
 51
0.0
 71
     0
 72
  2000
 73
     1
 74
     3
 75
     0
 76
     0
 77
     0
 78
     0
281
     0
 65
     1
110
0.0
120
0.0
130
0.0
111
1.0
121
0.0
131
0.0
112
0.0
122
1.0
132
0.0
 79
     0
146
0.0
 60
     3
 61
     5
292
     1
282
     1
141
0.0
142
0.0
 63
   250
361
6D
  0
ENDTAB
  0
TABLE
  2
LTYPE
  5
5
330
0
100
AcDbSymbolTable
 70
     6
  0
LTYPE
  5
14
330
5
100
AcDbSymbolTableRecord
100
AcDbLinetypeTableRecord
  2
ByBlock
 70
     0
  3

 72
    65
 73
     0
 40
0.0
  0
LTYPE
  5
15
330
5
100
AcDbSymbolTableRecord
100
AcDbLinetypeTableRecord
  2
ByLayer
 70
     0
  3

 72
    65
 73
     0
 40
0.0
  0
LTYPE
  5
16
330
5
100
AcDbSymbolTableRecord
100
AcDbLinetypeTableRecord
  2
Continuous
 70
     0
  3
Solid line
 72
    65
 73
     0
 40
0.0
  0
LTYPE
  5
6E
330
5
100
AcDbSymbolTableRecord
100
AcDbLinetypeTableRecord
  2
HIDDEN
 70
     0
  3
Hidden __ __ __ __ __ __ __ __ __ __ __ __ __ __
 72
    65
 73
     2
 40
1.905
 49
1.27
 74
     0
 49
-0.635
 74
     0
  0
LTYPE
  5
6F
330
5
100
AcDbSymbolTableRecord
100
AcDbLinetypeTableRecord
  2
PHANTOM
 70
     0
  3
Phantom ______  __  __  ______  __  __  ______
 72
    65
 73
     6
 40
12.7
 49
6.35
 74
     0
 49
-1.27
 74
     0
 49
1.27
 74
     0
 49
-1.27
 74
     0
 49
1.27
 74
     0
 49
-1.27
 74
     0
  0
LTYPE
  5
70
330
5
100
AcDbSymbolTableRecord
100
AcDbLinetypeTableRecord
  2
CENTER
 70
     0
  3
Center ____ _ ____ _ ____ _ ____ _ ____ _ ____
 72
    65
 73
     4
 40
10.16
 49
6.35
 74
     0
 49
-1.27
 74
     0
 49
1.27
 74
     0
 49
-1.27
 74
     0
  0
LTYPE
  5
71
330
5
100
AcDbSymbolTableRecord
100
AcDbLinetypeTableRecord
  2
CENTERX2
 70
     0
  3
Center (2x) ________  __  ________  __  _____
 72
    65
 73
     4
 40
20.32
 49
12.7
 74
     0
 49
-2.54
 74
     0
 49
2.54
 74
     0
 49
-2.54
 74
     0
  0
LTYPE
  5
72
330
5
100
AcDbSymbolTableRecord
100
AcDbLinetypeTableRecord
  2
DOT2
 70
     0
  3
Dot (.5x) ........................................
 72
    65
 73
     2
 40
0.635
 49
0.0
 74
     0
 49
-0.635
 74
     0
  0
ENDTAB
  0
TABLE
  2
LAYER
  5
2
330
0
100
AcDbSymbolTable
 70
     8
  0
LAYER
  5
10
330
2
100
AcDbSymbolTableRecord
100
AcDbLayerTableRecord
  2
0
 70
     0
 62
     7
  6
Continuous
370
    -3
390
F
347
46
  0
LAYER
  5
73
330
2
100
AcDbSymbolTableRecord
100
AcDbLayerTableRecord
  2
SLD-0
 70
     0
 62
   179
  6
Continuous
370
    -3
390
F
347
46
  0
LAYER
  5
74
330
2
100
AcDbSymbolTableRecord
100
AcDbLayerTableRecord
  2
1
 70
     0
 62
     7
  6
Continuous
370
    -3
390
F
347
46
  0
LAYER
  5
75
330
2
100
AcDbSymbolTableRecord
100
AcDbLayerTableRecord
  2
SLD-DEFPOINTS
 70
     0
 62
   179
  6
Continuous
290
     0
370
    -3
390
F
347
46
  0
LAYER
  5
76
330
2
100
AcDbSymbolTableRecord
100
AcDbLayerTableRecord
  2
TEXTO
 70
     0
 62
     8
  6
Continuous
370
    -3
390
F
347
46
  0
LAYER
  5
77
330
2
100
AcDbSymbolTableRecord
100
AcDbLayerTableRecord
  2
COTAS
 70
     0
 62
   250
  6
Continuous
370
    -3
390
F
347
46
  0
LAYER
  5
78
330
2
100
AcDbSymbolTableRecord
100
AcDbLayerTableRecord
  2
CAJETIN
 70
     0
 62
     9
  6
Continuous
370
    -3
390
F
347
46
  0
LAYER
  5
79
330
2
100
AcDbSymbolTableRecord
100
AcDbLayerTableRecord
  2
PIEZA
 70
     0
 62
   255
  6
Continuous
370
    -3
390
F
347
46
  0
ENDTAB
  0
TABLE
  2
STYLE
  5
3
330
0
100
AcDbSymbolTable
 70
     3
  0
STYLE
  5
11
330
3
100
AcDbSymbolTableRecord
100
AcDbTextStyleTableRecord
  2
STANDARD
 70
     0
 40
0.0
 41
1.0
 50
0.0
 71
     0
 42
3.5
  3
GOTHIC.TTF
  4

1001
ACAD
1000
CENTURY GOTHIC
1071
       34
  0
STYLE
  5
2B1
330
3
100
AcDbSymbolTableRecord
100
AcDbTextStyleTableRecord
  2
SLDTEXTSTYLE0
 70
     0
 40
0.0
 41
1.0
 50
0.0
 71
     0
 42
3.5
  3
ARIAL.TTF
  4

1001
ACAD
1000
ARIAL
1071
      290
  0
STYLE
  5
2BC
330
3
100
AcDbSymbolTableRecord
100
AcDbTextStyleTableRecord
  2
SLDTEXTSTYLE1
 70
     0
 40
0.0
 41
0.948
 50
0.0
 71
     0
 42
3.5
  3
ARIAL.TTF
  4

1001
ACAD
1000
ARIAL
1071
      290
  0
ENDTAB
  0
TABLE
  2
VIEW
  5
6
330
0
100
AcDbSymbolTable
 70
     0
  0
ENDTAB
  0
TABLE
  2
UCS
  5
7
330
0
100
AcDbSymbolTable
 70
     0
  0
ENDTAB
  0
TABLE
  2
APPID
  5
9
330
0
100
AcDbSymbolTable
 70
     2
  0
APPID
  5
12
330
9
100
AcDbSymbolTableRecord
100
AcDbRegAppTableRecord
  2
ACAD
 70
     0
  0
APPID
  5
2E5
330
9
100
AcDbSymbolTableRecord
100
AcDbRegAppTableRecord
  2
ACAD_MLEADERVER
 70
     0
  0
ENDTAB
  0
TABLE
  2
DIMSTYLE
  5
A
330
0
100
AcDbSymbolTable
 70
     2
100
AcDbDimStyleTable
  0
DIMSTYLE
105
27
330
A
100
AcDbSymbolTableRecord
100
AcDbDimStyleTableRecord
  2
ISO-25
 70
     0
 41
2.5
 42
0.625
 43
3.75
 44
1.25
 73
     0
 74
     0
 77
     1
 78
     8
140
2.5
141
2.5
143
0.0393700787
147
0.625
171
     3
172
     1
178
     0
271
     2
272
     2
274
     3
278
    44
283
     0
284
     8
340
11
  0
DIMSTYLE
105
2B2
102
{ACAD_REACTORS
330
2B0
330
2C0
330
2CA
102
}
330
A
100
AcDbSymbolTableRecord
100
AcDbDimStyleTableRecord
  2
SLDDIMSTYLE0
 70
     0
 41
3.302
 44
0.0
 45
0.000000001
 73
     0
 74
     0
 77
     1
 78
    12
 79
     3
140
4.0
147
1.0
173
     1
178
     0
271
     0
272
     0
276
     2
284
    12
340
2B1
341
2B3
343
2B3
344
2B3
  0
ENDTAB
  0
TABLE
  2
BLOCK_RECORD
  5
1
330
0
100
AcDbSymbolTable
 70
     7
  0
BLOCK_RECORD
  5
1F
330
1
100
AcDbSymbolTableRecord
100
AcDbBlockTableRecord
  2
*Model_Space
340
22
 70
     0
280
     1
281
     0
  0
BLOCK_RECORD
  5
1B
330
1
100
AcDbSymbolTableRecord
100
AcDbBlockTableRecord
  2
*Paper_Space
340
1E
 70
     0
280
     1
281
     0
  0
BLOCK_RECORD
  5
23
330
1
100
AcDbSymbolTableRecord
100
AcDbBlockTableRecord
  2
*Paper_Space0
340
26
 70
     0
280
     1
281
     0
  0
BLOCK_RECORD
  5
2B3
330
1
100
AcDbSymbolTableRecord
100
AcDbBlockTableRecord
  2
_NONE
340
0
 70
     0
280
     1
281
     0
  0
BLOCK_RECORD
  5
2B6
330
1
100
AcDbSymbolTableRecord
100
AcDbBlockTableRecord
  2
_D
340
0
 70
     0
280
     1
281
     0
  0
BLOCK_RECORD
  5
2C1
330
1
100
AcDbSymbolTableRecord
100
AcDbBlockTableRecord
  2
_D_1
340
0
 70
     0
280
     1
281
     0
  0
BLOCK_RECORD
  5
2CB
330
1
100
AcDbSymbolTableRecord
100
AcDbBlockTableRecord
  2
_D_2
340
0
 70
     0
280
     1
281
     0
  0
BLOCK_RECORD
  5
2D5
330
1
100
AcDbSymbolTableRecord
100
AcDbBlockTableRecord
  2
SW_NOTE_0
340
0
102
{BLKREFS
331
2DA
102
}
 70
     0
280
     1
281
     0
  0
BLOCK_RECORD
  5
2DB
330
1
100
AcDbSymbolTableRecord
100
AcDbBlockTableRecord
  2
SW_NOTE_1
340
0
102
{BLKREFS
331
2E0
102
}
 70
     0
280
     1
281
     0
  0
ENDTAB
  0
ENDSEC
  0
SECTION
  2
BLOCKS
  0
BLOCK
  5
20
330
1F
100
AcDbEntity
  8
0
100
AcDbBlockBegin
  2
*Model_Space
 70
     0
 10
0.0
 20
0.0
 30
0.0
  3
*Model_Space
  1

  0
ENDBLK
  5
21
330
1F
100
AcDbEntity
  8
0
100
AcDbBlockEnd
  0
BLOCK
  5
1C
330
1B
100
AcDbEntity
 67
     1
  8
0
100
AcDbBlockBegin
  2
*Paper_Space
 70
     0
 10
0.0
 20
0.0
 30
0.0
  3
*Paper_Space
  1

  0
ENDBLK
  5
1D
330
1B
100
AcDbEntity
 67
     1
  8
0
100
AcDbBlockEnd
  0
BLOCK
  5
24
330
23
100
AcDbEntity
  8
0
100
AcDbBlockBegin
  2
*Paper_Space0
 70
     0
 10
0.0
 20
0.0
 30
0.0
  3
*Paper_Space0
  1

  0
ENDBLK
  5
25
330
23
100
AcDbEntity
  8
0
100
AcDbBlockEnd
  0
BLOCK
  5
2B4
330
2B3
100
AcDbEntity
  8
0
100
AcDbBlockBegin
  2
_NONE
 70
     0
 10
0.0
 20
0.0
 30
0.0
  3
_NONE
  1

  0
ENDBLK
  5
2B5
330
2B3
100
AcDbEntity
  8
0
100
AcDbBlockEnd
  0
BLOCK
  5
2B7
330
2B6
100
AcDbEntity
  8
0
100
AcDbBlockBegin
  2
_D
 70
     0
 10
0.0
 20
0.0
 30
0.0
  3
_D
  1

  0
LINE
  5
2B9
330
2B6
100
AcDbEntity
  8
COTAS
100
AcDbLine
 10
149.9416610219
 20
230.6586302475
 30
0.0
 11
141.9832432251
 21
230.6586302475
 31
0.0
  0
LINE
  5
2BA
330
2B6
100
AcDbEntity
  8
COTAS
100
AcDbLine
 10
173.9416610219
 20
160.4586302475
 30
0.0
 11
141.9832432251
 21
160.4586302475
 31
0.0
  0
LINE
  5
2BB
330
2B6
100
AcDbEntity
  8
COTAS
100
AcDbLine
 10
143.2332432251
 20
228.1586302475
 30
0.0
 11
143.2332432251
 21
162.9586302475
 31
0.0
  0
MTEXT
  5
2BD
330
2B6
100
AcDbEntity
  8
COTAS
100
AcDbMText
 10
137.9878156783
 20
192.3381056573
 30
0.0
 40
4.0
 41
0.0
 46
0.0
 71
     1
 72
     1
  1
70
  7
SLDTEXTSTYLE1
 11
6.123233995736766E-17
 21
1.0
 31
0.0
 73
     1
 44
1.0
  0
SOLID
  5
2BE
330
2B6
100
AcDbEntity
  8
COTAS
100
AcDbTrace
 10
142.8165765585
 20
228.1586302475
 30
0.0
 11
143.6499098918
 21
228.1586302475
 31
0.0
 12
143.2332432251
 22
230.6586302475
 32
0.0
 13
143.2332432251
 23
230.6586302475
 33
0.0
  0
SOLID
  5
2BF
330
2B6
100
AcDbEntity
  8
COTAS
100
AcDbTrace
 10
142.8165765585
 20
162.9586302475
 30
0.0
 11
143.6499098918
 21
162.9586302475
 31
0.0
 12
143.2332432251
 22
160.4586302475
 32
0.0
 13
143.2332432251
 23
160.4586302475
 33
0.0
  0
ENDBLK
  5
2B8
330
2B6
100
AcDbEntity
  8
0
100
AcDbBlockEnd
  0
BLOCK
  5
2C2
330
2C1
100
AcDbEntity
  8
0
100
AcDbBlockBegin
  2
_D_1
 70
     0
 10
0.0
 20
0.0
 30
0.0
  3
_D_1
  1

  0
LINE
  5
2C4
330
2C1
100
AcDbEntity
  8
COTAS
100
AcDbLine
 10
174.3166610219
 20
160.0836302475
 30
0.0
 11
174.3166610219
 21
145.942094303
 31
0.0
  0
LINE
  5
2C5
330
2C1
100
AcDbEntity
  8
COTAS
100
AcDbLine
 10
214.0666610219
 20
160.0836302475
 30
0.0
 11
214.0666610219
 21
145.942094303
 31
0.0
  0
LINE
  5
2C6
330
2C1
100
AcDbEntity
  8
COTAS
100
AcDbLine
 10
176.8166610219
 20
147.192094303
 30
0.0
 11
211.5666610219
 21
147.192094303
 31
0.0
  0
MTEXT
  5
2C7
330
2C1
100
AcDbEntity
  8
COTAS
100
AcDbMText
 10
188.7197790547
 20
152.5493908812
 30
0.0
 40
4.0
 41
0.0
 46
0.0
 71
     1
 72
     1
  1
Ø40
  7
SLDTEXTSTYLE1
 73
     1
 44
1.0
  0
SOLID
  5
2C8
330
2C1
100
AcDbEntity
  8
COTAS
100
AcDbTrace
 10
176.8166610219
 20
147.6087609697
 30
0.0
 11
176.8166610219
 21
146.7754276364
 31
0.0
 12
174.3166610219
 22
147.192094303
 32
0.0
 13
174.3166610219
 23
147.192094303
 33
0.0
  0
SOLID
  5
2C9
330
2C1
100
AcDbEntity
  8
COTAS
100
AcDbTrace
 10
211.5666610219
 20
147.6087609697
 30
0.0
 11
211.5666610219
 21
146.7754276364
 31
0.0
 12
214.0666610219
 22
147.192094303
 32
0.0
 13
214.0666610219
 23
147.192094303
 33
0.0
  0
ENDBLK
  5
2C3
330
2C1
100
AcDbEntity
  8
0
100
AcDbBlockEnd
  0
BLOCK
  5
2CC
330
2CB
100
AcDbEntity
  8
0
100
AcDbBlockBegin
  2
_D_2
 70
     0
 10
0.0
 20
0.0
 30
0.0
  3
_D_2
  1

  0
LINE
  5
2CE
330
2CB
100
AcDbEntity
  8
COTAS
100
AcDbLine
 10
174.3166610219
 20
160.0836302475
 30
0.0
 11
174.3166610219
 21
137.0402058978
 31
0.0
  0
LINE
  5
2CF
330
2CB
100
AcDbEntity
  8
COTAS
100
AcDbLine
 10
258.3167012795
 20
173.4688155422
 30
0.0
 11
258.3167012795
 21
137.0402058978
 31
0.0
  0
LINE
  5
2D0
330
2CB
100
AcDbEntity
  8
COTAS
100
AcDbLine
 10
176.8166610219
 20
138.2902058978
 30
0.0
 11
255.8167012795
 21
138.2902058978
 31
0.0
  0
MTEXT
  5
2D1
330
2CB
100
AcDbEntity
  8
COTAS
100
AcDbMText
 10
213.0961565605
 20
143.5356334447
 30
0.0
 40
4.0
 41
0.0
 46
0.0
 71
     1
 72
     1
  1
84
  7
SLDTEXTSTYLE1
 73
     1
 44
1.0
  0
SOLID
  5
2D2
330
2CB
100
AcDbEntity
  8
COTAS
100
AcDbTrace
 10
176.8166610219
 20
138.7068725645
 30
0.0
 11
176.8166610219
 21
137.8735392312
 31
0.0
 12
174.3166610219
 22
138.2902058978
 32
0.0
 13
174.3166610219
 23
138.2902058978
 33
0.0
  0
SOLID
  5
2D3
330
2CB
100
AcDbEntity
  8
COTAS
100
AcDbTrace
 10
255.8167012795
 20
138.7068725645
 30
0.0
 11
255.8167012795
 21
137.8735392312
 31
0.0
 12
258.3167012795
 22
138.2902058978
 32
0.0
 13
258.3167012795
 23
138.2902058978
 33
0.0
  0
ENDBLK
  5
2CD
330
2CB
100
AcDbEntity
  8
0
100
AcDbBlockEnd
  0
BLOCK
  5
2D6
330
2D5
100
AcDbEntity
  8
0
100
AcDbBlockBegin
  2
SW_NOTE_0
 70
     0
 10
0.0
 20
0.0
 30
0.0
  3
SW_NOTE_0
  1

  0
MTEXT
  5
2D8
330
2D5
100
AcDbEntity
  8
TEXTO
 62
     0
100
AcDbMText
 10
0.0
 20
4.5117370892
 30
0.0
 40
3.5
 41
0.0
 46
0.0
 71
     1
 72
     1
  1
Escala 1/1
  7
SLDTEXTSTYLE0
 73
     1
 44
1.0
  0
MTEXT
  5
2D9
330
2D5
100
AcDbEntity
  8
TEXTO
 62
     0
100
AcDbMText
 10
0.0
 20
-1.2982629132
 30
0.0
 40
3.5
 41
0.0
 46
0.0
 71
     1
 72
     1
  1
Scale 1/1
  7
SLDTEXTSTYLE0
 73
     1
 44
1.0
  0
ENDBLK
  5
2D7
330
2D5
100
AcDbEntity
  8
0
100
AcDbBlockEnd
  0
BLOCK
  5
2DC
330
2DB
100
AcDbEntity
  8
0
100
AcDbBlockBegin
  2
SW_NOTE_1
 70
     0
 10
0.0
 20
0.0
 30
0.0
  3
SW_NOTE_1
  1

  0
MTEXT
  5
2DE
330
2DB
100
AcDbEntity
  8
TEXTO
 62
     0
100
AcDbMText
 10
0.0
 20
4.5117370892
 30
0.0
 40
3.5
 41
0.0
 46
0.0
 71
     1
 72
     1
  1
Unidades: mm.
  7
SLDTEXTSTYLE0
 73
     1
 44
1.0
  0
MTEXT
  5
2DF
330
2DB
100
AcDbEntity
  8
TEXTO
 62
     0
100
AcDbMText
 10
0.0
 20
-1.2982629132
 30
0.0
 40
3.5
 41
0.0
 46
0.0
 71
     1
 72
     1
  1
Units: mm.
  7
SLDTEXTSTYLE0
 73
     1
 44
1.0
  0
ENDBLK
  5
2DD
330
2DB
100
AcDbEntity
  8
0
100
AcDbBlockEnd
  0
ENDSEC
  0
SECTION
  2
ENTITIES
  0
LINE
  5
7A
330
1F
100
AcDbEntity
  8
COTAS
100
AcDbLine
 10
39.1083502582
 20
240.6586302475
 30
0.0
 11
39.1083502582
 21
230.6586302475
 31
0.0
  0
LINE
  5
7B
330
1F
100
AcDbEntity
  8
COTAS
100
AcDbLine
 10
39.1083502582
 20
230.6586302475
 30
0.0
 11
113.7710044903
 21
230.6586302475
 31
0.0
  0
LINE
  5
7C
330
1F
100
AcDbEntity
  8
COTAS
100
AcDbLine
 10
113.7710044903
 20
230.6586302475
 30
0.0
 11
113.7710044903
 21
240.6586302475
 31
0.0
  0
LINE
  5
7D
330
1F
100
AcDbEntity
  8
COTAS
100
AcDbLine
 10
113.7710044903
 20
240.6586302475
 30
0.0
 11
39.1083502582
 21
240.6586302475
 31
0.0
  0
LINE
  5
7E
330
1F
100
AcDbEntity
  8
COTAS
100
AcDbLine
 10
150.5666610219
 20
240.6586302475
 30
0.0
 11
150.5666610219
 21
230.6586302475
 31
0.0
  0
LINE
  5
7F
330
1F
100
AcDbEntity
  8
COTAS
100
AcDbLine
 10
150.5666610219
 20
230.6586302475
 30
0.0
 11
265.2293152539
 21
230.6586302475
 31
0.0
  0
LINE
  5
80
330
1F
100
AcDbEntity
  8
COTAS
100
AcDbLine
 10
265.2293152539
 20
230.6586302475
 30
0.0
 11
265.2293152539
 21
240.6586302475
 31
0.0
  0
LINE
  5
81
330
1F
100
AcDbEntity
  8
COTAS
100
AcDbLine
 10
265.2293152539
 20
240.6586302475
 30
0.0
 11
150.5666610219
 21
240.6586302475
 31
0.0
  0
LINE
  5
82
330
1F
100
AcDbEntity
  8
CAJETIN
100
AcDbLine
 10
10.0
 20
12.5
 30
0.0
 11
282.4622902905
 21
12.5
 31
0.0
  0
LINE
  5
83
330
1F
100
AcDbEntity
  8
CAJETIN
100
AcDbLine
 10
10.0
 20
259.9735572401
 30
0.0
 11
10.0
 21
12.5
 31
0.0
  0
LINE
  5
84
330
1F
100
AcDbEntity
  8
CAJETIN
100
AcDbLine
 10
72.4622902905
 20
27.4999998688
 30
0.0
 11
282.4622902905
 21
27.4999998688
 31
0.0
  0
LINE
  5
85
330
1F
100
AcDbEntity
  8
CAJETIN
100
AcDbLine
 10
72.4622926556
 20
42.4999997503
 30
0.0
 11
282.4622926556
 21
42.4999997503
 31
0.0
  0
LINE
  5
86
330
1F
100
AcDbEntity
  8
CAJETIN
100
AcDbLine
 10
10.0
 20
259.9735572401
 30
0.0
 11
282.4622902905
 21
259.9735572401
 31
0.0
  0
LINE
  5
87
330
1F
100
AcDbEntity
  8
CAJETIN
100
AcDbLine
 10
72.4622926556
 20
42.4999997503
 30
0.0
 11
72.4622926556
 21
12.5000001653
 31
0.0
  0
LINE
  5
88
330
1F
100
AcDbEntity
  8
CAJETIN
100
AcDbLine
 10
282.4622902905
 20
259.9735572401
 30
0.0
 11
282.4622902905
 21
12.5
 31
0.0
  0
LINE
  5
89
330
1F
100
AcDbEntity
  8
PIEZA
370
     0
100
AcDbLine
 10
205.273939424
 20
21.9061684159
 30
0.0
 11
209.3681528122
 21
21.9061684159
 31
0.0
  0
LINE
  5
8A
330
1F
100
AcDbEntity
  8
PIEZA
370
     0
100
AcDbLine
 10
209.3681528122
 20
21.9061684159
 30
0.0
 11
211.0148072642
 21
21.9061684159
 31
0.0
  0
LINE
  5
8B
330
1F
100
AcDbEntity
  8
PIEZA
370
     0
100
AcDbLine
 10
213.3733857849
 20
17.5451591212
 30
0.0
 11
213.3733857849
 21
15.8095081048
 31
0.0
  0
LINE
  5
8C
330
1F
100
AcDbEntity
  8
PIEZA
370
     0
100
AcDbLine
 10
213.3733857849
 20
15.8095081048
 30
0.0
 11
212.2162528095
 21
15.8095081048
 31
0.0
  0
LINE
  5
8D
330
1F
100
AcDbEntity
  8
PIEZA
370
     0
100
AcDbLine
 10
212.2162528095
 20
15.8095081048
 30
0.0
 11
212.2162528095
 21
17.2780886835
 31
0.0
  0
LINE
  5
8E
330
1F
100
AcDbEntity
  8
PIEZA
370
     0
100
AcDbLine
 10
210.9257461042
 20
18.1680866255
 30
0.0
 11
209.3681528122
 21
18.1680866255
 31
0.0
  0
LINE
  5
8F
330
1F
100
AcDbEntity
  8
PIEZA
370
     0
100
AcDbLine
 10
209.3681528122
 20
18.1680866255
 30
0.0
 11
206.4309916549
 21
18.1680866255
 31
0.0
  0
LINE
  5
90
330
1F
100
AcDbEntity
  8
PIEZA
370
     0
100
AcDbLine
 10
206.4309916549
 20
18.1680866255
 30
0.0
 11
206.4309916549
 21
15.8095081048
 31
0.0
  0
LINE
  5
91
330
1F
100
AcDbEntity
  8
PIEZA
370
     0
100
AcDbLine
 10
206.4309916549
 20
15.8095081048
 30
0.0
 11
205.273939424
 21
15.8095081048
 31
0.0
  0
LINE
  5
92
330
1F
100
AcDbEntity
  8
PIEZA
370
     0
100
AcDbLine
 10
205.273939424
 20
15.8095081048
 30
0.0
 11
205.273939424
 21
21.9061684159
 31
0.0
  0
LINE
  5
93
330
1F
100
AcDbEntity
  8
PIEZA
370
     0
100
AcDbLine
 10
209.3681528123
 20
21.0162027717
 30
0.0
 11
206.4309916549
 21
21.0162027717
 31
0.0
  0
LINE
  5
94
330
1F
100
AcDbEntity
  8
PIEZA
370
     0
100
AcDbLine
 10
206.4309916549
 20
21.0162027717
 30
0.0
 11
206.4309916549
 21
19.0580845676
 31
0.0
  0
LINE
  5
95
330
1F
100
AcDbEntity
  8
PIEZA
370
     0
100
AcDbLine
 10
206.4309916549
 20
19.0580845676
 30
0.0
 11
209.3681528122
 21
19.0580845676
 31
0.0
  0
LINE
  5
96
330
1F
100
AcDbEntity
  8
PIEZA
370
     0
100
AcDbLine
 10
209.3681528122
 20
19.0580845676
 30
0.0
 11
210.8810621097
 21
19.0580845676
 31
0.0
  0
LINE
  5
97
330
1F
100
AcDbEntity
  8
PIEZA
370
     0
100
AcDbLine
 10
210.8367495398
 20
21.0162027717
 30
0.0
 11
209.3681528123
 21
21.0162027717
 31
0.0
  0
LINE
  5
98
330
1F
100
AcDbEntity
  8
PIEZA
370
     0
100
AcDbLine
 10
228.8156704432
 20
21.9952457249
 30
0.0
 11
229.8837584075
 21
21.9952457249
 31
0.0
  0
LINE
  5
99
330
1F
100
AcDbEntity
  8
PIEZA
370
     0
100
AcDbLine
 10
229.3498436166
 20
15.7650017482
 30
0.0
 11
228.8156704433
 21
15.7650017482
 31
0.0
  0
LINE
  5
9A
330
1F
100
AcDbEntity
  8
PIEZA
370
     0
100
AcDbLine
 10
228.8156704433
 20
15.7650017482
 30
0.0
 11
227.7922503246
 21
15.7650017482
 31
0.0
  0
LINE
  5
9B
330
1F
100
AcDbEntity
  8
PIEZA
370
     0
100
AcDbLine
 10
228.8156704433
 20
21.0162027717
 30
0.0
 11
227.2137322836
 21
21.0162027717
 31
0.0
  0
LINE
  5
9C
330
1F
100
AcDbEntity
  8
PIEZA
370
     0
100
AcDbLine
 10
225.4780812672
 20
19.7256799175
 30
0.0
 11
225.4337041017
 21
18.8356819754
 31
0.0
  0
LINE
  5
9D
330
1F
100
AcDbEntity
  8
PIEZA
370
     0
100
AcDbLine
 10
225.4337041017
 20
18.8356819754
 30
0.0
 11
225.4337041017
 21
18.4351570633
 31
0.0
  0
LINE
  5
9E
330
1F
100
AcDbEntity
  8
PIEZA
370
     0
100
AcDbLine
 10
226.9912650958
 20
16.7440124036
 30
0.0
 11
228.7712932777
 21
16.699506047
 31
0.0
  0
LINE
  5
9F
330
1F
100
AcDbEntity
  8
PIEZA
370
     0
100
AcDbLine
 10
228.7712932777
 20
16.699506047
 30
0.0
 11
228.8156704432
 21
16.699506047
 31
0.0
  0
LINE
  5
A0
330
1F
100
AcDbEntity
  8
PIEZA
370
     0
100
AcDbLine
 10
228.8156704432
 20
16.699506047
 30
0.0
 11
229.394220782
 21
16.699506047
 31
0.0
  0
LINE
  5
A1
330
1F
100
AcDbEntity
  8
PIEZA
370
     0
100
AcDbLine
 10
232.1533242149
 20
18.0790093167
 30
0.0
 11
232.1533242149
 21
19.236142292
 31
0.0
  0
LINE
  5
A2
330
1F
100
AcDbEntity
  8
PIEZA
370
     0
100
AcDbLine
 10
230.4178992831
 20
21.0162027717
 30
0.0
 11
228.8156704433
 21
21.0162027717
 31
0.0
  0
LINE
  5
A3
330
1F
100
AcDbEntity
  8
PIEZA
370
     0
100
AcDbLine
 10
199.9334996027
 20
17.0999986612
 30
0.0
 11
197.1744607654
 21
17.0999986612
 31
0.0
  0
LINE
  5
A4
330
1F
100
AcDbEntity
  8
PIEZA
370
     0
100
AcDbLine
 10
197.1744607654
 20
17.0999986612
 30
0.0
 11
196.2844143767
 21
15.8095081048
 31
0.0
  0
LINE
  5
A5
330
1F
100
AcDbEntity
  8
PIEZA
370
     0
100
AcDbLine
 10
196.2844143767
 20
15.8095081048
 30
0.0
 11
194.8602109635
 21
15.8095081048
 31
0.0
  0
LINE
  5
A6
330
1F
100
AcDbEntity
  8
PIEZA
370
     0
100
AcDbLine
 10
194.8602109635
 20
15.8095081048
 30
0.0
 11
199.2659688483
 21
21.9061684159
 31
0.0
  0
LINE
  5
A7
330
1F
100
AcDbEntity
  8
PIEZA
370
     0
100
AcDbLine
 10
199.2659688483
 20
21.9061684159
 30
0.0
 11
199.9334996027
 21
21.9061684159
 31
0.0
  0
LINE
  5
A8
330
1F
100
AcDbEntity
  8
PIEZA
370
     0
100
AcDbLine
 10
199.9334996027
 20
21.9061684159
 30
0.0
 11
200.556733936
 21
21.9061684159
 31
0.0
  0
LINE
  5
A9
330
1F
100
AcDbEntity
  8
PIEZA
370
     0
100
AcDbLine
 10
200.556733936
 20
21.9061684159
 30
0.0
 11
205.0514722363
 21
15.8095081048
 31
0.0
  0
LINE
  5
AA
330
1F
100
AcDbEntity
  8
PIEZA
370
     0
100
AcDbLine
 10
205.0514722363
 20
15.8095081048
 30
0.0
 11
203.6272688232
 21
15.8095081048
 31
0.0
  0
LINE
  5
AB
330
1F
100
AcDbEntity
  8
PIEZA
370
     0
100
AcDbLine
 10
203.6272688232
 20
15.8095081048
 30
0.0
 11
202.6929098645
 21
17.0999986612
 31
0.0
  0
LINE
  5
AC
330
1F
100
AcDbEntity
  8
PIEZA
370
     0
100
AcDbLine
 10
202.6929098645
 20
17.0999986612
 30
0.0
 11
199.9334996027
 21
17.0999986612
 31
0.0
  0
LINE
  5
AD
330
1F
100
AcDbEntity
  8
PIEZA
370
     0
100
AcDbLine
 10
199.9334996027
 20
20.9717933084
 30
0.0
 11
197.7973721208
 21
18.0346967467
 31
0.0
  0
LINE
  5
AE
330
1F
100
AcDbEntity
  8
PIEZA
370
     0
100
AcDbLine
 10
197.7973721208
 20
18.0346967467
 30
0.0
 11
199.9334996027
 21
18.0346967467
 31
0.0
  0
LINE
  5
AF
330
1F
100
AcDbEntity
  8
PIEZA
370
     0
100
AcDbLine
 10
199.9334996027
 20
18.0346967467
 30
0.0
 11
202.0696916801
 21
18.0346967467
 31
0.0
  0
LINE
  5
B0
330
1F
100
AcDbEntity
  8
PIEZA
370
     0
100
AcDbLine
 10
202.0696916801
 20
18.0346967467
 30
0.0
 11
199.9334996027
 21
20.9717933084
 31
0.0
  0
LINE
  5
B1
330
1F
100
AcDbEntity
  8
PIEZA
370
     0
100
AcDbLine
 10
216.2661697766
 20
19.4142323142
 30
0.0
 11
217.2895414486
 21
19.4142323142
 31
0.0
  0
LINE
  5
B2
330
1F
100
AcDbEntity
  8
PIEZA
370
     0
100
AcDbLine
 10
217.2895414486
 20
19.4142323142
 30
0.0
 11
221.7842958978
 21
21.9061684159
 31
0.0
  0
LINE
  5
B3
330
1F
100
AcDbEntity
  8
PIEZA
370
     0
100
AcDbLine
 10
221.7842958978
 20
21.9061684159
 30
0.0
 11
223.2528764765
 21
21.9061684159
 31
0.0
  0
LINE
  5
B4
330
1F
100
AcDbEntity
  8
PIEZA
370
     0
100
AcDbLine
 10
223.2528764765
 20
21.9061684159
 30
0.0
 11
223.8760946609
 21
21.9061684159
 31
0.0
  0
LINE
  5
B5
330
1F
100
AcDbEntity
  8
PIEZA
370
     0
100
AcDbLine
 10
223.8760946609
 20
21.9061684159
 30
0.0
 11
218.5356709884
 21
18.9690718542
 31
0.0
  0
LINE
  5
B6
330
1F
100
AcDbEntity
  8
PIEZA
370
     0
100
AcDbLine
 10
218.5356709884
 20
18.9690718542
 30
0.0
 11
224.2318709829
 21
15.8095081048
 31
0.0
  0
LINE
  5
B7
330
1F
100
AcDbEntity
  8
PIEZA
370
     0
100
AcDbLine
 10
224.2318709829
 20
15.8095081048
 30
0.0
 11
222.0066823411
 21
15.8095081048
 31
0.0
  0
LINE
  5
B8
330
1F
100
AcDbEntity
  8
PIEZA
370
     0
100
AcDbLine
 10
222.0066823411
 20
15.8095081048
 30
0.0
 11
217.2895414486
 21
18.5242343722
 31
0.0
  0
LINE
  5
B9
330
1F
100
AcDbEntity
  8
PIEZA
370
     0
100
AcDbLine
 10
217.2895414486
 20
18.5242343722
 30
0.0
 11
216.2661697766
 21
18.5242343722
 31
0.0
  0
LINE
  5
BA
330
1F
100
AcDbEntity
  8
PIEZA
370
     0
100
AcDbLine
 10
216.2661697766
 20
18.5242343722
 30
0.0
 11
216.2661697766
 21
15.8095081048
 31
0.0
  0
LINE
  5
BB
330
1F
100
AcDbEntity
  8
PIEZA
370
     0
100
AcDbLine
 10
216.2661697766
 20
15.8095081048
 30
0.0
 11
215.1090368012
 21
15.8095081048
 31
0.0
  0
LINE
  5
BC
330
1F
100
AcDbEntity
  8
PIEZA
370
     0
100
AcDbLine
 10
215.1090368012
 20
15.8095081048
 30
0.0
 11
215.1090368012
 21
21.9061684159
 31
0.0
  0
LINE
  5
BD
330
1F
100
AcDbEntity
  8
PIEZA
370
     0
100
AcDbLine
 10
215.1090368012
 20
21.9061684159
 30
0.0
 11
216.2661697766
 21
21.9061684159
 31
0.0
  0
LINE
  5
BE
330
1F
100
AcDbEntity
  8
PIEZA
370
     0
100
AcDbLine
 10
216.2661697766
 20
21.9061684159
 30
0.0
 11
216.2661697766
 21
19.4142323142
 31
0.0
  0
LINE
  5
BF
330
1F
100
AcDbEntity
  8
PIEZA
370
     0
100
AcDbLine
 10
241.7216095365
 20
19.9927503552
 30
0.0
 11
241.7216095365
 21
20.1708080797
 31
0.0
  0
LINE
  5
C0
330
1F
100
AcDbEntity
  8
PIEZA
370
     0
100
AcDbLine
 10
239.2293181591
 20
21.0162027717
 30
0.0
 11
238.9178705559
 21
21.0162027717
 31
0.0
  0
LINE
  5
C1
330
1F
100
AcDbEntity
  8
PIEZA
370
     0
100
AcDbLine
 10
238.0722174816
 20
19.3695321709
 30
0.0
 11
239.6741879391
 21
19.4142323143
 31
0.0
  0
LINE
  5
C2
330
1F
100
AcDbEntity
  8
PIEZA
370
     0
100
AcDbLine
 10
239.4517853469
 20
15.7650017482
 30
0.0
 11
238.917870556
 21
15.7650017482
 31
0.0
  0
LINE
  5
C3
330
1F
100
AcDbEntity
  8
PIEZA
370
     0
100
AcDbLine
 10
234.9570308978
 20
17.7675617134
 30
0.0
 11
234.9570308978
 21
17.9456194378
 31
0.0
  0
LINE
  5
C4
330
1F
100
AcDbEntity
  8
PIEZA
370
     0
100
AcDbLine
 10
234.9570308978
 20
17.9456194378
 30
0.0
 11
236.1141638732
 21
17.9456194378
 31
0.0
  0
LINE
  5
C5
330
1F
100
AcDbEntity
  8
PIEZA
370
     0
100
AcDbLine
 10
236.1141638732
 20
17.9456194378
 30
0.0
 11
236.1141638732
 21
17.678549
 31
0.0
  0
LINE
  5
C6
330
1F
100
AcDbEntity
  8
PIEZA
370
     0
100
AcDbLine
 10
240.5198410135
 20
18.3905538132
 30
0.0
 11
238.9622477215
 21
18.4351570633
 31
0.0
  0
LINE
  5
C7
330
1F
100
AcDbEntity
  8
PIEZA
370
     0
100
AcDbLine
 10
242.8787425121
 20
20.1708080797
 30
0.0
 11
242.8787425121
 21
19.9927503552
 31
0.0
  0
LINE
  5
C8
330
1F
100
AcDbEntity
  8
PIEZA
370
     0
100
AcDbLine
 10
242.8787425121
 20
19.9927503552
 30
0.0
 11
241.7216095365
 21
19.9927503552
 31
0.0
  0
LINE
  5
C9
330
1F
100
AcDbEntity
  8
PIEZA
370
     0
100
AcDbLine
 10
272.6509112948
 20
15.8095081048
 30
0.0
 11
271.0486178594
 21
15.8095081048
 31
0.0
  0
LINE
  5
CA
330
1F
100
AcDbEntity
  8
PIEZA
370
     0
100
AcDbLine
 10
271.0486178594
 20
15.8095081048
 30
0.0
 11
271.0486178594
 21
18.2570993388
 31
0.0
  0
LINE
  5
CB
330
1F
100
AcDbEntity
  8
PIEZA
370
     0
100
AcDbLine
 10
271.0486178594
 20
18.2570993388
 30
0.0
 11
268.8234615153
 21
18.2570993388
 31
0.0
  0
LINE
  5
CC
330
1F
100
AcDbEntity
  8
PIEZA
370
     0
100
AcDbLine
 10
268.8234615153
 20
18.2570993388
 30
0.0
 11
268.8234615153
 21
19.0580845676
 31
0.0
  0
LINE
  5
CD
330
1F
100
AcDbEntity
  8
PIEZA
370
     0
100
AcDbLine
 10
268.8234615153
 20
19.0580845676
 30
0.0
 11
274.8758092565
 21
19.0580845676
 31
0.0
  0
LINE
  5
CE
330
1F
100
AcDbEntity
  8
PIEZA
370
     0
100
AcDbLine
 10
274.8758092565
 20
19.0580845676
 30
0.0
 11
274.8758092565
 21
18.2570993388
 31
0.0
  0
LINE
  5
CF
330
1F
100
AcDbEntity
  8
PIEZA
370
     0
100
AcDbLine
 10
274.8758092565
 20
18.2570993388
 30
0.0
 11
272.6509112948
 21
18.2570993388
 31
0.0
  0
LINE
  5
D0
330
1F
100
AcDbEntity
  8
PIEZA
370
     0
100
AcDbLine
 10
272.6509112948
 20
18.2570993388
 30
0.0
 11
272.6509112948
 21
15.8095081048
 31
0.0
  0
LINE
  5
D1
330
1F
100
AcDbEntity
  8
PIEZA
370
     0
100
AcDbLine
 10
263.127229223
 20
15.8095081048
 30
0.0
 11
261.5252587656
 21
15.8095081048
 31
0.0
  0
LINE
  5
D2
330
1F
100
AcDbEntity
  8
PIEZA
370
     0
100
AcDbLine
 10
261.5252587656
 20
15.8095081048
 30
0.0
 11
261.5252587656
 21
19.0580845676
 31
0.0
  0
LINE
  5
D3
330
1F
100
AcDbEntity
  8
PIEZA
370
     0
100
AcDbLine
 10
261.5252587656
 20
19.0580845676
 30
0.0
 11
263.127229223
 21
19.0580845676
 31
0.0
  0
LINE
  5
D4
330
1F
100
AcDbEntity
  8
PIEZA
370
     0
100
AcDbLine
 10
263.127229223
 20
19.0580845676
 30
0.0
 11
263.127229223
 21
17.8566390223
 31
0.0
  0
LINE
  5
D5
330
1F
100
AcDbEntity
  8
PIEZA
370
     0
100
AcDbLine
 10
263.127229223
 20
17.8566390223
 30
0.0
 11
266.4648829946
 21
17.8566390223
 31
0.0
  0
LINE
  5
D6
330
1F
100
AcDbEntity
  8
PIEZA
370
     0
100
AcDbLine
 10
266.4648829946
 20
17.8566390223
 30
0.0
 11
266.4648829946
 21
19.0580845676
 31
0.0
  0
LINE
  5
D7
330
1F
100
AcDbEntity
  8
PIEZA
370
     0
100
AcDbLine
 10
266.4648829946
 20
19.0580845676
 30
0.0
 11
268.0671441322
 21
19.0580845676
 31
0.0
  0
LINE
  5
D8
330
1F
100
AcDbEntity
  8
PIEZA
370
     0
100
AcDbLine
 10
268.0671441322
 20
19.0580845676
 30
0.0
 11
268.0671441322
 21
15.8095081048
 31
0.0
  0
LINE
  5
D9
330
1F
100
AcDbEntity
  8
PIEZA
370
     0
100
AcDbLine
 10
268.0671441322
 20
15.8095081048
 30
0.0
 11
266.4648829946
 21
15.8095081048
 31
0.0
  0
LINE
  5
DA
330
1F
100
AcDbEntity
  8
PIEZA
370
     0
100
AcDbLine
 10
266.4648829946
 20
15.8095081048
 30
0.0
 11
266.4648829946
 21
17.0999986612
 31
0.0
  0
LINE
  5
DB
330
1F
100
AcDbEntity
  8
PIEZA
370
     0
100
AcDbLine
 10
266.4648829946
 20
17.0999986612
 30
0.0
 11
263.127229223
 21
17.0999986612
 31
0.0
  0
LINE
  5
DC
330
1F
100
AcDbEntity
  8
PIEZA
370
     0
100
AcDbLine
 10
263.127229223
 20
17.0999986612
 30
0.0
 11
263.127229223
 21
15.8095081048
 31
0.0
  0
LINE
  5
DD
330
1F
100
AcDbEntity
  8
PIEZA
370
     0
100
AcDbLine
 10
258.8549419615
 20
18.0346967467
 30
0.0
 11
258.8549419615
 21
18.0790093166
 31
0.0
  0
LINE
  5
DE
330
1F
100
AcDbEntity
  8
PIEZA
370
     0
100
AcDbLine
 10
257.608763975
 20
18.3014765044
 30
0.0
 11
256.6743888675
 21
18.3014765044
 31
0.0
  0
LINE
  5
DF
330
1F
100
AcDbEntity
  8
PIEZA
370
     0
100
AcDbLine
 10
255.3835753331
 20
17.6341718346
 30
0.0
 11
255.3835753331
 21
17.1890113747
 31
0.0
  0
LINE
  5
E0
330
1F
100
AcDbEntity
  8
PIEZA
370
     0
100
AcDbLine
 10
256.6743888675
 20
16.565986977
 30
0.0
 11
257.608763975
 21
16.565986977
 31
0.0
  0
LINE
  5
E1
330
1F
100
AcDbEntity
  8
PIEZA
370
     0
100
AcDbLine
 10
258.8549419615
 20
17.0999986613
 30
0.0
 11
256.9415239008
 21
17.0999986613
 31
0.0
  0
LINE
  5
E2
330
1F
100
AcDbEntity
  8
PIEZA
370
     0
100
AcDbLine
 10
256.9415239008
 20
17.0999986613
 30
0.0
 11
256.9415239008
 21
17.5451591213
 31
0.0
  0
LINE
  5
E3
330
1F
100
AcDbEntity
  8
PIEZA
370
     0
100
AcDbLine
 10
256.9415239008
 20
17.5451591213
 30
0.0
 11
260.5462158124
 21
17.5451591213
 31
0.0
  0
LINE
  5
E4
330
1F
100
AcDbEntity
  8
PIEZA
370
     0
100
AcDbLine
 10
260.5462158124
 20
17.5451591213
 30
0.0
 11
260.5462158124
 21
16.6104933335
 31
0.0
  0
LINE
  5
E5
330
1F
100
AcDbEntity
  8
PIEZA
370
     0
100
AcDbLine
 10
258.0539567328
 20
15.7650017481
 30
0.0
 11
256.2292284075
 21
15.7650017481
 31
0.0
  0
LINE
  5
E6
330
1F
100
AcDbEntity
  8
PIEZA
370
     0
100
AcDbLine
 10
253.7372923058
 20
16.9665764846
 30
0.0
 11
253.7372923058
 21
17.8566390223
 31
0.0
  0
LINE
  5
E7
330
1F
100
AcDbEntity
  8
PIEZA
370
     0
100
AcDbLine
 10
256.2292284075
 20
19.1027524132
 30
0.0
 11
258.0539567328
 21
19.1027524132
 31
0.0
  0
LINE
  5
E8
330
1F
100
AcDbEntity
  8
PIEZA
370
     0
100
AcDbLine
 10
260.456912419
 20
18.0346967467
 30
0.0
 11
258.8549419615
 21
18.0346967467
 31
0.0
  0
LINE
  5
E9
330
1F
100
AcDbEntity
  8
PIEZA
370
     0
100
AcDbLine
 10
252.6691720437
 20
15.8095081048
 30
0.0
 11
251.0669432039
 21
15.8095081048
 31
0.0
  0
LINE
  5
EA
330
1F
100
AcDbEntity
  8
PIEZA
370
     0
100
AcDbLine
 10
251.0669432039
 20
15.8095081048
 30
0.0
 11
251.0669432039
 21
19.0580845676
 31
0.0
  0
LINE
  5
EB
330
1F
100
AcDbEntity
  8
PIEZA
370
     0
100
AcDbLine
 10
251.0669432039
 20
19.0580845676
 30
0.0
 11
252.6691720437
 21
19.0580845676
 31
0.0
  0
LINE
  5
EC
330
1F
100
AcDbEntity
  8
PIEZA
370
     0
100
AcDbLine
 10
252.6691720437
 20
19.0580845676
 30
0.0
 11
252.6691720437
 21
15.8095081048
 31
0.0
  0
LINE
  5
ED
330
1F
100
AcDbEntity
  8
PIEZA
370
     0
100
AcDbLine
 10
246.794882027
 20
16.6104933336
 30
0.0
 11
250.3549706885
 21
16.6104933336
 31
0.0
  0
LINE
  5
EE
330
1F
100
AcDbEntity
  8
PIEZA
370
     0
100
AcDbLine
 10
250.3549706885
 20
16.6104933336
 30
0.0
 11
250.3549706885
 21
15.8095081048
 31
0.0
  0
LINE
  5
EF
330
1F
100
AcDbEntity
  8
PIEZA
370
     0
100
AcDbLine
 10
250.3549706885
 20
15.8095081048
 30
0.0
 11
245.192685485
 21
15.8095081048
 31
0.0
  0
LINE
  5
F0
330
1F
100
AcDbEntity
  8
PIEZA
370
     0
100
AcDbLine
 10
245.192685485
 20
15.8095081048
 30
0.0
 11
245.192685485
 21
19.0580845676
 31
0.0
  0
LINE
  5
F1
330
1F
100
AcDbEntity
  8
PIEZA
370
     0
100
AcDbLine
 10
245.192685485
 20
19.0580845676
 30
0.0
 11
246.794882027
 21
19.0580845676
 31
0.0
  0
LINE
  5
F2
330
1F
100
AcDbEntity
  8
PIEZA
370
     0
100
AcDbLine
 10
246.794882027
 20
19.0580845676
 30
0.0
 11
246.794882027
 21
16.6104933336
 31
0.0
  0
LINE
  5
F3
330
1F
100
AcDbEntity
  8
PIEZA
370
     0
100
AcDbLine
 10
275.3361819763
 20
21.439788307
 30
0.0
 11
275.3361819763
 21
22.9036857059
 31
0.0
  0
LINE
  5
F4
330
1F
100
AcDbEntity
  8
PIEZA
370
     0
100
AcDbLine
 10
275.3361819763
 20
22.9036857059
 30
0.0
 11
275.9586896093
 21
22.9036857059
 31
0.0
  0
LINE
  5
F5
330
1F
100
AcDbEntity
  8
PIEZA
370
     0
100
AcDbLine
 10
276.4741623613
 20
21.7253976771
 30
0.0
 11
276.6528337438
 21
21.439788307
 31
0.0
  0
LINE
  5
F6
330
1F
100
AcDbEntity
  8
PIEZA
370
     0
100
AcDbLine
 10
276.6528337438
 20
21.439788307
 30
0.0
 11
276.299495905
 21
21.439788307
 31
0.0
  0
LINE
  5
F7
330
1F
100
AcDbEntity
  8
PIEZA
370
     0
100
AcDbLine
 10
276.299495905
 20
21.439788307
 30
0.0
 11
276.0875577973
 21
21.7593103581
 31
0.0
  0
LINE
  5
F8
330
1F
100
AcDbEntity
  8
PIEZA
370
     0
100
AcDbLine
 10
275.6927495942
 20
22.0510886063
 30
0.0
 11
275.6326434043
 21
22.0510886063
 31
0.0
  0
LINE
  5
F9
330
1F
100
AcDbEntity
  8
PIEZA
370
     0
100
AcDbLine
 10
275.6326434043
 20
22.0510886063
 30
0.0
 11
275.6326434043
 21
21.439788307
 31
0.0
  0
LINE
  5
FA
330
1F
100
AcDbEntity
  8
PIEZA
370
     0
100
AcDbLine
 10
275.6326434043
 20
21.439788307
 30
0.0
 11
275.3361819763
 21
21.439788307
 31
0.0
  0
LINE
  5
FB
330
1F
100
AcDbEntity
  8
PIEZA
370
     0
100
AcDbLine
 10
275.6326434043
 20
22.2841817675
 30
0.0
 11
275.8512671548
 21
22.2841817675
 31
0.0
  0
LINE
  5
FC
330
1F
100
AcDbEntity
  8
PIEZA
370
     0
100
AcDbLine
 10
275.8632496354
 20
22.6562846231
 30
0.0
 11
275.6326434043
 21
22.6562846231
 31
0.0
  0
LINE
  5
FD
330
1F
100
AcDbEntity
  8
PIEZA
370
     0
100
AcDbLine
 10
275.6326434043
 20
22.6562846231
 30
0.0
 11
275.6326434043
 21
22.2841817675
 31
0.0
  0
LINE
  5
FE
330
1F
100
AcDbEntity
  8
1
  6
Continuous
100
AcDbLine
 10
215.2166610219
 20
99.0584387362
 30
0.0
 11
212.1772391469
 21
99.0584387362
 31
0.0
  0
LINE
  5
FF
330
1F
100
AcDbEntity
  8
1
  6
Continuous
100
AcDbLine
 10
216.8166610219
 20
73.4334387362
 30
0.0
 11
216.8166610219
 21
72.9334387362
 31
0.0
  0
LINE
  5
100
330
1F
100
AcDbEntity
  8
1
  6
Continuous
100
AcDbLine
 10
257.8166610219
 20
72.9334387362
 30
0.0
 11
257.8166610219
 21
73.4334387362
 31
0.0
  0
LINE
  5
101
330
1F
100
AcDbEntity
  8
1
  6
Continuous
100
AcDbLine
 10
258.3166610219
 20
67.2334387362
 30
0.0
 11
258.3166610219
 21
72.9334387362
 31
0.0
  0
LINE
  5
102
330
1F
100
AcDbEntity
  8
1
  6
Continuous
100
AcDbLine
 10
216.3166610219
 20
72.9334387362
 30
0.0
 11
216.3166610219
 21
67.2334387362
 31
0.0
  0
LINE
  5
103
330
1F
100
AcDbEntity
  8
1
  6
Continuous
100
AcDbLine
 10
212.1772391469
 20
81.0584387362
 30
0.0
 11
215.2166610219
 21
81.0584387362
 31
0.0
  0
LINE
  5
104
330
1F
100
AcDbEntity
  8
1
  6
Continuous
100
AcDbLine
 10
258.3166610219
 20
73.4334387362
 30
0.0
 11
258.3166610219
 21
103.2334387362
 31
0.0
  0
LINE
  5
105
330
1F
100
AcDbEntity
  8
1
  6
Continuous
100
AcDbLine
 10
216.3166610219
 20
81.0478699815
 30
0.0
 11
216.3166610219
 21
73.4334387362
 31
0.0
  0
LINE
  5
106
330
1F
100
AcDbEntity
  8
1
  6
Continuous
100
AcDbLine
 10
216.3166610219
 20
103.2334387362
 30
0.0
 11
216.3166610219
 21
99.0506554589
 31
0.0
  0
LINE
  5
107
330
1F
100
AcDbEntity
  8
1
  6
Continuous
100
AcDbLine
 10
216.326364512
 20
99.0743176697
 30
0.0
 11
215.2166610219
 21
99.0549477232
 31
0.0
  0
LINE
  5
108
330
1F
100
AcDbEntity
  8
1
  6
Continuous
100
AcDbLine
 10
215.2166610219
 20
81.0619297492
 30
0.0
 11
216.3187733939
 21
81.0426923062
 31
0.0
  0
LINE
  5
109
330
1F
100
AcDbEntity
  8
1
  6
Continuous
100
AcDbLine
 10
237.3166610219
 20
66.9834387362
 30
0.0
 11
216.5666611219
 21
66.9834387362
 31
0.0
  0
LINE
  5
10A
330
1F
100
AcDbEntity
  8
1
  6
Continuous
100
AcDbLine
 10
258.0666610219
 20
66.9834387362
 30
0.0
 11
237.3166610219
 21
66.9834387362
 31
0.0
  0
LINE
  5
10B
330
1F
100
AcDbEntity
  8
1
  6
Continuous
100
AcDbLine
 10
215.2166610219
 20
99.0584387362
 30
0.0
 11
215.2166610219
 21
81.0584387362
 31
0.0
  0
LINE
  5
10C
330
1F
100
AcDbEntity
  8
1
  6
Continuous
100
AcDbLine
 10
258.3166610219
 20
73.4334387362
 30
0.0
 11
216.3166610219
 21
73.4334387362
 31
0.0
  0
LINE
  5
10D
330
1F
100
AcDbEntity
  8
1
  6
Continuous
100
AcDbLine
 10
258.0666610219
 20
103.4834387362
 30
0.0
 11
216.5666610219
 21
103.4834387362
 31
0.0
  0
LINE
  5
10E
330
1F
100
AcDbEntity
  8
1
  6
Continuous
100
AcDbLine
 10
237.3166610219
 20
72.9334387362
 30
0.0
 11
216.3166610219
 21
72.9334387362
 31
0.0
  0
LINE
  5
10F
330
1F
100
AcDbEntity
  8
1
  6
Continuous
100
AcDbLine
 10
258.3166610219
 20
72.9334387362
 30
0.0
 11
237.3166610219
 21
72.9334387362
 31
0.0
  0
LINE
  5
110
330
1F
100
AcDbEntity
  8
COTAS
100
AcDbLine
 10
150.5666610219
 20
230.6586302475
 30
0.0
 11
265.2293152539
 21
230.6586302475
 31
0.0
  0
LINE
  5
111
330
1F
100
AcDbEntity
  8
COTAS
100
AcDbLine
 10
265.2293152539
 20
240.6586302475
 30
0.0
 11
265.2293152539
 21
230.6586302475
 31
0.0
  0
LINE
  5
112
330
1F
100
AcDbEntity
  8
COTAS
100
AcDbLine
 10
150.5666610219
 20
240.6586302475
 30
0.0
 11
265.2293152539
 21
240.6586302475
 31
0.0
  0
LINE
  5
113
330
1F
100
AcDbEntity
  8
COTAS
100
AcDbLine
 10
150.5666610219
 20
240.6586302475
 30
0.0
 11
150.5666610219
 21
230.6586302475
 31
0.0
  0
LINE
  5
114
330
1F
100
AcDbEntity
  8
1
  6
Continuous
100
AcDbLine
 10
174.3166610219
 20
230.4586302475
 30
0.0
 11
174.3166610219
 21
160.7086302475
 31
0.0
  0
LINE
  5
115
330
1F
100
AcDbEntity
  8
1
  6
Continuous
100
AcDbLine
 10
214.3166610219
 20
183.0943599047
 30
0.0
 11
214.3166610219
 21
230.4586302475
 31
0.0
  0
LINE
  5
116
330
1F
100
AcDbEntity
  8
1
  6
Continuous
100
AcDbLine
 10
214.3166610219
 20
160.7086302475
 30
0.0
 11
214.3166610219
 21
165.0938302475
 31
0.0
  0
LINE
  5
117
330
1F
100
AcDbEntity
  8
1
  6
Continuous
100
AcDbLine
 10
213.0666610219
 20
230.4586239975
 30
0.0
 11
213.0666610219
 21
230.6586302475
 31
0.0
  0
LINE
  5
118
330
1F
100
AcDbEntity
  8
1
  6
Continuous
100
AcDbLine
 10
175.5666610219
 20
230.6586302475
 30
0.0
 11
175.5666610219
 21
230.4586239975
 31
0.0
  0
LINE
  5
119
330
1F
100
AcDbEntity
  8
1
  6
Continuous
100
AcDbLine
 10
214.0666610219
 20
160.4586302475
 30
0.0
 11
174.5666610219
 21
160.4586302475
 31
0.0
  0
LINE
  5
11A
330
1F
100
AcDbEntity
  8
1
  6
Continuous
100
AcDbLine
 10
213.0666610219
 20
230.6586302475
 30
0.0
 11
175.5666610219
 21
230.6586302475
 31
0.0
  0
LINE
  5
11B
330
1F
100
AcDbEntity
  8
1
  6
Continuous
100
AcDbLine
 10
174.3166610219
 20
230.4586302475
 30
0.0
 11
214.3166610219
 21
230.4586302475
 31
0.0
  0
LINE
  5
11C
330
1F
100
AcDbEntity
  8
1
  6
Continuous
100
AcDbLine
 10
56.4396773743
 20
230.4586302475
 30
0.0
 11
56.4396773743
 21
195.0942904038
 31
0.0
  0
LINE
  5
11D
330
1F
100
AcDbEntity
  8
1
  6
Continuous
100
AcDbLine
 10
96.4396773743
 20
160.7086302475
 30
0.0
 11
96.4396773743
 21
230.4586302475
 31
0.0
  0
LINE
  5
11E
330
1F
100
AcDbEntity
  8
1
  6
Continuous
100
AcDbLine
 10
59.8146773743
 20
153.0938302475
 30
0.0
 11
89.6146773743
 21
153.0938302475
 31
0.0
  0
LINE
  5
11F
330
1F
100
AcDbEntity
  8
1
  6
Continuous
100
AcDbLine
 10
89.6146773743
 20
195.0938302475
 30
0.0
 11
59.8146773743
 21
195.0938302475
 31
0.0
  0
LINE
  5
120
330
1F
100
AcDbEntity
  8
1
  6
Continuous
100
AcDbLine
 10
95.1896773743
 20
230.4586239975
 30
0.0
 11
95.1896773743
 21
230.6586302475
 31
0.0
  0
LINE
  5
121
330
1F
100
AcDbEntity
  8
1
  6
Continuous
100
AcDbLine
 10
57.6896773743
 20
230.6586302475
 30
0.0
 11
57.6896773743
 21
230.4586239975
 31
0.0
  0
LINE
  5
122
330
1F
100
AcDbEntity
  8
1
  6
Continuous
100
AcDbLine
 10
53.6146773743
 20
153.0938302475
 30
0.0
 11
59.3146773743
 21
153.0938302475
 31
0.0
  0
LINE
  5
123
330
1F
100
AcDbEntity
  8
1
  6
Continuous
100
AcDbLine
 10
59.3146773743
 20
195.0938302475
 30
0.0
 11
53.6146773743
 21
195.0938302475
 31
0.0
  0
LINE
  5
124
330
1F
100
AcDbEntity
  8
1
  6
Continuous
100
AcDbLine
 10
59.3146773743
 20
153.5938302475
 30
0.0
 11
59.8146773743
 21
153.5938302475
 31
0.0
  0
LINE
  5
125
330
1F
100
AcDbEntity
  8
1
  6
Continuous
100
AcDbLine
 10
59.8146773743
 20
194.5938302475
 30
0.0
 11
59.3146773743
 21
194.5938302475
 31
0.0
  0
LINE
  5
126
330
1F
100
AcDbEntity
  8
1
  6
Continuous
100
AcDbLine
 10
89.8644907815
 20
160.4586302475
 30
0.0
 11
96.1896773743
 21
160.4586302475
 31
0.0
  0
LINE
  5
127
330
1F
100
AcDbEntity
  8
1
  6
Continuous
100
AcDbLine
 10
53.3646773743
 20
194.8438302475
 30
0.0
 11
53.3646773743
 21
153.3438302475
 31
0.0
  0
LINE
  5
128
330
1F
100
AcDbEntity
  8
1
  6
Continuous
100
AcDbLine
 10
57.6896773743
 20
230.6586302475
 30
0.0
 11
95.1896773743
 21
230.6586302475
 31
0.0
  0
LINE
  5
129
330
1F
100
AcDbEntity
  8
1
  6
Continuous
100
AcDbLine
 10
59.8146773743
 20
153.0938302475
 30
0.0
 11
59.8146773743
 21
195.0938302475
 31
0.0
  0
LINE
  5
12A
330
1F
100
AcDbEntity
  8
1
  6
Continuous
100
AcDbLine
 10
76.4396773743
 20
230.4586302475
 30
0.0
 11
96.4396773743
 21
230.4586302475
 31
0.0
  0
LINE
  5
12B
330
1F
100
AcDbEntity
  8
1
  6
Continuous
100
AcDbLine
 10
56.4396773743
 20
230.4586302475
 30
0.0
 11
76.4396773743
 21
230.4586302475
 31
0.0
  0
LINE
  5
12C
330
1F
100
AcDbEntity
  8
1
  6
Continuous
100
AcDbLine
 10
89.8646773743
 20
153.3438302475
 30
0.0
 11
89.8646773743
 21
194.8438302475
 31
0.0
  0
LINE
  5
12D
330
1F
100
AcDbEntity
  8
1
  6
Continuous
100
AcDbLine
 10
59.3146773743
 20
195.0938302475
 30
0.0
 11
59.3146773743
 21
153.0938302475
 31
0.0
  0
LINE
  5
12E
330
1F
100
AcDbEntity
  8
1
100
AcDbLine
 10
215.2166997535
 20
165.0938189224
 30
0.0
 11
218.3630826235
 21
165.0423896181
 31
0.0
  0
LINE
  5
12F
330
1F
100
AcDbEntity
  8
1
100
AcDbLine
 10
215.2166997535
 20
183.0938189224
 30
0.0
 11
214.3166528785
 21
183.0938189224
 31
0.0
  0
LINE
  5
130
330
1F
100
AcDbEntity
  8
1
100
AcDbLine
 10
214.3166528785
 20
165.0938189224
 30
0.0
 11
215.2166997535
 21
165.0938189224
 31
0.0
  0
LINE
  5
131
330
1F
100
AcDbEntity
  8
1
100
AcDbLine
 10
218.3526456487
 20
183.1450660487
 30
0.0
 11
215.2166997535
 21
183.0938189224
 31
0.0
  0
LINE
  5
132
330
1F
100
AcDbEntity
  8
1
100
AcDbLine
 10
215.2166997535
 20
165.0938189224
 30
0.0
 11
215.2166997535
 21
183.0938189224
 31
0.0
  0
LINE
  5
133
330
1F
100
AcDbEntity
  8
COTAS
100
AcDbLine
 10
39.1083502582
 20
230.6586302475
 30
0.0
 11
113.7710044903
 21
230.6586302475
 31
0.0
  0
LINE
  5
134
330
1F
100
AcDbEntity
  8
COTAS
100
AcDbLine
 10
113.7710044903
 20
240.6586302475
 30
0.0
 11
113.7710044903
 21
230.6586302475
 31
0.0
  0
LINE
  5
135
330
1F
100
AcDbEntity
  8
COTAS
100
AcDbLine
 10
39.1083502582
 20
240.6586302475
 30
0.0
 11
113.7710044903
 21
240.6586302475
 31
0.0
  0
LINE
  5
136
330
1F
100
AcDbEntity
  8
COTAS
100
AcDbLine
 10
39.1083502582
 20
240.6586302475
 30
0.0
 11
39.1083502582
 21
230.6586302475
 31
0.0
  0
CIRCLE
  5
137
330
1F
100
AcDbEntity
  8
COTAS
100
AcDbCircle
 10
237.3167012795
 20
174.0938155422
 30
0.0
 40
3.0
  0
ARC
  5
138
330
1F
100
AcDbEntity
  8
1
  6
Continuous
100
AcDbCircle
 10
258.0666610219
 20
103.2334387362
 30
0.0
 40
0.2500000000000568
100
AcDbArc
 50
0.0
 51
90.0
  0
ARC
  5
139
330
1F
100
AcDbEntity
  8
1
  6
Continuous
100
AcDbCircle
 10
216.5666610219
 20
103.2334387362
 30
0.0
 40
0.25
100
AcDbArc
 50
90.0
 51
180.0
  0
ARC
  5
13A
330
1F
100
AcDbEntity
  8
1
  6
Continuous
100
AcDbCircle
 10
216.5666610219
 20
67.2334387362
 30
0.0
 40
0.25000000000002
100
AcDbArc
 50
180.0
 51
270.0000229177
  0
ARC
  5
13B
330
1F
100
AcDbEntity
  8
1
  6
Continuous
100
AcDbCircle
 10
258.0666610219
 20
67.2334387362
 30
0.0
 40
0.2500000000000568
100
AcDbArc
 50
270.0
 51
0.0
  0
CIRCLE
  5
13C
330
1F
100
AcDbEntity
  8
1
  6
Continuous
100
AcDbCircle
 10
194.3166610219
 20
90.0584387362
 30
0.0
 40
18.75
  0
CIRCLE
  5
13D
330
1F
100
AcDbEntity
  8
1
  6
Continuous
100
AcDbCircle
 10
194.3166610219
 20
90.0584387362
 30
0.0
 40
5.0
  0
CIRCLE
  5
13E
330
1F
100
AcDbEntity
  8
1
  6
Continuous
100
AcDbCircle
 10
204.3166610219
 20
90.0584387362
 30
0.0
 40
2.000000000000028
  0
CIRCLE
  5
13F
330
1F
100
AcDbEntity
  8
1
  6
Continuous
100
AcDbCircle
 10
184.3166610219
 20
90.0584387362
 30
0.0
 40
2.0
  0
CIRCLE
  5
140
330
1F
100
AcDbEntity
  8
1
  6
Continuous
100
AcDbCircle
 10
194.3166610219
 20
90.0584387362
 30
0.0
 40
20.0
  0
ARC
  5
141
330
1F
100
AcDbEntity
  8
1
  6
Continuous
100
AcDbCircle
 10
214.0666610219
 20
160.7086302475
 30
0.0
 40
0.25
100
AcDbArc
 50
270.0
 51
0.0
  0
ARC
  5
142
330
1F
100
AcDbEntity
  8
1
  6
Continuous
100
AcDbCircle
 10
174.5666610219
 20
160.7086302475
 30
0.0
 40
0.25
100
AcDbArc
 50
180.0
 51
270.0
  0
ARC
  5
143
330
1F
100
AcDbEntity
  8
1
  6
Continuous
100
AcDbCircle
 10
89.6146773743
 20
194.8438302475
 30
0.0
 40
0.25
100
AcDbArc
 50
0.0
 51
90.0
  0
ARC
  5
144
330
1F
100
AcDbEntity
  8
1
  6
Continuous
100
AcDbCircle
 10
89.6146773743
 20
153.3438302475
 30
0.0
 40
0.25
100
AcDbArc
 50
270.0
 51
0.0
  0
ARC
  5
145
330
1F
100
AcDbEntity
  8
1
  6
Continuous
100
AcDbCircle
 10
96.1896773743
 20
160.7086302475
 30
0.0
 40
0.2500000000000142
100
AcDbArc
 50
270.0
 51
0.0
  0
ARC
  5
146
330
1F
100
AcDbEntity
  8
1
  6
Continuous
100
AcDbCircle
 10
53.6146773743
 20
194.8438302475
 30
0.0
 40
0.25
100
AcDbArc
 50
90.0
 51
180.0
  0
ARC
  5
147
330
1F
100
AcDbEntity
  8
1
  6
Continuous
100
AcDbCircle
 10
53.6146773743
 20
153.3438302475
 30
0.0
 40
0.25
100
AcDbArc
 50
180.0
 51
270.0
  0
CIRCLE
  5
148
330
1F
100
AcDbEntity
  8
1
100
AcDbCircle
 10
237.3167012795
 20
174.0938155422
 30
0.0
 40
14.0327629298782
  0
CIRCLE
  5
149
330
1F
100
AcDbEntity
  8
1
100
AcDbCircle
 10
237.3167012795
 20
174.0938155422
 30
0.0
 40
14.0
  0
CIRCLE
  5
14A
330
1F
100
AcDbEntity
  8
1
 62
   252
420
  9672088
100
AcDbCircle
 10
237.3167012795
 20
174.0938155422
 30
0.0
 40
3.700000000000131
  0
CIRCLE
  5
14B
330
1F
100
AcDbEntity
  8
1
100
AcDbCircle
 10
237.3167012795
 20
174.0938155422
 30
0.0
 40
3.0
  0
CIRCLE
  5
14C
330
1F
100
AcDbEntity
  8
1
100
AcDbCircle
 10
237.3167012795
 20
174.0938155422
 30
0.0
 40
18.70667938174893
  0
CIRCLE
  5
14D
330
1F
100
AcDbEntity
  8
1
100
AcDbCircle
 10
237.3167012795
 20
174.0938155422
 30
0.0
 40
21.0
  0
SPLINE
  5
14E
330
1F
100
AcDbEntity
  8
PIEZA
370
     0
100
AcDbSpline
210
0.0
220
0.0
230
1.0
 70
     8
 71
     3
 72
    11
 73
     7
 74
     0
 42
0.000000001
 43
0.00000001
 40
2.0
 40
2.0
 40
2.0
 40
2.0
 40
3.0
 40
3.0
 40
3.0
 40
4.0
 40
4.0
 40
4.0
 40
4.0
 10
275.8994554596786
 20
20.97179330838194
 30
0.0
 10
276.5670508095885
 20
20.97179330838194
 30
0.0
 10
277.1453427660537
 20
21.55040824276214
 30
0.0
 10
277.1453427660537
 20
22.21764831696587
 30
0.0
 10
277.1453427660537
 20
22.88524366687583
 30
0.0
 10
276.5670508095885
 20
23.46382630346455
 30
0.0
 10
275.8994554596786
 20
23.46382630346455
 30
0.0
  0
SPLINE
  5
14F
330
1F
100
AcDbEntity
  8
PIEZA
370
     0
100
AcDbSpline
210
0.0
220
0.0
230
1.0
 70
     8
 71
     3
 72
    11
 73
     7
 74
     0
 42
0.000000001
 43
0.00000001
 40
0.0
 40
0.0
 40
0.0
 40
0.0
 40
1.0
 40
1.0
 40
1.0
 40
2.0
 40
2.0
 40
2.0
 40
2.0
 10
275.8994554596786
 20
23.46382630346455
 30
0.0
 10
275.2319247053515
 20
23.46382630346455
 30
0.0
 10
274.6533420687626
 20
22.88524366687583
 30
0.0
 10
274.6533420687626
 20
22.21764831696587
 30
0.0
 10
274.6533420687626
 20
21.55040824276214
 30
0.0
 10
275.2319247053515
 20
20.97179330838194
 30
0.0
 10
275.8994554596786
 20
20.97179330838194
 30
0.0
  0
SPLINE
  5
150
330
1F
100
AcDbEntity
  8
PIEZA
370
     0
100
AcDbSpline
210
0.0
220
0.0
230
1.0
 70
     8
 71
     3
 72
    11
 73
     7
 74
     0
 42
0.000000001
 43
0.00000001
 40
2.0
 40
2.0
 40
2.0
 40
2.0
 40
3.0
 40
3.0
 40
3.0
 40
4.0
 40
4.0
 40
4.0
 40
4.0
 10
275.8994554596786
 20
23.64185173010722
 30
0.0
 10
276.655805140578
 20
23.64185173010722
 30
0.0
 10
277.3233358949051
 20
22.97432097578014
 30
0.0
 10
277.3233358949051
 20
22.21764831696587
 30
0.0
 10
277.3233358949051
 20
21.41672768382273
 30
0.0
 10
276.655805140578
 20
20.79373558394784
 30
0.0
 10
275.8994554596786
 20
20.79373558394784
 30
0.0
  0
SPLINE
  5
151
330
1F
100
AcDbEntity
  8
PIEZA
370
     0
100
AcDbSpline
210
0.0
220
0.0
230
1.0
 70
     8
 71
     3
 72
    11
 73
     7
 74
     0
 42
0.000000001
 43
0.00000001
 40
0.0
 40
0.0
 40
0.0
 40
0.0
 40
1.0
 40
1.0
 40
1.0
 40
2.0
 40
2.0
 40
2.0
 40
2.0
 10
275.8994554596786
 20
20.79373558394784
 30
0.0
 10
275.0984702309524
 20
20.79373558394784
 30
0.0
 10
274.4752520465371
 20
21.41672768382273
 30
0.0
 10
274.4752520465371
 20
22.21764831696587
 30
0.0
 10
274.4752520465371
 20
22.97432097578014
 30
0.0
 10
275.0984702309524
 20
23.64185173010722
 30
0.0
 10
275.8994554596786
 20
23.64185173010722
 30
0.0
  0
SPLINE
  5
152
330
1F
100
AcDbEntity
  8
PIEZA
370
     0
100
AcDbSpline
210
0.0
220
0.0
230
1.0
 70
     8
 71
     3
 72
     8
 73
     4
 74
     0
 42
0.000000001
 43
0.00000001
 40
2.0
 40
2.0
 40
2.0
 40
2.0
 40
3.0
 40
3.0
 40
3.0
 40
3.0
 10
211.0148072641699
 20
21.90616841590003
 30
0.0
 10
211.8157924928961
 20
21.90616841590003
 30
0.0
 10
212.4390106773112
 20
21.81747868049351
 30
0.0
 10
212.8394709938829
 20
21.59472081264983
 30
0.0
  0
SPLINE
  5
153
330
1F
100
AcDbEntity
  8
PIEZA
370
     0
100
AcDbSpline
210
0.0
220
0.0
230
1.0
 70
     8
 71
     3
 72
    11
 73
     7
 74
     0
 42
0.000000001
 43
0.00000001
 40
3.0
 40
3.0
 40
3.0
 40
3.0
 40
4.0
 40
4.0
 40
4.0
 40
5.0
 40
5.0
 40
5.0
 40
5.0
 10
212.8394709938829
 20
21.59472081264983
 30
0.0
 10
213.2843246248449
 20
21.28327320939954
 30
0.0
 10
213.5067756636697
 20
20.74910003609714
 30
0.0
 10
213.5067756636697
 20
20.03712752069234
 30
0.0
 10
213.5067756636697
 20
19.54758989521654
 30
0.0
 10
213.4180051837843
 20
19.14716187643643
 30
0.0
 10
213.1953119115237
 20
18.87999454530652
 30
0.0
  0
SPLINE
  5
154
330
1F
100
AcDbEntity
  8
PIEZA
370
     0
100
AcDbSpline
210
0.0
220
0.0
230
1.0
 70
     8
 71
     3
 72
     8
 73
     4
 74
     0
 42
0.000000001
 43
0.00000001
 40
5.0
 40
5.0
 40
5.0
 40
5.0
 40
6.0
 40
6.0
 40
6.0
 40
6.0
 10
213.1953119115237
 20
18.87999454530652
 30
0.0
 10
213.1062507515153
 20
18.74660466649042
 30
0.0
 10
212.9284837072042
 20
18.65759195316904
 30
0.0
 10
212.7057904349435
 20
18.56854694205623
 30
0.0
  0
SPLINE
  5
155
330
1F
100
AcDbEntity
  8
PIEZA
370
     0
100
AcDbSpline
210
0.0
220
0.0
230
1.0
 70
     8
 71
     3
 72
     8
 73
     4
 74
     0
 42
0.000000001
 43
0.00000001
 40
6.0
 40
6.0
 40
6.0
 40
6.0
 40
7.0
 40
7.0
 40
7.0
 40
7.0
 10
212.7057904349435
 20
18.56854694205623
 30
0.0
 10
212.7947869993692
 20
18.52423437214444
 30
0.0
 10
212.8838481593777
 20
18.52423437214444
 30
0.0
 10
212.9284837072042
 20
18.47953422873494
 30
0.0
  0
SPLINE
  5
156
330
1F
100
AcDbEntity
  8
PIEZA
370
     0
100
AcDbSpline
210
0.0
220
0.0
230
1.0
 70
     8
 71
     3
 72
     8
 73
     4
 74
     0
 42
0.000000001
 43
0.00000001
 40
7.0
 40
7.0
 40
7.0
 40
7.0
 40
8.0
 40
8.0
 40
8.0
 40
8.0
 10
212.9284837072042
 20
18.47953422873494
 30
0.0
 10
213.0619220327076
 20
18.39055381320512
 30
0.0
 10
213.1953119115237
 20
18.25709933880603
 30
0.0
 10
213.2843246248449
 20
18.12370945998993
 30
0.0
  0
SPLINE
  5
157
330
1F
100
AcDbEntity
  8
PIEZA
370
     0
100
AcDbSpline
210
0.0
220
0.0
230
1.0
 70
     8
 71
     3
 72
     8
 73
     4
 74
     0
 42
0.000000001
 43
0.00000001
 40
8.0
 40
8.0
 40
8.0
 40
8.0
 40
9.0
 40
9.0
 40
9.0
 40
9.0
 10
213.2843246248449
 20
18.12370945998993
 30
0.0
 10
213.3290086193588
 20
17.94561943776435
 30
0.0
 10
213.3733857848537
 20
17.76756171333011
 30
0.0
 10
213.3733857848537
 20
17.54515912119274
 30
0.0
  0
SPLINE
  5
158
330
1F
100
AcDbEntity
  8
PIEZA
370
     0
100
AcDbSpline
210
0.0
220
0.0
230
1.0
 70
     8
 71
     3
 72
     8
 73
     4
 74
     0
 42
0.000000001
 43
0.00000001
 40
12.0
 40
12.0
 40
12.0
 40
12.0
 40
13.0
 40
13.0
 40
13.0
 40
13.0
 10
212.2162528094761
 20
17.27808868345264
 30
0.0
 10
212.2162528094761
 20
17.67854900002422
 30
0.0
 10
212.1272400961548
 20
17.90098388995316
 30
0.0
 10
211.9494892007398
 20
17.98999660327442
 30
0.0
  0
SPLINE
  5
159
330
1F
100
AcDbEntity
  8
PIEZA
370
     0
100
AcDbSpline
210
0.0
220
0.0
230
1.0
 70
     8
 71
     3
 72
     8
 73
     4
 74
     0
 42
0.000000001
 43
0.00000001
 40
13.0
 40
13.0
 40
13.0
 40
13.0
 40
14.0
 40
14.0
 40
14.0
 40
14.0
 10
211.9494892007398
 20
17.98999660327442
 30
0.0
 10
211.7714153274097
 20
18.07900931659583
 30
0.0
 10
211.4599677241598
 20
18.16808662550003
 30
0.0
 10
210.9257461041699
 20
18.16808662550003
 30
0.0
  0
SPLINE
  5
15A
330
1F
100
AcDbEntity
  8
PIEZA
370
     0
100
AcDbSpline
210
0.0
220
0.0
230
1.0
 70
     8
 71
     3
 72
     8
 73
     4
 74
     0
 42
0.000000001
 43
0.00000001
 40
4.0
 40
4.0
 40
4.0
 40
4.0
 40
5.0
 40
5.0
 40
5.0
 40
5.0
 10
210.8810621096699
 20
19.05808456760002
 30
0.0
 10
211.4599677241736
 20
19.05808456760002
 30
0.0
 10
211.8157924929183
 20
19.14716187650433
 30
0.0
 10
211.9938017706652
 20
19.28051945752893
 30
0.0
  0
SPLINE
  5
15B
330
1F
100
AcDbEntity
  8
PIEZA
370
     0
100
AcDbSpline
210
0.0
220
0.0
230
1.0
 70
     8
 71
     3
 72
    11
 73
     7
 74
     0
 42
0.000000001
 43
0.00000001
 40
5.0
 40
5.0
 40
5.0
 40
5.0
 40
6.0
 40
6.0
 40
6.0
 40
7.0
 40
7.0
 40
7.0
 40
7.0
 10
211.9938017706652
 20
19.28051945752893
 30
0.0
 10
212.171875643995
 20
19.36953217085022
 30
0.0
 10
212.3052655228114
 20
19.63666720418871
 30
0.0
 10
212.3052655228114
 20
20.08182766416982
 30
0.0
 10
212.3052655228114
 20
20.30419795851575
 30
0.0
 10
212.2609529528994
 20
20.48228798074132
 30
0.0
 10
212.2162528094899
 20
20.61574245514041
 30
0.0
  0
SPLINE
  5
15C
330
1F
100
AcDbEntity
  8
PIEZA
370
     0
100
AcDbSpline
210
0.0
220
0.0
230
1.0
 70
     8
 71
     3
 72
     8
 73
     4
 74
     0
 42
0.000000001
 43
0.00000001
 40
7.0
 40
7.0
 40
7.0
 40
7.0
 40
8.0
 40
8.0
 40
8.0
 40
8.0
 10
212.2162528094899
 20
20.61574245514041
 30
0.0
 10
212.171875643995
 20
20.70472287067034
 30
0.0
 10
212.082862930674
 20
20.79373558399163
 30
0.0
 10
211.9938017706652
 20
20.83811274948633
 30
0.0
  0
SPLINE
  5
15D
330
1F
100
AcDbEntity
  8
PIEZA
370
     0
100
AcDbSpline
210
0.0
220
0.0
230
1.0
 70
     8
 71
     3
 72
     8
 73
     4
 74
     0
 42
0.000000001
 43
0.00000001
 40
8.0
 40
8.0
 40
8.0
 40
8.0
 40
9.0
 40
9.0
 40
9.0
 40
9.0
 10
211.9938017706652
 20
20.83811274948633
 30
0.0
 10
211.86010506283
 20
20.92719005839064
 30
0.0
 10
211.7267313329098
 20
20.97179330842573
 30
0.0
 10
211.5486574595799
 20
20.97179330842573
 30
0.0
  0
SPLINE
  5
15E
330
1F
100
AcDbEntity
  8
PIEZA
370
     0
100
AcDbSpline
210
0.0
220
0.0
230
1.0
 70
     8
 71
     3
 72
     8
 73
     4
 74
     0
 42
0.000000001
 43
0.00000001
 40
9.0
 40
9.0
 40
9.0
 40
9.0
 40
10.0
 40
10.0
 40
10.0
 40
10.0
 10
211.5486574595799
 20
20.97179330842573
 30
0.0
 10
211.3262710163383
 20
21.01620277171202
 30
0.0
 10
211.1038199775136
 20
21.01620277171202
 30
0.0
 10
210.8367495397581
 20
21.01620277171202
 30
0.0
  0
SPLINE
  5
15F
330
1F
100
AcDbEntity
  8
PIEZA
370
     0
100
AcDbSpline
210
0.0
220
0.0
230
1.0
 70
     8
 71
     3
 72
     8
 73
     4
 74
     0
 42
0.000000001
 43
0.00000001
 40
0.0
 40
0.0
 40
0.0
 40
0.0
 40
1.0
 40
1.0
 40
1.0
 40
1.0
 10
224.3656161374046
 20
20.61574245513203
 30
0.0
 10
224.5436415640474
 20
21.14988333064304
 30
0.0
 10
224.8550891672975
 20
21.50570809938805
 30
0.0
 10
225.3446267927732
 20
21.72817528710835
 30
0.0
  0
SPLINE
  5
160
330
1F
100
AcDbEntity
  8
PIEZA
370
     0
100
AcDbSpline
210
0.0
220
0.0
230
1.0
 70
     8
 71
     3
 72
    11
 73
     7
 74
     0
 42
0.000000001
 43
0.00000001
 40
1.0
 40
1.0
 40
1.0
 40
1.0
 40
2.0
 40
2.0
 40
2.0
 40
3.0
 40
3.0
 40
3.0
 40
3.0
 10
225.3446267927732
 20
21.72817528710835
 30
0.0
 10
225.7451517049281
 20
21.90616841595955
 30
0.0
 10
226.2790664958985
 20
21.95086855936913
 30
0.0
 10
226.8575845369043
 20
21.95086855936913
 30
0.0
 10
227.4808027213195
 20
21.95086855936913
 30
0.0
 10
228.1483980712295
 20
21.99524572486385
 30
0.0
 10
228.8156704432247
 20
21.99524572486385
 30
0.0
  0
SPLINE
  5
161
330
1F
100
AcDbEntity
  8
PIEZA
370
     0
100
AcDbSpline
210
0.0
220
0.0
230
1.0
 70
     8
 71
     3
 72
     8
 73
     4
 74
     0
 42
0.000000001
 43
0.00000001
 40
4.0
 40
4.0
 40
4.0
 40
4.0
 40
5.0
 40
5.0
 40
5.0
 40
5.0
 10
229.8837584075247
 20
21.99524572486385
 30
0.0
 10
231.2635846551713
 20
21.99524572486385
 30
0.0
 10
232.1979597627134
 20
21.86185584604775
 30
0.0
 10
232.6874650903978
 20
21.46136323168475
 30
0.0
  0
SPLINE
  5
162
330
1F
100
AcDbEntity
  8
PIEZA
370
     0
100
AcDbSpline
210
0.0
220
0.0
230
1.0
 70
     8
 71
     3
 72
     8
 73
     4
 74
     0
 42
0.000000001
 43
0.00000001
 40
5.0
 40
5.0
 40
5.0
 40
5.0
 40
6.0
 40
6.0
 40
6.0
 40
6.0
 10
232.6874650903978
 20
21.46136323168475
 30
0.0
 10
233.1770027158738
 20
21.06087061732163
 30
0.0
 10
233.3994376058026
 20
20.25959470847227
 30
0.0
 10
233.3550604403079
 20
19.10275241320963
 30
0.0
  0
SPLINE
  5
163
330
1F
100
AcDbEntity
  8
PIEZA
370
     0
100
AcDbSpline
210
0.0
220
0.0
230
1.0
 70
     8
 71
     3
 72
     8
 73
     4
 74
     0
 42
0.000000001
 43
0.00000001
 40
6.0
 40
6.0
 40
6.0
 40
6.0
 40
7.0
 40
7.0
 40
7.0
 40
7.0
 10
233.3550604403079
 20
19.10275241320963
 30
0.0
 10
233.3550604403079
 20
18.56854694211575
 30
0.0
 10
233.3550604403079
 20
18.03469674672815
 30
0.0
 10
233.3103925946897
 20
17.54515912125225
 30
0.0
  0
SPLINE
  5
164
330
1F
100
AcDbEntity
  8
PIEZA
370
     0
100
AcDbSpline
210
0.0
220
0.0
230
1.0
 70
     8
 71
     3
 72
     8
 73
     4
 74
     0
 42
0.000000001
 43
0.00000001
 40
7.0
 40
7.0
 40
7.0
 40
7.0
 40
8.0
 40
8.0
 40
8.0
 40
8.0
 10
233.3103925946897
 20
17.54515912125225
 30
0.0
 10
233.2216705614918
 20
16.96657648466353
 30
0.0
 10
232.9989449914396
 20
16.52141602468246
 30
0.0
 10
232.5984523770767
 20
16.25447477809286
 30
0.0
  0
SPLINE
  5
165
330
1F
100
AcDbEntity
  8
PIEZA
370
     0
100
AcDbSpline
210
0.0
220
0.0
230
1.0
 70
     8
 71
     3
 72
     8
 73
     4
 74
     0
 42
0.000000001
 43
0.00000001
 40
8.0
 40
8.0
 40
8.0
 40
8.0
 40
9.0
 40
9.0
 40
9.0
 40
9.0
 10
232.5984523770767
 20
16.25447477809286
 30
0.0
 10
232.2426276083317
 20
15.98756582929485
 30
0.0
 10
231.7084221372376
 20
15.85401446152133
 30
0.0
 10
231.0408913829106
 20
15.80950810486064
 30
0.0
  0
SPLINE
  5
166
330
1F
100
AcDbEntity
  8
PIEZA
370
     0
100
AcDbSpline
210
0.0
220
0.0
230
1.0
 70
     8
 71
     3
 72
     8
 73
     4
 74
     0
 42
0.000000001
 43
0.00000001
 40
9.0
 40
9.0
 40
9.0
 40
9.0
 40
10.0
 40
10.0
 40
10.0
 40
10.0
 10
231.0408913829106
 20
15.80950810486064
 30
0.0
 10
230.4622764485304
 20
15.76500174820004
 30
0.0
 10
229.9284262531428
 20
15.76500174820004
 30
0.0
 10
229.3498436165541
 20
15.76500174820004
 30
0.0
  0
SPLINE
  5
167
330
1F
100
AcDbEntity
  8
PIEZA
370
     0
100
AcDbSpline
210
0.0
220
0.0
230
1.0
 70
     8
 71
     3
 72
     8
 73
     4
 74
     0
 42
0.000000001
 43
0.00000001
 40
12.0
 40
12.0
 40
12.0
 40
12.0
 40
13.0
 40
13.0
 40
13.0
 40
13.0
 10
227.7922503245697
 20
15.76500174820004
 30
0.0
 10
227.34712216238
 20
15.76500174820004
 30
0.0
 10
226.8575845369043
 20
15.76500174820004
 30
0.0
 10
226.3680469114284
 20
15.80950810486064
 30
0.0
  0
SPLINE
  5
168
330
1F
100
AcDbEntity
  8
PIEZA
370
     0
100
AcDbSpline
210
0.0
220
0.0
230
1.0
 70
     8
 71
     3
 72
     8
 73
     4
 74
     0
 42
0.000000001
 43
0.00000001
 40
13.0
 40
13.0
 40
13.0
 40
13.0
 40
14.0
 40
14.0
 40
14.0
 40
14.0
 10
226.3680469114284
 20
15.80950810486064
 30
0.0
 10
226.0565993081782
 20
15.85401446152133
 30
0.0
 10
225.7451517049281
 20
15.89852081818202
 30
0.0
 10
225.4780812671725
 20
15.98756582929485
 30
0.0
  0
SPLINE
  5
169
330
1F
100
AcDbEntity
  8
PIEZA
370
     0
100
AcDbSpline
210
0.0
220
0.0
230
1.0
 70
     8
 71
     3
 72
     8
 73
     4
 74
     0
 42
0.000000001
 43
0.00000001
 40
14.0
 40
14.0
 40
14.0
 40
14.0
 40
15.0
 40
15.0
 40
15.0
 40
15.0
 10
225.4780812671725
 20
15.98756582929485
 30
0.0
 10
225.1666013661308
 20
16.07644935145027
 30
0.0
 10
224.8994663327923
 20
16.25447477809286
 30
0.0
 10
224.6770637406549
 20
16.52141602468246
 30
0.0
  0
SPLINE
  5
16A
330
1F
100
AcDbEntity
  8
PIEZA
370
     0
100
AcDbSpline
210
0.0
220
0.0
230
1.0
 70
     8
 71
     3
 72
     8
 73
     4
 74
     0
 42
0.000000001
 43
0.00000001
 40
15.0
 40
15.0
 40
15.0
 40
15.0
 40
16.0
 40
16.0
 40
16.0
 40
16.0
 10
224.6770637406549
 20
16.52141602468246
 30
0.0
 10
224.454628850726
 20
16.83305741468152
 30
0.0
 10
224.3209482917864
 20
17.23371151800203
 30
0.0
 10
224.2765549773962
 20
17.67854900006833
 30
0.0
  0
SPLINE
  5
16B
330
1F
100
AcDbEntity
  8
PIEZA
370
     0
100
AcDbSpline
210
0.0
220
0.0
230
1.0
 70
     8
 71
     3
 72
    11
 73
     7
 74
     0
 42
0.000000001
 43
0.00000001
 40
16.0
 40
16.0
 40
16.0
 40
16.0
 40
17.0
 40
17.0
 40
17.0
 40
18.0
 40
18.0
 40
18.0
 40
18.0
 10
224.2765549773962
 20
17.67854900006833
 30
0.0
 10
224.2318709828824
 20
18.12370946004944
 30
0.0
 10
224.2318709828824
 20
18.47953422879445
 30
0.0
 10
224.2318709828824
 20
18.83568197545426
 30
0.0
 10
224.2318709828824
 20
19.41423231425145
 30
0.0
 10
224.2765549773962
 20
19.99275035525713
 30
0.0
 10
224.3656161374046
 20
20.61574245513203
 30
0.0
  0
SPLINE
  5
16C
330
1F
100
AcDbEntity
  8
PIEZA
370
     0
100
AcDbSpline
210
0.0
220
0.0
230
1.0
 70
     8
 71
     3
 72
     8
 73
     4
 74
     0
 42
0.000000001
 43
0.00000001
 40
1.0
 40
1.0
 40
1.0
 40
1.0
 40
2.0
 40
2.0
 40
2.0
 40
2.0
 10
227.2137322835615
 20
21.01620277170204
 30
0.0
 10
226.5017274703653
 20
21.01620277170204
 30
0.0
 10
226.0565993081756
 20
20.92719005838066
 30
0.0
 10
225.7895288704201
 20
20.79373558398166
 30
0.0
  0
SPLINE
  5
16D
330
1F
100
AcDbEntity
  8
PIEZA
370
     0
100
AcDbSpline
210
0.0
220
0.0
230
1.0
 70
     8
 71
     3
 72
     8
 73
     4
 74
     0
 42
0.000000001
 43
0.00000001
 40
2.0
 40
2.0
 40
2.0
 40
2.0
 40
3.0
 40
3.0
 40
3.0
 40
3.0
 10
225.7895288704201
 20
20.79373558398166
 30
0.0
 10
225.6114388481943
 20
20.66034570516553
 30
0.0
 10
225.4780812671698
 20
20.34857512400055
 30
0.0
 10
225.4780812671698
 20
19.72567991750003
 30
0.0
  0
SPLINE
  5
16E
330
1F
100
AcDbEntity
  8
PIEZA
370
     0
100
AcDbSpline
210
0.0
220
0.0
230
1.0
 70
     8
 71
     3
 72
     8
 73
     4
 74
     0
 42
0.000000001
 43
0.00000001
 40
5.0
 40
5.0
 40
5.0
 40
5.0
 40
6.0
 40
6.0
 40
6.0
 40
6.0
 10
225.4337041016698
 20
18.43515706330004
 30
0.0
 10
225.4337041016698
 20
18.12370946004987
 30
0.0
 10
225.4337041016698
 20
17.85663902229436
 30
0.0
 10
225.4780812671646
 20
17.63417183457407
 30
0.0
  0
SPLINE
  5
16F
330
1F
100
AcDbEntity
  8
PIEZA
370
     0
100
AcDbSpline
210
0.0
220
0.0
230
1.0
 70
     8
 71
     3
 72
     8
 73
     4
 74
     0
 42
0.000000001
 43
0.00000001
 40
6.0
 40
6.0
 40
6.0
 40
6.0
 40
7.0
 40
7.0
 40
7.0
 40
7.0
 10
225.4780812671646
 20
17.63417183457407
 30
0.0
 10
225.4780812671646
 20
17.41147856231328
 30
0.0
 10
225.5670616826944
 20
17.27808868349718
 30
0.0
 10
225.6560743960158
 20
17.14434352897488
 30
0.0
  0
SPLINE
  5
170
330
1F
100
AcDbEntity
  8
PIEZA
370
     0
100
AcDbSpline
210
0.0
220
0.0
230
1.0
 70
     8
 71
     3
 72
     8
 73
     4
 74
     0
 42
0.000000001
 43
0.00000001
 40
7.0
 40
7.0
 40
7.0
 40
7.0
 40
8.0
 40
8.0
 40
8.0
 40
8.0
 10
225.6560743960158
 20
17.14434352897488
 30
0.0
 10
225.700742241634
 20
17.01095365015877
 30
0.0
 10
225.8785092859447
 20
16.92194093683736
 30
0.0
 10
226.0565993081703
 20
16.8775637713427
 30
0.0
  0
SPLINE
  5
171
330
1F
100
AcDbEntity
  8
PIEZA
370
     0
100
AcDbSpline
210
0.0
220
0.0
230
1.0
 70
     8
 71
     3
 72
     8
 73
     4
 74
     0
 42
0.000000001
 43
0.00000001
 40
8.0
 40
8.0
 40
8.0
 40
8.0
 40
9.0
 40
9.0
 40
9.0
 40
9.0
 10
226.0565993081703
 20
16.8775637713427
 30
0.0
 10
226.2790664958907
 20
16.78855105802137
 30
0.0
 10
226.5905140991408
 20
16.74401240356918
 30
0.0
 10
226.9912650958357
 20
16.74401240356918
 30
0.0
  0
SPLINE
  5
172
330
1F
100
AcDbEntity
  8
PIEZA
370
     0
100
AcDbSpline
210
0.0
220
0.0
230
1.0
 70
     8
 71
     3
 72
     8
 73
     4
 74
     0
 42
0.000000001
 43
0.00000001
 40
12.0
 40
12.0
 40
12.0
 40
12.0
 40
13.0
 40
13.0
 40
13.0
 40
13.0
 10
229.3942207820357
 20
16.69950604696919
 30
0.0
 10
229.972771120833
 20
16.69950604696919
 30
0.0
 10
230.5069765919267
 20
16.69950604696919
 30
0.0
 10
231.0854946329326
 20
16.7440124036298
 30
0.0
  0
SPLINE
  5
173
330
1F
100
AcDbEntity
  8
PIEZA
370
     0
100
AcDbSpline
210
0.0
220
0.0
230
1.0
 70
     8
 71
     3
 72
     8
 73
     4
 74
     0
 42
0.000000001
 43
0.00000001
 40
13.0
 40
13.0
 40
13.0
 40
13.0
 40
14.0
 40
14.0
 40
14.0
 40
14.0
 10
231.0854946329326
 20
16.7440124036298
 30
0.0
 10
231.5750322584084
 20
16.83305741474258
 30
0.0
 10
231.8418766116238
 20
16.96657648472459
 30
0.0
 10
231.975557170563
 20
17.1443435290355
 30
0.0
  0
SPLINE
  5
174
330
1F
100
AcDbEntity
  8
PIEZA
370
     0
100
AcDbSpline
210
0.0
220
0.0
230
1.0
 70
     8
 71
     3
 72
     8
 73
     4
 74
     0
 42
0.000000001
 43
0.00000001
 40
14.0
 40
14.0
 40
14.0
 40
14.0
 40
15.0
 40
15.0
 40
15.0
 40
15.0
 10
231.975557170563
 20
17.1443435290355
 30
0.0
 10
232.108947049379
 20
17.36710139687919
 30
0.0
 10
232.1533242148738
 20
17.67854900012938
 30
0.0
 10
232.1533242148738
 20
18.079009316701
 30
0.0
  0
SPLINE
  5
175
330
1F
100
AcDbEntity
  8
PIEZA
370
     0
100
AcDbSpline
210
0.0
220
0.0
230
1.0
 70
     8
 71
     3
 72
     8
 73
     4
 74
     0
 42
0.000000001
 43
0.00000001
 40
16.0
 40
16.0
 40
16.0
 40
16.0
 40
17.0
 40
17.0
 40
17.0
 40
17.0
 10
232.1533242149126
 20
19.23614229202417
 30
0.0
 10
232.1533242149126
 20
19.50321272977965
 30
0.0
 10
232.1533242149126
 20
19.81475722640437
 30
0.0
 10
232.1089470494178
 20
20.08182766415985
 30
0.0
  0
SPLINE
  5
176
330
1F
100
AcDbEntity
  8
PIEZA
370
     0
100
AcDbSpline
210
0.0
220
0.0
230
1.0
 70
     8
 71
     3
 72
     8
 73
     4
 74
     0
 42
0.000000001
 43
0.00000001
 40
17.0
 40
17.0
 40
17.0
 40
17.0
 40
18.0
 40
18.0
 40
18.0
 40
18.0
 10
232.1089470494178
 20
20.08182766415985
 30
0.0
 10
232.1089470494178
 20
20.39327526741005
 30
0.0
 10
232.0198697405134
 20
20.57136528963574
 30
0.0
 10
231.9308570271923
 20
20.70472287066037
 30
0.0
  0
SPLINE
  5
177
330
1F
100
AcDbEntity
  8
PIEZA
370
     0
100
AcDbSpline
210
0.0
220
0.0
230
1.0
 70
     8
 71
     3
 72
     8
 73
     4
 74
     0
 42
0.000000001
 43
0.00000001
 40
18.0
 40
18.0
 40
18.0
 40
18.0
 40
19.0
 40
19.0
 40
19.0
 40
19.0
 10
231.9308570271923
 20
20.70472287066037
 30
0.0
 10
231.797467148376
 20
20.83811274947636
 30
0.0
 10
231.6637865894367
 20
20.88281289288594
 30
0.0
 10
231.5303967106205
 20
20.92719005838066
 30
0.0
  0
SPLINE
  5
178
330
1F
100
AcDbEntity
  8
PIEZA
370
     0
100
AcDbSpline
210
0.0
220
0.0
230
1.0
 70
     8
 71
     3
 72
     8
 73
     4
 74
     0
 42
0.000000001
 43
0.00000001
 40
19.0
 40
19.0
 40
19.0
 40
19.0
 40
20.0
 40
20.0
 40
20.0
 40
20.0
 10
231.5303967106205
 20
20.92719005838066
 30
0.0
 10
231.1742489639608
 20
21.01620277170204
 30
0.0
 10
230.7740470297211
 20
21.01620277170204
 30
0.0
 10
230.4178992830614
 20
21.01620277170204
 30
0.0
  0
SPLINE
  5
179
330
1F
100
AcDbEntity
  8
PIEZA
370
     0
100
AcDbSpline
210
0.0
220
0.0
230
1.0
 70
     8
 71
     3
 72
     8
 73
     4
 74
     0
 42
0.000000001
 43
0.00000001
 40
2.0
 40
2.0
 40
2.0
 40
2.0
 40
3.0
 40
3.0
 40
3.0
 40
3.0
 10
241.7216095365242
 20
20.17080807971127
 30
0.0
 10
241.7216095365242
 20
20.30419795852738
 30
0.0
 10
241.6769739886977
 20
20.43765243292635
 30
0.0
 10
241.632596823203
 20
20.61574245515204
 30
0.0
  0
SPLINE
  5
17A
330
1F
100
AcDbEntity
  8
PIEZA
370
     0
100
AcDbSpline
210
0.0
220
0.0
230
1.0
 70
     8
 71
     3
 72
     8
 73
     4
 74
     0
 42
0.000000001
 43
0.00000001
 40
3.0
 40
3.0
 40
3.0
 40
3.0
 40
4.0
 40
4.0
 40
4.0
 40
4.0
 10
241.632596823203
 20
20.61574245515204
 30
0.0
 10
241.632596823203
 20
20.70472287068186
 30
0.0
 10
241.5435195142989
 20
20.79373558400326
 30
0.0
 10
241.4101296354825
 20
20.83811274949796
 30
0.0
  0
SPLINE
  5
17B
330
1F
100
AcDbEntity
  8
PIEZA
370
     0
100
AcDbSpline
210
0.0
220
0.0
230
1.0
 70
     8
 71
     3
 72
     8
 73
     4
 74
     0
 42
0.000000001
 43
0.00000001
 40
4.0
 40
4.0
 40
4.0
 40
4.0
 40
5.0
 40
5.0
 40
5.0
 40
5.0
 10
241.4101296354825
 20
20.83811274949796
 30
0.0
 10
241.1874686610132
 20
20.92719005840227
 30
0.0
 10
240.8313209143535
 20
20.97179330843736
 30
0.0
 10
240.4308282999903
 20
21.01620277172353
 30
0.0
  0
SPLINE
  5
17C
330
1F
100
AcDbEntity
  8
PIEZA
370
     0
100
AcDbSpline
210
0.0
220
0.0
230
1.0
 70
    24
 71
     3
 72
     8
 73
     4
 74
     0
 42
0.000000001
 43
0.00000001
 40
5.0
 40
5.0
 40
5.0
 40
5.0
 40
6.0
 40
6.0
 40
6.0
 40
6.0
 10
240.4308282999903
 20
21.01620277172353
 30
0.0
 10
239.9859262223412
 20
21.01620277172353
 30
0.0
 10
239.5854659057695
 20
21.01620277172353
 30
0.0
 10
239.2293181591098
 20
21.01620277172353
 30
0.0
  0
SPLINE
  5
17D
330
1F
100
AcDbEntity
  8
PIEZA
370
     0
100
AcDbSpline
210
0.0
220
0.0
230
1.0
 70
    24
 71
     3
 72
     8
 73
     4
 74
     0
 42
0.000000001
 43
0.00000001
 40
9.0
 40
9.0
 40
9.0
 40
9.0
 40
10.0
 40
10.0
 40
10.0
 40
10.0
 10
238.9178705559099
 20
21.01620277172353
 30
0.0
 10
238.6064229526597
 20
21.01620277172353
 30
0.0
 10
238.1612947904703
 20
21.01620277172353
 30
0.0
 10
237.6717571649944
 20
21.01620277172353
 30
0.0
  0
SPLINE
  5
17E
330
1F
100
AcDbEntity
  8
PIEZA
370
     0
100
AcDbSpline
210
0.0
220
0.0
230
1.0
 70
     8
 71
     3
 72
     8
 73
     4
 74
     0
 42
0.000000001
 43
0.00000001
 40
10.0
 40
10.0
 40
10.0
 40
10.0
 40
11.0
 40
11.0
 40
11.0
 40
11.0
 10
237.6717571649944
 20
21.01620277172353
 30
0.0
 10
237.1822195395184
 20
20.97179330843736
 30
0.0
 10
236.7816946273639
 20
20.88281289290746
 30
0.0
 10
236.4702470241138
 20
20.79373558400326
 30
0.0
  0
SPLINE
  5
17F
330
1F
100
AcDbEntity
  8
PIEZA
370
     0
100
AcDbSpline
210
0.0
220
0.0
230
1.0
 70
     8
 71
     3
 72
     8
 73
     4
 74
     0
 42
0.000000001
 43
0.00000001
 40
11.0
 40
11.0
 40
11.0
 40
11.0
 40
12.0
 40
12.0
 40
12.0
 40
12.0
 10
236.4702470241138
 20
20.79373558400326
 30
0.0
 10
236.3368571452976
 20
20.74910003617655
 30
0.0
 10
236.2475537518528
 20
20.66034570518713
 30
0.0
 10
236.2031765863582
 20
20.57136528965734
 30
0.0
  0
SPLINE
  5
180
330
1F
100
AcDbEntity
  8
PIEZA
370
     0
100
AcDbSpline
210
0.0
220
0.0
230
1.0
 70
     8
 71
     3
 72
     8
 73
     4
 74
     0
 42
0.000000001
 43
0.00000001
 40
12.0
 40
12.0
 40
12.0
 40
12.0
 40
13.0
 40
13.0
 40
13.0
 40
13.0
 10
236.2031765863582
 20
20.57136528965734
 30
0.0
 10
236.1587994208635
 20
20.43765243292635
 30
0.0
 10
236.1141638730368
 20
20.30419795852738
 30
0.0
 10
236.1587994208635
 20
20.17080807971127
 30
0.0
  0
SPLINE
  5
181
330
1F
100
AcDbEntity
  8
PIEZA
370
     0
100
AcDbSpline
210
0.0
220
0.0
230
1.0
 70
     8
 71
     3
 72
     8
 73
     4
 74
     0
 42
0.000000001
 43
0.00000001
 40
13.0
 40
13.0
 40
13.0
 40
13.0
 40
14.0
 40
14.0
 40
14.0
 40
14.0
 10
236.1587994208635
 20
20.17080807971127
 30
0.0
 10
236.1587994208635
 20
19.85906979633777
 30
0.0
 10
236.2475537518528
 20
19.68130275202686
 30
0.0
 10
236.425611476287
 20
19.59229003870556
 30
0.0
  0
SPLINE
  5
182
330
1F
100
AcDbEntity
  8
PIEZA
370
     0
100
AcDbSpline
210
0.0
220
0.0
230
1.0
 70
     8
 71
     3
 72
     8
 73
     4
 74
     0
 42
0.000000001
 43
0.00000001
 40
14.0
 40
14.0
 40
14.0
 40
14.0
 40
15.0
 40
15.0
 40
15.0
 40
15.0
 10
236.425611476287
 20
19.59229003870556
 30
0.0
 10
236.6483047485478
 20
19.45860947976616
 30
0.0
 10
236.9151491017629
 20
19.41423231427147
 30
0.0
 10
237.3159323962494
 20
19.41423231427147
 30
0.0
  0
SPLINE
  5
183
330
1F
100
AcDbEntity
  8
PIEZA
370
     0
100
AcDbSpline
210
0.0
220
0.0
230
1.0
 70
     8
 71
     3
 72
     8
 73
     4
 74
     0
 42
0.000000001
 43
0.00000001
 40
15.0
 40
15.0
 40
15.0
 40
15.0
 40
16.0
 40
16.0
 40
16.0
 40
16.0
 10
237.3159323962494
 20
19.41423231427147
 30
0.0
 10
237.58267985609
 20
19.41423231427147
 30
0.0
 10
237.8054377239337
 20
19.36953217086185
 30
0.0
 10
238.072217481566
 20
19.36953217086185
 30
0.0
  0
SPLINE
  5
184
330
1F
100
AcDbEntity
  8
PIEZA
370
     0
100
AcDbSpline
210
0.0
220
0.0
230
1.0
 70
     8
 71
     3
 72
     8
 73
     4
 74
     0
 42
0.000000001
 43
0.00000001
 40
19.0
 40
19.0
 40
19.0
 40
19.0
 40
20.0
 40
20.0
 40
20.0
 40
20.0
 10
239.674187939066
 20
19.41423231426186
 30
0.0
 10
240.1636932667504
 20
19.41423231426186
 30
0.0
 10
240.6535538701412
 20
19.36953217085224
 30
0.0
 10
241.0983913522075
 20
19.36953217085224
 30
0.0
  0
SPLINE
  5
185
330
1F
100
AcDbEntity
  8
PIEZA
370
     0
100
AcDbSpline
210
0.0
220
0.0
230
1.0
 70
     8
 71
     3
 72
     8
 73
     4
 74
     0
 42
0.000000001
 43
0.00000001
 40
20.0
 40
20.0
 40
20.0
 40
20.0
 40
21.0
 40
21.0
 40
21.0
 40
21.0
 10
241.0983913522075
 20
19.36953217085224
 30
0.0
 10
241.7659867021175
 20
19.32521960094044
 30
0.0
 10
242.255492029802
 20
19.14716187650635
 30
0.0
 10
242.5669719308434
 20
18.87999454537635
 30
0.0
  0
SPLINE
  5
186
330
1F
100
AcDbEntity
  8
PIEZA
370
     0
100
AcDbSpline
210
0.0
220
0.0
230
1.0
 70
     8
 71
     3
 72
     8
 73
     4
 74
     0
 42
0.000000001
 43
0.00000001
 40
21.0
 40
21.0
 40
21.0
 40
21.0
 40
22.0
 40
22.0
 40
22.0
 40
22.0
 10
242.5669719308434
 20
18.87999454537635
 30
0.0
 10
242.9231196775033
 20
18.61324708553573
 30
0.0
 10
243.0565095563196
 20
18.16808662555454
 30
0.0
 10
243.0565095563196
 20
17.63417183458396
 30
0.0
  0
SPLINE
  5
187
330
1F
100
AcDbEntity
  8
PIEZA
370
     0
100
AcDbSpline
210
0.0
220
0.0
230
1.0
 70
     8
 71
     3
 72
     8
 73
     4
 74
     0
 42
0.000000001
 43
0.00000001
 40
22.0
 40
22.0
 40
22.0
 40
22.0
 40
23.0
 40
23.0
 40
23.0
 40
23.0
 10
243.0565095563196
 20
17.63417183458396
 30
0.0
 10
243.0565095563196
 20
17.27808868350715
 30
0.0
 10
242.9674968429982
 20
16.96657648467394
 30
0.0
 10
242.8340423685989
 20
16.69950604691843
 30
0.0
  0
SPLINE
  5
188
330
1F
100
AcDbEntity
  8
PIEZA
370
     0
100
AcDbSpline
210
0.0
220
0.0
230
1.0
 70
     8
 71
     3
 72
     8
 73
     4
 74
     0
 42
0.000000001
 43
0.00000001
 40
23.0
 40
23.0
 40
23.0
 40
23.0
 40
24.0
 40
24.0
 40
24.0
 40
24.0
 10
242.8340423685989
 20
16.69950604691843
 30
0.0
 10
242.700652489783
 20
16.38802614587675
 30
0.0
 10
242.4335820520274
 20
16.20996842144266
 30
0.0
 10
242.0330571398729
 20
16.03191069700845
 30
0.0
  0
SPLINE
  5
189
330
1F
100
AcDbEntity
  8
PIEZA
370
     0
100
AcDbSpline
210
0.0
220
0.0
230
1.0
 70
     8
 71
     3
 72
     8
 73
     4
 74
     0
 42
0.000000001
 43
0.00000001
 40
24.0
 40
24.0
 40
24.0
 40
24.0
 40
25.0
 40
25.0
 40
25.0
 40
25.0
 10
242.0330571398729
 20
16.03191069700845
 30
0.0
 10
241.6769739887962
 20
15.89852081819243
 30
0.0
 10
241.2764490766417
 20
15.85401446153174
 30
0.0
 10
240.7869114511658
 20
15.80950810487105
 30
0.0
  0
SPLINE
  5
18A
330
1F
100
AcDbEntity
  8
PIEZA
370
     0
100
AcDbSpline
210
0.0
220
0.0
230
1.0
 70
     8
 71
     3
 72
     8
 73
     4
 74
     0
 42
0.000000001
 43
0.00000001
 40
25.0
 40
25.0
 40
25.0
 40
25.0
 40
26.0
 40
26.0
 40
26.0
 40
26.0
 10
240.7869114511658
 20
15.80950810487105
 30
0.0
 10
240.3417832889763
 20
15.76500174821044
 30
0.0
 10
239.8969458069099
 20
15.76500174821044
 30
0.0
 10
239.4517853469288
 20
15.76500174821044
 30
0.0
  0
SPLINE
  5
18B
330
1F
100
AcDbEntity
  8
PIEZA
370
     0
100
AcDbSpline
210
0.0
220
0.0
230
1.0
 70
     8
 71
     3
 72
     8
 73
     4
 74
     0
 42
0.000000001
 43
0.00000001
 40
29.0
 40
29.0
 40
29.0
 40
29.0
 40
30.0
 40
30.0
 40
30.0
 40
30.0
 10
238.9178705560289
 20
15.76500174821044
 30
0.0
 10
238.2056719560839
 20
15.76500174821044
 30
0.0
 10
237.5383672862971
 20
15.80950810487105
 30
0.0
 10
236.8263947708926
 20
15.85401446153174
 30
0.0
  0
SPLINE
  5
18C
330
1F
100
AcDbEntity
  8
PIEZA
370
     0
100
AcDbSpline
210
0.0
220
0.0
230
1.0
 70
     8
 71
     3
 72
     8
 73
     4
 74
     0
 42
0.000000001
 43
0.00000001
 40
30.0
 40
30.0
 40
30.0
 40
30.0
 40
31.0
 40
31.0
 40
31.0
 40
31.0
 10
236.8263947708926
 20
15.85401446153174
 30
0.0
 10
236.1141638731558
 20
15.94289798368718
 30
0.0
 10
235.5802490821852
 20
16.07644935146067
 30
0.0
 10
235.3131786444297
 20
16.43240331137153
 30
0.0
  0
SPLINE
  5
18D
330
1F
100
AcDbEntity
  8
PIEZA
370
     0
100
AcDbSpline
210
0.0
220
0.0
230
1.0
 70
     8
 71
     3
 72
     8
 73
     4
 74
     0
 42
0.000000001
 43
0.00000001
 40
31.0
 40
31.0
 40
31.0
 40
31.0
 40
32.0
 40
32.0
 40
32.0
 40
32.0
 10
235.3131786444297
 20
16.43240331137153
 30
0.0
 10
235.0460436110912
 20
16.69950604691843
 30
0.0
 10
234.9126537322752
 20
17.18901137460284
 30
0.0
 10
234.9570308977699
 20
17.76756171340003
 30
0.0
  0
SPLINE
  5
18E
330
1F
100
AcDbEntity
  8
PIEZA
370
     0
100
AcDbSpline
210
0.0
220
0.0
230
1.0
 70
     8
 71
     3
 72
     8
 73
     4
 74
     0
 42
0.000000001
 43
0.00000001
 40
37.0
 40
37.0
 40
37.0
 40
37.0
 40
38.0
 40
38.0
 40
38.0
 40
38.0
 10
236.1141638731698
 20
17.67854900000004
 30
0.0
 10
236.1141638731698
 20
17.45611411007116
 30
0.0
 10
236.1587994209965
 20
17.27808868342845
 30
0.0
 10
236.2031765864912
 20
17.14434352890604
 30
0.0
  0
SPLINE
  5
18F
330
1F
100
AcDbEntity
  8
PIEZA
370
     0
100
AcDbSpline
210
0.0
220
0.0
230
1.0
 70
     8
 71
     3
 72
     8
 73
     4
 74
     0
 42
0.000000001
 43
0.00000001
 40
38.0
 40
38.0
 40
38.0
 40
38.0
 40
39.0
 40
39.0
 40
39.0
 40
39.0
 10
236.2031765864912
 20
17.14434352890604
 30
0.0
 10
236.2031765864912
 20
17.09999866120285
 30
0.0
 10
236.2475537519859
 20
17.05546000675065
 30
0.0
 10
236.3368571454306
 20
16.96657648459524
 30
0.0
  0
SPLINE
  5
190
330
1F
100
AcDbEntity
  8
PIEZA
370
     0
100
AcDbSpline
210
0.0
220
0.0
230
1.0
 70
     8
 71
     3
 72
     8
 73
     4
 74
     0
 42
0.000000001
 43
0.00000001
 40
39.0
 40
39.0
 40
39.0
 40
39.0
 40
40.0
 40
40.0
 40
40.0
 40
40.0
 10
236.3368571454306
 20
16.96657648459524
 30
0.0
 10
236.3812343109254
 20
16.92194093676864
 30
0.0
 10
236.4702470242468
 20
16.87756377127397
 30
0.0
 10
236.6037014986457
 20
16.87756377127397
 30
0.0
  0
SPLINE
  5
191
330
1F
100
AcDbEntity
  8
PIEZA
370
     0
100
AcDbSpline
210
0.0
220
0.0
230
1.0
 70
     8
 71
     3
 72
     8
 73
     4
 74
     0
 42
0.000000001
 43
0.00000001
 40
40.0
 40
40.0
 40
40.0
 40
40.0
 40
41.0
 40
41.0
 40
41.0
 40
41.0
 10
236.6037014986457
 20
16.87756377127397
 30
0.0
 10
236.915149101896
 20
16.78855105795254
 30
0.0
 10
237.3159323963825
 20
16.74401240350046
 30
0.0
 10
237.7607698784488
 20
16.74401240350046
 30
0.0
  0
SPLINE
  5
192
330
1F
100
AcDbEntity
  8
PIEZA
370
     0
100
AcDbSpline
210
0.0
220
0.0
230
1.0
 70
     8
 71
     3
 72
     8
 73
     4
 74
     0
 42
0.000000001
 43
0.00000001
 40
41.0
 40
41.0
 40
41.0
 40
41.0
 40
42.0
 40
42.0
 40
42.0
 40
42.0
 10
237.7607698784488
 20
16.74401240350046
 30
0.0
 10
238.2056719560979
 20
16.69950604683973
 30
0.0
 10
238.6064229527928
 20
16.69950604683973
 30
0.0
 10
238.9622477215379
 20
16.69950604683973
 30
0.0
  0
SPLINE
  5
193
330
1F
100
AcDbEntity
  8
PIEZA
370
     0
100
AcDbSpline
210
0.0
220
0.0
230
1.0
 70
     8
 71
     3
 72
     8
 73
     4
 74
     0
 42
0.000000001
 43
0.00000001
 40
42.0
 40
42.0
 40
42.0
 40
42.0
 40
43.0
 40
43.0
 40
43.0
 40
43.0
 10
238.9622477215379
 20
16.69950604683973
 30
0.0
 10
239.585465905953
 20
16.69950604683973
 30
0.0
 10
240.2530935536546
 20
16.74401240350046
 30
0.0
 10
240.875988760155
 20
16.78855105795254
 30
0.0
  0
SPLINE
  5
194
330
1F
100
AcDbEntity
  8
PIEZA
370
     0
100
AcDbSpline
210
0.0
220
0.0
230
1.0
 70
     8
 71
     3
 72
     8
 73
     4
 74
     0
 42
0.000000001
 43
0.00000001
 40
43.0
 40
43.0
 40
43.0
 40
43.0
 40
44.0
 40
44.0
 40
44.0
 40
44.0
 10
240.875988760155
 20
16.78855105795254
 30
0.0
 10
241.2320719112318
 20
16.83305741461323
 30
0.0
 10
241.498916264447
 20
16.92194093676864
 30
0.0
 10
241.6325968233865
 20
17.05546000675065
 30
0.0
  0
SPLINE
  5
195
330
1F
100
AcDbEntity
  8
PIEZA
370
     0
100
AcDbSpline
210
0.0
220
0.0
230
1.0
 70
     8
 71
     3
 72
     8
 73
     4
 74
     0
 42
0.000000001
 43
0.00000001
 40
44.0
 40
44.0
 40
44.0
 40
44.0
 40
45.0
 40
45.0
 40
45.0
 40
45.0
 10
241.6325968233865
 20
17.05546000675065
 30
0.0
 10
241.7659867022025
 20
17.14434352890604
 30
0.0
 10
241.8550640111069
 20
17.32240125334025
 30
0.0
 10
241.8550640111069
 20
17.63417183450526
 30
0.0
  0
SPLINE
  5
196
330
1F
100
AcDbEntity
  8
PIEZA
370
     0
100
AcDbSpline
210
0.0
220
0.0
230
1.0
 70
     8
 71
     3
 72
     8
 73
     4
 74
     0
 42
0.000000001
 43
0.00000001
 40
45.0
 40
45.0
 40
45.0
 40
45.0
 40
46.0
 40
46.0
 40
46.0
 40
46.0
 10
241.8550640111069
 20
17.63417183450526
 30
0.0
 10
241.8550640111069
 20
17.81193887881605
 30
0.0
 10
241.8103638676975
 20
17.98999660325024
 30
0.0
 10
241.7659867022025
 20
18.07900931657156
 30
0.0
  0
SPLINE
  5
197
330
1F
100
AcDbEntity
  8
PIEZA
370
     0
100
AcDbSpline
210
0.0
220
0.0
230
1.0
 70
     8
 71
     3
 72
     8
 73
     4
 74
     0
 42
0.000000001
 43
0.00000001
 40
46.0
 40
46.0
 40
46.0
 40
46.0
 40
47.0
 40
47.0
 40
47.0
 40
47.0
 10
241.7659867022025
 20
18.07900931657156
 30
0.0
 10
241.7216095367077
 20
18.16808662547584
 30
0.0
 10
241.6769739888812
 20
18.25709933879725
 30
0.0
 10
241.5435195144824
 20
18.30147650429197
 30
0.0
  0
SPLINE
  5
198
330
1F
100
AcDbEntity
  8
PIEZA
370
     0
100
AcDbSpline
210
0.0
220
0.0
230
1.0
 70
     8
 71
     3
 72
     8
 73
     4
 74
     0
 42
0.000000001
 43
0.00000001
 40
47.0
 40
47.0
 40
47.0
 40
47.0
 40
48.0
 40
48.0
 40
48.0
 40
48.0
 10
241.5435195144824
 20
18.30147650429197
 30
0.0
 10
241.4545390989521
 20
18.34614434991006
 30
0.0
 10
241.3208262422213
 20
18.34614434991006
 30
0.0
 10
241.1430591979104
 20
18.39055381319625
 30
0.0
  0
SPLINE
  5
199
330
1F
100
AcDbEntity
  8
PIEZA
370
     0
100
AcDbSpline
210
0.0
220
0.0
230
1.0
 70
    24
 71
     3
 72
     8
 73
     4
 74
     0
 42
0.000000001
 43
0.00000001
 40
48.0
 40
48.0
 40
48.0
 40
48.0
 40
49.0
 40
49.0
 40
49.0
 40
49.0
 10
241.1430591979104
 20
18.39055381319625
 30
0.0
 10
240.9650014734765
 20
18.39055381319625
 30
0.0
 10
240.7425342857561
 20
18.39055381319625
 30
0.0
 10
240.5198410134953
 20
18.39055381319625
 30
0.0
  0
SPLINE
  5
19A
330
1F
100
AcDbEntity
  8
PIEZA
370
     0
100
AcDbSpline
210
0.0
220
0.0
230
1.0
 70
     8
 71
     3
 72
     8
 73
     4
 74
     0
 42
0.000000001
 43
0.00000001
 40
52.0
 40
52.0
 40
52.0
 40
52.0
 40
53.0
 40
53.0
 40
53.0
 40
53.0
 10
238.9622477214953
 20
18.43515706329627
 30
0.0
 10
238.3393525149948
 20
18.43515706329627
 30
0.0
 10
237.7161343305794
 20
18.43515706329627
 30
0.0
 10
237.0932068262875
 20
18.4795342287911
 30
0.0
  0
SPLINE
  5
19B
330
1F
100
AcDbEntity
  8
PIEZA
370
     0
100
AcDbSpline
210
0.0
220
0.0
230
1.0
 70
     8
 71
     3
 72
     8
 73
     4
 74
     0
 42
0.000000001
 43
0.00000001
 40
53.0
 40
53.0
 40
53.0
 40
53.0
 40
54.0
 40
54.0
 40
54.0
 40
54.0
 10
237.0932068262875
 20
18.4795342287911
 30
0.0
 10
236.7816946274543
 20
18.4795342287911
 30
0.0
 10
236.5146241896988
 20
18.5242343722006
 30
0.0
 10
236.2475537519432
 20
18.5685469421124
 30
0.0
  0
SPLINE
  5
19C
330
1F
100
AcDbEntity
  8
PIEZA
370
     0
100
AcDbSpline
210
0.0
220
0.0
230
1.0
 70
     8
 71
     3
 72
     8
 73
     4
 74
     0
 42
0.000000001
 43
0.00000001
 40
54.0
 40
54.0
 40
54.0
 40
54.0
 40
55.0
 40
55.0
 40
55.0
 40
55.0
 10
236.2475537519432
 20
18.5685469421124
 30
0.0
 10
236.0250865642228
 20
18.61324708552198
 30
0.0
 10
235.802716269877
 20
18.70222750105177
 30
0.0
 10
235.5802490821566
 20
18.79098183204128
 30
0.0
  0
SPLINE
  5
19D
330
1F
100
AcDbEntity
  8
PIEZA
370
     0
100
AcDbSpline
210
0.0
220
0.0
230
1.0
 70
     8
 71
     3
 72
     8
 73
     4
 74
     0
 42
0.000000001
 43
0.00000001
 40
55.0
 40
55.0
 40
55.0
 40
55.0
 40
56.0
 40
56.0
 40
56.0
 40
56.0
 10
235.5802490821566
 20
18.79098183204128
 30
0.0
 10
235.1351209199671
 20
19.01377199767649
 30
0.0
 10
234.9126537322466
 20
19.4586094797428
 30
0.0
 10
234.9126537322466
 20
19.99275035525378
 30
0.0
  0
SPLINE
  5
19E
330
1F
100
AcDbEntity
  8
PIEZA
370
     0
100
AcDbSpline
210
0.0
220
0.0
230
1.0
 70
     8
 71
     3
 72
     8
 73
     4
 74
     0
 42
0.000000001
 43
0.00000001
 40
56.0
 40
56.0
 40
56.0
 40
56.0
 40
57.0
 40
57.0
 40
57.0
 40
57.0
 10
234.9126537322466
 20
19.99275035525378
 30
0.0
 10
234.9126537322466
 20
20.39327526740829
 30
0.0
 10
235.0017310411511
 20
20.74910003615318
 30
0.0
 10
235.1797564677936
 20
21.06087061731828
 30
0.0
  0
SPLINE
  5
19F
330
1F
100
AcDbEntity
  8
PIEZA
370
     0
100
AcDbSpline
210
0.0
220
0.0
230
1.0
 70
     8
 71
     3
 72
     8
 73
     4
 74
     0
 42
0.000000001
 43
0.00000001
 40
57.0
 40
57.0
 40
57.0
 40
57.0
 40
58.0
 40
58.0
 40
58.0
 40
58.0
 10
235.1797564677936
 20
21.06087061731828
 30
0.0
 10
235.357491214313
 20
21.37235051835999
 30
0.0
 10
235.669261795478
 20
21.59472081270591
 30
0.0
 10
236.1141638731272
 20
21.728175287105
 30
0.0
  0
SPLINE
  5
1A0
330
1F
100
AcDbEntity
  8
PIEZA
370
     0
100
AcDbSpline
210
0.0
220
0.0
230
1.0
 70
     8
 71
     3
 72
     8
 73
     4
 74
     0
 42
0.000000001
 43
0.00000001
 40
58.0
 40
58.0
 40
58.0
 40
58.0
 40
59.0
 40
59.0
 40
59.0
 40
59.0
 10
236.1141638731272
 20
21.728175287105
 30
0.0
 10
236.5146241896988
 20
21.8618558460444
 30
0.0
 10
237.0041618151747
 20
21.90616841595619
 30
0.0
 10
237.5383672862685
 20
21.95086855936569
 30
0.0
  0
SPLINE
  5
1A1
330
1F
100
AcDbEntity
  8
PIEZA
370
     0
100
AcDbSpline
210
0.0
220
0.0
230
1.0
 70
     8
 71
     3
 72
     8
 73
     4
 74
     0
 42
0.000000001
 43
0.00000001
 40
59.0
 40
59.0
 40
59.0
 40
59.0
 40
60.0
 40
60.0
 40
60.0
 40
60.0
 10
237.5383672862685
 20
21.95086855936569
 30
0.0
 10
238.0722174816564
 20
21.95086855936569
 30
0.0
 10
238.5617228093408
 20
21.9952457248605
 30
0.0
 10
239.0068832693217
 20
21.9952457248605
 30
0.0
  0
SPLINE
  5
1A2
330
1F
100
AcDbEntity
  8
PIEZA
370
     0
100
AcDbSpline
210
0.0
220
0.0
230
1.0
 70
     8
 71
     3
 72
     8
 73
     4
 74
     0
 42
0.000000001
 43
0.00000001
 40
60.0
 40
60.0
 40
60.0
 40
60.0
 40
61.0
 40
61.0
 40
61.0
 40
61.0
 10
239.0068832693217
 20
21.9952457248605
 30
0.0
 10
239.6741879391083
 20
21.9952457248605
 30
0.0
 10
240.3417832890187
 20
21.95086855936569
 30
0.0
 10
241.0093786389286
 20
21.90616841595619
 30
0.0
  0
SPLINE
  5
1A3
330
1F
100
AcDbEntity
  8
PIEZA
370
     0
100
AcDbSpline
210
0.0
220
0.0
230
1.0
 70
     8
 71
     3
 72
     8
 73
     4
 74
     0
 42
0.000000001
 43
0.00000001
 40
61.0
 40
61.0
 40
61.0
 40
61.0
 40
62.0
 40
62.0
 40
62.0
 40
62.0
 10
241.0093786389286
 20
21.90616841595619
 30
0.0
 10
242.2111148643495
 20
21.81747868054967
 30
0.0
 10
242.878742512051
 20
21.2386376616291
 30
0.0
 10
242.878742512051
 20
20.17080807968791
 30
0.0
  0
SPLINE
  5
1A4
330
1F
100
AcDbEntity
  8
PIEZA
370
     0
100
AcDbSpline
210
0.0
220
0.0
230
1.0
 70
     8
 71
     3
 72
     8
 73
     4
 74
     0
 42
0.000000001
 43
0.00000001
 40
1.0
 40
1.0
 40
1.0
 40
1.0
 40
2.0
 40
2.0
 40
2.0
 40
2.0
 10
258.8549419614566
 20
18.07900931663423
 30
0.0
 10
258.8105647959622
 20
18.16808662553843
 30
0.0
 10
258.7214874870577
 20
18.16808662553843
 30
0.0
 10
258.6324747737363
 20
18.21278676894804
 30
0.0
  0
SPLINE
  5
1A5
330
1F
100
AcDbEntity
  8
PIEZA
370
     0
100
AcDbSpline
210
0.0
220
0.0
230
1.0
 70
     8
 71
     3
 72
     8
 73
     4
 74
     0
 42
0.000000001
 43
0.00000001
 40
2.0
 40
2.0
 40
2.0
 40
2.0
 40
3.0
 40
3.0
 40
3.0
 40
3.0
 10
258.6324747737363
 20
18.21278676894804
 30
0.0
 10
258.4544170493021
 20
18.25709933885983
 30
0.0
 10
258.1429694460521
 20
18.30147650435465
 30
0.0
 10
257.6087639749578
 20
18.30147650435465
 30
0.0
  0
SPLINE
  5
1A6
330
1F
100
AcDbEntity
  8
PIEZA
370
     0
100
AcDbSpline
210
0.0
220
0.0
230
1.0
 70
     8
 71
     3
 72
     8
 73
     4
 74
     0
 42
0.000000001
 43
0.00000001
 40
4.0
 40
4.0
 40
4.0
 40
4.0
 40
5.0
 40
5.0
 40
5.0
 40
5.0
 10
256.6743888674579
 20
18.30147650435465
 30
0.0
 10
256.1402479919468
 20
18.30147650435465
 30
0.0
 10
255.7843909254103
 20
18.25709933885983
 30
0.0
 10
255.6063332009763
 20
18.16808662553843
 30
0.0
  0
SPLINE
  5
1A7
330
1F
100
AcDbEntity
  8
PIEZA
370
     0
100
AcDbSpline
210
0.0
220
0.0
230
1.0
 70
     8
 71
     3
 72
     8
 73
     4
 74
     0
 42
0.000000001
 43
0.00000001
 40
5.0
 40
5.0
 40
5.0
 40
5.0
 40
6.0
 40
6.0
 40
6.0
 40
6.0
 10
255.6063332009763
 20
18.16808662553843
 30
0.0
 10
255.4729110243688
 20
18.07900931663423
 30
0.0
 10
255.3835753331324
 20
17.90098388999155
 30
0.0
 10
255.3835753331324
 20
17.63417183456793
 30
0.0
  0
SPLINE
  5
1A8
330
1F
100
AcDbEntity
  8
PIEZA
370
     0
100
AcDbSpline
210
0.0
220
0.0
230
1.0
 70
     8
 71
     3
 72
     8
 73
     4
 74
     0
 42
0.000000001
 43
0.00000001
 40
7.0
 40
7.0
 40
7.0
 40
7.0
 40
8.0
 40
8.0
 40
8.0
 40
8.0
 10
255.3835753331324
 20
17.18901137466793
 30
0.0
 10
255.3835753331324
 20
16.96657648473903
 30
0.0
 10
255.4729110243688
 20
16.78855105809644
 30
0.0
 10
255.6506780686795
 20
16.69950604698364
 30
0.0
  0
SPLINE
  5
1A9
330
1F
100
AcDbEntity
  8
PIEZA
370
     0
100
AcDbSpline
210
0.0
220
0.0
230
1.0
 70
     8
 71
     3
 72
     8
 73
     4
 74
     0
 42
0.000000001
 43
0.00000001
 40
8.0
 40
8.0
 40
8.0
 40
8.0
 40
9.0
 40
9.0
 40
9.0
 40
9.0
 10
255.6506780686795
 20
16.69950604698364
 30
0.0
 10
255.828768090905
 20
16.61049333366226
 30
0.0
 10
256.184851241982
 20
16.56598697700162
 30
0.0
 10
256.6743888674579
 20
16.56598697700162
 30
0.0
  0
SPLINE
  5
1AA
330
1F
100
AcDbEntity
  8
PIEZA
370
     0
100
AcDbSpline
210
0.0
220
0.0
230
1.0
 70
     8
 71
     3
 72
     8
 73
     4
 74
     0
 42
0.000000001
 43
0.00000001
 40
10.0
 40
10.0
 40
10.0
 40
10.0
 40
11.0
 40
11.0
 40
11.0
 40
11.0
 10
257.6087639749578
 20
16.56598697700162
 30
0.0
 10
258.0985922805571
 20
16.56598697700162
 30
0.0
 10
258.4100398838073
 20
16.61049333366226
 30
0.0
 10
258.5880976082415
 20
16.65499969032295
 30
0.0
  0
SPLINE
  5
1AB
330
1F
100
AcDbEntity
  8
PIEZA
370
     0
100
AcDbSpline
210
0.0
220
0.0
230
1.0
 70
     8
 71
     3
 72
    11
 73
     7
 74
     0
 42
0.000000001
 43
0.00000001
 40
11.0
 40
11.0
 40
11.0
 40
11.0
 40
12.0
 40
12.0
 40
12.0
 40
13.0
 40
13.0
 40
13.0
 40
13.0
 10
258.5880976082415
 20
16.65499969032295
 30
0.0
 10
258.7658646525522
 20
16.69950604698364
 30
0.0
 10
258.8549419614566
 20
16.78855105809644
 30
0.0
 10
258.8549419614566
 20
16.92194093691242
 30
0.0
 10
258.8549419614566
 20
16.96657648473903
 30
0.0
 10
258.8549419614566
 20
17.05546000689453
 30
0.0
 10
258.8549419614566
 20
17.09999866134664
 30
0.0
  0
SPLINE
  5
1AC
330
1F
100
AcDbEntity
  8
PIEZA
370
     0
100
AcDbSpline
210
0.0
220
0.0
230
1.0
 70
     8
 71
     3
 72
     8
 73
     4
 74
     0
 42
0.000000001
 43
0.00000001
 40
18.0
 40
18.0
 40
18.0
 40
18.0
 40
19.0
 40
19.0
 40
19.0
 40
19.0
 10
260.5462158124011
 20
16.61049333352324
 30
0.0
 10
260.5462158124011
 20
16.29904573027301
 30
0.0
 10
260.3234579445572
 20
16.07644935138675
 30
0.0
 10
259.9673747934803
 20
15.98756582923133
 30
0.0
  0
SPLINE
  5
1AD
330
1F
100
AcDbEntity
  8
PIEZA
370
     0
100
AcDbSpline
210
0.0
220
0.0
230
1.0
 70
     8
 71
     3
 72
     8
 73
     4
 74
     0
 42
0.000000001
 43
0.00000001
 40
19.0
 40
19.0
 40
19.0
 40
19.0
 40
20.0
 40
20.0
 40
20.0
 40
20.0
 10
259.9673747934803
 20
15.98756582923133
 30
0.0
 10
259.6115500247353
 20
15.85401446145782
 30
0.0
 10
258.9439546748254
 20
15.76500174813652
 30
0.0
 10
258.0539567327778
 20
15.76500174813652
 30
0.0
  0
SPLINE
  5
1AE
330
1F
100
AcDbEntity
  8
PIEZA
370
     0
100
AcDbSpline
210
0.0
220
0.0
230
1.0
 70
     8
 71
     3
 72
     8
 73
     4
 74
     0
 42
0.000000001
 43
0.00000001
 40
21.0
 40
21.0
 40
21.0
 40
21.0
 40
22.0
 40
22.0
 40
22.0
 40
22.0
 10
256.2292284074779
 20
15.76500174813652
 30
0.0
 10
255.6953136165074
 20
15.76500174813652
 30
0.0
 10
255.2501854543177
 20
15.80950810479712
 30
0.0
 10
255.0277828621803
 20
15.80950810479712
 30
0.0
  0
SPLINE
  5
1AF
330
1F
100
AcDbEntity
  8
PIEZA
370
     0
100
AcDbSpline
210
0.0
220
0.0
230
1.0
 70
     8
 71
     3
 72
     8
 73
     4
 74
     0
 42
0.000000001
 43
0.00000001
 40
22.0
 40
22.0
 40
22.0
 40
22.0
 40
23.0
 40
23.0
 40
23.0
 40
23.0
 10
255.0277828621803
 20
15.80950810479712
 30
0.0
 10
254.7606478288419
 20
15.85401446145782
 30
0.0
 10
254.5382775344962
 20
15.94289798361326
 30
0.0
 10
254.3158103467756
 20
16.03191069693461
 30
0.0
  0
SPLINE
  5
1B0
330
1F
100
AcDbEntity
  8
PIEZA
370
     0
100
AcDbSpline
210
0.0
220
0.0
230
1.0
 70
     8
 71
     3
 72
     8
 73
     4
 74
     0
 42
0.000000001
 43
0.00000001
 40
23.0
 40
23.0
 40
23.0
 40
23.0
 40
24.0
 40
24.0
 40
24.0
 40
24.0
 10
254.3158103467756
 20
16.03191069693461
 30
0.0
 10
254.1377203245498
 20
16.12095570804744
 30
0.0
 10
253.9596626001156
 20
16.25447477802934
 30
0.0
 10
253.8706498867943
 20
16.38802614580292
 30
0.0
  0
SPLINE
  5
1B1
330
1F
100
AcDbEntity
  8
PIEZA
370
     0
100
AcDbSpline
210
0.0
220
0.0
230
1.0
 70
     8
 71
     3
 72
     8
 73
     4
 74
     0
 42
0.000000001
 43
0.00000001
 40
24.0
 40
24.0
 40
24.0
 40
24.0
 40
25.0
 40
25.0
 40
25.0
 40
25.0
 10
253.8706498867943
 20
16.38802614580292
 30
0.0
 10
253.7816694712646
 20
16.56598697686261
 30
0.0
 10
253.7372923057699
 20
16.74401240350523
 30
0.0
 10
253.7372923057699
 20
16.96657648460002
 30
0.0
  0
SPLINE
  5
1B2
330
1F
100
AcDbEntity
  8
PIEZA
370
     0
100
AcDbSpline
210
0.0
220
0.0
230
1.0
 70
     8
 71
     3
 72
     8
 73
     4
 74
     0
 42
0.000000001
 43
0.00000001
 40
26.0
 40
26.0
 40
26.0
 40
26.0
 40
27.0
 40
27.0
 40
27.0
 40
27.0
 10
253.7372923057699
 20
17.85663902230002
 30
0.0
 10
253.7372923057699
 20
18.30147650436644
 30
0.0
 10
253.9150593500807
 20
18.65759195323463
 30
0.0
 10
254.271110203366
 20
18.83568197546035
 30
0.0
  0
SPLINE
  5
1B3
330
1F
100
AcDbEntity
  8
PIEZA
370
     0
100
AcDbSpline
210
0.0
220
0.0
230
1.0
 70
     8
 71
     3
 72
     8
 73
     4
 74
     0
 42
0.000000001
 43
0.00000001
 40
27.0
 40
27.0
 40
27.0
 40
27.0
 40
28.0
 40
28.0
 40
28.0
 40
28.0
 10
254.271110203366
 20
18.83568197546035
 30
0.0
 10
254.6272579500257
 20
19.01377199768593
 30
0.0
 10
255.2948532999357
 20
19.10275241321571
 30
0.0
 10
256.2292284074779
 20
19.10275241321571
 30
0.0
  0
SPLINE
  5
1B4
330
1F
100
AcDbEntity
  8
PIEZA
370
     0
100
AcDbSpline
210
0.0
220
0.0
230
1.0
 70
     8
 71
     3
 72
     8
 73
     4
 74
     0
 42
0.000000001
 43
0.00000001
 40
29.0
 40
29.0
 40
29.0
 40
29.0
 40
30.0
 40
30.0
 40
30.0
 40
30.0
 10
258.0539567327778
 20
19.10275241321571
 30
0.0
 10
258.6324747737838
 20
19.10275241321571
 30
0.0
 10
259.0329673881467
 20
19.10275241321571
 30
0.0
 10
259.3444795869798
 20
19.05808456759772
 30
0.0
  0
SPLINE
  5
1B5
330
1F
100
AcDbEntity
  8
PIEZA
370
     0
100
AcDbSpline
210
0.0
220
0.0
230
1.0
 70
     8
 71
     3
 72
     8
 73
     4
 74
     0
 42
0.000000001
 43
0.00000001
 40
30.0
 40
30.0
 40
30.0
 40
30.0
 40
31.0
 40
31.0
 40
31.0
 40
31.0
 10
259.3444795869798
 20
19.05808456759772
 30
0.0
 10
259.6115500247353
 20
19.01377199768593
 30
0.0
 10
259.8339526168728
 20
18.96907185427634
 30
0.0
 10
260.012010341307
 20
18.87999454537212
 30
0.0
  0
SPLINE
  5
1B6
330
1F
100
AcDbEntity
  8
PIEZA
370
     0
100
AcDbSpline
210
0.0
220
0.0
230
1.0
 70
     8
 71
     3
 72
     8
 73
     4
 74
     0
 42
0.000000001
 43
0.00000001
 40
31.0
 40
31.0
 40
31.0
 40
31.0
 40
32.0
 40
32.0
 40
32.0
 40
32.0
 10
260.012010341307
 20
18.87999454537212
 30
0.0
 10
260.1454325179145
 20
18.83568197546035
 30
0.0
 10
260.2791453746455
 20
18.70222750106121
 30
0.0
 10
260.3681580879667
 20
18.56854694212183
 30
0.0
  0
SPLINE
  5
1B7
330
1F
100
AcDbEntity
  8
PIEZA
370
     0
100
AcDbSpline
210
0.0
220
0.0
230
1.0
 70
     8
 71
     3
 72
    11
 73
     7
 74
     0
 42
0.000000001
 43
0.00000001
 40
32.0
 40
32.0
 40
32.0
 40
32.0
 40
33.0
 40
33.0
 40
33.0
 40
34.0
 40
34.0
 40
34.0
 40
34.0
 10
260.3681580879667
 20
18.56854694212183
 30
0.0
 10
260.4569124189566
 20
18.4351570633057
 30
0.0
 10
260.4569124189566
 20
18.34614434998443
 30
0.0
 10
260.4569124189566
 20
18.16808662555022
 30
0.0
 10
260.4569124189566
 20
18.12370946005553
 30
0.0
 10
260.4569124189566
 20
18.12370946005553
 30
0.0
 10
260.4569124189566
 20
18.03469674673423
 30
0.0
  0
SPLINE
  5
1B8
330
1F
100
AcDbEntity
  8
PIEZA
370
     0
100
AcDbSpline
210
0.0
220
0.0
230
1.0
 70
     8
 71
     3
 72
    11
 73
     7
 74
     0
 42
0.000000001
 43
0.00000001
 40
2.0
 40
2.0
 40
2.0
 40
2.0
 40
3.0
 40
3.0
 40
3.0
 40
4.0
 40
4.0
 40
4.0
 40
4.0
 10
275.958689609263
 20
22.90368570585917
 30
0.0
 10
276.1152693023624
 20
22.90368570585917
 30
0.0
 10
276.2290221239581
 20
22.89054050472645
 30
0.0
 10
276.2999480740501
 20
22.86425010246101
 30
0.0
 10
276.3708740241422
 20
22.83795970019556
 30
0.0
 10
276.4276858393571
 20
22.79119249813122
 30
0.0
 10
276.4703189241118
 20
22.72394849626802
 30
0.0
  0
SPLINE
  5
1B9
330
1F
100
AcDbEntity
  8
PIEZA
370
     0
100
AcDbSpline
210
0.0
220
0.0
230
1.0
 70
     8
 71
     3
 72
    11
 73
     7
 74
     0
 42
0.000000001
 43
0.00000001
 40
4.0
 40
4.0
 40
4.0
 40
4.0
 40
5.0
 40
5.0
 40
5.0
 40
6.0
 40
6.0
 40
6.0
 40
6.0
 10
276.4703189241118
 20
22.72394849626802
 30
0.0
 10
276.5129520088666
 20
22.65673679219628
 30
0.0
 10
276.5342685512439
 20
22.57986804847176
 30
0.0
 10
276.5342685512439
 20
22.49334226509446
 30
0.0
 10
276.5342685512439
 20
22.38349747626794
 30
0.0
 10
276.5020999509291
 20
22.29280527778961
 30
0.0
 10
276.4377304525076
 20
22.22123337186795
 30
0.0
  0
SPLINE
  5
1BA
330
1F
100
AcDbEntity
  8
PIEZA
370
     0
100
AcDbSpline
210
0.0
220
0.0
230
1.0
 70
     8
 71
     3
 72
     8
 73
     4
 74
     0
 42
0.000000001
 43
0.00000001
 40
6.0
 40
6.0
 40
6.0
 40
6.0
 40
7.0
 40
7.0
 40
7.0
 40
7.0
 10
276.4377304525076
 20
22.22123337186795
 30
0.0
 10
276.3733932518777
 20
22.14969376373777
 30
0.0
 10
276.2772104288475
 20
22.10457374903897
 30
0.0
 10
276.1491819834173
 20
22.0859379233545
 30
0.0
  0
SPLINE
  5
1BB
330
1F
100
AcDbEntity
  8
PIEZA
370
     0
100
AcDbSpline
210
0.0
220
0.0
230
1.0
 70
     8
 71
     3
 72
     8
 73
     4
 74
     0
 42
0.000000001
 43
0.00000001
 40
7.0
 40
7.0
 40
7.0
 40
7.0
 40
8.0
 40
8.0
 40
8.0
 40
8.0
 10
276.1491819834173
 20
22.0859379233545
 30
0.0
 10
276.2127763348432
 20
22.04866627198555
 30
0.0
 10
276.2652925437911
 20
22.00771267238778
 30
0.0
 10
276.3066983124696
 20
21.96310942235267
 30
0.0
  0
SPLINE
  5
1BC
330
1F
100
AcDbEntity
  8
PIEZA
370
     0
100
AcDbSpline
210
0.0
220
0.0
230
1.0
 70
     8
 71
     3
 72
     8
 73
     4
 74
     0
 42
0.000000001
 43
0.00000001
 40
8.0
 40
8.0
 40
8.0
 40
8.0
 40
9.0
 40
9.0
 40
9.0
 40
9.0
 10
276.3066983124696
 20
21.96310942235267
 30
0.0
 10
276.3481363789397
 20
21.91850617231756
 30
0.0
 10
276.4039469626186
 20
21.83927968981493
 30
0.0
 10
276.474162361298
 20
21.72539767705331
 30
0.0
  0
SPLINE
  5
1BD
330
1F
100
AcDbEntity
  8
PIEZA
370
     0
100
AcDbSpline
210
0.0
220
0.0
230
1.0
 70
     8
 71
     3
 72
     8
 73
     4
 74
     0
 42
0.000000001
 43
0.00000001
 40
12.0
 40
12.0
 40
12.0
 40
12.0
 40
13.0
 40
13.0
 40
13.0
 40
13.0
 10
276.0875577972718
 20
21.75931035810825
 30
0.0
 10
276.0113996049599
 20
21.87283709516359
 30
0.0
 10
275.9592709695097
 20
21.94437670329375
 30
0.0
 10
275.9312364865043
 20
21.97392918249877
 30
0.0
  0
SPLINE
  5
1BE
330
1F
100
AcDbEntity
  8
PIEZA
370
     0
100
AcDbSpline
210
0.0
220
0.0
230
1.0
 70
     8
 71
     3
 72
     8
 73
     4
 74
     0
 42
0.000000001
 43
0.00000001
 40
13.0
 40
13.0
 40
13.0
 40
13.0
 40
14.0
 40
14.0
 40
14.0
 40
14.0
 10
275.9312364865043
 20
21.97392918249877
 30
0.0
 10
275.9031697057073
 20
22.0034493639123
 30
0.0
 10
275.873455737545
 20
22.02370007917082
 30
0.0
 10
275.8420622842256
 20
22.03464903048284
 30
0.0
  0
SPLINE
  5
1BF
330
1F
100
AcDbEntity
  8
PIEZA
370
     0
100
AcDbSpline
210
0.0
220
0.0
230
1.0
 70
     8
 71
     3
 72
     8
 73
     4
 74
     0
 42
0.000000001
 43
0.00000001
 40
14.0
 40
14.0
 40
14.0
 40
14.0
 40
15.0
 40
15.0
 40
15.0
 40
15.0
 10
275.8420622842256
 20
22.03464903048284
 30
0.0
 10
275.8106365331146
 20
22.04563027958635
 30
0.0
 10
275.760897934234
 20
22.05108860634662
 30
0.0
 10
275.6927495942093
 20
22.05108860634662
 30
0.0
  0
SPLINE
  5
1C0
330
1F
100
AcDbEntity
  8
PIEZA
370
     0
100
AcDbSpline
210
0.0
220
0.0
230
1.0
 70
     8
 71
     3
 72
     8
 73
     4
 74
     0
 42
0.000000001
 43
0.00000001
 40
1.0
 40
1.0
 40
1.0
 40
1.0
 40
2.0
 40
2.0
 40
2.0
 40
2.0
 10
275.8512671547977
 20
22.2841817674642
 30
0.0
 10
275.9930221616072
 20
22.2841817674642
 30
0.0
 10
276.0815504080563
 20
22.29018915667965
 30
0.0
 10
276.1168195963535
 20
22.30217163731907
 30
0.0
  0
SPLINE
  5
1C1
330
1F
100
AcDbEntity
  8
PIEZA
370
     0
100
AcDbSpline
210
0.0
220
0.0
230
1.0
 70
     8
 71
     3
 72
     8
 73
     4
 74
     0
 42
0.000000001
 43
0.00000001
 40
2.0
 40
2.0
 40
2.0
 40
2.0
 40
3.0
 40
3.0
 40
3.0
 40
3.0
 10
276.1168195963535
 20
22.30217163731907
 30
0.0
 10
276.1520887846506
 20
22.31418641574995
 30
0.0
 10
276.1797356941583
 20
22.33485700229772
 30
0.0
 10
276.1996957292935
 20
22.36418339696237
 30
0.0
  0
SPLINE
  5
1C2
330
1F
100
AcDbEntity
  8
PIEZA
370
     0
100
AcDbSpline
210
0.0
220
0.0
230
1.0
 70
     8
 71
     3
 72
    14
 73
    10
 74
     0
 42
0.000000001
 43
0.00000001
 40
3.0
 40
3.0
 40
3.0
 40
3.0
 40
4.0
 40
4.0
 40
4.0
 40
5.0
 40
5.0
 40
5.0
 40
6.0
 40
6.0
 40
6.0
 40
6.0
 10
276.1996957292935
 20
22.36418339696237
 30
0.0
 10
276.2196557644286
 20
22.3935420894185
 30
0.0
 10
276.2296357819962
 20
22.43023238054079
 30
0.0
 10
276.2296357819962
 20
22.47422197253776
 30
0.0
 10
276.2296357819962
 20
22.52357299792057
 30
0.0
 10
276.2164905808635
 20
22.56339617481651
 30
0.0
 10
276.1902001785981
 20
22.59375609880854
 30
0.0
 10
276.1639097763326
 20
22.62411602280058
 30
0.0
 10
276.1267996139211
 20
22.64326861314875
 30
0.0
 10
276.0789019891549
 20
22.65127846543601
 30
0.0
  0
SPLINE
  5
1C3
330
1F
100
AcDbEntity
  8
PIEZA
370
     0
100
AcDbSpline
210
0.0
220
0.0
230
1.0
 70
     8
 71
     3
 72
     8
 73
     4
 74
     0
 42
0.000000001
 43
0.00000001
 40
6.0
 40
6.0
 40
6.0
 40
6.0
 40
7.0
 40
7.0
 40
7.0
 40
7.0
 10
276.0789019891549
 20
22.65127846543601
 30
0.0
 10
276.0549370278761
 20
22.65460513795854
 30
0.0
 10
275.9830421440396
 20
22.65628462311555
 30
0.0
 10
275.863249635437
 20
22.65628462311555
 30
0.0
  0
SPLINE
  5
1C4
330
1F
100
AcDbEntity
  8
1
  6
Continuous
 62
   254
420
 15263976
100
AcDbSpline
210
0.0
220
0.0
230
1.0
 70
     8
 71
     3
 72
    54
 73
    50
 74
     0
 42
0.000000001
 43
0.00000001
 40
0.0
 40
0.0
 40
0.0
 40
0.0
 40
0.0029185533115922
 40
0.0029185533115922
 40
0.0341775380260811
 40
0.0341775380260811
 40
0.0654365227405701
 40
0.0654365227405701
 40
0.0966955074550592
 40
0.0966955074550592
 40
0.1279544921695482
 40
0.1279544921695482
 40
0.1904724615985261
 40
0.1904724615985261
 40
0.2217314463130152
 40
0.2217314463130152
 40
0.252990431027504
 40
0.252990431027504
 40
0.3155084004564817
 40
0.3155084004564817
 40
0.3780263698854596
 40
0.3780263698854596
 40
0.4092853545999485
 40
0.4092853545999485
 40
0.4405443393144375
 40
0.4405443393144375
 40
0.5030623087434154
 40
0.5030623087434154
 40
0.5655802781723935
 40
0.5655802781723935
 40
0.6280982476013717
 40
0.6280982476013717
 40
0.6906162170303497
 40
0.6906162170303497
 40
0.7218752017448389
 40
0.7218752017448389
 40
0.753134186459328
 40
0.753134186459328
 40
0.8156521558883061
 40
0.8156521558883061
 40
0.8469111406027954
 40
0.8469111406027954
 40
0.8781701253172844
 40
0.8781701253172844
 40
0.9406880947462625
 40
0.9406880947462625
 40
0.9719470794607517
 40
0.9719470794607517
 40
1.0
 40
1.0
 40
1.0
 40
1.0
 10
216.3166615877725
 20
99.07414970254646
 30
0.0
 10
216.3166535168654
 20
99.07416663964105
 30
0.0
 10
216.3167015143121
 20
99.07405468598209
 30
0.0
 10
216.3179225529209
 20
99.07123178846756
 30
0.0
 10
216.3256097629537
 20
99.05348821807556
 30
0.0
 10
216.3533698206684
 20
98.9890041040088
 30
0.0
 10
216.3734275990097
 20
98.94229763333291
 30
0.0
 10
216.4251711475225
 20
98.82054808376287
 30
0.0
 10
216.4568584922369
 20
98.74550456102148
 30
0.0
 10
216.5312031344467
 20
98.56681213520804
 30
0.0
 10
216.5740828259345
 20
98.46260064331327
 30
0.0
 10
216.7149052632097
 20
98.11362711726473
 30
0.0
 10
216.8255646526768
 20
97.8316407136493
 30
0.0
 10
217.008074826782
 20
97.33601011768954
 30
0.0
 10
217.0720120315526
 20
97.15758721068303
 30
0.0
 10
217.201865185181
 20
96.78138769539933
 30
0.0
 10
217.2677748058683
 20
96.58370050237475
 30
0.0
 10
217.4658338990249
 20
95.96222301619187
 30
0.0
 10
217.5984005605302
 20
95.51036072852932
 30
0.0
 10
217.8497394198074
 20
94.5254305978793
 30
0.0
 10
217.9647493602873
 20
94.00618428787082
 30
0.0
 10
218.1099990225465
 20
93.19144201841003
 30
0.0
 10
218.1539377834127
 20
92.91356373622219
 30
0.0
 10
218.2310639100295
 20
92.3445176440272
 30
0.0
 10
218.2643971370173
 20
92.05135048302415
 30
0.0
 10
218.3438144220294
 20
91.16935696701827
 30
0.0
 10
218.3698329912162
 20
90.57699476033955
 30
0.0
 10
218.3648674821694
 20
89.38351855485794
 30
0.0
 10
218.3327863570386
 20
88.77707697633882
 30
0.0
 10
218.2178910398447
 20
87.61280870308448
 30
0.0
 10
218.1355641607062
 20
87.04845824549201
 30
0.0
 10
217.9320371575535
 20
85.95418762899098
 30
0.0
 10
217.8140442535858
 20
85.4407707530032
 30
0.0
 10
217.6249580943151
 20
84.71873559150046
 30
0.0
 10
217.5598613243506
 20
84.48600193024552
 30
0.0
 10
217.4273193305702
 20
84.03639428988888
 30
0.0
 10
217.3602069856012
 20
83.82072853763967
 30
0.0
 10
217.1619253782432
 20
83.20925313730575
 30
0.0
 10
217.0326835581337
 20
82.84474629568965
 30
0.0
 10
216.8531566947285
 20
82.36238503247873
 30
0.0
 10
216.7953997339015
 20
82.2116662830056
 30
0.0
 10
216.6882299519858
 20
81.93759622140405
 30
0.0
 10
216.6387664249615
 20
81.8140520718757
 30
0.0
 10
216.5043430570555
 20
81.48316576420368
 30
0.0
 10
216.4332884877284
 20
81.31513821191501
 30
0.0
 10
216.3614576680447
 20
81.14663489635663
 30
0.0
 10
216.3435432952188
 20
81.10501932572757
 30
0.0
 10
216.3218572803193
 20
81.05472238148852
 30
0.0
 10
216.3167072256778
 20
81.04283128994817
 30
0.0
 10
216.3166612633455
 20
81.04272897471722
 30
0.0
  0
SPLINE
  5
1C5
330
1F
100
AcDbEntity
  8
1
100
AcDbSpline
210
0.0
220
0.0
230
1.0
 70
     8
 71
     3
 72
     8
 73
     4
 74
     0
 42
0.000000001
 43
0.00000001
 40
0.0
 40
0.0
 40
0.0
 40
0.0
 40
1.0
 40
1.0
 40
1.0
 40
1.0
 10
231.0869406588111
 20
190.7478965536959
 30
0.0
 10
231.4607668370371
 20
189.809688616314
 30
0.0
 10
231.8346023366384
 20
188.8714613710011
 30
0.0
 10
232.208454394875
 20
187.933199827213
 30
0.0
  0
SPLINE
  5
1C6
330
1F
100
AcDbEntity
  8
1
100
AcDbSpline
210
0.0
220
0.0
230
1.0
 70
     8
 71
     3
 72
     8
 73
     4
 74
     0
 42
0.000000001
 43
0.00000001
 40
0.0
 40
0.0
 40
0.0
 40
0.0
 40
1.0
 40
1.0
 40
1.0
 40
1.0
 10
231.086940658811
 20
190.7478965536959
 30
0.0
 10
230.8535338886262
 20
190.6546552657981
 30
0.0
 10
230.6200459694212
 20
190.5616251813571
 30
0.0
 10
230.3864769065984
 20
190.4688062863127
 30
0.0
  0
SPLINE
  5
1C7
330
1F
100
AcDbEntity
  8
1
100
AcDbSpline
210
0.0
220
0.0
230
1.0
 70
     8
 71
     3
 72
     8
 73
     4
 74
     0
 42
0.000000001
 43
0.00000001
 40
0.0
 40
0.0
 40
0.0
 40
0.0
 40
1.0
 40
1.0
 40
1.0
 40
1.0
 10
230.3864769065984
 20
190.4688062863127
 30
0.0
 10
230.7602858772731
 20
189.5305914928158
 30
0.0
 10
231.1341013587249
 20
188.592356271543
 30
0.0
 10
231.507928405725
 20
187.6540847623674
 30
0.0
  0
SPLINE
  5
1C8
330
1F
100
AcDbEntity
  8
1
100
AcDbSpline
210
0.0
220
0.0
230
1.0
 70
     8
 71
     3
 72
     8
 73
     4
 74
     0
 42
0.000000001
 43
0.00000001
 40
0.0
 40
0.0
 40
0.0
 40
0.0
 40
1.0
 40
1.0
 40
1.0
 40
1.0
 10
234.8127241265303
 20
191.6977477775289
 30
0.0
 10
234.9761234831398
 20
190.7011130422557
 30
0.0
 10
235.1395277925618
 20
189.7044574466401
 30
0.0
 10
235.3029409003291
 20
188.7077647948114
 30
0.0
  0
SPLINE
  5
1C9
330
1F
100
AcDbEntity
  8
1
100
AcDbSpline
210
0.0
220
0.0
230
1.0
 70
     8
 71
     3
 72
     8
 73
     4
 74
     0
 42
0.000000001
 43
0.00000001
 40
0.0
 40
0.0
 40
0.0
 40
0.0
 40
1.0
 40
1.0
 40
1.0
 40
1.0
 10
234.8127241265303
 20
191.697747777529
 30
0.0
 10
234.5647288966101
 20
191.6568617675948
 30
0.0
 10
234.3167010766963
 20
191.6161996778849
 30
0.0
 10
234.0686406699516
 20
191.5757614866689
 30
0.0
  0
SPLINE
  5
1CA
330
1F
100
AcDbEntity
  8
1
100
AcDbSpline
210
0.0
220
0.0
230
1.0
 70
     8
 71
     3
 72
     8
 73
     4
 74
     0
 42
0.000000001
 43
0.00000001
 40
0.0
 40
0.0
 40
0.0
 40
0.0
 40
1.0
 40
1.0
 40
1.0
 40
1.0
 10
234.0686406699516
 20
191.5757614866689
 30
0.0
 10
234.2320217474508
 20
190.5791237546877
 30
0.0
 10
234.3954047921408
 20
189.5824646728962
 30
0.0
 10
234.5587913311567
 20
188.5857676653417
 30
0.0
  0
SPLINE
  5
1CB
330
1F
100
AcDbEntity
  8
1
100
AcDbSpline
210
0.0
220
0.0
230
1.0
 70
     8
 71
     3
 72
     8
 73
     4
 74
     0
 42
0.000000001
 43
0.00000001
 40
0.0
 40
0.0
 40
0.0
 40
0.0
 40
1.0
 40
1.0
 40
1.0
 40
1.0
 10
238.6555907829521
 20
191.8244586954041
 30
0.0
 10
238.6009229456354
 20
190.815998694781
 30
0.0
 10
238.5462554609804
 20
189.8075172568105
 30
0.0
 10
238.4915886029797
 20
188.7989977375964
 30
0.0
  0
SPLINE
  5
1CC
330
1F
100
AcDbEntity
  8
1
100
AcDbSpline
210
0.0
220
0.0
230
1.0
 70
     8
 71
     3
 72
     8
 73
     4
 74
     0
 42
0.000000001
 43
0.00000001
 40
0.0
 40
0.0
 40
0.0
 40
0.0
 40
1.0
 40
1.0
 40
1.0
 40
1.0
 10
238.6555907829521
 20
191.824458695404
 30
0.0
 10
238.4046096624219
 20
191.8378399333811
 30
0.0
 10
238.153639447137
 20
191.8514471406454
 30
0.0
 10
237.9026801374476
 20
191.8652803244498
 30
0.0
  0
SPLINE
  5
1CD
330
1F
100
AcDbEntity
  8
1
100
AcDbSpline
210
0.0
220
0.0
230
1.0
 70
     8
 71
     3
 72
     8
 73
     4
 74
     0
 42
0.000000001
 43
0.00000001
 40
0.0
 40
0.0
 40
0.0
 40
0.0
 40
1.0
 40
1.0
 40
1.0
 40
1.0
 10
237.9026801374476
 20
191.8652803244498
 30
0.0
 10
237.8479938041725
 20
190.8568213266485
 30
0.0
 10
237.7933048025183
 20
189.8483410552958
 30
0.0
 10
237.7386110605765
 20
188.8398229936865
 30
0.0
  0
SPLINE
  5
1CE
330
1F
100
AcDbEntity
  8
1
100
AcDbSpline
210
0.0
220
0.0
230
1.0
 70
     8
 71
     3
 72
     8
 73
     4
 74
     0
 42
0.000000001
 43
0.00000001
 40
0.0
 40
0.0
 40
0.0
 40
0.0
 40
1.0
 40
1.0
 40
1.0
 40
1.0
 10
240.5647618890653
 20
191.5757614866689
 30
0.0
 10
240.4013808115662
 20
190.5791237546877
 30
0.0
 10
240.2379977668762
 20
189.5824646728961
 30
0.0
 10
240.0746112278605
 20
188.5857676653417
 30
0.0
  0
SPLINE
  5
1CF
330
1F
100
AcDbEntity
  8
1
100
AcDbSpline
210
0.0
220
0.0
230
1.0
 70
     8
 71
     3
 72
     8
 73
     4
 74
     0
 42
0.000000001
 43
0.00000001
 40
0.0
 40
0.0
 40
0.0
 40
0.0
 40
1.0
 40
1.0
 40
1.0
 40
1.0
 10
240.5647618890653
 20
191.5757614866689
 30
0.0
 10
240.3167014823207
 20
191.6161996778848
 30
0.0
 10
240.0686736624068
 20
191.6568617675948
 30
0.0
 10
239.8206784324866
 20
191.697747777529
 30
0.0
  0
SPLINE
  5
1D0
330
1F
100
AcDbEntity
  8
1
100
AcDbSpline
210
0.0
220
0.0
230
1.0
 70
     8
 71
     3
 72
     8
 73
     4
 74
     0
 42
0.000000001
 43
0.00000001
 40
0.0
 40
0.0
 40
0.0
 40
0.0
 40
1.0
 40
1.0
 40
1.0
 40
1.0
 10
239.8206784324866
 20
191.6977477775289
 30
0.0
 10
239.6572790758771
 20
190.7011130422557
 30
0.0
 10
239.4938747664552
 20
189.7044574466401
 30
0.0
 10
239.3304616586881
 20
188.7077647948114
 30
0.0
  0
SPLINE
  5
1D1
330
1F
100
AcDbEntity
  8
1
100
AcDbSpline
210
0.0
220
0.0
230
1.0
 70
     8
 71
     3
 72
     8
 73
     4
 74
     0
 42
0.000000001
 43
0.00000001
 40
0.0
 40
0.0
 40
0.0
 40
0.0
 40
1.0
 40
1.0
 40
1.0
 40
1.0
 10
247.6050398264858
 20
188.5961747182575
 30
0.0
 10
247.0382818546455
 20
187.7602527442379
 30
0.0
 10
246.4715131328785
 20
186.9243122196571
 30
0.0
 10
245.9047253151329
 20
186.0883387418155
 30
0.0
  0
SPLINE
  5
1D2
330
1F
100
AcDbEntity
  8
1
100
AcDbSpline
210
0.0
220
0.0
230
1.0
 70
     8
 71
     3
 72
     8
 73
     4
 74
     0
 42
0.000000001
 43
0.00000001
 40
0.0
 40
0.0
 40
0.0
 40
0.0
 40
1.0
 40
1.0
 40
1.0
 40
1.0
 10
247.6050398264858
 20
188.5961747182576
 30
0.0
 10
247.3968822708419
 20
188.737035713023
 30
0.0
 10
247.1888518906725
 20
188.8780838111427
 30
0.0
 10
246.9809486851832
 20
189.0193190114478
 30
0.0
  0
SPLINE
  5
1D3
330
1F
100
AcDbEntity
  8
1
100
AcDbSpline
210
0.0
220
0.0
230
1.0
 70
     8
 71
     3
 72
     8
 73
     4
 74
     0
 42
0.000000001
 43
0.00000001
 40
0.0
 40
0.0
 40
0.0
 40
0.0
 40
1.0
 40
1.0
 40
1.0
 40
1.0
 10
246.9809486851832
 20
189.0193190114477
 30
0.0
 10
246.4141753819567
 20
188.1834074323659
 30
0.0
 10
245.847388824649
 20
187.3474790005818
 30
0.0
 10
245.2805787226793
 20
186.5115206318189
 30
0.0
  0
SPLINE
  5
1D4
330
1F
100
AcDbEntity
  8
1
100
AcDbSpline
210
0.0
220
0.0
230
1.0
 70
     8
 71
     3
 72
     8
 73
     4
 74
     0
 42
0.000000001
 43
0.00000001
 40
0.0
 40
0.0
 40
0.0
 40
0.0
 40
1.0
 40
1.0
 40
1.0
 40
1.0
 10
249.112709984058
 20
187.3987962024924
 30
0.0
 10
248.4588953084218
 20
186.6290517544994
 30
0.0
 10
247.805067940207
 20
185.8592900269609
 30
0.0
 10
247.1512180250806
 20
185.0894976039735
 30
0.0
  0
SPLINE
  5
1D5
330
1F
100
AcDbEntity
  8
1
100
AcDbSpline
210
0.0
220
0.0
230
1.0
 70
     8
 71
     3
 72
     8
 73
     4
 74
     0
 42
0.000000001
 43
0.00000001
 40
0.0
 40
0.0
 40
0.0
 40
0.0
 40
1.0
 40
1.0
 40
1.0
 40
1.0
 10
249.1127099840581
 20
187.3987962024923
 30
0.0
 10
248.9210026030901
 20
187.5613370904532
 30
0.0
 10
248.7294416875454
 20
187.7240503987367
 30
0.0
 10
248.5380272373967
 20
187.8869361273106
 30
0.0
  0
SPLINE
  5
1D6
330
1F
100
AcDbEntity
  8
1
100
AcDbSpline
210
0.0
220
0.0
230
1.0
 70
     8
 71
     3
 72
     8
 73
     4
 74
     0
 42
0.000000001
 43
0.00000001
 40
0.0
 40
0.0
 40
0.0
 40
0.0
 40
1.0
 40
1.0
 40
1.0
 40
1.0
 10
248.5380272373967
 20
187.8869361273107
 30
0.0
 10
247.884198444138
 20
187.1172036709342
 30
0.0
 10
247.2303546523964
 20
186.3474558936652
 30
0.0
 10
246.5764842172559
 20
185.5776809005348
 30
0.0
  0
SPLINE
  5
1D7
330
1F
100
AcDbEntity
  8
1
100
AcDbSpline
210
0.0
220
0.0
230
1.0
 70
     8
 71
     3
 72
     8
 73
     4
 74
     0
 42
0.000000001
 43
0.00000001
 40
0.0
 40
0.0
 40
0.0
 40
0.0
 40
1.0
 40
1.0
 40
1.0
 40
1.0
 10
251.6971034052457
 20
184.551939964417
 30
0.0
 10
250.8931022505595
 20
183.9407425425013
 30
0.0
 10
250.0890849854484
 20
183.3295309735554
 30
0.0
 10
249.285039101946
 20
182.7182942737228
 30
0.0
  0
SPLINE
  5
1D8
330
1F
100
AcDbEntity
  8
1
100
AcDbSpline
210
0.0
220
0.0
230
1.0
 70
     8
 71
     3
 72
     8
 73
     4
 74
     0
 42
0.000000001
 43
0.00000001
 40
0.0
 40
0.0
 40
0.0
 40
0.0
 40
1.0
 40
1.0
 40
1.0
 40
1.0
 10
251.6971034052457
 20
184.5519399644171
 30
0.0
 10
251.5448196760301
 20
184.7518919552963
 30
0.0
 10
251.3927158993856
 20
184.951981050919
 30
0.0
 10
251.2407920763671
 20
185.1522072520888
 30
0.0
  0
SPLINE
  5
1D9
330
1F
100
AcDbEntity
  8
1
100
AcDbSpline
210
0.0
220
0.0
230
1.0
 70
     8
 71
     3
 72
     8
 73
     4
 74
     0
 42
0.000000001
 43
0.00000001
 40
0.0
 40
0.0
 40
0.0
 40
0.0
 40
1.0
 40
1.0
 40
1.0
 40
1.0
 10
251.2407920763671
 20
185.1522072520888
 30
0.0
 10
250.4367797119635
 20
184.5410245763038
 30
0.0
 10
249.6327494061942
 20
183.9298301620508
 30
0.0
 10
248.8286872293283
 20
183.3186148957712
 30
0.0
  0
SPLINE
  5
1DA
330
1F
100
AcDbEntity
  8
1
100
AcDbSpline
210
0.0
220
0.0
230
1.0
 70
     8
 71
     3
 72
     8
 73
     4
 74
     0
 42
0.000000001
 43
0.00000001
 40
0.0
 40
0.0
 40
0.0
 40
0.0
 40
1.0
 40
1.0
 40
1.0
 40
1.0
 10
253.6090852057029
 20
181.21607345173
 30
0.0
 10
252.6924917723765
 20
180.7920019680431
 30
0.0
 10
251.7758795640849
 20
180.3679201313411
 30
0.0
 10
250.8592340040863
 20
179.9438199034064
 30
0.0
  0
SPLINE
  5
1DB
330
1F
100
AcDbEntity
  8
1
100
AcDbSpline
210
0.0
220
0.0
230
1.0
 70
     8
 71
     3
 72
     8
 73
     4
 74
     0
 42
0.000000001
 43
0.00000001
 40
0.0
 40
0.0
 40
0.0
 40
0.0
 40
1.0
 40
1.0
 40
1.0
 40
1.0
 10
253.6090852057029
 20
181.21607345173
 30
0.0
 10
253.5033448650389
 20
181.4440886598768
 30
0.0
 10
253.3978104338122
 20
181.6721976006808
 30
0.0
 10
253.2924819051916
 20
181.9004002710329
 30
0.0
  0
SPLINE
  5
1DC
330
1F
100
AcDbEntity
  8
1
100
AcDbSpline
210
0.0
220
0.0
230
1.0
 70
     8
 71
     3
 72
     8
 73
     4
 74
     0
 42
0.000000001
 43
0.00000001
 40
0.0
 40
0.0
 40
0.0
 40
0.0
 40
1.0
 40
1.0
 40
1.0
 40
1.0
 10
253.2924819051916
 20
181.9004002710329
 30
0.0
 10
252.3758806942074
 20
181.4763455984784
 30
0.0
 10
251.4592594378925
 20
181.0522833187578
 30
0.0
 10
250.5426025730405
 20
180.6282075258633
 30
0.0
  0
SPLINE
  5
1DD
330
1F
100
AcDbEntity
  8
1
100
AcDbSpline
210
0.0
220
0.0
230
1.0
 70
     8
 71
     3
 72
     8
 73
     4
 74
     0
 42
0.000000001
 43
0.00000001
 40
0.0
 40
0.0
 40
0.0
 40
0.0
 40
1.0
 40
1.0
 40
1.0
 40
1.0
 10
254.7592532414555
 20
177.5471780750149
 30
0.0
 10
253.772926419711
 20
177.3300616408125
 30
0.0
 10
252.7865790363573
 20
177.1129391317053
 30
0.0
 10
251.8001951274696
 20
176.8958058309733
 30
0.0
  0
SPLINE
  5
1DE
330
1F
100
AcDbEntity
  8
1
100
AcDbSpline
210
0.0
220
0.0
230
1.0
 70
     8
 71
     3
 72
     8
 73
     4
 74
     0
 42
0.000000001
 43
0.00000001
 40
0.0
 40
0.0
 40
0.0
 40
0.0
 40
1.0
 40
1.0
 40
1.0
 40
1.0
 10
254.7592532414556
 20
177.5471780750149
 30
0.0
 10
254.7050007026037
 20
177.7925974348333
 30
0.0
 10
254.6509702943541
 20
178.0380600998601
 30
0.0
 10
254.5971619877643
 20
178.283566064453
 30
0.0
  0
SPLINE
  5
1DF
330
1F
100
AcDbEntity
  8
1
100
AcDbSpline
210
0.0
220
0.0
230
1.0
 70
     8
 71
     3
 72
     8
 73
     4
 74
     0
 42
0.000000001
 43
0.00000001
 40
0.0
 40
0.0
 40
0.0
 40
0.0
 40
1.0
 40
1.0
 40
1.0
 40
1.0
 10
254.5971619877644
 20
178.283566064453
 30
0.0
 10
253.6108311840957
 20
178.0664677203145
 30
0.0
 10
252.6244791684295
 20
177.8493662560148
 30
0.0
 10
251.6380894718009
 20
177.6322592492548
 30
0.0
  0
SPLINE
  5
1E0
330
1F
100
AcDbEntity
  8
1
100
AcDbSpline
210
0.0
220
0.0
230
1.0
 70
     8
 71
     3
 72
     8
 73
     4
 74
     0
 42
0.000000001
 43
0.00000001
 40
0.0
 40
0.0
 40
0.0
 40
0.0
 40
1.0
 40
1.0
 40
1.0
 40
1.0
 10
226.0953753216203
 20
187.8869361273107
 30
0.0
 10
226.749204114879
 20
187.1172036709343
 30
0.0
 10
227.4030479066206
 20
186.3474558936653
 30
0.0
 10
228.0569183417611
 20
185.5776809005349
 30
0.0
  0
SPLINE
  5
1E1
330
1F
100
AcDbEntity
  8
1
100
AcDbSpline
210
0.0
220
0.0
230
1.0
 70
     8
 71
     3
 72
     8
 73
     4
 74
     0
 42
0.000000001
 43
0.00000001
 40
0.0
 40
0.0
 40
0.0
 40
0.0
 40
1.0
 40
1.0
 40
1.0
 40
1.0
 10
226.0953753216203
 20
187.8869361273107
 30
0.0
 10
225.9039608714716
 20
187.7240503987368
 30
0.0
 10
225.7123999559269
 20
187.5613370904533
 30
0.0
 10
225.520692574959
 20
187.3987962024924
 30
0.0
  0
SPLINE
  5
1E2
330
1F
100
AcDbEntity
  8
1
100
AcDbSpline
210
0.0
220
0.0
230
1.0
 70
     8
 71
     3
 72
     8
 73
     4
 74
     0
 42
0.000000001
 43
0.00000001
 40
0.0
 40
0.0
 40
0.0
 40
0.0
 40
1.0
 40
1.0
 40
1.0
 40
1.0
 10
225.520692574959
 20
187.3987962024924
 30
0.0
 10
226.1745072505952
 20
186.6290517544994
 30
0.0
 10
226.82833461881
 20
185.8592900269609
 30
0.0
 10
227.4821845339364
 20
185.0894976039736
 30
0.0
  0
SPLINE
  5
1E3
330
1F
100
AcDbEntity
  8
1
100
AcDbSpline
210
0.0
220
0.0
230
1.0
 70
     8
 71
     3
 72
     8
 73
     4
 74
     0
 42
0.000000001
 43
0.00000001
 40
0.0
 40
0.0
 40
0.0
 40
0.0
 40
1.0
 40
1.0
 40
1.0
 40
1.0
 10
223.39261048265
 20
185.1522072520886
 30
0.0
 10
224.1966228470535
 20
184.5410245763036
 30
0.0
 10
225.0006531528228
 20
183.9298301620505
 30
0.0
 10
225.8047153296888
 20
183.318614895771
 30
0.0
  0
SPLINE
  5
1E4
330
1F
100
AcDbEntity
  8
1
100
AcDbSpline
210
0.0
220
0.0
230
1.0
 70
     8
 71
     3
 72
     8
 73
     4
 74
     0
 42
0.000000001
 43
0.00000001
 40
0.0
 40
0.0
 40
0.0
 40
0.0
 40
1.0
 40
1.0
 40
1.0
 40
1.0
 10
223.39261048265
 20
185.1522072520886
 30
0.0
 10
223.2406866596314
 20
184.9519810509189
 30
0.0
 10
223.088582882987
 20
184.7518919552962
 30
0.0
 10
222.9362991537712
 20
184.5519399644169
 30
0.0
  0
SPLINE
  5
1E5
330
1F
100
AcDbEntity
  8
1
100
AcDbSpline
210
0.0
220
0.0
230
1.0
 70
     8
 71
     3
 72
     8
 73
     4
 74
     0
 42
0.000000001
 43
0.00000001
 40
0.0
 40
0.0
 40
0.0
 40
0.0
 40
1.0
 40
1.0
 40
1.0
 40
1.0
 10
222.9362991537712
 20
184.5519399644169
 30
0.0
 10
223.7403003084576
 20
183.9407425425011
 30
0.0
 10
224.5443175735687
 20
183.3295309735555
 30
0.0
 10
225.348363457071
 20
182.7182942737226
 30
0.0
  0
SPLINE
  5
1E6
330
1F
100
AcDbEntity
  8
1
100
AcDbSpline
210
0.0
220
0.0
230
1.0
 70
     8
 71
     3
 72
     8
 73
     4
 74
     0
 42
0.000000001
 43
0.00000001
 40
0.0
 40
0.0
 40
0.0
 40
0.0
 40
1.0
 40
1.0
 40
1.0
 40
1.0
 10
221.3409206538253
 20
181.9004002710327
 30
0.0
 10
222.2575218648096
 20
181.4763455984782
 30
0.0
 10
223.1741431211243
 20
181.0522833187576
 30
0.0
 10
224.0907999859764
 20
180.6282075258631
 30
0.0
  0
SPLINE
  5
1E7
330
1F
100
AcDbEntity
  8
1
100
AcDbSpline
210
0.0
220
0.0
230
1.0
 70
     8
 71
     3
 72
     8
 73
     4
 74
     0
 42
0.000000001
 43
0.00000001
 40
0.0
 40
0.0
 40
0.0
 40
0.0
 40
1.0
 40
1.0
 40
1.0
 40
1.0
 10
221.3409206538253
 20
181.9004002710327
 30
0.0
 10
221.2355921252048
 20
181.6721976006807
 30
0.0
 10
221.130057693978
 20
181.4440886598766
 30
0.0
 10
221.0243173533141
 20
181.2160734517298
 30
0.0
  0
SPLINE
  5
1E8
330
1F
100
AcDbEntity
  8
1
100
AcDbSpline
210
0.0
220
0.0
230
1.0
 70
     8
 71
     3
 72
     8
 73
     4
 74
     0
 42
0.000000001
 43
0.00000001
 40
0.0
 40
0.0
 40
0.0
 40
0.0
 40
1.0
 40
1.0
 40
1.0
 40
1.0
 10
221.024317353314
 20
181.2160734517298
 30
0.0
 10
221.9409107866404
 20
180.792001968043
 30
0.0
 10
222.857522994932
 20
180.3679201313409
 30
0.0
 10
223.7741685549306
 20
179.9438199034063
 30
0.0
  0
SPLINE
  5
1E9
330
1F
100
AcDbEntity
  8
1
100
AcDbSpline
210
0.0
220
0.0
230
1.0
 70
     8
 71
     3
 72
     8
 73
     4
 74
     0
 42
0.000000001
 43
0.00000001
 40
0.0
 40
0.0
 40
0.0
 40
0.0
 40
1.0
 40
1.0
 40
1.0
 40
1.0
 10
220.0362405712524
 20
178.2835660644531
 30
0.0
 10
221.0225713749211
 20
178.0664677203146
 30
0.0
 10
222.0089233905873
 20
177.849366256015
 30
0.0
 10
222.9953130872159
 20
177.6322592492548
 30
0.0
  0
SPLINE
  5
1EA
330
1F
100
AcDbEntity
  8
1
100
AcDbSpline
210
0.0
220
0.0
230
1.0
 70
     8
 71
     3
 72
     8
 73
     4
 74
     0
 42
0.000000001
 43
0.00000001
 40
0.0
 40
0.0
 40
0.0
 40
0.0
 40
1.0
 40
1.0
 40
1.0
 40
1.0
 10
220.0362405712525
 20
178.283566064453
 30
0.0
 10
219.9824322646627
 20
178.03806009986
 30
0.0
 10
219.9284018564132
 20
177.7925974348332
 30
0.0
 10
219.8741493175613
 20
177.5471780750149
 30
0.0
  0
SPLINE
  5
1EB
330
1F
100
AcDbEntity
  8
1
100
AcDbSpline
210
0.0
220
0.0
230
1.0
 70
     8
 71
     3
 72
     8
 73
     4
 74
     0
 42
0.000000001
 43
0.00000001
 40
0.0
 40
0.0
 40
0.0
 40
0.0
 40
1.0
 40
1.0
 40
1.0
 40
1.0
 10
219.8741493175613
 20
177.5471780750149
 30
0.0
 10
220.8604761393059
 20
177.3300616408126
 30
0.0
 10
221.8468235226595
 20
177.1129391317052
 30
0.0
 10
222.8332074315473
 20
176.8958058309733
 30
0.0
  0
SPLINE
  5
1EC
330
1F
100
AcDbEntity
  8
1
100
AcDbSpline
210
0.0
220
0.0
230
1.0
 70
     8
 71
     3
 72
     8
 73
     4
 74
     0
 42
0.000000001
 43
0.00000001
 40
0.0
 40
0.0
 40
0.0
 40
0.0
 40
1.0
 40
1.0
 40
1.0
 40
1.0
 10
219.6845476584113
 20
176.390659117689
 30
0.0
 10
220.6885690085187
 20
176.2814745316796
 30
0.0
 10
221.6926117836266
 20
176.1722891372197
 30
0.0
 10
222.6966926180549
 20
176.0631023068184
 30
0.0
  0
SPLINE
  5
1ED
330
1F
100
AcDbEntity
  8
1
100
AcDbSpline
210
0.0
220
0.0
230
1.0
 70
     8
 71
     3
 72
     8
 73
     4
 74
     0
 42
0.000000001
 43
0.00000001
 40
0.0
 40
0.0
 40
0.0
 40
0.0
 40
1.0
 40
1.0
 40
1.0
 40
1.0
 10
219.6845476584113
 20
176.390659117689
 30
0.0
 10
219.657598346242
 20
176.1407718728218
 30
0.0
 10
219.6304238440016
 20
175.8909064061087
 30
0.0
 10
219.6030241371915
 20
175.6410627189518
 30
0.0
  0
SPLINE
  5
1EE
330
1F
100
AcDbEntity
  8
1
100
AcDbSpline
210
0.0
220
0.0
230
1.0
 70
     8
 71
     3
 72
     8
 73
     4
 74
     0
 42
0.000000001
 43
0.00000001
 40
0.0
 40
0.0
 40
0.0
 40
0.0
 40
1.0
 40
1.0
 40
1.0
 40
1.0
 10
219.6030241371915
 20
175.6410627189518
 30
0.0
 10
220.6070434845968
 20
175.5318597184014
 30
0.0
 10
221.6110839298909
 20
175.4226529016584
 30
0.0
 10
222.6151618533848
 20
175.3134393056568
 30
0.0
  0
SPLINE
  5
1EF
330
1F
100
AcDbEntity
  8
1
100
AcDbSpline
210
0.0
220
0.0
230
1.0
 70
     8
 71
     3
 72
     8
 73
     4
 74
     0
 42
0.000000001
 43
0.00000001
 40
0.0
 40
0.0
 40
0.0
 40
0.0
 40
1.0
 40
1.0
 40
1.0
 40
1.0
 10
220.5905310862225
 20
180.1273520170691
 30
0.0
 10
221.5476075165904
 20
179.8048851943918
 30
0.0
 10
222.5047046972613
 20
179.4824129764235
 30
0.0
 10
223.461838738762
 20
179.1599311744561
 30
0.0
  0
SPLINE
  5
1F0
330
1F
100
AcDbEntity
  8
1
100
AcDbSpline
210
0.0
220
0.0
230
1.0
 70
     8
 71
     3
 72
     8
 73
     4
 74
     0
 42
0.000000001
 43
0.00000001
 40
0.0
 40
0.0
 40
0.0
 40
0.0
 40
1.0
 40
1.0
 40
1.0
 40
1.0
 10
220.5905310862225
 20
180.1273520170691
 30
0.0
 10
220.5104941695886
 20
179.8891024060662
 30
0.0
 10
220.4302413065651
 20
179.6509203686732
 30
0.0
 10
220.3497724718081
 20
179.4128059128204
 30
0.0
  0
SPLINE
  5
1F1
330
1F
100
AcDbEntity
  8
1
100
AcDbSpline
210
0.0
220
0.0
230
1.0
 70
     8
 71
     3
 72
     8
 73
     4
 74
     0
 42
0.000000001
 43
0.00000001
 40
0.0
 40
0.0
 40
0.0
 40
0.0
 40
1.0
 40
1.0
 40
1.0
 40
1.0
 10
220.349772471808
 20
179.4128059128204
 30
0.0
 10
221.306842987714
 20
179.0903215366456
 30
0.0
 10
222.2639332878835
 20
178.7678288980762
 30
0.0
 10
223.2210587326928
 20
178.4453215820383
 30
0.0
  0
SPLINE
  5
1F2
330
1F
100
AcDbEntity
  8
1
100
AcDbSpline
210
0.0
220
0.0
230
1.0
 70
     8
 71
     3
 72
     8
 73
     4
 74
     0
 42
0.000000001
 43
0.00000001
 40
0.0
 40
0.0
 40
0.0
 40
0.0
 40
1.0
 40
1.0
 40
1.0
 40
1.0
 10
222.2786116424687
 20
183.5819234566793
 30
0.0
 10
223.1439913229272
 20
183.0612525875664
 30
0.0
 10
224.0093901087303
 20
182.5405719885995
 30
0.0
 10
224.8748228333008
 20
182.0198741057134
 30
0.0
  0
SPLINE
  5
1F3
330
1F
100
AcDbEntity
  8
1
100
AcDbSpline
210
0.0
220
0.0
230
1.0
 70
     8
 71
     3
 72
     8
 73
     4
 74
     0
 42
0.000000001
 43
0.00000001
 40
0.0
 40
0.0
 40
0.0
 40
0.0
 40
1.0
 40
1.0
 40
1.0
 40
1.0
 10
222.2786116424687
 20
183.5819234566794
 30
0.0
 10
222.1492267741235
 20
183.3664453192877
 30
0.0
 10
222.0196480732814
 20
183.1510838432876
 30
0.0
 10
221.889875540086
 20
182.9358390285926
 30
0.0
  0
SPLINE
  5
1F4
330
1F
100
AcDbEntity
  8
1
100
AcDbSpline
210
0.0
220
0.0
230
1.0
 70
     8
 71
     3
 72
     8
 73
     4
 74
     0
 42
0.000000001
 43
0.00000001
 40
0.0
 40
0.0
 40
0.0
 40
0.0
 40
1.0
 40
1.0
 40
1.0
 40
1.0
 10
221.889875540086
 20
182.9358390285926
 30
0.0
 10
222.7552456708765
 20
182.4151522878078
 30
0.0
 10
223.6206333472146
 20
181.8944532247666
 30
0.0
 10
224.4860521913085
 20
181.3737322723492
 30
0.0
  0
SPLINE
  5
1F5
330
1F
100
AcDbEntity
  8
1
100
AcDbSpline
210
0.0
220
0.0
230
1.0
 70
     8
 71
     3
 72
     8
 73
     4
 74
     0
 42
0.000000001
 43
0.00000001
 40
0.0
 40
0.0
 40
0.0
 40
0.0
 40
1.0
 40
1.0
 40
1.0
 40
1.0
 10
224.6698565565067
 20
186.5928415154837
 30
0.0
 10
225.4030752949981
 20
185.8983125910907
 30
0.0
 10
226.1363106005306
 20
185.2037700572381
 30
0.0
 10
226.8695753358293
 20
184.5092033477228
 30
0.0
  0
SPLINE
  5
1F6
330
1F
100
AcDbEntity
  8
1
100
AcDbSpline
210
0.0
220
0.0
230
1.0
 70
     8
 71
     3
 72
     8
 73
     4
 74
     0
 42
0.000000001
 43
0.00000001
 40
0.0
 40
0.0
 40
0.0
 40
0.0
 40
1.0
 40
1.0
 40
1.0
 40
1.0
 10
224.6698565565068
 20
186.5928415154837
 30
0.0
 10
224.4971755288364
 20
186.4102154023933
 30
0.0
 10
224.3243299553296
 20
186.2277445478021
 30
0.0
 10
224.1513198342538
 20
186.0454289533453
 30
0.0
  0
SPLINE
  5
1F7
330
1F
100
AcDbEntity
  8
1
100
AcDbSpline
210
0.0
220
0.0
230
1.0
 70
     8
 71
     3
 72
     8
 73
     4
 74
     0
 42
0.000000001
 43
0.00000001
 40
0.0
 40
0.0
 40
0.0
 40
0.0
 40
1.0
 40
1.0
 40
1.0
 40
1.0
 10
224.1513198342538
 20
186.0454289533453
 30
0.0
 10
224.8845258344026
 20
185.3508865812476
 30
0.0
 10
225.617746320973
 20
184.656328403207
 30
0.0
 10
226.350992541046
 20
183.9617421474054
 30
0.0
  0
SPLINE
  5
1F8
330
1F
100
AcDbEntity
  8
1
100
AcDbSpline
210
0.0
220
0.0
230
1.0
 70
     8
 71
     3
 72
     8
 73
     4
 74
     0
 42
0.000000001
 43
0.00000001
 40
0.0
 40
0.0
 40
0.0
 40
0.0
 40
1.0
 40
1.0
 40
1.0
 40
1.0
 10
227.6524538738339
 20
189.0193190114477
 30
0.0
 10
228.2192271770603
 20
188.1834074323658
 30
0.0
 10
228.7860137343681
 20
187.3474790005818
 30
0.0
 10
229.3528238363379
 20
186.5115206318189
 30
0.0
  0
SPLINE
  5
1F9
330
1F
100
AcDbEntity
  8
1
100
AcDbSpline
210
0.0
220
0.0
230
1.0
 70
     8
 71
     3
 72
     8
 73
     4
 74
     0
 42
0.000000001
 43
0.00000001
 40
0.0
 40
0.0
 40
0.0
 40
0.0
 40
1.0
 40
1.0
 40
1.0
 40
1.0
 10
227.6524538738339
 20
189.0193190114477
 30
0.0
 10
227.4445506683446
 20
188.8780838111427
 30
0.0
 10
227.2365202881753
 20
188.7370357130229
 30
0.0
 10
227.0283627325313
 20
188.5961747182576
 30
0.0
  0
SPLINE
  5
1FA
330
1F
100
AcDbEntity
  8
1
100
AcDbSpline
210
0.0
220
0.0
230
1.0
 70
     8
 71
     3
 72
     8
 73
     4
 74
     0
 42
0.000000001
 43
0.00000001
 40
0.0
 40
0.0
 40
0.0
 40
0.0
 40
1.0
 40
1.0
 40
1.0
 40
1.0
 10
227.0283627325313
 20
188.5961747182576
 30
0.0
 10
227.5951207043716
 20
187.760252744238
 30
0.0
 10
228.1618894261386
 20
186.9243122196572
 30
0.0
 10
228.7286772438843
 20
186.0883387418156
 30
0.0
  0
SPLINE
  5
1FB
330
1F
100
AcDbEntity
  8
1
100
AcDbSpline
210
0.0
220
0.0
230
1.0
 70
     8
 71
     3
 72
     8
 73
     4
 74
     0
 42
0.000000001
 43
0.00000001
 40
0.0
 40
0.0
 40
0.0
 40
0.0
 40
1.0
 40
1.0
 40
1.0
 40
1.0
 10
255.0303784218256
 20
175.6410627189518
 30
0.0
 10
254.0263590744202
 20
175.5318597184014
 30
0.0
 10
253.0223186291261
 20
175.4226529016584
 30
0.0
 10
252.0182407056322
 20
175.3134393056567
 30
0.0
  0
SPLINE
  5
1FC
330
1F
100
AcDbEntity
  8
1
100
AcDbSpline
210
0.0
220
0.0
230
1.0
 70
     8
 71
     3
 72
     8
 73
     4
 74
     0
 42
0.000000001
 43
0.00000001
 40
0.0
 40
0.0
 40
0.0
 40
0.0
 40
1.0
 40
1.0
 40
1.0
 40
1.0
 10
255.0303784218256
 20
175.6410627189518
 30
0.0
 10
255.0029787150154
 20
175.8909064061087
 30
0.0
 10
254.975804212775
 20
176.1407718728218
 30
0.0
 10
254.9488549006057
 20
176.390659117689
 30
0.0
  0
SPLINE
  5
1FD
330
1F
100
AcDbEntity
  8
1
100
AcDbSpline
210
0.0
220
0.0
230
1.0
 70
     8
 71
     3
 72
     8
 73
     4
 74
     0
 42
0.000000001
 43
0.00000001
 40
0.0
 40
0.0
 40
0.0
 40
0.0
 40
1.0
 40
1.0
 40
1.0
 40
1.0
 10
254.9488549006057
 20
176.390659117689
 30
0.0
 10
253.9448335504983
 20
176.2814745316796
 30
0.0
 10
252.9407907753904
 20
176.1722891372198
 30
0.0
 10
251.9367099409621
 20
176.0631023068183
 30
0.0
  0
SPLINE
  5
1FE
330
1F
100
AcDbEntity
  8
1
100
AcDbSpline
210
0.0
220
0.0
230
1.0
 70
     8
 71
     3
 72
     8
 73
     4
 74
     0
 42
0.000000001
 43
0.00000001
 40
0.0
 40
0.0
 40
0.0
 40
0.0
 40
1.0
 40
1.0
 40
1.0
 40
1.0
 10
254.283630087209
 20
179.4128059128203
 30
0.0
 10
253.3265595713031
 20
179.0903215366455
 30
0.0
 10
252.3694692711338
 20
178.7678288980762
 30
0.0
 10
251.4123438263243
 20
178.4453215820382
 30
0.0
  0
SPLINE
  5
1FF
330
1F
100
AcDbEntity
  8
1
100
AcDbSpline
210
0.0
220
0.0
230
1.0
 70
     8
 71
     3
 72
     8
 73
     4
 74
     0
 42
0.000000001
 43
0.00000001
 40
0.0
 40
0.0
 40
0.0
 40
0.0
 40
1.0
 40
1.0
 40
1.0
 40
1.0
 10
254.283630087209
 20
179.4128059128203
 30
0.0
 10
254.2031612524521
 20
179.6509203686732
 30
0.0
 10
254.1229083894286
 20
179.8891024060663
 30
0.0
 10
254.0428714727946
 20
180.1273520170691
 30
0.0
  0
SPLINE
  5
200
330
1F
100
AcDbEntity
  8
1
100
AcDbSpline
210
0.0
220
0.0
230
1.0
 70
     8
 71
     3
 72
     8
 73
     4
 74
     0
 42
0.000000001
 43
0.00000001
 40
0.0
 40
0.0
 40
0.0
 40
0.0
 40
1.0
 40
1.0
 40
1.0
 40
1.0
 10
254.0428714727946
 20
180.1273520170691
 30
0.0
 10
253.0857950424268
 20
179.8048851943917
 30
0.0
 10
252.1286978617559
 20
179.4824129764234
 30
0.0
 10
251.1715638202551
 20
179.159931174456
 30
0.0
  0
SPLINE
  5
201
330
1F
100
AcDbEntity
  8
1
100
AcDbSpline
210
0.0
220
0.0
230
1.0
 70
     8
 71
     3
 72
     8
 73
     4
 74
     0
 42
0.000000001
 43
0.00000001
 40
0.0
 40
0.0
 40
0.0
 40
0.0
 40
1.0
 40
1.0
 40
1.0
 40
1.0
 10
252.743527018931
 20
182.9358390285929
 30
0.0
 10
251.8781568881407
 20
182.4151522878079
 30
0.0
 10
251.0127692118026
 20
181.8944532247666
 30
0.0
 10
250.1473503677086
 20
181.3737322723493
 30
0.0
  0
SPLINE
  5
202
330
1F
100
AcDbEntity
  8
1
100
AcDbSpline
210
0.0
220
0.0
230
1.0
 70
     8
 71
     3
 72
     8
 73
     4
 74
     0
 42
0.000000001
 43
0.00000001
 40
0.0
 40
0.0
 40
0.0
 40
0.0
 40
1.0
 40
1.0
 40
1.0
 40
1.0
 10
252.7435270189309
 20
182.9358390285929
 30
0.0
 10
252.6137544857356
 20
183.1510838432878
 30
0.0
 10
252.4841757848935
 20
183.3664453192879
 30
0.0
 10
252.3547909165483
 20
183.5819234566795
 30
0.0
  0
SPLINE
  5
203
330
1F
100
AcDbEntity
  8
1
100
AcDbSpline
210
0.0
220
0.0
230
1.0
 70
     8
 71
     3
 72
     8
 73
     4
 74
     0
 42
0.000000001
 43
0.00000001
 40
0.0
 40
0.0
 40
0.0
 40
0.0
 40
1.0
 40
1.0
 40
1.0
 40
1.0
 10
252.3547909165482
 20
183.5819234566795
 30
0.0
 10
251.4894112360897
 20
183.0612525875665
 30
0.0
 10
250.6240124502867
 20
182.5405719885996
 30
0.0
 10
249.7585797257163
 20
182.0198741057135
 30
0.0
  0
SPLINE
  5
204
330
1F
100
AcDbEntity
  8
1
100
AcDbSpline
210
0.0
220
0.0
230
1.0
 70
     8
 71
     3
 72
     8
 73
     4
 74
     0
 42
0.000000001
 43
0.00000001
 40
0.0
 40
0.0
 40
0.0
 40
0.0
 40
1.0
 40
1.0
 40
1.0
 40
1.0
 10
250.4820827247632
 20
186.0454289533454
 30
0.0
 10
249.7488767246144
 20
185.3508865812476
 30
0.0
 10
249.0156562380438
 20
184.656328403207
 30
0.0
 10
248.282410017971
 20
183.9617421474054
 30
0.0
  0
SPLINE
  5
205
330
1F
100
AcDbEntity
  8
1
100
AcDbSpline
210
0.0
220
0.0
230
1.0
 70
     8
 71
     3
 72
     8
 73
     4
 74
     0
 42
0.000000001
 43
0.00000001
 40
0.0
 40
0.0
 40
0.0
 40
0.0
 40
1.0
 40
1.0
 40
1.0
 40
1.0
 10
250.4820827247632
 20
186.0454289533454
 30
0.0
 10
250.3090726036874
 20
186.2277445478022
 30
0.0
 10
250.1362270301807
 20
186.4102154023933
 30
0.0
 10
249.9635460025103
 20
186.5928415154837
 30
0.0
  0
SPLINE
  5
206
330
1F
100
AcDbEntity
  8
1
100
AcDbSpline
210
0.0
220
0.0
230
1.0
 70
     8
 71
     3
 72
     8
 73
     4
 74
     0
 42
0.000000001
 43
0.00000001
 40
0.0
 40
0.0
 40
0.0
 40
0.0
 40
1.0
 40
1.0
 40
1.0
 40
1.0
 10
249.9635460025103
 20
186.5928415154837
 30
0.0
 10
249.2303272640189
 20
185.8983125910907
 30
0.0
 10
248.4970919584864
 20
185.2037700572381
 30
0.0
 10
247.7638272231877
 20
184.5092033477228
 30
0.0
  0
SPLINE
  5
207
330
1F
100
AcDbEntity
  8
1
100
AcDbSpline
210
0.0
220
0.0
230
1.0
 70
     8
 71
     3
 72
     8
 73
     4
 74
     0
 42
0.000000001
 43
0.00000001
 40
0.0
 40
0.0
 40
0.0
 40
0.0
 40
1.0
 40
1.0
 40
1.0
 40
1.0
 10
245.9767483061678
 20
189.6235263323171
 30
0.0
 10
245.5036917571515
 20
188.7312272531254
 30
0.0
 10
245.0306265268936
 20
187.8389085698454
 30
0.0
 10
244.5575458754727
 20
186.9465550618393
 30
0.0
  0
SPLINE
  5
208
330
1F
100
AcDbEntity
  8
1
100
AcDbSpline
210
0.0
220
0.0
230
1.0
 70
     8
 71
     3
 72
     8
 73
     4
 74
     0
 42
0.000000001
 43
0.00000001
 40
0.0
 40
0.0
 40
0.0
 40
0.0
 40
1.0
 40
1.0
 40
1.0
 40
1.0
 10
245.9767483061678
 20
189.6235263323171
 30
0.0
 10
245.7545818939485
 20
189.7410554502365
 30
0.0
 10
245.5325210142262
 20
189.8587846766541
 30
0.0
 10
245.3105656682435
 20
189.976714013926
 30
0.0
  0
SPLINE
  5
209
330
1F
100
AcDbEntity
  8
1
100
AcDbSpline
210
0.0
220
0.0
230
1.0
 70
     8
 71
     3
 72
     8
 73
     4
 74
     0
 42
0.000000001
 43
0.00000001
 40
0.0
 40
0.0
 40
0.0
 40
0.0
 40
1.0
 40
1.0
 40
1.0
 40
1.0
 10
245.3105656682435
 20
189.976714013926
 30
0.0
 10
244.8374927538239
 20
189.084423611122
 30
0.0
 10
244.3644084851168
 20
188.192115021389
 30
0.0
 10
243.8913040465241
 20
187.2997741245432
 30
0.0
  0
SPLINE
  5
20A
330
1F
100
AcDbEntity
  8
1
100
AcDbSpline
210
0.0
220
0.0
230
1.0
 70
     8
 71
     3
 72
     8
 73
     4
 74
     0
 42
0.000000001
 43
0.00000001
 40
0.0
 40
0.0
 40
0.0
 40
0.0
 40
1.0
 40
1.0
 40
1.0
 40
1.0
 10
244.2469256524185
 20
190.4688062863129
 30
0.0
 10
243.8731166817439
 20
189.5305914928158
 30
0.0
 10
243.499301200292
 20
188.5923562715431
 30
0.0
 10
243.1254741532919
 20
187.6540847623674
 30
0.0
  0
SPLINE
  5
20B
330
1F
100
AcDbEntity
  8
1
100
AcDbSpline
210
0.0
220
0.0
230
1.0
 70
     8
 71
     3
 72
     8
 73
     4
 74
     0
 42
0.000000001
 43
0.00000001
 40
0.0
 40
0.0
 40
0.0
 40
0.0
 40
1.0
 40
1.0
 40
1.0
 40
1.0
 10
244.2469256524185
 20
190.4688062863129
 30
0.0
 10
244.0133565895956
 20
190.5616251813572
 30
0.0
 10
243.7798686703906
 20
190.6546552657981
 30
0.0
 10
243.5464619002057
 20
190.747896553696
 30
0.0
  0
SPLINE
  5
20C
330
1F
100
AcDbEntity
  8
1
100
AcDbSpline
210
0.0
220
0.0
230
1.0
 70
     8
 71
     3
 72
     8
 73
     4
 74
     0
 42
0.000000001
 43
0.00000001
 40
0.0
 40
0.0
 40
0.0
 40
0.0
 40
1.0
 40
1.0
 40
1.0
 40
1.0
 10
243.5464619002057
 20
190.747896553696
 30
0.0
 10
243.17263572198
 20
189.8096886163141
 30
0.0
 10
242.7988002223786
 20
188.8714613710013
 30
0.0
 10
242.4249481641419
 20
187.933199827213
 30
0.0
  0
SPLINE
  5
20D
330
1F
100
AcDbEntity
  8
1
100
AcDbSpline
210
0.0
220
0.0
230
1.0
 70
     8
 71
     3
 72
     8
 73
     4
 74
     0
 42
0.000000001
 43
0.00000001
 40
0.0
 40
0.0
 40
0.0
 40
0.0
 40
1.0
 40
1.0
 40
1.0
 40
1.0
 10
242.4358524542615
 20
191.1221044456305
 30
0.0
 10
242.1656736303327
 20
190.148973648464
 30
0.0
 10
241.8954905424244
 20
189.1758218393314
 30
0.0
 10
241.6252998801779
 20
188.2026327045615
 30
0.0
  0
SPLINE
  5
20E
330
1F
100
AcDbEntity
  8
1
100
AcDbSpline
210
0.0
220
0.0
230
1.0
 70
     8
 71
     3
 72
     8
 73
     4
 74
     0
 42
0.000000001
 43
0.00000001
 40
0.0
 40
0.0
 40
0.0
 40
0.0
 40
1.0
 40
1.0
 40
1.0
 40
1.0
 10
242.4358524542615
 20
191.1221044456305
 30
0.0
 10
242.1936210432322
 20
191.1891248822641
 30
0.0
 10
241.951443517131
 20
191.2563651285362
 30
0.0
 10
241.7093198848151
 20
191.3238252205778
 30
0.0
  0
SPLINE
  5
20F
330
1F
100
AcDbEntity
  8
1
100
AcDbSpline
210
0.0
220
0.0
230
1.0
 70
     8
 71
     3
 72
     8
 73
     4
 74
     0
 42
0.000000001
 43
0.00000001
 40
0.0
 40
0.0
 40
0.0
 40
0.0
 40
1.0
 40
1.0
 40
1.0
 40
1.0
 10
241.7093198848151
 20
191.3238252205778
 30
0.0
 10
241.43912321293
 20
190.350699378872
 30
0.0
 10
241.1689193618664
 20
189.3775533346011
 30
0.0
 10
240.8987027575524
 20
188.4043714026107
 30
0.0
  0
SPLINE
  5
210
330
1F
100
AcDbEntity
  8
1
100
AcDbSpline
210
0.0
220
0.0
230
1.0
 70
     8
 71
     3
 72
     8
 73
     4
 74
     0
 42
0.000000001
 43
0.00000001
 40
0.0
 40
0.0
 40
0.0
 40
0.0
 40
1.0
 40
1.0
 40
1.0
 40
1.0
 10
236.7307224215693
 20
191.8652803244499
 30
0.0
 10
236.7854087548445
 20
190.8568213266486
 30
0.0
 10
236.8400977564988
 20
189.8483410552959
 30
0.0
 10
236.8947914984407
 20
188.8398229936866
 30
0.0
  0
SPLINE
  5
211
330
1F
100
AcDbEntity
  8
1
100
AcDbSpline
210
0.0
220
0.0
230
1.0
 70
     8
 71
     3
 72
     8
 73
     4
 74
     0
 42
0.000000001
 43
0.00000001
 40
0.0
 40
0.0
 40
0.0
 40
0.0
 40
1.0
 40
1.0
 40
1.0
 40
1.0
 10
236.7307224215692
 20
191.8652803244499
 30
0.0
 10
236.4797631118799
 20
191.8514471406455
 30
0.0
 10
236.2287928965951
 20
191.8378399333812
 30
0.0
 10
235.9778117760649
 20
191.8244586954042
 30
0.0
  0
SPLINE
  5
212
330
1F
100
AcDbEntity
  8
1
100
AcDbSpline
210
0.0
220
0.0
230
1.0
 70
     8
 71
     3
 72
     8
 73
     4
 74
     0
 42
0.000000001
 43
0.00000001
 40
0.0
 40
0.0
 40
0.0
 40
0.0
 40
1.0
 40
1.0
 40
1.0
 40
1.0
 10
235.9778117760649
 20
191.8244586954042
 30
0.0
 10
236.0324796133815
 20
190.8159986947811
 30
0.0
 10
236.0871470980368
 20
189.8075172568106
 30
0.0
 10
236.1418139560376
 20
188.7989977375965
 30
0.0
  0
SPLINE
  5
213
330
1F
100
AcDbEntity
  8
1
100
AcDbSpline
210
0.0
220
0.0
230
1.0
 70
     8
 71
     3
 72
     8
 73
     4
 74
     0
 42
0.000000001
 43
0.00000001
 40
0.0
 40
0.0
 40
0.0
 40
0.0
 40
1.0
 40
1.0
 40
1.0
 40
1.0
 10
232.9240826742018
 20
191.3238252205778
 30
0.0
 10
233.1942793460869
 20
190.350699378872
 30
0.0
 10
233.4644831971504
 20
189.3775533346011
 30
0.0
 10
233.7346998014645
 20
188.4043714026107
 30
0.0
  0
SPLINE
  5
214
330
1F
100
AcDbEntity
  8
1
100
AcDbSpline
210
0.0
220
0.0
230
1.0
 70
     8
 71
     3
 72
     8
 73
     4
 74
     0
 42
0.000000001
 43
0.00000001
 40
0.0
 40
0.0
 40
0.0
 40
0.0
 40
1.0
 40
1.0
 40
1.0
 40
1.0
 10
232.9240826742018
 20
191.3238252205778
 30
0.0
 10
232.6819590418859
 20
191.2563651285361
 30
0.0
 10
232.4397815157846
 20
191.1891248822641
 30
0.0
 10
232.1975501047554
 20
191.1221044456306
 30
0.0
  0
SPLINE
  5
215
330
1F
100
AcDbEntity
  8
1
100
AcDbSpline
210
0.0
220
0.0
230
1.0
 70
     8
 71
     3
 72
     8
 73
     4
 74
     0
 42
0.000000001
 43
0.00000001
 40
0.0
 40
0.0
 40
0.0
 40
0.0
 40
1.0
 40
1.0
 40
1.0
 40
1.0
 10
232.1975501047554
 20
191.1221044456306
 30
0.0
 10
232.4677289286841
 20
190.1489736484641
 30
0.0
 10
232.7379120165924
 20
189.1758218393315
 30
0.0
 10
233.008102678839
 20
188.2026327045616
 30
0.0
  0
SPLINE
  5
216
330
1F
100
AcDbEntity
  8
1
100
AcDbSpline
210
0.0
220
0.0
230
1.0
 70
     8
 71
     3
 72
     8
 73
     4
 74
     0
 42
0.000000001
 43
0.00000001
 40
0.0
 40
0.0
 40
0.0
 40
0.0
 40
1.0
 40
1.0
 40
1.0
 40
1.0
 10
229.3228368907735
 20
189.9767140139259
 30
0.0
 10
229.7959098051931
 20
189.084423611122
 30
0.0
 10
230.2689940739005
 20
188.192115021389
 30
0.0
 10
230.7420985124931
 20
187.2997741245433
 30
0.0
  0
SPLINE
  5
217
330
1F
100
AcDbEntity
  8
1
100
AcDbSpline
210
0.0
220
0.0
230
1.0
 70
     8
 71
     3
 72
     8
 73
     4
 74
     0
 42
0.000000001
 43
0.00000001
 40
0.0
 40
0.0
 40
0.0
 40
0.0
 40
1.0
 40
1.0
 40
1.0
 40
1.0
 10
229.3228368907735
 20
189.9767140139259
 30
0.0
 10
229.1008815447908
 20
189.858784676654
 30
0.0
 10
228.8788206650686
 20
189.7410554502366
 30
0.0
 10
228.6566542528493
 20
189.6235263323171
 30
0.0
  0
SPLINE
  5
218
330
1F
100
AcDbEntity
  8
1
100
AcDbSpline
210
0.0
220
0.0
230
1.0
 70
     8
 71
     3
 72
     8
 73
     4
 74
     0
 42
0.000000001
 43
0.00000001
 40
0.0
 40
0.0
 40
0.0
 40
0.0
 40
1.0
 40
1.0
 40
1.0
 40
1.0
 10
228.6566542528493
 20
189.6235263323172
 30
0.0
 10
229.1297108018655
 20
188.7312272531256
 30
0.0
 10
229.6027760321234
 20
187.8389085698454
 30
0.0
 10
230.0758566835444
 20
186.9465550618393
 30
0.0
  0
SPLINE
  5
219
330
1F
100
AcDbEntity
  8
1
100
AcDbSpline
210
0.0
220
0.0
230
1.0
 70
     8
 71
     3
 72
     8
 73
     4
 74
     0
 42
0.000000001
 43
0.00000001
 40
0.0
 40
0.0
 40
0.0
 40
0.0
 40
1.0
 40
1.0
 40
1.0
 40
1.0
 10
219.5395756255454
 20
173.716807304403
 30
0.0
 10
220.5495162897468
 20
173.7167980428408
 30
0.0
 10
221.5594783407635
 20
173.7167872685398
 30
0.0
 10
222.5694783832477
 20
173.7167738068266
 30
0.0
  0
SPLINE
  5
21A
330
1F
100
AcDbEntity
  8
1
100
AcDbSpline
210
0.0
220
0.0
230
1.0
 70
     8
 71
     3
 72
     8
 73
     4
 74
     0
 42
0.000000001
 43
0.00000001
 40
0.0
 40
0.0
 40
0.0
 40
0.0
 40
1.0
 40
1.0
 40
1.0
 40
1.0
 10
219.5395756255454
 20
174.4708237800266
 30
0.0
 10
220.5495162897468
 20
174.4708330415887
 30
0.0
 10
221.5594783407635
 20
174.4708438158897
 30
0.0
 10
222.5694783832477
 20
174.470857277603
 30
0.0
  0
SPLINE
  5
21B
330
1F
100
AcDbEntity
  8
1
100
AcDbSpline
210
0.0
220
0.0
230
1.0
 70
     8
 71
     3
 72
     8
 73
     4
 74
     0
 42
0.000000001
 43
0.00000001
 40
0.0
 40
0.0
 40
0.0
 40
0.0
 40
1.0
 40
1.0
 40
1.0
 40
1.0
 10
219.5395756255455
 20
173.716807304403
 30
0.0
 10
219.539801857458
 20
173.9681461296109
 30
0.0
 10
219.539801857458
 20
174.2194849548187
 30
0.0
 10
219.5395756255455
 20
174.4708237800266
 30
0.0
  0
SPLINE
  5
21C
330
1F
100
AcDbEntity
  8
1
100
AcDbSpline
210
0.0
220
0.0
230
1.0
 70
     8
 71
     3
 72
     8
 73
     4
 74
     0
 42
0.000000001
 43
0.00000001
 40
0.0
 40
0.0
 40
0.0
 40
0.0
 40
1.0
 40
1.0
 40
1.0
 40
1.0
 10
230.3864769065984
 20
157.7188247981169
 30
0.0
 10
230.7602858772731
 20
158.6570395916139
 30
0.0
 10
231.1341013587248
 20
159.5952748128866
 30
0.0
 10
231.507928405725
 20
160.5335463220622
 30
0.0
  0
SPLINE
  5
21D
330
1F
100
AcDbEntity
  8
1
100
AcDbSpline
210
0.0
220
0.0
230
1.0
 70
     8
 71
     3
 72
     8
 73
     4
 74
     0
 42
0.000000001
 43
0.00000001
 40
0.0
 40
0.0
 40
0.0
 40
0.0
 40
1.0
 40
1.0
 40
1.0
 40
1.0
 10
231.086940658811
 20
157.4397345307335
 30
0.0
 10
230.8535338886262
 20
157.5329758186314
 30
0.0
 10
230.6200459694212
 20
157.6260059030724
 30
0.0
 10
230.3864769065984
 20
157.7188247981168
 30
0.0
  0
SPLINE
  5
21E
330
1F
100
AcDbEntity
  8
1
100
AcDbSpline
210
0.0
220
0.0
230
1.0
 70
     8
 71
     3
 72
     8
 73
     4
 74
     0
 42
0.000000001
 43
0.00000001
 40
0.0
 40
0.0
 40
0.0
 40
0.0
 40
1.0
 40
1.0
 40
1.0
 40
1.0
 10
231.086940658811
 20
157.4397345307336
 30
0.0
 10
231.460766837037
 20
158.3779424681156
 30
0.0
 10
231.8346023366384
 20
159.3161697134285
 30
0.0
 10
232.2084543948749
 20
160.2544312572167
 30
0.0
  0
SPLINE
  5
21F
330
1F
100
AcDbEntity
  8
1
100
AcDbSpline
210
0.0
220
0.0
230
1.0
 70
     8
 71
     3
 72
     8
 73
     4
 74
     0
 42
0.000000001
 43
0.00000001
 40
0.0
 40
0.0
 40
0.0
 40
0.0
 40
1.0
 40
1.0
 40
1.0
 40
1.0
 10
234.0686406699516
 20
156.6118695977607
 30
0.0
 10
234.2320217474507
 20
157.6085073297419
 30
0.0
 10
234.3954047921408
 20
158.6051664115334
 30
0.0
 10
234.5587913311566
 20
159.6018634190878
 30
0.0
  0
SPLINE
  5
220
330
1F
100
AcDbEntity
  8
1
100
AcDbSpline
210
0.0
220
0.0
230
1.0
 70
     8
 71
     3
 72
     8
 73
     4
 74
     0
 42
0.000000001
 43
0.00000001
 40
0.0
 40
0.0
 40
0.0
 40
0.0
 40
1.0
 40
1.0
 40
1.0
 40
1.0
 10
234.8127241265303
 20
156.4898833069005
 30
0.0
 10
234.56472889661
 20
156.5307693168347
 30
0.0
 10
234.3167010766963
 20
156.5714314065445
 30
0.0
 10
234.0686406699516
 20
156.6118695977606
 30
0.0
  0
SPLINE
  5
221
330
1F
100
AcDbEntity
  8
1
100
AcDbSpline
210
0.0
220
0.0
230
1.0
 70
     8
 71
     3
 72
     8
 73
     4
 74
     0
 42
0.000000001
 43
0.00000001
 40
0.0
 40
0.0
 40
0.0
 40
0.0
 40
1.0
 40
1.0
 40
1.0
 40
1.0
 10
234.8127241265303
 20
156.4898833069007
 30
0.0
 10
234.9761234831398
 20
157.4865180421738
 30
0.0
 10
235.1395277925617
 20
158.4831736377895
 30
0.0
 10
235.302940900329
 20
159.4798662896183
 30
0.0
  0
SPLINE
  5
222
330
1F
100
AcDbEntity
  8
1
100
AcDbSpline
210
0.0
220
0.0
230
1.0
 70
     8
 71
     3
 72
     8
 73
     4
 74
     0
 42
0.000000001
 43
0.00000001
 40
0.0
 40
0.0
 40
0.0
 40
0.0
 40
1.0
 40
1.0
 40
1.0
 40
1.0
 10
237.9026801374476
 20
156.3223507599798
 30
0.0
 10
237.8479938041725
 20
157.3308097577811
 30
0.0
 10
237.7933048025182
 20
158.3392900291338
 30
0.0
 10
237.7386110605765
 20
159.3478080907429
 30
0.0
  0
SPLINE
  5
223
330
1F
100
AcDbEntity
  8
1
100
AcDbSpline
210
0.0
220
0.0
230
1.0
 70
     8
 71
     3
 72
     8
 73
     4
 74
     0
 42
0.000000001
 43
0.00000001
 40
0.0
 40
0.0
 40
0.0
 40
0.0
 40
1.0
 40
1.0
 40
1.0
 40
1.0
 10
238.6555907829521
 20
156.3631723890253
 30
0.0
 10
238.4046096624219
 20
156.3497911510484
 30
0.0
 10
238.153639447137
 20
156.3361839437842
 30
0.0
 10
237.9026801374476
 20
156.3223507599798
 30
0.0
  0
SPLINE
  5
224
330
1F
100
AcDbEntity
  8
1
100
AcDbSpline
210
0.0
220
0.0
230
1.0
 70
     8
 71
     3
 72
     8
 73
     4
 74
     0
 42
0.000000001
 43
0.00000001
 40
0.0
 40
0.0
 40
0.0
 40
0.0
 40
1.0
 40
1.0
 40
1.0
 40
1.0
 10
238.6555907829521
 20
156.3631723890254
 30
0.0
 10
238.6009229456354
 20
157.3716323896484
 30
0.0
 10
238.5462554609803
 20
158.3801138276189
 30
0.0
 10
238.4915886029795
 20
159.3886333468331
 30
0.0
  0
SPLINE
  5
225
330
1F
100
AcDbEntity
  8
1
100
AcDbSpline
210
0.0
220
0.0
230
1.0
 70
     8
 71
     3
 72
     8
 73
     4
 74
     0
 42
0.000000001
 43
0.00000001
 40
0.0
 40
0.0
 40
0.0
 40
0.0
 40
1.0
 40
1.0
 40
1.0
 40
1.0
 10
239.8206784324866
 20
156.4898833069005
 30
0.0
 10
239.6572790758772
 20
157.4865180421736
 30
0.0
 10
239.4938747664553
 20
158.4831736377893
 30
0.0
 10
239.3304616586881
 20
159.4798662896181
 30
0.0
  0
SPLINE
  5
226
330
1F
100
AcDbEntity
  8
1
100
AcDbSpline
210
0.0
220
0.0
230
1.0
 70
     8
 71
     3
 72
     8
 73
     4
 74
     0
 42
0.000000001
 43
0.00000001
 40
0.0
 40
0.0
 40
0.0
 40
0.0
 40
1.0
 40
1.0
 40
1.0
 40
1.0
 10
240.5647618890653
 20
156.6118695977606
 30
0.0
 10
240.3167014823207
 20
156.5714314065445
 30
0.0
 10
240.0686736624068
 20
156.5307693168347
 30
0.0
 10
239.8206784324866
 20
156.4898833069005
 30
0.0
  0
SPLINE
  5
227
330
1F
100
AcDbEntity
  8
1
100
AcDbSpline
210
0.0
220
0.0
230
1.0
 70
     8
 71
     3
 72
     8
 73
     4
 74
     0
 42
0.000000001
 43
0.00000001
 40
0.0
 40
0.0
 40
0.0
 40
0.0
 40
1.0
 40
1.0
 40
1.0
 40
1.0
 10
240.5647618890653
 20
156.6118695977606
 30
0.0
 10
240.4013808115662
 20
157.6085073297418
 30
0.0
 10
240.2379977668762
 20
158.6051664115334
 30
0.0
 10
240.0746112278605
 20
159.6018634190878
 30
0.0
  0
SPLINE
  5
228
330
1F
100
AcDbEntity
  8
1
100
AcDbSpline
210
0.0
220
0.0
230
1.0
 70
     8
 71
     3
 72
     8
 73
     4
 74
     0
 42
0.000000001
 43
0.00000001
 40
0.0
 40
0.0
 40
0.0
 40
0.0
 40
1.0
 40
1.0
 40
1.0
 40
1.0
 10
246.980948685183
 20
159.168312072982
 30
0.0
 10
246.4141753819566
 20
160.0042236520639
 30
0.0
 10
245.8473888246489
 20
160.840152083848
 30
0.0
 10
245.2805787226792
 20
161.6761104526108
 30
0.0
  0
SPLINE
  5
229
330
1F
100
AcDbEntity
  8
1
100
AcDbSpline
210
0.0
220
0.0
230
1.0
 70
     8
 71
     3
 72
     8
 73
     4
 74
     0
 42
0.000000001
 43
0.00000001
 40
0.0
 40
0.0
 40
0.0
 40
0.0
 40
1.0
 40
1.0
 40
1.0
 40
1.0
 10
247.6050398264857
 20
159.5914563661721
 30
0.0
 10
247.3968822708418
 20
159.4505953714068
 30
0.0
 10
247.1888518906725
 20
159.309547273287
 30
0.0
 10
246.980948685183
 20
159.168312072982
 30
0.0
  0
SPLINE
  5
22A
330
1F
100
AcDbEntity
  8
1
100
AcDbSpline
210
0.0
220
0.0
230
1.0
 70
     8
 71
     3
 72
     8
 73
     4
 74
     0
 42
0.000000001
 43
0.00000001
 40
0.0
 40
0.0
 40
0.0
 40
0.0
 40
1.0
 40
1.0
 40
1.0
 40
1.0
 10
247.6050398264857
 20
159.5914563661721
 30
0.0
 10
247.0382818546454
 20
160.4273783401918
 30
0.0
 10
246.4715131328785
 20
161.2633188647725
 30
0.0
 10
245.9047253151328
 20
162.0992923426141
 30
0.0
  0
SPLINE
  5
22B
330
1F
100
AcDbEntity
  8
1
100
AcDbSpline
210
0.0
220
0.0
230
1.0
 70
     8
 71
     3
 72
     8
 73
     4
 74
     0
 42
0.000000001
 43
0.00000001
 40
0.0
 40
0.0
 40
0.0
 40
0.0
 40
1.0
 40
1.0
 40
1.0
 40
1.0
 10
248.5380272373968
 20
160.3006949571188
 30
0.0
 10
247.884198444138
 20
161.0704274134953
 30
0.0
 10
247.2303546523965
 20
161.8401751907643
 30
0.0
 10
246.5764842172559
 20
162.6099501838947
 30
0.0
  0
SPLINE
  5
22C
330
1F
100
AcDbEntity
  8
1
100
AcDbSpline
210
0.0
220
0.0
230
1.0
 70
     8
 71
     3
 72
     8
 73
     4
 74
     0
 42
0.000000001
 43
0.00000001
 40
0.0
 40
0.0
 40
0.0
 40
0.0
 40
1.0
 40
1.0
 40
1.0
 40
1.0
 10
249.1127099840581
 20
160.7888348819371
 30
0.0
 10
248.9210026030901
 20
160.6262939939764
 30
0.0
 10
248.7294416875455
 20
160.4635806856928
 30
0.0
 10
248.5380272373968
 20
160.3006949571188
 30
0.0
  0
SPLINE
  5
22D
330
1F
100
AcDbEntity
  8
1
100
AcDbSpline
210
0.0
220
0.0
230
1.0
 70
     8
 71
     3
 72
     8
 73
     4
 74
     0
 42
0.000000001
 43
0.00000001
 40
0.0
 40
0.0
 40
0.0
 40
0.0
 40
1.0
 40
1.0
 40
1.0
 40
1.0
 10
249.1127099840581
 20
160.7888348819371
 30
0.0
 10
248.4588953084218
 20
161.5585793299302
 30
0.0
 10
247.805067940207
 20
162.3283410574685
 30
0.0
 10
247.1512180250807
 20
163.0981334804561
 30
0.0
  0
SPLINE
  5
22E
330
1F
100
AcDbEntity
  8
1
100
AcDbSpline
210
0.0
220
0.0
230
1.0
 70
     8
 71
     3
 72
     8
 73
     4
 74
     0
 42
0.000000001
 43
0.00000001
 40
0.0
 40
0.0
 40
0.0
 40
0.0
 40
1.0
 40
1.0
 40
1.0
 40
1.0
 10
251.240792076367
 20
163.0354238323408
 30
0.0
 10
250.4367797119635
 20
163.6466065081258
 30
0.0
 10
249.6327494061942
 20
164.2578009223789
 30
0.0
 10
248.8286872293283
 20
164.8690161886584
 30
0.0
  0
SPLINE
  5
22F
330
1F
100
AcDbEntity
  8
1
100
AcDbSpline
210
0.0
220
0.0
230
1.0
 70
     8
 71
     3
 72
     8
 73
     4
 74
     0
 42
0.000000001
 43
0.00000001
 40
0.0
 40
0.0
 40
0.0
 40
0.0
 40
1.0
 40
1.0
 40
1.0
 40
1.0
 10
251.6971034052457
 20
163.6356911200125
 30
0.0
 10
251.5448196760301
 20
163.4357391291333
 30
0.0
 10
251.3927158993856
 20
163.2356500335105
 30
0.0
 10
251.240792076367
 20
163.0354238323408
 30
0.0
  0
SPLINE
  5
230
330
1F
100
AcDbEntity
  8
1
100
AcDbSpline
210
0.0
220
0.0
230
1.0
 70
     8
 71
     3
 72
     8
 73
     4
 74
     0
 42
0.000000001
 43
0.00000001
 40
0.0
 40
0.0
 40
0.0
 40
0.0
 40
1.0
 40
1.0
 40
1.0
 40
1.0
 10
251.6971034052457
 20
163.6356911200125
 30
0.0
 10
250.8931022505595
 20
164.2468885419283
 30
0.0
 10
250.0890849854484
 20
164.8581001108739
 30
0.0
 10
249.285039101946
 20
165.4693368107067
 30
0.0
  0
SPLINE
  5
231
330
1F
100
AcDbEntity
  8
1
100
AcDbSpline
210
0.0
220
0.0
230
1.0
 70
     8
 71
     3
 72
     8
 73
     4
 74
     0
 42
0.000000001
 43
0.00000001
 40
0.0
 40
0.0
 40
0.0
 40
0.0
 40
1.0
 40
1.0
 40
1.0
 40
1.0
 10
253.2924819051916
 20
166.2872308133967
 30
0.0
 10
252.3758806942074
 20
166.7112854859513
 30
0.0
 10
251.4592594378926
 20
167.1353477656719
 30
0.0
 10
250.5426025730406
 20
167.5594235585663
 30
0.0
  0
SPLINE
  5
232
330
1F
100
AcDbEntity
  8
1
100
AcDbSpline
210
0.0
220
0.0
230
1.0
 70
     8
 71
     3
 72
     8
 73
     4
 74
     0
 42
0.000000001
 43
0.00000001
 40
0.0
 40
0.0
 40
0.0
 40
0.0
 40
1.0
 40
1.0
 40
1.0
 40
1.0
 10
253.6090852057029
 20
166.9715576326996
 30
0.0
 10
253.5033448650389
 20
166.7435424245529
 30
0.0
 10
253.3978104338121
 20
166.5154334837487
 30
0.0
 10
253.2924819051916
 20
166.2872308133967
 30
0.0
  0
SPLINE
  5
233
330
1F
100
AcDbEntity
  8
1
100
AcDbSpline
210
0.0
220
0.0
230
1.0
 70
     8
 71
     3
 72
     8
 73
     4
 74
     0
 42
0.000000001
 43
0.00000001
 40
0.0
 40
0.0
 40
0.0
 40
0.0
 40
1.0
 40
1.0
 40
1.0
 40
1.0
 10
253.6090852057029
 20
166.9715576326996
 30
0.0
 10
252.6924917723765
 20
167.3956291163865
 30
0.0
 10
251.7758795640849
 20
167.8197109530886
 30
0.0
 10
250.8592340040863
 20
168.2438111810232
 30
0.0
  0
SPLINE
  5
234
330
1F
100
AcDbEntity
  8
1
100
AcDbSpline
210
0.0
220
0.0
230
1.0
 70
     8
 71
     3
 72
     8
 73
     4
 74
     0
 42
0.000000001
 43
0.00000001
 40
0.0
 40
0.0
 40
0.0
 40
0.0
 40
1.0
 40
1.0
 40
1.0
 40
1.0
 10
254.5971619877644
 20
169.9040650199766
 30
0.0
 10
253.6108311840957
 20
170.1211633641151
 30
0.0
 10
252.6244791684295
 20
170.3382648284147
 30
0.0
 10
251.6380894718009
 20
170.5553718351748
 30
0.0
  0
SPLINE
  5
235
330
1F
100
AcDbEntity
  8
1
100
AcDbSpline
210
0.0
220
0.0
230
1.0
 70
     8
 71
     3
 72
     8
 73
     4
 74
     0
 42
0.000000001
 43
0.00000001
 40
0.0
 40
0.0
 40
0.0
 40
0.0
 40
1.0
 40
1.0
 40
1.0
 40
1.0
 10
254.7592532414556
 20
170.6404530094147
 30
0.0
 10
254.7050007026038
 20
170.3950336495965
 30
0.0
 10
254.6509702943542
 20
170.1495709845696
 30
0.0
 10
254.5971619877645
 20
169.9040650199766
 30
0.0
  0
SPLINE
  5
236
330
1F
100
AcDbEntity
  8
1
100
AcDbSpline
210
0.0
220
0.0
230
1.0
 70
     8
 71
     3
 72
     8
 73
     4
 74
     0
 42
0.000000001
 43
0.00000001
 40
0.0
 40
0.0
 40
0.0
 40
0.0
 40
1.0
 40
1.0
 40
1.0
 40
1.0
 10
254.7592532414556
 20
170.6404530094147
 30
0.0
 10
253.772926419711
 20
170.857569443617
 30
0.0
 10
252.7865790363574
 20
171.0746919527243
 30
0.0
 10
251.8001951274696
 20
171.2918252534563
 30
0.0
  0
SPLINE
  5
237
330
1F
100
AcDbEntity
  8
1
100
AcDbSpline
210
0.0
220
0.0
230
1.0
 70
     8
 71
     3
 72
     8
 73
     4
 74
     0
 42
0.000000001
 43
0.00000001
 40
0.0
 40
0.0
 40
0.0
 40
0.0
 40
1.0
 40
1.0
 40
1.0
 40
1.0
 10
225.5206925749589
 20
160.7888348819372
 30
0.0
 10
226.1745072505952
 20
161.5585793299302
 30
0.0
 10
226.82833461881
 20
162.3283410574685
 30
0.0
 10
227.4821845339363
 20
163.0981334804561
 30
0.0
  0
SPLINE
  5
238
330
1F
100
AcDbEntity
  8
1
100
AcDbSpline
210
0.0
220
0.0
230
1.0
 70
     8
 71
     3
 72
     8
 73
     4
 74
     0
 42
0.000000001
 43
0.00000001
 40
0.0
 40
0.0
 40
0.0
 40
0.0
 40
1.0
 40
1.0
 40
1.0
 40
1.0
 10
226.0953753216202
 20
160.3006949571189
 30
0.0
 10
225.9039608714715
 20
160.4635806856928
 30
0.0
 10
225.7123999559269
 20
160.6262939939764
 30
0.0
 10
225.5206925749589
 20
160.7888348819371
 30
0.0
  0
SPLINE
  5
239
330
1F
100
AcDbEntity
  8
1
100
AcDbSpline
210
0.0
220
0.0
230
1.0
 70
     8
 71
     3
 72
     8
 73
     4
 74
     0
 42
0.000000001
 43
0.00000001
 40
0.0
 40
0.0
 40
0.0
 40
0.0
 40
1.0
 40
1.0
 40
1.0
 40
1.0
 10
226.0953753216202
 20
160.3006949571189
 30
0.0
 10
226.7492041148789
 20
161.0704274134954
 30
0.0
 10
227.4030479066205
 20
161.8401751907644
 30
0.0
 10
228.0569183417611
 20
162.6099501838947
 30
0.0
  0
SPLINE
  5
23A
330
1F
100
AcDbEntity
  8
1
100
AcDbSpline
210
0.0
220
0.0
230
1.0
 70
     8
 71
     3
 72
     8
 73
     4
 74
     0
 42
0.000000001
 43
0.00000001
 40
0.0
 40
0.0
 40
0.0
 40
0.0
 40
1.0
 40
1.0
 40
1.0
 40
1.0
 10
222.9362991537711
 20
163.6356911200126
 30
0.0
 10
223.7403003084575
 20
164.2468885419284
 30
0.0
 10
224.5443175735685
 20
164.8581001108741
 30
0.0
 10
225.3483634570709
 20
165.4693368107069
 30
0.0
  0
SPLINE
  5
23B
330
1F
100
AcDbEntity
  8
1
100
AcDbSpline
210
0.0
220
0.0
230
1.0
 70
     8
 71
     3
 72
     8
 73
     4
 74
     0
 42
0.000000001
 43
0.00000001
 40
0.0
 40
0.0
 40
0.0
 40
0.0
 40
1.0
 40
1.0
 40
1.0
 40
1.0
 10
223.3926104826498
 20
163.0354238323409
 30
0.0
 10
223.2406866596312
 20
163.2356500335106
 30
0.0
 10
223.0885828829868
 20
163.4357391291333
 30
0.0
 10
222.9362991537711
 20
163.6356911200126
 30
0.0
  0
SPLINE
  5
23C
330
1F
100
AcDbEntity
  8
1
100
AcDbSpline
210
0.0
220
0.0
230
1.0
 70
     8
 71
     3
 72
     8
 73
     4
 74
     0
 42
0.000000001
 43
0.00000001
 40
0.0
 40
0.0
 40
0.0
 40
0.0
 40
1.0
 40
1.0
 40
1.0
 40
1.0
 10
223.3926104826498
 20
163.0354238323409
 30
0.0
 10
224.1966228470534
 20
163.6466065081258
 30
0.0
 10
225.0006531528227
 20
164.257800922379
 30
0.0
 10
225.8047153296886
 20
164.8690161886585
 30
0.0
  0
SPLINE
  5
23D
330
1F
100
AcDbEntity
  8
1
100
AcDbSpline
210
0.0
220
0.0
230
1.0
 70
     8
 71
     3
 72
     8
 73
     4
 74
     0
 42
0.000000001
 43
0.00000001
 40
0.0
 40
0.0
 40
0.0
 40
0.0
 40
1.0
 40
1.0
 40
1.0
 40
1.0
 10
221.0243173533141
 20
166.9715576326997
 30
0.0
 10
221.9409107866405
 20
167.3956291163867
 30
0.0
 10
222.8575229949321
 20
167.8197109530887
 30
0.0
 10
223.7741685549307
 20
168.2438111810233
 30
0.0
  0
SPLINE
  5
23E
330
1F
100
AcDbEntity
  8
1
100
AcDbSpline
210
0.0
220
0.0
230
1.0
 70
     8
 71
     3
 72
     8
 73
     4
 74
     0
 42
0.000000001
 43
0.00000001
 40
0.0
 40
0.0
 40
0.0
 40
0.0
 40
1.0
 40
1.0
 40
1.0
 40
1.0
 10
221.3409206538253
 20
166.2872308133968
 30
0.0
 10
221.2355921252048
 20
166.5154334837489
 30
0.0
 10
221.1300576939781
 20
166.7435424245529
 30
0.0
 10
221.0243173533141
 20
166.9715576326997
 30
0.0
  0
SPLINE
  5
23F
330
1F
100
AcDbEntity
  8
1
100
AcDbSpline
210
0.0
220
0.0
230
1.0
 70
     8
 71
     3
 72
     8
 73
     4
 74
     0
 42
0.000000001
 43
0.00000001
 40
0.0
 40
0.0
 40
0.0
 40
0.0
 40
1.0
 40
1.0
 40
1.0
 40
1.0
 10
221.3409206538253
 20
166.2872308133968
 30
0.0
 10
222.2575218648097
 20
166.7112854859514
 30
0.0
 10
223.1741431211244
 20
167.135347765672
 30
0.0
 10
224.0907999859765
 20
167.5594235585665
 30
0.0
  0
SPLINE
  5
240
330
1F
100
AcDbEntity
  8
1
100
AcDbSpline
210
0.0
220
0.0
230
1.0
 70
     8
 71
     3
 72
     8
 73
     4
 74
     0
 42
0.000000001
 43
0.00000001
 40
0.0
 40
0.0
 40
0.0
 40
0.0
 40
1.0
 40
1.0
 40
1.0
 40
1.0
 10
219.8741493175613
 20
170.6404530094147
 30
0.0
 10
220.8604761393059
 20
170.857569443617
 30
0.0
 10
221.8468235226595
 20
171.0746919527243
 30
0.0
 10
222.8332074315473
 20
171.2918252534562
 30
0.0
  0
SPLINE
  5
241
330
1F
100
AcDbEntity
  8
1
100
AcDbSpline
210
0.0
220
0.0
230
1.0
 70
     8
 71
     3
 72
     8
 73
     4
 74
     0
 42
0.000000001
 43
0.00000001
 40
0.0
 40
0.0
 40
0.0
 40
0.0
 40
1.0
 40
1.0
 40
1.0
 40
1.0
 10
220.0362405712524
 20
169.9040650199766
 30
0.0
 10
219.9824322646627
 20
170.1495709845696
 30
0.0
 10
219.9284018564132
 20
170.3950336495964
 30
0.0
 10
219.8741493175613
 20
170.6404530094147
 30
0.0
  0
SPLINE
  5
242
330
1F
100
AcDbEntity
  8
1
100
AcDbSpline
210
0.0
220
0.0
230
1.0
 70
     8
 71
     3
 72
     8
 73
     4
 74
     0
 42
0.000000001
 43
0.00000001
 40
0.0
 40
0.0
 40
0.0
 40
0.0
 40
1.0
 40
1.0
 40
1.0
 40
1.0
 10
220.0362405712525
 20
169.9040650199766
 30
0.0
 10
221.0225713749212
 20
170.121163364115
 30
0.0
 10
222.0089233905874
 20
170.3382648284147
 30
0.0
 10
222.995313087216
 20
170.5553718351748
 30
0.0
  0
SPLINE
  5
243
330
1F
100
AcDbEntity
  8
1
100
AcDbSpline
210
0.0
220
0.0
230
1.0
 70
     8
 71
     3
 72
     8
 73
     4
 74
     0
 42
0.000000001
 43
0.00000001
 40
0.0
 40
0.0
 40
0.0
 40
0.0
 40
1.0
 40
1.0
 40
1.0
 40
1.0
 10
219.6030241371914
 20
172.5465683654778
 30
0.0
 10
220.6070434845967
 20
172.6557713660281
 30
0.0
 10
221.6110839298908
 20
172.7649781827711
 30
0.0
 10
222.6151618533847
 20
172.8741917787728
 30
0.0
  0
SPLINE
  5
244
330
1F
100
AcDbEntity
  8
1
100
AcDbSpline
210
0.0
220
0.0
230
1.0
 70
     8
 71
     3
 72
     8
 73
     4
 74
     0
 42
0.000000001
 43
0.00000001
 40
0.0
 40
0.0
 40
0.0
 40
0.0
 40
1.0
 40
1.0
 40
1.0
 40
1.0
 10
219.6845476584112
 20
171.7969719667406
 30
0.0
 10
219.6575983462419
 20
172.0468592116079
 30
0.0
 10
219.6304238440015
 20
172.2967246783209
 30
0.0
 10
219.6030241371913
 20
172.5465683654778
 30
0.0
  0
SPLINE
  5
245
330
1F
100
AcDbEntity
  8
1
100
AcDbSpline
210
0.0
220
0.0
230
1.0
 70
     8
 71
     3
 72
     8
 73
     4
 74
     0
 42
0.000000001
 43
0.00000001
 40
0.0
 40
0.0
 40
0.0
 40
0.0
 40
1.0
 40
1.0
 40
1.0
 40
1.0
 10
219.6845476584112
 20
171.7969719667406
 30
0.0
 10
220.6885690085185
 20
171.90615655275
 30
0.0
 10
221.6926117836264
 20
172.0153419472099
 30
0.0
 10
222.6966926180548
 20
172.1245287776112
 30
0.0
  0
SPLINE
  5
246
330
1F
100
AcDbEntity
  8
1
100
AcDbSpline
210
0.0
220
0.0
230
1.0
 70
     8
 71
     3
 72
     8
 73
     4
 74
     0
 42
0.000000001
 43
0.00000001
 40
0.0
 40
0.0
 40
0.0
 40
0.0
 40
1.0
 40
1.0
 40
1.0
 40
1.0
 10
220.349772471808
 20
168.7748251716092
 30
0.0
 10
221.3068429877139
 20
169.097309547784
 30
0.0
 10
222.2639332878834
 20
169.4198021863534
 30
0.0
 10
223.2210587326927
 20
169.7423095023914
 30
0.0
  0
SPLINE
  5
247
330
1F
100
AcDbEntity
  8
1
100
AcDbSpline
210
0.0
220
0.0
230
1.0
 70
     8
 71
     3
 72
     8
 73
     4
 74
     0
 42
0.000000001
 43
0.00000001
 40
0.0
 40
0.0
 40
0.0
 40
0.0
 40
1.0
 40
1.0
 40
1.0
 40
1.0
 10
220.5905310862224
 20
168.0602790673603
 30
0.0
 10
220.5104941695885
 20
168.2985286783632
 30
0.0
 10
220.4302413065649
 20
168.5367107157563
 30
0.0
 10
220.349772471808
 20
168.7748251716092
 30
0.0
  0
SPLINE
  5
248
330
1F
100
AcDbEntity
  8
1
100
AcDbSpline
210
0.0
220
0.0
230
1.0
 70
     8
 71
     3
 72
     8
 73
     4
 74
     0
 42
0.000000001
 43
0.00000001
 40
0.0
 40
0.0
 40
0.0
 40
0.0
 40
1.0
 40
1.0
 40
1.0
 40
1.0
 10
220.5905310862223
 20
168.0602790673604
 30
0.0
 10
221.5476075165903
 20
168.3827458900377
 30
0.0
 10
222.5047046972611
 20
168.7052181080061
 30
0.0
 10
223.4618387387618
 20
169.0276999099735
 30
0.0
  0
SPLINE
  5
249
330
1F
100
AcDbEntity
  8
1
100
AcDbSpline
210
0.0
220
0.0
230
1.0
 70
     8
 71
     3
 72
     8
 73
     4
 74
     0
 42
0.000000001
 43
0.00000001
 40
0.0
 40
0.0
 40
0.0
 40
0.0
 40
1.0
 40
1.0
 40
1.0
 40
1.0
 10
221.889875540086
 20
165.2517920558369
 30
0.0
 10
222.7552456708765
 20
165.7724787966218
 30
0.0
 10
223.6206333472146
 20
166.293177859663
 30
0.0
 10
224.4860521913085
 20
166.8138988120804
 30
0.0
  0
SPLINE
  5
24A
330
1F
100
AcDbEntity
  8
1
100
AcDbSpline
210
0.0
220
0.0
230
1.0
 70
     8
 71
     3
 72
     8
 73
     4
 74
     0
 42
0.000000001
 43
0.00000001
 40
0.0
 40
0.0
 40
0.0
 40
0.0
 40
1.0
 40
1.0
 40
1.0
 40
1.0
 10
222.2786116424686
 20
164.6057076277502
 30
0.0
 10
222.1492267741235
 20
164.8211857651418
 30
0.0
 10
222.0196480732812
 20
165.036547241142
 30
0.0
 10
221.8898755400859
 20
165.2517920558368
 30
0.0
  0
SPLINE
  5
24B
330
1F
100
AcDbEntity
  8
1
100
AcDbSpline
210
0.0
220
0.0
230
1.0
 70
     8
 71
     3
 72
     8
 73
     4
 74
     0
 42
0.000000001
 43
0.00000001
 40
0.0
 40
0.0
 40
0.0
 40
0.0
 40
1.0
 40
1.0
 40
1.0
 40
1.0
 10
222.2786116424687
 20
164.6057076277503
 30
0.0
 10
223.1439913229273
 20
165.1263784968633
 30
0.0
 10
224.0093901087303
 20
165.6470590958301
 30
0.0
 10
224.8748228333008
 20
166.1677569787161
 30
0.0
  0
SPLINE
  5
24C
330
1F
100
AcDbEntity
  8
1
100
AcDbSpline
210
0.0
220
0.0
230
1.0
 70
     8
 71
     3
 72
     8
 73
     4
 74
     0
 42
0.000000001
 43
0.00000001
 40
0.0
 40
0.0
 40
0.0
 40
0.0
 40
1.0
 40
1.0
 40
1.0
 40
1.0
 10
224.1513198342539
 20
162.1422021310843
 30
0.0
 10
224.8845258344027
 20
162.8367445031821
 30
0.0
 10
225.6177463209731
 20
163.5313026812226
 30
0.0
 10
226.3509925410461
 20
164.2258889370242
 30
0.0
  0
SPLINE
  5
24D
330
1F
100
AcDbEntity
  8
1
100
AcDbSpline
210
0.0
220
0.0
230
1.0
 70
     8
 71
     3
 72
     8
 73
     4
 74
     0
 42
0.000000001
 43
0.00000001
 40
0.0
 40
0.0
 40
0.0
 40
0.0
 40
1.0
 40
1.0
 40
1.0
 40
1.0
 10
224.6698565565067
 20
161.5947895689458
 30
0.0
 10
224.4971755288363
 20
161.7774156820363
 30
0.0
 10
224.3243299553296
 20
161.9598865366274
 30
0.0
 10
224.1513198342538
 20
162.1422021310843
 30
0.0
  0
SPLINE
  5
24E
330
1F
100
AcDbEntity
  8
1
100
AcDbSpline
210
0.0
220
0.0
230
1.0
 70
     8
 71
     3
 72
     8
 73
     4
 74
     0
 42
0.000000001
 43
0.00000001
 40
0.0
 40
0.0
 40
0.0
 40
0.0
 40
1.0
 40
1.0
 40
1.0
 40
1.0
 10
224.6698565565067
 20
161.5947895689459
 30
0.0
 10
225.4030752949981
 20
162.2893184933388
 30
0.0
 10
226.1363106005306
 20
162.9838610271915
 30
0.0
 10
226.8695753358293
 20
163.6784277367067
 30
0.0
  0
SPLINE
  5
24F
330
1F
100
AcDbEntity
  8
1
100
AcDbSpline
210
0.0
220
0.0
230
1.0
 70
     8
 71
     3
 72
     8
 73
     4
 74
     0
 42
0.000000001
 43
0.00000001
 40
0.0
 40
0.0
 40
0.0
 40
0.0
 40
1.0
 40
1.0
 40
1.0
 40
1.0
 10
227.0283627325313
 20
159.591456366172
 30
0.0
 10
227.5951207043716
 20
160.4273783401917
 30
0.0
 10
228.1618894261386
 20
161.2633188647723
 30
0.0
 10
228.7286772438842
 20
162.099292342614
 30
0.0
  0
SPLINE
  5
250
330
1F
100
AcDbEntity
  8
1
100
AcDbSpline
210
0.0
220
0.0
230
1.0
 70
     8
 71
     3
 72
     8
 73
     4
 74
     0
 42
0.000000001
 43
0.00000001
 40
0.0
 40
0.0
 40
0.0
 40
0.0
 40
1.0
 40
1.0
 40
1.0
 40
1.0
 10
227.6524538738339
 20
159.1683120729819
 30
0.0
 10
227.4445506683446
 20
159.309547273287
 30
0.0
 10
227.2365202881753
 20
159.4505953714067
 30
0.0
 10
227.0283627325313
 20
159.591456366172
 30
0.0
  0
SPLINE
  5
251
330
1F
100
AcDbEntity
  8
1
100
AcDbSpline
210
0.0
220
0.0
230
1.0
 70
     8
 71
     3
 72
     8
 73
     4
 74
     0
 42
0.000000001
 43
0.00000001
 40
0.0
 40
0.0
 40
0.0
 40
0.0
 40
1.0
 40
1.0
 40
1.0
 40
1.0
 10
227.6524538738339
 20
159.1683120729819
 30
0.0
 10
228.2192271770604
 20
160.0042236520638
 30
0.0
 10
228.7860137343681
 20
160.8401520838478
 30
0.0
 10
229.3528238363378
 20
161.6761104526107
 30
0.0
  0
SPLINE
  5
252
330
1F
100
AcDbEntity
  8
1
100
AcDbSpline
210
0.0
220
0.0
230
1.0
 70
     8
 71
     3
 72
     8
 73
     4
 74
     0
 42
0.000000001
 43
0.00000001
 40
0.0
 40
0.0
 40
0.0
 40
0.0
 40
1.0
 40
1.0
 40
1.0
 40
1.0
 10
254.9488549006057
 20
171.7969719667406
 30
0.0
 10
253.9448335504983
 20
171.90615655275
 30
0.0
 10
252.9407907753904
 20
172.0153419472098
 30
0.0
 10
251.9367099409621
 20
172.1245287776111
 30
0.0
  0
SPLINE
  5
253
330
1F
100
AcDbEntity
  8
1
100
AcDbSpline
210
0.0
220
0.0
230
1.0
 70
     8
 71
     3
 72
     8
 73
     4
 74
     0
 42
0.000000001
 43
0.00000001
 40
0.0
 40
0.0
 40
0.0
 40
0.0
 40
1.0
 40
1.0
 40
1.0
 40
1.0
 10
255.0303784218255
 20
172.5465683654778
 30
0.0
 10
255.0029787150154
 20
172.296724678321
 30
0.0
 10
254.975804212775
 20
172.0468592116079
 30
0.0
 10
254.9488549006057
 20
171.7969719667406
 30
0.0
  0
SPLINE
  5
254
330
1F
100
AcDbEntity
  8
1
100
AcDbSpline
210
0.0
220
0.0
230
1.0
 70
     8
 71
     3
 72
     8
 73
     4
 74
     0
 42
0.000000001
 43
0.00000001
 40
0.0
 40
0.0
 40
0.0
 40
0.0
 40
1.0
 40
1.0
 40
1.0
 40
1.0
 10
255.0303784218255
 20
172.5465683654778
 30
0.0
 10
254.0263590744201
 20
172.6557713660281
 30
0.0
 10
253.0223186291261
 20
172.7649781827711
 30
0.0
 10
252.0182407056322
 20
172.8741917787728
 30
0.0
  0
SPLINE
  5
255
330
1F
100
AcDbEntity
  8
1
100
AcDbSpline
210
0.0
220
0.0
230
1.0
 70
     8
 71
     3
 72
     8
 73
     4
 74
     0
 42
0.000000001
 43
0.00000001
 40
0.0
 40
0.0
 40
0.0
 40
0.0
 40
1.0
 40
1.0
 40
1.0
 40
1.0
 10
254.0428714727946
 20
168.0602790673605
 30
0.0
 10
253.0857950424267
 20
168.3827458900379
 30
0.0
 10
252.1286978617558
 20
168.7052181080062
 30
0.0
 10
251.1715638202551
 20
169.0276999099735
 30
0.0
  0
SPLINE
  5
256
330
1F
100
AcDbEntity
  8
1
100
AcDbSpline
210
0.0
220
0.0
230
1.0
 70
     8
 71
     3
 72
     8
 73
     4
 74
     0
 42
0.000000001
 43
0.00000001
 40
0.0
 40
0.0
 40
0.0
 40
0.0
 40
1.0
 40
1.0
 40
1.0
 40
1.0
 10
254.2836300872089
 20
168.7748251716093
 30
0.0
 10
254.203161252452
 20
168.5367107157565
 30
0.0
 10
254.1229083894285
 20
168.2985286783633
 30
0.0
 10
254.0428714727946
 20
168.0602790673605
 30
0.0
  0
SPLINE
  5
257
330
1F
100
AcDbEntity
  8
1
100
AcDbSpline
210
0.0
220
0.0
230
1.0
 70
     8
 71
     3
 72
     8
 73
     4
 74
     0
 42
0.000000001
 43
0.00000001
 40
0.0
 40
0.0
 40
0.0
 40
0.0
 40
1.0
 40
1.0
 40
1.0
 40
1.0
 10
254.283630087209
 20
168.7748251716093
 30
0.0
 10
253.3265595713031
 20
169.0973095477841
 30
0.0
 10
252.3694692711338
 20
169.4198021863533
 30
0.0
 10
251.4123438263243
 20
169.7423095023913
 30
0.0
  0
SPLINE
  5
258
330
1F
100
AcDbEntity
  8
1
100
AcDbSpline
210
0.0
220
0.0
230
1.0
 70
     8
 71
     3
 72
     8
 73
     4
 74
     0
 42
0.000000001
 43
0.00000001
 40
0.0
 40
0.0
 40
0.0
 40
0.0
 40
1.0
 40
1.0
 40
1.0
 40
1.0
 10
252.3547909165482
 20
164.6057076277501
 30
0.0
 10
251.4894112360897
 20
165.1263784968631
 30
0.0
 10
250.6240124502868
 20
165.6470590958299
 30
0.0
 10
249.7585797257163
 20
166.1677569787161
 30
0.0
  0
SPLINE
  5
259
330
1F
100
AcDbEntity
  8
1
100
AcDbSpline
210
0.0
220
0.0
230
1.0
 70
     8
 71
     3
 72
     8
 73
     4
 74
     0
 42
0.000000001
 43
0.00000001
 40
0.0
 40
0.0
 40
0.0
 40
0.0
 40
1.0
 40
1.0
 40
1.0
 40
1.0
 10
252.7435270189309
 20
165.2517920558368
 30
0.0
 10
252.6137544857356
 20
165.0365472411419
 30
0.0
 10
252.4841757848935
 20
164.8211857651418
 30
0.0
 10
252.3547909165482
 20
164.6057076277501
 30
0.0
  0
SPLINE
  5
25A
330
1F
100
AcDbEntity
  8
1
100
AcDbSpline
210
0.0
220
0.0
230
1.0
 70
     8
 71
     3
 72
     8
 73
     4
 74
     0
 42
0.000000001
 43
0.00000001
 40
0.0
 40
0.0
 40
0.0
 40
0.0
 40
1.0
 40
1.0
 40
1.0
 40
1.0
 10
252.7435270189309
 20
165.2517920558367
 30
0.0
 10
251.8781568881406
 20
165.7724787966217
 30
0.0
 10
251.0127692118025
 20
166.2931778596628
 30
0.0
 10
250.1473503677085
 20
166.8138988120802
 30
0.0
  0
SPLINE
  5
25B
330
1F
100
AcDbEntity
  8
1
100
AcDbSpline
210
0.0
220
0.0
230
1.0
 70
     8
 71
     3
 72
     8
 73
     4
 74
     0
 42
0.000000001
 43
0.00000001
 40
0.0
 40
0.0
 40
0.0
 40
0.0
 40
1.0
 40
1.0
 40
1.0
 40
1.0
 10
249.9635460025102
 20
161.5947895689457
 30
0.0
 10
249.2303272640189
 20
162.2893184933389
 30
0.0
 10
248.4970919584864
 20
162.9838610271914
 30
0.0
 10
247.7638272231877
 20
163.6784277367067
 30
0.0
  0
SPLINE
  5
25C
330
1F
100
AcDbEntity
  8
1
100
AcDbSpline
210
0.0
220
0.0
230
1.0
 70
     8
 71
     3
 72
     8
 73
     4
 74
     0
 42
0.000000001
 43
0.00000001
 40
0.0
 40
0.0
 40
0.0
 40
0.0
 40
1.0
 40
1.0
 40
1.0
 40
1.0
 10
250.4820827247631
 20
162.1422021310843
 30
0.0
 10
250.3090726036873
 20
161.9598865366274
 30
0.0
 10
250.1362270301806
 20
161.7774156820363
 30
0.0
 10
249.9635460025102
 20
161.5947895689457
 30
0.0
  0
SPLINE
  5
25D
330
1F
100
AcDbEntity
  8
1
100
AcDbSpline
210
0.0
220
0.0
230
1.0
 70
     8
 71
     3
 72
     8
 73
     4
 74
     0
 42
0.000000001
 43
0.00000001
 40
0.0
 40
0.0
 40
0.0
 40
0.0
 40
1.0
 40
1.0
 40
1.0
 40
1.0
 10
250.4820827247631
 20
162.1422021310843
 30
0.0
 10
249.7488767246143
 20
162.8367445031821
 30
0.0
 10
249.0156562380438
 20
163.5313026812227
 30
0.0
 10
248.282410017971
 20
164.2258889370241
 30
0.0
  0
SPLINE
  5
25E
330
1F
100
AcDbEntity
  8
1
100
AcDbSpline
210
0.0
220
0.0
230
1.0
 70
     8
 71
     3
 72
     8
 73
     4
 74
     0
 42
0.000000001
 43
0.00000001
 40
0.0
 40
0.0
 40
0.0
 40
0.0
 40
1.0
 40
1.0
 40
1.0
 40
1.0
 10
245.3105656682435
 20
158.2109170705037
 30
0.0
 10
244.8374927538239
 20
159.1032074733076
 30
0.0
 10
244.3644084851167
 20
159.9955160630405
 30
0.0
 10
243.8913040465239
 20
160.8878569598863
 30
0.0
  0
SPLINE
  5
25F
330
1F
100
AcDbEntity
  8
1
100
AcDbSpline
210
0.0
220
0.0
230
1.0
 70
     8
 71
     3
 72
     8
 73
     4
 74
     0
 42
0.000000001
 43
0.00000001
 40
0.0
 40
0.0
 40
0.0
 40
0.0
 40
1.0
 40
1.0
 40
1.0
 40
1.0
 10
245.9767483061678
 20
158.5641047521125
 30
0.0
 10
245.7545818939485
 20
158.446575634193
 30
0.0
 10
245.5325210142261
 20
158.3288464077756
 30
0.0
 10
245.3105656682435
 20
158.2109170705037
 30
0.0
  0
SPLINE
  5
260
330
1F
100
AcDbEntity
  8
1
100
AcDbSpline
210
0.0
220
0.0
230
1.0
 70
     8
 71
     3
 72
     8
 73
     4
 74
     0
 42
0.000000001
 43
0.00000001
 40
0.0
 40
0.0
 40
0.0
 40
0.0
 40
1.0
 40
1.0
 40
1.0
 40
1.0
 10
245.9767483061678
 20
158.5641047521125
 30
0.0
 10
245.5036917571515
 20
159.4564038313042
 30
0.0
 10
245.0306265268936
 20
160.3487225145842
 30
0.0
 10
244.5575458754726
 20
161.2410760225902
 30
0.0
  0
SPLINE
  5
261
330
1F
100
AcDbEntity
  8
1
100
AcDbSpline
210
0.0
220
0.0
230
1.0
 70
     8
 71
     3
 72
     8
 73
     4
 74
     0
 42
0.000000001
 43
0.00000001
 40
0.0
 40
0.0
 40
0.0
 40
0.0
 40
1.0
 40
1.0
 40
1.0
 40
1.0
 10
243.5464619002057
 20
157.4397345307335
 30
0.0
 10
243.17263572198
 20
158.3779424681155
 30
0.0
 10
242.7988002223786
 20
159.3161697134284
 30
0.0
 10
242.4249481641419
 20
160.2544312572166
 30
0.0
  0
SPLINE
  5
262
330
1F
100
AcDbEntity
  8
1
100
AcDbSpline
210
0.0
220
0.0
230
1.0
 70
     8
 71
     3
 72
     8
 73
     4
 74
     0
 42
0.000000001
 43
0.00000001
 40
0.0
 40
0.0
 40
0.0
 40
0.0
 40
1.0
 40
1.0
 40
1.0
 40
1.0
 10
244.2469256524185
 20
157.7188247981168
 30
0.0
 10
244.0133565895956
 20
157.6260059030724
 30
0.0
 10
243.7798686703906
 20
157.5329758186314
 30
0.0
 10
243.5464619002057
 20
157.4397345307335
 30
0.0
  0
SPLINE
  5
263
330
1F
100
AcDbEntity
  8
1
100
AcDbSpline
210
0.0
220
0.0
230
1.0
 70
     8
 71
     3
 72
     8
 73
     4
 74
     0
 42
0.000000001
 43
0.00000001
 40
0.0
 40
0.0
 40
0.0
 40
0.0
 40
1.0
 40
1.0
 40
1.0
 40
1.0
 10
244.2469256524184
 20
157.7188247981168
 30
0.0
 10
243.8731166817438
 20
158.6570395916137
 30
0.0
 10
243.499301200292
 20
159.5952748128865
 30
0.0
 10
243.1254741532919
 20
160.5335463220621
 30
0.0
  0
SPLINE
  5
264
330
1F
100
AcDbEntity
  8
1
100
AcDbSpline
210
0.0
220
0.0
230
1.0
 70
     8
 71
     3
 72
     8
 73
     4
 74
     0
 42
0.000000001
 43
0.00000001
 40
0.0
 40
0.0
 40
0.0
 40
0.0
 40
1.0
 40
1.0
 40
1.0
 40
1.0
 10
241.7093198848151
 20
156.8638058638518
 30
0.0
 10
241.43912321293
 20
157.8369317055576
 30
0.0
 10
241.1689193618663
 20
158.8100777498284
 30
0.0
 10
240.8987027575523
 20
159.7832596818189
 30
0.0
  0
SPLINE
  5
265
330
1F
100
AcDbEntity
  8
1
100
AcDbSpline
210
0.0
220
0.0
230
1.0
 70
     8
 71
     3
 72
     8
 73
     4
 74
     0
 42
0.000000001
 43
0.00000001
 40
0.0
 40
0.0
 40
0.0
 40
0.0
 40
1.0
 40
1.0
 40
1.0
 40
1.0
 10
242.4358524542615
 20
157.065526638799
 30
0.0
 10
242.1936210432322
 20
156.9985062021655
 30
0.0
 10
241.951443517131
 20
156.9312659558934
 30
0.0
 10
241.7093198848151
 20
156.8638058638518
 30
0.0
  0
SPLINE
  5
266
330
1F
100
AcDbEntity
  8
1
100
AcDbSpline
210
0.0
220
0.0
230
1.0
 70
     8
 71
     3
 72
     8
 73
     4
 74
     0
 42
0.000000001
 43
0.00000001
 40
0.0
 40
0.0
 40
0.0
 40
0.0
 40
1.0
 40
1.0
 40
1.0
 40
1.0
 10
242.4358524542615
 20
157.065526638799
 30
0.0
 10
242.1656736303327
 20
158.0386574359655
 30
0.0
 10
241.8954905424243
 20
159.011809245098
 30
0.0
 10
241.6252998801779
 20
159.984998379868
 30
0.0
  0
SPLINE
  5
267
330
1F
100
AcDbEntity
  8
1
100
AcDbSpline
210
0.0
220
0.0
230
1.0
 70
     8
 71
     3
 72
     8
 73
     4
 74
     0
 42
0.000000001
 43
0.00000001
 40
0.0
 40
0.0
 40
0.0
 40
0.0
 40
1.0
 40
1.0
 40
1.0
 40
1.0
 10
235.9778117760649
 20
156.3631723890254
 30
0.0
 10
236.0324796133815
 20
157.3716323896484
 30
0.0
 10
236.0871470980368
 20
158.380113827619
 30
0.0
 10
236.1418139560376
 20
159.3886333468331
 30
0.0
  0
SPLINE
  5
268
330
1F
100
AcDbEntity
  8
1
100
AcDbSpline
210
0.0
220
0.0
230
1.0
 70
     8
 71
     3
 72
     8
 73
     4
 74
     0
 42
0.000000001
 43
0.00000001
 40
0.0
 40
0.0
 40
0.0
 40
0.0
 40
1.0
 40
1.0
 40
1.0
 40
1.0
 10
236.7307224215692
 20
156.3223507599798
 30
0.0
 10
236.4797631118799
 20
156.3361839437842
 30
0.0
 10
236.2287928965951
 20
156.3497911510484
 30
0.0
 10
235.9778117760649
 20
156.3631723890254
 30
0.0
  0
SPLINE
  5
269
330
1F
100
AcDbEntity
  8
1
100
AcDbSpline
210
0.0
220
0.0
230
1.0
 70
     8
 71
     3
 72
     8
 73
     4
 74
     0
 42
0.000000001
 43
0.00000001
 40
0.0
 40
0.0
 40
0.0
 40
0.0
 40
1.0
 40
1.0
 40
1.0
 40
1.0
 10
236.7307224215692
 20
156.3223507599798
 30
0.0
 10
236.7854087548445
 20
157.3308097577811
 30
0.0
 10
236.8400977564988
 20
158.3392900291338
 30
0.0
 10
236.8947914984407
 20
159.3478080907429
 30
0.0
  0
SPLINE
  5
26A
330
1F
100
AcDbEntity
  8
1
100
AcDbSpline
210
0.0
220
0.0
230
1.0
 70
     8
 71
     3
 72
     8
 73
     4
 74
     0
 42
0.000000001
 43
0.00000001
 40
0.0
 40
0.0
 40
0.0
 40
0.0
 40
1.0
 40
1.0
 40
1.0
 40
1.0
 10
232.1975501047553
 20
157.0655266387989
 30
0.0
 10
232.4677289286841
 20
158.0386574359654
 30
0.0
 10
232.7379120165924
 20
159.0118092450979
 30
0.0
 10
233.0081026788391
 20
159.9849983798679
 30
0.0
  0
SPLINE
  5
26B
330
1F
100
AcDbEntity
  8
1
100
AcDbSpline
210
0.0
220
0.0
230
1.0
 70
     8
 71
     3
 72
     8
 73
     4
 74
     0
 42
0.000000001
 43
0.00000001
 40
0.0
 40
0.0
 40
0.0
 40
0.0
 40
1.0
 40
1.0
 40
1.0
 40
1.0
 10
232.9240826742018
 20
156.8638058638517
 30
0.0
 10
232.6819590418858
 20
156.9312659558935
 30
0.0
 10
232.4397815157846
 20
156.9985062021655
 30
0.0
 10
232.1975501047553
 20
157.0655266387989
 30
0.0
  0
SPLINE
  5
26C
330
1F
100
AcDbEntity
  8
1
100
AcDbSpline
210
0.0
220
0.0
230
1.0
 70
     8
 71
     3
 72
     8
 73
     4
 74
     0
 42
0.000000001
 43
0.00000001
 40
0.0
 40
0.0
 40
0.0
 40
0.0
 40
1.0
 40
1.0
 40
1.0
 40
1.0
 10
232.9240826742018
 20
156.8638058638517
 30
0.0
 10
233.1942793460869
 20
157.8369317055575
 30
0.0
 10
233.4644831971505
 20
158.8100777498284
 30
0.0
 10
233.7346998014646
 20
159.7832596818188
 30
0.0
  0
SPLINE
  5
26D
330
1F
100
AcDbEntity
  8
1
100
AcDbSpline
210
0.0
220
0.0
230
1.0
 70
     8
 71
     3
 72
     8
 73
     4
 74
     0
 42
0.000000001
 43
0.00000001
 40
0.0
 40
0.0
 40
0.0
 40
0.0
 40
1.0
 40
1.0
 40
1.0
 40
1.0
 10
228.6566542528493
 20
158.5641047521124
 30
0.0
 10
229.1297108018655
 20
159.456403831304
 30
0.0
 10
229.6027760321234
 20
160.3487225145841
 30
0.0
 10
230.0758566835444
 20
161.2410760225902
 30
0.0
  0
SPLINE
  5
26E
330
1F
100
AcDbEntity
  8
1
100
AcDbSpline
210
0.0
220
0.0
230
1.0
 70
     8
 71
     3
 72
     8
 73
     4
 74
     0
 42
0.000000001
 43
0.00000001
 40
0.0
 40
0.0
 40
0.0
 40
0.0
 40
1.0
 40
1.0
 40
1.0
 40
1.0
 10
229.3228368907735
 20
158.2109170705037
 30
0.0
 10
229.1008815447908
 20
158.3288464077754
 30
0.0
 10
228.8788206650686
 20
158.4465756341929
 30
0.0
 10
228.6566542528493
 20
158.5641047521124
 30
0.0
  0
SPLINE
  5
26F
330
1F
100
AcDbEntity
  8
1
100
AcDbSpline
210
0.0
220
0.0
230
1.0
 70
     8
 71
     3
 72
     8
 73
     4
 74
     0
 42
0.000000001
 43
0.00000001
 40
0.0
 40
0.0
 40
0.0
 40
0.0
 40
1.0
 40
1.0
 40
1.0
 40
1.0
 10
229.3228368907735
 20
158.2109170705037
 30
0.0
 10
229.7959098051931
 20
159.1032074733075
 30
0.0
 10
230.2689940739004
 20
159.9955160630406
 30
0.0
 10
230.742098512493
 20
160.8878569598863
 30
0.0
  0
SPLINE
  5
270
330
1F
100
AcDbEntity
  8
1
100
AcDbSpline
210
0.0
220
0.0
230
1.0
 70
     8
 71
     3
 72
     8
 73
     4
 74
     0
 42
0.000000001
 43
0.00000001
 40
0.0
 40
0.0
 40
0.0
 40
0.0
 40
1.0
 40
1.0
 40
1.0
 40
1.0
 10
255.0938269334716
 20
173.716807304403
 30
0.0
 10
254.0838862692702
 20
173.7167980428408
 30
0.0
 10
253.0739242182536
 20
173.7167872685398
 30
0.0
 10
252.0639241757693
 20
173.7167738068266
 30
0.0
  0
SPLINE
  5
271
330
1F
100
AcDbEntity
  8
1
100
AcDbSpline
210
0.0
220
0.0
230
1.0
 70
     8
 71
     3
 72
     8
 73
     4
 74
     0
 42
0.000000001
 43
0.00000001
 40
0.0
 40
0.0
 40
0.0
 40
0.0
 40
1.0
 40
1.0
 40
1.0
 40
1.0
 10
255.0938269334715
 20
174.4708237800266
 30
0.0
 10
255.093600701559
 20
174.2194849548187
 30
0.0
 10
255.093600701559
 20
173.9681461296109
 30
0.0
 10
255.0938269334715
 20
173.716807304403
 30
0.0
  0
SPLINE
  5
272
330
1F
100
AcDbEntity
  8
1
100
AcDbSpline
210
0.0
220
0.0
230
1.0
 70
     8
 71
     3
 72
     8
 73
     4
 74
     0
 42
0.000000001
 43
0.00000001
 40
0.0
 40
0.0
 40
0.0
 40
0.0
 40
1.0
 40
1.0
 40
1.0
 40
1.0
 10
255.0938269334716
 20
174.4708237800266
 30
0.0
 10
254.0838862692702
 20
174.4708330415887
 30
0.0
 10
253.0739242182536
 20
174.4708438158897
 30
0.0
 10
252.0639241757693
 20
174.470857277603
 30
0.0
  0
ELLIPSE
  5
273
330
1F
100
AcDbEntity
  8
1
100
AcDbEllipse
 10
252.4828562719
 20
136.0296367618
 30
0.0
 11
-20.62569278273673
 21
51.76658539812393
 31
0.0
210
0.0
220
0.0
230
1.0
 40
0.6777373855
 41
6.273201630507564
 42
6.293168983906406
  0
ELLIPSE
  5
274
330
1F
100
AcDbEntity
  8
1
100
AcDbEllipse
 10
243.9456056898
 20
133.6592874218
 30
0.0
 11
-9.015188858101427
 21
54.99021932807421
 31
0.0
210
0.0
220
0.0
230
1.0
 40
0.6777374245
 41
6.27320162994073
 42
6.293168984488395
  0
ELLIPSE
  5
275
330
1F
100
AcDbEntity
  8
1
100
AcDbEllipse
 10
235.0983969907
 20
133.1796003166
 30
0.0
 11
3.016853187443246
 21
55.6425830801158
 31
0.0
210
0.0
220
0.0
230
1.0
 40
0.6777373916
 41
6.273201630311634
 42
6.293168983889807
  0
ELLIPSE
  5
276
330
1F
100
AcDbEntity
  8
1
100
AcDbEllipse
 10
230.6877954652
 20
133.6592788524
 30
0.0
 11
9.015190261533093
 21
54.99022789757624
 31
0.0
210
0.0
220
0.0
230
1.0
 40
0.6777373717
 41
6.273201630631077
 42
6.293168983622968
  0
ELLIPSE
  5
277
330
1F
100
AcDbEntity
  8
1
100
AcDbEllipse
 10
214.322454194
 20
140.1798383355
 30
0.0
 11
31.27175629274219
 21
46.1223899342358
 31
0.0
210
0.0
220
0.0
230
1.0
 40
0.6777374385
 41
6.273201629478442
 42
6.293168984439325
  0
ELLIPSE
  5
278
330
1F
100
AcDbEntity
  8
1
100
AcDbEllipse
 10
210.7904868211
 20
142.8647416583
 30
0.0
 11
36.07516216380049
 21
42.47096419291037
 31
0.0
210
0.0
220
0.0
230
1.0
 40
0.6777373005
 41
6.273201631901299
 42
6.29316898279541
  0
ELLIPSE
  5
279
330
1F
100
AcDbEntity
  8
1
100
AcDbEllipse
 10
204.6973359178
 20
149.2972186785
 30
0.0
 11
44.36173808934322
 21
33.72291652668338
 31
0.0
210
0.0
220
0.0
230
1.0
 40
0.677737367
 41
6.273201631124562
 42
6.293168983978655
  0
ELLIPSE
  5
27A
330
1F
100
AcDbEntity
  8
1
100
AcDbEllipse
 10
200.1293628057
 20
156.8891207091
 30
0.0
 11
50.57407591674989
 21
23.39805907516643
 31
0.0
210
0.0
220
0.0
230
1.0
 40
0.6777369623
 41
6.27320163688886
 42
6.293168977818071
  0
ELLIPSE
  5
27B
330
1F
100
AcDbEntity
  8
1
100
AcDbEllipse
 10
197.3002622306
 20
165.2855312608
 30
0.0
 11
54.42159225083302
 21
11.97909825107348
 31
0.0
210
0.0
220
0.0
230
1.0
 40
0.6777368436
 41
6.273201639098823
 42
6.293168976532006
  0
ELLIPSE
  5
27C
330
1F
100
AcDbEntity
  8
1
100
AcDbEllipse
 10
263.8429049621
 20
142.8647542869
 30
0.0
 11
-36.07515136383532
 21
42.47095158483995
 31
0.0
210
0.0
220
0.0
230
1.0
 40
0.6777374015
 41
6.273201630916232
 42
6.293168984784636
  0
ELLIPSE
  5
27D
330
1F
100
AcDbEntity
  8
1
100
AcDbEllipse
 10
269.9360216188
 20
149.297252904
 30
0.0
 11
-44.36169306708712
 21
33.72288230093725
 31
0.0
210
0.0
220
0.0
230
1.0
 40
0.677737711
 41
6.273201625307311
 42
6.293168988293975
  0
ELLIPSE
  5
27E
330
1F
100
AcDbEntity
  8
1
100
AcDbEllipse
 10
274.5038922107
 20
156.8891889931
 30
0.0
 11
-50.57392838171538
 21
23.39799077474243
 31
0.0
210
0.0
220
0.0
230
1.0
 40
0.677737951
 41
6.273201621497611
 42
6.293168991554669
  0
ELLIPSE
  5
27F
330
1F
100
AcDbEntity
  8
1
100
AcDbEllipse
 10
277.3329559453
 20
165.2855717892
 30
0.0
 11
-54.42140785747364
 21
11.97905776911117
 31
0.0
210
0.0
220
0.0
230
1.0
 40
0.6777379917
 41
6.273201622175595
 42
6.293168993432116
  0
ELLIPSE
  5
280
330
1F
100
AcDbEntity
  8
1
100
AcDbEllipse
 10
278.0508767172
 20
169.6637070036
 30
0.0
 11
-55.39771030681092
 21
6.024864050244446
 31
0.0
210
0.0
220
0.0
230
1.0
 40
0.6777370184
 41
6.273201635616905
 42
6.293168978200724
  0
ELLIPSE
  5
281
330
1F
100
AcDbEntity
  8
1
100
AcDbEllipse
 10
276.1460960445
 20
161.010669161
 30
0.0
 11
-52.80727904140358
 21
17.79284394622599
 31
0.0
210
0.0
220
0.0
230
1.0
 40
0.6777376339
 41
6.273201626697547
 42
6.293168987412661
  0
ELLIPSE
  5
282
330
1F
100
AcDbEntity
  8
1
100
AcDbEllipse
 10
272.4258991925
 20
152.969311994
 30
0.0
 11
-47.74784123881119
 21
28.72892297924525
 31
0.0
210
0.0
220
0.0
230
1.0
 40
0.6777369058
 41
6.273201638712116
 42
6.293168977977058
  0
ELLIPSE
  5
283
330
1F
100
AcDbEntity
  8
1
100
AcDbEllipse
 10
267.0638947012
 20
145.9157771682
 30
0.0
 11
-40.45562692036523
 21
38.32160539972801
 31
0.0
210
0.0
220
0.0
230
1.0
 40
0.6777371332
 41
6.27320163447312
 42
6.2931689804394
  0
ELLIPSE
  5
284
330
1F
100
AcDbEntity
  8
1
100
AcDbEllipse
 10
260.3109219325
 20
140.1798773361
 30
0.0
 11
-31.27172986623594
 21
46.12235092949496
 31
0.0
210
0.0
220
0.0
230
1.0
 40
0.6777377251
 41
6.273201625504372
 42
6.293168988906387
  0
ELLIPSE
  5
285
330
1F
100
AcDbEntity
  8
1
100
AcDbEllipse
 10
196.5825574818
 20
169.6637103943
 30
0.0
 11
55.39767866223949
 21
6.024860701807512
 31
0.0
210
0.0
220
0.0
230
1.0
 40
0.6777372119
 41
6.273201632182048
 42
6.293168980466935
  0
ELLIPSE
  5
286
330
1F
100
AcDbEntity
  8
1
100
AcDbEllipse
 10
198.4872942121
 20
161.0106650352
 30
0.0
 11
52.80729134879604
 21
17.79284805729625
 31
0.0
210
0.0
220
0.0
230
1.0
 40
0.677737555
 41
6.273201628521242
 42
6.293168986911506
  0
ELLIPSE
  5
287
330
1F
100
AcDbEntity
  8
1
100
AcDbEllipse
 10
202.2075887792
 20
152.9693634364
 30
0.0
 11
47.74775584535655
 21
28.72887150483982
 31
0.0
210
0.0
220
0.0
230
1.0
 40
0.6777375121
 41
6.273201628438787
 42
6.293168985567712
  0
ELLIPSE
  5
288
330
1F
100
AcDbEntity
  8
1
100
AcDbEllipse
 10
207.5695553407
 20
145.915822222
 30
0.0
 11
40.45557946958946
 21
38.32156031194387
 31
0.0
210
0.0
220
0.0
230
1.0
 40
0.6777375313
 41
6.27320162929247
 42
6.293168986986124
  0
ELLIPSE
  5
289
330
1F
100
AcDbEntity
  8
1
100
AcDbEllipse
 10
218.1239990414
 20
137.892538805
 30
0.0
 11
26.10172674214303
 21
49.23307939077555
 31
0.0
210
0.0
220
0.0
230
1.0
 40
0.6777375122
 41
6.273201628726707
 42
6.293168985857232
  0
ELLIPSE
  5
28A
330
1F
100
AcDbEntity
  8
1
100
AcDbEllipse
 10
222.1505412634
 20
136.0296241084
 30
0.0
 11
20.6256977932419
 21
51.76659805678258
 31
0.0
210
0.0
220
0.0
230
1.0
 40
0.6777373027
 41
6.273201631297685
 42
6.293168982257316
  0
ELLIPSE
  5
28B
330
1F
100
AcDbEntity
  8
1
100
AcDbEllipse
 10
226.3549102539
 20
134.6130124837
 30
0.0
 11
14.90783403095466
 21
53.69316544481259
 31
0.0
210
0.0
220
0.0
230
1.0
 40
0.6777373329
 41
6.273201631585956
 42
6.293168983434359
  0
ELLIPSE
  5
28C
330
1F
100
AcDbEntity
  8
1
100
AcDbEllipse
 10
239.5350051125
 20
133.1796087703
 30
0.0
 11
-3.016852733884719
 21
55.64257462622903
 31
0.0
210
0.0
220
0.0
230
1.0
 40
0.6777374431
 41
6.273201629652725
 42
6.293168984747692
  0
ELLIPSE
  5
28D
330
1F
100
AcDbEntity
  8
1
100
AcDbEllipse
 10
248.2784879714
 20
134.6130279947
 30
0.0
 11
-14.90782967578224
 21
53.69314993973733
 31
0.0
210
0.0
220
0.0
230
1.0
 40
0.6777374308
 41
6.273201630070518
 42
6.293168984804361
  0
ELLIPSE
  5
28E
330
1F
100
AcDbEntity
  8
1
100
AcDbEllipse
 10
256.5093939426
 20
137.8925568405
 30
0.0
 11
-26.101717158398
 21
49.23306135997759
 31
0.0
210
0.0
220
0.0
230
1.0
 40
0.6777376364
 41
6.273201626935158
 42
6.293168987724099
  0
ELLIPSE
  5
28F
330
1F
100
AcDbEntity
  8
1
100
AcDbEllipse
 10
278.2910772635
 20
174.0938155422
 30
0.0
 11
55.72437598400631
 21
0.0
 31
0.0
210
0.0
220
0.0
230
1.0
 40
0.6777369756
 41
3.131608982928689
 42
3.151576324250918
  0
ELLIPSE
  5
290
330
1F
100
AcDbEntity
  8
1
100
AcDbEllipse
 10
252.4828513897
 20
212.1579820507
 30
0.0
 11
20.62568790583077
 21
51.76657312404576
 31
0.0
210
0.0
220
0.0
230
1.0
 40
0.6777374658
 41
3.131608975832737
 42
3.151576331597901
  0
ELLIPSE
  5
291
330
1F
100
AcDbEntity
  8
1
100
AcDbEllipse
 10
243.9456047045
 20
214.5283377157
 30
0.0
 11
9.015187864305801
 21
54.99021338253699
 31
0.0
210
0.0
220
0.0
230
1.0
 40
0.6777374612
 41
3.131608975512053
 42
3.151576331139776
  0
ELLIPSE
  5
292
330
1F
100
AcDbEntity
  8
1
100
AcDbEllipse
 10
235.098396558
 20
215.0080383927
 30
0.0
 11
-3.016853636609653
 21
55.64259070404123
 31
0.0
210
0.0
220
0.0
230
1.0
 40
0.6777373452
 41
3.131608977128829
 42
3.15157632933876
  0
ELLIPSE
  5
293
330
1F
100
AcDbEntity
  8
1
100
AcDbEllipse
 10
230.687795014
 20
214.5283549987
 30
0.0
 11
-9.015190710733094
 21
54.99023066462392
 31
0.0
210
0.0
220
0.0
230
1.0
 40
0.6777373547
 41
3.131608977450773
 42
3.151576329940436
  0
ELLIPSE
  5
294
330
1F
100
AcDbEntity
  8
1
100
AcDbEllipse
 10
214.322462071
 20
208.0077810643
 30
0.0
 11
-31.27174844205354
 21
46.12237823166009
 31
0.0
210
0.0
220
0.0
230
1.0
 40
0.6777375242
 41
3.131608974223577
 42
3.151576331709196
  0
ELLIPSE
  5
295
330
1F
100
AcDbEntity
  8
1
100
AcDbEllipse
 10
210.7905105758
 20
205.3228614663
 30
0.0
 11
-36.07513840637313
 21
42.47093623542555
 31
0.0
210
0.0
220
0.0
230
1.0
 40
0.6777375236
 41
3.131608974781276
 42
3.151576332248558
  0
ELLIPSE
  5
296
330
1F
100
AcDbEntity
  8
1
100
AcDbEllipse
 10
204.6973164082
 20
198.890427288
 30
0.0
 11
-44.36175757793734
 21
33.7229314363513
 31
0.0
210
0.0
220
0.0
230
1.0
 40
0.6777372178
 41
3.131608979906925
 42
3.151576328364891
  0
ELLIPSE
  5
297
330
1F
100
AcDbEntity
  8
1
100
AcDbEllipse
 10
200.1293862014
 20
191.2984995669
 30
0.0
 11
-50.57405251590087
 21
23.39804827769976
 31
0.0
210
0.0
220
0.0
230
1.0
 40
0.677737119
 41
3.13160898096184
 42
3.151576326508477
  0
ELLIPSE
  5
298
330
1F
100
AcDbEntity
  8
1
100
AcDbEllipse
 10
197.3004743031
 20
182.9020531517
 30
0.0
 11
-54.42138017675623
 21
11.97905158624945
 31
0.0
210
0.0
220
0.0
230
1.0
 40
0.6777381641
 41
3.131608964977505
 42
3.151576341315545
  0
ELLIPSE
  5
299
330
1F
100
AcDbEntity
  8
1
100
AcDbEllipse
 10
263.8429357448
 20
205.3229130679
 30
0.0
 11
36.07518213384236
 21
42.47098786599964
 31
0.0
210
0.0
220
0.0
230
1.0
 40
0.6777371122
 41
3.131608979806126
 42
3.151576325151412
  0
ELLIPSE
  5
29A
330
1F
100
AcDbEntity
  8
1
100
AcDbEllipse
 10
269.9360208032
 20
198.890377612
 30
0.0
 11
44.3616922304028
 21
33.72288176021484
 31
0.0
210
0.0
220
0.0
230
1.0
 40
0.677737717
 41
3.131608971463664
 42
3.151576334628226
  0
ELLIPSE
  5
29B
330
1F
100
AcDbEntity
  8
1
100
AcDbEllipse
 10
274.5039447473
 20
191.2984664108
 30
0.0
 11
50.57398091391389
 21
23.39801510359359
 31
0.0
210
0.0
220
0.0
230
1.0
 40
0.6777375989
 41
3.131608974126272
 42
3.1515763338112
  0
ELLIPSE
  5
29C
330
1F
100
AcDbEntity
  8
1
100
AcDbEllipse
 10
277.3330934483
 20
182.9020895852
 30
0.0
 11
54.42154535626338
 21
11.97908807793561
 31
0.0
210
0.0
220
0.0
230
1.0
 40
0.6777371354
 41
3.131608979439026
 42
3.151576325469375
  0
ELLIPSE
  5
29D
330
1F
100
AcDbEntity
  8
1
100
AcDbEllipse
 10
278.0507667979
 20
178.5239120987
 30
0.0
 11
55.39760039007995
 21
6.024852044714208
 31
0.0
210
0.0
220
0.0
230
1.0
 40
0.6777376908
 41
3.131608973284631
 42
3.151576335678612
  0
ELLIPSE
  5
29E
330
1F
100
AcDbEntity
  8
1
100
AcDbEllipse
 10
276.1460924143
 20
187.1769607068
 30
0.0
 11
52.80727540954661
 21
17.79284273457165
 31
0.0
210
0.0
220
0.0
230
1.0
 40
0.6777376571
 41
3.131608972874737
 42
3.15157633427584
  0
ELLIPSE
  5
29F
330
1F
100
AcDbEntity
  8
1
100
AcDbEllipse
 10
272.4257776905
 20
195.2182459225
 30
0.0
 11
47.74771976028853
 21
28.72884977224766
 31
0.0
210
0.0
220
0.0
230
1.0
 40
0.6777377683
 41
3.13160897129354
 42
3.151576335969624
  0
ELLIPSE
  5
2A0
330
1F
100
AcDbEntity
  8
1
100
AcDbEllipse
 10
267.0638901574
 20
202.271849587
 30
0.0
 11
40.45562238725529
 21
38.32160105917004
 31
0.0
210
0.0
220
0.0
230
1.0
 40
0.6777371714
 41
3.131608980178906
 42
3.151576327269749
  0
ELLIPSE
  5
2A1
330
1F
100
AcDbEntity
  8
1
100
AcDbEllipse
 10
260.3109786036
 20
208.0078373313
 30
0.0
 11
31.27178653769249
 21
46.12243451227172
 31
0.0
210
0.0
220
0.0
230
1.0
 40
0.6777371109
 41
3.131608980918642
 42
3.151576326228078
  0
ELLIPSE
  5
2A2
330
1F
100
AcDbEntity
  8
1
100
AcDbEllipse
 10
196.5824630124
 20
178.5239309656
 30
0.0
 11
-55.3977731315185
 21
6.02487097838258
 31
0.0
210
0.0
220
0.0
230
1.0
 40
0.6777366341
 41
3.131608988844299
 42
3.151576320104077
  0
ELLIPSE
  5
2A3
330
1F
100
AcDbEntity
  8
1
100
AcDbEllipse
 10
198.4870917269
 20
187.1770343198
 30
0.0
 11
-52.80749382236877
 21
17.79291636243494
 31
0.0
210
0.0
220
0.0
230
1.0
 40
0.6777362555
 41
3.131608993966386
 42
3.151576314072396
  0
ELLIPSE
  5
2A4
330
1F
100
AcDbEntity
  8
1
100
AcDbEllipse
 10
202.2076153194
 20
195.2182516311
 30
0.0
 11
-47.74772932320638
 21
28.72885545794596
 31
0.0
210
0.0
220
0.0
230
1.0
 40
0.6777377007
 41
3.131608971496748
 42
3.151576334179572
  0
ELLIPSE
  5
2A5
330
1F
100
AcDbEntity
  8
1
100
AcDbEllipse
 10
207.5695351579
 20
202.2718280549
 30
0.0
 11
-40.45559962086151
 21
38.32157953772792
 31
0.0
210
0.0
220
0.0
230
1.0
 40
0.6777373619
 41
3.131608977492215
 42
3.15157633019596
  0
ELLIPSE
  5
2A6
330
1F
100
AcDbEntity
  8
1
100
AcDbEllipse
 10
218.1239833579
 20
210.2951218868
 30
0.0
 11
-26.10174241687139
 21
49.23310900284863
 31
0.0
210
0.0
220
0.0
230
1.0
 40
0.6777373084
 41
3.131608978177849
 42
3.151576329305651
  0
ELLIPSE
  5
2A7
330
1F
100
AcDbEntity
  8
1
100
AcDbEllipse
 10
222.1505358345
 20
212.1580204717
 30
0.0
 11
-20.62570326015745
 21
51.7666115372198
 31
0.0
210
0.0
220
0.0
230
1.0
 40
0.6777372143
 41
3.131608978732549
 42
3.151576327086056
  0
ELLIPSE
  5
2A8
330
1F
100
AcDbEntity
  8
1
100
AcDbEllipse
 10
226.3549173078
 20
213.5745932726
 30
0.0
 11
-14.90782696010265
 21
53.69314012138298
 31
0.0
210
0.0
220
0.0
230
1.0
 40
0.6777374928
 41
3.131608975446577
 42
3.151576332005579
  0
ELLIPSE
  5
2A9
330
1F
100
AcDbEntity
  8
1
100
AcDbEllipse
 10
239.5350051296
 20
215.0080226627
 30
0.0
 11
3.016852749419854
 21
55.64257497488066
 31
0.0
210
0.0
220
0.0
230
1.0
 40
0.677737441
 41
3.131608976012051
 42
3.151576331044518
  0
ELLIPSE
  5
2AA
330
1F
100
AcDbEntity
  8
1
100
AcDbEllipse
 10
248.2784879714
 20
213.5746030897
 30
0.0
 11
14.90782967578229
 21
53.69314993973736
 31
0.0
210
0.0
220
0.0
230
1.0
 40
0.6777374308
 41
3.131608975965019
 42
3.151576330698903
  0
ELLIPSE
  5
2AB
330
1F
100
AcDbEntity
  8
1
100
AcDbEllipse
 10
256.5094396665
 20
210.2951604899
 30
0.0
 11
26.10176288176774
 21
49.23314760615492
 31
0.0
210
0.0
220
0.0
230
1.0
 40
0.6777370427
 41
3.131608981774249
 42
3.151576325073928
  0
ELLIPSE
  5
2AC
330
1F
100
AcDbEntity
  8
1
100
AcDbEllipse
 10
196.3424778677
 20
174.0938155422
 30
0.0
 11
55.72422341177028
 21
0.0
 31
0.0
210
0.0
220
0.0
230
1.0
 40
0.6777379034
 41
6.273201622850765
 42
6.293168991508428
  0
HATCH
  5
2AD
330
1F
100
AcDbEntity
  8
COTAS
 62
     2
420
 16776960
100
AcDbHatch
 10
0.0
 20
0.0
 30
0.0
210
0.0
220
0.0
230
1.0
  2
ANSI31
 70
     0
 71
     0
 91
        1
 92
        0
 93
        1
 72
     2
 10
237.3167012795085
 20
174.0938155422149
 40
3.000000000000003
 50
0.0
 51
360.0
 73
     1
 97
        0
 75
     0
 76
     1
 52
0.0
 41
1.0
 77
     0
 78
     1
 53
45.0
 43
0.0
 44
0.0
 45
-2.245064030267288
 46
2.245064030267288
 79
     0
 98
        1
 10
0.0
 20
0.0
  0
HATCH
  5
2AE
330
1F
100
AcDbEntity
  8
COTAS
100
AcDbHatch
 10
0.0
 20
0.0
 30
0.0
210
0.0
220
0.0
230
1.0
  2
ANSI31
 70
     0
 71
     0
 91
        1
 92
        0
 93
        4
 72
     1
 10
113.7710044902651
 20
240.6586302475117
 11
39.10835025824827
 21
240.6586302475117
 72
     1
 10
39.10835025824827
 20
240.6586302475117
 11
39.10835025824838
 21
230.6586302475117
 72
     1
 10
39.10835025824838
 20
230.6586302475117
 11
113.7710044902651
 21
230.6586302475117
 72
     1
 10
113.7710044902651
 20
230.6586302475117
 11
113.7710044902651
 21
240.6586302475117
 97
        0
 75
     0
 76
     1
 52
0.0
 41
1.0
 77
     0
 78
     1
 53
45.0
 43
0.0
 44
0.0
 45
-2.245064030267288
 46
2.245064030267288
 79
     0
 98
        1
 10
0.0
 20
0.0
  0
HATCH
  5
2AF
330
1F
100
AcDbEntity
  8
COTAS
100
AcDbHatch
 10
0.0
 20
0.0
 30
0.0
210
0.0
220
0.0
230
1.0
  2
ANSI31
 70
     0
 71
     0
 91
        1
 92
        0
 93
        4
 72
     1
 10
265.2293152539045
 20
240.6586302475116
 11
150.5666610218876
 21
240.6586302475116
 72
     1
 10
150.5666610218876
 20
240.6586302475116
 11
150.5666610218877
 21
230.6586302475116
 72
     1
 10
150.5666610218877
 20
230.6586302475116
 11
265.2293152539045
 21
230.6586302475116
 72
     1
 10
265.2293152539045
 20
230.6586302475116
 11
265.2293152539045
 21
240.6586302475116
 97
        0
 75
     0
 76
     1
 52
0.0
 41
1.0
 77
     0
 78
     1
 53
45.0
 43
0.0
 44
0.0
 45
-2.245064030267288
 46
2.245064030267288
 79
     0
 98
        1
 10
0.0
 20
0.0
  0
DIMENSION
  5
2B0
330
1F
100
AcDbEntity
  8
COTAS
100
AcDbDimension
  2
_D
 10
140.5659512743
 20
230.6586302475
 30
0.0
 11
140.5659512743
 21
195.5586302475
 31
0.0
 70
   160
  1
<>
 71
     2
 42
-1.0
 73
     0
 74
     0
 75
     0
  3
SLDDIMSTYLE0
100
AcDbAlignedDimension
 13
174.5666610219
 23
160.4586302475
 33
0.0
 14
150.5666610219
 24
230.6586302475
 34
0.0
 50
90.0
100
AcDbRotatedDimension
  0
DIMENSION
  5
2C0
330
1F
100
AcDbEntity
  8
COTAS
100
AcDbDimension
  2
_D_1
 10
174.3166610219
 20
149.9712552853
 30
0.0
 11
194.1916610219
 21
149.9712552853
 31
0.0
 70
   160
  1
Ø<>
 71
     2
 42
-1.0
 73
     0
 74
     0
 75
     0
  3
SLDDIMSTYLE0
100
AcDbAlignedDimension
 13
214.0666610219
 23
160.7086302475
 33
0.0
 14
174.3166610219
 24
160.7086302475
 34
0.0
100
AcDbRotatedDimension
  0
DIMENSION
  5
2CA
330
1F
100
AcDbEntity
  8
COTAS
100
AcDbDimension
  2
_D_2
 10
174.3166610219
 20
140.9574978487
 30
0.0
 11
216.3166811507
 21
140.9574978487
 31
0.0
 70
   160
  1
<>
 71
     2
 42
-1.0
 73
     0
 74
     0
 75
     0
  3
SLDDIMSTYLE0
100
AcDbAlignedDimension
 13
258.3167012795
 23
174.0938155422
 33
0.0
 14
174.3166610219
 24
160.7086302475
 34
0.0
 50
0.0
100
AcDbRotatedDimension
  0
MTEXT
  5
2D4
330
1F
100
AcDbEntity
  8
TEXTO
100
AcDbMText
 10
196.2968932475
 20
38.7700413591
 30
0.0
 40
8.0
 41
0.0
 46
0.0
 71
     1
 72
     1
  1
IO SURFACE
  7
SLDTEXTSTYLE0
 73
     1
 44
1.0
  0
INSERT
  5
2DA
330
1F
100
AcDbEntity
  8
TEXTO
100
AcDbBlockReference
  2
SW_NOTE_0
 10
75.887239167
 20
20.2295086439
 30
0.0
  0
INSERT
  5
2E0
330
1F
100
AcDbEntity
  8
TEXTO
100
AcDbBlockReference
  2
SW_NOTE_1
 10
115.3587052383
 20
20.505759856
 30
0.0
  0
ENDSEC
  0
SECTION
  2
OBJECTS
  0
DICTIONARY
  5
C
330
0
100
AcDbDictionary
281
     1
  3
ACAD_DETAILVIEWSTYLE
350
2E9
  3
ACAD_GROUP
350
D
  3
ACAD_LAYOUT
350
1A
  3
ACAD_MATERIAL
350
43
  3
ACAD_MLEADERSTYLE
350
6B
  3
ACAD_MLINESTYLE
350
17
  3
ACAD_PLOTSETTINGS
350
19
  3
ACAD_PLOTSTYLENAME
350
E
  3
ACAD_SCALELIST
350
47
  3
ACAD_SECTIONVIEWSTYLE
350
2EA
  3
ACAD_TABLESTYLE
350
69
  3
ACAD_VISUALSTYLE
350
2A
  3
ACDB_RECOMPOSE_DATA
350
2E6
  3
AcDbVariableDictionary
350
2E1
  0
SUN
  5
6D
330
29
100
AcDbSun
 90
        1
290
     0
 63
     7
421
 16777215
 40
1.0
291
     1
 91
  2455826
 92
 54000000
292
     0
 70
     2
 71
   256
280
     1
  0
DICTIONARY
  5
2E9
102
{ACAD_REACTORS
330
C
102
}
330
C
100
AcDbDictionary
281
     1
  0
DICTIONARY
  5
D
102
{ACAD_REACTORS
330
C
102
}
330
C
100
AcDbDictionary
281
     1
  0
DICTIONARY
  5
1A
102
{ACAD_REACTORS
330
C
102
}
330
C
100
AcDbDictionary
281
     1
  3
Layout1
350
1E
  3
Layout2
350
26
  3
Model
350
22
  0
DICTIONARY
  5
43
102
{ACAD_REACTORS
330
C
102
}
330
C
100
AcDbDictionary
281
     1
  3
ByBlock
350
45
  3
ByLayer
350
44
  3
Global
350
46
  0
DICTIONARY
  5
6B
102
{ACAD_REACTORS
330
C
102
}
330
C
100
AcDbDictionary
281
     1
  3
Standard
350
6C
  0
DICTIONARY
  5
17
102
{ACAD_REACTORS
330
C
102
}
330
C
100
AcDbDictionary
281
     1
  3
Standard
350
18
  0
DICTIONARY
  5
19
102
{ACAD_REACTORS
330
C
102
}
330
C
100
AcDbDictionary
281
     1
  0
ACDBDICTIONARYWDFLT
  5
E
102
{ACAD_REACTORS
330
C
102
}
330
C
100
AcDbDictionary
281
     1
  3
Normal
350
F
100
AcDbDictionaryWithDefault
340
F
  0
DICTIONARY
  5
47
102
{ACAD_REACTORS
330
C
102
}
330
C
100
AcDbDictionary
281
     1
  3
A0
350
48
  3
A1
350
49
  3
A2
350
4A
  3
A3
350
4B
  3
A4
350
4C
  3
A5
350
4D
  3
A6
350
4E
  3
A7
350
4F
  3
A8
350
50
  3
A9
350
51
  3
B0
350
52
  3
B1
350
53
  3
B2
350
54
  3
B3
350
55
  3
B4
350
56
  3
B5
350
57
  3
B6
350
58
  3
B7
350
59
  3
B8
350
5A
  3
B9
350
5B
  3
C0
350
5C
  3
C1
350
5D
  3
C2
350
5E
  3
C3
350
5F
  3
C4
350
60
  3
C5
350
61
  3
C6
350
62
  3
C7
350
63
  3
C8
350
64
  3
C9
350
65
  3
D0
350
66
  3
D1
350
67
  3
D2
350
68
  0
DICTIONARY
  5
2EA
102
{ACAD_REACTORS
330
C
102
}
330
C
100
AcDbDictionary
281
     1
  0
DICTIONARY
  5
69
102
{ACAD_REACTORS
330
C
102
}
330
C
100
AcDbDictionary
281
     1
  3
Standard
350
6A
  0
DICTIONARY
  5
2A
102
{ACAD_REACTORS
330
C
102
}
330
C
100
AcDbDictionary
281
     1
  3
2dWireframe
350
2F
  3
Basic
350
32
  3
Brighten
350
36
  3
ColorChange
350
3A
  3
Conceptual
350
34
  3
Dim
350
35
  3
EdgeColorOff
350
3D
  3
Facepattern
350
39
  3
Flat
350
2B
  3
FlatWithEdges
350
2C
  3
Gouraud
350
2D
  3
GouraudWithEdges
350
2E
  3
Hidden
350
31
  3
JitterOff
350
3B
  3
Linepattern
350
38
  3
OverhangOff
350
3C
  3
Realistic
350
33
  3
Shaded
350
42
  3
Shaded with edges
350
41
  3
Shades of Gray
350
3E
  3
Sketchy
350
3F
  3
Thicken
350
37
  3
Wireframe
350
30
  3
X-Ray
350
40
  0
XRECORD
  5
2E6
102
{ACAD_REACTORS
330
C
102
}
330
C
100
AcDbXrecord
280
     1
 90
        1
330
6A
  0
DICTIONARY
  5
2E1
102
{ACAD_REACTORS
330
C
102
}
330
C
100
AcDbDictionary
281
     1
  3
CANNOSCALE
350
2E2
  3
CMLEADERSTYLE
350
2E8
  3
CTABLESTYLE
350
2E7
  0
LAYOUT
  5
1E
102
{ACAD_REACTORS
330
1A
102
}
330
1A
100
AcDbPlotSettings
  1

  2
none_device
  4

  6

 40
0.0
 41
0.0
 42
0.0
 43
0.0
 44
0.0
 45
0.0
 46
0.0
 47
0.0
 48
0.0
 49
0.0
140
0.0
141
0.0
142
1.0
143
1.0
 70
   688
 72
     1
 73
     0
 74
     5
  7

 75
    16
 76
     0
 77
     2
 78
   300
147
1.0
148
0.0
149
0.0
100
AcDbLayout
  1
Layout1
 70
     1
 71
     1
 10
0.0
 20
0.0
 11
420.0
 21
297.0
 12
0.0
 22
0.0
 32
0.0
 14
1.0000000000E+20
 24
1.0000000000E+20
 34
1.0000000000E+20
 15
-1.0000000000E+20
 25
-1.0000000000E+20
 35
-1.0000000000E+20
146
0.0
 13
0.0
 23
0.0
 33
0.0
 16
1.0
 26
0.0
 36
0.0
 17
0.0
 27
1.0
 37
0.0
 76
     0
330
1B
  0
LAYOUT
  5
26
102
{ACAD_REACTORS
330
1A
102
}
330
1A
100
AcDbPlotSettings
  1

  2
none_device
  4

  6

 40
0.0
 41
0.0
 42
0.0
 43
0.0
 44
0.0
 45
0.0
 46
0.0
 47
0.0
 48
0.0
 49
0.0
140
0.0
141
0.0
142
1.0
143
1.0
 70
   688
 72
     1
 73
     0
 74
     5
  7

 75
    16
 76
     0
 77
     2
 78
   300
147
1.0
148
0.0
149
0.0
100
AcDbLayout
  1
Layout2
 70
     1
 71
     2
 10
0.0
 20
0.0
 11
0.0
 21
0.0
 12
0.0
 22
0.0
 32
0.0
 14
0.0
 24
0.0
 34
0.0
 15
0.0
 25
0.0
 35
0.0
146
0.0
 13
0.0
 23
0.0
 33
0.0
 16
1.0
 26
0.0
 36
0.0
 17
0.0
 27
1.0
 37
0.0
 76
     0
330
23
  0
LAYOUT
  5
22
102
{ACAD_REACTORS
330
1A
102
}
330
1A
100
AcDbPlotSettings
  1

  2
none_device
  4
Letter_(8.50_x_11.00_Inches)
  6

 40
6.35
 41
6.35
 42
6.35000508
 43
6.35000508
 44
215.9
 45
279.4
 46
0.0
 47
0.0
 48
0.0
 49
0.0
140
0.0
141
0.0
142
1.0
143
1.0
 70
  1712
 72
     1
 73
     0
 74
     0
  7

 75
     0
 76
     0
 77
     2
 78
   300
147
1.0
148
0.0
149
0.0
100
AcDbLayout
  1
Model
 70
     1
 71
     0
 10
0.0
 20
0.0
 11
290.0
 21
270.0
 12
0.0
 22
0.0
 32
0.0
 14
0.0
 24
0.0
 34
0.0
 15
290.0
 25
270.0
 35
0.0
146
0.0
 13
0.0
 23
0.0
 33
0.0
 16
1.0
 26
0.0
 36
0.0
 17
0.0
 27
1.0
 37
0.0
 76
     0
330
1F
331
29
  0
MATERIAL
  5
45
102
{ACAD_REACTORS
330
43
102
}
330
43
100
AcDbMaterial
  1
ByBlock
 72
     1
 94
      127
  0
MATERIAL
  5
44
102
{ACAD_REACTORS
330
43
102
}
330
43
100
AcDbMaterial
  1
ByLayer
 72
     1
 94
      127
  0
MATERIAL
  5
46
102
{ACAD_REACTORS
330
43
102
}
330
43
100
AcDbMaterial
  1
Global
 72
     1
 94
      127
  0
MLEADERSTYLE
  5
6C
102
{ACAD_REACTORS
330
6B
102
}
330
6B
100
AcDbMLeaderStyle
170
     2
171
     1
172
     0
 90
        2
 40
0.0
 41
0.0
173
     1
 91
-1056964608
340
14
 92
       -2
290
     1
 42
2.0
291
     1
 43
8.0
  3
Standard
341
0
 44
4.0
300

342
11
174
     1
178
     6
175
     1
176
     0
 93
-1056964608
 45
4.0
292
     0
297
     0
 46
4.0
343
0
 94
-1056964608
 47
1.0
 49
1.0
140
1.0
293
     1
141
0.0
294
     1
177
     0
142
1.0
295
     0
296
     0
143
3.75
1001
ACAD_MLEADERVER
1070
     2
  0
MLINESTYLE
  5
18
102
{ACAD_REACTORS
330
17
102
}
330
17
100
AcDbMlineStyle
  2
Standard
 70
     0
  3

 62
   256
 51
90.0
 52
90.0
 71
     2
 49
0.5
 62
   256
  6
BYLAYER
 49
-0.5
 62
   256
  6
BYLAYER
  0
ACDBPLACEHOLDER
  5
F
102
{ACAD_REACTORS
330
E
102
}
330
E
  0
SCALE
  5
48
102
{ACAD_REACTORS
330
47
102
}
330
47
100
AcDbScale
 70
     0
300
1:1
140
1.0
141
1.0
290
     1
  0
SCALE
  5
49
102
{ACAD_REACTORS
330
47
102
}
330
47
100
AcDbScale
 70
     0
300
1:2
140
1.0
141
2.0
290
     0
  0
SCALE
  5
4A
102
{ACAD_REACTORS
330
47
102
}
330
47
100
AcDbScale
 70
     0
300
1:4
140
1.0
141
4.0
290
     0
  0
SCALE
  5
4B
102
{ACAD_REACTORS
330
47
102
}
330
47
100
AcDbScale
 70
     0
300
1:5
140
1.0
141
5.0
290
     0
  0
SCALE
  5
4C
102
{ACAD_REACTORS
330
47
102
}
330
47
100
AcDbScale
 70
     0
300
1:8
140
1.0
141
8.0
290
     0
  0
SCALE
  5
4D
102
{ACAD_REACTORS
330
47
102
}
330
47
100
AcDbScale
 70
     0
300
1:10
140
1.0
141
10.0
290
     0
  0
SCALE
  5
4E
102
{ACAD_REACTORS
330
47
102
}
330
47
100
AcDbScale
 70
     0
300
1:16
140
1.0
141
16.0
290
     0
  0
SCALE
  5
4F
102
{ACAD_REACTORS
330
47
102
}
330
47
100
AcDbScale
 70
     0
300
1:20
140
1.0
141
20.0
290
     0
  0
SCALE
  5
50
102
{ACAD_REACTORS
330
47
102
}
330
47
100
AcDbScale
 70
     0
300
1:30
140
1.0
141
30.0
290
     0
  0
SCALE
  5
51
102
{ACAD_REACTORS
330
47
102
}
330
47
100
AcDbScale
 70
     0
300
1:40
140
1.0
141
40.0
290
     0
  0
SCALE
  5
52
102
{ACAD_REACTORS
330
47
102
}
330
47
100
AcDbScale
 70
     0
300
1:50
140
1.0
141
50.0
290
     0
  0
SCALE
  5
53
102
{ACAD_REACTORS
330
47
102
}
330
47
100
AcDbScale
 70
     0
300
1:100
140
1.0
141
100.0
290
     0
  0
SCALE
  5
54
102
{ACAD_REACTORS
330
47
102
}
330
47
100
AcDbScale
 70
     0
300
2:1
140
2.0
141
1.0
290
     0
  0
SCALE
  5
55
102
{ACAD_REACTORS
330
47
102
}
330
47
100
AcDbScale
 70
     0
300
4:1
140
4.0
141
1.0
290
     0
  0
SCALE
  5
56
102
{ACAD_REACTORS
330
47
102
}
330
47
100
AcDbScale
 70
     0
300
8:1
140
8.0
141
1.0
290
     0
  0
SCALE
  5
57
102
{ACAD_REACTORS
330
47
102
}
330
47
100
AcDbScale
 70
     0
300
10:1
140
10.0
141
1.0
290
     0
  0
SCALE
  5
58
102
{ACAD_REACTORS
330
47
102
}
330
47
100
AcDbScale
 70
     0
300
100:1
140
100.0
141
1.0
290
     0
  0
SCALE
  5
59
102
{ACAD_REACTORS
330
47
102
}
330
47
100
AcDbScale
 70
     0
300
1/128" = 1'-0"
140
0.0078125
141
12.0
290
     0
  0
SCALE
  5
5A
102
{ACAD_REACTORS
330
47
102
}
330
47
100
AcDbScale
 70
     0
300
1/64" = 1'-0"
140
0.015625
141
12.0
290
     0
  0
SCALE
  5
5B
102
{ACAD_REACTORS
330
47
102
}
330
47
100
AcDbScale
 70
     0
300
1/32" = 1'-0"
140
0.03125
141
12.0
290
     0
  0
SCALE
  5
5C
102
{ACAD_REACTORS
330
47
102
}
330
47
100
AcDbScale
 70
     0
300
1/16" = 1'-0"
140
0.0625
141
12.0
290
     0
  0
SCALE
  5
5D
102
{ACAD_REACTORS
330
47
102
}
330
47
100
AcDbScale
 70
     0
300
3/32" = 1'-0"
140
0.09375
141
12.0
290
     0
  0
SCALE
  5
5E
102
{ACAD_REACTORS
330
47
102
}
330
47
100
AcDbScale
 70
     0
300
1/8" = 1'-0"
140
0.125
141
12.0
290
     0
  0
SCALE
  5
5F
102
{ACAD_REACTORS
330
47
102
}
330
47
100
AcDbScale
 70
     0
300
3/16" = 1'-0"
140
0.1875
141
12.0
290
     0
  0
SCALE
  5
60
102
{ACAD_REACTORS
330
47
102
}
330
47
100
AcDbScale
 70
     0
300
1/4" = 1'-0"
140
0.25
141
12.0
290
     0
  0
SCALE
  5
61
102
{ACAD_REACTORS
330
47
102
}
330
47
100
AcDbScale
 70
     0
300
3/8" = 1'-0"
140
0.375
141
12.0
290
     0
  0
SCALE
  5
62
102
{ACAD_REACTORS
330
47
102
}
330
47
100
AcDbScale
 70
     0
300
1/2" = 1'-0"
140
0.5
141
12.0
290
     0
  0
SCALE
  5
63
102
{ACAD_REACTORS
330
47
102
}
330
47
100
AcDbScale
 70
     0
300
3/4" = 1'-0"
140
0.75
141
12.0
290
     0
  0
SCALE
  5
64
102
{ACAD_REACTORS
330
47
102
}
330
47
100
AcDbScale
 70
     0
300
1" = 1'-0"
140
1.0
141
12.0
290
     0
  0
SCALE
  5
65
102
{ACAD_REACTORS
330
47
102
}
330
47
100
AcDbScale
 70
     0
300
1-1/2" = 1'-0"
140
1.5
141
12.0
290
     0
  0
SCALE
  5
66
102
{ACAD_REACTORS
330
47
102
}
330
47
100
AcDbScale
 70
     0
300
3" = 1'-0"
140
3.0
141
12.0
290
     0
  0
SCALE
  5
67
102
{ACAD_REACTORS
330
47
102
}
330
47
100
AcDbScale
 70
     0
300
6" = 1'-0"
140
6.0
141
12.0
290
     0
  0
SCALE
  5
68
102
{ACAD_REACTORS
330
47
102
}
330
47
100
AcDbScale
 70
     0
300
1'-0" = 1'-0"
140
12.0
141
12.0
290
     0
  0
TABLESTYLE
  5
6A
102
{ACAD_REACTORS
330
69
102
}
102
{ACAD_XDICTIONARY
360
2E3
102
}
330
69
100
AcDbTableStyle
  3
Standard
 70
     0
 71
     0
 40
0.06
 41
0.06
280
     0
281
     0
  7
STANDARD
140
4.5
170
     2
 62
     0
 63
   257
283
     0
 90
        4
 91
        0
  1

274
    -2
284
     1
 64
     0
275
    -2
285
     1
 65
     0
276
    -2
286
     1
 66
     0
277
    -2
287
     1
 67
     0
278
    -2
288
     1
 68
     0
279
    -2
289
     1
 69
     0
  7
STANDARD
140
6.0
170
     5
 62
     0
 63
   257
283
     0
 90
        4
 91
        0
  1

274
    -2
284
     1
 64
     0
275
    -2
285
     1
 65
     0
276
    -2
286
     1
 66
     0
277
    -2
287
     1
 67
     0
278
    -2
288
     1
 68
     0
279
    -2
289
     1
 69
     0
  7
STANDARD
140
4.5
170
     5
 62
     0
 63
   257
283
     0
 90
        4
 91
        0
  1

274
    -2
284
     1
 64
     0
275
    -2
285
     1
 65
     0
276
    -2
286
     1
 66
     0
277
    -2
287
     1
 67
     0
278
    -2
288
     1
 68
     0
279
    -2
289
     1
 69
     0
  0
VISUALSTYLE
  5
2F
102
{ACAD_REACTORS
330
2A
102
}
330
2A
100
AcDbVisualStyle
  2
2dWireframe
 70
     4
 71
     0
 72
     2
 73
     0
 90
        0
 40
0.6
 41
30.0
 62
     5
 63
     7
421
 16777215
 74
     1
 91
        4
 64
     7
 65
   257
 75
     1
175
     1
 42
1.0
 92
        0
 66
   257
 43
1.0
 76
     1
 77
     6
 78
     2
 67
     7
 79
     5
170
     0
171
     0
290
     0
174
     0
 93
        1
 44
0.0
173
     0
291
     0
 45
0.0
  0
VISUALSTYLE
  5
32
102
{ACAD_REACTORS
330
2A
102
}
330
2A
100
AcDbVisualStyle
  2
Basic
 70
     7
 71
     1
 72
     0
 73
     1
 90
        0
 40
0.6
 41
30.0
 62
     5
 63
     7
421
 16777215
 74
     0
 91
        4
 64
     7
 65
   257
 75
     1
175
     1
 42
1.0
 92
        8
 66
     7
 43
1.0
 76
     1
 77
     6
 78
     2
 67
     7
 79
     5
170
     0
171
     0
290
     0
174
     0
 93
        1
 44
0.0
173
     0
291
     1
 45
0.0
  0
VISUALSTYLE
  5
36
102
{ACAD_REACTORS
330
2A
102
}
330
2A
100
AcDbVisualStyle
  2
Brighten
 70
    12
 71
     2
 72
     2
 73
     0
 90
        0
 40
0.6
 41
30.0
 62
     5
 63
     7
421
 16777215
 74
     1
 91
        4
 64
     7
 65
   257
 75
     1
175
     1
 42
1.0
 92
        8
 66
     7
 43
1.0
 76
     1
 77
     6
 78
     2
 67
     7
 79
     5
170
     0
171
     0
290
     0
174
     0
 93
        1
 44
50.0
173
     0
291
     1
 45
0.0
  0
VISUALSTYLE
  5
3A
102
{ACAD_REACTORS
330
2A
102
}
330
2A
100
AcDbVisualStyle
  2
ColorChange
 70
    16
 71
     2
 72
     2
 73
     3
 90
        0
 40
0.6
 41
30.0
 62
     5
 63
     8
421
  8421504
 74
     1
 91
        4
 64
     7
 65
   257
 75
     1
175
     1
 42
1.0
 92
        8
 66
     8
424
  8421504
 43
1.0
 76
     1
 77
     6
 78
     2
 67
     7
 79
     5
170
     0
171
     0
290
     0
174
     0
 93
        1
 44
0.0
173
     0
291
     1
 45
0.0
  0
VISUALSTYLE
  5
34
102
{ACAD_REACTORS
330
2A
102
}
330
2A
100
AcDbVisualStyle
  2
Conceptual
 70
     9
 71
     3
 72
     2
 73
     0
 90
        0
 40
0.6
 41
30.0
 62
     5
 63
     7
421
 16777215
 74
     2
 91
        2
 64
     7
 65
   257
 75
     1
175
     1
 42
179.0
 92
        8
 66
     7
 43
1.0
 76
     1
 77
     6
 78
     2
 67
     7
 79
     3
170
     0
171
     0
290
     0
174
     0
 93
        1
 44
0.0
173
     0
291
     0
 45
0.0
  0
VISUALSTYLE
  5
35
102
{ACAD_REACTORS
330
2A
102
}
330
2A
100
AcDbVisualStyle
  2
Dim
 70
    11
 71
     2
 72
     2
 73
     0
 90
        0
 40
0.6
 41
30.0
 62
     5
 63
     7
421
 16777215
 74
     1
 91
        4
 64
     7
 65
   257
 75
     1
175
     1
 42
1.0
 92
        8
 66
     7
 43
1.0
 76
     1
 77
     6
 78
     2
 67
     7
 79
     5
170
     0
171
     0
290
     0
174
     0
 93
        1
 44
-50.0
173
     0
291
     1
 45
0.0
  0
VISUALSTYLE
  5
3D
102
{ACAD_REACTORS
330
2A
102
}
330
2A
100
AcDbVisualStyle
  2
EdgeColorOff
 70
    22
 71
     2
 72
     2
 73
     0
 90
        0
 40
0.6
 41
30.0
 62
     5
 63
     7
421
 16777215
 74
     1
 91
        4
 64
     7
 65
   257
 75
     1
175
     1
 42
1.0
 92
        8
 66
     7
 43
1.0
 76
     1
 77
     6
 78
     2
 67
     7
 79
     5
170
     0
171
     0
290
     0
174
     0
 93
        1
 44
0.0
173
     0
291
     1
 45
0.0
  0
VISUALSTYLE
  5
39
102
{ACAD_REACTORS
330
2A
102
}
330
2A
100
AcDbVisualStyle
  2
Facepattern
 70
    15
 71
     2
 72
     2
 73
     0
 90
        0
 40
0.6
 41
30.0
 62
     5
 63
     7
421
 16777215
 74
     1
 91
        4
 64
     7
 65
   257
 75
     1
175
     1
 42
1.0
 92
        8
 66
     7
 43
1.0
 76
     1
 77
     6
 78
     2
 67
     7
 79
     5
170
     0
171
     0
290
     0
174
     0
 93
        1
 44
0.0
173
     0
291
     1
 45
0.0
  0
VISUALSTYLE
  5
2B
102
{ACAD_REACTORS
330
2A
102
}
330
2A
100
AcDbVisualStyle
  2
Flat
 70
     0
 71
     2
 72
     1
 73
     1
 90
        2
 40
0.6
 41
30.0
 62
     5
 63
     7
421
 16777215
 74
     0
 91
        0
 64
     7
 65
   257
 75
     1
175
     1
 42
1.0
 92
        8
 66
     7
 43
1.0
 76
     1
 77
     6
 78
     2
 67
     7
 79
     5
170
     0
171
     0
290
     0
174
     0
 93
       13
 44
0.0
173
     0
291
     1
 45
0.0
  0
VISUALSTYLE
  5
2C
102
{ACAD_REACTORS
330
2A
102
}
330
2A
100
AcDbVisualStyle
  2
FlatWithEdges
 70
     1
 71
     2
 72
     1
 73
     1
 90
        2
 40
0.6
 41
30.0
 62
     5
 63
     7
421
 16777215
 74
     1
 91
        0
 64
     7
 65
   257
 75
     1
175
     1
 42
1.0
 92
        0
 66
   257
 43
1.0
 76
     1
 77
     6
 78
     2
 67
     7
 79
     5
170
     0
171
     0
290
     0
174
     0
 93
       13
 44
0.0
173
     0
291
     1
 45
0.0
  0
VISUALSTYLE
  5
2D
102
{ACAD_REACTORS
330
2A
102
}
330
2A
100
AcDbVisualStyle
  2
Gouraud
 70
     2
 71
     2
 72
     2
 73
     1
 90
        2
 40
0.6
 41
30.0
 62
     5
 63
     7
421
 16777215
 74
     0
 91
        0
 64
     7
 65
   257
 75
     1
175
     1
 42
1.0
 92
        0
 66
     7
 43
1.0
 76
     1
 77
     6
 78
     2
 67
     7
 79
     5
170
     0
171
     0
290
     0
174
     0
 93
       13
 44
0.0
173
     0
291
     1
 45
0.0
  0
VISUALSTYLE
  5
2E
102
{ACAD_REACTORS
330
2A
102
}
330
2A
100
AcDbVisualStyle
  2
GouraudWithEdges
 70
     3
 71
     2
 72
     2
 73
     1
 90
        2
 40
0.6
 41
30.0
 62
     5
 63
     7
421
 16777215
 74
     1
 91
        0
 64
     7
 65
   257
 75
     1
175
     1
 42
1.0
 92
        0
 66
   257
 43
1.0
 76
     1
 77
     6
 78
     2
 67
     7
 79
     5
170
     0
171
     0
290
     0
174
     0
 93
       13
 44
0.0
173
     0
291
     1
 45
0.0
  0
VISUALSTYLE
  5
31
102
{ACAD_REACTORS
330
2A
102
}
330
2A
100
AcDbVisualStyle
  2
Hidden
 70
     6
 71
     1
 72
     2
 73
     2
 90
        0
 40
0.6
 41
30.0
 62
     5
 63
     7
421
 16777215
 74
     2
 91
        2
 64
     7
 65
   257
 75
     2
175
     1
 42
40.0
 92
        0
 66
   257
 43
1.0
 76
     1
 77
     6
 78
     2
 67
     7
 79
     3
170
     0
171
     0
290
     0
174
     0
 93
        1
 44
0.0
173
     0
291
     0
 45
0.0
  0
VISUALSTYLE
  5
3B
102
{ACAD_REACTORS
330
2A
102
}
330
2A
100
AcDbVisualStyle
  2
JitterOff
 70
    20
 71
     2
 72
     2
 73
     0
 90
        0
 40
0.6
 41
30.0
 62
     5
 63
     7
421
 16777215
 74
     1
 91
        4
 64
     7
 65
   257
 75
     1
175
     1
 42
1.0
 92
       10
 66
     7
 43
1.0
 76
     1
 77
     6
 78
     2
 67
     7
 79
     5
170
     0
171
     0
290
     0
174
     0
 93
        1
 44
0.0
173
     0
291
     1
 45
0.0
  0
VISUALSTYLE
  5
38
102
{ACAD_REACTORS
330
2A
102
}
330
2A
100
AcDbVisualStyle
  2
Linepattern
 70
    14
 71
     2
 72
     2
 73
     0
 90
        0
 40
0.6
 41
30.0
 62
     5
 63
     7
421
 16777215
 74
     1
 91
        4
 64
     7
 65
   257
 75
     7
175
     7
 42
1.0
 92
        8
 66
     7
 43
1.0
 76
     1
 77
     6
 78
     2
 67
     7
 79
     5
170
     0
171
     0
290
     0
174
     0
 93
        1
 44
0.0
173
     0
291
     1
 45
0.0
  0
VISUALSTYLE
  5
3C
102
{ACAD_REACTORS
330
2A
102
}
330
2A
100
AcDbVisualStyle
  2
OverhangOff
 70
    21
 71
     2
 72
     2
 73
     0
 90
        0
 40
0.6
 41
30.0
 62
     5
 63
     7
421
 16777215
 74
     1
 91
        4
 64
     7
 65
   257
 75
     1
175
     1
 42
1.0
 92
        9
 66
     7
 43
1.0
 76
     1
 77
     6
 78
     2
 67
     7
 79
     5
170
     0
171
     0
290
     0
174
     0
 93
        1
 44
0.0
173
     0
291
     1
 45
0.0
  0
VISUALSTYLE
  5
33
102
{ACAD_REACTORS
330
2A
102
}
330
2A
100
AcDbVisualStyle
  2
Realistic
 70
     8
 71
     2
 72
     3
 73
     0
 90
        2
 40
0.6
 41
30.0
 62
     5
 63
     7
421
 16777215
 74
     0
 91
        0
 64
     7
 65
   257
 75
     1
175
     1
 42
1.0
 92
        8
 66
   257
 43
1.0
 76
     1
 77
     6
 78
     2
 67
     7
 79
     3
170
     0
171
     0
290
     0
174
     0
 93
       13
 44
0.0
173
     0
291
     0
 45
0.0
  0
VISUALSTYLE
  5
42
102
{ACAD_REACTORS
330
2A
102
}
330
2A
100
AcDbVisualStyle
  2
Shaded
 70
    27
 71
     2
 72
     2
 73
     1
 90
        2
 40
0.6
 41
30.0
 62
     5
 63
     7
421
 16777215
 74
     0
 91
        4
 64
     7
 65
   257
 75
     1
175
     1
 42
1.0
 92
        8
 66
   257
 43
1.0
 76
     1
 77
     6
 78
     2
 67
     8
425
  7895160
 79
     3
170
     0
171
     0
290
     0
174
     0
 93
        5
 44
0.0
173
     0
291
     0
 45
0.0
  0
VISUALSTYLE
  5
41
102
{ACAD_REACTORS
330
2A
102
}
330
2A
100
AcDbVisualStyle
  2
Shaded with edges
 70
    26
 71
     2
 72
     2
 73
     1
 90
        2
 40
0.6
 41
30.0
 62
     5
 63
     7
421
 16777215
 74
     1
 91
       10
 64
     7
 65
   257
 75
     2
175
     1
 42
1.0
 92
        8
 66
   257
 43
1.0
 76
     1
 77
     6
 78
     2
 67
     7
 79
     3
170
     0
171
     0
290
     0
174
     0
 93
        5
 44
0.0
173
     0
291
     0
 45
0.0
  0
VISUALSTYLE
  5
3E
102
{ACAD_REACTORS
330
2A
102
}
330
2A
100
AcDbVisualStyle
  2
Shades of Gray
 70
    23
 71
     2
 72
     2
 73
     3
 90
        0
 40
0.6
 41
30.0
 62
     5
 63
     7
421
 16777215
 74
     2
 91
        2
 64
     7
 65
     7
 75
     1
175
     1
 42
40.0
 92
        8
 66
     7
 43
1.0
 76
     1
 77
     6
 78
     2
 67
     7
 79
     3
170
     0
171
     0
290
     0
174
     0
 93
        1
 44
0.0
173
     0
291
     0
 45
0.0
  0
VISUALSTYLE
  5
3F
102
{ACAD_REACTORS
330
2A
102
}
330
2A
100
AcDbVisualStyle
  2
Sketchy
 70
    24
 71
     1
 72
     2
 73
     2
 90
        0
 40
0.6
 41
30.0
 62
     5
 63
     7
421
 16777215
 74
     2
 91
        2
 64
     7
 65
     7
 75
     1
175
     1
 42
40.0
 92
       11
 66
     7
 43
1.0
 76
     1
 77
     6
 78
     2
 67
     7
 79
     6
170
     0
171
     0
290
     0
174
     0
 93
        1
 44
0.0
173
     0
291
     0
 45
0.0
  0
VISUALSTYLE
  5
37
102
{ACAD_REACTORS
330
2A
102
}
330
2A
100
AcDbVisualStyle
  2
Thicken
 70
    13
 71
     2
 72
     2
 73
     0
 90
        0
 40
0.6
 41
30.0
 62
     5
 63
     7
421
 16777215
 74
     1
 91
        4
 64
     7
 65
   257
 75
     1
175
     1
 42
1.0
 92
       12
 66
     7
 43
1.0
 76
     1
 77
     6
 78
     2
 67
     7
 79
     5
170
     0
171
     0
290
     0
174
     0
 93
        1
 44
0.0
173
     0
291
     1
 45
0.0
  0
VISUALSTYLE
  5
30
102
{ACAD_REACTORS
330
2A
102
}
330
2A
100
AcDbVisualStyle
  2
Wireframe
 70
     5
 71
     0
 72
     2
 73
     0
 90
        0
 40
0.6
 41
30.0
 62
     5
 63
     7
421
 16777215
 74
     1
 91
        4
 64
     7
 65
   257
 75
     1
175
     1
 42
1.0
 92
        0
 66
   257
 43
1.0
 76
     1
 77
     6
 78
     2
 67
     7
 79
     3
170
     0
171
     0
290
     0
174
     0
 93
        1
 44
0.0
173
     0
291
     0
 45
0.0
  0
VISUALSTYLE
  5
40
102
{ACAD_REACTORS
330
2A
102
}
330
2A
100
AcDbVisualStyle
  2
X-Ray
 70
    25
 71
     2
 72
     2
 73
     1
 90
        1
 40
0.5
 41
30.0
 62
     5
 63
     7
421
 16777215
 74
     1
 91
        0
 64
     7
 65
   257
 75
     1
175
     1
 42
1.0
 92
        8
 66
     7
 43
1.0
 76
     1
 77
     6
 78
     2
 67
     7
 79
     3
170
     0
171
     0
290
     0
174
     0
 93
       13
 44
0.0
173
     0
291
     0
 45
0.0
  0
DICTIONARYVAR
  5
2E2
102
{ACAD_REACTORS
330
2E1
102
}
330
2E1
100
DictionaryVariables
280
     0
  1
1:1
  0
DICTIONARYVAR
  5
2E8
102
{ACAD_REACTORS
330
2E1
102
}
330
2E1
100
DictionaryVariables
280
     0
  1
Standard
  0
DICTIONARYVAR
  5
2E7
102
{ACAD_REACTORS
330
2E1
102
}
330
2E1
100
DictionaryVariables
280
     0
  1
Standard
  0
DICTIONARY
  5
2E3
330
6A
100
AcDbDictionary
280
     1
281
     1
  3
ACAD_ROUNDTRIP_2008_TABLESTYLE_CELLSTYLEMAP
360
2E4
  0
CELLSTYLEMAP
  5
2E4
102
{ACAD_REACTORS
330
2E3
102
}
330
2E3
100
AcDbCellStyleMap
 90
        3
300
CELLSTYLE
  1
TABLEFORMAT_BEGIN
 90
        5
170
     1
 91
        0
 92
    32768
 62
   257
 93
        1
300
CONTENTFORMAT
  1
CONTENTFORMAT_BEGIN
 90
        0
 91
        0
 92
        4
 93
        0
300

 40
0.0
140
1.0
 94
        5
 62
     0
340
11
144
6.0
309
CONTENTFORMAT_END
171
     1
301
MARGIN
  1
CELLMARGIN_BEGIN
 40
1.5
 40
1.5
 40
1.5
 40
1.5
 40
1.5
 40
1.5
309
CELLMARGIN_END
 94
        6
 95
        1
302
GRIDFORMAT
  1
GRIDFORMAT_BEGIN
 90
        0
 91
        1
 62
     0
 92
       -2
340
14
 93
        0
 40
0.045
309
GRIDFORMAT_END
 95
        2
302
GRIDFORMAT
  1
GRIDFORMAT_BEGIN
 90
        0
 91
        1
 62
     0
 92
       -2
340
14
 93
        0
 40
0.045
309
GRIDFORMAT_END
 95
        4
302
GRIDFORMAT
  1
GRIDFORMAT_BEGIN
 90
        0
 91
        1
 62
     0
 92
       -2
340
14
 93
        0
 40
0.045
309
GRIDFORMAT_END
 95
        8
302
GRIDFORMAT
  1
GRIDFORMAT_BEGIN
 90
        0
 91
        1
 62
     0
 92
       -2
340
14
 93
        0
 40
0.045
309
GRIDFORMAT_END
 95
       16
302
GRIDFORMAT
  1
GRIDFORMAT_BEGIN
 90
        0
 91
        1
 62
     0
 92
       -2
340
14
 93
        0
 40
0.045
309
GRIDFORMAT_END
 95
       32
302
GRIDFORMAT
  1
GRIDFORMAT_BEGIN
 90
        0
 91
        1
 62
     0
 92
       -2
340
14
 93
        0
 40
0.045
309
GRIDFORMAT_END
309
TABLEFORMAT_END
  1
CELLSTYLE_BEGIN
 90
        1
 91
        1
300
_TITLE
309
CELLSTYLE_END
300
CELLSTYLE
  1
TABLEFORMAT_BEGIN
 90
        5
170
     1
 91
        0
 92
        0
 62
   257
 93
        1
300
CONTENTFORMAT
  1
CONTENTFORMAT_BEGIN
 90
        0
 91
        0
 92
        4
 93
        0
300

 40
0.0
140
1.0
 94
        5
 62
     0
340
11
144
4.5
309
CONTENTFORMAT_END
171
     1
301
MARGIN
  1
CELLMARGIN_BEGIN
 40
1.5
 40
1.5
 40
1.5
 40
1.5
 40
1.5
 40
1.5
309
CELLMARGIN_END
 94
        6
 95
        1
302
GRIDFORMAT
  1
GRIDFORMAT_BEGIN
 90
        0
 91
        1
 62
     0
 92
       -2
340
14
 93
        0
 40
0.045
309
GRIDFORMAT_END
 95
        2
302
GRIDFORMAT
  1
GRIDFORMAT_BEGIN
 90
        0
 91
        1
 62
     0
 92
       -2
340
14
 93
        0
 40
0.045
309
GRIDFORMAT_END
 95
        4
302
GRIDFORMAT
  1
GRIDFORMAT_BEGIN
 90
        0
 91
        1
 62
     0
 92
       -2
340
14
 93
        0
 40
0.045
309
GRIDFORMAT_END
 95
        8
302
GRIDFORMAT
  1
GRIDFORMAT_BEGIN
 90
        0
 91
        1
 62
     0
 92
       -2
340
14
 93
        0
 40
0.045
309
GRIDFORMAT_END
 95
       16
302
GRIDFORMAT
  1
GRIDFORMAT_BEGIN
 90
        0
 91
        1
 62
     0
 92
       -2
340
14
 93
        0
 40
0.045
309
GRIDFORMAT_END
 95
       32
302
GRIDFORMAT
  1
GRIDFORMAT_BEGIN
 90
        0
 91
        1
 62
     0
 92
       -2
340
14
 93
        0
 40
0.045
309
GRIDFORMAT_END
309
TABLEFORMAT_END
  1
CELLSTYLE_BEGIN
 90
        2
 91
        1
300
_HEADER
309
CELLSTYLE_END
300
CELLSTYLE
  1
TABLEFORMAT_BEGIN
 90
        5
170
     1
 91
        0
 92
        0
 62
   257
 93
        1
300
CONTENTFORMAT
  1
CONTENTFORMAT_BEGIN
 90
        0
 91
        0
 92
        4
 93
        0
300

 40
0.0
140
1.0
 94
        2
 62
     0
340
11
144
4.5
309
CONTENTFORMAT_END
171
     1
301
MARGIN
  1
CELLMARGIN_BEGIN
 40
1.5
 40
1.5
 40
1.5
 40
1.5
 40
1.5
 40
1.5
309
CELLMARGIN_END
 94
        6
 95
        1
302
GRIDFORMAT
  1
GRIDFORMAT_BEGIN
 90
        0
 91
        1
 62
     0
 92
       -2
340
14
 93
        0
 40
0.045
309
GRIDFORMAT_END
 95
        2
302
GRIDFORMAT
  1
GRIDFORMAT_BEGIN
 90
        0
 91
        1
 62
     0
 92
       -2
340
14
 93
        0
 40
0.045
309
GRIDFORMAT_END
 95
        4
302
GRIDFORMAT
  1
GRIDFORMAT_BEGIN
 90
        0
 91
        1
 62
     0
 92
       -2
340
14
 93
        0
 40
0.045
309
GRIDFORMAT_END
 95
        8
302
GRIDFORMAT
  1
GRIDFORMAT_BEGIN
 90
        0
 91
        1
 62
     0
 92
       -2
340
14
 93
        0
 40
0.045
309
GRIDFORMAT_END
 95
       16
302
GRIDFORMAT
  1
GRIDFORMAT_BEGIN
 90
        0
 91
        1
 62
     0
 92
       -2
340
14
 93
        0
 40
0.045
309
GRIDFORMAT_END
 95
       32
302
GRIDFORMAT
  1
GRIDFORMAT_BEGIN
 90
        0
 91
        1
 62
     0
 92
       -2
340
14
 93
        0
 40
0.045
309
GRIDFORMAT_END
309
TABLEFORMAT_END
  1
CELLSTYLE_BEGIN
 90
        3
 91
        2
300
_DATA
309
CELLSTYLE_END
  0
ENDSEC
  0
EOF
