  0
SECTION
  2
HEADER
  9
$ACADVER
  1
AC1021
  9
$ACADMAINTVER
 70
    25
  9
$DWGCODEPAGE
  3
ANSI_1252
  9
$INSBASE
 10
0.0
 20
0.0
 30
0.0
  9
$EXTMIN
 10
0.0
 20
0.0
 30
0.0
  9
$EXTMAX
 10
550.0
 20
660.0
 30
0.0
  9
$LIMMIN
 10
0.0
 20
0.0
  9
$LIMMAX
 10
550.0
 20
660.0
  9
$ORTHOMODE
 70
     0
  9
$REGENMODE
 70
     1
  9
$FILLMODE
 70
     1
  9
$QTEXTMODE
 70
     0
  9
$MIRRTEXT
 70
     1
  9
$LTSCALE
 40
1.0
  9
$ATTMODE
 70
     1
  9
$TEXTSIZE
 40
3.5
  9
$TRACEWID
 40
1.0
  9
$TEXTSTYLE
  7
STANDARD
  9
$CLAYER
  8
0
  9
$CELTYPE
  6
ByLayer
  9
$CECOLOR
 62
   256
  9
$CELTSCALE
 40
1.0
  9
$DISPSILH
 70
     0
  9
$DIMSCALE
 40
1.0
  9
$DIMASZ
 40
3.302
  9
$DIMEXO
 40
1.0
  9
$DIMDLI
 40
3.75
  9
$DIMRND
 40
0.0
  9
$DIMDLE
 40
0.0
  9
$DIMEXE
 40
1.0
  9
$DIMTP
 40
0.0
  9
$DIMTM
 40
0.0
  9
$DIMTXT
 40
3.5
  9
$DIMCEN
 40
2.5
  9
$DIMTSZ
 40
0.0
  9
$DIMTOL
 70
     0
  9
$DIMLIM
 70
     0
  9
$DIMTIH
 70
     1
  9
$DIMTOH
 70
     1
  9
$DIMSE1
 70
     0
  9
$DIMSE2
 70
     0
  9
$DIMTAD
 70
     1
  9
$DIMZIN
 70
     1
  9
$DIMBLK
  1

  9
$DIMASO
 70
     1
  9
$DIMSHO
 70
     1
  9
$DIMPOST
  1

  9
$DIMAPOST
  1

  9
$DIMALT
 70
     0
  9
$DIMALTD
 70
     3
  9
$DIMALTF
 40
0.0393700787
  9
$DIMLFAC
 40
1.0
  9
$DIMTOFL
 70
     1
  9
$DIMTVP
 40
0.0
  9
$DIMTIX
 70
     0
  9
$DIMSOXD
 70
     0
  9
$DIMSAH
 70
     0
  9
$DIMBLK1
  1

  9
$DIMBLK2
  1

  9
$DIMSTYLE
  2
ISO-25
  9
$DIMCLRD
 70
     0
  9
$DIMCLRE
 70
     0
  9
$DIMCLRT
 70
     0
  9
$DIMTFAC
 40
1.0
  9
$DIMGAP
 40
1.524
  9
$DIMJUST
 70
     0
  9
$DIMSD1
 70
     0
  9
$DIMSD2
 70
     0
  9
$DIMTOLJ
 70
     0
  9
$DIMTZIN
 70
     1
  9
$DIMALTZ
 70
     0
  9
$DIMALTTZ
 70
     0
  9
$DIMUPT
 70
     0
  9
$DIMDEC
 70
     0
  9
$DIMTDEC
 70
     0
  9
$DIMALTU
 70
     2
  9
$DIMALTTD
 70
     3
  9
$DIMTXSTY
  7
STANDARD
  9
$DIMAUNIT
 70
     0
  9
$DIMADEC
 70
     0
  9
$DIMALTRND
 40
0.0
  9
$DIMAZIN
 70
     0
  9
$DIMDSEP
 70
    44
  9
$DIMATFIT
 70
     3
  9
$DIMFRAC
 70
     0
  9
$DIMLDRBLK
  1

  9
$DIMLUNIT
 70
     2
  9
$DIMLWD
 70
    -2
  9
$DIMLWE
 70
    -2
  9
$DIMTMOVE
 70
     0
  9
$DIMFXL
 40
1.0
  9
$DIMFXLON
 70
     0
  9
$DIMJOGANG
 40
0.7853981634
  9
$DIMTFILL
 70
     0
  9
$DIMTFILLCLR
 70
     0
  9
$DIMARCSYM
 70
     0
  9
$DIMLTYPE
  6

  9
$DIMLTEX1
  6

  9
$DIMLTEX2
  6

  9
$LUNITS
 70
     2
  9
$LUPREC
 70
     4
  9
$SKETCHINC
 40
1.0
  9
$FILLETRAD
 40
10.0
  9
$AUNITS
 70
     0
  9
$AUPREC
 70
     0
  9
$MENU
  1
.
  9
$ELEVATION
 40
0.0
  9
$PELEVATION
 40
0.0
  9
$THICKNESS
 40
0.0
  9
$LIMCHECK
 70
     0
  9
$CHAMFERA
 40
0.0
  9
$CHAMFERB
 40
0.0
  9
$CHAMFERC
 40
0.0
  9
$CHAMFERD
 40
0.0
  9
$SKPOLY
 70
     0
  9
$TDCREATE
 40
2457759.436046262
  9
$TDUCREATE
 40
2457759.394379595
  9
$TDUPDATE
 40
2457759.436047222
  9
$TDUUPDATE
 40
2457759.394380555
  9
$TDINDWG
 40
0.0000000116
  9
$TDUSRTIMER
 40
0.0000000116
  9
$USRTIMER
 70
     1
  9
$ANGBASE
 50
0.0
  9
$ANGDIR
 70
     0
  9
$PDMODE
 70
     0
  9
$PDSIZE
 40
-1.0
  9
$PLINEWID
 40
0.0
  9
$SPLFRAME
 70
     0
  9
$SPLINETYPE
 70
     6
  9
$SPLINESEGS
 70
     8
  9
$HANDSEED
  5
2E8
  9
$SURFTAB1
 70
     6
  9
$SURFTAB2
 70
     6
  9
$SURFTYPE
 70
     6
  9
$SURFU
 70
     6
  9
$SURFV
 70
     6
  9
$UCSBASE
  2

  9
$UCSNAME
  2

  9
$UCSORG
 10
0.0
 20
0.0
 30
0.0
  9
$UCSXDIR
 10
1.0
 20
0.0
 30
0.0
  9
$UCSYDIR
 10
0.0
 20
1.0
 30
0.0
  9
$UCSORTHOREF
  2

  9
$UCSORTHOVIEW
 70
     0
  9
$UCSORGTOP
 10
0.0
 20
0.0
 30
0.0
  9
$UCSORGBOTTOM
 10
0.0
 20
0.0
 30
0.0
  9
$UCSORGLEFT
 10
0.0
 20
0.0
 30
0.0
  9
$UCSORGRIGHT
 10
0.0
 20
0.0
 30
0.0
  9
$UCSORGFRONT
 10
0.0
 20
0.0
 30
0.0
  9
$UCSORGBACK
 10
0.0
 20
0.0
 30
0.0
  9
$PUCSBASE
  2

  9
$PUCSNAME
  2

  9
$PUCSORG
 10
0.0
 20
0.0
 30
0.0
  9
$PUCSXDIR
 10
1.0
 20
0.0
 30
0.0
  9
$PUCSYDIR
 10
0.0
 20
1.0
 30
0.0
  9
$PUCSORTHOREF
  2

  9
$PUCSORTHOVIEW
 70
     0
  9
$PUCSORGTOP
 10
0.0
 20
0.0
 30
0.0
  9
$PUCSORGBOTTOM
 10
0.0
 20
0.0
 30
0.0
  9
$PUCSORGLEFT
 10
0.0
 20
0.0
 30
0.0
  9
$PUCSORGRIGHT
 10
0.0
 20
0.0
 30
0.0
  9
$PUCSORGFRONT
 10
0.0
 20
0.0
 30
0.0
  9
$PUCSORGBACK
 10
0.0
 20
0.0
 30
0.0
  9
$USERI1
 70
     0
  9
$USERI2
 70
     0
  9
$USERI3
 70
     0
  9
$USERI4
 70
     0
  9
$USERI5
 70
     0
  9
$USERR1
 40
0.0
  9
$USERR2
 40
0.0
  9
$USERR3
 40
0.0
  9
$USERR4
 40
0.0
  9
$USERR5
 40
0.0
  9
$WORLDVIEW
 70
     1
  9
$SHADEDGE
 70
     3
  9
$SHADEDIF
 70
    70
  9
$TILEMODE
 70
     1
  9
$MAXACTVP
 70
    64
  9
$PINSBASE
 10
0.0
 20
0.0
 30
0.0
  9
$PLIMCHECK
 70
     0
  9
$PEXTMIN
 10
1.0000000000E+20
 20
1.0000000000E+20
 30
1.0000000000E+20
  9
$PEXTMAX
 10
-1.0000000000E+20
 20
-1.0000000000E+20
 30
-1.0000000000E+20
  9
$PLIMMIN
 10
0.0
 20
0.0
  9
$PLIMMAX
 10
420.0
 20
297.0
  9
$UNITMODE
 70
     0
  9
$VISRETAIN
 70
     1
  9
$PLINEGEN
 70
     0
  9
$PSLTSCALE
 70
     1
  9
$TREEDEPTH
 70
  3020
  9
$CMLSTYLE
  2
Standard
  9
$CMLJUST
 70
     0
  9
$CMLSCALE
 40
20.0
  9
$PROXYGRAPHICS
 70
     1
  9
$MEASUREMENT
 70
     1
  9
$CELWEIGHT
370
    -1
  9
$ENDCAPS
280
     0
  9
$JOINSTYLE
280
     0
  9
$LWDISPLAY
290
     1
  9
$INSUNITS
 70
     4
  9
$HYPERLINKBASE
  1

  9
$STYLESHEET
  1

  9
$XEDIT
290
     1
  9
$CEPSNTYPE
380
     0
  9
$PSTYLEMODE
290
     1
  9
$FINGERPRINTGUID
  2
{9C0A1882-6BEE-4EFE-B171-630EA32EEC30}
  9
$VERSIONGUID
  2
{FAEB1C32-E019-11D5-929B-00C0DF256EC4}
  9
$EXTNAMES
290
     1
  9
$PSVPSCALE
 40
0.0
  9
$OLESTARTUP
290
     0
  9
$SORTENTS
280
   127
  9
$INDEXCTL
280
     0
  9
$HIDETEXT
280
     1
  9
$XCLIPFRAME
290
     0
  9
$HALOGAP
280
     0
  9
$OBSCOLOR
 70
   257
  9
$OBSLTYPE
280
     0
  9
$INTERSECTIONDISPLAY
280
     0
  9
$INTERSECTIONCOLOR
 70
   257
  9
$DIMASSOC
280
     2
  9
$PROJECTNAME
  1

  9
$CAMERADISPLAY
290
     0
  9
$LENSLENGTH
 40
50.0
  9
$CAMERAHEIGHT
 40
0.0
  9
$STEPSPERSEC
 40
2.0
  9
$STEPSIZE
 40
6.0
  9
$3DDWFPREC
 40
2.0
  9
$PSOLWIDTH
 40
5.0
  9
$PSOLHEIGHT
 40
80.0
  9
$LOFTANG1
 40
1.5707963268
  9
$LOFTANG2
 40
1.5707963268
  9
$LOFTMAG1
 40
0.0
  9
$LOFTMAG2
 40
0.0
  9
$LOFTPARAM
 70
     7
  9
$LOFTNORMALS
280
     1
  9
$LATITUDE
 40
37.795
  9
$LONGITUDE
 40
-122.394
  9
$NORTHDIRECTION
 40
0.0
  9
$TIMEZONE
 70
 -8000
  9
$LIGHTGLYPHDISPLAY
280
     1
  9
$TILEMODELIGHTSYNCH
280
     1
  9
$CMATERIAL
347
44
  9
$SOLIDHIST
280
     0
  9
$SHOWHIST
280
     1
  9
$DWFFRAME
280
     2
  9
$DGNFRAME
280
     2
  9
$REALWORLDSCALE
290
     1
  9
$INTERFERECOLOR
 62
   256
  9
$CSHADOW
280
     0
  9
$SHADOWPLANELOCATION
 40
0.0
  0
ENDSEC
  0
SECTION
  2
CLASSES
  0
CLASS
  1
ACDBDICTIONARYWDFLT
  2
AcDbDictionaryWithDefault
  3
ObjectDBX Classes
 90
        0
 91
        4
280
     0
281
     0
  0
CLASS
  1
VISUALSTYLE
  2
AcDbVisualStyle
  3
ObjectDBX Classes
 90
     4095
 91
        4
280
     0
281
     0
  0
CLASS
  1
MATERIAL
  2
AcDbMaterial
  3
ObjectDBX Classes
 90
     1153
 91
        4
280
     0
281
     0
  0
CLASS
  1
SCALE
  2
AcDbScale
  3
ObjectDBX Classes
 90
     1153
 91
        4
280
     0
281
     0
  0
CLASS
  1
TABLESTYLE
  2
AcDbTableStyle
  3
ObjectDBX Classes
 90
     4095
 91
        4
280
     0
281
     0
  0
CLASS
  1
MLEADERSTYLE
  2
AcDbMLeaderStyle
  3
ACDB_MLEADERSTYLE_CLASS
 90
     4095
 91
        4
280
     0
281
     0
  0
CLASS
  1
SUN
  2
AcDbSun
  3
SCENEOE
 90
     1153
 91
        4
280
     0
281
     0
  0
CLASS
  1
DICTIONARYVAR
  2
AcDbDictionaryVar
  3
ObjectDBX Classes
 90
        0
 91
        4
280
     0
281
     0
  0
CLASS
  1
CELLSTYLEMAP
  2
AcDbCellStyleMap
  3
ObjectDBX Classes
 90
     1152
 91
        4
280
     0
281
     0
  0
ENDSEC
  0
SECTION
  2
TABLES
  0
TABLE
  2
VPORT
  5
8
330
0
100
AcDbSymbolTable
 70
     1
  0
VPORT
  5
29
330
8
100
AcDbSymbolTableRecord
100
AcDbViewportTableRecord
  2
*Active
 70
     0
 10
0.0
 20
0.0
 11
1.0
 21
1.0
 12
275.0
 22
330.0
 13
0.0
 23
0.0
 14
10.0
 24
10.0
 15
10.0
 25
10.0
 16
0.0
 26
0.0
 36
1.0
 17
0.0
 27
0.0
 37
0.0
 40
660.0
 41
0.8333333333
 42
50.0
 43
0.0
 44
0.0
 50
0.0
 51
0.0
 71
     0
 72
  2000
 73
     1
 74
     3
 75
     0
 76
     0
 77
     0
 78
     0
281
     0
 65
     1
110
0.0
120
0.0
130
0.0
111
1.0
121
0.0
131
0.0
112
0.0
122
1.0
132
0.0
 79
     0
146
0.0
 60
     3
 61
     5
292
     1
282
     1
141
0.0
142
0.0
 63
   250
361
6D
  0
ENDTAB
  0
TABLE
  2
LTYPE
  5
5
330
0
100
AcDbSymbolTable
 70
     6
  0
LTYPE
  5
14
330
5
100
AcDbSymbolTableRecord
100
AcDbLinetypeTableRecord
  2
ByBlock
 70
     0
  3

 72
    65
 73
     0
 40
0.0
  0
LTYPE
  5
15
330
5
100
AcDbSymbolTableRecord
100
AcDbLinetypeTableRecord
  2
ByLayer
 70
     0
  3

 72
    65
 73
     0
 40
0.0
  0
LTYPE
  5
16
330
5
100
AcDbSymbolTableRecord
100
AcDbLinetypeTableRecord
  2
Continuous
 70
     0
  3
Solid line
 72
    65
 73
     0
 40
0.0
  0
LTYPE
  5
6E
330
5
100
AcDbSymbolTableRecord
100
AcDbLinetypeTableRecord
  2
HIDDEN
 70
     0
  3
Hidden __ __ __ __ __ __ __ __ __ __ __ __ __ __
 72
    65
 73
     2
 40
1.905
 49
1.27
 74
     0
 49
-0.635
 74
     0
  0
LTYPE
  5
6F
330
5
100
AcDbSymbolTableRecord
100
AcDbLinetypeTableRecord
  2
PHANTOM
 70
     0
  3
Phantom ______  __  __  ______  __  __  ______
 72
    65
 73
     6
 40
12.7
 49
6.35
 74
     0
 49
-1.27
 74
     0
 49
1.27
 74
     0
 49
-1.27
 74
     0
 49
1.27
 74
     0
 49
-1.27
 74
     0
  0
LTYPE
  5
70
330
5
100
AcDbSymbolTableRecord
100
AcDbLinetypeTableRecord
  2
CENTER
 70
     0
  3
Center ____ _ ____ _ ____ _ ____ _ ____ _ ____
 72
    65
 73
     4
 40
10.16
 49
6.35
 74
     0
 49
-1.27
 74
     0
 49
1.27
 74
     0
 49
-1.27
 74
     0
  0
LTYPE
  5
71
330
5
100
AcDbSymbolTableRecord
100
AcDbLinetypeTableRecord
  2
CENTERX2
 70
     0
  3
Center (2x) ________  __  ________  __  _____
 72
    65
 73
     4
 40
20.32
 49
12.7
 74
     0
 49
-2.54
 74
     0
 49
2.54
 74
     0
 49
-2.54
 74
     0
  0
LTYPE
  5
72
330
5
100
AcDbSymbolTableRecord
100
AcDbLinetypeTableRecord
  2
DOT2
 70
     0
  3
Dot (.5x) ........................................
 72
    65
 73
     2
 40
0.635
 49
0.0
 74
     0
 49
-0.635
 74
     0
  0
ENDTAB
  0
TABLE
  2
LAYER
  5
2
330
0
100
AcDbSymbolTable
 70
     9
  0
LAYER
  5
10
330
2
100
AcDbSymbolTableRecord
100
AcDbLayerTableRecord
  2
0
 70
     0
 62
     7
  6
Continuous
370
    -3
390
F
347
46
  0
LAYER
  5
73
330
2
100
AcDbSymbolTableRecord
100
AcDbLayerTableRecord
  2
SLD-0
 70
     0
 62
   179
  6
Continuous
370
    -3
390
F
347
46
  0
LAYER
  5
74
330
2
100
AcDbSymbolTableRecord
100
AcDbLayerTableRecord
  2
1
 70
     0
 62
     7
  6
Continuous
370
    -3
390
F
347
46
  0
LAYER
  5
75
330
2
100
AcDbSymbolTableRecord
100
AcDbLayerTableRecord
  2
SLD-DEFPOINTS
 70
     0
 62
   179
  6
Continuous
290
     0
370
    -3
390
F
347
46
  0
LAYER
  5
76
330
2
100
AcDbSymbolTableRecord
100
AcDbLayerTableRecord
  2
TEXTO
 70
     0
 62
     8
  6
Continuous
370
    -3
390
F
347
46
  0
LAYER
  5
77
330
2
100
AcDbSymbolTableRecord
100
AcDbLayerTableRecord
  2
COTAS
 70
     0
 62
   250
  6
Continuous
370
    -3
390
F
347
46
  0
LAYER
  5
78
330
2
100
AcDbSymbolTableRecord
100
AcDbLayerTableRecord
  2
CAJETIN
 70
     0
 62
     9
  6
Continuous
370
    -3
390
F
347
46
  0
LAYER
  5
79
330
2
100
AcDbSymbolTableRecord
100
AcDbLayerTableRecord
  2
CAPA_1
 70
     0
 62
   179
  6
Continuous
370
    -3
390
F
347
46
  0
LAYER
  5
7A
330
2
100
AcDbSymbolTableRecord
100
AcDbLayerTableRecord
  2
PIEZA
 70
     0
 62
   255
  6
Continuous
370
    -3
390
F
347
46
  0
ENDTAB
  0
TABLE
  2
STYLE
  5
3
330
0
100
AcDbSymbolTable
 70
     3
  0
STYLE
  5
11
330
3
100
AcDbSymbolTableRecord
100
AcDbTextStyleTableRecord
  2
STANDARD
 70
     0
 40
0.0
 41
1.0
 50
0.0
 71
     0
 42
3.5
  3
GOTHIC.TTF
  4

1001
ACAD
1000
CENTURY GOTHIC
1071
       34
  0
STYLE
  5
2AA
330
3
100
AcDbSymbolTableRecord
100
AcDbTextStyleTableRecord
  2
SLDTEXTSTYLE0
 70
     0
 40
0.0
 41
1.0
 50
0.0
 71
     0
 42
3.5
  3
ARIAL.TTF
  4

1001
ACAD
1000
ARIAL
1071
      290
  0
STYLE
  5
2B5
330
3
100
AcDbSymbolTableRecord
100
AcDbTextStyleTableRecord
  2
SLDTEXTSTYLE1
 70
     0
 40
0.0
 41
0.948
 50
0.0
 71
     0
 42
3.5
  3
ARIAL.TTF
  4

1001
ACAD
1000
ARIAL
1071
      290
  0
ENDTAB
  0
TABLE
  2
VIEW
  5
6
330
0
100
AcDbSymbolTable
 70
     0
  0
ENDTAB
  0
TABLE
  2
UCS
  5
7
330
0
100
AcDbSymbolTable
 70
     0
  0
ENDTAB
  0
TABLE
  2
APPID
  5
9
330
0
100
AcDbSymbolTable
 70
     2
  0
APPID
  5
12
330
9
100
AcDbSymbolTableRecord
100
AcDbRegAppTableRecord
  2
ACAD
 70
     0
  0
APPID
  5
2E2
330
9
100
AcDbSymbolTableRecord
100
AcDbRegAppTableRecord
  2
ACAD_MLEADERVER
 70
     0
  0
ENDTAB
  0
TABLE
  2
DIMSTYLE
  5
A
330
0
100
AcDbSymbolTable
 70
     3
100
AcDbDimStyleTable
  0
DIMSTYLE
105
27
330
A
100
AcDbSymbolTableRecord
100
AcDbDimStyleTableRecord
  2
ISO-25
 70
     0
 41
2.5
 42
0.625
 43
3.75
 44
1.25
 73
     0
 74
     0
 77
     1
 78
     8
140
2.5
141
2.5
143
0.0393700787
147
0.625
171
     3
172
     1
178
     0
271
     2
272
     2
274
     3
278
    44
283
     0
284
     8
340
11
  0
DIMSTYLE
105
2AB
102
{ACAD_REACTORS
330
2A9
330
2B9
102
}
330
A
100
AcDbSymbolTableRecord
100
AcDbDimStyleTableRecord
  2
SLDDIMSTYLE0
 70
     0
 41
3.302
 44
0.0
 45
0.000000001
 73
     0
 74
     0
 77
     1
 78
    12
 79
     3
140
8.0
147
2.0
173
     1
178
     0
271
     0
272
     0
276
     2
284
    12
340
2AA
341
2AC
343
2AC
344
2AC
  0
DIMSTYLE
105
2C4
102
{ACAD_REACTORS
330
2C3
102
}
330
A
100
AcDbSymbolTableRecord
100
AcDbDimStyleTableRecord
  2
SLDDIMSTYLE1
 70
     0
 41
3.302
 44
0.0
 45
0.000000001
 73
     0
 74
     0
 77
     1
 78
    12
 79
     3
140
8.0
141
0.0
147
2.0
172
     1
173
     1
178
     0
271
     0
272
     0
276
     2
284
    12
340
2AA
341
2AC
343
2AC
344
2AC
  0
ENDTAB
  0
TABLE
  2
BLOCK_RECORD
  5
1
330
0
100
AcDbSymbolTable
 70
     7
  0
BLOCK_RECORD
  5
1F
330
1
100
AcDbSymbolTableRecord
100
AcDbBlockTableRecord
  2
*Model_Space
340
22
 70
     0
280
     1
281
     0
  0
BLOCK_RECORD
  5
1B
330
1
100
AcDbSymbolTableRecord
100
AcDbBlockTableRecord
  2
*Paper_Space
340
1E
 70
     0
280
     1
281
     0
  0
BLOCK_RECORD
  5
23
330
1
100
AcDbSymbolTableRecord
100
AcDbBlockTableRecord
  2
*Paper_Space0
340
26
 70
     0
280
     1
281
     0
  0
BLOCK_RECORD
  5
2AC
330
1
100
AcDbSymbolTableRecord
100
AcDbBlockTableRecord
  2
_NONE
340
0
 70
     0
280
     1
281
     0
  0
BLOCK_RECORD
  5
2AF
330
1
100
AcDbSymbolTableRecord
100
AcDbBlockTableRecord
  2
_D
340
0
 70
     0
280
     1
281
     0
  0
BLOCK_RECORD
  5
2BA
330
1
100
AcDbSymbolTableRecord
100
AcDbBlockTableRecord
  2
_D_1
340
0
 70
     0
280
     1
281
     0
  0
BLOCK_RECORD
  5
2C5
330
1
100
AcDbSymbolTableRecord
100
AcDbBlockTableRecord
  2
_D_2
340
0
 70
     0
280
     1
281
     0
  0
BLOCK_RECORD
  5
2D0
330
1
100
AcDbSymbolTableRecord
100
AcDbBlockTableRecord
  2
SW_NOTE_0
340
0
102
{BLKREFS
331
2D5
102
}
 70
     0
280
     1
281
     0
  0
BLOCK_RECORD
  5
2D6
330
1
100
AcDbSymbolTableRecord
100
AcDbBlockTableRecord
  2
SW_NOTE_1
340
0
102
{BLKREFS
331
2DB
102
}
 70
     0
280
     1
281
     0
  0
ENDTAB
  0
ENDSEC
  0
SECTION
  2
BLOCKS
  0
BLOCK
  5
20
330
1F
100
AcDbEntity
  8
0
100
AcDbBlockBegin
  2
*Model_Space
 70
     0
 10
0.0
 20
0.0
 30
0.0
  3
*Model_Space
  1

  0
ENDBLK
  5
21
330
1F
100
AcDbEntity
  8
0
100
AcDbBlockEnd
  0
BLOCK
  5
1C
330
1B
100
AcDbEntity
 67
     1
  8
0
100
AcDbBlockBegin
  2
*Paper_Space
 70
     0
 10
0.0
 20
0.0
 30
0.0
  3
*Paper_Space
  1

  0
ENDBLK
  5
1D
330
1B
100
AcDbEntity
 67
     1
  8
0
100
AcDbBlockEnd
  0
BLOCK
  5
24
330
23
100
AcDbEntity
  8
0
100
AcDbBlockBegin
  2
*Paper_Space0
 70
     0
 10
0.0
 20
0.0
 30
0.0
  3
*Paper_Space0
  1

  0
ENDBLK
  5
25
330
23
100
AcDbEntity
  8
0
100
AcDbBlockEnd
  0
BLOCK
  5
2AD
330
2AC
100
AcDbEntity
  8
0
100
AcDbBlockBegin
  2
_NONE
 70
     0
 10
0.0
 20
0.0
 30
0.0
  3
_NONE
  1

  0
ENDBLK
  5
2AE
330
2AC
100
AcDbEntity
  8
0
100
AcDbBlockEnd
  0
BLOCK
  5
2B0
330
2AF
100
AcDbEntity
  8
0
100
AcDbBlockBegin
  2
_D
 70
     0
 10
0.0
 20
0.0
 30
0.0
  3
_D
  1

  0
LINE
  5
2B2
330
2AF
100
AcDbEntity
  8
COTAS
100
AcDbLine
 10
99.6888163736
 20
175.5320049635
 30
0.0
 11
78.4438777294
 21
175.5320049635
 31
0.0
  0
LINE
  5
2B3
330
2AF
100
AcDbEntity
  8
COTAS
100
AcDbLine
 10
249.6066809277
 20
220.0320049635
 30
0.0
 11
78.4438777294
 21
220.0320049635
 31
0.0
  0
LINE
  5
2B4
330
2AF
100
AcDbEntity
  8
COTAS
100
AcDbLine
 10
79.6938777294
 20
182.5320049635
 30
0.0
 11
79.6938777294
 21
213.0320049635
 31
0.0
  0
MTEXT
  5
2B6
330
2AF
100
AcDbEntity
  8
COTAS
100
AcDbMText
 10
69.8438937135
 20
191.340755794
 30
0.0
 40
8.0
 41
0.0
 46
0.0
 71
     1
 72
     1
  1
45
  7
SLDTEXTSTYLE1
 11
6.123233995736766E-17
 21
1.0
 31
0.0
 73
     1
 44
1.0
  0
SOLID
  5
2B7
330
2AF
100
AcDbEntity
  8
COTAS
100
AcDbTrace
 10
78.5272110628
 20
182.5320049635
 30
0.0
 11
80.8605443961
 21
182.5320049635
 31
0.0
 12
79.6938777294
 22
175.5320049635
 32
0.0
 13
79.6938777294
 23
175.5320049635
 33
0.0
  0
SOLID
  5
2B8
330
2AF
100
AcDbEntity
  8
COTAS
100
AcDbTrace
 10
78.5272110628
 20
213.0320049635
 30
0.0
 11
80.8605443961
 21
213.0320049635
 31
0.0
 12
79.6938777294
 22
220.0320049635
 32
0.0
 13
79.6938777294
 23
220.0320049635
 33
0.0
  0
ENDBLK
  5
2B1
330
2AF
100
AcDbEntity
  8
0
100
AcDbBlockEnd
  0
BLOCK
  5
2BB
330
2BA
100
AcDbEntity
  8
0
100
AcDbBlockBegin
  2
_D_1
 70
     0
 10
0.0
 20
0.0
 30
0.0
  3
_D_1
  1

  0
LINE
  5
2BD
330
2BA
100
AcDbEntity
  8
COTAS
100
AcDbLine
 10
429.7745454818
 20
175.5320049635
 30
0.0
 11
453.1686620016
 21
175.5320049635
 31
0.0
  0
LINE
  5
2BE
330
2BA
100
AcDbEntity
  8
COTAS
100
AcDbLine
 10
429.7745454818
 20
275.5320049635
 30
0.0
 11
453.1686620016
 21
275.5320049635
 31
0.0
  0
LINE
  5
2BF
330
2BA
100
AcDbEntity
  8
COTAS
100
AcDbLine
 10
451.9186620016
 20
182.5320049635
 30
0.0
 11
451.9186620016
 21
268.5320049635
 31
0.0
  0
MTEXT
  5
2C0
330
2BA
100
AcDbEntity
  8
COTAS
100
AcDbMText
 10
442.0523069079
 20
192.3752275548
 30
0.0
 40
8.0
 41
0.0
 46
0.0
 71
     1
 72
     1
  1
MIN 100 mm
  7
SLDTEXTSTYLE1
 11
6.123233995736766E-17
 21
1.0
 31
0.0
 73
     1
 44
1.0
  0
SOLID
  5
2C1
330
2BA
100
AcDbEntity
  8
COTAS
100
AcDbTrace
 10
450.7519953349
 20
182.5320049635
 30
0.0
 11
453.0853286682
 21
182.5320049635
 31
0.0
 12
451.9186620016
 22
175.5320049635
 32
0.0
 13
451.9186620016
 23
175.5320049635
 33
0.0
  0
SOLID
  5
2C2
330
2BA
100
AcDbEntity
  8
COTAS
100
AcDbTrace
 10
450.7519953349
 20
268.5320049635
 30
0.0
 11
453.0853286682
 21
268.5320049635
 31
0.0
 12
451.9186620016
 22
275.5320049635
 32
0.0
 13
451.9186620016
 23
275.5320049635
 33
0.0
  0
ENDBLK
  5
2BC
330
2BA
100
AcDbEntity
  8
0
100
AcDbBlockEnd
  0
BLOCK
  5
2C6
330
2C5
100
AcDbEntity
  8
0
100
AcDbBlockBegin
  2
_D_2
 70
     0
 10
0.0
 20
0.0
 30
0.0
  3
_D_2
  1

  0
LINE
  5
2C8
330
2C5
100
AcDbEntity
  8
COTAS
100
AcDbLine
 10
145.4708618572
 20
532.6633340921
 30
0.0
 11
172.4805414521
 21
511.1210571121
 31
0.0
  0
LINE
  5
2C9
330
2C5
100
AcDbEntity
  8
COTAS
100
AcDbLine
 10
356.9828204033
 20
363.9664349092
 30
0.0
 11
362.4553665664
 21
359.6016624647
 31
0.0
  0
LINE
  5
2CA
330
2C5
100
AcDbEntity
  8
COTAS
100
AcDbLine
 10
351.5102742401
 20
368.3312073537
 30
0.0
 11
177.9530876152
 21
506.7562846676
 31
0.0
  0
MTEXT
  5
2CB
330
2C5
100
AcDbEntity
  8
COTAS
100
AcDbMText
 10
150.7168706269
 20
541.3856018009
 30
0.0
 40
8.0
 41
0.0
 46
0.0
 71
     1
 72
     1
  1
%%c
  7
SLDTEXTSTYLE1
 11
0.781792309016012
 21
-0.6235389206484325
 31
0.0
 73
     1
 44
1.0
  0
MTEXT
  5
2CC
330
2C5
100
AcDbEntity
  8
COTAS
100
AcDbMText
 10
159.8494653291
 20
534.1300863363
 30
0.0
 40
8.0
 41
0.0
 46
0.0
 71
     1
 72
     1
  1
222
  7
SLDTEXTSTYLE1
 11
0.781792309016012
 21
-0.6235389206484325
 31
0.0
 73
     1
 44
1.0
  0
SOLID
  5
2CD
330
2C5
100
AcDbEntity
  8
COTAS
100
AcDbTrace
 10
357.7102824773
 20
364.8785259364
 30
0.0
 11
356.2553583292
 21
363.054343882
 31
0.0
 12
351.5102742401
 22
368.3312073537
 32
0.0
 13
351.5102742401
 23
368.3312073537
 33
0.0
  0
SOLID
  5
2CE
330
2C5
100
AcDbEntity
  8
COTAS
100
AcDbTrace
 10
173.2080035261
 20
512.0331481393
 30
0.0
 11
171.753079378
 21
510.2089660849
 31
0.0
 12
177.9530876152
 22
506.7562846676
 32
0.0
 13
177.9530876152
 23
506.7562846676
 33
0.0
  0
ENDBLK
  5
2C7
330
2C5
100
AcDbEntity
  8
0
100
AcDbBlockEnd
  0
BLOCK
  5
2D1
330
2D0
100
AcDbEntity
  8
0
100
AcDbBlockBegin
  2
SW_NOTE_0
 70
     0
 10
0.0
 20
0.0
 30
0.0
  3
SW_NOTE_0
  1

  0
MTEXT
  5
2D3
330
2D0
100
AcDbEntity
  8
TEXTO
 62
     0
100
AcDbMText
 10
0.0
 20
4.5117370892
 30
0.0
 40
3.5
 41
0.0
 46
0.0
 71
     1
 72
     1
  1
Escala 1/1
  7
SLDTEXTSTYLE0
 73
     1
 44
1.0
  0
MTEXT
  5
2D4
330
2D0
100
AcDbEntity
  8
TEXTO
 62
     0
100
AcDbMText
 10
0.0
 20
-1.2982629132
 30
0.0
 40
3.5
 41
0.0
 46
0.0
 71
     1
 72
     1
  1
Scale 1/1
  7
SLDTEXTSTYLE0
 73
     1
 44
1.0
  0
ENDBLK
  5
2D2
330
2D0
100
AcDbEntity
  8
0
100
AcDbBlockEnd
  0
BLOCK
  5
2D7
330
2D6
100
AcDbEntity
  8
0
100
AcDbBlockBegin
  2
SW_NOTE_1
 70
     0
 10
0.0
 20
0.0
 30
0.0
  3
SW_NOTE_1
  1

  0
MTEXT
  5
2D9
330
2D6
100
AcDbEntity
  8
TEXTO
 62
     0
100
AcDbMText
 10
0.0
 20
4.5117370892
 30
0.0
 40
3.5
 41
0.0
 46
0.0
 71
     1
 72
     1
  1
Unidades: mm.
  7
SLDTEXTSTYLE0
 73
     1
 44
1.0
  0
MTEXT
  5
2DA
330
2D6
100
AcDbEntity
  8
TEXTO
 62
     0
100
AcDbMText
 10
0.0
 20
-1.2982629132
 30
0.0
 40
3.5
 41
0.0
 46
0.0
 71
     1
 72
     1
  1
Units: mm.
  7
SLDTEXTSTYLE0
 73
     1
 44
1.0
  0
ENDBLK
  5
2D8
330
2D6
100
AcDbEntity
  8
0
100
AcDbBlockEnd
  0
ENDSEC
  0
SECTION
  2
ENTITIES
  0
LINE
  5
7B
330
1F
100
AcDbEntity
  8
COTAS
100
AcDbLine
 10
429.1495454818
 20
287.5320049635
 30
0.0
 11
100.3138163736
 21
287.5320049635
 31
0.0
  0
LINE
  5
7C
330
1F
100
AcDbEntity
  8
COTAS
100
AcDbLine
 10
100.3138163736
 20
287.5320049635
 30
0.0
 11
100.3138163736
 21
275.5320049635
 31
0.0
  0
LINE
  5
7D
330
1F
100
AcDbEntity
  8
COTAS
100
AcDbLine
 10
100.3138163736
 20
275.5320049635
 30
0.0
 11
429.1495454818
 21
275.5320049635
 31
0.0
  0
LINE
  5
7E
330
1F
100
AcDbEntity
  8
COTAS
100
AcDbLine
 10
429.1495454818
 20
275.5320049635
 30
0.0
 11
429.1495454818
 21
287.5320049635
 31
0.0
  0
LINE
  5
7F
330
1F
100
AcDbEntity
  8
COTAS
100
AcDbLine
 10
162.2316809277
 20
187.5320049635
 30
0.0
 11
100.3138163736
 21
187.5320049635
 31
0.0
  0
LINE
  5
80
330
1F
100
AcDbEntity
  8
COTAS
100
AcDbLine
 10
100.3138163736
 20
187.5320049635
 30
0.0
 11
100.3138163736
 21
175.5320049635
 31
0.0
  0
LINE
  5
81
330
1F
100
AcDbEntity
  8
COTAS
100
AcDbLine
 10
100.3138163736
 20
175.5320049635
 30
0.0
 11
162.2316809277
 21
175.5320049635
 31
0.0
  0
LINE
  5
82
330
1F
100
AcDbEntity
  8
COTAS
100
AcDbLine
 10
162.2316809277
 20
175.5320049635
 30
0.0
 11
162.2316809277
 21
187.5320049635
 31
0.0
  0
LINE
  5
83
330
1F
100
AcDbEntity
  8
COTAS
100
AcDbLine
 10
429.1495454818
 20
187.5320049635
 30
0.0
 11
406.0032515394
 21
187.5320049635
 31
0.0
  0
LINE
  5
84
330
1F
100
AcDbEntity
  8
COTAS
100
AcDbLine
 10
405.0752544722
 20
187.5320049635
 30
0.0
 11
367.2316809277
 21
187.5320049635
 31
0.0
  0
LINE
  5
85
330
1F
100
AcDbEntity
  8
COTAS
100
AcDbLine
 10
367.2316809277
 20
187.5320049635
 30
0.0
 11
367.2316809277
 21
175.5320049635
 31
0.0
  0
LINE
  5
86
330
1F
100
AcDbEntity
  8
COTAS
100
AcDbLine
 10
367.2316809277
 20
175.5320049635
 30
0.0
 11
429.1495454818
 21
175.5320049635
 31
0.0
  0
LINE
  5
87
330
1F
100
AcDbEntity
  8
COTAS
100
AcDbLine
 10
429.1495454818
 20
175.5320049635
 30
0.0
 11
429.1495454818
 21
187.5320049635
 31
0.0
  0
LINE
  5
88
330
1F
100
AcDbEntity
  8
CAJETIN
100
AcDbLine
 10
20.0
 20
15.0000000635
 30
0.0
 11
529.8157960683
 21
15.0000000635
 31
0.0
  0
LINE
  5
89
330
1F
100
AcDbEntity
  8
CAJETIN
100
AcDbLine
 10
20.0
 20
642.669550005
 30
0.0
 11
20.0
 21
15.0000000635
 31
0.0
  0
LINE
  5
8A
330
1F
100
AcDbEntity
  8
CAJETIN
100
AcDbLine
 10
232.8157967275
 20
29.9999994737
 30
0.0
 11
529.8157960683
 21
29.9999994737
 31
0.0
  0
LINE
  5
8B
330
1F
100
AcDbEntity
  8
CAJETIN
100
AcDbLine
 10
232.8157967275
 20
44.9999993552
 30
0.0
 11
529.8157984335
 21
44.9999993552
 31
0.0
  0
LINE
  5
8C
330
1F
100
AcDbEntity
  8
CAJETIN
100
AcDbLine
 10
529.8157960683
 20
642.669550005
 30
0.0
 11
529.8157960683
 21
15.0000000635
 31
0.0
  0
LINE
  5
8D
330
1F
100
AcDbEntity
  8
CAJETIN
100
AcDbLine
 10
20.0
 20
642.669550005
 30
0.0
 11
529.8157960683
 21
642.669550005
 31
0.0
  0
LINE
  5
8E
330
1F
100
AcDbEntity
  8
PIEZA
100
AcDbLine
 10
232.8157967275
 20
44.9999993552
 30
0.0
 11
232.8157967275
 21
14.9999998721
 31
0.0
  0
LINE
  5
8F
330
1F
100
AcDbEntity
  8
TEXTO
 62
   251
420
  6974058
370
    25
100
AcDbLine
 10
323.7565574836
 20
17.1203523475
 30
0.0
 11
323.7431197522
 21
24.3863856916
 31
0.0
  0
LINE
  5
90
330
1F
100
AcDbEntity
  8
TEXTO
 62
   251
420
  6974058
370
    25
100
AcDbLine
 10
323.7431197522
 20
24.3863856916
 30
0.0
 11
324.9625938799
 21
25.5017174007
 31
0.0
  0
LINE
  5
91
330
1F
100
AcDbEntity
  8
TEXTO
 62
   251
420
  6974058
370
    25
100
AcDbLine
 10
324.9625938799
 20
25.5017174007
 30
0.0
 11
326.1820680076
 21
24.282243273
 31
0.0
  0
LINE
  5
92
330
1F
100
AcDbEntity
  8
TEXTO
 62
   251
420
  6974058
370
    25
100
AcDbLine
 10
326.1820680076
 20
24.282243273
 30
0.0
 11
325.3270923451
 21
23.0644488618
 31
0.0
  0
LINE
  5
93
330
1F
100
AcDbEntity
  8
TEXTO
 62
   251
420
  6974058
370
    25
100
AcDbLine
 10
325.3270923451
 20
23.0644488618
 30
0.0
 11
326.1820680076
 21
21.8449747341
 31
0.0
  0
LINE
  5
94
330
1F
100
AcDbEntity
  8
TEXTO
 62
   251
420
  6974058
370
    25
100
AcDbLine
 10
326.1820680076
 20
21.8449747341
 30
0.0
 11
325.3270923451
 21
20.6271803228
 31
0.0
  0
LINE
  5
95
330
1F
100
AcDbEntity
  8
TEXTO
 62
   251
420
  6974058
370
    25
100
AcDbLine
 10
325.3270923451
 20
20.6271803228
 30
0.0
 11
326.1820680076
 21
19.4077061951
 31
0.0
  0
LINE
  5
96
330
1F
100
AcDbEntity
  8
TEXTO
 62
   251
420
  6974058
370
    25
100
AcDbLine
 10
326.1820680076
 20
19.4077061951
 30
0.0
 11
325.3270923451
 21
18.190331713
 31
0.0
  0
LINE
  5
97
330
1F
100
AcDbEntity
  8
TEXTO
 62
   251
420
  6974058
370
    25
100
AcDbLine
 10
325.3270923451
 20
18.190331713
 30
0.0
 11
326.0947227532
 21
17.0951566011
 31
0.0
  0
LINE
  5
98
330
1F
100
AcDbEntity
  8
COTAS
100
AcDbLine
 10
315.8798063044
 20
29.9999994737
 30
0.0
 11
315.8798063044
 21
14.9999998025
 31
0.0
  0
LINE
  5
99
330
1F
100
AcDbEntity
  8
PIEZA
370
    18
100
AcDbLine
 10
452.6274452017
 20
24.4061680209
 30
0.0
 11
456.7216585899
 21
24.4061680209
 31
0.0
  0
LINE
  5
9A
330
1F
100
AcDbEntity
  8
PIEZA
370
    18
100
AcDbLine
 10
456.7216585899
 20
24.4061680209
 30
0.0
 11
458.3683130419
 21
24.4061680209
 31
0.0
  0
LINE
  5
9B
330
1F
100
AcDbEntity
  8
PIEZA
370
    18
100
AcDbLine
 10
460.7268915626
 20
20.0451587262
 30
0.0
 11
460.7268915626
 21
18.3095077097
 31
0.0
  0
LINE
  5
9C
330
1F
100
AcDbEntity
  8
PIEZA
370
    18
100
AcDbLine
 10
460.7268915626
 20
18.3095077097
 30
0.0
 11
459.5697585872
 21
18.3095077097
 31
0.0
  0
LINE
  5
9D
330
1F
100
AcDbEntity
  8
PIEZA
370
    18
100
AcDbLine
 10
459.5697585872
 20
18.3095077097
 30
0.0
 11
459.5697585872
 21
19.7780882884
 31
0.0
  0
LINE
  5
9E
330
1F
100
AcDbEntity
  8
PIEZA
370
    18
100
AcDbLine
 10
458.2792518819
 20
20.6680862305
 30
0.0
 11
456.7216585899
 21
20.6680862305
 31
0.0
  0
LINE
  5
9F
330
1F
100
AcDbEntity
  8
PIEZA
370
    18
100
AcDbLine
 10
456.7216585899
 20
20.6680862305
 30
0.0
 11
453.7844974326
 21
20.6680862305
 31
0.0
  0
LINE
  5
A0
330
1F
100
AcDbEntity
  8
PIEZA
370
    18
100
AcDbLine
 10
453.7844974326
 20
20.6680862305
 30
0.0
 11
453.7844974326
 21
18.3095077098
 31
0.0
  0
LINE
  5
A1
330
1F
100
AcDbEntity
  8
PIEZA
370
    18
100
AcDbLine
 10
453.7844974326
 20
18.3095077098
 30
0.0
 11
452.6274452017
 21
18.3095077098
 31
0.0
  0
LINE
  5
A2
330
1F
100
AcDbEntity
  8
PIEZA
370
    18
100
AcDbLine
 10
452.6274452017
 20
18.3095077098
 30
0.0
 11
452.6274452017
 21
24.4061680209
 31
0.0
  0
LINE
  5
A3
330
1F
100
AcDbEntity
  8
PIEZA
370
    18
100
AcDbLine
 10
456.72165859
 20
23.5162023767
 30
0.0
 11
453.7844974326
 21
23.5162023767
 31
0.0
  0
LINE
  5
A4
330
1F
100
AcDbEntity
  8
PIEZA
370
    18
100
AcDbLine
 10
453.7844974326
 20
23.5162023767
 30
0.0
 11
453.7844974326
 21
21.5580841726
 31
0.0
  0
LINE
  5
A5
330
1F
100
AcDbEntity
  8
PIEZA
370
    18
100
AcDbLine
 10
453.7844974326
 20
21.5580841726
 30
0.0
 11
456.7216585899
 21
21.5580841726
 31
0.0
  0
LINE
  5
A6
330
1F
100
AcDbEntity
  8
PIEZA
370
    18
100
AcDbLine
 10
456.7216585899
 20
21.5580841726
 30
0.0
 11
458.2345678874
 21
21.5580841726
 31
0.0
  0
LINE
  5
A7
330
1F
100
AcDbEntity
  8
PIEZA
370
    18
100
AcDbLine
 10
458.1902553175
 20
23.5162023767
 30
0.0
 11
456.72165859
 21
23.5162023767
 31
0.0
  0
LINE
  5
A8
330
1F
100
AcDbEntity
  8
PIEZA
370
    18
100
AcDbLine
 10
476.169176221
 20
24.4952453298
 30
0.0
 11
477.2372641853
 21
24.4952453298
 31
0.0
  0
LINE
  5
A9
330
1F
100
AcDbEntity
  8
PIEZA
370
    18
100
AcDbLine
 10
476.7033493943
 20
18.2650013532
 30
0.0
 11
476.169176221
 21
18.2650013532
 31
0.0
  0
LINE
  5
AA
330
1F
100
AcDbEntity
  8
PIEZA
370
    18
100
AcDbLine
 10
476.169176221
 20
18.2650013532
 30
0.0
 11
475.1457561023
 21
18.2650013532
 31
0.0
  0
LINE
  5
AB
330
1F
100
AcDbEntity
  8
PIEZA
370
    18
100
AcDbLine
 10
476.169176221
 20
23.5162023767
 30
0.0
 11
474.5672380613
 21
23.5162023767
 31
0.0
  0
LINE
  5
AC
330
1F
100
AcDbEntity
  8
PIEZA
370
    18
100
AcDbLine
 10
472.8315870449
 20
22.2256795225
 30
0.0
 11
472.7872098794
 21
21.3356815804
 31
0.0
  0
LINE
  5
AD
330
1F
100
AcDbEntity
  8
PIEZA
370
    18
100
AcDbLine
 10
472.7872098794
 20
21.3356815804
 30
0.0
 11
472.7872098794
 21
20.9351566683
 31
0.0
  0
LINE
  5
AE
330
1F
100
AcDbEntity
  8
PIEZA
370
    18
100
AcDbLine
 10
474.3447708736
 20
19.2440120085
 30
0.0
 11
476.1247990555
 21
19.1995056519
 31
0.0
  0
LINE
  5
AF
330
1F
100
AcDbEntity
  8
PIEZA
370
    18
100
AcDbLine
 10
476.1247990555
 20
19.1995056519
 30
0.0
 11
476.169176221
 21
19.1995056519
 31
0.0
  0
LINE
  5
B0
330
1F
100
AcDbEntity
  8
PIEZA
370
    18
100
AcDbLine
 10
476.169176221
 20
19.1995056519
 30
0.0
 11
476.7477265598
 21
19.1995056519
 31
0.0
  0
LINE
  5
B1
330
1F
100
AcDbEntity
  8
PIEZA
370
    18
100
AcDbLine
 10
479.5068299926
 20
20.5790089217
 30
0.0
 11
479.5068299927
 21
21.736141897
 31
0.0
  0
LINE
  5
B2
330
1F
100
AcDbEntity
  8
PIEZA
370
    18
100
AcDbLine
 10
477.7714050608
 20
23.5162023767
 30
0.0
 11
476.169176221
 21
23.5162023767
 31
0.0
  0
LINE
  5
B3
330
1F
100
AcDbEntity
  8
PIEZA
370
    18
100
AcDbLine
 10
447.2870053804
 20
19.5999982662
 30
0.0
 11
444.5279665431
 21
19.5999982662
 31
0.0
  0
LINE
  5
B4
330
1F
100
AcDbEntity
  8
PIEZA
370
    18
100
AcDbLine
 10
444.5279665431
 20
19.5999982662
 30
0.0
 11
443.6379201544
 21
18.3095077098
 31
0.0
  0
LINE
  5
B5
330
1F
100
AcDbEntity
  8
PIEZA
370
    18
100
AcDbLine
 10
443.6379201544
 20
18.3095077098
 30
0.0
 11
442.2137167412
 21
18.3095077098
 31
0.0
  0
LINE
  5
B6
330
1F
100
AcDbEntity
  8
PIEZA
370
    18
100
AcDbLine
 10
442.2137167412
 20
18.3095077098
 30
0.0
 11
446.619474626
 21
24.4061680209
 31
0.0
  0
LINE
  5
B7
330
1F
100
AcDbEntity
  8
PIEZA
370
    18
100
AcDbLine
 10
446.619474626
 20
24.4061680209
 30
0.0
 11
447.2870053804
 21
24.4061680209
 31
0.0
  0
LINE
  5
B8
330
1F
100
AcDbEntity
  8
PIEZA
370
    18
100
AcDbLine
 10
447.2870053804
 20
24.4061680209
 30
0.0
 11
447.9102397137
 21
24.4061680209
 31
0.0
  0
LINE
  5
B9
330
1F
100
AcDbEntity
  8
PIEZA
370
    18
100
AcDbLine
 10
447.9102397137
 20
24.4061680209
 30
0.0
 11
452.404978014
 21
18.3095077098
 31
0.0
  0
LINE
  5
BA
330
1F
100
AcDbEntity
  8
PIEZA
370
    18
100
AcDbLine
 10
452.404978014
 20
18.3095077098
 30
0.0
 11
450.9807746009
 21
18.3095077098
 31
0.0
  0
LINE
  5
BB
330
1F
100
AcDbEntity
  8
PIEZA
370
    18
100
AcDbLine
 10
450.9807746009
 20
18.3095077098
 30
0.0
 11
450.0464156422
 21
19.5999982662
 31
0.0
  0
LINE
  5
BC
330
1F
100
AcDbEntity
  8
PIEZA
370
    18
100
AcDbLine
 10
450.0464156422
 20
19.5999982662
 30
0.0
 11
447.2870053804
 21
19.5999982662
 31
0.0
  0
LINE
  5
BD
330
1F
100
AcDbEntity
  8
PIEZA
370
    18
100
AcDbLine
 10
447.2870053804
 20
23.4717929134
 30
0.0
 11
445.1508778985
 21
20.5346963517
 31
0.0
  0
LINE
  5
BE
330
1F
100
AcDbEntity
  8
PIEZA
370
    18
100
AcDbLine
 10
445.1508778985
 20
20.5346963517
 30
0.0
 11
447.2870053804
 21
20.5346963517
 31
0.0
  0
LINE
  5
BF
330
1F
100
AcDbEntity
  8
PIEZA
370
    18
100
AcDbLine
 10
447.2870053804
 20
20.5346963517
 30
0.0
 11
449.4231974578
 21
20.5346963517
 31
0.0
  0
LINE
  5
C0
330
1F
100
AcDbEntity
  8
PIEZA
370
    18
100
AcDbLine
 10
449.4231974578
 20
20.5346963517
 30
0.0
 11
447.2870053804
 21
23.4717929134
 31
0.0
  0
LINE
  5
C1
330
1F
100
AcDbEntity
  8
PIEZA
370
    18
100
AcDbLine
 10
463.6196755543
 20
21.9142319192
 30
0.0
 11
464.6430472263
 21
21.9142319192
 31
0.0
  0
LINE
  5
C2
330
1F
100
AcDbEntity
  8
PIEZA
370
    18
100
AcDbLine
 10
464.6430472263
 20
21.9142319192
 30
0.0
 11
469.1378016755
 21
24.4061680209
 31
0.0
  0
LINE
  5
C3
330
1F
100
AcDbEntity
  8
PIEZA
370
    18
100
AcDbLine
 10
469.1378016755
 20
24.4061680209
 30
0.0
 11
470.6063822542
 21
24.4061680209
 31
0.0
  0
LINE
  5
C4
330
1F
100
AcDbEntity
  8
PIEZA
370
    18
100
AcDbLine
 10
470.6063822542
 20
24.4061680209
 30
0.0
 11
471.2296004386
 21
24.4061680209
 31
0.0
  0
LINE
  5
C5
330
1F
100
AcDbEntity
  8
PIEZA
370
    18
100
AcDbLine
 10
471.2296004386
 20
24.4061680209
 30
0.0
 11
465.8891767661
 21
21.4690714592
 31
0.0
  0
LINE
  5
C6
330
1F
100
AcDbEntity
  8
PIEZA
370
    18
100
AcDbLine
 10
465.8891767661
 20
21.4690714592
 30
0.0
 11
471.5853767606
 21
18.3095077098
 31
0.0
  0
LINE
  5
C7
330
1F
100
AcDbEntity
  8
PIEZA
370
    18
100
AcDbLine
 10
471.5853767606
 20
18.3095077098
 30
0.0
 11
469.3601881188
 21
18.3095077098
 31
0.0
  0
LINE
  5
C8
330
1F
100
AcDbEntity
  8
PIEZA
370
    18
100
AcDbLine
 10
469.3601881188
 20
18.3095077098
 30
0.0
 11
464.6430472263
 21
21.0242339772
 31
0.0
  0
LINE
  5
C9
330
1F
100
AcDbEntity
  8
PIEZA
370
    18
100
AcDbLine
 10
464.6430472263
 20
21.0242339772
 30
0.0
 11
463.6196755543
 21
21.0242339772
 31
0.0
  0
LINE
  5
CA
330
1F
100
AcDbEntity
  8
PIEZA
370
    18
100
AcDbLine
 10
463.6196755543
 20
21.0242339772
 30
0.0
 11
463.6196755543
 21
18.3095077098
 31
0.0
  0
LINE
  5
CB
330
1F
100
AcDbEntity
  8
PIEZA
370
    18
100
AcDbLine
 10
463.6196755543
 20
18.3095077098
 30
0.0
 11
462.4625425789
 21
18.3095077098
 31
0.0
  0
LINE
  5
CC
330
1F
100
AcDbEntity
  8
PIEZA
370
    18
100
AcDbLine
 10
462.4625425789
 20
18.3095077098
 30
0.0
 11
462.4625425789
 21
24.4061680209
 31
0.0
  0
LINE
  5
CD
330
1F
100
AcDbEntity
  8
PIEZA
370
    18
100
AcDbLine
 10
462.4625425789
 20
24.4061680209
 30
0.0
 11
463.6196755543
 21
24.4061680209
 31
0.0
  0
LINE
  5
CE
330
1F
100
AcDbEntity
  8
PIEZA
370
    18
100
AcDbLine
 10
463.6196755543
 20
24.4061680209
 30
0.0
 11
463.6196755543
 21
21.9142319192
 31
0.0
  0
LINE
  5
CF
330
1F
100
AcDbEntity
  8
PIEZA
370
    18
100
AcDbLine
 10
489.0751153143
 20
22.4927499602
 30
0.0
 11
489.0751153143
 21
22.6708076847
 31
0.0
  0
LINE
  5
D0
330
1F
100
AcDbEntity
  8
PIEZA
370
    18
100
AcDbLine
 10
486.5828239369
 20
23.5162023767
 30
0.0
 11
486.2713763337
 21
23.5162023767
 31
0.0
  0
LINE
  5
D1
330
1F
100
AcDbEntity
  8
PIEZA
370
    18
100
AcDbLine
 10
485.4257232593
 20
21.8695317758
 30
0.0
 11
487.0276937168
 21
21.9142319192
 31
0.0
  0
LINE
  5
D2
330
1F
100
AcDbEntity
  8
PIEZA
370
    18
100
AcDbLine
 10
486.8052911247
 20
18.2650013532
 30
0.0
 11
486.2713763338
 21
18.2650013532
 31
0.0
  0
LINE
  5
D3
330
1F
100
AcDbEntity
  8
PIEZA
370
    18
100
AcDbLine
 10
482.3105366755
 20
20.2675613184
 30
0.0
 11
482.3105366755
 21
20.4456190428
 31
0.0
  0
LINE
  5
D4
330
1F
100
AcDbEntity
  8
PIEZA
370
    18
100
AcDbLine
 10
482.3105366755
 20
20.4456190428
 30
0.0
 11
483.4676696509
 21
20.4456190428
 31
0.0
  0
LINE
  5
D5
330
1F
100
AcDbEntity
  8
PIEZA
370
    18
100
AcDbLine
 10
483.4676696509
 20
20.4456190428
 30
0.0
 11
483.4676696509
 21
20.178548605
 31
0.0
  0
LINE
  5
D6
330
1F
100
AcDbEntity
  8
PIEZA
370
    18
100
AcDbLine
 10
487.8733467913
 20
20.8905534182
 30
0.0
 11
486.3157534993
 21
20.9351566683
 31
0.0
  0
LINE
  5
D7
330
1F
100
AcDbEntity
  8
PIEZA
370
    18
100
AcDbLine
 10
490.2322482898
 20
22.6708076846
 30
0.0
 11
490.2322482898
 21
22.4927499602
 31
0.0
  0
LINE
  5
D8
330
1F
100
AcDbEntity
  8
PIEZA
370
    18
100
AcDbLine
 10
490.2322482898
 20
22.4927499602
 30
0.0
 11
489.0751153143
 21
22.4927499602
 31
0.0
  0
LINE
  5
D9
330
1F
100
AcDbEntity
  8
PIEZA
370
    18
100
AcDbLine
 10
520.0044170725
 20
18.3095077098
 30
0.0
 11
518.4021236371
 21
18.3095077098
 31
0.0
  0
LINE
  5
DA
330
1F
100
AcDbEntity
  8
PIEZA
370
    18
100
AcDbLine
 10
518.4021236371
 20
18.3095077098
 30
0.0
 11
518.4021236371
 21
20.7570989438
 31
0.0
  0
LINE
  5
DB
330
1F
100
AcDbEntity
  8
PIEZA
370
    18
100
AcDbLine
 10
518.4021236371
 20
20.7570989438
 30
0.0
 11
516.176967293
 21
20.7570989438
 31
0.0
  0
LINE
  5
DC
330
1F
100
AcDbEntity
  8
PIEZA
370
    18
100
AcDbLine
 10
516.176967293
 20
20.7570989438
 30
0.0
 11
516.176967293
 21
21.5580841726
 31
0.0
  0
LINE
  5
DD
330
1F
100
AcDbEntity
  8
PIEZA
370
    18
100
AcDbLine
 10
516.176967293
 20
21.5580841726
 30
0.0
 11
522.2293150342
 21
21.5580841726
 31
0.0
  0
LINE
  5
DE
330
1F
100
AcDbEntity
  8
PIEZA
370
    18
100
AcDbLine
 10
522.2293150342
 20
21.5580841726
 30
0.0
 11
522.2293150342
 21
20.7570989438
 31
0.0
  0
LINE
  5
DF
330
1F
100
AcDbEntity
  8
PIEZA
370
    18
100
AcDbLine
 10
522.2293150342
 20
20.7570989438
 30
0.0
 11
520.0044170725
 21
20.7570989438
 31
0.0
  0
LINE
  5
E0
330
1F
100
AcDbEntity
  8
PIEZA
370
    18
100
AcDbLine
 10
520.0044170725
 20
20.7570989438
 30
0.0
 11
520.0044170725
 21
18.3095077098
 31
0.0
  0
LINE
  5
E1
330
1F
100
AcDbEntity
  8
PIEZA
370
    18
100
AcDbLine
 10
510.4807350007
 20
18.3095077098
 30
0.0
 11
508.8787645433
 21
18.3095077098
 31
0.0
  0
LINE
  5
E2
330
1F
100
AcDbEntity
  8
PIEZA
370
    18
100
AcDbLine
 10
508.8787645433
 20
18.3095077098
 30
0.0
 11
508.8787645433
 21
21.5580841726
 31
0.0
  0
LINE
  5
E3
330
1F
100
AcDbEntity
  8
PIEZA
370
    18
100
AcDbLine
 10
508.8787645433
 20
21.5580841726
 30
0.0
 11
510.4807350007
 21
21.5580841726
 31
0.0
  0
LINE
  5
E4
330
1F
100
AcDbEntity
  8
PIEZA
370
    18
100
AcDbLine
 10
510.4807350007
 20
21.5580841726
 30
0.0
 11
510.4807350007
 21
20.3566386273
 31
0.0
  0
LINE
  5
E5
330
1F
100
AcDbEntity
  8
PIEZA
370
    18
100
AcDbLine
 10
510.4807350007
 20
20.3566386273
 30
0.0
 11
513.8183887723
 21
20.3566386273
 31
0.0
  0
LINE
  5
E6
330
1F
100
AcDbEntity
  8
PIEZA
370
    18
100
AcDbLine
 10
513.8183887723
 20
20.3566386273
 30
0.0
 11
513.8183887723
 21
21.5580841726
 31
0.0
  0
LINE
  5
E7
330
1F
100
AcDbEntity
  8
PIEZA
370
    18
100
AcDbLine
 10
513.8183887723
 20
21.5580841726
 30
0.0
 11
515.4206499099
 21
21.5580841726
 31
0.0
  0
LINE
  5
E8
330
1F
100
AcDbEntity
  8
PIEZA
370
    18
100
AcDbLine
 10
515.4206499099
 20
21.5580841726
 30
0.0
 11
515.4206499099
 21
18.3095077098
 31
0.0
  0
LINE
  5
E9
330
1F
100
AcDbEntity
  8
PIEZA
370
    18
100
AcDbLine
 10
515.4206499099
 20
18.3095077098
 30
0.0
 11
513.8183887723
 21
18.3095077098
 31
0.0
  0
LINE
  5
EA
330
1F
100
AcDbEntity
  8
PIEZA
370
    18
100
AcDbLine
 10
513.8183887723
 20
18.3095077098
 30
0.0
 11
513.8183887723
 21
19.5999982662
 31
0.0
  0
LINE
  5
EB
330
1F
100
AcDbEntity
  8
PIEZA
370
    18
100
AcDbLine
 10
513.8183887723
 20
19.5999982662
 30
0.0
 11
510.4807350007
 21
19.5999982662
 31
0.0
  0
LINE
  5
EC
330
1F
100
AcDbEntity
  8
PIEZA
370
    18
100
AcDbLine
 10
510.4807350007
 20
19.5999982662
 30
0.0
 11
510.4807350007
 21
18.3095077098
 31
0.0
  0
LINE
  5
ED
330
1F
100
AcDbEntity
  8
PIEZA
370
    18
100
AcDbLine
 10
506.2084477392
 20
20.5346963517
 30
0.0
 11
506.2084477392
 21
20.5790089216
 31
0.0
  0
LINE
  5
EE
330
1F
100
AcDbEntity
  8
PIEZA
370
    18
100
AcDbLine
 10
504.9622697527
 20
20.8014761093
 30
0.0
 11
504.0278946452
 21
20.8014761093
 31
0.0
  0
LINE
  5
EF
330
1F
100
AcDbEntity
  8
PIEZA
370
    18
100
AcDbLine
 10
502.7370811109
 20
20.1341714395
 30
0.0
 11
502.7370811109
 21
19.6890109796
 31
0.0
  0
LINE
  5
F0
330
1F
100
AcDbEntity
  8
PIEZA
370
    18
100
AcDbLine
 10
504.0278946452
 20
19.065986582
 30
0.0
 11
504.9622697527
 21
19.065986582
 31
0.0
  0
LINE
  5
F1
330
1F
100
AcDbEntity
  8
PIEZA
370
    18
100
AcDbLine
 10
506.2084477392
 20
19.5999982663
 30
0.0
 11
504.2950296785
 21
19.5999982663
 31
0.0
  0
LINE
  5
F2
330
1F
100
AcDbEntity
  8
PIEZA
370
    18
100
AcDbLine
 10
504.2950296785
 20
19.5999982663
 30
0.0
 11
504.2950296785
 21
20.0451587263
 31
0.0
  0
LINE
  5
F3
330
1F
100
AcDbEntity
  8
PIEZA
370
    18
100
AcDbLine
 10
504.2950296785
 20
20.0451587263
 30
0.0
 11
507.8997215902
 21
20.0451587263
 31
0.0
  0
LINE
  5
F4
330
1F
100
AcDbEntity
  8
PIEZA
370
    18
100
AcDbLine
 10
507.8997215902
 20
20.0451587263
 30
0.0
 11
507.8997215902
 21
19.1104929385
 31
0.0
  0
LINE
  5
F5
330
1F
100
AcDbEntity
  8
PIEZA
370
    18
100
AcDbLine
 10
505.4074625105
 20
18.2650013531
 30
0.0
 11
503.5827341852
 21
18.2650013531
 31
0.0
  0
LINE
  5
F6
330
1F
100
AcDbEntity
  8
PIEZA
370
    18
100
AcDbLine
 10
501.0907980835
 20
19.4665760896
 30
0.0
 11
501.0907980835
 21
20.3566386273
 31
0.0
  0
LINE
  5
F7
330
1F
100
AcDbEntity
  8
PIEZA
370
    18
100
AcDbLine
 10
503.5827341852
 20
21.6027520182
 30
0.0
 11
505.4074625105
 21
21.6027520182
 31
0.0
  0
LINE
  5
F8
330
1F
100
AcDbEntity
  8
PIEZA
370
    18
100
AcDbLine
 10
507.8104181967
 20
20.5346963517
 30
0.0
 11
506.2084477392
 21
20.5346963517
 31
0.0
  0
LINE
  5
F9
330
1F
100
AcDbEntity
  8
PIEZA
370
    18
100
AcDbLine
 10
500.0226778214
 20
18.3095077098
 30
0.0
 11
498.4204489816
 21
18.3095077098
 31
0.0
  0
LINE
  5
FA
330
1F
100
AcDbEntity
  8
PIEZA
370
    18
100
AcDbLine
 10
498.4204489816
 20
18.3095077098
 30
0.0
 11
498.4204489816
 21
21.5580841726
 31
0.0
  0
LINE
  5
FB
330
1F
100
AcDbEntity
  8
PIEZA
370
    18
100
AcDbLine
 10
498.4204489816
 20
21.5580841726
 30
0.0
 11
500.0226778214
 21
21.5580841726
 31
0.0
  0
LINE
  5
FC
330
1F
100
AcDbEntity
  8
PIEZA
370
    18
100
AcDbLine
 10
500.0226778214
 20
21.5580841726
 30
0.0
 11
500.0226778214
 21
18.3095077098
 31
0.0
  0
LINE
  5
FD
330
1F
100
AcDbEntity
  8
PIEZA
370
    18
100
AcDbLine
 10
494.1483878047
 20
19.1104929386
 30
0.0
 11
497.7084764662
 21
19.1104929386
 31
0.0
  0
LINE
  5
FE
330
1F
100
AcDbEntity
  8
PIEZA
370
    18
100
AcDbLine
 10
497.7084764662
 20
19.1104929386
 30
0.0
 11
497.7084764662
 21
18.3095077098
 31
0.0
  0
LINE
  5
FF
330
1F
100
AcDbEntity
  8
PIEZA
370
    18
100
AcDbLine
 10
497.7084764662
 20
18.3095077098
 30
0.0
 11
492.5461912627
 21
18.3095077098
 31
0.0
  0
LINE
  5
100
330
1F
100
AcDbEntity
  8
PIEZA
370
    18
100
AcDbLine
 10
492.5461912627
 20
18.3095077098
 30
0.0
 11
492.5461912627
 21
21.5580841726
 31
0.0
  0
LINE
  5
101
330
1F
100
AcDbEntity
  8
PIEZA
370
    18
100
AcDbLine
 10
492.5461912627
 20
21.5580841726
 30
0.0
 11
494.1483878047
 21
21.5580841726
 31
0.0
  0
LINE
  5
102
330
1F
100
AcDbEntity
  8
PIEZA
370
    18
100
AcDbLine
 10
494.1483878047
 20
21.5580841726
 30
0.0
 11
494.1483878047
 21
19.1104929386
 31
0.0
  0
LINE
  5
103
330
1F
100
AcDbEntity
  8
PIEZA
370
    18
100
AcDbLine
 10
522.689687754
 20
23.9397879119
 30
0.0
 11
522.689687754
 21
25.4036853108
 31
0.0
  0
LINE
  5
104
330
1F
100
AcDbEntity
  8
PIEZA
370
    18
100
AcDbLine
 10
522.689687754
 20
25.4036853108
 30
0.0
 11
523.312195387
 21
25.4036853108
 31
0.0
  0
LINE
  5
105
330
1F
100
AcDbEntity
  8
PIEZA
370
    18
100
AcDbLine
 10
523.8276681391
 20
24.225397282
 30
0.0
 11
524.0063395215
 21
23.9397879119
 31
0.0
  0
LINE
  5
106
330
1F
100
AcDbEntity
  8
PIEZA
370
    18
100
AcDbLine
 10
524.0063395215
 20
23.9397879119
 30
0.0
 11
523.6530016827
 21
23.9397879119
 31
0.0
  0
LINE
  5
107
330
1F
100
AcDbEntity
  8
PIEZA
370
    18
100
AcDbLine
 10
523.6530016827
 20
23.9397879119
 30
0.0
 11
523.441063575
 21
24.2593099631
 31
0.0
  0
LINE
  5
108
330
1F
100
AcDbEntity
  8
PIEZA
370
    18
100
AcDbLine
 10
523.046255372
 20
24.5510882113
 30
0.0
 11
522.986149182
 21
24.5510882113
 31
0.0
  0
LINE
  5
109
330
1F
100
AcDbEntity
  8
PIEZA
370
    18
100
AcDbLine
 10
522.986149182
 20
24.5510882113
 30
0.0
 11
522.986149182
 21
23.9397879119
 31
0.0
  0
LINE
  5
10A
330
1F
100
AcDbEntity
  8
PIEZA
370
    18
100
AcDbLine
 10
522.986149182
 20
23.9397879119
 30
0.0
 11
522.689687754
 21
23.9397879119
 31
0.0
  0
LINE
  5
10B
330
1F
100
AcDbEntity
  8
PIEZA
370
    18
100
AcDbLine
 10
522.986149182
 20
24.7841813724
 30
0.0
 11
523.2047729326
 21
24.7841813724
 31
0.0
  0
LINE
  5
10C
330
1F
100
AcDbEntity
  8
PIEZA
370
    18
100
AcDbLine
 10
523.2167554132
 20
25.1562842281
 30
0.0
 11
522.986149182
 21
25.1562842281
 31
0.0
  0
LINE
  5
10D
330
1F
100
AcDbEntity
  8
PIEZA
370
    18
100
AcDbLine
 10
522.986149182
 20
25.1562842281
 30
0.0
 11
522.986149182
 21
24.7841813724
 31
0.0
  0
LINE
  5
10E
330
1F
100
AcDbEntity
  8
PIEZA
  6
Continuous
100
AcDbLine
 10
351.486051464
 20
209.5319365678
 30
0.0
 11
349.2833354638
 21
213.7670946764
 31
0.0
  0
LINE
  5
10F
330
1F
100
AcDbEntity
  8
PIEZA
  6
Continuous
100
AcDbLine
 10
373.2869131513
 20
198.6735932917
 30
0.0
 11
364.6158951703
 21
200.730785337
 31
0.0
  0
LINE
  5
110
330
1F
100
AcDbEntity
  8
PIEZA
  6
Continuous
100
AcDbLine
 10
261.690882255
 20
216.0641712132
 30
0.0
 11
261.5428018717
 21
213.7671418907
 31
0.0
  0
LINE
  5
111
330
1F
100
AcDbEntity
  8
PIEZA
  6
Continuous
100
AcDbLine
 10
207.5642945185
 20
216.0641712132
 30
0.0
 11
207.4162141352
 21
213.7671418907
 31
0.0
  0
LINE
  5
112
330
1F
100
AcDbEntity
  8
PIEZA
  6
Continuous
100
AcDbLine
 10
315.8174699916
 20
216.0641712132
 30
0.0
 11
315.6693896082
 21
213.7671418907
 31
0.0
  0
LINE
  5
113
330
1F
100
AcDbEntity
  8
PIEZA
  6
Continuous
100
AcDbLine
 10
267.7231057116
 20
217.0407311667
 30
0.0
 11
267.7097626789
 21
216.2763093322
 31
0.0
  0
LINE
  5
114
330
1F
100
AcDbEntity
  8
PIEZA
  6
Continuous
100
AcDbLine
 10
267.8011740922
 20
219.5320049635
 30
0.0
 11
267.8011740922
 21
219.8320049635
 31
0.0
  0
LINE
  5
115
330
1F
100
AcDbEntity
  8
PIEZA
  6
Continuous
100
AcDbLine
 10
322.0471477201
 20
213.7671418907
 30
0.0
 11
321.8990673368
 21
216.0641712132
 31
0.0
  0
LINE
  5
116
330
1F
100
AcDbEntity
  8
PIEZA
  6
Continuous
100
AcDbLine
 10
213.7939722471
 20
213.7671418907
 30
0.0
 11
213.6458918637
 21
216.0641712132
 31
0.0
  0
LINE
  5
117
330
1F
100
AcDbEntity
  8
PIEZA
  6
Continuous
100
AcDbLine
 10
404.1679993368
 20
192.9681709094
 30
0.0
 11
377.4374031813
 21
200.4462049112
 31
0.0
  0
LINE
  5
118
330
1F
100
AcDbEntity
  8
PIEZA
  6
Continuous
100
AcDbLine
 10
267.9205599836
 20
213.7671418907
 30
0.0
 11
267.7724796003
 21
216.0641712132
 31
0.0
  0
LINE
  5
119
330
1F
100
AcDbEntity
  8
PIEZA
  6
Continuous
100
AcDbLine
 10
364.6753598791
 20
199.4833673889
 30
0.0
 11
372.9631831326
 21
197.5170879846
 31
0.0
  0
LINE
  5
11A
330
1F
100
AcDbEntity
  8
PIEZA
  6
Continuous
100
AcDbLine
 10
379.909565637
 20
194.2511126166
 30
0.0
 11
379.9903891373
 21
194.5400201482
 31
0.0
  0
LINE
  5
11B
330
1F
100
AcDbEntity
  8
PIEZA
  6
Continuous
100
AcDbLine
 10
380.0432643865
 20
200.0287190012
 30
0.0
 11
379.9624408863
 21
199.7398114696
 31
0.0
  0
LINE
  5
11C
330
1F
100
AcDbEntity
  8
PIEZA
  6
Continuous
100
AcDbLine
 10
180.1800263915
 20
213.7670946764
 30
0.0
 11
177.9773103913
 21
209.5319365678
 31
0.0
  0
LINE
  5
11D
330
1F
100
AcDbEntity
  8
PIEZA
  6
Continuous
100
AcDbLine
 10
164.8489587617
 20
200.7620757136
 30
0.0
 11
156.1443852872
 21
198.7517554897
 31
0.0
  0
LINE
  5
11E
330
1F
100
AcDbEntity
  8
PIEZA
  6
Continuous
100
AcDbLine
 10
169.0100483825
 20
204.5967818389
 30
0.0
 11
167.7850277889
 21
204.3138634764
 31
0.0
  0
LINE
  5
11F
330
1F
100
AcDbEntity
  8
PIEZA
  6
Continuous
100
AcDbLine
 10
375.7020916251
 20
174.419277617
 30
0.0
 11
375.7312294161
 21
175.5320049635
 31
0.0
  0
LINE
  5
120
330
1F
100
AcDbEntity
  8
PIEZA
  6
Continuous
100
AcDbLine
 10
153.7321324392
 20
175.5320049635
 30
0.0
 11
153.7612702302
 21
174.419277617
 31
0.0
  0
LINE
  5
121
330
1F
100
AcDbEntity
  8
PIEZA
  6
Continuous
100
AcDbLine
 10
361.548226016
 20
203.3701548511
 30
0.0
 11
360.7521923889
 21
204.3433191328
 31
0.0
  0
LINE
  5
122
330
1F
100
AcDbEntity
  8
PIEZA
  6
Continuous
100
AcDbLine
 10
155.9711027607
 20
199.3853761399
 30
0.0
 11
164.9125841158
 21
202.095927122
 31
0.0
  0
LINE
  5
123
330
1F
100
AcDbEntity
  8
PIEZA
  6
Continuous
100
AcDbLine
 10
164.6332117457
 20
196.5315818732
 30
0.0
 11
164.6483733047
 21
196.5528983243
 31
0.0
  0
LINE
  5
124
330
1F
100
AcDbEntity
  8
PIEZA
  6
Continuous
100
AcDbLine
 10
149.4163432236
 20
194.6582890836
 30
0.0
 11
149.4954399325
 21
194.3689040276
 31
0.0
  0
LINE
  5
125
330
1F
100
AcDbEntity
  8
PIEZA
  6
Continuous
100
AcDbLine
 10
168.0550597357
 20
203.1446403379
 30
0.0
 11
169.2800803293
 21
203.4275587004
 31
0.0
  0
LINE
  5
126
330
1F
100
AcDbEntity
  8
PIEZA
  6
Continuous
100
AcDbLine
 10
156.4612029062
 20
197.5933374967
 30
0.0
 11
164.7895942275
 21
199.5167784964
 31
0.0
  0
LINE
  5
127
330
1F
100
AcDbEntity
  8
PIEZA
  6
Continuous
100
AcDbLine
 10
164.059423852
 20
191.5320049635
 30
0.0
 11
163.3608487654
 21
175.5320049635
 31
0.0
  0
LINE
  5
128
330
1F
100
AcDbEntity
  8
PIEZA
  6
Continuous
100
AcDbLine
 10
366.1025130899
 20
175.5320049635
 30
0.0
 11
365.4039380033
 21
191.5320049635
 31
0.0
  0
LINE
  5
129
330
1F
100
AcDbEntity
  8
PIEZA
  6
Continuous
100
AcDbLine
 10
250.2316809277
 20
220.0320049635
 30
0.0
 11
249.9581490373
 21
213.7670946764
 31
0.0
  0
LINE
  5
12A
330
1F
100
AcDbEntity
  8
PIEZA
  6
Continuous
100
AcDbLine
 10
279.505212818
 20
213.7670946764
 30
0.0
 11
279.2316809277
 21
220.0320049635
 31
0.0
  0
LINE
  5
12B
330
1F
100
AcDbEntity
  8
PIEZA
  6
Continuous
100
AcDbLine
 10
164.9733131345
 20
203.3682626051
 30
0.0
 11
155.6545388929
 21
200.5433377778
 31
0.0
  0
LINE
  5
12C
330
1F
100
AcDbEntity
  8
PIEZA
  6
Continuous
100
AcDbLine
 10
261.7535991764
 20
216.2763093322
 30
0.0
 11
261.7402561437
 21
217.0407311667
 31
0.0
  0
LINE
  5
12D
330
1F
100
AcDbEntity
  8
PIEZA
  6
Continuous
100
AcDbLine
 10
149.4753440269
 20
199.8578207737
 30
0.0
 11
149.396247318
 21
200.1472058297
 31
0.0
  0
LINE
  5
12E
330
1F
100
AcDbEntity
  8
PIEZA
  6
Continuous
100
AcDbLine
 10
362.537827475
 20
202.689735206
 30
0.0
 11
373.4639765577
 21
199.3061678031
 31
0.0
  0
LINE
  5
12F
330
1F
100
AcDbEntity
  8
PIEZA
  6
Continuous
100
AcDbLine
 10
373.7874501044
 20
200.4622182786
 30
0.0
 11
362.8928072685
 21
203.8360289494
 31
0.0
  0
LINE
  5
130
330
1F
100
AcDbEntity
  8
PIEZA
  6
Continuous
 62
   251
420
  6974058
100
AcDbLine
 10
315.8174699916
 20
216.0641712132
 30
0.0
 11
321.8990673368
 21
216.0641712132
 31
0.0
  0
LINE
  5
131
330
1F
100
AcDbEntity
  8
PIEZA
  6
Continuous
 62
   251
420
  6974058
100
AcDbLine
 10
165.3666186391
 20
207.4835688039
 30
0.0
 11
165.5533498473
 21
207.4835688039
 31
0.0
  0
LINE
  5
132
330
1F
100
AcDbEntity
  8
PIEZA
  6
Continuous
100
AcDbLine
 10
365.4039380033
 20
191.5320049635
 30
0.0
 11
365.2897594027
 21
191.5320049635
 31
0.0
  0
LINE
  5
133
330
1F
100
AcDbEntity
  8
PIEZA
  6
Continuous
100
AcDbLine
 10
375.7312294161
 20
175.5320049635
 30
0.0
 11
153.7321324392
 21
175.5320049635
 31
0.0
  0
LINE
  5
134
330
1F
100
AcDbEntity
  8
PIEZA
  6
Continuous
100
AcDbLine
 10
164.059423852
 20
191.5320049635
 30
0.0
 11
164.4097911365
 21
191.5320049635
 31
0.0
  0
LINE
  5
135
330
1F
100
AcDbEntity
  8
PIEZA
  6
Continuous
 62
   251
420
  6974058
100
AcDbLine
 10
178.4358045672
 20
209.2929098103
 30
0.0
 11
169.7358152889
 21
209.2929098148
 31
0.0
  0
LINE
  5
136
330
1F
100
AcDbEntity
  8
PIEZA
  6
Continuous
100
AcDbLine
 10
350.9311141307
 20
209.5320049635
 30
0.0
 11
359.7278783296
 21
209.5320049635
 31
0.0
  0
LINE
  5
137
330
1F
100
AcDbEntity
  8
PIEZA
  6
Continuous
 62
   251
420
  6974058
100
AcDbLine
 10
261.690882255
 20
216.0641712132
 30
0.0
 11
267.7724796003
 21
216.0641712132
 31
0.0
  0
LINE
  5
138
330
1F
100
AcDbEntity
  8
PIEZA
  6
Continuous
100
AcDbLine
 10
164.6413287075
 20
196.5320049635
 30
0.0
 11
164.6474541819
 21
196.5320049635
 31
0.0
  0
LINE
  5
139
330
1F
100
AcDbEntity
  8
PIEZA
  6
Continuous
 62
   251
420
  6974058
100
AcDbLine
 10
359.7275465664
 20
209.2929098148
 30
0.0
 11
351.0275572881
 21
209.2929098103
 31
0.0
  0
LINE
  5
13A
330
1F
100
AcDbEntity
  8
PIEZA
  6
Continuous
100
AcDbLine
 10
213.1469276041
 20
216.5320049635
 30
0.0
 11
208.0632587781
 21
216.5320049635
 31
0.0
  0
LINE
  5
13B
330
1F
100
AcDbEntity
  8
PIEZA
  6
Continuous
100
AcDbLine
 10
279.2316809277
 20
220.0320049635
 30
0.0
 11
267.8103048839
 21
220.0320049635
 31
0.0
  0
LINE
  5
13C
330
1F
100
AcDbEntity
  8
PIEZA
  6
Continuous
100
AcDbLine
 10
261.6530569715
 20
220.0320049635
 30
0.0
 11
250.2316809277
 21
220.0320049635
 31
0.0
  0
LINE
  5
13D
330
1F
100
AcDbEntity
  8
PIEZA
  6
Continuous
100
AcDbLine
 10
364.8299441578
 20
196.5318794528
 30
0.0
 11
364.8220331478
 21
196.5320049635
 31
0.0
  0
LINE
  5
13E
330
1F
100
AcDbEntity
  8
PIEZA
  6
Continuous
100
AcDbLine
 10
349.2833354638
 20
213.7670946764
 30
0.0
 11
180.1800263915
 21
213.7670946764
 31
0.0
  0
LINE
  5
13F
330
1F
100
AcDbEntity
  8
PIEZA
  6
Continuous
100
AcDbLine
 10
321.4001030772
 20
216.5320049635
 30
0.0
 11
316.3164342512
 21
216.5320049635
 31
0.0
  0
LINE
  5
140
330
1F
100
AcDbEntity
  8
PIEZA
  6
Continuous
100
AcDbLine
 10
164.3915915549
 20
196.2934659664
 30
0.0
 11
164.3918763847
 21
196.2929098103
 31
0.0
  0
LINE
  5
141
330
1F
100
AcDbEntity
  8
PIEZA
  6
Continuous
 62
   251
420
  6974058
100
AcDbLine
 10
364.3214171301
 20
206.8971877682
 30
0.0
 11
364.1310243995
 21
206.8971877675
 31
0.0
  0
LINE
  5
142
330
1F
100
AcDbEntity
  8
PIEZA
  6
Continuous
 62
   251
420
  6974058
100
AcDbLine
 10
164.6413287075
 20
196.5320049635
 30
0.0
 11
164.6413287075
 21
196.4057822701
 31
0.0
  0
LINE
  5
143
330
1F
100
AcDbEntity
  8
PIEZA
  6
Continuous
 62
   251
420
  6974058
100
AcDbLine
 10
165.3323374559
 20
206.8971877676
 30
0.0
 11
165.1419447272
 21
206.8971877676
 31
0.0
  0
LINE
  5
144
330
1F
100
AcDbEntity
  8
PIEZA
  6
Continuous
 62
   251
420
  6974058
100
AcDbLine
 10
363.91001201
 20
207.4835688045
 30
0.0
 11
364.0967432182
 21
207.4835688045
 31
0.0
  0
LINE
  5
145
330
1F
100
AcDbEntity
  8
PIEZA
  6
Continuous
100
AcDbLine
 10
164.7333427777
 20
191.5320049635
 30
0.0
 11
364.7300190777
 21
191.5320049635
 31
0.0
  0
LINE
  5
146
330
1F
100
AcDbEntity
  8
PIEZA
  6
Continuous
100
AcDbLine
 10
154.2610988927
 20
173.9323660912
 30
0.0
 11
375.2022629626
 21
173.9323660912
 31
0.0
  0
LINE
  5
147
330
1F
100
AcDbEntity
  8
PIEZA
  6
Continuous
100
AcDbLine
 10
169.7354835257
 20
209.5320049635
 30
0.0
 11
178.5322477246
 21
209.5320049635
 31
0.0
  0
LINE
  5
148
330
1F
100
AcDbEntity
  8
PIEZA
  6
Continuous
100
AcDbLine
 10
267.2735153406
 20
216.5320049635
 30
0.0
 11
262.1898465147
 21
216.5320049635
 31
0.0
  0
LINE
  5
149
330
1F
100
AcDbEntity
  8
PIEZA
  6
Continuous
 62
   251
420
  6974058
100
AcDbLine
 10
207.5642945185
 20
216.0641712132
 30
0.0
 11
213.6458918637
 21
216.0641712132
 31
0.0
  0
LINE
  5
14A
330
1F
100
AcDbEntity
  8
PIEZA
  6
Continuous
100
AcDbLine
 10
402.8209409995
 20
188.1530453828
 30
0.0
 11
404.8657238371
 21
187.5810059305
 31
0.0
  0
LINE
  5
14B
330
1F
100
AcDbEntity
  8
PIEZA
  6
Continuous
100
AcDbLine
 10
402.8209409995
 20
188.1530453828
 30
0.0
 11
404.1679993368
 21
192.9681709094
 31
0.0
  0
LINE
  5
14C
330
1F
100
AcDbEntity
  8
PIEZA
  6
Continuous
100
AcDbLine
 10
376.0903448441
 20
195.6310793847
 30
0.0
 11
402.8209409995
 21
188.1530453828
 31
0.0
  0
LINE
  5
14D
330
1F
100
AcDbEntity
  8
PIEZA
  6
Continuous
100
AcDbLine
 10
126.5480555989
 20
188.4077718169
 30
0.0
 11
124.4998930164
 21
187.8479539679
 31
0.0
  0
LINE
  5
14E
330
1F
100
AcDbEntity
  8
PIEZA
  6
Continuous
100
AcDbLine
 10
126.5480555989
 20
188.4077718169
 30
0.0
 11
125.2297771172
 21
193.2308560837
 31
0.0
  0
LINE
  5
14F
330
1F
100
AcDbEntity
  8
PIEZA
  6
Continuous
100
AcDbLine
 10
153.3228337536
 20
195.7260378767
 30
0.0
 11
126.5480555989
 21
188.4077718169
 31
0.0
  0
LINE
  5
150
330
1F
100
AcDbEntity
  8
PIEZA
  6
Continuous
100
AcDbLine
 10
156.5324926489
 20
197.3331066586
 30
0.0
 11
155.5854207068
 21
200.7980860594
 31
0.0
  0
LINE
  5
151
330
1F
100
AcDbEntity
  8
PIEZA
  6
Continuous
100
AcDbLine
 10
152.0045552719
 20
200.5491221435
 30
0.0
 11
153.3228337536
 21
195.7260378767
 31
0.0
  0
LINE
  5
152
330
1F
100
AcDbEntity
  8
PIEZA
  6
Continuous
100
AcDbLine
 10
125.2297771172
 20
193.2308560837
 30
0.0
 11
152.0045552719
 21
200.5491221435
 31
0.0
  0
LINE
  5
153
330
1F
100
AcDbEntity
  8
PIEZA
  6
Continuous
100
AcDbLine
 10
152.0045552719
 20
200.5491221435
 30
0.0
 11
155.5854207068
 21
200.7980860594
 31
0.0
  0
LINE
  5
154
330
1F
100
AcDbEntity
  8
PIEZA
  6
Continuous
100
AcDbLine
 10
156.5324926489
 20
197.3331066586
 30
0.0
 11
153.3228337536
 21
195.7260378767
 31
0.0
  0
LINE
  5
155
330
1F
100
AcDbEntity
  8
PIEZA
  6
Continuous
100
AcDbLine
 10
150.261899214
 20
194.5783979369
 30
0.0
 11
150.1828025051
 21
194.8677829929
 31
0.0
  0
LINE
  5
156
330
1F
100
AcDbEntity
  8
PIEZA
  6
Continuous
100
AcDbLine
 10
150.0659588513
 20
194.5248421727
 30
0.0
 11
149.9868621424
 21
194.8142272287
 31
0.0
  0
LINE
  5
157
330
1F
100
AcDbEntity
  8
PIEZA
  6
Continuous
100
AcDbLine
 10
150.8538237652
 20
194.7401868163
 30
0.0
 11
150.7747270563
 21
195.0295718723
 31
0.0
  0
LINE
  5
158
330
1F
100
AcDbEntity
  8
PIEZA
  6
Continuous
100
AcDbLine
 10
149.8829272394
 20
194.4748147168
 30
0.0
 11
149.8038305305
 21
194.7641997728
 31
0.0
  0
LINE
  5
159
330
1F
100
AcDbEntity
  8
PIEZA
  6
Continuous
100
AcDbLine
 10
149.513463322
 20
194.3738303041
 30
0.0
 11
149.4343666131
 21
194.6632153601
 31
0.0
  0
LINE
  5
15A
330
1F
100
AcDbEntity
  8
PIEZA
  6
Continuous
100
AcDbLine
 10
149.4957313795
 20
194.3689836879
 30
0.0
 11
149.4166346706
 21
194.6583687439
 31
0.0
  0
LINE
  5
15B
330
1F
100
AcDbEntity
  8
PIEZA
  6
Continuous
100
AcDbLine
 10
150.872137083
 20
194.7451923379
 30
0.0
 11
150.7930403741
 21
195.0345773939
 31
0.0
  0
LINE
  5
15C
330
1F
100
AcDbEntity
  8
PIEZA
  6
Continuous
 62
   251
420
  6974058
100
AcDbLine
 10
150.0469896438
 20
194.5196573787
 30
0.0
 11
149.9678929349
 21
194.8090424348
 31
0.0
  0
LINE
  5
15D
330
1F
100
AcDbEntity
  8
PIEZA
  6
Continuous
 62
   251
420
  6974058
100
AcDbLine
 10
149.8988767014
 20
194.4791741331
 30
0.0
 11
149.8197799925
 21
194.7685591891
 31
0.0
  0
LINE
  5
15E
330
1F
100
AcDbEntity
  8
PIEZA
  6
Continuous
100
AcDbLine
 10
150.0584358357
 20
194.5227859304
 30
0.0
 11
149.9793391268
 21
194.8121709864
 31
0.0
  0
LINE
  5
15F
330
1F
100
AcDbEntity
  8
PIEZA
  6
Continuous
100
AcDbLine
 10
150.0553297929
 20
194.5219369655
 30
0.0
 11
149.976233084
 21
194.8113220215
 31
0.0
  0
LINE
  5
160
330
1F
100
AcDbEntity
  8
PIEZA
  6
Continuous
100
AcDbLine
 10
150.8647663335
 20
194.7431777141
 30
0.0
 11
150.7856696246
 21
195.0325627701
 31
0.0
  0
LINE
  5
161
330
1F
100
AcDbEntity
  8
PIEZA
  6
Continuous
100
AcDbLine
 10
150.8635694901
 20
194.7428505847
 30
0.0
 11
150.7844727812
 21
195.0322356407
 31
0.0
  0
LINE
  5
162
330
1F
100
AcDbEntity
  8
PIEZA
  6
Continuous
100
AcDbLine
 10
150.8724277705
 20
194.7452717906
 30
0.0
 11
150.7933310616
 21
195.0346568466
 31
0.0
  0
LINE
  5
163
330
1F
100
AcDbEntity
  8
PIEZA
  6
Continuous
100
AcDbLine
 10
148.8332514148
 20
199.9933239269
 30
0.0
 11
148.9123481237
 21
199.7039388709
 31
0.0
  0
LINE
  5
164
330
1F
100
AcDbEntity
  8
PIEZA
  6
Continuous
100
AcDbLine
 10
148.8363574598
 20
199.9941728925
 30
0.0
 11
148.9154541687
 21
199.7047878364
 31
0.0
  0
LINE
  5
165
330
1F
100
AcDbEntity
  8
PIEZA
  6
Continuous
100
AcDbLine
 10
148.026920917
 20
199.7729321432
 30
0.0
 11
148.1060176259
 21
199.4835470872
 31
0.0
  0
LINE
  5
166
330
1F
100
AcDbEntity
  8
PIEZA
  6
Continuous
100
AcDbLine
 10
148.0281177604
 20
199.7732592727
 30
0.0
 11
148.1072144693
 21
199.4838742167
 31
0.0
  0
LINE
  5
167
330
1F
100
AcDbEntity
  8
PIEZA
  6
Continuous
100
AcDbLine
 10
149.0087600111
 20
200.0412951406
 30
0.0
 11
149.08785672
 21
199.7519100846
 31
0.0
  0
LINE
  5
168
330
1F
100
AcDbEntity
  8
PIEZA
  6
Continuous
100
AcDbLine
 10
149.3782239285
 20
200.1422795533
 30
0.0
 11
149.4573206374
 21
199.8528944973
 31
0.0
  0
LINE
  5
169
330
1F
100
AcDbEntity
  8
PIEZA
  6
Continuous
100
AcDbLine
 10
149.395955871
 20
200.1471261695
 30
0.0
 11
149.4750525799
 21
199.8577411135
 31
0.0
  0
LINE
  5
16A
330
1F
100
AcDbEntity
  8
PIEZA
  6
Continuous
100
AcDbLine
 10
148.0195501675
 20
199.7709175194
 30
0.0
 11
148.0986468764
 21
199.4815324634
 31
0.0
  0
LINE
  5
16B
330
1F
100
AcDbEntity
  8
PIEZA
  6
Continuous
 62
   251
420
  6974058
100
AcDbLine
 10
148.844696604
 20
199.9964522045
 30
0.0
 11
148.9237933129
 21
199.7070671485
 31
0.0
  0
LINE
  5
16C
330
1F
100
AcDbEntity
  8
PIEZA
  6
Continuous
 62
   251
420
  6974058
100
AcDbLine
 10
148.992813657
 20
200.0369365737
 30
0.0
 11
149.0719103659
 21
199.7475515177
 31
0.0
  0
LINE
  5
16D
330
1F
100
AcDbEntity
  8
PIEZA
  6
Continuous
100
AcDbLine
 10
148.6297880365
 20
199.9377119204
 30
0.0
 11
148.7088847454
 21
199.6483268644
 31
0.0
  0
LINE
  5
16E
330
1F
100
AcDbEntity
  8
PIEZA
  6
Continuous
100
AcDbLine
 10
148.8257283992
 20
199.9912676847
 30
0.0
 11
148.9048251081
 21
199.7018826287
 31
0.0
  0
LINE
  5
16F
330
1F
100
AcDbEntity
  8
PIEZA
  6
Continuous
100
AcDbLine
 10
148.0378634853
 20
199.7759230411
 30
0.0
 11
148.1169601942
 21
199.4865379851
 31
0.0
  0
LINE
  5
170
330
1F
100
AcDbEntity
  8
PIEZA
  6
Continuous
100
AcDbLine
 10
148.01925948
 20
199.7708380667
 30
0.0
 11
148.0983561889
 21
199.4814530107
 31
0.0
  0
LINE
  5
171
330
1F
100
AcDbEntity
  8
PIEZA
  6
Continuous
100
AcDbLine
 10
150.8538237652
 20
194.7401868163
 30
0.0
 11
150.261899214
 21
194.5783979369
 31
0.0
  0
LINE
  5
172
330
1F
100
AcDbEntity
  8
PIEZA
  6
Continuous
100
AcDbLine
 10
150.261899214
 20
194.5783979369
 30
0.0
 11
150.0659588513
 21
194.5248421727
 31
0.0
  0
LINE
  5
173
330
1F
100
AcDbEntity
  8
PIEZA
  6
Continuous
100
AcDbLine
 10
150.0469896438
 20
194.5196573787
 30
0.0
 11
149.8988767014
 21
194.4791741331
 31
0.0
  0
LINE
  5
174
330
1F
100
AcDbEntity
  8
PIEZA
  6
Continuous
100
AcDbLine
 10
150.8647663335
 20
194.7431777141
 30
0.0
 11
150.8635694901
 21
194.7428505847
 31
0.0
  0
LINE
  5
175
330
1F
100
AcDbEntity
  8
PIEZA
  6
Continuous
100
AcDbLine
 10
150.8635694901
 20
194.7428505847
 30
0.0
 11
150.8552084288
 21
194.740565282
 31
0.0
  0
LINE
  5
176
330
1F
100
AcDbEntity
  8
PIEZA
  6
Continuous
100
AcDbLine
 10
148.026920917
 20
199.7729321432
 30
0.0
 11
148.0281177604
 21
199.7732592727
 31
0.0
  0
LINE
  5
177
330
1F
100
AcDbEntity
  8
PIEZA
  6
Continuous
100
AcDbLine
 10
148.0281177604
 20
199.7732592727
 30
0.0
 11
148.0364788217
 21
199.7755445753
 31
0.0
  0
LINE
  5
178
330
1F
100
AcDbEntity
  8
PIEZA
  6
Continuous
100
AcDbLine
 10
148.844696604
 20
199.9964522045
 30
0.0
 11
148.992813657
 21
200.0369365737
 31
0.0
  0
LINE
  5
179
330
1F
100
AcDbEntity
  8
PIEZA
  6
Continuous
100
AcDbLine
 10
148.0378634853
 20
199.7759230411
 30
0.0
 11
148.6297880365
 21
199.9377119204
 31
0.0
  0
LINE
  5
17A
330
1F
100
AcDbEntity
  8
PIEZA
  6
Continuous
100
AcDbLine
 10
148.6297880365
 20
199.9377119204
 30
0.0
 11
148.8257283992
 21
199.9912676847
 31
0.0
  0
LINE
  5
17B
330
1F
100
AcDbEntity
  8
PIEZA
  6
Continuous
100
AcDbLine
 10
123.1816145348
 20
192.6710382348
 30
0.0
 11
125.2297771172
 21
193.2308560837
 31
0.0
  0
LINE
  5
17C
330
1F
100
AcDbEntity
  8
PIEZA
  6
Continuous
100
AcDbLine
 10
379.8907013648
 20
194.2563900024
 30
0.0
 11
379.9715248651
 21
194.545297534
 31
0.0
  0
LINE
  5
17D
330
1F
100
AcDbEntity
  8
PIEZA
  6
Continuous
100
AcDbLine
 10
378.553423321
 20
194.6305010257
 30
0.0
 11
378.6342468212
 21
194.9194085573
 31
0.0
  0
LINE
  5
17E
330
1F
100
AcDbEntity
  8
PIEZA
  6
Continuous
100
AcDbLine
 10
378.546748519
 20
194.632368339
 30
0.0
 11
378.6275720192
 21
194.9212758706
 31
0.0
  0
LINE
  5
17F
330
1F
100
AcDbEntity
  8
PIEZA
  6
Continuous
100
AcDbLine
 10
378.5348500148
 20
194.6356970122
 30
0.0
 11
378.6156735151
 21
194.9246045438
 31
0.0
  0
LINE
  5
180
330
1F
100
AcDbEntity
  8
PIEZA
  6
Continuous
100
AcDbLine
 10
379.909274671
 20
194.251194016
 30
0.0
 11
379.9900981712
 21
194.5401015476
 31
0.0
  0
LINE
  5
181
330
1F
100
AcDbEntity
  8
PIEZA
  6
Continuous
100
AcDbLine
 10
379.9052117603
 20
194.252330638
 30
0.0
 11
379.9860352605
 21
194.5412381696
 31
0.0
  0
LINE
  5
182
330
1F
100
AcDbEntity
  8
PIEZA
  6
Continuous
100
AcDbLine
 10
380.0621286587
 20
200.0234416154
 30
0.0
 11
379.9813051585
 21
199.7345340838
 31
0.0
  0
LINE
  5
183
330
1F
100
AcDbEntity
  8
PIEZA
  6
Continuous
100
AcDbLine
 10
381.3994067025
 20
199.6493305921
 30
0.0
 11
381.3185832023
 21
199.3604230605
 31
0.0
  0
LINE
  5
184
330
1F
100
AcDbEntity
  8
PIEZA
  6
Continuous
100
AcDbLine
 10
381.4060814844
 20
199.6474632845
 30
0.0
 11
381.3252579842
 21
199.3585557529
 31
0.0
  0
LINE
  5
185
330
1F
100
AcDbEntity
  8
PIEZA
  6
Continuous
100
AcDbLine
 10
381.4179799886
 20
199.6441346113
 30
0.0
 11
381.3371564883
 21
199.3552270797
 31
0.0
  0
LINE
  5
186
330
1F
100
AcDbEntity
  8
PIEZA
  6
Continuous
100
AcDbLine
 10
380.0435553526
 20
200.0286376019
 30
0.0
 11
379.9627318523
 21
199.7397300703
 31
0.0
  0
LINE
  5
187
330
1F
100
AcDbEntity
  8
PIEZA
  6
Continuous
100
AcDbLine
 10
380.0476182633
 20
200.0275009798
 30
0.0
 11
379.966794763
 21
199.7385934482
 31
0.0
  0
LINE
  5
188
330
1F
100
AcDbEntity
  8
PIEZA
  6
Continuous
100
AcDbLine
 10
379.8907013648
 20
194.2563900024
 30
0.0
 11
378.553423321
 21
194.6305010257
 31
0.0
  0
LINE
  5
189
330
1F
100
AcDbEntity
  8
PIEZA
  6
Continuous
100
AcDbLine
 10
378.5475610713
 20
194.6321410229
 30
0.0
 11
378.546748519
 21
194.632368339
 31
0.0
  0
LINE
  5
18A
330
1F
100
AcDbEntity
  8
PIEZA
  6
Continuous
100
AcDbLine
 10
380.0621286587
 20
200.0234416154
 30
0.0
 11
381.3994067025
 21
199.6493305921
 31
0.0
  0
LINE
  5
18B
330
1F
100
AcDbEntity
  8
PIEZA
  6
Continuous
100
AcDbLine
 10
381.4052689321
 20
199.6476906005
 30
0.0
 11
381.4060814844
 21
199.6474632845
 31
0.0
  0
LINE
  5
18C
330
1F
100
AcDbEntity
  8
PIEZA
  6
Continuous
100
AcDbLine
 10
377.4374031813
 20
200.4462049112
 30
0.0
 11
373.8580884096
 21
200.7165492449
 31
0.0
  0
LINE
  5
18D
330
1F
100
AcDbEntity
  8
PIEZA
  6
Continuous
100
AcDbLine
 10
372.8903405677
 20
197.257287528
 30
0.0
 11
376.0903448441
 21
195.6310793847
 31
0.0
  0
LINE
  5
18E
330
1F
100
AcDbEntity
  8
PIEZA
  6
Continuous
100
AcDbLine
 10
406.2127821744
 20
192.396131457
 30
0.0
 11
404.1679993368
 21
192.9681709094
 31
0.0
  0
LINE
  5
18F
330
1F
100
AcDbEntity
  8
PIEZA
  6
Continuous
100
AcDbLine
 10
261.6565541128
 20
219.8320049635
 30
0.0
 11
261.8350950732
 21
219.8320049635
 31
0.0
  0
LINE
  5
190
330
1F
100
AcDbEntity
  8
PIEZA
  6
Continuous
100
AcDbLine
 10
261.8316047636
 20
220.0320049635
 30
0.0
 11
267.6317570917
 21
220.0320049635
 31
0.0
  0
LINE
  5
191
330
1F
100
AcDbEntity
  8
PIEZA
  6
Continuous
100
AcDbLine
 10
377.4374031813
 20
200.4462049112
 30
0.0
 11
376.0903448441
 21
195.6310793847
 31
0.0
  0
LINE
  5
192
330
1F
100
AcDbEntity
  8
PIEZA
  6
Continuous
100
AcDbLine
 10
372.8903405677
 20
197.257287528
 30
0.0
 11
373.8580884096
 21
200.7165492449
 31
0.0
  0
LINE
  5
193
330
1F
100
AcDbEntity
  8
PIEZA
  6
Continuous
100
AcDbLine
 10
267.7141809277
 20
216.5320049635
 30
0.0
 11
267.5704309277
 21
216.5320049635
 31
0.0
  0
LINE
  5
194
330
1F
100
AcDbEntity
  8
PIEZA
  6
Continuous
100
AcDbLine
 10
261.8929309277
 20
216.5320049635
 30
0.0
 11
261.7491809277
 21
216.5320049635
 31
0.0
  0
LINE
  5
195
330
1F
100
AcDbEntity
  8
PIEZA
  6
Continuous
 62
   251
420
  6974058
100
AcDbLine
 10
362.8928072685
 20
203.8360289494
 30
0.0
 11
362.537827475
 21
202.689735206
 31
0.0
  0
LINE
  5
196
330
1F
100
AcDbEntity
  8
PIEZA
  6
Continuous
100
AcDbLine
 10
169.1043151011
 20
204.6184960202
 30
0.0
 11
169.0106137049
 21
204.5969120916
 31
0.0
  0
LINE
  5
197
330
1F
100
AcDbEntity
  8
PIEZA
  6
Continuous
100
AcDbLine
 10
169.2795150069
 20
203.4274284478
 30
0.0
 11
169.3584549641
 21
203.4457160195
 31
0.0
  0
LINE
  5
198
330
1F
100
AcDbEntity
  8
PIEZA
  6
Continuous
100
AcDbLine
 10
278.9053930501
 20
339.7752226457
 30
0.0
 11
278.9053930501
 21
340.1103526457
 31
0.0
  0
LINE
  5
199
330
1F
100
AcDbEntity
  8
PIEZA
  6
Continuous
 62
   251
420
  6974058
100
AcDbLine
 10
294.3333445911
 20
343.2891338585
 30
0.0
 11
294.3333445911
 21
343.7044898585
 31
0.0
  0
LINE
  5
19A
330
1F
100
AcDbEntity
  8
PIEZA
  6
Continuous
 62
   251
420
  6974058
100
AcDbLine
 10
168.3039605483
 20
459.03525936
 30
0.0
 11
168.660366375
 21
458.82948836
 31
0.0
  0
LINE
  5
19B
330
1F
100
AcDbEntity
  8
PIEZA
  6
Continuous
 62
   251
420
  6974058
100
AcDbLine
 10
334.4197688845
 20
507.5624201217
 30
0.0
 11
334.0814525964
 21
507.3670931217
 31
0.0
  0
LINE
  5
19C
330
1F
100
AcDbEntity
  8
COTAS
100
AcDbLine
 10
281.0478544707
 20
501.4007408206
 30
0.0
 11
202.5974095952
 21
468.3275473673
 31
0.0
  0
LINE
  5
19D
330
1F
100
AcDbEntity
  8
COTAS
100
AcDbLine
 10
309.1251789313
 20
486.106778268
 30
0.0
 11
199.3852484456
 21
439.8425415737
 31
0.0
  0
LINE
  5
19E
330
1F
100
AcDbEntity
  8
COTAS
100
AcDbLine
 10
331.7608519466
 20
468.5187206132
 30
0.0
 11
196.626559424
 21
411.5487109994
 31
0.0
  0
LINE
  5
19F
330
1F
100
AcDbEntity
  8
COTAS
  6
Continuous
100
AcDbLine
 10
367.2316809277
 20
187.5320049635
 30
0.0
 11
429.1495454818
 21
187.5320049635
 31
0.0
  0
LINE
  5
1A0
330
1F
100
AcDbEntity
  8
COTAS
  6
Continuous
100
AcDbLine
 10
429.1495454818
 20
175.5320049635
 30
0.0
 11
367.2316809277
 21
175.5320049635
 31
0.0
  0
LINE
  5
1A1
330
1F
100
AcDbEntity
  8
COTAS
  6
Continuous
100
AcDbLine
 10
429.1495454818
 20
175.5320049635
 30
0.0
 11
429.1495454818
 21
187.5320049635
 31
0.0
  0
LINE
  5
1A2
330
1F
100
AcDbEntity
  8
COTAS
  6
Continuous
100
AcDbLine
 10
367.2316809277
 20
187.5320049635
 30
0.0
 11
367.2316809277
 21
175.5320049635
 31
0.0
  0
LINE
  5
1A3
330
1F
100
AcDbEntity
  8
COTAS
  6
Continuous
100
AcDbLine
 10
162.2316809277
 20
187.5320049635
 30
0.0
 11
100.3138163736
 21
187.5320049635
 31
0.0
  0
LINE
  5
1A4
330
1F
100
AcDbEntity
  8
COTAS
  6
Continuous
100
AcDbLine
 10
100.3138163736
 20
175.5320049635
 30
0.0
 11
162.2316809277
 21
175.5320049635
 31
0.0
  0
LINE
  5
1A5
330
1F
100
AcDbEntity
  8
COTAS
  6
Continuous
100
AcDbLine
 10
100.3138163736
 20
175.5320049635
 30
0.0
 11
100.3138163736
 21
187.5320049635
 31
0.0
  0
LINE
  5
1A6
330
1F
100
AcDbEntity
  8
COTAS
  6
Continuous
100
AcDbLine
 10
162.2316809277
 20
187.5320049635
 30
0.0
 11
162.2316809277
 21
175.5320049635
 31
0.0
  0
LINE
  5
1A7
330
1F
100
AcDbEntity
  8
COTAS
  6
Continuous
100
AcDbLine
 10
100.3138163736
 20
287.5320049635
 30
0.0
 11
429.1495454818
 21
287.5320049635
 31
0.0
  0
LINE
  5
1A8
330
1F
100
AcDbEntity
  8
COTAS
  6
Continuous
100
AcDbLine
 10
429.1495454818
 20
275.5320049635
 30
0.0
 11
100.3138163736
 21
275.5320049635
 31
0.0
  0
LINE
  5
1A9
330
1F
100
AcDbEntity
  8
COTAS
  6
Continuous
100
AcDbLine
 10
100.3138163736
 20
275.5320049635
 30
0.0
 11
100.3138163736
 21
287.5320049635
 31
0.0
  0
LINE
  5
1AA
330
1F
100
AcDbEntity
  8
COTAS
  6
Continuous
100
AcDbLine
 10
429.1495454818
 20
275.5320049635
 30
0.0
 11
429.1495454818
 21
287.5320049635
 31
0.0
  0
ARC
  5
1AB
330
1F
100
AcDbEntity
  8
COTAS
100
AcDbCircle
 10
405.5392530058
 20
189.9885686937
 30
0.0
 40
2.500000000000069
100
AcDbArc
 50
259.3039184948
 51
280.6960815052
  0
ARC
  5
1AC
330
1F
100
AcDbEntity
  8
PIEZA
  6
Continuous
100
AcDbCircle
 10
213.1469276041
 20
216.0320049635
 30
0.0
 40
0.5
100
AcDbArc
 50
3.6885279619
 51
90.0
  0
ARC
  5
1AD
330
1F
100
AcDbEntity
  8
PIEZA
  6
Continuous
100
AcDbCircle
 10
208.0632587781
 20
216.0320049635
 30
0.0
 40
0.5000000000000885
100
AcDbArc
 50
90.0
 51
176.3114720381
  0
ARC
  5
1AE
330
1F
100
AcDbEntity
  8
PIEZA
  6
Continuous
100
AcDbCircle
 10
261.2403322961
 20
217.0320049635
 30
0.0
 40
0.5000000000000259
100
AcDbArc
 50
1.0
 51
20.7343853377
  0
ARC
  5
1AF
330
1F
100
AcDbEntity
  8
PIEZA
  6
Continuous
100
AcDbCircle
 10
268.2230295592
 20
217.0320049635
 30
0.0
 40
0.5000000000000626
100
AcDbArc
 50
157.8930369683
 51
179.0
  0
ARC
  5
1B0
330
1F
100
AcDbEntity
  8
PIEZA
  6
Continuous
100
AcDbCircle
 10
164.6413287075
 20
196.2820049635
 30
0.0
 40
0.2499999999844533
100
AcDbArc
 50
90.0
 51
177.372410673
  0
ARC
  5
1B1
330
1F
100
AcDbEntity
  8
PIEZA
  6
Continuous
100
AcDbCircle
 10
267.2735153406
 20
216.0320049635
 30
0.0
 40
0.5
100
AcDbArc
 50
3.6885279619
 51
90.0
  0
ARC
  5
1B2
330
1F
100
AcDbEntity
  8
PIEZA
  6
Continuous
100
AcDbCircle
 10
154.2610988927
 20
174.4323660912
 30
0.0
 40
0.5000000000000984
100
AcDbArc
 50
181.4999999991
 51
270.0
  0
ARC
  5
1B3
330
1F
100
AcDbEntity
  8
PIEZA
  6
Continuous
100
AcDbCircle
 10
321.4001030772
 20
216.0320049635
 30
0.0
 40
0.5
100
AcDbArc
 50
3.6885279619
 51
90.0
  0
ARC
  5
1B4
330
1F
100
AcDbEntity
  8
PIEZA
  6
Continuous
100
AcDbCircle
 10
316.3164342512
 20
216.0320049635
 30
0.0
 40
0.5000000000000602
100
AcDbArc
 50
90.0
 51
176.3114720381
  0
ARC
  5
1B5
330
1F
100
AcDbEntity
  8
PIEZA
  6
Continuous
100
AcDbCircle
 10
375.2022629626
 20
174.4323660912
 30
0.0
 40
0.5000000000000984
100
AcDbArc
 50
270.0
 51
358.5000000009
  0
ARC
  5
1B6
330
1F
100
AcDbEntity
  8
PIEZA
  6
Continuous
100
AcDbCircle
 10
262.1898465147
 20
216.0320049635
 30
0.0
 40
0.5
100
AcDbArc
 50
90.0
 51
176.3114720381
  0
ARC
  5
1B7
330
1F
100
AcDbEntity
  8
PIEZA
  6
Continuous
100
AcDbCircle
 10
169.2316809277
 20
204.0324886851
 30
0.0
 40
1.500482617595424
100
AcDbArc
 50
270.0
 51
169.4795482294
  0
ARC
  5
1B8
330
1F
100
AcDbEntity
  8
PIEZA
  6
Continuous
100
AcDbCircle
 10
169.2316809277
 20
204.0324886851
 30
0.0
 40
1.50048261759542
100
AcDbArc
 50
216.5554494813
 51
169.4795482294
  0
ARC
  5
1B9
330
1F
100
AcDbEntity
  8
PIEZA
  6
Continuous
100
AcDbCircle
 10
360.2316809277
 20
204.0324886851
 30
0.0
 40
1.500482617595442
100
AcDbArc
 50
90.0
 51
332.8031195244
  0
ARC
  5
1BA
330
1F
100
AcDbEntity
  8
PIEZA
  6
Continuous
100
AcDbCircle
 10
405.5392530058
 20
189.9885686937
 30
0.0
 40
2.500000000000123
100
AcDbArc
 50
254.3707393548
 51
74.3707393548
  0
ARC
  5
1BB
330
1F
100
AcDbEntity
  8
PIEZA
  6
Continuous
100
AcDbCircle
 10
123.8407537756
 20
190.2594961014
 30
0.0
 40
2.500000000000054
100
AcDbArc
 50
105.2870893514
 51
285.2870893514
  0
ARC
  5
1BC
330
1F
100
AcDbEntity
  8
PIEZA
  6
Continuous
100
AcDbCircle
 10
169.2313850326
 20
204.0321060198
 30
0.0
 40
0.6000000000000224
100
AcDbArc
 50
52.2871161428
 51
102.2540015124
  0
ARC
  5
1BD
330
1F
100
AcDbEntity
  8
PIEZA
  6
Continuous
100
AcDbCircle
 10
169.2313850326
 20
204.0321060198
 30
0.0
 40
0.6000000000000055
100
AcDbArc
 50
282.2539449659
 51
13.0044436578
  0
ARC
  5
1BE
330
1F
100
AcDbEntity
  8
PIEZA
  6
Continuous
100
AcDbCircle
 10
169.2313850326
 20
204.0321060198
 30
0.0
 40
0.6000000000000224
100
AcDbArc
 50
13.0044436578
 51
52.2871161428
  0
ARC
  5
1BF
330
1F
100
AcDbEntity
  8
PIEZA
  6
Continuous
100
AcDbCircle
 10
360.2316809277
 20
204.0320049635
 30
0.0
 40
0.6000000000000537
100
AcDbArc
 50
166.6533850484
 51
257.3982496553
  0
ARC
  5
1C0
330
1F
100
AcDbEntity
  8
PIEZA
  6
Continuous
100
AcDbCircle
 10
360.2316809277
 20
204.0320049635
 30
0.0
 40
0.6000000000000537
100
AcDbArc
 50
77.4094788789
 51
166.6533850484
  0
CIRCLE
  5
1C1
330
1F
100
AcDbEntity
  8
PIEZA
  6
Continuous
100
AcDbCircle
 10
264.7316809277
 20
437.5437460107
 30
0.0
 40
110.9995484884104
  0
CIRCLE
  5
1C2
330
1F
100
AcDbEntity
  8
PIEZA
  6
Continuous
100
AcDbCircle
 10
264.7316809277
 20
437.5437460107
 30
0.0
 40
98.5738599462951
  0
ARC
  5
1C3
330
1F
100
AcDbEntity
  8
PIEZA
  6
Continuous
100
AcDbCircle
 10
360.2316809277
 20
204.0324886851
 30
0.0
 40
1.500482617595442
100
AcDbArc
 50
332.8031195244
 51
90.0
  0
SPLINE
  5
1C4
330
1F
100
AcDbEntity
  8
TEXTO
 62
   251
420
  6974058
370
    25
100
AcDbSpline
210
0.0
220
0.0
230
1.0
 70
     8
 71
     3
 72
     8
 73
     4
 74
     0
 42
0.000000001
 43
0.00000001
 40
9.0
 40
9.0
 40
9.0
 40
9.0
 40
10.0
 40
10.0
 40
10.0
 40
10.0
 10
326.0947227532499
 20
17.09515660105591
 30
0.0
 10
325.7302242880871
 20
17.0128504960192
 30
0.0
 10
325.3522880914898
 20
16.97085758528618
 30
0.0
 10
324.9625938798873
 20
16.97085758528618
 30
0.0
  0
SPLINE
  5
1C5
330
1F
100
AcDbEntity
  8
TEXTO
 62
   251
420
  6974058
370
    25
100
AcDbSpline
210
0.0
220
0.0
230
1.0
 70
     8
 71
     3
 72
     8
 73
     4
 74
     0
 42
0.000000001
 43
0.00000001
 40
10.0
 40
10.0
 40
10.0
 40
10.0
 40
11.0
 40
11.0
 40
11.0
 40
11.0
 10
324.9625938798873
 20
16.97085758528618
 30
0.0
 10
322.1020368007528
 20
16.97085758528618
 30
0.0
 10
319.7823484118599
 20
19.2884463286424
 30
0.0
 10
319.7823484118599
 20
22.14900340777688
 30
0.0
  0
SPLINE
  5
1C6
330
1F
100
AcDbEntity
  8
TEXTO
 62
   251
420
  6974058
370
    25
100
AcDbSpline
210
0.0
220
0.0
230
1.0
 70
     8
 71
     3
 72
     8
 73
     4
 74
     0
 42
0.000000001
 43
0.00000001
 40
11.0
 40
11.0
 40
11.0
 40
11.0
 40
12.0
 40
12.0
 40
12.0
 40
12.0
 10
319.7823484118599
 20
22.14900340777688
 30
0.0
 10
319.7823484118599
 20
25.00956048691125
 30
0.0
 10
322.1020368007528
 20
27.33092859223347
 30
0.0
 10
324.9625938798873
 20
27.33092859223347
 30
0.0
  0
SPLINE
  5
1C7
330
1F
100
AcDbEntity
  8
TEXTO
 62
   251
420
  6974058
370
    25
100
AcDbSpline
210
0.0
220
0.0
230
1.0
 70
     8
 71
     3
 72
     8
 73
     4
 74
     0
 42
0.000000001
 43
0.00000001
 40
12.0
 40
12.0
 40
12.0
 40
12.0
 40
13.0
 40
13.0
 40
13.0
 40
13.0
 10
324.9625938798873
 20
27.33092859223347
 30
0.0
 10
327.824830675451
 20
27.33092859223347
 30
0.0
 10
330.1428393479146
 20
25.00956048691125
 30
0.0
 10
330.1428393479146
 20
22.14900340777688
 30
0.0
  0
SPLINE
  5
1C8
330
1F
100
AcDbEntity
  8
TEXTO
 62
   251
420
  6974058
370
    25
100
AcDbSpline
210
0.0
220
0.0
230
1.0
 70
     8
 71
     3
 72
     8
 73
     4
 74
     0
 42
0.000000001
 43
0.00000001
 40
13.0
 40
13.0
 40
13.0
 40
13.0
 40
14.0
 40
14.0
 40
14.0
 40
14.0
 10
330.1428393479146
 20
22.14900340777688
 30
0.0
 10
330.1428393479146
 20
20.64229777067549
 30
0.0
 10
329.4995079554844
 20
19.28508689578382
 30
0.0
 10
328.4698417843104
 20
18.33814675875384
 30
0.0
  0
SPLINE
  5
1C9
330
1F
100
AcDbEntity
  8
PIEZA
370
    18
100
AcDbSpline
210
0.0
220
0.0
230
1.0
 70
     8
 71
     3
 72
    11
 73
     7
 74
     0
 42
0.000000001
 43
0.00000001
 40
2.0
 40
2.0
 40
2.0
 40
2.0
 40
3.0
 40
3.0
 40
3.0
 40
4.0
 40
4.0
 40
4.0
 40
4.0
 10
523.2529612374422
 20
23.47179291333987
 30
0.0
 10
523.920556587352
 20
23.47179291333987
 30
0.0
 10
524.4988485438172
 20
24.05040784772007
 30
0.0
 10
524.4988485438172
 20
24.7176479219238
 30
0.0
 10
524.4988485438172
 20
25.38524327183376
 30
0.0
 10
523.920556587352
 20
25.96382590842248
 30
0.0
 10
523.2529612374422
 20
25.96382590842248
 30
0.0
  0
SPLINE
  5
1CA
330
1F
100
AcDbEntity
  8
PIEZA
370
    18
100
AcDbSpline
210
0.0
220
0.0
230
1.0
 70
     8
 71
     3
 72
    11
 73
     7
 74
     0
 42
0.000000001
 43
0.00000001
 40
0.0
 40
0.0
 40
0.0
 40
0.0
 40
1.0
 40
1.0
 40
1.0
 40
2.0
 40
2.0
 40
2.0
 40
2.0
 10
523.2529612374422
 20
25.96382590842248
 30
0.0
 10
522.585430483115
 20
25.96382590842248
 30
0.0
 10
522.0068478465262
 20
25.38524327183376
 30
0.0
 10
522.0068478465262
 20
24.7176479219238
 30
0.0
 10
522.0068478465262
 20
24.05040784772007
 30
0.0
 10
522.585430483115
 20
23.47179291333987
 30
0.0
 10
523.2529612374422
 20
23.47179291333987
 30
0.0
  0
SPLINE
  5
1CB
330
1F
100
AcDbEntity
  8
PIEZA
370
    18
100
AcDbSpline
210
0.0
220
0.0
230
1.0
 70
     8
 71
     3
 72
    11
 73
     7
 74
     0
 42
0.000000001
 43
0.00000001
 40
2.0
 40
2.0
 40
2.0
 40
2.0
 40
3.0
 40
3.0
 40
3.0
 40
4.0
 40
4.0
 40
4.0
 40
4.0
 10
523.2529612374422
 20
26.14185133506516
 30
0.0
 10
524.0093109183415
 20
26.14185133506516
 30
0.0
 10
524.6768416726686
 20
25.47432058073807
 30
0.0
 10
524.6768416726686
 20
24.7176479219238
 30
0.0
 10
524.6768416726686
 20
23.91672728878066
 30
0.0
 10
524.0093109183415
 20
23.29373518890577
 30
0.0
 10
523.2529612374422
 20
23.29373518890577
 30
0.0
  0
SPLINE
  5
1CC
330
1F
100
AcDbEntity
  8
PIEZA
370
    18
100
AcDbSpline
210
0.0
220
0.0
230
1.0
 70
     8
 71
     3
 72
    11
 73
     7
 74
     0
 42
0.000000001
 43
0.00000001
 40
0.0
 40
0.0
 40
0.0
 40
0.0
 40
1.0
 40
1.0
 40
1.0
 40
2.0
 40
2.0
 40
2.0
 40
2.0
 10
523.2529612374422
 20
23.29373518890577
 30
0.0
 10
522.451976008716
 20
23.29373518890577
 30
0.0
 10
521.8287578243006
 20
23.91672728878066
 30
0.0
 10
521.8287578243006
 20
24.7176479219238
 30
0.0
 10
521.8287578243006
 20
25.47432058073807
 30
0.0
 10
522.451976008716
 20
26.14185133506516
 30
0.0
 10
523.2529612374422
 20
26.14185133506516
 30
0.0
  0
SPLINE
  5
1CD
330
1F
100
AcDbEntity
  8
PIEZA
370
    18
100
AcDbSpline
210
0.0
220
0.0
230
1.0
 70
     8
 71
     3
 72
     8
 73
     4
 74
     0
 42
0.000000001
 43
0.00000001
 40
2.0
 40
2.0
 40
2.0
 40
2.0
 40
3.0
 40
3.0
 40
3.0
 40
3.0
 10
458.3683130419335
 20
24.40616802085797
 30
0.0
 10
459.1692982706597
 20
24.40616802085797
 30
0.0
 10
459.7925164550748
 20
24.31747828545145
 30
0.0
 10
460.1929767716464
 20
24.09472041760776
 30
0.0
  0
SPLINE
  5
1CE
330
1F
100
AcDbEntity
  8
PIEZA
370
    18
100
AcDbSpline
210
0.0
220
0.0
230
1.0
 70
     8
 71
     3
 72
    11
 73
     7
 74
     0
 42
0.000000001
 43
0.00000001
 40
3.0
 40
3.0
 40
3.0
 40
3.0
 40
4.0
 40
4.0
 40
4.0
 40
5.0
 40
5.0
 40
5.0
 40
5.0
 10
460.1929767716464
 20
24.09472041760776
 30
0.0
 10
460.6378304026085
 20
23.78327281435748
 30
0.0
 10
460.8602814414332
 20
23.24909964105507
 30
0.0
 10
460.8602814414332
 20
22.53712712565028
 30
0.0
 10
460.8602814414332
 20
22.04758950017447
 30
0.0
 10
460.7715109615479
 20
21.64716148139437
 30
0.0
 10
460.5488176892873
 20
21.37999415026445
 30
0.0
  0
SPLINE
  5
1CF
330
1F
100
AcDbEntity
  8
PIEZA
370
    18
100
AcDbSpline
210
0.0
220
0.0
230
1.0
 70
     8
 71
     3
 72
     8
 73
     4
 74
     0
 42
0.000000001
 43
0.00000001
 40
5.0
 40
5.0
 40
5.0
 40
5.0
 40
6.0
 40
6.0
 40
6.0
 40
6.0
 10
460.5488176892873
 20
21.37999415026445
 30
0.0
 10
460.4597565292788
 20
21.24660427144835
 30
0.0
 10
460.2819894849678
 20
21.15759155812697
 30
0.0
 10
460.0592962127071
 20
21.06854654701417
 30
0.0
  0
SPLINE
  5
1D0
330
1F
100
AcDbEntity
  8
PIEZA
370
    18
100
AcDbSpline
210
0.0
220
0.0
230
1.0
 70
     8
 71
     3
 72
     8
 73
     4
 74
     0
 42
0.000000001
 43
0.00000001
 40
6.0
 40
6.0
 40
6.0
 40
6.0
 40
7.0
 40
7.0
 40
7.0
 40
7.0
 10
460.0592962127071
 20
21.06854654701417
 30
0.0
 10
460.1482927771328
 20
21.02423397710237
 30
0.0
 10
460.2373539371413
 20
21.02423397710237
 30
0.0
 10
460.2819894849678
 20
20.97953383369287
 30
0.0
  0
SPLINE
  5
1D1
330
1F
100
AcDbEntity
  8
PIEZA
370
    18
100
AcDbSpline
210
0.0
220
0.0
230
1.0
 70
     8
 71
     3
 72
     8
 73
     4
 74
     0
 42
0.000000001
 43
0.00000001
 40
7.0
 40
7.0
 40
7.0
 40
7.0
 40
8.0
 40
8.0
 40
8.0
 40
8.0
 10
460.2819894849678
 20
20.97953383369287
 30
0.0
 10
460.4154278104711
 20
20.89055341816305
 30
0.0
 10
460.5488176892873
 20
20.75709894376397
 30
0.0
 10
460.6378304026085
 20
20.62370906494786
 30
0.0
  0
SPLINE
  5
1D2
330
1F
100
AcDbEntity
  8
PIEZA
370
    18
100
AcDbSpline
210
0.0
220
0.0
230
1.0
 70
     8
 71
     3
 72
     8
 73
     4
 74
     0
 42
0.000000001
 43
0.00000001
 40
8.0
 40
8.0
 40
8.0
 40
8.0
 40
9.0
 40
9.0
 40
9.0
 40
9.0
 10
460.6378304026085
 20
20.62370906494786
 30
0.0
 10
460.6825143971223
 20
20.44561904272229
 30
0.0
 10
460.7268915626173
 20
20.26756131828805
 30
0.0
 10
460.7268915626173
 20
20.04515872615068
 30
0.0
  0
SPLINE
  5
1D3
330
1F
100
AcDbEntity
  8
PIEZA
370
    18
100
AcDbSpline
210
0.0
220
0.0
230
1.0
 70
     8
 71
     3
 72
     8
 73
     4
 74
     0
 42
0.000000001
 43
0.00000001
 40
12.0
 40
12.0
 40
12.0
 40
12.0
 40
13.0
 40
13.0
 40
13.0
 40
13.0
 10
459.5697585872397
 20
19.77808828841058
 30
0.0
 10
459.5697585872397
 20
20.17854860498215
 30
0.0
 10
459.4807458739183
 20
20.40098349491109
 30
0.0
 10
459.3029949785033
 20
20.48999620823236
 30
0.0
  0
SPLINE
  5
1D4
330
1F
100
AcDbEntity
  8
PIEZA
370
    18
100
AcDbSpline
210
0.0
220
0.0
230
1.0
 70
     8
 71
     3
 72
     8
 73
     4
 74
     0
 42
0.000000001
 43
0.00000001
 40
13.0
 40
13.0
 40
13.0
 40
13.0
 40
14.0
 40
14.0
 40
14.0
 40
14.0
 10
459.3029949785033
 20
20.48999620823236
 30
0.0
 10
459.1249211051733
 20
20.57900892155377
 30
0.0
 10
458.8134735019233
 20
20.66808623045796
 30
0.0
 10
458.2792518819334
 20
20.66808623045796
 30
0.0
  0
SPLINE
  5
1D5
330
1F
100
AcDbEntity
  8
PIEZA
370
    18
100
AcDbSpline
210
0.0
220
0.0
230
1.0
 70
     8
 71
     3
 72
     8
 73
     4
 74
     0
 42
0.000000001
 43
0.00000001
 40
4.0
 40
4.0
 40
4.0
 40
4.0
 40
5.0
 40
5.0
 40
5.0
 40
5.0
 10
458.2345678874334
 20
21.55808417255795
 30
0.0
 10
458.8134735019371
 20
21.55808417255795
 30
0.0
 10
459.1692982706818
 20
21.64716148146226
 30
0.0
 10
459.3473075484287
 20
21.78051906248686
 30
0.0
  0
SPLINE
  5
1D6
330
1F
100
AcDbEntity
  8
PIEZA
370
    18
100
AcDbSpline
210
0.0
220
0.0
230
1.0
 70
     8
 71
     3
 72
    11
 73
     7
 74
     0
 42
0.000000001
 43
0.00000001
 40
5.0
 40
5.0
 40
5.0
 40
5.0
 40
6.0
 40
6.0
 40
6.0
 40
7.0
 40
7.0
 40
7.0
 40
7.0
 10
459.3473075484287
 20
21.78051906248686
 30
0.0
 10
459.5253814217585
 20
21.86953177580816
 30
0.0
 10
459.6587713005749
 20
22.13666680914665
 30
0.0
 10
459.6587713005749
 20
22.58182726912776
 30
0.0
 10
459.6587713005749
 20
22.80419756347368
 30
0.0
 10
459.6144587306629
 20
22.98228758569925
 30
0.0
 10
459.5697585872534
 20
23.11574206009834
 30
0.0
  0
SPLINE
  5
1D7
330
1F
100
AcDbEntity
  8
PIEZA
370
    18
100
AcDbSpline
210
0.0
220
0.0
230
1.0
 70
     8
 71
     3
 72
     8
 73
     4
 74
     0
 42
0.000000001
 43
0.00000001
 40
7.0
 40
7.0
 40
7.0
 40
7.0
 40
8.0
 40
8.0
 40
8.0
 40
8.0
 10
459.5697585872534
 20
23.11574206009834
 30
0.0
 10
459.5253814217585
 20
23.20472247562827
 30
0.0
 10
459.4363687084374
 20
23.29373518894957
 30
0.0
 10
459.3473075484287
 20
23.33811235444426
 30
0.0
  0
SPLINE
  5
1D8
330
1F
100
AcDbEntity
  8
PIEZA
370
    18
100
AcDbSpline
210
0.0
220
0.0
230
1.0
 70
     8
 71
     3
 72
     8
 73
     4
 74
     0
 42
0.000000001
 43
0.00000001
 40
8.0
 40
8.0
 40
8.0
 40
8.0
 40
9.0
 40
9.0
 40
9.0
 40
9.0
 10
459.3473075484287
 20
23.33811235444426
 30
0.0
 10
459.2136108405936
 20
23.42718966334857
 30
0.0
 10
459.0802371106733
 20
23.47179291338367
 30
0.0
 10
458.9021632373434
 20
23.47179291338367
 30
0.0
  0
SPLINE
  5
1D9
330
1F
100
AcDbEntity
  8
PIEZA
370
    18
100
AcDbSpline
210
0.0
220
0.0
230
1.0
 70
     8
 71
     3
 72
     8
 73
     4
 74
     0
 42
0.000000001
 43
0.00000001
 40
9.0
 40
9.0
 40
9.0
 40
9.0
 40
10.0
 40
10.0
 40
10.0
 40
10.0
 10
458.9021632373434
 20
23.47179291338367
 30
0.0
 10
458.6797767941018
 20
23.51620237666995
 30
0.0
 10
458.4573257552771
 20
23.51620237666995
 30
0.0
 10
458.1902553175216
 20
23.51620237666995
 30
0.0
  0
SPLINE
  5
1DA
330
1F
100
AcDbEntity
  8
PIEZA
370
    18
100
AcDbSpline
210
0.0
220
0.0
230
1.0
 70
     8
 71
     3
 72
     8
 73
     4
 74
     0
 42
0.000000001
 43
0.00000001
 40
0.0
 40
0.0
 40
0.0
 40
0.0
 40
1.0
 40
1.0
 40
1.0
 40
1.0
 10
471.7191219151681
 20
23.11574206008996
 30
0.0
 10
471.8971473418109
 20
23.64988293560097
 30
0.0
 10
472.208594945061
 20
24.00570770434598
 30
0.0
 10
472.6981325705367
 20
24.22817489206628
 30
0.0
  0
SPLINE
  5
1DB
330
1F
100
AcDbEntity
  8
PIEZA
370
    18
100
AcDbSpline
210
0.0
220
0.0
230
1.0
 70
     8
 71
     3
 72
    11
 73
     7
 74
     0
 42
0.000000001
 43
0.00000001
 40
1.0
 40
1.0
 40
1.0
 40
1.0
 40
2.0
 40
2.0
 40
2.0
 40
3.0
 40
3.0
 40
3.0
 40
3.0
 10
472.6981325705367
 20
24.22817489206628
 30
0.0
 10
473.0986574826916
 20
24.40616802091748
 30
0.0
 10
473.632572273662
 20
24.45086816432706
 30
0.0
 10
474.2110903146678
 20
24.45086816432706
 30
0.0
 10
474.834308499083
 20
24.45086816432706
 30
0.0
 10
475.501903848993
 20
24.49524532982178
 30
0.0
 10
476.1691762209882
 20
24.49524532982178
 30
0.0
  0
SPLINE
  5
1DC
330
1F
100
AcDbEntity
  8
PIEZA
370
    18
100
AcDbSpline
210
0.0
220
0.0
230
1.0
 70
     8
 71
     3
 72
     8
 73
     4
 74
     0
 42
0.000000001
 43
0.00000001
 40
4.0
 40
4.0
 40
4.0
 40
4.0
 40
5.0
 40
5.0
 40
5.0
 40
5.0
 10
477.2372641852881
 20
24.49524532982178
 30
0.0
 10
478.6170904329348
 20
24.49524532982178
 30
0.0
 10
479.5514655404769
 20
24.36185545100568
 30
0.0
 10
480.0409708681612
 20
23.96136283664268
 30
0.0
  0
SPLINE
  5
1DD
330
1F
100
AcDbEntity
  8
PIEZA
370
    18
100
AcDbSpline
210
0.0
220
0.0
230
1.0
 70
     8
 71
     3
 72
     8
 73
     4
 74
     0
 42
0.000000001
 43
0.00000001
 40
5.0
 40
5.0
 40
5.0
 40
5.0
 40
6.0
 40
6.0
 40
6.0
 40
6.0
 10
480.0409708681612
 20
23.96136283664268
 30
0.0
 10
480.5305084936373
 20
23.56087022227956
 30
0.0
 10
480.752943383566
 20
22.7595943134302
 30
0.0
 10
480.7085662180713
 20
21.60275201816756
 30
0.0
  0
SPLINE
  5
1DE
330
1F
100
AcDbEntity
  8
PIEZA
370
    18
100
AcDbSpline
210
0.0
220
0.0
230
1.0
 70
     8
 71
     3
 72
     8
 73
     4
 74
     0
 42
0.000000001
 43
0.00000001
 40
6.0
 40
6.0
 40
6.0
 40
6.0
 40
7.0
 40
7.0
 40
7.0
 40
7.0
 10
480.7085662180713
 20
21.60275201816756
 30
0.0
 10
480.7085662180713
 20
21.06854654707368
 30
0.0
 10
480.7085662180713
 20
20.53469635168608
 30
0.0
 10
480.6638983724532
 20
20.04515872621019
 30
0.0
  0
SPLINE
  5
1DF
330
1F
100
AcDbEntity
  8
PIEZA
370
    18
100
AcDbSpline
210
0.0
220
0.0
230
1.0
 70
     8
 71
     3
 72
     8
 73
     4
 74
     0
 42
0.000000001
 43
0.00000001
 40
7.0
 40
7.0
 40
7.0
 40
7.0
 40
8.0
 40
8.0
 40
8.0
 40
8.0
 10
480.6638983724532
 20
20.04515872621019
 30
0.0
 10
480.5751763392553
 20
19.46657608962147
 30
0.0
 10
480.3524507692031
 20
19.02141562964039
 30
0.0
 10
479.9519581548402
 20
18.75447438305079
 30
0.0
  0
SPLINE
  5
1E0
330
1F
100
AcDbEntity
  8
PIEZA
370
    18
100
AcDbSpline
210
0.0
220
0.0
230
1.0
 70
     8
 71
     3
 72
     8
 73
     4
 74
     0
 42
0.000000001
 43
0.00000001
 40
8.0
 40
8.0
 40
8.0
 40
8.0
 40
9.0
 40
9.0
 40
9.0
 40
9.0
 10
479.9519581548402
 20
18.75447438305079
 30
0.0
 10
479.5961333860951
 20
18.48756543425279
 30
0.0
 10
479.0619279150011
 20
18.35401406647927
 30
0.0
 10
478.394397160674
 20
18.30950770981858
 30
0.0
  0
SPLINE
  5
1E1
330
1F
100
AcDbEntity
  8
PIEZA
370
    18
100
AcDbSpline
210
0.0
220
0.0
230
1.0
 70
     8
 71
     3
 72
     8
 73
     4
 74
     0
 42
0.000000001
 43
0.00000001
 40
9.0
 40
9.0
 40
9.0
 40
9.0
 40
10.0
 40
10.0
 40
10.0
 40
10.0
 10
478.394397160674
 20
18.30950770981858
 30
0.0
 10
477.8157822262939
 20
18.26500135315797
 30
0.0
 10
477.2819320309063
 20
18.26500135315797
 30
0.0
 10
476.7033493943176
 20
18.26500135315797
 30
0.0
  0
SPLINE
  5
1E2
330
1F
100
AcDbEntity
  8
PIEZA
370
    18
100
AcDbSpline
210
0.0
220
0.0
230
1.0
 70
     8
 71
     3
 72
     8
 73
     4
 74
     0
 42
0.000000001
 43
0.00000001
 40
12.0
 40
12.0
 40
12.0
 40
12.0
 40
13.0
 40
13.0
 40
13.0
 40
13.0
 10
475.1457561023333
 20
18.26500135315797
 30
0.0
 10
474.7006279401435
 20
18.26500135315797
 30
0.0
 10
474.2110903146678
 20
18.26500135315797
 30
0.0
 10
473.7215526891919
 20
18.30950770981858
 30
0.0
  0
SPLINE
  5
1E3
330
1F
100
AcDbEntity
  8
PIEZA
370
    18
100
AcDbSpline
210
0.0
220
0.0
230
1.0
 70
     8
 71
     3
 72
     8
 73
     4
 74
     0
 42
0.000000001
 43
0.00000001
 40
13.0
 40
13.0
 40
13.0
 40
13.0
 40
14.0
 40
14.0
 40
14.0
 40
14.0
 10
473.7215526891919
 20
18.30950770981858
 30
0.0
 10
473.4101050859417
 20
18.35401406647927
 30
0.0
 10
473.0986574826916
 20
18.39852042313996
 30
0.0
 10
472.831587044936
 20
18.48756543425279
 30
0.0
  0
SPLINE
  5
1E4
330
1F
100
AcDbEntity
  8
PIEZA
370
    18
100
AcDbSpline
210
0.0
220
0.0
230
1.0
 70
     8
 71
     3
 72
     8
 73
     4
 74
     0
 42
0.000000001
 43
0.00000001
 40
14.0
 40
14.0
 40
14.0
 40
14.0
 40
15.0
 40
15.0
 40
15.0
 40
15.0
 10
472.831587044936
 20
18.48756543425279
 30
0.0
 10
472.5201071438943
 20
18.5764489564082
 30
0.0
 10
472.2529721105558
 20
18.75447438305079
 30
0.0
 10
472.0305695184184
 20
19.02141562964039
 30
0.0
  0
SPLINE
  5
1E5
330
1F
100
AcDbEntity
  8
PIEZA
370
    18
100
AcDbSpline
210
0.0
220
0.0
230
1.0
 70
     8
 71
     3
 72
     8
 73
     4
 74
     0
 42
0.000000001
 43
0.00000001
 40
15.0
 40
15.0
 40
15.0
 40
15.0
 40
16.0
 40
16.0
 40
16.0
 40
16.0
 10
472.0305695184184
 20
19.02141562964039
 30
0.0
 10
471.8081346284895
 20
19.33305701963945
 30
0.0
 10
471.6744540695499
 20
19.73371112295996
 30
0.0
 10
471.6300607551597
 20
20.17854860502626
 30
0.0
  0
SPLINE
  5
1E6
330
1F
100
AcDbEntity
  8
PIEZA
370
    18
100
AcDbSpline
210
0.0
220
0.0
230
1.0
 70
     8
 71
     3
 72
    11
 73
     7
 74
     0
 42
0.000000001
 43
0.00000001
 40
16.0
 40
16.0
 40
16.0
 40
16.0
 40
17.0
 40
17.0
 40
17.0
 40
18.0
 40
18.0
 40
18.0
 40
18.0
 10
471.6300607551597
 20
20.17854860502626
 30
0.0
 10
471.5853767606459
 20
20.62370906500738
 30
0.0
 10
471.5853767606459
 20
20.97953383375238
 30
0.0
 10
471.5853767606459
 20
21.3356815804122
 30
0.0
 10
471.5853767606459
 20
21.91423191920939
 30
0.0
 10
471.6300607551597
 20
22.49274996021506
 30
0.0
 10
471.7191219151681
 20
23.11574206008996
 30
0.0
  0
SPLINE
  5
1E7
330
1F
100
AcDbEntity
  8
PIEZA
370
    18
100
AcDbSpline
210
0.0
220
0.0
230
1.0
 70
     8
 71
     3
 72
     8
 73
     4
 74
     0
 42
0.000000001
 43
0.00000001
 40
1.0
 40
1.0
 40
1.0
 40
1.0
 40
2.0
 40
2.0
 40
2.0
 40
2.0
 10
474.567238061325
 20
23.51620237665998
 30
0.0
 10
473.8552332481288
 20
23.51620237665998
 30
0.0
 10
473.4101050859391
 20
23.4271896633386
 30
0.0
 10
473.1430346481836
 20
23.2937351889396
 30
0.0
  0
SPLINE
  5
1E8
330
1F
100
AcDbEntity
  8
PIEZA
370
    18
100
AcDbSpline
210
0.0
220
0.0
230
1.0
 70
     8
 71
     3
 72
     8
 73
     4
 74
     0
 42
0.000000001
 43
0.00000001
 40
2.0
 40
2.0
 40
2.0
 40
2.0
 40
3.0
 40
3.0
 40
3.0
 40
3.0
 10
473.1430346481836
 20
23.2937351889396
 30
0.0
 10
472.9649446259579
 20
23.16034531012346
 30
0.0
 10
472.8315870449334
 20
22.84857472895848
 30
0.0
 10
472.8315870449334
 20
22.22567952245797
 30
0.0
  0
SPLINE
  5
1E9
330
1F
100
AcDbEntity
  8
PIEZA
370
    18
100
AcDbSpline
210
0.0
220
0.0
230
1.0
 70
     8
 71
     3
 72
     8
 73
     4
 74
     0
 42
0.000000001
 43
0.00000001
 40
5.0
 40
5.0
 40
5.0
 40
5.0
 40
6.0
 40
6.0
 40
6.0
 40
6.0
 10
472.7872098794334
 20
20.93515666825797
 30
0.0
 10
472.7872098794334
 20
20.6237090650078
 30
0.0
 10
472.7872098794334
 20
20.35663862725229
 30
0.0
 10
472.8315870449281
 20
20.134171439532
 30
0.0
  0
SPLINE
  5
1EA
330
1F
100
AcDbEntity
  8
PIEZA
370
    18
100
AcDbSpline
210
0.0
220
0.0
230
1.0
 70
     8
 71
     3
 72
     8
 73
     4
 74
     0
 42
0.000000001
 43
0.00000001
 40
6.0
 40
6.0
 40
6.0
 40
6.0
 40
7.0
 40
7.0
 40
7.0
 40
7.0
 10
472.8315870449281
 20
20.134171439532
 30
0.0
 10
472.8315870449281
 20
19.91147816727121
 30
0.0
 10
472.9205674604579
 20
19.77808828845511
 30
0.0
 10
473.0095801737793
 20
19.64434313393281
 30
0.0
  0
SPLINE
  5
1EB
330
1F
100
AcDbEntity
  8
PIEZA
370
    18
100
AcDbSpline
210
0.0
220
0.0
230
1.0
 70
     8
 71
     3
 72
     8
 73
     4
 74
     0
 42
0.000000001
 43
0.00000001
 40
7.0
 40
7.0
 40
7.0
 40
7.0
 40
8.0
 40
8.0
 40
8.0
 40
8.0
 10
473.0095801737793
 20
19.64434313393281
 30
0.0
 10
473.0542480193975
 20
19.5109532551167
 30
0.0
 10
473.2320150637082
 20
19.42194054179529
 30
0.0
 10
473.4101050859338
 20
19.37756337630063
 30
0.0
  0
SPLINE
  5
1EC
330
1F
100
AcDbEntity
  8
PIEZA
370
    18
100
AcDbSpline
210
0.0
220
0.0
230
1.0
 70
     8
 71
     3
 72
     8
 73
     4
 74
     0
 42
0.000000001
 43
0.00000001
 40
8.0
 40
8.0
 40
8.0
 40
8.0
 40
9.0
 40
9.0
 40
9.0
 40
9.0
 10
473.4101050859338
 20
19.37756337630063
 30
0.0
 10
473.6325722736542
 20
19.2885506629793
 30
0.0
 10
473.9440198769043
 20
19.24401200852711
 30
0.0
 10
474.3447708735992
 20
19.24401200852711
 30
0.0
  0
SPLINE
  5
1ED
330
1F
100
AcDbEntity
  8
PIEZA
370
    18
100
AcDbSpline
210
0.0
220
0.0
230
1.0
 70
     8
 71
     3
 72
     8
 73
     4
 74
     0
 42
0.000000001
 43
0.00000001
 40
12.0
 40
12.0
 40
12.0
 40
12.0
 40
13.0
 40
13.0
 40
13.0
 40
13.0
 10
476.7477265597992
 20
19.19950565192713
 30
0.0
 10
477.3262768985964
 20
19.19950565192713
 30
0.0
 10
477.8604823696901
 20
19.19950565192713
 30
0.0
 10
478.4390004106961
 20
19.24401200858773
 30
0.0
  0
SPLINE
  5
1EE
330
1F
100
AcDbEntity
  8
PIEZA
370
    18
100
AcDbSpline
210
0.0
220
0.0
230
1.0
 70
     8
 71
     3
 72
     8
 73
     4
 74
     0
 42
0.000000001
 43
0.00000001
 40
13.0
 40
13.0
 40
13.0
 40
13.0
 40
14.0
 40
14.0
 40
14.0
 40
14.0
 10
478.4390004106961
 20
19.24401200858773
 30
0.0
 10
478.9285380361719
 20
19.3330570197005
 30
0.0
 10
479.1953823893872
 20
19.46657608968252
 30
0.0
 10
479.3290629483265
 20
19.64434313399343
 30
0.0
  0
SPLINE
  5
1EF
330
1F
100
AcDbEntity
  8
PIEZA
370
    18
100
AcDbSpline
210
0.0
220
0.0
230
1.0
 70
     8
 71
     3
 72
     8
 73
     4
 74
     0
 42
0.000000001
 43
0.00000001
 40
14.0
 40
14.0
 40
14.0
 40
14.0
 40
15.0
 40
15.0
 40
15.0
 40
15.0
 10
479.3290629483265
 20
19.64434313399343
 30
0.0
 10
479.4624528271425
 20
19.86710100183711
 30
0.0
 10
479.5068299926373
 20
20.17854860508731
 30
0.0
 10
479.5068299926373
 20
20.57900892165892
 30
0.0
  0
SPLINE
  5
1F0
330
1F
100
AcDbEntity
  8
PIEZA
370
    18
100
AcDbSpline
210
0.0
220
0.0
230
1.0
 70
     8
 71
     3
 72
     8
 73
     4
 74
     0
 42
0.000000001
 43
0.00000001
 40
16.0
 40
16.0
 40
16.0
 40
16.0
 40
17.0
 40
17.0
 40
17.0
 40
17.0
 10
479.5068299926761
 20
21.73614189698211
 30
0.0
 10
479.5068299926761
 20
22.00321233473759
 30
0.0
 10
479.5068299926761
 20
22.3147568313623
 30
0.0
 10
479.4624528271814
 20
22.58182726911778
 30
0.0
  0
SPLINE
  5
1F1
330
1F
100
AcDbEntity
  8
PIEZA
370
    18
100
AcDbSpline
210
0.0
220
0.0
230
1.0
 70
     8
 71
     3
 72
     8
 73
     4
 74
     0
 42
0.000000001
 43
0.00000001
 40
17.0
 40
17.0
 40
17.0
 40
17.0
 40
18.0
 40
18.0
 40
18.0
 40
18.0
 10
479.4624528271814
 20
22.58182726911778
 30
0.0
 10
479.4624528271814
 20
22.89327487236799
 30
0.0
 10
479.373375518277
 20
23.07136489459367
 30
0.0
 10
479.2843628049558
 20
23.2047224756183
 30
0.0
  0
SPLINE
  5
1F2
330
1F
100
AcDbEntity
  8
PIEZA
370
    18
100
AcDbSpline
210
0.0
220
0.0
230
1.0
 70
     8
 71
     3
 72
     8
 73
     4
 74
     0
 42
0.000000001
 43
0.00000001
 40
18.0
 40
18.0
 40
18.0
 40
18.0
 40
19.0
 40
19.0
 40
19.0
 40
19.0
 10
479.2843628049558
 20
23.2047224756183
 30
0.0
 10
479.1509729261396
 20
23.33811235443429
 30
0.0
 10
479.0172923672002
 20
23.38281249784387
 30
0.0
 10
478.8839024883841
 20
23.4271896633386
 30
0.0
  0
SPLINE
  5
1F3
330
1F
100
AcDbEntity
  8
PIEZA
370
    18
100
AcDbSpline
210
0.0
220
0.0
230
1.0
 70
     8
 71
     3
 72
     8
 73
     4
 74
     0
 42
0.000000001
 43
0.00000001
 40
19.0
 40
19.0
 40
19.0
 40
19.0
 40
20.0
 40
20.0
 40
20.0
 40
20.0
 10
478.8839024883841
 20
23.4271896633386
 30
0.0
 10
478.5277547417244
 20
23.51620237665998
 30
0.0
 10
478.1275528074847
 20
23.51620237665998
 30
0.0
 10
477.7714050608249
 20
23.51620237665998
 30
0.0
  0
SPLINE
  5
1F4
330
1F
100
AcDbEntity
  8
PIEZA
370
    18
100
AcDbSpline
210
0.0
220
0.0
230
1.0
 70
     8
 71
     3
 72
     8
 73
     4
 74
     0
 42
0.000000001
 43
0.00000001
 40
2.0
 40
2.0
 40
2.0
 40
2.0
 40
3.0
 40
3.0
 40
3.0
 40
3.0
 10
489.0751153142878
 20
22.6708076846692
 30
0.0
 10
489.0751153142878
 20
22.8041975634853
 30
0.0
 10
489.0304797664613
 20
22.93765203788427
 30
0.0
 10
488.9861026009666
 20
23.11574206010996
 30
0.0
  0
SPLINE
  5
1F5
330
1F
100
AcDbEntity
  8
PIEZA
370
    18
100
AcDbSpline
210
0.0
220
0.0
230
1.0
 70
     8
 71
     3
 72
     8
 73
     4
 74
     0
 42
0.000000001
 43
0.00000001
 40
3.0
 40
3.0
 40
3.0
 40
3.0
 40
4.0
 40
4.0
 40
4.0
 40
4.0
 10
488.9861026009666
 20
23.11574206010996
 30
0.0
 10
488.9861026009666
 20
23.20472247563978
 30
0.0
 10
488.8970252920624
 20
23.29373518896119
 30
0.0
 10
488.7636354132461
 20
23.33811235445589
 30
0.0
  0
SPLINE
  5
1F6
330
1F
100
AcDbEntity
  8
PIEZA
370
    18
100
AcDbSpline
210
0.0
220
0.0
230
1.0
 70
     8
 71
     3
 72
     8
 73
     4
 74
     0
 42
0.000000001
 43
0.00000001
 40
4.0
 40
4.0
 40
4.0
 40
4.0
 40
5.0
 40
5.0
 40
5.0
 40
5.0
 10
488.7636354132461
 20
23.33811235445589
 30
0.0
 10
488.5409744387768
 20
23.4271896633602
 30
0.0
 10
488.184826692117
 20
23.47179291339529
 30
0.0
 10
487.784334077754
 20
23.51620237668146
 30
0.0
  0
SPLINE
  5
1F7
330
1F
100
AcDbEntity
  8
PIEZA
370
    18
100
AcDbSpline
210
0.0
220
0.0
230
1.0
 70
    24
 71
     3
 72
     8
 73
     4
 74
     0
 42
0.000000001
 43
0.00000001
 40
5.0
 40
5.0
 40
5.0
 40
5.0
 40
6.0
 40
6.0
 40
6.0
 40
6.0
 10
487.784334077754
 20
23.51620237668146
 30
0.0
 10
487.3394320001048
 20
23.51620237668146
 30
0.0
 10
486.9389716835331
 20
23.51620237668146
 30
0.0
 10
486.5828239368734
 20
23.51620237668146
 30
0.0
  0
SPLINE
  5
1F8
330
1F
100
AcDbEntity
  8
PIEZA
370
    18
100
AcDbSpline
210
0.0
220
0.0
230
1.0
 70
    24
 71
     3
 72
     8
 73
     4
 74
     0
 42
0.000000001
 43
0.00000001
 40
9.0
 40
9.0
 40
9.0
 40
9.0
 40
10.0
 40
10.0
 40
10.0
 40
10.0
 10
486.2713763336735
 20
23.51620237668146
 30
0.0
 10
485.9599287304233
 20
23.51620237668146
 30
0.0
 10
485.5148005682338
 20
23.51620237668146
 30
0.0
 10
485.0252629427579
 20
23.51620237668146
 30
0.0
  0
SPLINE
  5
1F9
330
1F
100
AcDbEntity
  8
PIEZA
370
    18
100
AcDbSpline
210
0.0
220
0.0
230
1.0
 70
     8
 71
     3
 72
     8
 73
     4
 74
     0
 42
0.000000001
 43
0.00000001
 40
10.0
 40
10.0
 40
10.0
 40
10.0
 40
11.0
 40
11.0
 40
11.0
 40
11.0
 10
485.0252629427579
 20
23.51620237668146
 30
0.0
 10
484.535725317282
 20
23.47179291339529
 30
0.0
 10
484.1352004051275
 20
23.38281249786539
 30
0.0
 10
483.8237528018773
 20
23.29373518896119
 30
0.0
  0
SPLINE
  5
1FA
330
1F
100
AcDbEntity
  8
PIEZA
370
    18
100
AcDbSpline
210
0.0
220
0.0
230
1.0
 70
     8
 71
     3
 72
     8
 73
     4
 74
     0
 42
0.000000001
 43
0.00000001
 40
11.0
 40
11.0
 40
11.0
 40
11.0
 40
12.0
 40
12.0
 40
12.0
 40
12.0
 10
483.8237528018773
 20
23.29373518896119
 30
0.0
 10
483.6903629230612
 20
23.24909964113448
 30
0.0
 10
483.6010595296164
 20
23.16034531014506
 30
0.0
 10
483.5566823641217
 20
23.07136489461527
 30
0.0
  0
SPLINE
  5
1FB
330
1F
100
AcDbEntity
  8
PIEZA
370
    18
100
AcDbSpline
210
0.0
220
0.0
230
1.0
 70
     8
 71
     3
 72
     8
 73
     4
 74
     0
 42
0.000000001
 43
0.00000001
 40
12.0
 40
12.0
 40
12.0
 40
12.0
 40
13.0
 40
13.0
 40
13.0
 40
13.0
 10
483.5566823641217
 20
23.07136489461527
 30
0.0
 10
483.512305198627
 20
22.93765203788427
 30
0.0
 10
483.4676696508004
 20
22.8041975634853
 30
0.0
 10
483.512305198627
 20
22.6708076846692
 30
0.0
  0
SPLINE
  5
1FC
330
1F
100
AcDbEntity
  8
PIEZA
370
    18
100
AcDbSpline
210
0.0
220
0.0
230
1.0
 70
     8
 71
     3
 72
     8
 73
     4
 74
     0
 42
0.000000001
 43
0.00000001
 40
13.0
 40
13.0
 40
13.0
 40
13.0
 40
14.0
 40
14.0
 40
14.0
 40
14.0
 10
483.512305198627
 20
22.6708076846692
 30
0.0
 10
483.512305198627
 20
22.3590694012957
 30
0.0
 10
483.6010595296164
 20
22.18130235698479
 30
0.0
 10
483.7791172540506
 20
22.09228964366349
 30
0.0
  0
SPLINE
  5
1FD
330
1F
100
AcDbEntity
  8
PIEZA
370
    18
100
AcDbSpline
210
0.0
220
0.0
230
1.0
 70
     8
 71
     3
 72
     8
 73
     4
 74
     0
 42
0.000000001
 43
0.00000001
 40
14.0
 40
14.0
 40
14.0
 40
14.0
 40
15.0
 40
15.0
 40
15.0
 40
15.0
 10
483.7791172540506
 20
22.09228964366349
 30
0.0
 10
484.0018105263114
 20
21.95860908472408
 30
0.0
 10
484.2686548795265
 20
21.91423191922939
 30
0.0
 10
484.669438174013
 20
21.91423191922939
 30
0.0
  0
SPLINE
  5
1FE
330
1F
100
AcDbEntity
  8
PIEZA
370
    18
100
AcDbSpline
210
0.0
220
0.0
230
1.0
 70
     8
 71
     3
 72
     8
 73
     4
 74
     0
 42
0.000000001
 43
0.00000001
 40
15.0
 40
15.0
 40
15.0
 40
15.0
 40
16.0
 40
16.0
 40
16.0
 40
16.0
 10
484.669438174013
 20
21.91423191922939
 30
0.0
 10
484.9361856338535
 20
21.91423191922939
 30
0.0
 10
485.1589435016973
 20
21.86953177581978
 30
0.0
 10
485.4257232593295
 20
21.86953177581978
 30
0.0
  0
SPLINE
  5
1FF
330
1F
100
AcDbEntity
  8
PIEZA
370
    18
100
AcDbSpline
210
0.0
220
0.0
230
1.0
 70
     8
 71
     3
 72
     8
 73
     4
 74
     0
 42
0.000000001
 43
0.00000001
 40
19.0
 40
19.0
 40
19.0
 40
19.0
 40
20.0
 40
20.0
 40
20.0
 40
20.0
 10
487.0276937168295
 20
21.91423191921979
 30
0.0
 10
487.517199044514
 20
21.91423191921979
 30
0.0
 10
488.0070596479047
 20
21.86953177581018
 30
0.0
 10
488.451897129971
 20
21.86953177581018
 30
0.0
  0
SPLINE
  5
200
330
1F
100
AcDbEntity
  8
PIEZA
370
    18
100
AcDbSpline
210
0.0
220
0.0
230
1.0
 70
     8
 71
     3
 72
     8
 73
     4
 74
     0
 42
0.000000001
 43
0.00000001
 40
20.0
 40
20.0
 40
20.0
 40
20.0
 40
21.0
 40
21.0
 40
21.0
 40
21.0
 10
488.451897129971
 20
21.86953177581018
 30
0.0
 10
489.119492479881
 20
21.82521920589838
 30
0.0
 10
489.6089978075656
 20
21.64716148146428
 30
0.0
 10
489.9204777086071
 20
21.37999415033429
 30
0.0
  0
SPLINE
  5
201
330
1F
100
AcDbEntity
  8
PIEZA
370
    18
100
AcDbSpline
210
0.0
220
0.0
230
1.0
 70
     8
 71
     3
 72
     8
 73
     4
 74
     0
 42
0.000000001
 43
0.00000001
 40
21.0
 40
21.0
 40
21.0
 40
21.0
 40
22.0
 40
22.0
 40
22.0
 40
22.0
 10
489.9204777086071
 20
21.37999415033429
 30
0.0
 10
490.2766254552669
 20
21.11324669049367
 30
0.0
 10
490.4100153340832
 20
20.66808623051247
 30
0.0
 10
490.4100153340832
 20
20.13417143954189
 30
0.0
  0
SPLINE
  5
202
330
1F
100
AcDbEntity
  8
PIEZA
370
    18
100
AcDbSpline
210
0.0
220
0.0
230
1.0
 70
     8
 71
     3
 72
     8
 73
     4
 74
     0
 42
0.000000001
 43
0.00000001
 40
22.0
 40
22.0
 40
22.0
 40
22.0
 40
23.0
 40
23.0
 40
23.0
 40
23.0
 10
490.4100153340832
 20
20.13417143954189
 30
0.0
 10
490.4100153340832
 20
19.77808828846509
 30
0.0
 10
490.3210026207618
 20
19.46657608963188
 30
0.0
 10
490.1875481463625
 20
19.19950565187637
 30
0.0
  0
SPLINE
  5
203
330
1F
100
AcDbEntity
  8
PIEZA
370
    18
100
AcDbSpline
210
0.0
220
0.0
230
1.0
 70
     8
 71
     3
 72
     8
 73
     4
 74
     0
 42
0.000000001
 43
0.00000001
 40
23.0
 40
23.0
 40
23.0
 40
23.0
 40
24.0
 40
24.0
 40
24.0
 40
24.0
 10
490.1875481463625
 20
19.19950565187637
 30
0.0
 10
490.0541582675465
 20
18.88802575083469
 30
0.0
 10
489.7870878297909
 20
18.70996802640059
 30
0.0
 10
489.3865629176364
 20
18.53191030196638
 30
0.0
  0
SPLINE
  5
204
330
1F
100
AcDbEntity
  8
PIEZA
370
    18
100
AcDbSpline
210
0.0
220
0.0
230
1.0
 70
     8
 71
     3
 72
     8
 73
     4
 74
     0
 42
0.000000001
 43
0.00000001
 40
24.0
 40
24.0
 40
24.0
 40
24.0
 40
25.0
 40
25.0
 40
25.0
 40
25.0
 10
489.3865629176364
 20
18.53191030196638
 30
0.0
 10
489.0304797665598
 20
18.39852042315036
 30
0.0
 10
488.6299548544052
 20
18.35401406648967
 30
0.0
 10
488.1404172289294
 20
18.30950770982898
 30
0.0
  0
SPLINE
  5
205
330
1F
100
AcDbEntity
  8
PIEZA
370
    18
100
AcDbSpline
210
0.0
220
0.0
230
1.0
 70
     8
 71
     3
 72
     8
 73
     4
 74
     0
 42
0.000000001
 43
0.00000001
 40
25.0
 40
25.0
 40
25.0
 40
25.0
 40
26.0
 40
26.0
 40
26.0
 40
26.0
 10
488.1404172289294
 20
18.30950770982898
 30
0.0
 10
487.6952890667399
 20
18.26500135316838
 30
0.0
 10
487.2504515846734
 20
18.26500135316838
 30
0.0
 10
486.8052911246924
 20
18.26500135316838
 30
0.0
  0
SPLINE
  5
206
330
1F
100
AcDbEntity
  8
PIEZA
370
    18
100
AcDbSpline
210
0.0
220
0.0
230
1.0
 70
     8
 71
     3
 72
     8
 73
     4
 74
     0
 42
0.000000001
 43
0.00000001
 40
29.0
 40
29.0
 40
29.0
 40
29.0
 40
30.0
 40
30.0
 40
30.0
 40
30.0
 10
486.2713763337925
 20
18.26500135316838
 30
0.0
 10
485.5591777338475
 20
18.26500135316838
 30
0.0
 10
484.8918730640607
 20
18.30950770982898
 30
0.0
 10
484.1799005486562
 20
18.35401406648967
 30
0.0
  0
SPLINE
  5
207
330
1F
100
AcDbEntity
  8
PIEZA
370
    18
100
AcDbSpline
210
0.0
220
0.0
230
1.0
 70
     8
 71
     3
 72
     8
 73
     4
 74
     0
 42
0.000000001
 43
0.00000001
 40
30.0
 40
30.0
 40
30.0
 40
30.0
 40
31.0
 40
31.0
 40
31.0
 40
31.0
 10
484.1799005486562
 20
18.35401406648967
 30
0.0
 10
483.4676696509194
 20
18.44289758864511
 30
0.0
 10
482.9337548599487
 20
18.5764489564186
 30
0.0
 10
482.6666844221933
 20
18.93240291632947
 30
0.0
  0
SPLINE
  5
208
330
1F
100
AcDbEntity
  8
PIEZA
370
    18
100
AcDbSpline
210
0.0
220
0.0
230
1.0
 70
     8
 71
     3
 72
     8
 73
     4
 74
     0
 42
0.000000001
 43
0.00000001
 40
31.0
 40
31.0
 40
31.0
 40
31.0
 40
32.0
 40
32.0
 40
32.0
 40
32.0
 10
482.6666844221933
 20
18.93240291632947
 30
0.0
 10
482.3995493888548
 20
19.19950565187637
 30
0.0
 10
482.2661595100387
 20
19.68901097956078
 30
0.0
 10
482.3105366755334
 20
20.26756131835797
 30
0.0
  0
SPLINE
  5
209
330
1F
100
AcDbEntity
  8
PIEZA
370
    18
100
AcDbSpline
210
0.0
220
0.0
230
1.0
 70
     8
 71
     3
 72
     8
 73
     4
 74
     0
 42
0.000000001
 43
0.00000001
 40
37.0
 40
37.0
 40
37.0
 40
37.0
 40
38.0
 40
38.0
 40
38.0
 40
38.0
 10
483.4676696509334
 20
20.17854860495797
 30
0.0
 10
483.4676696509334
 20
19.95611371502909
 30
0.0
 10
483.51230519876
 20
19.77808828838639
 30
0.0
 10
483.5566823642548
 20
19.64434313386397
 30
0.0
  0
SPLINE
  5
20A
330
1F
100
AcDbEntity
  8
PIEZA
370
    18
100
AcDbSpline
210
0.0
220
0.0
230
1.0
 70
     8
 71
     3
 72
     8
 73
     4
 74
     0
 42
0.000000001
 43
0.00000001
 40
38.0
 40
38.0
 40
38.0
 40
38.0
 40
39.0
 40
39.0
 40
39.0
 40
39.0
 10
483.5566823642548
 20
19.64434313386397
 30
0.0
 10
483.5566823642548
 20
19.59999826616078
 30
0.0
 10
483.6010595297494
 20
19.55545961170859
 30
0.0
 10
483.6903629231942
 20
19.46657608955317
 30
0.0
  0
SPLINE
  5
20B
330
1F
100
AcDbEntity
  8
PIEZA
370
    18
100
AcDbSpline
210
0.0
220
0.0
230
1.0
 70
     8
 71
     3
 72
     8
 73
     4
 74
     0
 42
0.000000001
 43
0.00000001
 40
39.0
 40
39.0
 40
39.0
 40
39.0
 40
40.0
 40
40.0
 40
40.0
 40
40.0
 10
483.6903629231942
 20
19.46657608955317
 30
0.0
 10
483.734740088689
 20
19.42194054172657
 30
0.0
 10
483.8237528020103
 20
19.37756337623191
 30
0.0
 10
483.9572072764093
 20
19.37756337623191
 30
0.0
  0
SPLINE
  5
20C
330
1F
100
AcDbEntity
  8
PIEZA
370
    18
100
AcDbSpline
210
0.0
220
0.0
230
1.0
 70
     8
 71
     3
 72
     8
 73
     4
 74
     0
 42
0.000000001
 43
0.00000001
 40
40.0
 40
40.0
 40
40.0
 40
40.0
 40
41.0
 40
41.0
 40
41.0
 40
41.0
 10
483.9572072764093
 20
19.37756337623191
 30
0.0
 10
484.2686548796596
 20
19.28855066291047
 30
0.0
 10
484.669438174146
 20
19.24401200845838
 30
0.0
 10
485.1142756562123
 20
19.24401200845838
 30
0.0
  0
SPLINE
  5
20D
330
1F
100
AcDbEntity
  8
PIEZA
370
    18
100
AcDbSpline
210
0.0
220
0.0
230
1.0
 70
     8
 71
     3
 72
     8
 73
     4
 74
     0
 42
0.000000001
 43
0.00000001
 40
41.0
 40
41.0
 40
41.0
 40
41.0
 40
42.0
 40
42.0
 40
42.0
 40
42.0
 10
485.1142756562123
 20
19.24401200845838
 30
0.0
 10
485.5591777338615
 20
19.19950565179766
 30
0.0
 10
485.9599287305563
 20
19.19950565179766
 30
0.0
 10
486.3157534993014
 20
19.19950565179766
 30
0.0
  0
SPLINE
  5
20E
330
1F
100
AcDbEntity
  8
PIEZA
370
    18
100
AcDbSpline
210
0.0
220
0.0
230
1.0
 70
     8
 71
     3
 72
     8
 73
     4
 74
     0
 42
0.000000001
 43
0.00000001
 40
42.0
 40
42.0
 40
42.0
 40
42.0
 40
43.0
 40
43.0
 40
43.0
 40
43.0
 10
486.3157534993014
 20
19.19950565179766
 30
0.0
 10
486.9389716837166
 20
19.19950565179766
 30
0.0
 10
487.6065993314181
 20
19.24401200845838
 30
0.0
 10
488.2294945379186
 20
19.28855066291047
 30
0.0
  0
SPLINE
  5
20F
330
1F
100
AcDbEntity
  8
PIEZA
370
    18
100
AcDbSpline
210
0.0
220
0.0
230
1.0
 70
     8
 71
     3
 72
     8
 73
     4
 74
     0
 42
0.000000001
 43
0.00000001
 40
43.0
 40
43.0
 40
43.0
 40
43.0
 40
44.0
 40
44.0
 40
44.0
 40
44.0
 10
488.2294945379186
 20
19.28855066291047
 30
0.0
 10
488.5855776889953
 20
19.33305701957116
 30
0.0
 10
488.8524220422105
 20
19.42194054172657
 30
0.0
 10
488.98610260115
 20
19.55545961170859
 30
0.0
  0
SPLINE
  5
210
330
1F
100
AcDbEntity
  8
PIEZA
370
    18
100
AcDbSpline
210
0.0
220
0.0
230
1.0
 70
     8
 71
     3
 72
     8
 73
     4
 74
     0
 42
0.000000001
 43
0.00000001
 40
44.0
 40
44.0
 40
44.0
 40
44.0
 40
45.0
 40
45.0
 40
45.0
 40
45.0
 10
488.98610260115
 20
19.55545961170859
 30
0.0
 10
489.119492479966
 20
19.64434313386397
 30
0.0
 10
489.2085697888704
 20
19.82240085829818
 30
0.0
 10
489.2085697888704
 20
20.13417143946319
 30
0.0
  0
SPLINE
  5
211
330
1F
100
AcDbEntity
  8
PIEZA
370
    18
100
AcDbSpline
210
0.0
220
0.0
230
1.0
 70
     8
 71
     3
 72
     8
 73
     4
 74
     0
 42
0.000000001
 43
0.00000001
 40
45.0
 40
45.0
 40
45.0
 40
45.0
 40
46.0
 40
46.0
 40
46.0
 40
46.0
 10
489.2085697888704
 20
20.13417143946319
 30
0.0
 10
489.2085697888704
 20
20.31193848377399
 30
0.0
 10
489.163869645461
 20
20.48999620820817
 30
0.0
 10
489.119492479966
 20
20.57900892152949
 30
0.0
  0
SPLINE
  5
212
330
1F
100
AcDbEntity
  8
PIEZA
370
    18
100
AcDbSpline
210
0.0
220
0.0
230
1.0
 70
     8
 71
     3
 72
     8
 73
     4
 74
     0
 42
0.000000001
 43
0.00000001
 40
46.0
 40
46.0
 40
46.0
 40
46.0
 40
47.0
 40
47.0
 40
47.0
 40
47.0
 10
489.119492479966
 20
20.57900892152949
 30
0.0
 10
489.0751153144712
 20
20.66808623043377
 30
0.0
 10
489.0304797666447
 20
20.75709894375518
 30
0.0
 10
488.8970252922459
 20
20.8014761092499
 30
0.0
  0
SPLINE
  5
213
330
1F
100
AcDbEntity
  8
PIEZA
370
    18
100
AcDbSpline
210
0.0
220
0.0
230
1.0
 70
     8
 71
     3
 72
     8
 73
     4
 74
     0
 42
0.000000001
 43
0.00000001
 40
47.0
 40
47.0
 40
47.0
 40
47.0
 40
48.0
 40
48.0
 40
48.0
 40
48.0
 10
488.8970252922459
 20
20.8014761092499
 30
0.0
 10
488.8080448767157
 20
20.84614395486798
 30
0.0
 10
488.6743320199848
 20
20.84614395486798
 30
0.0
 10
488.4965649756739
 20
20.89055341815418
 30
0.0
  0
SPLINE
  5
214
330
1F
100
AcDbEntity
  8
PIEZA
370
    18
100
AcDbSpline
210
0.0
220
0.0
230
1.0
 70
    24
 71
     3
 72
     8
 73
     4
 74
     0
 42
0.000000001
 43
0.00000001
 40
48.0
 40
48.0
 40
48.0
 40
48.0
 40
49.0
 40
49.0
 40
49.0
 40
49.0
 10
488.4965649756739
 20
20.89055341815418
 30
0.0
 10
488.31850725124
 20
20.89055341815418
 30
0.0
 10
488.0960400635196
 20
20.89055341815418
 30
0.0
 10
487.8733467912588
 20
20.89055341815418
 30
0.0
  0
SPLINE
  5
215
330
1F
100
AcDbEntity
  8
PIEZA
370
    18
100
AcDbSpline
210
0.0
220
0.0
230
1.0
 70
     8
 71
     3
 72
     8
 73
     4
 74
     0
 42
0.000000001
 43
0.00000001
 40
52.0
 40
52.0
 40
52.0
 40
52.0
 40
53.0
 40
53.0
 40
53.0
 40
53.0
 10
486.3157534992588
 20
20.93515666825419
 30
0.0
 10
485.6928582927584
 20
20.93515666825419
 30
0.0
 10
485.069640108343
 20
20.93515666825419
 30
0.0
 10
484.446712604051
 20
20.97953383374903
 30
0.0
  0
SPLINE
  5
216
330
1F
100
AcDbEntity
  8
PIEZA
370
    18
100
AcDbSpline
210
0.0
220
0.0
230
1.0
 70
     8
 71
     3
 72
     8
 73
     4
 74
     0
 42
0.000000001
 43
0.00000001
 40
53.0
 40
53.0
 40
53.0
 40
53.0
 40
54.0
 40
54.0
 40
54.0
 40
54.0
 10
484.446712604051
 20
20.97953383374903
 30
0.0
 10
484.1352004052179
 20
20.97953383374903
 30
0.0
 10
483.8681299674624
 20
21.02423397715853
 30
0.0
 10
483.6010595297068
 20
21.06854654707032
 30
0.0
  0
SPLINE
  5
217
330
1F
100
AcDbEntity
  8
PIEZA
370
    18
100
AcDbSpline
210
0.0
220
0.0
230
1.0
 70
     8
 71
     3
 72
     8
 73
     4
 74
     0
 42
0.000000001
 43
0.00000001
 40
54.0
 40
54.0
 40
54.0
 40
54.0
 40
55.0
 40
55.0
 40
55.0
 40
55.0
 10
483.6010595297068
 20
21.06854654707032
 30
0.0
 10
483.3785923419864
 20
21.11324669047991
 30
0.0
 10
483.1562220476407
 20
21.2022271060097
 30
0.0
 10
482.9337548599202
 20
21.2909814369992
 30
0.0
  0
SPLINE
  5
218
330
1F
100
AcDbEntity
  8
PIEZA
370
    18
100
AcDbSpline
210
0.0
220
0.0
230
1.0
 70
     8
 71
     3
 72
     8
 73
     4
 74
     0
 42
0.000000001
 43
0.00000001
 40
55.0
 40
55.0
 40
55.0
 40
55.0
 40
56.0
 40
56.0
 40
56.0
 40
56.0
 10
482.9337548599202
 20
21.2909814369992
 30
0.0
 10
482.4886266977308
 20
21.51377160263442
 30
0.0
 10
482.2661595100102
 20
21.95860908470072
 30
0.0
 10
482.2661595100102
 20
22.49274996021171
 30
0.0
  0
SPLINE
  5
219
330
1F
100
AcDbEntity
  8
PIEZA
370
    18
100
AcDbSpline
210
0.0
220
0.0
230
1.0
 70
     8
 71
     3
 72
     8
 73
     4
 74
     0
 42
0.000000001
 43
0.00000001
 40
56.0
 40
56.0
 40
56.0
 40
56.0
 40
57.0
 40
57.0
 40
57.0
 40
57.0
 10
482.2661595100102
 20
22.49274996021171
 30
0.0
 10
482.2661595100102
 20
22.89327487236622
 30
0.0
 10
482.3552368189147
 20
23.24909964111112
 30
0.0
 10
482.5332622455572
 20
23.5608702222762
 30
0.0
  0
SPLINE
  5
21A
330
1F
100
AcDbEntity
  8
PIEZA
370
    18
100
AcDbSpline
210
0.0
220
0.0
230
1.0
 70
     8
 71
     3
 72
     8
 73
     4
 74
     0
 42
0.000000001
 43
0.00000001
 40
57.0
 40
57.0
 40
57.0
 40
57.0
 40
58.0
 40
58.0
 40
58.0
 40
58.0
 10
482.5332622455572
 20
23.5608702222762
 30
0.0
 10
482.7109969920766
 20
23.87235012331791
 30
0.0
 10
483.0227675732416
 20
24.09472041766383
 30
0.0
 10
483.4676696508908
 20
24.22817489206292
 30
0.0
  0
SPLINE
  5
21B
330
1F
100
AcDbEntity
  8
PIEZA
370
    18
100
AcDbSpline
210
0.0
220
0.0
230
1.0
 70
     8
 71
     3
 72
     8
 73
     4
 74
     0
 42
0.000000001
 43
0.00000001
 40
58.0
 40
58.0
 40
58.0
 40
58.0
 40
59.0
 40
59.0
 40
59.0
 40
59.0
 10
483.4676696508908
 20
24.22817489206292
 30
0.0
 10
483.8681299674624
 20
24.36185545100233
 30
0.0
 10
484.3576675929384
 20
24.40616802091412
 30
0.0
 10
484.8918730640321
 20
24.45086816432362
 30
0.0
  0
SPLINE
  5
21C
330
1F
100
AcDbEntity
  8
PIEZA
370
    18
100
AcDbSpline
210
0.0
220
0.0
230
1.0
 70
     8
 71
     3
 72
     8
 73
     4
 74
     0
 42
0.000000001
 43
0.00000001
 40
59.0
 40
59.0
 40
59.0
 40
59.0
 40
60.0
 40
60.0
 40
60.0
 40
60.0
 10
484.8918730640321
 20
24.45086816432362
 30
0.0
 10
485.42572325942
 20
24.45086816432362
 30
0.0
 10
485.9152285871044
 20
24.49524532981843
 30
0.0
 10
486.3603890470852
 20
24.49524532981843
 30
0.0
  0
SPLINE
  5
21D
330
1F
100
AcDbEntity
  8
PIEZA
370
    18
100
AcDbSpline
210
0.0
220
0.0
230
1.0
 70
     8
 71
     3
 72
     8
 73
     4
 74
     0
 42
0.000000001
 43
0.00000001
 40
60.0
 40
60.0
 40
60.0
 40
60.0
 40
61.0
 40
61.0
 40
61.0
 40
61.0
 10
486.3603890470852
 20
24.49524532981843
 30
0.0
 10
487.0276937168719
 20
24.49524532981843
 30
0.0
 10
487.6952890667822
 20
24.45086816432362
 30
0.0
 10
488.3628844166921
 20
24.40616802091412
 30
0.0
  0
SPLINE
  5
21E
330
1F
100
AcDbEntity
  8
PIEZA
370
    18
100
AcDbSpline
210
0.0
220
0.0
230
1.0
 70
     8
 71
     3
 72
     8
 73
     4
 74
     0
 42
0.000000001
 43
0.00000001
 40
61.0
 40
61.0
 40
61.0
 40
61.0
 40
62.0
 40
62.0
 40
62.0
 40
62.0
 10
488.3628844166921
 20
24.40616802091412
 30
0.0
 10
489.5646206421131
 20
24.3174782855076
 30
0.0
 10
490.2322482898146
 20
23.73863726658703
 30
0.0
 10
490.2322482898146
 20
22.67080768464583
 30
0.0
  0
SPLINE
  5
21F
330
1F
100
AcDbEntity
  8
PIEZA
370
    18
100
AcDbSpline
210
0.0
220
0.0
230
1.0
 70
     8
 71
     3
 72
     8
 73
     4
 74
     0
 42
0.000000001
 43
0.00000001
 40
1.0
 40
1.0
 40
1.0
 40
1.0
 40
2.0
 40
2.0
 40
2.0
 40
2.0
 10
506.2084477392202
 20
20.57900892159216
 30
0.0
 10
506.1640705737257
 20
20.66808623049635
 30
0.0
 10
506.0749932648212
 20
20.66808623049635
 30
0.0
 10
505.9859805514998
 20
20.71278637390597
 30
0.0
  0
SPLINE
  5
220
330
1F
100
AcDbEntity
  8
PIEZA
370
    18
100
AcDbSpline
210
0.0
220
0.0
230
1.0
 70
     8
 71
     3
 72
     8
 73
     4
 74
     0
 42
0.000000001
 43
0.00000001
 40
2.0
 40
2.0
 40
2.0
 40
2.0
 40
3.0
 40
3.0
 40
3.0
 40
3.0
 10
505.9859805514998
 20
20.71278637390597
 30
0.0
 10
505.8079228270657
 20
20.75709894381777
 30
0.0
 10
505.4964752238156
 20
20.80147610931257
 30
0.0
 10
504.9622697527213
 20
20.80147610931257
 30
0.0
  0
SPLINE
  5
221
330
1F
100
AcDbEntity
  8
PIEZA
370
    18
100
AcDbSpline
210
0.0
220
0.0
230
1.0
 70
     8
 71
     3
 72
     8
 73
     4
 74
     0
 42
0.000000001
 43
0.00000001
 40
4.0
 40
4.0
 40
4.0
 40
4.0
 40
5.0
 40
5.0
 40
5.0
 40
5.0
 10
504.0278946452214
 20
20.80147610931257
 30
0.0
 10
503.4937537697103
 20
20.80147610931257
 30
0.0
 10
503.1378967031738
 20
20.75709894381777
 30
0.0
 10
502.9598389787398
 20
20.66808623049635
 30
0.0
  0
SPLINE
  5
222
330
1F
100
AcDbEntity
  8
PIEZA
370
    18
100
AcDbSpline
210
0.0
220
0.0
230
1.0
 70
     8
 71
     3
 72
     8
 73
     4
 74
     0
 42
0.000000001
 43
0.00000001
 40
5.0
 40
5.0
 40
5.0
 40
5.0
 40
6.0
 40
6.0
 40
6.0
 40
6.0
 10
502.9598389787398
 20
20.66808623049635
 30
0.0
 10
502.8264168021323
 20
20.57900892159216
 30
0.0
 10
502.7370811108959
 20
20.40098349494949
 30
0.0
 10
502.7370811108959
 20
20.13417143952586
 30
0.0
  0
SPLINE
  5
223
330
1F
100
AcDbEntity
  8
PIEZA
370
    18
100
AcDbSpline
210
0.0
220
0.0
230
1.0
 70
     8
 71
     3
 72
     8
 73
     4
 74
     0
 42
0.000000001
 43
0.00000001
 40
7.0
 40
7.0
 40
7.0
 40
7.0
 40
8.0
 40
8.0
 40
8.0
 40
8.0
 10
502.7370811108959
 20
19.68901097962586
 30
0.0
 10
502.7370811108959
 20
19.46657608969695
 30
0.0
 10
502.8264168021323
 20
19.28855066305436
 30
0.0
 10
503.004183846443
 20
19.19950565194156
 30
0.0
  0
SPLINE
  5
224
330
1F
100
AcDbEntity
  8
PIEZA
370
    18
100
AcDbSpline
210
0.0
220
0.0
230
1.0
 70
     8
 71
     3
 72
     8
 73
     4
 74
     0
 42
0.000000001
 43
0.00000001
 40
8.0
 40
8.0
 40
8.0
 40
8.0
 40
9.0
 40
9.0
 40
9.0
 40
9.0
 10
503.004183846443
 20
19.19950565194156
 30
0.0
 10
503.1822738686684
 20
19.11049293862018
 30
0.0
 10
503.5383570197455
 20
19.06598658195955
 30
0.0
 10
504.0278946452214
 20
19.06598658195955
 30
0.0
  0
SPLINE
  5
225
330
1F
100
AcDbEntity
  8
PIEZA
370
    18
100
AcDbSpline
210
0.0
220
0.0
230
1.0
 70
     8
 71
     3
 72
     8
 73
     4
 74
     0
 42
0.000000001
 43
0.00000001
 40
10.0
 40
10.0
 40
10.0
 40
10.0
 40
11.0
 40
11.0
 40
11.0
 40
11.0
 10
504.9622697527213
 20
19.06598658195955
 30
0.0
 10
505.4520980583206
 20
19.06598658195955
 30
0.0
 10
505.7635456615709
 20
19.11049293862018
 30
0.0
 10
505.941603386005
 20
19.15499929528087
 30
0.0
  0
SPLINE
  5
226
330
1F
100
AcDbEntity
  8
PIEZA
370
    18
100
AcDbSpline
210
0.0
220
0.0
230
1.0
 70
     8
 71
     3
 72
    11
 73
     7
 74
     0
 42
0.000000001
 43
0.00000001
 40
11.0
 40
11.0
 40
11.0
 40
11.0
 40
12.0
 40
12.0
 40
12.0
 40
13.0
 40
13.0
 40
13.0
 40
13.0
 10
505.941603386005
 20
19.15499929528087
 30
0.0
 10
506.1193704303157
 20
19.19950565194156
 30
0.0
 10
506.2084477392202
 20
19.28855066305436
 30
0.0
 10
506.2084477392202
 20
19.42194054187035
 30
0.0
 10
506.2084477392202
 20
19.46657608969695
 30
0.0
 10
506.2084477392202
 20
19.55545961185245
 30
0.0
 10
506.2084477392202
 20
19.59999826630456
 30
0.0
  0
SPLINE
  5
227
330
1F
100
AcDbEntity
  8
PIEZA
370
    18
100
AcDbSpline
210
0.0
220
0.0
230
1.0
 70
     8
 71
     3
 72
     8
 73
     4
 74
     0
 42
0.000000001
 43
0.00000001
 40
18.0
 40
18.0
 40
18.0
 40
18.0
 40
19.0
 40
19.0
 40
19.0
 40
19.0
 10
507.8997215901647
 20
19.11049293848117
 30
0.0
 10
507.8997215901647
 20
18.79904533523094
 30
0.0
 10
507.6769637223209
 20
18.57644895634468
 30
0.0
 10
507.3208805712439
 20
18.48756543418926
 30
0.0
  0
SPLINE
  5
228
330
1F
100
AcDbEntity
  8
PIEZA
370
    18
100
AcDbSpline
210
0.0
220
0.0
230
1.0
 70
     8
 71
     3
 72
     8
 73
     4
 74
     0
 42
0.000000001
 43
0.00000001
 40
19.0
 40
19.0
 40
19.0
 40
19.0
 40
20.0
 40
20.0
 40
20.0
 40
20.0
 10
507.3208805712439
 20
18.48756543418926
 30
0.0
 10
506.965055802499
 20
18.35401406641574
 30
0.0
 10
506.297460452589
 20
18.26500135309445
 30
0.0
 10
505.4074625105413
 20
18.26500135309445
 30
0.0
  0
SPLINE
  5
229
330
1F
100
AcDbEntity
  8
PIEZA
370
    18
100
AcDbSpline
210
0.0
220
0.0
230
1.0
 70
     8
 71
     3
 72
     8
 73
     4
 74
     0
 42
0.000000001
 43
0.00000001
 40
21.0
 40
21.0
 40
21.0
 40
21.0
 40
22.0
 40
22.0
 40
22.0
 40
22.0
 10
503.5827341852415
 20
18.26500135309445
 30
0.0
 10
503.0488193942709
 20
18.26500135309445
 30
0.0
 10
502.6036912320812
 20
18.30950770975505
 30
0.0
 10
502.3812886399438
 20
18.30950770975505
 30
0.0
  0
SPLINE
  5
22A
330
1F
100
AcDbEntity
  8
PIEZA
370
    18
100
AcDbSpline
210
0.0
220
0.0
230
1.0
 70
     8
 71
     3
 72
     8
 73
     4
 74
     0
 42
0.000000001
 43
0.00000001
 40
22.0
 40
22.0
 40
22.0
 40
22.0
 40
23.0
 40
23.0
 40
23.0
 40
23.0
 10
502.3812886399438
 20
18.30950770975505
 30
0.0
 10
502.1141536066055
 20
18.35401406641574
 30
0.0
 10
501.8917833122597
 20
18.44289758857118
 30
0.0
 10
501.6693161245391
 20
18.53191030189254
 30
0.0
  0
SPLINE
  5
22B
330
1F
100
AcDbEntity
  8
PIEZA
370
    18
100
AcDbSpline
210
0.0
220
0.0
230
1.0
 70
     8
 71
     3
 72
     8
 73
     4
 74
     0
 42
0.000000001
 43
0.00000001
 40
23.0
 40
23.0
 40
23.0
 40
23.0
 40
24.0
 40
24.0
 40
24.0
 40
24.0
 10
501.6693161245391
 20
18.53191030189254
 30
0.0
 10
501.4912261023135
 20
18.62095531300537
 30
0.0
 10
501.3131683778792
 20
18.75447438298727
 30
0.0
 10
501.2241556645579
 20
18.88802575076085
 30
0.0
  0
SPLINE
  5
22C
330
1F
100
AcDbEntity
  8
PIEZA
370
    18
100
AcDbSpline
210
0.0
220
0.0
230
1.0
 70
     8
 71
     3
 72
     8
 73
     4
 74
     0
 42
0.000000001
 43
0.00000001
 40
24.0
 40
24.0
 40
24.0
 40
24.0
 40
25.0
 40
25.0
 40
25.0
 40
25.0
 10
501.2241556645579
 20
18.88802575076085
 30
0.0
 10
501.1351752490282
 20
19.06598658182054
 30
0.0
 10
501.0907980835334
 20
19.24401200846316
 30
0.0
 10
501.0907980835334
 20
19.46657608955795
 30
0.0
  0
SPLINE
  5
22D
330
1F
100
AcDbEntity
  8
PIEZA
370
    18
100
AcDbSpline
210
0.0
220
0.0
230
1.0
 70
     8
 71
     3
 72
     8
 73
     4
 74
     0
 42
0.000000001
 43
0.00000001
 40
26.0
 40
26.0
 40
26.0
 40
26.0
 40
27.0
 40
27.0
 40
27.0
 40
27.0
 10
501.0907980835334
 20
20.35663862725795
 30
0.0
 10
501.0907980835334
 20
20.80147610932437
 30
0.0
 10
501.2685651278442
 20
21.15759155819256
 30
0.0
 10
501.6246159811295
 20
21.33568158041828
 30
0.0
  0
SPLINE
  5
22E
330
1F
100
AcDbEntity
  8
PIEZA
370
    18
100
AcDbSpline
210
0.0
220
0.0
230
1.0
 70
     8
 71
     3
 72
     8
 73
     4
 74
     0
 42
0.000000001
 43
0.00000001
 40
27.0
 40
27.0
 40
27.0
 40
27.0
 40
28.0
 40
28.0
 40
28.0
 40
28.0
 10
501.6246159811295
 20
21.33568158041828
 30
0.0
 10
501.9807637277893
 20
21.51377160264386
 30
0.0
 10
502.6483590776994
 20
21.60275201817365
 30
0.0
 10
503.5827341852415
 20
21.60275201817365
 30
0.0
  0
SPLINE
  5
22F
330
1F
100
AcDbEntity
  8
PIEZA
370
    18
100
AcDbSpline
210
0.0
220
0.0
230
1.0
 70
     8
 71
     3
 72
     8
 73
     4
 74
     0
 42
0.000000001
 43
0.00000001
 40
29.0
 40
29.0
 40
29.0
 40
29.0
 40
30.0
 40
30.0
 40
30.0
 40
30.0
 10
505.4074625105413
 20
21.60275201817365
 30
0.0
 10
505.9859805515473
 20
21.60275201817365
 30
0.0
 10
506.3864731659103
 20
21.60275201817365
 30
0.0
 10
506.6979853647435
 20
21.55808417255565
 30
0.0
  0
SPLINE
  5
230
330
1F
100
AcDbEntity
  8
PIEZA
370
    18
100
AcDbSpline
210
0.0
220
0.0
230
1.0
 70
     8
 71
     3
 72
     8
 73
     4
 74
     0
 42
0.000000001
 43
0.00000001
 40
30.0
 40
30.0
 40
30.0
 40
30.0
 40
31.0
 40
31.0
 40
31.0
 40
31.0
 10
506.6979853647435
 20
21.55808417255565
 30
0.0
 10
506.965055802499
 20
21.51377160264386
 30
0.0
 10
507.1874583946364
 20
21.46907145923427
 30
0.0
 10
507.3655161190705
 20
21.37999415033005
 30
0.0
  0
SPLINE
  5
231
330
1F
100
AcDbEntity
  8
PIEZA
370
    18
100
AcDbSpline
210
0.0
220
0.0
230
1.0
 70
     8
 71
     3
 72
     8
 73
     4
 74
     0
 42
0.000000001
 43
0.00000001
 40
31.0
 40
31.0
 40
31.0
 40
31.0
 40
32.0
 40
32.0
 40
32.0
 40
32.0
 10
507.3655161190705
 20
21.37999415033005
 30
0.0
 10
507.498938295678
 20
21.33568158041828
 30
0.0
 10
507.6326511524091
 20
21.20222710601913
 30
0.0
 10
507.7216638657302
 20
21.06854654707976
 30
0.0
  0
SPLINE
  5
232
330
1F
100
AcDbEntity
  8
PIEZA
370
    18
100
AcDbSpline
210
0.0
220
0.0
230
1.0
 70
     8
 71
     3
 72
    11
 73
     7
 74
     0
 42
0.000000001
 43
0.00000001
 40
32.0
 40
32.0
 40
32.0
 40
32.0
 40
33.0
 40
33.0
 40
33.0
 40
34.0
 40
34.0
 40
34.0
 40
34.0
 10
507.7216638657302
 20
21.06854654707976
 30
0.0
 10
507.8104181967201
 20
20.93515666826363
 30
0.0
 10
507.8104181967201
 20
20.84614395494236
 30
0.0
 10
507.8104181967201
 20
20.66808623050815
 30
0.0
 10
507.8104181967201
 20
20.62370906501346
 30
0.0
 10
507.8104181967201
 20
20.62370906501346
 30
0.0
 10
507.8104181967201
 20
20.53469635169216
 30
0.0
  0
SPLINE
  5
233
330
1F
100
AcDbEntity
  8
PIEZA
370
    18
100
AcDbSpline
210
0.0
220
0.0
230
1.0
 70
     8
 71
     3
 72
    11
 73
     7
 74
     0
 42
0.000000001
 43
0.00000001
 40
2.0
 40
2.0
 40
2.0
 40
2.0
 40
3.0
 40
3.0
 40
3.0
 40
4.0
 40
4.0
 40
4.0
 40
4.0
 10
523.3121953870266
 20
25.4036853108171
 30
0.0
 10
523.4687750801259
 20
25.4036853108171
 30
0.0
 10
523.5825279017216
 20
25.39054010968438
 30
0.0
 10
523.6534538518137
 20
25.36424970741894
 30
0.0
 10
523.7243798019057
 20
25.33795930515349
 30
0.0
 10
523.7811916171206
 20
25.29119210308916
 30
0.0
 10
523.8238247018753
 20
25.22394810122594
 30
0.0
  0
SPLINE
  5
234
330
1F
100
AcDbEntity
  8
PIEZA
370
    18
100
AcDbSpline
210
0.0
220
0.0
230
1.0
 70
     8
 71
     3
 72
    11
 73
     7
 74
     0
 42
0.000000001
 43
0.00000001
 40
4.0
 40
4.0
 40
4.0
 40
4.0
 40
5.0
 40
5.0
 40
5.0
 40
6.0
 40
6.0
 40
6.0
 40
6.0
 10
523.8238247018753
 20
25.22394810122594
 30
0.0
 10
523.8664577866301
 20
25.15673639715421
 30
0.0
 10
523.8877743290075
 20
25.07986765342969
 30
0.0
 10
523.8877743290075
 20
24.99334187005238
 30
0.0
 10
523.8877743290075
 20
24.88349708122587
 30
0.0
 10
523.8556057286926
 20
24.79280488274753
 30
0.0
 10
523.7912362302711
 20
24.72123297682588
 30
0.0
  0
SPLINE
  5
235
330
1F
100
AcDbEntity
  8
PIEZA
370
    18
100
AcDbSpline
210
0.0
220
0.0
230
1.0
 70
     8
 71
     3
 72
     8
 73
     4
 74
     0
 42
0.000000001
 43
0.00000001
 40
6.0
 40
6.0
 40
6.0
 40
6.0
 40
7.0
 40
7.0
 40
7.0
 40
7.0
 10
523.7912362302711
 20
24.72123297682588
 30
0.0
 10
523.7268990296412
 20
24.6496933686957
 30
0.0
 10
523.630716206611
 20
24.6045733539969
 30
0.0
 10
523.5026877611808
 20
24.58593752831243
 30
0.0
  0
SPLINE
  5
236
330
1F
100
AcDbEntity
  8
PIEZA
370
    18
100
AcDbSpline
210
0.0
220
0.0
230
1.0
 70
     8
 71
     3
 72
     8
 73
     4
 74
     0
 42
0.000000001
 43
0.00000001
 40
7.0
 40
7.0
 40
7.0
 40
7.0
 40
8.0
 40
8.0
 40
8.0
 40
8.0
 10
523.5026877611808
 20
24.58593752831243
 30
0.0
 10
523.5662821126067
 20
24.54866587694348
 30
0.0
 10
523.6187983215547
 20
24.50771227734571
 30
0.0
 10
523.6602040902332
 20
24.46310902731059
 30
0.0
  0
SPLINE
  5
237
330
1F
100
AcDbEntity
  8
PIEZA
370
    18
100
AcDbSpline
210
0.0
220
0.0
230
1.0
 70
     8
 71
     3
 72
     8
 73
     4
 74
     0
 42
0.000000001
 43
0.00000001
 40
8.0
 40
8.0
 40
8.0
 40
8.0
 40
9.0
 40
9.0
 40
9.0
 40
9.0
 10
523.6602040902332
 20
24.46310902731059
 30
0.0
 10
523.7016421567032
 20
24.41850577727548
 30
0.0
 10
523.7574527403822
 20
24.33927929477287
 30
0.0
 10
523.8276681390615
 20
24.22539728201124
 30
0.0
  0
SPLINE
  5
238
330
1F
100
AcDbEntity
  8
PIEZA
370
    18
100
AcDbSpline
210
0.0
220
0.0
230
1.0
 70
     8
 71
     3
 72
     8
 73
     4
 74
     0
 42
0.000000001
 43
0.00000001
 40
12.0
 40
12.0
 40
12.0
 40
12.0
 40
13.0
 40
13.0
 40
13.0
 40
13.0
 10
523.4410635750353
 20
24.25930996306618
 30
0.0
 10
523.3649053827234
 20
24.37283670012151
 30
0.0
 10
523.3127767472732
 20
24.44437630825168
 30
0.0
 10
523.2847422642678
 20
24.4739287874567
 30
0.0
  0
SPLINE
  5
239
330
1F
100
AcDbEntity
  8
PIEZA
370
    18
100
AcDbSpline
210
0.0
220
0.0
230
1.0
 70
     8
 71
     3
 72
     8
 73
     4
 74
     0
 42
0.000000001
 43
0.00000001
 40
13.0
 40
13.0
 40
13.0
 40
13.0
 40
14.0
 40
14.0
 40
14.0
 40
14.0
 10
523.2847422642678
 20
24.4739287874567
 30
0.0
 10
523.2566754834709
 20
24.50344896887023
 30
0.0
 10
523.2269615153085
 20
24.52369968412875
 30
0.0
 10
523.1955680619891
 20
24.53464863544077
 30
0.0
  0
SPLINE
  5
23A
330
1F
100
AcDbEntity
  8
PIEZA
370
    18
100
AcDbSpline
210
0.0
220
0.0
230
1.0
 70
     8
 71
     3
 72
     8
 73
     4
 74
     0
 42
0.000000001
 43
0.00000001
 40
14.0
 40
14.0
 40
14.0
 40
14.0
 40
15.0
 40
15.0
 40
15.0
 40
15.0
 10
523.1955680619891
 20
24.53464863544077
 30
0.0
 10
523.1641423108781
 20
24.54562988454428
 30
0.0
 10
523.1144037119975
 20
24.55108821130455
 30
0.0
 10
523.046255371973
 20
24.55108821130455
 30
0.0
  0
SPLINE
  5
23B
330
1F
100
AcDbEntity
  8
PIEZA
370
    18
100
AcDbSpline
210
0.0
220
0.0
230
1.0
 70
     8
 71
     3
 72
     8
 73
     4
 74
     0
 42
0.000000001
 43
0.00000001
 40
1.0
 40
1.0
 40
1.0
 40
1.0
 40
2.0
 40
2.0
 40
2.0
 40
2.0
 10
523.2047729325611
 20
24.78418137242213
 30
0.0
 10
523.3465279393707
 20
24.78418137242213
 30
0.0
 10
523.4350561858199
 20
24.79018876163758
 30
0.0
 10
523.470325374117
 20
24.80217124227699
 30
0.0
  0
SPLINE
  5
23C
330
1F
100
AcDbEntity
  8
PIEZA
370
    18
100
AcDbSpline
210
0.0
220
0.0
230
1.0
 70
     8
 71
     3
 72
     8
 73
     4
 74
     0
 42
0.000000001
 43
0.00000001
 40
2.0
 40
2.0
 40
2.0
 40
2.0
 40
3.0
 40
3.0
 40
3.0
 40
3.0
 10
523.470325374117
 20
24.80217124227699
 30
0.0
 10
523.5055945624141
 20
24.81418602070789
 30
0.0
 10
523.5332414719218
 20
24.83485660725566
 30
0.0
 10
523.553201507057
 20
24.8641830019203
 30
0.0
  0
SPLINE
  5
23D
330
1F
100
AcDbEntity
  8
PIEZA
370
    18
100
AcDbSpline
210
0.0
220
0.0
230
1.0
 70
     8
 71
     3
 72
    14
 73
    10
 74
     0
 42
0.000000001
 43
0.00000001
 40
3.0
 40
3.0
 40
3.0
 40
3.0
 40
4.0
 40
4.0
 40
4.0
 40
5.0
 40
5.0
 40
5.0
 40
6.0
 40
6.0
 40
6.0
 40
6.0
 10
523.553201507057
 20
24.8641830019203
 30
0.0
 10
523.5731615421921
 20
24.89354169437643
 30
0.0
 10
523.5831415597597
 20
24.93023198549872
 30
0.0
 10
523.5831415597597
 20
24.9742215774957
 30
0.0
 10
523.5831415597597
 20
25.0235726028785
 30
0.0
 10
523.569996358627
 20
25.06339577977444
 30
0.0
 10
523.5437059563616
 20
25.09375570376647
 30
0.0
 10
523.5174155540961
 20
25.12411562775851
 30
0.0
 10
523.4803053916846
 20
25.14326821810668
 30
0.0
 10
523.4324077669185
 20
25.15127807039394
 30
0.0
  0
SPLINE
  5
23E
330
1F
100
AcDbEntity
  8
PIEZA
370
    18
100
AcDbSpline
210
0.0
220
0.0
230
1.0
 70
     8
 71
     3
 72
     8
 73
     4
 74
     0
 42
0.000000001
 43
0.00000001
 40
6.0
 40
6.0
 40
6.0
 40
6.0
 40
7.0
 40
7.0
 40
7.0
 40
7.0
 10
523.4324077669185
 20
25.15127807039394
 30
0.0
 10
523.4084428056397
 20
25.15460474291647
 30
0.0
 10
523.3365479218032
 20
25.15628422807348
 30
0.0
 10
523.2167554132005
 20
25.15628422807348
 30
0.0
  0
SPLINE
  5
23F
330
1F
100
AcDbEntity
  8
PIEZA
  6
Continuous
100
AcDbSpline
210
0.0
220
0.0
230
1.0
 70
     8
 71
     3
 72
    11
 73
     7
 74
     0
 42
0.000000001
 43
0.00000001
 40
0.0
 40
0.0
 40
0.0
 40
0.0
 40
0.2484248853065563
 40
0.4978018969754335
 40
0.7483180085550118
 40
1.0
 40
1.0
 40
1.0
 40
1.0
 10
360.1011090309132
 20
203.4463767816883
 30
0.0
 10
360.1020301060895
 20
203.4457745480022
 30
0.0
 10
360.2159316324174
 20
203.4099398243114
 30
0.0
 10
360.7531986662282
 20
203.2429346984072
 30
0.0
 10
361.5758491051496
 20
202.987775294615
 30
0.0
 10
362.1980030880957
 20
202.7949914666876
 30
0.0
 10
362.5378274750476
 20
202.6897352059755
 30
0.0
  0
SPLINE
  5
240
330
1F
100
AcDbEntity
  8
PIEZA
  6
Continuous
100
AcDbSpline
210
0.0
220
0.0
230
1.0
 70
     8
 71
     3
 72
    11
 73
     7
 74
     0
 42
0.000000001
 43
0.00000001
 40
0.0
 40
0.0
 40
0.0
 40
0.0
 40
0.2483565903201267
 40
0.49784547287109
 40
0.7484498227801425
 40
1.0
 40
1.0
 40
1.0
 40
1.0
 10
362.8928072684905
 20
203.8360289494146
 30
0.0
 10
362.5507503273354
 20
203.9419342569911
 30
0.0
 10
361.9187813467002
 20
204.1375221280282
 30
0.0
 10
361.0707969124874
 20
204.3997170423909
 30
0.0
 10
360.5027214560415
 20
204.5750095279133
 30
0.0
 10
360.3709202168978
 20
204.6152654049826
 30
0.0
 10
360.3622528243891
 20
204.6176331452862
 30
0.0
  0
SPLINE
  5
241
330
1F
100
AcDbEntity
  8
PIEZA
  6
Continuous
100
AcDbSpline
210
0.0
220
0.0
230
1.0
 70
     8
 71
     3
 72
    10
 73
     6
 74
     0
 42
0.000000001
 43
0.00000001
 40
0.0
 40
0.0
 40
0.0
 40
0.0
 40
0.2548920518774281
 40
0.6281585954613437
 40
1.0
 40
1.0
 40
1.0
 40
1.0
 10
168.138967548458
 20
203.0742732065575
 30
0.0
 10
168.3280777587774
 20
203.1316828522576
 30
0.0
 10
168.7628662697265
 20
203.263731523667
 30
0.0
 10
169.2434168093653
 20
203.4099654301729
 30
0.0
 10
169.3575303088116
 20
203.4451192971853
 30
0.0
 10
169.3584549640907
 20
203.4457160194893
 30
0.0
  0
SPLINE
  5
242
330
1F
100
AcDbEntity
  8
PIEZA
  6
Continuous
100
AcDbSpline
210
0.0
220
0.0
230
1.0
 70
    24
 71
     3
 72
    16
 73
    12
 74
     0
 42
0.000000001
 43
0.00000001
 40
0.0
 40
0.0
 40
0.0
 40
0.0
 40
0.0317875900363667
 40
0.0317875900363667
 40
0.1589379501818527
 40
0.1589379501818527
 40
0.6675393907637969
 40
0.6675393907637969
 40
0.8566080082044936
 40
0.8566080082044936
 40
1.0
 40
1.0
 40
1.0
 40
1.0
 10
166.4974447314038
 20
207.2440540681807
 30
0.0
 10
166.5003506981815
 20
207.0775713429908
 30
0.0
 10
166.5032566649591
 20
206.9110886178007
 30
0.0
 10
166.5177864988472
 20
206.078674991851
 30
0.0
 10
166.5294103659576
 20
205.412744091091
 30
0.0
 10
166.5875297015099
 20
202.0830895872915
 30
0.0
 10
166.6340251699519
 20
199.4193659842519
 30
0.0
 10
166.6978049660306
 20
195.7654239140868
 30
0.0
 10
166.7150892936674
 20
194.7752054469614
 30
0.0
 10
166.7454822704298
 20
193.0339929744011
 30
0.0
 10
166.7585909195554
 20
192.2829989689663
 30
0.0
 10
166.771699568681
 20
191.5320049635315
 30
0.0
  0
SPLINE
  5
243
330
1F
100
AcDbEntity
  8
PIEZA
  6
Continuous
100
AcDbSpline
210
0.0
220
0.0
230
1.0
 70
     8
 71
     3
 72
    16
 73
    12
 74
     0
 42
0.000000001
 43
0.00000001
 40
0.0
 40
0.0
 40
0.0
 40
0.0
 40
0.2499999999999964
 40
0.2499999999999964
 40
0.4999999999999929
 40
0.4999999999999929
 40
0.6249999999999949
 40
0.6249999999999949
 40
0.7499999999999969
 40
0.7499999999999969
 40
1.0
 40
1.0
 40
1.0
 40
1.0
 10
363.3740804143823
 20
207.8263702331764
 30
0.0
 10
363.1296226882453
 20
208.0602164067697
 30
0.0
 10
362.8624090737114
 20
208.270306117425
 30
0.0
 10
362.3000482775171
 20
208.6320976791134
 30
0.0
 10
362.0036212637095
 20
208.7853911318603
 30
0.0
 10
361.5357917340752
 20
208.9733501497374
 30
0.0
 10
361.3753194978186
 20
209.029076814487
 30
0.0
 10
361.052985035141
 20
209.1240486974472
 30
0.0
 10
360.8904642511478
 20
209.1636224374509
 30
0.0
 10
360.3989266932496
 20
209.2591065635575
 30
0.0
 10
360.0659709223339
 20
209.2919915151756
 30
0.0
 10
359.7275465663677
 20
209.2929098147637
 30
0.0
  0
SPLINE
  5
244
330
1F
100
AcDbEntity
  8
PIEZA
  6
Continuous
100
AcDbSpline
210
0.0
220
0.0
230
1.0
 70
    24
 71
     3
 72
    10
 73
     6
 74
     0
 42
0.000000001
 43
0.00000001
 40
0.0
 40
0.0
 40
0.0
 40
0.0
 40
0.5369168012936344
 40
0.5369168012936344
 40
1.0
 40
1.0
 40
1.0
 40
1.0
 10
362.9659171239039
 20
207.2440540681858
 30
0.0
 10
362.9662300307753
 20
207.2619804908482
 30
0.0
 10
362.9665328387569
 20
207.2793283485099
 30
0.0
 10
362.9670791247798
 20
207.3106250538218
 30
0.0
 10
362.9673250374522
 20
207.3247133814007
 30
0.0
 10
362.967564233605
 20
207.338416919829
 30
0.0
  0
SPLINE
  5
245
330
1F
100
AcDbEntity
  8
PIEZA
  6
Continuous
 62
   251
420
  6974058
100
AcDbSpline
210
0.0
220
0.0
230
1.0
 70
    24
 71
     3
 72
    12
 73
     8
 74
     0
 42
0.000000001
 43
0.00000001
 40
0.0
 40
0.0
 40
0.0
 40
0.0
 40
0.080216124269309
 40
0.080216124269309
 40
0.4010806213465289
 40
0.4010806213465289
 40
1.0
 40
1.0
 40
1.0
 40
1.0
 10
363.2158790451782
 20
207.2505958134648
 30
0.0
 10
363.2129730784007
 20
207.0841130882748
 30
0.0
 10
363.2100671116229
 20
206.9176303630848
 30
0.0
 10
363.1955372777348
 20
206.0852167371349
 30
0.0
 10
363.1839134106244
 20
205.419285836375
 30
0.0
 10
363.1505926610893
 20
203.5103413739954
 30
0.0
 10
363.1288957786645
 20
202.2673278123758
 30
0.0
 10
363.0719296207112
 20
199.0037388089791
 30
0.0
  0
SPLINE
  5
246
330
1F
100
AcDbEntity
  8
PIEZA
  6
Continuous
 62
   251
420
  6974058
100
AcDbSpline
210
0.0
220
0.0
230
1.0
 70
    24
 71
     3
 72
    12
 73
     8
 74
     0
 42
0.000000001
 43
0.00000001
 40
0.0
 40
0.0
 40
0.0
 40
0.0
 40
0.3000046212651459
 40
0.3000046212651459
 40
0.574734127498376
 40
0.574734127498376
 40
1.0
 40
1.0
 40
1.0
 40
1.0
 10
363.0719296207112
 20
199.0037388089791
 30
0.0
 10
363.0588874598703
 20
198.2565539148182
 30
0.0
 10
363.0458452990293
 20
197.5093690206573
 30
0.0
 10
363.0208597674731
 20
196.0779488764788
 30
0.0
 10
363.0089163967579
 20
195.3937136264613
 30
0.0
 10
362.9784853577996
 20
193.650320572156
 30
0.0
 10
362.9599976895566
 20
192.5911627678682
 30
0.0
 10
362.9415100213136
 20
191.5320049635804
 30
0.0
  0
SPLINE
  5
247
330
1F
100
AcDbEntity
  8
PIEZA
  6
Continuous
 62
   251
420
  6974058
100
AcDbSpline
210
0.0
220
0.0
230
1.0
 70
     8
 71
     3
 72
     8
 73
     4
 74
     0
 42
0.000000001
 43
0.00000001
 40
0.0
 40
0.0
 40
0.0
 40
0.0
 40
1.0
 40
1.0
 40
1.0
 40
1.0
 10
165.8073370652164
 20
207.410786914572
 30
0.0
 10
165.7867785701403
 20
207.3863679302669
 30
0.0
 10
165.7664411643009
 20
207.3617614453132
 30
0.0
 10
165.7463298764771
 20
207.3369735448116
 30
0.0
  0
SPLINE
  5
248
330
1F
100
AcDbEntity
  8
PIEZA
  6
Continuous
100
AcDbSpline
210
0.0
220
0.0
230
1.0
 70
    24
 71
     3
 72
     8
 73
     4
 74
     0
 42
0.000000001
 43
0.00000001
 40
0.0
 40
0.0
 40
0.0
 40
0.0
 40
1.0
 40
1.0
 40
1.0
 40
1.0
 10
261.7200780342506
 20
216.1923708474437
 30
0.0
 10
261.6977375748063
 20
217.4722549118159
 30
0.0
 10
261.6753972191809
 20
218.7521330284152
 30
0.0
 10
261.6530569714544
 20
220.0320049634895
 30
0.0
  0
SPLINE
  5
249
330
1F
100
AcDbEntity
  8
PIEZA
  6
Continuous
100
AcDbSpline
210
0.0
220
0.0
230
1.0
 70
     8
 71
     3
 72
    14
 73
    10
 74
     0
 42
0.000000001
 43
0.00000001
 40
0.0
 40
0.0
 40
0.0
 40
0.0
 40
0.0324731886178629
 40
0.0324731886178629
 40
0.162365943153279
 40
0.162365943153279
 40
0.6819369653397052
 40
0.6819369653397052
 40
1.0
 40
1.0
 40
1.0
 40
1.0
 10
165.1419447272309
 20
206.8971877675598
 30
0.0
 10
165.1339903969977
 20
206.7308703375041
 30
0.0
 10
165.1260370222918
 20
206.5645528616446
 30
0.0
 10
165.0862749229555
 20
205.732965253411
 30
0.0
 10
165.0544805209004
 20
205.0676944345039
 30
0.0
 10
164.8955846779637
 20
201.7413366839198
 30
0.0
 10
164.7687117357883
 20
199.0802388016781
 30
0.0
 10
164.5645601237496
 20
194.7900922410265
 30
0.0
 10
164.4871307938269
 20
193.1610507344776
 30
0.0
 10
164.4097911365271
 20
191.5320049635366
 30
0.0
  0
SPLINE
  5
24A
330
1F
100
AcDbEntity
  8
PIEZA
  6
Continuous
 62
   251
420
  6974058
100
AcDbSpline
210
0.0
220
0.0
230
1.0
 70
     8
 71
     3
 72
     8
 73
     4
 74
     0
 42
0.000000001
 43
0.00000001
 40
0.0
 40
0.0
 40
0.0
 40
0.0
 40
1.0
 40
1.0
 40
1.0
 40
1.0
 10
363.8461462143021
 20
207.5608616976359
 30
0.0
 10
363.8676679824712
 20
207.5352915325728
 30
0.0
 10
363.8889583335682
 20
207.5095251124378
 30
0.0
 10
363.9100120100445
 20
207.4835688045285
 30
0.0
  0
SPLINE
  5
24B
330
1F
100
AcDbEntity
  8
PIEZA
  6
Continuous
 62
   251
420
  6974058
100
AcDbSpline
210
0.0
220
0.0
230
1.0
 70
     8
 71
     3
 72
     8
 73
     4
 74
     0
 42
0.000000001
 43
0.00000001
 40
0.0
 40
0.0
 40
0.0
 40
0.0
 40
1.0
 40
1.0
 40
1.0
 40
1.0
 10
363.882766028462
 20
206.8971877675596
 30
0.0
 10
363.8764831590301
 20
207.0578229202549
 30
0.0
 10
363.8183560007115
 20
207.212087968374
 30
0.0
 10
363.7170319788316
 20
207.3369735448115
 30
0.0
  0
SPLINE
  5
24C
330
1F
100
AcDbEntity
  8
PIEZA
  6
Continuous
 62
   251
420
  6974058
100
AcDbSpline
210
0.0
220
0.0
230
1.0
 70
     8
 71
     3
 72
    14
 73
    10
 74
     0
 42
0.000000001
 43
0.00000001
 40
0.0
 40
0.0
 40
0.0
 40
0.0
 40
0.25
 40
0.25
 40
0.5
 40
0.5
 40
0.75
 40
0.75
 40
1.0
 40
1.0
 40
1.0
 40
1.0
 10
363.6560247900922
 20
207.4107869145719
 30
0.0
 10
363.6231166060372
 20
207.4498746216298
 30
0.0
 10
363.5789346094456
 20
207.4780331690663
 30
0.0
 10
363.4810945238822
 20
207.5043374167306
 30
0.0
 10
363.4279298904094
 20
207.5018566839879
 30
0.0
 10
363.3332409791644
 20
207.4669993776753
 30
0.0
 10
363.2910349781029
 20
207.4342707190327
 30
0.0
 10
363.2331653579676
 20
207.351747778599
 30
0.0
 10
363.2167702876287
 20
207.3016550535906
 30
0.0
 10
363.2158790451782
 20
207.2505958134648
 30
0.0
  0
SPLINE
  5
24D
330
1F
100
AcDbEntity
  8
PIEZA
  6
Continuous
100
AcDbSpline
210
0.0
220
0.0
230
1.0
 70
     8
 71
     3
 72
    10
 73
     6
 74
     0
 42
0.000000001
 43
0.00000001
 40
0.0
 40
0.0
 40
0.0
 40
0.0
 40
0.4976960857312139
 40
0.4976960857312139
 40
1.0
 40
1.0
 40
1.0
 40
1.0
 10
164.1736024526418
 20
191.5320049635366
 30
0.0
 10
164.1812200388174
 20
191.6983381667216
 30
0.0
 10
164.1888384930517
 20
191.8646713300508
 30
0.0
 10
164.2041476809361
 20
192.1988775418019
 30
0.0
 10
164.2118384307447
 20
192.3667505894934
 30
0.0
 10
164.2195300659754
 20
192.5346235965156
 30
0.0
  0
SPLINE
  5
24E
330
1F
100
AcDbEntity
  8
PIEZA
  6
Continuous
100
AcDbSpline
210
0.0
220
0.0
230
1.0
 70
     8
 71
     3
 72
     8
 73
     4
 74
     0
 42
0.000000001
 43
0.00000001
 40
0.0
 40
0.0
 40
0.0
 40
0.0
 40
1.0
 40
1.0
 40
1.0
 40
1.0
 10
164.3115610879909
 20
194.5423132272729
 30
0.0
 10
164.3383221170019
 20
195.1258459154121
 30
0.0
 10
164.3650938739565
 20
195.7093781103582
 30
0.0
 10
164.391876384661
 20
196.2929098103319
 30
0.0
  0
SPLINE
  5
24F
330
1F
100
AcDbEntity
  8
PIEZA
  6
Continuous
 62
   251
420
  6974058
100
AcDbSpline
210
0.0
220
0.0
230
1.0
 70
     8
 71
     3
 72
     8
 73
     4
 74
     0
 42
0.000000001
 43
0.00000001
 40
0.0
 40
0.0
 40
0.0
 40
0.0
 40
1.0
 40
1.0
 40
1.0
 40
1.0
 10
165.3323374559482
 20
206.8971877675598
 30
0.0
 10
165.3409439513179
 20
207.1114077201986
 30
0.0
 10
165.4184409195557
 20
207.3170343594088
 30
0.0
 10
165.5533498472816
 20
207.4835688038957
 30
0.0
  0
SPLINE
  5
250
330
1F
100
AcDbEntity
  8
PIEZA
  6
Continuous
100
AcDbSpline
210
0.0
220
0.0
230
1.0
 70
     8
 71
     3
 72
     8
 73
     4
 74
     0
 42
0.000000001
 43
0.00000001
 40
0.0
 40
0.0
 40
0.0
 40
0.0
 40
1.0
 40
1.0
 40
1.0
 40
1.0
 10
365.2897594026667
 20
191.5320049635366
 30
0.0
 10
364.8231621601871
 20
196.3796223665537
 30
0.0
 10
364.819035835398
 20
196.4663349105768
 30
0.0
 10
364.8149092547084
 20
196.5530474423943
 30
0.0
  0
SPLINE
  5
251
330
1F
100
AcDbEntity
  8
PIEZA
  6
Continuous
100
AcDbSpline
210
0.0
220
0.0
230
1.0
 70
     8
 71
     3
 72
    14
 73
    10
 74
     0
 42
0.000000001
 43
0.00000001
 40
0.0
 40
0.0
 40
0.0
 40
0.0
 40
0.25
 40
0.25
 40
0.5
 40
0.5
 40
0.75
 40
0.75
 40
1.0
 40
1.0
 40
1.0
 40
1.0
 10
165.6172156410064
 20
207.560861697636
 30
0.0
 10
165.6831685876296
 20
207.6383521476524
 30
0.0
 10
165.7714568783846
 20
207.6938710499263
 30
0.0
 10
165.9663723141724
 20
207.745891795025
 30
0.0
 10
166.0721484429774
 20
207.7412508732898
 30
0.0
 10
166.2611566851243
 20
207.6731047296333
 30
0.0
 10
166.3458393692995
 20
207.608792742399
 30
0.0
 10
166.4624222949476
 20
207.445405032979
 30
0.0
 10
166.4956695969343
 20
207.3457514538635
 30
0.0
 10
166.4974447314038
 20
207.2440540681807
 30
0.0
  0
SPLINE
  5
252
330
1F
100
AcDbEntity
  8
PIEZA
  6
Continuous
100
AcDbSpline
210
0.0
220
0.0
230
1.0
 70
    24
 71
     3
 72
     8
 73
     4
 74
     0
 42
0.000000001
 43
0.00000001
 40
0.0
 40
0.0
 40
0.0
 40
0.0
 40
1.0
 40
1.0
 40
1.0
 40
1.0
 10
267.8103048838542
 20
220.0320049634895
 30
0.0
 10
267.7878694065039
 20
218.7466773269206
 30
0.0
 10
267.7654338186629
 20
217.4613433603506
 30
0.0
 10
267.7429981251646
 20
216.176003340674
 30
0.0
  0
SPLINE
  5
253
330
1F
100
AcDbEntity
  8
PIEZA
  6
Continuous
100
AcDbSpline
210
0.0
220
0.0
230
1.0
 70
     8
 71
     3
 72
     8
 73
     4
 74
     0
 42
0.000000001
 43
0.00000001
 40
0.0
 40
0.0
 40
0.0
 40
0.0
 40
1.0
 40
1.0
 40
1.0
 40
1.0
 10
364.3214171300947
 20
206.8971877681925
 30
0.0
 10
364.3113929465454
 20
207.1116549093717
 30
0.0
 10
364.2325302237254
 20
207.3171499039267
 30
0.0
 10
364.0967432182223
 20
207.4835688045285
 30
0.0
  0
SPLINE
  5
254
330
1F
100
AcDbEntity
  8
PIEZA
  6
Continuous
 62
   251
420
  6974058
100
AcDbSpline
210
0.0
220
0.0
230
1.0
 70
     8
 71
     3
 72
     8
 73
     4
 74
     0
 42
0.000000001
 43
0.00000001
 40
0.0
 40
0.0
 40
0.0
 40
0.0
 40
1.0
 40
1.0
 40
1.0
 40
1.0
 10
165.5805958268467
 20
206.8971877675597
 30
0.0
 10
165.3802723130763
 20
201.7754836525554
 30
0.0
 10
165.1805549415117
 20
196.6537558402404
 30
0.0
 10
164.9814328792113
 20
191.5320049635365
 30
0.0
  0
SPLINE
  5
255
330
1F
100
AcDbEntity
  8
PIEZA
  6
Continuous
100
AcDbSpline
210
0.0
220
0.0
230
1.0
 70
     8
 71
     3
 72
    14
 73
    10
 74
     0
 42
0.000000001
 43
0.00000001
 40
0.0
 40
0.0
 40
0.0
 40
0.0
 40
0.25
 40
0.25
 40
0.5
 40
0.5
 40
0.75
 40
0.75
 40
1.0
 40
1.0
 40
1.0
 40
1.0
 10
362.9659171239039
 20
207.2440540681858
 30
0.0
 10
362.9676922583742
 20
207.345751453868
 30
0.0
 10
363.0009395603628
 20
207.4454050329858
 30
0.0
 10
363.1175224860124
 20
207.6087927424038
 30
0.0
 10
363.2022051701876
 20
207.6731047296368
 30
0.0
 10
363.3912134123341
 20
207.7412508732912
 30
0.0
 10
363.4969895411387
 20
207.7458917950257
 30
0.0
 10
363.6919049769251
 20
207.6938710499261
 30
0.0
 10
363.7801932676795
 20
207.6383521476521
 30
0.0
 10
363.8461462143021
 20
207.5608616976359
 30
0.0
  0
SPLINE
  5
256
330
1F
100
AcDbEntity
  8
PIEZA
  6
Continuous
 62
   251
420
  6974058
100
AcDbSpline
210
0.0
220
0.0
230
1.0
 70
     8
 71
     3
 72
    14
 73
    10
 74
     0
 42
0.000000001
 43
0.00000001
 40
0.0
 40
0.0
 40
0.0
 40
0.0
 40
0.0324853658769354
 40
0.0324853658769354
 40
0.1624268294125955
 40
0.1624268294125955
 40
0.6821926853597728
 40
0.6821926853597728
 40
1.0
 40
1.0
 40
1.0
 40
1.0
 10
164.733342777748
 20
191.5320049635366
 30
0.0
 10
164.7398094726473
 20
191.6983869210842
 30
0.0
 10
164.7462767969574
 20
191.8647688540651
 30
0.0
 10
164.7786165674044
 20
192.6966783961009
 30
0.0
 10
164.8044984602167
 20
193.3622056364306
 30
0.0
 10
164.9339584246718
 20
196.6898398692321
 30
0.0
 10
165.0376879953364
 20
199.3519409475768
 30
0.0
 10
165.2051051742979
 20
203.6417554036628
 30
0.0
 10
165.2686906454621
 20
205.2694727905288
 30
0.0
 10
165.3323374559482
 20
206.8971877675598
 30
0.0
  0
SPLINE
  5
257
330
1F
100
AcDbEntity
  8
PIEZA
  6
Continuous
100
AcDbSpline
210
0.0
220
0.0
230
1.0
 70
     8
 71
     3
 72
    10
 73
     6
 74
     0
 42
0.000000001
 43
0.00000001
 40
0.0
 40
0.0
 40
0.0
 40
0.0
 40
0.5
 40
0.5
 40
1.0
 40
1.0
 40
1.0
 40
1.0
 10
178.532247724569
 20
209.5320049634898
 30
0.0
 10
178.5398501030017
 20
209.5320049634898
 30
0.0
 10
178.5323502240651
 20
209.5031674149606
 30
0.0
 10
178.4951515784319
 20
209.4122748954623
 30
0.0
 10
178.4666893366113
 20
209.352471730915
 30
0.0
 10
178.4358045671647
 20
209.2929098103311
 30
0.0
  0
SPLINE
  5
258
330
1F
100
AcDbEntity
  8
PIEZA
  6
Continuous
100
AcDbSpline
210
0.0
220
0.0
230
1.0
 70
     8
 71
     3
 72
     8
 73
     4
 74
     0
 42
0.000000001
 43
0.00000001
 40
0.0
 40
0.0
 40
0.0
 40
0.0
 40
1.0
 40
1.0
 40
1.0
 40
1.0
 10
351.027557288144
 20
209.292909810331
 30
0.0
 10
354.0973918185861
 20
203.3726700357138
 30
0.0
 10
357.1670953382356
 20
197.4523624560927
 30
0.0
 10
360.2367024037282
 20
191.5320049635366
 30
0.0
  0
SPLINE
  5
259
330
1F
100
AcDbEntity
  8
PIEZA
  6
Continuous
100
AcDbSpline
210
0.0
220
0.0
230
1.0
 70
     8
 71
     3
 72
    10
 73
     6
 74
     0
 42
0.000000001
 43
0.00000001
 40
0.0
 40
0.0
 40
0.0
 40
0.0
 40
0.5
 40
0.5
 40
1.0
 40
1.0
 40
1.0
 40
1.0
 10
166.0892814409264
 20
207.8263702331764
 30
0.0
 10
166.2024422139203
 20
207.8045754174576
 30
0.0
 10
166.3056655341775
 20
207.7428954403584
 30
0.0
 10
166.4522950898477
 20
207.5660406105329
 30
0.0
 10
166.4937819469989
 20
207.4538948462251
 30
0.0
 10
166.495797621702
 20
207.3384169198233
 30
0.0
  0
SPLINE
  5
25A
330
1F
100
AcDbEntity
  8
PIEZA
  6
Continuous
100
AcDbSpline
210
0.0
220
0.0
230
1.0
 70
     8
 71
     3
 72
    10
 73
     6
 74
     0
 42
0.000000001
 43
0.00000001
 40
0.0
 40
0.0
 40
0.0
 40
0.0
 40
0.5
 40
0.5
 40
1.0
 40
1.0
 40
1.0
 40
1.0
 10
363.8382778692531
 20
207.6944047112601
 30
0.0
 10
363.7843637622057
 20
207.7484365805397
 30
0.0
 10
363.7162299784285
 20
207.7898974010575
 30
0.0
 10
363.5567739062456
 20
207.838182013453
 30
0.0
 10
363.4661882378538
 20
207.8441102413586
 30
0.0
 10
363.3740804143823
 20
207.8263702331764
 30
0.0
  0
SPLINE
  5
25B
330
1F
100
AcDbEntity
  8
PIEZA
  6
Continuous
 62
   251
420
  6974058
100
AcDbSpline
210
0.0
220
0.0
230
1.0
 70
     8
 71
     3
 72
    12
 73
     8
 74
     0
 42
0.000000001
 43
0.00000001
 40
0.0
 40
0.0
 40
0.0
 40
0.0
 40
0.3803706836868139
 40
0.3803706836868139
 40
0.782473246355298
 40
0.782473246355298
 40
1.0
 40
1.0
 40
1.0
 40
1.0
 10
165.6172156410064
 20
207.560861697636
 30
0.0
 10
165.6182490574951
 20
207.57916833719
 30
0.0
 10
165.6192695517232
 20
207.5969264045212
 30
0.0
 10
165.6213405897558
 20
207.6323901594531
 30
0.0
 10
165.6223895364536
 20
207.6500351789433
 30
0.0
 10
165.62398095861
 20
207.676382028426
 30
0.0
 10
165.624534905755
 20
207.6854711467296
 30
0.0
 10
165.6250839860555
 20
207.6944047112602
 30
0.0
  0
SPLINE
  5
25C
330
1F
100
AcDbEntity
  8
PIEZA
  6
Continuous
100
AcDbSpline
210
0.0
220
0.0
230
1.0
 70
     8
 71
     3
 72
    14
 73
    10
 74
     0
 42
0.000000001
 43
0.00000001
 40
0.0
 40
0.0
 40
0.0
 40
0.0
 40
0.25
 40
0.25
 40
0.5
 40
0.5
 40
0.75
 40
0.75
 40
1.0
 40
1.0
 40
1.0
 40
1.0
 10
359.7278783295637
 20
209.5320049634897
 30
0.0
 10
360.1173071580779
 20
209.5309719935347
 30
0.0
 10
360.4998215555499
 20
209.4895645727118
 30
0.0
 10
361.251515661227
 20
209.328886890444
 30
0.0
 10
361.6246479286364
 20
209.2073880302573
 30
0.0
 10
362.3282435158295
 20
208.893391603229
 30
0.0
 10
362.6607409844112
 20
208.7014646894471
 30
0.0
 10
363.2865970345262
 20
208.246780093986
 30
0.0
 10
363.5782952319689
 20
207.9840810316721
 30
0.0
 10
363.8382778692531
 20
207.6944047112601
 30
0.0
  0
SPLINE
  5
25D
330
1F
100
AcDbEntity
  8
PIEZA
  6
Continuous
 62
   251
420
  6974058
100
AcDbSpline
210
0.0
220
0.0
230
1.0
 70
     8
 71
     3
 72
    12
 73
     8
 74
     0
 42
0.000000001
 43
0.00000001
 40
0.0
 40
0.0
 40
0.0
 40
0.0
 40
0.2175267536621946
 40
0.2175267536621946
 40
0.6196343905743524
 40
0.6196343905743524
 40
1.0
 40
1.0
 40
1.0
 40
1.0
 10
363.8382778692531
 20
207.6944047112601
 30
0.0
 10
363.8388269495536
 20
207.6854711467296
 30
0.0
 10
363.8393808966986
 20
207.6763820284261
 30
0.0
 10
363.840972331887
 20
207.6500349631904
 30
0.0
 10
363.8420212920264
 20
207.632389714134
 30
0.0
 10
363.8440923308123
 20
207.5969259307252
 30
0.0
 10
363.8451128115993
 20
207.5791680929782
 30
0.0
 10
363.8461462143021
 20
207.5608616976359
 30
0.0
  0
SPLINE
  5
25E
330
1F
100
AcDbEntity
  8
PIEZA
  6
Continuous
100
AcDbSpline
210
0.0
220
0.0
230
1.0
 70
    24
 71
     3
 72
    10
 73
     6
 74
     0
 42
0.000000001
 43
0.00000001
 40
0.0
 40
0.0
 40
0.0
 40
0.0
 40
0.4630765121644807
 40
0.4630765121644807
 40
1.0
 40
1.0
 40
1.0
 40
1.0
 10
166.495797621702
 20
207.3384169198233
 30
0.0
 10
166.4960368144012
 20
207.3247135792588
 30
0.0
 10
166.4962827234261
 20
207.3106254606521
 30
0.0
 10
166.4968290090084
 20
207.279328780595
 30
0.0
 10
166.4971318206357
 20
207.2619807140887
 30
0.0
 10
166.4974447314038
 20
207.2440540681807
 30
0.0
  0
SPLINE
  5
25F
330
1F
100
AcDbEntity
  8
PIEZA
  6
Continuous
100
AcDbSpline
210
0.0
220
0.0
230
1.0
 70
     8
 71
     3
 72
    14
 73
    10
 74
     0
 42
0.000000001
 43
0.00000001
 40
0.0
 40
0.0
 40
0.0
 40
0.0
 40
0.25
 40
0.25
 40
0.5
 40
0.5
 40
0.75
 40
0.75
 40
1.0
 40
1.0
 40
1.0
 40
1.0
 10
169.6706895893769
 20
209.5320049634896
 30
0.0
 10
169.2579643260396
 20
209.5309095436362
 30
0.0
 10
168.8486698709374
 20
209.484130383978
 30
0.0
 10
168.0457440394529
 20
209.3010355203704
 30
0.0
 10
167.6611779628342
 20
209.1671212962074
 30
0.0
 10
166.9247853884705
 20
208.8172021960326
 30
0.0
 10
166.5712252048046
 20
208.5990591300131
 30
0.0
 10
165.9224959975605
 20
208.0911605727519
 30
0.0
 10
165.6278414515405
 20
207.8028576627208
 30
0.0
 10
165.3666186391034
 20
207.4835688038956
 30
0.0
  0
SPLINE
  5
260
330
1F
100
AcDbEntity
  8
PIEZA
  6
Continuous
100
AcDbSpline
210
0.0
220
0.0
230
1.0
 70
     8
 71
     3
 72
    10
 73
     6
 74
     0
 42
0.000000001
 43
0.00000001
 40
0.0
 40
0.0
 40
0.0
 40
0.0
 40
0.5
 40
0.5
 40
1.0
 40
1.0
 40
1.0
 40
1.0
 10
351.027557288144
 20
209.292909810331
 30
0.0
 10
350.996631678641
 20
209.3525504918134
 30
0.0
 10
350.9685628580225
 20
209.4114450613717
 30
0.0
 10
350.9308396259225
 20
209.5035561749414
 30
0.0
 10
350.9234916644147
 20
209.5320049634897
 30
0.0
 10
350.9311141307397
 20
209.5320049634897
 30
0.0
  0
SPLINE
  5
261
330
1F
100
AcDbEntity
  8
PIEZA
  6
Continuous
100
AcDbSpline
210
0.0
220
0.0
230
1.0
 70
     8
 71
     3
 72
     8
 73
     4
 74
     0
 42
0.000000001
 43
0.00000001
 40
0.0
 40
0.0
 40
0.0
 40
0.0
 40
1.0
 40
1.0
 40
1.0
 40
1.0
 10
165.3666186391034
 20
207.4835688038956
 30
0.0
 10
165.230832245138
 20
207.3171506527871
 30
0.0
 10
165.1519688639849
 20
207.1116539075551
 30
0.0
 10
165.1419447272309
 20
206.8971877675598
 30
0.0
  0
SPLINE
  5
262
330
1F
100
AcDbEntity
  8
PIEZA
  6
Continuous
100
AcDbSpline
210
0.0
220
0.0
230
1.0
 70
     8
 71
     3
 72
    10
 73
     6
 74
     0
 42
0.000000001
 43
0.00000001
 40
0.0
 40
0.0
 40
0.0
 40
0.0
 40
0.5
 40
0.5
 40
1.0
 40
1.0
 40
1.0
 40
1.0
 10
362.967564233605
 20
207.338416919829
 30
0.0
 10
362.9695808615983
 20
207.4539494601924
 30
0.0
 10
363.0106060518364
 20
207.5654766106138
 30
0.0
 10
363.1581274546733
 20
207.743423761095
 30
0.0
 10
363.2605492190523
 20
207.8045040739495
 30
0.0
 10
363.3740804143823
 20
207.8263702331764
 30
0.0
  0
SPLINE
  5
263
330
1F
100
AcDbEntity
  8
PIEZA
  6
Continuous
100
AcDbSpline
210
0.0
220
0.0
230
1.0
 70
    24
 71
     3
 72
    12
 73
     8
 74
     0
 42
0.000000001
 43
0.00000001
 40
0.0
 40
0.0
 40
0.0
 40
0.0
 40
0.063912721536846
 40
0.063912721536846
 40
0.3195636076842174
 40
0.3195636076842174
 40
1.0
 40
1.0
 40
1.0
 40
1.0
 10
362.6916622866257
 20
191.5320049635343
 30
0.0
 10
362.6945682534034
 20
191.6984876887244
 30
0.0
 10
362.6974742201809
 20
191.8649704139143
 30
0.0
 10
362.712004054069
 20
192.6973840398642
 30
0.0
 10
362.7236279211795
 20
193.3633149406242
 30
0.0
 10
362.766189690836
 20
195.8016770911762
 30
0.0
 10
362.797127593382
 20
197.5741083409684
 30
0.0
 10
362.8280654959279
 20
199.3465395907606
 30
0.0
  0
SPLINE
  5
264
330
1F
100
AcDbEntity
  8
PIEZA
  6
Continuous
100
AcDbSpline
210
0.0
220
0.0
230
1.0
 70
    24
 71
     3
 72
    10
 73
     6
 74
     0
 42
0.000000001
 43
0.00000001
 40
0.0
 40
0.0
 40
0.0
 40
0.0
 40
0.1111792733858383
 40
0.1111792733858383
 40
1.0
 40
1.0
 40
1.0
 40
1.0
 10
362.8280654959279
 20
199.3465395907606
 30
0.0
 10
362.867134705148
 20
201.58481308791
 30
0.0
 10
362.870936449382
 20
201.8026148692064
 30
0.0
 10
362.9051311703786
 20
203.7616291230638
 30
0.0
 10
362.9355241471412
 20
205.5028415956248
 30
0.0
 10
362.9659171239039
 20
207.2440540681858
 30
0.0
  0
SPLINE
  5
265
330
1F
100
AcDbEntity
  8
PIEZA
  6
Continuous
 62
   251
420
  6974058
100
AcDbSpline
210
0.0
220
0.0
230
1.0
 70
     8
 71
     3
 72
     8
 73
     4
 74
     0
 42
0.000000001
 43
0.00000001
 40
0.0
 40
0.0
 40
0.0
 40
0.0
 40
1.0
 40
1.0
 40
1.0
 40
1.0
 10
165.7463298764771
 20
207.3369735448116
 30
0.0
 10
165.6450058545972
 20
207.2120879683741
 30
0.0
 10
165.5868786962787
 20
207.057822920255
 30
0.0
 10
165.5805958268467
 20
206.8971877675597
 30
0.0
  0
SPLINE
  5
266
330
1F
100
AcDbEntity
  8
PIEZA
  6
Continuous
 62
   251
420
  6974058
100
AcDbSpline
210
0.0
220
0.0
230
1.0
 70
     8
 71
     3
 72
    14
 73
    10
 74
     0
 42
0.000000001
 43
0.00000001
 40
0.0
 40
0.0
 40
0.0
 40
0.0
 40
0.25
 40
0.25
 40
0.5
 40
0.5
 40
0.75
 40
0.75
 40
1.0
 40
1.0
 40
1.0
 40
1.0
 10
166.2474828101286
 20
207.2505958134565
 30
0.0
 10
166.2465915676794
 20
207.3016550535827
 30
0.0
 10
166.2301964973413
 20
207.3517477785917
 30
0.0
 10
166.1723268772075
 20
207.434270719027
 30
0.0
 10
166.1301208761465
 20
207.4669993776706
 30
0.0
 10
166.0354319649015
 20
207.5018566839851
 30
0.0
 10
165.9822673314285
 20
207.5043374167288
 30
0.0
 10
165.8844272458643
 20
207.4780331690658
 30
0.0
 10
165.840245249272
 20
207.4498746216296
 30
0.0
 10
165.8073370652164
 20
207.410786914572
 30
0.0
  0
SPLINE
  5
267
330
1F
100
AcDbEntity
  8
PIEZA
  6
Continuous
 62
   251
420
  6974058
100
AcDbSpline
210
0.0
220
0.0
230
1.0
 70
     8
 71
     3
 72
     8
 73
     4
 74
     0
 42
0.000000001
 43
0.00000001
 40
0.0
 40
0.0
 40
0.0
 40
0.0
 40
1.0
 40
1.0
 40
1.0
 40
1.0
 10
363.7170319788316
 20
207.3369735448115
 30
0.0
 10
363.6969206910078
 20
207.3617614453131
 30
0.0
 10
363.6765832851682
 20
207.3863679302668
 30
0.0
 10
363.6560247900922
 20
207.4107869145719
 30
0.0
  0
SPLINE
  5
268
330
1F
100
AcDbEntity
  8
PIEZA
  6
Continuous
 62
   251
420
  6974058
100
AcDbSpline
210
0.0
220
0.0
230
1.0
 70
     8
 71
     3
 72
    12
 73
     8
 74
     0
 42
0.000000001
 43
0.00000001
 40
0.0
 40
0.0
 40
0.0
 40
0.0
 40
0.06451709731378
 40
0.06451709731378
 40
0.3225854866260776
 40
0.3225854866260776
 40
1.0
 40
1.0
 40
1.0
 40
1.0
 10
364.1310243995356
 20
206.8971877674982
 30
0.0
 10
364.1375301967016
 20
206.7308073408291
 30
0.0
 10
364.1440353529697
 20
206.5644268889917
 30
0.0
 10
364.1765579317149
 20
205.7325245040013
 30
0.0
 10
364.20256574641
 20
205.0670021935611
 30
0.0
 10
364.2968055001218
 20
202.6545210726424
 30
0.0
 10
364.3649772166321
 20
200.9075598974445
 30
0.0
 10
364.5184342479408
 20
196.970095354867
 30
0.0
  0
SPLINE
  5
269
330
1F
100
AcDbEntity
  8
PIEZA
  6
Continuous
 62
   251
420
  6974058
100
AcDbSpline
210
0.0
220
0.0
230
1.0
 70
     8
 71
     3
 72
    10
 73
     6
 74
     0
 42
0.000000001
 43
0.00000001
 40
0.0
 40
0.0
 40
0.0
 40
0.0
 40
0.1020410415822736
 40
0.1020410415822736
 40
1.0
 40
1.0
 40
1.0
 40
1.0
 10
364.5184342479408
 20
196.970095354867
 30
0.0
 10
364.5256386825854
 20
196.7851261850578
 30
0.0
 10
364.5328423343599
 20
196.6001569846468
 30
0.0
 10
364.6034302989097
 20
194.7874625206446
 30
0.0
 10
364.6667548083153
 20
193.1597349171677
 30
0.0
 10
364.7300190777355
 20
191.5320049634751
 30
0.0
  0
SPLINE
  5
26A
330
1F
100
AcDbEntity
  8
PIEZA
  6
Continuous
 62
   251
420
  6974058
100
AcDbSpline
210
0.0
220
0.0
230
1.0
 70
     8
 71
     3
 72
     8
 73
     4
 74
     0
 42
0.000000001
 43
0.00000001
 40
0.0
 40
0.0
 40
0.0
 40
0.0
 40
1.0
 40
1.0
 40
1.0
 40
1.0
 10
363.9100120100445
 20
207.4835688045285
 30
0.0
 10
364.0446438433294
 20
207.3173764102348
 30
0.0
 10
364.1224355290467
 20
207.1109690448286
 30
0.0
 10
364.1310243995356
 20
206.8971877674982
 30
0.0
  0
SPLINE
  5
26B
330
1F
100
AcDbEntity
  8
PIEZA
  6
Continuous
 62
   251
420
  6974058
100
AcDbSpline
210
0.0
220
0.0
230
1.0
 70
     8
 71
     3
 72
     8
 73
     4
 74
     0
 42
0.000000001
 43
0.00000001
 40
0.0
 40
0.0
 40
0.0
 40
0.0
 40
1.0
 40
1.0
 40
1.0
 40
1.0
 10
364.4819289760973
 20
191.5320049635366
 30
0.0
 10
364.4066670555144
 20
193.4678668327562
 30
0.0
 10
364.3313200888182
 20
195.4037254069883
 30
0.0
 10
364.2558874910646
 20
197.339580652057
 30
0.0
  0
SPLINE
  5
26C
330
1F
100
AcDbEntity
  8
PIEZA
  6
Continuous
 62
   251
420
  6974058
100
AcDbSpline
210
0.0
220
0.0
230
1.0
 70
     8
 71
     3
 72
     8
 73
     4
 74
     0
 42
0.000000001
 43
0.00000001
 40
0.0
 40
0.0
 40
0.0
 40
0.0
 40
1.0
 40
1.0
 40
1.0
 40
1.0
 10
364.2558874910646
 20
197.3395806520569
 30
0.0
 10
364.074730652467
 20
201.985628390266
 30
0.0
 10
363.9788180180996
 20
204.4414108029808
 30
0.0
 10
363.882766028462
 20
206.8971877675596
 30
0.0
  0
SPLINE
  5
26D
330
1F
100
AcDbEntity
  8
PIEZA
  6
Continuous
100
AcDbSpline
210
0.0
220
0.0
230
1.0
 70
     8
 71
     3
 72
    14
 73
    10
 74
     0
 42
0.000000001
 43
0.00000001
 40
0.0
 40
0.0
 40
0.0
 40
0.0
 40
0.25
 40
0.25
 40
0.5
 40
0.5
 40
0.75
 40
0.75
 40
1.0
 40
1.0
 40
1.0
 40
1.0
 10
165.6250839860555
 20
207.6944047112602
 30
0.0
 10
165.8844330542751
 20
207.9833751000867
 30
0.0
 10
166.1741030759694
 20
208.2444628352324
 30
0.0
 10
166.7981332371579
 20
208.6985835552931
 30
0.0
 10
167.1296293805482
 20
208.8903884778643
 30
0.0
 10
167.8310241641192
 20
209.2044995337456
 30
0.0
 10
168.2026595789976
 20
209.3264390643918
 30
0.0
 10
168.9595597766753
 20
209.4891895206483
 30
0.0
 10
169.3469918101941
 20
209.530974479251
 30
0.0
 10
169.735483525745
 20
209.5320049634898
 30
0.0
  0
SPLINE
  5
26E
330
1F
100
AcDbEntity
  8
PIEZA
  6
Continuous
 62
   251
420
  6974058
100
AcDbSpline
210
0.0
220
0.0
230
1.0
 70
     8
 71
     3
 72
     8
 73
     4
 74
     0
 42
0.000000001
 43
0.00000001
 40
0.0
 40
0.0
 40
0.0
 40
0.0
 40
1.0
 40
1.0
 40
1.0
 40
1.0
 10
165.5533498472816
 20
207.4835688038957
 30
0.0
 10
165.5744035230834
 20
207.5095251120099
 30
0.0
 10
165.5956938735079
 20
207.5352915323558
 30
0.0
 10
165.6172156410064
 20
207.560861697636
 30
0.0
  0
SPLINE
  5
26F
330
1F
100
AcDbEntity
  8
PIEZA
  6
Continuous
100
AcDbSpline
210
0.0
220
0.0
230
1.0
 70
     8
 71
     3
 72
    10
 73
     6
 74
     0
 42
0.000000001
 43
0.00000001
 40
0.0
 40
0.0
 40
0.0
 40
0.0
 40
0.5
 40
0.5
 40
1.0
 40
1.0
 40
1.0
 40
1.0
 10
359.7275465663677
 20
209.2929098147637
 30
0.0
 10
359.7276319986786
 20
209.3566309382813
 30
0.0
 10
359.7277162262602
 20
209.41862831644
 30
0.0
 10
359.7278375794663
 20
209.5064804632529
 30
0.0
 10
359.7278745890399
 20
209.5319874122132
 30
0.0
 10
359.7278783295637
 20
209.5320049634897
 30
0.0
  0
SPLINE
  5
270
330
1F
100
AcDbEntity
  8
PIEZA
  6
Continuous
100
AcDbSpline
210
0.0
220
0.0
230
1.0
 70
     8
 71
     3
 72
    14
 73
    10
 74
     0
 42
0.000000001
 43
0.00000001
 40
0.0
 40
0.0
 40
0.0
 40
0.0
 40
0.25
 40
0.25
 40
0.5
 40
0.5
 40
0.75
 40
0.75
 40
1.0
 40
1.0
 40
1.0
 40
1.0
 10
364.0967432182223
 20
207.4835688045285
 30
0.0
 10
363.8349818568879
 20
207.8035159238678
 30
0.0
 10
363.5430104245685
 20
208.0888316228793
 30
0.0
 10
362.9009281069891
 20
208.5928151579105
 30
0.0
 10
362.5464255419063
 20
208.8128104373012
 30
0.0
 10
361.808948562875
 20
209.1645559113399
 30
0.0
 10
361.4237686438469
 20
209.2992036927323
 30
0.0
 10
360.6194928388913
 20
209.4834590468301
 30
0.0
 10
360.2062495433904
 20
209.530907282932
 30
0.0
 10
359.792672267949
 20
209.5320049641226
 30
0.0
  0
SPLINE
  5
271
330
1F
100
AcDbEntity
  8
PIEZA
  6
Continuous
100
AcDbSpline
210
0.0
220
0.0
230
1.0
 70
     8
 71
     3
 72
    10
 73
     6
 74
     0
 42
0.000000001
 43
0.00000001
 40
0.0
 40
0.0
 40
0.0
 40
0.0
 40
0.5
 40
0.5
 40
1.0
 40
1.0
 40
1.0
 40
1.0
 10
169.735483525745
 20
209.5320049634898
 30
0.0
 10
169.735487266272
 20
209.5319874122132
 30
0.0
 10
169.7355242758362
 20
209.5064804632518
 30
0.0
 10
169.735645629042
 20
209.4186283164371
 30
0.0
 10
169.7357298566425
 20
209.3566309382774
 30
0.0
 10
169.735815288943
 20
209.2929098147587
 30
0.0
  0
SPLINE
  5
272
330
1F
100
AcDbEntity
  8
PIEZA
  6
Continuous
100
AcDbSpline
210
0.0
220
0.0
230
1.0
 70
     8
 71
     3
 72
    10
 73
     6
 74
     0
 42
0.000000001
 43
0.00000001
 40
0.0
 40
0.0
 40
0.0
 40
0.0
 40
0.5
 40
0.5
 40
1.0
 40
1.0
 40
1.0
 40
1.0
 10
166.0892814409264
 20
207.8263702331764
 30
0.0
 10
165.9971736174546
 20
207.8441102413586
 30
0.0
 10
165.906587949063
 20
207.838182013453
 30
0.0
 10
165.74713187688
 20
207.7898974010574
 30
0.0
 10
165.6789980931116
 20
207.7484365805518
 30
0.0
 10
165.6250839860555
 20
207.6944047112602
 30
0.0
  0
SPLINE
  5
273
330
1F
100
AcDbEntity
  8
PIEZA
  6
Continuous
100
AcDbSpline
210
0.0
220
0.0
230
1.0
 70
     8
 71
     3
 72
     8
 73
     4
 74
     0
 42
0.000000001
 43
0.00000001
 40
0.0
 40
0.0
 40
0.0
 40
0.0
 40
1.0
 40
1.0
 40
1.0
 40
1.0
 10
178.4358045671647
 20
209.2929098103311
 30
0.0
 10
175.3659700367226
 20
203.3726700357139
 30
0.0
 10
172.296266517073
 20
197.4523624560928
 30
0.0
 10
169.2266594515805
 20
191.5320049635367
 30
0.0
  0
SPLINE
  5
274
330
1F
100
AcDbEntity
  8
PIEZA
  6
Continuous
100
AcDbSpline
210
0.0
220
0.0
230
1.0
 70
     8
 71
     3
 72
    16
 73
    12
 74
     0
 42
0.000000001
 43
0.00000001
 40
0.0
 40
0.0
 40
0.0
 40
0.0
 40
0.2500000000000007
 40
0.2500000000000007
 40
0.3750000000000006
 40
0.3750000000000006
 40
0.5000000000000004
 40
0.5000000000000004
 40
0.7500000000000002
 40
0.7500000000000002
 40
1.0
 40
1.0
 40
1.0
 40
1.0
 10
169.735815288943
 20
209.2929098147587
 30
0.0
 10
169.3973909329768
 20
209.2919915151711
 30
0.0
 10
169.064435162061
 20
209.2591065635535
 30
0.0
 10
168.5728976041628
 20
209.1636224374475
 30
0.0
 10
168.4103768201695
 20
209.124048697444
 30
0.0
 10
168.0880423574917
 20
209.0290768144843
 30
0.0
 10
167.927570121235
 20
208.9733501497349
 30
0.0
 10
167.4597405916003
 20
208.7853911318585
 30
0.0
 10
167.1633135777927
 20
208.6320976791119
 30
0.0
 10
166.6009527815978
 20
208.2703061174243
 30
0.0
 10
166.3337391670637
 20
208.0602164067693
 30
0.0
 10
166.0892814409264
 20
207.8263702331764
 30
0.0
  0
SPLINE
  5
275
330
1F
100
AcDbEntity
  8
PIEZA
  6
Continuous
 62
   251
420
  6974058
100
AcDbSpline
210
0.0
220
0.0
230
1.0
 70
    24
 71
     3
 72
    14
 73
    10
 74
     0
 42
0.000000001
 43
0.00000001
 40
0.0
 40
0.0
 40
0.0
 40
0.0
 40
0.0317743607133634
 40
0.0317743607133634
 40
0.1588718035668232
 40
0.1588718035668232
 40
0.6672615749806632
 40
0.6672615749806632
 40
1.0
 40
1.0
 40
1.0
 40
1.0
 10
166.5218518339934
 20
191.5320049635752
 30
0.0
 10
166.5189458672157
 20
191.6984876887653
 30
0.0
 10
166.5160399004382
 20
191.8649704139552
 30
0.0
 10
166.5015100665501
 20
192.6973840399051
 30
0.0
 10
166.4898861994396
 20
193.363314940665
 30
0.0
 10
166.4317668638873
 20
196.6929694444645
 30
0.0
 10
166.3852713954453
 20
199.3566930475041
 30
0.0
 10
166.3083448880452
 20
203.7638097048479
 30
0.0
 10
166.277913849087
 20
205.5072027591523
 30
0.0
 10
166.2474828101286
 20
207.2505958134565
 30
0.0
  0
SPLINE
  5
276
330
1F
100
AcDbEntity
  8
PIEZA
  6
Continuous
100
AcDbSpline
210
0.0
220
0.0
230
1.0
 70
    24
 71
     3
 72
    14
 73
    10
 74
     0
 42
0.000000001
 43
0.00000001
 40
0.0
 40
0.0
 40
0.0
 40
0.0
 40
0.25
 40
0.25
 40
0.4999999999999999
 40
0.4999999999999999
 40
0.75
 40
0.75
 40
1.0
 40
1.0
 40
1.0
 40
1.0
 10
149.8829272394438
 20
194.4748147167851
 30
0.0
 10
149.8269014695063
 20
194.4595013689681
 30
0.0
 10
149.7701962682344
 20
194.4440023143174
 30
0.0
 10
149.6703104274914
 20
194.4167008310358
 30
0.0
 10
149.6284543899519
 20
194.4052604516924
 30
0.0
 10
149.568417694692
 20
194.3888508102485
 30
0.0
 10
149.5492993727923
 20
194.3836252593413
 30
0.0
 10
149.5238560499431
 20
194.3766709157803
 30
0.0
 10
149.5174133195442
 20
194.3749099445058
 30
0.0
 10
149.5134633219889
 20
194.373830304074
 30
0.0
  0
SPLINE
  5
277
330
1F
100
AcDbEntity
  8
PIEZA
  6
Continuous
100
AcDbSpline
210
0.0
220
0.0
230
1.0
 70
    24
 71
     3
 72
    14
 73
    10
 74
     0
 42
0.000000001
 43
0.00000001
 40
0.0
 40
0.0
 40
0.0
 40
0.0
 40
0.25
 40
0.25
 40
0.5
 40
0.5
 40
0.75
 40
0.75
 40
1.0
 40
1.0
 40
1.0
 40
1.0
 10
149.008760011056
 20
200.0412951405644
 30
0.0
 10
149.0647857809932
 20
200.0566084883814
 30
0.0
 10
149.1214909822652
 20
200.0721075430321
 30
0.0
 10
149.2213768230082
 20
200.0994090263138
 30
0.0
 10
149.2632328605478
 20
200.1108494056571
 30
0.0
 10
149.3232695558077
 20
200.1272590471011
 30
0.0
 10
149.3423878777072
 20
200.1324845980083
 30
0.0
 10
149.3678312005563
 20
200.1394389415693
 30
0.0
 10
149.3742739309554
 20
200.1411999128437
 30
0.0
 10
149.3782239285108
 20
200.1422795532754
 30
0.0
  0
SPLINE
  5
278
330
1F
100
AcDbEntity
  8
PIEZA
  6
Continuous
100
AcDbSpline
210
0.0
220
0.0
230
1.0
 70
    24
 71
     3
 72
    14
 73
    10
 74
     0
 42
0.000000001
 43
0.00000001
 40
0.0
 40
0.0
 40
0.0
 40
0.0
 40
0.0023909247151314
 40
0.0023909247151314
 40
0.2524170555849234
 40
0.2524170555849234
 40
0.5024586641108606
 40
0.5024586641108606
 40
1.0
 40
1.0
 40
1.0
 40
1.0
 10
378.5467485189621
 20
194.6323683389923
 30
0.0
 10
378.5467318341617
 20
194.6323730066587
 30
0.0
 10
378.5467151493609
 20
194.6323776743251
 30
0.0
 10
378.5449537059224
 20
194.6328704479936
 30
0.0
 10
378.543210705428
 20
194.6333580621449
 30
0.0
 10
378.5401033513242
 20
194.6342273618608
 30
0.0
 10
378.5387389586656
 20
194.6346090583496
 30
0.0
 10
378.5357884776657
 20
194.6354344719361
 30
0.0
 10
378.5353192834409
 20
194.6355657316485
 30
0.0
 10
378.5348500148496
 20
194.6356970121655
 30
0.0
  0
SPLINE
  5
279
330
1F
100
AcDbEntity
  8
PIEZA
  6
Continuous
100
AcDbSpline
210
0.0
220
0.0
230
1.0
 70
    24
 71
     3
 72
    14
 73
    10
 74
     0
 42
0.000000001
 43
0.00000001
 40
0.0
 40
0.0
 40
0.0
 40
0.0
 40
0.0023909247151312
 40
0.0023909247151312
 40
0.2524170555849228
 40
0.2524170555849228
 40
0.5024586641108606
 40
0.5024586641108606
 40
1.0
 40
1.0
 40
1.0
 40
1.0
 10
381.4060814844402
 20
199.6474632844815
 30
0.0
 10
381.4060981692407
 20
199.6474586168151
 30
0.0
 10
381.4061148540413
 20
199.6474539491488
 30
0.0
 10
381.4078762974801
 20
199.6469611754803
 30
0.0
 10
381.4096192979744
 20
199.6464735613287
 30
0.0
 10
381.4127266520782
 20
199.6456042616129
 30
0.0
 10
381.4140910447366
 20
199.6452225651242
 30
0.0
 10
381.4170415257367
 20
199.6443971515377
 30
0.0
 10
381.4175107199614
 20
199.6442658918252
 30
0.0
 10
381.4179799885526
 20
199.6441346113083
 30
0.0
  0
SPLINE
  5
27A
330
1F
100
AcDbEntity
  8
PIEZA
  6
Continuous
100
AcDbSpline
210
0.0
220
0.0
230
1.0
 70
    24
 71
     3
 72
     8
 73
     4
 74
     0
 42
0.000000001
 43
0.00000001
 40
0.0
 40
0.0
 40
0.0
 40
0.0
 40
1.0
 40
1.0
 40
1.0
 40
1.0
 10
267.6317570916752
 20
220.0320049634895
 30
0.0
 10
267.610779105036
 20
218.8301769138391
 30
0.0
 10
267.5898010255445
 20
217.6283435446758
 30
0.0
 10
267.5688228588946
 20
216.4265051822184
 30
0.0
  0
SPLINE
  5
27B
330
1F
100
AcDbEntity
  8
PIEZA
  6
Continuous
100
AcDbSpline
210
0.0
220
0.0
230
1.0
 70
    24
 71
     3
 72
     8
 73
     4
 74
     0
 42
0.000000001
 43
0.00000001
 40
0.0
 40
0.0
 40
0.0
 40
0.0
 40
1.0
 40
1.0
 40
1.0
 40
1.0
 10
261.831604763634
 20
220.0320049634895
 30
0.0
 10
261.8525987539923
 20
218.829260061373
 30
0.0
 10
261.8735928373447
 20
217.6265098316242
 30
0.0
 10
261.8945870079841
 20
216.423754601209
 30
0.0
  0
SPLINE
  5
27C
330
1F
100
AcDbEntity
  8
PIEZA
  6
Continuous
100
AcDbSpline
210
0.0
220
0.0
230
1.0
 70
    24
 71
     2
 72
     6
 73
     3
 74
     0
 42
0.000000001
 43
0.00000001
 40
0.0
 40
0.0
 40
0.0
 40
1.0
 40
1.0
 40
1.0
 10
267.6470855506983
 20
219.8320049634895
 30
0.0
 10
267.7164143354852
 20
219.8320049634895
 30
0.0
 10
267.7479695506983
 20
219.8320049634895
 30
0.0
  0
SPLINE
  5
27D
330
1F
100
AcDbEntity
  8
PIEZA
  6
Continuous
100
AcDbSpline
210
0.0
220
0.0
230
1.0
 70
     8
 71
     3
 72
    18
 73
    14
 74
     0
 42
0.000000001
 43
0.00000001
 40
0.0
 40
0.0
 40
0.0
 40
0.0
 40
0.125
 40
0.125
 40
0.25
 40
0.25
 40
0.375
 40
0.375
 40
0.5
 40
0.5
 40
0.75
 40
0.75
 40
1.0
 40
1.0
 40
1.0
 40
1.0
 10
351.1697280769721
 20
485.2600639480681
 30
0.0
 10
351.1688317530298
 20
485.2595464580991
 30
0.0
 10
351.1622366441767
 20
485.2693926384316
 30
0.0
 10
351.1384557671556
 20
485.30829643221
 30
0.0
 10
351.1209919803263
 20
485.3378349885515
 30
0.0
 10
351.0757234037075
 20
485.4156573044675
 30
0.0
 10
351.0482208665896
 20
485.4633986399922
 30
0.0
 10
350.9834882908872
 20
485.5763158970784
 30
0.0
 10
350.9459064675351
 20
485.6421117483612
 30
0.0
 10
350.8228823132002
 20
485.8577509258024
 30
0.0
 10
350.7238140509684
 20
486.0316797248676
 30
0.0
 10
350.509641751898
 20
486.4064042665934
 30
0.0
 10
350.3924670087245
 20
486.6107940708901
 30
0.0
 10
350.2741387411255
 20
486.8162249993381
 30
0.0
  0
SPLINE
  5
27E
330
1F
100
AcDbEntity
  8
PIEZA
  6
Continuous
100
AcDbSpline
210
0.0
220
0.0
230
1.0
 70
     8
 71
     3
 72
    54
 73
    50
 74
     0
 42
0.000000001
 43
0.00000001
 40
0.0
 40
0.0
 40
0.0
 40
0.0
 40
0.0625000000000004
 40
0.0625000000000004
 40
0.1250000000000007
 40
0.1250000000000007
 40
0.1562500000000009
 40
0.1562500000000009
 40
0.171875000000001
 40
0.171875000000001
 40
0.187500000000001
 40
0.187500000000001
 40
0.2500000000000009
 40
0.2500000000000009
 40
0.3125000000000008
 40
0.3125000000000008
 40
0.3281250000000008
 40
0.3281250000000008
 40
0.3437500000000008
 40
0.3437500000000008
 40
0.3750000000000007
 40
0.3750000000000007
 40
0.4375000000000007
 40
0.4375000000000007
 40
0.5000000000000006
 40
0.5000000000000006
 40
0.5312500000000007
 40
0.5312500000000007
 40
0.5625000000000006
 40
0.5625000000000006
 40
0.6250000000000006
 40
0.6250000000000006
 40
0.6875000000000004
 40
0.6875000000000004
 40
0.7187500000000003
 40
0.7187500000000003
 40
0.7500000000000002
 40
0.7500000000000002
 40
0.8125000000000001
 40
0.8125000000000001
 40
0.8437500000000001
 40
0.8437500000000001
 40
0.859375
 40
0.859375
 40
0.875
 40
0.875
 40
0.9375000000000001
 40
0.9375000000000001
 40
1.0
 40
1.0
 40
1.0
 40
1.0
 10
331.5577376435932
 20
510.3068448135537
 30
0.0
 10
328.6128708254286
 20
513.0114278524157
 30
0.0
 10
325.5316638916884
 20
515.5129034220299
 30
0.0
 10
319.1054759925556
 20
520.1229072926155
 30
0.0
 10
315.7604730509408
 20
522.2314028553506
 30
0.0
 10
310.543025791964
 20
525.0962889958973
 30
0.0
 10
308.770464596932
 20
526.0014766325303
 30
0.0
 10
306.0604032577985
 20
527.2829557281993
 30
0.0
 10
305.1472885194725
 20
527.697879068905
 30
0.0
 10
303.3154748063363
 20
528.4969202601012
 30
0.0
 10
302.3956598714286
 20
528.8816097736889
 30
0.0
 10
297.7772907316683
 20
530.7318352178181
 30
0.0
 10
294.0210650582787
 20
531.9785090362961
 30
0.0
 10
286.3883370749012
 20
534.0154091544805
 30
0.0
 10
282.5118337605678
 20
534.8056316427139
 30
0.0
 10
277.5894663964531
 20
535.5021896819147
 30
0.0
 10
276.6011428511384
 20
535.6268903388199
 30
0.0
 10
274.6167021195951
 20
535.8467149355051
 30
0.0
 10
273.6188804050586
 20
535.9419617017348
 30
0.0
 10
270.6278709412875
 20
536.1816054874957
 30
0.0
 10
268.6387604979086
 20
536.2800847742587
 30
0.0
 10
262.6857738191678
 20
536.3959656965288
 30
0.0
 10
258.7361917431817
 20
536.2344424200113
 30
0.0
 10
250.874643959873
 20
535.440538835315
 30
0.0
 10
246.9626761539019
 20
534.8081847966404
 30
0.0
 10
241.1237755139859
 20
533.4960115099645
 30
0.0
 10
239.1785622691053
 20
532.9963623396469
 30
0.0
 10
235.3493785795722
 20
531.8880313906025
 30
0.0
 10
233.4594238867292
 20
531.2782622960896
 30
0.0
 10
227.8620722304613
 20
529.2853016331144
 30
0.0
 10
224.226932066078
 20
527.7390336015889
 30
0.0
 10
217.1484656508871
 20
524.2135924692973
 30
0.0
 10
213.7051162302527
 20
522.2344716605432
 30
0.0
 10
208.6895380289902
 20
518.9285057357162
 30
0.0
 10
207.0567424422094
 20
517.7792859343625
 30
0.0
 10
203.8768764935608
 20
515.3950993198733
 30
0.0
 10
202.3282244225141
 20
514.1590881988984
 30
0.0
 10
197.8043083695121
 20
510.3212190863896
 30
0.0
 10
194.9506507549246
 20
507.5899868475294
 30
0.0
 10
190.914392863555
 20
503.2333093125737
 30
0.0
 10
189.6097863793173
 20
501.7376636445756
 30
0.0
 10
187.7152084527329
 20
499.4278817590403
 30
0.0
 10
187.0940783782139
 20
498.6468945013166
 30
0.0
 10
185.8728869850786
 20
497.0625054158433
 30
0.0
 10
185.2730958865572
 20
496.2593565965423
 30
0.0
 10
182.345436332667
 20
492.2124359851088
 30
0.0
 10
180.2154653778037
 20
488.8560810386444
 30
0.0
 10
176.371391207893
 20
481.9104642140468
 30
0.0
 10
174.6572823348267
 20
478.3212055046898
 30
0.0
 10
173.1561099771777
 20
474.612691595427
 30
0.0
  0
SPLINE
  5
27F
330
1F
100
AcDbEntity
  8
PIEZA
  6
Continuous
100
AcDbSpline
210
0.0
220
0.0
230
1.0
 70
     8
 71
     3
 72
    54
 73
    50
 74
     0
 42
0.000000001
 43
0.00000001
 40
0.0
 40
0.0
 40
0.0
 40
0.0
 40
0.0624999999999997
 40
0.0624999999999997
 40
0.1249999999999995
 40
0.1249999999999995
 40
0.1874999999999992
 40
0.1874999999999992
 40
0.2187499999999991
 40
0.2187499999999991
 40
0.2499999999999989
 40
0.2499999999999989
 40
0.3124999999999987
 40
0.3124999999999987
 40
0.3437499999999987
 40
0.3437499999999987
 40
0.3593749999999987
 40
0.3593749999999987
 40
0.3749999999999987
 40
0.3749999999999987
 40
0.4374999999999991
 40
0.4374999999999991
 40
0.4999999999999993
 40
0.4999999999999993
 40
0.5312499999999996
 40
0.5312499999999996
 40
0.5468749999999996
 40
0.5468749999999996
 40
0.5624999999999997
 40
0.5624999999999997
 40
0.6249999999999997
 40
0.6249999999999997
 40
0.6874999999999998
 40
0.6874999999999998
 40
0.7031249999999998
 40
0.7031249999999998
 40
0.7187499999999999
 40
0.7187499999999999
 40
0.7499999999999998
 40
0.7499999999999998
 40
0.8124999999999999
 40
0.8124999999999999
 40
0.875
 40
0.875
 40
0.90625
 40
0.90625
 40
0.9375
 40
0.9375
 40
1.0
 40
1.0
 40
1.0
 40
1.0
 10
294.3333445910683
 20
343.2891338584706
 30
0.0
 10
298.1566763696464
 20
344.4898918151976
 30
0.0
 10
301.864540780736
 20
345.9089675899039
 30
0.0
 10
309.0593616280822
 20
349.1647968615073
 30
0.0
 10
312.5462815291386
 20
351.0016194366673
 30
0.0
 10
319.2992730264723
 20
355.0928294891119
 30
0.0
 10
322.5653790947709
 20
357.347151789051
 30
0.0
 10
327.2916551974228
 20
361.0555106159801
 30
0.0
 10
328.8247459566604
 20
362.3358989711438
 30
0.0
 10
331.7978613825148
 20
364.9746843784818
 30
0.0
 10
333.2396219457473
 20
366.3344440463579
 30
0.0
 10
337.4324775994455
 20
370.5330528977947
 30
0.0
 10
340.0516174408698
 20
373.4908077003804
 30
0.0
 10
343.7153481998187
 20
378.166213978285
 30
0.0
 10
344.8923113294483
 20
379.7645841068106
 30
0.0
 10
346.590132273784
 20
382.2230754421618
 30
0.0
 10
347.1447940787554
 20
383.0527356827337
 30
0.0
 10
348.2312608758862
 20
384.7326525667955
 30
0.0
 10
348.7628563850384
 20
385.582708832319
 30
0.0
 10
351.345521526066
 20
389.8553226275957
 30
0.0
 10
353.1865898045325
 20
393.3675246924606
 30
0.0
 10
356.4326500498647
 20
400.5742752678963
 30
0.0
 10
357.8376103928428
 20
404.2688370020783
 30
0.0
 10
359.6140389114588
 20
409.9490931317267
 30
0.0
 10
360.1508670463096
 20
411.8656418294735
 30
0.0
 10
360.8712525598195
 20
414.7759479215592
 30
0.0
 10
361.0974666929619
 20
415.7532604530753
 30
0.0
 10
361.5185698380182
 20
417.7072120092512
 30
0.0
 10
361.7138059146498
 20
418.6850876494107
 30
0.0
 10
362.6143720775096
 20
423.5789085642649
 30
0.0
 10
363.0936902578055
 20
427.5081331701167
 30
0.0
 10
363.5809513812627
 20
435.3942780372655
 30
0.0
 10
363.5888905323604
 20
439.351198521365
 30
0.0
 10
363.2980555342501
 20
444.315020219993
 30
0.0
 10
363.2247989828008
 20
445.3086711464446
 30
0.0
 10
363.0477398720693
 20
447.2977677302576
 30
0.0
 10
362.9437194112812
 20
448.2949142223533
 30
0.0
 10
362.5869619988761
 20
451.2746667233025
 30
0.0
 10
362.2900012694478
 20
453.2442518395956
 30
0.0
 10
361.2258888395942
 20
459.1034412791672
 30
0.0
 10
360.2861168488936
 20
462.9436542168831
 30
0.0
 10
357.9522803867908
 20
470.4940945903985
 30
0.0
 10
356.5582414900787
 20
474.2043293438159
 30
0.0
 10
354.1163079912732
 20
479.6692864973437
 30
0.0
 10
353.2418723808794
 20
481.4769519418491
 30
0.0
 10
351.3939847495429
 20
485.0182202619591
 30
0.0
 10
350.4186429474902
 20
486.7565612560186
 30
0.0
 10
347.339812068343
 20
491.8755771209658
 30
0.0
 10
345.084081286003
 20
495.1605990878239
 30
0.0
 10
342.6221149717658
 20
498.3160440277551
 30
0.0
  0
SPLINE
  5
280
330
1F
100
AcDbEntity
  8
PIEZA
  6
Continuous
100
AcDbSpline
210
0.0
220
0.0
230
1.0
 70
     8
 71
     3
 72
     8
 73
     4
 74
     0
 42
0.000000001
 43
0.00000001
 40
0.0
 40
0.0
 40
0.0
 40
0.0
 40
1.0
 40
1.0
 40
1.0
 40
1.0
 10
169.2496864297361
 20
462.8860634669385
 30
0.0
 10
168.9195868837782
 20
461.6575449744142
 30
0.0
 10
168.5972253794997
 20
460.3510745229113
 30
0.0
 10
168.3039605483018
 20
459.0352593599562
 30
0.0
  0
SPLINE
  5
281
330
1F
100
AcDbEntity
  8
PIEZA
  6
Continuous
100
AcDbSpline
210
0.0
220
0.0
230
1.0
 70
     8
 71
     3
 72
    12
 73
     8
 74
     0
 42
0.000000001
 43
0.00000001
 40
0.0
 40
0.0
 40
0.0
 40
0.0
 40
0.4624033730450192
 40
0.4624033730450192
 40
0.9248067460900383
 40
0.9248067460900383
 40
1.0
 40
1.0
 40
1.0
 40
1.0
 10
342.6221149717658
 20
498.3160440277551
 30
0.0
 10
342.5502101749584
 20
498.4082027314859
 30
0.0
 10
342.4795481171436
 20
498.497791716116
 30
0.0
 10
342.3689386107046
 20
498.6364725585431
 30
0.0
 10
342.3310871209858
 20
498.6829787270264
 30
0.0
 10
342.3161475188725
 20
498.7000546009369
 30
0.0
 10
342.3147284012401
 20
498.7015907180273
 30
0.0
 10
342.3139678136386
 20
498.7022908565529
 30
0.0
  0
SPLINE
  5
282
330
1F
100
AcDbEntity
  8
PIEZA
  6
Continuous
100
AcDbSpline
210
0.0
220
0.0
230
1.0
 70
     8
 71
     3
 72
    10
 73
     6
 74
     0
 42
0.000000001
 43
0.00000001
 40
0.0
 40
0.0
 40
0.0
 40
0.0
 40
0.37112107059039
 40
0.37112107059039
 40
1.0
 40
1.0
 40
1.0
 40
1.0
 10
342.3150197347685
 20
498.6997364072527
 30
0.0
 10
342.3194267986423
 20
498.6931881718597
 30
0.0
 10
342.3322674437552
 20
498.6759565058721
 30
0.0
 10
342.3880535206204
 20
498.602836656336
 30
0.0
 10
342.4451348800716
 20
498.5291222005849
 30
0.0
 10
342.5128007489008
 20
498.4421346722368
 30
0.0
  0
SPLINE
  5
283
330
1F
100
AcDbEntity
  8
PIEZA
  6
Continuous
100
AcDbSpline
210
0.0
220
0.0
230
1.0
 70
     8
 71
     3
 72
    10
 73
     6
 74
     0
 42
0.000000001
 43
0.00000001
 40
0.0
 40
0.0
 40
0.0
 40
0.0
 40
0.5
 40
0.5
 40
1.0
 40
1.0
 40
1.0
 40
1.0
 10
266.864896833163
 20
338.8485657282918
 30
0.0
 10
267.4328747532795
 20
338.8608422527392
 30
0.0
 10
267.999773532576
 20
338.8776079193374
 30
0.0
 10
269.1169514699313
 20
338.9192248554586
 30
0.0
 10
269.6649686899083
 20
338.9439739458534
 30
0.0
 10
270.1981804846358
 20
338.9718484287188
 30
0.0
  0
SPLINE
  5
284
330
1F
100
AcDbEntity
  8
PIEZA
  6
Continuous
100
AcDbSpline
210
0.0
220
0.0
230
1.0
 70
     8
 71
     3
 72
    10
 73
     6
 74
     0
 42
0.000000001
 43
0.00000001
 40
0.0
 40
0.0
 40
0.0
 40
0.0
 40
0.5
 40
0.5
 40
1.0
 40
1.0
 40
1.0
 40
1.0
 10
178.1925396192845
 20
485.0439169859172
 30
0.0
 10
177.9191909453099
 20
484.5459109093534
 30
0.0
 10
177.6508407362562
 20
484.0476619365074
 30
0.0
 10
177.1283371762338
 20
483.0594610785536
 30
0.0
 10
176.8751241469314
 20
482.5712687570656
 30
0.0
 10
176.6326637439648
 20
482.095567315509
 30
0.0
  0
SPLINE
  5
285
330
1F
100
AcDbEntity
  8
PIEZA
  6
Continuous
100
AcDbSpline
210
0.0
220
0.0
230
1.0
 70
     8
 71
     3
 72
     8
 73
     4
 74
     0
 42
0.000000001
 43
0.00000001
 40
0.0
 40
0.0
 40
0.0
 40
0.0
 40
1.0
 40
1.0
 40
1.0
 40
1.0
 10
290.525587468707
 20
342.1827544433178
 30
0.0
 10
291.7545654652075
 20
342.5111390969964
 30
0.0
 10
293.0471828176895
 20
342.8852010708545
 30
0.0
 10
294.3333445910683
 20
343.2891338584706
 30
0.0
  0
SPLINE
  5
286
330
1F
100
AcDbEntity
  8
PIEZA
  6
Continuous
100
AcDbSpline
210
0.0
220
0.0
230
1.0
 70
     8
 71
     3
 72
    18
 73
    14
 74
     0
 42
0.000000001
 43
0.00000001
 40
0.0
 40
0.0
 40
0.0
 40
0.0
 40
0.125
 40
0.125
 40
0.25
 40
0.25
 40
0.375
 40
0.375
 40
0.5
 40
0.5
 40
0.75
 40
0.75
 40
1.0
 40
1.0
 40
1.0
 40
1.0
 10
262.8362008618466
 20
338.8280423571298
 30
0.0
 10
262.8362008643583
 20
338.8290773414184
 30
0.0
 10
262.8480254610829
 20
338.8298657830594
 30
0.0
 10
262.8936075733092
 20
338.8310087297947
 30
0.0
 10
262.9279206069069
 20
338.8313635346645
 30
0.0
 10
263.0179509977808
 20
338.8316561140516
 30
0.0
 10
263.0730474757146
 20
338.8316033421018
 30
0.0
 10
263.2032029767281
 20
338.8312047685695
 30
0.0
 10
263.2789747670788
 20
338.8308536566714
 30
0.0
 10
263.5272358499615
 20
338.8295761108839
 30
0.0
 10
263.7273967395176
 20
338.8284073431529
 30
0.0
 10
264.159003861609
 20
338.8265237240719
 30
0.0
 10
264.3945979959909
 20
338.8258051261939
 30
0.0
 10
264.6316705325495
 20
338.8255649476963
 30
0.0
  0
SPLINE
  5
287
330
1F
100
AcDbEntity
  8
PIEZA
  6
Continuous
100
AcDbSpline
210
0.0
220
0.0
230
1.0
 70
     8
 71
     3
 72
    18
 73
    14
 74
     0
 42
0.000000001
 43
0.00000001
 40
0.0
 40
0.0
 40
0.0
 40
0.0
 40
0.1249999999999997
 40
0.1249999999999997
 40
0.2499999999999993
 40
0.2499999999999993
 40
0.374999999999999
 40
0.374999999999999
 40
0.4999999999999987
 40
0.4999999999999987
 40
0.7499999999999993
 40
0.7499999999999993
 40
1.0
 40
1.0
 40
1.0
 40
1.0
 10
180.1891138441451
 20
488.5431317267824
 30
0.0
 10
180.1900101655756
 20
488.5426142324629
 30
0.0
 10
180.1847806777039
 20
488.5319796104894
 30
0.0
 10
180.1629794424988
 20
488.4919328699756
 30
0.0
 10
180.1461301957305
 20
488.4620395087642
 30
0.0
 10
180.1013683814754
 20
488.3839246134612
 30
0.0
 10
180.0737744406594
 20
488.3362360498863
 30
0.0
 10
180.0083515153484
 20
488.2237173663325
 30
0.0
 10
179.9701615483497
 20
488.1582726269476
 30
0.0
 10
179.8449246198019
 20
487.9439109952939
 30
0.0
 10
179.7438319924778
 20
487.7711509639596
 30
0.0
 10
179.5263971694568
 20
487.3983100413147
 30
0.0
 10
179.4079777782483
 20
487.1946388348965
 30
0.0
 10
179.2892335092887
 20
486.9894480849459
 30
0.0
  0
SPLINE
  5
288
330
1F
100
AcDbEntity
  8
PIEZA
  6
Continuous
100
AcDbSpline
210
0.0
220
0.0
230
1.0
 70
     8
 71
     3
 72
     8
 73
     4
 74
     0
 42
0.000000001
 43
0.00000001
 40
0.0
 40
0.0
 40
0.0
 40
0.0
 40
1.0
 40
1.0
 40
1.0
 40
1.0
 10
347.3641985543629
 20
491.5638222877526
 30
0.0
 10
345.834690182318
 20
493.9197334859137
 30
0.0
 10
344.2066191986958
 20
496.2076754813303
 30
0.0
 10
342.4812140520256
 20
498.4253713737771
 30
0.0
  0
SPLINE
  5
289
330
1F
100
AcDbEntity
  8
PIEZA
  6
Continuous
100
AcDbSpline
210
0.0
220
0.0
230
1.0
 70
     8
 71
     3
 72
    10
 73
     6
 74
     0
 42
0.000000001
 43
0.00000001
 40
0.0
 40
0.0
 40
0.0
 40
0.0
 40
0.1318786699065279
 40
0.1318786699065279
 40
1.0
 40
1.0
 40
1.0
 40
1.0
 10
342.2926077643914
 20
498.6670156707312
 30
0.0
 10
341.9709944281171
 20
499.0777538677767
 30
0.0
 10
341.6460283778899
 20
499.4860684457345
 30
0.0
 10
339.1565362888731
 20
502.5637184794614
 30
0.0
 10
336.8546287452508
 20
505.1241596960842
 30
0.0
 10
334.4197688845202
 20
507.562420121724
 30
0.0
  0
SPLINE
  5
28A
330
1F
100
AcDbEntity
  8
PIEZA
  6
Continuous
100
AcDbSpline
210
0.0
220
0.0
230
1.0
 70
     8
 71
     3
 72
    56
 73
    52
 74
     0
 42
0.000000001
 43
0.00000001
 40
0.0
 40
0.0
 40
0.0
 40
0.0
 40
0.0624999999999999
 40
0.0624999999999999
 40
0.1249999999999998
 40
0.1249999999999998
 40
0.1562499999999998
 40
0.1562499999999998
 40
0.1874999999999998
 40
0.1874999999999998
 40
0.2499999999999996
 40
0.2499999999999996
 40
0.3124999999999996
 40
0.3124999999999996
 40
0.3437499999999995
 40
0.3437499999999995
 40
0.3593749999999994
 40
0.3593749999999994
 40
0.3749999999999994
 40
0.3749999999999994
 40
0.4374999999999992
 40
0.4374999999999992
 40
0.4999999999999989
 40
0.4999999999999989
 40
0.515624999999999
 40
0.515624999999999
 40
0.531249999999999
 40
0.531249999999999
 40
0.5624999999999991
 40
0.5624999999999991
 40
0.6249999999999993
 40
0.6249999999999993
 40
0.6874999999999997
 40
0.6874999999999997
 40
0.7031249999999998
 40
0.7031249999999998
 40
0.7187499999999998
 40
0.7187499999999998
 40
0.7499999999999999
 40
0.7499999999999999
 40
0.8124999999999999
 40
0.8124999999999999
 40
0.8437499999999999
 40
0.8437499999999999
 40
0.8593749999999999
 40
0.8593749999999999
 40
0.8749999999999998
 40
0.8749999999999998
 40
0.9374999999999999
 40
0.9374999999999999
 40
1.0
 40
1.0
 40
1.0
 40
1.0
 10
168.3039605483018
 20
459.0352593599562
 30
0.0
 10
167.4335016342477
 20
455.1297008480108
 30
0.0
 10
166.8079802908332
 20
451.209895663901
 30
0.0
 10
166.0291703848653
 20
443.3428181104848
 30
0.0
 10
165.8759331704609
 20
439.395542754539
 30
0.0
 10
166.0028204613313
 20
433.4538799346353
 30
0.0
 10
166.1047308734807
 20
431.4698582049061
 30
0.0
 10
166.4301809629945
 20
427.4947402396355
 30
0.0
 10
166.6547222295169
 20
425.4990626469268
 30
0.0
 10
167.5032608083544
 20
419.5793480224615
 30
0.0
 10
168.3022537897901
 20
415.6997738473636
 30
0.0
 10
170.3540520105947
 20
408.0707625723625
 30
0.0
 10
171.6068772450993
 20
404.321331206347
 30
0.0
 10
173.8318944921802
 20
398.7963412831693
 30
0.0
 10
174.6313493886104
 20
396.9712479179892
 30
0.0
 10
175.9193509822022
 20
394.2590780444526
 30
0.0
 10
176.362502241629
 20
393.361462745624
 30
0.0
 10
177.2726713484213
 20
391.5860746598908
 30
0.0
 10
177.7402059453361
 20
390.7072057955081
 30
0.0
 10
180.1394078329135
 20
386.3564760641876
 30
0.0
 10
182.2549906091909
 20
383.0149831742033
 30
0.0
 10
186.8712112697997
 20
376.6049426292973
 30
0.0
 10
189.3718414833005
 20
373.5363895369285
 30
0.0
 10
192.7442404184346
 20
369.8755078074944
 30
0.0
 10
193.4310933570018
 20
369.1521021354281
 30
0.0
 10
194.8298712953247
 20
367.7230630516588
 30
0.0
 10
195.541963247903
 20
367.0173614571808
 30
0.0
 10
197.7012103649982
 20
364.9414416918022
 30
0.0
 10
199.1760846456223
 20
363.6073860696766
 30
0.0
 10
203.7045657598477
 20
359.751690024698
 30
0.0
 10
206.8616654241318
 20
357.3760050426158
 30
0.0
 10
213.4492632645165
 20
353.0102076831901
 30
0.0
 10
216.8797384193402
 20
351.0200628390508
 30
0.0
 10
221.344465370405
 20
348.7814864638755
 30
0.0
 10
222.2476591940653
 20
348.345663027288
 30
0.0
 10
224.0607453564988
 20
347.5045038446489
 30
0.0
 10
224.9715201570937
 20
347.0986727425513
 30
0.0
 10
227.7163784281742
 20
345.9248627762192
 30
0.0
 10
229.5629841384959
 20
345.2005267206757
 30
0.0
 10
235.1520500892351
 20
343.199161714359
 30
0.0
 10
238.9435850835333
 20
342.0931692652993
 30
0.0
 10
244.7289670918448
 20
340.7760096611931
 30
0.0
 10
246.6738179405969
 20
340.394079903363
 30
0.0
 10
249.6160638360022
 20
339.9082099892232
 30
0.0
 10
250.60097694719
 20
339.7607674939755
 30
0.0
 10
252.5792322062876
 20
339.4952595831339
 30
0.0
 10
253.5739831565529
 20
339.3770571060759
 30
0.0
 10
258.5507351832591
 20
338.8623964746376
 30
0.0
 10
262.5286920187752
 20
338.6946639813878
 30
0.0
 10
270.477856707326
 20
338.8372330098179
 30
0.0
 10
274.449064630255
 20
339.1475295808407
 30
0.0
 10
278.4168181628445
 20
339.7025024549598
 30
0.0
  0
SPLINE
  5
28B
330
1F
100
AcDbEntity
  8
PIEZA
  6
Continuous
100
AcDbSpline
210
0.0
220
0.0
230
1.0
 70
     8
 71
     3
 72
    12
 73
     8
 74
     0
 42
0.000000001
 43
0.00000001
 40
0.0
 40
0.0
 40
0.0
 40
0.0
 40
0.4624033730314756
 40
0.4624033730314756
 40
0.9248067460629512
 40
0.9248067460629512
 40
1.0
 40
1.0
 40
1.0
 40
1.0
 10
173.1561099771777
 20
474.612691595427
 30
0.0
 10
173.1122505969708
 20
474.5043408628724
 30
0.0
 10
173.0699952892893
 20
474.3983512334062
 30
0.0
 10
173.0051989099488
 20
474.2332201697162
 30
0.0
 10
172.983849131469
 20
474.1771867338071
 30
0.0
 10
172.9765307919268
 20
474.1557107218979
 30
0.0
 10
172.9759100343195
 20
474.1537136714316
 30
0.0
 10
172.975683990371
 20
474.1527049139845
 30
0.0
  0
SPLINE
  5
28C
330
1F
100
AcDbEntity
  8
PIEZA
  6
Continuous
100
AcDbSpline
210
0.0
220
0.0
230
1.0
 70
     8
 71
     3
 72
    10
 73
     6
 74
     0
 42
0.000000001
 43
0.00000001
 40
0.0
 40
0.0
 40
0.0
 40
0.0
 40
0.3711210706105768
 40
0.3711210706105768
 40
1.0
 40
1.0
 40
1.0
 40
1.0
 10
172.97737024705
 20
474.154893129738
 30
0.0
 10
172.9808376533128
 20
474.1619838767038
 30
0.0
 10
172.9893403912514
 20
474.181720034567
 30
0.0
 10
173.0247710000392
 20
474.2665921190805
 30
0.0
 10
173.0600689116201
 20
474.3528832543234
 30
0.0
 10
173.1015693865673
 20
474.4549773798727
 30
0.0
  0
SPLINE
  5
28D
330
1F
100
AcDbEntity
  8
PIEZA
  6
Continuous
100
AcDbSpline
210
0.0
220
0.0
230
1.0
 70
     8
 71
     3
 72
     8
 73
     4
 74
     0
 42
0.000000001
 43
0.00000001
 40
0.0
 40
0.0
 40
0.0
 40
0.0
 40
1.0
 40
1.0
 40
1.0
 40
1.0
 10
270.1981804846365
 20
338.9718484287188
 30
0.0
 10
273.0032136173266
 20
339.1184859351301
 30
0.0
 10
275.7986649995538
 20
339.384465768403
 30
0.0
 10
278.5819485536161
 20
339.7698625110165
 30
0.0
  0
SPLINE
  5
28E
330
1F
100
AcDbEntity
  8
PIEZA
  6
Continuous
100
AcDbSpline
210
0.0
220
0.0
230
1.0
 70
     8
 71
     3
 72
    10
 73
     6
 74
     0
 42
0.000000001
 43
0.00000001
 40
0.0
 40
0.0
 40
0.0
 40
0.0
 40
0.1318786699004073
 40
0.1318786699004073
 40
1.0
 40
1.0
 40
1.0
 40
1.0
 10
278.8855217973575
 20
339.8123781989557
 30
0.0
 10
279.4020381784128
 20
339.8855344198389
 30
0.0
 10
279.9181320007457
 20
339.9628059857204
 30
0.0
 10
283.8282011583922
 20
340.5799443604614
 30
0.0
 10
287.1965620686955
 20
341.2932341620898
 30
0.0
 10
290.525587468707
 20
342.1827544433178
 30
0.0
  0
SPLINE
  5
28F
330
1F
100
AcDbEntity
  8
PIEZA
  6
Continuous
100
AcDbSpline
210
0.0
220
0.0
230
1.0
 70
     8
 71
     3
 72
     8
 73
     4
 74
     0
 42
0.000000001
 43
0.00000001
 40
0.0
 40
0.0
 40
0.0
 40
0.0
 40
1.0
 40
1.0
 40
1.0
 40
1.0
 10
176.6326637439648
 20
482.095567315509
 30
0.0
 10
175.3571389833196
 20
479.5930186109367
 30
0.0
 10
174.1897585847146
 20
477.0390967822473
 30
0.0
 10
173.1318801773224
 20
474.4360041471871
 30
0.0
  0
SPLINE
  5
290
330
1F
100
AcDbEntity
  8
PIEZA
  6
Continuous
100
AcDbSpline
210
0.0
220
0.0
230
1.0
 70
     8
 71
     3
 72
    10
 73
     6
 74
     0
 42
0.000000001
 43
0.00000001
 40
0.0
 40
0.0
 40
0.0
 40
0.0
 40
0.131878669901987
 40
0.131878669901987
 40
1.0
 40
1.0
 40
1.0
 40
1.0
 10
173.0169132212743
 20
474.1518441622477
 30
0.0
 10
172.8220101764736
 20
473.6679497443347
 30
0.0
 10
172.630882404348
 20
473.1823636005109
 30
0.0
 10
171.2103053356981
 20
469.4875751920576
 30
0.0
 10
170.1438519690171
 20
466.2138441738063
 30
0.0
 10
169.2496864297362
 20
462.8860634669386
 30
0.0
  0
SPLINE
  5
291
330
1F
100
AcDbEntity
  8
PIEZA
  6
Continuous
100
AcDbSpline
210
0.0
220
0.0
230
1.0
 70
     8
 71
     3
 72
    12
 73
     8
 74
     0
 42
0.000000001
 43
0.00000001
 40
0.0
 40
0.0
 40
0.0
 40
0.0
 40
0.2499821178540617
 40
0.2499821178540617
 40
0.6249775617639297
 40
0.6249775617639297
 40
1.0
 40
1.0
 40
1.0
 40
1.0
 10
264.6316705325495
 20
338.8255649476963
 30
0.0
 10
264.8177733728645
 20
338.8253764313178
 30
0.0
 10
265.0038774903399
 20
338.825714178098
 30
0.0
 10
265.4691449972019
 20
338.8278742531716
 30
0.0
 10
265.7483085875616
 20
338.8303545603517
 30
0.0
 10
266.3066197508152
 20
338.8376836386003
 30
0.0
 10
266.5857723448472
 20
338.8425326460992
 30
0.0
 10
266.8648968331636
 20
338.8485657282918
 30
0.0
  0
SPLINE
  5
292
330
1F
100
AcDbEntity
  8
PIEZA
  6
Continuous
100
AcDbSpline
210
0.0
220
0.0
230
1.0
 70
     8
 71
     3
 72
    12
 73
     8
 74
     0
 42
0.000000001
 43
0.00000001
 40
0.0
 40
0.0
 40
0.0
 40
0.0
 40
0.4624033730205834
 40
0.4624033730205834
 40
0.9248067460411667
 40
0.9248067460411667
 40
1.0
 40
1.0
 40
1.0
 40
1.0
 10
278.4168181628445
 20
339.7025024549598
 30
0.0
 10
278.5325823398588
 20
339.7186944837836
 30
0.0
 10
278.6454997053551
 20
339.7350951286197
 30
0.0
 10
278.8209055911348
 20
339.7615453498825
 30
0.0
 10
278.8801068593332
 20
339.7710726173084
 30
0.0
 10
278.9023648009905
 20
339.7754727553062
 30
0.0
 10
278.904404676231
 20
339.7759336886819
 30
0.0
 10
278.9053913077803
 20
339.7762423076037
 30
0.0
  0
SPLINE
  5
293
330
1F
100
AcDbEntity
  8
PIEZA
  6
Continuous
100
AcDbSpline
210
0.0
220
0.0
230
1.0
 70
     8
 71
     3
 72
    10
 73
     6
 74
     0
 42
0.000000001
 43
0.00000001
 40
0.0
 40
0.0
 40
0.0
 40
0.0
 40
0.3711210705710227
 40
0.3711210705710227
 40
1.0
 40
1.0
 40
1.0
 40
1.0
 10
278.9026528011423
 20
339.7766084949877
 30
0.0
 10
278.8947783310034
 20
339.7760659834132
 30
0.0
 10
278.8734349479529
 20
339.7735614915382
 30
0.0
 10
278.7822182623039
 20
339.7618092565639
 30
0.0
 10
278.6898389912717
 20
339.7492325770721
 30
0.0
 10
278.5806726474952
 20
339.7341259798708
 30
0.0
  0
SPLINE
  5
294
330
1F
100
AcDbEntity
  8
PIEZA
  6
Continuous
100
AcDbSpline
210
0.0
220
0.0
230
1.0
 70
     8
 71
     3
 72
     8
 73
     4
 74
     0
 42
0.000000001
 43
0.00000001
 40
0.0
 40
0.0
 40
0.0
 40
0.0
 40
1.0
 40
1.0
 40
1.0
 40
1.0
 10
179.2892335092887
 20
486.9894480849459
 30
0.0
 10
178.9163470544958
 20
486.3450980429966
 30
0.0
 10
178.5507493570666
 20
485.6965287844944
 30
0.0
 10
178.1925396192845
 20
485.0439169859172
 30
0.0
  0
SPLINE
  5
295
330
1F
100
AcDbEntity
  8
PIEZA
  6
Continuous
100
AcDbSpline
210
0.0
220
0.0
230
1.0
 70
     8
 71
     3
 72
     8
 73
     4
 74
     0
 42
0.000000001
 43
0.00000001
 40
0.0
 40
0.0
 40
0.0
 40
0.0
 40
1.0
 40
1.0
 40
1.0
 40
1.0
 10
334.4197688845202
 20
507.562420121724
 30
0.0
 10
333.520890433957
 20
508.4625539605606
 30
0.0
 10
332.5506345857949
 20
509.3949624382251
 30
0.0
 10
331.5577376435932
 20
510.3068448135537
 30
0.0
  0
SPLINE
  5
296
330
1F
100
AcDbEntity
  8
PIEZA
  6
Continuous
100
AcDbSpline
210
0.0
220
0.0
230
1.0
 70
     8
 71
     3
 72
    12
 73
     8
 74
     0
 42
0.000000001
 43
0.00000001
 40
0.0
 40
0.0
 40
0.0
 40
0.0
 40
0.2634730846997939
 40
0.2634730846997939
 40
0.6972511218173215
 40
0.6972511218173215
 40
1.0
 40
1.0
 40
1.0
 40
1.0
 10
350.2741387411255
 20
486.8162249993381
 30
0.0
 10
350.1762383175221
 20
486.9861908846206
 30
0.0
 10
350.0778308920559
 20
487.1558657419269
 30
0.0
 10
349.8160715652216
 20
487.6041096458064
 30
0.0
 10
349.6518536983059
 20
487.8821785084215
 30
0.0
 10
349.3707156895554
 20
488.3529363705597
 30
0.0
 10
349.2544906539702
 20
488.5460465571674
 30
0.0
 10
349.1376063305161
 20
488.7387553177712
 30
0.0
  0
SPLINE
  5
297
330
1F
100
AcDbEntity
  8
PIEZA
  6
Continuous
100
AcDbSpline
210
0.0
220
0.0
230
1.0
 70
     8
 71
     3
 72
    10
 73
     6
 74
     0
 42
0.000000001
 43
0.00000001
 40
0.0
 40
0.0
 40
0.0
 40
0.0
 40
0.5
 40
0.5
 40
1.0
 40
1.0
 40
1.0
 40
1.0
 10
349.1376063305161
 20
488.7387553177712
 30
0.0
 10
348.8429947539601
 20
489.2244852518058
 30
0.0
 10
348.5456735905929
 20
489.7060078363802
 30
0.0
 10
347.9511183235744
 20
490.6526096219044
 30
0.0
 10
347.6549378858846
 20
491.1159946985935
 30
0.0
 10
347.3641985543629
 20
491.5638222877526
 30
0.0
  0
ELLIPSE
  5
298
330
1F
100
AcDbEntity
  8
PIEZA
  6
Continuous
 62
   251
420
  6974058
100
AcDbEllipse
 10
363.8827660285
 20
206.8862829207
 30
0.0
 11
-0.2498089940209525
 21
-0.009770696301501403
 31
0.0
210
0.0
220
0.0
230
1.0
 40
0.0435861244
 41
3.251378814682924
 42
4.710684212411692
  0
ELLIPSE
  5
299
330
1F
100
AcDbEntity
  8
PIEZA
  6
Continuous
 62
   251
420
  6974058
100
AcDbEllipse
 10
165.7463298765
 20
207.326068698
 30
0.0
 11
-0.1941391566307118
 21
0.1575118657838459
 31
0.0
210
0.0
220
0.0
230
1.0
 40
0.0338857233
 41
4.739874725365525
 42
6.197952122343893
  0
ELLIPSE
  5
29A
330
1F
100
AcDbEntity
  8
PIEZA
  6
Continuous
 62
   251
420
  6974058
100
AcDbEllipse
 10
363.6560247901
 20
207.3998820677
 30
0.0
 11
-0.1912465525887228
 21
-0.1610116645555593
 31
0.0
210
0.0
220
0.0
230
1.0
 40
0.0333814049
 41
3.225585883370883
 42
4.684292363192823
  0
ELLIPSE
  5
29B
330
1F
100
AcDbEntity
  8
PIEZA
  6
Continuous
 62
   251
420
  6974058
100
AcDbEllipse
 10
166.2474828076
 20
207.2396909666
 30
0.0
 11
0.2499619237891011
 21
0.004363101609328624
 31
0.0
210
0.0
220
0.0
230
1.0
 40
0.0436127566
 41
0.0
 42
1.570035053387506
  0
ELLIPSE
  5
29C
330
1F
100
AcDbEntity
  8
PIEZA
  6
Continuous
 62
   251
420
  6974058
100
AcDbEllipse
 10
164.6413287075
 20
196.2820049635
 30
0.0
 11
-0.2497371605398655
 21
0.01146083126423036
 31
0.0
210
0.0
220
0.0
230
1.0
 40
0.0435736149
 41
4.714388639470981
 42
6.283169531134305
  0
ELLIPSE
  5
29D
330
1F
100
AcDbEntity
  8
PIEZA
  6
Continuous
 62
   251
420
  6974058
100
AcDbEllipse
 10
165.5805958268
 20
206.8862829207
 30
0.0
 11
-0.2498089940209809
 21
0.009770696301472983
 31
0.0
210
0.0
220
0.0
230
1.0
 40
0.0435861244
 41
4.714093748357669
 42
6.173399139772891
  0
ELLIPSE
  5
29E
330
1F
100
AcDbEntity
  8
PIEZA
  6
Continuous
 62
   251
420
  6974058
100
AcDbEllipse
 10
363.7170319788
 20
207.326068698
 30
0.0
 11
-0.1941391566307402
 21
-0.1575118657838744
 31
0.0
210
0.0
220
0.0
230
1.0
 40
0.0338857233
 41
3.226825746065188
 42
4.684903235403429
  0
ELLIPSE
  5
29F
330
1F
100
AcDbEntity
  8
PIEZA
  6
Continuous
 62
   251
420
  6974058
100
AcDbEllipse
 10
165.8073370652
 20
207.3998820677
 30
0.0
 11
-0.1912465525886376
 21
0.1610116645555593
 31
0.0
210
0.0
220
0.0
230
1.0
 40
0.0333814049
 41
4.740485597576664
 42
6.19919207741008
  0
ELLIPSE
  5
2A0
330
1F
100
AcDbEntity
  8
PIEZA
  6
Continuous
 62
   251
420
  6974058
100
AcDbEllipse
 10
363.2158790477
 20
207.2396909666
 30
0.0
 11
0.2499619237891011
 21
-0.004363101608532816
 31
0.0
210
0.0
220
0.0
230
1.0
 40
0.0436127566
 41
1.571557600197488
 42
3.14159265358979
  0
ELLIPSE
  5
2A1
330
1F
100
AcDbEntity
  8
PIEZA
  6
Continuous
100
AcDbEllipse
 10
167.9200437623
 20
203.7292519071
 30
0.0
 11
0.1350159734153351
 21
-0.5846115692686169
 31
0.0
210
0.0
220
0.0
230
1.0
 40
0.9659258263
 41
0.0
 42
6.283185307179586
  0
ELLIPSE
  5
2A2
330
1F
100
AcDbEntity
  8
PIEZA
  6
Continuous
 62
   251
420
  6974058
100
AcDbEllipse
 10
169.1450643559
 20
204.0121702697
 30
0.0
 11
0.1350159734153351
 21
-0.5846115692686169
 31
0.0
210
0.0
220
0.0
230
1.0
 40
0.9659258263
 41
2.239478710498447
 42
3.141592653588365
  0
ELLIPSE
  5
2A3
330
1F
100
AcDbEntity
  8
PIEZA
  6
Continuous
 62
   251
420
  6974058
100
AcDbEllipse
 10
169.1450643559
 20
204.0121702697
 30
0.0
 11
0.1350159734153351
 21
-0.5846115692686169
 31
0.0
210
0.0
220
0.0
230
1.0
 40
0.9659258263
 41
0.0
 42
2.239478710498447
  0
ELLIPSE
  5
2A4
330
1F
100
AcDbEntity
  8
PIEZA
  6
Continuous
100
AcDbEllipse
 10
361.0838068047
 20
202.9902669779
 30
0.0
 11
0.4644192112937163
 21
0.3798878731696504
 31
0.0
210
0.0
220
0.0
230
1.0
 40
0.9659258263
 41
6.232218518710566
 42
6.283185307179586
  0
ELLIPSE
  5
2A5
330
1F
100
AcDbEntity
  8
PIEZA
  6
Continuous
 62
   251
420
  6974058
100
AcDbEllipse
 10
360.2877731776
 20
203.9634312597
 30
0.0
 11
0.4644192112937163
 21
0.3798878731696504
 31
0.0
210
0.0
220
0.0
230
1.0
 40
0.9659258263
 41
0.0006732618290152
 42
0.0849063713113497
  0
HATCH
  5
2A6
330
1F
100
AcDbEntity
  8
COTAS
100
AcDbHatch
 10
0.0
 20
0.0
 30
0.0
210
0.0
220
0.0
230
1.0
  2
ANSI31
 70
     0
 71
     0
 91
        1
 92
        0
 93
        6
 72
     1
 10
429.1495454817545
 20
187.5320049634709
 11
406.0032515393503
 21
187.5320049634709
 72
     2
 10
405.5392530057572
 20
189.9885686937298
 40
2.50000000000005
 50
79.30391849480627
 51
100.6960815051911
 73
     0
 72
     1
 10
405.0752544721643
 20
187.5320049634709
 11
367.2316809276543
 21
187.5320049634709
 72
     1
 10
367.2316809276543
 20
187.5320049634709
 11
367.2316809276544
 21
175.5320049634709
 72
     1
 10
367.2316809276544
 20
175.5320049634709
 11
429.1495454817544
 21
175.5320049634709
 72
     1
 10
429.1495454817544
 20
175.5320049634709
 11
429.1495454817545
 21
187.5320049634709
 97
        0
 75
     0
 76
     1
 52
0.0
 41
1.0
 77
     0
 78
     1
 53
45.0
 43
0.0
 44
0.0
 45
-2.245064030267288
 46
2.245064030267288
 79
     0
 98
        1
 10
0.0
 20
0.0
  0
HATCH
  5
2A7
330
1F
100
AcDbEntity
  8
COTAS
100
AcDbHatch
 10
0.0
 20
0.0
 30
0.0
210
0.0
220
0.0
230
1.0
  2
ANSI31
 70
     0
 71
     0
 91
        1
 92
        0
 93
        4
 72
     1
 10
100.3138163735542
 20
175.5320049634709
 11
162.2316809276543
 21
175.5320049634709
 72
     1
 10
162.2316809276543
 20
175.5320049634709
 11
162.2316809276543
 21
187.5320049634709
 72
     1
 10
162.2316809276543
 20
187.5320049634709
 11
100.3138163735542
 21
187.5320049634709
 72
     1
 10
100.3138163735542
 20
187.5320049634709
 11
100.3138163735542
 21
175.5320049634709
 97
        0
 75
     0
 76
     1
 52
0.0
 41
1.0
 77
     0
 78
     1
 53
45.0
 43
0.0
 44
0.0
 45
-2.245064030267288
 46
2.245064030267288
 79
     0
 98
        1
 10
0.0
 20
0.0
  0
HATCH
  5
2A8
330
1F
100
AcDbEntity
  8
COTAS
100
AcDbHatch
 10
0.0
 20
0.0
 30
0.0
210
0.0
220
0.0
230
1.0
  2
ANSI31
 70
     0
 71
     0
 91
        1
 92
        0
 93
        4
 72
     1
 10
100.3138163735541
 20
275.5320049634709
 11
429.149545481754
 21
275.5320049634709
 72
     1
 10
429.149545481754
 20
275.5320049634709
 11
429.1495454817542
 21
287.5320049634709
 72
     1
 10
429.1495454817542
 20
287.5320049634709
 11
100.3138163735541
 21
287.5320049634709
 72
     1
 10
100.3138163735541
 20
287.5320049634709
 11
100.3138163735541
 21
275.5320049634709
 97
        0
 75
     0
 76
     1
 52
0.0
 41
1.0
 77
     0
 78
     1
 53
45.0
 43
0.0
 44
0.0
 45
-2.245064030267288
 46
2.245064030267288
 79
     0
 98
        1
 10
0.0
 20
0.0
  0
DIMENSION
  5
2A9
330
1F
100
AcDbEntity
  8
COTAS
100
AcDbDimension
  2
_D
 10
75.0001649054
 20
175.5320049635
 30
0.0
 11
75.0001649054
 21
197.7820049635
 31
0.0
 70
   160
  1
<>
 71
     2
 42
-1.0
 73
     0
 74
     0
 75
     0
  3
SLDDIMSTYLE0
100
AcDbAlignedDimension
 13
250.2316809277
 23
220.0320049635
 33
0.0
 14
100.3138163736
 24
175.5320049635
 34
0.0
 50
90.0
100
AcDbRotatedDimension
  0
DIMENSION
  5
2B9
330
1F
100
AcDbEntity
  8
COTAS
100
AcDbDimension
  2
_D_1
 10
447.2085780998
 20
175.5320049635
 30
0.0
 11
447.2085780998
 21
225.5320049635
 31
0.0
 70
   160
  1
MIN <> mm
 71
     2
 42
-1.0
 73
     0
 74
     0
 75
     0
  3
SLDDIMSTYLE0
100
AcDbAlignedDimension
 13
429.1495454818
 23
275.5320049635
 33
0.0
 14
429.1495454818
 24
175.5320049635
 34
0.0
 50
90.0
100
AcDbRotatedDimension
  0
DIMENSION
  5
2C3
330
1F
100
AcDbEntity
  8
COTAS
100
AcDbDimension
  2
_D_2
 10
114.9207715737
 20
189.9389778835
 30
0.0
 11
159.3158585955
 21
527.9318058903
 31
0.0
 70
   163
  1
<>
 71
     1
 42
-1.0
 73
     0
 74
     0
 75
     0
  3
SLDDIMSTYLE1
100
AcDbDiametricDimension
 15
0.0
 25
0.0
 35
0.0
 40
0.0
  0
MTEXT
  5
2CF
330
1F
100
AcDbEntity
  8
TEXTO
100
AcDbMText
 10
502.7780301338
 20
41.7338502826
 30
0.0
 40
8.0
 41
0.0
 46
0.0
 71
     1
 72
     1
  1
FOX
  7
SLDTEXTSTYLE0
 73
     1
 44
1.0
  0
INSERT
  5
2D5
330
1F
100
AcDbEntity
  8
TEXTO
100
AcDbBlockReference
  2
SW_NOTE_0
 10
237.1237949292
 20
22.5620896788
 30
0.0
  0
INSERT
  5
2DB
330
1F
100
AcDbEntity
  8
TEXTO
100
AcDbBlockReference
  2
SW_NOTE_1
 10
276.5952610005
 20
22.8383408909
 30
0.0
  0
MTEXT
  5
2DC
330
1F
100
AcDbEntity
  8
TEXTO
100
AcDbMText
 10
332.9721257489
 20
24.1544254309
 30
0.0
 40
3.5
 41
0.0
 46
0.0
 71
     1
 72
     1
  1
Ø205 mm.
  7
SLDTEXTSTYLE0
 73
     1
 44
1.0
  0
MTEXT
  5
2DD
330
1F
100
AcDbEntity
  8
TEXTO
100
AcDbMText
 10
237.2877810551
 20
42.9955050283
 30
0.0
 40
2.5
 41
0.0
 46
0.0
 71
     1
 72
     1
  1
01/2017
  7
SLDTEXTSTYLE0
 73
     1
 44
1.0
  0
ENDSEC
  0
SECTION
  2
OBJECTS
  0
DICTIONARY
  5
C
330
0
100
AcDbDictionary
281
     1
  3
ACAD_DETAILVIEWSTYLE
350
2E6
  3
ACAD_GROUP
350
D
  3
ACAD_LAYOUT
350
1A
  3
ACAD_MATERIAL
350
43
  3
ACAD_MLEADERSTYLE
350
6B
  3
ACAD_MLINESTYLE
350
17
  3
ACAD_PLOTSETTINGS
350
19
  3
ACAD_PLOTSTYLENAME
350
E
  3
ACAD_SCALELIST
350
47
  3
ACAD_SECTIONVIEWSTYLE
350
2E7
  3
ACAD_TABLESTYLE
350
69
  3
ACAD_VISUALSTYLE
350
2A
  3
ACDB_RECOMPOSE_DATA
350
2E3
  3
AcDbVariableDictionary
350
2DE
  0
SUN
  5
6D
330
29
100
AcDbSun
 90
        1
290
     0
 63
     7
421
 16777215
 40
1.0
291
     1
 91
  2455826
 92
 54000000
292
     0
 70
     2
 71
   256
280
     1
  0
DICTIONARY
  5
2E6
102
{ACAD_REACTORS
330
C
102
}
330
C
100
AcDbDictionary
281
     1
  0
DICTIONARY
  5
D
102
{ACAD_REACTORS
330
C
102
}
330
C
100
AcDbDictionary
281
     1
  0
DICTIONARY
  5
1A
102
{ACAD_REACTORS
330
C
102
}
330
C
100
AcDbDictionary
281
     1
  3
Layout1
350
1E
  3
Layout2
350
26
  3
Model
350
22
  0
DICTIONARY
  5
43
102
{ACAD_REACTORS
330
C
102
}
330
C
100
AcDbDictionary
281
     1
  3
ByBlock
350
45
  3
ByLayer
350
44
  3
Global
350
46
  0
DICTIONARY
  5
6B
102
{ACAD_REACTORS
330
C
102
}
330
C
100
AcDbDictionary
281
     1
  3
Standard
350
6C
  0
DICTIONARY
  5
17
102
{ACAD_REACTORS
330
C
102
}
330
C
100
AcDbDictionary
281
     1
  3
Standard
350
18
  0
DICTIONARY
  5
19
102
{ACAD_REACTORS
330
C
102
}
330
C
100
AcDbDictionary
281
     1
  0
ACDBDICTIONARYWDFLT
  5
E
102
{ACAD_REACTORS
330
C
102
}
330
C
100
AcDbDictionary
281
     1
  3
Normal
350
F
100
AcDbDictionaryWithDefault
340
F
  0
DICTIONARY
  5
47
102
{ACAD_REACTORS
330
C
102
}
330
C
100
AcDbDictionary
281
     1
  3
A0
350
48
  3
A1
350
49
  3
A2
350
4A
  3
A3
350
4B
  3
A4
350
4C
  3
A5
350
4D
  3
A6
350
4E
  3
A7
350
4F
  3
A8
350
50
  3
A9
350
51
  3
B0
350
52
  3
B1
350
53
  3
B2
350
54
  3
B3
350
55
  3
B4
350
56
  3
B5
350
57
  3
B6
350
58
  3
B7
350
59
  3
B8
350
5A
  3
B9
350
5B
  3
C0
350
5C
  3
C1
350
5D
  3
C2
350
5E
  3
C3
350
5F
  3
C4
350
60
  3
C5
350
61
  3
C6
350
62
  3
C7
350
63
  3
C8
350
64
  3
C9
350
65
  3
D0
350
66
  3
D1
350
67
  3
D2
350
68
  0
DICTIONARY
  5
2E7
102
{ACAD_REACTORS
330
C
102
}
330
C
100
AcDbDictionary
281
     1
  0
DICTIONARY
  5
69
102
{ACAD_REACTORS
330
C
102
}
330
C
100
AcDbDictionary
281
     1
  3
Standard
350
6A
  0
DICTIONARY
  5
2A
102
{ACAD_REACTORS
330
C
102
}
330
C
100
AcDbDictionary
281
     1
  3
2dWireframe
350
2F
  3
Basic
350
32
  3
Brighten
350
36
  3
ColorChange
350
3A
  3
Conceptual
350
34
  3
Dim
350
35
  3
EdgeColorOff
350
3D
  3
Facepattern
350
39
  3
Flat
350
2B
  3
FlatWithEdges
350
2C
  3
Gouraud
350
2D
  3
GouraudWithEdges
350
2E
  3
Hidden
350
31
  3
JitterOff
350
3B
  3
Linepattern
350
38
  3
OverhangOff
350
3C
  3
Realistic
350
33
  3
Shaded
350
42
  3
Shaded with edges
350
41
  3
Shades of Gray
350
3E
  3
Sketchy
350
3F
  3
Thicken
350
37
  3
Wireframe
350
30
  3
X-Ray
350
40
  0
XRECORD
  5
2E3
102
{ACAD_REACTORS
330
C
102
}
330
C
100
AcDbXrecord
280
     1
 90
        1
330
6A
  0
DICTIONARY
  5
2DE
102
{ACAD_REACTORS
330
C
102
}
330
C
100
AcDbDictionary
281
     1
  3
CANNOSCALE
350
2DF
  3
CMLEADERSTYLE
350
2E5
  3
CTABLESTYLE
350
2E4
  0
LAYOUT
  5
1E
102
{ACAD_REACTORS
330
1A
102
}
330
1A
100
AcDbPlotSettings
  1

  2
none_device
  4

  6

 40
0.0
 41
0.0
 42
0.0
 43
0.0
 44
0.0
 45
0.0
 46
0.0
 47
0.0
 48
0.0
 49
0.0
140
0.0
141
0.0
142
1.0
143
1.0
 70
   688
 72
     1
 73
     0
 74
     5
  7

 75
    16
 76
     0
 77
     2
 78
   300
147
1.0
148
0.0
149
0.0
100
AcDbLayout
  1
Layout1
 70
     1
 71
     1
 10
0.0
 20
0.0
 11
420.0
 21
297.0
 12
0.0
 22
0.0
 32
0.0
 14
1.0000000000E+20
 24
1.0000000000E+20
 34
1.0000000000E+20
 15
-1.0000000000E+20
 25
-1.0000000000E+20
 35
-1.0000000000E+20
146
0.0
 13
0.0
 23
0.0
 33
0.0
 16
1.0
 26
0.0
 36
0.0
 17
0.0
 27
1.0
 37
0.0
 76
     0
330
1B
  0
LAYOUT
  5
26
102
{ACAD_REACTORS
330
1A
102
}
330
1A
100
AcDbPlotSettings
  1

  2
none_device
  4

  6

 40
0.0
 41
0.0
 42
0.0
 43
0.0
 44
0.0
 45
0.0
 46
0.0
 47
0.0
 48
0.0
 49
0.0
140
0.0
141
0.0
142
1.0
143
1.0
 70
   688
 72
     1
 73
     0
 74
     5
  7

 75
    16
 76
     0
 77
     2
 78
   300
147
1.0
148
0.0
149
0.0
100
AcDbLayout
  1
Layout2
 70
     1
 71
     2
 10
0.0
 20
0.0
 11
0.0
 21
0.0
 12
0.0
 22
0.0
 32
0.0
 14
0.0
 24
0.0
 34
0.0
 15
0.0
 25
0.0
 35
0.0
146
0.0
 13
0.0
 23
0.0
 33
0.0
 16
1.0
 26
0.0
 36
0.0
 17
0.0
 27
1.0
 37
0.0
 76
     0
330
23
  0
LAYOUT
  5
22
102
{ACAD_REACTORS
330
1A
102
}
330
1A
100
AcDbPlotSettings
  1

  2
none_device
  4
Letter_(8.50_x_11.00_Inches)
  6

 40
6.35
 41
6.35
 42
6.35000508
 43
6.35000508
 44
215.9
 45
279.4
 46
0.0
 47
0.0
 48
0.0
 49
0.0
140
0.0
141
0.0
142
1.0
143
1.0
 70
  1712
 72
     1
 73
     0
 74
     0
  7

 75
     0
 76
     0
 77
     2
 78
   300
147
1.0
148
0.0
149
0.0
100
AcDbLayout
  1
Model
 70
     1
 71
     0
 10
0.0
 20
0.0
 11
550.0
 21
660.0
 12
0.0
 22
0.0
 32
0.0
 14
0.0
 24
0.0
 34
0.0
 15
550.0
 25
660.0
 35
0.0
146
0.0
 13
0.0
 23
0.0
 33
0.0
 16
1.0
 26
0.0
 36
0.0
 17
0.0
 27
1.0
 37
0.0
 76
     0
330
1F
331
29
  0
MATERIAL
  5
45
102
{ACAD_REACTORS
330
43
102
}
330
43
100
AcDbMaterial
  1
ByBlock
 72
     1
 94
      127
  0
MATERIAL
  5
44
102
{ACAD_REACTORS
330
43
102
}
330
43
100
AcDbMaterial
  1
ByLayer
 72
     1
 94
      127
  0
MATERIAL
  5
46
102
{ACAD_REACTORS
330
43
102
}
330
43
100
AcDbMaterial
  1
Global
 72
     1
 94
      127
  0
MLEADERSTYLE
  5
6C
102
{ACAD_REACTORS
330
6B
102
}
330
6B
100
AcDbMLeaderStyle
170
     2
171
     1
172
     0
 90
        2
 40
0.0
 41
0.0
173
     1
 91
-1056964608
340
14
 92
       -2
290
     1
 42
2.0
291
     1
 43
8.0
  3
Standard
341
0
 44
4.0
300

342
11
174
     1
178
     6
175
     1
176
     0
 93
-1056964608
 45
4.0
292
     0
297
     0
 46
4.0
343
0
 94
-1056964608
 47
1.0
 49
1.0
140
1.0
293
     1
141
0.0
294
     1
177
     0
142
1.0
295
     0
296
     0
143
3.75
1001
ACAD_MLEADERVER
1070
     2
  0
MLINESTYLE
  5
18
102
{ACAD_REACTORS
330
17
102
}
330
17
100
AcDbMlineStyle
  2
Standard
 70
     0
  3

 62
   256
 51
90.0
 52
90.0
 71
     2
 49
0.5
 62
   256
  6
BYLAYER
 49
-0.5
 62
   256
  6
BYLAYER
  0
ACDBPLACEHOLDER
  5
F
102
{ACAD_REACTORS
330
E
102
}
330
E
  0
SCALE
  5
48
102
{ACAD_REACTORS
330
47
102
}
330
47
100
AcDbScale
 70
     0
300
1:1
140
1.0
141
1.0
290
     1
  0
SCALE
  5
49
102
{ACAD_REACTORS
330
47
102
}
330
47
100
AcDbScale
 70
     0
300
1:2
140
1.0
141
2.0
290
     0
  0
SCALE
  5
4A
102
{ACAD_REACTORS
330
47
102
}
330
47
100
AcDbScale
 70
     0
300
1:4
140
1.0
141
4.0
290
     0
  0
SCALE
  5
4B
102
{ACAD_REACTORS
330
47
102
}
330
47
100
AcDbScale
 70
     0
300
1:5
140
1.0
141
5.0
290
     0
  0
SCALE
  5
4C
102
{ACAD_REACTORS
330
47
102
}
330
47
100
AcDbScale
 70
     0
300
1:8
140
1.0
141
8.0
290
     0
  0
SCALE
  5
4D
102
{ACAD_REACTORS
330
47
102
}
330
47
100
AcDbScale
 70
     0
300
1:10
140
1.0
141
10.0
290
     0
  0
SCALE
  5
4E
102
{ACAD_REACTORS
330
47
102
}
330
47
100
AcDbScale
 70
     0
300
1:16
140
1.0
141
16.0
290
     0
  0
SCALE
  5
4F
102
{ACAD_REACTORS
330
47
102
}
330
47
100
AcDbScale
 70
     0
300
1:20
140
1.0
141
20.0
290
     0
  0
SCALE
  5
50
102
{ACAD_REACTORS
330
47
102
}
330
47
100
AcDbScale
 70
     0
300
1:30
140
1.0
141
30.0
290
     0
  0
SCALE
  5
51
102
{ACAD_REACTORS
330
47
102
}
330
47
100
AcDbScale
 70
     0
300
1:40
140
1.0
141
40.0
290
     0
  0
SCALE
  5
52
102
{ACAD_REACTORS
330
47
102
}
330
47
100
AcDbScale
 70
     0
300
1:50
140
1.0
141
50.0
290
     0
  0
SCALE
  5
53
102
{ACAD_REACTORS
330
47
102
}
330
47
100
AcDbScale
 70
     0
300
1:100
140
1.0
141
100.0
290
     0
  0
SCALE
  5
54
102
{ACAD_REACTORS
330
47
102
}
330
47
100
AcDbScale
 70
     0
300
2:1
140
2.0
141
1.0
290
     0
  0
SCALE
  5
55
102
{ACAD_REACTORS
330
47
102
}
330
47
100
AcDbScale
 70
     0
300
4:1
140
4.0
141
1.0
290
     0
  0
SCALE
  5
56
102
{ACAD_REACTORS
330
47
102
}
330
47
100
AcDbScale
 70
     0
300
8:1
140
8.0
141
1.0
290
     0
  0
SCALE
  5
57
102
{ACAD_REACTORS
330
47
102
}
330
47
100
AcDbScale
 70
     0
300
10:1
140
10.0
141
1.0
290
     0
  0
SCALE
  5
58
102
{ACAD_REACTORS
330
47
102
}
330
47
100
AcDbScale
 70
     0
300
100:1
140
100.0
141
1.0
290
     0
  0
SCALE
  5
59
102
{ACAD_REACTORS
330
47
102
}
330
47
100
AcDbScale
 70
     0
300
1/128" = 1'-0"
140
0.0078125
141
12.0
290
     0
  0
SCALE
  5
5A
102
{ACAD_REACTORS
330
47
102
}
330
47
100
AcDbScale
 70
     0
300
1/64" = 1'-0"
140
0.015625
141
12.0
290
     0
  0
SCALE
  5
5B
102
{ACAD_REACTORS
330
47
102
}
330
47
100
AcDbScale
 70
     0
300
1/32" = 1'-0"
140
0.03125
141
12.0
290
     0
  0
SCALE
  5
5C
102
{ACAD_REACTORS
330
47
102
}
330
47
100
AcDbScale
 70
     0
300
1/16" = 1'-0"
140
0.0625
141
12.0
290
     0
  0
SCALE
  5
5D
102
{ACAD_REACTORS
330
47
102
}
330
47
100
AcDbScale
 70
     0
300
3/32" = 1'-0"
140
0.09375
141
12.0
290
     0
  0
SCALE
  5
5E
102
{ACAD_REACTORS
330
47
102
}
330
47
100
AcDbScale
 70
     0
300
1/8" = 1'-0"
140
0.125
141
12.0
290
     0
  0
SCALE
  5
5F
102
{ACAD_REACTORS
330
47
102
}
330
47
100
AcDbScale
 70
     0
300
3/16" = 1'-0"
140
0.1875
141
12.0
290
     0
  0
SCALE
  5
60
102
{ACAD_REACTORS
330
47
102
}
330
47
100
AcDbScale
 70
     0
300
1/4" = 1'-0"
140
0.25
141
12.0
290
     0
  0
SCALE
  5
61
102
{ACAD_REACTORS
330
47
102
}
330
47
100
AcDbScale
 70
     0
300
3/8" = 1'-0"
140
0.375
141
12.0
290
     0
  0
SCALE
  5
62
102
{ACAD_REACTORS
330
47
102
}
330
47
100
AcDbScale
 70
     0
300
1/2" = 1'-0"
140
0.5
141
12.0
290
     0
  0
SCALE
  5
63
102
{ACAD_REACTORS
330
47
102
}
330
47
100
AcDbScale
 70
     0
300
3/4" = 1'-0"
140
0.75
141
12.0
290
     0
  0
SCALE
  5
64
102
{ACAD_REACTORS
330
47
102
}
330
47
100
AcDbScale
 70
     0
300
1" = 1'-0"
140
1.0
141
12.0
290
     0
  0
SCALE
  5
65
102
{ACAD_REACTORS
330
47
102
}
330
47
100
AcDbScale
 70
     0
300
1-1/2" = 1'-0"
140
1.5
141
12.0
290
     0
  0
SCALE
  5
66
102
{ACAD_REACTORS
330
47
102
}
330
47
100
AcDbScale
 70
     0
300
3" = 1'-0"
140
3.0
141
12.0
290
     0
  0
SCALE
  5
67
102
{ACAD_REACTORS
330
47
102
}
330
47
100
AcDbScale
 70
     0
300
6" = 1'-0"
140
6.0
141
12.0
290
     0
  0
SCALE
  5
68
102
{ACAD_REACTORS
330
47
102
}
330
47
100
AcDbScale
 70
     0
300
1'-0" = 1'-0"
140
12.0
141
12.0
290
     0
  0
TABLESTYLE
  5
6A
102
{ACAD_REACTORS
330
69
102
}
102
{ACAD_XDICTIONARY
360
2E0
102
}
330
69
100
AcDbTableStyle
  3
Standard
 70
     0
 71
     0
 40
0.06
 41
0.06
280
     0
281
     0
  7
STANDARD
140
4.5
170
     2
 62
     0
 63
   257
283
     0
 90
        4
 91
        0
  1

274
    -2
284
     1
 64
     0
275
    -2
285
     1
 65
     0
276
    -2
286
     1
 66
     0
277
    -2
287
     1
 67
     0
278
    -2
288
     1
 68
     0
279
    -2
289
     1
 69
     0
  7
STANDARD
140
6.0
170
     5
 62
     0
 63
   257
283
     0
 90
        4
 91
        0
  1

274
    -2
284
     1
 64
     0
275
    -2
285
     1
 65
     0
276
    -2
286
     1
 66
     0
277
    -2
287
     1
 67
     0
278
    -2
288
     1
 68
     0
279
    -2
289
     1
 69
     0
  7
STANDARD
140
4.5
170
     5
 62
     0
 63
   257
283
     0
 90
        4
 91
        0
  1

274
    -2
284
     1
 64
     0
275
    -2
285
     1
 65
     0
276
    -2
286
     1
 66
     0
277
    -2
287
     1
 67
     0
278
    -2
288
     1
 68
     0
279
    -2
289
     1
 69
     0
  0
VISUALSTYLE
  5
2F
102
{ACAD_REACTORS
330
2A
102
}
330
2A
100
AcDbVisualStyle
  2
2dWireframe
 70
     4
 71
     0
 72
     2
 73
     0
 90
        0
 40
0.6
 41
30.0
 62
     5
 63
     7
421
 16777215
 74
     1
 91
        4
 64
     7
 65
   257
 75
     1
175
     1
 42
1.0
 92
        0
 66
   257
 43
1.0
 76
     1
 77
     6
 78
     2
 67
     7
 79
     5
170
     0
171
     0
290
     0
174
     0
 93
        1
 44
0.0
173
     0
291
     0
 45
0.0
  0
VISUALSTYLE
  5
32
102
{ACAD_REACTORS
330
2A
102
}
330
2A
100
AcDbVisualStyle
  2
Basic
 70
     7
 71
     1
 72
     0
 73
     1
 90
        0
 40
0.6
 41
30.0
 62
     5
 63
     7
421
 16777215
 74
     0
 91
        4
 64
     7
 65
   257
 75
     1
175
     1
 42
1.0
 92
        8
 66
     7
 43
1.0
 76
     1
 77
     6
 78
     2
 67
     7
 79
     5
170
     0
171
     0
290
     0
174
     0
 93
        1
 44
0.0
173
     0
291
     1
 45
0.0
  0
VISUALSTYLE
  5
36
102
{ACAD_REACTORS
330
2A
102
}
330
2A
100
AcDbVisualStyle
  2
Brighten
 70
    12
 71
     2
 72
     2
 73
     0
 90
        0
 40
0.6
 41
30.0
 62
     5
 63
     7
421
 16777215
 74
     1
 91
        4
 64
     7
 65
   257
 75
     1
175
     1
 42
1.0
 92
        8
 66
     7
 43
1.0
 76
     1
 77
     6
 78
     2
 67
     7
 79
     5
170
     0
171
     0
290
     0
174
     0
 93
        1
 44
50.0
173
     0
291
     1
 45
0.0
  0
VISUALSTYLE
  5
3A
102
{ACAD_REACTORS
330
2A
102
}
330
2A
100
AcDbVisualStyle
  2
ColorChange
 70
    16
 71
     2
 72
     2
 73
     3
 90
        0
 40
0.6
 41
30.0
 62
     5
 63
     8
421
  8421504
 74
     1
 91
        4
 64
     7
 65
   257
 75
     1
175
     1
 42
1.0
 92
        8
 66
     8
424
  8421504
 43
1.0
 76
     1
 77
     6
 78
     2
 67
     7
 79
     5
170
     0
171
     0
290
     0
174
     0
 93
        1
 44
0.0
173
     0
291
     1
 45
0.0
  0
VISUALSTYLE
  5
34
102
{ACAD_REACTORS
330
2A
102
}
330
2A
100
AcDbVisualStyle
  2
Conceptual
 70
     9
 71
     3
 72
     2
 73
     0
 90
        0
 40
0.6
 41
30.0
 62
     5
 63
     7
421
 16777215
 74
     2
 91
        2
 64
     7
 65
   257
 75
     1
175
     1
 42
179.0
 92
        8
 66
     7
 43
1.0
 76
     1
 77
     6
 78
     2
 67
     7
 79
     3
170
     0
171
     0
290
     0
174
     0
 93
        1
 44
0.0
173
     0
291
     0
 45
0.0
  0
VISUALSTYLE
  5
35
102
{ACAD_REACTORS
330
2A
102
}
330
2A
100
AcDbVisualStyle
  2
Dim
 70
    11
 71
     2
 72
     2
 73
     0
 90
        0
 40
0.6
 41
30.0
 62
     5
 63
     7
421
 16777215
 74
     1
 91
        4
 64
     7
 65
   257
 75
     1
175
     1
 42
1.0
 92
        8
 66
     7
 43
1.0
 76
     1
 77
     6
 78
     2
 67
     7
 79
     5
170
     0
171
     0
290
     0
174
     0
 93
        1
 44
-50.0
173
     0
291
     1
 45
0.0
  0
VISUALSTYLE
  5
3D
102
{ACAD_REACTORS
330
2A
102
}
330
2A
100
AcDbVisualStyle
  2
EdgeColorOff
 70
    22
 71
     2
 72
     2
 73
     0
 90
        0
 40
0.6
 41
30.0
 62
     5
 63
     7
421
 16777215
 74
     1
 91
        4
 64
     7
 65
   257
 75
     1
175
     1
 42
1.0
 92
        8
 66
     7
 43
1.0
 76
     1
 77
     6
 78
     2
 67
     7
 79
     5
170
     0
171
     0
290
     0
174
     0
 93
        1
 44
0.0
173
     0
291
     1
 45
0.0
  0
VISUALSTYLE
  5
39
102
{ACAD_REACTORS
330
2A
102
}
330
2A
100
AcDbVisualStyle
  2
Facepattern
 70
    15
 71
     2
 72
     2
 73
     0
 90
        0
 40
0.6
 41
30.0
 62
     5
 63
     7
421
 16777215
 74
     1
 91
        4
 64
     7
 65
   257
 75
     1
175
     1
 42
1.0
 92
        8
 66
     7
 43
1.0
 76
     1
 77
     6
 78
     2
 67
     7
 79
     5
170
     0
171
     0
290
     0
174
     0
 93
        1
 44
0.0
173
     0
291
     1
 45
0.0
  0
VISUALSTYLE
  5
2B
102
{ACAD_REACTORS
330
2A
102
}
330
2A
100
AcDbVisualStyle
  2
Flat
 70
     0
 71
     2
 72
     1
 73
     1
 90
        2
 40
0.6
 41
30.0
 62
     5
 63
     7
421
 16777215
 74
     0
 91
        0
 64
     7
 65
   257
 75
     1
175
     1
 42
1.0
 92
        8
 66
     7
 43
1.0
 76
     1
 77
     6
 78
     2
 67
     7
 79
     5
170
     0
171
     0
290
     0
174
     0
 93
       13
 44
0.0
173
     0
291
     1
 45
0.0
  0
VISUALSTYLE
  5
2C
102
{ACAD_REACTORS
330
2A
102
}
330
2A
100
AcDbVisualStyle
  2
FlatWithEdges
 70
     1
 71
     2
 72
     1
 73
     1
 90
        2
 40
0.6
 41
30.0
 62
     5
 63
     7
421
 16777215
 74
     1
 91
        0
 64
     7
 65
   257
 75
     1
175
     1
 42
1.0
 92
        0
 66
   257
 43
1.0
 76
     1
 77
     6
 78
     2
 67
     7
 79
     5
170
     0
171
     0
290
     0
174
     0
 93
       13
 44
0.0
173
     0
291
     1
 45
0.0
  0
VISUALSTYLE
  5
2D
102
{ACAD_REACTORS
330
2A
102
}
330
2A
100
AcDbVisualStyle
  2
Gouraud
 70
     2
 71
     2
 72
     2
 73
     1
 90
        2
 40
0.6
 41
30.0
 62
     5
 63
     7
421
 16777215
 74
     0
 91
        0
 64
     7
 65
   257
 75
     1
175
     1
 42
1.0
 92
        0
 66
     7
 43
1.0
 76
     1
 77
     6
 78
     2
 67
     7
 79
     5
170
     0
171
     0
290
     0
174
     0
 93
       13
 44
0.0
173
     0
291
     1
 45
0.0
  0
VISUALSTYLE
  5
2E
102
{ACAD_REACTORS
330
2A
102
}
330
2A
100
AcDbVisualStyle
  2
GouraudWithEdges
 70
     3
 71
     2
 72
     2
 73
     1
 90
        2
 40
0.6
 41
30.0
 62
     5
 63
     7
421
 16777215
 74
     1
 91
        0
 64
     7
 65
   257
 75
     1
175
     1
 42
1.0
 92
        0
 66
   257
 43
1.0
 76
     1
 77
     6
 78
     2
 67
     7
 79
     5
170
     0
171
     0
290
     0
174
     0
 93
       13
 44
0.0
173
     0
291
     1
 45
0.0
  0
VISUALSTYLE
  5
31
102
{ACAD_REACTORS
330
2A
102
}
330
2A
100
AcDbVisualStyle
  2
Hidden
 70
     6
 71
     1
 72
     2
 73
     2
 90
        0
 40
0.6
 41
30.0
 62
     5
 63
     7
421
 16777215
 74
     2
 91
        2
 64
     7
 65
   257
 75
     2
175
     1
 42
40.0
 92
        0
 66
   257
 43
1.0
 76
     1
 77
     6
 78
     2
 67
     7
 79
     3
170
     0
171
     0
290
     0
174
     0
 93
        1
 44
0.0
173
     0
291
     0
 45
0.0
  0
VISUALSTYLE
  5
3B
102
{ACAD_REACTORS
330
2A
102
}
330
2A
100
AcDbVisualStyle
  2
JitterOff
 70
    20
 71
     2
 72
     2
 73
     0
 90
        0
 40
0.6
 41
30.0
 62
     5
 63
     7
421
 16777215
 74
     1
 91
        4
 64
     7
 65
   257
 75
     1
175
     1
 42
1.0
 92
       10
 66
     7
 43
1.0
 76
     1
 77
     6
 78
     2
 67
     7
 79
     5
170
     0
171
     0
290
     0
174
     0
 93
        1
 44
0.0
173
     0
291
     1
 45
0.0
  0
VISUALSTYLE
  5
38
102
{ACAD_REACTORS
330
2A
102
}
330
2A
100
AcDbVisualStyle
  2
Linepattern
 70
    14
 71
     2
 72
     2
 73
     0
 90
        0
 40
0.6
 41
30.0
 62
     5
 63
     7
421
 16777215
 74
     1
 91
        4
 64
     7
 65
   257
 75
     7
175
     7
 42
1.0
 92
        8
 66
     7
 43
1.0
 76
     1
 77
     6
 78
     2
 67
     7
 79
     5
170
     0
171
     0
290
     0
174
     0
 93
        1
 44
0.0
173
     0
291
     1
 45
0.0
  0
VISUALSTYLE
  5
3C
102
{ACAD_REACTORS
330
2A
102
}
330
2A
100
AcDbVisualStyle
  2
OverhangOff
 70
    21
 71
     2
 72
     2
 73
     0
 90
        0
 40
0.6
 41
30.0
 62
     5
 63
     7
421
 16777215
 74
     1
 91
        4
 64
     7
 65
   257
 75
     1
175
     1
 42
1.0
 92
        9
 66
     7
 43
1.0
 76
     1
 77
     6
 78
     2
 67
     7
 79
     5
170
     0
171
     0
290
     0
174
     0
 93
        1
 44
0.0
173
     0
291
     1
 45
0.0
  0
VISUALSTYLE
  5
33
102
{ACAD_REACTORS
330
2A
102
}
330
2A
100
AcDbVisualStyle
  2
Realistic
 70
     8
 71
     2
 72
     3
 73
     0
 90
        2
 40
0.6
 41
30.0
 62
     5
 63
     7
421
 16777215
 74
     0
 91
        0
 64
     7
 65
   257
 75
     1
175
     1
 42
1.0
 92
        8
 66
   257
 43
1.0
 76
     1
 77
     6
 78
     2
 67
     7
 79
     3
170
     0
171
     0
290
     0
174
     0
 93
       13
 44
0.0
173
     0
291
     0
 45
0.0
  0
VISUALSTYLE
  5
42
102
{ACAD_REACTORS
330
2A
102
}
330
2A
100
AcDbVisualStyle
  2
Shaded
 70
    27
 71
     2
 72
     2
 73
     1
 90
        2
 40
0.6
 41
30.0
 62
     5
 63
     7
421
 16777215
 74
     0
 91
        4
 64
     7
 65
   257
 75
     1
175
     1
 42
1.0
 92
        8
 66
   257
 43
1.0
 76
     1
 77
     6
 78
     2
 67
     8
425
  7895160
 79
     3
170
     0
171
     0
290
     0
174
     0
 93
        5
 44
0.0
173
     0
291
     0
 45
0.0
  0
VISUALSTYLE
  5
41
102
{ACAD_REACTORS
330
2A
102
}
330
2A
100
AcDbVisualStyle
  2
Shaded with edges
 70
    26
 71
     2
 72
     2
 73
     1
 90
        2
 40
0.6
 41
30.0
 62
     5
 63
     7
421
 16777215
 74
     1
 91
       10
 64
     7
 65
   257
 75
     2
175
     1
 42
1.0
 92
        8
 66
   257
 43
1.0
 76
     1
 77
     6
 78
     2
 67
     7
 79
     3
170
     0
171
     0
290
     0
174
     0
 93
        5
 44
0.0
173
     0
291
     0
 45
0.0
  0
VISUALSTYLE
  5
3E
102
{ACAD_REACTORS
330
2A
102
}
330
2A
100
AcDbVisualStyle
  2
Shades of Gray
 70
    23
 71
     2
 72
     2
 73
     3
 90
        0
 40
0.6
 41
30.0
 62
     5
 63
     7
421
 16777215
 74
     2
 91
        2
 64
     7
 65
     7
 75
     1
175
     1
 42
40.0
 92
        8
 66
     7
 43
1.0
 76
     1
 77
     6
 78
     2
 67
     7
 79
     3
170
     0
171
     0
290
     0
174
     0
 93
        1
 44
0.0
173
     0
291
     0
 45
0.0
  0
VISUALSTYLE
  5
3F
102
{ACAD_REACTORS
330
2A
102
}
330
2A
100
AcDbVisualStyle
  2
Sketchy
 70
    24
 71
     1
 72
     2
 73
     2
 90
        0
 40
0.6
 41
30.0
 62
     5
 63
     7
421
 16777215
 74
     2
 91
        2
 64
     7
 65
     7
 75
     1
175
     1
 42
40.0
 92
       11
 66
     7
 43
1.0
 76
     1
 77
     6
 78
     2
 67
     7
 79
     6
170
     0
171
     0
290
     0
174
     0
 93
        1
 44
0.0
173
     0
291
     0
 45
0.0
  0
VISUALSTYLE
  5
37
102
{ACAD_REACTORS
330
2A
102
}
330
2A
100
AcDbVisualStyle
  2
Thicken
 70
    13
 71
     2
 72
     2
 73
     0
 90
        0
 40
0.6
 41
30.0
 62
     5
 63
     7
421
 16777215
 74
     1
 91
        4
 64
     7
 65
   257
 75
     1
175
     1
 42
1.0
 92
       12
 66
     7
 43
1.0
 76
     1
 77
     6
 78
     2
 67
     7
 79
     5
170
     0
171
     0
290
     0
174
     0
 93
        1
 44
0.0
173
     0
291
     1
 45
0.0
  0
VISUALSTYLE
  5
30
102
{ACAD_REACTORS
330
2A
102
}
330
2A
100
AcDbVisualStyle
  2
Wireframe
 70
     5
 71
     0
 72
     2
 73
     0
 90
        0
 40
0.6
 41
30.0
 62
     5
 63
     7
421
 16777215
 74
     1
 91
        4
 64
     7
 65
   257
 75
     1
175
     1
 42
1.0
 92
        0
 66
   257
 43
1.0
 76
     1
 77
     6
 78
     2
 67
     7
 79
     3
170
     0
171
     0
290
     0
174
     0
 93
        1
 44
0.0
173
     0
291
     0
 45
0.0
  0
VISUALSTYLE
  5
40
102
{ACAD_REACTORS
330
2A
102
}
330
2A
100
AcDbVisualStyle
  2
X-Ray
 70
    25
 71
     2
 72
     2
 73
     1
 90
        1
 40
0.5
 41
30.0
 62
     5
 63
     7
421
 16777215
 74
     1
 91
        0
 64
     7
 65
   257
 75
     1
175
     1
 42
1.0
 92
        8
 66
     7
 43
1.0
 76
     1
 77
     6
 78
     2
 67
     7
 79
     3
170
     0
171
     0
290
     0
174
     0
 93
       13
 44
0.0
173
     0
291
     0
 45
0.0
  0
DICTIONARYVAR
  5
2DF
102
{ACAD_REACTORS
330
2DE
102
}
330
2DE
100
DictionaryVariables
280
     0
  1
1:1
  0
DICTIONARYVAR
  5
2E5
102
{ACAD_REACTORS
330
2DE
102
}
330
2DE
100
DictionaryVariables
280
     0
  1
Standard
  0
DICTIONARYVAR
  5
2E4
102
{ACAD_REACTORS
330
2DE
102
}
330
2DE
100
DictionaryVariables
280
     0
  1
Standard
  0
DICTIONARY
  5
2E0
330
6A
100
AcDbDictionary
280
     1
281
     1
  3
ACAD_ROUNDTRIP_2008_TABLESTYLE_CELLSTYLEMAP
360
2E1
  0
CELLSTYLEMAP
  5
2E1
102
{ACAD_REACTORS
330
2E0
102
}
330
2E0
100
AcDbCellStyleMap
 90
        3
300
CELLSTYLE
  1
TABLEFORMAT_BEGIN
 90
        5
170
     1
 91
        0
 92
    32768
 62
   257
 93
        1
300
CONTENTFORMAT
  1
CONTENTFORMAT_BEGIN
 90
        0
 91
        0
 92
        4
 93
        0
300

 40
0.0
140
1.0
 94
        5
 62
     0
340
11
144
6.0
309
CONTENTFORMAT_END
171
     1
301
MARGIN
  1
CELLMARGIN_BEGIN
 40
1.5
 40
1.5
 40
1.5
 40
1.5
 40
1.5
 40
1.5
309
CELLMARGIN_END
 94
        6
 95
        1
302
GRIDFORMAT
  1
GRIDFORMAT_BEGIN
 90
        0
 91
        1
 62
     0
 92
       -2
340
14
 93
        0
 40
0.045
309
GRIDFORMAT_END
 95
        2
302
GRIDFORMAT
  1
GRIDFORMAT_BEGIN
 90
        0
 91
        1
 62
     0
 92
       -2
340
14
 93
        0
 40
0.045
309
GRIDFORMAT_END
 95
        4
302
GRIDFORMAT
  1
GRIDFORMAT_BEGIN
 90
        0
 91
        1
 62
     0
 92
       -2
340
14
 93
        0
 40
0.045
309
GRIDFORMAT_END
 95
        8
302
GRIDFORMAT
  1
GRIDFORMAT_BEGIN
 90
        0
 91
        1
 62
     0
 92
       -2
340
14
 93
        0
 40
0.045
309
GRIDFORMAT_END
 95
       16
302
GRIDFORMAT
  1
GRIDFORMAT_BEGIN
 90
        0
 91
        1
 62
     0
 92
       -2
340
14
 93
        0
 40
0.045
309
GRIDFORMAT_END
 95
       32
302
GRIDFORMAT
  1
GRIDFORMAT_BEGIN
 90
        0
 91
        1
 62
     0
 92
       -2
340
14
 93
        0
 40
0.045
309
GRIDFORMAT_END
309
TABLEFORMAT_END
  1
CELLSTYLE_BEGIN
 90
        1
 91
        1
300
_TITLE
309
CELLSTYLE_END
300
CELLSTYLE
  1
TABLEFORMAT_BEGIN
 90
        5
170
     1
 91
        0
 92
        0
 62
   257
 93
        1
300
CONTENTFORMAT
  1
CONTENTFORMAT_BEGIN
 90
        0
 91
        0
 92
        4
 93
        0
300

 40
0.0
140
1.0
 94
        5
 62
     0
340
11
144
4.5
309
CONTENTFORMAT_END
171
     1
301
MARGIN
  1
CELLMARGIN_BEGIN
 40
1.5
 40
1.5
 40
1.5
 40
1.5
 40
1.5
 40
1.5
309
CELLMARGIN_END
 94
        6
 95
        1
302
GRIDFORMAT
  1
GRIDFORMAT_BEGIN
 90
        0
 91
        1
 62
     0
 92
       -2
340
14
 93
        0
 40
0.045
309
GRIDFORMAT_END
 95
        2
302
GRIDFORMAT
  1
GRIDFORMAT_BEGIN
 90
        0
 91
        1
 62
     0
 92
       -2
340
14
 93
        0
 40
0.045
309
GRIDFORMAT_END
 95
        4
302
GRIDFORMAT
  1
GRIDFORMAT_BEGIN
 90
        0
 91
        1
 62
     0
 92
       -2
340
14
 93
        0
 40
0.045
309
GRIDFORMAT_END
 95
        8
302
GRIDFORMAT
  1
GRIDFORMAT_BEGIN
 90
        0
 91
        1
 62
     0
 92
       -2
340
14
 93
        0
 40
0.045
309
GRIDFORMAT_END
 95
       16
302
GRIDFORMAT
  1
GRIDFORMAT_BEGIN
 90
        0
 91
        1
 62
     0
 92
       -2
340
14
 93
        0
 40
0.045
309
GRIDFORMAT_END
 95
       32
302
GRIDFORMAT
  1
GRIDFORMAT_BEGIN
 90
        0
 91
        1
 62
     0
 92
       -2
340
14
 93
        0
 40
0.045
309
GRIDFORMAT_END
309
TABLEFORMAT_END
  1
CELLSTYLE_BEGIN
 90
        2
 91
        1
300
_HEADER
309
CELLSTYLE_END
300
CELLSTYLE
  1
TABLEFORMAT_BEGIN
 90
        5
170
     1
 91
        0
 92
        0
 62
   257
 93
        1
300
CONTENTFORMAT
  1
CONTENTFORMAT_BEGIN
 90
        0
 91
        0
 92
        4
 93
        0
300

 40
0.0
140
1.0
 94
        2
 62
     0
340
11
144
4.5
309
CONTENTFORMAT_END
171
     1
301
MARGIN
  1
CELLMARGIN_BEGIN
 40
1.5
 40
1.5
 40
1.5
 40
1.5
 40
1.5
 40
1.5
309
CELLMARGIN_END
 94
        6
 95
        1
302
GRIDFORMAT
  1
GRIDFORMAT_BEGIN
 90
        0
 91
        1
 62
     0
 92
       -2
340
14
 93
        0
 40
0.045
309
GRIDFORMAT_END
 95
        2
302
GRIDFORMAT
  1
GRIDFORMAT_BEGIN
 90
        0
 91
        1
 62
     0
 92
       -2
340
14
 93
        0
 40
0.045
309
GRIDFORMAT_END
 95
        4
302
GRIDFORMAT
  1
GRIDFORMAT_BEGIN
 90
        0
 91
        1
 62
     0
 92
       -2
340
14
 93
        0
 40
0.045
309
GRIDFORMAT_END
 95
        8
302
GRIDFORMAT
  1
GRIDFORMAT_BEGIN
 90
        0
 91
        1
 62
     0
 92
       -2
340
14
 93
        0
 40
0.045
309
GRIDFORMAT_END
 95
       16
302
GRIDFORMAT
  1
GRIDFORMAT_BEGIN
 90
        0
 91
        1
 62
     0
 92
       -2
340
14
 93
        0
 40
0.045
309
GRIDFORMAT_END
 95
       32
302
GRIDFORMAT
  1
GRIDFORMAT_BEGIN
 90
        0
 91
        1
 62
     0
 92
       -2
340
14
 93
        0
 40
0.045
309
GRIDFORMAT_END
309
TABLEFORMAT_END
  1
CELLSTYLE_BEGIN
 90
        3
 91
        2
300
_DATA
309
CELLSTYLE_END
  0
ENDSEC
  0
EOF
