  0
SECTION
  2
HEADER
  9
$ACADVER
  1
AC1021
  9
$ACADMAINTVER
 70
    25
  9
$DWGCODEPAGE
  3
ANSI_1252
  9
$INSBASE
 10
0.0
 20
0.0
 30
0.0
  9
$EXTMIN
 10
0.0
 20
0.0
 30
0.0
  9
$EXTMAX
 10
350.0
 20
650.0
 30
0.0
  9
$LIMMIN
 10
0.0
 20
0.0
  9
$LIMMAX
 10
350.0
 20
650.0
  9
$ORTHOMODE
 70
     0
  9
$REGENMODE
 70
     1
  9
$FILLMODE
 70
     1
  9
$QTEXTMODE
 70
     0
  9
$MIRRTEXT
 70
     1
  9
$LTSCALE
 40
1.0
  9
$ATTMODE
 70
     1
  9
$TEXTSIZE
 40
3.5
  9
$TRACEWID
 40
1.0
  9
$TEXTSTYLE
  7
STANDARD
  9
$CLAYER
  8
0
  9
$CELTYPE
  6
ByLayer
  9
$CECOLOR
 62
   256
  9
$CELTSCALE
 40
1.0
  9
$DISPSILH
 70
     0
  9
$DIMSCALE
 40
1.0
  9
$DIMASZ
 40
3.302
  9
$DIMEXO
 40
1.0
  9
$DIMDLI
 40
3.75
  9
$DIMRND
 40
0.0
  9
$DIMDLE
 40
0.0
  9
$DIMEXE
 40
1.0
  9
$DIMTP
 40
0.0
  9
$DIMTM
 40
0.0
  9
$DIMTXT
 40
3.5
  9
$DIMCEN
 40
2.5
  9
$DIMTSZ
 40
0.0
  9
$DIMTOL
 70
     0
  9
$DIMLIM
 70
     0
  9
$DIMTIH
 70
     1
  9
$DIMTOH
 70
     1
  9
$DIMSE1
 70
     0
  9
$DIMSE2
 70
     0
  9
$DIMTAD
 70
     1
  9
$DIMZIN
 70
     1
  9
$DIMBLK
  1

  9
$DIMASO
 70
     1
  9
$DIMSHO
 70
     1
  9
$DIMPOST
  1

  9
$DIMAPOST
  1

  9
$DIMALT
 70
     0
  9
$DIMALTD
 70
     3
  9
$DIMALTF
 40
0.0393700787
  9
$DIMLFAC
 40
1.0
  9
$DIMTOFL
 70
     1
  9
$DIMTVP
 40
0.0
  9
$DIMTIX
 70
     0
  9
$DIMSOXD
 70
     0
  9
$DIMSAH
 70
     0
  9
$DIMBLK1
  1

  9
$DIMBLK2
  1

  9
$DIMSTYLE
  2
ISO-25
  9
$DIMCLRD
 70
     0
  9
$DIMCLRE
 70
     0
  9
$DIMCLRT
 70
     0
  9
$DIMTFAC
 40
1.0
  9
$DIMGAP
 40
1.524
  9
$DIMJUST
 70
     0
  9
$DIMSD1
 70
     0
  9
$DIMSD2
 70
     0
  9
$DIMTOLJ
 70
     0
  9
$DIMTZIN
 70
     1
  9
$DIMALTZ
 70
     0
  9
$DIMALTTZ
 70
     0
  9
$DIMUPT
 70
     0
  9
$DIMDEC
 70
     0
  9
$DIMTDEC
 70
     0
  9
$DIMALTU
 70
     2
  9
$DIMALTTD
 70
     3
  9
$DIMTXSTY
  7
STANDARD
  9
$DIMAUNIT
 70
     0
  9
$DIMADEC
 70
     0
  9
$DIMALTRND
 40
0.0
  9
$DIMAZIN
 70
     0
  9
$DIMDSEP
 70
    44
  9
$DIMATFIT
 70
     3
  9
$DIMFRAC
 70
     0
  9
$DIMLDRBLK
  1

  9
$DIMLUNIT
 70
     2
  9
$DIMLWD
 70
    -2
  9
$DIMLWE
 70
    -2
  9
$DIMTMOVE
 70
     0
  9
$DIMFXL
 40
1.0
  9
$DIMFXLON
 70
     0
  9
$DIMJOGANG
 40
0.7853981634
  9
$DIMTFILL
 70
     0
  9
$DIMTFILLCLR
 70
     0
  9
$DIMARCSYM
 70
     0
  9
$DIMLTYPE
  6

  9
$DIMLTEX1
  6

  9
$DIMLTEX2
  6

  9
$LUNITS
 70
     2
  9
$LUPREC
 70
     4
  9
$SKETCHINC
 40
1.0
  9
$FILLETRAD
 40
10.0
  9
$AUNITS
 70
     0
  9
$AUPREC
 70
     0
  9
$MENU
  1
.
  9
$ELEVATION
 40
0.0
  9
$PELEVATION
 40
0.0
  9
$THICKNESS
 40
0.0
  9
$LIMCHECK
 70
     0
  9
$CHAMFERA
 40
0.0
  9
$CHAMFERB
 40
0.0
  9
$CHAMFERC
 40
0.0
  9
$CHAMFERD
 40
0.0
  9
$SKPOLY
 70
     0
  9
$TDCREATE
 40
2457508.50255507
  9
$TDUCREATE
 40
2457508.419221736
  9
$TDUPDATE
 40
2457508.502555764
  9
$TDUUPDATE
 40
2457508.41922243
  9
$TDINDWG
 40
0.0000000116
  9
$TDUSRTIMER
 40
0.0000000116
  9
$USRTIMER
 70
     1
  9
$ANGBASE
 50
0.0
  9
$ANGDIR
 70
     0
  9
$PDMODE
 70
     0
  9
$PDSIZE
 40
-1.0
  9
$PLINEWID
 40
0.0
  9
$SPLFRAME
 70
     0
  9
$SPLINETYPE
 70
     6
  9
$SPLINESEGS
 70
     8
  9
$HANDSEED
  5
271
  9
$SURFTAB1
 70
     6
  9
$SURFTAB2
 70
     6
  9
$SURFTYPE
 70
     6
  9
$SURFU
 70
     6
  9
$SURFV
 70
     6
  9
$UCSBASE
  2

  9
$UCSNAME
  2

  9
$UCSORG
 10
0.0
 20
0.0
 30
0.0
  9
$UCSXDIR
 10
1.0
 20
0.0
 30
0.0
  9
$UCSYDIR
 10
0.0
 20
1.0
 30
0.0
  9
$UCSORTHOREF
  2

  9
$UCSORTHOVIEW
 70
     0
  9
$UCSORGTOP
 10
0.0
 20
0.0
 30
0.0
  9
$UCSORGBOTTOM
 10
0.0
 20
0.0
 30
0.0
  9
$UCSORGLEFT
 10
0.0
 20
0.0
 30
0.0
  9
$UCSORGRIGHT
 10
0.0
 20
0.0
 30
0.0
  9
$UCSORGFRONT
 10
0.0
 20
0.0
 30
0.0
  9
$UCSORGBACK
 10
0.0
 20
0.0
 30
0.0
  9
$PUCSBASE
  2

  9
$PUCSNAME
  2

  9
$PUCSORG
 10
0.0
 20
0.0
 30
0.0
  9
$PUCSXDIR
 10
1.0
 20
0.0
 30
0.0
  9
$PUCSYDIR
 10
0.0
 20
1.0
 30
0.0
  9
$PUCSORTHOREF
  2

  9
$PUCSORTHOVIEW
 70
     0
  9
$PUCSORGTOP
 10
0.0
 20
0.0
 30
0.0
  9
$PUCSORGBOTTOM
 10
0.0
 20
0.0
 30
0.0
  9
$PUCSORGLEFT
 10
0.0
 20
0.0
 30
0.0
  9
$PUCSORGRIGHT
 10
0.0
 20
0.0
 30
0.0
  9
$PUCSORGFRONT
 10
0.0
 20
0.0
 30
0.0
  9
$PUCSORGBACK
 10
0.0
 20
0.0
 30
0.0
  9
$USERI1
 70
     0
  9
$USERI2
 70
     0
  9
$USERI3
 70
     0
  9
$USERI4
 70
     0
  9
$USERI5
 70
     0
  9
$USERR1
 40
0.0
  9
$USERR2
 40
0.0
  9
$USERR3
 40
0.0
  9
$USERR4
 40
0.0
  9
$USERR5
 40
0.0
  9
$WORLDVIEW
 70
     1
  9
$SHADEDGE
 70
     3
  9
$SHADEDIF
 70
    70
  9
$TILEMODE
 70
     1
  9
$MAXACTVP
 70
    64
  9
$PINSBASE
 10
0.0
 20
0.0
 30
0.0
  9
$PLIMCHECK
 70
     0
  9
$PEXTMIN
 10
1.0000000000E+20
 20
1.0000000000E+20
 30
1.0000000000E+20
  9
$PEXTMAX
 10
-1.0000000000E+20
 20
-1.0000000000E+20
 30
-1.0000000000E+20
  9
$PLIMMIN
 10
0.0
 20
0.0
  9
$PLIMMAX
 10
420.0
 20
297.0
  9
$UNITMODE
 70
     0
  9
$VISRETAIN
 70
     1
  9
$PLINEGEN
 70
     0
  9
$PSLTSCALE
 70
     1
  9
$TREEDEPTH
 70
  3020
  9
$CMLSTYLE
  2
Standard
  9
$CMLJUST
 70
     0
  9
$CMLSCALE
 40
20.0
  9
$PROXYGRAPHICS
 70
     1
  9
$MEASUREMENT
 70
     1
  9
$CELWEIGHT
370
    -1
  9
$ENDCAPS
280
     0
  9
$JOINSTYLE
280
     0
  9
$LWDISPLAY
290
     1
  9
$INSUNITS
 70
     4
  9
$HYPERLINKBASE
  1

  9
$STYLESHEET
  1

  9
$XEDIT
290
     1
  9
$CEPSNTYPE
380
     0
  9
$PSTYLEMODE
290
     1
  9
$FINGERPRINTGUID
  2
{DF6A0EE8-0E80-44AD-A031-5CAEBDAAAC4D}
  9
$VERSIONGUID
  2
{FAEB1C32-E019-11D5-929B-00C0DF256EC4}
  9
$EXTNAMES
290
     1
  9
$PSVPSCALE
 40
0.0
  9
$OLESTARTUP
290
     0
  9
$SORTENTS
280
   127
  9
$INDEXCTL
280
     0
  9
$HIDETEXT
280
     1
  9
$XCLIPFRAME
290
     0
  9
$HALOGAP
280
     0
  9
$OBSCOLOR
 70
   257
  9
$OBSLTYPE
280
     0
  9
$INTERSECTIONDISPLAY
280
     0
  9
$INTERSECTIONCOLOR
 70
   257
  9
$DIMASSOC
280
     2
  9
$PROJECTNAME
  1

  9
$CAMERADISPLAY
290
     0
  9
$LENSLENGTH
 40
50.0
  9
$CAMERAHEIGHT
 40
0.0
  9
$STEPSPERSEC
 40
2.0
  9
$STEPSIZE
 40
6.0
  9
$3DDWFPREC
 40
2.0
  9
$PSOLWIDTH
 40
5.0
  9
$PSOLHEIGHT
 40
80.0
  9
$LOFTANG1
 40
1.5707963268
  9
$LOFTANG2
 40
1.5707963268
  9
$LOFTMAG1
 40
0.0
  9
$LOFTMAG2
 40
0.0
  9
$LOFTPARAM
 70
     7
  9
$LOFTNORMALS
280
     1
  9
$LATITUDE
 40
37.795
  9
$LONGITUDE
 40
-122.394
  9
$NORTHDIRECTION
 40
0.0
  9
$TIMEZONE
 70
 -8000
  9
$LIGHTGLYPHDISPLAY
280
     1
  9
$TILEMODELIGHTSYNCH
280
     1
  9
$CMATERIAL
347
44
  9
$SOLIDHIST
280
     0
  9
$SHOWHIST
280
     1
  9
$DWFFRAME
280
     2
  9
$DGNFRAME
280
     2
  9
$REALWORLDSCALE
290
     1
  9
$INTERFERECOLOR
 62
   256
  9
$CSHADOW
280
     0
  9
$SHADOWPLANELOCATION
 40
0.0
  0
ENDSEC
  0
SECTION
  2
CLASSES
  0
CLASS
  1
ACDBDICTIONARYWDFLT
  2
AcDbDictionaryWithDefault
  3
ObjectDBX Classes
 90
        0
 91
        4
280
     0
281
     0
  0
CLASS
  1
VISUALSTYLE
  2
AcDbVisualStyle
  3
ObjectDBX Classes
 90
     4095
 91
        4
280
     0
281
     0
  0
CLASS
  1
MATERIAL
  2
AcDbMaterial
  3
ObjectDBX Classes
 90
     1153
 91
        4
280
     0
281
     0
  0
CLASS
  1
SCALE
  2
AcDbScale
  3
ObjectDBX Classes
 90
     1153
 91
        4
280
     0
281
     0
  0
CLASS
  1
TABLESTYLE
  2
AcDbTableStyle
  3
ObjectDBX Classes
 90
     4095
 91
        4
280
     0
281
     0
  0
CLASS
  1
MLEADERSTYLE
  2
AcDbMLeaderStyle
  3
ACDB_MLEADERSTYLE_CLASS
 90
     4095
 91
        4
280
     0
281
     0
  0
CLASS
  1
SUN
  2
AcDbSun
  3
SCENEOE
 90
     1153
 91
        4
280
     0
281
     0
  0
CLASS
  1
DICTIONARYVAR
  2
AcDbDictionaryVar
  3
ObjectDBX Classes
 90
        0
 91
        4
280
     0
281
     0
  0
CLASS
  1
CELLSTYLEMAP
  2
AcDbCellStyleMap
  3
ObjectDBX Classes
 90
     1152
 91
        4
280
     0
281
     0
  0
ENDSEC
  0
SECTION
  2
TABLES
  0
TABLE
  2
VPORT
  5
8
330
0
100
AcDbSymbolTable
 70
     1
  0
VPORT
  5
29
330
8
100
AcDbSymbolTableRecord
100
AcDbViewportTableRecord
  2
*Active
 70
     0
 10
0.0
 20
0.0
 11
1.0
 21
1.0
 12
175.0
 22
325.0
 13
0.0
 23
0.0
 14
10.0
 24
10.0
 15
10.0
 25
10.0
 16
0.0
 26
0.0
 36
1.0
 17
0.0
 27
0.0
 37
0.0
 40
650.0
 41
0.5384615385
 42
50.0
 43
0.0
 44
0.0
 50
0.0
 51
0.0
 71
     0
 72
  2000
 73
     1
 74
     3
 75
     0
 76
     0
 77
     0
 78
     0
281
     0
 65
     1
110
0.0
120
0.0
130
0.0
111
1.0
121
0.0
131
0.0
112
0.0
122
1.0
132
0.0
 79
     0
146
0.0
 60
     3
 61
     5
292
     1
282
     1
141
0.0
142
0.0
 63
   250
361
6D
  0
ENDTAB
  0
TABLE
  2
LTYPE
  5
5
330
0
100
AcDbSymbolTable
 70
     6
  0
LTYPE
  5
14
330
5
100
AcDbSymbolTableRecord
100
AcDbLinetypeTableRecord
  2
ByBlock
 70
     0
  3

 72
    65
 73
     0
 40
0.0
  0
LTYPE
  5
15
330
5
100
AcDbSymbolTableRecord
100
AcDbLinetypeTableRecord
  2
ByLayer
 70
     0
  3

 72
    65
 73
     0
 40
0.0
  0
LTYPE
  5
16
330
5
100
AcDbSymbolTableRecord
100
AcDbLinetypeTableRecord
  2
Continuous
 70
     0
  3
Solid line
 72
    65
 73
     0
 40
0.0
  0
LTYPE
  5
6E
330
5
100
AcDbSymbolTableRecord
100
AcDbLinetypeTableRecord
  2
HIDDEN
 70
     0
  3
Hidden __ __ __ __ __ __ __ __ __ __ __ __ __ __
 72
    65
 73
     2
 40
1.905
 49
1.27
 74
     0
 49
-0.635
 74
     0
  0
LTYPE
  5
6F
330
5
100
AcDbSymbolTableRecord
100
AcDbLinetypeTableRecord
  2
PHANTOM
 70
     0
  3
Phantom ______  __  __  ______  __  __  ______
 72
    65
 73
     6
 40
12.7
 49
6.35
 74
     0
 49
-1.27
 74
     0
 49
1.27
 74
     0
 49
-1.27
 74
     0
 49
1.27
 74
     0
 49
-1.27
 74
     0
  0
LTYPE
  5
70
330
5
100
AcDbSymbolTableRecord
100
AcDbLinetypeTableRecord
  2
CENTER
 70
     0
  3
Center ____ _ ____ _ ____ _ ____ _ ____ _ ____
 72
    65
 73
     4
 40
10.16
 49
6.35
 74
     0
 49
-1.27
 74
     0
 49
1.27
 74
     0
 49
-1.27
 74
     0
  0
LTYPE
  5
71
330
5
100
AcDbSymbolTableRecord
100
AcDbLinetypeTableRecord
  2
CENTERX2
 70
     0
  3
Center (2x) ________  __  ________  __  _____
 72
    65
 73
     4
 40
20.32
 49
12.7
 74
     0
 49
-2.54
 74
     0
 49
2.54
 74
     0
 49
-2.54
 74
     0
  0
LTYPE
  5
72
330
5
100
AcDbSymbolTableRecord
100
AcDbLinetypeTableRecord
  2
DOT2
 70
     0
  3
Dot (.5x) ........................................
 72
    65
 73
     2
 40
0.635
 49
0.0
 74
     0
 49
-0.635
 74
     0
  0
ENDTAB
  0
TABLE
  2
LAYER
  5
2
330
0
100
AcDbSymbolTable
 70
    10
  0
LAYER
  5
10
330
2
100
AcDbSymbolTableRecord
100
AcDbLayerTableRecord
  2
0
 70
     0
 62
     7
  6
Continuous
370
    -3
390
F
347
46
  0
LAYER
  5
73
330
2
100
AcDbSymbolTableRecord
100
AcDbLayerTableRecord
  2
SLD-0
 70
     0
 62
   179
  6
Continuous
370
    -3
390
F
347
46
  0
LAYER
  5
74
330
2
100
AcDbSymbolTableRecord
100
AcDbLayerTableRecord
  2
1
 70
     0
 62
     7
  6
Continuous
370
    -3
390
F
347
46
  0
LAYER
  5
75
330
2
100
AcDbSymbolTableRecord
100
AcDbLayerTableRecord
  2
SLD-DEFPOINTS
 70
     0
 62
   179
  6
Continuous
290
     0
370
    -3
390
F
347
46
  0
LAYER
  5
76
330
2
100
AcDbSymbolTableRecord
100
AcDbLayerTableRecord
  2
TEXTO
 70
     0
 62
     8
  6
Continuous
370
    -3
390
F
347
46
  0
LAYER
  5
77
330
2
100
AcDbSymbolTableRecord
100
AcDbLayerTableRecord
  2
COTAS
 70
     0
 62
   250
  6
Continuous
370
    -3
390
F
347
46
  0
LAYER
  5
78
330
2
100
AcDbSymbolTableRecord
100
AcDbLayerTableRecord
  2
CAJETIN
 70
     0
 62
     9
  6
Continuous
370
    -3
390
F
347
46
  0
LAYER
  5
79
330
2
100
AcDbSymbolTableRecord
100
AcDbLayerTableRecord
  2
CAPA_1
 70
     0
 62
   179
  6
Continuous
370
    -3
390
F
347
46
  0
LAYER
  5
7A
330
2
100
AcDbSymbolTableRecord
100
AcDbLayerTableRecord
  2
PIEZA
 70
     0
 62
   255
  6
Continuous
370
    -3
390
F
347
46
  0
LAYER
  5
7B
330
2
100
AcDbSymbolTableRecord
100
AcDbLayerTableRecord
  2
TOP
 70
     0
 62
     7
  6
Continuous
370
    -3
390
F
347
46
  0
ENDTAB
  0
TABLE
  2
STYLE
  5
3
330
0
100
AcDbSymbolTable
 70
     3
  0
STYLE
  5
11
330
3
100
AcDbSymbolTableRecord
100
AcDbTextStyleTableRecord
  2
STANDARD
 70
     0
 40
0.0
 41
1.0
 50
0.0
 71
     0
 42
3.5
  3
GOTHIC.TTF
  4

1001
ACAD
1000
CENTURY GOTHIC
1071
       34
  0
STYLE
  5
21F
330
3
100
AcDbSymbolTableRecord
100
AcDbTextStyleTableRecord
  2
SLDTEXTSTYLE0
 70
     0
 40
0.0
 41
1.0
 50
0.0
 71
     0
 42
3.5
  3
ARIAL.TTF
  4

1001
ACAD
1000
ARIAL
1071
      290
  0
STYLE
  5
22A
330
3
100
AcDbSymbolTableRecord
100
AcDbTextStyleTableRecord
  2
SLDTEXTSTYLE1
 70
     0
 40
0.0
 41
0.948
 50
0.0
 71
     0
 42
3.5
  3
ARIAL.TTF
  4

1001
ACAD
1000
ARIAL
1071
      290
  0
ENDTAB
  0
TABLE
  2
VIEW
  5
6
330
0
100
AcDbSymbolTable
 70
     0
  0
ENDTAB
  0
TABLE
  2
UCS
  5
7
330
0
100
AcDbSymbolTable
 70
     0
  0
ENDTAB
  0
TABLE
  2
APPID
  5
9
330
0
100
AcDbSymbolTable
 70
     2
  0
APPID
  5
12
330
9
100
AcDbSymbolTableRecord
100
AcDbRegAppTableRecord
  2
ACAD
 70
     0
  0
APPID
  5
26B
330
9
100
AcDbSymbolTableRecord
100
AcDbRegAppTableRecord
  2
ACAD_MLEADERVER
 70
     0
  0
ENDTAB
  0
TABLE
  2
DIMSTYLE
  5
A
330
0
100
AcDbSymbolTable
 70
     3
100
AcDbDimStyleTable
  0
DIMSTYLE
105
27
330
A
100
AcDbSymbolTableRecord
100
AcDbDimStyleTableRecord
  2
ISO-25
 70
     0
 41
2.5
 42
0.625
 43
3.75
 44
1.25
 73
     0
 74
     0
 77
     1
 78
     8
140
2.5
141
2.5
143
0.0393700787
147
0.625
171
     3
172
     1
178
     0
271
     2
272
     2
274
     3
278
    44
283
     0
284
     8
340
11
  0
DIMSTYLE
105
220
102
{ACAD_REACTORS
330
21E
330
22E
330
245
330
24F
102
}
330
A
100
AcDbSymbolTableRecord
100
AcDbDimStyleTableRecord
  2
SLDDIMSTYLE0
 70
     0
 41
3.302
 44
0.0
 45
0.000000001
 73
     0
 74
     0
 77
     1
 78
    12
 79
     3
140
6.0
147
1.5
173
     1
178
     0
271
     0
272
     0
276
     2
284
    12
340
21F
341
221
343
221
344
221
  0
DIMSTYLE
105
239
102
{ACAD_REACTORS
330
238
102
}
330
A
100
AcDbSymbolTableRecord
100
AcDbDimStyleTableRecord
  2
SLDDIMSTYLE1
 70
     0
 41
3.302
 44
0.0
 45
0.000000001
 73
     0
 74
     0
 77
     1
 78
    12
 79
     3
140
6.0
147
1.5
173
     1
178
     0
271
     1
272
     0
276
     2
284
    12
340
21F
341
221
343
221
344
221
  0
ENDTAB
  0
TABLE
  2
BLOCK_RECORD
  5
1
330
0
100
AcDbSymbolTable
 70
     9
  0
BLOCK_RECORD
  5
1F
330
1
100
AcDbSymbolTableRecord
100
AcDbBlockTableRecord
  2
*Model_Space
340
22
 70
     0
280
     1
281
     0
  0
BLOCK_RECORD
  5
1B
330
1
100
AcDbSymbolTableRecord
100
AcDbBlockTableRecord
  2
*Paper_Space
340
1E
 70
     0
280
     1
281
     0
  0
BLOCK_RECORD
  5
23
330
1
100
AcDbSymbolTableRecord
100
AcDbBlockTableRecord
  2
*Paper_Space0
340
26
 70
     0
280
     1
281
     0
  0
BLOCK_RECORD
  5
221
330
1
100
AcDbSymbolTableRecord
100
AcDbBlockTableRecord
  2
_NONE
340
0
 70
     0
280
     1
281
     0
  0
BLOCK_RECORD
  5
224
330
1
100
AcDbSymbolTableRecord
100
AcDbBlockTableRecord
  2
_D
340
0
 70
     0
280
     1
281
     0
  0
BLOCK_RECORD
  5
22F
330
1
100
AcDbSymbolTableRecord
100
AcDbBlockTableRecord
  2
_D_1
340
0
 70
     0
280
     1
281
     0
  0
BLOCK_RECORD
  5
23A
330
1
100
AcDbSymbolTableRecord
100
AcDbBlockTableRecord
  2
_D_2
340
0
 70
     0
280
     1
281
     0
  0
BLOCK_RECORD
  5
246
330
1
100
AcDbSymbolTableRecord
100
AcDbBlockTableRecord
  2
_D_3
340
0
 70
     0
280
     1
281
     0
  0
BLOCK_RECORD
  5
250
330
1
100
AcDbSymbolTableRecord
100
AcDbBlockTableRecord
  2
_D_4
340
0
 70
     0
280
     1
281
     0
  0
BLOCK_RECORD
  5
25A
330
1
100
AcDbSymbolTableRecord
100
AcDbBlockTableRecord
  2
SW_NOTE_0
340
0
102
{BLKREFS
331
25F
102
}
 70
     0
280
     1
281
     0
  0
BLOCK_RECORD
  5
260
330
1
100
AcDbSymbolTableRecord
100
AcDbBlockTableRecord
  2
SW_NOTE_1
340
0
102
{BLKREFS
331
265
102
}
 70
     0
280
     1
281
     0
  0
ENDTAB
  0
ENDSEC
  0
SECTION
  2
BLOCKS
  0
BLOCK
  5
20
330
1F
100
AcDbEntity
  8
0
100
AcDbBlockBegin
  2
*Model_Space
 70
     0
 10
0.0
 20
0.0
 30
0.0
  3
*Model_Space
  1

  0
ENDBLK
  5
21
330
1F
100
AcDbEntity
  8
0
100
AcDbBlockEnd
  0
BLOCK
  5
1C
330
1B
100
AcDbEntity
 67
     1
  8
0
100
AcDbBlockBegin
  2
*Paper_Space
 70
     0
 10
0.0
 20
0.0
 30
0.0
  3
*Paper_Space
  1

  0
ENDBLK
  5
1D
330
1B
100
AcDbEntity
 67
     1
  8
0
100
AcDbBlockEnd
  0
BLOCK
  5
24
330
23
100
AcDbEntity
  8
0
100
AcDbBlockBegin
  2
*Paper_Space0
 70
     0
 10
0.0
 20
0.0
 30
0.0
  3
*Paper_Space0
  1

  0
ENDBLK
  5
25
330
23
100
AcDbEntity
  8
0
100
AcDbBlockEnd
  0
BLOCK
  5
222
330
221
100
AcDbEntity
  8
0
100
AcDbBlockBegin
  2
_NONE
 70
     0
 10
0.0
 20
0.0
 30
0.0
  3
_NONE
  1

  0
ENDBLK
  5
223
330
221
100
AcDbEntity
  8
0
100
AcDbBlockEnd
  0
BLOCK
  5
225
330
224
100
AcDbEntity
  8
0
100
AcDbBlockBegin
  2
_D
 70
     0
 10
0.0
 20
0.0
 30
0.0
  3
_D
  1

  0
LINE
  5
227
330
224
100
AcDbEntity
  8
COTAS
100
AcDbLine
 10
279.3638399205
 20
116.2651785447
 30
0.0
 11
304.4205302279
 21
116.2651785447
 31
0.0
  0
LINE
  5
228
330
224
100
AcDbEntity
  8
COTAS
100
AcDbLine
 10
279.3638399205
 20
190.2651785447
 30
0.0
 11
304.4205302279
 21
190.2651785447
 31
0.0
  0
LINE
  5
229
330
224
100
AcDbEntity
  8
COTAS
100
AcDbLine
 10
303.1705302279
 20
123.2651785447
 30
0.0
 11
303.1705302279
 21
183.2651785447
 31
0.0
  0
MTEXT
  5
22B
330
224
100
AcDbEntity
  8
COTAS
100
AcDbMText
 10
295.6757801582
 20
130.8389094487
 30
0.0
 40
6.0
 41
0.0
 46
0.0
 71
     1
 72
     1
  1
MIN 74 mm
  7
SLDTEXTSTYLE1
 11
6.123233995736766E-17
 21
1.0
 31
0.0
 73
     1
 44
1.0
  0
SOLID
  5
22C
330
224
100
AcDbEntity
  8
COTAS
100
AcDbTrace
 10
302.0038635613
 20
123.2651785447
 30
0.0
 11
304.3371968946
 21
123.2651785447
 31
0.0
 12
303.1705302279
 22
116.2651785447
 32
0.0
 13
303.1705302279
 23
116.2651785447
 33
0.0
  0
SOLID
  5
22D
330
224
100
AcDbEntity
  8
COTAS
100
AcDbTrace
 10
302.0038635613
 20
183.2651785447
 30
0.0
 11
304.3371968946
 21
183.2651785447
 31
0.0
 12
303.1705302279
 22
190.2651785447
 32
0.0
 13
303.1705302279
 23
190.2651785447
 33
0.0
  0
ENDBLK
  5
226
330
224
100
AcDbEntity
  8
0
100
AcDbBlockEnd
  0
BLOCK
  5
230
330
22F
100
AcDbEntity
  8
0
100
AcDbBlockBegin
  2
_D_1
 70
     0
 10
0.0
 20
0.0
 30
0.0
  3
_D_1
  1

  0
LINE
  5
232
330
22F
100
AcDbEntity
  8
COTAS
100
AcDbLine
 10
137.1353585672
 20
114.7651785447
 30
0.0
 11
48.7197386957
 21
114.7651785447
 31
0.0
  0
LINE
  5
233
330
22F
100
AcDbEntity
  8
COTAS
100
AcDbLine
 10
172.153546553
 20
168.3651785447
 30
0.0
 11
48.7197386957
 21
168.3651785447
 31
0.0
  0
LINE
  5
234
330
22F
100
AcDbEntity
  8
COTAS
100
AcDbLine
 10
49.9697386957
 20
121.7651785447
 30
0.0
 11
49.9697386957
 21
161.3651785447
 31
0.0
  0
MTEXT
  5
235
330
22F
100
AcDbEntity
  8
COTAS
100
AcDbMText
 10
42.4258753927
 20
135.1901125268
 30
0.0
 40
6.0
 41
0.0
 46
0.0
 71
     1
 72
     1
  1
54
  7
SLDTEXTSTYLE1
 11
6.123233995736766E-17
 21
1.0
 31
0.0
 73
     1
 44
1.0
  0
SOLID
  5
236
330
22F
100
AcDbEntity
  8
COTAS
100
AcDbTrace
 10
48.803072029
 20
121.7651785447
 30
0.0
 11
51.1364053623
 21
121.7651785447
 31
0.0
 12
49.9697386957
 22
114.7651785447
 32
0.0
 13
49.9697386957
 23
114.7651785447
 33
0.0
  0
SOLID
  5
237
330
22F
100
AcDbEntity
  8
COTAS
100
AcDbTrace
 10
48.803072029
 20
161.3651785447
 30
0.0
 11
51.1364053623
 21
161.3651785447
 31
0.0
 12
49.9697386957
 22
168.3651785447
 32
0.0
 13
49.9697386957
 23
168.3651785447
 33
0.0
  0
ENDBLK
  5
231
330
22F
100
AcDbEntity
  8
0
100
AcDbBlockEnd
  0
BLOCK
  5
23B
330
23A
100
AcDbEntity
  8
0
100
AcDbBlockBegin
  2
_D_2
 70
     0
 10
0.0
 20
0.0
 30
0.0
  3
_D_2
  1

  0
LINE
  5
23D
330
23A
100
AcDbEntity
  8
COTAS
100
AcDbLine
 10
137.1353585672
 20
114.7651785447
 30
0.0
 11
61.7488229405
 21
114.7651785447
 31
0.0
  0
LINE
  5
23E
330
23A
100
AcDbEntity
  8
COTAS
100
AcDbLine
 10
78.1138399205
 20
116.2651785447
 30
0.0
 11
61.7488229405
 21
116.2651785447
 31
0.0
  0
LINE
  5
23F
330
23A
100
AcDbEntity
  8
COTAS
100
AcDbLine
 10
62.9988229405
 20
107.7651785447
 30
0.0
 11
62.9988229405
 21
100.7651785447
 31
0.0
  0
LINE
  5
240
330
23A
100
AcDbEntity
  8
COTAS
100
AcDbLine
 10
62.9988229405
 20
123.2651785447
 30
0.0
 11
62.9988229405
 21
143.6539684492
 31
0.0
  0
LINE
  5
241
330
23A
100
AcDbEntity
  8
COTAS
100
AcDbLine
 10
62.9988229405
 20
114.7651785447
 30
0.0
 11
62.9988229405
 21
116.2651785447
 31
0.0
  0
MTEXT
  5
242
330
23A
100
AcDbEntity
  8
COTAS
100
AcDbMText
 10
54.9003893783
 20
131.7932253962
 30
0.0
 40
6.0
 41
0.0
 46
0.0
 71
     1
 72
     1
  1
1,5
  7
SLDTEXTSTYLE1
 11
6.123233995736766E-17
 21
1.0
 31
0.0
 73
     1
 44
1.0
  0
SOLID
  5
243
330
23A
100
AcDbEntity
  8
COTAS
100
AcDbTrace
 10
61.8321562739
 20
107.7651785447
 30
0.0
 11
64.1654896072
 21
107.7651785447
 31
0.0
 12
62.9988229405
 22
114.7651785447
 32
0.0
 13
62.9988229405
 23
114.7651785447
 33
0.0
  0
SOLID
  5
244
330
23A
100
AcDbEntity
  8
COTAS
100
AcDbTrace
 10
61.8321562739
 20
123.2651785447
 30
0.0
 11
64.1654896072
 21
123.2651785447
 31
0.0
 12
62.9988229405
 22
116.2651785447
 32
0.0
 13
62.9988229405
 23
116.2651785447
 33
0.0
  0
ENDBLK
  5
23C
330
23A
100
AcDbEntity
  8
0
100
AcDbBlockEnd
  0
BLOCK
  5
247
330
246
100
AcDbEntity
  8
0
100
AcDbBlockBegin
  2
_D_3
 70
     0
 10
0.0
 20
0.0
 30
0.0
  3
_D_3
  1

  0
LINE
  5
249
330
246
100
AcDbEntity
  8
COTAS
100
AcDbLine
 10
179.3638399205
 20
265.1386802994
 30
0.0
 11
265.980816481
 21
265.1386802994
 31
0.0
  0
LINE
  5
24A
330
246
100
AcDbEntity
  8
COTAS
100
AcDbLine
 10
179.3638399205
 20
563.1307054639
 30
0.0
 11
265.980816481
 21
563.1307054639
 31
0.0
  0
LINE
  5
24B
330
246
100
AcDbEntity
  8
COTAS
100
AcDbLine
 10
264.730816481
 20
272.1386802994
 30
0.0
 11
264.730816481
 21
556.1307054639
 31
0.0
  0
MTEXT
  5
24C
330
246
100
AcDbEntity
  8
COTAS
100
AcDbMText
 10
257.1746748697
 20
406.8924952334
 30
0.0
 40
6.0
 41
0.0
 46
0.0
 71
     1
 72
     1
  1
298
  7
SLDTEXTSTYLE1
 11
6.123233995736766E-17
 21
1.0
 31
0.0
 73
     1
 44
1.0
  0
SOLID
  5
24D
330
246
100
AcDbEntity
  8
COTAS
100
AcDbTrace
 10
263.5641498143
 20
272.1386802994
 30
0.0
 11
265.8974831477
 21
272.1386802994
 31
0.0
 12
264.730816481
 22
265.1386802994
 32
0.0
 13
264.730816481
 23
265.1386802994
 33
0.0
  0
SOLID
  5
24E
330
246
100
AcDbEntity
  8
COTAS
100
AcDbTrace
 10
263.5641498143
 20
556.1307054639
 30
0.0
 11
265.8974831477
 21
556.1307054639
 31
0.0
 12
264.730816481
 22
563.1307054639
 32
0.0
 13
264.730816481
 23
563.1307054639
 33
0.0
  0
ENDBLK
  5
248
330
246
100
AcDbEntity
  8
0
100
AcDbBlockEnd
  0
BLOCK
  5
251
330
250
100
AcDbEntity
  8
0
100
AcDbBlockBegin
  2
_D_4
 70
     0
 10
0.0
 20
0.0
 30
0.0
  3
_D_4
  1

  0
LINE
  5
253
330
250
100
AcDbEntity
  8
COTAS
100
AcDbLine
 10
137.2428273383
 20
306.0096928817
 30
0.0
 11
137.2428273383
 21
241.9764247075
 31
0.0
  0
LINE
  5
254
330
250
100
AcDbEntity
  8
COTAS
100
AcDbLine
 10
220.2348525028
 20
306.0096928817
 30
0.0
 11
220.2348525028
 21
241.9764247075
 31
0.0
  0
LINE
  5
255
330
250
100
AcDbEntity
  8
COTAS
100
AcDbLine
 10
144.2428273383
 20
243.2264247075
 30
0.0
 11
213.2348525028
 21
243.2264247075
 31
0.0
  0
MTEXT
  5
256
330
250
100
AcDbEntity
  8
COTAS
100
AcDbMText
 10
173.910708155
 20
250.7846127036
 30
0.0
 40
6.0
 41
0.0
 46
0.0
 71
     1
 72
     1
  1
83
  7
SLDTEXTSTYLE1
 73
     1
 44
1.0
  0
SOLID
  5
257
330
250
100
AcDbEntity
  8
COTAS
100
AcDbTrace
 10
144.2428273383
 20
244.3930913742
 30
0.0
 11
144.2428273383
 21
242.0597580409
 31
0.0
 12
137.2428273383
 22
243.2264247075
 32
0.0
 13
137.2428273383
 23
243.2264247075
 33
0.0
  0
SOLID
  5
258
330
250
100
AcDbEntity
  8
COTAS
100
AcDbTrace
 10
213.2348525028
 20
244.3930913742
 30
0.0
 11
213.2348525028
 21
242.0597580409
 31
0.0
 12
220.2348525028
 22
243.2264247075
 32
0.0
 13
220.2348525028
 23
243.2264247075
 33
0.0
  0
ENDBLK
  5
252
330
250
100
AcDbEntity
  8
0
100
AcDbBlockEnd
  0
BLOCK
  5
25B
330
25A
100
AcDbEntity
  8
0
100
AcDbBlockBegin
  2
SW_NOTE_0
 70
     0
 10
0.0
 20
0.0
 30
0.0
  3
SW_NOTE_0
  1

  0
MTEXT
  5
25D
330
25A
100
AcDbEntity
  8
TEXTO
 62
     0
100
AcDbMText
 10
0.0
 20
4.5117370892
 30
0.0
 40
3.5
 41
0.0
 46
0.0
 71
     1
 72
     1
  1
Escala 1/1
  7
SLDTEXTSTYLE0
 73
     1
 44
1.0
  0
MTEXT
  5
25E
330
25A
100
AcDbEntity
  8
TEXTO
 62
     0
100
AcDbMText
 10
0.0
 20
-1.2982629132
 30
0.0
 40
3.5
 41
0.0
 46
0.0
 71
     1
 72
     1
  1
Scale 1/1
  7
SLDTEXTSTYLE0
 73
     1
 44
1.0
  0
ENDBLK
  5
25C
330
25A
100
AcDbEntity
  8
0
100
AcDbBlockEnd
  0
BLOCK
  5
261
330
260
100
AcDbEntity
  8
0
100
AcDbBlockBegin
  2
SW_NOTE_1
 70
     0
 10
0.0
 20
0.0
 30
0.0
  3
SW_NOTE_1
  1

  0
MTEXT
  5
263
330
260
100
AcDbEntity
  8
TEXTO
 62
     0
100
AcDbMText
 10
0.0
 20
4.5117370892
 30
0.0
 40
3.5
 41
0.0
 46
0.0
 71
     1
 72
     1
  1
Unidades: mm.
  7
SLDTEXTSTYLE0
 73
     1
 44
1.0
  0
MTEXT
  5
264
330
260
100
AcDbEntity
  8
TEXTO
 62
     0
100
AcDbMText
 10
0.0
 20
-1.2982629132
 30
0.0
 40
3.5
 41
0.0
 46
0.0
 71
     1
 72
     1
  1
Units: mm.
  7
SLDTEXTSTYLE0
 73
     1
 44
1.0
  0
ENDBLK
  5
262
330
260
100
AcDbEntity
  8
0
100
AcDbBlockEnd
  0
ENDSEC
  0
SECTION
  2
ENTITIES
  0
LINE
  5
7C
330
1F
100
AcDbEntity
  8
COTAS
100
AcDbLine
 10
278.7388399205
 20
197.2651785447
 30
0.0
 11
78.7388399205
 21
197.2651785447
 31
0.0
  0
LINE
  5
7D
330
1F
100
AcDbEntity
  8
COTAS
100
AcDbLine
 10
78.7388399205
 20
197.2651785447
 30
0.0
 11
78.7388399205
 21
190.2651785447
 31
0.0
  0
LINE
  5
7E
330
1F
100
AcDbEntity
  8
COTAS
100
AcDbLine
 10
78.7388399205
 20
190.2651785447
 30
0.0
 11
278.7388399205
 21
190.2651785447
 31
0.0
  0
LINE
  5
7F
330
1F
100
AcDbEntity
  8
COTAS
100
AcDbLine
 10
278.7388399205
 20
190.2651785447
 30
0.0
 11
278.7388399205
 21
197.2651785447
 31
0.0
  0
LINE
  5
80
330
1F
100
AcDbEntity
  8
COTAS
100
AcDbLine
 10
143.7388399205
 20
123.2651785447
 30
0.0
 11
109.3159171259
 21
123.2651785447
 31
0.0
  0
LINE
  5
81
330
1F
100
AcDbEntity
  8
COTAS
100
AcDbLine
 10
107.6650378565
 20
123.2651785447
 30
0.0
 11
78.7388399205
 21
123.2651785447
 31
0.0
  0
LINE
  5
82
330
1F
100
AcDbEntity
  8
COTAS
100
AcDbLine
 10
78.7388399205
 20
123.2651785447
 30
0.0
 11
78.7388399205
 21
116.2651785447
 31
0.0
  0
LINE
  5
83
330
1F
100
AcDbEntity
  8
COTAS
100
AcDbLine
 10
78.7388399205
 20
116.2651785447
 30
0.0
 11
143.7388399205
 21
116.2651785447
 31
0.0
  0
LINE
  5
84
330
1F
100
AcDbEntity
  8
COTAS
100
AcDbLine
 10
143.7388399205
 20
116.2651785447
 30
0.0
 11
143.7388399205
 21
123.2651785447
 31
0.0
  0
LINE
  5
85
330
1F
100
AcDbEntity
  8
COTAS
100
AcDbLine
 10
278.7388399205
 20
123.2651785447
 30
0.0
 11
249.8126419845
 21
123.2651785447
 31
0.0
  0
LINE
  5
86
330
1F
100
AcDbEntity
  8
COTAS
100
AcDbLine
 10
248.1617627152
 20
123.2651785447
 30
0.0
 11
213.7388399205
 21
123.2651785447
 31
0.0
  0
LINE
  5
87
330
1F
100
AcDbEntity
  8
COTAS
100
AcDbLine
 10
213.7388399205
 20
123.2651785447
 30
0.0
 11
213.7388399205
 21
116.2651785447
 31
0.0
  0
LINE
  5
88
330
1F
100
AcDbEntity
  8
COTAS
100
AcDbLine
 10
213.7388399205
 20
116.2651785447
 30
0.0
 11
278.7388399205
 21
116.2651785447
 31
0.0
  0
LINE
  5
89
330
1F
100
AcDbEntity
  8
COTAS
100
AcDbLine
 10
278.7388399205
 20
116.2651785447
 30
0.0
 11
278.7388399205
 21
123.2651785447
 31
0.0
  0
LINE
  5
8A
330
1F
100
AcDbEntity
  8
CAJETIN
100
AcDbLine
 10
7.5
 20
10.0000000635
 30
0.0
 11
341.18631938
 21
10.0000000635
 31
0.0
  0
LINE
  5
8B
330
1F
100
AcDbEntity
  8
CAJETIN
100
AcDbLine
 10
7.5
 20
637.669550005
 30
0.0
 11
7.5
 21
10.0000000635
 31
0.0
  0
LINE
  5
8C
330
1F
100
AcDbEntity
  8
CAJETIN
100
AcDbLine
 10
44.1863200391
 20
24.9999994737
 30
0.0
 11
341.18631938
 21
24.9999994737
 31
0.0
  0
LINE
  5
8D
330
1F
100
AcDbEntity
  8
CAJETIN
100
AcDbLine
 10
44.1863200391
 20
39.9999993552
 30
0.0
 11
341.1863217451
 21
39.9999993552
 31
0.0
  0
LINE
  5
8E
330
1F
100
AcDbEntity
  8
CAJETIN
100
AcDbLine
 10
341.18631938
 20
637.669550005
 30
0.0
 11
341.18631938
 21
10.0000000635
 31
0.0
  0
LINE
  5
8F
330
1F
100
AcDbEntity
  8
CAJETIN
100
AcDbLine
 10
7.5
 20
637.669550005
 30
0.0
 11
341.18631938
 21
637.669550005
 31
0.0
  0
LINE
  5
90
330
1F
100
AcDbEntity
  8
PIEZA
100
AcDbLine
 10
44.1863200391
 20
39.9999993552
 30
0.0
 11
44.1863200391
 21
9.9999998721
 31
0.0
  0
LINE
  5
91
330
1F
100
AcDbEntity
  8
COTAS
100
AcDbLine
 10
127.2503296161
 20
24.9999994737
 30
0.0
 11
127.2503296161
 21
9.9999998025
 31
0.0
  0
LINE
  5
92
330
1F
100
AcDbEntity
  8
PIEZA
370
     0
100
AcDbLine
 10
263.9979685134
 20
19.4061680209
 30
0.0
 11
268.0921819016
 21
19.4061680209
 31
0.0
  0
LINE
  5
93
330
1F
100
AcDbEntity
  8
PIEZA
370
     0
100
AcDbLine
 10
268.0921819016
 20
19.4061680209
 30
0.0
 11
269.7388363536
 21
19.4061680209
 31
0.0
  0
LINE
  5
94
330
1F
100
AcDbEntity
  8
PIEZA
370
     0
100
AcDbLine
 10
272.0974148743
 20
15.0451587262
 30
0.0
 11
272.0974148743
 21
13.3095077097
 31
0.0
  0
LINE
  5
95
330
1F
100
AcDbEntity
  8
PIEZA
370
     0
100
AcDbLine
 10
272.0974148743
 20
13.3095077097
 30
0.0
 11
270.9402818989
 21
13.3095077097
 31
0.0
  0
LINE
  5
96
330
1F
100
AcDbEntity
  8
PIEZA
370
     0
100
AcDbLine
 10
270.9402818989
 20
13.3095077097
 30
0.0
 11
270.9402818989
 21
14.7780882884
 31
0.0
  0
LINE
  5
97
330
1F
100
AcDbEntity
  8
PIEZA
370
     0
100
AcDbLine
 10
269.6497751936
 20
15.6680862305
 30
0.0
 11
268.0921819016
 21
15.6680862305
 31
0.0
  0
LINE
  5
98
330
1F
100
AcDbEntity
  8
PIEZA
370
     0
100
AcDbLine
 10
268.0921819016
 20
15.6680862305
 30
0.0
 11
265.1550207443
 21
15.6680862305
 31
0.0
  0
LINE
  5
99
330
1F
100
AcDbEntity
  8
PIEZA
370
     0
100
AcDbLine
 10
265.1550207443
 20
15.6680862305
 30
0.0
 11
265.1550207443
 21
13.3095077098
 31
0.0
  0
LINE
  5
9A
330
1F
100
AcDbEntity
  8
PIEZA
370
     0
100
AcDbLine
 10
265.1550207443
 20
13.3095077098
 30
0.0
 11
263.9979685134
 21
13.3095077098
 31
0.0
  0
LINE
  5
9B
330
1F
100
AcDbEntity
  8
PIEZA
370
     0
100
AcDbLine
 10
263.9979685134
 20
13.3095077098
 30
0.0
 11
263.9979685134
 21
19.4061680209
 31
0.0
  0
LINE
  5
9C
330
1F
100
AcDbEntity
  8
PIEZA
370
     0
100
AcDbLine
 10
268.0921819017
 20
18.5162023767
 30
0.0
 11
265.1550207443
 21
18.5162023767
 31
0.0
  0
LINE
  5
9D
330
1F
100
AcDbEntity
  8
PIEZA
370
     0
100
AcDbLine
 10
265.1550207443
 20
18.5162023767
 30
0.0
 11
265.1550207443
 21
16.5580841726
 31
0.0
  0
LINE
  5
9E
330
1F
100
AcDbEntity
  8
PIEZA
370
     0
100
AcDbLine
 10
265.1550207443
 20
16.5580841726
 30
0.0
 11
268.0921819016
 21
16.5580841726
 31
0.0
  0
LINE
  5
9F
330
1F
100
AcDbEntity
  8
PIEZA
370
     0
100
AcDbLine
 10
268.0921819016
 20
16.5580841726
 30
0.0
 11
269.6050911991
 21
16.5580841726
 31
0.0
  0
LINE
  5
A0
330
1F
100
AcDbEntity
  8
PIEZA
370
     0
100
AcDbLine
 10
269.5607786292
 20
18.5162023767
 30
0.0
 11
268.0921819017
 21
18.5162023767
 31
0.0
  0
LINE
  5
A1
330
1F
100
AcDbEntity
  8
PIEZA
370
     0
100
AcDbLine
 10
287.5396995326
 20
19.4952453298
 30
0.0
 11
288.6077874969
 21
19.4952453298
 31
0.0
  0
LINE
  5
A2
330
1F
100
AcDbEntity
  8
PIEZA
370
     0
100
AcDbLine
 10
288.073872706
 20
13.2650013532
 30
0.0
 11
287.5396995327
 21
13.2650013532
 31
0.0
  0
LINE
  5
A3
330
1F
100
AcDbEntity
  8
PIEZA
370
     0
100
AcDbLine
 10
287.5396995327
 20
13.2650013532
 30
0.0
 11
286.516279414
 21
13.2650013532
 31
0.0
  0
LINE
  5
A4
330
1F
100
AcDbEntity
  8
PIEZA
370
     0
100
AcDbLine
 10
287.5396995327
 20
18.5162023767
 30
0.0
 11
285.937761373
 21
18.5162023767
 31
0.0
  0
LINE
  5
A5
330
1F
100
AcDbEntity
  8
PIEZA
370
     0
100
AcDbLine
 10
284.2021103566
 20
17.2256795225
 30
0.0
 11
284.1577331911
 21
16.3356815804
 31
0.0
  0
LINE
  5
A6
330
1F
100
AcDbEntity
  8
PIEZA
370
     0
100
AcDbLine
 10
284.1577331911
 20
16.3356815804
 30
0.0
 11
284.1577331911
 21
15.9351566683
 31
0.0
  0
LINE
  5
A7
330
1F
100
AcDbEntity
  8
PIEZA
370
     0
100
AcDbLine
 10
285.7152941852
 20
14.2440120085
 30
0.0
 11
287.4953223671
 21
14.1995056519
 31
0.0
  0
LINE
  5
A8
330
1F
100
AcDbEntity
  8
PIEZA
370
     0
100
AcDbLine
 10
287.4953223671
 20
14.1995056519
 30
0.0
 11
287.5396995326
 21
14.1995056519
 31
0.0
  0
LINE
  5
A9
330
1F
100
AcDbEntity
  8
PIEZA
370
     0
100
AcDbLine
 10
287.5396995326
 20
14.1995056519
 30
0.0
 11
288.1182498714
 21
14.1995056519
 31
0.0
  0
LINE
  5
AA
330
1F
100
AcDbEntity
  8
PIEZA
370
     0
100
AcDbLine
 10
290.8773533043
 20
15.5790089217
 30
0.0
 11
290.8773533043
 21
16.736141897
 31
0.0
  0
LINE
  5
AB
330
1F
100
AcDbEntity
  8
PIEZA
370
     0
100
AcDbLine
 10
289.1419283725
 20
18.5162023767
 30
0.0
 11
287.5396995327
 21
18.5162023767
 31
0.0
  0
LINE
  5
AC
330
1F
100
AcDbEntity
  8
PIEZA
370
     0
100
AcDbLine
 10
258.6575286921
 20
14.5999982662
 30
0.0
 11
255.8984898548
 21
14.5999982662
 31
0.0
  0
LINE
  5
AD
330
1F
100
AcDbEntity
  8
PIEZA
370
     0
100
AcDbLine
 10
255.8984898548
 20
14.5999982662
 30
0.0
 11
255.0084434661
 21
13.3095077098
 31
0.0
  0
LINE
  5
AE
330
1F
100
AcDbEntity
  8
PIEZA
370
     0
100
AcDbLine
 10
255.0084434661
 20
13.3095077098
 30
0.0
 11
253.5842400529
 21
13.3095077098
 31
0.0
  0
LINE
  5
AF
330
1F
100
AcDbEntity
  8
PIEZA
370
     0
100
AcDbLine
 10
253.5842400529
 20
13.3095077098
 30
0.0
 11
257.9899979377
 21
19.4061680209
 31
0.0
  0
LINE
  5
B0
330
1F
100
AcDbEntity
  8
PIEZA
370
     0
100
AcDbLine
 10
257.9899979377
 20
19.4061680209
 30
0.0
 11
258.6575286921
 21
19.4061680209
 31
0.0
  0
LINE
  5
B1
330
1F
100
AcDbEntity
  8
PIEZA
370
     0
100
AcDbLine
 10
258.6575286921
 20
19.4061680209
 30
0.0
 11
259.2807630254
 21
19.4061680209
 31
0.0
  0
LINE
  5
B2
330
1F
100
AcDbEntity
  8
PIEZA
370
     0
100
AcDbLine
 10
259.2807630254
 20
19.4061680209
 30
0.0
 11
263.7755013257
 21
13.3095077098
 31
0.0
  0
LINE
  5
B3
330
1F
100
AcDbEntity
  8
PIEZA
370
     0
100
AcDbLine
 10
263.7755013257
 20
13.3095077098
 30
0.0
 11
262.3512979126
 21
13.3095077098
 31
0.0
  0
LINE
  5
B4
330
1F
100
AcDbEntity
  8
PIEZA
370
     0
100
AcDbLine
 10
262.3512979126
 20
13.3095077098
 30
0.0
 11
261.4169389539
 21
14.5999982662
 31
0.0
  0
LINE
  5
B5
330
1F
100
AcDbEntity
  8
PIEZA
370
     0
100
AcDbLine
 10
261.4169389539
 20
14.5999982662
 30
0.0
 11
258.6575286921
 21
14.5999982662
 31
0.0
  0
LINE
  5
B6
330
1F
100
AcDbEntity
  8
PIEZA
370
     0
100
AcDbLine
 10
258.6575286921
 20
18.4717929134
 30
0.0
 11
256.5214012102
 21
15.5346963517
 31
0.0
  0
LINE
  5
B7
330
1F
100
AcDbEntity
  8
PIEZA
370
     0
100
AcDbLine
 10
256.5214012102
 20
15.5346963517
 30
0.0
 11
258.6575286921
 21
15.5346963517
 31
0.0
  0
LINE
  5
B8
330
1F
100
AcDbEntity
  8
PIEZA
370
     0
100
AcDbLine
 10
258.6575286921
 20
15.5346963517
 30
0.0
 11
260.7937207695
 21
15.5346963517
 31
0.0
  0
LINE
  5
B9
330
1F
100
AcDbEntity
  8
PIEZA
370
     0
100
AcDbLine
 10
260.7937207695
 20
15.5346963517
 30
0.0
 11
258.6575286921
 21
18.4717929134
 31
0.0
  0
LINE
  5
BA
330
1F
100
AcDbEntity
  8
PIEZA
370
     0
100
AcDbLine
 10
274.990198866
 20
16.9142319192
 30
0.0
 11
276.013570538
 21
16.9142319192
 31
0.0
  0
LINE
  5
BB
330
1F
100
AcDbEntity
  8
PIEZA
370
     0
100
AcDbLine
 10
276.013570538
 20
16.9142319192
 30
0.0
 11
280.5083249872
 21
19.4061680209
 31
0.0
  0
LINE
  5
BC
330
1F
100
AcDbEntity
  8
PIEZA
370
     0
100
AcDbLine
 10
280.5083249872
 20
19.4061680209
 30
0.0
 11
281.9769055659
 21
19.4061680209
 31
0.0
  0
LINE
  5
BD
330
1F
100
AcDbEntity
  8
PIEZA
370
     0
100
AcDbLine
 10
281.9769055659
 20
19.4061680209
 30
0.0
 11
282.6001237503
 21
19.4061680209
 31
0.0
  0
LINE
  5
BE
330
1F
100
AcDbEntity
  8
PIEZA
370
     0
100
AcDbLine
 10
282.6001237503
 20
19.4061680209
 30
0.0
 11
277.2597000778
 21
16.4690714592
 31
0.0
  0
LINE
  5
BF
330
1F
100
AcDbEntity
  8
PIEZA
370
     0
100
AcDbLine
 10
277.2597000778
 20
16.4690714592
 30
0.0
 11
282.9559000723
 21
13.3095077098
 31
0.0
  0
LINE
  5
C0
330
1F
100
AcDbEntity
  8
PIEZA
370
     0
100
AcDbLine
 10
282.9559000723
 20
13.3095077098
 30
0.0
 11
280.7307114305
 21
13.3095077098
 31
0.0
  0
LINE
  5
C1
330
1F
100
AcDbEntity
  8
PIEZA
370
     0
100
AcDbLine
 10
280.7307114305
 20
13.3095077098
 30
0.0
 11
276.013570538
 21
16.0242339772
 31
0.0
  0
LINE
  5
C2
330
1F
100
AcDbEntity
  8
PIEZA
370
     0
100
AcDbLine
 10
276.013570538
 20
16.0242339772
 30
0.0
 11
274.990198866
 21
16.0242339772
 31
0.0
  0
LINE
  5
C3
330
1F
100
AcDbEntity
  8
PIEZA
370
     0
100
AcDbLine
 10
274.990198866
 20
16.0242339772
 30
0.0
 11
274.990198866
 21
13.3095077098
 31
0.0
  0
LINE
  5
C4
330
1F
100
AcDbEntity
  8
PIEZA
370
     0
100
AcDbLine
 10
274.990198866
 20
13.3095077098
 30
0.0
 11
273.8330658906
 21
13.3095077098
 31
0.0
  0
LINE
  5
C5
330
1F
100
AcDbEntity
  8
PIEZA
370
     0
100
AcDbLine
 10
273.8330658906
 20
13.3095077098
 30
0.0
 11
273.8330658906
 21
19.4061680209
 31
0.0
  0
LINE
  5
C6
330
1F
100
AcDbEntity
  8
PIEZA
370
     0
100
AcDbLine
 10
273.8330658906
 20
19.4061680209
 30
0.0
 11
274.990198866
 21
19.4061680209
 31
0.0
  0
LINE
  5
C7
330
1F
100
AcDbEntity
  8
PIEZA
370
     0
100
AcDbLine
 10
274.990198866
 20
19.4061680209
 30
0.0
 11
274.990198866
 21
16.9142319192
 31
0.0
  0
LINE
  5
C8
330
1F
100
AcDbEntity
  8
PIEZA
370
     0
100
AcDbLine
 10
300.4456386259
 20
17.4927499602
 30
0.0
 11
300.4456386259
 21
17.6708076847
 31
0.0
  0
LINE
  5
C9
330
1F
100
AcDbEntity
  8
PIEZA
370
     0
100
AcDbLine
 10
297.9533472485
 20
18.5162023767
 30
0.0
 11
297.6418996453
 21
18.5162023767
 31
0.0
  0
LINE
  5
CA
330
1F
100
AcDbEntity
  8
PIEZA
370
     0
100
AcDbLine
 10
296.796246571
 20
16.8695317758
 30
0.0
 11
298.3982170285
 21
16.9142319192
 31
0.0
  0
LINE
  5
CB
330
1F
100
AcDbEntity
  8
PIEZA
370
     0
100
AcDbLine
 10
298.1758144363
 20
13.2650013532
 30
0.0
 11
297.6418996454
 21
13.2650013532
 31
0.0
  0
LINE
  5
CC
330
1F
100
AcDbEntity
  8
PIEZA
370
     0
100
AcDbLine
 10
293.6810599872
 20
15.2675613184
 30
0.0
 11
293.6810599872
 21
15.4456190428
 31
0.0
  0
LINE
  5
CD
330
1F
100
AcDbEntity
  8
PIEZA
370
     0
100
AcDbLine
 10
293.6810599872
 20
15.4456190428
 30
0.0
 11
294.8381929626
 21
15.4456190428
 31
0.0
  0
LINE
  5
CE
330
1F
100
AcDbEntity
  8
PIEZA
370
     0
100
AcDbLine
 10
294.8381929626
 20
15.4456190428
 30
0.0
 11
294.8381929626
 21
15.178548605
 31
0.0
  0
LINE
  5
CF
330
1F
100
AcDbEntity
  8
PIEZA
370
     0
100
AcDbLine
 10
299.2438701029
 20
15.8905534182
 30
0.0
 11
297.6862768109
 21
15.9351566683
 31
0.0
  0
LINE
  5
D0
330
1F
100
AcDbEntity
  8
PIEZA
370
     0
100
AcDbLine
 10
301.6027716014
 20
17.6708076846
 30
0.0
 11
301.6027716014
 21
17.4927499602
 31
0.0
  0
LINE
  5
D1
330
1F
100
AcDbEntity
  8
PIEZA
370
     0
100
AcDbLine
 10
301.6027716014
 20
17.4927499602
 30
0.0
 11
300.4456386259
 21
17.4927499602
 31
0.0
  0
LINE
  5
D2
330
1F
100
AcDbEntity
  8
PIEZA
370
     0
100
AcDbLine
 10
331.3749403842
 20
13.3095077098
 30
0.0
 11
329.7726469488
 21
13.3095077098
 31
0.0
  0
LINE
  5
D3
330
1F
100
AcDbEntity
  8
PIEZA
370
     0
100
AcDbLine
 10
329.7726469488
 20
13.3095077098
 30
0.0
 11
329.7726469488
 21
15.7570989438
 31
0.0
  0
LINE
  5
D4
330
1F
100
AcDbEntity
  8
PIEZA
370
     0
100
AcDbLine
 10
329.7726469488
 20
15.7570989438
 30
0.0
 11
327.5474906047
 21
15.7570989438
 31
0.0
  0
LINE
  5
D5
330
1F
100
AcDbEntity
  8
PIEZA
370
     0
100
AcDbLine
 10
327.5474906047
 20
15.7570989438
 30
0.0
 11
327.5474906047
 21
16.5580841726
 31
0.0
  0
LINE
  5
D6
330
1F
100
AcDbEntity
  8
PIEZA
370
     0
100
AcDbLine
 10
327.5474906047
 20
16.5580841726
 30
0.0
 11
333.5998383459
 21
16.5580841726
 31
0.0
  0
LINE
  5
D7
330
1F
100
AcDbEntity
  8
PIEZA
370
     0
100
AcDbLine
 10
333.5998383459
 20
16.5580841726
 30
0.0
 11
333.5998383459
 21
15.7570989438
 31
0.0
  0
LINE
  5
D8
330
1F
100
AcDbEntity
  8
PIEZA
370
     0
100
AcDbLine
 10
333.5998383459
 20
15.7570989438
 30
0.0
 11
331.3749403842
 21
15.7570989438
 31
0.0
  0
LINE
  5
D9
330
1F
100
AcDbEntity
  8
PIEZA
370
     0
100
AcDbLine
 10
331.3749403842
 20
15.7570989438
 30
0.0
 11
331.3749403842
 21
13.3095077098
 31
0.0
  0
LINE
  5
DA
330
1F
100
AcDbEntity
  8
PIEZA
370
     0
100
AcDbLine
 10
321.8512583124
 20
13.3095077098
 30
0.0
 11
320.249287855
 21
13.3095077098
 31
0.0
  0
LINE
  5
DB
330
1F
100
AcDbEntity
  8
PIEZA
370
     0
100
AcDbLine
 10
320.249287855
 20
13.3095077098
 30
0.0
 11
320.249287855
 21
16.5580841726
 31
0.0
  0
LINE
  5
DC
330
1F
100
AcDbEntity
  8
PIEZA
370
     0
100
AcDbLine
 10
320.249287855
 20
16.5580841726
 30
0.0
 11
321.8512583124
 21
16.5580841726
 31
0.0
  0
LINE
  5
DD
330
1F
100
AcDbEntity
  8
PIEZA
370
     0
100
AcDbLine
 10
321.8512583124
 20
16.5580841726
 30
0.0
 11
321.8512583124
 21
15.3566386273
 31
0.0
  0
LINE
  5
DE
330
1F
100
AcDbEntity
  8
PIEZA
370
     0
100
AcDbLine
 10
321.8512583124
 20
15.3566386273
 30
0.0
 11
325.188912084
 21
15.3566386273
 31
0.0
  0
LINE
  5
DF
330
1F
100
AcDbEntity
  8
PIEZA
370
     0
100
AcDbLine
 10
325.188912084
 20
15.3566386273
 30
0.0
 11
325.188912084
 21
16.5580841726
 31
0.0
  0
LINE
  5
E0
330
1F
100
AcDbEntity
  8
PIEZA
370
     0
100
AcDbLine
 10
325.188912084
 20
16.5580841726
 30
0.0
 11
326.7911732216
 21
16.5580841726
 31
0.0
  0
LINE
  5
E1
330
1F
100
AcDbEntity
  8
PIEZA
370
     0
100
AcDbLine
 10
326.7911732216
 20
16.5580841726
 30
0.0
 11
326.7911732216
 21
13.3095077098
 31
0.0
  0
LINE
  5
E2
330
1F
100
AcDbEntity
  8
PIEZA
370
     0
100
AcDbLine
 10
326.7911732216
 20
13.3095077098
 30
0.0
 11
325.188912084
 21
13.3095077098
 31
0.0
  0
LINE
  5
E3
330
1F
100
AcDbEntity
  8
PIEZA
370
     0
100
AcDbLine
 10
325.188912084
 20
13.3095077098
 30
0.0
 11
325.188912084
 21
14.5999982662
 31
0.0
  0
LINE
  5
E4
330
1F
100
AcDbEntity
  8
PIEZA
370
     0
100
AcDbLine
 10
325.188912084
 20
14.5999982662
 30
0.0
 11
321.8512583124
 21
14.5999982662
 31
0.0
  0
LINE
  5
E5
330
1F
100
AcDbEntity
  8
PIEZA
370
     0
100
AcDbLine
 10
321.8512583124
 20
14.5999982662
 30
0.0
 11
321.8512583124
 21
13.3095077098
 31
0.0
  0
LINE
  5
E6
330
1F
100
AcDbEntity
  8
PIEZA
370
     0
100
AcDbLine
 10
317.5789710509
 20
15.5346963517
 30
0.0
 11
317.5789710509
 21
15.5790089216
 31
0.0
  0
LINE
  5
E7
330
1F
100
AcDbEntity
  8
PIEZA
370
     0
100
AcDbLine
 10
316.3327930644
 20
15.8014761093
 30
0.0
 11
315.3984179569
 21
15.8014761093
 31
0.0
  0
LINE
  5
E8
330
1F
100
AcDbEntity
  8
PIEZA
370
     0
100
AcDbLine
 10
314.1076044225
 20
15.1341714395
 30
0.0
 11
314.1076044225
 21
14.6890109796
 31
0.0
  0
LINE
  5
E9
330
1F
100
AcDbEntity
  8
PIEZA
370
     0
100
AcDbLine
 10
315.3984179569
 20
14.065986582
 30
0.0
 11
316.3327930644
 21
14.065986582
 31
0.0
  0
LINE
  5
EA
330
1F
100
AcDbEntity
  8
PIEZA
370
     0
100
AcDbLine
 10
317.5789710509
 20
14.5999982663
 30
0.0
 11
315.6655529902
 21
14.5999982663
 31
0.0
  0
LINE
  5
EB
330
1F
100
AcDbEntity
  8
PIEZA
370
     0
100
AcDbLine
 10
315.6655529902
 20
14.5999982663
 30
0.0
 11
315.6655529902
 21
15.0451587263
 31
0.0
  0
LINE
  5
EC
330
1F
100
AcDbEntity
  8
PIEZA
370
     0
100
AcDbLine
 10
315.6655529902
 20
15.0451587263
 30
0.0
 11
319.2702449018
 21
15.0451587263
 31
0.0
  0
LINE
  5
ED
330
1F
100
AcDbEntity
  8
PIEZA
370
     0
100
AcDbLine
 10
319.2702449018
 20
15.0451587263
 30
0.0
 11
319.2702449018
 21
14.1104929385
 31
0.0
  0
LINE
  5
EE
330
1F
100
AcDbEntity
  8
PIEZA
370
     0
100
AcDbLine
 10
316.7779858222
 20
13.2650013531
 30
0.0
 11
314.9532574969
 21
13.2650013531
 31
0.0
  0
LINE
  5
EF
330
1F
100
AcDbEntity
  8
PIEZA
370
     0
100
AcDbLine
 10
312.4613213952
 20
14.4665760896
 30
0.0
 11
312.4613213952
 21
15.3566386273
 31
0.0
  0
LINE
  5
F0
330
1F
100
AcDbEntity
  8
PIEZA
370
     0
100
AcDbLine
 10
314.9532574969
 20
16.6027520182
 30
0.0
 11
316.7779858222
 21
16.6027520182
 31
0.0
  0
LINE
  5
F1
330
1F
100
AcDbEntity
  8
PIEZA
370
     0
100
AcDbLine
 10
319.1809415084
 20
15.5346963517
 30
0.0
 11
317.5789710509
 21
15.5346963517
 31
0.0
  0
LINE
  5
F2
330
1F
100
AcDbEntity
  8
PIEZA
370
     0
100
AcDbLine
 10
311.3932011331
 20
13.3095077098
 30
0.0
 11
309.7909722933
 21
13.3095077098
 31
0.0
  0
LINE
  5
F3
330
1F
100
AcDbEntity
  8
PIEZA
370
     0
100
AcDbLine
 10
309.7909722933
 20
13.3095077098
 30
0.0
 11
309.7909722933
 21
16.5580841726
 31
0.0
  0
LINE
  5
F4
330
1F
100
AcDbEntity
  8
PIEZA
370
     0
100
AcDbLine
 10
309.7909722933
 20
16.5580841726
 30
0.0
 11
311.3932011331
 21
16.5580841726
 31
0.0
  0
LINE
  5
F5
330
1F
100
AcDbEntity
  8
PIEZA
370
     0
100
AcDbLine
 10
311.3932011331
 20
16.5580841726
 30
0.0
 11
311.3932011331
 21
13.3095077098
 31
0.0
  0
LINE
  5
F6
330
1F
100
AcDbEntity
  8
PIEZA
370
     0
100
AcDbLine
 10
305.5189111164
 20
14.1104929386
 30
0.0
 11
309.0789997779
 21
14.1104929386
 31
0.0
  0
LINE
  5
F7
330
1F
100
AcDbEntity
  8
PIEZA
370
     0
100
AcDbLine
 10
309.0789997779
 20
14.1104929386
 30
0.0
 11
309.0789997779
 21
13.3095077098
 31
0.0
  0
LINE
  5
F8
330
1F
100
AcDbEntity
  8
PIEZA
370
     0
100
AcDbLine
 10
309.0789997779
 20
13.3095077098
 30
0.0
 11
303.9167145744
 21
13.3095077098
 31
0.0
  0
LINE
  5
F9
330
1F
100
AcDbEntity
  8
PIEZA
370
     0
100
AcDbLine
 10
303.9167145744
 20
13.3095077098
 30
0.0
 11
303.9167145744
 21
16.5580841726
 31
0.0
  0
LINE
  5
FA
330
1F
100
AcDbEntity
  8
PIEZA
370
     0
100
AcDbLine
 10
303.9167145744
 20
16.5580841726
 30
0.0
 11
305.5189111164
 21
16.5580841726
 31
0.0
  0
LINE
  5
FB
330
1F
100
AcDbEntity
  8
PIEZA
370
     0
100
AcDbLine
 10
305.5189111164
 20
16.5580841726
 30
0.0
 11
305.5189111164
 21
14.1104929386
 31
0.0
  0
LINE
  5
FC
330
1F
100
AcDbEntity
  8
PIEZA
370
     0
100
AcDbLine
 10
334.0602110657
 20
18.9397879119
 30
0.0
 11
334.0602110657
 21
20.4036853108
 31
0.0
  0
LINE
  5
FD
330
1F
100
AcDbEntity
  8
PIEZA
370
     0
100
AcDbLine
 10
334.0602110657
 20
20.4036853108
 30
0.0
 11
334.6827186987
 21
20.4036853108
 31
0.0
  0
LINE
  5
FE
330
1F
100
AcDbEntity
  8
PIEZA
370
     0
100
AcDbLine
 10
335.1981914507
 20
19.225397282
 30
0.0
 11
335.3768628332
 21
18.9397879119
 31
0.0
  0
LINE
  5
FF
330
1F
100
AcDbEntity
  8
PIEZA
370
     0
100
AcDbLine
 10
335.3768628332
 20
18.9397879119
 30
0.0
 11
335.0235249944
 21
18.9397879119
 31
0.0
  0
LINE
  5
100
330
1F
100
AcDbEntity
  8
PIEZA
370
     0
100
AcDbLine
 10
335.0235249944
 20
18.9397879119
 30
0.0
 11
334.8115868867
 21
19.2593099631
 31
0.0
  0
LINE
  5
101
330
1F
100
AcDbEntity
  8
PIEZA
370
     0
100
AcDbLine
 10
334.4167786836
 20
19.5510882113
 30
0.0
 11
334.3566724937
 21
19.5510882113
 31
0.0
  0
LINE
  5
102
330
1F
100
AcDbEntity
  8
PIEZA
370
     0
100
AcDbLine
 10
334.3566724937
 20
19.5510882113
 30
0.0
 11
334.3566724937
 21
18.9397879119
 31
0.0
  0
LINE
  5
103
330
1F
100
AcDbEntity
  8
PIEZA
370
     0
100
AcDbLine
 10
334.3566724937
 20
18.9397879119
 30
0.0
 11
334.0602110657
 21
18.9397879119
 31
0.0
  0
LINE
  5
104
330
1F
100
AcDbEntity
  8
PIEZA
370
     0
100
AcDbLine
 10
334.3566724937
 20
19.7841813724
 30
0.0
 11
334.5752962442
 21
19.7841813724
 31
0.0
  0
LINE
  5
105
330
1F
100
AcDbEntity
  8
PIEZA
370
     0
100
AcDbLine
 10
334.5872787248
 20
20.1562842281
 30
0.0
 11
334.3566724937
 21
20.1562842281
 31
0.0
  0
LINE
  5
106
330
1F
100
AcDbEntity
  8
PIEZA
370
     0
100
AcDbLine
 10
334.3566724937
 20
20.1562842281
 30
0.0
 11
334.3566724937
 21
19.7841813724
 31
0.0
  0
LINE
  5
107
330
1F
100
AcDbEntity
  8
1
100
AcDbLine
 10
219.6175124079
 20
141.5329748475
 30
0.0
 11
212.3375041305
 21
145.1972008025
 31
0.0
  0
LINE
  5
108
330
1F
100
AcDbEntity
  8
1
100
AcDbLine
 10
212.361004221
 20
143.8419414895
 30
0.0
 11
219.035114278
 21
140.4826805703
 31
0.0
  0
LINE
  5
109
330
1F
100
AcDbEntity
  8
1
100
AcDbLine
 10
209.6272149289
 20
149.6960355106
 30
0.0
 11
208.5041804517
 21
150.2612892744
 31
0.0
  0
LINE
  5
10A
330
1F
100
AcDbEntity
  8
1
100
AcDbLine
 10
225.0379485216
 20
135.6988739223
 30
0.0
 11
225.1833914077
 21
135.9612598344
 31
0.0
  0
LINE
  5
10B
330
1F
100
AcDbEntity
  8
1
100
AcDbLine
 10
226.504100974
 20
141.2889551272
 30
0.0
 11
226.3586580879
 21
141.0265692151
 31
0.0
  0
LINE
  5
10C
330
1F
100
AcDbEntity
  8
1
100
AcDbLine
 10
145.189516839
 20
148.0201300834
 30
0.0
 11
136.9595765195
 21
143.1573678391
 31
0.0
  0
LINE
  5
10D
330
1F
100
AcDbEntity
  8
1
100
AcDbLine
 10
137.541619949
 20
142.1074567555
 30
0.0
 11
145.1649632396
 21
146.6118036267
 31
0.0
  0
LINE
  5
10E
330
1F
100
AcDbEntity
  8
1
100
AcDbLine
 10
185.268201925
 20
160.3652974279
 30
0.0
 11
184.9989505362
 21
168.0756483937
 31
0.0
  0
LINE
  5
10F
330
1F
100
AcDbEntity
  8
1
100
AcDbLine
 10
172.4787293049
 20
168.0756483937
 30
0.0
 11
172.2094779161
 21
160.3652974279
 31
0.0
  0
LINE
  5
110
330
1F
100
AcDbEntity
  8
1
100
AcDbLine
 10
148.3899723974
 20
148.6241532067
 30
0.0
 11
149.5130068746
 21
149.1894069706
 31
0.0
  0
LINE
  5
111
330
1F
100
AcDbEntity
  8
1
100
AcDbLine
 10
148.9734993894
 20
150.2612892744
 30
0.0
 11
147.8504649121
 21
149.6960355106
 31
0.0
  0
LINE
  5
112
330
1F
100
AcDbEntity
  8
1
100
AcDbLine
 10
138.4425655631
 20
140.4826805703
 30
0.0
 11
145.11667562
 21
143.8419414895
 31
0.0
  0
LINE
  5
113
330
1F
100
AcDbEntity
  8
1
100
AcDbLine
 10
145.1401757105
 20
145.1972008025
 30
0.0
 11
137.8601674332
 21
141.5329748475
 31
0.0
  0
LINE
  5
114
330
1F
100
AcDbEntity
  8
1
100
AcDbLine
 10
210.0885274955
 20
147.9259933278
 30
0.0
 11
219.9360598921
 21
142.1074567555
 31
0.0
  0
LINE
  5
115
330
1F
100
AcDbEntity
  8
1
100
AcDbLine
 10
220.5181033216
 20
143.1573678391
 30
0.0
 11
210.6989669118
 21
148.9591262907
 31
0.0
  0
LINE
  5
116
330
1F
100
AcDbEntity
  8
COTAS
100
AcDbLine
 10
78.7388399205
 20
190.2651785447
 30
0.0
 11
78.7388399205
 21
197.2651785447
 31
0.0
  0
LINE
  5
117
330
1F
100
AcDbEntity
  8
1
100
AcDbLine
 10
219.7173212738
 20
114.7651785447
 30
0.0
 11
178.7388399205
 21
114.7651785447
 31
0.0
  0
LINE
  5
118
330
1F
100
AcDbEntity
  8
1
100
AcDbLine
 10
178.7388399205
 20
114.7651785447
 30
0.0
 11
137.7603585672
 21
114.7651785447
 31
0.0
  0
LINE
  5
119
330
1F
100
AcDbEntity
  8
1
100
AcDbLine
 10
155.2388399205
 20
154.5651785447
 30
0.0
 11
178.7388399205
 21
154.5651785447
 31
0.0
  0
LINE
  5
11A
330
1F
100
AcDbEntity
  8
1
100
AcDbLine
 10
137.2428273383
 20
116.2651785447
 30
0.0
 11
178.7388399205
 21
116.2651785447
 31
0.0
  0
LINE
  5
11B
330
1F
100
AcDbEntity
  8
1
100
AcDbLine
 10
155.2388399205
 20
154.5651785447
 30
0.0
 11
147.6747990943
 21
126.9651785447
 31
0.0
  0
LINE
  5
11C
330
1F
100
AcDbEntity
  8
1
100
AcDbLine
 10
144.7966617422
 20
125.4913571543
 30
0.0
 11
144.6356181955
 21
116.2651785447
 31
0.0
  0
LINE
  5
11D
330
1F
100
AcDbEntity
  8
1
100
AcDbLine
 10
137.2428273383
 20
116.2651785447
 30
0.0
 11
137.2604347197
 21
115.2564523415
 31
0.0
  0
LINE
  5
11E
330
1F
100
AcDbEntity
  8
COTAS
100
AcDbLine
 10
213.7388399205
 20
116.2651785447
 30
0.0
 11
278.7388399205
 21
116.2651785447
 31
0.0
  0
LINE
  5
11F
330
1F
100
AcDbEntity
  8
COTAS
100
AcDbLine
 10
278.7388399205
 20
123.2651785447
 30
0.0
 11
213.7388399205
 21
123.2651785447
 31
0.0
  0
LINE
  5
120
330
1F
100
AcDbEntity
  8
COTAS
100
AcDbLine
 10
143.7388399205
 20
116.2651785447
 30
0.0
 11
78.7388399205
 21
116.2651785447
 31
0.0
  0
LINE
  5
121
330
1F
100
AcDbEntity
  8
COTAS
100
AcDbLine
 10
78.7388399205
 20
116.2651785447
 30
0.0
 11
78.7388399205
 21
123.2651785447
 31
0.0
  0
LINE
  5
122
330
1F
100
AcDbEntity
  8
COTAS
100
AcDbLine
 10
143.7388399205
 20
116.2651785447
 30
0.0
 11
143.7388399205
 21
123.2651785447
 31
0.0
  0
LINE
  5
123
330
1F
100
AcDbEntity
  8
1
100
AcDbLine
 10
245.9181058753
 20
124.4678199257
 30
0.0
 11
247.7751782992
 21
123.438427872
 31
0.0
  0
LINE
  5
124
330
1F
100
AcDbEntity
  8
1
100
AcDbLine
 10
250.1992264005
 20
127.8115264077
 30
0.0
 11
248.3421539766
 21
128.8409184614
 31
0.0
  0
LINE
  5
125
330
1F
100
AcDbEntity
  8
1
100
AcDbLine
 10
245.9181058753
 20
124.4678199257
 30
0.0
 11
248.3421539766
 21
128.8409184614
 31
0.0
  0
LINE
  5
126
330
1F
100
AcDbEntity
  8
1
100
AcDbLine
 10
210.9787691782
 20
126.9651785447
 30
0.0
 11
211.3318172423
 21
147.1912885893
 31
0.0
  0
LINE
  5
127
330
1F
100
AcDbEntity
  8
1
100
AcDbLine
 10
211.3558980011
 20
148.570874329
 30
0.0
 11
211.4152371914
 21
151.9704142668
 31
0.0
  0
LINE
  5
128
330
1F
100
AcDbEntity
  8
1
100
AcDbLine
 10
202.3210577556
 20
154.2651785447
 30
0.0
 11
209.2306773889
 21
154.2651785447
 31
0.0
  0
LINE
  5
129
330
1F
100
AcDbEntity
  8
1
100
AcDbLine
 10
212.2302204745
 20
151.3175357641
 30
0.0
 11
212.2877746525
 21
148.0202591169
 31
0.0
  0
LINE
  5
12A
330
1F
100
AcDbEntity
  8
1
100
AcDbLine
 10
212.3123572103
 20
146.6119253145
 30
0.0
 11
212.6810180988
 21
125.4913571543
 31
0.0
  0
LINE
  5
12B
330
1F
100
AcDbEntity
  8
1
100
AcDbLine
 10
145.6393214901
 20
152.2651785447
 30
0.0
 11
145.7624883412
 21
152.2651785447
 31
0.0
  0
LINE
  5
12C
330
1F
100
AcDbEntity
  8
1
100
AcDbLine
 10
146.0624426498
 20
151.9704142666
 30
0.0
 11
146.4989106628
 21
126.9651785447
 31
0.0
  0
LINE
  5
12D
330
1F
100
AcDbEntity
  8
1
100
AcDbLine
 10
178.7388399205
 20
168.3651785447
 30
0.0
 11
184.6991331732
 21
168.3651785447
 31
0.0
  0
LINE
  5
12E
330
1F
100
AcDbEntity
  8
1
100
AcDbLine
 10
172.778546553
 20
168.3651785447
 30
0.0
 11
178.7388399205
 21
168.3651785447
 31
0.0
  0
LINE
  5
12F
330
1F
100
AcDbEntity
  8
1
100
AcDbLine
 10
155.7380711699
 20
160.3651785447
 30
0.0
 11
201.7396086711
 21
160.3651785447
 31
0.0
  0
LINE
  5
130
330
1F
100
AcDbEntity
  8
1
100
AcDbLine
 10
202.2318557666
 20
154.5651785447
 30
0.0
 11
202.0394259192
 21
160.0756483937
 31
0.0
  0
LINE
  5
131
330
1F
100
AcDbEntity
  8
1
100
AcDbLine
 10
155.2458240744
 20
154.5651785447
 30
0.0
 11
155.4382539218
 21
160.0756483937
 31
0.0
  0
LINE
  5
132
330
1F
100
AcDbEntity
  8
1
100
AcDbLine
 10
146.296433285
 20
126.9651785447
 30
0.0
 11
178.7388399205
 21
126.9651785447
 31
0.0
  0
LINE
  5
133
330
1F
100
AcDbEntity
  8
1
100
AcDbLine
 10
144.7966617422
 20
125.4913571543
 30
0.0
 11
145.2474593667
 21
151.317535764
 31
0.0
  0
LINE
  5
134
330
1F
100
AcDbEntity
  8
1
100
AcDbLine
 10
211.7151914999
 20
152.2651785448
 30
0.0
 11
211.8383583511
 21
152.2651785448
 31
0.0
  0
LINE
  5
135
330
1F
100
AcDbEntity
  8
1
100
AcDbLine
 10
148.2470024522
 20
154.2651785447
 30
0.0
 11
155.1566220854
 21
154.2651785447
 31
0.0
  0
LINE
  5
136
330
1F
100
AcDbEntity
  8
1
100
AcDbLine
 10
138.5735128016
 20
140.2467671599
 30
0.0
 11
136.8320386177
 21
143.3884697522
 31
0.0
  0
LINE
  5
137
330
1F
100
AcDbEntity
  8
1
100
AcDbLine
 10
135.8363099017
 20
137.9246343948
 30
0.0
 11
133.4122618004
 21
142.2977329305
 31
0.0
  0
LINE
  5
138
330
1F
100
AcDbEntity
  8
1
100
AcDbLine
 10
111.5595739657
 20
124.4678199257
 30
0.0
 11
109.1355258645
 21
128.8409184614
 31
0.0
  0
LINE
  5
139
330
1F
100
AcDbEntity
  8
1
100
AcDbLine
 10
135.8363099017
 20
137.9246343948
 30
0.0
 11
111.5595739657
 21
124.4678199257
 31
0.0
  0
LINE
  5
13A
330
1F
100
AcDbEntity
  8
1
100
AcDbLine
 10
109.1355258645
 20
128.8409184614
 30
0.0
 11
133.4122618004
 21
142.2977329305
 31
0.0
  0
LINE
  5
13B
330
1F
100
AcDbEntity
  8
1
100
AcDbLine
 10
133.4122618004
 20
142.2977329305
 30
0.0
 11
136.8320386177
 21
143.3884697522
 31
0.0
  0
LINE
  5
13C
330
1F
100
AcDbEntity
  8
1
100
AcDbLine
 10
138.5735128016
 20
140.2467671599
 30
0.0
 11
135.8363099017
 21
137.9246343948
 31
0.0
  0
LINE
  5
13D
330
1F
100
AcDbEntity
  8
1
100
AcDbLine
 10
111.5595739657
 20
124.4678199257
 30
0.0
 11
109.7025015418
 21
123.438427872
 31
0.0
  0
LINE
  5
13E
330
1F
100
AcDbEntity
  8
1
100
AcDbLine
 10
107.2784534406
 20
127.8115264077
 30
0.0
 11
109.1355258645
 21
128.8409184614
 31
0.0
  0
LINE
  5
13F
330
1F
100
AcDbEntity
  8
1
100
AcDbLine
 10
111.5595739657
 20
124.4678199257
 30
0.0
 11
109.1355258645
 21
128.8409184614
 31
0.0
  0
LINE
  5
140
330
1F
100
AcDbEntity
  8
COTAS
100
AcDbLine
 10
278.7388399205
 20
197.2651785447
 30
0.0
 11
78.7388399205
 21
197.2651785447
 31
0.0
  0
LINE
  5
141
330
1F
100
AcDbEntity
  8
COTAS
100
AcDbLine
 10
78.7388399205
 20
190.2651785447
 30
0.0
 11
278.7388399205
 21
190.2651785447
 31
0.0
  0
LINE
  5
142
330
1F
100
AcDbEntity
  8
1
100
AcDbLine
 10
226.5043652294
 20
141.2888086481
 30
0.0
 11
226.3589223433
 21
141.0264227359
 31
0.0
  0
LINE
  5
143
330
1F
100
AcDbEntity
  8
1
100
AcDbLine
 10
226.5080551662
 20
141.2867632827
 30
0.0
 11
226.3626122801
 21
141.0243773705
 31
0.0
  0
LINE
  5
144
330
1F
100
AcDbEntity
  8
1
100
AcDbLine
 10
225.0376842662
 20
135.6990204015
 30
0.0
 11
225.1831271523
 21
135.9614063136
 31
0.0
  0
LINE
  5
145
330
1F
100
AcDbEntity
  8
1
100
AcDbLine
 10
225.0339943294
 20
135.7010657668
 30
0.0
 11
225.1794372154
 21
135.963451679
 31
0.0
  0
LINE
  5
146
330
1F
100
AcDbEntity
  8
1
100
AcDbLine
 10
227.7410739358
 20
140.6032898181
 30
0.0
 11
227.741811896
 21
140.60288076
 31
0.0
  0
LINE
  5
147
330
1F
100
AcDbEntity
  8
1
100
AcDbLine
 10
227.741811896
 20
140.60288076
 30
0.0
 11
227.59636901
 21
140.3404948479
 31
0.0
  0
LINE
  5
148
330
1F
100
AcDbEntity
  8
1
100
AcDbLine
 10
227.7526181213
 20
140.5968907716
 30
0.0
 11
227.6071752352
 21
140.3345048595
 31
0.0
  0
LINE
  5
149
330
1F
100
AcDbEntity
  8
1
100
AcDbLine
 10
223.8009755415
 20
136.3845392416
 30
0.0
 11
223.8002375813
 21
136.3849482996
 31
0.0
  0
LINE
  5
14A
330
1F
100
AcDbEntity
  8
1
100
AcDbLine
 10
223.8002375813
 20
136.3849482996
 30
0.0
 11
223.9456804673
 21
136.6473342118
 31
0.0
  0
LINE
  5
14B
330
1F
100
AcDbEntity
  8
1
100
AcDbLine
 10
223.789431356
 20
136.3909382881
 30
0.0
 11
223.9348742421
 21
136.6533242002
 31
0.0
  0
LINE
  5
14C
330
1F
100
AcDbEntity
  8
1
100
AcDbLine
 10
221.6413699394
 20
137.9246343948
 30
0.0
 11
245.9181058753
 21
124.4678199257
 31
0.0
  0
LINE
  5
14D
330
1F
100
AcDbEntity
  8
1
100
AcDbLine
 10
248.3421539766
 20
128.8409184614
 30
0.0
 11
224.0654180406
 21
142.2977329305
 31
0.0
  0
LINE
  5
14E
330
1F
100
AcDbEntity
  8
1
100
AcDbLine
 10
226.521233512
 20
141.2794584063
 30
0.0
 11
226.3757906259
 21
141.0170724942
 31
0.0
  0
LINE
  5
14F
330
1F
100
AcDbEntity
  8
1
100
AcDbLine
 10
227.735749857
 20
140.6062410032
 30
0.0
 11
227.5903069709
 21
140.343855091
 31
0.0
  0
LINE
  5
150
330
1F
100
AcDbEntity
  8
1
100
AcDbLine
 10
225.0208159836
 20
135.7083706432
 30
0.0
 11
225.1662588697
 21
135.9707565553
 31
0.0
  0
LINE
  5
151
330
1F
100
AcDbEntity
  8
1
100
AcDbLine
 10
223.8062996386
 20
136.3815880464
 30
0.0
 11
223.9517425247
 21
136.6439739585
 31
0.0
  0
LINE
  5
152
330
1F
100
AcDbEntity
  8
1
100
AcDbLine
 10
226.521233512
 20
141.2794584063
 30
0.0
 11
227.735749857
 21
140.6062410032
 31
0.0
  0
LINE
  5
153
330
1F
100
AcDbEntity
  8
1
100
AcDbLine
 10
225.0208159836
 20
135.7083706432
 30
0.0
 11
223.8062996386
 21
136.3815880464
 31
0.0
  0
LINE
  5
154
330
1F
100
AcDbEntity
  8
1
100
AcDbLine
 10
245.9181058753
 20
124.4678199257
 30
0.0
 11
248.3421539766
 21
128.8409184614
 31
0.0
  0
LINE
  5
155
330
1F
100
AcDbEntity
  8
1
100
AcDbLine
 10
218.9041670395
 20
140.2467671599
 30
0.0
 11
220.6456412233
 21
143.3884697522
 31
0.0
  0
LINE
  5
156
330
1F
100
AcDbEntity
  8
1
100
AcDbLine
 10
224.0654180406
 20
142.2977329305
 30
0.0
 11
221.6413699394
 21
137.9246343948
 31
0.0
  0
LINE
  5
157
330
1F
100
AcDbEntity
  8
1
100
AcDbLine
 10
224.0654180406
 20
142.2977329305
 30
0.0
 11
220.6456412233
 21
143.3884697522
 31
0.0
  0
LINE
  5
158
330
1F
100
AcDbEntity
  8
1
100
AcDbLine
 10
218.9041670395
 20
140.2467671599
 30
0.0
 11
221.6413699394
 21
137.9246343948
 31
0.0
  0
LINE
  5
159
330
1F
100
AcDbEntity
  8
1
100
AcDbLine
 10
211.1812465561
 20
126.9651785447
 30
0.0
 11
178.7388399205
 21
126.9651785447
 31
0.0
  0
LINE
  5
15A
330
1F
100
AcDbEntity
  8
1
100
AcDbLine
 10
202.2388399205
 20
154.5651785447
 30
0.0
 11
209.8028807468
 21
126.9651785447
 31
0.0
  0
LINE
  5
15B
330
1F
100
AcDbEntity
  8
1
100
AcDbLine
 10
212.6810180988
 20
125.4913571543
 30
0.0
 11
212.8420616455
 21
116.2651785447
 31
0.0
  0
LINE
  5
15C
330
1F
100
AcDbEntity
  8
1
100
AcDbLine
 10
220.2348525028
 20
116.2651785447
 30
0.0
 11
220.2172451214
 21
115.2564523415
 31
0.0
  0
LINE
  5
15D
330
1F
100
AcDbEntity
  8
1
100
AcDbLine
 10
202.2388399205
 20
154.5651785447
 30
0.0
 11
178.7388399205
 21
154.5651785447
 31
0.0
  0
LINE
  5
15E
330
1F
100
AcDbEntity
  8
1
100
AcDbLine
 10
220.2348525028
 20
116.2651785447
 30
0.0
 11
178.7388399205
 21
116.2651785447
 31
0.0
  0
LINE
  5
15F
330
1F
100
AcDbEntity
  8
COTAS
100
AcDbLine
 10
78.7388399205
 20
123.2651785447
 30
0.0
 11
143.7388399205
 21
123.2651785447
 31
0.0
  0
LINE
  5
160
330
1F
100
AcDbEntity
  8
COTAS
100
AcDbLine
 10
278.7388399205
 20
190.2651785447
 30
0.0
 11
278.7388399205
 21
197.2651785447
 31
0.0
  0
LINE
  5
161
330
1F
100
AcDbEntity
  8
COTAS
100
AcDbLine
 10
213.7388399205
 20
116.2651785447
 30
0.0
 11
213.7388399205
 21
123.2651785447
 31
0.0
  0
LINE
  5
162
330
1F
100
AcDbEntity
  8
COTAS
100
AcDbLine
 10
278.7388399205
 20
116.2651785447
 30
0.0
 11
278.7388399205
 21
123.2651785447
 31
0.0
  0
LINE
  5
163
330
1F
100
AcDbEntity
  8
1
100
AcDbLine
 10
220.2348525028
 20
521.6346928817
 30
0.0
 11
220.2348525028
 21
306.6346928817
 31
0.0
  0
LINE
  5
164
330
1F
100
AcDbEntity
  8
1
100
AcDbLine
 10
210.7819811781
 20
521.6346928817
 30
0.0
 11
210.7819811781
 21
306.6346928817
 31
0.0
  0
LINE
  5
165
330
1F
100
AcDbEntity
  8
1
100
AcDbLine
 10
137.2428273383
 20
306.6346928817
 30
0.0
 11
137.2428273383
 21
521.6346928817
 31
0.0
  0
LINE
  5
166
330
1F
100
AcDbEntity
  8
1
100
AcDbLine
 10
146.695698663
 20
306.6346928817
 30
0.0
 11
146.695698663
 21
521.6346928817
 31
0.0
  0
LINE
  5
167
330
1F
100
AcDbEntity
  8
1
100
AcDbLine
 10
149.5126270828
 20
149.1892159917
 30
0.0
 11
149.5848431768
 21
149.2256259892
 31
0.0
  0
LINE
  5
168
330
1F
100
AcDbEntity
  8
1
100
AcDbLine
 10
149.0599316038
 20
150.3047311002
 30
0.0
 11
148.9738791812
 21
150.2614802533
 31
0.0
  0
LINE
  5
169
330
1F
100
AcDbEntity
  8
COTAS
100
AcDbLine
 10
158.3271093773
 20
498.6424843454
 30
0.0
 11
171.9549990444
 21
512.2703740125
 31
0.0
  0
LINE
  5
16A
330
1F
100
AcDbEntity
  8
COTAS
100
AcDbLine
 10
188.2105959673
 20
510.1569127134
 30
0.0
 11
160.4405706764
 21
482.3868874225
 31
0.0
  0
LINE
  5
16B
330
1F
100
AcDbEntity
  8
COTAS
100
AcDbLine
 10
166.4062782457
 20
469.3501120415
 30
0.0
 11
201.2473713484
 21
504.1912051442
 31
0.0
  0
LINE
  5
16C
330
1F
100
AcDbEntity
  8
CAJETIN
100
AcDbLine
 10
137.1866863573
 20
22.2261836926
 30
0.0
 11
153.1062759217
 21
22.2261836926
 31
0.0
  0
LINE
  5
16D
330
1F
100
AcDbEntity
  8
CAJETIN
100
AcDbLine
 10
153.1062759217
 20
12.5713415428
 30
0.0
 11
139.462382506
 21
12.5713415428
 31
0.0
  0
LINE
  5
16E
330
1F
100
AcDbEntity
  8
CAJETIN
100
AcDbLine
 10
136.1599591722
 20
19.7646802919
 30
0.0
 11
137.3794332999
 21
20.880012001
 31
0.0
  0
LINE
  5
16F
330
1F
100
AcDbEntity
  8
CAJETIN
100
AcDbLine
 10
137.3794332999
 20
20.880012001
 30
0.0
 11
138.5989074276
 21
19.6605378733
 31
0.0
  0
LINE
  5
170
330
1F
100
AcDbEntity
  8
CAJETIN
100
AcDbLine
 10
138.5989074276
 20
19.6605378733
 30
0.0
 11
137.743931765
 21
18.442743462
 31
0.0
  0
LINE
  5
171
330
1F
100
AcDbEntity
  8
CAJETIN
100
AcDbLine
 10
137.743931765
 20
18.442743462
 30
0.0
 11
138.5989074276
 21
17.2232693344
 31
0.0
  0
LINE
  5
172
330
1F
100
AcDbEntity
  8
CAJETIN
100
AcDbLine
 10
138.5989074276
 20
17.2232693344
 30
0.0
 11
137.743931765
 21
16.0054749231
 31
0.0
  0
LINE
  5
173
330
1F
100
AcDbEntity
  8
CAJETIN
100
AcDbLine
 10
137.743931765
 20
16.0054749231
 30
0.0
 11
138.5989074276
 21
14.7860007954
 31
0.0
  0
LINE
  5
174
330
1F
100
AcDbEntity
  8
CAJETIN
100
AcDbLine
 10
138.5989074276
 20
14.7860007954
 30
0.0
 11
137.743931765
 21
13.5686263133
 31
0.0
  0
ARC
  5
175
330
1F
100
AcDbEntity
  8
COTAS
100
AcDbCircle
 10
108.4904774912
 20
125.6249771398
 30
0.0
 40
2.500000000000026
100
AcDbArc
 50
250.7205505509
 51
289.2794494491
  0
ARC
  5
176
330
1F
100
AcDbEntity
  8
COTAS
100
AcDbCircle
 10
248.9872023499
 20
125.6249771398
 30
0.0
 40
2.499999999999998
100
AcDbArc
 50
250.7205505509
 51
289.2794494491
  0
ARC
  5
177
330
1F
100
AcDbEntity
  8
1
100
AcDbCircle
 10
208.1552924508
 20
149.7651785447
 30
0.0
 40
1.500000000000002
100
AcDbArc
 50
270.0
 51
305.83125262
  0
ARC
  5
178
330
1F
100
AcDbEntity
  8
1
100
AcDbCircle
 10
208.1552924508
 20
149.7651785447
 30
0.0
 40
1.500000000000006
100
AcDbArc
 50
356.8275124659
 51
0.0000179747
  0
ARC
  5
179
330
1F
100
AcDbEntity
  8
1
100
AcDbCircle
 10
208.1552924508
 20
149.7651785447
 30
0.0
 40
1.5
100
AcDbArc
 50
0.0000179747
 51
270.0
  0
ARC
  5
17A
330
1F
100
AcDbEntity
  8
1
100
AcDbCircle
 10
172.778546553
 20
168.0651785447
 30
0.0
 40
0.2999999999999545
100
AcDbArc
 50
90.0
 51
178.0
  0
ARC
  5
17B
330
1F
100
AcDbEntity
  8
1
100
AcDbCircle
 10
184.6991332881
 20
168.0651785447
 30
0.0
 40
0.2999999999999765
100
AcDbArc
 50
2.0
 51
90.0000219432
  0
ARC
  5
17C
330
1F
100
AcDbEntity
  8
1
100
AcDbCircle
 10
248.9872023499
 20
125.6249771398
 30
0.0
 40
2.500000000000772
100
AcDbArc
 50
241.0
 51
61.0
  0
ARC
  5
17D
330
1F
100
AcDbEntity
  8
1
100
AcDbCircle
 10
208.1552924508
 20
149.7651785447
 30
0.0
 40
0.5999999999983231
100
AcDbArc
 50
61.4531543803
 51
90.0000125791
  0
ARC
  5
17E
330
1F
100
AcDbEntity
  8
1
100
AcDbCircle
 10
208.1552924508
 20
149.7651785447
 30
0.0
 40
0.5999999999979904
100
AcDbArc
 50
153.2826456938
 51
244.0349587521
  0
ARC
  5
17F
330
1F
100
AcDbEntity
  8
1
100
AcDbCircle
 10
208.1552924508
 20
149.7651785447
 30
0.0
 40
0.5999999999979904
100
AcDbArc
 50
90.0000125791
 51
153.2826456938
  0
ARC
  5
180
330
1F
100
AcDbEntity
  8
1
100
AcDbCircle
 10
209.2306773891
 20
151.2651785447
 30
0.0
 40
2.999999999937916
100
AcDbArc
 50
1.0000000001
 51
15.0261137604
  0
ARC
  5
181
330
1F
100
AcDbEntity
  8
1
100
AcDbCircle
 10
209.2306773891
 20
151.2651785447
 30
0.0
 40
2.999999999937897
100
AcDbArc
 50
15.0261137604
 51
90.000000005
  0
ARC
  5
182
330
1F
100
AcDbEntity
  8
1
100
AcDbCircle
 10
146.296433285
 20
125.4651785447
 30
0.0
 40
1.500000000000049
100
AcDbArc
 50
90.0
 51
179.0
  0
ARC
  5
183
330
1F
100
AcDbEntity
  8
1
100
AcDbCircle
 10
145.6393214901
 20
151.9651785447
 30
0.0
 40
0.2999999999996941
100
AcDbArc
 50
90.0
 51
164.9738862409
  0
ARC
  5
184
330
1F
100
AcDbEntity
  8
1
100
AcDbCircle
 10
145.7624883412
 20
151.9651785447
 30
0.0
 40
0.2999999999999545
100
AcDbArc
 50
1.0
 51
90.0
  0
ARC
  5
185
330
1F
100
AcDbEntity
  8
1
100
AcDbCircle
 10
149.3223873903
 20
149.7651785447
 30
0.0
 40
0.6000000000000117
100
AcDbArc
 50
295.9705798401
 51
26.7173543063
  0
ARC
  5
186
330
1F
100
AcDbEntity
  8
1
100
AcDbCircle
 10
149.3223873903
 20
149.7651785447
 30
0.0
 40
0.6000000000000095
100
AcDbArc
 50
26.7173543063
 51
118.5412894274
  0
ARC
  5
187
330
1F
100
AcDbEntity
  8
1
100
AcDbCircle
 10
201.7396086711
 20
160.0651785447
 30
0.0
 40
0.3000000000000675
100
AcDbArc
 50
2.0
 51
90.0
  0
ARC
  5
188
330
1F
100
AcDbEntity
  8
1
100
AcDbCircle
 10
155.7380711699
 20
160.0651785447
 30
0.0
 40
0.2999999999999545
100
AcDbArc
 50
90.0
 51
178.0
  0
ARC
  5
189
330
1F
100
AcDbEntity
  8
1
100
AcDbCircle
 10
211.1812465561
 20
125.4651785447
 30
0.0
 40
1.5
100
AcDbArc
 50
1.0
 51
90.0
  0
ARC
  5
18A
330
1F
100
AcDbEntity
  8
1
100
AcDbCircle
 10
219.7173212738
 20
115.2651785447
 30
0.0
 40
0.5
100
AcDbArc
 50
270.0
 51
359.0
  0
ARC
  5
18B
330
1F
100
AcDbEntity
  8
1
100
AcDbCircle
 10
149.3223873903
 20
149.7651785447
 30
0.0
 40
1.499999999998858
100
AcDbArc
 50
90.0
 51
179.9999812761
  0
ARC
  5
18C
330
1F
100
AcDbEntity
  8
1
100
AcDbCircle
 10
149.3223873903
 20
149.7651785447
 30
0.0
 40
1.499999999999072
100
AcDbArc
 50
179.9999812761
 51
185.7768840428
  0
ARC
  5
18D
330
1F
100
AcDbEntity
  8
1
100
AcDbCircle
 10
149.3223873903
 20
149.7651785447
 30
0.0
 40
1.50000000000068
100
AcDbArc
 50
230.2649941866
 51
90.0
  0
ARC
  5
18E
330
1F
100
AcDbEntity
  8
1
100
AcDbCircle
 10
211.8383583511
 20
151.9651785448
 30
0.0
 40
0.3000000000590202
100
AcDbArc
 50
15.0261137592
 51
90.0
  0
ARC
  5
18F
330
1F
100
AcDbEntity
  8
1
100
AcDbCircle
 10
211.7151914999
 20
151.9651785448
 30
0.0
 40
0.2999999999999407
100
AcDbArc
 50
90.0
 51
179.0
  0
ARC
  5
190
330
1F
100
AcDbEntity
  8
1
100
AcDbCircle
 10
148.2470024522
 20
151.2651785447
 30
0.0
 40
2.999999999999928
100
AcDbArc
 50
89.9999999998
 51
164.9738862409
  0
ARC
  5
191
330
1F
100
AcDbEntity
  8
1
100
AcDbCircle
 10
148.2470024522
 20
151.2651785447
 30
0.0
 40
3.000000000000038
100
AcDbArc
 50
164.9738862409
 51
179.0
  0
ARC
  5
192
330
1F
100
AcDbEntity
  8
1
100
AcDbCircle
 10
108.4904774912
 20
125.6249771398
 30
0.0
 40
2.500000000001151
100
AcDbArc
 50
119.0
 51
299.0
  0
ARC
  5
193
330
1F
100
AcDbEntity
  8
1
100
AcDbCircle
 10
137.7603585672
 20
115.2651785447
 30
0.0
 40
0.5
100
AcDbArc
 50
181.0
 51
270.0
  0
ARC
  5
194
330
1F
100
AcDbEntity
  8
1
100
AcDbCircle
 10
178.7388399205
 20
521.6346928817
 30
0.0
 40
41.49601258224129
100
AcDbArc
 50
90.0
 51
180.0
  0
ARC
  5
195
330
1F
100
AcDbEntity
  8
1
100
AcDbCircle
 10
178.7388399205
 20
521.6346928817
 30
0.0
 40
32.0431412575474
100
AcDbArc
 50
90.0
 51
180.0
  0
ARC
  5
196
330
1F
100
AcDbEntity
  8
1
100
AcDbCircle
 10
178.7388399205
 20
306.6346928817
 30
0.0
 40
41.49601258224118
100
AcDbArc
 50
180.0
 51
0.0
  0
ARC
  5
197
330
1F
100
AcDbEntity
  8
1
100
AcDbCircle
 10
178.7388399205
 20
306.6346928817
 30
0.0
 40
32.0431412575474
100
AcDbArc
 50
180.0
 51
0.0
  0
ARC
  5
198
330
1F
100
AcDbEntity
  8
1
100
AcDbCircle
 10
178.7388399205
 20
521.6346928817
 30
0.0
 40
32.0431412575474
100
AcDbArc
 50
0.0
 51
90.0
  0
ARC
  5
199
330
1F
100
AcDbEntity
  8
1
100
AcDbCircle
 10
178.7388399205
 20
521.6346928817
 30
0.0
 40
41.49601258224129
100
AcDbArc
 50
0.0
 51
90.0
  0
ARC
  5
19A
330
1F
100
AcDbEntity
  8
CAJETIN
100
AcDbCircle
 10
137.1866863573
 20
17.3987626177
 30
0.0
 40
4.827421074871026
100
AcDbArc
 50
90.0
 51
257.8418033979
  0
ARC
  5
19B
330
1F
100
AcDbEntity
  8
CAJETIN
100
AcDbCircle
 10
153.1062759217
 20
17.3987626177
 30
0.0
 40
4.827421074871026
100
AcDbArc
 50
270.0
 51
90.0
  0
SPLINE
  5
19C
330
1F
100
AcDbEntity
  8
PIEZA
370
     0
100
AcDbSpline
210
0.0
220
0.0
230
1.0
 70
     8
 71
     3
 72
    11
 73
     7
 74
     0
 42
0.000000001
 43
0.00000001
 40
2.0
 40
2.0
 40
2.0
 40
2.0
 40
3.0
 40
3.0
 40
3.0
 40
4.0
 40
4.0
 40
4.0
 40
4.0
 10
334.6234845490765
 20
18.47179291333989
 30
0.0
 10
335.2910798989864
 20
18.47179291333989
 30
0.0
 10
335.8693718554516
 20
19.05040784772009
 30
0.0
 10
335.8693718554516
 20
19.71764792192382
 30
0.0
 10
335.8693718554516
 20
20.38524327183378
 30
0.0
 10
335.2910798989864
 20
20.9638259084225
 30
0.0
 10
334.6234845490765
 20
20.9638259084225
 30
0.0
  0
SPLINE
  5
19D
330
1F
100
AcDbEntity
  8
PIEZA
370
     0
100
AcDbSpline
210
0.0
220
0.0
230
1.0
 70
     8
 71
     3
 72
    11
 73
     7
 74
     0
 42
0.000000001
 43
0.00000001
 40
0.0
 40
0.0
 40
0.0
 40
0.0
 40
1.0
 40
1.0
 40
1.0
 40
2.0
 40
2.0
 40
2.0
 40
2.0
 10
334.6234845490765
 20
20.9638259084225
 30
0.0
 10
333.9559537947494
 20
20.9638259084225
 30
0.0
 10
333.3773711581606
 20
20.38524327183378
 30
0.0
 10
333.3773711581606
 20
19.71764792192382
 30
0.0
 10
333.3773711581606
 20
19.05040784772009
 30
0.0
 10
333.9559537947494
 20
18.47179291333989
 30
0.0
 10
334.6234845490765
 20
18.47179291333989
 30
0.0
  0
SPLINE
  5
19E
330
1F
100
AcDbEntity
  8
PIEZA
370
     0
100
AcDbSpline
210
0.0
220
0.0
230
1.0
 70
     8
 71
     3
 72
    11
 73
     7
 74
     0
 42
0.000000001
 43
0.00000001
 40
2.0
 40
2.0
 40
2.0
 40
2.0
 40
3.0
 40
3.0
 40
3.0
 40
4.0
 40
4.0
 40
4.0
 40
4.0
 10
334.6234845490765
 20
21.14185133506518
 30
0.0
 10
335.3798342299759
 20
21.14185133506518
 30
0.0
 10
336.047364984303
 20
20.47432058073809
 30
0.0
 10
336.047364984303
 20
19.71764792192382
 30
0.0
 10
336.047364984303
 20
18.91672728878068
 30
0.0
 10
335.3798342299759
 20
18.29373518890579
 30
0.0
 10
334.6234845490765
 20
18.29373518890579
 30
0.0
  0
SPLINE
  5
19F
330
1F
100
AcDbEntity
  8
PIEZA
370
     0
100
AcDbSpline
210
0.0
220
0.0
230
1.0
 70
     8
 71
     3
 72
    11
 73
     7
 74
     0
 42
0.000000001
 43
0.00000001
 40
0.0
 40
0.0
 40
0.0
 40
0.0
 40
1.0
 40
1.0
 40
1.0
 40
2.0
 40
2.0
 40
2.0
 40
2.0
 10
334.6234845490765
 20
18.29373518890579
 30
0.0
 10
333.8224993203503
 20
18.29373518890579
 30
0.0
 10
333.199281135935
 20
18.91672728878068
 30
0.0
 10
333.199281135935
 20
19.71764792192382
 30
0.0
 10
333.199281135935
 20
20.47432058073809
 30
0.0
 10
333.8224993203503
 20
21.14185133506518
 30
0.0
 10
334.6234845490765
 20
21.14185133506518
 30
0.0
  0
SPLINE
  5
1A0
330
1F
100
AcDbEntity
  8
PIEZA
370
     0
100
AcDbSpline
210
0.0
220
0.0
230
1.0
 70
     8
 71
     3
 72
     8
 73
     4
 74
     0
 42
0.000000001
 43
0.00000001
 40
2.0
 40
2.0
 40
2.0
 40
2.0
 40
3.0
 40
3.0
 40
3.0
 40
3.0
 10
269.7388363535678
 20
19.40616802085798
 30
0.0
 10
270.5398215822939
 20
19.40616802085798
 30
0.0
 10
271.1630397667091
 20
19.31747828545146
 30
0.0
 10
271.5635000832807
 20
19.09472041760778
 30
0.0
  0
SPLINE
  5
1A1
330
1F
100
AcDbEntity
  8
PIEZA
370
     0
100
AcDbSpline
210
0.0
220
0.0
230
1.0
 70
     8
 71
     3
 72
    11
 73
     7
 74
     0
 42
0.000000001
 43
0.00000001
 40
3.0
 40
3.0
 40
3.0
 40
3.0
 40
4.0
 40
4.0
 40
4.0
 40
5.0
 40
5.0
 40
5.0
 40
5.0
 10
271.5635000832807
 20
19.09472041760778
 30
0.0
 10
272.0083537142427
 20
18.7832728143575
 30
0.0
 10
272.2308047530676
 20
18.24909964105509
 30
0.0
 10
272.2308047530676
 20
17.53712712565029
 30
0.0
 10
272.2308047530676
 20
17.04758950017449
 30
0.0
 10
272.1420342731822
 20
16.64716148139438
 30
0.0
 10
271.9193410009216
 20
16.37999415026447
 30
0.0
  0
SPLINE
  5
1A2
330
1F
100
AcDbEntity
  8
PIEZA
370
     0
100
AcDbSpline
210
0.0
220
0.0
230
1.0
 70
     8
 71
     3
 72
     8
 73
     4
 74
     0
 42
0.000000001
 43
0.00000001
 40
5.0
 40
5.0
 40
5.0
 40
5.0
 40
6.0
 40
6.0
 40
6.0
 40
6.0
 10
271.9193410009216
 20
16.37999415026447
 30
0.0
 10
271.8302798409132
 20
16.24660427144837
 30
0.0
 10
271.6525127966021
 20
16.15759155812699
 30
0.0
 10
271.4298195243414
 20
16.06854654701419
 30
0.0
  0
SPLINE
  5
1A3
330
1F
100
AcDbEntity
  8
PIEZA
370
     0
100
AcDbSpline
210
0.0
220
0.0
230
1.0
 70
     8
 71
     3
 72
     8
 73
     4
 74
     0
 42
0.000000001
 43
0.00000001
 40
6.0
 40
6.0
 40
6.0
 40
6.0
 40
7.0
 40
7.0
 40
7.0
 40
7.0
 10
271.4298195243414
 20
16.06854654701419
 30
0.0
 10
271.5188160887671
 20
16.02423397710239
 30
0.0
 10
271.6078772487756
 20
16.02423397710239
 30
0.0
 10
271.6525127966021
 20
15.97953383369289
 30
0.0
  0
SPLINE
  5
1A4
330
1F
100
AcDbEntity
  8
PIEZA
370
     0
100
AcDbSpline
210
0.0
220
0.0
230
1.0
 70
     8
 71
     3
 72
     8
 73
     4
 74
     0
 42
0.000000001
 43
0.00000001
 40
7.0
 40
7.0
 40
7.0
 40
7.0
 40
8.0
 40
8.0
 40
8.0
 40
8.0
 10
271.6525127966021
 20
15.97953383369289
 30
0.0
 10
271.7859511221055
 20
15.89055341816307
 30
0.0
 10
271.9193410009216
 20
15.75709894376398
 30
0.0
 10
272.0083537142427
 20
15.62370906494788
 30
0.0
  0
SPLINE
  5
1A5
330
1F
100
AcDbEntity
  8
PIEZA
370
     0
100
AcDbSpline
210
0.0
220
0.0
230
1.0
 70
     8
 71
     3
 72
     8
 73
     4
 74
     0
 42
0.000000001
 43
0.00000001
 40
8.0
 40
8.0
 40
8.0
 40
8.0
 40
9.0
 40
9.0
 40
9.0
 40
9.0
 10
272.0083537142427
 20
15.62370906494788
 30
0.0
 10
272.0530377087567
 20
15.44561904272231
 30
0.0
 10
272.0974148742516
 20
15.26756131828807
 30
0.0
 10
272.0974148742516
 20
15.0451587261507
 30
0.0
  0
SPLINE
  5
1A6
330
1F
100
AcDbEntity
  8
PIEZA
370
     0
100
AcDbSpline
210
0.0
220
0.0
230
1.0
 70
     8
 71
     3
 72
     8
 73
     4
 74
     0
 42
0.000000001
 43
0.00000001
 40
12.0
 40
12.0
 40
12.0
 40
12.0
 40
13.0
 40
13.0
 40
13.0
 40
13.0
 10
270.940281898874
 20
14.77808828841059
 30
0.0
 10
270.940281898874
 20
15.17854860498218
 30
0.0
 10
270.8512691855527
 20
15.40098349491111
 30
0.0
 10
270.6735182901377
 20
15.48999620823238
 30
0.0
  0
SPLINE
  5
1A7
330
1F
100
AcDbEntity
  8
PIEZA
370
     0
100
AcDbSpline
210
0.0
220
0.0
230
1.0
 70
     8
 71
     3
 72
     8
 73
     4
 74
     0
 42
0.000000001
 43
0.00000001
 40
13.0
 40
13.0
 40
13.0
 40
13.0
 40
14.0
 40
14.0
 40
14.0
 40
14.0
 10
270.6735182901377
 20
15.48999620823238
 30
0.0
 10
270.4954444168076
 20
15.57900892155378
 30
0.0
 10
270.1839968135577
 20
15.66808623045798
 30
0.0
 10
269.6497751935678
 20
15.66808623045798
 30
0.0
  0
SPLINE
  5
1A8
330
1F
100
AcDbEntity
  8
PIEZA
370
     0
100
AcDbSpline
210
0.0
220
0.0
230
1.0
 70
     8
 71
     3
 72
     8
 73
     4
 74
     0
 42
0.000000001
 43
0.00000001
 40
4.0
 40
4.0
 40
4.0
 40
4.0
 40
5.0
 40
5.0
 40
5.0
 40
5.0
 10
269.6050911990678
 20
16.55808417255798
 30
0.0
 10
270.1839968135715
 20
16.55808417255798
 30
0.0
 10
270.5398215823163
 20
16.64716148146228
 30
0.0
 10
270.7178308600631
 20
16.78051906248688
 30
0.0
  0
SPLINE
  5
1A9
330
1F
100
AcDbEntity
  8
PIEZA
370
     0
100
AcDbSpline
210
0.0
220
0.0
230
1.0
 70
     8
 71
     3
 72
    11
 73
     7
 74
     0
 42
0.000000001
 43
0.00000001
 40
5.0
 40
5.0
 40
5.0
 40
5.0
 40
6.0
 40
6.0
 40
6.0
 40
7.0
 40
7.0
 40
7.0
 40
7.0
 10
270.7178308600631
 20
16.78051906248688
 30
0.0
 10
270.8959047333929
 20
16.86953177580818
 30
0.0
 10
271.0292946122093
 20
17.13666680914667
 30
0.0
 10
271.0292946122093
 20
17.58182726912778
 30
0.0
 10
271.0292946122093
 20
17.8041975634737
 30
0.0
 10
270.9849820422973
 20
17.98228758569928
 30
0.0
 10
270.9402818988878
 20
18.11574206009836
 30
0.0
  0
SPLINE
  5
1AA
330
1F
100
AcDbEntity
  8
PIEZA
370
     0
100
AcDbSpline
210
0.0
220
0.0
230
1.0
 70
     8
 71
     3
 72
     8
 73
     4
 74
     0
 42
0.000000001
 43
0.00000001
 40
7.0
 40
7.0
 40
7.0
 40
7.0
 40
8.0
 40
8.0
 40
8.0
 40
8.0
 10
270.9402818988878
 20
18.11574206009836
 30
0.0
 10
270.8959047333929
 20
18.2047224756283
 30
0.0
 10
270.8068920200719
 20
18.29373518894959
 30
0.0
 10
270.7178308600631
 20
18.33811235444429
 30
0.0
  0
SPLINE
  5
1AB
330
1F
100
AcDbEntity
  8
PIEZA
370
     0
100
AcDbSpline
210
0.0
220
0.0
230
1.0
 70
     8
 71
     3
 72
     8
 73
     4
 74
     0
 42
0.000000001
 43
0.00000001
 40
8.0
 40
8.0
 40
8.0
 40
8.0
 40
9.0
 40
9.0
 40
9.0
 40
9.0
 10
270.7178308600631
 20
18.33811235444429
 30
0.0
 10
270.5841341522279
 20
18.4271896633486
 30
0.0
 10
270.4507604223078
 20
18.47179291338369
 30
0.0
 10
270.2726865489778
 20
18.47179291338369
 30
0.0
  0
SPLINE
  5
1AC
330
1F
100
AcDbEntity
  8
PIEZA
370
     0
100
AcDbSpline
210
0.0
220
0.0
230
1.0
 70
     8
 71
     3
 72
     8
 73
     4
 74
     0
 42
0.000000001
 43
0.00000001
 40
9.0
 40
9.0
 40
9.0
 40
9.0
 40
10.0
 40
10.0
 40
10.0
 40
10.0
 10
270.2726865489778
 20
18.47179291338369
 30
0.0
 10
270.0503001057362
 20
18.51620237666998
 30
0.0
 10
269.8278490669115
 20
18.51620237666998
 30
0.0
 10
269.560778629156
 20
18.51620237666998
 30
0.0
  0
SPLINE
  5
1AD
330
1F
100
AcDbEntity
  8
PIEZA
370
     0
100
AcDbSpline
210
0.0
220
0.0
230
1.0
 70
     8
 71
     3
 72
     8
 73
     4
 74
     0
 42
0.000000001
 43
0.00000001
 40
0.0
 40
0.0
 40
0.0
 40
0.0
 40
1.0
 40
1.0
 40
1.0
 40
1.0
 10
283.0896452268025
 20
18.11574206008998
 30
0.0
 10
283.2676706534453
 20
18.649882935601
 30
0.0
 10
283.5791182566954
 20
19.005707704346
 30
0.0
 10
284.0686558821711
 20
19.2281748920663
 30
0.0
  0
SPLINE
  5
1AE
330
1F
100
AcDbEntity
  8
PIEZA
370
     0
100
AcDbSpline
210
0.0
220
0.0
230
1.0
 70
     8
 71
     3
 72
    11
 73
     7
 74
     0
 42
0.000000001
 43
0.00000001
 40
1.0
 40
1.0
 40
1.0
 40
1.0
 40
2.0
 40
2.0
 40
2.0
 40
3.0
 40
3.0
 40
3.0
 40
3.0
 10
284.0686558821711
 20
19.2281748920663
 30
0.0
 10
284.469180794326
 20
19.4061680209175
 30
0.0
 10
285.0030955852965
 20
19.45086816432709
 30
0.0
 10
285.5816136263022
 20
19.45086816432709
 30
0.0
 10
286.2048318107175
 20
19.45086816432709
 30
0.0
 10
286.8724271606275
 20
19.49524532982181
 30
0.0
 10
287.5396995326226
 20
19.49524532982181
 30
0.0
  0
SPLINE
  5
1AF
330
1F
100
AcDbEntity
  8
PIEZA
370
     0
100
AcDbSpline
210
0.0
220
0.0
230
1.0
 70
     8
 71
     3
 72
     8
 73
     4
 74
     0
 42
0.000000001
 43
0.00000001
 40
4.0
 40
4.0
 40
4.0
 40
4.0
 40
5.0
 40
5.0
 40
5.0
 40
5.0
 10
288.6077874969226
 20
19.49524532982181
 30
0.0
 10
289.9876137445693
 20
19.49524532982181
 30
0.0
 10
290.9219888521113
 20
19.36185545100571
 30
0.0
 10
291.4114941797957
 20
18.9613628366427
 30
0.0
  0
SPLINE
  5
1B0
330
1F
100
AcDbEntity
  8
PIEZA
370
     0
100
AcDbSpline
210
0.0
220
0.0
230
1.0
 70
     8
 71
     3
 72
     8
 73
     4
 74
     0
 42
0.000000001
 43
0.00000001
 40
5.0
 40
5.0
 40
5.0
 40
5.0
 40
6.0
 40
6.0
 40
6.0
 40
6.0
 10
291.4114941797957
 20
18.9613628366427
 30
0.0
 10
291.9010318052718
 20
18.56087022227959
 30
0.0
 10
292.1234666952005
 20
17.75959431343022
 30
0.0
 10
292.0790895297059
 20
16.60275201816759
 30
0.0
  0
SPLINE
  5
1B1
330
1F
100
AcDbEntity
  8
PIEZA
370
     0
100
AcDbSpline
210
0.0
220
0.0
230
1.0
 70
     8
 71
     3
 72
     8
 73
     4
 74
     0
 42
0.000000001
 43
0.00000001
 40
6.0
 40
6.0
 40
6.0
 40
6.0
 40
7.0
 40
7.0
 40
7.0
 40
7.0
 10
292.0790895297059
 20
16.60275201816759
 30
0.0
 10
292.0790895297059
 20
16.0685465470737
 30
0.0
 10
292.0790895297059
 20
15.5346963516861
 30
0.0
 10
292.0344216840876
 20
15.04515872621021
 30
0.0
  0
SPLINE
  5
1B2
330
1F
100
AcDbEntity
  8
PIEZA
370
     0
100
AcDbSpline
210
0.0
220
0.0
230
1.0
 70
     8
 71
     3
 72
     8
 73
     4
 74
     0
 42
0.000000001
 43
0.00000001
 40
7.0
 40
7.0
 40
7.0
 40
7.0
 40
8.0
 40
8.0
 40
8.0
 40
8.0
 10
292.0344216840876
 20
15.04515872621021
 30
0.0
 10
291.9456996508898
 20
14.46657608962149
 30
0.0
 10
291.7229740808375
 20
14.02141562964041
 30
0.0
 10
291.3224814664746
 20
13.75447438305082
 30
0.0
  0
SPLINE
  5
1B3
330
1F
100
AcDbEntity
  8
PIEZA
370
     0
100
AcDbSpline
210
0.0
220
0.0
230
1.0
 70
     8
 71
     3
 72
     8
 73
     4
 74
     0
 42
0.000000001
 43
0.00000001
 40
8.0
 40
8.0
 40
8.0
 40
8.0
 40
9.0
 40
9.0
 40
9.0
 40
9.0
 10
291.3224814664746
 20
13.75447438305082
 30
0.0
 10
290.9666566977297
 20
13.48756543425281
 30
0.0
 10
290.4324512266356
 20
13.35401406647929
 30
0.0
 10
289.7649204723086
 20
13.3095077098186
 30
0.0
  0
SPLINE
  5
1B4
330
1F
100
AcDbEntity
  8
PIEZA
370
     0
100
AcDbSpline
210
0.0
220
0.0
230
1.0
 70
     8
 71
     3
 72
     8
 73
     4
 74
     0
 42
0.000000001
 43
0.00000001
 40
9.0
 40
9.0
 40
9.0
 40
9.0
 40
10.0
 40
10.0
 40
10.0
 40
10.0
 10
289.7649204723086
 20
13.3095077098186
 30
0.0
 10
289.1863055379283
 20
13.265001353158
 30
0.0
 10
288.6524553425408
 20
13.265001353158
 30
0.0
 10
288.0738727059521
 20
13.265001353158
 30
0.0
  0
SPLINE
  5
1B5
330
1F
100
AcDbEntity
  8
PIEZA
370
     0
100
AcDbSpline
210
0.0
220
0.0
230
1.0
 70
     8
 71
     3
 72
     8
 73
     4
 74
     0
 42
0.000000001
 43
0.00000001
 40
12.0
 40
12.0
 40
12.0
 40
12.0
 40
13.0
 40
13.0
 40
13.0
 40
13.0
 10
286.5162794139677
 20
13.26500135315799
 30
0.0
 10
286.0711512517779
 20
13.26500135315799
 30
0.0
 10
285.5816136263022
 20
13.26500135315799
 30
0.0
 10
285.0920760008263
 20
13.3095077098186
 30
0.0
  0
SPLINE
  5
1B6
330
1F
100
AcDbEntity
  8
PIEZA
370
     0
100
AcDbSpline
210
0.0
220
0.0
230
1.0
 70
     8
 71
     3
 72
     8
 73
     4
 74
     0
 42
0.000000001
 43
0.00000001
 40
13.0
 40
13.0
 40
13.0
 40
13.0
 40
14.0
 40
14.0
 40
14.0
 40
14.0
 10
285.0920760008263
 20
13.3095077098186
 30
0.0
 10
284.7806283975762
 20
13.35401406647929
 30
0.0
 10
284.469180794326
 20
13.39852042313998
 30
0.0
 10
284.2021103565704
 20
13.48756543425281
 30
0.0
  0
SPLINE
  5
1B7
330
1F
100
AcDbEntity
  8
PIEZA
370
     0
100
AcDbSpline
210
0.0
220
0.0
230
1.0
 70
     8
 71
     3
 72
     8
 73
     4
 74
     0
 42
0.000000001
 43
0.00000001
 40
14.0
 40
14.0
 40
14.0
 40
14.0
 40
15.0
 40
15.0
 40
15.0
 40
15.0
 10
284.2021103565704
 20
13.48756543425281
 30
0.0
 10
283.8906304555287
 20
13.57644895640822
 30
0.0
 10
283.6234954221902
 20
13.75447438305081
 30
0.0
 10
283.4010928300528
 20
14.02141562964041
 30
0.0
  0
SPLINE
  5
1B8
330
1F
100
AcDbEntity
  8
PIEZA
370
     0
100
AcDbSpline
210
0.0
220
0.0
230
1.0
 70
     8
 71
     3
 72
     8
 73
     4
 74
     0
 42
0.000000001
 43
0.00000001
 40
15.0
 40
15.0
 40
15.0
 40
15.0
 40
16.0
 40
16.0
 40
16.0
 40
16.0
 10
283.4010928300528
 20
14.02141562964041
 30
0.0
 10
283.1786579401239
 20
14.33305701963948
 30
0.0
 10
283.0449773811843
 20
14.73371112295998
 30
0.0
 10
283.0005840667941
 20
15.17854860502629
 30
0.0
  0
SPLINE
  5
1B9
330
1F
100
AcDbEntity
  8
PIEZA
370
     0
100
AcDbSpline
210
0.0
220
0.0
230
1.0
 70
     8
 71
     3
 72
    11
 73
     7
 74
     0
 42
0.000000001
 43
0.00000001
 40
16.0
 40
16.0
 40
16.0
 40
16.0
 40
17.0
 40
17.0
 40
17.0
 40
18.0
 40
18.0
 40
18.0
 40
18.0
 10
283.0005840667941
 20
15.17854860502629
 30
0.0
 10
282.9559000722803
 20
15.6237090650074
 30
0.0
 10
282.9559000722803
 20
15.97953383375241
 30
0.0
 10
282.9559000722803
 20
16.33568158041222
 30
0.0
 10
282.9559000722803
 20
16.91423191920941
 30
0.0
 10
283.0005840667941
 20
17.49274996021509
 30
0.0
 10
283.0896452268025
 20
18.11574206008998
 30
0.0
  0
SPLINE
  5
1BA
330
1F
100
AcDbEntity
  8
PIEZA
370
     0
100
AcDbSpline
210
0.0
220
0.0
230
1.0
 70
     8
 71
     3
 72
     8
 73
     4
 74
     0
 42
0.000000001
 43
0.00000001
 40
1.0
 40
1.0
 40
1.0
 40
1.0
 40
2.0
 40
2.0
 40
2.0
 40
2.0
 10
285.9377613729594
 20
18.51620237666
 30
0.0
 10
285.2257565597632
 20
18.51620237666
 30
0.0
 10
284.7806283975735
 20
18.42718966333862
 30
0.0
 10
284.5135579598181
 20
18.29373518893961
 30
0.0
  0
SPLINE
  5
1BB
330
1F
100
AcDbEntity
  8
PIEZA
370
     0
100
AcDbSpline
210
0.0
220
0.0
230
1.0
 70
     8
 71
     3
 72
     8
 73
     4
 74
     0
 42
0.000000001
 43
0.00000001
 40
2.0
 40
2.0
 40
2.0
 40
2.0
 40
3.0
 40
3.0
 40
3.0
 40
3.0
 10
284.5135579598181
 20
18.29373518893961
 30
0.0
 10
284.3354679375922
 20
18.16034531012348
 30
0.0
 10
284.2021103565677
 20
17.8485747289585
 30
0.0
 10
284.2021103565677
 20
17.22567952245799
 30
0.0
  0
SPLINE
  5
1BC
330
1F
100
AcDbEntity
  8
PIEZA
370
     0
100
AcDbSpline
210
0.0
220
0.0
230
1.0
 70
     8
 71
     3
 72
     8
 73
     4
 74
     0
 42
0.000000001
 43
0.00000001
 40
5.0
 40
5.0
 40
5.0
 40
5.0
 40
6.0
 40
6.0
 40
6.0
 40
6.0
 10
284.1577331910677
 20
15.935156668258
 30
0.0
 10
284.1577331910677
 20
15.62370906500782
 30
0.0
 10
284.1577331910677
 20
15.35663862725232
 30
0.0
 10
284.2021103565625
 20
15.13417143953202
 30
0.0
  0
SPLINE
  5
1BD
330
1F
100
AcDbEntity
  8
PIEZA
370
     0
100
AcDbSpline
210
0.0
220
0.0
230
1.0
 70
     8
 71
     3
 72
     8
 73
     4
 74
     0
 42
0.000000001
 43
0.00000001
 40
6.0
 40
6.0
 40
6.0
 40
6.0
 40
7.0
 40
7.0
 40
7.0
 40
7.0
 10
284.2021103565625
 20
15.13417143953202
 30
0.0
 10
284.2021103565625
 20
14.91147816727123
 30
0.0
 10
284.2910907720923
 20
14.77808828845513
 30
0.0
 10
284.3801034854137
 20
14.64434313393283
 30
0.0
  0
SPLINE
  5
1BE
330
1F
100
AcDbEntity
  8
PIEZA
370
     0
100
AcDbSpline
210
0.0
220
0.0
230
1.0
 70
     8
 71
     3
 72
     8
 73
     4
 74
     0
 42
0.000000001
 43
0.00000001
 40
7.0
 40
7.0
 40
7.0
 40
7.0
 40
8.0
 40
8.0
 40
8.0
 40
8.0
 10
284.3801034854137
 20
14.64434313393283
 30
0.0
 10
284.4247713310319
 20
14.51095325511672
 30
0.0
 10
284.6025383753426
 20
14.42194054179532
 30
0.0
 10
284.7806283975683
 20
14.37756337630065
 30
0.0
  0
SPLINE
  5
1BF
330
1F
100
AcDbEntity
  8
PIEZA
370
     0
100
AcDbSpline
210
0.0
220
0.0
230
1.0
 70
     8
 71
     3
 72
     8
 73
     4
 74
     0
 42
0.000000001
 43
0.00000001
 40
8.0
 40
8.0
 40
8.0
 40
8.0
 40
9.0
 40
9.0
 40
9.0
 40
9.0
 10
284.7806283975683
 20
14.37756337630065
 30
0.0
 10
285.0030955852886
 20
14.28855066297933
 30
0.0
 10
285.3145431885387
 20
14.24401200852713
 30
0.0
 10
285.7152941852337
 20
14.24401200852713
 30
0.0
  0
SPLINE
  5
1C0
330
1F
100
AcDbEntity
  8
PIEZA
370
     0
100
AcDbSpline
210
0.0
220
0.0
230
1.0
 70
     8
 71
     3
 72
     8
 73
     4
 74
     0
 42
0.000000001
 43
0.00000001
 40
12.0
 40
12.0
 40
12.0
 40
12.0
 40
13.0
 40
13.0
 40
13.0
 40
13.0
 10
288.1182498714337
 20
14.19950565192715
 30
0.0
 10
288.6968002102309
 20
14.19950565192715
 30
0.0
 10
289.2310056813246
 20
14.19950565192715
 30
0.0
 10
289.8095237223305
 20
14.24401200858775
 30
0.0
  0
SPLINE
  5
1C1
330
1F
100
AcDbEntity
  8
PIEZA
370
     0
100
AcDbSpline
210
0.0
220
0.0
230
1.0
 70
     8
 71
     3
 72
     8
 73
     4
 74
     0
 42
0.000000001
 43
0.00000001
 40
13.0
 40
13.0
 40
13.0
 40
13.0
 40
14.0
 40
14.0
 40
14.0
 40
14.0
 10
289.8095237223305
 20
14.24401200858775
 30
0.0
 10
290.2990613478064
 20
14.33305701970053
 30
0.0
 10
290.5659057010217
 20
14.46657608968254
 30
0.0
 10
290.6995862599609
 20
14.64434313399345
 30
0.0
  0
SPLINE
  5
1C2
330
1F
100
AcDbEntity
  8
PIEZA
370
     0
100
AcDbSpline
210
0.0
220
0.0
230
1.0
 70
     8
 71
     3
 72
     8
 73
     4
 74
     0
 42
0.000000001
 43
0.00000001
 40
14.0
 40
14.0
 40
14.0
 40
14.0
 40
15.0
 40
15.0
 40
15.0
 40
15.0
 10
290.6995862599609
 20
14.64434313399345
 30
0.0
 10
290.832976138777
 20
14.86710100183713
 30
0.0
 10
290.8773533042718
 20
15.17854860508734
 30
0.0
 10
290.8773533042718
 20
15.57900892165894
 30
0.0
  0
SPLINE
  5
1C3
330
1F
100
AcDbEntity
  8
PIEZA
370
     0
100
AcDbSpline
210
0.0
220
0.0
230
1.0
 70
     8
 71
     3
 72
     8
 73
     4
 74
     0
 42
0.000000001
 43
0.00000001
 40
16.0
 40
16.0
 40
16.0
 40
16.0
 40
17.0
 40
17.0
 40
17.0
 40
17.0
 10
290.8773533043105
 20
16.73614189698212
 30
0.0
 10
290.8773533043105
 20
17.0032123347376
 30
0.0
 10
290.8773533043105
 20
17.31475683136232
 30
0.0
 10
290.8329761388157
 20
17.5818272691178
 30
0.0
  0
SPLINE
  5
1C4
330
1F
100
AcDbEntity
  8
PIEZA
370
     0
100
AcDbSpline
210
0.0
220
0.0
230
1.0
 70
     8
 71
     3
 72
     8
 73
     4
 74
     0
 42
0.000000001
 43
0.00000001
 40
17.0
 40
17.0
 40
17.0
 40
17.0
 40
18.0
 40
18.0
 40
18.0
 40
18.0
 10
290.8329761388157
 20
17.5818272691178
 30
0.0
 10
290.8329761388157
 20
17.893274872368
 30
0.0
 10
290.7438988299113
 20
18.07136489459369
 30
0.0
 10
290.6548861165901
 20
18.20472247561832
 30
0.0
  0
SPLINE
  5
1C5
330
1F
100
AcDbEntity
  8
PIEZA
370
     0
100
AcDbSpline
210
0.0
220
0.0
230
1.0
 70
     8
 71
     3
 72
     8
 73
     4
 74
     0
 42
0.000000001
 43
0.00000001
 40
18.0
 40
18.0
 40
18.0
 40
18.0
 40
19.0
 40
19.0
 40
19.0
 40
19.0
 10
290.6548861165901
 20
18.20472247561832
 30
0.0
 10
290.5214962377739
 20
18.33811235443431
 30
0.0
 10
290.3878156788346
 20
18.38281249784389
 30
0.0
 10
290.2544258000183
 20
18.42718966333862
 30
0.0
  0
SPLINE
  5
1C6
330
1F
100
AcDbEntity
  8
PIEZA
370
     0
100
AcDbSpline
210
0.0
220
0.0
230
1.0
 70
     8
 71
     3
 72
     8
 73
     4
 74
     0
 42
0.000000001
 43
0.00000001
 40
19.0
 40
19.0
 40
19.0
 40
19.0
 40
20.0
 40
20.0
 40
20.0
 40
20.0
 10
290.2544258000183
 20
18.42718966333862
 30
0.0
 10
289.8982780533587
 20
18.51620237666
 30
0.0
 10
289.498076119119
 20
18.51620237666
 30
0.0
 10
289.1419283724593
 20
18.51620237666
 30
0.0
  0
SPLINE
  5
1C7
330
1F
100
AcDbEntity
  8
PIEZA
370
     0
100
AcDbSpline
210
0.0
220
0.0
230
1.0
 70
     8
 71
     3
 72
     8
 73
     4
 74
     0
 42
0.000000001
 43
0.00000001
 40
2.0
 40
2.0
 40
2.0
 40
2.0
 40
3.0
 40
3.0
 40
3.0
 40
3.0
 10
300.445638625922
 20
17.67080768466922
 30
0.0
 10
300.445638625922
 20
17.80419756348533
 30
0.0
 10
300.4010030780955
 20
17.9376520378843
 30
0.0
 10
300.3566259126009
 20
18.11574206010999
 30
0.0
  0
SPLINE
  5
1C8
330
1F
100
AcDbEntity
  8
PIEZA
370
     0
100
AcDbSpline
210
0.0
220
0.0
230
1.0
 70
     8
 71
     3
 72
     8
 73
     4
 74
     0
 42
0.000000001
 43
0.00000001
 40
3.0
 40
3.0
 40
3.0
 40
3.0
 40
4.0
 40
4.0
 40
4.0
 40
4.0
 10
300.3566259126009
 20
18.11574206010999
 30
0.0
 10
300.3566259126009
 20
18.20472247563981
 30
0.0
 10
300.2675486036967
 20
18.29373518896122
 30
0.0
 10
300.1341587248803
 20
18.33811235445591
 30
0.0
  0
SPLINE
  5
1C9
330
1F
100
AcDbEntity
  8
PIEZA
370
     0
100
AcDbSpline
210
0.0
220
0.0
230
1.0
 70
     8
 71
     3
 72
     8
 73
     4
 74
     0
 42
0.000000001
 43
0.00000001
 40
4.0
 40
4.0
 40
4.0
 40
4.0
 40
5.0
 40
5.0
 40
5.0
 40
5.0
 10
300.1341587248803
 20
18.33811235445591
 30
0.0
 10
299.9114977504111
 20
18.42718966336022
 30
0.0
 10
299.5553500037513
 20
18.47179291339532
 30
0.0
 10
299.1548573893882
 20
18.51620237668149
 30
0.0
  0
SPLINE
  5
1CA
330
1F
100
AcDbEntity
  8
PIEZA
370
     0
100
AcDbSpline
210
0.0
220
0.0
230
1.0
 70
    24
 71
     3
 72
     8
 73
     4
 74
     0
 42
0.000000001
 43
0.00000001
 40
5.0
 40
5.0
 40
5.0
 40
5.0
 40
6.0
 40
6.0
 40
6.0
 40
6.0
 10
299.1548573893882
 20
18.51620237668149
 30
0.0
 10
298.709955311739
 20
18.51620237668149
 30
0.0
 10
298.3094949951674
 20
18.51620237668149
 30
0.0
 10
297.9533472485076
 20
18.51620237668149
 30
0.0
  0
SPLINE
  5
1CB
330
1F
100
AcDbEntity
  8
PIEZA
370
     0
100
AcDbSpline
210
0.0
220
0.0
230
1.0
 70
    24
 71
     3
 72
     8
 73
     4
 74
     0
 42
0.000000001
 43
0.00000001
 40
9.0
 40
9.0
 40
9.0
 40
9.0
 40
10.0
 40
10.0
 40
10.0
 40
10.0
 10
297.6418996453077
 20
18.51620237668149
 30
0.0
 10
297.3304520420576
 20
18.51620237668149
 30
0.0
 10
296.8853238798682
 20
18.51620237668149
 30
0.0
 10
296.3957862543922
 20
18.51620237668149
 30
0.0
  0
SPLINE
  5
1CC
330
1F
100
AcDbEntity
  8
PIEZA
370
     0
100
AcDbSpline
210
0.0
220
0.0
230
1.0
 70
     8
 71
     3
 72
     8
 73
     4
 74
     0
 42
0.000000001
 43
0.00000001
 40
10.0
 40
10.0
 40
10.0
 40
10.0
 40
11.0
 40
11.0
 40
11.0
 40
11.0
 10
296.3957862543922
 20
18.51620237668149
 30
0.0
 10
295.9062486289163
 20
18.47179291339532
 30
0.0
 10
295.5057237167617
 20
18.38281249786541
 30
0.0
 10
295.1942761135116
 20
18.29373518896122
 30
0.0
  0
SPLINE
  5
1CD
330
1F
100
AcDbEntity
  8
PIEZA
370
     0
100
AcDbSpline
210
0.0
220
0.0
230
1.0
 70
     8
 71
     3
 72
     8
 73
     4
 74
     0
 42
0.000000001
 43
0.00000001
 40
11.0
 40
11.0
 40
11.0
 40
11.0
 40
12.0
 40
12.0
 40
12.0
 40
12.0
 10
295.1942761135116
 20
18.29373518896122
 30
0.0
 10
295.0608862346954
 20
18.2490996411345
 30
0.0
 10
294.9715828412507
 20
18.16034531014509
 30
0.0
 10
294.9272056757561
 20
18.07136489461529
 30
0.0
  0
SPLINE
  5
1CE
330
1F
100
AcDbEntity
  8
PIEZA
370
     0
100
AcDbSpline
210
0.0
220
0.0
230
1.0
 70
     8
 71
     3
 72
     8
 73
     4
 74
     0
 42
0.000000001
 43
0.00000001
 40
12.0
 40
12.0
 40
12.0
 40
12.0
 40
13.0
 40
13.0
 40
13.0
 40
13.0
 10
294.9272056757561
 20
18.07136489461529
 30
0.0
 10
294.8828285102614
 20
17.9376520378843
 30
0.0
 10
294.8381929624346
 20
17.80419756348533
 30
0.0
 10
294.8828285102614
 20
17.67080768466922
 30
0.0
  0
SPLINE
  5
1CF
330
1F
100
AcDbEntity
  8
PIEZA
370
     0
100
AcDbSpline
210
0.0
220
0.0
230
1.0
 70
     8
 71
     3
 72
     8
 73
     4
 74
     0
 42
0.000000001
 43
0.00000001
 40
13.0
 40
13.0
 40
13.0
 40
13.0
 40
14.0
 40
14.0
 40
14.0
 40
14.0
 10
294.8828285102614
 20
17.67080768466922
 30
0.0
 10
294.8828285102614
 20
17.35906940129572
 30
0.0
 10
294.9715828412507
 20
17.18130235698481
 30
0.0
 10
295.1496405656849
 20
17.09228964366352
 30
0.0
  0
SPLINE
  5
1D0
330
1F
100
AcDbEntity
  8
PIEZA
370
     0
100
AcDbSpline
210
0.0
220
0.0
230
1.0
 70
     8
 71
     3
 72
     8
 73
     4
 74
     0
 42
0.000000001
 43
0.00000001
 40
14.0
 40
14.0
 40
14.0
 40
14.0
 40
15.0
 40
15.0
 40
15.0
 40
15.0
 10
295.1496405656849
 20
17.09228964366352
 30
0.0
 10
295.3723338379457
 20
16.95860908472411
 30
0.0
 10
295.6391781911608
 20
16.91423191922942
 30
0.0
 10
296.0399614856473
 20
16.91423191922942
 30
0.0
  0
SPLINE
  5
1D1
330
1F
100
AcDbEntity
  8
PIEZA
370
     0
100
AcDbSpline
210
0.0
220
0.0
230
1.0
 70
     8
 71
     3
 72
     8
 73
     4
 74
     0
 42
0.000000001
 43
0.00000001
 40
15.0
 40
15.0
 40
15.0
 40
15.0
 40
16.0
 40
16.0
 40
16.0
 40
16.0
 10
296.0399614856473
 20
16.91423191922942
 30
0.0
 10
296.3067089454879
 20
16.91423191922942
 30
0.0
 10
296.5294668133315
 20
16.86953177581981
 30
0.0
 10
296.7962465709639
 20
16.86953177581981
 30
0.0
  0
SPLINE
  5
1D2
330
1F
100
AcDbEntity
  8
PIEZA
370
     0
100
AcDbSpline
210
0.0
220
0.0
230
1.0
 70
     8
 71
     3
 72
     8
 73
     4
 74
     0
 42
0.000000001
 43
0.00000001
 40
19.0
 40
19.0
 40
19.0
 40
19.0
 40
20.0
 40
20.0
 40
20.0
 40
20.0
 10
298.3982170284639
 20
16.91423191921981
 30
0.0
 10
298.8877223561483
 20
16.91423191921981
 30
0.0
 10
299.377582959539
 20
16.8695317758102
 30
0.0
 10
299.8224204416053
 20
16.8695317758102
 30
0.0
  0
SPLINE
  5
1D3
330
1F
100
AcDbEntity
  8
PIEZA
370
     0
100
AcDbSpline
210
0.0
220
0.0
230
1.0
 70
     8
 71
     3
 72
     8
 73
     4
 74
     0
 42
0.000000001
 43
0.00000001
 40
20.0
 40
20.0
 40
20.0
 40
20.0
 40
21.0
 40
21.0
 40
21.0
 40
21.0
 10
299.8224204416053
 20
16.8695317758102
 30
0.0
 10
300.4900157915154
 20
16.8252192058984
 30
0.0
 10
300.9795211191998
 20
16.6471614814643
 30
0.0
 10
301.2910010202413
 20
16.3799941503343
 30
0.0
  0
SPLINE
  5
1D4
330
1F
100
AcDbEntity
  8
PIEZA
370
     0
100
AcDbSpline
210
0.0
220
0.0
230
1.0
 70
     8
 71
     3
 72
     8
 73
     4
 74
     0
 42
0.000000001
 43
0.00000001
 40
21.0
 40
21.0
 40
21.0
 40
21.0
 40
22.0
 40
22.0
 40
22.0
 40
22.0
 10
301.2910010202413
 20
16.3799941503343
 30
0.0
 10
301.6471487669012
 20
16.11324669049369
 30
0.0
 10
301.7805386457175
 20
15.6680862305125
 30
0.0
 10
301.7805386457175
 20
15.13417143954191
 30
0.0
  0
SPLINE
  5
1D5
330
1F
100
AcDbEntity
  8
PIEZA
370
     0
100
AcDbSpline
210
0.0
220
0.0
230
1.0
 70
     8
 71
     3
 72
     8
 73
     4
 74
     0
 42
0.000000001
 43
0.00000001
 40
22.0
 40
22.0
 40
22.0
 40
22.0
 40
23.0
 40
23.0
 40
23.0
 40
23.0
 10
301.7805386457175
 20
15.13417143954191
 30
0.0
 10
301.7805386457175
 20
14.77808828846511
 30
0.0
 10
301.6915259323961
 20
14.46657608963189
 30
0.0
 10
301.5580714579968
 20
14.19950565187639
 30
0.0
  0
SPLINE
  5
1D6
330
1F
100
AcDbEntity
  8
PIEZA
370
     0
100
AcDbSpline
210
0.0
220
0.0
230
1.0
 70
     8
 71
     3
 72
     8
 73
     4
 74
     0
 42
0.000000001
 43
0.00000001
 40
23.0
 40
23.0
 40
23.0
 40
23.0
 40
24.0
 40
24.0
 40
24.0
 40
24.0
 10
301.5580714579968
 20
14.19950565187639
 30
0.0
 10
301.4246815791809
 20
13.88802575083471
 30
0.0
 10
301.1576111414253
 20
13.70996802640061
 30
0.0
 10
300.7570862292707
 20
13.5319103019664
 30
0.0
  0
SPLINE
  5
1D7
330
1F
100
AcDbEntity
  8
PIEZA
370
     0
100
AcDbSpline
210
0.0
220
0.0
230
1.0
 70
     8
 71
     3
 72
     8
 73
     4
 74
     0
 42
0.000000001
 43
0.00000001
 40
24.0
 40
24.0
 40
24.0
 40
24.0
 40
25.0
 40
25.0
 40
25.0
 40
25.0
 10
300.7570862292707
 20
13.5319103019664
 30
0.0
 10
300.4010030781941
 20
13.39852042315038
 30
0.0
 10
300.0004781660396
 20
13.35401406648969
 30
0.0
 10
299.5109405405636
 20
13.309507709829
 30
0.0
  0
SPLINE
  5
1D8
330
1F
100
AcDbEntity
  8
PIEZA
370
     0
100
AcDbSpline
210
0.0
220
0.0
230
1.0
 70
     8
 71
     3
 72
     8
 73
     4
 74
     0
 42
0.000000001
 43
0.00000001
 40
25.0
 40
25.0
 40
25.0
 40
25.0
 40
26.0
 40
26.0
 40
26.0
 40
26.0
 10
299.5109405405636
 20
13.309507709829
 30
0.0
 10
299.0658123783742
 20
13.26500135316839
 30
0.0
 10
298.6209748963078
 20
13.26500135316839
 30
0.0
 10
298.1758144363266
 20
13.26500135316839
 30
0.0
  0
SPLINE
  5
1D9
330
1F
100
AcDbEntity
  8
PIEZA
370
     0
100
AcDbSpline
210
0.0
220
0.0
230
1.0
 70
     8
 71
     3
 72
     8
 73
     4
 74
     0
 42
0.000000001
 43
0.00000001
 40
29.0
 40
29.0
 40
29.0
 40
29.0
 40
30.0
 40
30.0
 40
30.0
 40
30.0
 10
297.6418996454267
 20
13.26500135316839
 30
0.0
 10
296.9297010454818
 20
13.26500135316839
 30
0.0
 10
296.2623963756949
 20
13.309507709829
 30
0.0
 10
295.5504238602905
 20
13.35401406648969
 30
0.0
  0
SPLINE
  5
1DA
330
1F
100
AcDbEntity
  8
PIEZA
370
     0
100
AcDbSpline
210
0.0
220
0.0
230
1.0
 70
     8
 71
     3
 72
     8
 73
     4
 74
     0
 42
0.000000001
 43
0.00000001
 40
30.0
 40
30.0
 40
30.0
 40
30.0
 40
31.0
 40
31.0
 40
31.0
 40
31.0
 10
295.5504238602905
 20
13.35401406648969
 30
0.0
 10
294.8381929625536
 20
13.44289758864513
 30
0.0
 10
294.3042781715831
 20
13.57644895641863
 30
0.0
 10
294.0372077338276
 20
13.93240291632949
 30
0.0
  0
SPLINE
  5
1DB
330
1F
100
AcDbEntity
  8
PIEZA
370
     0
100
AcDbSpline
210
0.0
220
0.0
230
1.0
 70
     8
 71
     3
 72
     8
 73
     4
 74
     0
 42
0.000000001
 43
0.00000001
 40
31.0
 40
31.0
 40
31.0
 40
31.0
 40
32.0
 40
32.0
 40
32.0
 40
32.0
 10
294.0372077338276
 20
13.93240291632949
 30
0.0
 10
293.7700727004891
 20
14.19950565187639
 30
0.0
 10
293.636682821673
 20
14.6890109795608
 30
0.0
 10
293.6810599871678
 20
15.26756131835798
 30
0.0
  0
SPLINE
  5
1DC
330
1F
100
AcDbEntity
  8
PIEZA
370
     0
100
AcDbSpline
210
0.0
220
0.0
230
1.0
 70
     8
 71
     3
 72
     8
 73
     4
 74
     0
 42
0.000000001
 43
0.00000001
 40
37.0
 40
37.0
 40
37.0
 40
37.0
 40
38.0
 40
38.0
 40
38.0
 40
38.0
 10
294.8381929625677
 20
15.17854860495799
 30
0.0
 10
294.8381929625677
 20
14.95611371502911
 30
0.0
 10
294.8828285103945
 20
14.7780882883864
 30
0.0
 10
294.9272056758891
 20
14.64434313386399
 30
0.0
  0
SPLINE
  5
1DD
330
1F
100
AcDbEntity
  8
PIEZA
370
     0
100
AcDbSpline
210
0.0
220
0.0
230
1.0
 70
     8
 71
     3
 72
     8
 73
     4
 74
     0
 42
0.000000001
 43
0.00000001
 40
38.0
 40
38.0
 40
38.0
 40
38.0
 40
39.0
 40
39.0
 40
39.0
 40
39.0
 10
294.9272056758891
 20
14.64434313386399
 30
0.0
 10
294.9272056758891
 20
14.5999982661608
 30
0.0
 10
294.9715828413837
 20
14.5554596117086
 30
0.0
 10
295.0608862348285
 20
14.46657608955319
 30
0.0
  0
SPLINE
  5
1DE
330
1F
100
AcDbEntity
  8
PIEZA
370
     0
100
AcDbSpline
210
0.0
220
0.0
230
1.0
 70
     8
 71
     3
 72
     8
 73
     4
 74
     0
 42
0.000000001
 43
0.00000001
 40
39.0
 40
39.0
 40
39.0
 40
39.0
 40
40.0
 40
40.0
 40
40.0
 40
40.0
 10
295.0608862348285
 20
14.46657608955319
 30
0.0
 10
295.1052634003233
 20
14.42194054172659
 30
0.0
 10
295.1942761136447
 20
14.37756337623193
 30
0.0
 10
295.3277305880436
 20
14.37756337623193
 30
0.0
  0
SPLINE
  5
1DF
330
1F
100
AcDbEntity
  8
PIEZA
370
     0
100
AcDbSpline
210
0.0
220
0.0
230
1.0
 70
     8
 71
     3
 72
     8
 73
     4
 74
     0
 42
0.000000001
 43
0.00000001
 40
40.0
 40
40.0
 40
40.0
 40
40.0
 40
41.0
 40
41.0
 40
41.0
 40
41.0
 10
295.3277305880436
 20
14.37756337623193
 30
0.0
 10
295.6391781912939
 20
14.28855066291049
 30
0.0
 10
296.0399614857804
 20
14.24401200845841
 30
0.0
 10
296.4847989678467
 20
14.24401200845841
 30
0.0
  0
SPLINE
  5
1E0
330
1F
100
AcDbEntity
  8
PIEZA
370
     0
100
AcDbSpline
210
0.0
220
0.0
230
1.0
 70
     8
 71
     3
 72
     8
 73
     4
 74
     0
 42
0.000000001
 43
0.00000001
 40
41.0
 40
41.0
 40
41.0
 40
41.0
 40
42.0
 40
42.0
 40
42.0
 40
42.0
 10
296.4847989678467
 20
14.24401200845841
 30
0.0
 10
296.9297010454959
 20
14.19950565179768
 30
0.0
 10
297.3304520421906
 20
14.19950565179768
 30
0.0
 10
297.6862768109359
 20
14.19950565179768
 30
0.0
  0
SPLINE
  5
1E1
330
1F
100
AcDbEntity
  8
PIEZA
370
     0
100
AcDbSpline
210
0.0
220
0.0
230
1.0
 70
     8
 71
     3
 72
     8
 73
     4
 74
     0
 42
0.000000001
 43
0.00000001
 40
42.0
 40
42.0
 40
42.0
 40
42.0
 40
43.0
 40
43.0
 40
43.0
 40
43.0
 10
297.6862768109359
 20
14.19950565179768
 30
0.0
 10
298.3094949953509
 20
14.19950565179768
 30
0.0
 10
298.9771226430526
 20
14.24401200845841
 30
0.0
 10
299.6000178495529
 20
14.28855066291049
 30
0.0
  0
SPLINE
  5
1E2
330
1F
100
AcDbEntity
  8
PIEZA
370
     0
100
AcDbSpline
210
0.0
220
0.0
230
1.0
 70
     8
 71
     3
 72
     8
 73
     4
 74
     0
 42
0.000000001
 43
0.00000001
 40
43.0
 40
43.0
 40
43.0
 40
43.0
 40
44.0
 40
44.0
 40
44.0
 40
44.0
 10
299.6000178495529
 20
14.28855066291049
 30
0.0
 10
299.9561010006297
 20
14.33305701957118
 30
0.0
 10
300.2229453538449
 20
14.42194054172659
 30
0.0
 10
300.3566259127845
 20
14.5554596117086
 30
0.0
  0
SPLINE
  5
1E3
330
1F
100
AcDbEntity
  8
PIEZA
370
     0
100
AcDbSpline
210
0.0
220
0.0
230
1.0
 70
     8
 71
     3
 72
     8
 73
     4
 74
     0
 42
0.000000001
 43
0.00000001
 40
44.0
 40
44.0
 40
44.0
 40
44.0
 40
45.0
 40
45.0
 40
45.0
 40
45.0
 10
300.3566259127845
 20
14.5554596117086
 30
0.0
 10
300.4900157916004
 20
14.64434313386399
 30
0.0
 10
300.5790931005048
 20
14.8224008582982
 30
0.0
 10
300.5790931005048
 20
15.13417143946321
 30
0.0
  0
SPLINE
  5
1E4
330
1F
100
AcDbEntity
  8
PIEZA
370
     0
100
AcDbSpline
210
0.0
220
0.0
230
1.0
 70
     8
 71
     3
 72
     8
 73
     4
 74
     0
 42
0.000000001
 43
0.00000001
 40
45.0
 40
45.0
 40
45.0
 40
45.0
 40
46.0
 40
46.0
 40
46.0
 40
46.0
 10
300.5790931005048
 20
15.13417143946321
 30
0.0
 10
300.5790931005048
 20
15.31193848377401
 30
0.0
 10
300.5343929570954
 20
15.48999620820819
 30
0.0
 10
300.4900157916004
 20
15.57900892152951
 30
0.0
  0
SPLINE
  5
1E5
330
1F
100
AcDbEntity
  8
PIEZA
370
     0
100
AcDbSpline
210
0.0
220
0.0
230
1.0
 70
     8
 71
     3
 72
     8
 73
     4
 74
     0
 42
0.000000001
 43
0.00000001
 40
46.0
 40
46.0
 40
46.0
 40
46.0
 40
47.0
 40
47.0
 40
47.0
 40
47.0
 10
300.4900157916004
 20
15.57900892152951
 30
0.0
 10
300.4456386261056
 20
15.6680862304338
 30
0.0
 10
300.4010030782791
 20
15.7570989437552
 30
0.0
 10
300.2675486038803
 20
15.80147610924993
 30
0.0
  0
SPLINE
  5
1E6
330
1F
100
AcDbEntity
  8
PIEZA
370
     0
100
AcDbSpline
210
0.0
220
0.0
230
1.0
 70
     8
 71
     3
 72
     8
 73
     4
 74
     0
 42
0.000000001
 43
0.00000001
 40
47.0
 40
47.0
 40
47.0
 40
47.0
 40
48.0
 40
48.0
 40
48.0
 40
48.0
 10
300.2675486038803
 20
15.80147610924993
 30
0.0
 10
300.17856818835
 20
15.846143954868
 30
0.0
 10
300.0448553316192
 20
15.846143954868
 30
0.0
 10
299.8670882873083
 20
15.89055341815421
 30
0.0
  0
SPLINE
  5
1E7
330
1F
100
AcDbEntity
  8
PIEZA
370
     0
100
AcDbSpline
210
0.0
220
0.0
230
1.0
 70
    24
 71
     3
 72
     8
 73
     4
 74
     0
 42
0.000000001
 43
0.00000001
 40
48.0
 40
48.0
 40
48.0
 40
48.0
 40
49.0
 40
49.0
 40
49.0
 40
49.0
 10
299.8670882873083
 20
15.89055341815421
 30
0.0
 10
299.6890305628744
 20
15.89055341815421
 30
0.0
 10
299.466563375154
 20
15.89055341815421
 30
0.0
 10
299.2438701028931
 20
15.89055341815421
 30
0.0
  0
SPLINE
  5
1E8
330
1F
100
AcDbEntity
  8
PIEZA
370
     0
100
AcDbSpline
210
0.0
220
0.0
230
1.0
 70
     8
 71
     3
 72
     8
 73
     4
 74
     0
 42
0.000000001
 43
0.00000001
 40
52.0
 40
52.0
 40
52.0
 40
52.0
 40
53.0
 40
53.0
 40
53.0
 40
53.0
 10
297.6862768108932
 20
15.93515666825422
 30
0.0
 10
297.0633816043926
 20
15.93515666825422
 30
0.0
 10
296.4401634199772
 20
15.93515666825422
 30
0.0
 10
295.8172359156853
 20
15.97953383374905
 30
0.0
  0
SPLINE
  5
1E9
330
1F
100
AcDbEntity
  8
PIEZA
370
     0
100
AcDbSpline
210
0.0
220
0.0
230
1.0
 70
     8
 71
     3
 72
     8
 73
     4
 74
     0
 42
0.000000001
 43
0.00000001
 40
53.0
 40
53.0
 40
53.0
 40
53.0
 40
54.0
 40
54.0
 40
54.0
 40
54.0
 10
295.8172359156853
 20
15.97953383374905
 30
0.0
 10
295.5057237168521
 20
15.97953383374905
 30
0.0
 10
295.2386532790966
 20
16.02423397715856
 30
0.0
 10
294.971582841341
 20
16.06854654707035
 30
0.0
  0
SPLINE
  5
1EA
330
1F
100
AcDbEntity
  8
PIEZA
370
     0
100
AcDbSpline
210
0.0
220
0.0
230
1.0
 70
     8
 71
     3
 72
     8
 73
     4
 74
     0
 42
0.000000001
 43
0.00000001
 40
54.0
 40
54.0
 40
54.0
 40
54.0
 40
55.0
 40
55.0
 40
55.0
 40
55.0
 10
294.971582841341
 20
16.06854654707035
 30
0.0
 10
294.7491156536207
 20
16.11324669047994
 30
0.0
 10
294.5267453592749
 20
16.20222710600973
 30
0.0
 10
294.3042781715545
 20
16.29098143699923
 30
0.0
  0
SPLINE
  5
1EB
330
1F
100
AcDbEntity
  8
PIEZA
370
     0
100
AcDbSpline
210
0.0
220
0.0
230
1.0
 70
     8
 71
     3
 72
     8
 73
     4
 74
     0
 42
0.000000001
 43
0.00000001
 40
55.0
 40
55.0
 40
55.0
 40
55.0
 40
56.0
 40
56.0
 40
56.0
 40
56.0
 10
294.3042781715545
 20
16.29098143699923
 30
0.0
 10
293.859150009365
 20
16.51377160263444
 30
0.0
 10
293.6366828216444
 20
16.95860908470075
 30
0.0
 10
293.6366828216444
 20
17.49274996021174
 30
0.0
  0
SPLINE
  5
1EC
330
1F
100
AcDbEntity
  8
PIEZA
370
     0
100
AcDbSpline
210
0.0
220
0.0
230
1.0
 70
     8
 71
     3
 72
     8
 73
     4
 74
     0
 42
0.000000001
 43
0.00000001
 40
56.0
 40
56.0
 40
56.0
 40
56.0
 40
57.0
 40
57.0
 40
57.0
 40
57.0
 10
293.6366828216444
 20
17.49274996021174
 30
0.0
 10
293.6366828216444
 20
17.89327487236624
 30
0.0
 10
293.725760130549
 20
18.24909964111114
 30
0.0
 10
293.9037855571915
 20
18.56087022227623
 30
0.0
  0
SPLINE
  5
1ED
330
1F
100
AcDbEntity
  8
PIEZA
370
     0
100
AcDbSpline
210
0.0
220
0.0
230
1.0
 70
     8
 71
     3
 72
     8
 73
     4
 74
     0
 42
0.000000001
 43
0.00000001
 40
57.0
 40
57.0
 40
57.0
 40
57.0
 40
58.0
 40
58.0
 40
58.0
 40
58.0
 10
293.9037855571915
 20
18.56087022227623
 30
0.0
 10
294.0815203037109
 20
18.87235012331794
 30
0.0
 10
294.3932908848758
 20
19.09472041766386
 30
0.0
 10
294.838192962525
 20
19.22817489206295
 30
0.0
  0
SPLINE
  5
1EE
330
1F
100
AcDbEntity
  8
PIEZA
370
     0
100
AcDbSpline
210
0.0
220
0.0
230
1.0
 70
     8
 71
     3
 72
     8
 73
     4
 74
     0
 42
0.000000001
 43
0.00000001
 40
58.0
 40
58.0
 40
58.0
 40
58.0
 40
59.0
 40
59.0
 40
59.0
 40
59.0
 10
294.838192962525
 20
19.22817489206295
 30
0.0
 10
295.2386532790966
 20
19.36185545100235
 30
0.0
 10
295.7281909045726
 20
19.40616802091415
 30
0.0
 10
296.2623963756663
 20
19.45086816432364
 30
0.0
  0
SPLINE
  5
1EF
330
1F
100
AcDbEntity
  8
PIEZA
370
     0
100
AcDbSpline
210
0.0
220
0.0
230
1.0
 70
     8
 71
     3
 72
     8
 73
     4
 74
     0
 42
0.000000001
 43
0.00000001
 40
59.0
 40
59.0
 40
59.0
 40
59.0
 40
60.0
 40
60.0
 40
60.0
 40
60.0
 10
296.2623963756663
 20
19.45086816432364
 30
0.0
 10
296.7962465710543
 20
19.45086816432364
 30
0.0
 10
297.2857518987386
 20
19.49524532981846
 30
0.0
 10
297.7309123587195
 20
19.49524532981846
 30
0.0
  0
SPLINE
  5
1F0
330
1F
100
AcDbEntity
  8
PIEZA
370
     0
100
AcDbSpline
210
0.0
220
0.0
230
1.0
 70
     8
 71
     3
 72
     8
 73
     4
 74
     0
 42
0.000000001
 43
0.00000001
 40
60.0
 40
60.0
 40
60.0
 40
60.0
 40
61.0
 40
61.0
 40
61.0
 40
61.0
 10
297.7309123587195
 20
19.49524532981846
 30
0.0
 10
298.3982170285062
 20
19.49524532981846
 30
0.0
 10
299.0658123784165
 20
19.45086816432364
 30
0.0
 10
299.7334077283264
 20
19.40616802091415
 30
0.0
  0
SPLINE
  5
1F1
330
1F
100
AcDbEntity
  8
PIEZA
370
     0
100
AcDbSpline
210
0.0
220
0.0
230
1.0
 70
     8
 71
     3
 72
     8
 73
     4
 74
     0
 42
0.000000001
 43
0.00000001
 40
61.0
 40
61.0
 40
61.0
 40
61.0
 40
62.0
 40
62.0
 40
62.0
 40
62.0
 10
299.7334077283264
 20
19.40616802091415
 30
0.0
 10
300.9351439537474
 20
19.31747828550763
 30
0.0
 10
301.6027716014488
 20
18.73863726658706
 30
0.0
 10
301.6027716014488
 20
17.67080768464586
 30
0.0
  0
SPLINE
  5
1F2
330
1F
100
AcDbEntity
  8
PIEZA
370
     0
100
AcDbSpline
210
0.0
220
0.0
230
1.0
 70
     8
 71
     3
 72
     8
 73
     4
 74
     0
 42
0.000000001
 43
0.00000001
 40
1.0
 40
1.0
 40
1.0
 40
1.0
 40
2.0
 40
2.0
 40
2.0
 40
2.0
 10
317.5789710508545
 20
15.57900892159218
 30
0.0
 10
317.5345938853601
 20
15.66808623049638
 30
0.0
 10
317.4455165764556
 20
15.66808623049638
 30
0.0
 10
317.3565038631342
 20
15.71278637390599
 30
0.0
  0
SPLINE
  5
1F3
330
1F
100
AcDbEntity
  8
PIEZA
370
     0
100
AcDbSpline
210
0.0
220
0.0
230
1.0
 70
     8
 71
     3
 72
     8
 73
     4
 74
     0
 42
0.000000001
 43
0.00000001
 40
2.0
 40
2.0
 40
2.0
 40
2.0
 40
3.0
 40
3.0
 40
3.0
 40
3.0
 10
317.3565038631342
 20
15.71278637390599
 30
0.0
 10
317.1784461387
 20
15.75709894381779
 30
0.0
 10
316.86699853545
 20
15.8014761093126
 30
0.0
 10
316.3327930643557
 20
15.8014761093126
 30
0.0
  0
SPLINE
  5
1F4
330
1F
100
AcDbEntity
  8
PIEZA
370
     0
100
AcDbSpline
210
0.0
220
0.0
230
1.0
 70
     8
 71
     3
 72
     8
 73
     4
 74
     0
 42
0.000000001
 43
0.00000001
 40
4.0
 40
4.0
 40
4.0
 40
4.0
 40
5.0
 40
5.0
 40
5.0
 40
5.0
 10
315.3984179568557
 20
15.8014761093126
 30
0.0
 10
314.8642770813446
 20
15.8014761093126
 30
0.0
 10
314.5084200148081
 20
15.75709894381779
 30
0.0
 10
314.330362290374
 20
15.66808623049638
 30
0.0
  0
SPLINE
  5
1F5
330
1F
100
AcDbEntity
  8
PIEZA
370
     0
100
AcDbSpline
210
0.0
220
0.0
230
1.0
 70
     8
 71
     3
 72
     8
 73
     4
 74
     0
 42
0.000000001
 43
0.00000001
 40
5.0
 40
5.0
 40
5.0
 40
5.0
 40
6.0
 40
6.0
 40
6.0
 40
6.0
 10
314.330362290374
 20
15.66808623049638
 30
0.0
 10
314.1969401137665
 20
15.57900892159218
 30
0.0
 10
314.1076044225302
 20
15.40098349494951
 30
0.0
 10
314.1076044225302
 20
15.13417143952588
 30
0.0
  0
SPLINE
  5
1F6
330
1F
100
AcDbEntity
  8
PIEZA
370
     0
100
AcDbSpline
210
0.0
220
0.0
230
1.0
 70
     8
 71
     3
 72
     8
 73
     4
 74
     0
 42
0.000000001
 43
0.00000001
 40
7.0
 40
7.0
 40
7.0
 40
7.0
 40
8.0
 40
8.0
 40
8.0
 40
8.0
 10
314.1076044225302
 20
14.68901097962589
 30
0.0
 10
314.1076044225302
 20
14.46657608969698
 30
0.0
 10
314.1969401137665
 20
14.28855066305439
 30
0.0
 10
314.3747071580772
 20
14.19950565194159
 30
0.0
  0
SPLINE
  5
1F7
330
1F
100
AcDbEntity
  8
PIEZA
370
     0
100
AcDbSpline
210
0.0
220
0.0
230
1.0
 70
     8
 71
     3
 72
     8
 73
     4
 74
     0
 42
0.000000001
 43
0.00000001
 40
8.0
 40
8.0
 40
8.0
 40
8.0
 40
9.0
 40
9.0
 40
9.0
 40
9.0
 10
314.3747071580772
 20
14.19950565194159
 30
0.0
 10
314.5527971803028
 20
14.11049293862021
 30
0.0
 10
314.9088803313797
 20
14.06598658195957
 30
0.0
 10
315.3984179568557
 20
14.06598658195957
 30
0.0
  0
SPLINE
  5
1F8
330
1F
100
AcDbEntity
  8
PIEZA
370
     0
100
AcDbSpline
210
0.0
220
0.0
230
1.0
 70
     8
 71
     3
 72
     8
 73
     4
 74
     0
 42
0.000000001
 43
0.00000001
 40
10.0
 40
10.0
 40
10.0
 40
10.0
 40
11.0
 40
11.0
 40
11.0
 40
11.0
 10
316.3327930643557
 20
14.06598658195957
 30
0.0
 10
316.8226213699549
 20
14.06598658195957
 30
0.0
 10
317.1340689732052
 20
14.11049293862021
 30
0.0
 10
317.3121266976394
 20
14.1549992952809
 30
0.0
  0
SPLINE
  5
1F9
330
1F
100
AcDbEntity
  8
PIEZA
370
     0
100
AcDbSpline
210
0.0
220
0.0
230
1.0
 70
     8
 71
     3
 72
    11
 73
     7
 74
     0
 42
0.000000001
 43
0.00000001
 40
11.0
 40
11.0
 40
11.0
 40
11.0
 40
12.0
 40
12.0
 40
12.0
 40
13.0
 40
13.0
 40
13.0
 40
13.0
 10
317.3121266976394
 20
14.1549992952809
 30
0.0
 10
317.4898937419501
 20
14.19950565194159
 30
0.0
 10
317.5789710508545
 20
14.28855066305439
 30
0.0
 10
317.5789710508545
 20
14.42194054187038
 30
0.0
 10
317.5789710508545
 20
14.46657608969698
 30
0.0
 10
317.5789710508545
 20
14.55545961185248
 30
0.0
 10
317.5789710508545
 20
14.59999826630459
 30
0.0
  0
SPLINE
  5
1FA
330
1F
100
AcDbEntity
  8
PIEZA
370
     0
100
AcDbSpline
210
0.0
220
0.0
230
1.0
 70
     8
 71
     3
 72
     8
 73
     4
 74
     0
 42
0.000000001
 43
0.00000001
 40
18.0
 40
18.0
 40
18.0
 40
18.0
 40
19.0
 40
19.0
 40
19.0
 40
19.0
 10
319.2702449017991
 20
14.11049293848119
 30
0.0
 10
319.2702449017991
 20
13.79904533523096
 30
0.0
 10
319.0474870339552
 20
13.5764489563447
 30
0.0
 10
318.6914038828783
 20
13.48756543418929
 30
0.0
  0
SPLINE
  5
1FB
330
1F
100
AcDbEntity
  8
PIEZA
370
     0
100
AcDbSpline
210
0.0
220
0.0
230
1.0
 70
     8
 71
     3
 72
     8
 73
     4
 74
     0
 42
0.000000001
 43
0.00000001
 40
19.0
 40
19.0
 40
19.0
 40
19.0
 40
20.0
 40
20.0
 40
20.0
 40
20.0
 10
318.6914038828783
 20
13.48756543418929
 30
0.0
 10
318.3355791141333
 20
13.35401406641576
 30
0.0
 10
317.6679837642233
 20
13.26500135309447
 30
0.0
 10
316.7779858221758
 20
13.26500135309447
 30
0.0
  0
SPLINE
  5
1FC
330
1F
100
AcDbEntity
  8
PIEZA
370
     0
100
AcDbSpline
210
0.0
220
0.0
230
1.0
 70
     8
 71
     3
 72
     8
 73
     4
 74
     0
 42
0.000000001
 43
0.00000001
 40
21.0
 40
21.0
 40
21.0
 40
21.0
 40
22.0
 40
22.0
 40
22.0
 40
22.0
 10
314.9532574968758
 20
13.26500135309447
 30
0.0
 10
314.4193427059053
 20
13.26500135309447
 30
0.0
 10
313.9742145437157
 20
13.30950770975507
 30
0.0
 10
313.7518119515782
 20
13.30950770975507
 30
0.0
  0
SPLINE
  5
1FD
330
1F
100
AcDbEntity
  8
PIEZA
370
     0
100
AcDbSpline
210
0.0
220
0.0
230
1.0
 70
     8
 71
     3
 72
     8
 73
     4
 74
     0
 42
0.000000001
 43
0.00000001
 40
22.0
 40
22.0
 40
22.0
 40
22.0
 40
23.0
 40
23.0
 40
23.0
 40
23.0
 10
313.7518119515782
 20
13.30950770975507
 30
0.0
 10
313.4846769182398
 20
13.35401406641576
 30
0.0
 10
313.2623066238941
 20
13.44289758857121
 30
0.0
 10
313.0398394361735
 20
13.53191030189256
 30
0.0
  0
SPLINE
  5
1FE
330
1F
100
AcDbEntity
  8
PIEZA
370
     0
100
AcDbSpline
210
0.0
220
0.0
230
1.0
 70
     8
 71
     3
 72
     8
 73
     4
 74
     0
 42
0.000000001
 43
0.00000001
 40
23.0
 40
23.0
 40
23.0
 40
23.0
 40
24.0
 40
24.0
 40
24.0
 40
24.0
 10
313.0398394361735
 20
13.53191030189256
 30
0.0
 10
312.8617494139478
 20
13.62095531300539
 30
0.0
 10
312.6836916895135
 20
13.75447438298729
 30
0.0
 10
312.5946789761923
 20
13.88802575076087
 30
0.0
  0
SPLINE
  5
1FF
330
1F
100
AcDbEntity
  8
PIEZA
370
     0
100
AcDbSpline
210
0.0
220
0.0
230
1.0
 70
     8
 71
     3
 72
     8
 73
     4
 74
     0
 42
0.000000001
 43
0.00000001
 40
24.0
 40
24.0
 40
24.0
 40
24.0
 40
25.0
 40
25.0
 40
25.0
 40
25.0
 10
312.5946789761923
 20
13.88802575076087
 30
0.0
 10
312.5056985606626
 20
14.06598658182056
 30
0.0
 10
312.4613213951678
 20
14.24401200846318
 30
0.0
 10
312.4613213951678
 20
14.46657608955797
 30
0.0
  0
SPLINE
  5
200
330
1F
100
AcDbEntity
  8
PIEZA
370
     0
100
AcDbSpline
210
0.0
220
0.0
230
1.0
 70
     8
 71
     3
 72
     8
 73
     4
 74
     0
 42
0.000000001
 43
0.00000001
 40
26.0
 40
26.0
 40
26.0
 40
26.0
 40
27.0
 40
27.0
 40
27.0
 40
27.0
 10
312.4613213951678
 20
15.35663862725797
 30
0.0
 10
312.4613213951678
 20
15.80147610932439
 30
0.0
 10
312.6390884394787
 20
16.15759155819259
 30
0.0
 10
312.9951392927639
 20
16.3356815804183
 30
0.0
  0
SPLINE
  5
201
330
1F
100
AcDbEntity
  8
PIEZA
370
     0
100
AcDbSpline
210
0.0
220
0.0
230
1.0
 70
     8
 71
     3
 72
     8
 73
     4
 74
     0
 42
0.000000001
 43
0.00000001
 40
27.0
 40
27.0
 40
27.0
 40
27.0
 40
28.0
 40
28.0
 40
28.0
 40
28.0
 10
312.9951392927639
 20
16.3356815804183
 30
0.0
 10
313.3512870394237
 20
16.51377160264387
 30
0.0
 10
314.0188823893337
 20
16.60275201817366
 30
0.0
 10
314.9532574968758
 20
16.60275201817366
 30
0.0
  0
SPLINE
  5
202
330
1F
100
AcDbEntity
  8
PIEZA
370
     0
100
AcDbSpline
210
0.0
220
0.0
230
1.0
 70
     8
 71
     3
 72
     8
 73
     4
 74
     0
 42
0.000000001
 43
0.00000001
 40
29.0
 40
29.0
 40
29.0
 40
29.0
 40
30.0
 40
30.0
 40
30.0
 40
30.0
 10
316.7779858221758
 20
16.60275201817366
 30
0.0
 10
317.3565038631817
 20
16.60275201817366
 30
0.0
 10
317.7569964775447
 20
16.60275201817366
 30
0.0
 10
318.0685086763779
 20
16.55808417255567
 30
0.0
  0
SPLINE
  5
203
330
1F
100
AcDbEntity
  8
PIEZA
370
     0
100
AcDbSpline
210
0.0
220
0.0
230
1.0
 70
     8
 71
     3
 72
     8
 73
     4
 74
     0
 42
0.000000001
 43
0.00000001
 40
30.0
 40
30.0
 40
30.0
 40
30.0
 40
31.0
 40
31.0
 40
31.0
 40
31.0
 10
318.0685086763779
 20
16.55808417255567
 30
0.0
 10
318.3355791141333
 20
16.51377160264387
 30
0.0
 10
318.5579817062708
 20
16.46907145923429
 30
0.0
 10
318.7360394307049
 20
16.37999415033007
 30
0.0
  0
SPLINE
  5
204
330
1F
100
AcDbEntity
  8
PIEZA
370
     0
100
AcDbSpline
210
0.0
220
0.0
230
1.0
 70
     8
 71
     3
 72
     8
 73
     4
 74
     0
 42
0.000000001
 43
0.00000001
 40
31.0
 40
31.0
 40
31.0
 40
31.0
 40
32.0
 40
32.0
 40
32.0
 40
32.0
 10
318.7360394307049
 20
16.37999415033007
 30
0.0
 10
318.8694616073124
 20
16.3356815804183
 30
0.0
 10
319.0031744640435
 20
16.20222710601916
 30
0.0
 10
319.0921871773646
 20
16.06854654707978
 30
0.0
  0
SPLINE
  5
205
330
1F
100
AcDbEntity
  8
PIEZA
370
     0
100
AcDbSpline
210
0.0
220
0.0
230
1.0
 70
     8
 71
     3
 72
    11
 73
     7
 74
     0
 42
0.000000001
 43
0.00000001
 40
32.0
 40
32.0
 40
32.0
 40
32.0
 40
33.0
 40
33.0
 40
33.0
 40
34.0
 40
34.0
 40
34.0
 40
34.0
 10
319.0921871773646
 20
16.06854654707978
 30
0.0
 10
319.1809415083545
 20
15.93515666826365
 30
0.0
 10
319.1809415083545
 20
15.84614395494238
 30
0.0
 10
319.1809415083545
 20
15.66808623050817
 30
0.0
 10
319.1809415083545
 20
15.62370906501348
 30
0.0
 10
319.1809415083545
 20
15.62370906501348
 30
0.0
 10
319.1809415083545
 20
15.53469635169218
 30
0.0
  0
SPLINE
  5
206
330
1F
100
AcDbEntity
  8
PIEZA
370
     0
100
AcDbSpline
210
0.0
220
0.0
230
1.0
 70
     8
 71
     3
 72
    11
 73
     7
 74
     0
 42
0.000000001
 43
0.00000001
 40
2.0
 40
2.0
 40
2.0
 40
2.0
 40
3.0
 40
3.0
 40
3.0
 40
4.0
 40
4.0
 40
4.0
 40
4.0
 10
334.6827186986609
 20
20.40368531081712
 30
0.0
 10
334.8392983917602
 20
20.40368531081712
 30
0.0
 10
334.953051213356
 20
20.3905401096844
 30
0.0
 10
335.023977163448
 20
20.36424970741896
 30
0.0
 10
335.0949031135401
 20
20.33795930515351
 30
0.0
 10
335.151714928755
 20
20.29119210308918
 30
0.0
 10
335.1943480135097
 20
20.22394810122596
 30
0.0
  0
SPLINE
  5
207
330
1F
100
AcDbEntity
  8
PIEZA
370
     0
100
AcDbSpline
210
0.0
220
0.0
230
1.0
 70
     8
 71
     3
 72
    11
 73
     7
 74
     0
 42
0.000000001
 43
0.00000001
 40
4.0
 40
4.0
 40
4.0
 40
4.0
 40
5.0
 40
5.0
 40
5.0
 40
6.0
 40
6.0
 40
6.0
 40
6.0
 10
335.1943480135097
 20
20.22394810122596
 30
0.0
 10
335.2369810982645
 20
20.15673639715423
 30
0.0
 10
335.2582976406418
 20
20.07986765342971
 30
0.0
 10
335.2582976406418
 20
19.99334187005241
 30
0.0
 10
335.2582976406418
 20
19.88349708122589
 30
0.0
 10
335.226129040327
 20
19.79280488274755
 30
0.0
 10
335.1617595419055
 20
19.7212329768259
 30
0.0
  0
SPLINE
  5
208
330
1F
100
AcDbEntity
  8
PIEZA
370
     0
100
AcDbSpline
210
0.0
220
0.0
230
1.0
 70
     8
 71
     3
 72
     8
 73
     4
 74
     0
 42
0.000000001
 43
0.00000001
 40
6.0
 40
6.0
 40
6.0
 40
6.0
 40
7.0
 40
7.0
 40
7.0
 40
7.0
 10
335.1617595419055
 20
19.7212329768259
 30
0.0
 10
335.0974223412756
 20
19.64969336869572
 30
0.0
 10
335.0012395182454
 20
19.60457335399692
 30
0.0
 10
334.8732110728152
 20
19.58593752831245
 30
0.0
  0
SPLINE
  5
209
330
1F
100
AcDbEntity
  8
PIEZA
370
     0
100
AcDbSpline
210
0.0
220
0.0
230
1.0
 70
     8
 71
     3
 72
     8
 73
     4
 74
     0
 42
0.000000001
 43
0.00000001
 40
7.0
 40
7.0
 40
7.0
 40
7.0
 40
8.0
 40
8.0
 40
8.0
 40
8.0
 10
334.8732110728152
 20
19.58593752831245
 30
0.0
 10
334.9368054242411
 20
19.5486658769435
 30
0.0
 10
334.989321633189
 20
19.50771227734573
 30
0.0
 10
335.0307274018675
 20
19.46310902731062
 30
0.0
  0
SPLINE
  5
20A
330
1F
100
AcDbEntity
  8
PIEZA
370
     0
100
AcDbSpline
210
0.0
220
0.0
230
1.0
 70
     8
 71
     3
 72
     8
 73
     4
 74
     0
 42
0.000000001
 43
0.00000001
 40
8.0
 40
8.0
 40
8.0
 40
8.0
 40
9.0
 40
9.0
 40
9.0
 40
9.0
 10
335.0307274018675
 20
19.46310902731062
 30
0.0
 10
335.0721654683376
 20
19.41850577727551
 30
0.0
 10
335.1279760520165
 20
19.33927929477289
 30
0.0
 10
335.1981914506959
 20
19.22539728201127
 30
0.0
  0
SPLINE
  5
20B
330
1F
100
AcDbEntity
  8
PIEZA
370
     0
100
AcDbSpline
210
0.0
220
0.0
230
1.0
 70
     8
 71
     3
 72
     8
 73
     4
 74
     0
 42
0.000000001
 43
0.00000001
 40
12.0
 40
12.0
 40
12.0
 40
12.0
 40
13.0
 40
13.0
 40
13.0
 40
13.0
 10
334.8115868866697
 20
19.2593099630662
 30
0.0
 10
334.7354286943577
 20
19.37283670012153
 30
0.0
 10
334.6833000589076
 20
19.44437630825171
 30
0.0
 10
334.6552655759022
 20
19.47392878745672
 30
0.0
  0
SPLINE
  5
20C
330
1F
100
AcDbEntity
  8
PIEZA
370
     0
100
AcDbSpline
210
0.0
220
0.0
230
1.0
 70
     8
 71
     3
 72
     8
 73
     4
 74
     0
 42
0.000000001
 43
0.00000001
 40
13.0
 40
13.0
 40
13.0
 40
13.0
 40
14.0
 40
14.0
 40
14.0
 40
14.0
 10
334.6552655759022
 20
19.47392878745672
 30
0.0
 10
334.6271987951053
 20
19.50344896887025
 30
0.0
 10
334.5974848269429
 20
19.52369968412877
 30
0.0
 10
334.5660913736235
 20
19.5346486354408
 30
0.0
  0
SPLINE
  5
20D
330
1F
100
AcDbEntity
  8
PIEZA
370
     0
100
AcDbSpline
210
0.0
220
0.0
230
1.0
 70
     8
 71
     3
 72
     8
 73
     4
 74
     0
 42
0.000000001
 43
0.00000001
 40
14.0
 40
14.0
 40
14.0
 40
14.0
 40
15.0
 40
15.0
 40
15.0
 40
15.0
 10
334.5660913736235
 20
19.5346486354408
 30
0.0
 10
334.5346656225125
 20
19.5456298845443
 30
0.0
 10
334.4849270236319
 20
19.55108821130457
 30
0.0
 10
334.4167786836073
 20
19.55108821130457
 30
0.0
  0
SPLINE
  5
20E
330
1F
100
AcDbEntity
  8
PIEZA
370
     0
100
AcDbSpline
210
0.0
220
0.0
230
1.0
 70
     8
 71
     3
 72
     8
 73
     4
 74
     0
 42
0.000000001
 43
0.00000001
 40
1.0
 40
1.0
 40
1.0
 40
1.0
 40
2.0
 40
2.0
 40
2.0
 40
2.0
 10
334.5752962441955
 20
19.78418137242215
 30
0.0
 10
334.7170512510051
 20
19.78418137242215
 30
0.0
 10
334.8055794974542
 20
19.7901887616376
 30
0.0
 10
334.8408486857514
 20
19.80217124227701
 30
0.0
  0
SPLINE
  5
20F
330
1F
100
AcDbEntity
  8
PIEZA
370
     0
100
AcDbSpline
210
0.0
220
0.0
230
1.0
 70
     8
 71
     3
 72
     8
 73
     4
 74
     0
 42
0.000000001
 43
0.00000001
 40
2.0
 40
2.0
 40
2.0
 40
2.0
 40
3.0
 40
3.0
 40
3.0
 40
3.0
 10
334.8408486857514
 20
19.80217124227701
 30
0.0
 10
334.8761178740485
 20
19.81418602070791
 30
0.0
 10
334.9037647835561
 20
19.83485660725567
 30
0.0
 10
334.9237248186914
 20
19.86418300192032
 30
0.0
  0
SPLINE
  5
210
330
1F
100
AcDbEntity
  8
PIEZA
370
     0
100
AcDbSpline
210
0.0
220
0.0
230
1.0
 70
     8
 71
     3
 72
    14
 73
    10
 74
     0
 42
0.000000001
 43
0.00000001
 40
3.0
 40
3.0
 40
3.0
 40
3.0
 40
4.0
 40
4.0
 40
4.0
 40
5.0
 40
5.0
 40
5.0
 40
6.0
 40
6.0
 40
6.0
 40
6.0
 10
334.9237248186914
 20
19.86418300192032
 30
0.0
 10
334.9436848538265
 20
19.89354169437645
 30
0.0
 10
334.9536648713941
 20
19.93023198549874
 30
0.0
 10
334.9536648713941
 20
19.97422157749572
 30
0.0
 10
334.9536648713941
 20
20.02357260287852
 30
0.0
 10
334.9405196702614
 20
20.06339577977446
 30
0.0
 10
334.9142292679959
 20
20.09375570376649
 30
0.0
 10
334.8879388657305
 20
20.12411562775853
 30
0.0
 10
334.850828703319
 20
20.1432682181067
 30
0.0
 10
334.8029310785528
 20
20.15127807039396
 30
0.0
  0
SPLINE
  5
211
330
1F
100
AcDbEntity
  8
PIEZA
370
     0
100
AcDbSpline
210
0.0
220
0.0
230
1.0
 70
     8
 71
     3
 72
     8
 73
     4
 74
     0
 42
0.000000001
 43
0.00000001
 40
6.0
 40
6.0
 40
6.0
 40
6.0
 40
7.0
 40
7.0
 40
7.0
 40
7.0
 10
334.8029310785528
 20
20.15127807039396
 30
0.0
 10
334.778966117274
 20
20.15460474291649
 30
0.0
 10
334.7070712334375
 20
20.15628422807351
 30
0.0
 10
334.5872787248349
 20
20.15628422807351
 30
0.0
  0
SPLINE
  5
212
330
1F
100
AcDbEntity
  8
1
100
AcDbSpline
210
0.0
220
0.0
230
1.0
 70
     8
 71
     3
 72
    10
 73
     6
 74
     0
 42
0.000000001
 43
0.00000001
 40
0.0
 40
0.0
 40
0.0
 40
0.0
 40
0.2578267828839312
 40
0.629641199831703
 40
1.0
 40
1.0
 40
1.0
 40
1.0
 10
148.480594855481
 20
148.5711804230008
 30
0.0
 10
148.6536922166546
 20
148.67354783234
 30
0.0
 10
149.0479760298179
 20
148.9067877655243
 30
0.0
 10
149.4817572067904
 20
149.1637218072893
 30
0.0
 10
149.5841575096833
 20
149.2248616027642
 30
0.0
 10
149.5848431767914
 20
149.2256259892056
 30
0.0
  0
SPLINE
  5
213
330
1F
100
AcDbEntity
  8
1
100
AcDbSpline
210
0.0
220
0.0
230
1.0
 70
     8
 71
     3
 72
    11
 73
     7
 74
     0
 42
0.000000001
 43
0.00000001
 40
0.0
 40
0.0
 40
0.0
 40
0.0
 40
0.248322379529401
 40
0.4977984034095926
 40
0.7484142803391562
 40
1.0
 40
1.0
 40
1.0
 40
1.0
 10
210.6989669118308
 20
148.959126290709
 30
0.0
 10
210.3907736514946
 20
149.1412091235432
 30
0.0
 10
209.8212993037386
 20
149.4775695755516
 30
0.0
 10
209.056996240524
 20
149.9287213588756
 30
0.0
 10
208.5447508909345
 20
150.2306853244526
 30
0.0
 10
208.4257057024841
 20
150.3003920427305
 30
0.0
 10
208.417750078798
 20
150.3047342168215
 30
0.0
  0
SPLINE
  5
214
330
1F
100
AcDbEntity
  8
1
100
AcDbSpline
210
0.0
220
0.0
230
1.0
 70
     8
 71
     3
 72
    11
 73
     7
 74
     0
 42
0.000000001
 43
0.00000001
 40
0.0
 40
0.0
 40
0.0
 40
0.0
 40
0.2483892122252203
 40
0.4977546656117183
 40
0.7482836897127134
 40
1.0
 40
1.0
 40
1.0
 40
1.0
 10
207.8928348227396
 20
149.2256228725496
 30
0.0
 10
207.8935204898477
 20
149.2248584861082
 30
0.0
 10
207.9959207927406
 20
149.1637186906333
 30
0.0
 10
208.4799002410782
 20
148.8770515819761
 30
0.0
 10
209.221310307882
 20
148.4385357588976
 30
0.0
 10
209.7821533490535
 20
148.1070343664447
 30
0.0
 10
210.0885274954866
 20
147.9259933278368
 30
0.0
  0
SPLINE
  5
215
330
1F
100
AcDbEntity
  8
1
100
AcDbSpline
210
0.0
220
0.0
230
1.0
 70
    24
 71
     3
 72
    14
 73
    10
 74
     0
 42
0.000000001
 43
0.00000001
 40
0.0
 40
0.0
 40
0.0
 40
0.0
 40
0.0023909247151473
 40
0.0023909247151473
 40
0.2524170555849474
 40
0.2524170555849474
 40
0.502458664110881
 40
0.502458664110881
 40
1.0
 40
1.0
 40
1.0
 40
1.0
 10
227.7418118960387
 20
140.6028807600493
 30
0.0
 10
227.74182704918
 20
140.602872360526
 30
0.0
 10
227.7418422023211
 20
140.6028639610027
 30
0.0
 10
227.7434419458129
 20
140.6019772087053
 30
0.0
 10
227.7450249394165
 20
140.6010997410224
 30
0.0
 10
227.7478470394025
 20
140.599535425456
 30
0.0
 10
227.7490861812493
 20
140.5988485579143
 30
0.0
 10
227.7517658090325
 20
140.5973632159795
 30
0.0
 10
227.7521919313768
 20
140.5971270125071
 30
0.0
 10
227.7526181212608
 20
140.5968907715967
 30
0.0
  0
SPLINE
  5
216
330
1F
100
AcDbEntity
  8
1
100
AcDbSpline
210
0.0
220
0.0
230
1.0
 70
    24
 71
     3
 72
    14
 73
    10
 74
     0
 42
0.000000001
 43
0.00000001
 40
0.0
 40
0.0
 40
0.0
 40
0.0
 40
0.002390924715113
 40
0.002390924715113
 40
0.2524170555849078
 40
0.2524170555849078
 40
0.5024586641108504
 40
0.5024586641108504
 40
1.0
 40
1.0
 40
1.0
 40
1.0
 10
223.8002375812521
 20
136.3849482996187
 30
0.0
 10
223.800222428111
 20
136.384956699142
 30
0.0
 10
223.8002072749698
 20
136.3849650986653
 30
0.0
 10
223.7986075314781
 20
136.3858518509628
 30
0.0
 10
223.7970245378745
 20
136.3867293186456
 30
0.0
 10
223.7942024378884
 20
136.3882936342121
 30
0.0
 10
223.7929632960417
 20
136.3889805017537
 30
0.0
 10
223.7902836682583
 20
136.3904658436885
 30
0.0
 10
223.7898575459141
 20
136.3907020471609
 30
0.0
 10
223.7894313560302
 20
136.3909382880713
 30
0.0
  0
SPLINE
  5
217
330
1F
100
AcDbEntity
  8
CAJETIN
100
AcDbSpline
210
0.0
220
0.0
230
1.0
 70
    24
 71
     2
 72
     6
 73
     3
 74
     0
 42
0.000000001
 43
0.00000001
 40
0.3298424512210171
 40
0.3298424512210171
 40
0.3298424512210171
 40
1.0
 40
1.0
 40
1.0
 10
136.1699754284672
 20
12.67962147535281
 30
0.0
 10
136.1659942070671
 20
15.4957622544391
 30
0.0
 10
136.1599591721811
 20
19.76468029191646
 30
0.0
  0
SPLINE
  5
218
330
1F
100
AcDbEntity
  8
CAJETIN
100
AcDbSpline
210
0.0
220
0.0
230
1.0
 70
    24
 71
     2
 72
     6
 73
     3
 74
     0
 42
0.000000001
 43
0.00000001
 40
8.0
 40
8.0
 40
8.0
 40
8.39994802127126
 40
8.39994802127126
 40
8.39994802127126
 10
137.7439317650313
 20
13.56862631325695
 30
0.0
 10
138.0564577989896
 20
13.10986804837858
 30
0.0
 10
138.4315215291514
 20
12.55931043918172
 30
0.0
  0
ELLIPSE
  5
219
330
1F
100
AcDbEntity
  8
1
100
AcDbEllipse
 10
209.3574611863
 20
149.1600943586
 30
0.0
 11
0.2697537426411145
 21
0.535941151929137
 31
0.0
210
0.0
220
0.0
230
1.0
 40
0.9659258263
 41
6.232627415011469
 42
6.283185307179586
  0
ELLIPSE
  5
21A
330
1F
100
AcDbEntity
  8
1
100
AcDbEllipse
 10
148.1202186548
 20
149.1600943586
 30
0.0
 11
0.2697537426410861
 21
-0.535941151929137
 31
0.0
210
0.0
220
0.0
230
1.0
 40
0.9659258263
 41
0.0
 42
6.283185307179586
  0
HATCH
  5
21B
330
1F
100
AcDbEntity
  8
COTAS
100
AcDbHatch
 10
0.0
 20
0.0
 30
0.0
210
0.0
220
0.0
230
1.0
  2
ANSI31
 70
     0
 71
     0
 91
        1
 92
        0
 93
        6
 72
     1
 10
278.7388399205229
 20
123.2651785446857
 11
249.8126419845196
 21
123.2651785446857
 72
     2
 10
248.9872023498569
 20
125.6249771398052
 40
2.499999999999989
 50
70.72055055091676
 51
109.2794494490833
 73
     0
 72
     1
 10
248.1617627151942
 20
123.2651785446857
 11
213.7388399205229
 21
123.2651785446857
 72
     1
 10
213.7388399205229
 20
123.2651785446857
 11
213.7388399205229
 21
116.2651785446857
 72
     1
 10
213.7388399205229
 20
116.2651785446857
 11
278.7388399205229
 21
116.2651785446857
 72
     1
 10
278.7388399205229
 20
116.2651785446857
 11
278.7388399205229
 21
123.2651785446857
 97
        0
 75
     0
 76
     1
 52
0.0
 41
1.0
 77
     0
 78
     1
 53
45.0
 43
0.0
 44
0.0
 45
-2.245064030267288
 46
2.245064030267288
 79
     0
 98
        1
 10
0.0
 20
0.0
  0
HATCH
  5
21C
330
1F
100
AcDbEntity
  8
COTAS
100
AcDbHatch
 10
0.0
 20
0.0
 30
0.0
210
0.0
220
0.0
230
1.0
  2
ANSI31
 70
     0
 71
     0
 91
        1
 92
        0
 93
        6
 72
     1
 10
143.7388399205229
 20
123.2651785446857
 11
109.3159171258513
 21
123.2651785446857
 72
     2
 10
108.4904774911879
 20
125.624977139805
 40
2.500000000000023
 50
70.72055055090111
 51
109.2794494490989
 73
     0
 72
     1
 10
107.6650378565246
 20
123.2651785446857
 11
78.7388399205229
 21
123.2651785446857
 72
     1
 10
78.7388399205229
 20
123.2651785446857
 11
78.7388399205229
 21
116.2651785446857
 72
     1
 10
78.7388399205229
 20
116.2651785446857
 11
143.7388399205229
 21
116.2651785446857
 72
     1
 10
143.7388399205229
 20
116.2651785446857
 11
143.7388399205229
 21
123.2651785446857
 97
        0
 75
     0
 76
     1
 52
0.0
 41
1.0
 77
     0
 78
     1
 53
45.0
 43
0.0
 44
0.0
 45
-2.245064030267288
 46
2.245064030267288
 79
     0
 98
        1
 10
0.0
 20
0.0
  0
HATCH
  5
21D
330
1F
100
AcDbEntity
  8
COTAS
100
AcDbHatch
 10
0.0
 20
0.0
 30
0.0
210
0.0
220
0.0
230
1.0
  2
ANSI31
 70
     0
 71
     0
 91
        1
 92
        0
 93
        4
 72
     1
 10
78.7388399205229
 20
190.2651785446857
 11
278.7388399205229
 21
190.2651785446857
 72
     1
 10
278.7388399205229
 20
190.2651785446857
 11
278.7388399205229
 21
197.2651785446857
 72
     1
 10
278.7388399205229
 20
197.2651785446857
 11
78.7388399205229
 21
197.2651785446857
 72
     1
 10
78.7388399205229
 20
197.2651785446857
 11
78.7388399205229
 21
190.2651785446857
 97
        0
 75
     0
 76
     1
 52
0.0
 41
1.0
 77
     0
 78
     1
 53
45.0
 43
0.0
 44
0.0
 45
-2.245064030267288
 46
2.245064030267288
 79
     0
 98
        1
 10
0.0
 20
0.0
  0
DIMENSION
  5
21E
330
1F
100
AcDbEntity
  8
COTAS
100
AcDbDimension
  2
_D
 10
299.5429838432
 20
116.2651785447
 30
0.0
 11
299.5429838432
 21
153.2651785447
 31
0.0
 70
   160
  1
MIN <> mm
 71
     2
 42
-1.0
 73
     0
 74
     0
 75
     0
  3
SLDDIMSTYLE0
100
AcDbAlignedDimension
 13
278.7388399205
 23
190.2651785447
 33
0.0
 14
278.7388399205
 24
116.2651785447
 34
0.0
 50
90.0
100
AcDbRotatedDimension
  0
DIMENSION
  5
22E
330
1F
100
AcDbEntity
  8
COTAS
100
AcDbDimension
  2
_D_1
 10
49.9697386957
 20
114.7651785447
 30
0.0
 11
49.9697386957
 21
140.0182442923
 31
0.0
 70
   160
  1
<>
 71
     2
 42
-1.0
 73
     0
 74
     0
 75
     0
  3
SLDDIMSTYLE0
100
AcDbAlignedDimension
 13
172.778546553
 23
168.3651785447
 33
0.0
 14
137.7603585672
 24
114.7651785447
 34
0.0
 50
90.0
100
AcDbRotatedDimension
  0
DIMENSION
  5
238
330
1F
100
AcDbEntity
  8
COTAS
100
AcDbDimension
  2
_D_2
 10
62.9988229405
 20
114.7651785447
 30
0.0
 11
62.9988229405
 21
137.8265584901
 31
0.0
 70
   160
  1
<>
 71
     2
 42
-1.0
 73
     0
 74
     0
 75
     0
  3
SLDDIMSTYLE1
100
AcDbAlignedDimension
 13
78.7388399205
 23
116.2651785447
 33
0.0
 14
137.7603585672
 24
114.7651785447
 34
0.0
 50
90.0
100
AcDbRotatedDimension
  0
DIMENSION
  5
245
330
1F
100
AcDbEntity
  8
COTAS
100
AcDbDimension
  2
_D_3
 10
261.0418785547
 20
265.1386802994
 30
0.0
 11
261.0418785547
 21
414.1346928817
 31
0.0
 70
   160
  1
<>
 71
     2
 42
-1.0
 73
     0
 74
     0
 75
     0
  3
SLDDIMSTYLE0
100
AcDbAlignedDimension
 13
178.7388399205
 23
563.1307054639
 33
0.0
 14
178.7388399205
 24
265.1386802994
 34
0.0
 50
90.0
100
AcDbRotatedDimension
  0
DIMENSION
  5
24F
330
1F
100
AcDbEntity
  8
COTAS
100
AcDbDimension
  2
_D_4
 10
137.2428273383
 20
246.9174090186
 30
0.0
 11
178.7388399205
 21
246.9174090186
 31
0.0
 70
   160
  1
<>
 71
     2
 42
-1.0
 73
     0
 74
     0
 75
     0
  3
SLDDIMSTYLE0
100
AcDbAlignedDimension
 13
220.2348525028
 23
306.6346928817
 33
0.0
 14
137.2428273383
 24
306.6346928817
 34
0.0
100
AcDbRotatedDimension
  0
MTEXT
  5
259
330
1F
100
AcDbEntity
  8
TEXTO
100
AcDbMText
 10
263.8341474975
 20
36.2700409641
 30
0.0
 40
8.0
 41
0.0
 46
0.0
 71
     1
 72
     1
  1
OLYMPIA
  7
SLDTEXTSTYLE0
 73
     1
 44
1.0
  0
INSERT
  5
25F
330
1F
100
AcDbEntity
  8
TEXTO
100
AcDbBlockReference
  2
SW_NOTE_0
 10
48.4943182408
 20
17.5620896788
 30
0.0
  0
INSERT
  5
265
330
1F
100
AcDbEntity
  8
TEXTO
100
AcDbBlockReference
  2
SW_NOTE_1
 10
87.9657843122
 20
17.8383408909
 30
0.0
  0
MTEXT
  5
266
330
1F
100
AcDbEntity
  8
TEXTO
100
AcDbMText
 10
163.7130131453
 20
18.6928312416
 30
0.0
 40
3.5
 41
0.0
 46
0.0
 71
     1
 72
     1
  1
70x285 mm.
  7
SLDTEXTSTYLE0
 73
     1
 44
1.0
  0
ENDSEC
  0
SECTION
  2
OBJECTS
  0
DICTIONARY
  5
C
330
0
100
AcDbDictionary
281
     1
  3
ACAD_DETAILVIEWSTYLE
350
26F
  3
ACAD_GROUP
350
D
  3
ACAD_LAYOUT
350
1A
  3
ACAD_MATERIAL
350
43
  3
ACAD_MLEADERSTYLE
350
6B
  3
ACAD_MLINESTYLE
350
17
  3
ACAD_PLOTSETTINGS
350
19
  3
ACAD_PLOTSTYLENAME
350
E
  3
ACAD_SCALELIST
350
47
  3
ACAD_SECTIONVIEWSTYLE
350
270
  3
ACAD_TABLESTYLE
350
69
  3
ACAD_VISUALSTYLE
350
2A
  3
ACDB_RECOMPOSE_DATA
350
26C
  3
AcDbVariableDictionary
350
267
  0
SUN
  5
6D
330
29
100
AcDbSun
 90
        1
290
     0
 63
     7
421
 16777215
 40
1.0
291
     1
 91
  2455826
 92
 54000000
292
     0
 70
     2
 71
   256
280
     1
  0
DICTIONARY
  5
26F
102
{ACAD_REACTORS
330
C
102
}
330
C
100
AcDbDictionary
281
     1
  0
DICTIONARY
  5
D
102
{ACAD_REACTORS
330
C
102
}
330
C
100
AcDbDictionary
281
     1
  0
DICTIONARY
  5
1A
102
{ACAD_REACTORS
330
C
102
}
330
C
100
AcDbDictionary
281
     1
  3
Layout1
350
1E
  3
Layout2
350
26
  3
Model
350
22
  0
DICTIONARY
  5
43
102
{ACAD_REACTORS
330
C
102
}
330
C
100
AcDbDictionary
281
     1
  3
ByBlock
350
45
  3
ByLayer
350
44
  3
Global
350
46
  0
DICTIONARY
  5
6B
102
{ACAD_REACTORS
330
C
102
}
330
C
100
AcDbDictionary
281
     1
  3
Standard
350
6C
  0
DICTIONARY
  5
17
102
{ACAD_REACTORS
330
C
102
}
330
C
100
AcDbDictionary
281
     1
  3
Standard
350
18
  0
DICTIONARY
  5
19
102
{ACAD_REACTORS
330
C
102
}
330
C
100
AcDbDictionary
281
     1
  0
ACDBDICTIONARYWDFLT
  5
E
102
{ACAD_REACTORS
330
C
102
}
330
C
100
AcDbDictionary
281
     1
  3
Normal
350
F
100
AcDbDictionaryWithDefault
340
F
  0
DICTIONARY
  5
47
102
{ACAD_REACTORS
330
C
102
}
330
C
100
AcDbDictionary
281
     1
  3
A0
350
48
  3
A1
350
49
  3
A2
350
4A
  3
A3
350
4B
  3
A4
350
4C
  3
A5
350
4D
  3
A6
350
4E
  3
A7
350
4F
  3
A8
350
50
  3
A9
350
51
  3
B0
350
52
  3
B1
350
53
  3
B2
350
54
  3
B3
350
55
  3
B4
350
56
  3
B5
350
57
  3
B6
350
58
  3
B7
350
59
  3
B8
350
5A
  3
B9
350
5B
  3
C0
350
5C
  3
C1
350
5D
  3
C2
350
5E
  3
C3
350
5F
  3
C4
350
60
  3
C5
350
61
  3
C6
350
62
  3
C7
350
63
  3
C8
350
64
  3
C9
350
65
  3
D0
350
66
  3
D1
350
67
  3
D2
350
68
  0
DICTIONARY
  5
270
102
{ACAD_REACTORS
330
C
102
}
330
C
100
AcDbDictionary
281
     1
  0
DICTIONARY
  5
69
102
{ACAD_REACTORS
330
C
102
}
330
C
100
AcDbDictionary
281
     1
  3
Standard
350
6A
  0
DICTIONARY
  5
2A
102
{ACAD_REACTORS
330
C
102
}
330
C
100
AcDbDictionary
281
     1
  3
2dWireframe
350
2F
  3
Basic
350
32
  3
Brighten
350
36
  3
ColorChange
350
3A
  3
Conceptual
350
34
  3
Dim
350
35
  3
EdgeColorOff
350
3D
  3
Facepattern
350
39
  3
Flat
350
2B
  3
FlatWithEdges
350
2C
  3
Gouraud
350
2D
  3
GouraudWithEdges
350
2E
  3
Hidden
350
31
  3
JitterOff
350
3B
  3
Linepattern
350
38
  3
OverhangOff
350
3C
  3
Realistic
350
33
  3
Shaded
350
42
  3
Shaded with edges
350
41
  3
Shades of Gray
350
3E
  3
Sketchy
350
3F
  3
Thicken
350
37
  3
Wireframe
350
30
  3
X-Ray
350
40
  0
XRECORD
  5
26C
102
{ACAD_REACTORS
330
C
102
}
330
C
100
AcDbXrecord
280
     1
 90
        1
330
6A
  0
DICTIONARY
  5
267
102
{ACAD_REACTORS
330
C
102
}
330
C
100
AcDbDictionary
281
     1
  3
CANNOSCALE
350
268
  3
CMLEADERSTYLE
350
26E
  3
CTABLESTYLE
350
26D
  0
LAYOUT
  5
1E
102
{ACAD_REACTORS
330
1A
102
}
330
1A
100
AcDbPlotSettings
  1

  2
none_device
  4

  6

 40
0.0
 41
0.0
 42
0.0
 43
0.0
 44
0.0
 45
0.0
 46
0.0
 47
0.0
 48
0.0
 49
0.0
140
0.0
141
0.0
142
1.0
143
1.0
 70
   688
 72
     1
 73
     0
 74
     5
  7

 75
    16
 76
     0
 77
     2
 78
   300
147
1.0
148
0.0
149
0.0
100
AcDbLayout
  1
Layout1
 70
     1
 71
     1
 10
0.0
 20
0.0
 11
420.0
 21
297.0
 12
0.0
 22
0.0
 32
0.0
 14
1.0000000000E+20
 24
1.0000000000E+20
 34
1.0000000000E+20
 15
-1.0000000000E+20
 25
-1.0000000000E+20
 35
-1.0000000000E+20
146
0.0
 13
0.0
 23
0.0
 33
0.0
 16
1.0
 26
0.0
 36
0.0
 17
0.0
 27
1.0
 37
0.0
 76
     0
330
1B
  0
LAYOUT
  5
26
102
{ACAD_REACTORS
330
1A
102
}
330
1A
100
AcDbPlotSettings
  1

  2
none_device
  4

  6

 40
0.0
 41
0.0
 42
0.0
 43
0.0
 44
0.0
 45
0.0
 46
0.0
 47
0.0
 48
0.0
 49
0.0
140
0.0
141
0.0
142
1.0
143
1.0
 70
   688
 72
     1
 73
     0
 74
     5
  7

 75
    16
 76
     0
 77
     2
 78
   300
147
1.0
148
0.0
149
0.0
100
AcDbLayout
  1
Layout2
 70
     1
 71
     2
 10
0.0
 20
0.0
 11
0.0
 21
0.0
 12
0.0
 22
0.0
 32
0.0
 14
0.0
 24
0.0
 34
0.0
 15
0.0
 25
0.0
 35
0.0
146
0.0
 13
0.0
 23
0.0
 33
0.0
 16
1.0
 26
0.0
 36
0.0
 17
0.0
 27
1.0
 37
0.0
 76
     0
330
23
  0
LAYOUT
  5
22
102
{ACAD_REACTORS
330
1A
102
}
330
1A
100
AcDbPlotSettings
  1

  2
none_device
  4
Letter_(8.50_x_11.00_Inches)
  6

 40
6.35
 41
6.35
 42
6.35000508
 43
6.35000508
 44
215.9
 45
279.4
 46
0.0
 47
0.0
 48
0.0
 49
0.0
140
0.0
141
0.0
142
1.0
143
1.0
 70
  1712
 72
     1
 73
     0
 74
     0
  7

 75
     0
 76
     0
 77
     2
 78
   300
147
1.0
148
0.0
149
0.0
100
AcDbLayout
  1
Model
 70
     1
 71
     0
 10
0.0
 20
0.0
 11
350.0
 21
650.0
 12
0.0
 22
0.0
 32
0.0
 14
0.0
 24
0.0
 34
0.0
 15
350.0
 25
650.0
 35
0.0
146
0.0
 13
0.0
 23
0.0
 33
0.0
 16
1.0
 26
0.0
 36
0.0
 17
0.0
 27
1.0
 37
0.0
 76
     0
330
1F
331
29
  0
MATERIAL
  5
45
102
{ACAD_REACTORS
330
43
102
}
330
43
100
AcDbMaterial
  1
ByBlock
 72
     1
 94
      127
  0
MATERIAL
  5
44
102
{ACAD_REACTORS
330
43
102
}
330
43
100
AcDbMaterial
  1
ByLayer
 72
     1
 94
      127
  0
MATERIAL
  5
46
102
{ACAD_REACTORS
330
43
102
}
330
43
100
AcDbMaterial
  1
Global
 72
     1
 94
      127
  0
MLEADERSTYLE
  5
6C
102
{ACAD_REACTORS
330
6B
102
}
330
6B
100
AcDbMLeaderStyle
170
     2
171
     1
172
     0
 90
        2
 40
0.0
 41
0.0
173
     1
 91
-1056964608
340
14
 92
       -2
290
     1
 42
2.0
291
     1
 43
8.0
  3
Standard
341
0
 44
4.0
300

342
11
174
     1
178
     6
175
     1
176
     0
 93
-1056964608
 45
4.0
292
     0
297
     0
 46
4.0
343
0
 94
-1056964608
 47
1.0
 49
1.0
140
1.0
293
     1
141
0.0
294
     1
177
     0
142
1.0
295
     0
296
     0
143
3.75
1001
ACAD_MLEADERVER
1070
     2
  0
MLINESTYLE
  5
18
102
{ACAD_REACTORS
330
17
102
}
330
17
100
AcDbMlineStyle
  2
Standard
 70
     0
  3

 62
   256
 51
90.0
 52
90.0
 71
     2
 49
0.5
 62
   256
  6
BYLAYER
 49
-0.5
 62
   256
  6
BYLAYER
  0
ACDBPLACEHOLDER
  5
F
102
{ACAD_REACTORS
330
E
102
}
330
E
  0
SCALE
  5
48
102
{ACAD_REACTORS
330
47
102
}
330
47
100
AcDbScale
 70
     0
300
1:1
140
1.0
141
1.0
290
     1
  0
SCALE
  5
49
102
{ACAD_REACTORS
330
47
102
}
330
47
100
AcDbScale
 70
     0
300
1:2
140
1.0
141
2.0
290
     0
  0
SCALE
  5
4A
102
{ACAD_REACTORS
330
47
102
}
330
47
100
AcDbScale
 70
     0
300
1:4
140
1.0
141
4.0
290
     0
  0
SCALE
  5
4B
102
{ACAD_REACTORS
330
47
102
}
330
47
100
AcDbScale
 70
     0
300
1:5
140
1.0
141
5.0
290
     0
  0
SCALE
  5
4C
102
{ACAD_REACTORS
330
47
102
}
330
47
100
AcDbScale
 70
     0
300
1:8
140
1.0
141
8.0
290
     0
  0
SCALE
  5
4D
102
{ACAD_REACTORS
330
47
102
}
330
47
100
AcDbScale
 70
     0
300
1:10
140
1.0
141
10.0
290
     0
  0
SCALE
  5
4E
102
{ACAD_REACTORS
330
47
102
}
330
47
100
AcDbScale
 70
     0
300
1:16
140
1.0
141
16.0
290
     0
  0
SCALE
  5
4F
102
{ACAD_REACTORS
330
47
102
}
330
47
100
AcDbScale
 70
     0
300
1:20
140
1.0
141
20.0
290
     0
  0
SCALE
  5
50
102
{ACAD_REACTORS
330
47
102
}
330
47
100
AcDbScale
 70
     0
300
1:30
140
1.0
141
30.0
290
     0
  0
SCALE
  5
51
102
{ACAD_REACTORS
330
47
102
}
330
47
100
AcDbScale
 70
     0
300
1:40
140
1.0
141
40.0
290
     0
  0
SCALE
  5
52
102
{ACAD_REACTORS
330
47
102
}
330
47
100
AcDbScale
 70
     0
300
1:50
140
1.0
141
50.0
290
     0
  0
SCALE
  5
53
102
{ACAD_REACTORS
330
47
102
}
330
47
100
AcDbScale
 70
     0
300
1:100
140
1.0
141
100.0
290
     0
  0
SCALE
  5
54
102
{ACAD_REACTORS
330
47
102
}
330
47
100
AcDbScale
 70
     0
300
2:1
140
2.0
141
1.0
290
     0
  0
SCALE
  5
55
102
{ACAD_REACTORS
330
47
102
}
330
47
100
AcDbScale
 70
     0
300
4:1
140
4.0
141
1.0
290
     0
  0
SCALE
  5
56
102
{ACAD_REACTORS
330
47
102
}
330
47
100
AcDbScale
 70
     0
300
8:1
140
8.0
141
1.0
290
     0
  0
SCALE
  5
57
102
{ACAD_REACTORS
330
47
102
}
330
47
100
AcDbScale
 70
     0
300
10:1
140
10.0
141
1.0
290
     0
  0
SCALE
  5
58
102
{ACAD_REACTORS
330
47
102
}
330
47
100
AcDbScale
 70
     0
300
100:1
140
100.0
141
1.0
290
     0
  0
SCALE
  5
59
102
{ACAD_REACTORS
330
47
102
}
330
47
100
AcDbScale
 70
     0
300
1/128" = 1'-0"
140
0.0078125
141
12.0
290
     0
  0
SCALE
  5
5A
102
{ACAD_REACTORS
330
47
102
}
330
47
100
AcDbScale
 70
     0
300
1/64" = 1'-0"
140
0.015625
141
12.0
290
     0
  0
SCALE
  5
5B
102
{ACAD_REACTORS
330
47
102
}
330
47
100
AcDbScale
 70
     0
300
1/32" = 1'-0"
140
0.03125
141
12.0
290
     0
  0
SCALE
  5
5C
102
{ACAD_REACTORS
330
47
102
}
330
47
100
AcDbScale
 70
     0
300
1/16" = 1'-0"
140
0.0625
141
12.0
290
     0
  0
SCALE
  5
5D
102
{ACAD_REACTORS
330
47
102
}
330
47
100
AcDbScale
 70
     0
300
3/32" = 1'-0"
140
0.09375
141
12.0
290
     0
  0
SCALE
  5
5E
102
{ACAD_REACTORS
330
47
102
}
330
47
100
AcDbScale
 70
     0
300
1/8" = 1'-0"
140
0.125
141
12.0
290
     0
  0
SCALE
  5
5F
102
{ACAD_REACTORS
330
47
102
}
330
47
100
AcDbScale
 70
     0
300
3/16" = 1'-0"
140
0.1875
141
12.0
290
     0
  0
SCALE
  5
60
102
{ACAD_REACTORS
330
47
102
}
330
47
100
AcDbScale
 70
     0
300
1/4" = 1'-0"
140
0.25
141
12.0
290
     0
  0
SCALE
  5
61
102
{ACAD_REACTORS
330
47
102
}
330
47
100
AcDbScale
 70
     0
300
3/8" = 1'-0"
140
0.375
141
12.0
290
     0
  0
SCALE
  5
62
102
{ACAD_REACTORS
330
47
102
}
330
47
100
AcDbScale
 70
     0
300
1/2" = 1'-0"
140
0.5
141
12.0
290
     0
  0
SCALE
  5
63
102
{ACAD_REACTORS
330
47
102
}
330
47
100
AcDbScale
 70
     0
300
3/4" = 1'-0"
140
0.75
141
12.0
290
     0
  0
SCALE
  5
64
102
{ACAD_REACTORS
330
47
102
}
330
47
100
AcDbScale
 70
     0
300
1" = 1'-0"
140
1.0
141
12.0
290
     0
  0
SCALE
  5
65
102
{ACAD_REACTORS
330
47
102
}
330
47
100
AcDbScale
 70
     0
300
1-1/2" = 1'-0"
140
1.5
141
12.0
290
     0
  0
SCALE
  5
66
102
{ACAD_REACTORS
330
47
102
}
330
47
100
AcDbScale
 70
     0
300
3" = 1'-0"
140
3.0
141
12.0
290
     0
  0
SCALE
  5
67
102
{ACAD_REACTORS
330
47
102
}
330
47
100
AcDbScale
 70
     0
300
6" = 1'-0"
140
6.0
141
12.0
290
     0
  0
SCALE
  5
68
102
{ACAD_REACTORS
330
47
102
}
330
47
100
AcDbScale
 70
     0
300
1'-0" = 1'-0"
140
12.0
141
12.0
290
     0
  0
TABLESTYLE
  5
6A
102
{ACAD_REACTORS
330
69
102
}
102
{ACAD_XDICTIONARY
360
269
102
}
330
69
100
AcDbTableStyle
  3
Standard
 70
     0
 71
     0
 40
0.06
 41
0.06
280
     0
281
     0
  7
STANDARD
140
4.5
170
     2
 62
     0
 63
   257
283
     0
 90
        4
 91
        0
  1

274
    -2
284
     1
 64
     0
275
    -2
285
     1
 65
     0
276
    -2
286
     1
 66
     0
277
    -2
287
     1
 67
     0
278
    -2
288
     1
 68
     0
279
    -2
289
     1
 69
     0
  7
STANDARD
140
6.0
170
     5
 62
     0
 63
   257
283
     0
 90
        4
 91
        0
  1

274
    -2
284
     1
 64
     0
275
    -2
285
     1
 65
     0
276
    -2
286
     1
 66
     0
277
    -2
287
     1
 67
     0
278
    -2
288
     1
 68
     0
279
    -2
289
     1
 69
     0
  7
STANDARD
140
4.5
170
     5
 62
     0
 63
   257
283
     0
 90
        4
 91
        0
  1

274
    -2
284
     1
 64
     0
275
    -2
285
     1
 65
     0
276
    -2
286
     1
 66
     0
277
    -2
287
     1
 67
     0
278
    -2
288
     1
 68
     0
279
    -2
289
     1
 69
     0
  0
VISUALSTYLE
  5
2F
102
{ACAD_REACTORS
330
2A
102
}
330
2A
100
AcDbVisualStyle
  2
2dWireframe
 70
     4
 71
     0
 72
     2
 73
     0
 90
        0
 40
0.6
 41
30.0
 62
     5
 63
     7
421
 16777215
 74
     1
 91
        4
 64
     7
 65
   257
 75
     1
175
     1
 42
1.0
 92
        0
 66
   257
 43
1.0
 76
     1
 77
     6
 78
     2
 67
     7
 79
     5
170
     0
171
     0
290
     0
174
     0
 93
        1
 44
0.0
173
     0
291
     0
 45
0.0
  0
VISUALSTYLE
  5
32
102
{ACAD_REACTORS
330
2A
102
}
330
2A
100
AcDbVisualStyle
  2
Basic
 70
     7
 71
     1
 72
     0
 73
     1
 90
        0
 40
0.6
 41
30.0
 62
     5
 63
     7
421
 16777215
 74
     0
 91
        4
 64
     7
 65
   257
 75
     1
175
     1
 42
1.0
 92
        8
 66
     7
 43
1.0
 76
     1
 77
     6
 78
     2
 67
     7
 79
     5
170
     0
171
     0
290
     0
174
     0
 93
        1
 44
0.0
173
     0
291
     1
 45
0.0
  0
VISUALSTYLE
  5
36
102
{ACAD_REACTORS
330
2A
102
}
330
2A
100
AcDbVisualStyle
  2
Brighten
 70
    12
 71
     2
 72
     2
 73
     0
 90
        0
 40
0.6
 41
30.0
 62
     5
 63
     7
421
 16777215
 74
     1
 91
        4
 64
     7
 65
   257
 75
     1
175
     1
 42
1.0
 92
        8
 66
     7
 43
1.0
 76
     1
 77
     6
 78
     2
 67
     7
 79
     5
170
     0
171
     0
290
     0
174
     0
 93
        1
 44
50.0
173
     0
291
     1
 45
0.0
  0
VISUALSTYLE
  5
3A
102
{ACAD_REACTORS
330
2A
102
}
330
2A
100
AcDbVisualStyle
  2
ColorChange
 70
    16
 71
     2
 72
     2
 73
     3
 90
        0
 40
0.6
 41
30.0
 62
     5
 63
     8
421
  8421504
 74
     1
 91
        4
 64
     7
 65
   257
 75
     1
175
     1
 42
1.0
 92
        8
 66
     8
424
  8421504
 43
1.0
 76
     1
 77
     6
 78
     2
 67
     7
 79
     5
170
     0
171
     0
290
     0
174
     0
 93
        1
 44
0.0
173
     0
291
     1
 45
0.0
  0
VISUALSTYLE
  5
34
102
{ACAD_REACTORS
330
2A
102
}
330
2A
100
AcDbVisualStyle
  2
Conceptual
 70
     9
 71
     3
 72
     2
 73
     0
 90
        0
 40
0.6
 41
30.0
 62
     5
 63
     7
421
 16777215
 74
     2
 91
        2
 64
     7
 65
   257
 75
     1
175
     1
 42
179.0
 92
        8
 66
     7
 43
1.0
 76
     1
 77
     6
 78
     2
 67
     7
 79
     3
170
     0
171
     0
290
     0
174
     0
 93
        1
 44
0.0
173
     0
291
     0
 45
0.0
  0
VISUALSTYLE
  5
35
102
{ACAD_REACTORS
330
2A
102
}
330
2A
100
AcDbVisualStyle
  2
Dim
 70
    11
 71
     2
 72
     2
 73
     0
 90
        0
 40
0.6
 41
30.0
 62
     5
 63
     7
421
 16777215
 74
     1
 91
        4
 64
     7
 65
   257
 75
     1
175
     1
 42
1.0
 92
        8
 66
     7
 43
1.0
 76
     1
 77
     6
 78
     2
 67
     7
 79
     5
170
     0
171
     0
290
     0
174
     0
 93
        1
 44
-50.0
173
     0
291
     1
 45
0.0
  0
VISUALSTYLE
  5
3D
102
{ACAD_REACTORS
330
2A
102
}
330
2A
100
AcDbVisualStyle
  2
EdgeColorOff
 70
    22
 71
     2
 72
     2
 73
     0
 90
        0
 40
0.6
 41
30.0
 62
     5
 63
     7
421
 16777215
 74
     1
 91
        4
 64
     7
 65
   257
 75
     1
175
     1
 42
1.0
 92
        8
 66
     7
 43
1.0
 76
     1
 77
     6
 78
     2
 67
     7
 79
     5
170
     0
171
     0
290
     0
174
     0
 93
        1
 44
0.0
173
     0
291
     1
 45
0.0
  0
VISUALSTYLE
  5
39
102
{ACAD_REACTORS
330
2A
102
}
330
2A
100
AcDbVisualStyle
  2
Facepattern
 70
    15
 71
     2
 72
     2
 73
     0
 90
        0
 40
0.6
 41
30.0
 62
     5
 63
     7
421
 16777215
 74
     1
 91
        4
 64
     7
 65
   257
 75
     1
175
     1
 42
1.0
 92
        8
 66
     7
 43
1.0
 76
     1
 77
     6
 78
     2
 67
     7
 79
     5
170
     0
171
     0
290
     0
174
     0
 93
        1
 44
0.0
173
     0
291
     1
 45
0.0
  0
VISUALSTYLE
  5
2B
102
{ACAD_REACTORS
330
2A
102
}
330
2A
100
AcDbVisualStyle
  2
Flat
 70
     0
 71
     2
 72
     1
 73
     1
 90
        2
 40
0.6
 41
30.0
 62
     5
 63
     7
421
 16777215
 74
     0
 91
        0
 64
     7
 65
   257
 75
     1
175
     1
 42
1.0
 92
        8
 66
     7
 43
1.0
 76
     1
 77
     6
 78
     2
 67
     7
 79
     5
170
     0
171
     0
290
     0
174
     0
 93
       13
 44
0.0
173
     0
291
     1
 45
0.0
  0
VISUALSTYLE
  5
2C
102
{ACAD_REACTORS
330
2A
102
}
330
2A
100
AcDbVisualStyle
  2
FlatWithEdges
 70
     1
 71
     2
 72
     1
 73
     1
 90
        2
 40
0.6
 41
30.0
 62
     5
 63
     7
421
 16777215
 74
     1
 91
        0
 64
     7
 65
   257
 75
     1
175
     1
 42
1.0
 92
        0
 66
   257
 43
1.0
 76
     1
 77
     6
 78
     2
 67
     7
 79
     5
170
     0
171
     0
290
     0
174
     0
 93
       13
 44
0.0
173
     0
291
     1
 45
0.0
  0
VISUALSTYLE
  5
2D
102
{ACAD_REACTORS
330
2A
102
}
330
2A
100
AcDbVisualStyle
  2
Gouraud
 70
     2
 71
     2
 72
     2
 73
     1
 90
        2
 40
0.6
 41
30.0
 62
     5
 63
     7
421
 16777215
 74
     0
 91
        0
 64
     7
 65
   257
 75
     1
175
     1
 42
1.0
 92
        0
 66
     7
 43
1.0
 76
     1
 77
     6
 78
     2
 67
     7
 79
     5
170
     0
171
     0
290
     0
174
     0
 93
       13
 44
0.0
173
     0
291
     1
 45
0.0
  0
VISUALSTYLE
  5
2E
102
{ACAD_REACTORS
330
2A
102
}
330
2A
100
AcDbVisualStyle
  2
GouraudWithEdges
 70
     3
 71
     2
 72
     2
 73
     1
 90
        2
 40
0.6
 41
30.0
 62
     5
 63
     7
421
 16777215
 74
     1
 91
        0
 64
     7
 65
   257
 75
     1
175
     1
 42
1.0
 92
        0
 66
   257
 43
1.0
 76
     1
 77
     6
 78
     2
 67
     7
 79
     5
170
     0
171
     0
290
     0
174
     0
 93
       13
 44
0.0
173
     0
291
     1
 45
0.0
  0
VISUALSTYLE
  5
31
102
{ACAD_REACTORS
330
2A
102
}
330
2A
100
AcDbVisualStyle
  2
Hidden
 70
     6
 71
     1
 72
     2
 73
     2
 90
        0
 40
0.6
 41
30.0
 62
     5
 63
     7
421
 16777215
 74
     2
 91
        2
 64
     7
 65
   257
 75
     2
175
     1
 42
40.0
 92
        0
 66
   257
 43
1.0
 76
     1
 77
     6
 78
     2
 67
     7
 79
     3
170
     0
171
     0
290
     0
174
     0
 93
        1
 44
0.0
173
     0
291
     0
 45
0.0
  0
VISUALSTYLE
  5
3B
102
{ACAD_REACTORS
330
2A
102
}
330
2A
100
AcDbVisualStyle
  2
JitterOff
 70
    20
 71
     2
 72
     2
 73
     0
 90
        0
 40
0.6
 41
30.0
 62
     5
 63
     7
421
 16777215
 74
     1
 91
        4
 64
     7
 65
   257
 75
     1
175
     1
 42
1.0
 92
       10
 66
     7
 43
1.0
 76
     1
 77
     6
 78
     2
 67
     7
 79
     5
170
     0
171
     0
290
     0
174
     0
 93
        1
 44
0.0
173
     0
291
     1
 45
0.0
  0
VISUALSTYLE
  5
38
102
{ACAD_REACTORS
330
2A
102
}
330
2A
100
AcDbVisualStyle
  2
Linepattern
 70
    14
 71
     2
 72
     2
 73
     0
 90
        0
 40
0.6
 41
30.0
 62
     5
 63
     7
421
 16777215
 74
     1
 91
        4
 64
     7
 65
   257
 75
     7
175
     7
 42
1.0
 92
        8
 66
     7
 43
1.0
 76
     1
 77
     6
 78
     2
 67
     7
 79
     5
170
     0
171
     0
290
     0
174
     0
 93
        1
 44
0.0
173
     0
291
     1
 45
0.0
  0
VISUALSTYLE
  5
3C
102
{ACAD_REACTORS
330
2A
102
}
330
2A
100
AcDbVisualStyle
  2
OverhangOff
 70
    21
 71
     2
 72
     2
 73
     0
 90
        0
 40
0.6
 41
30.0
 62
     5
 63
     7
421
 16777215
 74
     1
 91
        4
 64
     7
 65
   257
 75
     1
175
     1
 42
1.0
 92
        9
 66
     7
 43
1.0
 76
     1
 77
     6
 78
     2
 67
     7
 79
     5
170
     0
171
     0
290
     0
174
     0
 93
        1
 44
0.0
173
     0
291
     1
 45
0.0
  0
VISUALSTYLE
  5
33
102
{ACAD_REACTORS
330
2A
102
}
330
2A
100
AcDbVisualStyle
  2
Realistic
 70
     8
 71
     2
 72
     3
 73
     0
 90
        2
 40
0.6
 41
30.0
 62
     5
 63
     7
421
 16777215
 74
     0
 91
        0
 64
     7
 65
   257
 75
     1
175
     1
 42
1.0
 92
        8
 66
   257
 43
1.0
 76
     1
 77
     6
 78
     2
 67
     7
 79
     3
170
     0
171
     0
290
     0
174
     0
 93
       13
 44
0.0
173
     0
291
     0
 45
0.0
  0
VISUALSTYLE
  5
42
102
{ACAD_REACTORS
330
2A
102
}
330
2A
100
AcDbVisualStyle
  2
Shaded
 70
    27
 71
     2
 72
     2
 73
     1
 90
        2
 40
0.6
 41
30.0
 62
     5
 63
     7
421
 16777215
 74
     0
 91
        4
 64
     7
 65
   257
 75
     1
175
     1
 42
1.0
 92
        8
 66
   257
 43
1.0
 76
     1
 77
     6
 78
     2
 67
     8
425
  7895160
 79
     3
170
     0
171
     0
290
     0
174
     0
 93
        5
 44
0.0
173
     0
291
     0
 45
0.0
  0
VISUALSTYLE
  5
41
102
{ACAD_REACTORS
330
2A
102
}
330
2A
100
AcDbVisualStyle
  2
Shaded with edges
 70
    26
 71
     2
 72
     2
 73
     1
 90
        2
 40
0.6
 41
30.0
 62
     5
 63
     7
421
 16777215
 74
     1
 91
       10
 64
     7
 65
   257
 75
     2
175
     1
 42
1.0
 92
        8
 66
   257
 43
1.0
 76
     1
 77
     6
 78
     2
 67
     7
 79
     3
170
     0
171
     0
290
     0
174
     0
 93
        5
 44
0.0
173
     0
291
     0
 45
0.0
  0
VISUALSTYLE
  5
3E
102
{ACAD_REACTORS
330
2A
102
}
330
2A
100
AcDbVisualStyle
  2
Shades of Gray
 70
    23
 71
     2
 72
     2
 73
     3
 90
        0
 40
0.6
 41
30.0
 62
     5
 63
     7
421
 16777215
 74
     2
 91
        2
 64
     7
 65
     7
 75
     1
175
     1
 42
40.0
 92
        8
 66
     7
 43
1.0
 76
     1
 77
     6
 78
     2
 67
     7
 79
     3
170
     0
171
     0
290
     0
174
     0
 93
        1
 44
0.0
173
     0
291
     0
 45
0.0
  0
VISUALSTYLE
  5
3F
102
{ACAD_REACTORS
330
2A
102
}
330
2A
100
AcDbVisualStyle
  2
Sketchy
 70
    24
 71
     1
 72
     2
 73
     2
 90
        0
 40
0.6
 41
30.0
 62
     5
 63
     7
421
 16777215
 74
     2
 91
        2
 64
     7
 65
     7
 75
     1
175
     1
 42
40.0
 92
       11
 66
     7
 43
1.0
 76
     1
 77
     6
 78
     2
 67
     7
 79
     6
170
     0
171
     0
290
     0
174
     0
 93
        1
 44
0.0
173
     0
291
     0
 45
0.0
  0
VISUALSTYLE
  5
37
102
{ACAD_REACTORS
330
2A
102
}
330
2A
100
AcDbVisualStyle
  2
Thicken
 70
    13
 71
     2
 72
     2
 73
     0
 90
        0
 40
0.6
 41
30.0
 62
     5
 63
     7
421
 16777215
 74
     1
 91
        4
 64
     7
 65
   257
 75
     1
175
     1
 42
1.0
 92
       12
 66
     7
 43
1.0
 76
     1
 77
     6
 78
     2
 67
     7
 79
     5
170
     0
171
     0
290
     0
174
     0
 93
        1
 44
0.0
173
     0
291
     1
 45
0.0
  0
VISUALSTYLE
  5
30
102
{ACAD_REACTORS
330
2A
102
}
330
2A
100
AcDbVisualStyle
  2
Wireframe
 70
     5
 71
     0
 72
     2
 73
     0
 90
        0
 40
0.6
 41
30.0
 62
     5
 63
     7
421
 16777215
 74
     1
 91
        4
 64
     7
 65
   257
 75
     1
175
     1
 42
1.0
 92
        0
 66
   257
 43
1.0
 76
     1
 77
     6
 78
     2
 67
     7
 79
     3
170
     0
171
     0
290
     0
174
     0
 93
        1
 44
0.0
173
     0
291
     0
 45
0.0
  0
VISUALSTYLE
  5
40
102
{ACAD_REACTORS
330
2A
102
}
330
2A
100
AcDbVisualStyle
  2
X-Ray
 70
    25
 71
     2
 72
     2
 73
     1
 90
        1
 40
0.5
 41
30.0
 62
     5
 63
     7
421
 16777215
 74
     1
 91
        0
 64
     7
 65
   257
 75
     1
175
     1
 42
1.0
 92
        8
 66
     7
 43
1.0
 76
     1
 77
     6
 78
     2
 67
     7
 79
     3
170
     0
171
     0
290
     0
174
     0
 93
       13
 44
0.0
173
     0
291
     0
 45
0.0
  0
DICTIONARYVAR
  5
268
102
{ACAD_REACTORS
330
267
102
}
330
267
100
DictionaryVariables
280
     0
  1
1:1
  0
DICTIONARYVAR
  5
26E
102
{ACAD_REACTORS
330
267
102
}
330
267
100
DictionaryVariables
280
     0
  1
Standard
  0
DICTIONARYVAR
  5
26D
102
{ACAD_REACTORS
330
267
102
}
330
267
100
DictionaryVariables
280
     0
  1
Standard
  0
DICTIONARY
  5
269
330
6A
100
AcDbDictionary
280
     1
281
     1
  3
ACAD_ROUNDTRIP_2008_TABLESTYLE_CELLSTYLEMAP
360
26A
  0
CELLSTYLEMAP
  5
26A
102
{ACAD_REACTORS
330
269
102
}
330
269
100
AcDbCellStyleMap
 90
        3
300
CELLSTYLE
  1
TABLEFORMAT_BEGIN
 90
        5
170
     1
 91
        0
 92
    32768
 62
   257
 93
        1
300
CONTENTFORMAT
  1
CONTENTFORMAT_BEGIN
 90
        0
 91
        0
 92
        4
 93
        0
300

 40
0.0
140
1.0
 94
        5
 62
     0
340
11
144
6.0
309
CONTENTFORMAT_END
171
     1
301
MARGIN
  1
CELLMARGIN_BEGIN
 40
1.5
 40
1.5
 40
1.5
 40
1.5
 40
1.5
 40
1.5
309
CELLMARGIN_END
 94
        6
 95
        1
302
GRIDFORMAT
  1
GRIDFORMAT_BEGIN
 90
        0
 91
        1
 62
     0
 92
       -2
340
14
 93
        0
 40
0.045
309
GRIDFORMAT_END
 95
        2
302
GRIDFORMAT
  1
GRIDFORMAT_BEGIN
 90
        0
 91
        1
 62
     0
 92
       -2
340
14
 93
        0
 40
0.045
309
GRIDFORMAT_END
 95
        4
302
GRIDFORMAT
  1
GRIDFORMAT_BEGIN
 90
        0
 91
        1
 62
     0
 92
       -2
340
14
 93
        0
 40
0.045
309
GRIDFORMAT_END
 95
        8
302
GRIDFORMAT
  1
GRIDFORMAT_BEGIN
 90
        0
 91
        1
 62
     0
 92
       -2
340
14
 93
        0
 40
0.045
309
GRIDFORMAT_END
 95
       16
302
GRIDFORMAT
  1
GRIDFORMAT_BEGIN
 90
        0
 91
        1
 62
     0
 92
       -2
340
14
 93
        0
 40
0.045
309
GRIDFORMAT_END
 95
       32
302
GRIDFORMAT
  1
GRIDFORMAT_BEGIN
 90
        0
 91
        1
 62
     0
 92
       -2
340
14
 93
        0
 40
0.045
309
GRIDFORMAT_END
309
TABLEFORMAT_END
  1
CELLSTYLE_BEGIN
 90
        1
 91
        1
300
_TITLE
309
CELLSTYLE_END
300
CELLSTYLE
  1
TABLEFORMAT_BEGIN
 90
        5
170
     1
 91
        0
 92
        0
 62
   257
 93
        1
300
CONTENTFORMAT
  1
CONTENTFORMAT_BEGIN
 90
        0
 91
        0
 92
        4
 93
        0
300

 40
0.0
140
1.0
 94
        5
 62
     0
340
11
144
4.5
309
CONTENTFORMAT_END
171
     1
301
MARGIN
  1
CELLMARGIN_BEGIN
 40
1.5
 40
1.5
 40
1.5
 40
1.5
 40
1.5
 40
1.5
309
CELLMARGIN_END
 94
        6
 95
        1
302
GRIDFORMAT
  1
GRIDFORMAT_BEGIN
 90
        0
 91
        1
 62
     0
 92
       -2
340
14
 93
        0
 40
0.045
309
GRIDFORMAT_END
 95
        2
302
GRIDFORMAT
  1
GRIDFORMAT_BEGIN
 90
        0
 91
        1
 62
     0
 92
       -2
340
14
 93
        0
 40
0.045
309
GRIDFORMAT_END
 95
        4
302
GRIDFORMAT
  1
GRIDFORMAT_BEGIN
 90
        0
 91
        1
 62
     0
 92
       -2
340
14
 93
        0
 40
0.045
309
GRIDFORMAT_END
 95
        8
302
GRIDFORMAT
  1
GRIDFORMAT_BEGIN
 90
        0
 91
        1
 62
     0
 92
       -2
340
14
 93
        0
 40
0.045
309
GRIDFORMAT_END
 95
       16
302
GRIDFORMAT
  1
GRIDFORMAT_BEGIN
 90
        0
 91
        1
 62
     0
 92
       -2
340
14
 93
        0
 40
0.045
309
GRIDFORMAT_END
 95
       32
302
GRIDFORMAT
  1
GRIDFORMAT_BEGIN
 90
        0
 91
        1
 62
     0
 92
       -2
340
14
 93
        0
 40
0.045
309
GRIDFORMAT_END
309
TABLEFORMAT_END
  1
CELLSTYLE_BEGIN
 90
        2
 91
        1
300
_HEADER
309
CELLSTYLE_END
300
CELLSTYLE
  1
TABLEFORMAT_BEGIN
 90
        5
170
     1
 91
        0
 92
        0
 62
   257
 93
        1
300
CONTENTFORMAT
  1
CONTENTFORMAT_BEGIN
 90
        0
 91
        0
 92
        4
 93
        0
300

 40
0.0
140
1.0
 94
        2
 62
     0
340
11
144
4.5
309
CONTENTFORMAT_END
171
     1
301
MARGIN
  1
CELLMARGIN_BEGIN
 40
1.5
 40
1.5
 40
1.5
 40
1.5
 40
1.5
 40
1.5
309
CELLMARGIN_END
 94
        6
 95
        1
302
GRIDFORMAT
  1
GRIDFORMAT_BEGIN
 90
        0
 91
        1
 62
     0
 92
       -2
340
14
 93
        0
 40
0.045
309
GRIDFORMAT_END
 95
        2
302
GRIDFORMAT
  1
GRIDFORMAT_BEGIN
 90
        0
 91
        1
 62
     0
 92
       -2
340
14
 93
        0
 40
0.045
309
GRIDFORMAT_END
 95
        4
302
GRIDFORMAT
  1
GRIDFORMAT_BEGIN
 90
        0
 91
        1
 62
     0
 92
       -2
340
14
 93
        0
 40
0.045
309
GRIDFORMAT_END
 95
        8
302
GRIDFORMAT
  1
GRIDFORMAT_BEGIN
 90
        0
 91
        1
 62
     0
 92
       -2
340
14
 93
        0
 40
0.045
309
GRIDFORMAT_END
 95
       16
302
GRIDFORMAT
  1
GRIDFORMAT_BEGIN
 90
        0
 91
        1
 62
     0
 92
       -2
340
14
 93
        0
 40
0.045
309
GRIDFORMAT_END
 95
       32
302
GRIDFORMAT
  1
GRIDFORMAT_BEGIN
 90
        0
 91
        1
 62
     0
 92
       -2
340
14
 93
        0
 40
0.045
309
GRIDFORMAT_END
309
TABLEFORMAT_END
  1
CELLSTYLE_BEGIN
 90
        3
 91
        2
300
_DATA
309
CELLSTYLE_END
  0
ENDSEC
  0
EOF
