  0
SECTION
  2
HEADER
  9
$ACADVER
  1
AC1021
  9
$ACADMAINTVER
 70
    25
  9
$DWGCODEPAGE
  3
ANSI_1252
  9
$INSBASE
 10
0.0
 20
0.0
 30
0.0
  9
$EXTMIN
 10
0.0
 20
0.0
 30
0.0
  9
$EXTMAX
 10
550.0
 20
650.0
 30
0.0
  9
$LIMMIN
 10
0.0
 20
0.0
  9
$LIMMAX
 10
550.0
 20
650.0
  9
$ORTHOMODE
 70
     0
  9
$REGENMODE
 70
     1
  9
$FILLMODE
 70
     1
  9
$QTEXTMODE
 70
     0
  9
$MIRRTEXT
 70
     1
  9
$LTSCALE
 40
1.0
  9
$ATTMODE
 70
     1
  9
$TEXTSIZE
 40
3.5
  9
$TRACEWID
 40
1.0
  9
$TEXTSTYLE
  7
STANDARD
  9
$CLAYER
  8
0
  9
$CELTYPE
  6
ByLayer
  9
$CECOLOR
 62
   256
  9
$CELTSCALE
 40
1.0
  9
$DISPSILH
 70
     0
  9
$DIMSCALE
 40
1.0
  9
$DIMASZ
 40
3.302
  9
$DIMEXO
 40
1.0
  9
$DIMDLI
 40
3.75
  9
$DIMRND
 40
0.0
  9
$DIMDLE
 40
0.0
  9
$DIMEXE
 40
1.0
  9
$DIMTP
 40
0.0
  9
$DIMTM
 40
0.0
  9
$DIMTXT
 40
3.5
  9
$DIMCEN
 40
2.5
  9
$DIMTSZ
 40
0.0
  9
$DIMTOL
 70
     0
  9
$DIMLIM
 70
     0
  9
$DIMTIH
 70
     1
  9
$DIMTOH
 70
     1
  9
$DIMSE1
 70
     0
  9
$DIMSE2
 70
     0
  9
$DIMTAD
 70
     1
  9
$DIMZIN
 70
     1
  9
$DIMBLK
  1

  9
$DIMASO
 70
     1
  9
$DIMSHO
 70
     1
  9
$DIMPOST
  1

  9
$DIMAPOST
  1

  9
$DIMALT
 70
     0
  9
$DIMALTD
 70
     3
  9
$DIMALTF
 40
0.0393700787
  9
$DIMLFAC
 40
1.0
  9
$DIMTOFL
 70
     1
  9
$DIMTVP
 40
0.0
  9
$DIMTIX
 70
     0
  9
$DIMSOXD
 70
     0
  9
$DIMSAH
 70
     0
  9
$DIMBLK1
  1

  9
$DIMBLK2
  1

  9
$DIMSTYLE
  2
ISO-25
  9
$DIMCLRD
 70
     0
  9
$DIMCLRE
 70
     0
  9
$DIMCLRT
 70
     0
  9
$DIMTFAC
 40
1.0
  9
$DIMGAP
 40
1.524
  9
$DIMJUST
 70
     0
  9
$DIMSD1
 70
     0
  9
$DIMSD2
 70
     0
  9
$DIMTOLJ
 70
     0
  9
$DIMTZIN
 70
     1
  9
$DIMALTZ
 70
     0
  9
$DIMALTTZ
 70
     0
  9
$DIMUPT
 70
     0
  9
$DIMDEC
 70
     0
  9
$DIMTDEC
 70
     0
  9
$DIMALTU
 70
     2
  9
$DIMALTTD
 70
     3
  9
$DIMTXSTY
  7
STANDARD
  9
$DIMAUNIT
 70
     0
  9
$DIMADEC
 70
     0
  9
$DIMALTRND
 40
0.0
  9
$DIMAZIN
 70
     0
  9
$DIMDSEP
 70
    44
  9
$DIMATFIT
 70
     3
  9
$DIMFRAC
 70
     0
  9
$DIMLDRBLK
  1

  9
$DIMLUNIT
 70
     2
  9
$DIMLWD
 70
    -2
  9
$DIMLWE
 70
    -2
  9
$DIMTMOVE
 70
     0
  9
$DIMFXL
 40
1.0
  9
$DIMFXLON
 70
     0
  9
$DIMJOGANG
 40
0.7853981634
  9
$DIMTFILL
 70
     0
  9
$DIMTFILLCLR
 70
     0
  9
$DIMARCSYM
 70
     0
  9
$DIMLTYPE
  6

  9
$DIMLTEX1
  6

  9
$DIMLTEX2
  6

  9
$LUNITS
 70
     2
  9
$LUPREC
 70
     4
  9
$SKETCHINC
 40
1.0
  9
$FILLETRAD
 40
10.0
  9
$AUNITS
 70
     0
  9
$AUPREC
 70
     0
  9
$MENU
  1
.
  9
$ELEVATION
 40
0.0
  9
$PELEVATION
 40
0.0
  9
$THICKNESS
 40
0.0
  9
$LIMCHECK
 70
     0
  9
$CHAMFERA
 40
0.0
  9
$CHAMFERB
 40
0.0
  9
$CHAMFERC
 40
0.0
  9
$CHAMFERD
 40
0.0
  9
$SKPOLY
 70
     0
  9
$TDCREATE
 40
2457504.446687558
  9
$TDUCREATE
 40
2457504.363354225
  9
$TDUPDATE
 40
2457504.446688125
  9
$TDUUPDATE
 40
2457504.363354792
  9
$TDINDWG
 40
0.0000000116
  9
$TDUSRTIMER
 40
0.0000000116
  9
$USRTIMER
 70
     1
  9
$ANGBASE
 50
0.0
  9
$ANGDIR
 70
     0
  9
$PDMODE
 70
     0
  9
$PDSIZE
 40
-1.0
  9
$PLINEWID
 40
0.0
  9
$SPLFRAME
 70
     0
  9
$SPLINETYPE
 70
     6
  9
$SPLINESEGS
 70
     8
  9
$HANDSEED
  5
1CF
  9
$SURFTAB1
 70
     6
  9
$SURFTAB2
 70
     6
  9
$SURFTYPE
 70
     6
  9
$SURFU
 70
     6
  9
$SURFV
 70
     6
  9
$UCSBASE
  2

  9
$UCSNAME
  2

  9
$UCSORG
 10
0.0
 20
0.0
 30
0.0
  9
$UCSXDIR
 10
1.0
 20
0.0
 30
0.0
  9
$UCSYDIR
 10
0.0
 20
1.0
 30
0.0
  9
$UCSORTHOREF
  2

  9
$UCSORTHOVIEW
 70
     0
  9
$UCSORGTOP
 10
0.0
 20
0.0
 30
0.0
  9
$UCSORGBOTTOM
 10
0.0
 20
0.0
 30
0.0
  9
$UCSORGLEFT
 10
0.0
 20
0.0
 30
0.0
  9
$UCSORGRIGHT
 10
0.0
 20
0.0
 30
0.0
  9
$UCSORGFRONT
 10
0.0
 20
0.0
 30
0.0
  9
$UCSORGBACK
 10
0.0
 20
0.0
 30
0.0
  9
$PUCSBASE
  2

  9
$PUCSNAME
  2

  9
$PUCSORG
 10
0.0
 20
0.0
 30
0.0
  9
$PUCSXDIR
 10
1.0
 20
0.0
 30
0.0
  9
$PUCSYDIR
 10
0.0
 20
1.0
 30
0.0
  9
$PUCSORTHOREF
  2

  9
$PUCSORTHOVIEW
 70
     0
  9
$PUCSORGTOP
 10
0.0
 20
0.0
 30
0.0
  9
$PUCSORGBOTTOM
 10
0.0
 20
0.0
 30
0.0
  9
$PUCSORGLEFT
 10
0.0
 20
0.0
 30
0.0
  9
$PUCSORGRIGHT
 10
0.0
 20
0.0
 30
0.0
  9
$PUCSORGFRONT
 10
0.0
 20
0.0
 30
0.0
  9
$PUCSORGBACK
 10
0.0
 20
0.0
 30
0.0
  9
$USERI1
 70
     0
  9
$USERI2
 70
     0
  9
$USERI3
 70
     0
  9
$USERI4
 70
     0
  9
$USERI5
 70
     0
  9
$USERR1
 40
0.0
  9
$USERR2
 40
0.0
  9
$USERR3
 40
0.0
  9
$USERR4
 40
0.0
  9
$USERR5
 40
0.0
  9
$WORLDVIEW
 70
     1
  9
$SHADEDGE
 70
     3
  9
$SHADEDIF
 70
    70
  9
$TILEMODE
 70
     1
  9
$MAXACTVP
 70
    64
  9
$PINSBASE
 10
0.0
 20
0.0
 30
0.0
  9
$PLIMCHECK
 70
     0
  9
$PEXTMIN
 10
1.0000000000E+20
 20
1.0000000000E+20
 30
1.0000000000E+20
  9
$PEXTMAX
 10
-1.0000000000E+20
 20
-1.0000000000E+20
 30
-1.0000000000E+20
  9
$PLIMMIN
 10
0.0
 20
0.0
  9
$PLIMMAX
 10
420.0
 20
297.0
  9
$UNITMODE
 70
     0
  9
$VISRETAIN
 70
     1
  9
$PLINEGEN
 70
     0
  9
$PSLTSCALE
 70
     1
  9
$TREEDEPTH
 70
  3020
  9
$CMLSTYLE
  2
Standard
  9
$CMLJUST
 70
     0
  9
$CMLSCALE
 40
20.0
  9
$PROXYGRAPHICS
 70
     1
  9
$MEASUREMENT
 70
     1
  9
$CELWEIGHT
370
    -1
  9
$ENDCAPS
280
     0
  9
$JOINSTYLE
280
     0
  9
$LWDISPLAY
290
     1
  9
$INSUNITS
 70
     4
  9
$HYPERLINKBASE
  1

  9
$STYLESHEET
  1

  9
$XEDIT
290
     1
  9
$CEPSNTYPE
380
     0
  9
$PSTYLEMODE
290
     1
  9
$FINGERPRINTGUID
  2
{F64C7451-964E-4CF9-9E2C-16D23C8A56D2}
  9
$VERSIONGUID
  2
{FAEB1C32-E019-11D5-929B-00C0DF256EC4}
  9
$EXTNAMES
290
     1
  9
$PSVPSCALE
 40
0.0
  9
$OLESTARTUP
290
     0
  9
$SORTENTS
280
   127
  9
$INDEXCTL
280
     0
  9
$HIDETEXT
280
     1
  9
$XCLIPFRAME
290
     0
  9
$HALOGAP
280
     0
  9
$OBSCOLOR
 70
   257
  9
$OBSLTYPE
280
     0
  9
$INTERSECTIONDISPLAY
280
     0
  9
$INTERSECTIONCOLOR
 70
   257
  9
$DIMASSOC
280
     2
  9
$PROJECTNAME
  1

  9
$CAMERADISPLAY
290
     0
  9
$LENSLENGTH
 40
50.0
  9
$CAMERAHEIGHT
 40
0.0
  9
$STEPSPERSEC
 40
2.0
  9
$STEPSIZE
 40
6.0
  9
$3DDWFPREC
 40
2.0
  9
$PSOLWIDTH
 40
5.0
  9
$PSOLHEIGHT
 40
80.0
  9
$LOFTANG1
 40
1.5707963268
  9
$LOFTANG2
 40
1.5707963268
  9
$LOFTMAG1
 40
0.0
  9
$LOFTMAG2
 40
0.0
  9
$LOFTPARAM
 70
     7
  9
$LOFTNORMALS
280
     1
  9
$LATITUDE
 40
37.795
  9
$LONGITUDE
 40
-122.394
  9
$NORTHDIRECTION
 40
0.0
  9
$TIMEZONE
 70
 -8000
  9
$LIGHTGLYPHDISPLAY
280
     1
  9
$TILEMODELIGHTSYNCH
280
     1
  9
$CMATERIAL
347
44
  9
$SOLIDHIST
280
     0
  9
$SHOWHIST
280
     1
  9
$DWFFRAME
280
     2
  9
$DGNFRAME
280
     2
  9
$REALWORLDSCALE
290
     1
  9
$INTERFERECOLOR
 62
   256
  9
$CSHADOW
280
     0
  9
$SHADOWPLANELOCATION
 40
0.0
  0
ENDSEC
  0
SECTION
  2
CLASSES
  0
CLASS
  1
ACDBDICTIONARYWDFLT
  2
AcDbDictionaryWithDefault
  3
ObjectDBX Classes
 90
        0
 91
        4
280
     0
281
     0
  0
CLASS
  1
VISUALSTYLE
  2
AcDbVisualStyle
  3
ObjectDBX Classes
 90
     4095
 91
        4
280
     0
281
     0
  0
CLASS
  1
MATERIAL
  2
AcDbMaterial
  3
ObjectDBX Classes
 90
     1153
 91
        4
280
     0
281
     0
  0
CLASS
  1
SCALE
  2
AcDbScale
  3
ObjectDBX Classes
 90
     1153
 91
        4
280
     0
281
     0
  0
CLASS
  1
TABLESTYLE
  2
AcDbTableStyle
  3
ObjectDBX Classes
 90
     4095
 91
        4
280
     0
281
     0
  0
CLASS
  1
MLEADERSTYLE
  2
AcDbMLeaderStyle
  3
ACDB_MLEADERSTYLE_CLASS
 90
     4095
 91
        4
280
     0
281
     0
  0
CLASS
  1
SUN
  2
AcDbSun
  3
SCENEOE
 90
     1153
 91
        4
280
     0
281
     0
  0
CLASS
  1
DICTIONARYVAR
  2
AcDbDictionaryVar
  3
ObjectDBX Classes
 90
        0
 91
        4
280
     0
281
     0
  0
CLASS
  1
CELLSTYLEMAP
  2
AcDbCellStyleMap
  3
ObjectDBX Classes
 90
     1152
 91
        4
280
     0
281
     0
  0
ENDSEC
  0
SECTION
  2
TABLES
  0
TABLE
  2
VPORT
  5
8
330
0
100
AcDbSymbolTable
 70
     1
  0
VPORT
  5
29
330
8
100
AcDbSymbolTableRecord
100
AcDbViewportTableRecord
  2
*Active
 70
     0
 10
0.0
 20
0.0
 11
1.0
 21
1.0
 12
275.0
 22
325.0
 13
0.0
 23
0.0
 14
10.0
 24
10.0
 15
10.0
 25
10.0
 16
0.0
 26
0.0
 36
1.0
 17
0.0
 27
0.0
 37
0.0
 40
650.0
 41
0.8461538462
 42
50.0
 43
0.0
 44
0.0
 50
0.0
 51
0.0
 71
     0
 72
  2000
 73
     1
 74
     3
 75
     0
 76
     0
 77
     0
 78
     0
281
     0
 65
     1
110
0.0
120
0.0
130
0.0
111
1.0
121
0.0
131
0.0
112
0.0
122
1.0
132
0.0
 79
     0
146
0.0
 60
     3
 61
     5
292
     1
282
     1
141
0.0
142
0.0
 63
   250
361
6D
  0
ENDTAB
  0
TABLE
  2
LTYPE
  5
5
330
0
100
AcDbSymbolTable
 70
     6
  0
LTYPE
  5
14
330
5
100
AcDbSymbolTableRecord
100
AcDbLinetypeTableRecord
  2
ByBlock
 70
     0
  3

 72
    65
 73
     0
 40
0.0
  0
LTYPE
  5
15
330
5
100
AcDbSymbolTableRecord
100
AcDbLinetypeTableRecord
  2
ByLayer
 70
     0
  3

 72
    65
 73
     0
 40
0.0
  0
LTYPE
  5
16
330
5
100
AcDbSymbolTableRecord
100
AcDbLinetypeTableRecord
  2
Continuous
 70
     0
  3
Solid line
 72
    65
 73
     0
 40
0.0
  0
LTYPE
  5
6E
330
5
100
AcDbSymbolTableRecord
100
AcDbLinetypeTableRecord
  2
HIDDEN
 70
     0
  3
Hidden __ __ __ __ __ __ __ __ __ __ __ __ __ __
 72
    65
 73
     2
 40
1.905
 49
1.27
 74
     0
 49
-0.635
 74
     0
  0
LTYPE
  5
6F
330
5
100
AcDbSymbolTableRecord
100
AcDbLinetypeTableRecord
  2
PHANTOM
 70
     0
  3
Phantom ______  __  __  ______  __  __  ______
 72
    65
 73
     6
 40
12.7
 49
6.35
 74
     0
 49
-1.27
 74
     0
 49
1.27
 74
     0
 49
-1.27
 74
     0
 49
1.27
 74
     0
 49
-1.27
 74
     0
  0
LTYPE
  5
70
330
5
100
AcDbSymbolTableRecord
100
AcDbLinetypeTableRecord
  2
CENTER
 70
     0
  3
Center ____ _ ____ _ ____ _ ____ _ ____ _ ____
 72
    65
 73
     4
 40
10.16
 49
6.35
 74
     0
 49
-1.27
 74
     0
 49
1.27
 74
     0
 49
-1.27
 74
     0
  0
LTYPE
  5
71
330
5
100
AcDbSymbolTableRecord
100
AcDbLinetypeTableRecord
  2
CENTERX2
 70
     0
  3
Center (2x) ________  __  ________  __  _____
 72
    65
 73
     4
 40
20.32
 49
12.7
 74
     0
 49
-2.54
 74
     0
 49
2.54
 74
     0
 49
-2.54
 74
     0
  0
LTYPE
  5
72
330
5
100
AcDbSymbolTableRecord
100
AcDbLinetypeTableRecord
  2
DOT2
 70
     0
  3
Dot (.5x) ........................................
 72
    65
 73
     2
 40
0.635
 49
0.0
 74
     0
 49
-0.635
 74
     0
  0
ENDTAB
  0
TABLE
  2
LAYER
  5
2
330
0
100
AcDbSymbolTable
 70
    10
  0
LAYER
  5
10
330
2
100
AcDbSymbolTableRecord
100
AcDbLayerTableRecord
  2
0
 70
     0
 62
     7
  6
Continuous
370
    -3
390
F
347
46
  0
LAYER
  5
73
330
2
100
AcDbSymbolTableRecord
100
AcDbLayerTableRecord
  2
SLD-0
 70
     0
 62
   179
  6
Continuous
370
    -3
390
F
347
46
  0
LAYER
  5
74
330
2
100
AcDbSymbolTableRecord
100
AcDbLayerTableRecord
  2
1
 70
     0
 62
     7
  6
Continuous
370
    -3
390
F
347
46
  0
LAYER
  5
75
330
2
100
AcDbSymbolTableRecord
100
AcDbLayerTableRecord
  2
SLD-DEFPOINTS
 70
     0
 62
   179
  6
Continuous
290
     0
370
    -3
390
F
347
46
  0
LAYER
  5
76
330
2
100
AcDbSymbolTableRecord
100
AcDbLayerTableRecord
  2
TEXTO
 70
     0
 62
     8
  6
Continuous
370
    -3
390
F
347
46
  0
LAYER
  5
77
330
2
100
AcDbSymbolTableRecord
100
AcDbLayerTableRecord
  2
COTAS
 70
     0
 62
   250
  6
Continuous
370
    -3
390
F
347
46
  0
LAYER
  5
78
330
2
100
AcDbSymbolTableRecord
100
AcDbLayerTableRecord
  2
CAJETIN
 70
     0
 62
     9
  6
Continuous
370
    -3
390
F
347
46
  0
LAYER
  5
79
330
2
100
AcDbSymbolTableRecord
100
AcDbLayerTableRecord
  2
CAPA_1
 70
     0
 62
   179
  6
Continuous
370
    -3
390
F
347
46
  0
LAYER
  5
7A
330
2
100
AcDbSymbolTableRecord
100
AcDbLayerTableRecord
  2
PIEZA
 70
     0
 62
   255
  6
Continuous
370
    -3
390
F
347
46
  0
LAYER
  5
7B
330
2
100
AcDbSymbolTableRecord
100
AcDbLayerTableRecord
  2
TOP
 70
     0
 62
     7
  6
Continuous
370
    -3
390
F
347
46
  0
ENDTAB
  0
TABLE
  2
STYLE
  5
3
330
0
100
AcDbSymbolTable
 70
     3
  0
STYLE
  5
11
330
3
100
AcDbSymbolTableRecord
100
AcDbTextStyleTableRecord
  2
STANDARD
 70
     0
 40
0.0
 41
1.0
 50
0.0
 71
     0
 42
3.5
  3
GOTHIC.TTF
  4

1001
ACAD
1000
CENTURY GOTHIC
1071
       34
  0
STYLE
  5
19D
330
3
100
AcDbSymbolTableRecord
100
AcDbTextStyleTableRecord
  2
SLDTEXTSTYLE0
 70
     0
 40
0.0
 41
1.0
 50
0.0
 71
     0
 42
3.5
  3
ARIAL.TTF
  4

1001
ACAD
1000
ARIAL
1071
      290
  0
STYLE
  5
1A8
330
3
100
AcDbSymbolTableRecord
100
AcDbTextStyleTableRecord
  2
SLDTEXTSTYLE1
 70
     0
 40
0.0
 41
0.948
 50
0.0
 71
     0
 42
3.5
  3
ARIAL.TTF
  4

1001
ACAD
1000
ARIAL
1071
      290
  0
ENDTAB
  0
TABLE
  2
VIEW
  5
6
330
0
100
AcDbSymbolTable
 70
     0
  0
ENDTAB
  0
TABLE
  2
UCS
  5
7
330
0
100
AcDbSymbolTable
 70
     0
  0
ENDTAB
  0
TABLE
  2
APPID
  5
9
330
0
100
AcDbSymbolTable
 70
     2
  0
APPID
  5
12
330
9
100
AcDbSymbolTableRecord
100
AcDbRegAppTableRecord
  2
ACAD
 70
     0
  0
APPID
  5
1C9
330
9
100
AcDbSymbolTableRecord
100
AcDbRegAppTableRecord
  2
ACAD_MLEADERVER
 70
     0
  0
ENDTAB
  0
TABLE
  2
DIMSTYLE
  5
A
330
0
100
AcDbSymbolTable
 70
     3
100
AcDbDimStyleTable
  0
DIMSTYLE
105
27
330
A
100
AcDbSymbolTableRecord
100
AcDbDimStyleTableRecord
  2
ISO-25
 70
     0
 41
2.5
 42
0.625
 43
3.75
 44
1.25
 73
     0
 74
     0
 77
     1
 78
     8
140
2.5
141
2.5
143
0.0393700787
147
0.625
171
     3
172
     1
178
     0
271
     2
272
     2
274
     3
278
    44
283
     0
284
     8
340
11
  0
DIMSTYLE
105
19E
102
{ACAD_REACTORS
330
19C
102
}
330
A
100
AcDbSymbolTableRecord
100
AcDbDimStyleTableRecord
  2
SLDDIMSTYLE0
 70
     0
 41
3.302
 44
0.0
 45
0.000000001
 73
     0
 74
     0
 77
     1
 78
    12
 79
     3
140
8.0
147
2.0
173
     1
178
     0
271
     0
272
     0
276
     2
284
    12
340
19D
341
19F
343
19F
344
19F
  0
DIMSTYLE
105
1AD
102
{ACAD_REACTORS
330
1AC
102
}
330
A
100
AcDbSymbolTableRecord
100
AcDbDimStyleTableRecord
  2
SLDDIMSTYLE1
 70
     0
 41
3.302
 44
0.0
 45
0.000000001
 73
     0
 74
     0
 77
     1
 78
    12
 79
     3
140
8.0
141
0.0
147
2.0
172
     1
173
     1
178
     0
271
     0
272
     0
276
     2
284
    12
340
19D
341
19F
343
19F
344
19F
  0
ENDTAB
  0
TABLE
  2
BLOCK_RECORD
  5
1
330
0
100
AcDbSymbolTable
 70
     6
  0
BLOCK_RECORD
  5
1F
330
1
100
AcDbSymbolTableRecord
100
AcDbBlockTableRecord
  2
*Model_Space
340
22
 70
     0
280
     1
281
     0
  0
BLOCK_RECORD
  5
1B
330
1
100
AcDbSymbolTableRecord
100
AcDbBlockTableRecord
  2
*Paper_Space
340
1E
 70
     0
280
     1
281
     0
  0
BLOCK_RECORD
  5
23
330
1
100
AcDbSymbolTableRecord
100
AcDbBlockTableRecord
  2
*Paper_Space0
340
26
 70
     0
280
     1
281
     0
  0
BLOCK_RECORD
  5
19F
330
1
100
AcDbSymbolTableRecord
100
AcDbBlockTableRecord
  2
_NONE
340
0
 70
     0
280
     1
281
     0
  0
BLOCK_RECORD
  5
1A2
330
1
100
AcDbSymbolTableRecord
100
AcDbBlockTableRecord
  2
_D
340
0
 70
     0
280
     1
281
     0
  0
BLOCK_RECORD
  5
1AE
330
1
100
AcDbSymbolTableRecord
100
AcDbBlockTableRecord
  2
_D_1
340
0
 70
     0
280
     1
281
     0
  0
BLOCK_RECORD
  5
1B9
330
1
100
AcDbSymbolTableRecord
100
AcDbBlockTableRecord
  2
SW_NOTE_0
340
0
102
{BLKREFS
331
1BE
102
}
 70
     0
280
     1
281
     0
  0
BLOCK_RECORD
  5
1BF
330
1
100
AcDbSymbolTableRecord
100
AcDbBlockTableRecord
  2
SW_NOTE_1
340
0
102
{BLKREFS
331
1C4
102
}
 70
     0
280
     1
281
     0
  0
ENDTAB
  0
ENDSEC
  0
SECTION
  2
BLOCKS
  0
BLOCK
  5
20
330
1F
100
AcDbEntity
  8
0
100
AcDbBlockBegin
  2
*Model_Space
 70
     0
 10
0.0
 20
0.0
 30
0.0
  3
*Model_Space
  1

  0
ENDBLK
  5
21
330
1F
100
AcDbEntity
  8
0
100
AcDbBlockEnd
  0
BLOCK
  5
1C
330
1B
100
AcDbEntity
 67
     1
  8
0
100
AcDbBlockBegin
  2
*Paper_Space
 70
     0
 10
0.0
 20
0.0
 30
0.0
  3
*Paper_Space
  1

  0
ENDBLK
  5
1D
330
1B
100
AcDbEntity
 67
     1
  8
0
100
AcDbBlockEnd
  0
BLOCK
  5
24
330
23
100
AcDbEntity
  8
0
100
AcDbBlockBegin
  2
*Paper_Space0
 70
     0
 10
0.0
 20
0.0
 30
0.0
  3
*Paper_Space0
  1

  0
ENDBLK
  5
25
330
23
100
AcDbEntity
  8
0
100
AcDbBlockEnd
  0
BLOCK
  5
1A0
330
19F
100
AcDbEntity
  8
0
100
AcDbBlockBegin
  2
_NONE
 70
     0
 10
0.0
 20
0.0
 30
0.0
  3
_NONE
  1

  0
ENDBLK
  5
1A1
330
19F
100
AcDbEntity
  8
0
100
AcDbBlockEnd
  0
BLOCK
  5
1A3
330
1A2
100
AcDbEntity
  8
0
100
AcDbBlockBegin
  2
_D
 70
     0
 10
0.0
 20
0.0
 30
0.0
  3
_D
  1

  0
LINE
  5
1A5
330
1A2
100
AcDbEntity
  8
COTAS
100
AcDbLine
 10
103.2446131256
 20
223.8969534275
 30
0.0
 11
90.9200332487
 21
223.8969534275
 31
0.0
  0
LINE
  5
1A6
330
1A2
100
AcDbEntity
  8
COTAS
100
AcDbLine
 10
180.1883776333
 20
117.132383074
 30
0.0
 11
90.9200332487
 21
117.132383074
 31
0.0
  0
LINE
  5
1A7
330
1A2
100
AcDbEntity
  8
COTAS
100
AcDbLine
 10
92.1700332487
 20
216.8969534275
 30
0.0
 11
92.1700332487
 21
124.132383074
 31
0.0
  0
MTEXT
  5
1A9
330
1A2
100
AcDbEntity
  8
COTAS
100
AcDbMText
 10
82.303678155
 20
160.8631272672
 30
0.0
 40
8.0
 41
0.0
 46
0.0
 71
     1
 72
     1
  1
107
  7
SLDTEXTSTYLE1
 11
6.123233995736766E-17
 21
1.0
 31
0.0
 73
     1
 44
1.0
  0
SOLID
  5
1AA
330
1A2
100
AcDbEntity
  8
COTAS
100
AcDbTrace
 10
91.003366582
 20
216.8969534275
 30
0.0
 11
93.3366999153
 21
216.8969534275
 31
0.0
 12
92.1700332487
 22
223.8969534275
 32
0.0
 13
92.1700332487
 23
223.8969534275
 33
0.0
  0
SOLID
  5
1AB
330
1A2
100
AcDbEntity
  8
COTAS
100
AcDbTrace
 10
91.003366582
 20
124.132383074
 30
0.0
 11
93.3366999153
 21
124.132383074
 31
0.0
 12
92.1700332487
 22
117.132383074
 32
0.0
 13
92.1700332487
 23
117.132383074
 33
0.0
  0
ENDBLK
  5
1A4
330
1A2
100
AcDbEntity
  8
0
100
AcDbBlockEnd
  0
BLOCK
  5
1AF
330
1AE
100
AcDbEntity
  8
0
100
AcDbBlockBegin
  2
_D_1
 70
     0
 10
0.0
 20
0.0
 30
0.0
  3
_D_1
  1

  0
LINE
  5
1B1
330
1AE
100
AcDbEntity
  8
COTAS
100
AcDbLine
 10
175.3296253617
 20
570.8023558684
 30
0.0
 11
206.6655851718
 21
539.3769976508
 31
0.0
  0
LINE
  5
1B2
330
1AE
100
AcDbEntity
  8
COTAS
100
AcDbLine
 10
371.0736410795
 20
374.4999017501
 30
0.0
 11
376.0163330196
 21
369.5431087965
 31
0.0
  0
LINE
  5
1B3
330
1AE
100
AcDbEntity
  8
COTAS
100
AcDbLine
 10
366.1309491393
 20
379.4566947036
 30
0.0
 11
211.608277112
 21
534.4202046973
 31
0.0
  0
MTEXT
  5
1B4
330
1AE
100
AcDbEntity
  8
COTAS
100
AcDbMText
 10
181.5574164766
 20
578.8467123795
 30
0.0
 40
8.0
 41
0.0
 46
0.0
 71
     1
 72
     1
  1
%%c
  7
SLDTEXTSTYLE1
 11
0.7060988485983667
 21
-0.7081132790790332
 31
0.0
 73
     1
 44
1.0
  0
MTEXT
  5
1B5
330
1AE
100
AcDbEntity
  8
COTAS
100
AcDbMText
 10
189.8090105062
 20
570.603048957
 30
0.0
 40
8.0
 41
0.0
 46
0.0
 71
     1
 72
     1
  1
219
  7
SLDTEXTSTYLE1
 11
0.7060988485983667
 21
-0.7081132790790332
 31
0.0
 73
     1
 44
1.0
  0
SOLID
  5
1B6
330
1AE
100
AcDbEntity
  8
COTAS
100
AcDbTrace
 10
371.8997732384
 20
375.3236837401
 30
0.0
 11
370.2475089205
 21
373.67611976
 31
0.0
 12
366.1309491393
 22
379.4566947036
 32
0.0
 13
366.1309491393
 23
379.4566947036
 33
0.0
  0
SOLID
  5
1B7
330
1AE
100
AcDbEntity
  8
COTAS
100
AcDbTrace
 10
207.4917173307
 20
540.2007796409
 30
0.0
 11
205.8394530129
 21
538.5532156608
 31
0.0
 12
211.608277112
 22
534.4202046973
 32
0.0
 13
211.608277112
 23
534.4202046973
 33
0.0
  0
ENDBLK
  5
1B0
330
1AE
100
AcDbEntity
  8
0
100
AcDbBlockEnd
  0
BLOCK
  5
1BA
330
1B9
100
AcDbEntity
  8
0
100
AcDbBlockBegin
  2
SW_NOTE_0
 70
     0
 10
0.0
 20
0.0
 30
0.0
  3
SW_NOTE_0
  1

  0
MTEXT
  5
1BC
330
1B9
100
AcDbEntity
  8
TEXTO
 62
     0
100
AcDbMText
 10
0.0
 20
4.5117370892
 30
0.0
 40
3.5
 41
0.0
 46
0.0
 71
     1
 72
     1
  1
Escala 1/1
  7
SLDTEXTSTYLE0
 73
     1
 44
1.0
  0
MTEXT
  5
1BD
330
1B9
100
AcDbEntity
  8
TEXTO
 62
     0
100
AcDbMText
 10
0.0
 20
-1.2982629132
 30
0.0
 40
3.5
 41
0.0
 46
0.0
 71
     1
 72
     1
  1
Scale 1/1
  7
SLDTEXTSTYLE0
 73
     1
 44
1.0
  0
ENDBLK
  5
1BB
330
1B9
100
AcDbEntity
  8
0
100
AcDbBlockEnd
  0
BLOCK
  5
1C0
330
1BF
100
AcDbEntity
  8
0
100
AcDbBlockBegin
  2
SW_NOTE_1
 70
     0
 10
0.0
 20
0.0
 30
0.0
  3
SW_NOTE_1
  1

  0
MTEXT
  5
1C2
330
1BF
100
AcDbEntity
  8
TEXTO
 62
     0
100
AcDbMText
 10
0.0
 20
4.5117370892
 30
0.0
 40
3.5
 41
0.0
 46
0.0
 71
     1
 72
     1
  1
Unidades: mm.
  7
SLDTEXTSTYLE0
 73
     1
 44
1.0
  0
MTEXT
  5
1C3
330
1BF
100
AcDbEntity
  8
TEXTO
 62
     0
100
AcDbMText
 10
0.0
 20
-1.2982629132
 30
0.0
 40
3.5
 41
0.0
 46
0.0
 71
     1
 72
     1
  1
Units: mm.
  7
SLDTEXTSTYLE0
 73
     1
 44
1.0
  0
ENDBLK
  5
1C1
330
1BF
100
AcDbEntity
  8
0
100
AcDbBlockEnd
  0
ENDSEC
  0
SECTION
  2
ENTITIES
  0
LINE
  5
7C
330
1F
100
AcDbEntity
  8
COTAS
100
AcDbLine
 10
103.8696131256
 20
243.8969534275
 30
0.0
 11
103.8696131256
 21
223.8969534275
 31
0.0
  0
LINE
  5
7D
330
1F
100
AcDbEntity
  8
COTAS
100
AcDbLine
 10
103.8696131256
 20
223.8969534275
 30
0.0
 11
473.8696131256
 21
223.8969534275
 31
0.0
  0
LINE
  5
7E
330
1F
100
AcDbEntity
  8
COTAS
100
AcDbLine
 10
473.8696131256
 20
223.8969534275
 30
0.0
 11
473.8696131256
 21
243.8969534275
 31
0.0
  0
LINE
  5
7F
330
1F
100
AcDbEntity
  8
COTAS
100
AcDbLine
 10
473.8696131256
 20
243.8969534275
 30
0.0
 11
103.8696131256
 21
243.8969534275
 31
0.0
  0
LINE
  5
80
330
1F
100
AcDbEntity
  8
CAJETIN
100
AcDbLine
 10
20.0
 20
10.0000000635
 30
0.0
 11
529.8157960683
 21
10.0000000635
 31
0.0
  0
LINE
  5
81
330
1F
100
AcDbEntity
  8
CAJETIN
100
AcDbLine
 10
20.0
 20
637.669550005
 30
0.0
 11
20.0
 21
10.0000000635
 31
0.0
  0
LINE
  5
82
330
1F
100
AcDbEntity
  8
CAJETIN
100
AcDbLine
 10
232.8157967275
 20
24.9999994737
 30
0.0
 11
529.8157960683
 21
24.9999994737
 31
0.0
  0
LINE
  5
83
330
1F
100
AcDbEntity
  8
CAJETIN
100
AcDbLine
 10
232.8157967275
 20
39.9999993552
 30
0.0
 11
529.8157984335
 21
39.9999993552
 31
0.0
  0
LINE
  5
84
330
1F
100
AcDbEntity
  8
CAJETIN
100
AcDbLine
 10
529.8157960683
 20
637.669550005
 30
0.0
 11
529.8157960683
 21
10.0000000635
 31
0.0
  0
LINE
  5
85
330
1F
100
AcDbEntity
  8
CAJETIN
100
AcDbLine
 10
20.0
 20
637.669550005
 30
0.0
 11
529.8157960683
 21
637.669550005
 31
0.0
  0
LINE
  5
86
330
1F
100
AcDbEntity
  8
PIEZA
100
AcDbLine
 10
232.8157967275
 20
39.9999993552
 30
0.0
 11
232.8157967275
 21
9.9999998721
 31
0.0
  0
LINE
  5
87
330
1F
100
AcDbEntity
  8
COTAS
100
AcDbLine
 10
315.8798063044
 20
24.9999994737
 30
0.0
 11
315.8798063044
 21
9.9999998025
 31
0.0
  0
LINE
  5
88
330
1F
100
AcDbEntity
  8
PIEZA
370
     0
100
AcDbLine
 10
452.6274452017
 20
19.4061680209
 30
0.0
 11
456.7216585899
 21
19.4061680209
 31
0.0
  0
LINE
  5
89
330
1F
100
AcDbEntity
  8
PIEZA
370
     0
100
AcDbLine
 10
456.7216585899
 20
19.4061680209
 30
0.0
 11
458.3683130419
 21
19.4061680209
 31
0.0
  0
LINE
  5
8A
330
1F
100
AcDbEntity
  8
PIEZA
370
     0
100
AcDbLine
 10
460.7268915626
 20
15.0451587262
 30
0.0
 11
460.7268915626
 21
13.3095077097
 31
0.0
  0
LINE
  5
8B
330
1F
100
AcDbEntity
  8
PIEZA
370
     0
100
AcDbLine
 10
460.7268915626
 20
13.3095077097
 30
0.0
 11
459.5697585872
 21
13.3095077097
 31
0.0
  0
LINE
  5
8C
330
1F
100
AcDbEntity
  8
PIEZA
370
     0
100
AcDbLine
 10
459.5697585872
 20
13.3095077097
 30
0.0
 11
459.5697585872
 21
14.7780882884
 31
0.0
  0
LINE
  5
8D
330
1F
100
AcDbEntity
  8
PIEZA
370
     0
100
AcDbLine
 10
458.2792518819
 20
15.6680862305
 30
0.0
 11
456.7216585899
 21
15.6680862305
 31
0.0
  0
LINE
  5
8E
330
1F
100
AcDbEntity
  8
PIEZA
370
     0
100
AcDbLine
 10
456.7216585899
 20
15.6680862305
 30
0.0
 11
453.7844974326
 21
15.6680862305
 31
0.0
  0
LINE
  5
8F
330
1F
100
AcDbEntity
  8
PIEZA
370
     0
100
AcDbLine
 10
453.7844974326
 20
15.6680862305
 30
0.0
 11
453.7844974326
 21
13.3095077098
 31
0.0
  0
LINE
  5
90
330
1F
100
AcDbEntity
  8
PIEZA
370
     0
100
AcDbLine
 10
453.7844974326
 20
13.3095077098
 30
0.0
 11
452.6274452017
 21
13.3095077098
 31
0.0
  0
LINE
  5
91
330
1F
100
AcDbEntity
  8
PIEZA
370
     0
100
AcDbLine
 10
452.6274452017
 20
13.3095077098
 30
0.0
 11
452.6274452017
 21
19.4061680209
 31
0.0
  0
LINE
  5
92
330
1F
100
AcDbEntity
  8
PIEZA
370
     0
100
AcDbLine
 10
456.72165859
 20
18.5162023767
 30
0.0
 11
453.7844974326
 21
18.5162023767
 31
0.0
  0
LINE
  5
93
330
1F
100
AcDbEntity
  8
PIEZA
370
     0
100
AcDbLine
 10
453.7844974326
 20
18.5162023767
 30
0.0
 11
453.7844974326
 21
16.5580841726
 31
0.0
  0
LINE
  5
94
330
1F
100
AcDbEntity
  8
PIEZA
370
     0
100
AcDbLine
 10
453.7844974326
 20
16.5580841726
 30
0.0
 11
456.7216585899
 21
16.5580841726
 31
0.0
  0
LINE
  5
95
330
1F
100
AcDbEntity
  8
PIEZA
370
     0
100
AcDbLine
 10
456.7216585899
 20
16.5580841726
 30
0.0
 11
458.2345678874
 21
16.5580841726
 31
0.0
  0
LINE
  5
96
330
1F
100
AcDbEntity
  8
PIEZA
370
     0
100
AcDbLine
 10
458.1902553175
 20
18.5162023767
 30
0.0
 11
456.72165859
 21
18.5162023767
 31
0.0
  0
LINE
  5
97
330
1F
100
AcDbEntity
  8
PIEZA
370
     0
100
AcDbLine
 10
476.169176221
 20
19.4952453298
 30
0.0
 11
477.2372641853
 21
19.4952453298
 31
0.0
  0
LINE
  5
98
330
1F
100
AcDbEntity
  8
PIEZA
370
     0
100
AcDbLine
 10
476.7033493943
 20
13.2650013532
 30
0.0
 11
476.169176221
 21
13.2650013532
 31
0.0
  0
LINE
  5
99
330
1F
100
AcDbEntity
  8
PIEZA
370
     0
100
AcDbLine
 10
476.169176221
 20
13.2650013532
 30
0.0
 11
475.1457561023
 21
13.2650013532
 31
0.0
  0
LINE
  5
9A
330
1F
100
AcDbEntity
  8
PIEZA
370
     0
100
AcDbLine
 10
476.169176221
 20
18.5162023767
 30
0.0
 11
474.5672380613
 21
18.5162023767
 31
0.0
  0
LINE
  5
9B
330
1F
100
AcDbEntity
  8
PIEZA
370
     0
100
AcDbLine
 10
472.8315870449
 20
17.2256795225
 30
0.0
 11
472.7872098794
 21
16.3356815804
 31
0.0
  0
LINE
  5
9C
330
1F
100
AcDbEntity
  8
PIEZA
370
     0
100
AcDbLine
 10
472.7872098794
 20
16.3356815804
 30
0.0
 11
472.7872098794
 21
15.9351566683
 31
0.0
  0
LINE
  5
9D
330
1F
100
AcDbEntity
  8
PIEZA
370
     0
100
AcDbLine
 10
474.3447708736
 20
14.2440120085
 30
0.0
 11
476.1247990555
 21
14.1995056519
 31
0.0
  0
LINE
  5
9E
330
1F
100
AcDbEntity
  8
PIEZA
370
     0
100
AcDbLine
 10
476.1247990555
 20
14.1995056519
 30
0.0
 11
476.169176221
 21
14.1995056519
 31
0.0
  0
LINE
  5
9F
330
1F
100
AcDbEntity
  8
PIEZA
370
     0
100
AcDbLine
 10
476.169176221
 20
14.1995056519
 30
0.0
 11
476.7477265598
 21
14.1995056519
 31
0.0
  0
LINE
  5
A0
330
1F
100
AcDbEntity
  8
PIEZA
370
     0
100
AcDbLine
 10
479.5068299926
 20
15.5790089217
 30
0.0
 11
479.5068299927
 21
16.736141897
 31
0.0
  0
LINE
  5
A1
330
1F
100
AcDbEntity
  8
PIEZA
370
     0
100
AcDbLine
 10
477.7714050608
 20
18.5162023767
 30
0.0
 11
476.169176221
 21
18.5162023767
 31
0.0
  0
LINE
  5
A2
330
1F
100
AcDbEntity
  8
PIEZA
370
     0
100
AcDbLine
 10
447.2870053804
 20
14.5999982662
 30
0.0
 11
444.5279665431
 21
14.5999982662
 31
0.0
  0
LINE
  5
A3
330
1F
100
AcDbEntity
  8
PIEZA
370
     0
100
AcDbLine
 10
444.5279665431
 20
14.5999982662
 30
0.0
 11
443.6379201544
 21
13.3095077098
 31
0.0
  0
LINE
  5
A4
330
1F
100
AcDbEntity
  8
PIEZA
370
     0
100
AcDbLine
 10
443.6379201544
 20
13.3095077098
 30
0.0
 11
442.2137167412
 21
13.3095077098
 31
0.0
  0
LINE
  5
A5
330
1F
100
AcDbEntity
  8
PIEZA
370
     0
100
AcDbLine
 10
442.2137167412
 20
13.3095077098
 30
0.0
 11
446.619474626
 21
19.4061680209
 31
0.0
  0
LINE
  5
A6
330
1F
100
AcDbEntity
  8
PIEZA
370
     0
100
AcDbLine
 10
446.619474626
 20
19.4061680209
 30
0.0
 11
447.2870053804
 21
19.4061680209
 31
0.0
  0
LINE
  5
A7
330
1F
100
AcDbEntity
  8
PIEZA
370
     0
100
AcDbLine
 10
447.2870053804
 20
19.4061680209
 30
0.0
 11
447.9102397137
 21
19.4061680209
 31
0.0
  0
LINE
  5
A8
330
1F
100
AcDbEntity
  8
PIEZA
370
     0
100
AcDbLine
 10
447.9102397137
 20
19.4061680209
 30
0.0
 11
452.404978014
 21
13.3095077098
 31
0.0
  0
LINE
  5
A9
330
1F
100
AcDbEntity
  8
PIEZA
370
     0
100
AcDbLine
 10
452.404978014
 20
13.3095077098
 30
0.0
 11
450.9807746009
 21
13.3095077098
 31
0.0
  0
LINE
  5
AA
330
1F
100
AcDbEntity
  8
PIEZA
370
     0
100
AcDbLine
 10
450.9807746009
 20
13.3095077098
 30
0.0
 11
450.0464156422
 21
14.5999982662
 31
0.0
  0
LINE
  5
AB
330
1F
100
AcDbEntity
  8
PIEZA
370
     0
100
AcDbLine
 10
450.0464156422
 20
14.5999982662
 30
0.0
 11
447.2870053804
 21
14.5999982662
 31
0.0
  0
LINE
  5
AC
330
1F
100
AcDbEntity
  8
PIEZA
370
     0
100
AcDbLine
 10
447.2870053804
 20
18.4717929134
 30
0.0
 11
445.1508778985
 21
15.5346963517
 31
0.0
  0
LINE
  5
AD
330
1F
100
AcDbEntity
  8
PIEZA
370
     0
100
AcDbLine
 10
445.1508778985
 20
15.5346963517
 30
0.0
 11
447.2870053804
 21
15.5346963517
 31
0.0
  0
LINE
  5
AE
330
1F
100
AcDbEntity
  8
PIEZA
370
     0
100
AcDbLine
 10
447.2870053804
 20
15.5346963517
 30
0.0
 11
449.4231974578
 21
15.5346963517
 31
0.0
  0
LINE
  5
AF
330
1F
100
AcDbEntity
  8
PIEZA
370
     0
100
AcDbLine
 10
449.4231974578
 20
15.5346963517
 30
0.0
 11
447.2870053804
 21
18.4717929134
 31
0.0
  0
LINE
  5
B0
330
1F
100
AcDbEntity
  8
PIEZA
370
     0
100
AcDbLine
 10
463.6196755543
 20
16.9142319192
 30
0.0
 11
464.6430472263
 21
16.9142319192
 31
0.0
  0
LINE
  5
B1
330
1F
100
AcDbEntity
  8
PIEZA
370
     0
100
AcDbLine
 10
464.6430472263
 20
16.9142319192
 30
0.0
 11
469.1378016755
 21
19.4061680209
 31
0.0
  0
LINE
  5
B2
330
1F
100
AcDbEntity
  8
PIEZA
370
     0
100
AcDbLine
 10
469.1378016755
 20
19.4061680209
 30
0.0
 11
470.6063822542
 21
19.4061680209
 31
0.0
  0
LINE
  5
B3
330
1F
100
AcDbEntity
  8
PIEZA
370
     0
100
AcDbLine
 10
470.6063822542
 20
19.4061680209
 30
0.0
 11
471.2296004386
 21
19.4061680209
 31
0.0
  0
LINE
  5
B4
330
1F
100
AcDbEntity
  8
PIEZA
370
     0
100
AcDbLine
 10
471.2296004386
 20
19.4061680209
 30
0.0
 11
465.8891767661
 21
16.4690714592
 31
0.0
  0
LINE
  5
B5
330
1F
100
AcDbEntity
  8
PIEZA
370
     0
100
AcDbLine
 10
465.8891767661
 20
16.4690714592
 30
0.0
 11
471.5853767606
 21
13.3095077098
 31
0.0
  0
LINE
  5
B6
330
1F
100
AcDbEntity
  8
PIEZA
370
     0
100
AcDbLine
 10
471.5853767606
 20
13.3095077098
 30
0.0
 11
469.3601881188
 21
13.3095077098
 31
0.0
  0
LINE
  5
B7
330
1F
100
AcDbEntity
  8
PIEZA
370
     0
100
AcDbLine
 10
469.3601881188
 20
13.3095077098
 30
0.0
 11
464.6430472263
 21
16.0242339772
 31
0.0
  0
LINE
  5
B8
330
1F
100
AcDbEntity
  8
PIEZA
370
     0
100
AcDbLine
 10
464.6430472263
 20
16.0242339772
 30
0.0
 11
463.6196755543
 21
16.0242339772
 31
0.0
  0
LINE
  5
B9
330
1F
100
AcDbEntity
  8
PIEZA
370
     0
100
AcDbLine
 10
463.6196755543
 20
16.0242339772
 30
0.0
 11
463.6196755543
 21
13.3095077098
 31
0.0
  0
LINE
  5
BA
330
1F
100
AcDbEntity
  8
PIEZA
370
     0
100
AcDbLine
 10
463.6196755543
 20
13.3095077098
 30
0.0
 11
462.4625425789
 21
13.3095077098
 31
0.0
  0
LINE
  5
BB
330
1F
100
AcDbEntity
  8
PIEZA
370
     0
100
AcDbLine
 10
462.4625425789
 20
13.3095077098
 30
0.0
 11
462.4625425789
 21
19.4061680209
 31
0.0
  0
LINE
  5
BC
330
1F
100
AcDbEntity
  8
PIEZA
370
     0
100
AcDbLine
 10
462.4625425789
 20
19.4061680209
 30
0.0
 11
463.6196755543
 21
19.4061680209
 31
0.0
  0
LINE
  5
BD
330
1F
100
AcDbEntity
  8
PIEZA
370
     0
100
AcDbLine
 10
463.6196755543
 20
19.4061680209
 30
0.0
 11
463.6196755543
 21
16.9142319192
 31
0.0
  0
LINE
  5
BE
330
1F
100
AcDbEntity
  8
PIEZA
370
     0
100
AcDbLine
 10
489.0751153143
 20
17.4927499602
 30
0.0
 11
489.0751153143
 21
17.6708076847
 31
0.0
  0
LINE
  5
BF
330
1F
100
AcDbEntity
  8
PIEZA
370
     0
100
AcDbLine
 10
486.5828239369
 20
18.5162023767
 30
0.0
 11
486.2713763337
 21
18.5162023767
 31
0.0
  0
LINE
  5
C0
330
1F
100
AcDbEntity
  8
PIEZA
370
     0
100
AcDbLine
 10
485.4257232593
 20
16.8695317758
 30
0.0
 11
487.0276937168
 21
16.9142319192
 31
0.0
  0
LINE
  5
C1
330
1F
100
AcDbEntity
  8
PIEZA
370
     0
100
AcDbLine
 10
486.8052911247
 20
13.2650013532
 30
0.0
 11
486.2713763338
 21
13.2650013532
 31
0.0
  0
LINE
  5
C2
330
1F
100
AcDbEntity
  8
PIEZA
370
     0
100
AcDbLine
 10
482.3105366755
 20
15.2675613184
 30
0.0
 11
482.3105366755
 21
15.4456190428
 31
0.0
  0
LINE
  5
C3
330
1F
100
AcDbEntity
  8
PIEZA
370
     0
100
AcDbLine
 10
482.3105366755
 20
15.4456190428
 30
0.0
 11
483.4676696509
 21
15.4456190428
 31
0.0
  0
LINE
  5
C4
330
1F
100
AcDbEntity
  8
PIEZA
370
     0
100
AcDbLine
 10
483.4676696509
 20
15.4456190428
 30
0.0
 11
483.4676696509
 21
15.178548605
 31
0.0
  0
LINE
  5
C5
330
1F
100
AcDbEntity
  8
PIEZA
370
     0
100
AcDbLine
 10
487.8733467913
 20
15.8905534182
 30
0.0
 11
486.3157534993
 21
15.9351566683
 31
0.0
  0
LINE
  5
C6
330
1F
100
AcDbEntity
  8
PIEZA
370
     0
100
AcDbLine
 10
490.2322482898
 20
17.6708076846
 30
0.0
 11
490.2322482898
 21
17.4927499602
 31
0.0
  0
LINE
  5
C7
330
1F
100
AcDbEntity
  8
PIEZA
370
     0
100
AcDbLine
 10
490.2322482898
 20
17.4927499602
 30
0.0
 11
489.0751153143
 21
17.4927499602
 31
0.0
  0
LINE
  5
C8
330
1F
100
AcDbEntity
  8
PIEZA
370
     0
100
AcDbLine
 10
520.0044170725
 20
13.3095077098
 30
0.0
 11
518.4021236371
 21
13.3095077098
 31
0.0
  0
LINE
  5
C9
330
1F
100
AcDbEntity
  8
PIEZA
370
     0
100
AcDbLine
 10
518.4021236371
 20
13.3095077098
 30
0.0
 11
518.4021236371
 21
15.7570989438
 31
0.0
  0
LINE
  5
CA
330
1F
100
AcDbEntity
  8
PIEZA
370
     0
100
AcDbLine
 10
518.4021236371
 20
15.7570989438
 30
0.0
 11
516.176967293
 21
15.7570989438
 31
0.0
  0
LINE
  5
CB
330
1F
100
AcDbEntity
  8
PIEZA
370
     0
100
AcDbLine
 10
516.176967293
 20
15.7570989438
 30
0.0
 11
516.176967293
 21
16.5580841726
 31
0.0
  0
LINE
  5
CC
330
1F
100
AcDbEntity
  8
PIEZA
370
     0
100
AcDbLine
 10
516.176967293
 20
16.5580841726
 30
0.0
 11
522.2293150342
 21
16.5580841726
 31
0.0
  0
LINE
  5
CD
330
1F
100
AcDbEntity
  8
PIEZA
370
     0
100
AcDbLine
 10
522.2293150342
 20
16.5580841726
 30
0.0
 11
522.2293150342
 21
15.7570989438
 31
0.0
  0
LINE
  5
CE
330
1F
100
AcDbEntity
  8
PIEZA
370
     0
100
AcDbLine
 10
522.2293150342
 20
15.7570989438
 30
0.0
 11
520.0044170725
 21
15.7570989438
 31
0.0
  0
LINE
  5
CF
330
1F
100
AcDbEntity
  8
PIEZA
370
     0
100
AcDbLine
 10
520.0044170725
 20
15.7570989438
 30
0.0
 11
520.0044170725
 21
13.3095077098
 31
0.0
  0
LINE
  5
D0
330
1F
100
AcDbEntity
  8
PIEZA
370
     0
100
AcDbLine
 10
510.4807350007
 20
13.3095077098
 30
0.0
 11
508.8787645433
 21
13.3095077098
 31
0.0
  0
LINE
  5
D1
330
1F
100
AcDbEntity
  8
PIEZA
370
     0
100
AcDbLine
 10
508.8787645433
 20
13.3095077098
 30
0.0
 11
508.8787645433
 21
16.5580841726
 31
0.0
  0
LINE
  5
D2
330
1F
100
AcDbEntity
  8
PIEZA
370
     0
100
AcDbLine
 10
508.8787645433
 20
16.5580841726
 30
0.0
 11
510.4807350007
 21
16.5580841726
 31
0.0
  0
LINE
  5
D3
330
1F
100
AcDbEntity
  8
PIEZA
370
     0
100
AcDbLine
 10
510.4807350007
 20
16.5580841726
 30
0.0
 11
510.4807350007
 21
15.3566386273
 31
0.0
  0
LINE
  5
D4
330
1F
100
AcDbEntity
  8
PIEZA
370
     0
100
AcDbLine
 10
510.4807350007
 20
15.3566386273
 30
0.0
 11
513.8183887723
 21
15.3566386273
 31
0.0
  0
LINE
  5
D5
330
1F
100
AcDbEntity
  8
PIEZA
370
     0
100
AcDbLine
 10
513.8183887723
 20
15.3566386273
 30
0.0
 11
513.8183887723
 21
16.5580841726
 31
0.0
  0
LINE
  5
D6
330
1F
100
AcDbEntity
  8
PIEZA
370
     0
100
AcDbLine
 10
513.8183887723
 20
16.5580841726
 30
0.0
 11
515.4206499099
 21
16.5580841726
 31
0.0
  0
LINE
  5
D7
330
1F
100
AcDbEntity
  8
PIEZA
370
     0
100
AcDbLine
 10
515.4206499099
 20
16.5580841726
 30
0.0
 11
515.4206499099
 21
13.3095077098
 31
0.0
  0
LINE
  5
D8
330
1F
100
AcDbEntity
  8
PIEZA
370
     0
100
AcDbLine
 10
515.4206499099
 20
13.3095077098
 30
0.0
 11
513.8183887723
 21
13.3095077098
 31
0.0
  0
LINE
  5
D9
330
1F
100
AcDbEntity
  8
PIEZA
370
     0
100
AcDbLine
 10
513.8183887723
 20
13.3095077098
 30
0.0
 11
513.8183887723
 21
14.5999982662
 31
0.0
  0
LINE
  5
DA
330
1F
100
AcDbEntity
  8
PIEZA
370
     0
100
AcDbLine
 10
513.8183887723
 20
14.5999982662
 30
0.0
 11
510.4807350007
 21
14.5999982662
 31
0.0
  0
LINE
  5
DB
330
1F
100
AcDbEntity
  8
PIEZA
370
     0
100
AcDbLine
 10
510.4807350007
 20
14.5999982662
 30
0.0
 11
510.4807350007
 21
13.3095077098
 31
0.0
  0
LINE
  5
DC
330
1F
100
AcDbEntity
  8
PIEZA
370
     0
100
AcDbLine
 10
506.2084477392
 20
15.5346963517
 30
0.0
 11
506.2084477392
 21
15.5790089216
 31
0.0
  0
LINE
  5
DD
330
1F
100
AcDbEntity
  8
PIEZA
370
     0
100
AcDbLine
 10
504.9622697527
 20
15.8014761093
 30
0.0
 11
504.0278946452
 21
15.8014761093
 31
0.0
  0
LINE
  5
DE
330
1F
100
AcDbEntity
  8
PIEZA
370
     0
100
AcDbLine
 10
502.7370811109
 20
15.1341714395
 30
0.0
 11
502.7370811109
 21
14.6890109796
 31
0.0
  0
LINE
  5
DF
330
1F
100
AcDbEntity
  8
PIEZA
370
     0
100
AcDbLine
 10
504.0278946452
 20
14.065986582
 30
0.0
 11
504.9622697527
 21
14.065986582
 31
0.0
  0
LINE
  5
E0
330
1F
100
AcDbEntity
  8
PIEZA
370
     0
100
AcDbLine
 10
506.2084477392
 20
14.5999982663
 30
0.0
 11
504.2950296785
 21
14.5999982663
 31
0.0
  0
LINE
  5
E1
330
1F
100
AcDbEntity
  8
PIEZA
370
     0
100
AcDbLine
 10
504.2950296785
 20
14.5999982663
 30
0.0
 11
504.2950296785
 21
15.0451587263
 31
0.0
  0
LINE
  5
E2
330
1F
100
AcDbEntity
  8
PIEZA
370
     0
100
AcDbLine
 10
504.2950296785
 20
15.0451587263
 30
0.0
 11
507.8997215902
 21
15.0451587263
 31
0.0
  0
LINE
  5
E3
330
1F
100
AcDbEntity
  8
PIEZA
370
     0
100
AcDbLine
 10
507.8997215902
 20
15.0451587263
 30
0.0
 11
507.8997215902
 21
14.1104929385
 31
0.0
  0
LINE
  5
E4
330
1F
100
AcDbEntity
  8
PIEZA
370
     0
100
AcDbLine
 10
505.4074625105
 20
13.2650013531
 30
0.0
 11
503.5827341852
 21
13.2650013531
 31
0.0
  0
LINE
  5
E5
330
1F
100
AcDbEntity
  8
PIEZA
370
     0
100
AcDbLine
 10
501.0907980835
 20
14.4665760896
 30
0.0
 11
501.0907980835
 21
15.3566386273
 31
0.0
  0
LINE
  5
E6
330
1F
100
AcDbEntity
  8
PIEZA
370
     0
100
AcDbLine
 10
503.5827341852
 20
16.6027520182
 30
0.0
 11
505.4074625105
 21
16.6027520182
 31
0.0
  0
LINE
  5
E7
330
1F
100
AcDbEntity
  8
PIEZA
370
     0
100
AcDbLine
 10
507.8104181967
 20
15.5346963517
 30
0.0
 11
506.2084477392
 21
15.5346963517
 31
0.0
  0
LINE
  5
E8
330
1F
100
AcDbEntity
  8
PIEZA
370
     0
100
AcDbLine
 10
500.0226778214
 20
13.3095077098
 30
0.0
 11
498.4204489816
 21
13.3095077098
 31
0.0
  0
LINE
  5
E9
330
1F
100
AcDbEntity
  8
PIEZA
370
     0
100
AcDbLine
 10
498.4204489816
 20
13.3095077098
 30
0.0
 11
498.4204489816
 21
16.5580841726
 31
0.0
  0
LINE
  5
EA
330
1F
100
AcDbEntity
  8
PIEZA
370
     0
100
AcDbLine
 10
498.4204489816
 20
16.5580841726
 30
0.0
 11
500.0226778214
 21
16.5580841726
 31
0.0
  0
LINE
  5
EB
330
1F
100
AcDbEntity
  8
PIEZA
370
     0
100
AcDbLine
 10
500.0226778214
 20
16.5580841726
 30
0.0
 11
500.0226778214
 21
13.3095077098
 31
0.0
  0
LINE
  5
EC
330
1F
100
AcDbEntity
  8
PIEZA
370
     0
100
AcDbLine
 10
494.1483878047
 20
14.1104929386
 30
0.0
 11
497.7084764662
 21
14.1104929386
 31
0.0
  0
LINE
  5
ED
330
1F
100
AcDbEntity
  8
PIEZA
370
     0
100
AcDbLine
 10
497.7084764662
 20
14.1104929386
 30
0.0
 11
497.7084764662
 21
13.3095077098
 31
0.0
  0
LINE
  5
EE
330
1F
100
AcDbEntity
  8
PIEZA
370
     0
100
AcDbLine
 10
497.7084764662
 20
13.3095077098
 30
0.0
 11
492.5461912627
 21
13.3095077098
 31
0.0
  0
LINE
  5
EF
330
1F
100
AcDbEntity
  8
PIEZA
370
     0
100
AcDbLine
 10
492.5461912627
 20
13.3095077098
 30
0.0
 11
492.5461912627
 21
16.5580841726
 31
0.0
  0
LINE
  5
F0
330
1F
100
AcDbEntity
  8
PIEZA
370
     0
100
AcDbLine
 10
492.5461912627
 20
16.5580841726
 30
0.0
 11
494.1483878047
 21
16.5580841726
 31
0.0
  0
LINE
  5
F1
330
1F
100
AcDbEntity
  8
PIEZA
370
     0
100
AcDbLine
 10
494.1483878047
 20
16.5580841726
 30
0.0
 11
494.1483878047
 21
14.1104929386
 31
0.0
  0
LINE
  5
F2
330
1F
100
AcDbEntity
  8
PIEZA
370
     0
100
AcDbLine
 10
522.689687754
 20
18.9397879119
 30
0.0
 11
522.689687754
 21
20.4036853108
 31
0.0
  0
LINE
  5
F3
330
1F
100
AcDbEntity
  8
PIEZA
370
     0
100
AcDbLine
 10
522.689687754
 20
20.4036853108
 30
0.0
 11
523.312195387
 21
20.4036853108
 31
0.0
  0
LINE
  5
F4
330
1F
100
AcDbEntity
  8
PIEZA
370
     0
100
AcDbLine
 10
523.8276681391
 20
19.225397282
 30
0.0
 11
524.0063395215
 21
18.9397879119
 31
0.0
  0
LINE
  5
F5
330
1F
100
AcDbEntity
  8
PIEZA
370
     0
100
AcDbLine
 10
524.0063395215
 20
18.9397879119
 30
0.0
 11
523.6530016827
 21
18.9397879119
 31
0.0
  0
LINE
  5
F6
330
1F
100
AcDbEntity
  8
PIEZA
370
     0
100
AcDbLine
 10
523.6530016827
 20
18.9397879119
 30
0.0
 11
523.441063575
 21
19.2593099631
 31
0.0
  0
LINE
  5
F7
330
1F
100
AcDbEntity
  8
PIEZA
370
     0
100
AcDbLine
 10
523.046255372
 20
19.5510882113
 30
0.0
 11
522.986149182
 21
19.5510882113
 31
0.0
  0
LINE
  5
F8
330
1F
100
AcDbEntity
  8
PIEZA
370
     0
100
AcDbLine
 10
522.986149182
 20
19.5510882113
 30
0.0
 11
522.986149182
 21
18.9397879119
 31
0.0
  0
LINE
  5
F9
330
1F
100
AcDbEntity
  8
PIEZA
370
     0
100
AcDbLine
 10
522.986149182
 20
18.9397879119
 30
0.0
 11
522.689687754
 21
18.9397879119
 31
0.0
  0
LINE
  5
FA
330
1F
100
AcDbEntity
  8
PIEZA
370
     0
100
AcDbLine
 10
522.986149182
 20
19.7841813724
 30
0.0
 11
523.2047729326
 21
19.7841813724
 31
0.0
  0
LINE
  5
FB
330
1F
100
AcDbEntity
  8
PIEZA
370
     0
100
AcDbLine
 10
523.2167554132
 20
20.1562842281
 30
0.0
 11
522.986149182
 21
20.1562842281
 31
0.0
  0
LINE
  5
FC
330
1F
100
AcDbEntity
  8
PIEZA
370
     0
100
AcDbLine
 10
522.986149182
 20
20.1562842281
 30
0.0
 11
522.986149182
 21
19.7841813724
 31
0.0
  0
LINE
  5
FD
330
1F
100
AcDbEntity
  8
PIEZA
  6
Continuous
100
AcDbLine
 10
293.4394548737
 20
221.896947441
 30
0.0
 11
293.3780386387
 21
223.6556783017
 31
0.0
  0
LINE
  5
FE
330
1F
100
AcDbEntity
  8
PIEZA
  6
Continuous
100
AcDbLine
 10
398.2896131256
 20
137.8969534275
 30
0.0
 11
398.2896131256
 21
210.2719534275
 31
0.0
  0
LINE
  5
FF
330
1F
100
AcDbEntity
  8
PIEZA
  6
Continuous
100
AcDbLine
 10
180.8133776333
 20
117.132383074
 30
0.0
 11
396.9258486179
 21
117.132383074
 31
0.0
  0
LINE
  5
100
330
1F
100
AcDbEntity
  8
PIEZA
  6
Continuous
100
AcDbLine
 10
398.2896131256
 20
213.50210607
 30
0.0
 11
398.2896131256
 21
221.8969534275
 31
0.0
  0
LINE
  5
101
330
1F
100
AcDbEntity
  8
PIEZA
  6
Continuous
100
AcDbLine
 10
180.4146923561
 20
137.8969534275
 30
0.0
 11
180.4495531056
 21
136.8986721775
 31
0.0
  0
LINE
  5
102
330
1F
100
AcDbEntity
  8
PIEZA
  6
Continuous
100
AcDbLine
 10
397.2896731457
 20
136.8986721775
 30
0.0
 11
397.3245338951
 21
137.8969534275
 31
0.0
  0
LINE
  5
103
330
1F
100
AcDbEntity
  8
PIEZA
  6
Continuous
100
AcDbLine
 10
179.4496131256
 20
221.8969534275
 30
0.0
 11
179.4496131256
 21
137.8969534275
 31
0.0
  0
LINE
  5
104
330
1F
100
AcDbEntity
  8
COTAS
  6
Continuous
100
AcDbLine
 10
103.8696131256
 20
243.8969534275
 30
0.0
 11
473.8696131256
 21
243.8969534275
 31
0.0
  0
LINE
  5
105
330
1F
100
AcDbEntity
  8
PIEZA
  6
Continuous
100
AcDbLine
 10
213.722933835
 20
221.896947441
 30
0.0
 11
213.6615176
 21
223.6556783017
 31
0.0
  0
LINE
  5
106
330
1F
100
AcDbEntity
  8
PIEZA
  6
Continuous
100
AcDbLine
 10
365.7675755683
 20
223.6556783017
 30
0.0
 11
365.7061593333
 21
221.896947441
 31
0.0
  0
LINE
  5
107
330
1F
100
AcDbEntity
  8
PIEZA
  6
Continuous
100
AcDbLine
 10
202.9547996568
 20
223.6556783017
 30
0.0
 11
202.8933834219
 21
221.896947441
 31
0.0
  0
LINE
  5
108
330
1F
100
AcDbEntity
  8
PIEZA
  6
Continuous
100
AcDbLine
 10
376.4365286024
 20
221.896947441
 30
0.0
 11
376.3751123674
 21
223.6556783017
 31
0.0
  0
LINE
  5
109
330
1F
100
AcDbEntity
  8
PIEZA
  6
Continuous
100
AcDbLine
 10
281.0806349225
 20
223.6556783017
 30
0.0
 11
281.0192186876
 21
221.896947441
 31
0.0
  0
LINE
  5
10A
330
1F
100
AcDbEntity
  8
PIEZA
  6
Continuous
100
AcDbLine
 10
180.1137981865
 20
117.8081220456
 30
0.0
 11
179.4517485716
 21
136.8986690726
 31
0.0
  0
LINE
  5
10B
330
1F
100
AcDbEntity
  8
PIEZA
  6
Continuous
100
AcDbLine
 10
397.6254280648
 20
117.8081220456
 30
0.0
 11
398.2874776797
 21
136.8986690726
 31
0.0
  0
LINE
  5
10C
330
1F
100
AcDbEntity
  8
COTAS
  6
Continuous
100
AcDbLine
 10
103.8696131256
 20
223.8969534275
 30
0.0
 11
473.8696131256
 21
223.8969534275
 31
0.0
  0
LINE
  5
10D
330
1F
100
AcDbEntity
  8
COTAS
  6
Continuous
100
AcDbLine
 10
473.8696131256
 20
223.8969534275
 30
0.0
 11
473.8696131256
 21
243.8969534275
 31
0.0
  0
LINE
  5
10E
330
1F
100
AcDbEntity
  8
COTAS
  6
Continuous
100
AcDbLine
 10
103.8696131256
 20
223.8969534275
 30
0.0
 11
103.8696131256
 21
243.8969534275
 31
0.0
  0
LINE
  5
10F
330
1F
100
AcDbEntity
  8
PIEZA
  6
Continuous
100
AcDbLine
 10
398.2874776797
 20
136.8986690726
 30
0.0
 11
179.4517485716
 21
136.8986690726
 31
0.0
  0
LINE
  5
110
330
1F
100
AcDbEntity
  8
PIEZA
  6
Continuous
100
AcDbLine
 10
398.2896131256
 20
137.8969534275
 30
0.0
 11
179.4496131256
 21
137.8969534275
 31
0.0
  0
LINE
  5
111
330
1F
100
AcDbEntity
  8
PIEZA
  6
Continuous
100
AcDbLine
 10
398.2896131256
 20
221.8969534275
 30
0.0
 11
179.4496131256
 21
221.8969534275
 31
0.0
  0
LINE
  5
112
330
1F
100
AcDbEntity
  8
COTAS
100
AcDbLine
 10
305.1857866687
 20
520.7954445103
 30
0.0
 11
226.7353417932
 21
487.7222510571
 31
0.0
  0
LINE
  5
113
330
1F
100
AcDbEntity
  8
COTAS
100
AcDbLine
 10
333.2631111292
 20
505.5014819577
 30
0.0
 11
223.5231806436
 21
459.2372452634
 31
0.0
  0
LINE
  5
114
330
1F
100
AcDbEntity
  8
COTAS
100
AcDbLine
 10
355.8987841446
 20
487.913424303
 30
0.0
 11
220.764491622
 21
430.9434146892
 31
0.0
  0
ARC
  5
115
330
1F
100
AcDbEntity
  8
PIEZA
  6
Continuous
100
AcDbCircle
 10
203.2046473636
 20
223.6469534275
 30
0.0
 40
0.2500000000000738
100
AcDbArc
 50
90.0
 51
178.0
  0
ARC
  5
116
330
1F
100
AcDbEntity
  8
PIEZA
  6
Continuous
100
AcDbCircle
 10
213.4116698932
 20
223.6469534275
 30
0.0
 40
0.25
100
AcDbArc
 50
2.0
 51
90.0
  0
ARC
  5
117
330
1F
100
AcDbEntity
  8
PIEZA
  6
Continuous
100
AcDbCircle
 10
366.0174232751
 20
223.6469534275
 30
0.0
 40
0.25
100
AcDbArc
 50
90.0
 51
178.0
  0
ARC
  5
118
330
1F
100
AcDbEntity
  8
PIEZA
  6
Continuous
100
AcDbCircle
 10
376.1252646607
 20
223.6469534275
 30
0.0
 40
0.250000000000017
100
AcDbArc
 50
2.0
 51
90.0
  0
ARC
  5
119
330
1F
100
AcDbEntity
  8
PIEZA
  6
Continuous
100
AcDbCircle
 10
293.1281909319
 20
223.6469534275
 30
0.0
 40
0.2500000000000738
100
AcDbArc
 50
2.0
 51
90.0
  0
ARC
  5
11A
330
1F
100
AcDbEntity
  8
PIEZA
  6
Continuous
100
AcDbCircle
 10
281.3304826293
 20
223.6469534275
 30
0.0
 40
0.25
100
AcDbArc
 50
90.0
 51
178.0
  0
ARC
  5
11B
330
1F
100
AcDbEntity
  8
PIEZA
  6
Continuous
100
AcDbCircle
 10
180.8133776333
 20
117.832383074
 30
0.0
 40
0.7000000000068402
100
AcDbArc
 50
181.9861899676
 51
270.0
  0
ARC
  5
11C
330
1F
100
AcDbEntity
  8
PIEZA
  6
Continuous
100
AcDbCircle
 10
396.9258486179
 20
117.832383074
 30
0.0
 40
0.7000000000069538
100
AcDbArc
 50
270.0
 51
358.0138100324
  0
ARC
  5
11D
330
1F
100
AcDbEntity
  8
PIEZA
  6
Continuous
100
AcDbCircle
 10
288.8696131256
 20
456.9384497004
 30
0.0
 40
90.00000000000006
100
AcDbArc
 50
180.0
 51
0.0
  0
ARC
  5
11E
330
1F
100
AcDbEntity
  8
PIEZA
  6
Continuous
100
AcDbCircle
 10
288.8696131256
 20
456.9384497004
 30
0.0
 40
109.4178645541
100
AcDbArc
 50
0.0
 51
180.0
  0
ARC
  5
11F
330
1F
100
AcDbEntity
  8
PIEZA
  6
Continuous
100
AcDbCircle
 10
288.8696131256
 20
456.9384497004
 30
0.0
 40
107.561260745458
100
AcDbArc
 50
180.0
 51
0.0
  0
ARC
  5
120
330
1F
100
AcDbEntity
  8
PIEZA
  6
Continuous
100
AcDbCircle
 10
288.8696131256
 20
456.9384497004
 30
0.0
 40
90.00000000000006
100
AcDbArc
 50
0.0
 51
180.0
  0
ARC
  5
121
330
1F
100
AcDbEntity
  8
PIEZA
  6
Continuous
 62
   251
420
  6974058
100
AcDbCircle
 10
288.8696131256
 20
456.9384497004
 30
0.0
 40
107.561260745458
100
AcDbArc
 50
0.0
 51
180.0
  0
ARC
  5
122
330
1F
100
AcDbEntity
  8
PIEZA
  6
Continuous
100
AcDbCircle
 10
288.8696131256
 20
456.9384497004
 30
0.0
 40
109.4178645541
100
AcDbArc
 50
180.0
 51
0.0
  0
CIRCLE
  5
123
330
1F
100
AcDbEntity
  8
PIEZA
  6
Continuous
100
AcDbCircle
 10
288.8696131256
 20
456.9384497004
 30
0.0
 40
109.42
  0
SPLINE
  5
124
330
1F
100
AcDbEntity
  8
PIEZA
370
     0
100
AcDbSpline
210
0.0
220
0.0
230
1.0
 70
     8
 71
     3
 72
    11
 73
     7
 74
     0
 42
0.000000001
 43
0.00000001
 40
2.0
 40
2.0
 40
2.0
 40
2.0
 40
3.0
 40
3.0
 40
3.0
 40
4.0
 40
4.0
 40
4.0
 40
4.0
 10
523.2529612374422
 20
18.47179291333987
 30
0.0
 10
523.920556587352
 20
18.47179291333987
 30
0.0
 10
524.4988485438172
 20
19.05040784772007
 30
0.0
 10
524.4988485438172
 20
19.7176479219238
 30
0.0
 10
524.4988485438172
 20
20.38524327183376
 30
0.0
 10
523.920556587352
 20
20.96382590842248
 30
0.0
 10
523.2529612374422
 20
20.96382590842248
 30
0.0
  0
SPLINE
  5
125
330
1F
100
AcDbEntity
  8
PIEZA
370
     0
100
AcDbSpline
210
0.0
220
0.0
230
1.0
 70
     8
 71
     3
 72
    11
 73
     7
 74
     0
 42
0.000000001
 43
0.00000001
 40
0.0
 40
0.0
 40
0.0
 40
0.0
 40
1.0
 40
1.0
 40
1.0
 40
2.0
 40
2.0
 40
2.0
 40
2.0
 10
523.2529612374422
 20
20.96382590842248
 30
0.0
 10
522.585430483115
 20
20.96382590842248
 30
0.0
 10
522.0068478465262
 20
20.38524327183376
 30
0.0
 10
522.0068478465262
 20
19.7176479219238
 30
0.0
 10
522.0068478465262
 20
19.05040784772007
 30
0.0
 10
522.585430483115
 20
18.47179291333987
 30
0.0
 10
523.2529612374422
 20
18.47179291333987
 30
0.0
  0
SPLINE
  5
126
330
1F
100
AcDbEntity
  8
PIEZA
370
     0
100
AcDbSpline
210
0.0
220
0.0
230
1.0
 70
     8
 71
     3
 72
    11
 73
     7
 74
     0
 42
0.000000001
 43
0.00000001
 40
2.0
 40
2.0
 40
2.0
 40
2.0
 40
3.0
 40
3.0
 40
3.0
 40
4.0
 40
4.0
 40
4.0
 40
4.0
 10
523.2529612374422
 20
21.14185133506516
 30
0.0
 10
524.0093109183415
 20
21.14185133506516
 30
0.0
 10
524.6768416726686
 20
20.47432058073807
 30
0.0
 10
524.6768416726686
 20
19.7176479219238
 30
0.0
 10
524.6768416726686
 20
18.91672728878066
 30
0.0
 10
524.0093109183415
 20
18.29373518890577
 30
0.0
 10
523.2529612374422
 20
18.29373518890577
 30
0.0
  0
SPLINE
  5
127
330
1F
100
AcDbEntity
  8
PIEZA
370
     0
100
AcDbSpline
210
0.0
220
0.0
230
1.0
 70
     8
 71
     3
 72
    11
 73
     7
 74
     0
 42
0.000000001
 43
0.00000001
 40
0.0
 40
0.0
 40
0.0
 40
0.0
 40
1.0
 40
1.0
 40
1.0
 40
2.0
 40
2.0
 40
2.0
 40
2.0
 10
523.2529612374422
 20
18.29373518890577
 30
0.0
 10
522.451976008716
 20
18.29373518890577
 30
0.0
 10
521.8287578243006
 20
18.91672728878066
 30
0.0
 10
521.8287578243006
 20
19.7176479219238
 30
0.0
 10
521.8287578243006
 20
20.47432058073807
 30
0.0
 10
522.451976008716
 20
21.14185133506516
 30
0.0
 10
523.2529612374422
 20
21.14185133506516
 30
0.0
  0
SPLINE
  5
128
330
1F
100
AcDbEntity
  8
PIEZA
370
     0
100
AcDbSpline
210
0.0
220
0.0
230
1.0
 70
     8
 71
     3
 72
     8
 73
     4
 74
     0
 42
0.000000001
 43
0.00000001
 40
2.0
 40
2.0
 40
2.0
 40
2.0
 40
3.0
 40
3.0
 40
3.0
 40
3.0
 10
458.3683130419335
 20
19.40616802085796
 30
0.0
 10
459.1692982706597
 20
19.40616802085796
 30
0.0
 10
459.7925164550748
 20
19.31747828545144
 30
0.0
 10
460.1929767716464
 20
19.09472041760776
 30
0.0
  0
SPLINE
  5
129
330
1F
100
AcDbEntity
  8
PIEZA
370
     0
100
AcDbSpline
210
0.0
220
0.0
230
1.0
 70
     8
 71
     3
 72
    11
 73
     7
 74
     0
 42
0.000000001
 43
0.00000001
 40
3.0
 40
3.0
 40
3.0
 40
3.0
 40
4.0
 40
4.0
 40
4.0
 40
5.0
 40
5.0
 40
5.0
 40
5.0
 10
460.1929767716464
 20
19.09472041760776
 30
0.0
 10
460.6378304026085
 20
18.78327281435747
 30
0.0
 10
460.8602814414332
 20
18.24909964105507
 30
0.0
 10
460.8602814414332
 20
17.53712712565027
 30
0.0
 10
460.8602814414332
 20
17.04758950017447
 30
0.0
 10
460.7715109615479
 20
16.64716148139436
 30
0.0
 10
460.5488176892873
 20
16.37999415026445
 30
0.0
  0
SPLINE
  5
12A
330
1F
100
AcDbEntity
  8
PIEZA
370
     0
100
AcDbSpline
210
0.0
220
0.0
230
1.0
 70
     8
 71
     3
 72
     8
 73
     4
 74
     0
 42
0.000000001
 43
0.00000001
 40
5.0
 40
5.0
 40
5.0
 40
5.0
 40
6.0
 40
6.0
 40
6.0
 40
6.0
 10
460.5488176892873
 20
16.37999415026445
 30
0.0
 10
460.4597565292788
 20
16.24660427144835
 30
0.0
 10
460.2819894849678
 20
16.15759155812697
 30
0.0
 10
460.0592962127071
 20
16.06854654701417
 30
0.0
  0
SPLINE
  5
12B
330
1F
100
AcDbEntity
  8
PIEZA
370
     0
100
AcDbSpline
210
0.0
220
0.0
230
1.0
 70
     8
 71
     3
 72
     8
 73
     4
 74
     0
 42
0.000000001
 43
0.00000001
 40
6.0
 40
6.0
 40
6.0
 40
6.0
 40
7.0
 40
7.0
 40
7.0
 40
7.0
 10
460.0592962127071
 20
16.06854654701417
 30
0.0
 10
460.1482927771328
 20
16.02423397710237
 30
0.0
 10
460.2373539371413
 20
16.02423397710237
 30
0.0
 10
460.2819894849678
 20
15.97953383369287
 30
0.0
  0
SPLINE
  5
12C
330
1F
100
AcDbEntity
  8
PIEZA
370
     0
100
AcDbSpline
210
0.0
220
0.0
230
1.0
 70
     8
 71
     3
 72
     8
 73
     4
 74
     0
 42
0.000000001
 43
0.00000001
 40
7.0
 40
7.0
 40
7.0
 40
7.0
 40
8.0
 40
8.0
 40
8.0
 40
8.0
 10
460.2819894849678
 20
15.97953383369287
 30
0.0
 10
460.4154278104711
 20
15.89055341816305
 30
0.0
 10
460.5488176892873
 20
15.75709894376396
 30
0.0
 10
460.6378304026085
 20
15.62370906494786
 30
0.0
  0
SPLINE
  5
12D
330
1F
100
AcDbEntity
  8
PIEZA
370
     0
100
AcDbSpline
210
0.0
220
0.0
230
1.0
 70
     8
 71
     3
 72
     8
 73
     4
 74
     0
 42
0.000000001
 43
0.00000001
 40
8.0
 40
8.0
 40
8.0
 40
8.0
 40
9.0
 40
9.0
 40
9.0
 40
9.0
 10
460.6378304026085
 20
15.62370906494786
 30
0.0
 10
460.6825143971223
 20
15.44561904272229
 30
0.0
 10
460.7268915626173
 20
15.26756131828805
 30
0.0
 10
460.7268915626173
 20
15.04515872615067
 30
0.0
  0
SPLINE
  5
12E
330
1F
100
AcDbEntity
  8
PIEZA
370
     0
100
AcDbSpline
210
0.0
220
0.0
230
1.0
 70
     8
 71
     3
 72
     8
 73
     4
 74
     0
 42
0.000000001
 43
0.00000001
 40
12.0
 40
12.0
 40
12.0
 40
12.0
 40
13.0
 40
13.0
 40
13.0
 40
13.0
 10
459.5697585872397
 20
14.77808828841057
 30
0.0
 10
459.5697585872397
 20
15.17854860498215
 30
0.0
 10
459.4807458739183
 20
15.40098349491109
 30
0.0
 10
459.3029949785033
 20
15.48999620823236
 30
0.0
  0
SPLINE
  5
12F
330
1F
100
AcDbEntity
  8
PIEZA
370
     0
100
AcDbSpline
210
0.0
220
0.0
230
1.0
 70
     8
 71
     3
 72
     8
 73
     4
 74
     0
 42
0.000000001
 43
0.00000001
 40
13.0
 40
13.0
 40
13.0
 40
13.0
 40
14.0
 40
14.0
 40
14.0
 40
14.0
 10
459.3029949785033
 20
15.48999620823236
 30
0.0
 10
459.1249211051733
 20
15.57900892155376
 30
0.0
 10
458.8134735019233
 20
15.66808623045796
 30
0.0
 10
458.2792518819334
 20
15.66808623045796
 30
0.0
  0
SPLINE
  5
130
330
1F
100
AcDbEntity
  8
PIEZA
370
     0
100
AcDbSpline
210
0.0
220
0.0
230
1.0
 70
     8
 71
     3
 72
     8
 73
     4
 74
     0
 42
0.000000001
 43
0.00000001
 40
4.0
 40
4.0
 40
4.0
 40
4.0
 40
5.0
 40
5.0
 40
5.0
 40
5.0
 10
458.2345678874334
 20
16.55808417255795
 30
0.0
 10
458.8134735019371
 20
16.55808417255795
 30
0.0
 10
459.1692982706818
 20
16.64716148146226
 30
0.0
 10
459.3473075484287
 20
16.78051906248686
 30
0.0
  0
SPLINE
  5
131
330
1F
100
AcDbEntity
  8
PIEZA
370
     0
100
AcDbSpline
210
0.0
220
0.0
230
1.0
 70
     8
 71
     3
 72
    11
 73
     7
 74
     0
 42
0.000000001
 43
0.00000001
 40
5.0
 40
5.0
 40
5.0
 40
5.0
 40
6.0
 40
6.0
 40
6.0
 40
7.0
 40
7.0
 40
7.0
 40
7.0
 10
459.3473075484287
 20
16.78051906248686
 30
0.0
 10
459.5253814217585
 20
16.86953177580816
 30
0.0
 10
459.6587713005749
 20
17.13666680914665
 30
0.0
 10
459.6587713005749
 20
17.58182726912776
 30
0.0
 10
459.6587713005749
 20
17.80419756347368
 30
0.0
 10
459.6144587306629
 20
17.98228758569926
 30
0.0
 10
459.5697585872534
 20
18.11574206009834
 30
0.0
  0
SPLINE
  5
132
330
1F
100
AcDbEntity
  8
PIEZA
370
     0
100
AcDbSpline
210
0.0
220
0.0
230
1.0
 70
     8
 71
     3
 72
     8
 73
     4
 74
     0
 42
0.000000001
 43
0.00000001
 40
7.0
 40
7.0
 40
7.0
 40
7.0
 40
8.0
 40
8.0
 40
8.0
 40
8.0
 10
459.5697585872534
 20
18.11574206009834
 30
0.0
 10
459.5253814217585
 20
18.20472247562827
 30
0.0
 10
459.4363687084374
 20
18.29373518894957
 30
0.0
 10
459.3473075484287
 20
18.33811235444426
 30
0.0
  0
SPLINE
  5
133
330
1F
100
AcDbEntity
  8
PIEZA
370
     0
100
AcDbSpline
210
0.0
220
0.0
230
1.0
 70
     8
 71
     3
 72
     8
 73
     4
 74
     0
 42
0.000000001
 43
0.00000001
 40
8.0
 40
8.0
 40
8.0
 40
8.0
 40
9.0
 40
9.0
 40
9.0
 40
9.0
 10
459.3473075484287
 20
18.33811235444426
 30
0.0
 10
459.2136108405936
 20
18.42718966334857
 30
0.0
 10
459.0802371106733
 20
18.47179291338367
 30
0.0
 10
458.9021632373434
 20
18.47179291338367
 30
0.0
  0
SPLINE
  5
134
330
1F
100
AcDbEntity
  8
PIEZA
370
     0
100
AcDbSpline
210
0.0
220
0.0
230
1.0
 70
     8
 71
     3
 72
     8
 73
     4
 74
     0
 42
0.000000001
 43
0.00000001
 40
9.0
 40
9.0
 40
9.0
 40
9.0
 40
10.0
 40
10.0
 40
10.0
 40
10.0
 10
458.9021632373434
 20
18.47179291338367
 30
0.0
 10
458.6797767941018
 20
18.51620237666995
 30
0.0
 10
458.4573257552771
 20
18.51620237666995
 30
0.0
 10
458.1902553175216
 20
18.51620237666995
 30
0.0
  0
SPLINE
  5
135
330
1F
100
AcDbEntity
  8
PIEZA
370
     0
100
AcDbSpline
210
0.0
220
0.0
230
1.0
 70
     8
 71
     3
 72
     8
 73
     4
 74
     0
 42
0.000000001
 43
0.00000001
 40
0.0
 40
0.0
 40
0.0
 40
0.0
 40
1.0
 40
1.0
 40
1.0
 40
1.0
 10
471.7191219151681
 20
18.11574206008996
 30
0.0
 10
471.8971473418109
 20
18.64988293560097
 30
0.0
 10
472.208594945061
 20
19.00570770434598
 30
0.0
 10
472.6981325705367
 20
19.22817489206628
 30
0.0
  0
SPLINE
  5
136
330
1F
100
AcDbEntity
  8
PIEZA
370
     0
100
AcDbSpline
210
0.0
220
0.0
230
1.0
 70
     8
 71
     3
 72
    11
 73
     7
 74
     0
 42
0.000000001
 43
0.00000001
 40
1.0
 40
1.0
 40
1.0
 40
1.0
 40
2.0
 40
2.0
 40
2.0
 40
3.0
 40
3.0
 40
3.0
 40
3.0
 10
472.6981325705367
 20
19.22817489206628
 30
0.0
 10
473.0986574826916
 20
19.40616802091748
 30
0.0
 10
473.632572273662
 20
19.45086816432706
 30
0.0
 10
474.2110903146678
 20
19.45086816432706
 30
0.0
 10
474.834308499083
 20
19.45086816432706
 30
0.0
 10
475.501903848993
 20
19.49524532982178
 30
0.0
 10
476.1691762209882
 20
19.49524532982178
 30
0.0
  0
SPLINE
  5
137
330
1F
100
AcDbEntity
  8
PIEZA
370
     0
100
AcDbSpline
210
0.0
220
0.0
230
1.0
 70
     8
 71
     3
 72
     8
 73
     4
 74
     0
 42
0.000000001
 43
0.00000001
 40
4.0
 40
4.0
 40
4.0
 40
4.0
 40
5.0
 40
5.0
 40
5.0
 40
5.0
 10
477.2372641852881
 20
19.49524532982178
 30
0.0
 10
478.6170904329348
 20
19.49524532982178
 30
0.0
 10
479.5514655404769
 20
19.36185545100568
 30
0.0
 10
480.0409708681612
 20
18.96136283664268
 30
0.0
  0
SPLINE
  5
138
330
1F
100
AcDbEntity
  8
PIEZA
370
     0
100
AcDbSpline
210
0.0
220
0.0
230
1.0
 70
     8
 71
     3
 72
     8
 73
     4
 74
     0
 42
0.000000001
 43
0.00000001
 40
5.0
 40
5.0
 40
5.0
 40
5.0
 40
6.0
 40
6.0
 40
6.0
 40
6.0
 10
480.0409708681612
 20
18.96136283664268
 30
0.0
 10
480.5305084936373
 20
18.56087022227956
 30
0.0
 10
480.752943383566
 20
17.7595943134302
 30
0.0
 10
480.7085662180713
 20
16.60275201816756
 30
0.0
  0
SPLINE
  5
139
330
1F
100
AcDbEntity
  8
PIEZA
370
     0
100
AcDbSpline
210
0.0
220
0.0
230
1.0
 70
     8
 71
     3
 72
     8
 73
     4
 74
     0
 42
0.000000001
 43
0.00000001
 40
6.0
 40
6.0
 40
6.0
 40
6.0
 40
7.0
 40
7.0
 40
7.0
 40
7.0
 10
480.7085662180713
 20
16.60275201816756
 30
0.0
 10
480.7085662180713
 20
16.06854654707368
 30
0.0
 10
480.7085662180713
 20
15.53469635168608
 30
0.0
 10
480.6638983724532
 20
15.04515872621019
 30
0.0
  0
SPLINE
  5
13A
330
1F
100
AcDbEntity
  8
PIEZA
370
     0
100
AcDbSpline
210
0.0
220
0.0
230
1.0
 70
     8
 71
     3
 72
     8
 73
     4
 74
     0
 42
0.000000001
 43
0.00000001
 40
7.0
 40
7.0
 40
7.0
 40
7.0
 40
8.0
 40
8.0
 40
8.0
 40
8.0
 10
480.6638983724532
 20
15.04515872621019
 30
0.0
 10
480.5751763392553
 20
14.46657608962147
 30
0.0
 10
480.3524507692031
 20
14.02141562964039
 30
0.0
 10
479.9519581548402
 20
13.75447438305079
 30
0.0
  0
SPLINE
  5
13B
330
1F
100
AcDbEntity
  8
PIEZA
370
     0
100
AcDbSpline
210
0.0
220
0.0
230
1.0
 70
     8
 71
     3
 72
     8
 73
     4
 74
     0
 42
0.000000001
 43
0.00000001
 40
8.0
 40
8.0
 40
8.0
 40
8.0
 40
9.0
 40
9.0
 40
9.0
 40
9.0
 10
479.9519581548402
 20
13.75447438305079
 30
0.0
 10
479.5961333860951
 20
13.48756543425279
 30
0.0
 10
479.0619279150011
 20
13.35401406647927
 30
0.0
 10
478.394397160674
 20
13.30950770981858
 30
0.0
  0
SPLINE
  5
13C
330
1F
100
AcDbEntity
  8
PIEZA
370
     0
100
AcDbSpline
210
0.0
220
0.0
230
1.0
 70
     8
 71
     3
 72
     8
 73
     4
 74
     0
 42
0.000000001
 43
0.00000001
 40
9.0
 40
9.0
 40
9.0
 40
9.0
 40
10.0
 40
10.0
 40
10.0
 40
10.0
 10
478.394397160674
 20
13.30950770981858
 30
0.0
 10
477.8157822262939
 20
13.26500135315797
 30
0.0
 10
477.2819320309063
 20
13.26500135315797
 30
0.0
 10
476.7033493943176
 20
13.26500135315797
 30
0.0
  0
SPLINE
  5
13D
330
1F
100
AcDbEntity
  8
PIEZA
370
     0
100
AcDbSpline
210
0.0
220
0.0
230
1.0
 70
     8
 71
     3
 72
     8
 73
     4
 74
     0
 42
0.000000001
 43
0.00000001
 40
12.0
 40
12.0
 40
12.0
 40
12.0
 40
13.0
 40
13.0
 40
13.0
 40
13.0
 10
475.1457561023333
 20
13.26500135315797
 30
0.0
 10
474.7006279401435
 20
13.26500135315797
 30
0.0
 10
474.2110903146678
 20
13.26500135315797
 30
0.0
 10
473.7215526891919
 20
13.30950770981858
 30
0.0
  0
SPLINE
  5
13E
330
1F
100
AcDbEntity
  8
PIEZA
370
     0
100
AcDbSpline
210
0.0
220
0.0
230
1.0
 70
     8
 71
     3
 72
     8
 73
     4
 74
     0
 42
0.000000001
 43
0.00000001
 40
13.0
 40
13.0
 40
13.0
 40
13.0
 40
14.0
 40
14.0
 40
14.0
 40
14.0
 10
473.7215526891919
 20
13.30950770981858
 30
0.0
 10
473.4101050859417
 20
13.35401406647927
 30
0.0
 10
473.0986574826916
 20
13.39852042313996
 30
0.0
 10
472.831587044936
 20
13.48756543425279
 30
0.0
  0
SPLINE
  5
13F
330
1F
100
AcDbEntity
  8
PIEZA
370
     0
100
AcDbSpline
210
0.0
220
0.0
230
1.0
 70
     8
 71
     3
 72
     8
 73
     4
 74
     0
 42
0.000000001
 43
0.00000001
 40
14.0
 40
14.0
 40
14.0
 40
14.0
 40
15.0
 40
15.0
 40
15.0
 40
15.0
 10
472.831587044936
 20
13.48756543425279
 30
0.0
 10
472.5201071438943
 20
13.5764489564082
 30
0.0
 10
472.2529721105558
 20
13.75447438305079
 30
0.0
 10
472.0305695184184
 20
14.02141562964039
 30
0.0
  0
SPLINE
  5
140
330
1F
100
AcDbEntity
  8
PIEZA
370
     0
100
AcDbSpline
210
0.0
220
0.0
230
1.0
 70
     8
 71
     3
 72
     8
 73
     4
 74
     0
 42
0.000000001
 43
0.00000001
 40
15.0
 40
15.0
 40
15.0
 40
15.0
 40
16.0
 40
16.0
 40
16.0
 40
16.0
 10
472.0305695184184
 20
14.02141562964039
 30
0.0
 10
471.8081346284895
 20
14.33305701963945
 30
0.0
 10
471.6744540695499
 20
14.73371112295996
 30
0.0
 10
471.6300607551597
 20
15.17854860502626
 30
0.0
  0
SPLINE
  5
141
330
1F
100
AcDbEntity
  8
PIEZA
370
     0
100
AcDbSpline
210
0.0
220
0.0
230
1.0
 70
     8
 71
     3
 72
    11
 73
     7
 74
     0
 42
0.000000001
 43
0.00000001
 40
16.0
 40
16.0
 40
16.0
 40
16.0
 40
17.0
 40
17.0
 40
17.0
 40
18.0
 40
18.0
 40
18.0
 40
18.0
 10
471.6300607551597
 20
15.17854860502626
 30
0.0
 10
471.5853767606459
 20
15.62370906500737
 30
0.0
 10
471.5853767606459
 20
15.97953383375238
 30
0.0
 10
471.5853767606459
 20
16.3356815804122
 30
0.0
 10
471.5853767606459
 20
16.91423191920939
 30
0.0
 10
471.6300607551597
 20
17.49274996021506
 30
0.0
 10
471.7191219151681
 20
18.11574206008996
 30
0.0
  0
SPLINE
  5
142
330
1F
100
AcDbEntity
  8
PIEZA
370
     0
100
AcDbSpline
210
0.0
220
0.0
230
1.0
 70
     8
 71
     3
 72
     8
 73
     4
 74
     0
 42
0.000000001
 43
0.00000001
 40
1.0
 40
1.0
 40
1.0
 40
1.0
 40
2.0
 40
2.0
 40
2.0
 40
2.0
 10
474.567238061325
 20
18.51620237665997
 30
0.0
 10
473.8552332481288
 20
18.51620237665997
 30
0.0
 10
473.4101050859391
 20
18.42718966333859
 30
0.0
 10
473.1430346481836
 20
18.29373518893959
 30
0.0
  0
SPLINE
  5
143
330
1F
100
AcDbEntity
  8
PIEZA
370
     0
100
AcDbSpline
210
0.0
220
0.0
230
1.0
 70
     8
 71
     3
 72
     8
 73
     4
 74
     0
 42
0.000000001
 43
0.00000001
 40
2.0
 40
2.0
 40
2.0
 40
2.0
 40
3.0
 40
3.0
 40
3.0
 40
3.0
 10
473.1430346481836
 20
18.29373518893959
 30
0.0
 10
472.9649446259579
 20
18.16034531012346
 30
0.0
 10
472.8315870449334
 20
17.84857472895848
 30
0.0
 10
472.8315870449334
 20
17.22567952245797
 30
0.0
  0
SPLINE
  5
144
330
1F
100
AcDbEntity
  8
PIEZA
370
     0
100
AcDbSpline
210
0.0
220
0.0
230
1.0
 70
     8
 71
     3
 72
     8
 73
     4
 74
     0
 42
0.000000001
 43
0.00000001
 40
5.0
 40
5.0
 40
5.0
 40
5.0
 40
6.0
 40
6.0
 40
6.0
 40
6.0
 10
472.7872098794334
 20
15.93515666825798
 30
0.0
 10
472.7872098794334
 20
15.6237090650078
 30
0.0
 10
472.7872098794334
 20
15.35663862725229
 30
0.0
 10
472.8315870449281
 20
15.134171439532
 30
0.0
  0
SPLINE
  5
145
330
1F
100
AcDbEntity
  8
PIEZA
370
     0
100
AcDbSpline
210
0.0
220
0.0
230
1.0
 70
     8
 71
     3
 72
     8
 73
     4
 74
     0
 42
0.000000001
 43
0.00000001
 40
6.0
 40
6.0
 40
6.0
 40
6.0
 40
7.0
 40
7.0
 40
7.0
 40
7.0
 10
472.8315870449281
 20
15.134171439532
 30
0.0
 10
472.8315870449281
 20
14.91147816727121
 30
0.0
 10
472.9205674604579
 20
14.77808828845511
 30
0.0
 10
473.0095801737793
 20
14.64434313393281
 30
0.0
  0
SPLINE
  5
146
330
1F
100
AcDbEntity
  8
PIEZA
370
     0
100
AcDbSpline
210
0.0
220
0.0
230
1.0
 70
     8
 71
     3
 72
     8
 73
     4
 74
     0
 42
0.000000001
 43
0.00000001
 40
7.0
 40
7.0
 40
7.0
 40
7.0
 40
8.0
 40
8.0
 40
8.0
 40
8.0
 10
473.0095801737793
 20
14.64434313393281
 30
0.0
 10
473.0542480193975
 20
14.5109532551167
 30
0.0
 10
473.2320150637082
 20
14.42194054179529
 30
0.0
 10
473.4101050859338
 20
14.37756337630063
 30
0.0
  0
SPLINE
  5
147
330
1F
100
AcDbEntity
  8
PIEZA
370
     0
100
AcDbSpline
210
0.0
220
0.0
230
1.0
 70
     8
 71
     3
 72
     8
 73
     4
 74
     0
 42
0.000000001
 43
0.00000001
 40
8.0
 40
8.0
 40
8.0
 40
8.0
 40
9.0
 40
9.0
 40
9.0
 40
9.0
 10
473.4101050859338
 20
14.37756337630063
 30
0.0
 10
473.6325722736542
 20
14.2885506629793
 30
0.0
 10
473.9440198769043
 20
14.24401200852711
 30
0.0
 10
474.3447708735992
 20
14.24401200852711
 30
0.0
  0
SPLINE
  5
148
330
1F
100
AcDbEntity
  8
PIEZA
370
     0
100
AcDbSpline
210
0.0
220
0.0
230
1.0
 70
     8
 71
     3
 72
     8
 73
     4
 74
     0
 42
0.000000001
 43
0.00000001
 40
12.0
 40
12.0
 40
12.0
 40
12.0
 40
13.0
 40
13.0
 40
13.0
 40
13.0
 10
476.7477265597992
 20
14.19950565192713
 30
0.0
 10
477.3262768985964
 20
14.19950565192713
 30
0.0
 10
477.8604823696901
 20
14.19950565192713
 30
0.0
 10
478.4390004106961
 20
14.24401200858773
 30
0.0
  0
SPLINE
  5
149
330
1F
100
AcDbEntity
  8
PIEZA
370
     0
100
AcDbSpline
210
0.0
220
0.0
230
1.0
 70
     8
 71
     3
 72
     8
 73
     4
 74
     0
 42
0.000000001
 43
0.00000001
 40
13.0
 40
13.0
 40
13.0
 40
13.0
 40
14.0
 40
14.0
 40
14.0
 40
14.0
 10
478.4390004106961
 20
14.24401200858773
 30
0.0
 10
478.9285380361719
 20
14.3330570197005
 30
0.0
 10
479.1953823893872
 20
14.46657608968252
 30
0.0
 10
479.3290629483265
 20
14.64434313399343
 30
0.0
  0
SPLINE
  5
14A
330
1F
100
AcDbEntity
  8
PIEZA
370
     0
100
AcDbSpline
210
0.0
220
0.0
230
1.0
 70
     8
 71
     3
 72
     8
 73
     4
 74
     0
 42
0.000000001
 43
0.00000001
 40
14.0
 40
14.0
 40
14.0
 40
14.0
 40
15.0
 40
15.0
 40
15.0
 40
15.0
 10
479.3290629483265
 20
14.64434313399343
 30
0.0
 10
479.4624528271425
 20
14.86710100183711
 30
0.0
 10
479.5068299926373
 20
15.17854860508731
 30
0.0
 10
479.5068299926373
 20
15.57900892165893
 30
0.0
  0
SPLINE
  5
14B
330
1F
100
AcDbEntity
  8
PIEZA
370
     0
100
AcDbSpline
210
0.0
220
0.0
230
1.0
 70
     8
 71
     3
 72
     8
 73
     4
 74
     0
 42
0.000000001
 43
0.00000001
 40
16.0
 40
16.0
 40
16.0
 40
16.0
 40
17.0
 40
17.0
 40
17.0
 40
17.0
 10
479.5068299926761
 20
16.7361418969821
 30
0.0
 10
479.5068299926761
 20
17.00321233473758
 30
0.0
 10
479.5068299926761
 20
17.3147568313623
 30
0.0
 10
479.4624528271814
 20
17.58182726911778
 30
0.0
  0
SPLINE
  5
14C
330
1F
100
AcDbEntity
  8
PIEZA
370
     0
100
AcDbSpline
210
0.0
220
0.0
230
1.0
 70
     8
 71
     3
 72
     8
 73
     4
 74
     0
 42
0.000000001
 43
0.00000001
 40
17.0
 40
17.0
 40
17.0
 40
17.0
 40
18.0
 40
18.0
 40
18.0
 40
18.0
 10
479.4624528271814
 20
17.58182726911778
 30
0.0
 10
479.4624528271814
 20
17.89327487236798
 30
0.0
 10
479.373375518277
 20
18.07136489459367
 30
0.0
 10
479.2843628049558
 20
18.20472247561829
 30
0.0
  0
SPLINE
  5
14D
330
1F
100
AcDbEntity
  8
PIEZA
370
     0
100
AcDbSpline
210
0.0
220
0.0
230
1.0
 70
     8
 71
     3
 72
     8
 73
     4
 74
     0
 42
0.000000001
 43
0.00000001
 40
18.0
 40
18.0
 40
18.0
 40
18.0
 40
19.0
 40
19.0
 40
19.0
 40
19.0
 10
479.2843628049558
 20
18.20472247561829
 30
0.0
 10
479.1509729261396
 20
18.33811235443428
 30
0.0
 10
479.0172923672002
 20
18.38281249784387
 30
0.0
 10
478.8839024883841
 20
18.42718966333859
 30
0.0
  0
SPLINE
  5
14E
330
1F
100
AcDbEntity
  8
PIEZA
370
     0
100
AcDbSpline
210
0.0
220
0.0
230
1.0
 70
     8
 71
     3
 72
     8
 73
     4
 74
     0
 42
0.000000001
 43
0.00000001
 40
19.0
 40
19.0
 40
19.0
 40
19.0
 40
20.0
 40
20.0
 40
20.0
 40
20.0
 10
478.8839024883841
 20
18.42718966333859
 30
0.0
 10
478.5277547417244
 20
18.51620237665997
 30
0.0
 10
478.1275528074847
 20
18.51620237665997
 30
0.0
 10
477.7714050608249
 20
18.51620237665997
 30
0.0
  0
SPLINE
  5
14F
330
1F
100
AcDbEntity
  8
PIEZA
370
     0
100
AcDbSpline
210
0.0
220
0.0
230
1.0
 70
     8
 71
     3
 72
     8
 73
     4
 74
     0
 42
0.000000001
 43
0.00000001
 40
2.0
 40
2.0
 40
2.0
 40
2.0
 40
3.0
 40
3.0
 40
3.0
 40
3.0
 10
489.0751153142878
 20
17.6708076846692
 30
0.0
 10
489.0751153142878
 20
17.8041975634853
 30
0.0
 10
489.0304797664613
 20
17.93765203788428
 30
0.0
 10
488.9861026009666
 20
18.11574206010997
 30
0.0
  0
SPLINE
  5
150
330
1F
100
AcDbEntity
  8
PIEZA
370
     0
100
AcDbSpline
210
0.0
220
0.0
230
1.0
 70
     8
 71
     3
 72
     8
 73
     4
 74
     0
 42
0.000000001
 43
0.00000001
 40
3.0
 40
3.0
 40
3.0
 40
3.0
 40
4.0
 40
4.0
 40
4.0
 40
4.0
 10
488.9861026009666
 20
18.11574206010997
 30
0.0
 10
488.9861026009666
 20
18.20472247563979
 30
0.0
 10
488.8970252920624
 20
18.2937351889612
 30
0.0
 10
488.7636354132461
 20
18.33811235445589
 30
0.0
  0
SPLINE
  5
151
330
1F
100
AcDbEntity
  8
PIEZA
370
     0
100
AcDbSpline
210
0.0
220
0.0
230
1.0
 70
     8
 71
     3
 72
     8
 73
     4
 74
     0
 42
0.000000001
 43
0.00000001
 40
4.0
 40
4.0
 40
4.0
 40
4.0
 40
5.0
 40
5.0
 40
5.0
 40
5.0
 10
488.7636354132461
 20
18.33811235445589
 30
0.0
 10
488.5409744387768
 20
18.4271896633602
 30
0.0
 10
488.184826692117
 20
18.47179291339529
 30
0.0
 10
487.784334077754
 20
18.51620237668147
 30
0.0
  0
SPLINE
  5
152
330
1F
100
AcDbEntity
  8
PIEZA
370
     0
100
AcDbSpline
210
0.0
220
0.0
230
1.0
 70
    24
 71
     3
 72
     8
 73
     4
 74
     0
 42
0.000000001
 43
0.00000001
 40
5.0
 40
5.0
 40
5.0
 40
5.0
 40
6.0
 40
6.0
 40
6.0
 40
6.0
 10
487.784334077754
 20
18.51620237668147
 30
0.0
 10
487.3394320001048
 20
18.51620237668147
 30
0.0
 10
486.9389716835331
 20
18.51620237668147
 30
0.0
 10
486.5828239368734
 20
18.51620237668147
 30
0.0
  0
SPLINE
  5
153
330
1F
100
AcDbEntity
  8
PIEZA
370
     0
100
AcDbSpline
210
0.0
220
0.0
230
1.0
 70
    24
 71
     3
 72
     8
 73
     4
 74
     0
 42
0.000000001
 43
0.00000001
 40
9.0
 40
9.0
 40
9.0
 40
9.0
 40
10.0
 40
10.0
 40
10.0
 40
10.0
 10
486.2713763336735
 20
18.51620237668147
 30
0.0
 10
485.9599287304233
 20
18.51620237668147
 30
0.0
 10
485.5148005682338
 20
18.51620237668147
 30
0.0
 10
485.0252629427579
 20
18.51620237668147
 30
0.0
  0
SPLINE
  5
154
330
1F
100
AcDbEntity
  8
PIEZA
370
     0
100
AcDbSpline
210
0.0
220
0.0
230
1.0
 70
     8
 71
     3
 72
     8
 73
     4
 74
     0
 42
0.000000001
 43
0.00000001
 40
10.0
 40
10.0
 40
10.0
 40
10.0
 40
11.0
 40
11.0
 40
11.0
 40
11.0
 10
485.0252629427579
 20
18.51620237668147
 30
0.0
 10
484.535725317282
 20
18.47179291339529
 30
0.0
 10
484.1352004051275
 20
18.38281249786539
 30
0.0
 10
483.8237528018773
 20
18.2937351889612
 30
0.0
  0
SPLINE
  5
155
330
1F
100
AcDbEntity
  8
PIEZA
370
     0
100
AcDbSpline
210
0.0
220
0.0
230
1.0
 70
     8
 71
     3
 72
     8
 73
     4
 74
     0
 42
0.000000001
 43
0.00000001
 40
11.0
 40
11.0
 40
11.0
 40
11.0
 40
12.0
 40
12.0
 40
12.0
 40
12.0
 10
483.8237528018773
 20
18.2937351889612
 30
0.0
 10
483.6903629230612
 20
18.24909964113448
 30
0.0
 10
483.6010595296164
 20
18.16034531014506
 30
0.0
 10
483.5566823641217
 20
18.07136489461528
 30
0.0
  0
SPLINE
  5
156
330
1F
100
AcDbEntity
  8
PIEZA
370
     0
100
AcDbSpline
210
0.0
220
0.0
230
1.0
 70
     8
 71
     3
 72
     8
 73
     4
 74
     0
 42
0.000000001
 43
0.00000001
 40
12.0
 40
12.0
 40
12.0
 40
12.0
 40
13.0
 40
13.0
 40
13.0
 40
13.0
 10
483.5566823641217
 20
18.07136489461528
 30
0.0
 10
483.512305198627
 20
17.93765203788428
 30
0.0
 10
483.4676696508004
 20
17.8041975634853
 30
0.0
 10
483.512305198627
 20
17.6708076846692
 30
0.0
  0
SPLINE
  5
157
330
1F
100
AcDbEntity
  8
PIEZA
370
     0
100
AcDbSpline
210
0.0
220
0.0
230
1.0
 70
     8
 71
     3
 72
     8
 73
     4
 74
     0
 42
0.000000001
 43
0.00000001
 40
13.0
 40
13.0
 40
13.0
 40
13.0
 40
14.0
 40
14.0
 40
14.0
 40
14.0
 10
483.512305198627
 20
17.6708076846692
 30
0.0
 10
483.512305198627
 20
17.3590694012957
 30
0.0
 10
483.6010595296164
 20
17.18130235698479
 30
0.0
 10
483.7791172540506
 20
17.0922896436635
 30
0.0
  0
SPLINE
  5
158
330
1F
100
AcDbEntity
  8
PIEZA
370
     0
100
AcDbSpline
210
0.0
220
0.0
230
1.0
 70
     8
 71
     3
 72
     8
 73
     4
 74
     0
 42
0.000000001
 43
0.00000001
 40
14.0
 40
14.0
 40
14.0
 40
14.0
 40
15.0
 40
15.0
 40
15.0
 40
15.0
 10
483.7791172540506
 20
17.0922896436635
 30
0.0
 10
484.0018105263114
 20
16.95860908472409
 30
0.0
 10
484.2686548795265
 20
16.9142319192294
 30
0.0
 10
484.669438174013
 20
16.9142319192294
 30
0.0
  0
SPLINE
  5
159
330
1F
100
AcDbEntity
  8
PIEZA
370
     0
100
AcDbSpline
210
0.0
220
0.0
230
1.0
 70
     8
 71
     3
 72
     8
 73
     4
 74
     0
 42
0.000000001
 43
0.00000001
 40
15.0
 40
15.0
 40
15.0
 40
15.0
 40
16.0
 40
16.0
 40
16.0
 40
16.0
 10
484.669438174013
 20
16.9142319192294
 30
0.0
 10
484.9361856338535
 20
16.9142319192294
 30
0.0
 10
485.1589435016973
 20
16.86953177581978
 30
0.0
 10
485.4257232593295
 20
16.86953177581978
 30
0.0
  0
SPLINE
  5
15A
330
1F
100
AcDbEntity
  8
PIEZA
370
     0
100
AcDbSpline
210
0.0
220
0.0
230
1.0
 70
     8
 71
     3
 72
     8
 73
     4
 74
     0
 42
0.000000001
 43
0.00000001
 40
19.0
 40
19.0
 40
19.0
 40
19.0
 40
20.0
 40
20.0
 40
20.0
 40
20.0
 10
487.0276937168295
 20
16.91423191921979
 30
0.0
 10
487.517199044514
 20
16.91423191921979
 30
0.0
 10
488.0070596479047
 20
16.86953177581018
 30
0.0
 10
488.451897129971
 20
16.86953177581018
 30
0.0
  0
SPLINE
  5
15B
330
1F
100
AcDbEntity
  8
PIEZA
370
     0
100
AcDbSpline
210
0.0
220
0.0
230
1.0
 70
     8
 71
     3
 72
     8
 73
     4
 74
     0
 42
0.000000001
 43
0.00000001
 40
20.0
 40
20.0
 40
20.0
 40
20.0
 40
21.0
 40
21.0
 40
21.0
 40
21.0
 10
488.451897129971
 20
16.86953177581018
 30
0.0
 10
489.119492479881
 20
16.82521920589838
 30
0.0
 10
489.6089978075656
 20
16.64716148146428
 30
0.0
 10
489.9204777086071
 20
16.37999415033428
 30
0.0
  0
SPLINE
  5
15C
330
1F
100
AcDbEntity
  8
PIEZA
370
     0
100
AcDbSpline
210
0.0
220
0.0
230
1.0
 70
     8
 71
     3
 72
     8
 73
     4
 74
     0
 42
0.000000001
 43
0.00000001
 40
21.0
 40
21.0
 40
21.0
 40
21.0
 40
22.0
 40
22.0
 40
22.0
 40
22.0
 10
489.9204777086071
 20
16.37999415033428
 30
0.0
 10
490.2766254552669
 20
16.11324669049367
 30
0.0
 10
490.4100153340832
 20
15.66808623051247
 30
0.0
 10
490.4100153340832
 20
15.13417143954189
 30
0.0
  0
SPLINE
  5
15D
330
1F
100
AcDbEntity
  8
PIEZA
370
     0
100
AcDbSpline
210
0.0
220
0.0
230
1.0
 70
     8
 71
     3
 72
     8
 73
     4
 74
     0
 42
0.000000001
 43
0.00000001
 40
22.0
 40
22.0
 40
22.0
 40
22.0
 40
23.0
 40
23.0
 40
23.0
 40
23.0
 10
490.4100153340832
 20
15.13417143954189
 30
0.0
 10
490.4100153340832
 20
14.77808828846509
 30
0.0
 10
490.3210026207618
 20
14.46657608963187
 30
0.0
 10
490.1875481463625
 20
14.19950565187636
 30
0.0
  0
SPLINE
  5
15E
330
1F
100
AcDbEntity
  8
PIEZA
370
     0
100
AcDbSpline
210
0.0
220
0.0
230
1.0
 70
     8
 71
     3
 72
     8
 73
     4
 74
     0
 42
0.000000001
 43
0.00000001
 40
23.0
 40
23.0
 40
23.0
 40
23.0
 40
24.0
 40
24.0
 40
24.0
 40
24.0
 10
490.1875481463625
 20
14.19950565187636
 30
0.0
 10
490.0541582675465
 20
13.88802575083469
 30
0.0
 10
489.7870878297909
 20
13.70996802640059
 30
0.0
 10
489.3865629176364
 20
13.53191030196638
 30
0.0
  0
SPLINE
  5
15F
330
1F
100
AcDbEntity
  8
PIEZA
370
     0
100
AcDbSpline
210
0.0
220
0.0
230
1.0
 70
     8
 71
     3
 72
     8
 73
     4
 74
     0
 42
0.000000001
 43
0.00000001
 40
24.0
 40
24.0
 40
24.0
 40
24.0
 40
25.0
 40
25.0
 40
25.0
 40
25.0
 10
489.3865629176364
 20
13.53191030196638
 30
0.0
 10
489.0304797665598
 20
13.39852042315036
 30
0.0
 10
488.6299548544052
 20
13.35401406648967
 30
0.0
 10
488.1404172289294
 20
13.30950770982898
 30
0.0
  0
SPLINE
  5
160
330
1F
100
AcDbEntity
  8
PIEZA
370
     0
100
AcDbSpline
210
0.0
220
0.0
230
1.0
 70
     8
 71
     3
 72
     8
 73
     4
 74
     0
 42
0.000000001
 43
0.00000001
 40
25.0
 40
25.0
 40
25.0
 40
25.0
 40
26.0
 40
26.0
 40
26.0
 40
26.0
 10
488.1404172289294
 20
13.30950770982898
 30
0.0
 10
487.6952890667399
 20
13.26500135316837
 30
0.0
 10
487.2504515846734
 20
13.26500135316837
 30
0.0
 10
486.8052911246924
 20
13.26500135316837
 30
0.0
  0
SPLINE
  5
161
330
1F
100
AcDbEntity
  8
PIEZA
370
     0
100
AcDbSpline
210
0.0
220
0.0
230
1.0
 70
     8
 71
     3
 72
     8
 73
     4
 74
     0
 42
0.000000001
 43
0.00000001
 40
29.0
 40
29.0
 40
29.0
 40
29.0
 40
30.0
 40
30.0
 40
30.0
 40
30.0
 10
486.2713763337925
 20
13.26500135316837
 30
0.0
 10
485.5591777338475
 20
13.26500135316837
 30
0.0
 10
484.8918730640607
 20
13.30950770982898
 30
0.0
 10
484.1799005486562
 20
13.35401406648967
 30
0.0
  0
SPLINE
  5
162
330
1F
100
AcDbEntity
  8
PIEZA
370
     0
100
AcDbSpline
210
0.0
220
0.0
230
1.0
 70
     8
 71
     3
 72
     8
 73
     4
 74
     0
 42
0.000000001
 43
0.00000001
 40
30.0
 40
30.0
 40
30.0
 40
30.0
 40
31.0
 40
31.0
 40
31.0
 40
31.0
 10
484.1799005486562
 20
13.35401406648967
 30
0.0
 10
483.4676696509194
 20
13.44289758864511
 30
0.0
 10
482.9337548599487
 20
13.5764489564186
 30
0.0
 10
482.6666844221933
 20
13.93240291632947
 30
0.0
  0
SPLINE
  5
163
330
1F
100
AcDbEntity
  8
PIEZA
370
     0
100
AcDbSpline
210
0.0
220
0.0
230
1.0
 70
     8
 71
     3
 72
     8
 73
     4
 74
     0
 42
0.000000001
 43
0.00000001
 40
31.0
 40
31.0
 40
31.0
 40
31.0
 40
32.0
 40
32.0
 40
32.0
 40
32.0
 10
482.6666844221933
 20
13.93240291632947
 30
0.0
 10
482.3995493888548
 20
14.19950565187636
 30
0.0
 10
482.2661595100387
 20
14.68901097956078
 30
0.0
 10
482.3105366755334
 20
15.26756131835796
 30
0.0
  0
SPLINE
  5
164
330
1F
100
AcDbEntity
  8
PIEZA
370
     0
100
AcDbSpline
210
0.0
220
0.0
230
1.0
 70
     8
 71
     3
 72
     8
 73
     4
 74
     0
 42
0.000000001
 43
0.00000001
 40
37.0
 40
37.0
 40
37.0
 40
37.0
 40
38.0
 40
38.0
 40
38.0
 40
38.0
 10
483.4676696509334
 20
15.17854860495797
 30
0.0
 10
483.4676696509334
 20
14.95611371502909
 30
0.0
 10
483.51230519876
 20
14.77808828838639
 30
0.0
 10
483.5566823642548
 20
14.64434313386397
 30
0.0
  0
SPLINE
  5
165
330
1F
100
AcDbEntity
  8
PIEZA
370
     0
100
AcDbSpline
210
0.0
220
0.0
230
1.0
 70
     8
 71
     3
 72
     8
 73
     4
 74
     0
 42
0.000000001
 43
0.00000001
 40
38.0
 40
38.0
 40
38.0
 40
38.0
 40
39.0
 40
39.0
 40
39.0
 40
39.0
 10
483.5566823642548
 20
14.64434313386397
 30
0.0
 10
483.5566823642548
 20
14.59999826616078
 30
0.0
 10
483.6010595297494
 20
14.55545961170859
 30
0.0
 10
483.6903629231942
 20
14.46657608955317
 30
0.0
  0
SPLINE
  5
166
330
1F
100
AcDbEntity
  8
PIEZA
370
     0
100
AcDbSpline
210
0.0
220
0.0
230
1.0
 70
     8
 71
     3
 72
     8
 73
     4
 74
     0
 42
0.000000001
 43
0.00000001
 40
39.0
 40
39.0
 40
39.0
 40
39.0
 40
40.0
 40
40.0
 40
40.0
 40
40.0
 10
483.6903629231942
 20
14.46657608955317
 30
0.0
 10
483.734740088689
 20
14.42194054172657
 30
0.0
 10
483.8237528020103
 20
14.37756337623191
 30
0.0
 10
483.9572072764093
 20
14.37756337623191
 30
0.0
  0
SPLINE
  5
167
330
1F
100
AcDbEntity
  8
PIEZA
370
     0
100
AcDbSpline
210
0.0
220
0.0
230
1.0
 70
     8
 71
     3
 72
     8
 73
     4
 74
     0
 42
0.000000001
 43
0.00000001
 40
40.0
 40
40.0
 40
40.0
 40
40.0
 40
41.0
 40
41.0
 40
41.0
 40
41.0
 10
483.9572072764093
 20
14.37756337623191
 30
0.0
 10
484.2686548796596
 20
14.28855066291047
 30
0.0
 10
484.669438174146
 20
14.24401200845839
 30
0.0
 10
485.1142756562123
 20
14.24401200845839
 30
0.0
  0
SPLINE
  5
168
330
1F
100
AcDbEntity
  8
PIEZA
370
     0
100
AcDbSpline
210
0.0
220
0.0
230
1.0
 70
     8
 71
     3
 72
     8
 73
     4
 74
     0
 42
0.000000001
 43
0.00000001
 40
41.0
 40
41.0
 40
41.0
 40
41.0
 40
42.0
 40
42.0
 40
42.0
 40
42.0
 10
485.1142756562123
 20
14.24401200845839
 30
0.0
 10
485.5591777338615
 20
14.19950565179766
 30
0.0
 10
485.9599287305563
 20
14.19950565179766
 30
0.0
 10
486.3157534993014
 20
14.19950565179766
 30
0.0
  0
SPLINE
  5
169
330
1F
100
AcDbEntity
  8
PIEZA
370
     0
100
AcDbSpline
210
0.0
220
0.0
230
1.0
 70
     8
 71
     3
 72
     8
 73
     4
 74
     0
 42
0.000000001
 43
0.00000001
 40
42.0
 40
42.0
 40
42.0
 40
42.0
 40
43.0
 40
43.0
 40
43.0
 40
43.0
 10
486.3157534993014
 20
14.19950565179766
 30
0.0
 10
486.9389716837166
 20
14.19950565179766
 30
0.0
 10
487.6065993314181
 20
14.24401200845839
 30
0.0
 10
488.2294945379186
 20
14.28855066291047
 30
0.0
  0
SPLINE
  5
16A
330
1F
100
AcDbEntity
  8
PIEZA
370
     0
100
AcDbSpline
210
0.0
220
0.0
230
1.0
 70
     8
 71
     3
 72
     8
 73
     4
 74
     0
 42
0.000000001
 43
0.00000001
 40
43.0
 40
43.0
 40
43.0
 40
43.0
 40
44.0
 40
44.0
 40
44.0
 40
44.0
 10
488.2294945379186
 20
14.28855066291047
 30
0.0
 10
488.5855776889953
 20
14.33305701957116
 30
0.0
 10
488.8524220422105
 20
14.42194054172657
 30
0.0
 10
488.98610260115
 20
14.55545961170859
 30
0.0
  0
SPLINE
  5
16B
330
1F
100
AcDbEntity
  8
PIEZA
370
     0
100
AcDbSpline
210
0.0
220
0.0
230
1.0
 70
     8
 71
     3
 72
     8
 73
     4
 74
     0
 42
0.000000001
 43
0.00000001
 40
44.0
 40
44.0
 40
44.0
 40
44.0
 40
45.0
 40
45.0
 40
45.0
 40
45.0
 10
488.98610260115
 20
14.55545961170859
 30
0.0
 10
489.119492479966
 20
14.64434313386397
 30
0.0
 10
489.2085697888704
 20
14.82240085829818
 30
0.0
 10
489.2085697888704
 20
15.13417143946319
 30
0.0
  0
SPLINE
  5
16C
330
1F
100
AcDbEntity
  8
PIEZA
370
     0
100
AcDbSpline
210
0.0
220
0.0
230
1.0
 70
     8
 71
     3
 72
     8
 73
     4
 74
     0
 42
0.000000001
 43
0.00000001
 40
45.0
 40
45.0
 40
45.0
 40
45.0
 40
46.0
 40
46.0
 40
46.0
 40
46.0
 10
489.2085697888704
 20
15.13417143946319
 30
0.0
 10
489.2085697888704
 20
15.31193848377399
 30
0.0
 10
489.163869645461
 20
15.48999620820817
 30
0.0
 10
489.119492479966
 20
15.57900892152949
 30
0.0
  0
SPLINE
  5
16D
330
1F
100
AcDbEntity
  8
PIEZA
370
     0
100
AcDbSpline
210
0.0
220
0.0
230
1.0
 70
     8
 71
     3
 72
     8
 73
     4
 74
     0
 42
0.000000001
 43
0.00000001
 40
46.0
 40
46.0
 40
46.0
 40
46.0
 40
47.0
 40
47.0
 40
47.0
 40
47.0
 10
489.119492479966
 20
15.57900892152949
 30
0.0
 10
489.0751153144712
 20
15.66808623043377
 30
0.0
 10
489.0304797666447
 20
15.75709894375518
 30
0.0
 10
488.8970252922459
 20
15.80147610924991
 30
0.0
  0
SPLINE
  5
16E
330
1F
100
AcDbEntity
  8
PIEZA
370
     0
100
AcDbSpline
210
0.0
220
0.0
230
1.0
 70
     8
 71
     3
 72
     8
 73
     4
 74
     0
 42
0.000000001
 43
0.00000001
 40
47.0
 40
47.0
 40
47.0
 40
47.0
 40
48.0
 40
48.0
 40
48.0
 40
48.0
 10
488.8970252922459
 20
15.80147610924991
 30
0.0
 10
488.8080448767157
 20
15.84614395486798
 30
0.0
 10
488.6743320199848
 20
15.84614395486798
 30
0.0
 10
488.4965649756739
 20
15.89055341815418
 30
0.0
  0
SPLINE
  5
16F
330
1F
100
AcDbEntity
  8
PIEZA
370
     0
100
AcDbSpline
210
0.0
220
0.0
230
1.0
 70
    24
 71
     3
 72
     8
 73
     4
 74
     0
 42
0.000000001
 43
0.00000001
 40
48.0
 40
48.0
 40
48.0
 40
48.0
 40
49.0
 40
49.0
 40
49.0
 40
49.0
 10
488.4965649756739
 20
15.89055341815418
 30
0.0
 10
488.31850725124
 20
15.89055341815418
 30
0.0
 10
488.0960400635196
 20
15.89055341815418
 30
0.0
 10
487.8733467912588
 20
15.89055341815418
 30
0.0
  0
SPLINE
  5
170
330
1F
100
AcDbEntity
  8
PIEZA
370
     0
100
AcDbSpline
210
0.0
220
0.0
230
1.0
 70
     8
 71
     3
 72
     8
 73
     4
 74
     0
 42
0.000000001
 43
0.00000001
 40
52.0
 40
52.0
 40
52.0
 40
52.0
 40
53.0
 40
53.0
 40
53.0
 40
53.0
 10
486.3157534992588
 20
15.93515666825419
 30
0.0
 10
485.6928582927584
 20
15.93515666825419
 30
0.0
 10
485.069640108343
 20
15.93515666825419
 30
0.0
 10
484.446712604051
 20
15.97953383374903
 30
0.0
  0
SPLINE
  5
171
330
1F
100
AcDbEntity
  8
PIEZA
370
     0
100
AcDbSpline
210
0.0
220
0.0
230
1.0
 70
     8
 71
     3
 72
     8
 73
     4
 74
     0
 42
0.000000001
 43
0.00000001
 40
53.0
 40
53.0
 40
53.0
 40
53.0
 40
54.0
 40
54.0
 40
54.0
 40
54.0
 10
484.446712604051
 20
15.97953383374903
 30
0.0
 10
484.1352004052179
 20
15.97953383374903
 30
0.0
 10
483.8681299674624
 20
16.02423397715853
 30
0.0
 10
483.6010595297068
 20
16.06854654707033
 30
0.0
  0
SPLINE
  5
172
330
1F
100
AcDbEntity
  8
PIEZA
370
     0
100
AcDbSpline
210
0.0
220
0.0
230
1.0
 70
     8
 71
     3
 72
     8
 73
     4
 74
     0
 42
0.000000001
 43
0.00000001
 40
54.0
 40
54.0
 40
54.0
 40
54.0
 40
55.0
 40
55.0
 40
55.0
 40
55.0
 10
483.6010595297068
 20
16.06854654707033
 30
0.0
 10
483.3785923419864
 20
16.11324669047991
 30
0.0
 10
483.1562220476407
 20
16.2022271060097
 30
0.0
 10
482.9337548599202
 20
16.2909814369992
 30
0.0
  0
SPLINE
  5
173
330
1F
100
AcDbEntity
  8
PIEZA
370
     0
100
AcDbSpline
210
0.0
220
0.0
230
1.0
 70
     8
 71
     3
 72
     8
 73
     4
 74
     0
 42
0.000000001
 43
0.00000001
 40
55.0
 40
55.0
 40
55.0
 40
55.0
 40
56.0
 40
56.0
 40
56.0
 40
56.0
 10
482.9337548599202
 20
16.2909814369992
 30
0.0
 10
482.4886266977308
 20
16.51377160263442
 30
0.0
 10
482.2661595100102
 20
16.95860908470073
 30
0.0
 10
482.2661595100102
 20
17.49274996021171
 30
0.0
  0
SPLINE
  5
174
330
1F
100
AcDbEntity
  8
PIEZA
370
     0
100
AcDbSpline
210
0.0
220
0.0
230
1.0
 70
     8
 71
     3
 72
     8
 73
     4
 74
     0
 42
0.000000001
 43
0.00000001
 40
56.0
 40
56.0
 40
56.0
 40
56.0
 40
57.0
 40
57.0
 40
57.0
 40
57.0
 10
482.2661595100102
 20
17.49274996021171
 30
0.0
 10
482.2661595100102
 20
17.89327487236622
 30
0.0
 10
482.3552368189147
 20
18.24909964111111
 30
0.0
 10
482.5332622455572
 20
18.5608702222762
 30
0.0
  0
SPLINE
  5
175
330
1F
100
AcDbEntity
  8
PIEZA
370
     0
100
AcDbSpline
210
0.0
220
0.0
230
1.0
 70
     8
 71
     3
 72
     8
 73
     4
 74
     0
 42
0.000000001
 43
0.00000001
 40
57.0
 40
57.0
 40
57.0
 40
57.0
 40
58.0
 40
58.0
 40
58.0
 40
58.0
 10
482.5332622455572
 20
18.5608702222762
 30
0.0
 10
482.7109969920766
 20
18.87235012331791
 30
0.0
 10
483.0227675732416
 20
19.09472041766384
 30
0.0
 10
483.4676696508908
 20
19.22817489206292
 30
0.0
  0
SPLINE
  5
176
330
1F
100
AcDbEntity
  8
PIEZA
370
     0
100
AcDbSpline
210
0.0
220
0.0
230
1.0
 70
     8
 71
     3
 72
     8
 73
     4
 74
     0
 42
0.000000001
 43
0.00000001
 40
58.0
 40
58.0
 40
58.0
 40
58.0
 40
59.0
 40
59.0
 40
59.0
 40
59.0
 10
483.4676696508908
 20
19.22817489206292
 30
0.0
 10
483.8681299674624
 20
19.36185545100233
 30
0.0
 10
484.3576675929384
 20
19.40616802091412
 30
0.0
 10
484.8918730640321
 20
19.45086816432362
 30
0.0
  0
SPLINE
  5
177
330
1F
100
AcDbEntity
  8
PIEZA
370
     0
100
AcDbSpline
210
0.0
220
0.0
230
1.0
 70
     8
 71
     3
 72
     8
 73
     4
 74
     0
 42
0.000000001
 43
0.00000001
 40
59.0
 40
59.0
 40
59.0
 40
59.0
 40
60.0
 40
60.0
 40
60.0
 40
60.0
 10
484.8918730640321
 20
19.45086816432362
 30
0.0
 10
485.42572325942
 20
19.45086816432362
 30
0.0
 10
485.9152285871044
 20
19.49524532981843
 30
0.0
 10
486.3603890470852
 20
19.49524532981843
 30
0.0
  0
SPLINE
  5
178
330
1F
100
AcDbEntity
  8
PIEZA
370
     0
100
AcDbSpline
210
0.0
220
0.0
230
1.0
 70
     8
 71
     3
 72
     8
 73
     4
 74
     0
 42
0.000000001
 43
0.00000001
 40
60.0
 40
60.0
 40
60.0
 40
60.0
 40
61.0
 40
61.0
 40
61.0
 40
61.0
 10
486.3603890470852
 20
19.49524532981843
 30
0.0
 10
487.0276937168719
 20
19.49524532981843
 30
0.0
 10
487.6952890667822
 20
19.45086816432362
 30
0.0
 10
488.3628844166921
 20
19.40616802091412
 30
0.0
  0
SPLINE
  5
179
330
1F
100
AcDbEntity
  8
PIEZA
370
     0
100
AcDbSpline
210
0.0
220
0.0
230
1.0
 70
     8
 71
     3
 72
     8
 73
     4
 74
     0
 42
0.000000001
 43
0.00000001
 40
61.0
 40
61.0
 40
61.0
 40
61.0
 40
62.0
 40
62.0
 40
62.0
 40
62.0
 10
488.3628844166921
 20
19.40616802091412
 30
0.0
 10
489.5646206421131
 20
19.3174782855076
 30
0.0
 10
490.2322482898146
 20
18.73863726658703
 30
0.0
 10
490.2322482898146
 20
17.67080768464584
 30
0.0
  0
SPLINE
  5
17A
330
1F
100
AcDbEntity
  8
PIEZA
370
     0
100
AcDbSpline
210
0.0
220
0.0
230
1.0
 70
     8
 71
     3
 72
     8
 73
     4
 74
     0
 42
0.000000001
 43
0.00000001
 40
1.0
 40
1.0
 40
1.0
 40
1.0
 40
2.0
 40
2.0
 40
2.0
 40
2.0
 10
506.2084477392202
 20
15.57900892159216
 30
0.0
 10
506.1640705737257
 20
15.66808623049636
 30
0.0
 10
506.0749932648212
 20
15.66808623049636
 30
0.0
 10
505.9859805514998
 20
15.71278637390597
 30
0.0
  0
SPLINE
  5
17B
330
1F
100
AcDbEntity
  8
PIEZA
370
     0
100
AcDbSpline
210
0.0
220
0.0
230
1.0
 70
     8
 71
     3
 72
     8
 73
     4
 74
     0
 42
0.000000001
 43
0.00000001
 40
2.0
 40
2.0
 40
2.0
 40
2.0
 40
3.0
 40
3.0
 40
3.0
 40
3.0
 10
505.9859805514998
 20
15.71278637390597
 30
0.0
 10
505.8079228270657
 20
15.75709894381777
 30
0.0
 10
505.4964752238156
 20
15.80147610931257
 30
0.0
 10
504.9622697527213
 20
15.80147610931257
 30
0.0
  0
SPLINE
  5
17C
330
1F
100
AcDbEntity
  8
PIEZA
370
     0
100
AcDbSpline
210
0.0
220
0.0
230
1.0
 70
     8
 71
     3
 72
     8
 73
     4
 74
     0
 42
0.000000001
 43
0.00000001
 40
4.0
 40
4.0
 40
4.0
 40
4.0
 40
5.0
 40
5.0
 40
5.0
 40
5.0
 10
504.0278946452214
 20
15.80147610931257
 30
0.0
 10
503.4937537697103
 20
15.80147610931257
 30
0.0
 10
503.1378967031738
 20
15.75709894381777
 30
0.0
 10
502.9598389787398
 20
15.66808623049636
 30
0.0
  0
SPLINE
  5
17D
330
1F
100
AcDbEntity
  8
PIEZA
370
     0
100
AcDbSpline
210
0.0
220
0.0
230
1.0
 70
     8
 71
     3
 72
     8
 73
     4
 74
     0
 42
0.000000001
 43
0.00000001
 40
5.0
 40
5.0
 40
5.0
 40
5.0
 40
6.0
 40
6.0
 40
6.0
 40
6.0
 10
502.9598389787398
 20
15.66808623049636
 30
0.0
 10
502.8264168021323
 20
15.57900892159216
 30
0.0
 10
502.7370811108959
 20
15.40098349494949
 30
0.0
 10
502.7370811108959
 20
15.13417143952586
 30
0.0
  0
SPLINE
  5
17E
330
1F
100
AcDbEntity
  8
PIEZA
370
     0
100
AcDbSpline
210
0.0
220
0.0
230
1.0
 70
     8
 71
     3
 72
     8
 73
     4
 74
     0
 42
0.000000001
 43
0.00000001
 40
7.0
 40
7.0
 40
7.0
 40
7.0
 40
8.0
 40
8.0
 40
8.0
 40
8.0
 10
502.7370811108959
 20
14.68901097962586
 30
0.0
 10
502.7370811108959
 20
14.46657608969696
 30
0.0
 10
502.8264168021323
 20
14.28855066305437
 30
0.0
 10
503.004183846443
 20
14.19950565194157
 30
0.0
  0
SPLINE
  5
17F
330
1F
100
AcDbEntity
  8
PIEZA
370
     0
100
AcDbSpline
210
0.0
220
0.0
230
1.0
 70
     8
 71
     3
 72
     8
 73
     4
 74
     0
 42
0.000000001
 43
0.00000001
 40
8.0
 40
8.0
 40
8.0
 40
8.0
 40
9.0
 40
9.0
 40
9.0
 40
9.0
 10
503.004183846443
 20
14.19950565194157
 30
0.0
 10
503.1822738686684
 20
14.11049293862018
 30
0.0
 10
503.5383570197455
 20
14.06598658195955
 30
0.0
 10
504.0278946452214
 20
14.06598658195955
 30
0.0
  0
SPLINE
  5
180
330
1F
100
AcDbEntity
  8
PIEZA
370
     0
100
AcDbSpline
210
0.0
220
0.0
230
1.0
 70
     8
 71
     3
 72
     8
 73
     4
 74
     0
 42
0.000000001
 43
0.00000001
 40
10.0
 40
10.0
 40
10.0
 40
10.0
 40
11.0
 40
11.0
 40
11.0
 40
11.0
 10
504.9622697527213
 20
14.06598658195955
 30
0.0
 10
505.4520980583206
 20
14.06598658195955
 30
0.0
 10
505.7635456615709
 20
14.11049293862018
 30
0.0
 10
505.941603386005
 20
14.15499929528088
 30
0.0
  0
SPLINE
  5
181
330
1F
100
AcDbEntity
  8
PIEZA
370
     0
100
AcDbSpline
210
0.0
220
0.0
230
1.0
 70
     8
 71
     3
 72
    11
 73
     7
 74
     0
 42
0.000000001
 43
0.00000001
 40
11.0
 40
11.0
 40
11.0
 40
11.0
 40
12.0
 40
12.0
 40
12.0
 40
13.0
 40
13.0
 40
13.0
 40
13.0
 10
505.941603386005
 20
14.15499929528088
 30
0.0
 10
506.1193704303157
 20
14.19950565194157
 30
0.0
 10
506.2084477392202
 20
14.28855066305437
 30
0.0
 10
506.2084477392202
 20
14.42194054187036
 30
0.0
 10
506.2084477392202
 20
14.46657608969696
 30
0.0
 10
506.2084477392202
 20
14.55545961185246
 30
0.0
 10
506.2084477392202
 20
14.59999826630457
 30
0.0
  0
SPLINE
  5
182
330
1F
100
AcDbEntity
  8
PIEZA
370
     0
100
AcDbSpline
210
0.0
220
0.0
230
1.0
 70
     8
 71
     3
 72
     8
 73
     4
 74
     0
 42
0.000000001
 43
0.00000001
 40
18.0
 40
18.0
 40
18.0
 40
18.0
 40
19.0
 40
19.0
 40
19.0
 40
19.0
 10
507.8997215901647
 20
14.11049293848117
 30
0.0
 10
507.8997215901647
 20
13.79904533523094
 30
0.0
 10
507.6769637223209
 20
13.57644895634468
 30
0.0
 10
507.3208805712439
 20
13.48756543418926
 30
0.0
  0
SPLINE
  5
183
330
1F
100
AcDbEntity
  8
PIEZA
370
     0
100
AcDbSpline
210
0.0
220
0.0
230
1.0
 70
     8
 71
     3
 72
     8
 73
     4
 74
     0
 42
0.000000001
 43
0.00000001
 40
19.0
 40
19.0
 40
19.0
 40
19.0
 40
20.0
 40
20.0
 40
20.0
 40
20.0
 10
507.3208805712439
 20
13.48756543418926
 30
0.0
 10
506.965055802499
 20
13.35401406641574
 30
0.0
 10
506.297460452589
 20
13.26500135309445
 30
0.0
 10
505.4074625105413
 20
13.26500135309445
 30
0.0
  0
SPLINE
  5
184
330
1F
100
AcDbEntity
  8
PIEZA
370
     0
100
AcDbSpline
210
0.0
220
0.0
230
1.0
 70
     8
 71
     3
 72
     8
 73
     4
 74
     0
 42
0.000000001
 43
0.00000001
 40
21.0
 40
21.0
 40
21.0
 40
21.0
 40
22.0
 40
22.0
 40
22.0
 40
22.0
 10
503.5827341852415
 20
13.26500135309445
 30
0.0
 10
503.0488193942709
 20
13.26500135309445
 30
0.0
 10
502.6036912320812
 20
13.30950770975505
 30
0.0
 10
502.3812886399438
 20
13.30950770975505
 30
0.0
  0
SPLINE
  5
185
330
1F
100
AcDbEntity
  8
PIEZA
370
     0
100
AcDbSpline
210
0.0
220
0.0
230
1.0
 70
     8
 71
     3
 72
     8
 73
     4
 74
     0
 42
0.000000001
 43
0.00000001
 40
22.0
 40
22.0
 40
22.0
 40
22.0
 40
23.0
 40
23.0
 40
23.0
 40
23.0
 10
502.3812886399438
 20
13.30950770975505
 30
0.0
 10
502.1141536066055
 20
13.35401406641574
 30
0.0
 10
501.8917833122597
 20
13.44289758857118
 30
0.0
 10
501.6693161245391
 20
13.53191030189254
 30
0.0
  0
SPLINE
  5
186
330
1F
100
AcDbEntity
  8
PIEZA
370
     0
100
AcDbSpline
210
0.0
220
0.0
230
1.0
 70
     8
 71
     3
 72
     8
 73
     4
 74
     0
 42
0.000000001
 43
0.00000001
 40
23.0
 40
23.0
 40
23.0
 40
23.0
 40
24.0
 40
24.0
 40
24.0
 40
24.0
 10
501.6693161245391
 20
13.53191030189254
 30
0.0
 10
501.4912261023135
 20
13.62095531300537
 30
0.0
 10
501.3131683778792
 20
13.75447438298727
 30
0.0
 10
501.2241556645579
 20
13.88802575076085
 30
0.0
  0
SPLINE
  5
187
330
1F
100
AcDbEntity
  8
PIEZA
370
     0
100
AcDbSpline
210
0.0
220
0.0
230
1.0
 70
     8
 71
     3
 72
     8
 73
     4
 74
     0
 42
0.000000001
 43
0.00000001
 40
24.0
 40
24.0
 40
24.0
 40
24.0
 40
25.0
 40
25.0
 40
25.0
 40
25.0
 10
501.2241556645579
 20
13.88802575076085
 30
0.0
 10
501.1351752490282
 20
14.06598658182054
 30
0.0
 10
501.0907980835334
 20
14.24401200846316
 30
0.0
 10
501.0907980835334
 20
14.46657608955795
 30
0.0
  0
SPLINE
  5
188
330
1F
100
AcDbEntity
  8
PIEZA
370
     0
100
AcDbSpline
210
0.0
220
0.0
230
1.0
 70
     8
 71
     3
 72
     8
 73
     4
 74
     0
 42
0.000000001
 43
0.00000001
 40
26.0
 40
26.0
 40
26.0
 40
26.0
 40
27.0
 40
27.0
 40
27.0
 40
27.0
 10
501.0907980835334
 20
15.35663862725795
 30
0.0
 10
501.0907980835334
 20
15.80147610932437
 30
0.0
 10
501.2685651278442
 20
16.15759155819257
 30
0.0
 10
501.6246159811295
 20
16.33568158041829
 30
0.0
  0
SPLINE
  5
189
330
1F
100
AcDbEntity
  8
PIEZA
370
     0
100
AcDbSpline
210
0.0
220
0.0
230
1.0
 70
     8
 71
     3
 72
     8
 73
     4
 74
     0
 42
0.000000001
 43
0.00000001
 40
27.0
 40
27.0
 40
27.0
 40
27.0
 40
28.0
 40
28.0
 40
28.0
 40
28.0
 10
501.6246159811295
 20
16.33568158041829
 30
0.0
 10
501.9807637277893
 20
16.51377160264386
 30
0.0
 10
502.6483590776994
 20
16.60275201817365
 30
0.0
 10
503.5827341852415
 20
16.60275201817365
 30
0.0
  0
SPLINE
  5
18A
330
1F
100
AcDbEntity
  8
PIEZA
370
     0
100
AcDbSpline
210
0.0
220
0.0
230
1.0
 70
     8
 71
     3
 72
     8
 73
     4
 74
     0
 42
0.000000001
 43
0.00000001
 40
29.0
 40
29.0
 40
29.0
 40
29.0
 40
30.0
 40
30.0
 40
30.0
 40
30.0
 10
505.4074625105413
 20
16.60275201817365
 30
0.0
 10
505.9859805515473
 20
16.60275201817365
 30
0.0
 10
506.3864731659103
 20
16.60275201817365
 30
0.0
 10
506.6979853647435
 20
16.55808417255566
 30
0.0
  0
SPLINE
  5
18B
330
1F
100
AcDbEntity
  8
PIEZA
370
     0
100
AcDbSpline
210
0.0
220
0.0
230
1.0
 70
     8
 71
     3
 72
     8
 73
     4
 74
     0
 42
0.000000001
 43
0.00000001
 40
30.0
 40
30.0
 40
30.0
 40
30.0
 40
31.0
 40
31.0
 40
31.0
 40
31.0
 10
506.6979853647435
 20
16.55808417255566
 30
0.0
 10
506.965055802499
 20
16.51377160264386
 30
0.0
 10
507.1874583946364
 20
16.46907145923428
 30
0.0
 10
507.3655161190705
 20
16.37999415033005
 30
0.0
  0
SPLINE
  5
18C
330
1F
100
AcDbEntity
  8
PIEZA
370
     0
100
AcDbSpline
210
0.0
220
0.0
230
1.0
 70
     8
 71
     3
 72
     8
 73
     4
 74
     0
 42
0.000000001
 43
0.00000001
 40
31.0
 40
31.0
 40
31.0
 40
31.0
 40
32.0
 40
32.0
 40
32.0
 40
32.0
 10
507.3655161190705
 20
16.37999415033005
 30
0.0
 10
507.498938295678
 20
16.33568158041829
 30
0.0
 10
507.6326511524091
 20
16.20222710601914
 30
0.0
 10
507.7216638657302
 20
16.06854654707977
 30
0.0
  0
SPLINE
  5
18D
330
1F
100
AcDbEntity
  8
PIEZA
370
     0
100
AcDbSpline
210
0.0
220
0.0
230
1.0
 70
     8
 71
     3
 72
    11
 73
     7
 74
     0
 42
0.000000001
 43
0.00000001
 40
32.0
 40
32.0
 40
32.0
 40
32.0
 40
33.0
 40
33.0
 40
33.0
 40
34.0
 40
34.0
 40
34.0
 40
34.0
 10
507.7216638657302
 20
16.06854654707977
 30
0.0
 10
507.8104181967201
 20
15.93515666826363
 30
0.0
 10
507.8104181967201
 20
15.84614395494236
 30
0.0
 10
507.8104181967201
 20
15.66808623050816
 30
0.0
 10
507.8104181967201
 20
15.62370906501346
 30
0.0
 10
507.8104181967201
 20
15.62370906501346
 30
0.0
 10
507.8104181967201
 20
15.53469635169216
 30
0.0
  0
SPLINE
  5
18E
330
1F
100
AcDbEntity
  8
PIEZA
370
     0
100
AcDbSpline
210
0.0
220
0.0
230
1.0
 70
     8
 71
     3
 72
    11
 73
     7
 74
     0
 42
0.000000001
 43
0.00000001
 40
2.0
 40
2.0
 40
2.0
 40
2.0
 40
3.0
 40
3.0
 40
3.0
 40
4.0
 40
4.0
 40
4.0
 40
4.0
 10
523.3121953870266
 20
20.4036853108171
 30
0.0
 10
523.4687750801259
 20
20.4036853108171
 30
0.0
 10
523.5825279017216
 20
20.39054010968438
 30
0.0
 10
523.6534538518137
 20
20.36424970741894
 30
0.0
 10
523.7243798019057
 20
20.33795930515349
 30
0.0
 10
523.7811916171206
 20
20.29119210308916
 30
0.0
 10
523.8238247018753
 20
20.22394810122594
 30
0.0
  0
SPLINE
  5
18F
330
1F
100
AcDbEntity
  8
PIEZA
370
     0
100
AcDbSpline
210
0.0
220
0.0
230
1.0
 70
     8
 71
     3
 72
    11
 73
     7
 74
     0
 42
0.000000001
 43
0.00000001
 40
4.0
 40
4.0
 40
4.0
 40
4.0
 40
5.0
 40
5.0
 40
5.0
 40
6.0
 40
6.0
 40
6.0
 40
6.0
 10
523.8238247018753
 20
20.22394810122594
 30
0.0
 10
523.8664577866301
 20
20.15673639715421
 30
0.0
 10
523.8877743290075
 20
20.07986765342969
 30
0.0
 10
523.8877743290075
 20
19.99334187005238
 30
0.0
 10
523.8877743290075
 20
19.88349708122587
 30
0.0
 10
523.8556057286926
 20
19.79280488274753
 30
0.0
 10
523.7912362302711
 20
19.72123297682588
 30
0.0
  0
SPLINE
  5
190
330
1F
100
AcDbEntity
  8
PIEZA
370
     0
100
AcDbSpline
210
0.0
220
0.0
230
1.0
 70
     8
 71
     3
 72
     8
 73
     4
 74
     0
 42
0.000000001
 43
0.00000001
 40
6.0
 40
6.0
 40
6.0
 40
6.0
 40
7.0
 40
7.0
 40
7.0
 40
7.0
 10
523.7912362302711
 20
19.72123297682588
 30
0.0
 10
523.7268990296412
 20
19.6496933686957
 30
0.0
 10
523.630716206611
 20
19.6045733539969
 30
0.0
 10
523.5026877611808
 20
19.58593752831243
 30
0.0
  0
SPLINE
  5
191
330
1F
100
AcDbEntity
  8
PIEZA
370
     0
100
AcDbSpline
210
0.0
220
0.0
230
1.0
 70
     8
 71
     3
 72
     8
 73
     4
 74
     0
 42
0.000000001
 43
0.00000001
 40
7.0
 40
7.0
 40
7.0
 40
7.0
 40
8.0
 40
8.0
 40
8.0
 40
8.0
 10
523.5026877611808
 20
19.58593752831243
 30
0.0
 10
523.5662821126067
 20
19.54866587694348
 30
0.0
 10
523.6187983215547
 20
19.50771227734571
 30
0.0
 10
523.6602040902332
 20
19.46310902731059
 30
0.0
  0
SPLINE
  5
192
330
1F
100
AcDbEntity
  8
PIEZA
370
     0
100
AcDbSpline
210
0.0
220
0.0
230
1.0
 70
     8
 71
     3
 72
     8
 73
     4
 74
     0
 42
0.000000001
 43
0.00000001
 40
8.0
 40
8.0
 40
8.0
 40
8.0
 40
9.0
 40
9.0
 40
9.0
 40
9.0
 10
523.6602040902332
 20
19.46310902731059
 30
0.0
 10
523.7016421567032
 20
19.41850577727548
 30
0.0
 10
523.7574527403822
 20
19.33927929477287
 30
0.0
 10
523.8276681390615
 20
19.22539728201124
 30
0.0
  0
SPLINE
  5
193
330
1F
100
AcDbEntity
  8
PIEZA
370
     0
100
AcDbSpline
210
0.0
220
0.0
230
1.0
 70
     8
 71
     3
 72
     8
 73
     4
 74
     0
 42
0.000000001
 43
0.00000001
 40
12.0
 40
12.0
 40
12.0
 40
12.0
 40
13.0
 40
13.0
 40
13.0
 40
13.0
 10
523.4410635750353
 20
19.25930996306618
 30
0.0
 10
523.3649053827234
 20
19.37283670012151
 30
0.0
 10
523.3127767472732
 20
19.44437630825168
 30
0.0
 10
523.2847422642678
 20
19.4739287874567
 30
0.0
  0
SPLINE
  5
194
330
1F
100
AcDbEntity
  8
PIEZA
370
     0
100
AcDbSpline
210
0.0
220
0.0
230
1.0
 70
     8
 71
     3
 72
     8
 73
     4
 74
     0
 42
0.000000001
 43
0.00000001
 40
13.0
 40
13.0
 40
13.0
 40
13.0
 40
14.0
 40
14.0
 40
14.0
 40
14.0
 10
523.2847422642678
 20
19.4739287874567
 30
0.0
 10
523.2566754834709
 20
19.50344896887023
 30
0.0
 10
523.2269615153085
 20
19.52369968412875
 30
0.0
 10
523.1955680619891
 20
19.53464863544077
 30
0.0
  0
SPLINE
  5
195
330
1F
100
AcDbEntity
  8
PIEZA
370
     0
100
AcDbSpline
210
0.0
220
0.0
230
1.0
 70
     8
 71
     3
 72
     8
 73
     4
 74
     0
 42
0.000000001
 43
0.00000001
 40
14.0
 40
14.0
 40
14.0
 40
14.0
 40
15.0
 40
15.0
 40
15.0
 40
15.0
 10
523.1955680619891
 20
19.53464863544077
 30
0.0
 10
523.1641423108781
 20
19.54562988454428
 30
0.0
 10
523.1144037119975
 20
19.55108821130455
 30
0.0
 10
523.046255371973
 20
19.55108821130455
 30
0.0
  0
SPLINE
  5
196
330
1F
100
AcDbEntity
  8
PIEZA
370
     0
100
AcDbSpline
210
0.0
220
0.0
230
1.0
 70
     8
 71
     3
 72
     8
 73
     4
 74
     0
 42
0.000000001
 43
0.00000001
 40
1.0
 40
1.0
 40
1.0
 40
1.0
 40
2.0
 40
2.0
 40
2.0
 40
2.0
 10
523.2047729325611
 20
19.78418137242213
 30
0.0
 10
523.3465279393707
 20
19.78418137242213
 30
0.0
 10
523.4350561858199
 20
19.79018876163758
 30
0.0
 10
523.470325374117
 20
19.80217124227699
 30
0.0
  0
SPLINE
  5
197
330
1F
100
AcDbEntity
  8
PIEZA
370
     0
100
AcDbSpline
210
0.0
220
0.0
230
1.0
 70
     8
 71
     3
 72
     8
 73
     4
 74
     0
 42
0.000000001
 43
0.00000001
 40
2.0
 40
2.0
 40
2.0
 40
2.0
 40
3.0
 40
3.0
 40
3.0
 40
3.0
 10
523.470325374117
 20
19.80217124227699
 30
0.0
 10
523.5055945624141
 20
19.81418602070789
 30
0.0
 10
523.5332414719218
 20
19.83485660725565
 30
0.0
 10
523.553201507057
 20
19.86418300192031
 30
0.0
  0
SPLINE
  5
198
330
1F
100
AcDbEntity
  8
PIEZA
370
     0
100
AcDbSpline
210
0.0
220
0.0
230
1.0
 70
     8
 71
     3
 72
    14
 73
    10
 74
     0
 42
0.000000001
 43
0.00000001
 40
3.0
 40
3.0
 40
3.0
 40
3.0
 40
4.0
 40
4.0
 40
4.0
 40
5.0
 40
5.0
 40
5.0
 40
6.0
 40
6.0
 40
6.0
 40
6.0
 10
523.553201507057
 20
19.86418300192031
 30
0.0
 10
523.5731615421921
 20
19.89354169437643
 30
0.0
 10
523.5831415597597
 20
19.93023198549872
 30
0.0
 10
523.5831415597597
 20
19.9742215774957
 30
0.0
 10
523.5831415597597
 20
20.0235726028785
 30
0.0
 10
523.569996358627
 20
20.06339577977444
 30
0.0
 10
523.5437059563616
 20
20.09375570376647
 30
0.0
 10
523.5174155540961
 20
20.12411562775851
 30
0.0
 10
523.4803053916846
 20
20.14326821810668
 30
0.0
 10
523.4324077669185
 20
20.15127807039394
 30
0.0
  0
SPLINE
  5
199
330
1F
100
AcDbEntity
  8
PIEZA
370
     0
100
AcDbSpline
210
0.0
220
0.0
230
1.0
 70
     8
 71
     3
 72
     8
 73
     4
 74
     0
 42
0.000000001
 43
0.00000001
 40
6.0
 40
6.0
 40
6.0
 40
6.0
 40
7.0
 40
7.0
 40
7.0
 40
7.0
 10
523.4324077669185
 20
20.15127807039394
 30
0.0
 10
523.4084428056397
 20
20.15460474291647
 30
0.0
 10
523.3365479218032
 20
20.15628422807348
 30
0.0
 10
523.2167554132005
 20
20.15628422807348
 30
0.0
  0
SPLINE
  5
19A
330
1F
100
AcDbEntity
  8
PIEZA
  6
Continuous
100
AcDbSpline
210
0.0
220
0.0
230
1.0
 70
     8
 71
     3
 72
    34
 73
    30
 74
     0
 42
0.000000001
 43
0.00000001
 40
0.0
 40
0.0
 40
0.0
 40
0.0
 40
0.0624848777574592
 40
0.0624848777574592
 40
0.1249697555149183
 40
0.1249697555149183
 40
0.1874546332723775
 40
0.1874546332723775
 40
0.2499395110298366
 40
0.2499395110298366
 40
0.3749092665447549
 40
0.3749092665447549
 40
0.4998790220596731
 40
0.4998790220596731
 40
0.5623638998171333
 40
0.5623638998171333
 40
0.6248487775745935
 40
0.6248487775745935
 40
0.6873336553320536
 40
0.6873336553320536
 40
0.7498185330895137
 40
0.7498185330895137
 40
0.8747882886044342
 40
0.8747882886044342
 40
0.9372731663618948
 40
0.9372731663618948
 40
0.9997580441193554
 40
0.9997580441193554
 40
1.0
 40
1.0
 40
1.0
 40
1.0
 10
398.2896131256325
 20
210.2719534274854
 30
0.0
 10
398.2896130603543
 20
210.2719577190847
 30
0.0
 10
398.2894552490546
 20
210.2824872206824
 30
0.0
 10
398.2888540203046
 20
210.3237628044343
 30
0.0
 10
398.2884036409525
 20
210.3550047788584
 30
0.0
 10
398.2872846100978
 20
210.4365696468525
 30
0.0
 10
398.2866215279176
 20
210.4864824503877
 30
0.0
 10
398.2851649458722
 20
210.6044053001289
 30
0.0
 10
398.2843658558332
 20
210.6730421711164
 30
0.0
 10
398.2820042378246
 20
210.8979388976086
 30
0.0
 10
398.2804271138439
 20
211.0792285769194
 30
0.0
 10
398.278203191321
 20
211.4702965701819
 30
0.0
 10
398.277547680859
 20
211.6841353029804
 30
0.0
 10
398.2775451718853
 20
212.002066515608
 30
0.0
 10
398.2777032405108
 20
212.1097076678594
 30
0.0
 10
398.2783070236129
 20
212.3181208529457
 30
0.0
 10
398.2787492594622
 20
212.4194171835529
 30
0.0
 10
398.2798656397187
 20
212.6161570093032
 30
0.0
 10
398.2805414641354
 20
212.7113341651244
 30
0.0
 10
398.2819941141423
 20
212.8874530297787
 30
0.0
 10
398.2827771317864
 20
212.969537333118
 30
0.0
 10
398.2851664244321
 20
213.1971655020326
 30
0.0
 10
398.286723994252
 20
213.3164723025232
 30
0.0
 10
398.2884037760672
 20
213.4389113059628
 30
0.0
 10
398.2888469780402
 20
213.4696551146568
 30
0.0
 10
398.289452758038
 20
213.5112516904338
 30
0.0
 10
398.2896125755808
 20
213.5219152236656
 30
0.0
 10
398.2896131526258
 20
213.5219538876682
 30
0.0
 10
398.289613133378
 20
213.521952793688
 30
0.0
 10
398.2896131526258
 20
213.5219538876682
 30
0.0
  0
HATCH
  5
19B
330
1F
100
AcDbEntity
  8
COTAS
100
AcDbHatch
 10
0.0
 20
0.0
 30
0.0
210
0.0
220
0.0
230
1.0
  2
ANSI31
 70
     0
 71
     0
 91
        1
 92
        0
 93
        4
 72
     1
 10
473.869613125636
 20
243.8969534274854
 11
103.8696131256356
 21
243.8969534274854
 72
     1
 10
103.8696131256356
 20
243.8969534274854
 11
103.8696131256356
 21
223.8969534274854
 72
     1
 10
103.8696131256356
 20
223.8969534274854
 11
473.869613125636
 21
223.8969534274854
 72
     1
 10
473.869613125636
 20
223.8969534274854
 11
473.869613125636
 21
243.8969534274854
 97
        0
 75
     0
 76
     1
 52
0.0
 41
1.0
 77
     0
 78
     1
 53
45.0
 43
0.0
 44
0.0
 45
-2.245064030267288
 46
2.245064030267288
 79
     0
 98
        1
 10
0.0
 20
0.0
  0
DIMENSION
  5
19C
330
1F
100
AcDbEntity
  8
COTAS
100
AcDbDimension
  2
_D
 10
87.4599493469
 20
223.8969534275
 30
0.0
 11
87.4599493469
 21
170.5146682508
 31
0.0
 70
   160
  1
<>
 71
     2
 42
-1.0
 73
     0
 74
     0
 75
     0
  3
SLDDIMSTYLE0
100
AcDbAlignedDimension
 13
180.8133776333
 23
117.132383074
 33
0.0
 14
103.8696131256
 24
223.8969534275
 34
0.0
 50
90.0
100
AcDbRotatedDimension
  0
DIMENSION
  5
1AC
330
1F
100
AcDbEntity
  8
COTAS
100
AcDbDimension
  2
_D_1
 10
116.9391479201
 20
184.9761640961
 30
0.0
 11
185.0902537132
 21
561.0138814055
 31
0.0
 70
   163
  1
<>
 71
     1
 42
-1.0
 73
     0
 74
     0
 75
     0
  3
SLDDIMSTYLE1
100
AcDbDiametricDimension
 15
0.0
 25
0.0
 35
0.0
 40
0.0
  0
MTEXT
  5
1B8
330
1F
100
AcDbEntity
  8
TEXTO
100
AcDbMText
 10
430.0459759473
 20
36.2700409641
 30
0.0
 40
8.0
 41
0.0
 46
0.0
 71
     1
 72
     1
  1
STRAM SURFACE
  7
SLDTEXTSTYLE0
 73
     1
 44
1.0
  0
INSERT
  5
1BE
330
1F
100
AcDbEntity
  8
TEXTO
100
AcDbBlockReference
  2
SW_NOTE_0
 10
237.1237949292
 20
17.5620896788
 30
0.0
  0
INSERT
  5
1C4
330
1F
100
AcDbEntity
  8
TEXTO
100
AcDbBlockReference
  2
SW_NOTE_1
 10
276.5952610005
 20
17.8383408909
 30
0.0
  0
ENDSEC
  0
SECTION
  2
OBJECTS
  0
DICTIONARY
  5
C
330
0
100
AcDbDictionary
281
     1
  3
ACAD_DETAILVIEWSTYLE
350
1CD
  3
ACAD_GROUP
350
D
  3
ACAD_LAYOUT
350
1A
  3
ACAD_MATERIAL
350
43
  3
ACAD_MLEADERSTYLE
350
6B
  3
ACAD_MLINESTYLE
350
17
  3
ACAD_PLOTSETTINGS
350
19
  3
ACAD_PLOTSTYLENAME
350
E
  3
ACAD_SCALELIST
350
47
  3
ACAD_SECTIONVIEWSTYLE
350
1CE
  3
ACAD_TABLESTYLE
350
69
  3
ACAD_VISUALSTYLE
350
2A
  3
ACDB_RECOMPOSE_DATA
350
1CA
  3
AcDbVariableDictionary
350
1C5
  0
SUN
  5
6D
330
29
100
AcDbSun
 90
        1
290
     0
 63
     7
421
 16777215
 40
1.0
291
     1
 91
  2455826
 92
 54000000
292
     0
 70
     2
 71
   256
280
     1
  0
DICTIONARY
  5
1CD
102
{ACAD_REACTORS
330
C
102
}
330
C
100
AcDbDictionary
281
     1
  0
DICTIONARY
  5
D
102
{ACAD_REACTORS
330
C
102
}
330
C
100
AcDbDictionary
281
     1
  0
DICTIONARY
  5
1A
102
{ACAD_REACTORS
330
C
102
}
330
C
100
AcDbDictionary
281
     1
  3
Layout1
350
1E
  3
Layout2
350
26
  3
Model
350
22
  0
DICTIONARY
  5
43
102
{ACAD_REACTORS
330
C
102
}
330
C
100
AcDbDictionary
281
     1
  3
ByBlock
350
45
  3
ByLayer
350
44
  3
Global
350
46
  0
DICTIONARY
  5
6B
102
{ACAD_REACTORS
330
C
102
}
330
C
100
AcDbDictionary
281
     1
  3
Standard
350
6C
  0
DICTIONARY
  5
17
102
{ACAD_REACTORS
330
C
102
}
330
C
100
AcDbDictionary
281
     1
  3
Standard
350
18
  0
DICTIONARY
  5
19
102
{ACAD_REACTORS
330
C
102
}
330
C
100
AcDbDictionary
281
     1
  0
ACDBDICTIONARYWDFLT
  5
E
102
{ACAD_REACTORS
330
C
102
}
330
C
100
AcDbDictionary
281
     1
  3
Normal
350
F
100
AcDbDictionaryWithDefault
340
F
  0
DICTIONARY
  5
47
102
{ACAD_REACTORS
330
C
102
}
330
C
100
AcDbDictionary
281
     1
  3
A0
350
48
  3
A1
350
49
  3
A2
350
4A
  3
A3
350
4B
  3
A4
350
4C
  3
A5
350
4D
  3
A6
350
4E
  3
A7
350
4F
  3
A8
350
50
  3
A9
350
51
  3
B0
350
52
  3
B1
350
53
  3
B2
350
54
  3
B3
350
55
  3
B4
350
56
  3
B5
350
57
  3
B6
350
58
  3
B7
350
59
  3
B8
350
5A
  3
B9
350
5B
  3
C0
350
5C
  3
C1
350
5D
  3
C2
350
5E
  3
C3
350
5F
  3
C4
350
60
  3
C5
350
61
  3
C6
350
62
  3
C7
350
63
  3
C8
350
64
  3
C9
350
65
  3
D0
350
66
  3
D1
350
67
  3
D2
350
68
  0
DICTIONARY
  5
1CE
102
{ACAD_REACTORS
330
C
102
}
330
C
100
AcDbDictionary
281
     1
  0
DICTIONARY
  5
69
102
{ACAD_REACTORS
330
C
102
}
330
C
100
AcDbDictionary
281
     1
  3
Standard
350
6A
  0
DICTIONARY
  5
2A
102
{ACAD_REACTORS
330
C
102
}
330
C
100
AcDbDictionary
281
     1
  3
2dWireframe
350
2F
  3
Basic
350
32
  3
Brighten
350
36
  3
ColorChange
350
3A
  3
Conceptual
350
34
  3
Dim
350
35
  3
EdgeColorOff
350
3D
  3
Facepattern
350
39
  3
Flat
350
2B
  3
FlatWithEdges
350
2C
  3
Gouraud
350
2D
  3
GouraudWithEdges
350
2E
  3
Hidden
350
31
  3
JitterOff
350
3B
  3
Linepattern
350
38
  3
OverhangOff
350
3C
  3
Realistic
350
33
  3
Shaded
350
42
  3
Shaded with edges
350
41
  3
Shades of Gray
350
3E
  3
Sketchy
350
3F
  3
Thicken
350
37
  3
Wireframe
350
30
  3
X-Ray
350
40
  0
XRECORD
  5
1CA
102
{ACAD_REACTORS
330
C
102
}
330
C
100
AcDbXrecord
280
     1
 90
        1
330
6A
  0
DICTIONARY
  5
1C5
102
{ACAD_REACTORS
330
C
102
}
330
C
100
AcDbDictionary
281
     1
  3
CANNOSCALE
350
1C6
  3
CMLEADERSTYLE
350
1CC
  3
CTABLESTYLE
350
1CB
  0
LAYOUT
  5
1E
102
{ACAD_REACTORS
330
1A
102
}
330
1A
100
AcDbPlotSettings
  1

  2
none_device
  4

  6

 40
0.0
 41
0.0
 42
0.0
 43
0.0
 44
0.0
 45
0.0
 46
0.0
 47
0.0
 48
0.0
 49
0.0
140
0.0
141
0.0
142
1.0
143
1.0
 70
   688
 72
     1
 73
     0
 74
     5
  7

 75
    16
 76
     0
 77
     2
 78
   300
147
1.0
148
0.0
149
0.0
100
AcDbLayout
  1
Layout1
 70
     1
 71
     1
 10
0.0
 20
0.0
 11
420.0
 21
297.0
 12
0.0
 22
0.0
 32
0.0
 14
1.0000000000E+20
 24
1.0000000000E+20
 34
1.0000000000E+20
 15
-1.0000000000E+20
 25
-1.0000000000E+20
 35
-1.0000000000E+20
146
0.0
 13
0.0
 23
0.0
 33
0.0
 16
1.0
 26
0.0
 36
0.0
 17
0.0
 27
1.0
 37
0.0
 76
     0
330
1B
  0
LAYOUT
  5
26
102
{ACAD_REACTORS
330
1A
102
}
330
1A
100
AcDbPlotSettings
  1

  2
none_device
  4

  6

 40
0.0
 41
0.0
 42
0.0
 43
0.0
 44
0.0
 45
0.0
 46
0.0
 47
0.0
 48
0.0
 49
0.0
140
0.0
141
0.0
142
1.0
143
1.0
 70
   688
 72
     1
 73
     0
 74
     5
  7

 75
    16
 76
     0
 77
     2
 78
   300
147
1.0
148
0.0
149
0.0
100
AcDbLayout
  1
Layout2
 70
     1
 71
     2
 10
0.0
 20
0.0
 11
0.0
 21
0.0
 12
0.0
 22
0.0
 32
0.0
 14
0.0
 24
0.0
 34
0.0
 15
0.0
 25
0.0
 35
0.0
146
0.0
 13
0.0
 23
0.0
 33
0.0
 16
1.0
 26
0.0
 36
0.0
 17
0.0
 27
1.0
 37
0.0
 76
     0
330
23
  0
LAYOUT
  5
22
102
{ACAD_REACTORS
330
1A
102
}
330
1A
100
AcDbPlotSettings
  1

  2
none_device
  4
Letter_(8.50_x_11.00_Inches)
  6

 40
6.35
 41
6.35
 42
6.35000508
 43
6.35000508
 44
215.9
 45
279.4
 46
0.0
 47
0.0
 48
0.0
 49
0.0
140
0.0
141
0.0
142
1.0
143
1.0
 70
  1712
 72
     1
 73
     0
 74
     0
  7

 75
     0
 76
     0
 77
     2
 78
   300
147
1.0
148
0.0
149
0.0
100
AcDbLayout
  1
Model
 70
     1
 71
     0
 10
0.0
 20
0.0
 11
550.0
 21
650.0
 12
0.0
 22
0.0
 32
0.0
 14
0.0
 24
0.0
 34
0.0
 15
550.0
 25
650.0
 35
0.0
146
0.0
 13
0.0
 23
0.0
 33
0.0
 16
1.0
 26
0.0
 36
0.0
 17
0.0
 27
1.0
 37
0.0
 76
     0
330
1F
331
29
  0
MATERIAL
  5
45
102
{ACAD_REACTORS
330
43
102
}
330
43
100
AcDbMaterial
  1
ByBlock
 72
     1
 94
      127
  0
MATERIAL
  5
44
102
{ACAD_REACTORS
330
43
102
}
330
43
100
AcDbMaterial
  1
ByLayer
 72
     1
 94
      127
  0
MATERIAL
  5
46
102
{ACAD_REACTORS
330
43
102
}
330
43
100
AcDbMaterial
  1
Global
 72
     1
 94
      127
  0
MLEADERSTYLE
  5
6C
102
{ACAD_REACTORS
330
6B
102
}
330
6B
100
AcDbMLeaderStyle
170
     2
171
     1
172
     0
 90
        2
 40
0.0
 41
0.0
173
     1
 91
-1056964608
340
14
 92
       -2
290
     1
 42
2.0
291
     1
 43
8.0
  3
Standard
341
0
 44
4.0
300

342
11
174
     1
178
     6
175
     1
176
     0
 93
-1056964608
 45
4.0
292
     0
297
     0
 46
4.0
343
0
 94
-1056964608
 47
1.0
 49
1.0
140
1.0
293
     1
141
0.0
294
     1
177
     0
142
1.0
295
     0
296
     0
143
3.75
1001
ACAD_MLEADERVER
1070
     2
  0
MLINESTYLE
  5
18
102
{ACAD_REACTORS
330
17
102
}
330
17
100
AcDbMlineStyle
  2
Standard
 70
     0
  3

 62
   256
 51
90.0
 52
90.0
 71
     2
 49
0.5
 62
   256
  6
BYLAYER
 49
-0.5
 62
   256
  6
BYLAYER
  0
ACDBPLACEHOLDER
  5
F
102
{ACAD_REACTORS
330
E
102
}
330
E
  0
SCALE
  5
48
102
{ACAD_REACTORS
330
47
102
}
330
47
100
AcDbScale
 70
     0
300
1:1
140
1.0
141
1.0
290
     1
  0
SCALE
  5
49
102
{ACAD_REACTORS
330
47
102
}
330
47
100
AcDbScale
 70
     0
300
1:2
140
1.0
141
2.0
290
     0
  0
SCALE
  5
4A
102
{ACAD_REACTORS
330
47
102
}
330
47
100
AcDbScale
 70
     0
300
1:4
140
1.0
141
4.0
290
     0
  0
SCALE
  5
4B
102
{ACAD_REACTORS
330
47
102
}
330
47
100
AcDbScale
 70
     0
300
1:5
140
1.0
141
5.0
290
     0
  0
SCALE
  5
4C
102
{ACAD_REACTORS
330
47
102
}
330
47
100
AcDbScale
 70
     0
300
1:8
140
1.0
141
8.0
290
     0
  0
SCALE
  5
4D
102
{ACAD_REACTORS
330
47
102
}
330
47
100
AcDbScale
 70
     0
300
1:10
140
1.0
141
10.0
290
     0
  0
SCALE
  5
4E
102
{ACAD_REACTORS
330
47
102
}
330
47
100
AcDbScale
 70
     0
300
1:16
140
1.0
141
16.0
290
     0
  0
SCALE
  5
4F
102
{ACAD_REACTORS
330
47
102
}
330
47
100
AcDbScale
 70
     0
300
1:20
140
1.0
141
20.0
290
     0
  0
SCALE
  5
50
102
{ACAD_REACTORS
330
47
102
}
330
47
100
AcDbScale
 70
     0
300
1:30
140
1.0
141
30.0
290
     0
  0
SCALE
  5
51
102
{ACAD_REACTORS
330
47
102
}
330
47
100
AcDbScale
 70
     0
300
1:40
140
1.0
141
40.0
290
     0
  0
SCALE
  5
52
102
{ACAD_REACTORS
330
47
102
}
330
47
100
AcDbScale
 70
     0
300
1:50
140
1.0
141
50.0
290
     0
  0
SCALE
  5
53
102
{ACAD_REACTORS
330
47
102
}
330
47
100
AcDbScale
 70
     0
300
1:100
140
1.0
141
100.0
290
     0
  0
SCALE
  5
54
102
{ACAD_REACTORS
330
47
102
}
330
47
100
AcDbScale
 70
     0
300
2:1
140
2.0
141
1.0
290
     0
  0
SCALE
  5
55
102
{ACAD_REACTORS
330
47
102
}
330
47
100
AcDbScale
 70
     0
300
4:1
140
4.0
141
1.0
290
     0
  0
SCALE
  5
56
102
{ACAD_REACTORS
330
47
102
}
330
47
100
AcDbScale
 70
     0
300
8:1
140
8.0
141
1.0
290
     0
  0
SCALE
  5
57
102
{ACAD_REACTORS
330
47
102
}
330
47
100
AcDbScale
 70
     0
300
10:1
140
10.0
141
1.0
290
     0
  0
SCALE
  5
58
102
{ACAD_REACTORS
330
47
102
}
330
47
100
AcDbScale
 70
     0
300
100:1
140
100.0
141
1.0
290
     0
  0
SCALE
  5
59
102
{ACAD_REACTORS
330
47
102
}
330
47
100
AcDbScale
 70
     0
300
1/128" = 1'-0"
140
0.0078125
141
12.0
290
     0
  0
SCALE
  5
5A
102
{ACAD_REACTORS
330
47
102
}
330
47
100
AcDbScale
 70
     0
300
1/64" = 1'-0"
140
0.015625
141
12.0
290
     0
  0
SCALE
  5
5B
102
{ACAD_REACTORS
330
47
102
}
330
47
100
AcDbScale
 70
     0
300
1/32" = 1'-0"
140
0.03125
141
12.0
290
     0
  0
SCALE
  5
5C
102
{ACAD_REACTORS
330
47
102
}
330
47
100
AcDbScale
 70
     0
300
1/16" = 1'-0"
140
0.0625
141
12.0
290
     0
  0
SCALE
  5
5D
102
{ACAD_REACTORS
330
47
102
}
330
47
100
AcDbScale
 70
     0
300
3/32" = 1'-0"
140
0.09375
141
12.0
290
     0
  0
SCALE
  5
5E
102
{ACAD_REACTORS
330
47
102
}
330
47
100
AcDbScale
 70
     0
300
1/8" = 1'-0"
140
0.125
141
12.0
290
     0
  0
SCALE
  5
5F
102
{ACAD_REACTORS
330
47
102
}
330
47
100
AcDbScale
 70
     0
300
3/16" = 1'-0"
140
0.1875
141
12.0
290
     0
  0
SCALE
  5
60
102
{ACAD_REACTORS
330
47
102
}
330
47
100
AcDbScale
 70
     0
300
1/4" = 1'-0"
140
0.25
141
12.0
290
     0
  0
SCALE
  5
61
102
{ACAD_REACTORS
330
47
102
}
330
47
100
AcDbScale
 70
     0
300
3/8" = 1'-0"
140
0.375
141
12.0
290
     0
  0
SCALE
  5
62
102
{ACAD_REACTORS
330
47
102
}
330
47
100
AcDbScale
 70
     0
300
1/2" = 1'-0"
140
0.5
141
12.0
290
     0
  0
SCALE
  5
63
102
{ACAD_REACTORS
330
47
102
}
330
47
100
AcDbScale
 70
     0
300
3/4" = 1'-0"
140
0.75
141
12.0
290
     0
  0
SCALE
  5
64
102
{ACAD_REACTORS
330
47
102
}
330
47
100
AcDbScale
 70
     0
300
1" = 1'-0"
140
1.0
141
12.0
290
     0
  0
SCALE
  5
65
102
{ACAD_REACTORS
330
47
102
}
330
47
100
AcDbScale
 70
     0
300
1-1/2" = 1'-0"
140
1.5
141
12.0
290
     0
  0
SCALE
  5
66
102
{ACAD_REACTORS
330
47
102
}
330
47
100
AcDbScale
 70
     0
300
3" = 1'-0"
140
3.0
141
12.0
290
     0
  0
SCALE
  5
67
102
{ACAD_REACTORS
330
47
102
}
330
47
100
AcDbScale
 70
     0
300
6" = 1'-0"
140
6.0
141
12.0
290
     0
  0
SCALE
  5
68
102
{ACAD_REACTORS
330
47
102
}
330
47
100
AcDbScale
 70
     0
300
1'-0" = 1'-0"
140
12.0
141
12.0
290
     0
  0
TABLESTYLE
  5
6A
102
{ACAD_REACTORS
330
69
102
}
102
{ACAD_XDICTIONARY
360
1C7
102
}
330
69
100
AcDbTableStyle
  3
Standard
 70
     0
 71
     0
 40
0.06
 41
0.06
280
     0
281
     0
  7
STANDARD
140
4.5
170
     2
 62
     0
 63
   257
283
     0
 90
        4
 91
        0
  1

274
    -2
284
     1
 64
     0
275
    -2
285
     1
 65
     0
276
    -2
286
     1
 66
     0
277
    -2
287
     1
 67
     0
278
    -2
288
     1
 68
     0
279
    -2
289
     1
 69
     0
  7
STANDARD
140
6.0
170
     5
 62
     0
 63
   257
283
     0
 90
        4
 91
        0
  1

274
    -2
284
     1
 64
     0
275
    -2
285
     1
 65
     0
276
    -2
286
     1
 66
     0
277
    -2
287
     1
 67
     0
278
    -2
288
     1
 68
     0
279
    -2
289
     1
 69
     0
  7
STANDARD
140
4.5
170
     5
 62
     0
 63
   257
283
     0
 90
        4
 91
        0
  1

274
    -2
284
     1
 64
     0
275
    -2
285
     1
 65
     0
276
    -2
286
     1
 66
     0
277
    -2
287
     1
 67
     0
278
    -2
288
     1
 68
     0
279
    -2
289
     1
 69
     0
  0
VISUALSTYLE
  5
2F
102
{ACAD_REACTORS
330
2A
102
}
330
2A
100
AcDbVisualStyle
  2
2dWireframe
 70
     4
 71
     0
 72
     2
 73
     0
 90
        0
 40
0.6
 41
30.0
 62
     5
 63
     7
421
 16777215
 74
     1
 91
        4
 64
     7
 65
   257
 75
     1
175
     1
 42
1.0
 92
        0
 66
   257
 43
1.0
 76
     1
 77
     6
 78
     2
 67
     7
 79
     5
170
     0
171
     0
290
     0
174
     0
 93
        1
 44
0.0
173
     0
291
     0
 45
0.0
  0
VISUALSTYLE
  5
32
102
{ACAD_REACTORS
330
2A
102
}
330
2A
100
AcDbVisualStyle
  2
Basic
 70
     7
 71
     1
 72
     0
 73
     1
 90
        0
 40
0.6
 41
30.0
 62
     5
 63
     7
421
 16777215
 74
     0
 91
        4
 64
     7
 65
   257
 75
     1
175
     1
 42
1.0
 92
        8
 66
     7
 43
1.0
 76
     1
 77
     6
 78
     2
 67
     7
 79
     5
170
     0
171
     0
290
     0
174
     0
 93
        1
 44
0.0
173
     0
291
     1
 45
0.0
  0
VISUALSTYLE
  5
36
102
{ACAD_REACTORS
330
2A
102
}
330
2A
100
AcDbVisualStyle
  2
Brighten
 70
    12
 71
     2
 72
     2
 73
     0
 90
        0
 40
0.6
 41
30.0
 62
     5
 63
     7
421
 16777215
 74
     1
 91
        4
 64
     7
 65
   257
 75
     1
175
     1
 42
1.0
 92
        8
 66
     7
 43
1.0
 76
     1
 77
     6
 78
     2
 67
     7
 79
     5
170
     0
171
     0
290
     0
174
     0
 93
        1
 44
50.0
173
     0
291
     1
 45
0.0
  0
VISUALSTYLE
  5
3A
102
{ACAD_REACTORS
330
2A
102
}
330
2A
100
AcDbVisualStyle
  2
ColorChange
 70
    16
 71
     2
 72
     2
 73
     3
 90
        0
 40
0.6
 41
30.0
 62
     5
 63
     8
421
  8421504
 74
     1
 91
        4
 64
     7
 65
   257
 75
     1
175
     1
 42
1.0
 92
        8
 66
     8
424
  8421504
 43
1.0
 76
     1
 77
     6
 78
     2
 67
     7
 79
     5
170
     0
171
     0
290
     0
174
     0
 93
        1
 44
0.0
173
     0
291
     1
 45
0.0
  0
VISUALSTYLE
  5
34
102
{ACAD_REACTORS
330
2A
102
}
330
2A
100
AcDbVisualStyle
  2
Conceptual
 70
     9
 71
     3
 72
     2
 73
     0
 90
        0
 40
0.6
 41
30.0
 62
     5
 63
     7
421
 16777215
 74
     2
 91
        2
 64
     7
 65
   257
 75
     1
175
     1
 42
179.0
 92
        8
 66
     7
 43
1.0
 76
     1
 77
     6
 78
     2
 67
     7
 79
     3
170
     0
171
     0
290
     0
174
     0
 93
        1
 44
0.0
173
     0
291
     0
 45
0.0
  0
VISUALSTYLE
  5
35
102
{ACAD_REACTORS
330
2A
102
}
330
2A
100
AcDbVisualStyle
  2
Dim
 70
    11
 71
     2
 72
     2
 73
     0
 90
        0
 40
0.6
 41
30.0
 62
     5
 63
     7
421
 16777215
 74
     1
 91
        4
 64
     7
 65
   257
 75
     1
175
     1
 42
1.0
 92
        8
 66
     7
 43
1.0
 76
     1
 77
     6
 78
     2
 67
     7
 79
     5
170
     0
171
     0
290
     0
174
     0
 93
        1
 44
-50.0
173
     0
291
     1
 45
0.0
  0
VISUALSTYLE
  5
3D
102
{ACAD_REACTORS
330
2A
102
}
330
2A
100
AcDbVisualStyle
  2
EdgeColorOff
 70
    22
 71
     2
 72
     2
 73
     0
 90
        0
 40
0.6
 41
30.0
 62
     5
 63
     7
421
 16777215
 74
     1
 91
        4
 64
     7
 65
   257
 75
     1
175
     1
 42
1.0
 92
        8
 66
     7
 43
1.0
 76
     1
 77
     6
 78
     2
 67
     7
 79
     5
170
     0
171
     0
290
     0
174
     0
 93
        1
 44
0.0
173
     0
291
     1
 45
0.0
  0
VISUALSTYLE
  5
39
102
{ACAD_REACTORS
330
2A
102
}
330
2A
100
AcDbVisualStyle
  2
Facepattern
 70
    15
 71
     2
 72
     2
 73
     0
 90
        0
 40
0.6
 41
30.0
 62
     5
 63
     7
421
 16777215
 74
     1
 91
        4
 64
     7
 65
   257
 75
     1
175
     1
 42
1.0
 92
        8
 66
     7
 43
1.0
 76
     1
 77
     6
 78
     2
 67
     7
 79
     5
170
     0
171
     0
290
     0
174
     0
 93
        1
 44
0.0
173
     0
291
     1
 45
0.0
  0
VISUALSTYLE
  5
2B
102
{ACAD_REACTORS
330
2A
102
}
330
2A
100
AcDbVisualStyle
  2
Flat
 70
     0
 71
     2
 72
     1
 73
     1
 90
        2
 40
0.6
 41
30.0
 62
     5
 63
     7
421
 16777215
 74
     0
 91
        0
 64
     7
 65
   257
 75
     1
175
     1
 42
1.0
 92
        8
 66
     7
 43
1.0
 76
     1
 77
     6
 78
     2
 67
     7
 79
     5
170
     0
171
     0
290
     0
174
     0
 93
       13
 44
0.0
173
     0
291
     1
 45
0.0
  0
VISUALSTYLE
  5
2C
102
{ACAD_REACTORS
330
2A
102
}
330
2A
100
AcDbVisualStyle
  2
FlatWithEdges
 70
     1
 71
     2
 72
     1
 73
     1
 90
        2
 40
0.6
 41
30.0
 62
     5
 63
     7
421
 16777215
 74
     1
 91
        0
 64
     7
 65
   257
 75
     1
175
     1
 42
1.0
 92
        0
 66
   257
 43
1.0
 76
     1
 77
     6
 78
     2
 67
     7
 79
     5
170
     0
171
     0
290
     0
174
     0
 93
       13
 44
0.0
173
     0
291
     1
 45
0.0
  0
VISUALSTYLE
  5
2D
102
{ACAD_REACTORS
330
2A
102
}
330
2A
100
AcDbVisualStyle
  2
Gouraud
 70
     2
 71
     2
 72
     2
 73
     1
 90
        2
 40
0.6
 41
30.0
 62
     5
 63
     7
421
 16777215
 74
     0
 91
        0
 64
     7
 65
   257
 75
     1
175
     1
 42
1.0
 92
        0
 66
     7
 43
1.0
 76
     1
 77
     6
 78
     2
 67
     7
 79
     5
170
     0
171
     0
290
     0
174
     0
 93
       13
 44
0.0
173
     0
291
     1
 45
0.0
  0
VISUALSTYLE
  5
2E
102
{ACAD_REACTORS
330
2A
102
}
330
2A
100
AcDbVisualStyle
  2
GouraudWithEdges
 70
     3
 71
     2
 72
     2
 73
     1
 90
        2
 40
0.6
 41
30.0
 62
     5
 63
     7
421
 16777215
 74
     1
 91
        0
 64
     7
 65
   257
 75
     1
175
     1
 42
1.0
 92
        0
 66
   257
 43
1.0
 76
     1
 77
     6
 78
     2
 67
     7
 79
     5
170
     0
171
     0
290
     0
174
     0
 93
       13
 44
0.0
173
     0
291
     1
 45
0.0
  0
VISUALSTYLE
  5
31
102
{ACAD_REACTORS
330
2A
102
}
330
2A
100
AcDbVisualStyle
  2
Hidden
 70
     6
 71
     1
 72
     2
 73
     2
 90
        0
 40
0.6
 41
30.0
 62
     5
 63
     7
421
 16777215
 74
     2
 91
        2
 64
     7
 65
   257
 75
     2
175
     1
 42
40.0
 92
        0
 66
   257
 43
1.0
 76
     1
 77
     6
 78
     2
 67
     7
 79
     3
170
     0
171
     0
290
     0
174
     0
 93
        1
 44
0.0
173
     0
291
     0
 45
0.0
  0
VISUALSTYLE
  5
3B
102
{ACAD_REACTORS
330
2A
102
}
330
2A
100
AcDbVisualStyle
  2
JitterOff
 70
    20
 71
     2
 72
     2
 73
     0
 90
        0
 40
0.6
 41
30.0
 62
     5
 63
     7
421
 16777215
 74
     1
 91
        4
 64
     7
 65
   257
 75
     1
175
     1
 42
1.0
 92
       10
 66
     7
 43
1.0
 76
     1
 77
     6
 78
     2
 67
     7
 79
     5
170
     0
171
     0
290
     0
174
     0
 93
        1
 44
0.0
173
     0
291
     1
 45
0.0
  0
VISUALSTYLE
  5
38
102
{ACAD_REACTORS
330
2A
102
}
330
2A
100
AcDbVisualStyle
  2
Linepattern
 70
    14
 71
     2
 72
     2
 73
     0
 90
        0
 40
0.6
 41
30.0
 62
     5
 63
     7
421
 16777215
 74
     1
 91
        4
 64
     7
 65
   257
 75
     7
175
     7
 42
1.0
 92
        8
 66
     7
 43
1.0
 76
     1
 77
     6
 78
     2
 67
     7
 79
     5
170
     0
171
     0
290
     0
174
     0
 93
        1
 44
0.0
173
     0
291
     1
 45
0.0
  0
VISUALSTYLE
  5
3C
102
{ACAD_REACTORS
330
2A
102
}
330
2A
100
AcDbVisualStyle
  2
OverhangOff
 70
    21
 71
     2
 72
     2
 73
     0
 90
        0
 40
0.6
 41
30.0
 62
     5
 63
     7
421
 16777215
 74
     1
 91
        4
 64
     7
 65
   257
 75
     1
175
     1
 42
1.0
 92
        9
 66
     7
 43
1.0
 76
     1
 77
     6
 78
     2
 67
     7
 79
     5
170
     0
171
     0
290
     0
174
     0
 93
        1
 44
0.0
173
     0
291
     1
 45
0.0
  0
VISUALSTYLE
  5
33
102
{ACAD_REACTORS
330
2A
102
}
330
2A
100
AcDbVisualStyle
  2
Realistic
 70
     8
 71
     2
 72
     3
 73
     0
 90
        2
 40
0.6
 41
30.0
 62
     5
 63
     7
421
 16777215
 74
     0
 91
        0
 64
     7
 65
   257
 75
     1
175
     1
 42
1.0
 92
        8
 66
   257
 43
1.0
 76
     1
 77
     6
 78
     2
 67
     7
 79
     3
170
     0
171
     0
290
     0
174
     0
 93
       13
 44
0.0
173
     0
291
     0
 45
0.0
  0
VISUALSTYLE
  5
42
102
{ACAD_REACTORS
330
2A
102
}
330
2A
100
AcDbVisualStyle
  2
Shaded
 70
    27
 71
     2
 72
     2
 73
     1
 90
        2
 40
0.6
 41
30.0
 62
     5
 63
     7
421
 16777215
 74
     0
 91
        4
 64
     7
 65
   257
 75
     1
175
     1
 42
1.0
 92
        8
 66
   257
 43
1.0
 76
     1
 77
     6
 78
     2
 67
     8
425
  7895160
 79
     3
170
     0
171
     0
290
     0
174
     0
 93
        5
 44
0.0
173
     0
291
     0
 45
0.0
  0
VISUALSTYLE
  5
41
102
{ACAD_REACTORS
330
2A
102
}
330
2A
100
AcDbVisualStyle
  2
Shaded with edges
 70
    26
 71
     2
 72
     2
 73
     1
 90
        2
 40
0.6
 41
30.0
 62
     5
 63
     7
421
 16777215
 74
     1
 91
       10
 64
     7
 65
   257
 75
     2
175
     1
 42
1.0
 92
        8
 66
   257
 43
1.0
 76
     1
 77
     6
 78
     2
 67
     7
 79
     3
170
     0
171
     0
290
     0
174
     0
 93
        5
 44
0.0
173
     0
291
     0
 45
0.0
  0
VISUALSTYLE
  5
3E
102
{ACAD_REACTORS
330
2A
102
}
330
2A
100
AcDbVisualStyle
  2
Shades of Gray
 70
    23
 71
     2
 72
     2
 73
     3
 90
        0
 40
0.6
 41
30.0
 62
     5
 63
     7
421
 16777215
 74
     2
 91
        2
 64
     7
 65
     7
 75
     1
175
     1
 42
40.0
 92
        8
 66
     7
 43
1.0
 76
     1
 77
     6
 78
     2
 67
     7
 79
     3
170
     0
171
     0
290
     0
174
     0
 93
        1
 44
0.0
173
     0
291
     0
 45
0.0
  0
VISUALSTYLE
  5
3F
102
{ACAD_REACTORS
330
2A
102
}
330
2A
100
AcDbVisualStyle
  2
Sketchy
 70
    24
 71
     1
 72
     2
 73
     2
 90
        0
 40
0.6
 41
30.0
 62
     5
 63
     7
421
 16777215
 74
     2
 91
        2
 64
     7
 65
     7
 75
     1
175
     1
 42
40.0
 92
       11
 66
     7
 43
1.0
 76
     1
 77
     6
 78
     2
 67
     7
 79
     6
170
     0
171
     0
290
     0
174
     0
 93
        1
 44
0.0
173
     0
291
     0
 45
0.0
  0
VISUALSTYLE
  5
37
102
{ACAD_REACTORS
330
2A
102
}
330
2A
100
AcDbVisualStyle
  2
Thicken
 70
    13
 71
     2
 72
     2
 73
     0
 90
        0
 40
0.6
 41
30.0
 62
     5
 63
     7
421
 16777215
 74
     1
 91
        4
 64
     7
 65
   257
 75
     1
175
     1
 42
1.0
 92
       12
 66
     7
 43
1.0
 76
     1
 77
     6
 78
     2
 67
     7
 79
     5
170
     0
171
     0
290
     0
174
     0
 93
        1
 44
0.0
173
     0
291
     1
 45
0.0
  0
VISUALSTYLE
  5
30
102
{ACAD_REACTORS
330
2A
102
}
330
2A
100
AcDbVisualStyle
  2
Wireframe
 70
     5
 71
     0
 72
     2
 73
     0
 90
        0
 40
0.6
 41
30.0
 62
     5
 63
     7
421
 16777215
 74
     1
 91
        4
 64
     7
 65
   257
 75
     1
175
     1
 42
1.0
 92
        0
 66
   257
 43
1.0
 76
     1
 77
     6
 78
     2
 67
     7
 79
     3
170
     0
171
     0
290
     0
174
     0
 93
        1
 44
0.0
173
     0
291
     0
 45
0.0
  0
VISUALSTYLE
  5
40
102
{ACAD_REACTORS
330
2A
102
}
330
2A
100
AcDbVisualStyle
  2
X-Ray
 70
    25
 71
     2
 72
     2
 73
     1
 90
        1
 40
0.5
 41
30.0
 62
     5
 63
     7
421
 16777215
 74
     1
 91
        0
 64
     7
 65
   257
 75
     1
175
     1
 42
1.0
 92
        8
 66
     7
 43
1.0
 76
     1
 77
     6
 78
     2
 67
     7
 79
     3
170
     0
171
     0
290
     0
174
     0
 93
       13
 44
0.0
173
     0
291
     0
 45
0.0
  0
DICTIONARYVAR
  5
1C6
102
{ACAD_REACTORS
330
1C5
102
}
330
1C5
100
DictionaryVariables
280
     0
  1
1:1
  0
DICTIONARYVAR
  5
1CC
102
{ACAD_REACTORS
330
1C5
102
}
330
1C5
100
DictionaryVariables
280
     0
  1
Standard
  0
DICTIONARYVAR
  5
1CB
102
{ACAD_REACTORS
330
1C5
102
}
330
1C5
100
DictionaryVariables
280
     0
  1
Standard
  0
DICTIONARY
  5
1C7
330
6A
100
AcDbDictionary
280
     1
281
     1
  3
ACAD_ROUNDTRIP_2008_TABLESTYLE_CELLSTYLEMAP
360
1C8
  0
CELLSTYLEMAP
  5
1C8
102
{ACAD_REACTORS
330
1C7
102
}
330
1C7
100
AcDbCellStyleMap
 90
        3
300
CELLSTYLE
  1
TABLEFORMAT_BEGIN
 90
        5
170
     1
 91
        0
 92
    32768
 62
   257
 93
        1
300
CONTENTFORMAT
  1
CONTENTFORMAT_BEGIN
 90
        0
 91
        0
 92
        4
 93
        0
300

 40
0.0
140
1.0
 94
        5
 62
     0
340
11
144
6.0
309
CONTENTFORMAT_END
171
     1
301
MARGIN
  1
CELLMARGIN_BEGIN
 40
1.5
 40
1.5
 40
1.5
 40
1.5
 40
1.5
 40
1.5
309
CELLMARGIN_END
 94
        6
 95
        1
302
GRIDFORMAT
  1
GRIDFORMAT_BEGIN
 90
        0
 91
        1
 62
     0
 92
       -2
340
14
 93
        0
 40
0.045
309
GRIDFORMAT_END
 95
        2
302
GRIDFORMAT
  1
GRIDFORMAT_BEGIN
 90
        0
 91
        1
 62
     0
 92
       -2
340
14
 93
        0
 40
0.045
309
GRIDFORMAT_END
 95
        4
302
GRIDFORMAT
  1
GRIDFORMAT_BEGIN
 90
        0
 91
        1
 62
     0
 92
       -2
340
14
 93
        0
 40
0.045
309
GRIDFORMAT_END
 95
        8
302
GRIDFORMAT
  1
GRIDFORMAT_BEGIN
 90
        0
 91
        1
 62
     0
 92
       -2
340
14
 93
        0
 40
0.045
309
GRIDFORMAT_END
 95
       16
302
GRIDFORMAT
  1
GRIDFORMAT_BEGIN
 90
        0
 91
        1
 62
     0
 92
       -2
340
14
 93
        0
 40
0.045
309
GRIDFORMAT_END
 95
       32
302
GRIDFORMAT
  1
GRIDFORMAT_BEGIN
 90
        0
 91
        1
 62
     0
 92
       -2
340
14
 93
        0
 40
0.045
309
GRIDFORMAT_END
309
TABLEFORMAT_END
  1
CELLSTYLE_BEGIN
 90
        1
 91
        1
300
_TITLE
309
CELLSTYLE_END
300
CELLSTYLE
  1
TABLEFORMAT_BEGIN
 90
        5
170
     1
 91
        0
 92
        0
 62
   257
 93
        1
300
CONTENTFORMAT
  1
CONTENTFORMAT_BEGIN
 90
        0
 91
        0
 92
        4
 93
        0
300

 40
0.0
140
1.0
 94
        5
 62
     0
340
11
144
4.5
309
CONTENTFORMAT_END
171
     1
301
MARGIN
  1
CELLMARGIN_BEGIN
 40
1.5
 40
1.5
 40
1.5
 40
1.5
 40
1.5
 40
1.5
309
CELLMARGIN_END
 94
        6
 95
        1
302
GRIDFORMAT
  1
GRIDFORMAT_BEGIN
 90
        0
 91
        1
 62
     0
 92
       -2
340
14
 93
        0
 40
0.045
309
GRIDFORMAT_END
 95
        2
302
GRIDFORMAT
  1
GRIDFORMAT_BEGIN
 90
        0
 91
        1
 62
     0
 92
       -2
340
14
 93
        0
 40
0.045
309
GRIDFORMAT_END
 95
        4
302
GRIDFORMAT
  1
GRIDFORMAT_BEGIN
 90
        0
 91
        1
 62
     0
 92
       -2
340
14
 93
        0
 40
0.045
309
GRIDFORMAT_END
 95
        8
302
GRIDFORMAT
  1
GRIDFORMAT_BEGIN
 90
        0
 91
        1
 62
     0
 92
       -2
340
14
 93
        0
 40
0.045
309
GRIDFORMAT_END
 95
       16
302
GRIDFORMAT
  1
GRIDFORMAT_BEGIN
 90
        0
 91
        1
 62
     0
 92
       -2
340
14
 93
        0
 40
0.045
309
GRIDFORMAT_END
 95
       32
302
GRIDFORMAT
  1
GRIDFORMAT_BEGIN
 90
        0
 91
        1
 62
     0
 92
       -2
340
14
 93
        0
 40
0.045
309
GRIDFORMAT_END
309
TABLEFORMAT_END
  1
CELLSTYLE_BEGIN
 90
        2
 91
        1
300
_HEADER
309
CELLSTYLE_END
300
CELLSTYLE
  1
TABLEFORMAT_BEGIN
 90
        5
170
     1
 91
        0
 92
        0
 62
   257
 93
        1
300
CONTENTFORMAT
  1
CONTENTFORMAT_BEGIN
 90
        0
 91
        0
 92
        4
 93
        0
300

 40
0.0
140
1.0
 94
        2
 62
     0
340
11
144
4.5
309
CONTENTFORMAT_END
171
     1
301
MARGIN
  1
CELLMARGIN_BEGIN
 40
1.5
 40
1.5
 40
1.5
 40
1.5
 40
1.5
 40
1.5
309
CELLMARGIN_END
 94
        6
 95
        1
302
GRIDFORMAT
  1
GRIDFORMAT_BEGIN
 90
        0
 91
        1
 62
     0
 92
       -2
340
14
 93
        0
 40
0.045
309
GRIDFORMAT_END
 95
        2
302
GRIDFORMAT
  1
GRIDFORMAT_BEGIN
 90
        0
 91
        1
 62
     0
 92
       -2
340
14
 93
        0
 40
0.045
309
GRIDFORMAT_END
 95
        4
302
GRIDFORMAT
  1
GRIDFORMAT_BEGIN
 90
        0
 91
        1
 62
     0
 92
       -2
340
14
 93
        0
 40
0.045
309
GRIDFORMAT_END
 95
        8
302
GRIDFORMAT
  1
GRIDFORMAT_BEGIN
 90
        0
 91
        1
 62
     0
 92
       -2
340
14
 93
        0
 40
0.045
309
GRIDFORMAT_END
 95
       16
302
GRIDFORMAT
  1
GRIDFORMAT_BEGIN
 90
        0
 91
        1
 62
     0
 92
       -2
340
14
 93
        0
 40
0.045
309
GRIDFORMAT_END
 95
       32
302
GRIDFORMAT
  1
GRIDFORMAT_BEGIN
 90
        0
 91
        1
 62
     0
 92
       -2
340
14
 93
        0
 40
0.045
309
GRIDFORMAT_END
309
TABLEFORMAT_END
  1
CELLSTYLE_BEGIN
 90
        3
 91
        2
300
_DATA
309
CELLSTYLE_END
  0
ENDSEC
  0
EOF
