  0
SECTION
  2
HEADER
  9
$ACADVER
  1
AC1032
  9
$ACADMAINTVER
 90
       55
  9
$DWGCODEPAGE
  3
ANSI_1252
  9
$LASTSAVEDBY
  1
tecnico33
  9
$REQUIREDVERSIONS
160
                 0
  9
$INSBASE
 10
0.0
 20
0.0
 30
0.0
  9
$EXTMIN
 10
-0.300662577614446
 20
0.1171430263595141
 30
0.0
  9
$EXTMAX
 10
466.4460251694213
 20
680.2666607310605
 30
0.0
  9
$LIMMIN
 10
0.0
 20
0.0
  9
$LIMMAX
 10
420.0
 20
297.0
  9
$ORTHOMODE
 70
     0
  9
$REGENMODE
 70
     1
  9
$FILLMODE
 70
     1
  9
$QTEXTMODE
 70
     0
  9
$MIRRTEXT
 70
     0
  9
$LTSCALE
 40
1.0
  9
$ATTMODE
 70
     1
  9
$TEXTSIZE
 40
2.5
  9
$TRACEWID
 40
1.0
  9
$TEXTSTYLE
  7
Standard
  9
$CLAYER
  8
COTAS
  9
$CELTYPE
  6
ByLayer
  9
$CECOLOR
 62
   256
  9
$CELTSCALE
 40
1.0
  9
$DISPSILH
 70
     0
  9
$DIMSCALE
 40
1.0
  9
$DIMASZ
 40
2.5
  9
$DIMEXO
 40
0.625
  9
$DIMDLI
 40
3.75
  9
$DIMRND
 40
0.0
  9
$DIMDLE
 40
0.0
  9
$DIMEXE
 40
1.25
  9
$DIMTP
 40
0.0
  9
$DIMTM
 40
0.0
  9
$DIMTXT
 40
2.5
  9
$DIMCEN
 40
-2.5
  9
$DIMTSZ
 40
0.0
  9
$DIMTOL
 70
     0
  9
$DIMLIM
 70
     0
  9
$DIMTIH
 70
     0
  9
$DIMTOH
 70
     0
  9
$DIMSE1
 70
     0
  9
$DIMSE2
 70
     0
  9
$DIMTAD
 70
     1
  9
$DIMZIN
 70
     8
  9
$DIMBLK
  1

  9
$DIMASO
 70
     1
  9
$DIMSHO
 70
     1
  9
$DIMPOST
  1

  9
$DIMAPOST
  1

  9
$DIMALT
 70
     0
  9
$DIMALTD
 70
     3
  9
$DIMALTF
 40
0.03937007874016
  9
$DIMLFAC
 40
1.0
  9
$DIMTOFL
 70
     1
  9
$DIMTVP
 40
0.0
  9
$DIMTIX
 70
     0
  9
$DIMSOXD
 70
     0
  9
$DIMSAH
 70
     0
  9
$DIMBLK1
  1

  9
$DIMBLK2
  1

  9
$DIMSTYLE
  2
ISO-25
  9
$DIMCLRD
 70
     0
  9
$DIMCLRE
 70
     0
  9
$DIMCLRT
 70
     0
  9
$DIMTFAC
 40
1.0
  9
$DIMGAP
 40
0.625
  9
$DIMJUST
 70
     0
  9
$DIMSD1
 70
     0
  9
$DIMSD2
 70
     0
  9
$DIMTOLJ
 70
     0
  9
$DIMTZIN
 70
     8
  9
$DIMALTZ
 70
     0
  9
$DIMALTTZ
 70
     0
  9
$DIMUPT
 70
     0
  9
$DIMDEC
 70
     2
  9
$DIMTDEC
 70
     2
  9
$DIMALTU
 70
     2
  9
$DIMALTTD
 70
     3
  9
$DIMTXSTY
  7
Standard
  9
$DIMAUNIT
 70
     0
  9
$DIMADEC
 70
     0
  9
$DIMALTRND
 40
0.0
  9
$DIMAZIN
 70
     0
  9
$DIMDSEP
 70
    44
  9
$DIMATFIT
 70
     3
  9
$DIMFRAC
 70
     0
  9
$DIMLDRBLK
  1

  9
$DIMLUNIT
 70
     2
  9
$DIMLWD
 70
    -2
  9
$DIMLWE
 70
    -2
  9
$DIMTMOVE
 70
     0
  9
$DIMFXL
 40
1.0
  9
$DIMFXLON
 70
     0
  9
$DIMJOGANG
 40
0.7853981633974483
  9
$DIMTFILL
 70
     0
  9
$DIMTFILLCLR
 70
     0
  9
$DIMARCSYM
 70
     0
  9
$DIMLTYPE
  6

  9
$DIMLTEX1
  6

  9
$DIMLTEX2
  6

  9
$DIMTXTDIRECTION
 70
     0
  9
$LUNITS
 70
     2
  9
$LUPREC
 70
     3
  9
$SKETCHINC
 40
1.0
  9
$FILLETRAD
 40
10.0
  9
$AUNITS
 70
     0
  9
$AUPREC
 70
     0
  9
$MENU
  1
.
  9
$ELEVATION
 40
0.0
  9
$PELEVATION
 40
0.0
  9
$THICKNESS
 40
0.0
  9
$LIMCHECK
 70
     0
  9
$CHAMFERA
 40
10.0
  9
$CHAMFERB
 40
10.0
  9
$CHAMFERC
 40
20.0
  9
$CHAMFERD
 40
0.0
  9
$SKPOLY
 70
     0
  9
$TDCREATE
 40
2455022.720692848
  9
$TDUCREATE
 40
2455022.637359514
  9
$TDUPDATE
 40
2460916.326507153
  9
$TDUUPDATE
 40
2460916.24317382
  9
$TDINDWG
 40
0.0255517824
  9
$TDUSRTIMER
 40
0.0009638773
  9
$USRTIMER
 70
     1
  9
$ANGBASE
 50
0.0
  9
$ANGDIR
 70
     0
  9
$PDMODE
 70
     0
  9
$PDSIZE
 40
0.0
  9
$PLINEWID
 40
0.0
  9
$SPLFRAME
 70
     0
  9
$SPLINETYPE
 70
     6
  9
$SPLINESEGS
 70
     8
  9
$HANDSEED
  5
1093
  9
$SURFTAB1
 70
     6
  9
$SURFTAB2
 70
     6
  9
$SURFTYPE
 70
     6
  9
$SURFU
 70
     6
  9
$SURFV
 70
     6
  9
$UCSBASE
  2

  9
$UCSNAME
  2

  9
$UCSORG
 10
0.0
 20
0.0
 30
0.0
  9
$UCSXDIR
 10
1.0
 20
0.0
 30
0.0
  9
$UCSYDIR
 10
0.0
 20
1.0
 30
0.0
  9
$UCSORTHOREF
  2

  9
$UCSORTHOVIEW
 70
     0
  9
$UCSORGTOP
 10
0.0
 20
0.0
 30
0.0
  9
$UCSORGBOTTOM
 10
0.0
 20
0.0
 30
0.0
  9
$UCSORGLEFT
 10
0.0
 20
0.0
 30
0.0
  9
$UCSORGRIGHT
 10
0.0
 20
0.0
 30
0.0
  9
$UCSORGFRONT
 10
0.0
 20
0.0
 30
0.0
  9
$UCSORGBACK
 10
0.0
 20
0.0
 30
0.0
  9
$PUCSBASE
  2

  9
$PUCSNAME
  2

  9
$PUCSORG
 10
0.0
 20
0.0
 30
0.0
  9
$PUCSXDIR
 10
1.0
 20
0.0
 30
0.0
  9
$PUCSYDIR
 10
0.0
 20
1.0
 30
0.0
  9
$PUCSORTHOREF
  2

  9
$PUCSORTHOVIEW
 70
     0
  9
$PUCSORGTOP
 10
0.0
 20
0.0
 30
0.0
  9
$PUCSORGBOTTOM
 10
0.0
 20
0.0
 30
0.0
  9
$PUCSORGLEFT
 10
0.0
 20
0.0
 30
0.0
  9
$PUCSORGRIGHT
 10
0.0
 20
0.0
 30
0.0
  9
$PUCSORGFRONT
 10
0.0
 20
0.0
 30
0.0
  9
$PUCSORGBACK
 10
0.0
 20
0.0
 30
0.0
  9
$USERI1
 70
     0
  9
$USERI2
 70
     0
  9
$USERI3
 70
     0
  9
$USERI4
 70
     0
  9
$USERI5
 70
     0
  9
$USERR1
 40
0.0
  9
$USERR2
 40
0.0
  9
$USERR3
 40
0.0
  9
$USERR4
 40
0.0
  9
$USERR5
 40
0.0
  9
$WORLDVIEW
 70
     1
  9
$SHADEDGE
 70
     3
  9
$SHADEDIF
 70
    70
  9
$TILEMODE
 70
     1
  9
$MAXACTVP
 70
    64
  9
$PINSBASE
 10
0.0
 20
0.0
 30
0.0
  9
$PLIMCHECK
 70
     0
  9
$PEXTMIN
 10
1.000000000000000E+20
 20
1.000000000000000E+20
 30
1.000000000000000E+20
  9
$PEXTMAX
 10
-1.000000000000000E+20
 20
-1.000000000000000E+20
 30
-1.000000000000000E+20
  9
$PLIMMIN
 10
0.0
 20
0.0
  9
$PLIMMAX
 10
0.0
 20
0.0
  9
$UNITMODE
 70
     0
  9
$VISRETAIN
 70
     1
  9
$PLINEGEN
 70
     0
  9
$PSLTSCALE
 70
     1
  9
$TREEDEPTH
 70
  3020
  9
$CMLSTYLE
  2
Standard
  9
$CMLJUST
 70
     0
  9
$CMLSCALE
 40
20.0
  9
$PROXYGRAPHICS
 70
     1
  9
$MEASUREMENT
 70
     1
  9
$CELWEIGHT
370
    -1
  9
$ENDCAPS
280
     0
  9
$JOINSTYLE
280
     0
  9
$LWDISPLAY
290
     0
  9
$INSUNITS
 70
     4
  9
$HYPERLINKBASE
  1

  9
$STYLESHEET
  1

  9
$XEDIT
290
     1
  9
$CEPSNTYPE
380
     0
  9
$PSTYLEMODE
290
     1
  9
$FINGERPRINTGUID
  2
{EC6BB858-51AA-46EC-B484-6C9CC7AB3E2E}
  9
$VERSIONGUID
  2
{FAEB1C32-E019-11D5-929B-00C0DF256EC4}
  9
$EXTNAMES
290
     1
  9
$PSVPSCALE
 40
0.0
  9
$OLESTARTUP
290
     0
  9
$SORTENTS
280
   127
  9
$INDEXCTL
280
     0
  9
$HIDETEXT
280
     1
  9
$XCLIPFRAME
280
     0
  9
$HALOGAP
280
     0
  9
$OBSCOLOR
 70
   257
  9
$OBSLTYPE
280
     0
  9
$INTERSECTIONDISPLAY
280
     0
  9
$INTERSECTIONCOLOR
 70
   257
  9
$DIMASSOC
280
     2
  9
$PROJECTNAME
  1

  9
$CAMERADISPLAY
290
     0
  9
$LENSLENGTH
 40
50.0
  9
$CAMERAHEIGHT
 40
0.0
  9
$STEPSPERSEC
 40
2.0
  9
$STEPSIZE
 40
6.0
  9
$3DDWFPREC
 40
2.0
  9
$PSOLWIDTH
 40
5.0
  9
$PSOLHEIGHT
 40
80.0
  9
$LOFTANG1
 40
1.570796326794897
  9
$LOFTANG2
 40
1.570796326794897
  9
$LOFTMAG1
 40
0.0
  9
$LOFTMAG2
 40
0.0
  9
$LOFTPARAM
 70
     7
  9
$LOFTNORMALS
280
     1
  9
$LATITUDE
 40
37.795
  9
$LONGITUDE
 40
-122.394
  9
$NORTHDIRECTION
 40
0.0
  9
$TIMEZONE
 70
 -8000
  9
$LIGHTGLYPHDISPLAY
280
     1
  9
$TILEMODELIGHTSYNCH
280
     1
  9
$CMATERIAL
347
73
  9
$SOLIDHIST
280
     1
  9
$SHOWHIST
280
     1
  9
$DWFFRAME
280
     2
  9
$DGNFRAME
280
     2
  9
$REALWORLDSCALE
290
     1
  9
$INTERFERECOLOR
 62
   256
  9
$CSHADOW
280
     0
  9
$SHADOWPLANELOCATION
 40
0.0
  0
ENDSEC
  0
SECTION
  2
CLASSES
  0
CLASS
  1
ACDBDICTIONARYWDFLT
  2
AcDbDictionaryWithDefault
  3
ObjectDBX Classes
 90
        0
 91
        3
280
     0
281
     0
  0
CLASS
  1
VISUALSTYLE
  2
AcDbVisualStyle
  3
ObjectDBX Classes
 90
     4095
 91
        3
280
     0
281
     0
  0
CLASS
  1
TABLESTYLE
  2
AcDbTableStyle
  3
ObjectDBX Classes
 90
     4095
 91
        3
280
     0
281
     0
  0
CLASS
  1
DICTIONARYVAR
  2
AcDbDictionaryVar
  3
ObjectDBX Classes
 90
        0
 91
        3
280
     0
281
     0
  0
CLASS
  1
SCALE
  2
AcDbScale
  3
ObjectDBX Classes
 90
     1153
 91
        3
280
     0
281
     0
  0
CLASS
  1
CELLSTYLEMAP
  2
AcDbCellStyleMap
  3
ObjectDBX Classes
 90
     1152
 91
        3
280
     0
281
     0
  0
CLASS
  1
RASTERVARIABLES
  2
AcDbRasterVariables
  3
ISM
 90
        0
 91
        3
280
     0
281
     0
  0
CLASS
  1
MATERIAL
  2
AcDbMaterial
  3
ObjectDBX Classes
 90
     1153
 91
        3
280
     0
281
     0
  0
CLASS
  1
SUN
  2
AcDbSun
  3
SCENEOE
 90
     1153
 91
        3
280
     0
281
     0
  0
CLASS
  1
MLEADERSTYLE
  2
AcDbMLeaderStyle
  3
ACDB_MLEADERSTYLE_CLASS
 90
     4095
 91
        3
280
     0
281
     0
  0
CLASS
  1
SORTENTSTABLE
  2
AcDbSortentsTable
  3
ObjectDBX Classes
 90
        0
 91
        3
280
     0
281
     0
  0
CLASS
  1
DIMASSOC
  2
AcDbDimAssoc
  3
"AcDbDimAssoc|Product Desc:     AcDim ARX App For Dimension|Company:          Autodesk, Inc.|WEB Address:      www.autodesk.com"
 90
        0
 91
        3
280
     0
281
     0
  0
ENDSEC
  0
SECTION
  2
TABLES
  0
TABLE
  2
VPORT
  5
8
330
0
100
AcDbSymbolTable
 70
     1
  0
VPORT
  5
29
330
8
100
AcDbSymbolTableRecord
100
AcDbViewportTableRecord
  2
*Active
 70
     0
 10
0.0
 20
0.0
 11
1.0
 21
1.0
 12
344.2955810724336
 22
310.3313495540338
 13
0.0
 23
0.0
 14
10.0
 24
10.0
 15
10.0
 25
10.0
 16
0.0
 26
0.0
 36
1.0
 17
-134.186915887851
 27
0.0
 37
0.0
 40
667.4422369071132
 41
1.982213438735178
 42
50.0
 43
0.0
 44
0.0
 50
0.0
 51
0.0
 71
    16
 72
  1000
 73
     1
 74
     3
 75
     0
 76
     0
 77
     0
 78
     0
281
     0
 65
     1
110
0.0
120
0.0
130
0.0
111
1.0
121
0.0
131
0.0
112
0.0
122
1.0
132
0.0
 79
     0
146
0.0
348
2F
 60
     3
 61
     5
292
     1
282
     1
141
0.0
142
0.0
 63
   250
421
  3355443
361
80
  0
ENDTAB
  0
TABLE
  2
LTYPE
  5
5
330
0
100
AcDbSymbolTable
 70
     1
  0
LTYPE
  5
14
330
5
100
AcDbSymbolTableRecord
100
AcDbLinetypeTableRecord
  2
ByBlock
 70
     0
  3

 72
    65
 73
     0
 40
0.0
  0
LTYPE
  5
15
330
5
100
AcDbSymbolTableRecord
100
AcDbLinetypeTableRecord
  2
ByLayer
 70
     0
  3

 72
    65
 73
     0
 40
0.0
  0
LTYPE
  5
16
330
5
100
AcDbSymbolTableRecord
100
AcDbLinetypeTableRecord
  2
Continuous
 70
     0
  3
Solid line
 72
    65
 73
     0
 40
0.0
  0
ENDTAB
  0
TABLE
  2
LAYER
  5
2
102
{ACAD_XDICTIONARY
360
1E5
102
}
330
0
100
AcDbSymbolTable
 70
     7
  0
LAYER
  5
10
330
2
100
AcDbSymbolTableRecord
100
AcDbLayerTableRecord
  2
0
 70
     0
 62
     7
  6
Continuous
370
    -3
390
F
347
75
348
0
  0
LAYER
  5
BF
330
2
100
AcDbSymbolTableRecord
100
AcDbLayerTableRecord
  2
COTAS
 70
     0
 62
   250
  6
Continuous
370
    -3
390
F
347
75
348
0
  0
LAYER
  5
C1
330
2
100
AcDbSymbolTableRecord
100
AcDbLayerTableRecord
  2
TEXTO
 70
     0
 62
   251
  6
Continuous
370
    -3
390
F
347
75
348
0
  0
LAYER
  5
C2
330
2
100
AcDbSymbolTableRecord
100
AcDbLayerTableRecord
  2
CAJETIN
 70
     0
 62
   253
  6
Continuous
370
    -3
390
F
347
75
348
0
1001
AcAecLayerStandard
1000

1000

  0
LAYER
  5
C4
330
2
100
AcDbSymbolTableRecord
100
AcDbLayerTableRecord
  2
Capa 1
 70
     0
 62
     7
  6
Continuous
370
    -3
390
F
347
75
348
0
  0
LAYER
  5
387
330
2
100
AcDbSymbolTableRecord
100
AcDbLayerTableRecord
  2
Defpoints
 70
     0
 62
     7
  6
Continuous
290
     0
370
    -3
390
F
347
75
348
0
  0
LAYER
  5
77B
330
2
100
AcDbSymbolTableRecord
100
AcDbLayerTableRecord
  2
LINEAS
 70
     0
 62
     7
  6
Continuous
370
    -3
390
F
347
75
348
0
  0
ENDTAB
  0
TABLE
  2
STYLE
  5
3
330
0
100
AcDbSymbolTable
 70
     6
  0
STYLE
  5
11
330
3
100
AcDbSymbolTableRecord
100
AcDbTextStyleTableRecord
  2
Standard
 70
     0
 40
0.0
 41
1.0
 50
0.0
 71
     0
 42
2.5
  3
arial.ttf
  4

1001
ACAD
1000
Arial
1071
        0
  0
STYLE
  5
B8
330
3
100
AcDbSymbolTableRecord
100
AcDbTextStyleTableRecord
  2
Annotative
 70
     0
 40
0.0
 41
1.0
 50
0.0
 71
     0
 42
2.5
  3
arial.ttf
  4

1001
ACAD
1000
Arial
1071
        0
1001
AcadAnnotative
1000
AnnotativeData
1002
{
1070
     1
1070
     1
1002
}
  0
STYLE
  5
C8
330
3
100
AcDbSymbolTableRecord
100
AcDbTextStyleTableRecord
  2
SLDTEXTSTYLE0
 70
     0
 40
0.0
 41
0.605
 50
0.0
 71
     0
 42
2.5
  3
TXT
  4

  0
STYLE
  5
CA
330
3
100
AcDbSymbolTableRecord
100
AcDbTextStyleTableRecord
  2
ISOV
 70
     0
 40
0.0
 41
1.0
 50
0.0
 71
     0
 42
2.5
  3
isocp.shx
  4

  0
STYLE
  5
CD
330
3
100
AcDbSymbolTableRecord
100
AcDbTextStyleTableRecord
  2
SLDTEXTSTYLE1
 70
     0
 40
0.0
 41
0.605
 50
0.0
 71
     0
 42
2.5
  3
TXT
  4

  0
STYLE
  5
D0
330
3
100
AcDbSymbolTableRecord
100
AcDbTextStyleTableRecord
  2
ARIAL
 70
     0
 40
3.0
 41
1.0
 50
0.0
 71
     0
 42
2.5
  3
arial.ttf
  4

1001
ACAD
1000
Arial
1071
        0
  0
ENDTAB
  0
TABLE
  2
VIEW
  5
6
330
0
100
AcDbSymbolTable
 70
     0
  0
ENDTAB
  0
TABLE
  2
UCS
  5
7
330
0
100
AcDbSymbolTable
 70
     0
  0
ENDTAB
  0
TABLE
  2
APPID
  5
9
330
0
100
AcDbSymbolTable
 70
     6
  0
APPID
  5
12
330
9
100
AcDbSymbolTableRecord
100
AcDbRegAppTableRecord
  2
ACAD
 70
     0
  0
APPID
  5
B9
330
9
100
AcDbSymbolTableRecord
100
AcDbRegAppTableRecord
  2
AcadAnnotative
 70
     0
  0
APPID
  5
C3
330
9
100
AcDbSymbolTableRecord
100
AcDbRegAppTableRecord
  2
AcAecLayerStandard
 70
     0
  0
APPID
  5
CE
330
9
100
AcDbSymbolTableRecord
100
AcDbRegAppTableRecord
  2
GradientColor1ACI
 70
     0
  0
APPID
  5
CF
330
9
100
AcDbSymbolTableRecord
100
AcDbRegAppTableRecord
  2
GradientColor2ACI
 70
     0
  0
APPID
  5
785
330
9
100
AcDbSymbolTableRecord
100
AcDbRegAppTableRecord
  2
HATCHBACKGROUNDCOLOR
 70
     0
  0
ENDTAB
  0
TABLE
  2
DIMSTYLE
  5
A
330
0
100
AcDbSymbolTable
 70
     6
100
AcDbDimStyleTable
  0
DIMSTYLE
105
27
102
{ACAD_REACTORS
330
388
330
104F
330
105E
330
106D
330
107D
102
}
330
A
100
AcDbSymbolTableRecord
100
AcDbDimStyleTableRecord
  2
ISO-25
 70
     0
 41
2.5
 42
0.625
 43
3.75
 44
1.25
 73
     0
 74
     0
 77
     1
 78
     8
140
2.5
141
-2.5
143
0.03937007874016
147
0.625
171
     3
172
     1
178
     0
271
     2
272
     2
274
     3
278
    44
283
     0
284
     8
340
11
  0
DIMSTYLE
105
BA
330
A
100
AcDbSymbolTableRecord
100
AcDbDimStyleTableRecord
  2
Annotative
 70
     0
 40
0.0
 41
2.5
 42
0.625
 43
3.75
 44
1.25
 73
     0
 74
     0
 77
     1
 78
     8
140
2.5
141
-2.5
143
0.03937007874016
147
0.625
171
     3
172
     1
178
     0
271
     2
272
     2
274
     3
278
    44
283
     0
284
     8
340
11
1001
AcadAnnotative
1000
AnnotativeData
1002
{
1070
     1
1070
     1
1002
}
  0
DIMSTYLE
105
C7
330
A
100
AcDbSymbolTableRecord
100
AcDbDimStyleTableRecord
  2
SLDDIMSTYLE0
 70
     0
 41
2.8
 44
0.0
 45
0.000000001
 73
     0
 74
     0
 77
     1
 78
    12
 79
     3
140
2.3114868164
147
0.5778717041
173
     1
178
     0
271
     0
272
     0
276
     2
284
    12
340
C8
  0
DIMSTYLE
105
C9
330
A
100
AcDbSymbolTableRecord
100
AcDbDimStyleTableRecord
  2
3_1
 70
     0
 41
2.5
 42
0.0
 43
3.75
 44
1.25
 73
     0
 74
     0
 77
     1
 78
     8
140
2.5
141
2.5
143
0.03937007874016
144
0.333333333
147
0.625
171
     3
172
     1
178
     0
271
     2
272
     2
274
     3
278
    44
283
     0
284
     8
340
CA
  0
DIMSTYLE
105
CB
330
A
100
AcDbSymbolTableRecord
100
AcDbDimStyleTableRecord
  2
SLDDIMSTYLE1
 70
     0
 41
2.8
 44
0.0
 45
0.000000001
 73
     0
 74
     0
 77
     1
 78
    12
 79
     3
140
2.31148681640625
147
0.5778717041015625
173
     1
178
     0
271
     0
272
     2
276
     2
284
    12
340
C8
  0
DIMSTYLE
105
CC
330
A
100
AcDbSymbolTableRecord
100
AcDbDimStyleTableRecord
  2
SLDDIMSTYLE2
 70
     0
 41
2.8
 44
0.0
 45
0.000000001
 73
     0
 74
     0
 77
     1
 78
    12
 79
     3
140
2.3114868164
141
0.0
147
0.5778717041
172
     1
173
     1
178
     0
271
     1
272
     1
276
     2
284
    12
340
CD
  0
ENDTAB
  0
TABLE
  2
BLOCK_RECORD
  5
1
330
0
100
AcDbSymbolTable
 70
    12
  0
BLOCK_RECORD
  5
1F
102
{ACAD_XDICTIONARY
360
BEB
102
}
330
1
100
AcDbSymbolTableRecord
100
AcDbBlockTableRecord
  2
*Model_Space
340
22
 70
     0
280
     1
281
     0
  0
BLOCK_RECORD
  5
1B
330
1
100
AcDbSymbolTableRecord
100
AcDbBlockTableRecord
  2
*Paper_Space
340
1E
 70
     0
280
     1
281
     0
  0
BLOCK_RECORD
  5
23
330
1
100
AcDbSymbolTableRecord
100
AcDbBlockTableRecord
  2
*Paper_Space0
340
26
 70
     0
280
     1
281
     0
  0
BLOCK_RECORD
  5
38B
330
1
100
AcDbSymbolTableRecord
100
AcDbBlockTableRecord
  2
*D3
340
0
 70
     0
280
     1
281
     0
  0
BLOCK_RECORD
  5
980
330
1
100
AcDbSymbolTableRecord
100
AcDbBlockTableRecord
  2
SW_HATCH_0
340
0
 70
     0
280
     1
281
     0
  0
BLOCK_RECORD
  5
992
330
1
100
AcDbSymbolTableRecord
100
AcDbBlockTableRecord
  2
SW_HATCH_1
340
0
 70
     0
280
     1
281
     0
  0
BLOCK_RECORD
  5
9A4
330
1
100
AcDbSymbolTableRecord
100
AcDbBlockTableRecord
  2
_D
340
0
 70
     0
280
     1
281
     0
  0
BLOCK_RECORD
  5
9B0
330
1
100
AcDbSymbolTableRecord
100
AcDbBlockTableRecord
  2
_D_1
340
0
 70
     0
280
     1
281
     0
  0
BLOCK_RECORD
  5
9BA
330
1
100
AcDbSymbolTableRecord
100
AcDbBlockTableRecord
  2
_D_2
340
0
 70
     0
280
     1
281
     0
  0
BLOCK_RECORD
  5
9C4
330
1
100
AcDbSymbolTableRecord
100
AcDbBlockTableRecord
  2
_D_3
340
0
 70
     0
280
     1
281
     0
  0
BLOCK_RECORD
  5
1052
330
1
100
AcDbSymbolTableRecord
100
AcDbBlockTableRecord
  2
*D24
340
0
 70
     0
280
     1
281
     0
  0
BLOCK_RECORD
  5
1061
330
1
100
AcDbSymbolTableRecord
100
AcDbBlockTableRecord
  2
*D25
340
0
 70
     0
280
     1
281
     0
  0
BLOCK_RECORD
  5
1070
330
1
100
AcDbSymbolTableRecord
100
AcDbBlockTableRecord
  2
*D26
340
0
 70
     0
280
     1
281
     0
  0
BLOCK_RECORD
  5
1080
330
1
100
AcDbSymbolTableRecord
100
AcDbBlockTableRecord
  2
*D27
340
0
 70
     0
280
     1
281
     0
  0
ENDTAB
  0
ENDSEC
  0
SECTION
  2
BLOCKS
  0
BLOCK
  5
20
330
1F
100
AcDbEntity
  8
0
100
AcDbBlockBegin
  2
*Model_Space
 70
     0
 10
0.0
 20
0.0
 30
0.0
  3
*Model_Space
  1

  0
ENDBLK
  5
21
330
1F
100
AcDbEntity
  8
0
100
AcDbBlockEnd
  0
BLOCK
  5
1C
330
1B
100
AcDbEntity
 67
     1
  8
0
100
AcDbBlockBegin
  2
*Paper_Space
 70
     0
 10
0.0
 20
0.0
 30
0.0
  3
*Paper_Space
  1

  0
ENDBLK
  5
1D
330
1B
100
AcDbEntity
 67
     1
  8
0
100
AcDbBlockEnd
  0
BLOCK
  5
24
330
23
100
AcDbEntity
  8
0
100
AcDbBlockBegin
  2
*Paper_Space0
 70
     0
 10
0.0
 20
0.0
 30
0.0
  3
*Paper_Space0
  1

  0
ENDBLK
  5
25
330
23
100
AcDbEntity
  8
0
100
AcDbBlockEnd
  0
BLOCK
  5
38C
330
38B
100
AcDbEntity
  8
0
100
AcDbBlockBegin
  2
*D3
 70
     1
 10
0.0
 20
0.0
 30
0.0
  3
*D3
  1

  0
LINE
  5
38E
330
38B
100
AcDbEntity
  8
COTAS
 62
     0
370
    -2
100
AcDbLine
 10
132.5380932471637
 20
119.6813166988456
 30
0.0
 11
132.5380932471637
 21
75.23179496857401
 31
0.0
  0
LINE
  5
38F
330
38B
100
AcDbEntity
  8
COTAS
 62
     0
370
    -2
100
AcDbLine
 10
332.5380932471637
 20
119.6813166988456
 30
0.0
 11
332.5380932471637
 21
75.23179496857401
 31
0.0
  0
LINE
  5
390
330
38B
100
AcDbEntity
  8
COTAS
 62
     0
370
    -2
100
AcDbLine
 10
135.0380932471637
 20
76.48179496857401
 30
0.0
 11
330.0380932471637
 21
76.48179496857401
 31
0.0
  0
SOLID
  5
391
330
38B
100
AcDbEntity
  8
COTAS
 62
     0
100
AcDbTrace
 10
135.0380932471637
 20
76.89846163524068
 30
0.0
 11
135.0380932471637
 21
76.06512830190734
 31
0.0
 12
132.5380932471637
 22
76.48179496857401
 32
0.0
 13
132.5380932471637
 23
76.48179496857401
 33
0.0
  0
SOLID
  5
392
330
38B
100
AcDbEntity
  8
COTAS
 62
     0
100
AcDbTrace
 10
330.0380932471637
 20
76.06512830190734
 30
0.0
 11
330.0380932471637
 21
76.89846163524068
 31
0.0
 12
332.5380932471637
 22
76.48179496857401
 32
0.0
 13
332.5380932471637
 23
76.48179496857401
 33
0.0
  0
MTEXT
  5
393
330
38B
100
AcDbEntity
  8
COTAS
 62
     0
100
AcDbMText
 10
232.5380932471637
 20
78.451794968574
 30
0.0
 40
2.5
 41
0.0
 46
0.0
 71
     5
 72
     1
  1
%%C 200
 73
     1
 44
1.0
  0
POINT
  5
394
330
38B
100
AcDbEntity
  8
Defpoints
 62
     0
100
AcDbPoint
 10
132.5380932471637
 20
120.3063166988456
 30
0.0
  0
POINT
  5
395
330
38B
100
AcDbEntity
  8
Defpoints
 62
     0
100
AcDbPoint
 10
332.5380932471637
 20
120.3063166988456
 30
0.0
  0
POINT
  5
396
330
38B
100
AcDbEntity
  8
Defpoints
 62
     0
100
AcDbPoint
 10
332.5380932471637
 20
76.48179496857401
 30
0.0
  0
ENDBLK
  5
38D
330
38B
100
AcDbEntity
  8
0
100
AcDbBlockEnd
  0
BLOCK
  5
981
330
980
100
AcDbEntity
  8
0
100
AcDbBlockBegin
  2
SW_HATCH_0
 70
     0
 10
0.0
 20
0.0
 30
0.0
  3
SW_HATCH_0
  1

  0
LINE
  5
982
330
980
100
AcDbEntity
  8
0
  6
Continuous
 62
     0
370
     0
100
AcDbLine
 10
0.0
 20
0.0
 30
0.0
 11
-1.538751529509941
 21
-1.538751529509885
 31
0.0
  0
LINE
  5
983
330
980
100
AcDbEntity
  8
0
  6
Continuous
 62
     0
370
     0
100
AcDbLine
 10
4.490128060534504
 20
-0.000000000000111
 30
0.0
 11
-1.538751529509857
 21
-6.028879590044389
 31
0.0
  0
LINE
  5
984
330
980
100
AcDbEntity
  8
0
  6
Continuous
 62
     0
370
     0
100
AcDbLine
 10
8.980256121069063
 20
0.0
 30
0.0
 11
-1.538751529509913
 21
-10.51900765057912
 31
0.0
  0
LINE
  5
985
330
980
100
AcDbEntity
  8
0
  6
Continuous
 62
     0
370
     0
100
AcDbLine
 10
13.4703841816039
 20
0.0
 30
0.0
 11
1.470384181603779
 21
-12.00000000000012
 31
0.0
  0
LINE
  5
986
330
980
100
AcDbEntity
  8
0
  6
Continuous
 62
     0
370
     0
100
AcDbLine
 10
17.9605122421384
 20
0.000000000000111
 30
0.0
 11
5.960512242138282
 21
-12.00000000000012
 31
0.0
  0
LINE
  5
987
330
980
100
AcDbEntity
  8
0
  6
Continuous
 62
     0
370
     0
100
AcDbLine
 10
22.45064030267308
 20
-0.000000000000111
 30
0.0
 11
10.45064030267312
 21
-12.00000000000001
 31
0.0
  0
LINE
  5
988
330
980
100
AcDbEntity
  8
0
  6
Continuous
 62
     0
370
     0
100
AcDbLine
 10
26.94076836320752
 20
0.0
 30
0.0
 11
14.94076836320751
 21
-12.00000000000012
 31
0.0
  0
LINE
  5
989
330
980
100
AcDbEntity
  8
0
  6
Continuous
 62
     0
370
     0
100
AcDbLine
 10
31.43089642374203
 20
0.0
 30
0.0
 11
19.43089642374202
 21
-12.00000000000012
 31
0.0
  0
LINE
  5
98A
330
980
100
AcDbEntity
  8
0
  6
Continuous
 62
     0
370
     0
100
AcDbLine
 10
35.92102448427686
 20
-0.000000000000111
 30
0.0
 11
23.9210244842768
 21
-12.00000000000012
 31
0.0
  0
LINE
  5
98B
330
980
100
AcDbEntity
  8
0
  6
Continuous
 62
     0
370
     0
100
AcDbLine
 10
40.4111525448112
 20
-0.000000000000111
 30
0.0
 11
28.41115254481136
 21
-11.9999999999999
 31
0.0
  0
LINE
  5
98C
330
980
100
AcDbEntity
  8
0
  6
Continuous
 62
     0
370
     0
100
AcDbLine
 10
44.90128060534609
 20
0.0
 30
0.0
 11
32.90128060534608
 21
-12.00000000000012
 31
0.0
  0
LINE
  5
98D
330
980
100
AcDbEntity
  8
0
  6
Continuous
 62
     0
370
     0
100
AcDbLine
 10
48.46124847049008
 20
-0.9301601953904948
 30
0.0
 11
37.39140866588048
 21
-12.00000000000012
 31
0.0
  0
LINE
  5
98E
330
980
100
AcDbEntity
  8
0
  6
Continuous
 62
     0
370
     0
100
AcDbLine
 10
48.46124847049013
 20
-5.420288255925221
 30
0.0
 11
41.88153672641531
 21
-12.00000000000012
 31
0.0
  0
LINE
  5
98F
330
980
100
AcDbEntity
  8
0
  6
Continuous
 62
     0
370
     0
100
AcDbLine
 10
48.46124847049008
 20
-9.910416316459836
 30
0.0
 11
46.37166478694971
 21
-12.00000000000012
 31
0.0
  0
ENDBLK
  5
990
330
980
100
AcDbEntity
  8
0
100
AcDbBlockEnd
  0
BLOCK
  5
993
330
992
100
AcDbEntity
  8
0
100
AcDbBlockBegin
  2
SW_HATCH_1
 70
     0
 10
0.0
 20
0.0
 30
0.0
  3
SW_HATCH_1
  1

  0
LINE
  5
994
330
992
100
AcDbEntity
  8
0
  6
Continuous
 62
     0
370
     0
100
AcDbLine
 10
0.0
 20
0.0
 30
0.0
 11
-2.84388865239471
 21
-2.84388865239471
 31
0.0
  0
LINE
  5
995
330
992
100
AcDbEntity
  8
0
  6
Continuous
 62
     0
370
     0
100
AcDbLine
 10
4.490128060534559
 20
0.0
 30
0.0
 11
-2.843888652394683
 21
-7.334016712929325
 31
0.0
  0
LINE
  5
996
330
992
100
AcDbEntity
  8
0
  6
Continuous
 62
     0
370
     0
100
AcDbLine
 10
8.98025612106923
 20
0.0
 30
0.0
 11
-2.843888652394683
 21
-11.82414477346383
 31
0.0
  0
LINE
  5
997
330
992
100
AcDbEntity
  8
0
  6
Continuous
 62
     0
370
     0
100
AcDbLine
 10
13.47038418160384
 20
0.000000000000111
 30
0.0
 11
1.470384181603834
 21
-11.9999999999999
 31
0.0
  0
LINE
  5
998
330
992
100
AcDbEntity
  8
0
  6
Continuous
 62
     0
370
     0
100
AcDbLine
 10
17.9605122421384
 20
0.0
 30
0.0
 11
5.960512242138449
 21
-12.00000000000001
 31
0.0
  0
LINE
  5
999
330
992
100
AcDbEntity
  8
0
  6
Continuous
 62
     0
370
     0
100
AcDbLine
 10
22.45064030267302
 20
0.0
 30
0.0
 11
10.45064030267301
 21
-12.00000000000001
 31
0.0
  0
LINE
  5
99A
330
992
100
AcDbEntity
  8
0
  6
Continuous
 62
     0
370
     0
100
AcDbLine
 10
26.94076836320763
 20
0.0
 30
0.0
 11
14.94076836320768
 21
-12.00000000000001
 31
0.0
  0
LINE
  5
99B
330
992
100
AcDbEntity
  8
0
  6
Continuous
 62
     0
370
     0
100
AcDbLine
 10
31.43089642374221
 20
0.0
 30
0.0
 11
19.43089642374228
 21
-11.9999999999999
 31
0.0
  0
LINE
  5
99C
330
992
100
AcDbEntity
  8
0
  6
Continuous
 62
     0
370
     0
100
AcDbLine
 10
35.92102448427686
 20
0.000000000000111
 30
0.0
 11
23.92102448427691
 21
-11.9999999999999
 31
0.0
  0
LINE
  5
99D
330
992
100
AcDbEntity
  8
0
  6
Continuous
 62
     0
370
     0
100
AcDbLine
 10
40.41115254481141
 20
0.0
 30
0.0
 11
28.41115254481143
 21
-12.00000000000001
 31
0.0
  0
LINE
  5
99E
330
992
100
AcDbEntity
  8
0
  6
Continuous
 62
     0
370
     0
100
AcDbLine
 10
44.90128060534602
 20
0.0
 30
0.0
 11
32.90128060534602
 21
-12.00000000000001
 31
0.0
  0
LINE
  5
99F
330
992
100
AcDbEntity
  8
0
  6
Continuous
 62
     0
370
     0
100
AcDbLine
 10
47.15611134760526
 20
-2.235297318275431
 30
0.0
 11
37.39140866588065
 21
-12.00000000000001
 31
0.0
  0
LINE
  5
9A0
330
992
100
AcDbEntity
  8
0
  6
Continuous
 62
     0
370
     0
100
AcDbLine
 10
47.15611134760528
 20
-6.725425378810046
 30
0.0
 11
41.88153672641537
 21
-12.00000000000001
 31
0.0
  0
LINE
  5
9A1
330
992
100
AcDbEntity
  8
0
  6
Continuous
 62
     0
370
     0
100
AcDbLine
 10
47.15611134760528
 20
-11.21555343934466
 30
0.0
 11
46.37166478694993
 21
-11.9999999999999
 31
0.0
  0
ENDBLK
  5
9A2
330
992
100
AcDbEntity
  8
0
100
AcDbBlockEnd
  0
BLOCK
  5
9A5
330
9A4
100
AcDbEntity
  8
0
100
AcDbBlockBegin
  2
_D
 70
     0
 10
0.0
 20
0.0
 30
0.0
  3
_D
  1

  0
LINE
  5
9A6
330
9A4
100
AcDbEntity
  8
0
  6
Continuous
 62
     0
370
    -2
100
AcDbLine
 10
10.17055226065926
 20
13.49376706266435
 30
0.0
 11
3.222669233014608
 21
13.49376706266432
 31
0.0
  0
LINE
  5
9A7
330
9A4
100
AcDbEntity
  8
0
  6
Continuous
 62
     0
370
    -2
100
AcDbLine
 10
10.17055226065926
 20
25.49376706266438
 30
0.0
 11
3.222669233014566
 21
25.49376706266435
 31
0.0
  0
LINE
  5
9A8
330
9A4
100
AcDbEntity
  8
0
  6
Continuous
 62
     0
370
    -2
100
AcDbLine
 10
3.222669233014598
 20
16.29376706266432
 30
0.0
 11
3.222669233014576
 21
22.69376706266435
 31
0.0
  0
SOLID
  5
9A9
330
9A4
100
AcDbEntity
  8
0
 62
     0
100
AcDbTrace
 10
2.756002566347931
 20
16.29376706266432
 30
0.0
 11
3.689335899681265
 21
16.29376706266432
 31
0.0
 12
3.222669233014608
 22
13.49376706266432
 32
0.0
 13
3.222669233014608
 23
13.49376706266432
 33
0.0
  0
SOLID
  5
9AA
330
9A4
100
AcDbEntity
  8
0
 62
     0
100
AcDbTrace
 10
3.689335899681243
 20
22.69376706266435
 30
0.0
 11
2.756002566347909
 21
22.69376706266435
 31
0.0
 12
3.222669233014566
 22
25.49376706266435
 32
0.0
 13
3.222669233014566
 23
25.49376706266435
 33
0.0
  0
MTEXT
  5
9AB
330
9A4
100
AcDbEntity
  8
0
 62
     0
370
    18
100
AcDbMText
 10
0.3333107125145858
 20
20.02953537393602
 30
0.0
 40
2.3114868164
 41
0.0
 46
0.0
 71
     2
 72
     1
  1
\A1;12
  7
SLDTEXTSTYLE0
 11
-3.478698810492148E-15
 21
1.0
 31
0.0
 73
     1
 44
1.0
  0
POINT
  5
9AC
330
9A4
100
AcDbEntity
  8
Defpoints
 62
     0
100
AcDbPoint
 10
10.23305226065926
 20
13.49376706266435
 30
0.0
  0
POINT
  5
9AD
330
9A4
100
AcDbEntity
  8
Defpoints
 62
     0
100
AcDbPoint
 10
10.23305226065926
 20
25.49376706266438
 30
0.0
  0
POINT
  5
9D1
330
9A4
100
AcDbEntity
  8
Defpoints
 62
     0
100
AcDbPoint
 10
3.222669233014585
 20
25.49376706266435
 30
0.0
  0
ENDBLK
  5
9AE
330
9A4
100
AcDbEntity
  8
0
100
AcDbBlockEnd
  0
BLOCK
  5
9B1
330
9B0
100
AcDbEntity
  8
0
100
AcDbBlockBegin
  2
_D_1
 70
     0
 10
0.0
 20
0.0
 30
0.0
  3
_D_1
  1

  0
LINE
  5
9B2
330
9B0
100
AcDbEntity
  8
0
  6
Continuous
 62
     0
370
    -2
100
AcDbLine
 10
60.23305226065926
 20
13.43126706266435
 30
0.0
 11
60.23305226065926
 21
1.0
 31
0.0
  0
LINE
  5
9B3
330
9B0
100
AcDbEntity
  8
0
  6
Continuous
 62
     0
370
    -2
100
AcDbLine
 10
10.23305226065926
 20
13.43126706266435
 30
0.0
 11
10.23305226065926
 21
1.0
 31
0.0
  0
LINE
  5
9B4
330
9B0
100
AcDbEntity
  8
0
  6
Continuous
 62
     0
370
    -2
100
AcDbLine
 10
57.43305226065927
 20
1.0
 30
0.0
 11
13.03305226065926
 21
1.0
 31
0.0
  0
SOLID
  5
9B5
330
9B0
100
AcDbEntity
  8
0
 62
     0
100
AcDbTrace
 10
57.43305226065927
 20
0.5333333333333334
 30
0.0
 11
57.43305226065927
 21
1.466666666666667
 31
0.0
 12
60.23305226065926
 22
1.0
 32
0.0
 13
60.23305226065926
 23
1.0
 33
0.0
  0
SOLID
  5
9B6
330
9B0
100
AcDbEntity
  8
0
 62
     0
100
AcDbTrace
 10
13.03305226065926
 20
1.466666666666667
 30
0.0
 11
13.03305226065926
 21
0.5333333333333334
 31
0.0
 12
10.23305226065926
 22
1.0
 32
0.0
 13
10.23305226065926
 23
1.0
 33
0.0
  0
MTEXT
  5
9B7
330
9B0
100
AcDbEntity
  8
0
 62
     0
370
    18
100
AcDbMText
 10
35.35147359703384
 20
3.889358520507812
 30
0.0
 40
2.31148681640625
 41
0.0
 46
0.0
 71
     2
 72
     1
  1
\A1;50
  7
SLDTEXTSTYLE0
 73
     1
 44
1.0
  0
POINT
  5
9D2
330
9B0
100
AcDbEntity
  8
Defpoints
 62
     0
100
AcDbPoint
 10
60.23305226065926
 20
13.49376706266435
 30
0.0
  0
POINT
  5
9D3
330
9B0
100
AcDbEntity
  8
Defpoints
 62
     0
100
AcDbPoint
 10
10.23305226065926
 20
13.49376706266435
 30
0.0
  0
POINT
  5
9D4
330
9B0
100
AcDbEntity
  8
Defpoints
 62
     0
100
AcDbPoint
 10
10.23305226065926
 20
1.0
 30
0.0
  0
ENDBLK
  5
9B8
330
9B0
100
AcDbEntity
  8
0
100
AcDbBlockEnd
  0
BLOCK
  5
9BB
330
9BA
100
AcDbEntity
  8
0
100
AcDbBlockBegin
  2
_D_2
 70
     0
 10
0.0
 20
0.0
 30
0.0
  3
_D_2
  1

  0
LINE
  5
9BC
330
9BA
100
AcDbEntity
  8
0
  6
Continuous
 62
     0
370
    -2
100
AcDbLine
 10
107.7107324695351
 20
13.43126706266435
 30
0.0
 11
107.7107324695351
 21
1.018200558999467
 31
0.0
  0
LINE
  5
9BD
330
9BA
100
AcDbEntity
  8
0
  6
Continuous
 62
     0
370
    -2
100
AcDbLine
 10
157.7107324695351
 20
13.43126706266435
 30
0.0
 11
157.7107324695351
 21
1.018200558999467
 31
0.0
  0
LINE
  5
9BE
330
9BA
100
AcDbEntity
  8
0
  6
Continuous
 62
     0
370
    -2
100
AcDbLine
 10
110.5107324695351
 20
1.018200558999467
 30
0.0
 11
154.9107324695351
 21
1.018200558999467
 31
0.0
  0
SOLID
  5
9BF
330
9BA
100
AcDbEntity
  8
0
 62
     0
100
AcDbTrace
 10
110.5107324695351
 20
1.484867225666134
 30
0.0
 11
110.5107324695351
 21
0.5515338923328008
 31
0.0
 12
107.7107324695351
 22
1.018200558999467
 32
0.0
 13
107.7107324695351
 23
1.018200558999467
 33
0.0
  0
SOLID
  5
9C0
330
9BA
100
AcDbEntity
  8
0
 62
     0
100
AcDbTrace
 10
154.9107324695351
 20
0.5515338923328008
 30
0.0
 11
154.9107324695351
 21
1.484867225666134
 31
0.0
 12
157.7107324695351
 22
1.018200558999467
 32
0.0
 13
157.7107324695351
 23
1.018200558999467
 33
0.0
  0
MTEXT
  5
9C1
330
9BA
100
AcDbEntity
  8
0
 62
     0
370
    18
100
AcDbMText
 10
131.7949815537841
 20
3.90755907950728
 30
0.0
 40
2.31148681640625
 41
0.0
 46
0.0
 71
     2
 72
     1
  1
\A1;50
  7
SLDTEXTSTYLE0
 73
     1
 44
1.0
  0
POINT
  5
9D5
330
9BA
100
AcDbEntity
  8
Defpoints
 62
     0
100
AcDbPoint
 10
107.7107324695351
 20
13.49376706266435
 30
0.0
  0
POINT
  5
9D6
330
9BA
100
AcDbEntity
  8
Defpoints
 62
     0
100
AcDbPoint
 10
157.7107324695351
 20
13.49376706266435
 30
0.0
  0
POINT
  5
9D7
330
9BA
100
AcDbEntity
  8
Defpoints
 62
     0
100
AcDbPoint
 10
157.7107324695351
 20
1.018200558999467
 30
0.0
  0
ENDBLK
  5
9C2
330
9BA
100
AcDbEntity
  8
0
100
AcDbBlockEnd
  0
BLOCK
  5
9C5
330
9C4
100
AcDbEntity
  8
0
100
AcDbBlockBegin
  2
_D_3
 70
     0
 10
0.0
 20
0.0
 30
0.0
  3
_D_3
  1

  0
LINE
  5
9C6
330
9C4
100
AcDbEntity
  8
0
  6
Continuous
 62
     0
370
    -2
100
AcDbLine
 10
157.7732324695351
 20
13.49376706266435
 30
0.0
 11
164.131426640496
 21
13.49376706266437
 31
0.0
  0
LINE
  5
9C7
330
9C4
100
AcDbEntity
  8
0
  6
Continuous
 62
     0
370
    -2
100
AcDbLine
 10
157.7732324695351
 20
25.49376706266438
 30
0.0
 11
164.131426640496
 21
25.4937670626644
 31
0.0
  0
LINE
  5
9C8
330
9C4
100
AcDbEntity
  8
0
  6
Continuous
 62
     0
370
    -2
100
AcDbLine
 10
164.131426640496
 20
16.29376706266437
 30
0.0
 11
164.131426640496
 21
22.6937670626644
 31
0.0
  0
SOLID
  5
9C9
330
9C4
100
AcDbEntity
  8
0
 62
     0
100
AcDbTrace
 10
163.6647599738293
 20
16.29376706266437
 30
0.0
 11
164.5980933071627
 21
16.29376706266437
 31
0.0
 12
164.131426640496
 22
13.49376706266437
 32
0.0
 13
164.131426640496
 23
13.49376706266437
 33
0.0
  0
SOLID
  5
9CA
330
9C4
100
AcDbEntity
  8
0
 62
     0
100
AcDbTrace
 10
164.5980933071627
 20
22.6937670626644
 30
0.0
 11
163.6647599738293
 21
22.6937670626644
 31
0.0
 12
164.131426640496
 22
25.4937670626644
 32
0.0
 13
164.131426640496
 23
25.4937670626644
 33
0.0
  0
MTEXT
  5
9CB
330
9C4
100
AcDbEntity
  8
0
 62
     0
370
    18
100
AcDbMText
 10
161.242068119996
 20
19.20478113884447
 30
0.0
 40
2.3114868164
 41
0.0
 46
0.0
 71
     2
 72
     1
  1
\A1;12
  7
SLDTEXTSTYLE0
 11
-2.368475785866995E-15
 21
1.0
 31
0.0
 73
     1
 44
1.0
  0
POINT
  5
9CC
330
9C4
100
AcDbEntity
  8
Defpoints
 62
     0
100
AcDbPoint
 10
157.7107324695351
 20
13.49376706266435
 30
0.0
  0
POINT
  5
9CD
330
9C4
100
AcDbEntity
  8
Defpoints
 62
     0
100
AcDbPoint
 10
157.7107324695351
 20
25.49376706266438
 30
0.0
  0
POINT
  5
9D8
330
9C4
100
AcDbEntity
  8
Defpoints
 62
     0
100
AcDbPoint
 10
164.131426640496
 20
25.4937670626644
 30
0.0
  0
ENDBLK
  5
9CE
330
9C4
100
AcDbEntity
  8
0
100
AcDbBlockEnd
  0
BLOCK
  5
1053
330
1052
100
AcDbEntity
  8
0
100
AcDbBlockBegin
  2
*D24
 70
     1
 10
0.0
 20
0.0
 30
0.0
  3
*D24
  1

  0
LINE
  5
1055
330
1052
100
AcDbEntity
  8
COTAS
 62
     0
370
    -2
100
AcDbLine
 10
199.1769348011211
 20
468.254036671116
 30
0.0
 11
91.18293735428149
 21
468.254036671116
 31
0.0
  0
LINE
  5
1056
330
1052
100
AcDbEntity
  8
COTAS
 62
     0
370
    -2
100
AcDbLine
 10
158.9650558308288
 20
578.2548106171099
 30
0.0
 11
91.18293735428149
 21
578.2548106171099
 31
0.0
  0
LINE
  5
1057
330
1052
100
AcDbEntity
  8
COTAS
 62
     0
370
    -2
100
AcDbLine
 10
92.43293735428149
 20
470.754036671116
 30
0.0
 11
92.43293735428149
 21
575.7548106171099
 31
0.0
  0
SOLID
  5
1058
330
1052
100
AcDbEntity
  8
COTAS
 62
     0
100
AcDbTrace
 10
92.01627068761482
 20
470.754036671116
 30
0.0
 11
92.84960402094816
 21
470.754036671116
 31
0.0
 12
92.43293735428149
 22
468.254036671116
 32
0.0
 13
92.43293735428149
 23
468.254036671116
 33
0.0
  0
SOLID
  5
1059
330
1052
100
AcDbEntity
  8
COTAS
 62
     0
100
AcDbTrace
 10
92.84960402094816
 20
575.7548106171099
 30
0.0
 11
92.01627068761482
 21
575.7548106171099
 31
0.0
 12
92.43293735428149
 22
578.2548106171099
 32
0.0
 13
92.43293735428149
 23
578.2548106171099
 33
0.0
  0
MTEXT
  5
105A
330
1052
100
AcDbEntity
  8
COTAS
 62
     0
100
AcDbMText
 10
90.53168735428149
 20
523.254423644113
 30
0.0
 40
2.5
 41
0.0
 46
0.0
 71
     5
 72
     1
  1
110
 11
0.0
 21
1.0
 31
0.0
 73
     1
 44
1.0
  0
POINT
  5
105B
330
1052
100
AcDbEntity
  8
Defpoints
 62
     0
100
AcDbPoint
 10
199.8019348011211
 20
468.254036671116
 30
0.0
  0
POINT
  5
105C
330
1052
100
AcDbEntity
  8
Defpoints
 62
     0
100
AcDbPoint
 10
159.5900558308288
 20
578.2548106171099
 30
0.0
  0
POINT
  5
105D
330
1052
100
AcDbEntity
  8
Defpoints
 62
     0
100
AcDbPoint
 10
92.43293735428149
 20
578.2548106171099
 30
0.0
  0
ENDBLK
  5
1054
330
1052
100
AcDbEntity
  8
0
100
AcDbBlockEnd
  0
BLOCK
  5
1062
330
1061
100
AcDbEntity
  8
0
100
AcDbBlockBegin
  2
*D25
 70
     1
 10
0.0
 20
0.0
 30
0.0
  3
*D25
  1

  0
LINE
  5
1064
330
1061
100
AcDbEntity
  8
COTAS
 62
     0
370
    -2
100
AcDbLine
 10
227.4130932471637
 20
210.6063166988457
 30
0.0
 11
91.18293735428148
 21
210.6063166988457
 31
0.0
  0
LINE
  5
1065
330
1061
100
AcDbEntity
  8
COTAS
 62
     0
370
    -2
100
AcDbLine
 10
199.1769348011211
 20
468.254036671116
 30
0.0
 11
91.18293735428149
 21
468.254036671116
 31
0.0
  0
LINE
  5
1066
330
1061
100
AcDbEntity
  8
COTAS
 62
     0
370
    -2
100
AcDbLine
 10
92.43293735428148
 20
213.1063166988457
 30
0.0
 11
92.43293735428149
 21
465.754036671116
 31
0.0
  0
SOLID
  5
1067
330
1061
100
AcDbEntity
  8
COTAS
 62
     0
100
AcDbTrace
 10
92.0162706876148
 20
213.1063166988457
 30
0.0
 11
92.84960402094815
 21
213.1063166988457
 31
0.0
 12
92.43293735428148
 22
210.6063166988457
 32
0.0
 13
92.43293735428148
 23
210.6063166988457
 33
0.0
  0
SOLID
  5
1068
330
1061
100
AcDbEntity
  8
COTAS
 62
     0
100
AcDbTrace
 10
92.84960402094816
 20
465.754036671116
 30
0.0
 11
92.01627068761482
 21
465.754036671116
 31
0.0
 12
92.43293735428149
 22
468.254036671116
 32
0.0
 13
92.43293735428149
 23
468.254036671116
 33
0.0
  0
MTEXT
  5
1069
330
1061
100
AcDbEntity
  8
COTAS
 62
     0
100
AcDbMText
 10
90.53168735428147
 20
339.4301766849808
 30
0.0
 40
2.5
 41
0.0
 46
0.0
 71
     5
 72
     1
  1
MAX. 2000
 11
5.515614388798575E-17
 21
1.0
 31
0.0
 73
     1
 44
1.0
  0
POINT
  5
106A
330
1061
100
AcDbEntity
  8
Defpoints
 62
     0
100
AcDbPoint
 10
228.0380932471637
 20
210.6063166988457
 30
0.0
  0
POINT
  5
106B
330
1061
100
AcDbEntity
  8
Defpoints
 62
     0
100
AcDbPoint
 10
199.8019348011211
 20
468.254036671116
 30
0.0
  0
POINT
  5
106C
330
1061
100
AcDbEntity
  8
Defpoints
 62
     0
100
AcDbPoint
 10
92.43293735428149
 20
468.254036671116
 30
0.0
  0
ENDBLK
  5
1063
330
1061
100
AcDbEntity
  8
0
100
AcDbBlockEnd
  0
BLOCK
  5
1071
330
1070
100
AcDbEntity
  8
0
100
AcDbBlockBegin
  2
*D26
 70
     1
 10
0.0
 20
0.0
 30
0.0
  3
*D26
  1

  0
LINE
  5
1073
330
1070
100
AcDbEntity
  8
COTAS
 62
     0
370
    -2
100
AcDbLine
 10
199.5519348011212
 20
590.8798106171099
 30
0.0
 11
199.5519348011212
 21
637.5178738350285
 31
0.0
  0
LINE
  5
1074
330
1070
100
AcDbEntity
  8
COTAS
 62
     0
370
    -2
100
AcDbLine
 10
265.5519348011213
 20
590.8798106171099
 30
0.0
 11
265.5519348011213
 21
637.5178738350285
 31
0.0
  0
LINE
  5
1075
330
1070
100
AcDbEntity
  8
COTAS
 62
     0
370
    -2
100
AcDbLine
 10
202.0519348011212
 20
636.2678738350285
 30
0.0
 11
263.0519348011213
 21
636.2678738350285
 31
0.0
  0
SOLID
  5
1076
330
1070
100
AcDbEntity
  8
COTAS
 62
     0
100
AcDbTrace
 10
202.0519348011212
 20
636.6845405016951
 30
0.0
 11
202.0519348011212
 21
635.8512071683618
 31
0.0
 12
199.5519348011212
 22
636.2678738350285
 32
0.0
 13
199.5519348011212
 23
636.2678738350285
 33
0.0
  0
SOLID
  5
1077
330
1070
100
AcDbEntity
  8
COTAS
 62
     0
100
AcDbTrace
 10
263.0519348011213
 20
635.8512071683618
 30
0.0
 11
263.0519348011213
 21
636.6845405016951
 31
0.0
 12
265.5519348011213
 22
636.2678738350285
 32
0.0
 13
265.5519348011213
 23
636.2678738350285
 33
0.0
  0
MTEXT
  5
1078
330
1070
100
AcDbEntity
  8
COTAS
 62
     0
100
AcDbMText
 10
232.5519348011213
 20
638.2378738350285
 30
0.0
 40
2.5
 41
0.0
 46
0.0
 71
     5
 72
     1
  1
%%C 66
 73
     1
 44
1.0
  0
POINT
  5
1079
330
1070
100
AcDbEntity
  8
Defpoints
 62
     0
100
AcDbPoint
 10
199.5519348011212
 20
590.2548106171099
 30
0.0
  0
POINT
  5
107A
330
1070
100
AcDbEntity
  8
Defpoints
 62
     0
100
AcDbPoint
 10
265.5519348011213
 20
590.2548106171099
 30
0.0
  0
POINT
  5
107B
330
1070
100
AcDbEntity
  8
Defpoints
 62
     0
100
AcDbPoint
 10
265.5519348011213
 20
636.2678738350285
 30
0.0
  0
ENDBLK
  5
1072
330
1070
100
AcDbEntity
  8
0
100
AcDbBlockEnd
  0
BLOCK
  5
1081
330
1080
100
AcDbEntity
  8
0
100
AcDbBlockBegin
  2
*D27
 70
     1
 10
0.0
 20
0.0
 30
0.0
  3
*D27
  1

  0
LINE
  5
1083
330
1080
100
AcDbEntity
  8
COTAS
 62
     0
370
    -2
100
AcDbLine
 10
227.4130932471637
 20
210.6063166988457
 30
0.0
 11
91.18293735428148
 21
210.6063166988457
 31
0.0
  0
LINE
  5
1084
330
1080
100
AcDbEntity
  8
COTAS
 62
     0
370
    -2
100
AcDbLine
 10
132.1130932471637
 20
120.1063166988456
 30
0.0
 11
91.18293735428148
 21
120.1063166988456
 31
0.0
  0
LINE
  5
1085
330
1080
100
AcDbEntity
  8
COTAS
 62
     0
370
    -2
100
AcDbLine
 10
92.43293735428148
 20
208.1063166988457
 30
0.0
 11
92.43293735428148
 21
122.6063166988456
 31
0.0
  0
SOLID
  5
1086
330
1080
100
AcDbEntity
  8
COTAS
 62
     0
100
AcDbTrace
 10
92.84960402094815
 20
208.1063166988457
 30
0.0
 11
92.0162706876148
 21
208.1063166988457
 31
0.0
 12
92.43293735428148
 22
210.6063166988457
 32
0.0
 13
92.43293735428148
 23
210.6063166988457
 33
0.0
  0
SOLID
  5
1087
330
1080
100
AcDbEntity
  8
COTAS
 62
     0
100
AcDbTrace
 10
92.0162706876148
 20
122.6063166988456
 30
0.0
 11
92.84960402094815
 21
122.6063166988456
 31
0.0
 12
92.43293735428148
 22
120.1063166988456
 32
0.0
 13
92.43293735428148
 23
120.1063166988456
 33
0.0
  0
MTEXT
  5
1088
330
1080
100
AcDbEntity
  8
COTAS
 62
     0
100
AcDbMText
 10
90.53168735428147
 20
165.3563166988457
 30
0.0
 40
2.5
 41
0.0
 46
0.0
 71
     5
 72
     1
  1
91
 11
0.0
 21
1.0
 31
0.0
 73
     1
 44
1.0
  0
POINT
  5
1089
330
1080
100
AcDbEntity
  8
Defpoints
 62
     0
100
AcDbPoint
 10
228.0380932471637
 20
210.6063166988457
 30
0.0
  0
POINT
  5
108A
330
1080
100
AcDbEntity
  8
Defpoints
 62
     0
100
AcDbPoint
 10
132.7380932471637
 20
120.1063166988456
 30
0.0
  0
POINT
  5
108B
330
1080
100
AcDbEntity
  8
Defpoints
 62
     0
100
AcDbPoint
 10
92.43293735428148
 20
120.1063166988456
 30
0.0
  0
ENDBLK
  5
1082
330
1080
100
AcDbEntity
  8
0
100
AcDbBlockEnd
  0
ENDSEC
  0
SECTION
  2
ENTITIES
  0
LINE
  5
1EB
330
1F
100
AcDbEntity
  8
CAJETIN
100
AcDbLine
 10
169.4203676900376
 20
15.1171426975595
 30
0.0
 11
466.4203670309374
 21
15.1171426975595
 31
0.0
  0
LINE
  5
1EC
330
1F
100
AcDbEntity
  8
CAJETIN
100
AcDbLine
 10
169.4203676900376
 20
30.11714257905951
 30
0.0
 11
466.4203693960375
 21
30.11714257905951
 31
0.0
  0
LINE
  5
1ED
330
1F
100
AcDbEntity
  8
CAJETIN
100
AcDbLine
 10
169.4203676900376
 20
30.11714257905951
 30
0.0
 11
169.4203676900376
 21
0.1171430959595092
 31
0.0
  0
LINE
  5
1EE
330
1F
100
AcDbEntity
  8
CAJETIN
100
AcDbLine
 10
252.4843772670375
 20
15.1171426975595
 30
0.0
 11
252.4843772670375
 21
0.1171430263595177
 31
0.0
  0
MTEXT
  5
1EF
330
1F
100
AcDbEntity
  8
CAJETIN
100
AcDbMText
 10
361.881726347195
 20
26.28522410202736
 30
0.0
 40
8.0
 41
0.0
 46
8.128
 71
     1
 72
     1
  1
{\fArial|b0|i0|c0|p0;\W1;ZENIT Indirect Base}
  7
SLDTEXTSTYLE0
 73
     1
 44
1.0
  0
MTEXT
  5
1F0
330
1F
100
AcDbEntity
  8
CAJETIN
100
AcDbMText
 10
172.0074338334381
 20
27.62512016646243
 30
0.0
 40
3.5
 41
0.0
 46
3.5595
 71
     1
 72
     1
  1
{\fArial|b0|i0|c0|p0;\W1;02/06/2025}
  7
SLDTEXTSTYLE0
 73
     1
 44
1.0
  0
MTEXT
  5
1F1
330
1F
100
AcDbEntity
  8
CAJETIN
100
AcDbMText
 10
171.6055848892103
 20
12.87994930275116
 30
0.0
 40
3.5
 41
0.0
 46
9.486166666666666
 71
     1
 72
     1
  1
{\fArial|b0|i0|c0|p0;\W1;Escala 1/1\PScale 1/1}
  7
SLDTEXTSTYLE0
 73
     1
 44
1.0
  0
MTEXT
  5
1F2
330
1F
100
AcDbEntity
  8
CAJETIN
100
AcDbMText
 10
212.0295651361237
 20
12.87994930275116
 30
0.0
 40
3.5
 41
0.0
 46
9.389333333333333
 71
     1
 72
     1
  1
{\fArial|b0|i0|c0|p0;\W1;Unidades: mm.\PUnits: mm.}
  7
SLDTEXTSTYLE0
 73
     1
 44
1.0
  0
HATCH
  5
1F5
330
1F
100
AcDbEntity
  8
COTAS
 62
     9
100
AcDbHatch
 10
0.0
 20
0.0
 30
0.0
210
0.0
220
0.0
230
1.0
  2
SOLID
 70
     1
 71
     1
 91
        1
 92
        1
 93
       25
 72
     4
 94
        3
 73
     0
 74
     0
 95
        8
 96
        4
 40
17.0
 40
17.0
 40
17.0
 40
17.0
 40
18.0
 40
18.0
 40
18.0
 40
18.0
 10
384.7206558245896
 20
1.409382050900181
 10
384.7206558245896
 20
1.409382050900181
 10
379.3275074708858
 20
5.040506502539021
 10
379.3275074708858
 20
5.040506502539021
 97
        0
 72
     4
 94
        3
 73
     0
 74
     0
 95
        8
 96
        4
 40
18.0
 40
18.0
 40
18.0
 40
18.0
 40
19.0
 40
19.0
 40
19.0
 40
19.0
 10
379.3275074708858
 20
5.040506502539021
 10
379.2308917480408
 20
5.105748475563619
 10
379.056580683514
 20
5.159037209491974
 10
378.9400414706465
 20
5.159037209491974
 97
        0
 72
     4
 94
        3
 73
     0
 74
     0
 95
        8
 96
        4
 40
19.0
 40
19.0
 40
19.0
 40
19.0
 40
20.0
 40
20.0
 40
20.0
 40
20.0
 10
378.9400414706465
 20
5.159037209491974
 10
378.9400414706465
 20
5.159037209491974
 10
377.958429146261
 20
5.159037209491974
 10
377.958429146261
 20
5.159037209491974
 97
        0
 72
     4
 94
        3
 73
     0
 74
     0
 95
        8
 96
        4
 40
20.0
 40
20.0
 40
20.0
 40
20.0
 40
21.0
 40
21.0
 40
21.0
 40
21.0
 10
377.958429146261
 20
5.159037209491974
 10
377.8413921786098
 20
5.159037209491974
 10
377.746267820283
 20
5.063913801079895
 10
377.746267820283
 20
4.947375063164632
 97
        0
 72
     4
 94
        3
 73
     0
 74
     0
 95
        8
 96
        4
 40
21.0
 40
21.0
 40
21.0
 40
21.0
 40
22.0
 40
22.0
 40
22.0
 40
22.0
 10
377.746267820283
 20
4.947375063164632
 10
377.746267820283
 20
4.947375063164632
 10
377.746267820283
 20
1.502513490276446
 10
377.746267820283
 20
1.502513490276446
 97
        0
 72
     4
 94
        3
 73
     0
 74
     0
 95
        8
 96
        4
 40
22.0
 40
22.0
 40
22.0
 40
22.0
 40
23.0
 40
23.0
 40
23.0
 40
23.0
 10
377.746267820283
 20
1.502513490276446
 10
377.746267820283
 20
1.385974277404191
 10
377.6511453617752
 20
1.290850868990336
 10
377.5346061489129
 20
1.290850868990336
 97
        0
 72
     4
 94
        3
 73
     0
 74
     0
 95
        8
 96
        4
 40
23.0
 40
23.0
 40
23.0
 40
23.0
 40
24.0
 40
24.0
 40
24.0
 40
24.0
 10
377.5346061489129
 20
1.290850868990336
 10
377.5346061489129
 20
1.290850868990336
 10
376.6550886496061
 20
1.290850868990336
 10
376.6550886496061
 20
1.290850868990336
 97
        0
 72
     4
 94
        3
 73
     0
 74
     0
 95
       11
 96
        7
 40
24.0
 40
24.0
 40
24.0
 40
24.0
 40
25.0
 40
25.0
 40
25.0
 40
26.0
 40
26.0
 40
26.0
 40
26.0
 10
376.6550886496061
 20
1.290850868990336
 10
376.5385494367436
 20
1.290850868990336
 10
376.4434269782404
 20
1.385974277404191
 10
376.4434269782404
 20
1.502513490276446
 10
376.4434269782404
 20
1.502513490276446
 10
376.4434269782404
 20
9.800163581433754
 10
376.4434269782404
 20
9.800163581433754
 97
        0
 72
     4
 94
        3
 73
     0
 74
     0
 95
        8
 96
        4
 40
0.0
 40
0.0
 40
0.0
 40
0.0
 40
1.0
 40
1.0
 40
1.0
 40
1.0
 10
376.4434269782404
 20
9.800163581433754
 10
376.4434269782404
 20
9.916701844391188
 10
376.5385494367436
 20
10.01182525280433
 10
376.6550886496061
 20
10.01182525280433
 97
        0
 72
     4
 94
        3
 73
     0
 74
     0
 95
        8
 96
        4
 40
1.0
 40
1.0
 40
1.0
 40
1.0
 40
2.0
 40
2.0
 40
2.0
 40
2.0
 10
376.6550886496061
 20
10.01182525280433
 10
376.6550886496061
 20
10.01182525280433
 10
377.5346061489129
 20
10.01182525280433
 10
377.5346061489129
 20
10.01182525280433
 97
        0
 72
     4
 94
        3
 73
     0
 74
     0
 95
        8
 96
        4
 40
2.0
 40
2.0
 40
2.0
 40
2.0
 40
3.0
 40
3.0
 40
3.0
 40
3.0
 10
377.5346061489129
 20
10.01182525280433
 10
377.6511453617752
 20
10.01182525280433
 10
377.746267820283
 20
9.916701844391188
 10
377.746267820283
 20
9.800163581433754
 97
        0
 72
     4
 94
        3
 73
     0
 74
     0
 95
        8
 96
        4
 40
3.0
 40
3.0
 40
3.0
 40
3.0
 40
4.0
 40
4.0
 40
4.0
 40
4.0
 10
377.746267820283
 20
9.800163581433754
 10
377.746267820283
 20
9.800163581433754
 10
377.746267820283
 20
6.54604610519468
 10
377.746267820283
 20
6.54604610519468
 97
        0
 72
     4
 94
        3
 73
     0
 74
     0
 95
        8
 96
        4
 40
4.0
 40
4.0
 40
4.0
 40
4.0
 40
5.0
 40
5.0
 40
5.0
 40
5.0
 10
377.746267820283
 20
6.54604610519468
 10
377.746267820283
 20
6.429507367281094
 10
377.8413921786098
 20
6.333886204086216
 10
377.958429146261
 20
6.333886204086216
 97
        0
 72
     4
 94
        3
 73
     0
 74
     0
 95
        8
 96
        4
 40
5.0
 40
5.0
 40
5.0
 40
5.0
 40
6.0
 40
6.0
 40
6.0
 40
6.0
 10
377.958429146261
 20
6.333886204086216
 10
377.958429146261
 20
6.333886204086216
 10
378.8125478529407
 20
6.333886204086216
 10
378.8125478529407
 20
6.333886204086216
 97
        0
 72
     4
 94
        3
 73
     0
 74
     0
 95
        8
 96
        4
 40
6.0
 40
6.0
 40
6.0
 40
6.0
 40
7.0
 40
7.0
 40
7.0
 40
7.0
 10
378.8125478529407
 20
6.333886204086216
 10
378.9290851659841
 20
6.333886204086216
 10
379.103893985285
 20
6.386178953495975
 10
379.2015071175225
 20
6.449926712263821
 97
        0
 72
     4
 94
        3
 73
     0
 74
     0
 95
        8
 96
        4
 40
7.0
 40
7.0
 40
7.0
 40
7.0
 40
8.0
 40
8.0
 40
8.0
 40
8.0
 10
379.2015071175225
 20
6.449926712263821
 10
379.2015071175225
 20
6.449926712263821
 10
384.4885767080609
 20
9.896282499408475
 10
384.4885767080609
 20
9.896282499408475
 97
        0
 72
     4
 94
        3
 73
     0
 74
     0
 95
        8
 96
        4
 40
8.0
 40
8.0
 40
8.0
 40
8.0
 40
9.0
 40
9.0
 40
9.0
 40
9.0
 10
384.4885767080609
 20
9.896282499408475
 10
384.5861898402932
 20
9.96003025817581
 10
384.7609967597755
 20
10.01182525280433
 10
384.8775359726477
 20
10.01182525280433
 97
        0
 72
     4
 94
        3
 73
     0
 74
     0
 95
        8
 96
        4
 40
9.0
 40
9.0
 40
9.0
 40
9.0
 40
10.0
 40
10.0
 40
10.0
 40
10.0
 10
384.8775359726477
 20
10.01182525280433
 10
384.8775359726477
 20
10.01182525280433
 10
386.726216227325
 20
10.01182525280433
 10
386.726216227325
 20
10.01182525280433
 97
        0
 72
     4
 94
        3
 73
     0
 74
     0
 95
        8
 96
        4
 40
10.0
 40
10.0
 40
10.0
 40
10.0
 40
11.0
 40
11.0
 40
11.0
 40
11.0
 10
386.726216227325
 20
10.01182525280433
 10
386.8427554401928
 20
10.01182525280433
 10
386.858193437711
 20
9.959532503395
 10
386.7610780602578
 20
9.895784744627921
 97
        0
 72
     4
 94
        3
 73
     0
 74
     0
 95
        8
 96
        4
 40
11.0
 40
11.0
 40
11.0
 40
11.0
 40
12.0
 40
12.0
 40
12.0
 40
12.0
 10
386.7610780602578
 20
9.895784744627921
 10
386.7610780602578
 20
9.895784744627921
 10
380.6567464147622
 20
5.889146581930593
 10
380.6567464147622
 20
5.889146581930593
 97
        0
 72
     4
 94
        3
 73
     0
 74
     0
 95
        8
 96
        4
 40
12.0
 40
12.0
 40
12.0
 40
12.0
 40
13.0
 40
13.0
 40
13.0
 40
13.0
 10
380.6567464147622
 20
5.889146581930593
 10
380.5596310373085
 20
5.825399298120377
 10
380.5586336279216
 20
5.719817339825912
 10
380.6552512505905
 20
5.654575366801314
 97
        0
 72
     4
 94
        3
 73
     0
 74
     0
 95
        8
 96
        4
 40
13.0
 40
13.0
 40
13.0
 40
13.0
 40
14.0
 40
14.0
 40
14.0
 40
14.0
 10
380.6552512505905
 20
5.654575366801314
 10
380.6552512505905
 20
5.654575366801314
 10
386.9309074319335
 20
1.409382050900181
 10
386.9309074319335
 20
1.409382050900181
 97
        0
 72
     4
 94
        3
 73
     0
 74
     0
 95
        8
 96
        4
 40
14.0
 40
14.0
 40
14.0
 40
14.0
 40
15.0
 40
15.0
 40
15.0
 40
15.0
 10
386.9309074319335
 20
1.409382050900181
 10
387.0275250546033
 20
1.344140077877586
 10
387.0110877478636
 20
1.290850868990336
 10
386.894552334649
 20
1.290850868990336
 97
        0
 72
     4
 94
        3
 73
     0
 74
     0
 95
        8
 96
        4
 40
15.0
 40
15.0
 40
15.0
 40
15.0
 40
16.0
 40
16.0
 40
16.0
 40
16.0
 10
386.894552334649
 20
1.290850868990336
 10
386.894552334649
 20
1.290850868990336
 10
385.1081218248295
 20
1.290850868990336
 10
385.1081218248295
 20
1.290850868990336
 97
        0
 72
     4
 94
        3
 73
     0
 74
     0
 95
        8
 96
        4
 40
16.0
 40
16.0
 40
16.0
 40
16.0
 40
17.0
 40
17.0
 40
17.0
 40
17.0
 10
385.1081218248295
 20
1.290850868990336
 10
384.9915826119568
 20
1.290850868990336
 10
384.817273447259
 20
1.344140077877586
 10
384.7206558245896
 20
1.409382050900181
 97
        0
 97
       25
330
207
330
208
330
209
330
20A
330
20B
330
20C
330
20D
330
20E
330
1F6
330
1F7
330
1F8
330
1F9
330
1FA
330
1FB
330
1FC
330
1FD
330
1FE
330
1FF
330
200
330
201
330
202
330
203
330
204
330
205
330
206
 75
     1
 76
     1
 98
        1
 10
-96.22923855780971
 20
-2.584739096925741
1001
GradientColor1ACI
1070
     5
1001
GradientColor2ACI
1070
     2
1001
ACAD
1010
0.0
1020
0.0
1030
0.0
  0
SPLINE
  5
1F6
102
{ACAD_REACTORS
330
1F5
102
}
330
1F
100
AcDbEntity
  8
Capa 1
 62
     9
100
AcDbSpline
210
0.0
220
0.0
230
1.0
 70
     8
 71
     3
 72
     8
 73
     4
 74
     0
 42
0.000000001
 43
0.0000000001
 40
0.0
 40
0.0
 40
0.0
 40
0.0
 40
1.0
 40
1.0
 40
1.0
 40
1.0
 10
376.4434269782404
 20
9.800163581433754
 30
0.0
 10
376.4434269782404
 20
9.916701844391188
 30
0.0
 10
376.5385494367436
 20
10.01182525280433
 30
0.0
 10
376.6550886496061
 20
10.01182525280433
 30
0.0
  0
SPLINE
  5
1F7
102
{ACAD_REACTORS
330
1F5
102
}
330
1F
100
AcDbEntity
  8
Capa 1
 62
     9
100
AcDbSpline
210
0.0
220
0.0
230
1.0
 70
    24
 71
     3
 72
     8
 73
     4
 74
     0
 42
0.000000001
 43
0.0000000001
 40
1.0
 40
1.0
 40
1.0
 40
1.0
 40
2.0
 40
2.0
 40
2.0
 40
2.0
 10
376.6550886496061
 20
10.01182525280433
 30
0.0
 10
376.6550886496061
 20
10.01182525280433
 30
0.0
 10
377.5346061489129
 20
10.01182525280433
 30
0.0
 10
377.5346061489129
 20
10.01182525280433
 30
0.0
  0
SPLINE
  5
1F8
102
{ACAD_REACTORS
330
1F5
102
}
330
1F
100
AcDbEntity
  8
Capa 1
 62
     9
100
AcDbSpline
210
0.0
220
0.0
230
1.0
 70
     8
 71
     3
 72
     8
 73
     4
 74
     0
 42
0.000000001
 43
0.0000000001
 40
2.0
 40
2.0
 40
2.0
 40
2.0
 40
3.0
 40
3.0
 40
3.0
 40
3.0
 10
377.5346061489129
 20
10.01182525280433
 30
0.0
 10
377.6511453617752
 20
10.01182525280433
 30
0.0
 10
377.746267820283
 20
9.916701844391188
 30
0.0
 10
377.746267820283
 20
9.800163581433754
 30
0.0
  0
SPLINE
  5
1F9
102
{ACAD_REACTORS
330
1F5
102
}
330
1F
100
AcDbEntity
  8
Capa 1
 62
     9
100
AcDbSpline
210
0.0
220
0.0
230
1.0
 70
    24
 71
     3
 72
     8
 73
     4
 74
     0
 42
0.000000001
 43
0.0000000001
 40
3.0
 40
3.0
 40
3.0
 40
3.0
 40
4.0
 40
4.0
 40
4.0
 40
4.0
 10
377.746267820283
 20
9.800163581433754
 30
0.0
 10
377.746267820283
 20
9.800163581433754
 30
0.0
 10
377.746267820283
 20
6.54604610519468
 30
0.0
 10
377.746267820283
 20
6.54604610519468
 30
0.0
  0
SPLINE
  5
1FA
102
{ACAD_REACTORS
330
1F5
102
}
330
1F
100
AcDbEntity
  8
Capa 1
 62
     9
100
AcDbSpline
210
0.0
220
0.0
230
1.0
 70
     8
 71
     3
 72
     8
 73
     4
 74
     0
 42
0.000000001
 43
0.0000000001
 40
4.0
 40
4.0
 40
4.0
 40
4.0
 40
5.0
 40
5.0
 40
5.0
 40
5.0
 10
377.746267820283
 20
6.54604610519468
 30
0.0
 10
377.746267820283
 20
6.429507367281094
 30
0.0
 10
377.8413921786098
 20
6.333886204086216
 30
0.0
 10
377.958429146261
 20
6.333886204086216
 30
0.0
  0
SPLINE
  5
1FB
102
{ACAD_REACTORS
330
1F5
102
}
330
1F
100
AcDbEntity
  8
Capa 1
 62
     9
100
AcDbSpline
210
0.0
220
0.0
230
1.0
 70
    24
 71
     3
 72
     8
 73
     4
 74
     0
 42
0.000000001
 43
0.0000000001
 40
5.0
 40
5.0
 40
5.0
 40
5.0
 40
6.0
 40
6.0
 40
6.0
 40
6.0
 10
377.958429146261
 20
6.333886204086216
 30
0.0
 10
377.958429146261
 20
6.333886204086216
 30
0.0
 10
378.8125478529407
 20
6.333886204086216
 30
0.0
 10
378.8125478529407
 20
6.333886204086216
 30
0.0
  0
SPLINE
  5
1FC
102
{ACAD_REACTORS
330
1F5
102
}
330
1F
100
AcDbEntity
  8
Capa 1
 62
     9
100
AcDbSpline
210
0.0
220
0.0
230
1.0
 70
     8
 71
     3
 72
     8
 73
     4
 74
     0
 42
0.000000001
 43
0.0000000001
 40
6.0
 40
6.0
 40
6.0
 40
6.0
 40
7.0
 40
7.0
 40
7.0
 40
7.0
 10
378.8125478529407
 20
6.333886204086216
 30
0.0
 10
378.9290851659841
 20
6.333886204086216
 30
0.0
 10
379.103893985285
 20
6.386178953495975
 30
0.0
 10
379.2015071175225
 20
6.449926712263821
 30
0.0
  0
SPLINE
  5
1FD
102
{ACAD_REACTORS
330
1F5
102
}
330
1F
100
AcDbEntity
  8
Capa 1
 62
     9
100
AcDbSpline
210
0.0
220
0.0
230
1.0
 70
    24
 71
     3
 72
     8
 73
     4
 74
     0
 42
0.000000001
 43
0.0000000001
 40
7.0
 40
7.0
 40
7.0
 40
7.0
 40
8.0
 40
8.0
 40
8.0
 40
8.0
 10
379.2015071175225
 20
6.449926712263821
 30
0.0
 10
379.2015071175225
 20
6.449926712263821
 30
0.0
 10
384.4885767080609
 20
9.896282499408475
 30
0.0
 10
384.4885767080609
 20
9.896282499408475
 30
0.0
  0
SPLINE
  5
1FE
102
{ACAD_REACTORS
330
1F5
102
}
330
1F
100
AcDbEntity
  8
Capa 1
 62
     9
100
AcDbSpline
210
0.0
220
0.0
230
1.0
 70
     8
 71
     3
 72
     8
 73
     4
 74
     0
 42
0.000000001
 43
0.0000000001
 40
8.0
 40
8.0
 40
8.0
 40
8.0
 40
9.0
 40
9.0
 40
9.0
 40
9.0
 10
384.4885767080609
 20
9.896282499408475
 30
0.0
 10
384.5861898402932
 20
9.96003025817581
 30
0.0
 10
384.7609967597755
 20
10.01182525280433
 30
0.0
 10
384.8775359726477
 20
10.01182525280433
 30
0.0
  0
SPLINE
  5
1FF
102
{ACAD_REACTORS
330
1F5
102
}
330
1F
100
AcDbEntity
  8
Capa 1
 62
     9
100
AcDbSpline
210
0.0
220
0.0
230
1.0
 70
    24
 71
     3
 72
     8
 73
     4
 74
     0
 42
0.000000001
 43
0.0000000001
 40
9.0
 40
9.0
 40
9.0
 40
9.0
 40
10.0
 40
10.0
 40
10.0
 40
10.0
 10
384.8775359726477
 20
10.01182525280433
 30
0.0
 10
384.8775359726477
 20
10.01182525280433
 30
0.0
 10
386.726216227325
 20
10.01182525280433
 30
0.0
 10
386.726216227325
 20
10.01182525280433
 30
0.0
  0
SPLINE
  5
200
102
{ACAD_REACTORS
330
1F5
102
}
330
1F
100
AcDbEntity
  8
Capa 1
 62
     9
100
AcDbSpline
210
0.0
220
0.0
230
1.0
 70
     8
 71
     3
 72
     8
 73
     4
 74
     0
 42
0.000000001
 43
0.0000000001
 40
10.0
 40
10.0
 40
10.0
 40
10.0
 40
11.0
 40
11.0
 40
11.0
 40
11.0
 10
386.726216227325
 20
10.01182525280433
 30
0.0
 10
386.8427554401928
 20
10.01182525280433
 30
0.0
 10
386.858193437711
 20
9.959532503395
 30
0.0
 10
386.7610780602578
 20
9.895784744627921
 30
0.0
  0
SPLINE
  5
201
102
{ACAD_REACTORS
330
1F5
102
}
330
1F
100
AcDbEntity
  8
Capa 1
 62
     9
100
AcDbSpline
210
0.0
220
0.0
230
1.0
 70
    24
 71
     3
 72
     8
 73
     4
 74
     0
 42
0.000000001
 43
0.0000000001
 40
11.0
 40
11.0
 40
11.0
 40
11.0
 40
12.0
 40
12.0
 40
12.0
 40
12.0
 10
386.7610780602578
 20
9.895784744627921
 30
0.0
 10
386.7610780602578
 20
9.895784744627921
 30
0.0
 10
380.6567464147622
 20
5.889146581930593
 30
0.0
 10
380.6567464147622
 20
5.889146581930593
 30
0.0
  0
SPLINE
  5
202
102
{ACAD_REACTORS
330
1F5
102
}
330
1F
100
AcDbEntity
  8
Capa 1
 62
     9
100
AcDbSpline
210
0.0
220
0.0
230
1.0
 70
     8
 71
     3
 72
     8
 73
     4
 74
     0
 42
0.000000001
 43
0.0000000001
 40
12.0
 40
12.0
 40
12.0
 40
12.0
 40
13.0
 40
13.0
 40
13.0
 40
13.0
 10
380.6567464147622
 20
5.889146581930593
 30
0.0
 10
380.5596310373085
 20
5.825399298120377
 30
0.0
 10
380.5586336279216
 20
5.719817339825912
 30
0.0
 10
380.6552512505905
 20
5.654575366801314
 30
0.0
  0
SPLINE
  5
203
102
{ACAD_REACTORS
330
1F5
102
}
330
1F
100
AcDbEntity
  8
Capa 1
 62
     9
100
AcDbSpline
210
0.0
220
0.0
230
1.0
 70
    24
 71
     3
 72
     8
 73
     4
 74
     0
 42
0.000000001
 43
0.0000000001
 40
13.0
 40
13.0
 40
13.0
 40
13.0
 40
14.0
 40
14.0
 40
14.0
 40
14.0
 10
380.6552512505905
 20
5.654575366801314
 30
0.0
 10
380.6552512505905
 20
5.654575366801314
 30
0.0
 10
386.9309074319335
 20
1.409382050900181
 30
0.0
 10
386.9309074319335
 20
1.409382050900181
 30
0.0
  0
SPLINE
  5
204
102
{ACAD_REACTORS
330
1F5
102
}
330
1F
100
AcDbEntity
  8
Capa 1
 62
     9
100
AcDbSpline
210
0.0
220
0.0
230
1.0
 70
     8
 71
     3
 72
     8
 73
     4
 74
     0
 42
0.000000001
 43
0.0000000001
 40
14.0
 40
14.0
 40
14.0
 40
14.0
 40
15.0
 40
15.0
 40
15.0
 40
15.0
 10
386.9309074319335
 20
1.409382050900181
 30
0.0
 10
387.0275250546033
 20
1.344140077877586
 30
0.0
 10
387.0110877478636
 20
1.290850868990336
 30
0.0
 10
386.894552334649
 20
1.290850868990336
 30
0.0
  0
SPLINE
  5
205
102
{ACAD_REACTORS
330
1F5
102
}
330
1F
100
AcDbEntity
  8
Capa 1
 62
     9
100
AcDbSpline
210
0.0
220
0.0
230
1.0
 70
    24
 71
     3
 72
     8
 73
     4
 74
     0
 42
0.000000001
 43
0.0000000001
 40
15.0
 40
15.0
 40
15.0
 40
15.0
 40
16.0
 40
16.0
 40
16.0
 40
16.0
 10
386.894552334649
 20
1.290850868990336
 30
0.0
 10
386.894552334649
 20
1.290850868990336
 30
0.0
 10
385.1081218248295
 20
1.290850868990336
 30
0.0
 10
385.1081218248295
 20
1.290850868990336
 30
0.0
  0
SPLINE
  5
206
102
{ACAD_REACTORS
330
1F5
102
}
330
1F
100
AcDbEntity
  8
Capa 1
 62
     9
100
AcDbSpline
210
0.0
220
0.0
230
1.0
 70
     8
 71
     3
 72
     8
 73
     4
 74
     0
 42
0.000000001
 43
0.0000000001
 40
16.0
 40
16.0
 40
16.0
 40
16.0
 40
17.0
 40
17.0
 40
17.0
 40
17.0
 10
385.1081218248295
 20
1.290850868990336
 30
0.0
 10
384.9915826119568
 20
1.290850868990336
 30
0.0
 10
384.817273447259
 20
1.344140077877586
 30
0.0
 10
384.7206558245896
 20
1.409382050900181
 30
0.0
  0
SPLINE
  5
207
102
{ACAD_REACTORS
330
1F5
102
}
330
1F
100
AcDbEntity
  8
Capa 1
 62
     9
100
AcDbSpline
210
0.0
220
0.0
230
1.0
 70
    24
 71
     3
 72
     8
 73
     4
 74
     0
 42
0.000000001
 43
0.0000000001
 40
17.0
 40
17.0
 40
17.0
 40
17.0
 40
18.0
 40
18.0
 40
18.0
 40
18.0
 10
384.7206558245896
 20
1.409382050900181
 30
0.0
 10
384.7206558245896
 20
1.409382050900181
 30
0.0
 10
379.3275074708858
 20
5.040506502539021
 30
0.0
 10
379.3275074708858
 20
5.040506502539021
 30
0.0
  0
SPLINE
  5
208
102
{ACAD_REACTORS
330
1F5
102
}
330
1F
100
AcDbEntity
  8
Capa 1
 62
     9
100
AcDbSpline
210
0.0
220
0.0
230
1.0
 70
     8
 71
     3
 72
     8
 73
     4
 74
     0
 42
0.000000001
 43
0.0000000001
 40
18.0
 40
18.0
 40
18.0
 40
18.0
 40
19.0
 40
19.0
 40
19.0
 40
19.0
 10
379.3275074708858
 20
5.040506502539021
 30
0.0
 10
379.2308917480408
 20
5.105748475563619
 30
0.0
 10
379.056580683514
 20
5.159037209491974
 30
0.0
 10
378.9400414706465
 20
5.159037209491974
 30
0.0
  0
SPLINE
  5
209
102
{ACAD_REACTORS
330
1F5
102
}
330
1F
100
AcDbEntity
  8
Capa 1
 62
     9
100
AcDbSpline
210
0.0
220
0.0
230
1.0
 70
    24
 71
     3
 72
     8
 73
     4
 74
     0
 42
0.000000001
 43
0.0000000001
 40
19.0
 40
19.0
 40
19.0
 40
19.0
 40
20.0
 40
20.0
 40
20.0
 40
20.0
 10
378.9400414706465
 20
5.159037209491974
 30
0.0
 10
378.9400414706465
 20
5.159037209491974
 30
0.0
 10
377.958429146261
 20
5.159037209491974
 30
0.0
 10
377.958429146261
 20
5.159037209491974
 30
0.0
  0
SPLINE
  5
20A
102
{ACAD_REACTORS
330
1F5
102
}
330
1F
100
AcDbEntity
  8
Capa 1
 62
     9
100
AcDbSpline
210
0.0
220
0.0
230
1.0
 70
     8
 71
     3
 72
     8
 73
     4
 74
     0
 42
0.000000001
 43
0.0000000001
 40
20.0
 40
20.0
 40
20.0
 40
20.0
 40
21.0
 40
21.0
 40
21.0
 40
21.0
 10
377.958429146261
 20
5.159037209491974
 30
0.0
 10
377.8413921786098
 20
5.159037209491974
 30
0.0
 10
377.746267820283
 20
5.063913801079895
 30
0.0
 10
377.746267820283
 20
4.947375063164632
 30
0.0
  0
SPLINE
  5
20B
102
{ACAD_REACTORS
330
1F5
102
}
330
1F
100
AcDbEntity
  8
Capa 1
 62
     9
100
AcDbSpline
210
0.0
220
0.0
230
1.0
 70
    24
 71
     3
 72
     8
 73
     4
 74
     0
 42
0.000000001
 43
0.0000000001
 40
21.0
 40
21.0
 40
21.0
 40
21.0
 40
22.0
 40
22.0
 40
22.0
 40
22.0
 10
377.746267820283
 20
4.947375063164632
 30
0.0
 10
377.746267820283
 20
4.947375063164632
 30
0.0
 10
377.746267820283
 20
1.502513490276446
 30
0.0
 10
377.746267820283
 20
1.502513490276446
 30
0.0
  0
SPLINE
  5
20C
102
{ACAD_REACTORS
330
1F5
102
}
330
1F
100
AcDbEntity
  8
Capa 1
 62
     9
100
AcDbSpline
210
0.0
220
0.0
230
1.0
 70
     8
 71
     3
 72
     8
 73
     4
 74
     0
 42
0.000000001
 43
0.0000000001
 40
22.0
 40
22.0
 40
22.0
 40
22.0
 40
23.0
 40
23.0
 40
23.0
 40
23.0
 10
377.746267820283
 20
1.502513490276446
 30
0.0
 10
377.746267820283
 20
1.385974277404191
 30
0.0
 10
377.6511453617752
 20
1.290850868990336
 30
0.0
 10
377.5346061489129
 20
1.290850868990336
 30
0.0
  0
SPLINE
  5
20D
102
{ACAD_REACTORS
330
1F5
102
}
330
1F
100
AcDbEntity
  8
Capa 1
 62
     9
100
AcDbSpline
210
0.0
220
0.0
230
1.0
 70
    24
 71
     3
 72
     8
 73
     4
 74
     0
 42
0.000000001
 43
0.0000000001
 40
23.0
 40
23.0
 40
23.0
 40
23.0
 40
24.0
 40
24.0
 40
24.0
 40
24.0
 10
377.5346061489129
 20
1.290850868990336
 30
0.0
 10
377.5346061489129
 20
1.290850868990336
 30
0.0
 10
376.6550886496061
 20
1.290850868990336
 30
0.0
 10
376.6550886496061
 20
1.290850868990336
 30
0.0
  0
SPLINE
  5
20E
102
{ACAD_REACTORS
330
1F5
102
}
330
1F
100
AcDbEntity
  8
Capa 1
 62
     9
100
AcDbSpline
210
0.0
220
0.0
230
1.0
 70
     8
 71
     3
 72
    11
 73
     7
 74
     0
 42
0.000000001
 43
0.0000000001
 40
24.0
 40
24.0
 40
24.0
 40
24.0
 40
25.0
 40
25.0
 40
25.0
 40
26.0
 40
26.0
 40
26.0
 40
26.0
 10
376.6550886496061
 20
1.290850868990336
 30
0.0
 10
376.5385494367436
 20
1.290850868990336
 30
0.0
 10
376.4434269782404
 20
1.385974277404191
 30
0.0
 10
376.4434269782404
 20
1.502513490276446
 30
0.0
 10
376.4434269782404
 20
1.502513490276446
 30
0.0
 10
376.4434269782404
 20
9.800163581433754
 30
0.0
 10
376.4434269782404
 20
9.800163581433754
 30
0.0
  0
HATCH
  5
20F
330
1F
100
AcDbEntity
  8
COTAS
 62
     9
100
AcDbHatch
 10
0.0
 20
0.0
 30
0.0
210
0.0
220
0.0
230
1.0
  2
SOLID
 70
     1
 71
     1
 91
        1
 92
        1
 93
       12
 72
     4
 94
        3
 73
     0
 74
     0
 95
        8
 96
        4
 40
11.0
 40
11.0
 40
11.0
 40
11.0
 40
12.0
 40
12.0
 40
12.0
 40
12.0
 10
411.1308943816762
 20
1.49899696020805
 10
411.1308943816762
 20
1.49899696020805
 10
411.1308943816762
 20
9.803958693868214
 10
411.1308943816762
 20
9.803958693868214
 97
        0
 72
     4
 94
        3
 73
     0
 74
     0
 95
        8
 96
        4
 40
0.0
 40
0.0
 40
0.0
 40
0.0
 40
1.0
 40
1.0
 40
1.0
 40
1.0
 10
411.1308943816762
 20
9.803958693868214
 10
411.1308943816762
 20
9.917945136507644
 10
411.2244189557097
 20
10.01098564236088
 10
411.3384063274639
 20
10.01098564236088
 97
        0
 72
     4
 94
        3
 73
     0
 74
     0
 95
        8
 96
        4
 40
1.0
 40
1.0
 40
1.0
 40
1.0
 40
2.0
 40
2.0
 40
2.0
 40
2.0
 10
411.3384063274639
 20
10.01098564236088
 10
411.3384063274639
 20
10.01098564236088
 10
412.2123008391779
 20
10.01098564236088
 10
412.2123008391779
 20
10.01098564236088
 97
        0
 72
     4
 94
        3
 73
     0
 74
     0
 95
        8
 96
        4
 40
2.0
 40
2.0
 40
2.0
 40
2.0
 40
3.0
 40
3.0
 40
3.0
 40
3.0
 10
412.2123008391779
 20
10.01098564236088
 10
412.3262919273889
 20
10.01098564236088
 10
412.4193296458927
 20
9.917945136507644
 10
412.4193296458927
 20
9.803958693868214
 97
        0
 72
     4
 94
        3
 73
     0
 74
     0
 95
        8
 96
        4
 40
3.0
 40
3.0
 40
3.0
 40
3.0
 40
4.0
 40
4.0
 40
4.0
 40
4.0
 10
412.4193296458927
 20
9.803958693868214
 10
412.4193296458927
 20
9.803958693868214
 10
412.4193296458927
 20
2.671989396237709
 10
412.4193296458927
 20
2.671989396237709
 97
        0
 72
     4
 94
        3
 73
     0
 74
     0
 95
        8
 96
        4
 40
4.0
 40
4.0
 40
4.0
 40
4.0
 40
5.0
 40
5.0
 40
5.0
 40
5.0
 10
412.4193296458927
 20
2.671989396237709
 10
412.4193296458927
 20
2.558002489041403
 10
412.5123747973214
 20
2.464961983187695
 10
412.6263584526187
 20
2.464961983187695
 97
        0
 72
     4
 94
        3
 73
     0
 74
     0
 95
        8
 96
        4
 40
5.0
 40
5.0
 40
5.0
 40
5.0
 40
6.0
 40
6.0
 40
6.0
 40
6.0
 10
412.6263584526187
 20
2.464961983187695
 10
412.6263584526187
 20
2.464961983187695
 10
418.905865566287
 20
2.464961983187695
 10
418.905865566287
 20
2.464961983187695
 97
        0
 72
     4
 94
        3
 73
     0
 74
     0
 95
        8
 96
        4
 40
6.0
 40
6.0
 40
6.0
 40
6.0
 40
7.0
 40
7.0
 40
7.0
 40
7.0
 10
418.905865566287
 20
2.464961983187695
 10
419.0193660825163
 20
2.464961983187695
 10
419.1128869400981
 20
2.371921477335949
 10
419.1128869400981
 20
2.257934570139174
 97
        0
 72
     4
 94
        3
 73
     0
 74
     0
 95
        8
 96
        4
 40
7.0
 40
7.0
 40
7.0
 40
7.0
 40
8.0
 40
8.0
 40
8.0
 40
8.0
 10
419.1128869400981
 20
2.257934570139174
 10
419.1128869400981
 20
2.257934570139174
 10
419.1128869400981
 20
1.49899696020805
 10
419.1128869400981
 20
1.49899696020805
 97
        0
 72
     4
 94
        3
 73
     0
 74
     0
 95
        8
 96
        4
 40
8.0
 40
8.0
 40
8.0
 40
8.0
 40
9.0
 40
9.0
 40
9.0
 40
9.0
 10
419.1128869400981
 20
1.49899696020805
 10
419.1128869400981
 20
1.385009588454256
 10
419.0193660825163
 20
1.291969082601074
 10
418.905865566287
 20
1.291969082601074
 97
        0
 72
     4
 94
        3
 73
     0
 74
     0
 95
        8
 96
        4
 40
9.0
 40
9.0
 40
9.0
 40
9.0
 40
10.0
 40
10.0
 40
10.0
 40
10.0
 10
418.905865566287
 20
1.291969082601074
 10
418.905865566287
 20
1.291969082601074
 10
411.3384063274639
 20
1.291969082601074
 10
411.3384063274639
 20
1.291969082601074
 97
        0
 72
     4
 94
        3
 73
     0
 74
     0
 95
        8
 96
        4
 40
10.0
 40
10.0
 40
10.0
 40
10.0
 40
11.0
 40
11.0
 40
11.0
 40
11.0
 10
411.3384063274639
 20
1.291969082601074
 10
411.2244189557097
 20
1.291969082601074
 10
411.1308943816762
 20
1.385009588454256
 10
411.1308943816762
 20
1.49899696020805
 97
        0
 97
       12
330
21B
330
210
330
211
330
212
330
213
330
214
330
215
330
216
330
217
330
218
330
219
330
21A
 75
     1
 76
     1
 98
        1
 10
-96.22923855780971
 20
-2.584739096925741
1001
GradientColor1ACI
1070
     5
1001
GradientColor2ACI
1070
     2
1001
ACAD
1010
0.0
1020
0.0
1030
0.0
  0
SPLINE
  5
210
102
{ACAD_REACTORS
330
20F
102
}
330
1F
100
AcDbEntity
  8
Capa 1
 62
     9
100
AcDbSpline
210
0.0
220
0.0
230
1.0
 70
     8
 71
     3
 72
     8
 73
     4
 74
     0
 42
0.000000001
 43
0.0000000001
 40
0.0
 40
0.0
 40
0.0
 40
0.0
 40
1.0
 40
1.0
 40
1.0
 40
1.0
 10
411.1308943816762
 20
9.803958693868214
 30
0.0
 10
411.1308943816762
 20
9.917945136507644
 30
0.0
 10
411.2244189557097
 20
10.01098564236088
 30
0.0
 10
411.3384063274639
 20
10.01098564236088
 30
0.0
  0
SPLINE
  5
211
102
{ACAD_REACTORS
330
20F
102
}
330
1F
100
AcDbEntity
  8
Capa 1
 62
     9
100
AcDbSpline
210
0.0
220
0.0
230
1.0
 70
    24
 71
     3
 72
     8
 73
     4
 74
     0
 42
0.000000001
 43
0.0000000001
 40
1.0
 40
1.0
 40
1.0
 40
1.0
 40
2.0
 40
2.0
 40
2.0
 40
2.0
 10
411.3384063274639
 20
10.01098564236088
 30
0.0
 10
411.3384063274639
 20
10.01098564236088
 30
0.0
 10
412.2123008391779
 20
10.01098564236088
 30
0.0
 10
412.2123008391779
 20
10.01098564236088
 30
0.0
  0
SPLINE
  5
212
102
{ACAD_REACTORS
330
20F
102
}
330
1F
100
AcDbEntity
  8
Capa 1
 62
     9
100
AcDbSpline
210
0.0
220
0.0
230
1.0
 70
     8
 71
     3
 72
     8
 73
     4
 74
     0
 42
0.000000001
 43
0.0000000001
 40
2.0
 40
2.0
 40
2.0
 40
2.0
 40
3.0
 40
3.0
 40
3.0
 40
3.0
 10
412.2123008391779
 20
10.01098564236088
 30
0.0
 10
412.3262919273889
 20
10.01098564236088
 30
0.0
 10
412.4193296458927
 20
9.917945136507644
 30
0.0
 10
412.4193296458927
 20
9.803958693868214
 30
0.0
  0
SPLINE
  5
213
102
{ACAD_REACTORS
330
20F
102
}
330
1F
100
AcDbEntity
  8
Capa 1
 62
     9
100
AcDbSpline
210
0.0
220
0.0
230
1.0
 70
    24
 71
     3
 72
     8
 73
     4
 74
     0
 42
0.000000001
 43
0.0000000001
 40
3.0
 40
3.0
 40
3.0
 40
3.0
 40
4.0
 40
4.0
 40
4.0
 40
4.0
 10
412.4193296458927
 20
9.803958693868214
 30
0.0
 10
412.4193296458927
 20
9.803958693868214
 30
0.0
 10
412.4193296458927
 20
2.671989396237709
 30
0.0
 10
412.4193296458927
 20
2.671989396237709
 30
0.0
  0
SPLINE
  5
214
102
{ACAD_REACTORS
330
20F
102
}
330
1F
100
AcDbEntity
  8
Capa 1
 62
     9
100
AcDbSpline
210
0.0
220
0.0
230
1.0
 70
     8
 71
     3
 72
     8
 73
     4
 74
     0
 42
0.000000001
 43
0.0000000001
 40
4.0
 40
4.0
 40
4.0
 40
4.0
 40
5.0
 40
5.0
 40
5.0
 40
5.0
 10
412.4193296458927
 20
2.671989396237709
 30
0.0
 10
412.4193296458927
 20
2.558002489041403
 30
0.0
 10
412.5123747973214
 20
2.464961983187695
 30
0.0
 10
412.6263584526187
 20
2.464961983187695
 30
0.0
  0
SPLINE
  5
215
102
{ACAD_REACTORS
330
20F
102
}
330
1F
100
AcDbEntity
  8
Capa 1
 62
     9
100
AcDbSpline
210
0.0
220
0.0
230
1.0
 70
    24
 71
     3
 72
     8
 73
     4
 74
     0
 42
0.000000001
 43
0.0000000001
 40
5.0
 40
5.0
 40
5.0
 40
5.0
 40
6.0
 40
6.0
 40
6.0
 40
6.0
 10
412.6263584526187
 20
2.464961983187695
 30
0.0
 10
412.6263584526187
 20
2.464961983187695
 30
0.0
 10
418.905865566287
 20
2.464961983187695
 30
0.0
 10
418.905865566287
 20
2.464961983187695
 30
0.0
  0
SPLINE
  5
216
102
{ACAD_REACTORS
330
20F
102
}
330
1F
100
AcDbEntity
  8
Capa 1
 62
     9
100
AcDbSpline
210
0.0
220
0.0
230
1.0
 70
     8
 71
     3
 72
     8
 73
     4
 74
     0
 42
0.000000001
 43
0.0000000001
 40
6.0
 40
6.0
 40
6.0
 40
6.0
 40
7.0
 40
7.0
 40
7.0
 40
7.0
 10
418.905865566287
 20
2.464961983187695
 30
0.0
 10
419.0193660825163
 20
2.464961983187695
 30
0.0
 10
419.1128869400981
 20
2.371921477335949
 30
0.0
 10
419.1128869400981
 20
2.257934570139174
 30
0.0
  0
SPLINE
  5
217
102
{ACAD_REACTORS
330
20F
102
}
330
1F
100
AcDbEntity
  8
Capa 1
 62
     9
100
AcDbSpline
210
0.0
220
0.0
230
1.0
 70
    24
 71
     3
 72
     8
 73
     4
 74
     0
 42
0.000000001
 43
0.0000000001
 40
7.0
 40
7.0
 40
7.0
 40
7.0
 40
8.0
 40
8.0
 40
8.0
 40
8.0
 10
419.1128869400981
 20
2.257934570139174
 30
0.0
 10
419.1128869400981
 20
2.257934570139174
 30
0.0
 10
419.1128869400981
 20
1.49899696020805
 30
0.0
 10
419.1128869400981
 20
1.49899696020805
 30
0.0
  0
SPLINE
  5
218
102
{ACAD_REACTORS
330
20F
102
}
330
1F
100
AcDbEntity
  8
Capa 1
 62
     9
100
AcDbSpline
210
0.0
220
0.0
230
1.0
 70
     8
 71
     3
 72
     8
 73
     4
 74
     0
 42
0.000000001
 43
0.0000000001
 40
8.0
 40
8.0
 40
8.0
 40
8.0
 40
9.0
 40
9.0
 40
9.0
 40
9.0
 10
419.1128869400981
 20
1.49899696020805
 30
0.0
 10
419.1128869400981
 20
1.385009588454256
 30
0.0
 10
419.0193660825163
 20
1.291969082601074
 30
0.0
 10
418.905865566287
 20
1.291969082601074
 30
0.0
  0
SPLINE
  5
219
102
{ACAD_REACTORS
330
20F
102
}
330
1F
100
AcDbEntity
  8
Capa 1
 62
     9
100
AcDbSpline
210
0.0
220
0.0
230
1.0
 70
    24
 71
     3
 72
     8
 73
     4
 74
     0
 42
0.000000001
 43
0.0000000001
 40
9.0
 40
9.0
 40
9.0
 40
9.0
 40
10.0
 40
10.0
 40
10.0
 40
10.0
 10
418.905865566287
 20
1.291969082601074
 30
0.0
 10
418.905865566287
 20
1.291969082601074
 30
0.0
 10
411.3384063274639
 20
1.291969082601074
 30
0.0
 10
411.3384063274639
 20
1.291969082601074
 30
0.0
  0
SPLINE
  5
21A
102
{ACAD_REACTORS
330
20F
102
}
330
1F
100
AcDbEntity
  8
Capa 1
 62
     9
100
AcDbSpline
210
0.0
220
0.0
230
1.0
 70
     8
 71
     3
 72
     8
 73
     4
 74
     0
 42
0.000000001
 43
0.0000000001
 40
10.0
 40
10.0
 40
10.0
 40
10.0
 40
11.0
 40
11.0
 40
11.0
 40
11.0
 10
411.3384063274639
 20
1.291969082601074
 30
0.0
 10
411.2244189557097
 20
1.291969082601074
 30
0.0
 10
411.1308943816762
 20
1.385009588454256
 30
0.0
 10
411.1308943816762
 20
1.49899696020805
 30
0.0
  0
SPLINE
  5
21B
102
{ACAD_REACTORS
330
20F
102
}
330
1F
100
AcDbEntity
  8
Capa 1
 62
     9
100
AcDbSpline
210
0.0
220
0.0
230
1.0
 70
    24
 71
     3
 72
     8
 73
     4
 74
     0
 42
0.000000001
 43
0.0000000001
 40
11.0
 40
11.0
 40
11.0
 40
11.0
 40
12.0
 40
12.0
 40
12.0
 40
12.0
 10
411.1308943816762
 20
1.49899696020805
 30
0.0
 10
411.1308943816762
 20
1.49899696020805
 30
0.0
 10
411.1308943816762
 20
9.803958693868214
 30
0.0
 10
411.1308943816762
 20
9.803958693868214
 30
0.0
  0
HATCH
  5
21C
330
1F
100
AcDbEntity
  8
COTAS
 62
     9
100
AcDbHatch
 10
0.0
 20
0.0
 30
0.0
210
0.0
220
0.0
230
1.0
  2
SOLID
 70
     1
 71
     1
 91
        1
 92
        1
 93
        8
 72
     4
 94
        3
 73
     0
 74
     0
 95
        8
 96
        4
 40
7.0
 40
7.0
 40
7.0
 40
7.0
 40
8.0
 40
8.0
 40
8.0
 40
8.0
 10
422.245257043806
 20
9.807150148083299
 10
422.245257043806
 20
9.807150148083299
 10
422.245257043806
 20
1.495804024793845
 10
422.245257043806
 20
1.495804024793845
 97
        0
 72
     4
 94
        3
 73
     0
 74
     0
 95
        8
 96
        4
 40
0.0
 40
0.0
 40
0.0
 40
0.0
 40
1.0
 40
1.0
 40
1.0
 40
1.0
 10
422.245257043806
 20
1.495804024793845
 10
422.245257043806
 20
1.381729592145366
 10
422.1521403641583
 20
1.28861754710562
 10
422.0380690842047
 20
1.28861754710562
 97
        0
 72
     4
 94
        3
 73
     0
 74
     0
 95
        8
 96
        4
 40
1.0
 40
1.0
 40
1.0
 40
1.0
 40
2.0
 40
2.0
 40
2.0
 40
2.0
 10
422.0380690842047
 20
1.28861754710562
 10
422.0380690842047
 20
1.28861754710562
 10
421.150819916456
 20
1.28861754710562
 10
421.150819916456
 20
1.28861754710562
 97
        0
 72
     4
 94
        3
 73
     0
 74
     0
 95
        8
 96
        4
 40
2.0
 40
2.0
 40
2.0
 40
2.0
 40
3.0
 40
3.0
 40
3.0
 40
3.0
 10
421.150819916456
 20
1.28861754710562
 10
421.0367486365076
 20
1.28861754710562
 10
420.9436319568593
 20
1.381729592145366
 10
420.9436319568593
 20
1.495804024793845
 97
        0
 72
     4
 94
        3
 73
     0
 74
     0
 95
        8
 96
        4
 40
3.0
 40
3.0
 40
3.0
 40
3.0
 40
4.0
 40
4.0
 40
4.0
 40
4.0
 10
420.9436319568593
 20
1.495804024793845
 10
420.9436319568593
 20
1.495804024793845
 10
420.9436319568593
 20
9.807150148083299
 10
420.9436319568593
 20
9.807150148083299
 97
        0
 72
     4
 94
        3
 73
     0
 74
     0
 95
        8
 96
        4
 40
4.0
 40
4.0
 40
4.0
 40
4.0
 40
5.0
 40
5.0
 40
5.0
 40
5.0
 10
420.9436319568593
 20
9.807150148083299
 10
420.9436319568593
 20
9.92122514734513
 10
421.0367486365076
 20
10.01433717785605
 10
421.150819916456
 20
10.01433717785605
 97
        0
 72
     4
 94
        3
 73
     0
 74
     0
 95
        8
 96
        4
 40
5.0
 40
5.0
 40
5.0
 40
5.0
 40
6.0
 40
6.0
 40
6.0
 40
6.0
 10
421.150819916456
 20
10.01433717785605
 10
421.150819916456
 20
10.01433717785605
 10
422.0380690842047
 20
10.01433717785605
 10
422.0380690842047
 20
10.01433717785605
 97
        0
 72
     4
 94
        3
 73
     0
 74
     0
 95
        8
 96
        4
 40
6.0
 40
6.0
 40
6.0
 40
6.0
 40
7.0
 40
7.0
 40
7.0
 40
7.0
 10
422.0380690842047
 20
10.01433717785605
 10
422.1521403641583
 20
10.01433717785605
 10
422.245257043806
 20
9.92122514734513
 10
422.245257043806
 20
9.807150148083299
 97
        0
 97
        8
330
224
330
21D
330
21E
330
21F
330
220
330
221
330
222
330
223
 75
     1
 76
     1
 98
        1
 10
-96.22923855780971
 20
-2.584739096925741
1001
GradientColor1ACI
1070
     5
1001
GradientColor2ACI
1070
     2
1001
ACAD
1010
0.0
1020
0.0
1030
0.0
  0
SPLINE
  5
21D
102
{ACAD_REACTORS
330
21C
102
}
330
1F
100
AcDbEntity
  8
Capa 1
 62
     9
100
AcDbSpline
210
0.0
220
0.0
230
1.0
 70
     8
 71
     3
 72
     8
 73
     4
 74
     0
 42
0.000000001
 43
0.0000000001
 40
0.0
 40
0.0
 40
0.0
 40
0.0
 40
1.0
 40
1.0
 40
1.0
 40
1.0
 10
422.245257043806
 20
1.495804024793845
 30
0.0
 10
422.245257043806
 20
1.381729592145366
 30
0.0
 10
422.1521403641583
 20
1.28861754710562
 30
0.0
 10
422.0380690842047
 20
1.28861754710562
 30
0.0
  0
SPLINE
  5
21E
102
{ACAD_REACTORS
330
21C
102
}
330
1F
100
AcDbEntity
  8
Capa 1
 62
     9
100
AcDbSpline
210
0.0
220
0.0
230
1.0
 70
    24
 71
     3
 72
     8
 73
     4
 74
     0
 42
0.000000001
 43
0.0000000001
 40
1.0
 40
1.0
 40
1.0
 40
1.0
 40
2.0
 40
2.0
 40
2.0
 40
2.0
 10
422.0380690842047
 20
1.28861754710562
 30
0.0
 10
422.0380690842047
 20
1.28861754710562
 30
0.0
 10
421.150819916456
 20
1.28861754710562
 30
0.0
 10
421.150819916456
 20
1.28861754710562
 30
0.0
  0
SPLINE
  5
21F
102
{ACAD_REACTORS
330
21C
102
}
330
1F
100
AcDbEntity
  8
Capa 1
 62
     9
100
AcDbSpline
210
0.0
220
0.0
230
1.0
 70
     8
 71
     3
 72
     8
 73
     4
 74
     0
 42
0.000000001
 43
0.0000000001
 40
2.0
 40
2.0
 40
2.0
 40
2.0
 40
3.0
 40
3.0
 40
3.0
 40
3.0
 10
421.150819916456
 20
1.28861754710562
 30
0.0
 10
421.0367486365076
 20
1.28861754710562
 30
0.0
 10
420.9436319568593
 20
1.381729592145366
 30
0.0
 10
420.9436319568593
 20
1.495804024793845
 30
0.0
  0
SPLINE
  5
220
102
{ACAD_REACTORS
330
21C
102
}
330
1F
100
AcDbEntity
  8
Capa 1
 62
     9
100
AcDbSpline
210
0.0
220
0.0
230
1.0
 70
    24
 71
     3
 72
     8
 73
     4
 74
     0
 42
0.000000001
 43
0.0000000001
 40
3.0
 40
3.0
 40
3.0
 40
3.0
 40
4.0
 40
4.0
 40
4.0
 40
4.0
 10
420.9436319568593
 20
1.495804024793845
 30
0.0
 10
420.9436319568593
 20
1.495804024793845
 30
0.0
 10
420.9436319568593
 20
9.807150148083299
 30
0.0
 10
420.9436319568593
 20
9.807150148083299
 30
0.0
  0
SPLINE
  5
221
102
{ACAD_REACTORS
330
21C
102
}
330
1F
100
AcDbEntity
  8
Capa 1
 62
     9
100
AcDbSpline
210
0.0
220
0.0
230
1.0
 70
     8
 71
     3
 72
     8
 73
     4
 74
     0
 42
0.000000001
 43
0.0000000001
 40
4.0
 40
4.0
 40
4.0
 40
4.0
 40
5.0
 40
5.0
 40
5.0
 40
5.0
 10
420.9436319568593
 20
9.807150148083299
 30
0.0
 10
420.9436319568593
 20
9.92122514734513
 30
0.0
 10
421.0367486365076
 20
10.01433717785605
 30
0.0
 10
421.150819916456
 20
10.01433717785605
 30
0.0
  0
SPLINE
  5
222
102
{ACAD_REACTORS
330
21C
102
}
330
1F
100
AcDbEntity
  8
Capa 1
 62
     9
100
AcDbSpline
210
0.0
220
0.0
230
1.0
 70
    24
 71
     3
 72
     8
 73
     4
 74
     0
 42
0.000000001
 43
0.0000000001
 40
5.0
 40
5.0
 40
5.0
 40
5.0
 40
6.0
 40
6.0
 40
6.0
 40
6.0
 10
421.150819916456
 20
10.01433717785605
 30
0.0
 10
421.150819916456
 20
10.01433717785605
 30
0.0
 10
422.0380690842047
 20
10.01433717785605
 30
0.0
 10
422.0380690842047
 20
10.01433717785605
 30
0.0
  0
SPLINE
  5
223
102
{ACAD_REACTORS
330
21C
102
}
330
1F
100
AcDbEntity
  8
Capa 1
 62
     9
100
AcDbSpline
210
0.0
220
0.0
230
1.0
 70
     8
 71
     3
 72
     8
 73
     4
 74
     0
 42
0.000000001
 43
0.0000000001
 40
6.0
 40
6.0
 40
6.0
 40
6.0
 40
7.0
 40
7.0
 40
7.0
 40
7.0
 10
422.0380690842047
 20
10.01433717785605
 30
0.0
 10
422.1521403641583
 20
10.01433717785605
 30
0.0
 10
422.245257043806
 20
9.92122514734513
 30
0.0
 10
422.245257043806
 20
9.807150148083299
 30
0.0
  0
SPLINE
  5
224
102
{ACAD_REACTORS
330
21C
102
}
330
1F
100
AcDbEntity
  8
Capa 1
 62
     9
100
AcDbSpline
210
0.0
220
0.0
230
1.0
 70
    24
 71
     3
 72
     8
 73
     4
 74
     0
 42
0.000000001
 43
0.0000000001
 40
7.0
 40
7.0
 40
7.0
 40
7.0
 40
8.0
 40
8.0
 40
8.0
 40
8.0
 10
422.245257043806
 20
9.807150148083299
 30
0.0
 10
422.245257043806
 20
9.807150148083299
 30
0.0
 10
422.245257043806
 20
1.495804024793845
 30
0.0
 10
422.245257043806
 20
1.495804024793845
 30
0.0
  0
HATCH
  5
225
330
1F
100
AcDbEntity
  8
COTAS
 62
     9
100
AcDbHatch
 10
0.0
 20
0.0
 30
0.0
210
0.0
220
0.0
230
1.0
  2
SOLID
 70
     1
 71
     1
 91
        1
 92
        1
 93
       29
 72
     4
 94
        3
 73
     0
 74
     0
 95
        8
 96
        4
 40
34.0
 40
34.0
 40
34.0
 40
34.0
 40
35.0
 40
35.0
 40
35.0
 40
35.0
 10
432.8495987755713
 20
4.582346459058446
 10
432.8495987755713
 20
4.582346459058446
 10
429.0923449527813
 20
4.576147788452975
 10
429.0923449527813
 20
4.576147788452975
 97
        0
 72
     4
 94
        3
 73
     0
 74
     0
 95
        8
 96
        4
 40
0.0
 40
0.0
 40
0.0
 40
0.0
 40
1.0
 40
1.0
 40
1.0
 40
1.0
 10
429.0923449527813
 20
4.576147788452975
 10
428.975333594351
 20
4.576147788452975
 10
428.8795748208548
 20
4.671692814686967
 10
428.8795748208548
 20
4.788765243763937
 97
        0
 72
     4
 94
        3
 73
     0
 74
     0
 95
        8
 96
        4
 40
1.0
 40
1.0
 40
1.0
 40
1.0
 40
2.0
 40
2.0
 40
2.0
 40
2.0
 10
428.8795748208548
 20
4.788765243763937
 10
428.8795748208548
 20
4.788765243763937
 10
428.8795748208548
 20
5.539201346266143
 10
428.8795748208548
 20
5.539201346266143
 97
        0
 72
     4
 94
        3
 73
     0
 74
     0
 95
        8
 96
        4
 40
2.0
 40
2.0
 40
2.0
 40
2.0
 40
3.0
 40
3.0
 40
3.0
 40
3.0
 10
428.8795748208548
 20
5.539201346266143
 10
428.8795748208548
 20
5.656273775342616
 10
428.975333594351
 20
5.751818801576906
 10
429.0923449527813
 20
5.751818801576906
 97
        0
 72
     4
 94
        3
 73
     0
 74
     0
 95
        8
 96
        4
 40
3.0
 40
3.0
 40
3.0
 40
3.0
 40
4.0
 40
4.0
 40
4.0
 40
4.0
 10
429.0923449527813
 20
5.751818801576906
 10
429.0923449527813
 20
5.751818801576906
 10
429.152438468802
 20
5.751818801576906
 10
429.152438468802
 20
5.751818801576906
 97
        0
 72
     4
 94
        3
 73
     0
 74
     0
 95
        8
 96
        4
 40
4.0
 40
4.0
 40
4.0
 40
4.0
 40
5.0
 40
5.0
 40
5.0
 40
5.0
 10
429.152438468802
 20
5.751818801576906
 10
429.152438468802
 20
5.751818801576906
 10
429.152438468802
 20
5.752032548839072
 10
429.152438468802
 20
5.752032548839072
 97
        0
 72
     4
 94
        3
 73
     0
 74
     0
 95
        8
 96
        4
 40
5.0
 40
5.0
 40
5.0
 40
5.0
 40
6.0
 40
6.0
 40
6.0
 40
6.0
 10
429.152438468802
 20
5.752032548839072
 10
429.152438468802
 20
5.752032548839072
 10
434.1172690480837
 20
5.752032548839072
 10
434.1172690480837
 20
5.752032548839072
 97
        0
 72
     4
 94
        3
 73
     0
 74
     0
 95
        8
 96
        4
 40
6.0
 40
6.0
 40
6.0
 40
6.0
 40
7.0
 40
7.0
 40
7.0
 40
7.0
 10
434.1172690480837
 20
5.752032548839072
 10
434.1172690480837
 20
5.752032548839072
 10
434.2240143081907
 20
5.746191142258457
 10
434.2907226531468
 20
5.691611587294407
 97
        0
 72
     4
 94
        3
 73
     0
 74
     0
 95
        8
 96
        4
 40
7.0
 40
7.0
 40
7.0
 40
7.0
 40
8.0
 40
8.0
 40
8.0
 40
8.0
 10
434.2907226531468
 20
5.691611587294407
 10
434.3798810482715
 20
5.618663809464355
 10
434.3664031846822
 20
5.479252500722527
 10
434.3664031846822
 20
5.479252500722527
 97
        0
 72
     4
 94
        3
 73
     0
 74
     0
 95
        8
 96
        4
 40
8.0
 40
8.0
 40
8.0
 40
8.0
 40
9.0
 40
9.0
 40
9.0
 40
9.0
 10
434.3664031846822
 20
5.479252500722527
 10
434.3664031846822
 20
5.479252500722527
 10
434.3664031846822
 20
4.582346459058446
 10
434.3664031846822
 20
4.582346459058446
 97
        0
 72
     4
 94
        3
 73
     0
 74
     0
 95
        8
 96
        4
 40
9.0
 40
9.0
 40
9.0
 40
9.0
 40
10.0
 40
10.0
 40
10.0
 40
10.0
 10
434.3664031846822
 20
4.582346459058446
 10
434.3664031846822
 20
3.083489585384147
 10
434.061785588589
 20
2.138421332924754
 10
433.4515676901357
 20
1.74769133749783
 97
        0
 72
     4
 94
        3
 73
     0
 74
     0
 95
       11
 96
        7
 40
10.0
 40
10.0
 40
10.0
 40
10.0
 40
11.0
 40
11.0
 40
11.0
 40
12.0
 40
12.0
 40
12.0
 40
12.0
 10
433.4515676901357
 20
1.74769133749783
 10
432.8415940742667
 20
1.350976418726876
 10
431.4271979045118
 20
1.152344141433009
 10
429.2088677460409
 20
1.152344141433009
 10
426.9551166126796
 20
1.152344141433009
 10
425.535834791216
 20
1.410520298930297
 10
424.9505337164782
 20
1.927819208943863
 97
        0
 72
     4
 94
        3
 73
     0
 74
     0
 95
       11
 96
        7
 40
12.0
 40
12.0
 40
12.0
 40
12.0
 40
13.0
 40
13.0
 40
13.0
 40
14.0
 40
14.0
 40
14.0
 40
14.0
 10
424.9505337164782
 20
1.927819208943863
 10
424.3676754675948
 20
2.442614222456744
 10
424.0760020605674
 20
3.687325601293399
 10
424.0760020605674
 20
5.6619838807778
 10
424.0760020605674
 20
7.634626828932145
 10
424.3676754675948
 20
8.874849515261037
 10
424.9505337164782
 20
9.38362907010664
 97
        0
 72
     4
 94
        3
 73
     0
 74
     0
 95
       11
 96
        7
 40
14.0
 40
14.0
 40
14.0
 40
14.0
 40
15.0
 40
15.0
 40
15.0
 40
16.0
 40
16.0
 40
16.0
 40
16.0
 10
424.9505337164782
 20
9.38362907010664
 10
425.5272849007251
 20
9.88391980510811
 10
426.9468110047753
 20
10.13406517260885
 10
429.2088677460409
 20
10.13406517260885
 10
431.4357477950026
 20
10.13406517260885
 10
432.8540524861249
 20
9.968991215491034
 10
433.464026101993
 20
9.637774564944326
 97
        0
 72
     4
 94
        3
 73
     0
 74
     0
 95
        8
 96
        4
 40
16.0
 40
16.0
 40
16.0
 40
16.0
 40
17.0
 40
17.0
 40
17.0
 40
17.0
 10
433.464026101993
 20
9.637774564944326
 10
434.0620298711749
 20
9.301244768163432
 10
434.3427105618572
 20
8.711729818826843
 10
434.346374800639
 20
7.424268987536397
 97
        0
 72
     4
 94
        3
 73
     0
 74
     0
 95
        8
 96
        4
 40
17.0
 40
17.0
 40
17.0
 40
17.0
 40
18.0
 40
18.0
 40
18.0
 40
18.0
 10
434.346374800639
 20
7.424268987536397
 10
434.346374800639
 20
7.422681150730998
 10
434.3471076483944
 20
7.421337596511282
 10
434.3471076483944
 20
7.419749759705869
 97
        0
 72
     4
 94
        3
 73
     0
 74
     0
 95
        8
 96
        4
 40
18.0
 40
18.0
 40
18.0
 40
18.0
 40
19.0
 40
19.0
 40
19.0
 40
19.0
 10
434.3471076483944
 20
7.419749759705869
 10
434.3471076483944
 20
7.419749759705869
 10
434.3471076483944
 20
7.382221847515925
 10
434.3471076483944
 20
7.382221847515925
 97
        0
 72
     4
 94
        3
 73
     0
 74
     0
 95
        8
 96
        4
 40
19.0
 40
19.0
 40
19.0
 40
19.0
 40
20.0
 40
20.0
 40
20.0
 40
20.0
 10
434.3471076483944
 20
7.382221847515925
 10
434.3471076483944
 20
7.265149418439382
 10
434.2515931574837
 20
7.169604392204921
 10
434.1345817990529
 20
7.169604392204921
 97
        0
 72
     4
 94
        3
 73
     0
 74
     0
 95
        8
 96
        4
 40
20.0
 40
20.0
 40
20.0
 40
20.0
 40
21.0
 40
21.0
 40
21.0
 40
21.0
 10
434.1345817990529
 20
7.169604392204921
 10
434.1345817990529
 20
7.169604392204921
 10
433.2820355758333
 20
7.169604392204921
 10
433.2820355758333
 20
7.169604392204921
 97
        0
 72
     4
 94
        3
 73
     0
 74
     0
 95
        8
 96
        4
 40
21.0
 40
21.0
 40
21.0
 40
21.0
 40
22.0
 40
22.0
 40
22.0
 40
22.0
 10
433.2820355758333
 20
7.169604392204921
 10
433.1650242174024
 20
7.169604392204921
 10
433.0695097264913
 20
7.265149418439382
 10
433.0695097264913
 20
7.382221847515925
 97
        0
 72
     4
 94
        3
 73
     0
 74
     0
 95
        8
 96
        4
 40
22.0
 40
22.0
 40
22.0
 40
22.0
 40
23.0
 40
23.0
 40
23.0
 40
23.0
 10
433.0695097264913
 20
7.382221847515925
 10
433.0695097264913
 20
7.382221847515925
 10
433.0695097264913
 20
7.401001071272393
 10
433.0695097264913
 20
7.401001071272393
 97
        0
 72
     4
 94
        3
 73
     0
 74
     0
 95
        8
 96
        4
 40
23.0
 40
23.0
 40
23.0
 40
23.0
 40
24.0
 40
24.0
 40
24.0
 40
24.0
 10
433.0695097264913
 20
7.401001071272393
 10
433.0695097264913
 20
7.401001071272393
 10
433.0663340528802
 20
7.401001071272393
 10
433.0663340528802
 20
7.401001071272393
 97
        0
 72
     4
 94
        3
 73
     0
 74
     0
 95
        8
 96
        4
 40
24.0
 40
24.0
 40
24.0
 40
24.0
 40
25.0
 40
25.0
 40
25.0
 40
25.0
 10
433.0663340528802
 20
7.401001071272393
 10
433.0663340528802
 20
8.24047817617043
 10
432.8660223328117
 20
8.52063976635846
 10
432.4588032628673
 20
8.698233205980817
 97
        0
 72
     4
 94
        3
 73
     0
 74
     0
 95
       11
 96
        7
 40
25.0
 40
25.0
 40
25.0
 40
25.0
 40
26.0
 40
26.0
 40
26.0
 40
27.0
 40
27.0
 40
27.0
 40
27.0
 10
432.4588032628673
 20
8.698233205980817
 10
432.0537827361911
 20
8.867826390928844
 10
430.9706337523062
 20
8.952378700817949
 10
429.2088677460409
 20
8.952378700817949
 10
427.3269147077343
 20
8.952378700817949
 10
426.2166503568649
 20
8.803793818217944
 10
425.8780746934314
 20
8.50613548784752
 97
        0
 72
     4
 94
        3
 73
     0
 74
     0
 95
       11
 96
        7
 40
27.0
 40
27.0
 40
27.0
 40
27.0
 40
28.0
 40
28.0
 40
28.0
 40
29.0
 40
29.0
 40
29.0
 40
29.0
 10
425.8780746934314
 20
8.50613548784752
 10
425.5409647255107
 20
8.210461953483449
 10
425.3721654589649
 20
7.25840111201612
 10
425.3721654589649
 20
5.649464398273242
 10
425.3721654589649
 20
4.049047039698227
 10
425.5458503772197
 20
3.09597853256523
 10
425.893464496315
 20
2.789800847027411
 97
        0
 72
     4
 94
        3
 73
     0
 74
     0
 95
       11
 96
        7
 40
29.0
 40
29.0
 40
29.0
 40
29.0
 40
30.0
 40
30.0
 40
30.0
 40
31.0
 40
31.0
 40
31.0
 40
31.0
 10
425.893464496315
 20
2.789800847027411
 10
426.2408343328248
 20
2.486127057989481
 10
427.3459687494001
 20
2.334030613223636
 10
429.2088677460409
 20
2.334030613223636
 10
431.0285287250573
 20
2.334030613223636
 10
432.1297546202655
 20
2.439591225461474
 10
432.5118125839092
 20
2.650223884765612
 97
        0
 72
     4
 94
        3
 73
     0
 74
     0
 95
        8
 96
        4
 40
31.0
 40
31.0
 40
31.0
 40
31.0
 40
32.0
 40
32.0
 40
32.0
 40
32.0
 10
432.5118125839092
 20
2.650223884765612
 10
432.8545025093965
 20
2.844515812999905
 10
433.0395132419153
 20
3.406877404192446
 10
433.066444335346
 20
4.336908212221264
 97
        0
 72
     4
 94
        3
 73
     0
 74
     0
 95
        8
 96
        4
 40
32.0
 40
32.0
 40
32.0
 40
32.0
 40
33.0
 40
33.0
 40
33.0
 40
33.0
 10
433.066444335346
 20
4.336908212221264
 10
433.066444335346
 20
4.336908212221264
 10
433.0741158251153
 20
4.428804499971111
 10
433.0095435328878
 20
4.505534755170206
 97
        0
 72
     4
 94
        3
 73
     0
 74
     0
 95
        8
 96
        4
 40
33.0
 40
33.0
 40
33.0
 40
33.0
 40
34.0
 40
34.0
 40
34.0
 40
34.0
 10
433.0095435328878
 20
4.505534755170206
 10
432.9592906192714
 20
4.569836870442433
 10
432.86610329442
 20
4.582346459058446
 10
432.8495987755713
 20
4.582346459058446
 97
        0
 97
       29
330
242
330
226
330
227
330
228
330
229
330
22A
330
22B
330
22C
330
22D
330
22E
330
22F
330
230
330
231
330
232
330
233
330
234
330
235
330
236
330
237
330
238
330
239
330
23A
330
23B
330
23C
330
23D
330
23E
330
23F
330
240
330
241
 75
     1
 76
     1
 98
        1
 10
-96.22923855780971
 20
-2.584739096925741
1001
GradientColor1ACI
1070
     5
1001
GradientColor2ACI
1070
     2
1001
ACAD
1010
0.0
1020
0.0
1030
0.0
  0
SPLINE
  5
226
102
{ACAD_REACTORS
330
225
102
}
330
1F
100
AcDbEntity
  8
Capa 1
 62
     9
100
AcDbSpline
210
0.0
220
0.0
230
1.0
 70
     8
 71
     3
 72
     8
 73
     4
 74
     0
 42
0.000000001
 43
0.0000000001
 40
0.0
 40
0.0
 40
0.0
 40
0.0
 40
1.0
 40
1.0
 40
1.0
 40
1.0
 10
429.0923449527813
 20
4.576147788452975
 30
0.0
 10
428.975333594351
 20
4.576147788452975
 30
0.0
 10
428.8795748208548
 20
4.671692814686967
 30
0.0
 10
428.8795748208548
 20
4.788765243763937
 30
0.0
  0
SPLINE
  5
227
102
{ACAD_REACTORS
330
225
102
}
330
1F
100
AcDbEntity
  8
Capa 1
 62
     9
100
AcDbSpline
210
0.0
220
0.0
230
1.0
 70
    24
 71
     3
 72
     8
 73
     4
 74
     0
 42
0.000000001
 43
0.0000000001
 40
1.0
 40
1.0
 40
1.0
 40
1.0
 40
2.0
 40
2.0
 40
2.0
 40
2.0
 10
428.8795748208548
 20
4.788765243763937
 30
0.0
 10
428.8795748208548
 20
4.788765243763937
 30
0.0
 10
428.8795748208548
 20
5.539201346266143
 30
0.0
 10
428.8795748208548
 20
5.539201346266143
 30
0.0
  0
SPLINE
  5
228
102
{ACAD_REACTORS
330
225
102
}
330
1F
100
AcDbEntity
  8
Capa 1
 62
     9
100
AcDbSpline
210
0.0
220
0.0
230
1.0
 70
     8
 71
     3
 72
     8
 73
     4
 74
     0
 42
0.000000001
 43
0.0000000001
 40
2.0
 40
2.0
 40
2.0
 40
2.0
 40
3.0
 40
3.0
 40
3.0
 40
3.0
 10
428.8795748208548
 20
5.539201346266143
 30
0.0
 10
428.8795748208548
 20
5.656273775342616
 30
0.0
 10
428.975333594351
 20
5.751818801576906
 30
0.0
 10
429.0923449527813
 20
5.751818801576906
 30
0.0
  0
SPLINE
  5
229
102
{ACAD_REACTORS
330
225
102
}
330
1F
100
AcDbEntity
  8
Capa 1
 62
     9
100
AcDbSpline
210
0.0
220
0.0
230
1.0
 70
    24
 71
     3
 72
     8
 73
     4
 74
     0
 42
0.000000001
 43
0.0000000001
 40
3.0
 40
3.0
 40
3.0
 40
3.0
 40
4.0
 40
4.0
 40
4.0
 40
4.0
 10
429.0923449527813
 20
5.751818801576906
 30
0.0
 10
429.0923449527813
 20
5.751818801576906
 30
0.0
 10
429.152438468802
 20
5.751818801576906
 30
0.0
 10
429.152438468802
 20
5.751818801576906
 30
0.0
  0
SPLINE
  5
22A
102
{ACAD_REACTORS
330
225
102
}
330
1F
100
AcDbEntity
  8
Capa 1
 62
     9
100
AcDbSpline
210
0.0
220
0.0
230
1.0
 70
    24
 71
     3
 72
     8
 73
     4
 74
     0
 42
0.000000001
 43
0.0000000001
 40
4.0
 40
4.0
 40
4.0
 40
4.0
 40
5.0
 40
5.0
 40
5.0
 40
5.0
 10
429.152438468802
 20
5.751818801576906
 30
0.0
 10
429.152438468802
 20
5.751818801576906
 30
0.0
 10
429.152438468802
 20
5.752032548839072
 30
0.0
 10
429.152438468802
 20
5.752032548839072
 30
0.0
  0
SPLINE
  5
22B
102
{ACAD_REACTORS
330
225
102
}
330
1F
100
AcDbEntity
  8
Capa 1
 62
     9
100
AcDbSpline
210
0.0
220
0.0
230
1.0
 70
    24
 71
     3
 72
     8
 73
     4
 74
     0
 42
0.000000001
 43
0.0000000001
 40
5.0
 40
5.0
 40
5.0
 40
5.0
 40
6.0
 40
6.0
 40
6.0
 40
6.0
 10
429.152438468802
 20
5.752032548839072
 30
0.0
 10
429.152438468802
 20
5.752032548839072
 30
0.0
 10
434.1172690480837
 20
5.752032548839072
 30
0.0
 10
434.1172690480837
 20
5.752032548839072
 30
0.0
  0
SPLINE
  5
22C
102
{ACAD_REACTORS
330
225
102
}
330
1F
100
AcDbEntity
  8
Capa 1
 62
     9
100
AcDbSpline
210
0.0
220
0.0
230
1.0
 70
     8
 71
     3
 72
     8
 73
     4
 74
     0
 42
0.000000001
 43
0.0000000001
 40
6.0
 40
6.0
 40
6.0
 40
6.0
 40
7.0
 40
7.0
 40
7.0
 40
7.0
 10
434.1172690480837
 20
5.752032548839072
 30
0.0
 10
434.1172690480837
 20
5.752032548839072
 30
0.0
 10
434.2240143081907
 20
5.746191142258457
 30
0.0
 10
434.2907226531468
 20
5.691611587294407
 30
0.0
  0
SPLINE
  5
22D
102
{ACAD_REACTORS
330
225
102
}
330
1F
100
AcDbEntity
  8
Capa 1
 62
     9
100
AcDbSpline
210
0.0
220
0.0
230
1.0
 70
     8
 71
     3
 72
     8
 73
     4
 74
     0
 42
0.000000001
 43
0.0000000001
 40
7.0
 40
7.0
 40
7.0
 40
7.0
 40
8.0
 40
8.0
 40
8.0
 40
8.0
 10
434.2907226531468
 20
5.691611587294407
 30
0.0
 10
434.3798810482715
 20
5.618663809464355
 30
0.0
 10
434.3664031846822
 20
5.479252500722527
 30
0.0
 10
434.3664031846822
 20
5.479252500722527
 30
0.0
  0
SPLINE
  5
22E
102
{ACAD_REACTORS
330
225
102
}
330
1F
100
AcDbEntity
  8
Capa 1
 62
     9
100
AcDbSpline
210
0.0
220
0.0
230
1.0
 70
    24
 71
     3
 72
     8
 73
     4
 74
     0
 42
0.000000001
 43
0.0000000001
 40
8.0
 40
8.0
 40
8.0
 40
8.0
 40
9.0
 40
9.0
 40
9.0
 40
9.0
 10
434.3664031846822
 20
5.479252500722527
 30
0.0
 10
434.3664031846822
 20
5.479252500722527
 30
0.0
 10
434.3664031846822
 20
4.582346459058446
 30
0.0
 10
434.3664031846822
 20
4.582346459058446
 30
0.0
  0
SPLINE
  5
22F
102
{ACAD_REACTORS
330
225
102
}
330
1F
100
AcDbEntity
  8
Capa 1
 62
     9
100
AcDbSpline
210
0.0
220
0.0
230
1.0
 70
     8
 71
     3
 72
     8
 73
     4
 74
     0
 42
0.000000001
 43
0.0000000001
 40
9.0
 40
9.0
 40
9.0
 40
9.0
 40
10.0
 40
10.0
 40
10.0
 40
10.0
 10
434.3664031846822
 20
4.582346459058446
 30
0.0
 10
434.3664031846822
 20
3.083489585384147
 30
0.0
 10
434.061785588589
 20
2.138421332924754
 30
0.0
 10
433.4515676901357
 20
1.74769133749783
 30
0.0
  0
SPLINE
  5
230
102
{ACAD_REACTORS
330
225
102
}
330
1F
100
AcDbEntity
  8
Capa 1
 62
     9
100
AcDbSpline
210
0.0
220
0.0
230
1.0
 70
     8
 71
     3
 72
    11
 73
     7
 74
     0
 42
0.000000001
 43
0.0000000001
 40
10.0
 40
10.0
 40
10.0
 40
10.0
 40
11.0
 40
11.0
 40
11.0
 40
12.0
 40
12.0
 40
12.0
 40
12.0
 10
433.4515676901357
 20
1.74769133749783
 30
0.0
 10
432.8415940742667
 20
1.350976418726876
 30
0.0
 10
431.4271979045118
 20
1.152344141433009
 30
0.0
 10
429.2088677460409
 20
1.152344141433009
 30
0.0
 10
426.9551166126796
 20
1.152344141433009
 30
0.0
 10
425.535834791216
 20
1.410520298930297
 30
0.0
 10
424.9505337164782
 20
1.927819208943863
 30
0.0
  0
SPLINE
  5
231
102
{ACAD_REACTORS
330
225
102
}
330
1F
100
AcDbEntity
  8
Capa 1
 62
     9
100
AcDbSpline
210
0.0
220
0.0
230
1.0
 70
     8
 71
     3
 72
    11
 73
     7
 74
     0
 42
0.000000001
 43
0.0000000001
 40
12.0
 40
12.0
 40
12.0
 40
12.0
 40
13.0
 40
13.0
 40
13.0
 40
14.0
 40
14.0
 40
14.0
 40
14.0
 10
424.9505337164782
 20
1.927819208943863
 30
0.0
 10
424.3676754675948
 20
2.442614222456744
 30
0.0
 10
424.0760020605674
 20
3.687325601293399
 30
0.0
 10
424.0760020605674
 20
5.6619838807778
 30
0.0
 10
424.0760020605674
 20
7.634626828932145
 30
0.0
 10
424.3676754675948
 20
8.874849515261037
 30
0.0
 10
424.9505337164782
 20
9.38362907010664
 30
0.0
  0
SPLINE
  5
232
102
{ACAD_REACTORS
330
225
102
}
330
1F
100
AcDbEntity
  8
Capa 1
 62
     9
100
AcDbSpline
210
0.0
220
0.0
230
1.0
 70
     8
 71
     3
 72
    11
 73
     7
 74
     0
 42
0.000000001
 43
0.0000000001
 40
14.0
 40
14.0
 40
14.0
 40
14.0
 40
15.0
 40
15.0
 40
15.0
 40
16.0
 40
16.0
 40
16.0
 40
16.0
 10
424.9505337164782
 20
9.38362907010664
 30
0.0
 10
425.5272849007251
 20
9.88391980510811
 30
0.0
 10
426.9468110047753
 20
10.13406517260885
 30
0.0
 10
429.2088677460409
 20
10.13406517260885
 30
0.0
 10
431.4357477950026
 20
10.13406517260885
 30
0.0
 10
432.8540524861249
 20
9.968991215491034
 30
0.0
 10
433.464026101993
 20
9.637774564944326
 30
0.0
  0
SPLINE
  5
233
102
{ACAD_REACTORS
330
225
102
}
330
1F
100
AcDbEntity
  8
Capa 1
 62
     9
100
AcDbSpline
210
0.0
220
0.0
230
1.0
 70
     8
 71
     3
 72
     8
 73
     4
 74
     0
 42
0.000000001
 43
0.0000000001
 40
16.0
 40
16.0
 40
16.0
 40
16.0
 40
17.0
 40
17.0
 40
17.0
 40
17.0
 10
433.464026101993
 20
9.637774564944326
 30
0.0
 10
434.0620298711749
 20
9.301244768163432
 30
0.0
 10
434.3427105618572
 20
8.711729818826843
 30
0.0
 10
434.346374800639
 20
7.424268987536397
 30
0.0
  0
SPLINE
  5
234
102
{ACAD_REACTORS
330
225
102
}
330
1F
100
AcDbEntity
  8
Capa 1
 62
     9
100
AcDbSpline
210
0.0
220
0.0
230
1.0
 70
     8
 71
     3
 72
     8
 73
     4
 74
     0
 42
0.000000001
 43
0.0000000001
 40
17.0
 40
17.0
 40
17.0
 40
17.0
 40
18.0
 40
18.0
 40
18.0
 40
18.0
 10
434.346374800639
 20
7.424268987536397
 30
0.0
 10
434.346374800639
 20
7.422681150730998
 30
0.0
 10
434.3471076483944
 20
7.421337596511282
 30
0.0
 10
434.3471076483944
 20
7.419749759705869
 30
0.0
  0
SPLINE
  5
235
102
{ACAD_REACTORS
330
225
102
}
330
1F
100
AcDbEntity
  8
Capa 1
 62
     9
100
AcDbSpline
210
0.0
220
0.0
230
1.0
 70
    24
 71
     3
 72
     8
 73
     4
 74
     0
 42
0.000000001
 43
0.0000000001
 40
18.0
 40
18.0
 40
18.0
 40
18.0
 40
19.0
 40
19.0
 40
19.0
 40
19.0
 10
434.3471076483944
 20
7.419749759705869
 30
0.0
 10
434.3471076483944
 20
7.419749759705869
 30
0.0
 10
434.3471076483944
 20
7.382221847515925
 30
0.0
 10
434.3471076483944
 20
7.382221847515925
 30
0.0
  0
SPLINE
  5
236
102
{ACAD_REACTORS
330
225
102
}
330
1F
100
AcDbEntity
  8
Capa 1
 62
     9
100
AcDbSpline
210
0.0
220
0.0
230
1.0
 70
     8
 71
     3
 72
     8
 73
     4
 74
     0
 42
0.000000001
 43
0.0000000001
 40
19.0
 40
19.0
 40
19.0
 40
19.0
 40
20.0
 40
20.0
 40
20.0
 40
20.0
 10
434.3471076483944
 20
7.382221847515925
 30
0.0
 10
434.3471076483944
 20
7.265149418439382
 30
0.0
 10
434.2515931574837
 20
7.169604392204921
 30
0.0
 10
434.1345817990529
 20
7.169604392204921
 30
0.0
  0
SPLINE
  5
237
102
{ACAD_REACTORS
330
225
102
}
330
1F
100
AcDbEntity
  8
Capa 1
 62
     9
100
AcDbSpline
210
0.0
220
0.0
230
1.0
 70
    24
 71
     3
 72
     8
 73
     4
 74
     0
 42
0.000000001
 43
0.0000000001
 40
20.0
 40
20.0
 40
20.0
 40
20.0
 40
21.0
 40
21.0
 40
21.0
 40
21.0
 10
434.1345817990529
 20
7.169604392204921
 30
0.0
 10
434.1345817990529
 20
7.169604392204921
 30
0.0
 10
433.2820355758333
 20
7.169604392204921
 30
0.0
 10
433.2820355758333
 20
7.169604392204921
 30
0.0
  0
SPLINE
  5
238
102
{ACAD_REACTORS
330
225
102
}
330
1F
100
AcDbEntity
  8
Capa 1
 62
     9
100
AcDbSpline
210
0.0
220
0.0
230
1.0
 70
     8
 71
     3
 72
     8
 73
     4
 74
     0
 42
0.000000001
 43
0.0000000001
 40
21.0
 40
21.0
 40
21.0
 40
21.0
 40
22.0
 40
22.0
 40
22.0
 40
22.0
 10
433.2820355758333
 20
7.169604392204921
 30
0.0
 10
433.1650242174024
 20
7.169604392204921
 30
0.0
 10
433.0695097264913
 20
7.265149418439382
 30
0.0
 10
433.0695097264913
 20
7.382221847515925
 30
0.0
  0
SPLINE
  5
239
102
{ACAD_REACTORS
330
225
102
}
330
1F
100
AcDbEntity
  8
Capa 1
 62
     9
100
AcDbSpline
210
0.0
220
0.0
230
1.0
 70
    24
 71
     3
 72
     8
 73
     4
 74
     0
 42
0.000000001
 43
0.0000000001
 40
22.0
 40
22.0
 40
22.0
 40
22.0
 40
23.0
 40
23.0
 40
23.0
 40
23.0
 10
433.0695097264913
 20
7.382221847515925
 30
0.0
 10
433.0695097264913
 20
7.382221847515925
 30
0.0
 10
433.0695097264913
 20
7.401001071272393
 30
0.0
 10
433.0695097264913
 20
7.401001071272393
 30
0.0
  0
SPLINE
  5
23A
102
{ACAD_REACTORS
330
225
102
}
330
1F
100
AcDbEntity
  8
Capa 1
 62
     9
100
AcDbSpline
210
0.0
220
0.0
230
1.0
 70
    24
 71
     3
 72
     8
 73
     4
 74
     0
 42
0.000000001
 43
0.0000000001
 40
23.0
 40
23.0
 40
23.0
 40
23.0
 40
24.0
 40
24.0
 40
24.0
 40
24.0
 10
433.0695097264913
 20
7.401001071272393
 30
0.0
 10
433.0695097264913
 20
7.401001071272393
 30
0.0
 10
433.0663340528802
 20
7.401001071272393
 30
0.0
 10
433.0663340528802
 20
7.401001071272393
 30
0.0
  0
SPLINE
  5
23B
102
{ACAD_REACTORS
330
225
102
}
330
1F
100
AcDbEntity
  8
Capa 1
 62
     9
100
AcDbSpline
210
0.0
220
0.0
230
1.0
 70
     8
 71
     3
 72
     8
 73
     4
 74
     0
 42
0.000000001
 43
0.0000000001
 40
24.0
 40
24.0
 40
24.0
 40
24.0
 40
25.0
 40
25.0
 40
25.0
 40
25.0
 10
433.0663340528802
 20
7.401001071272393
 30
0.0
 10
433.0663340528802
 20
8.24047817617043
 30
0.0
 10
432.8660223328117
 20
8.52063976635846
 30
0.0
 10
432.4588032628673
 20
8.698233205980817
 30
0.0
  0
SPLINE
  5
23C
102
{ACAD_REACTORS
330
225
102
}
330
1F
100
AcDbEntity
  8
Capa 1
 62
     9
100
AcDbSpline
210
0.0
220
0.0
230
1.0
 70
     8
 71
     3
 72
    11
 73
     7
 74
     0
 42
0.000000001
 43
0.0000000001
 40
25.0
 40
25.0
 40
25.0
 40
25.0
 40
26.0
 40
26.0
 40
26.0
 40
27.0
 40
27.0
 40
27.0
 40
27.0
 10
432.4588032628673
 20
8.698233205980817
 30
0.0
 10
432.0537827361911
 20
8.867826390928844
 30
0.0
 10
430.9706337523062
 20
8.952378700817949
 30
0.0
 10
429.2088677460409
 20
8.952378700817949
 30
0.0
 10
427.3269147077343
 20
8.952378700817949
 30
0.0
 10
426.2166503568649
 20
8.803793818217944
 30
0.0
 10
425.8780746934314
 20
8.50613548784752
 30
0.0
  0
SPLINE
  5
23D
102
{ACAD_REACTORS
330
225
102
}
330
1F
100
AcDbEntity
  8
Capa 1
 62
     9
100
AcDbSpline
210
0.0
220
0.0
230
1.0
 70
     8
 71
     3
 72
    11
 73
     7
 74
     0
 42
0.000000001
 43
0.0000000001
 40
27.0
 40
27.0
 40
27.0
 40
27.0
 40
28.0
 40
28.0
 40
28.0
 40
29.0
 40
29.0
 40
29.0
 40
29.0
 10
425.8780746934314
 20
8.50613548784752
 30
0.0
 10
425.5409647255107
 20
8.210461953483449
 30
0.0
 10
425.3721654589649
 20
7.25840111201612
 30
0.0
 10
425.3721654589649
 20
5.649464398273242
 30
0.0
 10
425.3721654589649
 20
4.049047039698227
 30
0.0
 10
425.5458503772197
 20
3.09597853256523
 30
0.0
 10
425.893464496315
 20
2.789800847027411
 30
0.0
  0
SPLINE
  5
23E
102
{ACAD_REACTORS
330
225
102
}
330
1F
100
AcDbEntity
  8
Capa 1
 62
     9
100
AcDbSpline
210
0.0
220
0.0
230
1.0
 70
     8
 71
     3
 72
    11
 73
     7
 74
     0
 42
0.000000001
 43
0.0000000001
 40
29.0
 40
29.0
 40
29.0
 40
29.0
 40
30.0
 40
30.0
 40
30.0
 40
31.0
 40
31.0
 40
31.0
 40
31.0
 10
425.893464496315
 20
2.789800847027411
 30
0.0
 10
426.2408343328248
 20
2.486127057989481
 30
0.0
 10
427.3459687494001
 20
2.334030613223636
 30
0.0
 10
429.2088677460409
 20
2.334030613223636
 30
0.0
 10
431.0285287250573
 20
2.334030613223636
 30
0.0
 10
432.1297546202655
 20
2.439591225461474
 30
0.0
 10
432.5118125839092
 20
2.650223884765612
 30
0.0
  0
SPLINE
  5
23F
102
{ACAD_REACTORS
330
225
102
}
330
1F
100
AcDbEntity
  8
Capa 1
 62
     9
100
AcDbSpline
210
0.0
220
0.0
230
1.0
 70
     8
 71
     3
 72
     8
 73
     4
 74
     0
 42
0.000000001
 43
0.0000000001
 40
31.0
 40
31.0
 40
31.0
 40
31.0
 40
32.0
 40
32.0
 40
32.0
 40
32.0
 10
432.5118125839092
 20
2.650223884765612
 30
0.0
 10
432.8545025093965
 20
2.844515812999905
 30
0.0
 10
433.0395132419153
 20
3.406877404192446
 30
0.0
 10
433.066444335346
 20
4.336908212221264
 30
0.0
  0
SPLINE
  5
240
102
{ACAD_REACTORS
330
225
102
}
330
1F
100
AcDbEntity
  8
Capa 1
 62
     9
100
AcDbSpline
210
0.0
220
0.0
230
1.0
 70
     8
 71
     3
 72
     8
 73
     4
 74
     0
 42
0.000000001
 43
0.0000000001
 40
32.0
 40
32.0
 40
32.0
 40
32.0
 40
33.0
 40
33.0
 40
33.0
 40
33.0
 10
433.066444335346
 20
4.336908212221264
 30
0.0
 10
433.066444335346
 20
4.336908212221264
 30
0.0
 10
433.0741158251153
 20
4.428804499971111
 30
0.0
 10
433.0095435328878
 20
4.505534755170206
 30
0.0
  0
SPLINE
  5
241
102
{ACAD_REACTORS
330
225
102
}
330
1F
100
AcDbEntity
  8
Capa 1
 62
     9
100
AcDbSpline
210
0.0
220
0.0
230
1.0
 70
     8
 71
     3
 72
     8
 73
     4
 74
     0
 42
0.000000001
 43
0.0000000001
 40
33.0
 40
33.0
 40
33.0
 40
33.0
 40
34.0
 40
34.0
 40
34.0
 40
34.0
 10
433.0095435328878
 20
4.505534755170206
 30
0.0
 10
432.9592906192714
 20
4.569836870442433
 30
0.0
 10
432.86610329442
 20
4.582346459058446
 30
0.0
 10
432.8495987755713
 20
4.582346459058446
 30
0.0
  0
SPLINE
  5
242
102
{ACAD_REACTORS
330
225
102
}
330
1F
100
AcDbEntity
  8
Capa 1
 62
     9
100
AcDbSpline
210
0.0
220
0.0
230
1.0
 70
    24
 71
     3
 72
     8
 73
     4
 74
     0
 42
0.000000001
 43
0.0000000001
 40
34.0
 40
34.0
 40
34.0
 40
34.0
 40
35.0
 40
35.0
 40
35.0
 40
35.0
 10
432.8495987755713
 20
4.582346459058446
 30
0.0
 10
432.8495987755713
 20
4.582346459058446
 30
0.0
 10
429.0923449527813
 20
4.576147788452975
 30
0.0
 10
429.0923449527813
 20
4.576147788452975
 30
0.0
  0
HATCH
  5
243
330
1F
100
AcDbEntity
  8
COTAS
 62
     9
100
AcDbHatch
 10
0.0
 20
0.0
 30
0.0
210
0.0
220
0.0
230
1.0
  2
SOLID
 70
     1
 71
     1
 91
        1
 92
        1
 93
       23
 72
     4
 94
        3
 73
     0
 74
     0
 95
       11
 96
        7
 40
22.0
 40
22.0
 40
22.0
 40
22.0
 40
23.0
 40
23.0
 40
23.0
 40
24.0
 40
24.0
 40
24.0
 40
24.0
 10
436.3454284146799
 20
1.292004513855122
 10
436.2312589158445
 20
1.292004513855122
 10
436.1380695048936
 20
1.385196716689595
 10
436.1380695048936
 20
1.499369938036413
 10
436.1380695048936
 20
1.499369938036413
 10
436.1380695048936
 20
9.817872415178332
 10
436.1380695048936
 20
9.817872415178332
 97
        0
 72
     4
 94
        3
 73
     0
 74
     0
 95
        8
 96
        4
 40
0.0
 40
0.0
 40
0.0
 40
0.0
 40
1.0
 40
1.0
 40
1.0
 40
1.0
 10
436.1380695048936
 20
9.817872415178332
 10
436.1380695048936
 20
9.932044705896605
 10
436.2312589158445
 20
10.02523690873031
 10
436.3454284146799
 20
10.02523690873031
 97
        0
 72
     4
 94
        3
 73
     0
 74
     0
 95
        8
 96
        4
 40
1.0
 40
1.0
 40
1.0
 40
1.0
 40
2.0
 40
2.0
 40
2.0
 40
2.0
 10
436.3454284146799
 20
10.02523690873031
 10
436.3454284146799
 20
10.02523690873031
 10
437.2334415312654
 20
10.02523690873031
 10
437.2334415312654
 20
10.02523690873031
 97
        0
 72
     4
 94
        3
 73
     0
 74
     0
 95
        8
 96
        4
 40
2.0
 40
2.0
 40
2.0
 40
2.0
 40
3.0
 40
3.0
 40
3.0
 40
3.0
 10
437.2334415312654
 20
10.02523690873031
 10
437.3476110300911
 20
10.02523690873031
 10
437.4408078860699
 20
9.932044705896605
 10
437.4408078860699
 20
9.817872415178332
 97
        0
 72
     4
 94
        3
 73
     0
 74
     0
 95
        8
 96
        4
 40
3.0
 40
3.0
 40
3.0
 40
3.0
 40
4.0
 40
4.0
 40
4.0
 40
4.0
 10
437.4408078860699
 20
9.817872415178332
 10
437.4408078860699
 20
9.817872415178332
 10
437.4408078860699
 20
6.529797363186464
 10
437.4408078860699
 20
6.529797363186464
 97
        0
 72
     4
 94
        3
 73
     0
 74
     0
 95
        8
 96
        4
 40
4.0
 40
4.0
 40
4.0
 40
4.0
 40
5.0
 40
5.0
 40
5.0
 40
5.0
 10
437.4408078860699
 20
6.529797363186464
 10
437.4408078860699
 20
6.415624607154587
 10
437.5344886688455
 20
6.322432404320157
 10
437.648166795852
 20
6.322432404320157
 97
        0
 72
     4
 94
        3
 73
     0
 74
     0
 95
        8
 96
        4
 40
5.0
 40
5.0
 40
5.0
 40
5.0
 40
6.0
 40
6.0
 40
6.0
 40
6.0
 10
437.648166795852
 20
6.322432404320157
 10
437.648166795852
 20
6.322432404320157
 10
444.7541999906788
 20
6.322432404320157
 10
444.7541999906788
 20
6.322432404320157
 97
        0
 72
     4
 94
        3
 73
     0
 74
     0
 95
        8
 96
        4
 40
6.0
 40
6.0
 40
6.0
 40
6.0
 40
7.0
 40
7.0
 40
7.0
 40
7.0
 10
444.7541999906788
 20
6.322432404320157
 10
444.868860861335
 20
6.322432404320157
 10
444.9620502722817
 20
6.415624607154587
 10
444.9620502722817
 20
6.529797363186464
 97
        0
 72
     4
 94
        3
 73
     0
 74
     0
 95
        8
 96
        4
 40
7.0
 40
7.0
 40
7.0
 40
7.0
 40
8.0
 40
8.0
 40
8.0
 40
8.0
 10
444.9620502722817
 20
6.529797363186464
 10
444.9620502722817
 20
6.529797363186464
 10
444.9620502722817
 20
9.817872415178332
 10
444.9620502722817
 20
9.817872415178332
 97
        0
 72
     4
 94
        3
 73
     0
 74
     0
 95
        8
 96
        4
 40
8.0
 40
8.0
 40
8.0
 40
8.0
 40
9.0
 40
9.0
 40
9.0
 40
9.0
 10
444.9620502722817
 20
9.817872415178332
 10
444.9620502722817
 20
9.932044705896605
 10
445.055239683232
 20
10.02523690873031
 10
445.1694166270964
 20
10.02523690873031
 97
        0
 72
     4
 94
        3
 73
     0
 74
     0
 95
        8
 96
        4
 40
9.0
 40
9.0
 40
9.0
 40
9.0
 40
10.0
 40
10.0
 40
10.0
 40
10.0
 10
445.1694166270964
 20
10.02523690873031
 10
445.1694166270964
 20
10.02523690873031
 10
446.0447434165801
 20
10.02523690873031
 10
446.0447434165801
 20
10.02523690873031
 97
        0
 72
     4
 94
        3
 73
     0
 74
     0
 95
        8
 96
        4
 40
10.0
 40
10.0
 40
10.0
 40
10.0
 40
11.0
 40
11.0
 40
11.0
 40
11.0
 10
446.0447434165801
 20
10.02523690873031
 10
446.1589129154125
 20
10.02523690873031
 10
446.2521023263585
 20
9.932044705896605
 10
446.2521023263585
 20
9.817872415178332
 97
        0
 72
     4
 94
        3
 73
     0
 74
     0
 95
        8
 96
        4
 40
11.0
 40
11.0
 40
11.0
 40
11.0
 40
12.0
 40
12.0
 40
12.0
 40
12.0
 10
446.2521023263585
 20
9.817872415178332
 10
446.2521023263585
 20
9.817872415178332
 10
446.2521023263585
 20
1.499369938036413
 10
446.2521023263585
 20
1.499369938036413
 97
        0
 72
     4
 94
        3
 73
     0
 74
     0
 95
        8
 96
        4
 40
12.0
 40
12.0
 40
12.0
 40
12.0
 40
13.0
 40
13.0
 40
13.0
 40
13.0
 10
446.2521023263585
 20
1.499369938036413
 10
446.2521023263585
 20
1.385196716689595
 10
446.1589129154125
 20
1.292004513855122
 10
446.0447434165801
 20
1.292004513855122
 97
        0
 72
     4
 94
        3
 73
     0
 74
     0
 95
        8
 96
        4
 40
13.0
 40
13.0
 40
13.0
 40
13.0
 40
14.0
 40
14.0
 40
14.0
 40
14.0
 10
446.0447434165801
 20
1.292004513855122
 10
446.0447434165801
 20
1.292004513855122
 10
445.1694166270964
 20
1.292004513855122
 10
445.1694166270964
 20
1.292004513855122
 97
        0
 72
     4
 94
        3
 73
     0
 74
     0
 95
        8
 96
        4
 40
14.0
 40
14.0
 40
14.0
 40
14.0
 40
15.0
 40
15.0
 40
15.0
 40
15.0
 10
445.1694166270964
 20
1.292004513855122
 10
445.055239683232
 20
1.292004513855122
 10
444.9620502722817
 20
1.385196716689595
 10
444.9620502722817
 20
1.499369938036413
 97
        0
 72
     4
 94
        3
 73
     0
 74
     0
 95
        8
 96
        4
 40
15.0
 40
15.0
 40
15.0
 40
15.0
 40
16.0
 40
16.0
 40
16.0
 40
16.0
 10
444.9620502722817
 20
1.499369938036413
 10
444.9620502722817
 20
1.499369938036413
 10
444.9620502722817
 20
4.940162980714351
 10
444.9620502722817
 20
4.940162980714351
 97
        0
 72
     4
 94
        3
 73
     0
 74
     0
 95
        8
 96
        4
 40
16.0
 40
16.0
 40
16.0
 40
16.0
 40
17.0
 40
17.0
 40
17.0
 40
17.0
 10
444.9620502722817
 20
4.940162980714351
 10
444.9620502722817
 20
5.053847622123531
 10
444.868860861335
 20
5.147527939581142
 10
444.7541999906788
 20
5.147527939581142
 97
        0
 72
     4
 94
        3
 73
     0
 74
     0
 95
        8
 96
        4
 40
17.0
 40
17.0
 40
17.0
 40
17.0
 40
18.0
 40
18.0
 40
18.0
 40
18.0
 10
444.7541999906788
 20
5.147527939581142
 10
444.7541999906788
 20
5.147527939581142
 10
437.648166795852
 20
5.147527939581142
 10
437.648166795852
 20
5.147527939581142
 97
        0
 72
     4
 94
        3
 73
     0
 74
     0
 95
        8
 96
        4
 40
18.0
 40
18.0
 40
18.0
 40
18.0
 40
19.0
 40
19.0
 40
19.0
 40
19.0
 10
437.648166795852
 20
5.147527939581142
 10
437.5344886688455
 20
5.147527939581142
 10
437.4408078860699
 20
5.053847622123531
 10
437.4408078860699
 20
4.940162980714351
 97
        0
 72
     4
 94
        3
 73
     0
 74
     0
 95
        8
 96
        4
 40
19.0
 40
19.0
 40
19.0
 40
19.0
 40
20.0
 40
20.0
 40
20.0
 40
20.0
 10
437.4408078860699
 20
4.940162980714351
 10
437.4408078860699
 20
4.940162980714351
 10
437.4408078860699
 20
1.499369938036413
 10
437.4408078860699
 20
1.499369938036413
 97
        0
 72
     4
 94
        3
 73
     0
 74
     0
 95
        8
 96
        4
 40
20.0
 40
20.0
 40
20.0
 40
20.0
 40
21.0
 40
21.0
 40
21.0
 40
21.0
 10
437.4408078860699
 20
1.499369938036413
 10
437.4408078860699
 20
1.385196716689595
 10
437.3476110300911
 20
1.292004513855122
 10
437.2334415312654
 20
1.292004513855122
 97
        0
 72
     4
 94
        3
 73
     0
 74
     0
 95
        8
 96
        4
 40
21.0
 40
21.0
 40
21.0
 40
21.0
 40
22.0
 40
22.0
 40
22.0
 40
22.0
 10
437.2334415312654
 20
1.292004513855122
 10
437.2334415312654
 20
1.292004513855122
 10
436.3454284146799
 20
1.292004513855122
 10
436.3454284146799
 20
1.292004513855122
 97
        0
 97
       23
330
25A
330
244
330
245
330
246
330
247
330
248
330
249
330
24A
330
24B
330
24C
330
24D
330
24E
330
24F
330
250
330
251
330
252
330
253
330
254
330
255
330
256
330
257
330
258
330
259
 75
     1
 76
     1
 98
        1
 10
-96.22923855780971
 20
-2.584739096925741
1001
GradientColor1ACI
1070
     5
1001
GradientColor2ACI
1070
     2
1001
ACAD
1010
0.0
1020
0.0
1030
0.0
  0
SPLINE
  5
244
102
{ACAD_REACTORS
330
243
102
}
330
1F
100
AcDbEntity
  8
Capa 1
 62
     9
100
AcDbSpline
210
0.0
220
0.0
230
1.0
 70
     8
 71
     3
 72
     8
 73
     4
 74
     0
 42
0.000000001
 43
0.0000000001
 40
0.0
 40
0.0
 40
0.0
 40
0.0
 40
1.0
 40
1.0
 40
1.0
 40
1.0
 10
436.1380695048936
 20
9.817872415178332
 30
0.0
 10
436.1380695048936
 20
9.932044705896605
 30
0.0
 10
436.2312589158445
 20
10.02523690873031
 30
0.0
 10
436.3454284146799
 20
10.02523690873031
 30
0.0
  0
SPLINE
  5
245
102
{ACAD_REACTORS
330
243
102
}
330
1F
100
AcDbEntity
  8
Capa 1
 62
     9
100
AcDbSpline
210
0.0
220
0.0
230
1.0
 70
    24
 71
     3
 72
     8
 73
     4
 74
     0
 42
0.000000001
 43
0.0000000001
 40
1.0
 40
1.0
 40
1.0
 40
1.0
 40
2.0
 40
2.0
 40
2.0
 40
2.0
 10
436.3454284146799
 20
10.02523690873031
 30
0.0
 10
436.3454284146799
 20
10.02523690873031
 30
0.0
 10
437.2334415312654
 20
10.02523690873031
 30
0.0
 10
437.2334415312654
 20
10.02523690873031
 30
0.0
  0
SPLINE
  5
246
102
{ACAD_REACTORS
330
243
102
}
330
1F
100
AcDbEntity
  8
Capa 1
 62
     9
100
AcDbSpline
210
0.0
220
0.0
230
1.0
 70
     8
 71
     3
 72
     8
 73
     4
 74
     0
 42
0.000000001
 43
0.0000000001
 40
2.0
 40
2.0
 40
2.0
 40
2.0
 40
3.0
 40
3.0
 40
3.0
 40
3.0
 10
437.2334415312654
 20
10.02523690873031
 30
0.0
 10
437.3476110300911
 20
10.02523690873031
 30
0.0
 10
437.4408078860699
 20
9.932044705896605
 30
0.0
 10
437.4408078860699
 20
9.817872415178332
 30
0.0
  0
SPLINE
  5
247
102
{ACAD_REACTORS
330
243
102
}
330
1F
100
AcDbEntity
  8
Capa 1
 62
     9
100
AcDbSpline
210
0.0
220
0.0
230
1.0
 70
    24
 71
     3
 72
     8
 73
     4
 74
     0
 42
0.000000001
 43
0.0000000001
 40
3.0
 40
3.0
 40
3.0
 40
3.0
 40
4.0
 40
4.0
 40
4.0
 40
4.0
 10
437.4408078860699
 20
9.817872415178332
 30
0.0
 10
437.4408078860699
 20
9.817872415178332
 30
0.0
 10
437.4408078860699
 20
6.529797363186464
 30
0.0
 10
437.4408078860699
 20
6.529797363186464
 30
0.0
  0
SPLINE
  5
248
102
{ACAD_REACTORS
330
243
102
}
330
1F
100
AcDbEntity
  8
Capa 1
 62
     9
100
AcDbSpline
210
0.0
220
0.0
230
1.0
 70
     8
 71
     3
 72
     8
 73
     4
 74
     0
 42
0.000000001
 43
0.0000000001
 40
4.0
 40
4.0
 40
4.0
 40
4.0
 40
5.0
 40
5.0
 40
5.0
 40
5.0
 10
437.4408078860699
 20
6.529797363186464
 30
0.0
 10
437.4408078860699
 20
6.415624607154587
 30
0.0
 10
437.5344886688455
 20
6.322432404320157
 30
0.0
 10
437.648166795852
 20
6.322432404320157
 30
0.0
  0
SPLINE
  5
249
102
{ACAD_REACTORS
330
243
102
}
330
1F
100
AcDbEntity
  8
Capa 1
 62
     9
100
AcDbSpline
210
0.0
220
0.0
230
1.0
 70
    24
 71
     3
 72
     8
 73
     4
 74
     0
 42
0.000000001
 43
0.0000000001
 40
5.0
 40
5.0
 40
5.0
 40
5.0
 40
6.0
 40
6.0
 40
6.0
 40
6.0
 10
437.648166795852
 20
6.322432404320157
 30
0.0
 10
437.648166795852
 20
6.322432404320157
 30
0.0
 10
444.7541999906788
 20
6.322432404320157
 30
0.0
 10
444.7541999906788
 20
6.322432404320157
 30
0.0
  0
SPLINE
  5
24A
102
{ACAD_REACTORS
330
243
102
}
330
1F
100
AcDbEntity
  8
Capa 1
 62
     9
100
AcDbSpline
210
0.0
220
0.0
230
1.0
 70
     8
 71
     3
 72
     8
 73
     4
 74
     0
 42
0.000000001
 43
0.0000000001
 40
6.0
 40
6.0
 40
6.0
 40
6.0
 40
7.0
 40
7.0
 40
7.0
 40
7.0
 10
444.7541999906788
 20
6.322432404320157
 30
0.0
 10
444.868860861335
 20
6.322432404320157
 30
0.0
 10
444.9620502722817
 20
6.415624607154587
 30
0.0
 10
444.9620502722817
 20
6.529797363186464
 30
0.0
  0
SPLINE
  5
24B
102
{ACAD_REACTORS
330
243
102
}
330
1F
100
AcDbEntity
  8
Capa 1
 62
     9
100
AcDbSpline
210
0.0
220
0.0
230
1.0
 70
    24
 71
     3
 72
     8
 73
     4
 74
     0
 42
0.000000001
 43
0.0000000001
 40
7.0
 40
7.0
 40
7.0
 40
7.0
 40
8.0
 40
8.0
 40
8.0
 40
8.0
 10
444.9620502722817
 20
6.529797363186464
 30
0.0
 10
444.9620502722817
 20
6.529797363186464
 30
0.0
 10
444.9620502722817
 20
9.817872415178332
 30
0.0
 10
444.9620502722817
 20
9.817872415178332
 30
0.0
  0
SPLINE
  5
24C
102
{ACAD_REACTORS
330
243
102
}
330
1F
100
AcDbEntity
  8
Capa 1
 62
     9
100
AcDbSpline
210
0.0
220
0.0
230
1.0
 70
     8
 71
     3
 72
     8
 73
     4
 74
     0
 42
0.000000001
 43
0.0000000001
 40
8.0
 40
8.0
 40
8.0
 40
8.0
 40
9.0
 40
9.0
 40
9.0
 40
9.0
 10
444.9620502722817
 20
9.817872415178332
 30
0.0
 10
444.9620502722817
 20
9.932044705896605
 30
0.0
 10
445.055239683232
 20
10.02523690873031
 30
0.0
 10
445.1694166270964
 20
10.02523690873031
 30
0.0
  0
SPLINE
  5
24D
102
{ACAD_REACTORS
330
243
102
}
330
1F
100
AcDbEntity
  8
Capa 1
 62
     9
100
AcDbSpline
210
0.0
220
0.0
230
1.0
 70
    24
 71
     3
 72
     8
 73
     4
 74
     0
 42
0.000000001
 43
0.0000000001
 40
9.0
 40
9.0
 40
9.0
 40
9.0
 40
10.0
 40
10.0
 40
10.0
 40
10.0
 10
445.1694166270964
 20
10.02523690873031
 30
0.0
 10
445.1694166270964
 20
10.02523690873031
 30
0.0
 10
446.0447434165801
 20
10.02523690873031
 30
0.0
 10
446.0447434165801
 20
10.02523690873031
 30
0.0
  0
SPLINE
  5
24E
102
{ACAD_REACTORS
330
243
102
}
330
1F
100
AcDbEntity
  8
Capa 1
 62
     9
100
AcDbSpline
210
0.0
220
0.0
230
1.0
 70
     8
 71
     3
 72
     8
 73
     4
 74
     0
 42
0.000000001
 43
0.0000000001
 40
10.0
 40
10.0
 40
10.0
 40
10.0
 40
11.0
 40
11.0
 40
11.0
 40
11.0
 10
446.0447434165801
 20
10.02523690873031
 30
0.0
 10
446.1589129154125
 20
10.02523690873031
 30
0.0
 10
446.2521023263585
 20
9.932044705896605
 30
0.0
 10
446.2521023263585
 20
9.817872415178332
 30
0.0
  0
SPLINE
  5
24F
102
{ACAD_REACTORS
330
243
102
}
330
1F
100
AcDbEntity
  8
Capa 1
 62
     9
100
AcDbSpline
210
0.0
220
0.0
230
1.0
 70
    24
 71
     3
 72
     8
 73
     4
 74
     0
 42
0.000000001
 43
0.0000000001
 40
11.0
 40
11.0
 40
11.0
 40
11.0
 40
12.0
 40
12.0
 40
12.0
 40
12.0
 10
446.2521023263585
 20
9.817872415178332
 30
0.0
 10
446.2521023263585
 20
9.817872415178332
 30
0.0
 10
446.2521023263585
 20
1.499369938036413
 30
0.0
 10
446.2521023263585
 20
1.499369938036413
 30
0.0
  0
SPLINE
  5
250
102
{ACAD_REACTORS
330
243
102
}
330
1F
100
AcDbEntity
  8
Capa 1
 62
     9
100
AcDbSpline
210
0.0
220
0.0
230
1.0
 70
     8
 71
     3
 72
     8
 73
     4
 74
     0
 42
0.000000001
 43
0.0000000001
 40
12.0
 40
12.0
 40
12.0
 40
12.0
 40
13.0
 40
13.0
 40
13.0
 40
13.0
 10
446.2521023263585
 20
1.499369938036413
 30
0.0
 10
446.2521023263585
 20
1.385196716689595
 30
0.0
 10
446.1589129154125
 20
1.292004513855122
 30
0.0
 10
446.0447434165801
 20
1.292004513855122
 30
0.0
  0
SPLINE
  5
251
102
{ACAD_REACTORS
330
243
102
}
330
1F
100
AcDbEntity
  8
Capa 1
 62
     9
100
AcDbSpline
210
0.0
220
0.0
230
1.0
 70
    24
 71
     3
 72
     8
 73
     4
 74
     0
 42
0.000000001
 43
0.0000000001
 40
13.0
 40
13.0
 40
13.0
 40
13.0
 40
14.0
 40
14.0
 40
14.0
 40
14.0
 10
446.0447434165801
 20
1.292004513855122
 30
0.0
 10
446.0447434165801
 20
1.292004513855122
 30
0.0
 10
445.1694166270964
 20
1.292004513855122
 30
0.0
 10
445.1694166270964
 20
1.292004513855122
 30
0.0
  0
SPLINE
  5
252
102
{ACAD_REACTORS
330
243
102
}
330
1F
100
AcDbEntity
  8
Capa 1
 62
     9
100
AcDbSpline
210
0.0
220
0.0
230
1.0
 70
     8
 71
     3
 72
     8
 73
     4
 74
     0
 42
0.000000001
 43
0.0000000001
 40
14.0
 40
14.0
 40
14.0
 40
14.0
 40
15.0
 40
15.0
 40
15.0
 40
15.0
 10
445.1694166270964
 20
1.292004513855122
 30
0.0
 10
445.055239683232
 20
1.292004513855122
 30
0.0
 10
444.9620502722817
 20
1.385196716689595
 30
0.0
 10
444.9620502722817
 20
1.499369938036413
 30
0.0
  0
SPLINE
  5
253
102
{ACAD_REACTORS
330
243
102
}
330
1F
100
AcDbEntity
  8
Capa 1
 62
     9
100
AcDbSpline
210
0.0
220
0.0
230
1.0
 70
    24
 71
     3
 72
     8
 73
     4
 74
     0
 42
0.000000001
 43
0.0000000001
 40
15.0
 40
15.0
 40
15.0
 40
15.0
 40
16.0
 40
16.0
 40
16.0
 40
16.0
 10
444.9620502722817
 20
1.499369938036413
 30
0.0
 10
444.9620502722817
 20
1.499369938036413
 30
0.0
 10
444.9620502722817
 20
4.940162980714351
 30
0.0
 10
444.9620502722817
 20
4.940162980714351
 30
0.0
  0
SPLINE
  5
254
102
{ACAD_REACTORS
330
243
102
}
330
1F
100
AcDbEntity
  8
Capa 1
 62
     9
100
AcDbSpline
210
0.0
220
0.0
230
1.0
 70
     8
 71
     3
 72
     8
 73
     4
 74
     0
 42
0.000000001
 43
0.0000000001
 40
16.0
 40
16.0
 40
16.0
 40
16.0
 40
17.0
 40
17.0
 40
17.0
 40
17.0
 10
444.9620502722817
 20
4.940162980714351
 30
0.0
 10
444.9620502722817
 20
5.053847622123531
 30
0.0
 10
444.868860861335
 20
5.147527939581142
 30
0.0
 10
444.7541999906788
 20
5.147527939581142
 30
0.0
  0
SPLINE
  5
255
102
{ACAD_REACTORS
330
243
102
}
330
1F
100
AcDbEntity
  8
Capa 1
 62
     9
100
AcDbSpline
210
0.0
220
0.0
230
1.0
 70
    24
 71
     3
 72
     8
 73
     4
 74
     0
 42
0.000000001
 43
0.0000000001
 40
17.0
 40
17.0
 40
17.0
 40
17.0
 40
18.0
 40
18.0
 40
18.0
 40
18.0
 10
444.7541999906788
 20
5.147527939581142
 30
0.0
 10
444.7541999906788
 20
5.147527939581142
 30
0.0
 10
437.648166795852
 20
5.147527939581142
 30
0.0
 10
437.648166795852
 20
5.147527939581142
 30
0.0
  0
SPLINE
  5
256
102
{ACAD_REACTORS
330
243
102
}
330
1F
100
AcDbEntity
  8
Capa 1
 62
     9
100
AcDbSpline
210
0.0
220
0.0
230
1.0
 70
     8
 71
     3
 72
     8
 73
     4
 74
     0
 42
0.000000001
 43
0.0000000001
 40
18.0
 40
18.0
 40
18.0
 40
18.0
 40
19.0
 40
19.0
 40
19.0
 40
19.0
 10
437.648166795852
 20
5.147527939581142
 30
0.0
 10
437.5344886688455
 20
5.147527939581142
 30
0.0
 10
437.4408078860699
 20
5.053847622123531
 30
0.0
 10
437.4408078860699
 20
4.940162980714351
 30
0.0
  0
SPLINE
  5
257
102
{ACAD_REACTORS
330
243
102
}
330
1F
100
AcDbEntity
  8
Capa 1
 62
     9
100
AcDbSpline
210
0.0
220
0.0
230
1.0
 70
    24
 71
     3
 72
     8
 73
     4
 74
     0
 42
0.000000001
 43
0.0000000001
 40
19.0
 40
19.0
 40
19.0
 40
19.0
 40
20.0
 40
20.0
 40
20.0
 40
20.0
 10
437.4408078860699
 20
4.940162980714351
 30
0.0
 10
437.4408078860699
 20
4.940162980714351
 30
0.0
 10
437.4408078860699
 20
1.499369938036413
 30
0.0
 10
437.4408078860699
 20
1.499369938036413
 30
0.0
  0
SPLINE
  5
258
102
{ACAD_REACTORS
330
243
102
}
330
1F
100
AcDbEntity
  8
Capa 1
 62
     9
100
AcDbSpline
210
0.0
220
0.0
230
1.0
 70
     8
 71
     3
 72
     8
 73
     4
 74
     0
 42
0.000000001
 43
0.0000000001
 40
20.0
 40
20.0
 40
20.0
 40
20.0
 40
21.0
 40
21.0
 40
21.0
 40
21.0
 10
437.4408078860699
 20
1.499369938036413
 30
0.0
 10
437.4408078860699
 20
1.385196716689595
 30
0.0
 10
437.3476110300911
 20
1.292004513855122
 30
0.0
 10
437.2334415312654
 20
1.292004513855122
 30
0.0
  0
SPLINE
  5
259
102
{ACAD_REACTORS
330
243
102
}
330
1F
100
AcDbEntity
  8
Capa 1
 62
     9
100
AcDbSpline
210
0.0
220
0.0
230
1.0
 70
    24
 71
     3
 72
     8
 73
     4
 74
     0
 42
0.000000001
 43
0.0000000001
 40
21.0
 40
21.0
 40
21.0
 40
21.0
 40
22.0
 40
22.0
 40
22.0
 40
22.0
 10
437.2334415312654
 20
1.292004513855122
 30
0.0
 10
437.2334415312654
 20
1.292004513855122
 30
0.0
 10
436.3454284146799
 20
1.292004513855122
 30
0.0
 10
436.3454284146799
 20
1.292004513855122
 30
0.0
  0
SPLINE
  5
25A
102
{ACAD_REACTORS
330
243
102
}
330
1F
100
AcDbEntity
  8
Capa 1
 62
     9
100
AcDbSpline
210
0.0
220
0.0
230
1.0
 70
     8
 71
     3
 72
    11
 73
     7
 74
     0
 42
0.000000001
 43
0.0000000001
 40
22.0
 40
22.0
 40
22.0
 40
22.0
 40
23.0
 40
23.0
 40
23.0
 40
24.0
 40
24.0
 40
24.0
 40
24.0
 10
436.3454284146799
 20
1.292004513855122
 30
0.0
 10
436.2312589158445
 20
1.292004513855122
 30
0.0
 10
436.1380695048936
 20
1.385196716689595
 30
0.0
 10
436.1380695048936
 20
1.499369938036413
 30
0.0
 10
436.1380695048936
 20
1.499369938036413
 30
0.0
 10
436.1380695048936
 20
9.817872415178332
 30
0.0
 10
436.1380695048936
 20
9.817872415178332
 30
0.0
  0
HATCH
  5
25B
330
1F
100
AcDbEntity
  8
COTAS
 62
     9
100
AcDbHatch
 10
0.0
 20
0.0
 30
0.0
210
0.0
220
0.0
230
1.0
  2
SOLID
 70
     1
 71
     1
 91
        1
 92
        1
 93
       16
 72
     4
 94
        3
 73
     0
 74
     0
 95
        8
 96
        4
 40
15.0
 40
15.0
 40
15.0
 40
15.0
 40
16.0
 40
16.0
 40
16.0
 40
16.0
 10
448.0237658586066
 20
9.035440306221123
 10
448.0237658586066
 20
9.035440306221123
 10
448.0237658586066
 20
9.802991206596804
 10
448.0237658586066
 20
9.802991206596804
 97
        0
 72
     4
 94
        3
 73
     0
 74
     0
 95
        8
 96
        4
 40
0.0
 40
0.0
 40
0.0
 40
0.0
 40
1.0
 40
1.0
 40
1.0
 40
1.0
 10
448.0237658586066
 20
9.802991206596804
 10
448.0237658586066
 20
9.918271226956879
 10
448.1178594177724
 20
10.01236760509233
 10
448.2331366191578
 20
10.01236760509233
 97
        0
 72
     4
 94
        3
 73
     0
 74
     0
 95
        8
 96
        4
 40
1.0
 40
1.0
 40
1.0
 40
1.0
 40
2.0
 40
2.0
 40
2.0
 40
2.0
 10
448.2331366191578
 20
10.01236760509233
 10
448.2331366191578
 20
10.01236760509233
 10
457.0318879552439
 20
10.01236760509233
 10
457.0318879552439
 20
10.01236760509233
 97
        0
 72
     4
 94
        3
 73
     0
 74
     0
 95
        8
 96
        4
 40
2.0
 40
2.0
 40
2.0
 40
2.0
 40
3.0
 40
3.0
 40
3.0
 40
3.0
 10
457.0318879552439
 20
10.01236760509233
 10
457.1471726738956
 20
10.01236760509233
 10
457.2412662330553
 20
9.918271226956879
 10
457.2412662330553
 20
9.802991206596804
 97
        0
 72
     4
 94
        3
 73
     0
 74
     0
 95
        8
 96
        4
 40
3.0
 40
3.0
 40
3.0
 40
3.0
 40
4.0
 40
4.0
 40
4.0
 40
4.0
 10
457.2412662330553
 20
9.802991206596804
 10
457.2412662330553
 20
9.802991206596804
 10
457.2412662330553
 20
9.035440306221123
 10
457.2412662330553
 20
9.035440306221123
 97
        0
 72
     4
 94
        3
 73
     0
 74
     0
 95
        8
 96
        4
 40
4.0
 40
4.0
 40
4.0
 40
4.0
 40
5.0
 40
5.0
 40
5.0
 40
5.0
 10
457.2412662330553
 20
9.035440306221123
 10
457.2412662330553
 20
8.920159816032768
 10
457.1471726738956
 20
8.826063437897776
 10
457.0318879552439
 20
8.826063437897776
 97
        0
 72
     4
 94
        3
 73
     0
 74
     0
 95
        8
 96
        4
 40
5.0
 40
5.0
 40
5.0
 40
5.0
 40
6.0
 40
6.0
 40
6.0
 40
6.0
 10
457.0318879552439
 20
8.826063437897776
 10
457.0318879552439
 20
8.826063437897776
 10
453.5045108344627
 20
8.826063437897776
 10
453.5045108344627
 20
8.826063437897776
 97
        0
 72
     4
 94
        3
 73
     0
 74
     0
 95
        8
 96
        4
 40
6.0
 40
6.0
 40
6.0
 40
6.0
 40
7.0
 40
7.0
 40
7.0
 40
7.0
 10
453.5045108344627
 20
8.826063437897776
 10
453.3892261158172
 20
8.826063437897776
 10
453.2951325566514
 20
8.731967059761576
 10
453.2951325566514
 20
8.616687039401828
 97
        0
 72
     4
 94
        3
 73
     0
 74
     0
 95
        8
 96
        4
 40
7.0
 40
7.0
 40
7.0
 40
7.0
 40
8.0
 40
8.0
 40
8.0
 40
8.0
 10
453.2951325566514
 20
8.616687039401828
 10
453.2951325566514
 20
8.616687039401828
 10
453.2951325566514
 20
1.40378042704123
 10
453.2951325566514
 20
1.40378042704123
 97
        0
 72
     4
 94
        3
 73
     0
 74
     0
 95
        8
 96
        4
 40
8.0
 40
8.0
 40
8.0
 40
8.0
 40
9.0
 40
9.0
 40
9.0
 40
9.0
 10
453.2951325566514
 20
1.40378042704123
 10
453.2951325566514
 20
1.288499467023772
 10
453.2010314802247
 20
1.194403088888041
 10
453.085754278845
 20
1.194403088888041
 97
        0
 72
     4
 94
        3
 73
     0
 74
     0
 95
        8
 96
        4
 40
9.0
 40
9.0
 40
9.0
 40
9.0
 40
10.0
 40
10.0
 40
10.0
 40
10.0
 10
453.085754278845
 20
1.194403088888041
 10
453.085754278845
 20
1.194403088888041
 10
452.1891254250694
 20
1.194403088888041
 10
452.1891254250694
 20
1.194403088888041
 97
        0
 72
     4
 94
        3
 73
     0
 74
     0
 95
        8
 96
        4
 40
10.0
 40
10.0
 40
10.0
 40
10.0
 40
11.0
 40
11.0
 40
11.0
 40
11.0
 10
452.1891254250694
 20
1.194403088888041
 10
452.0738482236795
 20
1.194403088888041
 10
451.979754664515
 20
1.288499467023772
 10
451.979754664515
 20
1.40378042704123
 97
        0
 72
     4
 94
        3
 73
     0
 74
     0
 95
        8
 96
        4
 40
11.0
 40
11.0
 40
11.0
 40
11.0
 40
12.0
 40
12.0
 40
12.0
 40
12.0
 10
451.979754664515
 20
1.40378042704123
 10
451.979754664515
 20
1.40378042704123
 10
451.979754664515
 20
8.616687039401828
 10
451.979754664515
 20
8.616687039401828
 97
        0
 72
     4
 94
        3
 73
     0
 74
     0
 95
        8
 96
        4
 40
12.0
 40
12.0
 40
12.0
 40
12.0
 40
13.0
 40
13.0
 40
13.0
 40
13.0
 10
451.979754664515
 20
8.616687039401828
 10
451.979754664515
 20
8.731967059761576
 10
451.8851649661159
 20
8.826063437897776
 10
451.7698802474639
 20
8.826063437897776
 97
        0
 72
     4
 94
        3
 73
     0
 74
     0
 95
        8
 96
        4
 40
13.0
 40
13.0
 40
13.0
 40
13.0
 40
14.0
 40
14.0
 40
14.0
 40
14.0
 10
451.7698802474639
 20
8.826063437897776
 10
451.7698802474639
 20
8.826063437897776
 10
448.2331366191578
 20
8.826063437897776
 10
448.2331366191578
 20
8.826063437897776
 97
        0
 72
     4
 94
        3
 73
     0
 74
     0
 95
        8
 96
        4
 40
14.0
 40
14.0
 40
14.0
 40
14.0
 40
15.0
 40
15.0
 40
15.0
 40
15.0
 10
448.2331366191578
 20
8.826063437897776
 10
448.1178594177724
 20
8.826063437897776
 10
448.0237658586066
 20
8.920159816032768
 10
448.0237658586066
 20
9.035440306221123
 97
        0
 97
       16
330
26B
330
25C
330
25D
330
25E
330
25F
330
260
330
261
330
262
330
263
330
264
330
265
330
266
330
267
330
268
330
269
330
26A
 75
     1
 76
     1
 98
        1
 10
-96.22923855780971
 20
-2.584739096925741
1001
GradientColor1ACI
1070
     5
1001
GradientColor2ACI
1070
     2
1001
ACAD
1010
0.0
1020
0.0
1030
0.0
  0
SPLINE
  5
25C
102
{ACAD_REACTORS
330
25B
102
}
330
1F
100
AcDbEntity
  8
Capa 1
 62
     9
100
AcDbSpline
210
0.0
220
0.0
230
1.0
 70
     8
 71
     3
 72
     8
 73
     4
 74
     0
 42
0.000000001
 43
0.0000000001
 40
0.0
 40
0.0
 40
0.0
 40
0.0
 40
1.0
 40
1.0
 40
1.0
 40
1.0
 10
448.0237658586066
 20
9.802991206596804
 30
0.0
 10
448.0237658586066
 20
9.918271226956879
 30
0.0
 10
448.1178594177724
 20
10.01236760509233
 30
0.0
 10
448.2331366191578
 20
10.01236760509233
 30
0.0
  0
SPLINE
  5
25D
102
{ACAD_REACTORS
330
25B
102
}
330
1F
100
AcDbEntity
  8
Capa 1
 62
     9
100
AcDbSpline
210
0.0
220
0.0
230
1.0
 70
    24
 71
     3
 72
     8
 73
     4
 74
     0
 42
0.000000001
 43
0.0000000001
 40
1.0
 40
1.0
 40
1.0
 40
1.0
 40
2.0
 40
2.0
 40
2.0
 40
2.0
 10
448.2331366191578
 20
10.01236760509233
 30
0.0
 10
448.2331366191578
 20
10.01236760509233
 30
0.0
 10
457.0318879552439
 20
10.01236760509233
 30
0.0
 10
457.0318879552439
 20
10.01236760509233
 30
0.0
  0
SPLINE
  5
25E
102
{ACAD_REACTORS
330
25B
102
}
330
1F
100
AcDbEntity
  8
Capa 1
 62
     9
100
AcDbSpline
210
0.0
220
0.0
230
1.0
 70
     8
 71
     3
 72
     8
 73
     4
 74
     0
 42
0.000000001
 43
0.0000000001
 40
2.0
 40
2.0
 40
2.0
 40
2.0
 40
3.0
 40
3.0
 40
3.0
 40
3.0
 10
457.0318879552439
 20
10.01236760509233
 30
0.0
 10
457.1471726738956
 20
10.01236760509233
 30
0.0
 10
457.2412662330553
 20
9.918271226956879
 30
0.0
 10
457.2412662330553
 20
9.802991206596804
 30
0.0
  0
SPLINE
  5
25F
102
{ACAD_REACTORS
330
25B
102
}
330
1F
100
AcDbEntity
  8
Capa 1
 62
     9
100
AcDbSpline
210
0.0
220
0.0
230
1.0
 70
    24
 71
     3
 72
     8
 73
     4
 74
     0
 42
0.000000001
 43
0.0000000001
 40
3.0
 40
3.0
 40
3.0
 40
3.0
 40
4.0
 40
4.0
 40
4.0
 40
4.0
 10
457.2412662330553
 20
9.802991206596804
 30
0.0
 10
457.2412662330553
 20
9.802991206596804
 30
0.0
 10
457.2412662330553
 20
9.035440306221123
 30
0.0
 10
457.2412662330553
 20
9.035440306221123
 30
0.0
  0
SPLINE
  5
260
102
{ACAD_REACTORS
330
25B
102
}
330
1F
100
AcDbEntity
  8
Capa 1
 62
     9
100
AcDbSpline
210
0.0
220
0.0
230
1.0
 70
     8
 71
     3
 72
     8
 73
     4
 74
     0
 42
0.000000001
 43
0.0000000001
 40
4.0
 40
4.0
 40
4.0
 40
4.0
 40
5.0
 40
5.0
 40
5.0
 40
5.0
 10
457.2412662330553
 20
9.035440306221123
 30
0.0
 10
457.2412662330553
 20
8.920159816032768
 30
0.0
 10
457.1471726738956
 20
8.826063437897776
 30
0.0
 10
457.0318879552439
 20
8.826063437897776
 30
0.0
  0
SPLINE
  5
261
102
{ACAD_REACTORS
330
25B
102
}
330
1F
100
AcDbEntity
  8
Capa 1
 62
     9
100
AcDbSpline
210
0.0
220
0.0
230
1.0
 70
    24
 71
     3
 72
     8
 73
     4
 74
     0
 42
0.000000001
 43
0.0000000001
 40
5.0
 40
5.0
 40
5.0
 40
5.0
 40
6.0
 40
6.0
 40
6.0
 40
6.0
 10
457.0318879552439
 20
8.826063437897776
 30
0.0
 10
457.0318879552439
 20
8.826063437897776
 30
0.0
 10
453.5045108344627
 20
8.826063437897776
 30
0.0
 10
453.5045108344627
 20
8.826063437897776
 30
0.0
  0
SPLINE
  5
262
102
{ACAD_REACTORS
330
25B
102
}
330
1F
100
AcDbEntity
  8
Capa 1
 62
     9
100
AcDbSpline
210
0.0
220
0.0
230
1.0
 70
     8
 71
     3
 72
     8
 73
     4
 74
     0
 42
0.000000001
 43
0.0000000001
 40
6.0
 40
6.0
 40
6.0
 40
6.0
 40
7.0
 40
7.0
 40
7.0
 40
7.0
 10
453.5045108344627
 20
8.826063437897776
 30
0.0
 10
453.3892261158172
 20
8.826063437897776
 30
0.0
 10
453.2951325566514
 20
8.731967059761576
 30
0.0
 10
453.2951325566514
 20
8.616687039401828
 30
0.0
  0
SPLINE
  5
263
102
{ACAD_REACTORS
330
25B
102
}
330
1F
100
AcDbEntity
  8
Capa 1
 62
     9
100
AcDbSpline
210
0.0
220
0.0
230
1.0
 70
    24
 71
     3
 72
     8
 73
     4
 74
     0
 42
0.000000001
 43
0.0000000001
 40
7.0
 40
7.0
 40
7.0
 40
7.0
 40
8.0
 40
8.0
 40
8.0
 40
8.0
 10
453.2951325566514
 20
8.616687039401828
 30
0.0
 10
453.2951325566514
 20
8.616687039401828
 30
0.0
 10
453.2951325566514
 20
1.40378042704123
 30
0.0
 10
453.2951325566514
 20
1.40378042704123
 30
0.0
  0
SPLINE
  5
264
102
{ACAD_REACTORS
330
25B
102
}
330
1F
100
AcDbEntity
  8
Capa 1
 62
     9
100
AcDbSpline
210
0.0
220
0.0
230
1.0
 70
     8
 71
     3
 72
     8
 73
     4
 74
     0
 42
0.000000001
 43
0.0000000001
 40
8.0
 40
8.0
 40
8.0
 40
8.0
 40
9.0
 40
9.0
 40
9.0
 40
9.0
 10
453.2951325566514
 20
1.40378042704123
 30
0.0
 10
453.2951325566514
 20
1.288499467023772
 30
0.0
 10
453.2010314802247
 20
1.194403088888041
 30
0.0
 10
453.085754278845
 20
1.194403088888041
 30
0.0
  0
SPLINE
  5
265
102
{ACAD_REACTORS
330
25B
102
}
330
1F
100
AcDbEntity
  8
Capa 1
 62
     9
100
AcDbSpline
210
0.0
220
0.0
230
1.0
 70
    24
 71
     3
 72
     8
 73
     4
 74
     0
 42
0.000000001
 43
0.0000000001
 40
9.0
 40
9.0
 40
9.0
 40
9.0
 40
10.0
 40
10.0
 40
10.0
 40
10.0
 10
453.085754278845
 20
1.194403088888041
 30
0.0
 10
453.085754278845
 20
1.194403088888041
 30
0.0
 10
452.1891254250694
 20
1.194403088888041
 30
0.0
 10
452.1891254250694
 20
1.194403088888041
 30
0.0
  0
SPLINE
  5
266
102
{ACAD_REACTORS
330
25B
102
}
330
1F
100
AcDbEntity
  8
Capa 1
 62
     9
100
AcDbSpline
210
0.0
220
0.0
230
1.0
 70
     8
 71
     3
 72
     8
 73
     4
 74
     0
 42
0.000000001
 43
0.0000000001
 40
10.0
 40
10.0
 40
10.0
 40
10.0
 40
11.0
 40
11.0
 40
11.0
 40
11.0
 10
452.1891254250694
 20
1.194403088888041
 30
0.0
 10
452.0738482236795
 20
1.194403088888041
 30
0.0
 10
451.979754664515
 20
1.288499467023772
 30
0.0
 10
451.979754664515
 20
1.40378042704123
 30
0.0
  0
SPLINE
  5
267
102
{ACAD_REACTORS
330
25B
102
}
330
1F
100
AcDbEntity
  8
Capa 1
 62
     9
100
AcDbSpline
210
0.0
220
0.0
230
1.0
 70
    24
 71
     3
 72
     8
 73
     4
 74
     0
 42
0.000000001
 43
0.0000000001
 40
11.0
 40
11.0
 40
11.0
 40
11.0
 40
12.0
 40
12.0
 40
12.0
 40
12.0
 10
451.979754664515
 20
1.40378042704123
 30
0.0
 10
451.979754664515
 20
1.40378042704123
 30
0.0
 10
451.979754664515
 20
8.616687039401828
 30
0.0
 10
451.979754664515
 20
8.616687039401828
 30
0.0
  0
SPLINE
  5
268
102
{ACAD_REACTORS
330
25B
102
}
330
1F
100
AcDbEntity
  8
Capa 1
 62
     9
100
AcDbSpline
210
0.0
220
0.0
230
1.0
 70
     8
 71
     3
 72
     8
 73
     4
 74
     0
 42
0.000000001
 43
0.0000000001
 40
12.0
 40
12.0
 40
12.0
 40
12.0
 40
13.0
 40
13.0
 40
13.0
 40
13.0
 10
451.979754664515
 20
8.616687039401828
 30
0.0
 10
451.979754664515
 20
8.731967059761576
 30
0.0
 10
451.8851649661159
 20
8.826063437897776
 30
0.0
 10
451.7698802474639
 20
8.826063437897776
 30
0.0
  0
SPLINE
  5
269
102
{ACAD_REACTORS
330
25B
102
}
330
1F
100
AcDbEntity
  8
Capa 1
 62
     9
100
AcDbSpline
210
0.0
220
0.0
230
1.0
 70
    24
 71
     3
 72
     8
 73
     4
 74
     0
 42
0.000000001
 43
0.0000000001
 40
13.0
 40
13.0
 40
13.0
 40
13.0
 40
14.0
 40
14.0
 40
14.0
 40
14.0
 10
451.7698802474639
 20
8.826063437897776
 30
0.0
 10
451.7698802474639
 20
8.826063437897776
 30
0.0
 10
448.2331366191578
 20
8.826063437897776
 30
0.0
 10
448.2331366191578
 20
8.826063437897776
 30
0.0
  0
SPLINE
  5
26A
102
{ACAD_REACTORS
330
25B
102
}
330
1F
100
AcDbEntity
  8
Capa 1
 62
     9
100
AcDbSpline
210
0.0
220
0.0
230
1.0
 70
     8
 71
     3
 72
     8
 73
     4
 74
     0
 42
0.000000001
 43
0.0000000001
 40
14.0
 40
14.0
 40
14.0
 40
14.0
 40
15.0
 40
15.0
 40
15.0
 40
15.0
 10
448.2331366191578
 20
8.826063437897776
 30
0.0
 10
448.1178594177724
 20
8.826063437897776
 30
0.0
 10
448.0237658586066
 20
8.920159816032768
 30
0.0
 10
448.0237658586066
 20
9.035440306221123
 30
0.0
  0
SPLINE
  5
26B
102
{ACAD_REACTORS
330
25B
102
}
330
1F
100
AcDbEntity
  8
Capa 1
 62
     9
100
AcDbSpline
210
0.0
220
0.0
230
1.0
 70
    24
 71
     3
 72
     8
 73
     4
 74
     0
 42
0.000000001
 43
0.0000000001
 40
15.0
 40
15.0
 40
15.0
 40
15.0
 40
16.0
 40
16.0
 40
16.0
 40
16.0
 10
448.0237658586066
 20
9.035440306221123
 30
0.0
 10
448.0237658586066
 20
9.035440306221123
 30
0.0
 10
448.0237658586066
 20
9.802991206596804
 30
0.0
 10
448.0237658586066
 20
9.802991206596804
 30
0.0
  0
HATCH
  5
26C
330
1F
100
AcDbEntity
  8
COTAS
 62
     9
100
AcDbHatch
 10
0.0
 20
0.0
 30
0.0
210
0.0
220
0.0
230
1.0
  2
SOLID
 70
     1
 71
     1
 91
        2
 92
       16
 93
        1
 72
     4
 94
        3
 73
     0
 74
     1
 95
       17
 96
       13
 40
0.0
 40
0.0
 40
0.0
 40
0.0
 40
1.0
 40
1.0
 40
1.0
 40
2.0
 40
2.0
 40
2.0
 40
3.0
 40
3.0
 40
3.0
 40
4.0
 40
4.0
 40
4.0
 40
4.0
 10
461.4263863788767
 20
12.65377791990037
 10
461.4263863788767
 20
11.81331522327122
 10
460.7489909324228
 20
11.12458844512895
 10
459.917882527771
 20
11.12458844512895
 10
459.0862930183986
 20
11.12458844512895
 10
458.4128366168487
 20
11.81331522327122
 10
458.4128366168487
 20
12.65377791990037
 10
458.4128366168487
 20
13.49424061652951
 10
459.0862930183986
 20
14.18148931317765
 10
459.917882527771
 20
14.18148931317765
 10
460.7489909324228
 20
14.18148931317765
 10
461.4263863788767
 20
13.49424061652951
 10
461.4263863788767
 20
12.65377791990037
 97
        0
 97
        1
330
26E
 92
        1
 93
        1
 72
     4
 94
        3
 73
     0
 74
     1
 95
       17
 96
       13
 40
0.0
 40
0.0
 40
0.0
 40
0.0
 40
1.0
 40
1.0
 40
1.0
 40
2.0
 40
2.0
 40
2.0
 40
3.0
 40
3.0
 40
3.0
 40
4.0
 40
4.0
 40
4.0
 40
4.0
 10
461.707689812402
 20
12.65377791990037
 10
461.707689812402
 20
13.64203655046009
 10
460.9071315575019
 20
14.44407288685501
 10
459.917882527771
 20
14.44407288685501
 10
458.9281523933242
 20
14.44407288685501
 10
458.1270979991797
 20
13.64203655046009
 10
458.1270979991797
 20
12.65377791990037
 10
458.1270979991797
 20
11.66404214750388
 10
458.9281523933242
 20
10.86249819172123
 10
459.917882527771
 20
10.86249819172123
 10
460.9071315575019
 20
10.86249819172123
 10
461.707689812402
 20
11.66404214750388
 10
461.707689812402
 20
12.65377791990037
 97
        0
 97
        1
330
26D
 75
     1
 76
     1
 98
        1
 10
-96.22923855780971
 20
-2.584739096925741
1001
GradientColor1ACI
1070
     5
1001
GradientColor2ACI
1070
     2
1001
ACAD
1010
0.0
1020
0.0
1030
0.0
  0
SPLINE
  5
26D
102
{ACAD_REACTORS
330
26C
102
}
330
1F
100
AcDbEntity
  8
Capa 1
 62
     9
100
AcDbSpline
210
0.0
220
0.0
230
1.0
 70
    11
 71
     3
 72
    17
 73
    13
 74
     0
 42
0.000000001
 43
0.0000000001
 40
0.0
 40
0.0
 40
0.0
 40
0.0
 40
1.0
 40
1.0
 40
1.0
 40
2.0
 40
2.0
 40
2.0
 40
3.0
 40
3.0
 40
3.0
 40
4.0
 40
4.0
 40
4.0
 40
4.0
 10
461.707689812402
 20
12.65377791990037
 30
0.0
 10
461.707689812402
 20
13.64203655046009
 30
0.0
 10
460.9071315575019
 20
14.44407288685501
 30
0.0
 10
459.917882527771
 20
14.44407288685501
 30
0.0
 10
458.9281523933242
 20
14.44407288685501
 30
0.0
 10
458.1270979991797
 20
13.64203655046009
 30
0.0
 10
458.1270979991797
 20
12.65377791990037
 30
0.0
 10
458.1270979991797
 20
11.66404214750388
 30
0.0
 10
458.9281523933242
 20
10.86249819172123
 30
0.0
 10
459.917882527771
 20
10.86249819172123
 30
0.0
 10
460.9071315575019
 20
10.86249819172123
 30
0.0
 10
461.707689812402
 20
11.66404214750388
 30
0.0
 10
461.707689812402
 20
12.65377791990037
 30
0.0
  0
SPLINE
  5
26E
102
{ACAD_REACTORS
330
26C
102
}
330
1F
100
AcDbEntity
  8
Capa 1
 62
     9
100
AcDbSpline
210
0.0
220
0.0
230
1.0
 70
    11
 71
     3
 72
    17
 73
    13
 74
     0
 42
0.000000001
 43
0.0000000001
 40
0.0
 40
0.0
 40
0.0
 40
0.0
 40
1.0
 40
1.0
 40
1.0
 40
2.0
 40
2.0
 40
2.0
 40
3.0
 40
3.0
 40
3.0
 40
4.0
 40
4.0
 40
4.0
 40
4.0
 10
461.4263863788767
 20
12.65377791990037
 30
0.0
 10
461.4263863788767
 20
11.81331522327122
 30
0.0
 10
460.7489909324228
 20
11.12458844512895
 30
0.0
 10
459.917882527771
 20
11.12458844512895
 30
0.0
 10
459.0862930183986
 20
11.12458844512895
 30
0.0
 10
458.4128366168487
 20
11.81331522327122
 30
0.0
 10
458.4128366168487
 20
12.65377791990037
 30
0.0
 10
458.4128366168487
 20
13.49424061652951
 30
0.0
 10
459.0862930183986
 20
14.18148931317765
 30
0.0
 10
459.917882527771
 20
14.18148931317765
 30
0.0
 10
460.7489909324228
 20
14.18148931317765
 30
0.0
 10
461.4263863788767
 20
13.49424061652951
 30
0.0
 10
461.4263863788767
 20
12.65377791990037
 30
0.0
  0
HATCH
  5
26F
330
1F
100
AcDbEntity
  8
COTAS
 62
     9
100
AcDbHatch
 10
0.0
 20
0.0
 30
0.0
210
0.0
220
0.0
230
1.0
  2
SOLID
 70
     1
 71
     1
 91
        2
 92
       16
 93
        5
 72
     4
 94
        3
 73
     0
 74
     0
 95
        8
 96
        4
 40
4.0
 40
4.0
 40
4.0
 40
4.0
 40
5.0
 40
5.0
 40
5.0
 40
5.0
 10
459.9725706034259
 20
13.3952185529551
 10
460.1893383490495
 20
13.3952185529551
 10
460.3425551680031
 20
13.24643785780029
 10
460.3425551680031
 20
13.0478994707232
 97
        0
 72
     4
 94
        3
 73
     0
 74
     0
 95
        8
 96
        4
 40
0.0
 40
0.0
 40
0.0
 40
0.0
 40
1.0
 40
1.0
 40
1.0
 40
1.0
 10
460.3425551680031
 20
13.0478994707232
 10
460.3425551680031
 20
12.85083822548312
 10
460.1893383490495
 20
12.70796985630702
 10
459.9725706034259
 20
12.70796985630702
 97
        0
 72
     4
 94
        3
 73
     0
 74
     0
 95
        8
 96
        4
 40
1.0
 40
1.0
 40
1.0
 40
1.0
 40
2.0
 40
2.0
 40
2.0
 40
2.0
 10
459.9725706034259
 20
12.70796985630702
 10
459.9725706034259
 20
12.70796985630702
 10
459.6055478397777
 20
12.70796985630702
 10
459.6055478397777
 20
12.70796985630702
 97
        0
 72
     4
 94
        3
 73
     0
 74
     0
 95
        8
 96
        4
 40
2.0
 40
2.0
 40
2.0
 40
2.0
 40
3.0
 40
3.0
 40
3.0
 40
3.0
 10
459.6055478397777
 20
12.70796985630702
 10
459.6055478397777
 20
12.70796985630702
 10
459.6055478397777
 20
13.3952185529551
 10
459.6055478397777
 20
13.3952185529551
 97
        0
 72
     4
 94
        3
 73
     0
 74
     0
 95
        8
 96
        4
 40
3.0
 40
3.0
 40
3.0
 40
3.0
 40
4.0
 40
4.0
 40
4.0
 40
4.0
 10
459.6055478397777
 20
13.3952185529551
 10
459.6055478397777
 20
13.3952185529551
 10
459.9725706034259
 20
13.3952185529551
 10
459.9725706034259
 20
13.3952185529551
 97
        0
 97
        5
330
27D
330
279
330
27A
330
27B
330
27C
 92
        1
 93
        9
 72
     4
 94
        3
 73
     0
 74
     0
 95
        8
 96
        4
 40
9.0
 40
9.0
 40
9.0
 40
9.0
 40
10.0
 40
10.0
 40
10.0
 40
10.0
 10
460.3519141582726
 20
11.67389445803993
 10
460.3519141582726
 20
11.67389445803993
 10
460.6686840304081
 20
11.67389445803993
 10
460.6686840304081
 20
11.67389445803993
 97
        0
 72
     4
 94
        3
 73
     0
 74
     0
 95
        8
 96
        4
 40
0.0
 40
0.0
 40
0.0
 40
0.0
 40
1.0
 40
1.0
 40
1.0
 40
1.0
 10
460.6686840304081
 20
11.67389445803993
 10
460.6686840304081
 20
11.67389445803993
 10
460.1986973393191
 20
12.50943146923038
 10
460.1986973393191
 20
12.50943146923038
 97
        0
 72
     4
 94
        3
 73
     0
 74
     0
 95
       11
 96
        7
 40
1.0
 40
1.0
 40
1.0
 40
1.0
 40
2.0
 40
2.0
 40
2.0
 40
3.0
 40
3.0
 40
3.0
 40
3.0
 10
460.1986973393191
 20
12.50943146923038
 10
460.4415725332944
 20
12.58431466724861
 10
460.6194234173905
 20
12.76216085305601
 10
460.6194234173905
 20
13.0478994707232
 10
460.6194234173905
 20
13.37994629705164
 10
460.3425551680031
 20
13.63710992536277
 10
460.002624613932
 20
13.63710992536277
 97
        0
 72
     4
 94
        3
 73
     0
 74
     0
 95
        8
 96
        4
 40
3.0
 40
3.0
 40
3.0
 40
3.0
 40
4.0
 40
4.0
 40
4.0
 40
4.0
 10
460.002624613932
 20
13.63710992536277
 10
460.002624613932
 20
13.63710992536277
 10
459.3340920184999
 20
13.63710992536277
 10
459.3340920184999
 20
13.63710992536277
 97
        0
 72
     4
 94
        3
 73
     0
 74
     0
 95
        8
 96
        4
 40
4.0
 40
4.0
 40
4.0
 40
4.0
 40
5.0
 40
5.0
 40
5.0
 40
5.0
 10
459.3340920184999
 20
13.63710992536277
 10
459.3340920184999
 20
13.63710992536277
 10
459.3340920184999
 20
11.67389445803993
 10
459.3340920184999
 20
11.67389445803993
 97
        0
 72
     4
 94
        3
 73
     0
 74
     0
 95
        8
 96
        4
 40
5.0
 40
5.0
 40
5.0
 40
5.0
 40
6.0
 40
6.0
 40
6.0
 40
6.0
 10
459.3340920184999
 20
11.67389445803993
 10
459.3340920184999
 20
11.67389445803993
 10
459.6055478397777
 20
11.67389445803993
 10
459.6055478397777
 20
11.67389445803993
 97
        0
 72
     4
 94
        3
 73
     0
 74
     0
 95
        8
 96
        4
 40
6.0
 40
6.0
 40
6.0
 40
6.0
 40
7.0
 40
7.0
 40
7.0
 40
7.0
 10
459.6055478397777
 20
11.67389445803993
 10
459.6055478397777
 20
11.67389445803993
 10
459.6055478397777
 20
12.47396033232826
 10
459.6055478397777
 20
12.47396033232826
 97
        0
 72
     4
 94
        3
 73
     0
 74
     0
 95
        8
 96
        4
 40
7.0
 40
7.0
 40
7.0
 40
7.0
 40
8.0
 40
8.0
 40
8.0
 40
8.0
 10
459.6055478397777
 20
12.47396033232826
 10
459.6055478397777
 20
12.47396033232826
 10
459.9031035921421
 20
12.47396033232826
 10
459.9031035921421
 20
12.47396033232826
 97
        0
 72
     4
 94
        3
 73
     0
 74
     0
 95
        8
 96
        4
 40
8.0
 40
8.0
 40
8.0
 40
8.0
 40
9.0
 40
9.0
 40
9.0
 40
9.0
 10
459.9031035921421
 20
12.47396033232826
 10
459.9031035921421
 20
12.47396033232826
 10
460.3519141582726
 20
11.67389445803993
 10
460.3519141582726
 20
11.67389445803993
 97
        0
 97
        9
330
278
330
270
330
271
330
272
330
273
330
274
330
275
330
276
330
277
 75
     1
 76
     1
 98
        1
 10
-96.22923855780971
 20
-2.584739096925741
1001
GradientColor1ACI
1070
     5
1001
GradientColor2ACI
1070
     2
1001
ACAD
1010
0.0
1020
0.0
1030
0.0
  0
SPLINE
  5
270
102
{ACAD_REACTORS
330
26F
102
}
330
1F
100
AcDbEntity
  8
Capa 1
 62
     9
100
AcDbSpline
210
0.0
220
0.0
230
1.0
 70
    24
 71
     3
 72
     8
 73
     4
 74
     0
 42
0.000000001
 43
0.0000000001
 40
0.0
 40
0.0
 40
0.0
 40
0.0
 40
1.0
 40
1.0
 40
1.0
 40
1.0
 10
460.6686840304081
 20
11.67389445803993
 30
0.0
 10
460.6686840304081
 20
11.67389445803993
 30
0.0
 10
460.1986973393191
 20
12.50943146923038
 30
0.0
 10
460.1986973393191
 20
12.50943146923038
 30
0.0
  0
SPLINE
  5
271
102
{ACAD_REACTORS
330
26F
102
}
330
1F
100
AcDbEntity
  8
Capa 1
 62
     9
100
AcDbSpline
210
0.0
220
0.0
230
1.0
 70
     8
 71
     3
 72
    11
 73
     7
 74
     0
 42
0.000000001
 43
0.0000000001
 40
1.0
 40
1.0
 40
1.0
 40
1.0
 40
2.0
 40
2.0
 40
2.0
 40
3.0
 40
3.0
 40
3.0
 40
3.0
 10
460.1986973393191
 20
12.50943146923038
 30
0.0
 10
460.4415725332944
 20
12.58431466724861
 30
0.0
 10
460.6194234173905
 20
12.76216085305601
 30
0.0
 10
460.6194234173905
 20
13.0478994707232
 30
0.0
 10
460.6194234173905
 20
13.37994629705164
 30
0.0
 10
460.3425551680031
 20
13.63710992536277
 30
0.0
 10
460.002624613932
 20
13.63710992536277
 30
0.0
  0
SPLINE
  5
272
102
{ACAD_REACTORS
330
26F
102
}
330
1F
100
AcDbEntity
  8
Capa 1
 62
     9
100
AcDbSpline
210
0.0
220
0.0
230
1.0
 70
    24
 71
     3
 72
     8
 73
     4
 74
     0
 42
0.000000001
 43
0.0000000001
 40
3.0
 40
3.0
 40
3.0
 40
3.0
 40
4.0
 40
4.0
 40
4.0
 40
4.0
 10
460.002624613932
 20
13.63710992536277
 30
0.0
 10
460.002624613932
 20
13.63710992536277
 30
0.0
 10
459.3340920184999
 20
13.63710992536277
 30
0.0
 10
459.3340920184999
 20
13.63710992536277
 30
0.0
  0
SPLINE
  5
273
102
{ACAD_REACTORS
330
26F
102
}
330
1F
100
AcDbEntity
  8
Capa 1
 62
     9
100
AcDbSpline
210
0.0
220
0.0
230
1.0
 70
    24
 71
     3
 72
     8
 73
     4
 74
     0
 42
0.000000001
 43
0.0000000001
 40
4.0
 40
4.0
 40
4.0
 40
4.0
 40
5.0
 40
5.0
 40
5.0
 40
5.0
 10
459.3340920184999
 20
13.63710992536277
 30
0.0
 10
459.3340920184999
 20
13.63710992536277
 30
0.0
 10
459.3340920184999
 20
11.67389445803993
 30
0.0
 10
459.3340920184999
 20
11.67389445803993
 30
0.0
  0
SPLINE
  5
274
102
{ACAD_REACTORS
330
26F
102
}
330
1F
100
AcDbEntity
  8
Capa 1
 62
     9
100
AcDbSpline
210
0.0
220
0.0
230
1.0
 70
    24
 71
     3
 72
     8
 73
     4
 74
     0
 42
0.000000001
 43
0.0000000001
 40
5.0
 40
5.0
 40
5.0
 40
5.0
 40
6.0
 40
6.0
 40
6.0
 40
6.0
 10
459.3340920184999
 20
11.67389445803993
 30
0.0
 10
459.3340920184999
 20
11.67389445803993
 30
0.0
 10
459.6055478397777
 20
11.67389445803993
 30
0.0
 10
459.6055478397777
 20
11.67389445803993
 30
0.0
  0
SPLINE
  5
275
102
{ACAD_REACTORS
330
26F
102
}
330
1F
100
AcDbEntity
  8
Capa 1
 62
     9
100
AcDbSpline
210
0.0
220
0.0
230
1.0
 70
    24
 71
     3
 72
     8
 73
     4
 74
     0
 42
0.000000001
 43
0.0000000001
 40
6.0
 40
6.0
 40
6.0
 40
6.0
 40
7.0
 40
7.0
 40
7.0
 40
7.0
 10
459.6055478397777
 20
11.67389445803993
 30
0.0
 10
459.6055478397777
 20
11.67389445803993
 30
0.0
 10
459.6055478397777
 20
12.47396033232826
 30
0.0
 10
459.6055478397777
 20
12.47396033232826
 30
0.0
  0
SPLINE
  5
276
102
{ACAD_REACTORS
330
26F
102
}
330
1F
100
AcDbEntity
  8
Capa 1
 62
     9
100
AcDbSpline
210
0.0
220
0.0
230
1.0
 70
    24
 71
     3
 72
     8
 73
     4
 74
     0
 42
0.000000001
 43
0.0000000001
 40
7.0
 40
7.0
 40
7.0
 40
7.0
 40
8.0
 40
8.0
 40
8.0
 40
8.0
 10
459.6055478397777
 20
12.47396033232826
 30
0.0
 10
459.6055478397777
 20
12.47396033232826
 30
0.0
 10
459.9031035921421
 20
12.47396033232826
 30
0.0
 10
459.9031035921421
 20
12.47396033232826
 30
0.0
  0
SPLINE
  5
277
102
{ACAD_REACTORS
330
26F
102
}
330
1F
100
AcDbEntity
  8
Capa 1
 62
     9
100
AcDbSpline
210
0.0
220
0.0
230
1.0
 70
    24
 71
     3
 72
     8
 73
     4
 74
     0
 42
0.000000001
 43
0.0000000001
 40
8.0
 40
8.0
 40
8.0
 40
8.0
 40
9.0
 40
9.0
 40
9.0
 40
9.0
 10
459.9031035921421
 20
12.47396033232826
 30
0.0
 10
459.9031035921421
 20
12.47396033232826
 30
0.0
 10
460.3519141582726
 20
11.67389445803993
 30
0.0
 10
460.3519141582726
 20
11.67389445803993
 30
0.0
  0
SPLINE
  5
278
102
{ACAD_REACTORS
330
26F
102
}
330
1F
100
AcDbEntity
  8
Capa 1
 62
     9
100
AcDbSpline
210
0.0
220
0.0
230
1.0
 70
    24
 71
     3
 72
     8
 73
     4
 74
     0
 42
0.000000001
 43
0.0000000001
 40
9.0
 40
9.0
 40
9.0
 40
9.0
 40
10.0
 40
10.0
 40
10.0
 40
10.0
 10
460.3519141582726
 20
11.67389445803993
 30
0.0
 10
460.3519141582726
 20
11.67389445803993
 30
0.0
 10
460.6686840304081
 20
11.67389445803993
 30
0.0
 10
460.6686840304081
 20
11.67389445803993
 30
0.0
  0
SPLINE
  5
279
102
{ACAD_REACTORS
330
26F
102
}
330
1F
100
AcDbEntity
  8
Capa 1
 62
     9
100
AcDbSpline
210
0.0
220
0.0
230
1.0
 70
     8
 71
     3
 72
     8
 73
     4
 74
     0
 42
0.000000001
 43
0.0000000001
 40
0.0
 40
0.0
 40
0.0
 40
0.0
 40
1.0
 40
1.0
 40
1.0
 40
1.0
 10
460.3425551680031
 20
13.0478994707232
 30
0.0
 10
460.3425551680031
 20
12.85083822548312
 30
0.0
 10
460.1893383490495
 20
12.70796985630702
 30
0.0
 10
459.9725706034259
 20
12.70796985630702
 30
0.0
  0
SPLINE
  5
27A
102
{ACAD_REACTORS
330
26F
102
}
330
1F
100
AcDbEntity
  8
Capa 1
 62
     9
100
AcDbSpline
210
0.0
220
0.0
230
1.0
 70
    24
 71
     3
 72
     8
 73
     4
 74
     0
 42
0.000000001
 43
0.0000000001
 40
1.0
 40
1.0
 40
1.0
 40
1.0
 40
2.0
 40
2.0
 40
2.0
 40
2.0
 10
459.9725706034259
 20
12.70796985630702
 30
0.0
 10
459.9725706034259
 20
12.70796985630702
 30
0.0
 10
459.6055478397777
 20
12.70796985630702
 30
0.0
 10
459.6055478397777
 20
12.70796985630702
 30
0.0
  0
SPLINE
  5
27B
102
{ACAD_REACTORS
330
26F
102
}
330
1F
100
AcDbEntity
  8
Capa 1
 62
     9
100
AcDbSpline
210
0.0
220
0.0
230
1.0
 70
    24
 71
     3
 72
     8
 73
     4
 74
     0
 42
0.000000001
 43
0.0000000001
 40
2.0
 40
2.0
 40
2.0
 40
2.0
 40
3.0
 40
3.0
 40
3.0
 40
3.0
 10
459.6055478397777
 20
12.70796985630702
 30
0.0
 10
459.6055478397777
 20
12.70796985630702
 30
0.0
 10
459.6055478397777
 20
13.3952185529551
 30
0.0
 10
459.6055478397777
 20
13.3952185529551
 30
0.0
  0
SPLINE
  5
27C
102
{ACAD_REACTORS
330
26F
102
}
330
1F
100
AcDbEntity
  8
Capa 1
 62
     9
100
AcDbSpline
210
0.0
220
0.0
230
1.0
 70
    24
 71
     3
 72
     8
 73
     4
 74
     0
 42
0.000000001
 43
0.0000000001
 40
3.0
 40
3.0
 40
3.0
 40
3.0
 40
4.0
 40
4.0
 40
4.0
 40
4.0
 10
459.6055478397777
 20
13.3952185529551
 30
0.0
 10
459.6055478397777
 20
13.3952185529551
 30
0.0
 10
459.9725706034259
 20
13.3952185529551
 30
0.0
 10
459.9725706034259
 20
13.3952185529551
 30
0.0
  0
SPLINE
  5
27D
102
{ACAD_REACTORS
330
26F
102
}
330
1F
100
AcDbEntity
  8
Capa 1
 62
     9
100
AcDbSpline
210
0.0
220
0.0
230
1.0
 70
     8
 71
     3
 72
     8
 73
     4
 74
     0
 42
0.000000001
 43
0.0000000001
 40
4.0
 40
4.0
 40
4.0
 40
4.0
 40
5.0
 40
5.0
 40
5.0
 40
5.0
 10
459.9725706034259
 20
13.3952185529551
 30
0.0
 10
460.1893383490495
 20
13.3952185529551
 30
0.0
 10
460.3425551680031
 20
13.24643785780029
 30
0.0
 10
460.3425551680031
 20
13.0478994707232
 30
0.0
  0
HATCH
  5
27E
330
1F
100
AcDbEntity
  8
COTAS
 62
     9
100
AcDbHatch
 10
0.0
 20
0.0
 30
0.0
210
0.0
220
0.0
230
1.0
  2
SOLID
 70
     1
 71
     1
 91
        2
 92
       16
 93
        9
 72
     4
 94
        3
 73
     0
 74
     0
 95
        8
 96
        4
 40
10.0
 40
10.0
 40
10.0
 40
10.0
 40
11.0
 40
11.0
 40
11.0
 40
11.0
 10
366.1904464967977
 20
5.855244445907349
 10
366.1904464967977
 20
5.855244445907349
 10
366.1904464967977
 20
8.593186441531518
 10
366.1904464967977
 20
8.593186441531518
 97
        0
 72
     4
 94
        3
 73
     0
 74
     0
 95
       11
 96
        7
 40
0.0
 40
0.0
 40
0.0
 40
0.0
 40
1.0
 40
1.0
 40
1.0
 40
2.0
 40
2.0
 40
2.0
 40
2.0
 10
366.1904464967977
 20
8.593186441531518
 10
366.1904464967977
 20
8.593186441531518
 10
366.186686418452
 20
8.700870532081158
 10
366.2692942730396
 20
8.775329968223733
 10
366.3369609639317
 20
8.83632203338026
 10
366.4144565687836
 20
8.834226863261012
 10
366.4214453197152
 20
8.83521083902399
 97
        0
 72
     4
 94
        3
 73
     0
 74
     0
 95
        8
 96
        4
 40
2.0
 40
2.0
 40
2.0
 40
2.0
 40
3.0
 40
3.0
 40
3.0
 40
3.0
 10
366.4214453197152
 20
8.83521083902399
 10
366.4214453197152
 20
8.83521083902399
 10
372.1826738721741
 20
8.83521083902399
 10
372.1826738721741
 20
8.83521083902399
 97
        0
 72
     4
 94
        3
 73
     0
 74
     0
 95
        8
 96
        4
 40
3.0
 40
3.0
 40
3.0
 40
3.0
 40
4.0
 40
4.0
 40
4.0
 40
4.0
 10
372.1826738721741
 20
8.83521083902399
 10
372.6591031625333
 20
8.83521083902399
 10
373.0070353103081
 20
8.754289345081649
 10
373.2266973868284
 20
8.592387486852122
 97
        0
 72
     4
 94
        3
 73
     0
 74
     0
 95
       11
 96
        7
 40
4.0
 40
4.0
 40
4.0
 40
4.0
 40
5.0
 40
5.0
 40
5.0
 40
6.0
 40
6.0
 40
6.0
 40
6.0
 10
373.2266973868284
 20
8.592387486852122
 10
373.5579019466329
 20
8.34610760443606
 10
373.7232519250573
 20
7.892259296329772
 10
373.7232519250573
 20
7.231347165488646
 10
373.7232519250573
 20
6.568433442924562
 10
373.5617789793399
 20
6.119067691071738
 10
373.2390685692841
 20
5.882703256728664
 97
        0
 72
     4
 94
        3
 73
     0
 74
     0
 95
        8
 96
        4
 40
6.0
 40
6.0
 40
6.0
 40
6.0
 40
7.0
 40
7.0
 40
7.0
 40
7.0
 10
373.2390685692841
 20
5.882703256728664
 10
373.0111562344435
 20
5.712895952198398
 10
372.6591031625333
 20
5.62797127481014
 10
372.1826738721741
 20
5.62797127481014
 97
        0
 72
     4
 94
        3
 73
     0
 74
     0
 95
        8
 96
        4
 40
7.0
 40
7.0
 40
7.0
 40
7.0
 40
8.0
 40
8.0
 40
8.0
 40
8.0
 10
372.1826738721741
 20
5.62797127481014
 10
372.1826738721741
 20
5.62797127481014
 10
366.3960890212082
 20
5.62797127481014
 10
366.3960890212082
 20
5.62797127481014
 97
        0
 72
     4
 94
        3
 73
     0
 74
     0
 95
        8
 96
        4
 40
8.0
 40
8.0
 40
8.0
 40
8.0
 40
9.0
 40
9.0
 40
9.0
 40
9.0
 10
366.3960890212082
 20
5.62797127481014
 10
366.3598921692098
 20
5.632655672245807
 10
366.3061099042171
 20
5.646069700809253
 10
366.2680292011853
 20
5.684671826894903
 97
        0
 72
     4
 94
        3
 73
     0
 74
     0
 95
        8
 96
        4
 40
9.0
 40
9.0
 40
9.0
 40
9.0
 40
10.0
 40
10.0
 40
10.0
 40
10.0
 10
366.2680292011853
 20
5.684671826894903
 10
366.2057611964929
 20
5.747789246562039
 10
366.1904464967977
 20
5.82906396257312
 10
366.1904464967977
 20
5.855244445907349
 97
        0
 97
        9
330
2A1
330
299
330
29A
330
29B
330
29C
330
29D
330
29E
330
29F
330
2A0
 92
        1
 93
       26
 72
     4
 94
        3
 73
     0
 74
     0
 95
        8
 96
        4
 40
27.0
 40
27.0
 40
27.0
 40
27.0
 40
28.0
 40
28.0
 40
28.0
 40
28.0
 10
364.8908920455453
 20
9.795495493235084
 10
364.8908920455453
 20
9.795495493235084
 10
364.8914639288951
 20
1.507299440791005
 10
364.8914639288951
 20
1.507299440791005
 97
        0
 72
     4
 94
        3
 73
     0
 74
     0
 95
        8
 96
        4
 40
0.0
 40
0.0
 40
0.0
 40
0.0
 40
1.0
 40
1.0
 40
1.0
 40
1.0
 10
364.8914639288951
 20
1.507299440791005
 10
364.8914639288951
 20
1.391106200268528
 10
364.9865143055877
 20
1.296274484856529
 10
365.1026486757652
 20
1.296274484856529
 97
        0
 72
     4
 94
        3
 73
     0
 74
     0
 95
        8
 96
        4
 40
1.0
 40
1.0
 40
1.0
 40
1.0
 40
2.0
 40
2.0
 40
2.0
 40
2.0
 10
365.1026486757652
 20
1.296274484856529
 10
365.1026486757652
 20
1.296274484856529
 10
365.9796233820454
 20
1.296274484856529
 10
365.9796233820454
 20
1.296274484856529
 97
        0
 72
     4
 94
        3
 73
     0
 74
     0
 95
        8
 96
        4
 40
2.0
 40
2.0
 40
2.0
 40
2.0
 40
3.0
 40
3.0
 40
3.0
 40
3.0
 10
365.9796233820454
 20
1.296274484856529
 10
366.0957577522231
 20
1.296274484856529
 10
366.1905558274378
 20
1.391106200268528
 10
366.1905558274378
 20
1.507299440791005
 97
        0
 72
     4
 94
        3
 73
     0
 74
     0
 95
        8
 96
        4
 40
3.0
 40
3.0
 40
3.0
 40
3.0
 40
4.0
 40
4.0
 40
4.0
 40
4.0
 10
366.1905558274378
 20
1.507299440791005
 10
366.1905558274378
 20
1.507299440791005
 10
366.1905558274378
 20
2.587334786359921
 10
366.1905558274378
 20
2.587334786359921
 97
        0
 72
     4
 94
        3
 73
     0
 74
     0
 95
        8
 96
        4
 40
4.0
 40
4.0
 40
4.0
 40
4.0
 40
5.0
 40
5.0
 40
5.0
 40
5.0
 10
366.1905558274378
 20
2.587334786359921
 10
366.1905558274378
 20
2.587603907936117
 10
366.1903119360095
 20
2.587814159167525
 10
366.1903119360095
 20
2.588091690793025
 97
        0
 72
     4
 94
        3
 73
     0
 74
     0
 95
        8
 96
        4
 40
5.0
 40
5.0
 40
5.0
 40
5.0
 40
6.0
 40
6.0
 40
6.0
 40
6.0
 10
366.1903119360095
 20
2.588091690793025
 10
366.1903119360095
 20
2.588091690793025
 10
366.1903119360095
 20
4.201458719987773
 10
366.1903119360095
 20
4.201458719987773
 97
        0
 72
     4
 94
        3
 73
     0
 74
     0
 95
       11
 96
        7
 40
6.0
 40
6.0
 40
6.0
 40
6.0
 40
7.0
 40
7.0
 40
7.0
 40
8.0
 40
8.0
 40
8.0
 40
8.0
 10
366.1903119360095
 20
4.201458719987773
 10
366.1903119360095
 20
4.201458719987773
 10
366.1878258501213
 20
4.308880923220702
 10
366.2692942730396
 20
4.382663720120565
 10
366.3437877873806
 20
4.450129612328656
 10
366.4226227266113
 20
4.443684958662406
 10
366.4226227266113
 20
4.443684958662406
 97
        0
 72
     4
 94
        3
 73
     0
 74
     0
 95
        8
 96
        4
 40
8.0
 40
8.0
 40
8.0
 40
8.0
 40
9.0
 40
9.0
 40
9.0
 40
9.0
 10
366.4226227266113
 20
4.443684958662406
 10
366.4226227266113
 20
4.443684958662406
 10
372.3099683777148
 20
4.443684958662406
 10
372.3099683777148
 20
4.443684958662406
 97
        0
 72
     4
 94
        3
 73
     0
 74
     0
 95
        8
 96
        4
 40
9.0
 40
9.0
 40
9.0
 40
9.0
 40
10.0
 40
10.0
 40
10.0
 40
10.0
 10
372.3099683777148
 20
4.443684958662406
 10
372.701296379651
 20
4.443684958662406
 10
373.0368573449701
 20
4.35082119477639
 10
373.3164073822433
 20
4.164126511339848
 97
        0
 72
     4
 94
        3
 73
     0
 74
     0
 95
        8
 96
        4
 40
10.0
 40
10.0
 40
10.0
 40
10.0
 40
11.0
 40
11.0
 40
11.0
 40
11.0
 10
373.3164073822433
 20
4.164126511339848
 10
373.5874800898665
 20
3.967491149682591
 10
373.7232519250573
 20
3.72515558036763
 10
373.7232519250573
 20
3.437178673739783
 97
        0
 72
     4
 94
        3
 73
     0
 74
     0
 95
        8
 96
        4
 40
11.0
 40
11.0
 40
11.0
 40
11.0
 40
12.0
 40
12.0
 40
12.0
 40
12.0
 10
373.7232519250573
 20
3.437178673739783
 10
373.7232519250573
 20
3.437178673739783
 10
373.7232519250573
 20
1.730510558097624
 10
373.7232519250573
 20
1.730510558097624
 97
        0
 72
     4
 94
        3
 73
     0
 74
     0
 95
        8
 96
        4
 40
12.0
 40
12.0
 40
12.0
 40
12.0
 40
13.0
 40
13.0
 40
13.0
 40
13.0
 10
373.7232519250573
 20
1.730510558097624
 10
373.7232519250573
 20
1.730510558097624
 10
373.7232519250573
 20
1.523152383638834
 10
373.7232519250573
 20
1.523152383638834
 97
        0
 72
     4
 94
        3
 73
     0
 74
     0
 95
        8
 96
        4
 40
13.0
 40
13.0
 40
13.0
 40
13.0
 40
14.0
 40
14.0
 40
14.0
 40
14.0
 10
373.7232519250573
 20
1.523152383638834
 10
373.7232519250573
 20
1.398254742136221
 10
373.8187816745574
 20
1.296274484856529
 10
373.9344366719278
 20
1.296274484856529
 97
        0
 72
     4
 94
        3
 73
     0
 74
     0
 95
        8
 96
        4
 40
14.0
 40
14.0
 40
14.0
 40
14.0
 40
15.0
 40
15.0
 40
15.0
 40
15.0
 10
373.9344366719278
 20
1.296274484856529
 10
373.9344366719278
 20
1.296274484856529
 10
374.7987963043236
 20
1.296274484856529
 10
374.7987963043236
 20
1.296274484856529
 97
        0
 72
     4
 94
        3
 73
     0
 74
     0
 95
        8
 96
        4
 40
15.0
 40
15.0
 40
15.0
 40
15.0
 40
16.0
 40
16.0
 40
16.0
 40
16.0
 10
374.7987963043236
 20
1.296274484856529
 10
374.915182975979
 20
1.296274484856529
 10
375.0099810511937
 20
1.398254742136221
 10
375.0099810511937
 20
1.523152383638834
 97
        0
 72
     4
 94
        3
 73
     0
 74
     0
 95
        8
 96
        4
 40
16.0
 40
16.0
 40
16.0
 40
16.0
 40
17.0
 40
17.0
 40
17.0
 40
17.0
 10
375.0099810511937
 20
1.523152383638834
 10
375.0099810511937
 20
1.523152383638834
 10
375.0099810511937
 20
1.730510558097624
 10
375.0099810511937
 20
1.730510558097624
 97
        0
 72
     4
 94
        3
 73
     0
 74
     0
 95
        8
 96
        4
 40
17.0
 40
17.0
 40
17.0
 40
17.0
 40
18.0
 40
18.0
 40
18.0
 40
18.0
 10
375.0099810511937
 20
1.730510558097624
 10
375.0099810511937
 20
1.730510558097624
 10
375.010224942622
 20
1.730510558097624
 10
375.010224942622
 20
1.730510558097624
 97
        0
 72
     4
 94
        3
 73
     0
 74
     0
 95
        8
 96
        4
 40
18.0
 40
18.0
 40
18.0
 40
18.0
 40
19.0
 40
19.0
 40
19.0
 40
19.0
 10
375.010224942622
 20
1.730510558097624
 10
375.010224942622
 20
1.730510558097624
 10
375.010224942622
 20
3.437178673739783
 10
375.010224942622
 20
3.437178673739783
 97
        0
 72
     4
 94
        3
 73
     0
 74
     0
 95
        8
 96
        4
 40
19.0
 40
19.0
 40
19.0
 40
19.0
 40
20.0
 40
20.0
 40
20.0
 40
20.0
 10
375.010224942622
 20
3.437178673739783
 10
375.010224942622
 20
3.861726370237722
 10
374.8831743285101
 20
4.21774057534758
 10
374.6298047745712
 20
4.506238905029409
 97
        0
 72
     4
 94
        3
 73
     0
 74
     0
 95
        8
 96
        4
 40
20.0
 40
20.0
 40
20.0
 40
20.0
 40
21.0
 40
21.0
 40
21.0
 40
21.0
 10
374.6298047745712
 20
4.506238905029409
 10
374.4511164580263
 20
4.708845401658454
 10
374.2042899224087
 20
4.874683162939849
 10
373.888610313531
 20
5.003306456262923
 97
        0
 72
     4
 94
        3
 73
     0
 74
     0
 95
        8
 96
        4
 40
21.0
 40
21.0
 40
21.0
 40
21.0
 40
22.0
 40
22.0
 40
22.0
 40
22.0
 10
373.888610313531
 20
5.003306456262923
 10
374.2459953566697
 20
5.156756214989972
 10
374.5051846646941
 20
5.360809240091132
 10
374.667633176125
 20
5.615541222009572
 97
        0
 72
     4
 94
        3
 73
     0
 74
     0
 95
       11
 96
        7
 40
22.0
 40
22.0
 40
22.0
 40
22.0
 40
23.0
 40
23.0
 40
23.0
 40
24.0
 40
24.0
 40
24.0
 40
24.0
 10
374.667633176125
 20
5.615541222009572
 10
374.8955455109658
 20
5.972076850173412
 10
375.010224942622
 20
6.51033682266328
 10
375.010224942622
 20
7.231347165488646
 10
375.010224942622
 20
8.070527110411621
 10
374.8111674867793
 20
8.744836449717756
 10
374.4132880564724
 20
9.254300413554763
 97
        0
 72
     4
 94
        3
 73
     0
 74
     0
 95
        8
 96
        4
 40
24.0
 40
24.0
 40
24.0
 40
24.0
 40
25.0
 40
25.0
 40
25.0
 40
25.0
 10
374.4132880564724
 20
9.254300413554763
 10
374.0137182062649
 20
9.75582529089397
 10
373.4444251520199
 20
10.00658772956354
 10
372.7071161337363
 20
10.00658772956354
 97
        0
 72
     4
 94
        3
 73
     0
 74
     0
 95
        8
 96
        4
 40
25.0
 40
25.0
 40
25.0
 40
25.0
 40
26.0
 40
26.0
 40
26.0
 40
26.0
 10
372.7071161337363
 20
10.00658772956354
 10
372.7071161337363
 20
10.00658772956354
 10
365.1019170014799
 20
10.00668024010537
 10
365.1019170014799
 20
10.00668024010537
 97
        0
 72
     4
 94
        3
 73
     0
 74
     0
 95
        8
 96
        4
 40
26.0
 40
26.0
 40
26.0
 40
26.0
 40
27.0
 40
27.0
 40
27.0
 40
27.0
 10
365.1019170014799
 20
10.00668024010537
 10
364.9857237609575
 20
10.00668024010537
 10
364.8908920455453
 20
9.911629863412802
 10
364.8908920455453
 20
9.795495493235084
 97
        0
 97
       26
330
298
330
27F
330
280
330
281
330
282
330
283
330
284
330
285
330
286
330
287
330
288
330
289
330
28A
330
28B
330
28C
330
28D
330
28E
330
28F
330
290
330
291
330
292
330
293
330
294
330
295
330
296
330
297
 75
     1
 76
     1
 98
        1
 10
-96.22923855780971
 20
-2.584739096925741
1001
GradientColor1ACI
1070
     5
1001
GradientColor2ACI
1070
     2
1001
ACAD
1010
0.0
1020
0.0
1030
0.0
  0
SPLINE
  5
27F
102
{ACAD_REACTORS
330
27E
102
}
330
1F
100
AcDbEntity
  8
Capa 1
 62
     9
100
AcDbSpline
210
0.0
220
0.0
230
1.0
 70
     8
 71
     3
 72
     8
 73
     4
 74
     0
 42
0.000000001
 43
0.0000000001
 40
0.0
 40
0.0
 40
0.0
 40
0.0
 40
1.0
 40
1.0
 40
1.0
 40
1.0
 10
364.8914639288951
 20
1.507299440791005
 30
0.0
 10
364.8914639288951
 20
1.391106200268528
 30
0.0
 10
364.9865143055877
 20
1.296274484856529
 30
0.0
 10
365.1026486757652
 20
1.296274484856529
 30
0.0
  0
SPLINE
  5
280
102
{ACAD_REACTORS
330
27E
102
}
330
1F
100
AcDbEntity
  8
Capa 1
 62
     9
100
AcDbSpline
210
0.0
220
0.0
230
1.0
 70
    24
 71
     3
 72
     8
 73
     4
 74
     0
 42
0.000000001
 43
0.0000000001
 40
1.0
 40
1.0
 40
1.0
 40
1.0
 40
2.0
 40
2.0
 40
2.0
 40
2.0
 10
365.1026486757652
 20
1.296274484856529
 30
0.0
 10
365.1026486757652
 20
1.296274484856529
 30
0.0
 10
365.9796233820454
 20
1.296274484856529
 30
0.0
 10
365.9796233820454
 20
1.296274484856529
 30
0.0
  0
SPLINE
  5
281
102
{ACAD_REACTORS
330
27E
102
}
330
1F
100
AcDbEntity
  8
Capa 1
 62
     9
100
AcDbSpline
210
0.0
220
0.0
230
1.0
 70
     8
 71
     3
 72
     8
 73
     4
 74
     0
 42
0.000000001
 43
0.0000000001
 40
2.0
 40
2.0
 40
2.0
 40
2.0
 40
3.0
 40
3.0
 40
3.0
 40
3.0
 10
365.9796233820454
 20
1.296274484856529
 30
0.0
 10
366.0957577522231
 20
1.296274484856529
 30
0.0
 10
366.1905558274378
 20
1.391106200268528
 30
0.0
 10
366.1905558274378
 20
1.507299440791005
 30
0.0
  0
SPLINE
  5
282
102
{ACAD_REACTORS
330
27E
102
}
330
1F
100
AcDbEntity
  8
Capa 1
 62
     9
100
AcDbSpline
210
0.0
220
0.0
230
1.0
 70
    24
 71
     3
 72
     8
 73
     4
 74
     0
 42
0.000000001
 43
0.0000000001
 40
3.0
 40
3.0
 40
3.0
 40
3.0
 40
4.0
 40
4.0
 40
4.0
 40
4.0
 10
366.1905558274378
 20
1.507299440791005
 30
0.0
 10
366.1905558274378
 20
1.507299440791005
 30
0.0
 10
366.1905558274378
 20
2.587334786359921
 30
0.0
 10
366.1905558274378
 20
2.587334786359921
 30
0.0
  0
SPLINE
  5
283
102
{ACAD_REACTORS
330
27E
102
}
330
1F
100
AcDbEntity
  8
Capa 1
 62
     9
100
AcDbSpline
210
0.0
220
0.0
230
1.0
 70
     8
 71
     3
 72
     8
 73
     4
 74
     0
 42
0.000000001
 43
0.0000000001
 40
4.0
 40
4.0
 40
4.0
 40
4.0
 40
5.0
 40
5.0
 40
5.0
 40
5.0
 10
366.1905558274378
 20
2.587334786359921
 30
0.0
 10
366.1905558274378
 20
2.587603907936117
 30
0.0
 10
366.1903119360095
 20
2.587814159167525
 30
0.0
 10
366.1903119360095
 20
2.588091690793025
 30
0.0
  0
SPLINE
  5
284
102
{ACAD_REACTORS
330
27E
102
}
330
1F
100
AcDbEntity
  8
Capa 1
 62
     9
100
AcDbSpline
210
0.0
220
0.0
230
1.0
 70
    24
 71
     3
 72
     8
 73
     4
 74
     0
 42
0.000000001
 43
0.0000000001
 40
5.0
 40
5.0
 40
5.0
 40
5.0
 40
6.0
 40
6.0
 40
6.0
 40
6.0
 10
366.1903119360095
 20
2.588091690793025
 30
0.0
 10
366.1903119360095
 20
2.588091690793025
 30
0.0
 10
366.1903119360095
 20
4.201458719987773
 30
0.0
 10
366.1903119360095
 20
4.201458719987773
 30
0.0
  0
SPLINE
  5
285
102
{ACAD_REACTORS
330
27E
102
}
330
1F
100
AcDbEntity
  8
Capa 1
 62
     9
100
AcDbSpline
210
0.0
220
0.0
230
1.0
 70
     8
 71
     3
 72
    11
 73
     7
 74
     0
 42
0.000000001
 43
0.0000000001
 40
6.0
 40
6.0
 40
6.0
 40
6.0
 40
7.0
 40
7.0
 40
7.0
 40
8.0
 40
8.0
 40
8.0
 40
8.0
 10
366.1903119360095
 20
4.201458719987773
 30
0.0
 10
366.1903119360095
 20
4.201458719987773
 30
0.0
 10
366.1878258501213
 20
4.308880923220702
 30
0.0
 10
366.2692942730396
 20
4.382663720120565
 30
0.0
 10
366.3437877873806
 20
4.450129612328656
 30
0.0
 10
366.4226227266113
 20
4.443684958662406
 30
0.0
 10
366.4226227266113
 20
4.443684958662406
 30
0.0
  0
SPLINE
  5
286
102
{ACAD_REACTORS
330
27E
102
}
330
1F
100
AcDbEntity
  8
Capa 1
 62
     9
100
AcDbSpline
210
0.0
220
0.0
230
1.0
 70
    24
 71
     3
 72
     8
 73
     4
 74
     0
 42
0.000000001
 43
0.0000000001
 40
8.0
 40
8.0
 40
8.0
 40
8.0
 40
9.0
 40
9.0
 40
9.0
 40
9.0
 10
366.4226227266113
 20
4.443684958662406
 30
0.0
 10
366.4226227266113
 20
4.443684958662406
 30
0.0
 10
372.3099683777148
 20
4.443684958662406
 30
0.0
 10
372.3099683777148
 20
4.443684958662406
 30
0.0
  0
SPLINE
  5
287
102
{ACAD_REACTORS
330
27E
102
}
330
1F
100
AcDbEntity
  8
Capa 1
 62
     9
100
AcDbSpline
210
0.0
220
0.0
230
1.0
 70
     8
 71
     3
 72
     8
 73
     4
 74
     0
 42
0.000000001
 43
0.0000000001
 40
9.0
 40
9.0
 40
9.0
 40
9.0
 40
10.0
 40
10.0
 40
10.0
 40
10.0
 10
372.3099683777148
 20
4.443684958662406
 30
0.0
 10
372.701296379651
 20
4.443684958662406
 30
0.0
 10
373.0368573449701
 20
4.35082119477639
 30
0.0
 10
373.3164073822433
 20
4.164126511339848
 30
0.0
  0
SPLINE
  5
288
102
{ACAD_REACTORS
330
27E
102
}
330
1F
100
AcDbEntity
  8
Capa 1
 62
     9
100
AcDbSpline
210
0.0
220
0.0
230
1.0
 70
     8
 71
     3
 72
     8
 73
     4
 74
     0
 42
0.000000001
 43
0.0000000001
 40
10.0
 40
10.0
 40
10.0
 40
10.0
 40
11.0
 40
11.0
 40
11.0
 40
11.0
 10
373.3164073822433
 20
4.164126511339848
 30
0.0
 10
373.5874800898665
 20
3.967491149682591
 30
0.0
 10
373.7232519250573
 20
3.72515558036763
 30
0.0
 10
373.7232519250573
 20
3.437178673739783
 30
0.0
  0
SPLINE
  5
289
102
{ACAD_REACTORS
330
27E
102
}
330
1F
100
AcDbEntity
  8
Capa 1
 62
     9
100
AcDbSpline
210
0.0
220
0.0
230
1.0
 70
    24
 71
     3
 72
     8
 73
     4
 74
     0
 42
0.000000001
 43
0.0000000001
 40
11.0
 40
11.0
 40
11.0
 40
11.0
 40
12.0
 40
12.0
 40
12.0
 40
12.0
 10
373.7232519250573
 20
3.437178673739783
 30
0.0
 10
373.7232519250573
 20
3.437178673739783
 30
0.0
 10
373.7232519250573
 20
1.730510558097624
 30
0.0
 10
373.7232519250573
 20
1.730510558097624
 30
0.0
  0
SPLINE
  5
28A
102
{ACAD_REACTORS
330
27E
102
}
330
1F
100
AcDbEntity
  8
Capa 1
 62
     9
100
AcDbSpline
210
0.0
220
0.0
230
1.0
 70
    24
 71
     3
 72
     8
 73
     4
 74
     0
 42
0.000000001
 43
0.0000000001
 40
12.0
 40
12.0
 40
12.0
 40
12.0
 40
13.0
 40
13.0
 40
13.0
 40
13.0
 10
373.7232519250573
 20
1.730510558097624
 30
0.0
 10
373.7232519250573
 20
1.730510558097624
 30
0.0
 10
373.7232519250573
 20
1.523152383638834
 30
0.0
 10
373.7232519250573
 20
1.523152383638834
 30
0.0
  0
SPLINE
  5
28B
102
{ACAD_REACTORS
330
27E
102
}
330
1F
100
AcDbEntity
  8
Capa 1
 62
     9
100
AcDbSpline
210
0.0
220
0.0
230
1.0
 70
     8
 71
     3
 72
     8
 73
     4
 74
     0
 42
0.000000001
 43
0.0000000001
 40
13.0
 40
13.0
 40
13.0
 40
13.0
 40
14.0
 40
14.0
 40
14.0
 40
14.0
 10
373.7232519250573
 20
1.523152383638834
 30
0.0
 10
373.7232519250573
 20
1.398254742136221
 30
0.0
 10
373.8187816745574
 20
1.296274484856529
 30
0.0
 10
373.9344366719278
 20
1.296274484856529
 30
0.0
  0
SPLINE
  5
28C
102
{ACAD_REACTORS
330
27E
102
}
330
1F
100
AcDbEntity
  8
Capa 1
 62
     9
100
AcDbSpline
210
0.0
220
0.0
230
1.0
 70
    24
 71
     3
 72
     8
 73
     4
 74
     0
 42
0.000000001
 43
0.0000000001
 40
14.0
 40
14.0
 40
14.0
 40
14.0
 40
15.0
 40
15.0
 40
15.0
 40
15.0
 10
373.9344366719278
 20
1.296274484856529
 30
0.0
 10
373.9344366719278
 20
1.296274484856529
 30
0.0
 10
374.7987963043236
 20
1.296274484856529
 30
0.0
 10
374.7987963043236
 20
1.296274484856529
 30
0.0
  0
SPLINE
  5
28D
102
{ACAD_REACTORS
330
27E
102
}
330
1F
100
AcDbEntity
  8
Capa 1
 62
     9
100
AcDbSpline
210
0.0
220
0.0
230
1.0
 70
     8
 71
     3
 72
     8
 73
     4
 74
     0
 42
0.000000001
 43
0.0000000001
 40
15.0
 40
15.0
 40
15.0
 40
15.0
 40
16.0
 40
16.0
 40
16.0
 40
16.0
 10
374.7987963043236
 20
1.296274484856529
 30
0.0
 10
374.915182975979
 20
1.296274484856529
 30
0.0
 10
375.0099810511937
 20
1.398254742136221
 30
0.0
 10
375.0099810511937
 20
1.523152383638834
 30
0.0
  0
SPLINE
  5
28E
102
{ACAD_REACTORS
330
27E
102
}
330
1F
100
AcDbEntity
  8
Capa 1
 62
     9
100
AcDbSpline
210
0.0
220
0.0
230
1.0
 70
    24
 71
     3
 72
     8
 73
     4
 74
     0
 42
0.000000001
 43
0.0000000001
 40
16.0
 40
16.0
 40
16.0
 40
16.0
 40
17.0
 40
17.0
 40
17.0
 40
17.0
 10
375.0099810511937
 20
1.523152383638834
 30
0.0
 10
375.0099810511937
 20
1.523152383638834
 30
0.0
 10
375.0099810511937
 20
1.730510558097624
 30
0.0
 10
375.0099810511937
 20
1.730510558097624
 30
0.0
  0
SPLINE
  5
28F
102
{ACAD_REACTORS
330
27E
102
}
330
1F
100
AcDbEntity
  8
Capa 1
 62
     9
100
AcDbSpline
210
0.0
220
0.0
230
1.0
 70
    24
 71
     3
 72
     8
 73
     4
 74
     0
 42
0.000000001
 43
0.0000000001
 40
17.0
 40
17.0
 40
17.0
 40
17.0
 40
18.0
 40
18.0
 40
18.0
 40
18.0
 10
375.0099810511937
 20
1.730510558097624
 30
0.0
 10
375.0099810511937
 20
1.730510558097624
 30
0.0
 10
375.010224942622
 20
1.730510558097624
 30
0.0
 10
375.010224942622
 20
1.730510558097624
 30
0.0
  0
SPLINE
  5
290
102
{ACAD_REACTORS
330
27E
102
}
330
1F
100
AcDbEntity
  8
Capa 1
 62
     9
100
AcDbSpline
210
0.0
220
0.0
230
1.0
 70
    24
 71
     3
 72
     8
 73
     4
 74
     0
 42
0.000000001
 43
0.0000000001
 40
18.0
 40
18.0
 40
18.0
 40
18.0
 40
19.0
 40
19.0
 40
19.0
 40
19.0
 10
375.010224942622
 20
1.730510558097624
 30
0.0
 10
375.010224942622
 20
1.730510558097624
 30
0.0
 10
375.010224942622
 20
3.437178673739783
 30
0.0
 10
375.010224942622
 20
3.437178673739783
 30
0.0
  0
SPLINE
  5
291
102
{ACAD_REACTORS
330
27E
102
}
330
1F
100
AcDbEntity
  8
Capa 1
 62
     9
100
AcDbSpline
210
0.0
220
0.0
230
1.0
 70
     8
 71
     3
 72
     8
 73
     4
 74
     0
 42
0.000000001
 43
0.0000000001
 40
19.0
 40
19.0
 40
19.0
 40
19.0
 40
20.0
 40
20.0
 40
20.0
 40
20.0
 10
375.010224942622
 20
3.437178673739783
 30
0.0
 10
375.010224942622
 20
3.861726370237722
 30
0.0
 10
374.8831743285101
 20
4.21774057534758
 30
0.0
 10
374.6298047745712
 20
4.506238905029409
 30
0.0
  0
SPLINE
  5
292
102
{ACAD_REACTORS
330
27E
102
}
330
1F
100
AcDbEntity
  8
Capa 1
 62
     9
100
AcDbSpline
210
0.0
220
0.0
230
1.0
 70
     8
 71
     3
 72
     8
 73
     4
 74
     0
 42
0.000000001
 43
0.0000000001
 40
20.0
 40
20.0
 40
20.0
 40
20.0
 40
21.0
 40
21.0
 40
21.0
 40
21.0
 10
374.6298047745712
 20
4.506238905029409
 30
0.0
 10
374.4511164580263
 20
4.708845401658454
 30
0.0
 10
374.2042899224087
 20
4.874683162939849
 30
0.0
 10
373.888610313531
 20
5.003306456262923
 30
0.0
  0
SPLINE
  5
293
102
{ACAD_REACTORS
330
27E
102
}
330
1F
100
AcDbEntity
  8
Capa 1
 62
     9
100
AcDbSpline
210
0.0
220
0.0
230
1.0
 70
     8
 71
     3
 72
     8
 73
     4
 74
     0
 42
0.000000001
 43
0.0000000001
 40
21.0
 40
21.0
 40
21.0
 40
21.0
 40
22.0
 40
22.0
 40
22.0
 40
22.0
 10
373.888610313531
 20
5.003306456262923
 30
0.0
 10
374.2459953566697
 20
5.156756214989972
 30
0.0
 10
374.5051846646941
 20
5.360809240091132
 30
0.0
 10
374.667633176125
 20
5.615541222009572
 30
0.0
  0
SPLINE
  5
294
102
{ACAD_REACTORS
330
27E
102
}
330
1F
100
AcDbEntity
  8
Capa 1
 62
     9
100
AcDbSpline
210
0.0
220
0.0
230
1.0
 70
     8
 71
     3
 72
    11
 73
     7
 74
     0
 42
0.000000001
 43
0.0000000001
 40
22.0
 40
22.0
 40
22.0
 40
22.0
 40
23.0
 40
23.0
 40
23.0
 40
24.0
 40
24.0
 40
24.0
 40
24.0
 10
374.667633176125
 20
5.615541222009572
 30
0.0
 10
374.8955455109658
 20
5.972076850173412
 30
0.0
 10
375.010224942622
 20
6.51033682266328
 30
0.0
 10
375.010224942622
 20
7.231347165488646
 30
0.0
 10
375.010224942622
 20
8.070527110411621
 30
0.0
 10
374.8111674867793
 20
8.744836449717756
 30
0.0
 10
374.4132880564724
 20
9.254300413554763
 30
0.0
  0
SPLINE
  5
295
102
{ACAD_REACTORS
330
27E
102
}
330
1F
100
AcDbEntity
  8
Capa 1
 62
     9
100
AcDbSpline
210
0.0
220
0.0
230
1.0
 70
     8
 71
     3
 72
     8
 73
     4
 74
     0
 42
0.000000001
 43
0.0000000001
 40
24.0
 40
24.0
 40
24.0
 40
24.0
 40
25.0
 40
25.0
 40
25.0
 40
25.0
 10
374.4132880564724
 20
9.254300413554763
 30
0.0
 10
374.0137182062649
 20
9.75582529089397
 30
0.0
 10
373.4444251520199
 20
10.00658772956354
 30
0.0
 10
372.7071161337363
 20
10.00658772956354
 30
0.0
  0
SPLINE
  5
296
102
{ACAD_REACTORS
330
27E
102
}
330
1F
100
AcDbEntity
  8
Capa 1
 62
     9
100
AcDbSpline
210
0.0
220
0.0
230
1.0
 70
    24
 71
     3
 72
     8
 73
     4
 74
     0
 42
0.000000001
 43
0.0000000001
 40
25.0
 40
25.0
 40
25.0
 40
25.0
 40
26.0
 40
26.0
 40
26.0
 40
26.0
 10
372.7071161337363
 20
10.00658772956354
 30
0.0
 10
372.7071161337363
 20
10.00658772956354
 30
0.0
 10
365.1019170014799
 20
10.00668024010537
 30
0.0
 10
365.1019170014799
 20
10.00668024010537
 30
0.0
  0
SPLINE
  5
297
102
{ACAD_REACTORS
330
27E
102
}
330
1F
100
AcDbEntity
  8
Capa 1
 62
     9
100
AcDbSpline
210
0.0
220
0.0
230
1.0
 70
     8
 71
     3
 72
     8
 73
     4
 74
     0
 42
0.000000001
 43
0.0000000001
 40
26.0
 40
26.0
 40
26.0
 40
26.0
 40
27.0
 40
27.0
 40
27.0
 40
27.0
 10
365.1019170014799
 20
10.00668024010537
 30
0.0
 10
364.9857237609575
 20
10.00668024010537
 30
0.0
 10
364.8908920455453
 20
9.911629863412802
 30
0.0
 10
364.8908920455453
 20
9.795495493235084
 30
0.0
  0
SPLINE
  5
298
102
{ACAD_REACTORS
330
27E
102
}
330
1F
100
AcDbEntity
  8
Capa 1
 62
     9
100
AcDbSpline
210
0.0
220
0.0
230
1.0
 70
    24
 71
     3
 72
     8
 73
     4
 74
     0
 42
0.000000001
 43
0.0000000001
 40
27.0
 40
27.0
 40
27.0
 40
27.0
 40
28.0
 40
28.0
 40
28.0
 40
28.0
 10
364.8908920455453
 20
9.795495493235084
 30
0.0
 10
364.8908920455453
 20
9.795495493235084
 30
0.0
 10
364.8914639288951
 20
1.507299440791005
 30
0.0
 10
364.8914639288951
 20
1.507299440791005
 30
0.0
  0
SPLINE
  5
299
102
{ACAD_REACTORS
330
27E
102
}
330
1F
100
AcDbEntity
  8
Capa 1
 62
     9
100
AcDbSpline
210
0.0
220
0.0
230
1.0
 70
     8
 71
     3
 72
    11
 73
     7
 74
     0
 42
0.000000001
 43
0.0000000001
 40
0.0
 40
0.0
 40
0.0
 40
0.0
 40
1.0
 40
1.0
 40
1.0
 40
2.0
 40
2.0
 40
2.0
 40
2.0
 10
366.1904464967977
 20
8.593186441531518
 30
0.0
 10
366.1904464967977
 20
8.593186441531518
 30
0.0
 10
366.186686418452
 20
8.700870532081158
 30
0.0
 10
366.2692942730396
 20
8.775329968223733
 30
0.0
 10
366.3369609639317
 20
8.83632203338026
 30
0.0
 10
366.4144565687836
 20
8.834226863261012
 30
0.0
 10
366.4214453197152
 20
8.83521083902399
 30
0.0
  0
SPLINE
  5
29A
102
{ACAD_REACTORS
330
27E
102
}
330
1F
100
AcDbEntity
  8
Capa 1
 62
     9
100
AcDbSpline
210
0.0
220
0.0
230
1.0
 70
    24
 71
     3
 72
     8
 73
     4
 74
     0
 42
0.000000001
 43
0.0000000001
 40
2.0
 40
2.0
 40
2.0
 40
2.0
 40
3.0
 40
3.0
 40
3.0
 40
3.0
 10
366.4214453197152
 20
8.83521083902399
 30
0.0
 10
366.4214453197152
 20
8.83521083902399
 30
0.0
 10
372.1826738721741
 20
8.83521083902399
 30
0.0
 10
372.1826738721741
 20
8.83521083902399
 30
0.0
  0
SPLINE
  5
29B
102
{ACAD_REACTORS
330
27E
102
}
330
1F
100
AcDbEntity
  8
Capa 1
 62
     9
100
AcDbSpline
210
0.0
220
0.0
230
1.0
 70
     8
 71
     3
 72
     8
 73
     4
 74
     0
 42
0.000000001
 43
0.0000000001
 40
3.0
 40
3.0
 40
3.0
 40
3.0
 40
4.0
 40
4.0
 40
4.0
 40
4.0
 10
372.1826738721741
 20
8.83521083902399
 30
0.0
 10
372.6591031625333
 20
8.83521083902399
 30
0.0
 10
373.0070353103081
 20
8.754289345081649
 30
0.0
 10
373.2266973868284
 20
8.592387486852122
 30
0.0
  0
SPLINE
  5
29C
102
{ACAD_REACTORS
330
27E
102
}
330
1F
100
AcDbEntity
  8
Capa 1
 62
     9
100
AcDbSpline
210
0.0
220
0.0
230
1.0
 70
     8
 71
     3
 72
    11
 73
     7
 74
     0
 42
0.000000001
 43
0.0000000001
 40
4.0
 40
4.0
 40
4.0
 40
4.0
 40
5.0
 40
5.0
 40
5.0
 40
6.0
 40
6.0
 40
6.0
 40
6.0
 10
373.2266973868284
 20
8.592387486852122
 30
0.0
 10
373.5579019466329
 20
8.34610760443606
 30
0.0
 10
373.7232519250573
 20
7.892259296329772
 30
0.0
 10
373.7232519250573
 20
7.231347165488646
 30
0.0
 10
373.7232519250573
 20
6.568433442924562
 30
0.0
 10
373.5617789793399
 20
6.119067691071738
 30
0.0
 10
373.2390685692841
 20
5.882703256728664
 30
0.0
  0
SPLINE
  5
29D
102
{ACAD_REACTORS
330
27E
102
}
330
1F
100
AcDbEntity
  8
Capa 1
 62
     9
100
AcDbSpline
210
0.0
220
0.0
230
1.0
 70
     8
 71
     3
 72
     8
 73
     4
 74
     0
 42
0.000000001
 43
0.0000000001
 40
6.0
 40
6.0
 40
6.0
 40
6.0
 40
7.0
 40
7.0
 40
7.0
 40
7.0
 10
373.2390685692841
 20
5.882703256728664
 30
0.0
 10
373.0111562344435
 20
5.712895952198398
 30
0.0
 10
372.6591031625333
 20
5.62797127481014
 30
0.0
 10
372.1826738721741
 20
5.62797127481014
 30
0.0
  0
SPLINE
  5
29E
102
{ACAD_REACTORS
330
27E
102
}
330
1F
100
AcDbEntity
  8
Capa 1
 62
     9
100
AcDbSpline
210
0.0
220
0.0
230
1.0
 70
    24
 71
     3
 72
     8
 73
     4
 74
     0
 42
0.000000001
 43
0.0000000001
 40
7.0
 40
7.0
 40
7.0
 40
7.0
 40
8.0
 40
8.0
 40
8.0
 40
8.0
 10
372.1826738721741
 20
5.62797127481014
 30
0.0
 10
372.1826738721741
 20
5.62797127481014
 30
0.0
 10
366.3960890212082
 20
5.62797127481014
 30
0.0
 10
366.3960890212082
 20
5.62797127481014
 30
0.0
  0
SPLINE
  5
29F
102
{ACAD_REACTORS
330
27E
102
}
330
1F
100
AcDbEntity
  8
Capa 1
 62
     9
100
AcDbSpline
210
0.0
220
0.0
230
1.0
 70
     8
 71
     3
 72
     8
 73
     4
 74
     0
 42
0.000000001
 43
0.0000000001
 40
8.0
 40
8.0
 40
8.0
 40
8.0
 40
9.0
 40
9.0
 40
9.0
 40
9.0
 10
366.3960890212082
 20
5.62797127481014
 30
0.0
 10
366.3598921692098
 20
5.632655672245807
 30
0.0
 10
366.3061099042171
 20
5.646069700809253
 30
0.0
 10
366.2680292011853
 20
5.684671826894903
 30
0.0
  0
SPLINE
  5
2A0
102
{ACAD_REACTORS
330
27E
102
}
330
1F
100
AcDbEntity
  8
Capa 1
 62
     9
100
AcDbSpline
210
0.0
220
0.0
230
1.0
 70
     8
 71
     3
 72
     8
 73
     4
 74
     0
 42
0.000000001
 43
0.0000000001
 40
9.0
 40
9.0
 40
9.0
 40
9.0
 40
10.0
 40
10.0
 40
10.0
 40
10.0
 10
366.2680292011853
 20
5.684671826894903
 30
0.0
 10
366.2057611964929
 20
5.747789246562039
 30
0.0
 10
366.1904464967977
 20
5.82906396257312
 30
0.0
 10
366.1904464967977
 20
5.855244445907349
 30
0.0
  0
SPLINE
  5
2A1
102
{ACAD_REACTORS
330
27E
102
}
330
1F
100
AcDbEntity
  8
Capa 1
 62
     9
100
AcDbSpline
210
0.0
220
0.0
230
1.0
 70
    24
 71
     3
 72
     8
 73
     4
 74
     0
 42
0.000000001
 43
0.0000000001
 40
10.0
 40
10.0
 40
10.0
 40
10.0
 40
11.0
 40
11.0
 40
11.0
 40
11.0
 10
366.1904464967977
 20
5.855244445907349
 30
0.0
 10
366.1904464967977
 20
5.855244445907349
 30
0.0
 10
366.1904464967977
 20
8.593186441531518
 30
0.0
 10
366.1904464967977
 20
8.593186441531518
 30
0.0
  0
HATCH
  5
2A2
330
1F
100
AcDbEntity
  8
COTAS
 62
     9
100
AcDbHatch
 10
0.0
 20
0.0
 30
0.0
210
0.0
220
0.0
230
1.0
  2
SOLID
 70
     1
 71
     1
 91
        2
 92
        1
 93
        9
 72
     4
 94
        3
 73
     0
 74
     0
 95
        8
 96
        4
 40
11.0
 40
11.0
 40
11.0
 40
11.0
 40
12.0
 40
12.0
 40
12.0
 40
12.0
 10
396.4118686412645
 20
1.518741635214628
 10
395.6890184272788
 20
1.279976844267967
 10
394.4176851938751
 20
1.160594449462284
 10
392.5973634407706
 20
1.160594449462284
 97
        0
 72
     4
 94
        3
 73
     0
 74
     0
 95
        8
 96
        4
 40
0.0
 40
0.0
 40
0.0
 40
0.0
 40
1.0
 40
1.0
 40
1.0
 40
1.0
 10
392.5973634407706
 20
1.160594449462284
 10
390.783514371843
 20
1.160594449462284
 10
389.515168531139
 20
1.279976844267967
 10
388.7923221179017
 20
1.518741635214628
 97
        0
 72
     4
 94
        3
 73
     0
 74
     0
 95
        8
 96
        4
 40
1.0
 40
1.0
 40
1.0
 40
1.0
 40
2.0
 40
2.0
 40
2.0
 40
2.0
 10
388.7923221179017
 20
1.518741635214628
 10
388.0689740051313
 20
1.746562987839187
 10
387.6096604770114
 20
2.188775257261387
 10
387.4138760332412
 20
2.844881023227519
 97
        0
 72
     4
 94
        3
 73
     0
 74
     0
 95
       11
 96
        7
 40
2.0
 40
2.0
 40
2.0
 40
2.0
 40
3.0
 40
3.0
 40
3.0
 40
4.0
 40
4.0
 40
4.0
 40
4.0
 10
387.4138760332412
 20
2.844881023227519
 10
387.2768816534588
 20
3.295052016726647
 10
387.2081336137985
 20
4.226234830390073
 10
387.2081336137985
 20
5.63743397143276
 10
387.2081336137985
 20
7.073504777491525
 10
387.2728946624354
 20
8.004190200548823
 10
387.401424762896
 20
8.429489766225547
 97
        0
 72
     4
 94
        3
 73
     0
 74
     0
 95
        8
 96
        4
 40
4.0
 40
4.0
 40
4.0
 40
4.0
 40
5.0
 40
5.0
 40
5.0
 40
5.0
 10
387.401424762896
 20
8.429489766225547
 10
387.5967075071333
 20
9.092061965854132
 10
388.0600080262768
 20
9.542233433735664
 10
388.7918242191213
 20
9.78099800231509
 97
        0
 72
     4
 94
        3
 73
     0
 74
     0
 95
       11
 96
        7
 40
5.0
 40
5.0
 40
5.0
 40
5.0
 40
6.0
 40
6.0
 40
6.0
 40
7.0
 40
7.0
 40
7.0
 40
7.0
 10
388.7918242191213
 20
9.78099800231509
 10
389.5231387124334
 20
10.01976257089452
 10
390.7914883538895
 20
10.13864770176986
 10
392.5968617412326
 20
10.13864770176986
 10
394.4092133130431
 20
10.13864770176986
 10
395.6765671569342
 20
10.02374264450689
 10
396.3994135701712
 20
9.79343347903431
 97
        0
 72
     4
 94
        3
 73
     0
 74
     0
 95
        8
 96
        4
 40
7.0
 40
7.0
 40
7.0
 40
7.0
 40
8.0
 40
8.0
 40
8.0
 40
8.0
 10
396.3994135701712
 20
9.79343347903431
 10
397.115787299223
 20
9.554668910455636
 10
397.5775903212632
 20
9.104497916957758
 10
397.7833365414583
 20
8.44242287074113
 97
        0
 72
     4
 94
        3
 73
     0
 74
     0
 95
       11
 96
        7
 40
8.0
 40
8.0
 40
8.0
 40
8.0
 40
9.0
 40
9.0
 40
9.0
 40
10.0
 40
10.0
 40
10.0
 40
10.0
 10
397.7833365414583
 20
8.44242287074113
 10
397.9188410256381
 20
7.991754249446192
 10
397.9865894669801
 20
7.056592073744245
 10
397.9865894669801
 20
5.63743397143276
 10
397.9865894669801
 20
4.209322363835614
 10
397.9228242159033
 20
3.282616302815288
 10
397.7957916125511
 20
2.857316737139175
 97
        0
 72
     4
 94
        3
 73
     0
 74
     0
 95
        8
 96
        4
 40
10.0
 40
10.0
 40
10.0
 40
10.0
 40
11.0
 40
11.0
 40
11.0
 40
11.0
 10
397.7957916125511
 20
2.857316737139175
 10
397.6000109695333
 20
2.193252128500848
 10
397.1387020455205
 20
1.746562987839187
 10
396.4118686412645
 20
1.518741635214628
 97
        0
 97
        9
330
2B0
330
2A8
330
2A9
330
2AA
330
2AB
330
2AC
330
2AD
330
2AE
330
2AF
 92
       16
 93
        5
 72
     4
 94
        3
 73
     0
 74
     0
 95
        8
 96
        4
 40
7.0
 40
7.0
 40
7.0
 40
7.0
 40
8.0
 40
8.0
 40
8.0
 40
8.0
 10
389.0473831221823
 20
2.79165643334122
 10
389.40507208793
 20
2.486733814571327
 10
390.58823162761
 20
2.334023869181895
 10
392.5973634407706
 20
2.334023869181895
 97
        0
 72
     4
 94
        3
 73
     0
 74
     0
 95
        8
 96
        4
 40
0.0
 40
0.0
 40
0.0
 40
0.0
 40
1.0
 40
1.0
 40
1.0
 40
1.0
 10
392.5973634407706
 20
2.334023869181895
 10
394.6044998580376
 20
2.334023869181895
 10
395.7866597993955
 20
2.482754452533104
 10
396.1443487651336
 20
2.779220719429521
 97
        0
 72
     4
 94
        3
 73
     0
 74
     0
 95
       11
 96
        7
 40
1.0
 40
1.0
 40
1.0
 40
1.0
 40
2.0
 40
2.0
 40
2.0
 40
3.0
 40
3.0
 40
3.0
 40
3.0
 10
396.1443487651336
 20
2.779220719429521
 10
396.5035314272266
 20
3.07817417654724
 10
396.6833717076659
 20
4.030746090814961
 10
396.6833717076659
 20
5.63743397143276
 10
396.6833717076659
 20
7.252081050511638
 10
396.5085142158152
 20
8.207637427009164
 10
396.1597912289366
 20
8.504601203107288
 97
        0
 72
     4
 94
        3
 73
     0
 74
     0
 95
       11
 96
        7
 40
3.0
 40
3.0
 40
3.0
 40
3.0
 40
4.0
 40
4.0
 40
4.0
 40
5.0
 40
5.0
 40
5.0
 40
5.0
 10
396.1597912289366
 20
8.504601203107288
 10
395.8021060639417
 20
8.803057388214032
 10
394.6149595332425
 20
8.952782634182714
 10
392.5973634407706
 20
8.952782634182714
 10
390.5797635475358
 20
8.952782634182714
 10
389.3966040078554
 20
8.803057388214032
 10
389.0473831221823
 20
8.504601203107288
 97
        0
 72
     4
 94
        3
 73
     0
 74
     0
 95
       11
 96
        7
 40
5.0
 40
5.0
 40
5.0
 40
5.0
 40
6.0
 40
6.0
 40
6.0
 40
7.0
 40
7.0
 40
7.0
 40
7.0
 10
389.0473831221823
 20
8.504601203107288
 10
388.6901958559868
 20
8.207637427009164
 10
388.5113513731125
 20
7.252081050511638
 10
388.5113513731125
 20
5.63743397143276
 10
388.5113513731125
 20
4.03920244268787
 10
388.6901958559868
 20
3.090609890458712
 10
389.0473831221823
 20
2.79165643334122
 97
        0
 97
        5
330
2A7
330
2A3
330
2A4
330
2A5
330
2A6
 75
     1
 76
     1
 98
        1
 10
-96.22923855780971
 20
-2.584739096925741
1001
GradientColor1ACI
1070
     5
1001
GradientColor2ACI
1070
     2
1001
ACAD
1010
0.0
1020
0.0
1030
0.0
  0
SPLINE
  5
2A3
102
{ACAD_REACTORS
330
2A2
102
}
330
1F
100
AcDbEntity
  8
Capa 1
 62
     9
100
AcDbSpline
210
0.0
220
0.0
230
1.0
 70
     8
 71
     3
 72
     8
 73
     4
 74
     0
 42
0.000000001
 43
0.0000000001
 40
0.0
 40
0.0
 40
0.0
 40
0.0
 40
1.0
 40
1.0
 40
1.0
 40
1.0
 10
392.5973634407706
 20
2.334023869181895
 30
0.0
 10
394.6044998580376
 20
2.334023869181895
 30
0.0
 10
395.7866597993955
 20
2.482754452533104
 30
0.0
 10
396.1443487651336
 20
2.779220719429521
 30
0.0
  0
SPLINE
  5
2A4
102
{ACAD_REACTORS
330
2A2
102
}
330
1F
100
AcDbEntity
  8
Capa 1
 62
     9
100
AcDbSpline
210
0.0
220
0.0
230
1.0
 70
     8
 71
     3
 72
    11
 73
     7
 74
     0
 42
0.000000001
 43
0.0000000001
 40
1.0
 40
1.0
 40
1.0
 40
1.0
 40
2.0
 40
2.0
 40
2.0
 40
3.0
 40
3.0
 40
3.0
 40
3.0
 10
396.1443487651336
 20
2.779220719429521
 30
0.0
 10
396.5035314272266
 20
3.07817417654724
 30
0.0
 10
396.6833717076659
 20
4.030746090814961
 30
0.0
 10
396.6833717076659
 20
5.63743397143276
 30
0.0
 10
396.6833717076659
 20
7.252081050511638
 30
0.0
 10
396.5085142158152
 20
8.207637427009164
 30
0.0
 10
396.1597912289366
 20
8.504601203107288
 30
0.0
  0
SPLINE
  5
2A5
102
{ACAD_REACTORS
330
2A2
102
}
330
1F
100
AcDbEntity
  8
Capa 1
 62
     9
100
AcDbSpline
210
0.0
220
0.0
230
1.0
 70
     8
 71
     3
 72
    11
 73
     7
 74
     0
 42
0.000000001
 43
0.0000000001
 40
3.0
 40
3.0
 40
3.0
 40
3.0
 40
4.0
 40
4.0
 40
4.0
 40
5.0
 40
5.0
 40
5.0
 40
5.0
 10
396.1597912289366
 20
8.504601203107288
 30
0.0
 10
395.8021060639417
 20
8.803057388214032
 30
0.0
 10
394.6149595332425
 20
8.952782634182714
 30
0.0
 10
392.5973634407706
 20
8.952782634182714
 30
0.0
 10
390.5797635475358
 20
8.952782634182714
 30
0.0
 10
389.3966040078554
 20
8.803057388214032
 30
0.0
 10
389.0473831221823
 20
8.504601203107288
 30
0.0
  0
SPLINE
  5
2A6
102
{ACAD_REACTORS
330
2A2
102
}
330
1F
100
AcDbEntity
  8
Capa 1
 62
     9
100
AcDbSpline
210
0.0
220
0.0
230
1.0
 70
     8
 71
     3
 72
    11
 73
     7
 74
     0
 42
0.000000001
 43
0.0000000001
 40
5.0
 40
5.0
 40
5.0
 40
5.0
 40
6.0
 40
6.0
 40
6.0
 40
7.0
 40
7.0
 40
7.0
 40
7.0
 10
389.0473831221823
 20
8.504601203107288
 30
0.0
 10
388.6901958559868
 20
8.207637427009164
 30
0.0
 10
388.5113513731125
 20
7.252081050511638
 30
0.0
 10
388.5113513731125
 20
5.63743397143276
 30
0.0
 10
388.5113513731125
 20
4.03920244268787
 30
0.0
 10
388.6901958559868
 20
3.090609890458712
 30
0.0
 10
389.0473831221823
 20
2.79165643334122
 30
0.0
  0
SPLINE
  5
2A7
102
{ACAD_REACTORS
330
2A2
102
}
330
1F
100
AcDbEntity
  8
Capa 1
 62
     9
100
AcDbSpline
210
0.0
220
0.0
230
1.0
 70
     8
 71
     3
 72
     8
 73
     4
 74
     0
 42
0.000000001
 43
0.0000000001
 40
7.0
 40
7.0
 40
7.0
 40
7.0
 40
8.0
 40
8.0
 40
8.0
 40
8.0
 10
389.0473831221823
 20
2.79165643334122
 30
0.0
 10
389.40507208793
 20
2.486733814571327
 30
0.0
 10
390.58823162761
 20
2.334023869181895
 30
0.0
 10
392.5973634407706
 20
2.334023869181895
 30
0.0
  0
SPLINE
  5
2A8
102
{ACAD_REACTORS
330
2A2
102
}
330
1F
100
AcDbEntity
  8
Capa 1
 62
     9
100
AcDbSpline
210
0.0
220
0.0
230
1.0
 70
     8
 71
     3
 72
     8
 73
     4
 74
     0
 42
0.000000001
 43
0.0000000001
 40
0.0
 40
0.0
 40
0.0
 40
0.0
 40
1.0
 40
1.0
 40
1.0
 40
1.0
 10
392.5973634407706
 20
1.160594449462284
 30
0.0
 10
390.783514371843
 20
1.160594449462284
 30
0.0
 10
389.515168531139
 20
1.279976844267967
 30
0.0
 10
388.7923221179017
 20
1.518741635214628
 30
0.0
  0
SPLINE
  5
2A9
102
{ACAD_REACTORS
330
2A2
102
}
330
1F
100
AcDbEntity
  8
Capa 1
 62
     9
100
AcDbSpline
210
0.0
220
0.0
230
1.0
 70
     8
 71
     3
 72
     8
 73
     4
 74
     0
 42
0.000000001
 43
0.0000000001
 40
1.0
 40
1.0
 40
1.0
 40
1.0
 40
2.0
 40
2.0
 40
2.0
 40
2.0
 10
388.7923221179017
 20
1.518741635214628
 30
0.0
 10
388.0689740051313
 20
1.746562987839187
 30
0.0
 10
387.6096604770114
 20
2.188775257261387
 30
0.0
 10
387.4138760332412
 20
2.844881023227519
 30
0.0
  0
SPLINE
  5
2AA
102
{ACAD_REACTORS
330
2A2
102
}
330
1F
100
AcDbEntity
  8
Capa 1
 62
     9
100
AcDbSpline
210
0.0
220
0.0
230
1.0
 70
     8
 71
     3
 72
    11
 73
     7
 74
     0
 42
0.000000001
 43
0.0000000001
 40
2.0
 40
2.0
 40
2.0
 40
2.0
 40
3.0
 40
3.0
 40
3.0
 40
4.0
 40
4.0
 40
4.0
 40
4.0
 10
387.4138760332412
 20
2.844881023227519
 30
0.0
 10
387.2768816534588
 20
3.295052016726647
 30
0.0
 10
387.2081336137985
 20
4.226234830390073
 30
0.0
 10
387.2081336137985
 20
5.63743397143276
 30
0.0
 10
387.2081336137985
 20
7.073504777491525
 30
0.0
 10
387.2728946624354
 20
8.004190200548823
 30
0.0
 10
387.401424762896
 20
8.429489766225547
 30
0.0
  0
SPLINE
  5
2AB
102
{ACAD_REACTORS
330
2A2
102
}
330
1F
100
AcDbEntity
  8
Capa 1
 62
     9
100
AcDbSpline
210
0.0
220
0.0
230
1.0
 70
     8
 71
     3
 72
     8
 73
     4
 74
     0
 42
0.000000001
 43
0.0000000001
 40
4.0
 40
4.0
 40
4.0
 40
4.0
 40
5.0
 40
5.0
 40
5.0
 40
5.0
 10
387.401424762896
 20
8.429489766225547
 30
0.0
 10
387.5967075071333
 20
9.092061965854132
 30
0.0
 10
388.0600080262768
 20
9.542233433735664
 30
0.0
 10
388.7918242191213
 20
9.78099800231509
 30
0.0
  0
SPLINE
  5
2AC
102
{ACAD_REACTORS
330
2A2
102
}
330
1F
100
AcDbEntity
  8
Capa 1
 62
     9
100
AcDbSpline
210
0.0
220
0.0
230
1.0
 70
     8
 71
     3
 72
    11
 73
     7
 74
     0
 42
0.000000001
 43
0.0000000001
 40
5.0
 40
5.0
 40
5.0
 40
5.0
 40
6.0
 40
6.0
 40
6.0
 40
7.0
 40
7.0
 40
7.0
 40
7.0
 10
388.7918242191213
 20
9.78099800231509
 30
0.0
 10
389.5231387124334
 20
10.01976257089452
 30
0.0
 10
390.7914883538895
 20
10.13864770176986
 30
0.0
 10
392.5968617412326
 20
10.13864770176986
 30
0.0
 10
394.4092133130431
 20
10.13864770176986
 30
0.0
 10
395.6765671569342
 20
10.02374264450689
 30
0.0
 10
396.3994135701712
 20
9.79343347903431
 30
0.0
  0
SPLINE
  5
2AD
102
{ACAD_REACTORS
330
2A2
102
}
330
1F
100
AcDbEntity
  8
Capa 1
 62
     9
100
AcDbSpline
210
0.0
220
0.0
230
1.0
 70
     8
 71
     3
 72
     8
 73
     4
 74
     0
 42
0.000000001
 43
0.0000000001
 40
7.0
 40
7.0
 40
7.0
 40
7.0
 40
8.0
 40
8.0
 40
8.0
 40
8.0
 10
396.3994135701712
 20
9.79343347903431
 30
0.0
 10
397.115787299223
 20
9.554668910455636
 30
0.0
 10
397.5775903212632
 20
9.104497916957758
 30
0.0
 10
397.7833365414583
 20
8.44242287074113
 30
0.0
  0
SPLINE
  5
2AE
102
{ACAD_REACTORS
330
2A2
102
}
330
1F
100
AcDbEntity
  8
Capa 1
 62
     9
100
AcDbSpline
210
0.0
220
0.0
230
1.0
 70
     8
 71
     3
 72
    11
 73
     7
 74
     0
 42
0.000000001
 43
0.0000000001
 40
8.0
 40
8.0
 40
8.0
 40
8.0
 40
9.0
 40
9.0
 40
9.0
 40
10.0
 40
10.0
 40
10.0
 40
10.0
 10
397.7833365414583
 20
8.44242287074113
 30
0.0
 10
397.9188410256381
 20
7.991754249446192
 30
0.0
 10
397.9865894669801
 20
7.056592073744245
 30
0.0
 10
397.9865894669801
 20
5.63743397143276
 30
0.0
 10
397.9865894669801
 20
4.209322363835614
 30
0.0
 10
397.9228242159033
 20
3.282616302815288
 30
0.0
 10
397.7957916125511
 20
2.857316737139175
 30
0.0
  0
SPLINE
  5
2AF
102
{ACAD_REACTORS
330
2A2
102
}
330
1F
100
AcDbEntity
  8
Capa 1
 62
     9
100
AcDbSpline
210
0.0
220
0.0
230
1.0
 70
     8
 71
     3
 72
     8
 73
     4
 74
     0
 42
0.000000001
 43
0.0000000001
 40
10.0
 40
10.0
 40
10.0
 40
10.0
 40
11.0
 40
11.0
 40
11.0
 40
11.0
 10
397.7957916125511
 20
2.857316737139175
 30
0.0
 10
397.6000109695333
 20
2.193252128500848
 30
0.0
 10
397.1387020455205
 20
1.746562987839187
 30
0.0
 10
396.4118686412645
 20
1.518741635214628
 30
0.0
  0
SPLINE
  5
2B0
102
{ACAD_REACTORS
330
2A2
102
}
330
1F
100
AcDbEntity
  8
Capa 1
 62
     9
100
AcDbSpline
210
0.0
220
0.0
230
1.0
 70
     8
 71
     3
 72
     8
 73
     4
 74
     0
 42
0.000000001
 43
0.0000000001
 40
11.0
 40
11.0
 40
11.0
 40
11.0
 40
12.0
 40
12.0
 40
12.0
 40
12.0
 10
396.4118686412645
 20
1.518741635214628
 30
0.0
 10
395.6890184272788
 20
1.279976844267967
 30
0.0
 10
394.4176851938751
 20
1.160594449462284
 30
0.0
 10
392.5973634407706
 20
1.160594449462284
 30
0.0
  0
HATCH
  5
2B1
330
1F
100
AcDbEntity
  8
COTAS
 62
     9
100
AcDbHatch
 10
0.0
 20
0.0
 30
0.0
210
0.0
220
0.0
230
1.0
  2
SOLID
 70
     1
 71
     1
 91
        2
 92
       16
 93
        6
 72
     4
 94
        3
 73
     0
 74
     0
 95
        8
 96
        4
 40
6.0
 40
6.0
 40
6.0
 40
6.0
 40
7.0
 40
7.0
 40
7.0
 40
7.0
 10
360.1328777309575
 20
5.244957235321582
 10
360.1916962295032
 20
5.148275309073316
 10
360.1521731441059
 20
5.069346996804686
 10
360.0446499831394
 20
5.069346996804686
 97
        0
 72
     4
 94
        3
 73
     0
 74
     0
 95
        8
 96
        4
 40
0.0
 40
0.0
 40
0.0
 40
0.0
 40
1.0
 40
1.0
 40
1.0
 40
1.0
 10
360.0446499831394
 20
5.069346996804686
 10
360.0446499831394
 20
5.069346996804686
 10
355.2013837712591
 20
5.069346996804686
 10
355.2013837712591
 20
5.069346996804686
 97
        0
 72
     4
 94
        3
 73
     0
 74
     0
 95
        8
 96
        4
 40
1.0
 40
1.0
 40
1.0
 40
1.0
 40
2.0
 40
2.0
 40
2.0
 40
2.0
 10
355.2013837712591
 20
5.069346996804686
 10
355.0938606102925
 20
5.069346996804686
 10
355.0543375248951
 20
5.148275309073316
 10
355.1131560234409
 20
5.244957235321582
 97
        0
 72
     4
 94
        3
 73
     0
 74
     0
 95
        8
 96
        4
 40
2.0
 40
2.0
 40
2.0
 40
2.0
 40
3.0
 40
3.0
 40
3.0
 40
3.0
 10
355.1131560234409
 20
5.244957235321582
 10
355.1131560234409
 20
5.244957235321582
 10
357.345932237474
 20
8.909644608723372
 10
357.345932237474
 20
8.909644608723372
 97
        0
 72
     4
 94
        3
 73
     0
 74
     0
 95
       11
 96
        7
 40
3.0
 40
3.0
 40
3.0
 40
3.0
 40
4.0
 40
4.0
 40
4.0
 40
5.0
 40
5.0
 40
5.0
 40
5.0
 10
357.345932237474
 20
8.909644608723372
 10
357.4047507360194
 20
9.005838752114816
 10
357.5292739158785
 20
9.084767064383474
 10
357.6230168771992
 20
9.084767064383474
 10
357.7167598385199
 20
9.084767064383474
 10
357.8412830183787
 20
9.005838752114816
 10
357.9001015169245
 20
8.909644608723372
 97
        0
 72
     4
 94
        3
 73
     0
 74
     0
 95
        8
 96
        4
 40
5.0
 40
5.0
 40
5.0
 40
5.0
 40
6.0
 40
6.0
 40
6.0
 40
6.0
 10
357.9001015169245
 20
8.909644608723372
 10
357.9001015169245
 20
8.909644608723372
 10
360.1328777309575
 20
5.244957235321582
 10
360.1328777309575
 20
5.244957235321582
 97
        0
 97
        6
330
2C7
330
2C2
330
2C3
330
2C4
330
2C5
330
2C6
 92
        1
 93
       16
 72
     4
 94
        3
 73
     0
 74
     0
 95
        8
 96
        4
 40
15.0
 40
15.0
 40
15.0
 40
15.0
 40
16.0
 40
16.0
 40
16.0
 40
16.0
 10
363.9440782797602
 20
1.470762610555997
 10
363.9440782797602
 20
1.470762610555997
 10
358.7557116843653
 20
9.827668765422448
 10
358.7557116843653
 20
9.827668765422448
 97
        0
 72
     4
 94
        3
 73
     0
 74
     0
 95
        8
 96
        4
 40
0.0
 40
0.0
 40
0.0
 40
0.0
 40
1.0
 40
1.0
 40
1.0
 40
1.0
 10
358.7557116843653
 20
9.827668765422448
 10
358.6959765949395
 20
9.923854498764658
 10
358.5595063971953
 20
10.00229502817651
 10
358.4519754021187
 20
10.00229502817651
 97
        0
 72
     4
 94
        3
 73
     0
 74
     0
 95
        8
 96
        4
 40
1.0
 40
1.0
 40
1.0
 40
1.0
 40
2.0
 40
2.0
 40
2.0
 40
2.0
 10
358.4519754021187
 20
10.00229502817651
 10
358.4519754021187
 20
10.00229502817651
 10
356.7651034813922
 20
10.00229502817651
 10
356.7651034813922
 20
10.00229502817651
 97
        0
 72
     4
 94
        3
 73
     0
 74
     0
 95
        8
 96
        4
 40
2.0
 40
2.0
 40
2.0
 40
2.0
 40
3.0
 40
3.0
 40
3.0
 40
3.0
 10
356.7651034813922
 20
10.00229502817651
 10
356.6575803204254
 20
10.00229502817651
 10
356.5211022885712
 20
9.923854498764658
 10
356.4618294116408
 20
9.827668765422448
 97
        0
 72
     4
 94
        3
 73
     0
 74
     0
 95
        8
 96
        4
 40
3.0
 40
3.0
 40
3.0
 40
3.0
 40
4.0
 40
4.0
 40
4.0
 40
4.0
 10
356.4618294116408
 20
9.827668765422448
 10
356.4618294116408
 20
9.827668765422448
 10
351.2909328817434
 20
1.470762610555997
 10
351.2909328817434
 20
1.470762610555997
 97
        0
 72
     4
 94
        3
 73
     0
 74
     0
 95
        8
 96
        4
 40
4.0
 40
4.0
 40
4.0
 40
4.0
 40
5.0
 40
5.0
 40
5.0
 40
5.0
 10
351.2909328817434
 20
1.470762610555997
 10
351.2311899582073
 20
1.375056250021391
 10
351.2707130436045
 20
1.296136347801966
 10
351.3777739920758
 20
1.296136347801966
 97
        0
 72
     4
 94
        3
 73
     0
 74
     0
 95
        8
 96
        4
 40
5.0
 40
5.0
 40
5.0
 40
5.0
 40
6.0
 40
6.0
 40
6.0
 40
6.0
 10
351.3777739920758
 20
1.296136347801966
 10
351.3777739920758
 20
1.296136347801966
 10
352.4999084188426
 20
1.296136347801966
 10
352.4999084188426
 20
1.296136347801966
 97
        0
 72
     4
 94
        3
 73
     0
 74
     0
 95
        8
 96
        4
 40
6.0
 40
6.0
 40
6.0
 40
6.0
 40
7.0
 40
7.0
 40
7.0
 40
7.0
 10
352.4999084188426
 20
1.296136347801966
 10
352.6074315798091
 20
1.296136347801966
 10
352.7439096116633
 20
1.375056250021391
 10
352.8036447010892
 20
1.471250393412834
 97
        0
 72
     4
 94
        3
 73
     0
 74
     0
 95
        8
 96
        4
 40
7.0
 40
7.0
 40
7.0
 40
7.0
 40
8.0
 40
8.0
 40
8.0
 40
8.0
 10
352.8036447010892
 20
1.471250393412834
 10
352.8036447010892
 20
1.471250393412834
 10
354.2910915153992
 20
3.876558120858991
 10
354.2910915153992
 20
3.876558120858991
 97
        0
 72
     4
 94
        3
 73
     0
 74
     0
 95
        8
 96
        4
 40
8.0
 40
8.0
 40
8.0
 40
8.0
 40
9.0
 40
9.0
 40
9.0
 40
9.0
 10
354.2910915153992
 20
3.876558120858991
 10
354.35036439233
 20
3.972256071344365
 10
354.4868424241843
 20
4.05118438361291
 10
354.5943655851507
 20
4.05118438361291
 97
        0
 72
     4
 94
        3
 73
     0
 74
     0
 95
        8
 96
        4
 40
9.0
 40
9.0
 40
9.0
 40
9.0
 40
10.0
 40
10.0
 40
10.0
 40
10.0
 10
354.5943655851507
 20
4.05118438361291
 10
354.5943655851507
 20
4.05118438361291
 10
360.6227132983599
 20
4.05118438361291
 10
360.6227132983599
 20
4.05118438361291
 97
        0
 72
     4
 94
        3
 73
     0
 74
     0
 95
        8
 96
        4
 40
10.0
 40
10.0
 40
10.0
 40
10.0
 40
11.0
 40
11.0
 40
11.0
 40
11.0
 10
360.6227132983599
 20
4.05118438361291
 10
360.7297820809415
 20
4.05118438361291
 10
360.8662601127957
 20
3.972256071344365
 10
360.9255329897261
 20
3.876061927952851
 97
        0
 72
     4
 94
        3
 73
     0
 74
     0
 95
        8
 96
        4
 40
11.0
 40
11.0
 40
11.0
 40
11.0
 40
12.0
 40
12.0
 40
12.0
 40
12.0
 10
360.9255329897261
 20
3.876061927952851
 10
360.9255329897261
 20
3.876061927952851
 10
362.3973585885196
 20
1.471746586318933
 10
362.3973585885196
 20
1.471746586318933
 97
        0
 72
     4
 94
        3
 73
     0
 74
     0
 95
        8
 96
        4
 40
12.0
 40
12.0
 40
12.0
 40
12.0
 40
13.0
 40
13.0
 40
13.0
 40
13.0
 10
362.3973585885196
 20
1.471746586318933
 10
362.4566314654504
 20
1.375056250021391
 10
362.5926472848093
 20
1.296136347801966
 10
362.7001704457758
 20
1.296136347801966
 97
        0
 72
     4
 94
        3
 73
     0
 74
     0
 95
        8
 96
        4
 40
13.0
 40
13.0
 40
13.0
 40
13.0
 40
14.0
 40
14.0
 40
14.0
 40
14.0
 10
362.7001704457758
 20
1.296136347801966
 10
362.7001704457758
 20
1.296136347801966
 10
363.8572293353175
 20
1.296136347801966
 10
363.8572293353175
 20
1.296136347801966
 97
        0
 72
     4
 94
        3
 73
     0
 74
     0
 95
        8
 96
        4
 40
14.0
 40
14.0
 40
14.0
 40
14.0
 40
15.0
 40
15.0
 40
15.0
 40
15.0
 10
363.8572293353175
 20
1.296136347801966
 10
363.9647524962843
 20
1.296136347801966
 10
364.003813369186
 20
1.375056250021391
 10
363.9440782797602
 20
1.470762610555997
 97
        0
 97
       16
330
2C1
330
2B2
330
2B3
330
2B4
330
2B5
330
2B6
330
2B7
330
2B8
330
2B9
330
2BA
330
2BB
330
2BC
330
2BD
330
2BE
330
2BF
330
2C0
 75
     1
 76
     1
 98
        1
 10
-96.22923855780971
 20
-2.584739096925741
1001
GradientColor1ACI
1070
     5
1001
GradientColor2ACI
1070
     2
1001
ACAD
1010
0.0
1020
0.0
1030
0.0
  0
SPLINE
  5
2B2
102
{ACAD_REACTORS
330
2B1
102
}
330
1F
100
AcDbEntity
  8
Capa 1
 62
     9
100
AcDbSpline
210
0.0
220
0.0
230
1.0
 70
     8
 71
     3
 72
     8
 73
     4
 74
     0
 42
0.000000001
 43
0.0000000001
 40
0.0
 40
0.0
 40
0.0
 40
0.0
 40
1.0
 40
1.0
 40
1.0
 40
1.0
 10
358.7557116843653
 20
9.827668765422448
 30
0.0
 10
358.6959765949395
 20
9.923854498764658
 30
0.0
 10
358.5595063971953
 20
10.00229502817651
 30
0.0
 10
358.4519754021187
 20
10.00229502817651
 30
0.0
  0
SPLINE
  5
2B3
102
{ACAD_REACTORS
330
2B1
102
}
330
1F
100
AcDbEntity
  8
Capa 1
 62
     9
100
AcDbSpline
210
0.0
220
0.0
230
1.0
 70
    24
 71
     3
 72
     8
 73
     4
 74
     0
 42
0.000000001
 43
0.0000000001
 40
1.0
 40
1.0
 40
1.0
 40
1.0
 40
2.0
 40
2.0
 40
2.0
 40
2.0
 10
358.4519754021187
 20
10.00229502817651
 30
0.0
 10
358.4519754021187
 20
10.00229502817651
 30
0.0
 10
356.7651034813922
 20
10.00229502817651
 30
0.0
 10
356.7651034813922
 20
10.00229502817651
 30
0.0
  0
SPLINE
  5
2B4
102
{ACAD_REACTORS
330
2B1
102
}
330
1F
100
AcDbEntity
  8
Capa 1
 62
     9
100
AcDbSpline
210
0.0
220
0.0
230
1.0
 70
     8
 71
     3
 72
     8
 73
     4
 74
     0
 42
0.000000001
 43
0.0000000001
 40
2.0
 40
2.0
 40
2.0
 40
2.0
 40
3.0
 40
3.0
 40
3.0
 40
3.0
 10
356.7651034813922
 20
10.00229502817651
 30
0.0
 10
356.6575803204254
 20
10.00229502817651
 30
0.0
 10
356.5211022885712
 20
9.923854498764658
 30
0.0
 10
356.4618294116408
 20
9.827668765422448
 30
0.0
  0
SPLINE
  5
2B5
102
{ACAD_REACTORS
330
2B1
102
}
330
1F
100
AcDbEntity
  8
Capa 1
 62
     9
100
AcDbSpline
210
0.0
220
0.0
230
1.0
 70
    24
 71
     3
 72
     8
 73
     4
 74
     0
 42
0.000000001
 43
0.0000000001
 40
3.0
 40
3.0
 40
3.0
 40
3.0
 40
4.0
 40
4.0
 40
4.0
 40
4.0
 10
356.4618294116408
 20
9.827668765422448
 30
0.0
 10
356.4618294116408
 20
9.827668765422448
 30
0.0
 10
351.2909328817434
 20
1.470762610555997
 30
0.0
 10
351.2909328817434
 20
1.470762610555997
 30
0.0
  0
SPLINE
  5
2B6
102
{ACAD_REACTORS
330
2B1
102
}
330
1F
100
AcDbEntity
  8
Capa 1
 62
     9
100
AcDbSpline
210
0.0
220
0.0
230
1.0
 70
     8
 71
     3
 72
     8
 73
     4
 74
     0
 42
0.000000001
 43
0.0000000001
 40
4.0
 40
4.0
 40
4.0
 40
4.0
 40
5.0
 40
5.0
 40
5.0
 40
5.0
 10
351.2909328817434
 20
1.470762610555997
 30
0.0
 10
351.2311899582073
 20
1.375056250021391
 30
0.0
 10
351.2707130436045
 20
1.296136347801966
 30
0.0
 10
351.3777739920758
 20
1.296136347801966
 30
0.0
  0
SPLINE
  5
2B7
102
{ACAD_REACTORS
330
2B1
102
}
330
1F
100
AcDbEntity
  8
Capa 1
 62
     9
100
AcDbSpline
210
0.0
220
0.0
230
1.0
 70
    24
 71
     3
 72
     8
 73
     4
 74
     0
 42
0.000000001
 43
0.0000000001
 40
5.0
 40
5.0
 40
5.0
 40
5.0
 40
6.0
 40
6.0
 40
6.0
 40
6.0
 10
351.3777739920758
 20
1.296136347801966
 30
0.0
 10
351.3777739920758
 20
1.296136347801966
 30
0.0
 10
352.4999084188426
 20
1.296136347801966
 30
0.0
 10
352.4999084188426
 20
1.296136347801966
 30
0.0
  0
SPLINE
  5
2B8
102
{ACAD_REACTORS
330
2B1
102
}
330
1F
100
AcDbEntity
  8
Capa 1
 62
     9
100
AcDbSpline
210
0.0
220
0.0
230
1.0
 70
     8
 71
     3
 72
     8
 73
     4
 74
     0
 42
0.000000001
 43
0.0000000001
 40
6.0
 40
6.0
 40
6.0
 40
6.0
 40
7.0
 40
7.0
 40
7.0
 40
7.0
 10
352.4999084188426
 20
1.296136347801966
 30
0.0
 10
352.6074315798091
 20
1.296136347801966
 30
0.0
 10
352.7439096116633
 20
1.375056250021391
 30
0.0
 10
352.8036447010892
 20
1.471250393412834
 30
0.0
  0
SPLINE
  5
2B9
102
{ACAD_REACTORS
330
2B1
102
}
330
1F
100
AcDbEntity
  8
Capa 1
 62
     9
100
AcDbSpline
210
0.0
220
0.0
230
1.0
 70
    24
 71
     3
 72
     8
 73
     4
 74
     0
 42
0.000000001
 43
0.0000000001
 40
7.0
 40
7.0
 40
7.0
 40
7.0
 40
8.0
 40
8.0
 40
8.0
 40
8.0
 10
352.8036447010892
 20
1.471250393412834
 30
0.0
 10
352.8036447010892
 20
1.471250393412834
 30
0.0
 10
354.2910915153992
 20
3.876558120858991
 30
0.0
 10
354.2910915153992
 20
3.876558120858991
 30
0.0
  0
SPLINE
  5
2BA
102
{ACAD_REACTORS
330
2B1
102
}
330
1F
100
AcDbEntity
  8
Capa 1
 62
     9
100
AcDbSpline
210
0.0
220
0.0
230
1.0
 70
     8
 71
     3
 72
     8
 73
     4
 74
     0
 42
0.000000001
 43
0.0000000001
 40
8.0
 40
8.0
 40
8.0
 40
8.0
 40
9.0
 40
9.0
 40
9.0
 40
9.0
 10
354.2910915153992
 20
3.876558120858991
 30
0.0
 10
354.35036439233
 20
3.972256071344365
 30
0.0
 10
354.4868424241843
 20
4.05118438361291
 30
0.0
 10
354.5943655851507
 20
4.05118438361291
 30
0.0
  0
SPLINE
  5
2BB
102
{ACAD_REACTORS
330
2B1
102
}
330
1F
100
AcDbEntity
  8
Capa 1
 62
     9
100
AcDbSpline
210
0.0
220
0.0
230
1.0
 70
    24
 71
     3
 72
     8
 73
     4
 74
     0
 42
0.000000001
 43
0.0000000001
 40
9.0
 40
9.0
 40
9.0
 40
9.0
 40
10.0
 40
10.0
 40
10.0
 40
10.0
 10
354.5943655851507
 20
4.05118438361291
 30
0.0
 10
354.5943655851507
 20
4.05118438361291
 30
0.0
 10
360.6227132983599
 20
4.05118438361291
 30
0.0
 10
360.6227132983599
 20
4.05118438361291
 30
0.0
  0
SPLINE
  5
2BC
102
{ACAD_REACTORS
330
2B1
102
}
330
1F
100
AcDbEntity
  8
Capa 1
 62
     9
100
AcDbSpline
210
0.0
220
0.0
230
1.0
 70
     8
 71
     3
 72
     8
 73
     4
 74
     0
 42
0.000000001
 43
0.0000000001
 40
10.0
 40
10.0
 40
10.0
 40
10.0
 40
11.0
 40
11.0
 40
11.0
 40
11.0
 10
360.6227132983599
 20
4.05118438361291
 30
0.0
 10
360.7297820809415
 20
4.05118438361291
 30
0.0
 10
360.8662601127957
 20
3.972256071344365
 30
0.0
 10
360.9255329897261
 20
3.876061927952851
 30
0.0
  0
SPLINE
  5
2BD
102
{ACAD_REACTORS
330
2B1
102
}
330
1F
100
AcDbEntity
  8
Capa 1
 62
     9
100
AcDbSpline
210
0.0
220
0.0
230
1.0
 70
    24
 71
     3
 72
     8
 73
     4
 74
     0
 42
0.000000001
 43
0.0000000001
 40
11.0
 40
11.0
 40
11.0
 40
11.0
 40
12.0
 40
12.0
 40
12.0
 40
12.0
 10
360.9255329897261
 20
3.876061927952851
 30
0.0
 10
360.9255329897261
 20
3.876061927952851
 30
0.0
 10
362.3973585885196
 20
1.471746586318933
 30
0.0
 10
362.3973585885196
 20
1.471746586318933
 30
0.0
  0
SPLINE
  5
2BE
102
{ACAD_REACTORS
330
2B1
102
}
330
1F
100
AcDbEntity
  8
Capa 1
 62
     9
100
AcDbSpline
210
0.0
220
0.0
230
1.0
 70
     8
 71
     3
 72
     8
 73
     4
 74
     0
 42
0.000000001
 43
0.0000000001
 40
12.0
 40
12.0
 40
12.0
 40
12.0
 40
13.0
 40
13.0
 40
13.0
 40
13.0
 10
362.3973585885196
 20
1.471746586318933
 30
0.0
 10
362.4566314654504
 20
1.375056250021391
 30
0.0
 10
362.5926472848093
 20
1.296136347801966
 30
0.0
 10
362.7001704457758
 20
1.296136347801966
 30
0.0
  0
SPLINE
  5
2BF
102
{ACAD_REACTORS
330
2B1
102
}
330
1F
100
AcDbEntity
  8
Capa 1
 62
     9
100
AcDbSpline
210
0.0
220
0.0
230
1.0
 70
    24
 71
     3
 72
     8
 73
     4
 74
     0
 42
0.000000001
 43
0.0000000001
 40
13.0
 40
13.0
 40
13.0
 40
13.0
 40
14.0
 40
14.0
 40
14.0
 40
14.0
 10
362.7001704457758
 20
1.296136347801966
 30
0.0
 10
362.7001704457758
 20
1.296136347801966
 30
0.0
 10
363.8572293353175
 20
1.296136347801966
 30
0.0
 10
363.8572293353175
 20
1.296136347801966
 30
0.0
  0
SPLINE
  5
2C0
102
{ACAD_REACTORS
330
2B1
102
}
330
1F
100
AcDbEntity
  8
Capa 1
 62
     9
100
AcDbSpline
210
0.0
220
0.0
230
1.0
 70
     8
 71
     3
 72
     8
 73
     4
 74
     0
 42
0.000000001
 43
0.0000000001
 40
14.0
 40
14.0
 40
14.0
 40
14.0
 40
15.0
 40
15.0
 40
15.0
 40
15.0
 10
363.8572293353175
 20
1.296136347801966
 30
0.0
 10
363.9647524962843
 20
1.296136347801966
 30
0.0
 10
364.003813369186
 20
1.375056250021391
 30
0.0
 10
363.9440782797602
 20
1.470762610555997
 30
0.0
  0
SPLINE
  5
2C1
102
{ACAD_REACTORS
330
2B1
102
}
330
1F
100
AcDbEntity
  8
Capa 1
 62
     9
100
AcDbSpline
210
0.0
220
0.0
230
1.0
 70
    24
 71
     3
 72
     8
 73
     4
 74
     0
 42
0.000000001
 43
0.0000000001
 40
15.0
 40
15.0
 40
15.0
 40
15.0
 40
16.0
 40
16.0
 40
16.0
 40
16.0
 10
363.9440782797602
 20
1.470762610555997
 30
0.0
 10
363.9440782797602
 20
1.470762610555997
 30
0.0
 10
358.7557116843653
 20
9.827668765422448
 30
0.0
 10
358.7557116843653
 20
9.827668765422448
 30
0.0
  0
SPLINE
  5
2C2
102
{ACAD_REACTORS
330
2B1
102
}
330
1F
100
AcDbEntity
  8
Capa 1
 62
     9
100
AcDbSpline
210
0.0
220
0.0
230
1.0
 70
    24
 71
     3
 72
     8
 73
     4
 74
     0
 42
0.000000001
 43
0.0000000001
 40
0.0
 40
0.0
 40
0.0
 40
0.0
 40
1.0
 40
1.0
 40
1.0
 40
1.0
 10
360.0446499831394
 20
5.069346996804686
 30
0.0
 10
360.0446499831394
 20
5.069346996804686
 30
0.0
 10
355.2013837712591
 20
5.069346996804686
 30
0.0
 10
355.2013837712591
 20
5.069346996804686
 30
0.0
  0
SPLINE
  5
2C3
102
{ACAD_REACTORS
330
2B1
102
}
330
1F
100
AcDbEntity
  8
Capa 1
 62
     9
100
AcDbSpline
210
0.0
220
0.0
230
1.0
 70
     8
 71
     3
 72
     8
 73
     4
 74
     0
 42
0.000000001
 43
0.0000000001
 40
1.0
 40
1.0
 40
1.0
 40
1.0
 40
2.0
 40
2.0
 40
2.0
 40
2.0
 10
355.2013837712591
 20
5.069346996804686
 30
0.0
 10
355.0938606102925
 20
5.069346996804686
 30
0.0
 10
355.0543375248951
 20
5.148275309073316
 30
0.0
 10
355.1131560234409
 20
5.244957235321582
 30
0.0
  0
SPLINE
  5
2C4
102
{ACAD_REACTORS
330
2B1
102
}
330
1F
100
AcDbEntity
  8
Capa 1
 62
     9
100
AcDbSpline
210
0.0
220
0.0
230
1.0
 70
    24
 71
     3
 72
     8
 73
     4
 74
     0
 42
0.000000001
 43
0.0000000001
 40
2.0
 40
2.0
 40
2.0
 40
2.0
 40
3.0
 40
3.0
 40
3.0
 40
3.0
 10
355.1131560234409
 20
5.244957235321582
 30
0.0
 10
355.1131560234409
 20
5.244957235321582
 30
0.0
 10
357.345932237474
 20
8.909644608723372
 30
0.0
 10
357.345932237474
 20
8.909644608723372
 30
0.0
  0
SPLINE
  5
2C5
102
{ACAD_REACTORS
330
2B1
102
}
330
1F
100
AcDbEntity
  8
Capa 1
 62
     9
100
AcDbSpline
210
0.0
220
0.0
230
1.0
 70
     8
 71
     3
 72
    11
 73
     7
 74
     0
 42
0.000000001
 43
0.0000000001
 40
3.0
 40
3.0
 40
3.0
 40
3.0
 40
4.0
 40
4.0
 40
4.0
 40
5.0
 40
5.0
 40
5.0
 40
5.0
 10
357.345932237474
 20
8.909644608723372
 30
0.0
 10
357.4047507360194
 20
9.005838752114816
 30
0.0
 10
357.5292739158785
 20
9.084767064383474
 30
0.0
 10
357.6230168771992
 20
9.084767064383474
 30
0.0
 10
357.7167598385199
 20
9.084767064383474
 30
0.0
 10
357.8412830183787
 20
9.005838752114816
 30
0.0
 10
357.9001015169245
 20
8.909644608723372
 30
0.0
  0
SPLINE
  5
2C6
102
{ACAD_REACTORS
330
2B1
102
}
330
1F
100
AcDbEntity
  8
Capa 1
 62
     9
100
AcDbSpline
210
0.0
220
0.0
230
1.0
 70
    24
 71
     3
 72
     8
 73
     4
 74
     0
 42
0.000000001
 43
0.0000000001
 40
5.0
 40
5.0
 40
5.0
 40
5.0
 40
6.0
 40
6.0
 40
6.0
 40
6.0
 10
357.9001015169245
 20
8.909644608723372
 30
0.0
 10
357.9001015169245
 20
8.909644608723372
 30
0.0
 10
360.1328777309575
 20
5.244957235321582
 30
0.0
 10
360.1328777309575
 20
5.244957235321582
 30
0.0
  0
SPLINE
  5
2C7
102
{ACAD_REACTORS
330
2B1
102
}
330
1F
100
AcDbEntity
  8
Capa 1
 62
     9
100
AcDbSpline
210
0.0
220
0.0
230
1.0
 70
     8
 71
     3
 72
     8
 73
     4
 74
     0
 42
0.000000001
 43
0.0000000001
 40
6.0
 40
6.0
 40
6.0
 40
6.0
 40
7.0
 40
7.0
 40
7.0
 40
7.0
 10
360.1328777309575
 20
5.244957235321582
 30
0.0
 10
360.1916962295032
 20
5.148275309073316
 30
0.0
 10
360.1521731441059
 20
5.069346996804686
 30
0.0
 10
360.0446499831394
 20
5.069346996804686
 30
0.0
  0
HATCH
  5
2C8
330
1F
100
AcDbEntity
  8
COTAS
 62
     9
100
AcDbHatch
 10
0.0
 20
0.0
 30
0.0
210
0.0
220
0.0
230
1.0
  2
SOLID
 70
     1
 71
     1
 91
        1
 92
        1
 93
       32
 72
     4
 94
        3
 73
     0
 74
     0
 95
       11
 96
        7
 40
41.0
 40
41.0
 40
41.0
 40
41.0
 40
42.0
 40
42.0
 40
42.0
 40
43.0
 40
43.0
 40
43.0
 40
43.0
 10
408.1880045956846
 20
1.567924302647899
 10
408.9777424457611
 20
1.89973062295039
 10
409.3721262738403
 20
2.60014999535807
 10
409.3721262738403
 20
3.669121782750796
 10
409.3721262738403
 20
4.798700371521608
 10
409.0446858261728
 20
5.512035450476052
 10
408.3900474793186
 20
5.808096188574954
 97
        0
 72
     4
 94
        3
 73
     0
 74
     0
 95
       11
 96
        7
 40
0.0
 40
0.0
 40
0.0
 40
0.0
 40
1.0
 40
1.0
 40
1.0
 40
2.0
 40
2.0
 40
2.0
 40
2.0
 10
408.3900474793186
 20
5.808096188574954
 10
407.8634747297746
 20
6.046521344172422
 10
406.5859718869139
 20
6.165733921971057
 10
404.5568113052982
 20
6.165733921971057
 10
403.1226221445169
 20
6.165733921971057
 10
402.1764405249992
 20
6.271545696263875
 10
401.718508995225
 20
6.482653829329013
 97
        0
 72
     4
 94
        3
 73
     0
 74
     0
 95
       11
 96
        7
 40
2.0
 40
2.0
 40
2.0
 40
2.0
 40
3.0
 40
3.0
 40
3.0
 40
4.0
 40
4.0
 40
4.0
 40
4.0
 10
401.718508995225
 20
6.482653829329013
 10
401.2603349169711
 20
6.696248084311652
 10
401.0313691520837
 20
7.099121109181969
 10
401.0313691520837
 20
7.692212779298448
 10
401.0313691520837
 20
8.397088980020758
 10
401.455101346213
 20
8.79993168633121
 10
402.30305083143
 20
8.90128663230843
 97
        0
 72
     4
 94
        3
 73
     0
 74
     0
 95
       11
 96
        7
 40
4.0
 40
4.0
 40
4.0
 40
4.0
 40
5.0
 40
5.0
 40
5.0
 40
6.0
 40
6.0
 40
6.0
 40
6.0
 10
402.30305083143
 20
8.90128663230843
 10
402.5851347133832
 20
8.936547117552525
 10
403.3358222582201
 20
8.95443506793423
 10
404.5568113052982
 20
8.95443506793423
 10
405.9829963662473
 20
8.95443506793423
 10
406.8869745502877
 20
8.856566756353988
 10
407.2689884058989
 20
8.660345036233469
 97
        0
 72
     4
 94
        3
 73
     0
 74
     0
 95
        8
 96
        4
 40
6.0
 40
6.0
 40
6.0
 40
6.0
 40
7.0
 40
7.0
 40
7.0
 40
7.0
 10
407.2689884058989
 20
8.660345036233469
 10
407.6514873584704
 20
8.464638731632537
 10
407.8372794939613
 20
8.189952578311736
 10
407.8372794939613
 20
7.443843136031195
 97
        0
 72
     4
 94
        3
 73
     0
 74
     0
 95
        8
 96
        4
 40
7.0
 40
7.0
 40
7.0
 40
7.0
 40
8.0
 40
8.0
 40
8.0
 40
8.0
 10
407.8372794939613
 20
7.443843136031195
 10
407.8372794939613
 20
7.443843136031195
 10
407.8409177211574
 20
7.443873454591259
 10
407.8409177211574
 20
7.443873454591259
 97
        0
 72
     4
 94
        3
 73
     0
 74
     0
 95
        8
 96
        4
 40
8.0
 40
8.0
 40
8.0
 40
8.0
 40
9.0
 40
9.0
 40
9.0
 40
9.0
 10
407.8409177211574
 20
7.443873454591259
 10
407.8496494664282
 20
7.335666514061433
 10
407.9386647584977
 20
7.249228299589181
 10
408.0485392198259
 20
7.249228299589181
 97
        0
 72
     4
 94
        3
 73
     0
 74
     0
 95
        8
 96
        4
 40
9.0
 40
9.0
 40
9.0
 40
9.0
 40
10.0
 40
10.0
 40
10.0
 40
10.0
 10
408.0485392198259
 20
7.249228299589181
 10
408.0485392198259
 20
7.249228299589181
 10
408.9044928048759
 20
7.249228299589181
 10
408.9044928048759
 20
7.249228299589181
 97
        0
 72
     4
 94
        3
 73
     0
 74
     0
 95
        8
 96
        4
 40
10.0
 40
10.0
 40
10.0
 40
10.0
 40
11.0
 40
11.0
 40
11.0
 40
11.0
 10
408.9044928048759
 20
7.249228299589181
 10
409.019703332758
 20
7.249228299589181
 10
409.1130844974632
 20
7.34248819005423
 10
409.1150248853013
 20
7.45724393953768
 97
        0
 72
     4
 94
        3
 73
     0
 74
     0
 95
        8
 96
        4
 40
11.0
 40
11.0
 40
11.0
 40
11.0
 40
12.0
 40
12.0
 40
12.0
 40
12.0
 10
409.1150248853013
 20
7.45724393953768
 10
409.1150248853013
 20
7.45724393953768
 10
409.1157525307407
 20
7.45724393953768
 10
409.1157525307407
 20
7.45724393953768
 97
        0
 72
     4
 94
        3
 73
     0
 74
     0
 95
        8
 96
        4
 40
12.0
 40
12.0
 40
12.0
 40
12.0
 40
13.0
 40
13.0
 40
13.0
 40
13.0
 10
409.1157525307407
 20
7.45724393953768
 10
409.1157525307407
 20
7.460154521294445
 10
409.1155099822607
 20
7.462519368972128
 10
409.1155099822607
 20
7.465429950729405
 97
        0
 72
     4
 94
        3
 73
     0
 74
     0
 95
        8
 96
        4
 40
13.0
 40
13.0
 40
13.0
 40
13.0
 40
14.0
 40
14.0
 40
14.0
 40
14.0
 10
409.1155099822607
 20
7.465429950729405
 10
409.1155099822607
 20
7.465429950729405
 10
409.1155099822607
 20
7.591979620040778
 10
409.1155099822607
 20
7.591979620040778
 97
        0
 72
     4
 94
        3
 73
     0
 74
     0
 95
        8
 96
        4
 40
14.0
 40
14.0
 40
14.0
 40
14.0
 40
15.0
 40
15.0
 40
15.0
 40
15.0
 10
409.1155099822607
 20
7.591979620040778
 10
409.1155099822607
 20
7.599650215712732
 10
409.1121143035446
 20
7.606199024665816
 10
409.1111441096253
 20
7.613657390418471
 97
        0
 72
     4
 94
        3
 73
     0
 74
     0
 95
        8
 96
        4
 40
15.0
 40
15.0
 40
15.0
 40
15.0
 40
16.0
 40
16.0
 40
16.0
 40
16.0
 10
409.1111441096253
 20
7.613657390418471
 10
409.0878594555695
 20
8.589915021425018
 10
408.8501619454107
 20
9.082349072444291
 10
408.3900474793186
 20
9.436257622963954
 97
        0
 72
     4
 94
        3
 73
     0
 74
     0
 95
       11
 96
        7
 40
16.0
 40
16.0
 40
16.0
 40
16.0
 40
17.0
 40
17.0
 40
17.0
 40
18.0
 40
18.0
 40
18.0
 40
18.0
 10
408.3900474793186
 20
9.436257622963954
 10
407.7785827618608
 20
9.904679374487731
 10
406.5010799190002
 20
10.13864770176986
 10
404.5568113052982
 20
10.13864770176986
 10
402.6045385917635
 20
10.13864770176986
 10
401.3146657764354
 20
9.989631979521238
 10
400.686222665395
 20
9.691085119504923
 97
        0
 72
     4
 94
        3
 73
     0
 74
     0
 95
       11
 96
        7
 40
18.0
 40
18.0
 40
18.0
 40
18.0
 40
19.0
 40
19.0
 40
19.0
 40
20.0
 40
20.0
 40
20.0
 40
20.0
 10
400.686222665395
 20
9.691085119504923
 10
400.049775454522
 20
9.38659582173469
 10
399.7320369460451
 20
8.720466740652174
 10
399.7320369460451
 20
7.692212779298448
 10
399.7320369460451
 20
6.742938666664035
 10
399.9952020465776
 20
6.084753048293667
 10
400.5217747961224
 20
5.71817133970659
 97
        0
 72
     4
 94
        3
 73
     0
 74
     0
 95
       11
 96
        7
 40
20.0
 40
20.0
 40
20.0
 40
20.0
 40
21.0
 40
21.0
 40
21.0
 40
22.0
 40
22.0
 40
22.0
 40
22.0
 10
400.5217747961224
 20
5.71817133970659
 10
401.2098848331823
 20
5.235348272197573
 10
402.5548161534145
 20
4.99392157916316
 10
404.5568113052982
 20
4.99392157916316
 10
406.1959539314706
 20
4.99392157916316
 10
407.1940409256554
 20
4.921399583716909
 10
407.5505871908929
 20
4.776355592824562
 97
        0
 72
     4
 94
        3
 73
     0
 74
     0
 95
       11
 96
        7
 40
22.0
 40
22.0
 40
22.0
 40
22.0
 40
23.0
 40
23.0
 40
23.0
 40
24.0
 40
24.0
 40
24.0
 40
24.0
 10
407.5505871908929
 20
4.776355592824562
 10
407.8988868078186
 20
4.633282308330113
 10
408.0727940678015
 20
4.264214477825252
 10
408.0727940678015
 20
3.669121782750796
 10
408.0727940678015
 20
3.082973062866817
 10
407.8397049787583
 20
2.713905232362254
 10
407.3732842521929
 20
2.562888485155955
 97
        0
 72
     4
 94
        3
 73
     0
 74
     0
 95
       11
 96
        7
 40
24.0
 40
24.0
 40
24.0
 40
24.0
 40
25.0
 40
25.0
 40
25.0
 40
26.0
 40
26.0
 40
26.0
 40
26.0
 10
407.3732842521929
 20
2.562888485155955
 10
406.8969190379577
 20
2.409385616031887
 10
405.8646327081283
 20
2.332406792270351
 10
404.2771529081421
 20
2.332406792270351
 10
402.6566865149103
 20
2.332406792270351
 10
401.6632079418409
 20
2.438218566562444
 10
401.2986575767719
 20
2.64981179658766
 97
        0
 72
     4
 94
        3
 73
     0
 74
     0
 95
        8
 96
        4
 40
26.0
 40
26.0
 40
26.0
 40
26.0
 40
27.0
 40
27.0
 40
27.0
 40
27.0
 10
401.2986575767719
 20
2.64981179658766
 10
400.9341072117029
 20
2.854977491899024
 10
400.7587446608412
 20
3.318426999587306
 10
400.753651142766
 20
4.036704003816613
 97
        0
 72
     4
 94
        3
 73
     0
 74
     0
 95
        8
 96
        4
 40
27.0
 40
27.0
 40
27.0
 40
27.0
 40
28.0
 40
28.0
 40
28.0
 40
28.0
 10
400.753651142766
 20
4.036704003816613
 10
400.753651142766
 20
4.036704003816613
 10
400.7514682064483
 20
4.036764640937097
 10
400.7514682064483
 20
4.036764640937097
 97
        0
 72
     4
 94
        3
 73
     0
 74
     0
 95
        8
 96
        4
 40
28.0
 40
28.0
 40
28.0
 40
28.0
 40
29.0
 40
29.0
 40
29.0
 40
29.0
 10
400.7514682064483
 20
4.036764640937097
 10
400.7517107549281
 20
4.039402355653824
 10
400.7529234973266
 20
4.041585291971817
 10
400.7529234973266
 20
4.044253325248921
 97
        0
 72
     4
 94
        3
 73
     0
 74
     0
 95
        8
 96
        4
 40
29.0
 40
29.0
 40
29.0
 40
29.0
 40
30.0
 40
30.0
 40
30.0
 40
30.0
 10
400.7529234973266
 20
4.044253325248921
 10
400.7529234973266
 20
4.044253325248921
 10
400.7529234973266
 20
4.053712715959353
 10
400.7529234973266
 20
4.053712715959353
 97
        0
 72
     4
 94
        3
 73
     0
 74
     0
 95
        8
 96
        4
 40
30.0
 40
30.0
 40
30.0
 40
30.0
 40
31.0
 40
31.0
 40
31.0
 40
31.0
 10
400.7529234973266
 20
4.053712715959353
 10
400.7529234973266
 20
4.169923756321499
 10
400.6580870417433
 20
4.264820849024776
 10
400.541906319942
 20
4.264820849024776
 97
        0
 72
     4
 94
        3
 73
     0
 74
     0
 95
        8
 96
        4
 40
31.0
 40
31.0
 40
31.0
 40
31.0
 40
32.0
 40
32.0
 40
32.0
 40
32.0
 10
400.541906319942
 20
4.264820849024776
 10
400.541906319942
 20
4.264820849024776
 10
399.6631531777955
 20
4.264820849024776
 10
399.6631531777955
 20
4.264820849024776
 97
        0
 72
     4
 94
        3
 73
     0
 74
     0
 95
        8
 96
        4
 40
32.0
 40
32.0
 40
32.0
 40
32.0
 40
33.0
 40
33.0
 40
33.0
 40
33.0
 10
399.6631531777955
 20
4.264820849024776
 10
399.5549765558256
 20
4.264820849024776
 10
399.4676591031143
 20
4.180717163670327
 10
399.4562593245662
 20
4.074844752258162
 97
        0
 72
     4
 94
        3
 73
     0
 74
     0
 95
        8
 96
        4
 40
33.0
 40
33.0
 40
33.0
 40
33.0
 40
34.0
 40
34.0
 40
34.0
 40
34.0
 10
399.4562593245662
 20
4.074844752258162
 10
399.4562593245662
 20
4.074844752258162
 10
399.4523785488902
 20
4.07496602649795
 10
399.4523785488902
 20
4.07496602649795
 97
        0
 72
     4
 94
        3
 73
     0
 74
     0
 95
       11
 96
        7
 40
34.0
 40
34.0
 40
34.0
 40
34.0
 40
35.0
 40
35.0
 40
35.0
 40
36.0
 40
36.0
 40
36.0
 40
36.0
 10
399.4523785488902
 20
4.07496602649795
 10
399.4523785488902
 20
4.068781040264273
 10
399.4528636458493
 20
4.063566247949726
 10
399.4528636458493
 20
4.057411580275858
 10
399.4528636458493
 20
4.056107882197043
 10
399.4521360004101
 20
4.055016414038139
 10
399.4521360004101
 20
4.053712715959353
 97
        0
 72
     4
 94
        3
 73
     0
 74
     0
 95
        8
 96
        4
 40
36.0
 40
36.0
 40
36.0
 40
36.0
 40
37.0
 40
37.0
 40
37.0
 40
37.0
 10
399.4521360004101
 20
4.053712715959353
 10
399.4521360004101
 20
4.053712715959353
 10
399.4521360004101
 20
4.044253325248921
 10
399.4521360004101
 20
4.044253325248921
 97
        0
 72
     4
 94
        3
 73
     0
 74
     0
 95
        8
 96
        4
 40
37.0
 40
37.0
 40
37.0
 40
37.0
 40
38.0
 40
38.0
 40
38.0
 40
38.0
 10
399.4521360004101
 20
4.044253325248921
 10
399.4521360004101
 20
4.042070388931254
 10
399.4533487428085
 20
4.040251275333237
 10
399.4533487428085
 20
4.038098657575379
 97
        0
 72
     4
 94
        3
 73
     0
 74
     0
 95
        8
 96
        4
 40
38.0
 40
38.0
 40
38.0
 40
38.0
 40
39.0
 40
39.0
 40
39.0
 40
39.0
 10
399.4533487428085
 20
4.038098657575379
 10
399.4581997124039
 20
2.864527838289053
 10
399.690318607528
 20
2.212769754631939
 10
400.1516458160189
 20
1.860013309390869
 97
        0
 72
     4
 94
        3
 73
     0
 74
     0
 95
       11
 96
        7
 40
39.0
 40
39.0
 40
39.0
 40
39.0
 40
40.0
 40
40.0
 40
40.0
 40
41.0
 40
41.0
 40
41.0
 40
41.0
 10
400.1516458160189
 20
1.860013309390869
 10
400.7631105334764
 20
1.393562264265515
 10
402.1342370895215
 20
1.160594449462284
 10
404.2647829356747
 20
1.160594449462284
 10
406.2333063973527
 20
1.160594449462284
 10
407.5411278001823
 20
1.296209368204305
 10
408.1880045956846
 20
1.567924302647899
 97
        0
 97
       32
330
2E8
330
2C9
330
2CA
330
2CB
330
2CC
330
2CD
330
2CE
330
2CF
330
2D0
330
2D1
330
2D2
330
2D3
330
2D4
330
2D5
330
2D6
330
2D7
330
2D8
330
2D9
330
2DA
330
2DB
330
2DC
330
2DD
330
2DE
330
2DF
330
2E0
330
2E1
330
2E2
330
2E3
330
2E4
330
2E5
330
2E6
330
2E7
 75
     1
 76
     1
 98
        1
 10
-96.22923855780971
 20
-2.584739096925741
1001
GradientColor1ACI
1070
     5
1001
GradientColor2ACI
1070
     2
1001
ACAD
1010
0.0
1020
0.0
1030
0.0
  0
SPLINE
  5
2C9
102
{ACAD_REACTORS
330
2C8
102
}
330
1F
100
AcDbEntity
  8
Capa 1
 62
     9
100
AcDbSpline
210
0.0
220
0.0
230
1.0
 70
     8
 71
     3
 72
    11
 73
     7
 74
     0
 42
0.000000001
 43
0.0000000001
 40
0.0
 40
0.0
 40
0.0
 40
0.0
 40
1.0
 40
1.0
 40
1.0
 40
2.0
 40
2.0
 40
2.0
 40
2.0
 10
408.3900474793186
 20
5.808096188574954
 30
0.0
 10
407.8634747297746
 20
6.046521344172422
 30
0.0
 10
406.5859718869139
 20
6.165733921971057
 30
0.0
 10
404.5568113052982
 20
6.165733921971057
 30
0.0
 10
403.1226221445169
 20
6.165733921971057
 30
0.0
 10
402.1764405249992
 20
6.271545696263875
 30
0.0
 10
401.718508995225
 20
6.482653829329013
 30
0.0
  0
SPLINE
  5
2CA
102
{ACAD_REACTORS
330
2C8
102
}
330
1F
100
AcDbEntity
  8
Capa 1
 62
     9
100
AcDbSpline
210
0.0
220
0.0
230
1.0
 70
     8
 71
     3
 72
    11
 73
     7
 74
     0
 42
0.000000001
 43
0.0000000001
 40
2.0
 40
2.0
 40
2.0
 40
2.0
 40
3.0
 40
3.0
 40
3.0
 40
4.0
 40
4.0
 40
4.0
 40
4.0
 10
401.718508995225
 20
6.482653829329013
 30
0.0
 10
401.2603349169711
 20
6.696248084311652
 30
0.0
 10
401.0313691520837
 20
7.099121109181969
 30
0.0
 10
401.0313691520837
 20
7.692212779298448
 30
0.0
 10
401.0313691520837
 20
8.397088980020758
 30
0.0
 10
401.455101346213
 20
8.79993168633121
 30
0.0
 10
402.30305083143
 20
8.90128663230843
 30
0.0
  0
SPLINE
  5
2CB
102
{ACAD_REACTORS
330
2C8
102
}
330
1F
100
AcDbEntity
  8
Capa 1
 62
     9
100
AcDbSpline
210
0.0
220
0.0
230
1.0
 70
     8
 71
     3
 72
    11
 73
     7
 74
     0
 42
0.000000001
 43
0.0000000001
 40
4.0
 40
4.0
 40
4.0
 40
4.0
 40
5.0
 40
5.0
 40
5.0
 40
6.0
 40
6.0
 40
6.0
 40
6.0
 10
402.30305083143
 20
8.90128663230843
 30
0.0
 10
402.5851347133832
 20
8.936547117552525
 30
0.0
 10
403.3358222582201
 20
8.95443506793423
 30
0.0
 10
404.5568113052982
 20
8.95443506793423
 30
0.0
 10
405.9829963662473
 20
8.95443506793423
 30
0.0
 10
406.8869745502877
 20
8.856566756353988
 30
0.0
 10
407.2689884058989
 20
8.660345036233469
 30
0.0
  0
SPLINE
  5
2CC
102
{ACAD_REACTORS
330
2C8
102
}
330
1F
100
AcDbEntity
  8
Capa 1
 62
     9
100
AcDbSpline
210
0.0
220
0.0
230
1.0
 70
     8
 71
     3
 72
     8
 73
     4
 74
     0
 42
0.000000001
 43
0.0000000001
 40
6.0
 40
6.0
 40
6.0
 40
6.0
 40
7.0
 40
7.0
 40
7.0
 40
7.0
 10
407.2689884058989
 20
8.660345036233469
 30
0.0
 10
407.6514873584704
 20
8.464638731632537
 30
0.0
 10
407.8372794939613
 20
8.189952578311736
 30
0.0
 10
407.8372794939613
 20
7.443843136031195
 30
0.0
  0
SPLINE
  5
2CD
102
{ACAD_REACTORS
330
2C8
102
}
330
1F
100
AcDbEntity
  8
Capa 1
 62
     9
100
AcDbSpline
210
0.0
220
0.0
230
1.0
 70
    24
 71
     3
 72
     8
 73
     4
 74
     0
 42
0.000000001
 43
0.0000000001
 40
7.0
 40
7.0
 40
7.0
 40
7.0
 40
8.0
 40
8.0
 40
8.0
 40
8.0
 10
407.8372794939613
 20
7.443843136031195
 30
0.0
 10
407.8372794939613
 20
7.443843136031195
 30
0.0
 10
407.8409177211574
 20
7.443873454591259
 30
0.0
 10
407.8409177211574
 20
7.443873454591259
 30
0.0
  0
SPLINE
  5
2CE
102
{ACAD_REACTORS
330
2C8
102
}
330
1F
100
AcDbEntity
  8
Capa 1
 62
     9
100
AcDbSpline
210
0.0
220
0.0
230
1.0
 70
     8
 71
     3
 72
     8
 73
     4
 74
     0
 42
0.000000001
 43
0.0000000001
 40
8.0
 40
8.0
 40
8.0
 40
8.0
 40
9.0
 40
9.0
 40
9.0
 40
9.0
 10
407.8409177211574
 20
7.443873454591259
 30
0.0
 10
407.8496494664282
 20
7.335666514061433
 30
0.0
 10
407.9386647584977
 20
7.249228299589181
 30
0.0
 10
408.0485392198259
 20
7.249228299589181
 30
0.0
  0
SPLINE
  5
2CF
102
{ACAD_REACTORS
330
2C8
102
}
330
1F
100
AcDbEntity
  8
Capa 1
 62
     9
100
AcDbSpline
210
0.0
220
0.0
230
1.0
 70
    24
 71
     3
 72
     8
 73
     4
 74
     0
 42
0.000000001
 43
0.0000000001
 40
9.0
 40
9.0
 40
9.0
 40
9.0
 40
10.0
 40
10.0
 40
10.0
 40
10.0
 10
408.0485392198259
 20
7.249228299589181
 30
0.0
 10
408.0485392198259
 20
7.249228299589181
 30
0.0
 10
408.9044928048759
 20
7.249228299589181
 30
0.0
 10
408.9044928048759
 20
7.249228299589181
 30
0.0
  0
SPLINE
  5
2D0
102
{ACAD_REACTORS
330
2C8
102
}
330
1F
100
AcDbEntity
  8
Capa 1
 62
     9
100
AcDbSpline
210
0.0
220
0.0
230
1.0
 70
     8
 71
     3
 72
     8
 73
     4
 74
     0
 42
0.000000001
 43
0.0000000001
 40
10.0
 40
10.0
 40
10.0
 40
10.0
 40
11.0
 40
11.0
 40
11.0
 40
11.0
 10
408.9044928048759
 20
7.249228299589181
 30
0.0
 10
409.019703332758
 20
7.249228299589181
 30
0.0
 10
409.1130844974632
 20
7.34248819005423
 30
0.0
 10
409.1150248853013
 20
7.45724393953768
 30
0.0
  0
SPLINE
  5
2D1
102
{ACAD_REACTORS
330
2C8
102
}
330
1F
100
AcDbEntity
  8
Capa 1
 62
     9
100
AcDbSpline
210
0.0
220
0.0
230
1.0
 70
    24
 71
     3
 72
     8
 73
     4
 74
     0
 42
0.000000001
 43
0.0000000001
 40
11.0
 40
11.0
 40
11.0
 40
11.0
 40
12.0
 40
12.0
 40
12.0
 40
12.0
 10
409.1150248853013
 20
7.45724393953768
 30
0.0
 10
409.1150248853013
 20
7.45724393953768
 30
0.0
 10
409.1157525307407
 20
7.45724393953768
 30
0.0
 10
409.1157525307407
 20
7.45724393953768
 30
0.0
  0
SPLINE
  5
2D2
102
{ACAD_REACTORS
330
2C8
102
}
330
1F
100
AcDbEntity
  8
Capa 1
 62
     9
100
AcDbSpline
210
0.0
220
0.0
230
1.0
 70
     8
 71
     3
 72
     8
 73
     4
 74
     0
 42
0.000000001
 43
0.0000000001
 40
12.0
 40
12.0
 40
12.0
 40
12.0
 40
13.0
 40
13.0
 40
13.0
 40
13.0
 10
409.1157525307407
 20
7.45724393953768
 30
0.0
 10
409.1157525307407
 20
7.460154521294445
 30
0.0
 10
409.1155099822607
 20
7.462519368972128
 30
0.0
 10
409.1155099822607
 20
7.465429950729405
 30
0.0
  0
SPLINE
  5
2D3
102
{ACAD_REACTORS
330
2C8
102
}
330
1F
100
AcDbEntity
  8
Capa 1
 62
     9
100
AcDbSpline
210
0.0
220
0.0
230
1.0
 70
    24
 71
     3
 72
     8
 73
     4
 74
     0
 42
0.000000001
 43
0.0000000001
 40
13.0
 40
13.0
 40
13.0
 40
13.0
 40
14.0
 40
14.0
 40
14.0
 40
14.0
 10
409.1155099822607
 20
7.465429950729405
 30
0.0
 10
409.1155099822607
 20
7.465429950729405
 30
0.0
 10
409.1155099822607
 20
7.591979620040778
 30
0.0
 10
409.1155099822607
 20
7.591979620040778
 30
0.0
  0
SPLINE
  5
2D4
102
{ACAD_REACTORS
330
2C8
102
}
330
1F
100
AcDbEntity
  8
Capa 1
 62
     9
100
AcDbSpline
210
0.0
220
0.0
230
1.0
 70
     8
 71
     3
 72
     8
 73
     4
 74
     0
 42
0.000000001
 43
0.0000000001
 40
14.0
 40
14.0
 40
14.0
 40
14.0
 40
15.0
 40
15.0
 40
15.0
 40
15.0
 10
409.1155099822607
 20
7.591979620040778
 30
0.0
 10
409.1155099822607
 20
7.599650215712732
 30
0.0
 10
409.1121143035446
 20
7.606199024665816
 30
0.0
 10
409.1111441096253
 20
7.613657390418471
 30
0.0
  0
SPLINE
  5
2D5
102
{ACAD_REACTORS
330
2C8
102
}
330
1F
100
AcDbEntity
  8
Capa 1
 62
     9
100
AcDbSpline
210
0.0
220
0.0
230
1.0
 70
     8
 71
     3
 72
     8
 73
     4
 74
     0
 42
0.000000001
 43
0.0000000001
 40
15.0
 40
15.0
 40
15.0
 40
15.0
 40
16.0
 40
16.0
 40
16.0
 40
16.0
 10
409.1111441096253
 20
7.613657390418471
 30
0.0
 10
409.0878594555695
 20
8.589915021425018
 30
0.0
 10
408.8501619454107
 20
9.082349072444291
 30
0.0
 10
408.3900474793186
 20
9.436257622963954
 30
0.0
  0
SPLINE
  5
2D6
102
{ACAD_REACTORS
330
2C8
102
}
330
1F
100
AcDbEntity
  8
Capa 1
 62
     9
100
AcDbSpline
210
0.0
220
0.0
230
1.0
 70
     8
 71
     3
 72
    11
 73
     7
 74
     0
 42
0.000000001
 43
0.0000000001
 40
16.0
 40
16.0
 40
16.0
 40
16.0
 40
17.0
 40
17.0
 40
17.0
 40
18.0
 40
18.0
 40
18.0
 40
18.0
 10
408.3900474793186
 20
9.436257622963954
 30
0.0
 10
407.7785827618608
 20
9.904679374487731
 30
0.0
 10
406.5010799190002
 20
10.13864770176986
 30
0.0
 10
404.5568113052982
 20
10.13864770176986
 30
0.0
 10
402.6045385917635
 20
10.13864770176986
 30
0.0
 10
401.3146657764354
 20
9.989631979521238
 30
0.0
 10
400.686222665395
 20
9.691085119504923
 30
0.0
  0
SPLINE
  5
2D7
102
{ACAD_REACTORS
330
2C8
102
}
330
1F
100
AcDbEntity
  8
Capa 1
 62
     9
100
AcDbSpline
210
0.0
220
0.0
230
1.0
 70
     8
 71
     3
 72
    11
 73
     7
 74
     0
 42
0.000000001
 43
0.0000000001
 40
18.0
 40
18.0
 40
18.0
 40
18.0
 40
19.0
 40
19.0
 40
19.0
 40
20.0
 40
20.0
 40
20.0
 40
20.0
 10
400.686222665395
 20
9.691085119504923
 30
0.0
 10
400.049775454522
 20
9.38659582173469
 30
0.0
 10
399.7320369460451
 20
8.720466740652174
 30
0.0
 10
399.7320369460451
 20
7.692212779298448
 30
0.0
 10
399.7320369460451
 20
6.742938666664035
 30
0.0
 10
399.9952020465776
 20
6.084753048293667
 30
0.0
 10
400.5217747961224
 20
5.71817133970659
 30
0.0
  0
SPLINE
  5
2D8
102
{ACAD_REACTORS
330
2C8
102
}
330
1F
100
AcDbEntity
  8
Capa 1
 62
     9
100
AcDbSpline
210
0.0
220
0.0
230
1.0
 70
     8
 71
     3
 72
    11
 73
     7
 74
     0
 42
0.000000001
 43
0.0000000001
 40
20.0
 40
20.0
 40
20.0
 40
20.0
 40
21.0
 40
21.0
 40
21.0
 40
22.0
 40
22.0
 40
22.0
 40
22.0
 10
400.5217747961224
 20
5.71817133970659
 30
0.0
 10
401.2098848331823
 20
5.235348272197573
 30
0.0
 10
402.5548161534145
 20
4.99392157916316
 30
0.0
 10
404.5568113052982
 20
4.99392157916316
 30
0.0
 10
406.1959539314706
 20
4.99392157916316
 30
0.0
 10
407.1940409256554
 20
4.921399583716909
 30
0.0
 10
407.5505871908929
 20
4.776355592824562
 30
0.0
  0
SPLINE
  5
2D9
102
{ACAD_REACTORS
330
2C8
102
}
330
1F
100
AcDbEntity
  8
Capa 1
 62
     9
100
AcDbSpline
210
0.0
220
0.0
230
1.0
 70
     8
 71
     3
 72
    11
 73
     7
 74
     0
 42
0.000000001
 43
0.0000000001
 40
22.0
 40
22.0
 40
22.0
 40
22.0
 40
23.0
 40
23.0
 40
23.0
 40
24.0
 40
24.0
 40
24.0
 40
24.0
 10
407.5505871908929
 20
4.776355592824562
 30
0.0
 10
407.8988868078186
 20
4.633282308330113
 30
0.0
 10
408.0727940678015
 20
4.264214477825252
 30
0.0
 10
408.0727940678015
 20
3.669121782750796
 30
0.0
 10
408.0727940678015
 20
3.082973062866817
 30
0.0
 10
407.8397049787583
 20
2.713905232362254
 30
0.0
 10
407.3732842521929
 20
2.562888485155955
 30
0.0
  0
SPLINE
  5
2DA
102
{ACAD_REACTORS
330
2C8
102
}
330
1F
100
AcDbEntity
  8
Capa 1
 62
     9
100
AcDbSpline
210
0.0
220
0.0
230
1.0
 70
     8
 71
     3
 72
    11
 73
     7
 74
     0
 42
0.000000001
 43
0.0000000001
 40
24.0
 40
24.0
 40
24.0
 40
24.0
 40
25.0
 40
25.0
 40
25.0
 40
26.0
 40
26.0
 40
26.0
 40
26.0
 10
407.3732842521929
 20
2.562888485155955
 30
0.0
 10
406.8969190379577
 20
2.409385616031887
 30
0.0
 10
405.8646327081283
 20
2.332406792270351
 30
0.0
 10
404.2771529081421
 20
2.332406792270351
 30
0.0
 10
402.6566865149103
 20
2.332406792270351
 30
0.0
 10
401.6632079418409
 20
2.438218566562444
 30
0.0
 10
401.2986575767719
 20
2.64981179658766
 30
0.0
  0
SPLINE
  5
2DB
102
{ACAD_REACTORS
330
2C8
102
}
330
1F
100
AcDbEntity
  8
Capa 1
 62
     9
100
AcDbSpline
210
0.0
220
0.0
230
1.0
 70
     8
 71
     3
 72
     8
 73
     4
 74
     0
 42
0.000000001
 43
0.0000000001
 40
26.0
 40
26.0
 40
26.0
 40
26.0
 40
27.0
 40
27.0
 40
27.0
 40
27.0
 10
401.2986575767719
 20
2.64981179658766
 30
0.0
 10
400.9341072117029
 20
2.854977491899024
 30
0.0
 10
400.7587446608412
 20
3.318426999587306
 30
0.0
 10
400.753651142766
 20
4.036704003816613
 30
0.0
  0
SPLINE
  5
2DC
102
{ACAD_REACTORS
330
2C8
102
}
330
1F
100
AcDbEntity
  8
Capa 1
 62
     9
100
AcDbSpline
210
0.0
220
0.0
230
1.0
 70
    24
 71
     3
 72
     8
 73
     4
 74
     0
 42
0.000000001
 43
0.0000000001
 40
27.0
 40
27.0
 40
27.0
 40
27.0
 40
28.0
 40
28.0
 40
28.0
 40
28.0
 10
400.753651142766
 20
4.036704003816613
 30
0.0
 10
400.753651142766
 20
4.036704003816613
 30
0.0
 10
400.7514682064483
 20
4.036764640937097
 30
0.0
 10
400.7514682064483
 20
4.036764640937097
 30
0.0
  0
SPLINE
  5
2DD
102
{ACAD_REACTORS
330
2C8
102
}
330
1F
100
AcDbEntity
  8
Capa 1
 62
     9
100
AcDbSpline
210
0.0
220
0.0
230
1.0
 70
     8
 71
     3
 72
     8
 73
     4
 74
     0
 42
0.000000001
 43
0.0000000001
 40
28.0
 40
28.0
 40
28.0
 40
28.0
 40
29.0
 40
29.0
 40
29.0
 40
29.0
 10
400.7514682064483
 20
4.036764640937097
 30
0.0
 10
400.7517107549281
 20
4.039402355653824
 30
0.0
 10
400.7529234973266
 20
4.041585291971817
 30
0.0
 10
400.7529234973266
 20
4.044253325248921
 30
0.0
  0
SPLINE
  5
2DE
102
{ACAD_REACTORS
330
2C8
102
}
330
1F
100
AcDbEntity
  8
Capa 1
 62
     9
100
AcDbSpline
210
0.0
220
0.0
230
1.0
 70
    24
 71
     3
 72
     8
 73
     4
 74
     0
 42
0.000000001
 43
0.0000000001
 40
29.0
 40
29.0
 40
29.0
 40
29.0
 40
30.0
 40
30.0
 40
30.0
 40
30.0
 10
400.7529234973266
 20
4.044253325248921
 30
0.0
 10
400.7529234973266
 20
4.044253325248921
 30
0.0
 10
400.7529234973266
 20
4.053712715959353
 30
0.0
 10
400.7529234973266
 20
4.053712715959353
 30
0.0
  0
SPLINE
  5
2DF
102
{ACAD_REACTORS
330
2C8
102
}
330
1F
100
AcDbEntity
  8
Capa 1
 62
     9
100
AcDbSpline
210
0.0
220
0.0
230
1.0
 70
     8
 71
     3
 72
     8
 73
     4
 74
     0
 42
0.000000001
 43
0.0000000001
 40
30.0
 40
30.0
 40
30.0
 40
30.0
 40
31.0
 40
31.0
 40
31.0
 40
31.0
 10
400.7529234973266
 20
4.053712715959353
 30
0.0
 10
400.7529234973266
 20
4.169923756321499
 30
0.0
 10
400.6580870417433
 20
4.264820849024776
 30
0.0
 10
400.541906319942
 20
4.264820849024776
 30
0.0
  0
SPLINE
  5
2E0
102
{ACAD_REACTORS
330
2C8
102
}
330
1F
100
AcDbEntity
  8
Capa 1
 62
     9
100
AcDbSpline
210
0.0
220
0.0
230
1.0
 70
    24
 71
     3
 72
     8
 73
     4
 74
     0
 42
0.000000001
 43
0.0000000001
 40
31.0
 40
31.0
 40
31.0
 40
31.0
 40
32.0
 40
32.0
 40
32.0
 40
32.0
 10
400.541906319942
 20
4.264820849024776
 30
0.0
 10
400.541906319942
 20
4.264820849024776
 30
0.0
 10
399.6631531777955
 20
4.264820849024776
 30
0.0
 10
399.6631531777955
 20
4.264820849024776
 30
0.0
  0
SPLINE
  5
2E1
102
{ACAD_REACTORS
330
2C8
102
}
330
1F
100
AcDbEntity
  8
Capa 1
 62
     9
100
AcDbSpline
210
0.0
220
0.0
230
1.0
 70
     8
 71
     3
 72
     8
 73
     4
 74
     0
 42
0.000000001
 43
0.0000000001
 40
32.0
 40
32.0
 40
32.0
 40
32.0
 40
33.0
 40
33.0
 40
33.0
 40
33.0
 10
399.6631531777955
 20
4.264820849024776
 30
0.0
 10
399.5549765558256
 20
4.264820849024776
 30
0.0
 10
399.4676591031143
 20
4.180717163670327
 30
0.0
 10
399.4562593245662
 20
4.074844752258162
 30
0.0
  0
SPLINE
  5
2E2
102
{ACAD_REACTORS
330
2C8
102
}
330
1F
100
AcDbEntity
  8
Capa 1
 62
     9
100
AcDbSpline
210
0.0
220
0.0
230
1.0
 70
    24
 71
     3
 72
     8
 73
     4
 74
     0
 42
0.000000001
 43
0.0000000001
 40
33.0
 40
33.0
 40
33.0
 40
33.0
 40
34.0
 40
34.0
 40
34.0
 40
34.0
 10
399.4562593245662
 20
4.074844752258162
 30
0.0
 10
399.4562593245662
 20
4.074844752258162
 30
0.0
 10
399.4523785488902
 20
4.07496602649795
 30
0.0
 10
399.4523785488902
 20
4.07496602649795
 30
0.0
  0
SPLINE
  5
2E3
102
{ACAD_REACTORS
330
2C8
102
}
330
1F
100
AcDbEntity
  8
Capa 1
 62
     9
100
AcDbSpline
210
0.0
220
0.0
230
1.0
 70
     8
 71
     3
 72
    11
 73
     7
 74
     0
 42
0.000000001
 43
0.0000000001
 40
34.0
 40
34.0
 40
34.0
 40
34.0
 40
35.0
 40
35.0
 40
35.0
 40
36.0
 40
36.0
 40
36.0
 40
36.0
 10
399.4523785488902
 20
4.07496602649795
 30
0.0
 10
399.4523785488902
 20
4.068781040264273
 30
0.0
 10
399.4528636458493
 20
4.063566247949726
 30
0.0
 10
399.4528636458493
 20
4.057411580275858
 30
0.0
 10
399.4528636458493
 20
4.056107882197043
 30
0.0
 10
399.4521360004101
 20
4.055016414038139
 30
0.0
 10
399.4521360004101
 20
4.053712715959353
 30
0.0
  0
SPLINE
  5
2E4
102
{ACAD_REACTORS
330
2C8
102
}
330
1F
100
AcDbEntity
  8
Capa 1
 62
     9
100
AcDbSpline
210
0.0
220
0.0
230
1.0
 70
    24
 71
     3
 72
     8
 73
     4
 74
     0
 42
0.000000001
 43
0.0000000001
 40
36.0
 40
36.0
 40
36.0
 40
36.0
 40
37.0
 40
37.0
 40
37.0
 40
37.0
 10
399.4521360004101
 20
4.053712715959353
 30
0.0
 10
399.4521360004101
 20
4.053712715959353
 30
0.0
 10
399.4521360004101
 20
4.044253325248921
 30
0.0
 10
399.4521360004101
 20
4.044253325248921
 30
0.0
  0
SPLINE
  5
2E5
102
{ACAD_REACTORS
330
2C8
102
}
330
1F
100
AcDbEntity
  8
Capa 1
 62
     9
100
AcDbSpline
210
0.0
220
0.0
230
1.0
 70
     8
 71
     3
 72
     8
 73
     4
 74
     0
 42
0.000000001
 43
0.0000000001
 40
37.0
 40
37.0
 40
37.0
 40
37.0
 40
38.0
 40
38.0
 40
38.0
 40
38.0
 10
399.4521360004101
 20
4.044253325248921
 30
0.0
 10
399.4521360004101
 20
4.042070388931254
 30
0.0
 10
399.4533487428085
 20
4.040251275333237
 30
0.0
 10
399.4533487428085
 20
4.038098657575379
 30
0.0
  0
SPLINE
  5
2E6
102
{ACAD_REACTORS
330
2C8
102
}
330
1F
100
AcDbEntity
  8
Capa 1
 62
     9
100
AcDbSpline
210
0.0
220
0.0
230
1.0
 70
     8
 71
     3
 72
     8
 73
     4
 74
     0
 42
0.000000001
 43
0.0000000001
 40
38.0
 40
38.0
 40
38.0
 40
38.0
 40
39.0
 40
39.0
 40
39.0
 40
39.0
 10
399.4533487428085
 20
4.038098657575379
 30
0.0
 10
399.4581997124039
 20
2.864527838289053
 30
0.0
 10
399.690318607528
 20
2.212769754631939
 30
0.0
 10
400.1516458160189
 20
1.860013309390869
 30
0.0
  0
SPLINE
  5
2E7
102
{ACAD_REACTORS
330
2C8
102
}
330
1F
100
AcDbEntity
  8
Capa 1
 62
     9
100
AcDbSpline
210
0.0
220
0.0
230
1.0
 70
     8
 71
     3
 72
    11
 73
     7
 74
     0
 42
0.000000001
 43
0.0000000001
 40
39.0
 40
39.0
 40
39.0
 40
39.0
 40
40.0
 40
40.0
 40
40.0
 40
41.0
 40
41.0
 40
41.0
 40
41.0
 10
400.1516458160189
 20
1.860013309390869
 30
0.0
 10
400.7631105334764
 20
1.393562264265515
 30
0.0
 10
402.1342370895215
 20
1.160594449462284
 30
0.0
 10
404.2647829356747
 20
1.160594449462284
 30
0.0
 10
406.2333063973527
 20
1.160594449462284
 30
0.0
 10
407.5411278001823
 20
1.296209368204305
 30
0.0
 10
408.1880045956846
 20
1.567924302647899
 30
0.0
  0
SPLINE
  5
2E8
102
{ACAD_REACTORS
330
2C8
102
}
330
1F
100
AcDbEntity
  8
Capa 1
 62
     9
100
AcDbSpline
210
0.0
220
0.0
230
1.0
 70
     8
 71
     3
 72
    11
 73
     7
 74
     0
 42
0.000000001
 43
0.0000000001
 40
41.0
 40
41.0
 40
41.0
 40
41.0
 40
42.0
 40
42.0
 40
42.0
 40
43.0
 40
43.0
 40
43.0
 40
43.0
 10
408.1880045956846
 20
1.567924302647899
 30
0.0
 10
408.9777424457611
 20
1.89973062295039
 30
0.0
 10
409.3721262738403
 20
2.60014999535807
 30
0.0
 10
409.3721262738403
 20
3.669121782750796
 30
0.0
 10
409.3721262738403
 20
4.798700371521608
 30
0.0
 10
409.0446858261728
 20
5.512035450476052
 30
0.0
 10
408.3900474793186
 20
5.808096188574954
 30
0.0
  0
LINE
  5
346
330
1F
100
AcDbEntity
  8
0
  6
Continuous
 62
     7
370
    25
100
AcDbLine
 10
132.7850762457246
 20
122.1532996974066
 30
0.0
 11
332.2911102486028
 21
122.1532996974066
 31
0.0
  0
LINE
  5
347
330
1F
100
AcDbEntity
  8
0
  6
Continuous
 62
     7
370
    25
100
AcDbLine
 10
132.7380932471637
 20
120.1063166988456
 30
0.0
 11
132.7380932471637
 21
120.1063166988456
 31
0.0
  0
LINE
  5
348
330
1F
100
AcDbEntity
  8
0
  6
Continuous
 62
     7
370
    25
100
AcDbLine
 10
332.5380932471637
 20
121.9063166988457
 30
0.0
 11
132.5380932471637
 21
121.9063166988457
 31
0.0
  0
LINE
  5
349
330
1F
100
AcDbEntity
  8
0
  6
Continuous
 62
     7
370
    25
100
AcDbLine
 10
132.5380932471637
 20
120.3063166988456
 30
0.0
 11
232.5380932471637
 21
120.3063166988456
 31
0.0
  0
LINE
  5
34A
330
1F
100
AcDbEntity
  8
0
  6
Continuous
 62
     7
370
    25
100
AcDbLine
 10
177.221394698148
 20
130.6063166988456
 30
0.0
 11
132.7850762457246
 21
122.1532996974066
 31
0.0
  0
LINE
  5
34B
330
1F
100
AcDbEntity
  8
0
  6
Continuous
 62
     7
370
    25
100
AcDbLine
 10
132.7850762457246
 20
122.1532996974066
 30
0.0
 11
132.5380932471637
 21
121.9063166988457
 31
0.0
  0
LINE
  5
34C
330
1F
100
AcDbEntity
  8
0
  6
Continuous
 62
     7
370
    25
100
AcDbLine
 10
132.5380932471637
 20
121.9063166988457
 30
0.0
 11
132.5380932471637
 21
120.3063166988456
 31
0.0
  0
LINE
  5
34D
330
1F
100
AcDbEntity
  8
0
  6
Continuous
 62
     7
370
    25
100
AcDbLine
 10
132.5380932471637
 20
120.3063166988456
 30
0.0
 11
132.7380932471637
 21
120.1063166988456
 31
0.0
  0
LINE
  5
34E
330
1F
100
AcDbEntity
  8
0
  6
Continuous
 62
     7
370
    25
100
AcDbLine
 10
332.3380932471637
 20
120.1063166988456
 30
0.0
 11
132.7380932471637
 21
120.1063166988456
 31
0.0
  0
LINE
  5
34F
330
1F
100
AcDbEntity
  8
0
  6
Continuous
 62
     7
370
    25
100
AcDbLine
 10
232.5380932471637
 20
120.3063166988456
 30
0.0
 11
332.5380932471637
 21
120.3063166988456
 31
0.0
  0
LINE
  5
350
330
1F
100
AcDbEntity
  8
0
  6
Continuous
 62
     7
370
    25
100
AcDbLine
 10
332.2911102486028
 20
122.1532996974066
 30
0.0
 11
287.8547917961794
 21
130.6063166988456
 31
0.0
  0
LINE
  5
351
330
1F
100
AcDbEntity
  8
0
  6
Continuous
 62
     7
370
    25
100
AcDbLine
 10
227.5380932471637
 20
208.6063166988457
 30
0.0
 11
227.5380932471637
 21
145.3063166988458
 31
0.0
  0
LINE
  5
352
330
1F
100
AcDbEntity
  8
0
  6
Continuous
 62
     7
370
    25
100
AcDbLine
 10
237.5380932471637
 20
145.3063166988458
 30
0.0
 11
237.5380932471637
 21
208.6063166988457
 31
0.0
  0
LINE
  5
354
330
1F
100
AcDbEntity
  8
0
  6
Continuous
 62
     7
370
    25
100
AcDbLine
 10
287.8547917961794
 20
130.6063166988456
 30
0.0
 11
177.221394698148
 21
130.6063166988456
 31
0.0
  0
LINE
  5
35B
330
1F
100
AcDbEntity
  8
0
  6
Continuous
 62
     7
370
    25
100
AcDbLine
 10
227.5380932471637
 20
145.3063166988458
 30
0.0
 11
227.5380932471637
 21
130.6063166988456
 31
0.0
  0
LINE
  5
35C
330
1F
100
AcDbEntity
  8
0
  6
Continuous
 62
     7
370
    25
100
AcDbLine
 10
237.5380932471637
 20
130.6063166988456
 30
0.0
 11
237.5380932471637
 21
145.3063166988458
 31
0.0
  0
SPLINE
  5
35D
330
1F
100
AcDbEntity
  8
0
  6
Continuous
 62
     7
370
    25
100
AcDbSpline
210
0.0
220
0.0
230
1.0
 70
    11
 71
     3
 72
    29
 73
    25
 74
     0
 42
0.00000001
 43
0.00000001
 40
0.0
 40
0.0
 40
0.0
 40
0.0
 40
0.0305144444833951
 40
0.0613154746440882
 40
0.1231740461504322
 40
0.1860705862907371
 40
0.2496997462876464
 40
0.2818206917413488
 40
0.3138086633578694
 40
0.3768273423444465
 40
0.4386464197171682
 40
0.4693405213642176
 40
0.4999718468265338
 40
0.530611921892721
 40
0.5612688671096323
 40
0.6232293726610239
 40
0.6862268160027749
 40
0.7498650331638462
 40
0.7818515685183692
 40
0.8138541385181806
 40
0.8768450786267448
 40
0.9387131083170869
 40
0.9694284196574916
 40
1.0
 40
1.0
 40
1.0
 40
1.0
 10
234.388807327619
 20
137.8063166988457
 30
0.0
 10
234.3818862812658
 20
137.6888838538535
 30
0.0
 10
234.3679791874496
 20
137.4529152576231
 30
0.0
 10
234.222451478965
 20
137.0026359639931
 30
0.0
 10
233.8852424734858
 20
136.511284428068
 30
0.0
 10
233.2819041969875
 20
136.1203655396703
 30
0.0
 10
232.6724841591154
 20
136.0026785898791
 30
0.0
 10
232.1813601578282
 20
136.0492939605653
 30
0.0
 10
231.7099624627006
 20
136.1854866515026
 30
0.0
 10
231.1908223774458
 20
136.510841899941
 30
0.0
 10
230.8353632057207
 20
137.0020353443406
 30
0.0
 10
230.6868888510468
 20
137.4520804270169
 30
0.0
 10
230.6486463369464
 20
137.8060009276185
 30
0.0
 10
230.6867470368736
 20
138.1597989230587
 30
0.0
 10
230.8350737353095
 20
138.6103207257248
 30
0.0
 10
231.1912486842562
 20
139.1019013091148
 30
0.0
 10
231.8134616705009
 20
139.4928960756192
 30
0.0
 10
232.4295431650577
 20
139.6099782433131
 30
0.0
 10
232.9176488380137
 20
139.5631197733413
 30
0.0
 10
233.3813360222212
 20
139.4269747457619
 30
0.0
 10
233.8857081189119
 20
139.1014573452105
 30
0.0
 10
234.222345934883
 20
138.6100072826601
 30
0.0
 10
234.3679490145034
 20
138.1598314740864
 30
0.0
 10
234.3818654355848
 20
137.9239705756765
 30
0.0
 10
234.388807327619
 20
137.8063166988457
 30
0.0
  0
CIRCLE
  5
360
330
1F
100
AcDbEntity
  8
0
  6
Continuous
 62
     7
370
    25
100
AcDbCircle
 10
232.5421259723687
 20
137.8077398934593
 30
0.0
 40
1.598826415525773
  0
LINE
  5
36C
330
1F
100
AcDbEntity
  8
0
  6
Continuous
 62
     7
370
    25
100
AcDbLine
 10
233.43738542789
 20
138.3063166988456
 30
0.0
 11
231.6415391029007
 21
138.3063166988456
 31
0.0
  0
LINE
  5
36D
330
1F
100
AcDbEntity
  8
0
  6
Continuous
 62
     7
370
    25
100
AcDbLine
 10
231.6415391029007
 20
137.3063166988457
 30
0.0
 11
231.6415391029007
 21
138.3063166988456
 31
0.0
  0
LINE
  5
36E
330
1F
100
AcDbEntity
  8
0
  6
Continuous
 62
     7
370
    25
100
AcDbLine
 10
233.43738542789
 20
137.3063166988457
 30
0.0
 11
231.6415391029007
 21
137.3063166988457
 31
0.0
  0
LINE
  5
36F
330
1F
100
AcDbEntity
  8
0
  6
Continuous
 62
     7
370
    25
100
AcDbLine
 10
233.43738542789
 20
138.3063166988456
 30
0.0
 11
233.43738542789
 21
137.3063166988457
 31
0.0
  0
LINE
  5
374
330
1F
100
AcDbEntity
  8
0
  6
Continuous
 62
     7
370
    25
100
AcDbLine
 10
232.5380932471637
 20
145.3063166988458
 30
0.0
 11
237.5380932471637
 21
145.3063166988458
 31
0.0
  0
LINE
  5
375
330
1F
100
AcDbEntity
  8
0
  6
Continuous
 62
     7
370
    25
100
AcDbLine
 10
232.8775733442039
 20
145.3063166988458
 30
0.0
 11
237.5380932471637
 21
145.3063166988458
 31
0.0
  0
LINE
  5
376
330
1F
100
AcDbEntity
  8
0
  6
Continuous
 62
     7
370
    25
100
AcDbLine
 10
227.5380932471637
 20
145.3063166988458
 30
0.0
 11
232.5380932471637
 21
145.3063166988458
 31
0.0
  0
LINE
  5
377
330
1F
100
AcDbEntity
  8
0
  6
Continuous
 62
     7
370
    25
100
AcDbLine
 10
227.5380932471637
 20
145.3063166988458
 30
0.0
 11
232.8775733442039
 21
145.3063166988458
 31
0.0
  0
LINE
  5
378
330
1F
100
AcDbEntity
  8
0
  6
Continuous
 62
     7
370
    25
100
AcDbLine
 10
237.5380932471637
 20
208.6063166988457
 30
0.0
 11
237.5380932471637
 21
210.1063166988457
 31
0.0
  0
LINE
  5
379
330
1F
100
AcDbEntity
  8
0
  6
Continuous
 62
     7
370
    25
100
AcDbLine
 10
227.5380932471637
 20
210.1063166988457
 30
0.0
 11
227.5380932471637
 21
208.6063166988457
 31
0.0
  0
LINE
  5
37A
330
1F
100
AcDbEntity
  8
0
  6
Continuous
 62
     7
370
    25
100
AcDbLine
 10
237.5380932471637
 20
210.1063166988457
 30
0.0
 11
227.5380932471637
 21
210.1063166988457
 31
0.0
  0
LINE
  5
37B
102
{ACAD_REACTORS
330
1060
102
}
330
1F
100
AcDbEntity
  8
0
  6
Continuous
 62
     7
370
    25
100
AcDbLine
 10
228.0380932471637
 20
210.6063166988457
 30
0.0
 11
237.0380932471637
 21
210.6063166988457
 31
0.0
  0
LINE
  5
37C
330
1F
100
AcDbEntity
  8
0
  6
Continuous
 62
     7
370
    25
100
AcDbLine
 10
232.5380932471637
 20
208.6063166988457
 30
0.0
 11
237.5380932471637
 21
208.6063166988457
 31
0.0
  0
LINE
  5
37D
330
1F
100
AcDbEntity
  8
0
  6
Continuous
 62
     7
370
    25
100
AcDbLine
 10
227.5380932471637
 20
208.6063166988457
 30
0.0
 11
232.5380932471637
 21
208.6063166988457
 31
0.0
  0
LINE
  5
37E
330
1F
100
AcDbEntity
  8
0
  6
Continuous
 62
     7
370
    25
100
AcDbLine
 10
227.5380932471637
 20
208.6063166988457
 30
0.0
 11
237.5380932471637
 21
208.6063166988457
 31
0.0
  0
ARC
  5
37F
330
1F
100
AcDbEntity
  8
0
  6
Continuous
 62
     7
370
    25
100
AcDbCircle
 10
228.0380932471637
 20
210.1063166988457
 30
0.0
 40
0.5
100
AcDbArc
 50
90.00000000000325
 51
180.0
  0
ARC
  5
380
330
1F
100
AcDbEntity
  8
0
  6
Continuous
 62
     7
370
    25
100
AcDbCircle
 10
237.0380932471637
 20
210.1063166988457
 30
0.0
 40
0.5
100
AcDbArc
 50
0.0
 51
90.0
  0
LINE
  5
381
330
1F
100
AcDbEntity
  8
0
  6
Continuous
 62
     7
370
    25
100
AcDbLine
 10
332.3380932471637
 20
120.1063166988456
 30
0.0
 11
332.5380932471637
 21
120.3063166988456
 31
0.0
  0
LINE
  5
382
330
1F
100
AcDbEntity
  8
0
  6
Continuous
 62
     7
370
    25
100
AcDbLine
 10
332.5380932471637
 20
121.9063166988457
 30
0.0
 11
332.2911102486028
 21
122.1532996974066
 31
0.0
  0
LINE
  5
383
330
1F
100
AcDbEntity
  8
0
  6
Continuous
 62
     7
370
    25
100
AcDbLine
 10
332.5380932471637
 20
120.3063166988456
 30
0.0
 11
332.5380932471637
 21
121.9063166988457
 31
0.0
  0
LINE
  5
385
330
1F
100
AcDbEntity
  8
0
  6
Continuous
 62
     7
370
    25
100
AcDbLine
 10
233.8880932471637
 20
210.6063166988457
 30
0.0
 11
233.8880932471637
 21
468.254036671116
 31
0.0
  0
LINE
  5
386
330
1F
100
AcDbEntity
  8
0
  6
Continuous
 62
     7
370
    25
100
AcDbLine
 10
231.1880932471637
 20
468.254036671116
 30
0.0
 11
231.1880932471637
 21
210.6063166988457
 31
0.0
  0
DIMENSION
  5
388
102
{ACAD_XDICTIONARY
360
389
102
}
330
1F
100
AcDbEntity
  8
COTAS
100
AcDbDimension
280
     0
  2
*D3
 10
332.5380932471637
 20
76.48179496857401
 30
0.0
 11
232.5380932471637
 21
78.451794968574
 31
0.0
 70
    32
  1
%%C 200
 71
     5
 42
199.9999999999999
 73
     0
 74
     0
 75
     0
  3
ISO-25
100
AcDbAlignedDimension
 13
132.5380932471637
 23
120.3063166988456
 33
0.0
 14
332.5380932471637
 24
120.3063166988456
 34
0.0
100
AcDbRotatedDimension
  0
LWPOLYLINE
  5
757
330
1F
100
AcDbEntity
  8
0
100
AcDbPolyline
 90
        4
 70
     1
 43
0.0
 10
-0.300662577614446
 20
0.1222180433132394
 10
-0.300662577614446
 20
680.2666607310605
 10
466.4460251694213
 20
680.2666607310604
 10
466.4460251694213
 20
0.1222180433132394
  0
LINE
  5
FE4
330
1F
100
AcDbEntity
  8
0
  6
Continuous
 62
     7
370
    18
100
AcDbLine
 10
159.5900558308288
 20
578.2548106171099
 30
0.0
 11
307.0677360397046
 21
578.2548106171099
 31
0.0
  0
LINE
  5
FE5
330
1F
100
AcDbEntity
  8
0
  6
Continuous
 62
     7
370
    18
100
AcDbLine
 10
159.5900558308288
 20
578.2548106171099
 30
0.0
 11
159.5900558308288
 21
590.2548106171099
 31
0.0
  0
LINE
  5
FE6
330
1F
100
AcDbEntity
  8
0
  6
Continuous
 62
     7
370
    18
100
AcDbLine
 10
159.5900558308288
 20
590.2548106171099
 30
0.0
 11
307.0677360397046
 21
590.2548106171099
 31
0.0
  0
LINE
  5
FE7
330
1F
100
AcDbEntity
  8
0
  6
Continuous
 62
     7
370
    18
100
AcDbLine
 10
307.0677360397046
 20
578.2548106171099
 30
0.0
 11
307.0677360397046
 21
590.2548106171099
 31
0.0
  0
HATCH
  5
FEA
330
1F
100
AcDbEntity
  8
0
  6
Continuous
 62
     7
100
AcDbHatch
 10
0.0
 20
0.0
 30
0.0
210
0.0
220
0.0
230
1.0
  2
ANSI31
 70
     0
 71
     0
 91
        1
 92
        0
 93
        4
 72
     1
 10
159.5900558308288
 20
578.2548106171099
 11
307.0677360397046
 21
578.2548106171099
 72
     1
 10
307.0677360397046
 20
578.2548106171099
 11
307.0677360397046
 21
590.2548106171099
 72
     1
 10
307.0677360397046
 20
590.2548106171099
 11
159.5900558308288
 21
590.2548106171099
 72
     1
 10
159.5900558308288
 20
590.2548106171099
 11
159.5900558308288
 21
578.2548106171099
 97
        0
 75
     0
 76
     1
 52
0.0
 41
1.0
 77
     0
 78
     1
 53
45.0
 43
-64.39252813407577
 44
308.6266553981313
 45
-2.245064030267288
 46
2.245064030267288
 79
     0
 98
        1
 10
-64.39252813407577
 20
308.6266553981313
  0
LINE
  5
1038
330
1F
100
AcDbEntity
  8
0
  6
Continuous
 62
     7
370
    25
100
AcDbLine
 10
265.5519348011211
 20
468.5040366711159
 30
0.0
 11
265.5519348011213
 21
578.254036671116
 31
0.0
  0
LINE
  5
1039
330
1F
100
AcDbEntity
  8
0
  6
Continuous
 62
     7
370
    25
100
AcDbLine
 10
199.5519348011212
 20
578.254036671116
 30
0.0
 11
199.5519348011211
 21
468.5040366711161
 31
0.0
  0
LINE
  5
103A
330
1F
100
AcDbEntity
  8
0
  6
Continuous
 62
     7
370
    25
100
AcDbLine
 10
199.5519348011211
 20
468.5040366711161
 30
0.0
 11
199.8019348011211
 21
468.254036671116
 31
0.0
  0
LINE
  5
103B
330
1F
100
AcDbEntity
  8
0
  6
Continuous
 62
     7
370
    25
100
AcDbLine
 10
265.3019348011211
 20
468.254036671116
 30
0.0
 11
265.5519348011211
 21
468.5040366711157
 31
0.0
  0
LINE
  5
1040
330
1F
100
AcDbEntity
  8
0
  6
Continuous
 62
     7
370
    25
100
AcDbLine
 10
231.1923374069966
 20
468.254036671116
 30
0.0
 11
231.1923374069966
 21
437.7640499973114
 31
0.0
  0
CIRCLE
  5
1041
330
1F
100
AcDbEntity
  8
0
  6
Continuous
 62
     7
370
    25
100
AcDbCircle
 10
232.7378843122319
 20
568.0021050754178
 30
0.0
 40
1.199999999999944
  0
LINE
  5
1042
330
1F
100
AcDbEntity
  8
0
  6
Continuous
 62
     7
370
    25
100
AcDbLine
 10
233.5548691599911
 20
568.2893954486149
 30
0.0
 11
233.3951774975632
 21
567.4382206293501
 31
0.0
  0
LINE
  5
1043
330
1F
100
AcDbEntity
  8
0
  6
Continuous
 62
     7
370
    25
100
AcDbLine
 10
233.3951774975632
 20
567.4382206293501
 30
0.0
 11
232.5781926498039
 21
567.1509302561526
 31
0.0
  0
LINE
  5
1044
330
1F
100
AcDbEntity
  8
0
  6
Continuous
 62
     7
370
    25
100
AcDbLine
 10
232.0805911269007
 20
568.5659895214853
 30
0.0
 11
232.8975759746599
 21
568.853279894683
 31
0.0
  0
LINE
  5
1045
330
1F
100
AcDbEntity
  8
0
  6
Continuous
 62
     7
370
    25
100
AcDbLine
 10
231.9208994644727
 20
567.7148147022206
 30
0.0
 11
232.0805911269007
 21
568.5659895214853
 31
0.0
  0
LINE
  5
1046
330
1F
100
AcDbEntity
  8
0
  6
Continuous
 62
     7
370
    25
100
AcDbLine
 10
232.5781926498039
 20
567.1509302561526
 30
0.0
 11
231.9208994644727
 21
567.7148147022206
 31
0.0
  0
LINE
  5
1047
330
1F
100
AcDbEntity
  8
0
  6
Continuous
 62
     7
370
    25
100
AcDbLine
 10
232.8975759746599
 20
568.853279894683
 30
0.0
 11
233.5548691599911
 21
568.2893954486149
 31
0.0
  0
SPLINE
  5
1048
330
1F
100
AcDbEntity
  8
0
  6
Continuous
 62
     7
370
    25
100
AcDbSpline
210
0.0
220
0.0
230
1.0
 70
    11
 71
     3
 72
    23
 73
    19
 74
     0
 42
0.00000001
 43
0.00000001
 40
0.0
 40
0.0
 40
0.0
 40
0.0
 40
0.062751979608472
 40
0.1252884529560775
 40
0.187666134953394
 40
0.2500079835140828
 40
0.3121771079236154
 40
0.3746160541240101
 40
0.4372754025307453
 40
0.500152154759924
 40
0.5627811786014258
 40
0.6253728570431665
 40
0.6877830548472116
 40
0.7500539683108162
 40
0.8122719386008163
 40
0.8747740748442052
 40
0.937330475152001
 40
1.0
 40
1.0
 40
1.0
 40
1.0
 10
232.7378843122319
 20
569.5021050754178
 30
0.0
 10
232.9368797254381
 20
569.4818619403784
 30
0.0
 10
233.3341871509809
 20
569.4414451903757
 30
0.0
 10
233.8309245035855
 20
569.0856968353312
 30
0.0
 10
234.1783627202916
 20
568.5958253184872
 30
0.0
 10
234.284573557279
 20
568.002264711773
 30
0.0
 10
234.1791762663779
 20
567.4093265756685
 30
0.0
 10
233.8312494430214
 20
566.9164562719377
 30
0.0
 10
233.3338887406025
 20
566.5717099815898
 30
0.0
 10
232.7370519575407
 20
566.4672342231547
 30
0.0
 10
232.1404798359785
 20
566.5718455892336
 30
0.0
 10
231.6444129971774
 20
566.9166754170894
 30
0.0
 10
231.2969634601433
 20
567.4097106890896
 30
0.0
 10
231.1911268579376
 20
568.002395112715
 30
0.0
 10
231.2973734132802
 20
568.5963589758087
 30
0.0
 10
231.6453078668376
 20
569.0858903577275
 30
0.0
 10
232.1418180393019
 20
569.4424289955534
 30
0.0
 10
232.5390759318178
 20
569.4822010725812
 30
0.0
 10
232.7378843122319
 20
569.5021050754178
 30
0.0
  0
SPLINE
  5
1049
330
1F
100
AcDbEntity
  8
0
  6
Continuous
 62
     7
370
    25
100
AcDbSpline
210
0.0
220
0.0
230
1.0
 70
    11
 71
     3
 72
    31
 73
    27
 74
     0
 42
0.00000001
 43
0.00000001
 40
0.0
 40
0.0
 40
0.0
 40
0.0
 40
0.0545775411291926
 40
0.087798304902876
 40
0.1249019076401228
 40
0.1620520690222933
 40
0.1953102129069786
 40
0.2499343272536032
 40
0.3045301979436432
 40
0.3377811720195202
 40
0.3749289019389037
 40
0.4120486644795934
 40
0.4452749603875462
 40
0.4998317901922485
 40
0.5545742708265297
 40
0.5878794383139497
 40
0.6250681066967076
 40
0.6621781137089757
 40
0.6954015491853681
 40
0.7499732594604775
 40
0.8045751775091523
 40
0.8378410079545255
 40
0.875011423397465
 40
0.9121423239048351
 40
0.9453867094912242
 40
1.0
 40
1.0
 40
1.0
 40
1.0
 10
232.7378843122319
 20
569.252105075418
 30
0.0
 10
232.5946319495011
 20
569.2381690697671
 30
0.0
 10
232.3641834103975
 20
569.2157503669819
 30
0.0
 10
232.0685789084394
 20
569.0689113370643
 30
0.0
 10
231.8464137373864
 20
568.8947675864495
 30
0.0
 10
231.6707874634175
 20
568.6723931312857
 30
0.0
 10
231.5283033577698
 20
568.3766805944781
 30
0.0
 10
231.4628713742763
 20
568.0026989325634
 30
0.0
 10
231.5279549603097
 20
567.6287309725817
 30
0.0
 10
231.6700901967041
 20
567.3328729628444
 30
0.0
 10
231.8454909492154
 20
567.1106173287159
 30
0.0
 10
232.0675188044354
 20
566.9350403361714
 30
0.0
 10
232.3629920967703
 20
566.7926701653976
 30
0.0
 10
232.7370085253563
 20
566.7270549478582
 30
0.0
 10
233.1113978446132
 20
566.7921379455853
 30
0.0
 10
233.4077661278001
 20
566.9346863380806
 30
0.0
 10
233.6300719731942
 20
567.1103975640588
 30
0.0
 10
233.8055044781694
 20
567.3326316662119
 30
0.0
 10
233.9476381430797
 20
567.62822615053
 30
0.0
 10
234.0128755515346
 20
568.0019603507899
 30
0.0
 10
233.947707496606
 20
568.3758767057695
 30
0.0
 10
233.8054235770464
 20
568.6717038128434
 30
0.0
 10
233.6298413075171
 20
568.8943026137131
 30
0.0
 10
233.4076068044257
 20
569.068665913624
 30
0.0
 10
233.1118374551216
 20
569.215700916702
 30
0.0
 10
232.8812314945816
 20
569.2381502961174
 30
0.0
 10
232.7378843122319
 20
569.252105075418
 30
0.0
  0
LINE
  5
104A
330
1F
100
AcDbEntity
  8
0
  6
Continuous
 62
     7
370
    25
100
AcDbLine
 10
265.5519348011213
 20
578.254036671116
 30
0.0
 11
199.5519348011212
 21
578.254036671116
 31
0.0
  0
LINE
  5
104B
330
1F
100
AcDbEntity
  8
0
  6
Continuous
 62
     7
370
    25
100
AcDbLine
 10
199.5519348011211
 20
468.5040366711161
 30
0.0
 11
265.5519348011211
 21
468.5040366711157
 31
0.0
  0
LINE
  5
104C
102
{ACAD_REACTORS
330
1051
102
}
330
1F
100
AcDbEntity
  8
0
  6
Continuous
 62
     7
370
    25
100
AcDbLine
 10
265.3019348011211
 20
468.254036671116
 30
0.0
 11
199.8019348011211
 21
468.254036671116
 31
0.0
  0
DIMENSION
  5
104F
102
{ACAD_REACTORS
330
1051
102
}
102
{ACAD_XDICTIONARY
360
1050
102
}
330
1F
100
AcDbEntity
  8
COTAS
100
AcDbDimension
280
     0
  2
*D24
 10
92.43293735428149
 20
578.2548106171099
 30
0.0
 11
90.53168735428149
 21
523.254423644113
 31
0.0
 70
    32
 71
     5
 42
110.0007739459939
 73
     0
 74
     0
 75
     0
  3
ISO-25
100
AcDbAlignedDimension
 13
199.8019348011211
 23
468.254036671116
 33
0.0
 14
159.5900558308288
 24
578.2548106171099
 34
0.0
 50
90.0
100
AcDbRotatedDimension
  0
DIMENSION
  5
105E
102
{ACAD_REACTORS
330
1060
102
}
102
{ACAD_XDICTIONARY
360
105F
102
}
330
1F
100
AcDbEntity
  8
COTAS
100
AcDbDimension
280
     0
  2
*D25
 10
92.43293735428149
 20
468.254036671116
 30
0.0
 11
90.53168735428147
 21
339.4301766849808
 31
0.0
 70
    32
  1
MAX. 2000
 71
     5
 42
257.6477199722704
 73
     0
 74
     0
 75
     0
  3
ISO-25
100
AcDbAlignedDimension
 13
228.0380932471637
 23
210.6063166988457
 33
0.0
 14
199.8019348011211
 24
468.254036671116
 34
0.0
 50
90.0
100
AcDbRotatedDimension
  0
DIMENSION
  5
106D
102
{ACAD_XDICTIONARY
360
106E
102
}
330
1F
100
AcDbEntity
  8
COTAS
100
AcDbDimension
280
     0
  2
*D26
 10
265.5519348011213
 20
636.2678738350285
 30
0.0
 11
232.5519348011213
 21
638.2378738350285
 31
0.0
 70
    32
  1
%%C 66
 71
     5
 42
66.00000000000003
 73
     0
 74
     0
 75
     0
  3
ISO-25
100
AcDbAlignedDimension
 13
199.5519348011212
 23
590.2548106171099
 33
0.0
 14
265.5519348011213
 24
590.2548106171099
 34
0.0
100
AcDbRotatedDimension
  0
DIMENSION
  5
107D
102
{ACAD_XDICTIONARY
360
107E
102
}
330
1F
100
AcDbEntity
  8
COTAS
100
AcDbDimension
280
     0
  2
*D27
 10
92.43293735428148
 20
120.1063166988456
 30
0.0
 11
90.53168735428147
 21
165.3563166988457
 31
0.0
 70
    32
  1
91
 71
     5
 42
90.50000000000009
 73
     0
 74
     0
 75
     0
  3
ISO-25
100
AcDbAlignedDimension
 13
228.0380932471637
 23
210.6063166988457
 33
0.0
 14
132.7380932471637
 24
120.1063166988456
 34
0.0
 50
90.0
100
AcDbRotatedDimension
  0
ENDSEC
  0
SECTION
  2
OBJECTS
  0
DICTIONARY
  5
C
330
0
100
AcDbDictionary
281
     1
  3
ACAD_DETAILVIEWSTYLE
350
B5
  3
ACAD_GROUP
350
D
  3
ACAD_IMAGE_VARS
350
6A
  3
ACAD_LAYOUT
350
1A
  3
ACAD_MATERIAL
350
72
  3
ACAD_MLEADERSTYLE
350
3F
  3
ACAD_MLINESTYLE
350
17
  3
ACAD_PLOTSETTINGS
350
19
  3
ACAD_PLOTSTYLENAME
350
E
  3
ACAD_SCALELIST
350
40
  3
ACAD_SECTIONVIEWSTYLE
350
B6
  3
ACAD_TABLESTYLE
350
3B
  3
ACAD_VISUALSTYLE
350
2A
  3
ACDB_RECOMPOSE_DATA
350
1092
  3
AcDbVariableDictionary
350
3D
  3
APPDATA
350
71
  3
PRINTCONFIG
350
108F
  0
SUN
  5
80
330
29
100
AcDbSun
 90
        1
290
     0
 63
     7
421
 16777215
 40
1.0
291
     1
 91
  2455826
 92
 54000000
292
     0
 70
     2
 71
   256
280
     1
  0
DICTIONARY
  5
1E5
330
2
100
AcDbDictionary
280
     1
281
     1
  3
ACAD_LAYERSTATES
360
1E6
  0
DICTIONARY
  5
BEB
330
1F
100
AcDbDictionary
280
     1
281
     1
  3
ACAD_SORTENTS
360
BEC
  0
DICTIONARY
  5
389
330
388
100
AcDbDictionary
280
     1
281
     1
  0
DICTIONARY
  5
1050
330
104F
100
AcDbDictionary
280
     1
281
     1
  3
ACAD_DIMASSOC
360
1051
  0
DICTIONARY
  5
105F
330
105E
100
AcDbDictionary
280
     1
281
     1
  3
ACAD_DIMASSOC
360
1060
  0
DICTIONARY
  5
106E
330
106D
100
AcDbDictionary
280
     1
281
     1
  0
DICTIONARY
  5
107E
330
107D
100
AcDbDictionary
280
     1
281
     1
  0
DICTIONARY
  5
B5
102
{ACAD_REACTORS
330
C
102
}
330
C
100
AcDbDictionary
281
     1
  0
DICTIONARY
  5
D
102
{ACAD_REACTORS
330
C
102
}
330
C
100
AcDbDictionary
281
     1
  0
RASTERVARIABLES
  5
6A
102
{ACAD_REACTORS
330
C
102
}
330
C
100
AcDbRasterVariables
 90
        0
 70
     1
 71
     1
 72
     1
  0
DICTIONARY
  5
1A
102
{ACAD_REACTORS
330
C
102
}
330
C
100
AcDbDictionary
281
     1
  3
Model
350
22
  3
Sheet1
350
1E
  3
Sheet2
350
26
  0
DICTIONARY
  5
72
102
{ACAD_REACTORS
330
C
102
}
330
C
100
AcDbDictionary
281
     1
  3
ByBlock
350
74
  3
ByLayer
350
73
  3
Global
350
75
  0
DICTIONARY
  5
3F
102
{ACAD_REACTORS
330
C
102
}
330
C
100
AcDbDictionary
281
     1
  3
Annotative
350
BC
  3
Standard
350
B7
  0
DICTIONARY
  5
17
102
{ACAD_REACTORS
330
C
102
}
330
C
100
AcDbDictionary
281
     1
  3
Standard
350
18
  0
DICTIONARY
  5
19
102
{ACAD_REACTORS
330
C
102
}
330
C
100
AcDbDictionary
281
     1
  0
ACDBDICTIONARYWDFLT
  5
E
102
{ACAD_REACTORS
330
C
102
}
330
C
100
AcDbDictionary
281
     1
  3
Normal
350
F
100
AcDbDictionaryWithDefault
340
F
  0
DICTIONARY
  5
40
102
{ACAD_REACTORS
330
C
102
}
330
C
100
AcDbDictionary
281
     1
  3
A0
350
41
  3
A1
350
42
  3
A2
350
43
  3
A3
350
44
  3
A4
350
45
  3
A5
350
46
  3
A6
350
47
  3
A7
350
48
  3
A8
350
49
  3
A9
350
4A
  3
B0
350
4B
  3
B1
350
4C
  3
B2
350
4D
  3
B3
350
4E
  3
B4
350
4F
  3
B5
350
50
  3
B6
350
51
  3
B7
350
52
  3
B8
350
53
  3
B9
350
54
  3
C0
350
55
  3
C1
350
56
  3
C2
350
57
  3
C3
350
58
  3
C4
350
59
  3
C5
350
5A
  3
C6
350
5B
  3
C7
350
5C
  3
C8
350
5D
  3
C9
350
5E
  3
D0
350
5F
  3
D1
350
60
  3
D2
350
61
  0
DICTIONARY
  5
B6
102
{ACAD_REACTORS
330
C
102
}
330
C
100
AcDbDictionary
281
     1
  0
DICTIONARY
  5
3B
102
{ACAD_REACTORS
330
C
102
}
330
C
100
AcDbDictionary
281
     1
  3
Standard
350
3C
  0
DICTIONARY
  5
2A
102
{ACAD_REACTORS
330
C
102
}
330
C
100
AcDbDictionary
281
     1
  3
2dWireframe
350
2F
  3
Basic
350
32
  3
Brighten
350
36
  3
ColorChange
350
3A
  3
Conceptual
350
34
  3
Dim
350
35
  3
EdgeColorOff
350
7A
  3
Facepattern
350
39
  3
Flat
350
2B
  3
FlatWithEdges
350
2C
  3
Gouraud
350
2D
  3
GouraudWithEdges
350
2E
  3
Hidden
350
77
  3
JitterOff
350
78
  3
Linepattern
350
38
  3
OverhangOff
350
79
  3
Realistic
350
33
  3
Shaded
350
7F
  3
Shaded with edges
350
7E
  3
Shades of Gray
350
7B
  3
Sketchy
350
7C
  3
Thicken
350
37
  3
Wireframe
350
76
  3
X-Ray
350
7D
  0
XRECORD
  5
1092
102
{ACAD_REACTORS
330
C
102
}
330
C
100
AcDbXrecord
280
     1
 90
        1
330
3C
  0
DICTIONARY
  5
3D
102
{ACAD_REACTORS
330
C
102
}
330
C
100
AcDbDictionary
281
     1
  3
CANNOSCALE
350
62
  3
CMLEADERSTYLE
350
BB
  3
CTABLESTYLE
350
3E
  3
LIGHTSINBLOCKS
350
6F
  3
XCLIPFRAME
350
70
  0
DICTIONARY
  5
71
102
{ACAD_REACTORS
330
C
102
}
330
C
100
AcDbDictionary
281
     1
  0
DICTIONARYVAR
  5
108F
102
{ACAD_REACTORS
330
C
102
}
330
C
100
DictionaryVariables
280
     0
  1
0
  0
DICTIONARY
  5
1E6
102
{ACAD_REACTORS
330
1E5
102
}
330
1E5
100
AcDbDictionary
281
     1
  0
SORTENTSTABLE
  5
BEC
102
{ACAD_REACTORS
330
BEB
102
}
330
BEB
100
AcDbSortentsTable
330
1F
  0
DIMASSOC
  5
1051
102
{ACAD_REACTORS
330
1050
102
}
330
1050
100
AcDbDimAssoc
330
104F
 90
        1
 70
     0
 71
     1
  1
AcDbOsnapPointRef
 72
     1
331
104C
 73
     0
 91
        0
 40
0.0
 10
0.0
 20
0.0
 30
0.0
 75
     0
  0
DIMASSOC
  5
1060
102
{ACAD_REACTORS
330
105F
102
}
330
105F
100
AcDbDimAssoc
330
105E
 90
        1
 70
     0
 71
     1
  1
AcDbOsnapPointRef
 72
    13
331
37B
 73
     0
 91
        0
 40
0.0
 10
0.0
 20
0.0
 30
0.0
 75
     0
  0
LAYOUT
  5
22
102
{ACAD_REACTORS
330
1A
102
}
330
1A
100
AcDbPlotSettings
  1

  2
none_device
  4
ISO_A3_(420.00_x_297.00_MM)
  6

 40
7.5
 41
20.0
 42
7.5
 43
20.0
 44
420.0
 45
297.0
 46
20.78282828282826
 47
0.0
 48
0.0
 49
0.0
140
0.0
141
0.0
142
1.0
143
1.155642023346303
 70
  1204
 72
     1
 73
     0
 74
     1
  7
monochrome.ctb
 75
     0
 76
     0
 77
     2
 78
   300
147
0.8653198653198654
148
-134.1869158878504
149
0.0
100
AcDbLayout
  1
Model
 70
     1
 71
     0
 10
0.0
 20
0.0
 11
420.0
 21
297.0
 12
0.0
 22
0.0
 32
0.0
 14
-0.300662577614446
 24
0.1171430263595141
 34
0.0
 15
466.4460251694213
 25
680.2666607310605
 35
0.0
146
0.0
 13
0.0
 23
0.0
 33
0.0
 16
1.0
 26
0.0
 36
0.0
 17
0.0
 27
1.0
 37
0.0
 76
     0
330
1F
331
29
  0
LAYOUT
  5
1E
102
{ACAD_REACTORS
330
1A
102
}
330
1A
100
AcDbPlotSettings
  1

  2
none_device
  4

  6

 40
0.0
 41
0.0
 42
0.0
 43
0.0
 44
0.0
 45
0.0
 46
0.0
 47
0.0
 48
0.0
 49
0.0
140
0.0
141
0.0
142
1.0
143
1.0
 70
   688
 72
     0
 73
     0
 74
     5
  7

 75
    16
 76
     0
 77
     2
 78
   300
147
1.0
148
0.0
149
0.0
100
AcDbLayout
  1
Sheet1
 70
     1
 71
     1
 10
0.0
 20
0.0
 11
420.0
 21
297.0
 12
0.0
 22
0.0
 32
0.0
 14
1.000000000000000E+20
 24
1.000000000000000E+20
 34
1.000000000000000E+20
 15
-1.000000000000000E+20
 25
-1.000000000000000E+20
 35
-1.000000000000000E+20
146
0.0
 13
0.0
 23
0.0
 33
0.0
 16
1.0
 26
0.0
 36
0.0
 17
0.0
 27
1.0
 37
0.0
 76
     0
330
1B
  0
LAYOUT
  5
26
102
{ACAD_REACTORS
330
1A
102
}
330
1A
100
AcDbPlotSettings
  1

  2
none_device
  4

  6

 40
0.0
 41
0.0
 42
0.0
 43
0.0
 44
0.0
 45
0.0
 46
0.0
 47
0.0
 48
0.0
 49
0.0
140
0.0
141
0.0
142
1.0
143
1.0
 70
   688
 72
     0
 73
     0
 74
     5
  7

 75
    16
 76
     0
 77
     2
 78
   300
147
1.0
148
0.0
149
0.0
100
AcDbLayout
  1
Sheet2
 70
     1
 71
     2
 10
0.0
 20
0.0
 11
0.0
 21
0.0
 12
0.0
 22
0.0
 32
0.0
 14
0.0
 24
0.0
 34
0.0
 15
0.0
 25
0.0
 35
0.0
146
0.0
 13
0.0
 23
0.0
 33
0.0
 16
1.0
 26
0.0
 36
0.0
 17
0.0
 27
1.0
 37
0.0
 76
     0
330
23
  0
MATERIAL
  5
74
102
{ACAD_REACTORS
330
72
102
}
330
72
100
AcDbMaterial
  1
ByBlock
 72
     1
 94
      127
  0
MATERIAL
  5
73
102
{ACAD_REACTORS
330
72
102
}
330
72
100
AcDbMaterial
  1
ByLayer
 72
     1
 94
      127
  0
MATERIAL
  5
75
102
{ACAD_REACTORS
330
72
102
}
330
72
100
AcDbMaterial
  1
Global
 72
     1
 94
      127
  0
MLEADERSTYLE
  5
BC
102
{ACAD_REACTORS
330
3F
102
}
330
3F
100
AcDbMLeaderStyle
179
     2
170
     2
171
     1
172
     0
 90
        2
 40
0.0
 41
0.0
173
     1
 91
-1056964608
340
14
 92
       -2
290
     1
 42
2.0
291
     1
 43
8.0
  3
Annotative
341
0
 44
4.0
300

342
11
174
     1
178
     1
175
     1
176
     0
 93
-1056964608
 45
4.0
292
     0
297
     0
 46
4.0
343
0
 94
-1056964608
 47
1.0
 49
1.0
140
1.0
293
     1
141
0.0
294
     1
177
     0
142
1.0
295
     0
296
     1
143
3.75
271
     0
272
     9
273
     9
298
     0
  0
MLEADERSTYLE
  5
B7
102
{ACAD_REACTORS
330
3F
102
}
330
3F
100
AcDbMLeaderStyle
179
     2
170
     2
171
     1
172
     0
 90
        2
 40
0.0
 41
0.0
173
     1
 91
-1056964608
340
14
 92
       -2
290
     1
 42
2.0
291
     1
 43
8.0
  3
Standard
341
0
 44
4.0
300

342
11
174
     1
178
     6
175
     1
176
     0
 93
-1056964608
 45
4.0
292
     0
297
     0
 46
4.0
343
0
 94
-1056964608
 47
1.0
 49
1.0
140
1.0
293
     1
141
0.0
294
     1
177
     0
142
1.0
295
     0
296
     0
143
3.75
271
     0
272
     9
273
     9
298
     0
  0
MLINESTYLE
  5
18
102
{ACAD_REACTORS
330
17
102
}
330
17
100
AcDbMlineStyle
  2
Standard
 70
     0
  3

 62
   256
 51
90.0
 52
90.0
 71
     2
 49
0.5
 62
   256
  6
BYLAYER
 49
-0.5
 62
   256
  6
BYLAYER
  0
ACDBPLACEHOLDER
  5
F
102
{ACAD_REACTORS
330
E
102
}
330
E
  0
SCALE
  5
41
102
{ACAD_REACTORS
330
40
102
}
330
40
100
AcDbScale
 70
     0
300
1:1
140
1.0
141
1.0
290
     1
  0
SCALE
  5
42
102
{ACAD_REACTORS
330
40
102
}
330
40
100
AcDbScale
 70
     0
300
1:2
140
1.0
141
2.0
290
     0
  0
SCALE
  5
43
102
{ACAD_REACTORS
330
40
102
}
330
40
100
AcDbScale
 70
     0
300
1:4
140
1.0
141
4.0
290
     0
  0
SCALE
  5
44
102
{ACAD_REACTORS
330
40
102
}
330
40
100
AcDbScale
 70
     0
300
1:5
140
1.0
141
5.0
290
     0
  0
SCALE
  5
45
102
{ACAD_REACTORS
330
40
102
}
330
40
100
AcDbScale
 70
     0
300
1:8
140
1.0
141
8.0
290
     0
  0
SCALE
  5
46
102
{ACAD_REACTORS
330
40
102
}
330
40
100
AcDbScale
 70
     0
300
1:10
140
1.0
141
10.0
290
     0
  0
SCALE
  5
47
102
{ACAD_REACTORS
330
40
102
}
330
40
100
AcDbScale
 70
     0
300
1:16
140
1.0
141
16.0
290
     0
  0
SCALE
  5
48
102
{ACAD_REACTORS
330
40
102
}
330
40
100
AcDbScale
 70
     0
300
1:20
140
1.0
141
20.0
290
     0
  0
SCALE
  5
49
102
{ACAD_REACTORS
330
40
102
}
330
40
100
AcDbScale
 70
     0
300
1:30
140
1.0
141
30.0
290
     0
  0
SCALE
  5
4A
102
{ACAD_REACTORS
330
40
102
}
330
40
100
AcDbScale
 70
     0
300
1:40
140
1.0
141
40.0
290
     0
  0
SCALE
  5
4B
102
{ACAD_REACTORS
330
40
102
}
330
40
100
AcDbScale
 70
     0
300
1:50
140
1.0
141
50.0
290
     0
  0
SCALE
  5
4C
102
{ACAD_REACTORS
330
40
102
}
330
40
100
AcDbScale
 70
     0
300
1:100
140
1.0
141
100.0
290
     0
  0
SCALE
  5
4D
102
{ACAD_REACTORS
330
40
102
}
330
40
100
AcDbScale
 70
     0
300
2:1
140
2.0
141
1.0
290
     0
  0
SCALE
  5
4E
102
{ACAD_REACTORS
330
40
102
}
330
40
100
AcDbScale
 70
     0
300
4:1
140
4.0
141
1.0
290
     0
  0
SCALE
  5
4F
102
{ACAD_REACTORS
330
40
102
}
330
40
100
AcDbScale
 70
     0
300
8:1
140
8.0
141
1.0
290
     0
  0
SCALE
  5
50
102
{ACAD_REACTORS
330
40
102
}
330
40
100
AcDbScale
 70
     0
300
10:1
140
10.0
141
1.0
290
     0
  0
SCALE
  5
51
102
{ACAD_REACTORS
330
40
102
}
330
40
100
AcDbScale
 70
     0
300
100:1
140
100.0
141
1.0
290
     0
  0
SCALE
  5
52
102
{ACAD_REACTORS
330
40
102
}
330
40
100
AcDbScale
 70
     0
300
1/128" = 1'-0"
140
0.0078125
141
12.0
290
     0
  0
SCALE
  5
53
102
{ACAD_REACTORS
330
40
102
}
330
40
100
AcDbScale
 70
     0
300
1/64" = 1'-0"
140
0.015625
141
12.0
290
     0
  0
SCALE
  5
54
102
{ACAD_REACTORS
330
40
102
}
330
40
100
AcDbScale
 70
     0
300
1/32" = 1'-0"
140
0.03125
141
12.0
290
     0
  0
SCALE
  5
55
102
{ACAD_REACTORS
330
40
102
}
330
40
100
AcDbScale
 70
     0
300
1/16" = 1'-0"
140
0.0625
141
12.0
290
     0
  0
SCALE
  5
56
102
{ACAD_REACTORS
330
40
102
}
330
40
100
AcDbScale
 70
     0
300
3/32" = 1'-0"
140
0.09375
141
12.0
290
     0
  0
SCALE
  5
57
102
{ACAD_REACTORS
330
40
102
}
330
40
100
AcDbScale
 70
     0
300
1/8" = 1'-0"
140
0.125
141
12.0
290
     0
  0
SCALE
  5
58
102
{ACAD_REACTORS
330
40
102
}
330
40
100
AcDbScale
 70
     0
300
3/16" = 1'-0"
140
0.1875
141
12.0
290
     0
  0
SCALE
  5
59
102
{ACAD_REACTORS
330
40
102
}
330
40
100
AcDbScale
 70
     0
300
1/4" = 1'-0"
140
0.25
141
12.0
290
     0
  0
SCALE
  5
5A
102
{ACAD_REACTORS
330
40
102
}
330
40
100
AcDbScale
 70
     0
300
3/8" = 1'-0"
140
0.375
141
12.0
290
     0
  0
SCALE
  5
5B
102
{ACAD_REACTORS
330
40
102
}
330
40
100
AcDbScale
 70
     0
300
1/2" = 1'-0"
140
0.5
141
12.0
290
     0
  0
SCALE
  5
5C
102
{ACAD_REACTORS
330
40
102
}
330
40
100
AcDbScale
 70
     0
300
3/4" = 1'-0"
140
0.75
141
12.0
290
     0
  0
SCALE
  5
5D
102
{ACAD_REACTORS
330
40
102
}
330
40
100
AcDbScale
 70
     0
300
1" = 1'-0"
140
1.0
141
12.0
290
     0
  0
SCALE
  5
5E
102
{ACAD_REACTORS
330
40
102
}
330
40
100
AcDbScale
 70
     0
300
1-1/2" = 1'-0"
140
1.5
141
12.0
290
     0
  0
SCALE
  5
5F
102
{ACAD_REACTORS
330
40
102
}
330
40
100
AcDbScale
 70
     0
300
3" = 1'-0"
140
3.0
141
12.0
290
     0
  0
SCALE
  5
60
102
{ACAD_REACTORS
330
40
102
}
330
40
100
AcDbScale
 70
     0
300
6" = 1'-0"
140
6.0
141
12.0
290
     0
  0
SCALE
  5
61
102
{ACAD_REACTORS
330
40
102
}
330
40
100
AcDbScale
 70
     0
300
1'-0" = 1'-0"
140
12.0
141
12.0
290
     0
  0
TABLESTYLE
  5
3C
102
{ACAD_REACTORS
330
3B
102
}
102
{ACAD_XDICTIONARY
360
1090
102
}
330
3B
100
AcDbTableStyle
  3
Standard
 70
     0
 71
     0
 40
1.5
 41
1.5
280
     0
281
     0
  7
Standard
140
4.5
170
     2
 62
     0
 63
   257
283
     0
 90
      512
 91
        0
  1

274
    -2
284
     1
 64
     0
275
    -2
285
     1
 65
     0
276
    -2
286
     1
 66
     0
277
    -2
287
     1
 67
     0
278
    -2
288
     1
 68
     0
279
    -2
289
     1
 69
     0
  7
Standard
140
6.0
170
     5
 62
     0
 63
   257
283
     0
 90
      512
 91
        0
  1

274
    -2
284
     1
 64
     0
275
    -2
285
     1
 65
     0
276
    -2
286
     1
 66
     0
277
    -2
287
     1
 67
     0
278
    -2
288
     1
 68
     0
279
    -2
289
     1
 69
     0
  7
Standard
140
4.5
170
     5
 62
     0
 63
   257
283
     0
 90
      512
 91
        0
  1

274
    -2
284
     1
 64
     0
275
    -2
285
     1
 65
     0
276
    -2
286
     1
 66
     0
277
    -2
287
     1
 67
     0
278
    -2
288
     1
 68
     0
279
    -2
289
     1
 69
     0
  0
VISUALSTYLE
  5
2F
102
{ACAD_REACTORS
330
2A
102
}
330
2A
100
AcDbVisualStyle
  2
2dWireframe
 70
     4
177
     3
291
     0
 70
    58
 90
        0
176
     1
 90
        2
176
     1
 90
        0
176
     1
 90
        0
176
     1
 40
0.6
176
     1
 40
30.0
176
     1
 62
     7
420
 16777215
176
     1
 90
        1
176
     1
 90
        4
176
     1
 62
     7
176
     1
 62
   257
176
     1
 90
        1
176
     1
 90
        1
176
     1
 40
1.0
176
     1
 90
        0
176
     1
 62
   257
176
     1
 40
1.0
176
     1
 90
        1
176
     1
 90
        6
176
     1
 90
        2
176
     1
 62
     7
176
     1
 90
        5
176
     1
 90
        0
176
     1
 90
        0
176
     1
290
     0
176
     1
 90
        1
176
     1
 40
0.0
176
     1
 90
        0
176
     1
290
     1
176
     1
290
     1
176
     1
290
     0
176
     1
290
     0
176
     1
290
     0
176
     1
290
     0
176
     1
290
     0
176
     1
290
     0
176
     1
290
     0
176
     1
 90
       50
176
     1
 40
0.0
176
     1
 40
1.0
176
     1
 90
        0
176
     1
 62
    18
420
        0
176
     1
 90
       50
176
     1
 90
        3
176
     1
 62
     5
420
      255
176
     1
290
     0
176
     1
 90
       50
176
     1
 90
       50
176
     1
 90
       50
176
     1
290
     0
176
     1
 90
       50
176
     1
 62
   256
176
     0
 40
1.0
176
     0
 90
        2
176
     1
  1
strokes_ogs.tif
176
     1
290
     0
176
     1
 40
1.0
176
     1
 40
1.0
176
     1
  0
VISUALSTYLE
  5
32
102
{ACAD_REACTORS
330
2A
102
}
330
2A
100
AcDbVisualStyle
  2
Basic
 70
     7
177
     3
291
     1
 70
    58
 90
        1
176
     1
 90
        0
176
     1
 90
        1
176
     1
 90
        0
176
     1
 40
0.6
176
     1
 40
30.0
176
     1
 62
     7
420
 16777215
176
     1
 90
        0
176
     1
 90
        4
176
     1
 62
     7
176
     1
 62
   257
176
     1
 90
        1
176
     1
 90
        1
176
     1
 40
1.0
176
     1
 90
        8
176
     1
 62
     7
176
     1
 40
1.0
176
     1
 90
        1
176
     1
 90
        6
176
     1
 90
        2
176
     1
 62
     7
176
     1
 90
        5
176
     1
 90
        0
176
     1
 90
        0
176
     1
290
     0
176
     1
 90
        1
176
     1
 40
0.0
176
     1
 90
        0
176
     1
290
     0
176
     1
290
     1
176
     1
290
     1
176
     1
290
     0
176
     1
290
     0
176
     1
290
     0
176
     1
290
     0
176
     1
290
     0
176
     1
290
     0
176
     1
 90
       50
176
     1
 40
0.0
176
     1
 40
1.0
176
     1
 90
        0
176
     1
 62
    18
420
        0
176
     1
 90
       50
176
     1
 90
        3
176
     1
 62
     5
420
      255
176
     1
290
     0
176
     1
 90
       50
176
     1
 90
       50
176
     1
 90
       50
176
     1
290
     0
176
     1
 90
       50
176
     1
 62
   256
176
     0
 40
1.0
176
     0
 90
        2
176
     1
  1
strokes_ogs.tif
176
     1
290
     0
176
     1
 40
1.0
176
     1
 40
1.0
176
     1
  0
VISUALSTYLE
  5
36
102
{ACAD_REACTORS
330
2A
102
}
330
2A
100
AcDbVisualStyle
  2
Brighten
 70
    12
177
     3
291
     1
 70
    58
 90
        2
176
     1
 90
        2
176
     1
 90
        0
176
     1
 90
        0
176
     1
 40
0.6
176
     1
 40
30.0
176
     1
 62
     7
420
 16777215
176
     1
 90
        1
176
     1
 90
        4
176
     1
 62
     7
176
     1
 62
   257
176
     1
 90
        1
176
     1
 90
        1
176
     1
 40
1.0
176
     1
 90
        8
176
     1
 62
     7
176
     1
 40
1.0
176
     1
 90
        1
176
     1
 90
        6
176
     1
 90
        2
176
     1
 62
     7
176
     1
 90
        5
176
     1
 90
        0
176
     1
 90
        0
176
     1
290
     0
176
     1
 90
        1
176
     1
 40
50.0
176
     1
 90
        0
176
     1
290
     0
176
     1
290
     1
176
     1
290
     1
176
     1
290
     0
176
     1
290
     0
176
     1
290
     0
176
     1
290
     0
176
     1
290
     0
176
     1
290
     0
176
     1
 90
       50
176
     1
 40
0.0
176
     1
 40
1.0
176
     1
 90
        0
176
     1
 62
    18
420
        0
176
     1
 90
       50
176
     1
 90
        3
176
     1
 62
     5
420
      255
176
     1
290
     0
176
     1
 90
       50
176
     1
 90
       50
176
     1
 90
       50
176
     1
290
     0
176
     1
 90
       50
176
     1
 62
   256
176
     0
 40
1.0
176
     0
 90
        2
176
     1
  1
strokes_ogs.tif
176
     1
290
     0
176
     1
 40
1.0
176
     1
 40
1.0
176
     1
  0
VISUALSTYLE
  5
3A
102
{ACAD_REACTORS
330
2A
102
}
330
2A
100
AcDbVisualStyle
  2
ColorChange
 70
    16
177
     3
291
     1
 70
    58
 90
        2
176
     1
 90
        2
176
     1
 90
        3
176
     1
 90
        0
176
     1
 40
0.6
176
     1
 40
30.0
176
     1
 62
     8
420
  8421504
176
     1
 90
        1
176
     1
 90
        4
176
     1
 62
     7
176
     1
 62
   257
176
     1
 90
        1
176
     1
 90
        1
176
     1
 40
1.0
176
     1
 90
        8
176
     1
 62
     8
420
  8421504
176
     1
 40
1.0
176
     1
 90
        1
176
     1
 90
        6
176
     1
 90
        2
176
     1
 62
     7
176
     1
 90
        5
176
     1
 90
        0
176
     1
 90
        0
176
     1
290
     0
176
     1
 90
        1
176
     1
 40
0.0
176
     1
 90
        0
176
     1
290
     0
176
     1
290
     1
176
     1
290
     1
176
     1
290
     0
176
     1
290
     0
176
     1
290
     0
176
     1
290
     0
176
     1
290
     0
176
     1
290
     0
176
     1
 90
       50
176
     1
 40
0.0
176
     1
 40
1.0
176
     1
 90
        0
176
     1
 62
    18
420
        0
176
     1
 90
       50
176
     1
 90
        3
176
     1
 62
     5
420
      255
176
     1
290
     0
176
     1
 90
       50
176
     1
 90
       50
176
     1
 90
       50
176
     1
290
     0
176
     1
 90
       50
176
     1
 62
   256
176
     0
 40
1.0
176
     0
 90
        2
176
     1
  1
strokes_ogs.tif
176
     1
290
     0
176
     1
 40
1.0
176
     1
 40
1.0
176
     1
  0
VISUALSTYLE
  5
34
102
{ACAD_REACTORS
330
2A
102
}
330
2A
100
AcDbVisualStyle
  2
Conceptual
 70
     9
177
     3
291
     0
 70
    58
 90
        3
176
     1
 90
        2
176
     1
 90
        0
176
     1
 90
        0
176
     1
 40
0.6
176
     1
 40
30.0
176
     1
 62
     7
420
 16777215
176
     1
 90
        2
176
     1
 90
        2
176
     1
 62
     7
176
     1
 62
   257
176
     1
 90
        1
176
     1
 90
        1
176
     1
 40
179.0
176
     1
 90
        8
176
     1
 62
     7
176
     1
 40
1.0
176
     1
 90
        1
176
     1
 90
        6
176
     1
 90
        2
176
     1
 62
     7
176
     1
 90
        3
176
     1
 90
        0
176
     1
 90
        0
176
     1
290
     0
176
     1
 90
        1
176
     1
 40
0.0
176
     1
 90
        0
176
     1
290
     0
176
     1
290
     1
176
     1
290
     1
176
     1
290
     0
176
     1
290
     0
176
     1
290
     0
176
     1
290
     0
176
     1
290
     0
176
     1
290
     0
176
     1
 90
       50
176
     1
 40
0.0
176
     1
 40
1.0
176
     1
 90
        0
176
     1
 62
    18
420
        0
176
     1
 90
       50
176
     1
 90
        3
176
     1
 62
     5
420
      255
176
     1
290
     0
176
     1
 90
       50
176
     1
 90
       50
176
     1
 90
       50
176
     1
290
     0
176
     1
 90
       50
176
     1
 62
   256
176
     0
 40
1.0
176
     0
 90
        2
176
     1
  1
strokes_ogs.tif
176
     1
290
     0
176
     1
 40
1.0
176
     1
 40
1.0
176
     1
  0
VISUALSTYLE
  5
35
102
{ACAD_REACTORS
330
2A
102
}
330
2A
100
AcDbVisualStyle
  2
Dim
 70
    11
177
     3
291
     1
 70
    58
 90
        2
176
     1
 90
        2
176
     1
 90
        0
176
     1
 90
        0
176
     1
 40
0.6
176
     1
 40
30.0
176
     1
 62
     7
420
 16777215
176
     1
 90
        1
176
     1
 90
        4
176
     1
 62
     7
176
     1
 62
   257
176
     1
 90
        1
176
     1
 90
        1
176
     1
 40
1.0
176
     1
 90
        8
176
     1
 62
     7
176
     1
 40
1.0
176
     1
 90
        1
176
     1
 90
        6
176
     1
 90
        2
176
     1
 62
     7
176
     1
 90
        5
176
     1
 90
        0
176
     1
 90
        0
176
     1
290
     0
176
     1
 90
        1
176
     1
 40
-50.0
176
     1
 90
        0
176
     1
290
     0
176
     1
290
     1
176
     1
290
     1
176
     1
290
     0
176
     1
290
     0
176
     1
290
     0
176
     1
290
     0
176
     1
290
     0
176
     1
290
     0
176
     1
 90
       50
176
     1
 40
0.0
176
     1
 40
1.0
176
     1
 90
        0
176
     1
 62
    18
420
        0
176
     1
 90
       50
176
     1
 90
        3
176
     1
 62
     5
420
      255
176
     1
290
     0
176
     1
 90
       50
176
     1
 90
       50
176
     1
 90
       50
176
     1
290
     0
176
     1
 90
       50
176
     1
 62
   256
176
     0
 40
1.0
176
     0
 90
        2
176
     1
  1
strokes_ogs.tif
176
     1
290
     0
176
     1
 40
1.0
176
     1
 40
1.0
176
     1
  0
VISUALSTYLE
  5
7A
102
{ACAD_REACTORS
330
2A
102
}
330
2A
100
AcDbVisualStyle
  2
EdgeColorOff
 70
    22
177
     3
291
     1
 70
    58
 90
        2
176
     0
 90
        2
176
     0
 90
        0
176
     0
 90
        0
176
     0
 40
0.6
176
     0
 40
30.0
176
     0
 62
     7
420
 16777215
176
     0
 90
        1
176
     0
 90
        4
176
     0
 62
     7
176
     0
 62
   257
176
     0
 90
        1
176
     0
 90
        1
176
     0
 40
1.0
176
     0
 90
        8
176
     2
 62
     7
176
     0
 40
1.0
176
     0
 90
        1
176
     0
 90
        6
176
     0
 90
        2
176
     0
 62
     7
176
     0
 90
        5
176
     0
 90
        0
176
     0
 90
        0
176
     0
290
     0
176
     0
 90
        1
176
     0
 40
0.0
176
     0
 90
        0
176
     0
290
     0
176
     0
290
     1
176
     0
290
     1
176
     0
290
     0
176
     0
290
     0
176
     0
290
     0
176
     0
290
     0
176
     0
290
     0
176
     0
290
     0
176
     0
 90
       50
176
     0
 40
0.0
176
     0
 40
1.0
176
     0
 90
        0
176
     0
 62
    18
420
        0
176
     0
 90
       50
176
     0
 90
        3
176
     0
 62
     5
420
      255
176
     0
290
     0
176
     0
 90
       50
176
     0
 90
       50
176
     0
 90
       50
176
     0
290
     0
176
     0
 90
       50
176
     0
 62
   256
176
     0
 40
1.0
176
     0
 90
        2
176
     0
  1
strokes_ogs.tif
176
     0
290
     0
176
     0
 40
1.0
176
     0
 40
1.0
176
     0
  0
VISUALSTYLE
  5
39
102
{ACAD_REACTORS
330
2A
102
}
330
2A
100
AcDbVisualStyle
  2
Facepattern
 70
    15
177
     3
291
     1
 70
    58
 90
        2
176
     1
 90
        2
176
     1
 90
        0
176
     1
 90
        0
176
     1
 40
0.6
176
     1
 40
30.0
176
     1
 62
     7
420
 16777215
176
     1
 90
        1
176
     1
 90
        4
176
     1
 62
     7
176
     1
 62
   257
176
     1
 90
        1
176
     1
 90
        1
176
     1
 40
1.0
176
     1
 90
        8
176
     1
 62
     7
176
     1
 40
1.0
176
     1
 90
        1
176
     1
 90
        6
176
     1
 90
        2
176
     1
 62
     7
176
     1
 90
        5
176
     1
 90
        0
176
     1
 90
        0
176
     1
290
     0
176
     1
 90
        1
176
     1
 40
0.0
176
     1
 90
        0
176
     1
290
     0
176
     1
290
     1
176
     1
290
     1
176
     1
290
     0
176
     1
290
     0
176
     1
290
     0
176
     1
290
     0
176
     1
290
     0
176
     1
290
     0
176
     1
 90
       50
176
     1
 40
0.0
176
     1
 40
1.0
176
     1
 90
        0
176
     1
 62
    18
420
        0
176
     1
 90
       50
176
     1
 90
        3
176
     1
 62
     5
420
      255
176
     1
290
     0
176
     1
 90
       50
176
     1
 90
       50
176
     1
 90
       50
176
     1
290
     0
176
     1
 90
       50
176
     1
 62
   256
176
     0
 40
1.0
176
     0
 90
        2
176
     1
  1
strokes_ogs.tif
176
     1
290
     0
176
     1
 40
1.0
176
     1
 40
1.0
176
     1
  0
VISUALSTYLE
  5
2B
102
{ACAD_REACTORS
330
2A
102
}
330
2A
100
AcDbVisualStyle
  2
Flat
 70
     0
177
     3
291
     1
 70
    58
 90
        2
176
     1
 90
        1
176
     1
 90
        1
176
     1
 90
        2
176
     1
 40
0.6
176
     1
 40
30.0
176
     1
 62
     7
420
 16777215
176
     1
 90
        0
176
     1
 90
        0
176
     1
 62
     7
176
     1
 62
   257
176
     1
 90
        1
176
     1
 90
        1
176
     1
 40
1.0
176
     1
 90
        8
176
     1
 62
     7
176
     1
 40
1.0
176
     1
 90
        1
176
     1
 90
        6
176
     1
 90
        2
176
     1
 62
     7
176
     1
 90
        5
176
     1
 90
        0
176
     1
 90
        0
176
     1
290
     0
176
     1
 90
       13
176
     1
 40
0.0
176
     1
 90
        0
176
     1
290
     0
176
     1
290
     1
176
     1
290
     1
176
     1
290
     0
176
     1
290
     0
176
     1
290
     0
176
     1
290
     0
176
     1
290
     0
176
     1
290
     0
176
     1
 90
       50
176
     1
 40
0.0
176
     1
 40
1.0
176
     1
 90
        0
176
     1
 62
    18
420
        0
176
     1
 90
       50
176
     1
 90
        3
176
     1
 62
     5
420
      255
176
     1
290
     0
176
     1
 90
       50
176
     1
 90
       50
176
     1
 90
       50
176
     1
290
     0
176
     1
 90
       50
176
     1
 62
   256
176
     0
 40
1.0
176
     0
 90
        2
176
     1
  1
strokes_ogs.tif
176
     1
290
     0
176
     1
 40
1.0
176
     1
 40
1.0
176
     1
  0
VISUALSTYLE
  5
2C
102
{ACAD_REACTORS
330
2A
102
}
330
2A
100
AcDbVisualStyle
  2
FlatWithEdges
 70
     1
177
     3
291
     1
 70
    58
 90
        2
176
     1
 90
        1
176
     1
 90
        1
176
     1
 90
        2
176
     1
 40
0.6
176
     1
 40
30.0
176
     1
 62
     7
420
 16777215
176
     1
 90
        1
176
     1
 90
        0
176
     1
 62
     7
176
     1
 62
   257
176
     1
 90
        1
176
     1
 90
        1
176
     1
 40
1.0
176
     1
 90
        0
176
     1
 62
   257
176
     1
 40
1.0
176
     1
 90
        1
176
     1
 90
        6
176
     1
 90
        2
176
     1
 62
     7
176
     1
 90
        5
176
     1
 90
        0
176
     1
 90
        0
176
     1
290
     0
176
     1
 90
       13
176
     1
 40
0.0
176
     1
 90
        0
176
     1
290
     0
176
     1
290
     1
176
     1
290
     1
176
     1
290
     0
176
     1
290
     0
176
     1
290
     0
176
     1
290
     0
176
     1
290
     0
176
     1
290
     0
176
     1
 90
       50
176
     1
 40
0.0
176
     1
 40
1.0
176
     1
 90
        0
176
     1
 62
    18
420
        0
176
     1
 90
       50
176
     1
 90
        3
176
     1
 62
     5
420
      255
176
     1
290
     0
176
     1
 90
       50
176
     1
 90
       50
176
     1
 90
       50
176
     1
290
     0
176
     1
 90
       50
176
     1
 62
   256
176
     0
 40
1.0
176
     0
 90
        2
176
     1
  1
strokes_ogs.tif
176
     1
290
     0
176
     1
 40
1.0
176
     1
 40
1.0
176
     1
  0
VISUALSTYLE
  5
2D
102
{ACAD_REACTORS
330
2A
102
}
330
2A
100
AcDbVisualStyle
  2
Gouraud
 70
     2
177
     3
291
     1
 70
    58
 90
        2
176
     1
 90
        2
176
     1
 90
        1
176
     1
 90
        2
176
     1
 40
0.6
176
     1
 40
30.0
176
     1
 62
     7
420
 16777215
176
     1
 90
        0
176
     1
 90
        0
176
     1
 62
     7
176
     1
 62
   257
176
     1
 90
        1
176
     1
 90
        1
176
     1
 40
1.0
176
     1
 90
        0
176
     1
 62
     7
176
     1
 40
1.0
176
     1
 90
        1
176
     1
 90
        6
176
     1
 90
        2
176
     1
 62
     7
176
     1
 90
        5
176
     1
 90
        0
176
     1
 90
        0
176
     1
290
     0
176
     1
 90
       13
176
     1
 40
0.0
176
     1
 90
        0
176
     1
290
     0
176
     1
290
     1
176
     1
290
     1
176
     1
290
     0
176
     1
290
     0
176
     1
290
     0
176
     1
290
     0
176
     1
290
     0
176
     1
290
     0
176
     1
 90
       50
176
     1
 40
0.0
176
     1
 40
1.0
176
     1
 90
        0
176
     1
 62
    18
420
        0
176
     1
 90
       50
176
     1
 90
        3
176
     1
 62
     5
420
      255
176
     1
290
     0
176
     1
 90
       50
176
     1
 90
       50
176
     1
 90
       50
176
     1
290
     0
176
     1
 90
       50
176
     1
 62
   256
176
     0
 40
1.0
176
     0
 90
        2
176
     1
  1
strokes_ogs.tif
176
     1
290
     0
176
     1
 40
1.0
176
     1
 40
1.0
176
     1
  0
VISUALSTYLE
  5
2E
102
{ACAD_REACTORS
330
2A
102
}
330
2A
100
AcDbVisualStyle
  2
GouraudWithEdges
 70
     3
177
     3
291
     1
 70
    58
 90
        2
176
     1
 90
        2
176
     1
 90
        1
176
     1
 90
        2
176
     1
 40
0.6
176
     1
 40
30.0
176
     1
 62
     7
420
 16777215
176
     1
 90
        1
176
     1
 90
        0
176
     1
 62
     7
176
     1
 62
   257
176
     1
 90
        1
176
     1
 90
        1
176
     1
 40
1.0
176
     1
 90
        0
176
     1
 62
   257
176
     1
 40
1.0
176
     1
 90
        1
176
     1
 90
        6
176
     1
 90
        2
176
     1
 62
     7
176
     1
 90
        5
176
     1
 90
        0
176
     1
 90
        0
176
     1
290
     0
176
     1
 90
       13
176
     1
 40
0.0
176
     1
 90
        0
176
     1
290
     0
176
     1
290
     1
176
     1
290
     1
176
     1
290
     0
176
     1
290
     0
176
     1
290
     0
176
     1
290
     0
176
     1
290
     0
176
     1
290
     0
176
     1
 90
       50
176
     1
 40
0.0
176
     1
 40
1.0
176
     1
 90
        0
176
     1
 62
    18
420
        0
176
     1
 90
       50
176
     1
 90
        3
176
     1
 62
     5
420
      255
176
     1
290
     0
176
     1
 90
       50
176
     1
 90
       50
176
     1
 90
       50
176
     1
290
     0
176
     1
 90
       50
176
     1
 62
   256
176
     0
 40
1.0
176
     0
 90
        2
176
     1
  1
strokes_ogs.tif
176
     1
290
     0
176
     1
 40
1.0
176
     1
 40
1.0
176
     1
  0
VISUALSTYLE
  5
77
102
{ACAD_REACTORS
330
2A
102
}
330
2A
100
AcDbVisualStyle
  2
Hidden
 70
     6
177
     3
291
     0
 70
    58
 90
        1
176
     1
 90
        2
176
     1
 90
        2
176
     1
 90
        0
176
     1
 40
0.6
176
     1
 40
30.0
176
     1
 62
     7
420
 16777215
176
     1
 90
        2
176
     1
 90
        2
176
     1
 62
     7
176
     1
 62
   257
176
     1
 90
        2
176
     1
 90
        1
176
     1
 40
40.0
176
     1
 90
        0
176
     1
 62
   257
176
     1
 40
1.0
176
     1
 90
        1
176
     1
 90
        6
176
     1
 90
        2
176
     1
 62
     7
176
     1
 90
        3
176
     1
 90
        0
176
     1
 90
        0
176
     1
290
     0
176
     1
 90
        1
176
     1
 40
0.0
176
     1
 90
        0
176
     1
290
     0
176
     1
290
     1
176
     1
290
     1
176
     1
290
     0
176
     1
290
     0
176
     1
290
     0
176
     1
290
     0
176
     1
290
     0
176
     1
290
     0
176
     1
 90
       50
176
     1
 40
0.0
176
     1
 40
1.0
176
     1
 90
        0
176
     1
 62
    18
420
        0
176
     1
 90
       50
176
     1
 90
        3
176
     1
 62
     5
420
      255
176
     1
290
     0
176
     1
 90
       50
176
     1
 90
       50
176
     1
 90
       50
176
     1
290
     0
176
     1
 90
       50
176
     1
 62
   256
176
     0
 40
1.0
176
     0
 90
        2
176
     1
  1
strokes_ogs.tif
176
     1
290
     0
176
     1
 40
1.0
176
     1
 40
1.0
176
     1
  0
VISUALSTYLE
  5
78
102
{ACAD_REACTORS
330
2A
102
}
330
2A
100
AcDbVisualStyle
  2
JitterOff
 70
    20
177
     3
291
     1
 70
    58
 90
        2
176
     0
 90
        2
176
     0
 90
        0
176
     0
 90
        0
176
     0
 40
0.6
176
     0
 40
30.0
176
     0
 62
     7
420
 16777215
176
     0
 90
        1
176
     0
 90
        4
176
     0
 62
     7
176
     0
 62
   257
176
     0
 90
        1
176
     0
 90
        1
176
     0
 40
1.0
176
     0
 90
       10
176
     2
 62
     7
176
     0
 40
1.0
176
     0
 90
        1
176
     0
 90
        6
176
     0
 90
        2
176
     0
 62
     7
176
     0
 90
        5
176
     0
 90
        0
176
     0
 90
        0
176
     0
290
     0
176
     0
 90
        1
176
     0
 40
0.0
176
     0
 90
        0
176
     0
290
     0
176
     0
290
     1
176
     0
290
     1
176
     0
290
     0
176
     0
290
     0
176
     0
290
     0
176
     0
290
     0
176
     0
290
     0
176
     0
290
     0
176
     0
 90
       50
176
     0
 40
0.0
176
     0
 40
1.0
176
     0
 90
        0
176
     0
 62
    18
420
        0
176
     0
 90
       50
176
     0
 90
        3
176
     0
 62
     5
420
      255
176
     0
290
     0
176
     0
 90
       50
176
     0
 90
       50
176
     0
 90
       50
176
     0
290
     0
176
     0
 90
       50
176
     0
 62
   256
176
     0
 40
1.0
176
     0
 90
        2
176
     0
  1
strokes_ogs.tif
176
     0
290
     0
176
     0
 40
1.0
176
     0
 40
1.0
176
     0
  0
VISUALSTYLE
  5
38
102
{ACAD_REACTORS
330
2A
102
}
330
2A
100
AcDbVisualStyle
  2
Linepattern
 70
    14
177
     3
291
     1
 70
    58
 90
        2
176
     1
 90
        2
176
     1
 90
        0
176
     1
 90
        0
176
     1
 40
0.6
176
     1
 40
30.0
176
     1
 62
     7
420
 16777215
176
     1
 90
        1
176
     1
 90
        4
176
     1
 62
     7
176
     1
 62
   257
176
     1
 90
        7
176
     1
 90
        7
176
     1
 40
1.0
176
     1
 90
        8
176
     1
 62
     7
176
     1
 40
1.0
176
     1
 90
        1
176
     1
 90
        6
176
     1
 90
        2
176
     1
 62
     7
176
     1
 90
        5
176
     1
 90
        0
176
     1
 90
        0
176
     1
290
     0
176
     1
 90
        1
176
     1
 40
0.0
176
     1
 90
        0
176
     1
290
     0
176
     1
290
     1
176
     1
290
     1
176
     1
290
     0
176
     1
290
     0
176
     1
290
     0
176
     1
290
     0
176
     1
290
     0
176
     1
290
     0
176
     1
 90
       50
176
     1
 40
0.0
176
     1
 40
1.0
176
     1
 90
        0
176
     1
 62
    18
420
        0
176
     1
 90
       50
176
     1
 90
        3
176
     1
 62
     5
420
      255
176
     1
290
     0
176
     1
 90
       50
176
     1
 90
       50
176
     1
 90
       50
176
     1
290
     0
176
     1
 90
       50
176
     1
 62
   256
176
     0
 40
1.0
176
     0
 90
        2
176
     1
  1
strokes_ogs.tif
176
     1
290
     0
176
     1
 40
1.0
176
     1
 40
1.0
176
     1
  0
VISUALSTYLE
  5
79
102
{ACAD_REACTORS
330
2A
102
}
330
2A
100
AcDbVisualStyle
  2
OverhangOff
 70
    21
177
     3
291
     1
 70
    58
 90
        2
176
     0
 90
        2
176
     0
 90
        0
176
     0
 90
        0
176
     0
 40
0.6
176
     0
 40
30.0
176
     0
 62
     7
420
 16777215
176
     0
 90
        1
176
     0
 90
        4
176
     0
 62
     7
176
     0
 62
   257
176
     0
 90
        1
176
     0
 90
        1
176
     0
 40
1.0
176
     0
 90
        9
176
     2
 62
     7
176
     0
 40
1.0
176
     0
 90
        1
176
     0
 90
        6
176
     0
 90
        2
176
     0
 62
     7
176
     0
 90
        5
176
     0
 90
        0
176
     0
 90
        0
176
     0
290
     0
176
     0
 90
        1
176
     0
 40
0.0
176
     0
 90
        0
176
     0
290
     0
176
     0
290
     1
176
     0
290
     1
176
     0
290
     0
176
     0
290
     0
176
     0
290
     0
176
     0
290
     0
176
     0
290
     0
176
     0
290
     0
176
     0
 90
       50
176
     0
 40
0.0
176
     0
 40
1.0
176
     0
 90
        0
176
     0
 62
    18
420
        0
176
     0
 90
       50
176
     0
 90
        3
176
     0
 62
     5
420
      255
176
     0
290
     0
176
     0
 90
       50
176
     0
 90
       50
176
     0
 90
       50
176
     0
290
     0
176
     0
 90
       50
176
     0
 62
   256
176
     0
 40
1.0
176
     0
 90
        2
176
     0
  1
strokes_ogs.tif
176
     0
290
     0
176
     0
 40
1.0
176
     0
 40
1.0
176
     0
  0
VISUALSTYLE
  5
33
102
{ACAD_REACTORS
330
2A
102
}
330
2A
100
AcDbVisualStyle
  2
Realistic
 70
     8
177
     3
291
     0
 70
    58
 90
        2
176
     1
 90
        3
176
     1
 90
        0
176
     1
 90
        2
176
     1
 40
0.6
176
     1
 40
30.0
176
     1
 62
     7
420
 16777215
176
     1
 90
        0
176
     1
 90
        0
176
     1
 62
     7
176
     1
 62
   257
176
     1
 90
        1
176
     1
 90
        1
176
     1
 40
1.0
176
     1
 90
        8
176
     1
 62
   257
176
     1
 40
1.0
176
     1
 90
        1
176
     1
 90
        6
176
     1
 90
        2
176
     1
 62
     7
176
     1
 90
        3
176
     1
 90
        0
176
     1
 90
        0
176
     1
290
     0
176
     1
 90
       13
176
     1
 40
0.0
176
     1
 90
        0
176
     1
290
     0
176
     1
290
     1
176
     1
290
     1
176
     1
290
     0
176
     1
290
     0
176
     1
290
     0
176
     1
290
     0
176
     1
290
     0
176
     1
290
     0
176
     1
 90
       50
176
     1
 40
0.0
176
     1
 40
1.0
176
     1
 90
        0
176
     1
 62
    18
420
        0
176
     1
 90
       50
176
     1
 90
        3
176
     1
 62
     5
420
      255
176
     1
290
     0
176
     1
 90
       50
176
     1
 90
       50
176
     1
 90
       50
176
     1
290
     0
176
     1
 90
       50
176
     1
 62
   256
176
     0
 40
1.0
176
     0
 90
        2
176
     1
  1
strokes_ogs.tif
176
     1
290
     0
176
     1
 40
1.0
176
     1
 40
1.0
176
     1
  0
VISUALSTYLE
  5
7F
102
{ACAD_REACTORS
330
2A
102
}
330
2A
100
AcDbVisualStyle
  2
Shaded
 70
    27
177
     3
291
     0
 70
    58
 90
        2
176
     1
 90
        2
176
     1
 90
        1
176
     1
 90
        2
176
     1
 40
0.6
176
     1
 40
30.0
176
     1
 62
     7
420
 16777215
176
     1
 90
        0
176
     1
 90
        4
176
     1
 62
     7
176
     1
 62
   257
176
     1
 90
        1
176
     1
 90
        1
176
     1
 40
1.0
176
     1
 90
        8
176
     1
 62
   257
176
     1
 40
1.0
176
     1
 90
        1
176
     1
 90
        6
176
     1
 90
        2
176
     1
 62
     8
420
  7895160
176
     1
 90
        3
176
     1
 90
        0
176
     1
 90
        0
176
     1
290
     0
176
     1
 90
        5
176
     1
 40
0.0
176
     1
 90
        0
176
     1
290
     0
176
     1
290
     1
176
     1
290
     1
176
     1
290
     0
176
     1
290
     0
176
     1
290
     0
176
     1
290
     0
176
     1
290
     0
176
     1
290
     0
176
     1
 90
       50
176
     1
 40
0.0
176
     1
 40
1.0
176
     1
 90
        0
176
     1
 62
    18
420
        0
176
     1
 90
       50
176
     1
 90
        3
176
     1
 62
     5
420
      255
176
     1
290
     0
176
     1
 90
       50
176
     1
 90
       50
176
     1
 90
       50
176
     1
290
     0
176
     1
 90
       50
176
     1
 62
   256
176
     0
 40
1.0
176
     0
 90
        2
176
     1
  1
strokes_ogs.tif
176
     1
290
     0
176
     1
 40
1.0
176
     1
 40
1.0
176
     1
  0
VISUALSTYLE
  5
7E
102
{ACAD_REACTORS
330
2A
102
}
330
2A
100
AcDbVisualStyle
  2
Shaded with edges
 70
    26
177
     3
291
     0
 70
    58
 90
        2
176
     1
 90
        2
176
     1
 90
        1
176
     1
 90
        2
176
     1
 40
0.6
176
     1
 40
30.0
176
     1
 62
     7
420
 16777215
176
     1
 90
        1
176
     1
 90
       10
176
     1
 62
     7
176
     1
 62
   257
176
     1
 90
        2
176
     1
 90
        1
176
     1
 40
1.0
176
     1
 90
        8
176
     1
 62
   257
176
     1
 40
1.0
176
     1
 90
        1
176
     1
 90
        6
176
     1
 90
        2
176
     1
 62
     7
176
     1
 90
        3
176
     1
 90
        0
176
     1
 90
        0
176
     1
290
     0
176
     1
 90
        5
176
     1
 40
0.0
176
     1
 90
        0
176
     1
290
     0
176
     1
290
     1
176
     1
290
     1
176
     1
290
     0
176
     1
290
     0
176
     1
290
     0
176
     1
290
     0
176
     1
290
     0
176
     1
290
     0
176
     1
 90
       50
176
     1
 40
0.0
176
     1
 40
1.0
176
     1
 90
        0
176
     1
 62
    18
420
        0
176
     1
 90
       50
176
     1
 90
        3
176
     1
 62
     5
420
      255
176
     1
290
     0
176
     1
 90
       50
176
     1
 90
       50
176
     1
 90
       50
176
     1
290
     0
176
     1
 90
       50
176
     1
 62
   256
176
     0
 40
1.0
176
     0
 90
        2
176
     1
  1
strokes_ogs.tif
176
     1
290
     0
176
     1
 40
1.0
176
     1
 40
1.0
176
     1
  0
VISUALSTYLE
  5
7B
102
{ACAD_REACTORS
330
2A
102
}
330
2A
100
AcDbVisualStyle
  2
Shades of Gray
 70
    23
177
     3
291
     0
 70
    58
 90
        2
176
     1
 90
        2
176
     1
 90
        3
176
     1
 90
        0
176
     1
 40
0.6
176
     1
 40
30.0
176
     1
 62
     7
420
 16777215
176
     1
 90
        2
176
     1
 90
        2
176
     1
 62
     7
176
     1
 62
     7
176
     1
 90
        1
176
     1
 90
        1
176
     1
 40
40.0
176
     1
 90
        8
176
     1
 62
     7
176
     1
 40
1.0
176
     1
 90
        1
176
     1
 90
        6
176
     1
 90
        2
176
     1
 62
     7
176
     1
 90
        3
176
     1
 90
        0
176
     1
 90
        0
176
     1
290
     0
176
     1
 90
        1
176
     1
 40
0.0
176
     1
 90
        0
176
     1
290
     0
176
     1
290
     1
176
     1
290
     1
176
     1
290
     0
176
     1
290
     0
176
     1
290
     0
176
     1
290
     0
176
     1
290
     0
176
     1
290
     0
176
     1
 90
       50
176
     1
 40
0.0
176
     1
 40
1.0
176
     1
 90
        0
176
     1
 62
    18
420
        0
176
     1
 90
       50
176
     1
 90
        3
176
     1
 62
     5
420
      255
176
     1
290
     0
176
     1
 90
       50
176
     1
 90
       50
176
     1
 90
       50
176
     1
290
     0
176
     1
 90
       50
176
     1
 62
   256
176
     0
 40
1.0
176
     0
 90
        2
176
     1
  1
strokes_ogs.tif
176
     1
290
     0
176
     1
 40
1.0
176
     1
 40
1.0
176
     1
  0
VISUALSTYLE
  5
7C
102
{ACAD_REACTORS
330
2A
102
}
330
2A
100
AcDbVisualStyle
  2
Sketchy
 70
    24
177
     3
291
     0
 70
    58
 90
        1
176
     1
 90
        2
176
     1
 90
        2
176
     1
 90
        0
176
     1
 40
0.6
176
     1
 40
30.0
176
     1
 62
     7
420
 16777215
176
     1
 90
        2
176
     1
 90
        2
176
     1
 62
     7
176
     1
 62
     7
176
     1
 90
        1
176
     1
 90
        1
176
     1
 40
40.0
176
     1
 90
       11
176
     1
 62
     7
176
     1
 40
1.0
176
     1
 90
        1
176
     1
 90
        6
176
     1
 90
        2
176
     1
 62
     7
176
     1
 90
        6
176
     1
 90
        0
176
     1
 90
        0
176
     1
290
     0
176
     1
 90
        1
176
     1
 40
0.0
176
     1
 90
        0
176
     1
290
     0
176
     1
290
     1
176
     1
290
     1
176
     1
290
     0
176
     1
290
     0
176
     1
290
     0
176
     1
290
     0
176
     1
290
     0
176
     1
290
     0
176
     1
 90
       50
176
     1
 40
0.0
176
     1
 40
1.0
176
     1
 90
        0
176
     1
 62
    18
420
        0
176
     1
 90
       50
176
     1
 90
        3
176
     1
 62
     5
420
      255
176
     1
290
     0
176
     1
 90
       50
176
     1
 90
       50
176
     1
 90
       50
176
     1
290
     0
176
     1
 90
       50
176
     1
 62
   256
176
     0
 40
1.0
176
     0
 90
        2
176
     1
  1
strokes_ogs.tif
176
     1
290
     0
176
     1
 40
1.0
176
     1
 40
1.0
176
     1
  0
VISUALSTYLE
  5
37
102
{ACAD_REACTORS
330
2A
102
}
330
2A
100
AcDbVisualStyle
  2
Thicken
 70
    13
177
     3
291
     1
 70
    58
 90
        2
176
     1
 90
        2
176
     1
 90
        0
176
     1
 90
        0
176
     1
 40
0.6
176
     1
 40
30.0
176
     1
 62
     7
420
 16777215
176
     1
 90
        1
176
     1
 90
        4
176
     1
 62
     7
176
     1
 62
   257
176
     1
 90
        1
176
     1
 90
        1
176
     1
 40
1.0
176
     1
 90
       12
176
     1
 62
     7
176
     1
 40
1.0
176
     1
 90
        1
176
     1
 90
        6
176
     1
 90
        2
176
     1
 62
     7
176
     1
 90
        5
176
     1
 90
        0
176
     1
 90
        0
176
     1
290
     0
176
     1
 90
        1
176
     1
 40
0.0
176
     1
 90
        0
176
     1
290
     0
176
     1
290
     1
176
     1
290
     1
176
     1
290
     0
176
     1
290
     0
176
     1
290
     0
176
     1
290
     0
176
     1
290
     0
176
     1
290
     0
176
     1
 90
       50
176
     1
 40
0.0
176
     1
 40
1.0
176
     1
 90
        0
176
     1
 62
    18
420
        0
176
     1
 90
       50
176
     1
 90
        3
176
     1
 62
     5
420
      255
176
     1
290
     0
176
     1
 90
       50
176
     1
 90
       50
176
     1
 90
       50
176
     1
290
     0
176
     1
 90
       50
176
     1
 62
   256
176
     0
 40
1.0
176
     0
 90
        2
176
     1
  1
strokes_ogs.tif
176
     1
290
     0
176
     1
 40
1.0
176
     1
 40
1.0
176
     1
  0
VISUALSTYLE
  5
76
102
{ACAD_REACTORS
330
2A
102
}
330
2A
100
AcDbVisualStyle
  2
Wireframe
 70
     5
177
     3
291
     0
 70
    58
 90
        0
176
     1
 90
        2
176
     1
 90
        0
176
     1
 90
        0
176
     1
 40
0.6
176
     1
 40
30.0
176
     1
 62
     7
420
 16777215
176
     1
 90
        1
176
     1
 90
        4
176
     1
 62
     7
176
     1
 62
   257
176
     1
 90
        1
176
     1
 90
        1
176
     1
 40
1.0
176
     1
 90
        0
176
     1
 62
   257
176
     1
 40
1.0
176
     1
 90
        1
176
     1
 90
        6
176
     1
 90
        2
176
     1
 62
     7
176
     1
 90
        3
176
     1
 90
        0
176
     1
 90
        0
176
     1
290
     0
176
     1
 90
        1
176
     1
 40
0.0
176
     1
 90
        0
176
     1
290
     0
176
     1
290
     1
176
     1
290
     1
176
     1
290
     0
176
     1
290
     0
176
     1
290
     0
176
     1
290
     0
176
     1
290
     0
176
     1
290
     0
176
     1
 90
       50
176
     1
 40
0.0
176
     1
 40
1.0
176
     1
 90
        0
176
     1
 62
    18
420
        0
176
     1
 90
       50
176
     1
 90
        3
176
     1
 62
     5
420
      255
176
     1
290
     0
176
     1
 90
       50
176
     1
 90
       50
176
     1
 90
       50
176
     1
290
     0
176
     1
 90
       50
176
     1
 62
   256
176
     0
 40
1.0
176
     0
 90
        2
176
     1
  1
strokes_ogs.tif
176
     1
290
     0
176
     1
 40
1.0
176
     1
 40
1.0
176
     1
  0
VISUALSTYLE
  5
7D
102
{ACAD_REACTORS
330
2A
102
}
330
2A
100
AcDbVisualStyle
  2
X-Ray
 70
    25
177
     3
291
     0
 70
    58
 90
        2
176
     1
 90
        2
176
     1
 90
        1
176
     1
 90
        1
176
     1
 40
0.5
176
     1
 40
30.0
176
     1
 62
     7
420
 16777215
176
     1
 90
        1
176
     1
 90
        0
176
     1
 62
     7
176
     1
 62
   257
176
     1
 90
        1
176
     1
 90
        1
176
     1
 40
1.0
176
     1
 90
        8
176
     1
 62
     7
176
     1
 40
1.0
176
     1
 90
        1
176
     1
 90
        6
176
     1
 90
        2
176
     1
 62
     7
176
     1
 90
        3
176
     1
 90
        0
176
     1
 90
        0
176
     1
290
     0
176
     1
 90
       13
176
     1
 40
0.0
176
     1
 90
        0
176
     1
290
     0
176
     1
290
     1
176
     1
290
     1
176
     1
290
     0
176
     1
290
     0
176
     1
290
     0
176
     1
290
     0
176
     1
290
     0
176
     1
290
     0
176
     1
 90
       50
176
     1
 40
0.0
176
     1
 40
1.0
176
     1
 90
        0
176
     1
 62
    18
420
        0
176
     1
 90
       50
176
     1
 90
        3
176
     1
 62
     5
420
      255
176
     1
290
     0
176
     1
 90
       50
176
     1
 90
       50
176
     1
 90
       50
176
     1
290
     0
176
     1
 90
       50
176
     1
 62
   256
176
     0
 40
1.0
176
     0
 90
        2
176
     1
  1
strokes_ogs.tif
176
     1
290
     0
176
     1
 40
1.0
176
     1
 40
1.0
176
     1
  0
DICTIONARYVAR
  5
62
102
{ACAD_REACTORS
330
3D
102
}
330
3D
100
DictionaryVariables
280
     0
  1
1:1
  0
DICTIONARYVAR
  5
BB
102
{ACAD_REACTORS
330
3D
102
}
330
3D
100
DictionaryVariables
280
     0
  1
Standard
  0
DICTIONARYVAR
  5
3E
102
{ACAD_REACTORS
330
3D
102
}
330
3D
100
DictionaryVariables
280
     0
  1
Standard
  0
DICTIONARYVAR
  5
6F
102
{ACAD_REACTORS
330
3D
102
}
330
3D
100
DictionaryVariables
280
     0
  1
0
  0
DICTIONARYVAR
  5
70
102
{ACAD_REACTORS
330
3D
102
}
330
3D
100
DictionaryVariables
280
     0
  1
0
  0
DICTIONARY
  5
1090
330
3C
100
AcDbDictionary
280
     1
281
     1
  3
ACAD_ROUNDTRIP_2008_TABLESTYLE_CELLSTYLEMAP
360
1091
  0
CELLSTYLEMAP
  5
1091
102
{ACAD_REACTORS
330
1090
102
}
330
1090
100
AcDbCellStyleMap
 90
        3
300
CELLSTYLE
  1
TABLEFORMAT_BEGIN
 90
        5
170
     1
 91
        0
 92
    32768
 62
   257
 93
        1
300
CONTENTFORMAT
  1
CONTENTFORMAT_BEGIN
 90
        0
 91
        0
 92
      512
 93
        0
300

 40
0.0
140
1.0
 94
        5
 62
     0
340
11
144
6.0
309
CONTENTFORMAT_END
171
     1
301
MARGIN
  1
CELLMARGIN_BEGIN
 40
1.5
 40
1.5
 40
1.5
 40
1.5
 40
0.18
 40
0.18
309
CELLMARGIN_END
 94
        6
 95
        1
302
GRIDFORMAT
  1
GRIDFORMAT_BEGIN
 90
        0
 91
        1
 62
     0
 92
       -2
340
0
 93
        0
 40
0.045
309
GRIDFORMAT_END
 95
        2
302
GRIDFORMAT
  1
GRIDFORMAT_BEGIN
 90
        0
 91
        1
 62
     0
 92
       -2
340
0
 93
        0
 40
0.045
309
GRIDFORMAT_END
 95
        4
302
GRIDFORMAT
  1
GRIDFORMAT_BEGIN
 90
        0
 91
        1
 62
     0
 92
       -2
340
0
 93
        0
 40
0.045
309
GRIDFORMAT_END
 95
        8
302
GRIDFORMAT
  1
GRIDFORMAT_BEGIN
 90
        0
 91
        1
 62
     0
 92
       -2
340
0
 93
        0
 40
0.045
309
GRIDFORMAT_END
 95
       16
302
GRIDFORMAT
  1
GRIDFORMAT_BEGIN
 90
        0
 91
        1
 62
     0
 92
       -2
340
0
 93
        0
 40
0.045
309
GRIDFORMAT_END
 95
       32
302
GRIDFORMAT
  1
GRIDFORMAT_BEGIN
 90
        0
 91
        1
 62
     0
 92
       -2
340
0
 93
        0
 40
0.045
309
GRIDFORMAT_END
309
TABLEFORMAT_END
  1
CELLSTYLE_BEGIN
 90
        1
 91
        1
300
_TITLE
309
CELLSTYLE_END
300
CELLSTYLE
  1
TABLEFORMAT_BEGIN
 90
        5
170
     1
 91
        0
 92
        0
 62
   257
 93
        1
300
CONTENTFORMAT
  1
CONTENTFORMAT_BEGIN
 90
        0
 91
        0
 92
      512
 93
        0
300

 40
0.0
140
1.0
 94
        5
 62
     0
340
11
144
4.5
309
CONTENTFORMAT_END
171
     1
301
MARGIN
  1
CELLMARGIN_BEGIN
 40
1.5
 40
1.5
 40
1.5
 40
1.5
 40
0.18
 40
0.18
309
CELLMARGIN_END
 94
        6
 95
        1
302
GRIDFORMAT
  1
GRIDFORMAT_BEGIN
 90
        0
 91
        1
 62
     0
 92
       -2
340
0
 93
        0
 40
0.045
309
GRIDFORMAT_END
 95
        2
302
GRIDFORMAT
  1
GRIDFORMAT_BEGIN
 90
        0
 91
        1
 62
     0
 92
       -2
340
0
 93
        0
 40
0.045
309
GRIDFORMAT_END
 95
        4
302
GRIDFORMAT
  1
GRIDFORMAT_BEGIN
 90
        0
 91
        1
 62
     0
 92
       -2
340
0
 93
        0
 40
0.045
309
GRIDFORMAT_END
 95
        8
302
GRIDFORMAT
  1
GRIDFORMAT_BEGIN
 90
        0
 91
        1
 62
     0
 92
       -2
340
0
 93
        0
 40
0.045
309
GRIDFORMAT_END
 95
       16
302
GRIDFORMAT
  1
GRIDFORMAT_BEGIN
 90
        0
 91
        1
 62
     0
 92
       -2
340
0
 93
        0
 40
0.045
309
GRIDFORMAT_END
 95
       32
302
GRIDFORMAT
  1
GRIDFORMAT_BEGIN
 90
        0
 91
        1
 62
     0
 92
       -2
340
0
 93
        0
 40
0.045
309
GRIDFORMAT_END
309
TABLEFORMAT_END
  1
CELLSTYLE_BEGIN
 90
        2
 91
        1
300
_HEADER
309
CELLSTYLE_END
300
CELLSTYLE
  1
TABLEFORMAT_BEGIN
 90
        5
170
     1
 91
        0
 92
        0
 62
   257
 93
        1
300
CONTENTFORMAT
  1
CONTENTFORMAT_BEGIN
 90
        0
 91
        0
 92
      512
 93
        0
300

 40
0.0
140
1.0
 94
        2
 62
     0
340
11
144
4.5
309
CONTENTFORMAT_END
171
     1
301
MARGIN
  1
CELLMARGIN_BEGIN
 40
1.5
 40
1.5
 40
1.5
 40
1.5
 40
0.18
 40
0.18
309
CELLMARGIN_END
 94
        6
 95
        1
302
GRIDFORMAT
  1
GRIDFORMAT_BEGIN
 90
        0
 91
        1
 62
     0
 92
       -2
340
0
 93
        0
 40
0.045
309
GRIDFORMAT_END
 95
        2
302
GRIDFORMAT
  1
GRIDFORMAT_BEGIN
 90
        0
 91
        1
 62
     0
 92
       -2
340
0
 93
        0
 40
0.045
309
GRIDFORMAT_END
 95
        4
302
GRIDFORMAT
  1
GRIDFORMAT_BEGIN
 90
        0
 91
        1
 62
     0
 92
       -2
340
0
 93
        0
 40
0.045
309
GRIDFORMAT_END
 95
        8
302
GRIDFORMAT
  1
GRIDFORMAT_BEGIN
 90
        0
 91
        1
 62
     0
 92
       -2
340
0
 93
        0
 40
0.045
309
GRIDFORMAT_END
 95
       16
302
GRIDFORMAT
  1
GRIDFORMAT_BEGIN
 90
        0
 91
        1
 62
     0
 92
       -2
340
0
 93
        0
 40
0.045
309
GRIDFORMAT_END
 95
       32
302
GRIDFORMAT
  1
GRIDFORMAT_BEGIN
 90
        0
 91
        1
 62
     0
 92
       -2
340
0
 93
        0
 40
0.045
309
GRIDFORMAT_END
309
TABLEFORMAT_END
  1
CELLSTYLE_BEGIN
 90
        3
 91
        2
300
_DATA
309
CELLSTYLE_END
  0
ENDSEC
  0
EOF
