999
DXF file: 3112-4166c.dxf
999
Pro/ENGINEER 2016260 by Parametric Technology Corporation
  0
SECTION
  2
HEADER
  9
$ACADVER
  1
AC1027
  9
$DWGCODEPAGE
  3
ANSI_1252
  9
$EXTMAX
 10
210.0
 20
297.0
 30
0.0
  9
$EXTMIN
 10
0.0
 20
0.0
 30
0.0
  9
$LIMMIN
 10
0.0
 20
0.0
  9
$LIMMAX
 10
210.0
 20
297.0
  9
$VIEWCTR
 10
105.0
 20
148.5
  9
$VIEWSIZE
 40
297.0
  9
$CLAYER
  8
0
  9
$LTSCALE
 40
19.36
  9
$CELTYPE
  6
BYLAYER
  9
$DIMSCALE
 40
1.0
  9
$DIMASZ
 40
4.76
  9
$DIMEXO
 40
0.1
  9
$DIMDLI
 40
13.376
  9
$DIMEXE
 40
1.0
  9
$DIMCEN
 40
3.168
  9
$DIMLFAC
 40
1.0
  9
$DIMBLK
  1
_FILLED
  9
$DIMALT
 70
0
  9
$DIMALTF
 40
25.4
  9
$DIMTXT
 40
3.0
  9
$DIMTOL
 70
1
  9
$DIMLIM
 70
0
  9
$DIMTFAC
 40
1.0
  9
$DIMTP
 40
0.001
  9
$DIMTM
 40
0.001
  9
$DIMGAP
 40
0.625
  9
$DIMDSEP
 70
46
  9
$AUNITS
 70
0
  9
$PDMODE
 70
3
  9
$PDSIZE
 40
0.3125
  9
$HANDSEED
  5
2BB
  9
$TILEMODE
 70
1
  9
$MEASUREMENT
 70
1
  9
$INSUNITS
 70
4
  0
ENDSEC
  0
SECTION
  2
CLASSES
  0
CLASS
  1
ACDBDICTIONARYWDFLT
  2
AcDbDictionaryWithDefault
  3
AutoCAD 2000
 90
0
 91
1
280
0
281
0
  0
CLASS
  1
ACDBPLACEHOLDER
  2
AcDbPlaceHolder
  3
AutoCAD 2000
 90
0
 91
1
280
0
281
0
  0
CLASS
  1
LAYOUT
  2
AcDbLayout
  3
AutoCAD 2000
 90
0
 91
0
280
0
281
0
  0
ENDSEC
  0
SECTION
  2
TABLES
  0
TABLE
  2
VPORT
  5
8
100
AcDbSymbolTable
 70
2
  0
VPORT
  5
1F4
100
AcDbSymbolTableRecord
100
AcDbViewportTableRecord
  2
*ACTIVE
 70
0
 10
0.0
 20
0.0
 11
1.0
 21
1.0
 12
105.0
 22
148.5
 13
0.0
 23
0.0
 14
1.0
 24
1.0
 15
0.0
 25
0.0
 16
0.0
 26
0.0
 36
1.0
 17
0.0
 27
0.0
 37
0.0
 40
297.0
 41
0.7070707071
 42
50.0
 43
0.0
 44
0.0
 50
0.0
 51
0.0
 71
0
 72
100
 73
1
 74
1
 75
0
 76
0
 77
0
 78
0
  0
ENDTAB
  0
TABLE
  2
LTYPE
  5
5
100
AcDbSymbolTable
 70
6
  0
LTYPE
  5
14
100
AcDbSymbolTableRecord
100
AcDbLinetypeTableRecord
  2
BYBLOCK
 70
0
  3

 72
65
 73
0
 40
0.0
  0
LTYPE
  5
15
100
AcDbSymbolTableRecord
100
AcDbLinetypeTableRecord
  2
BYLAYER
 70
0
  3

 72
65
 73
0
 40
0.0
  0
LTYPE
  5
16
100
AcDbSymbolTableRecord
100
AcDbLinetypeTableRecord
  2
CONTINUOUS
 70
64
  3
Solid line
 72
65
 73
0
 40
0.0
  0
LTYPE
  5
1F5
100
AcDbSymbolTableRecord
100
AcDbLinetypeTableRecord
  2
CENTER
 70
64
  3
____ _ ____ _ ____ _ ____ _ ____ _ ____ _ ____
 72
65
 73
4
 40
0.6
 49
0.375
 74
0
 49
-0.075
 74
0
 49
0.075
 74
0
 49
-0.075
 74
0
  0
LTYPE
  5
1F6
100
AcDbSymbolTableRecord
100
AcDbLinetypeTableRecord
  2
HIDDEN
 70
64
  3
- - - - - - - - - - - - - - - - - - - -
 72
65
 73
2
 40
0.2
 49
0.1
 74
0
 49
-0.1
 74
0
  0
LTYPE
  5
1F7
100
AcDbSymbolTableRecord
100
AcDbLinetypeTableRecord
  2
PHANTOM
 70
64
  3
_____ _ _ _____ _ _ _____ _ _ _____
 72
65
 73
6
 40
0.8
 49
0.45
 74
0
 49
-0.05
 74
0
 49
0.1
 74
0
 49
-0.05
 74
0
 49
0.1
 74
0
 49
-0.05
 74
0
  0
LTYPE
  5
1F8
100
AcDbSymbolTableRecord
100
AcDbLinetypeTableRecord
  2
DOT
 70
64
  3
. . . . . . . . . . . . . . . . . . . .
 72
65
 73
2
 40
0.2
 49
0.1
 74
0
 49
-0.1
 74
0
  0
LTYPE
  5
1F9
100
AcDbSymbolTableRecord
100
AcDbLinetypeTableRecord
  2
DASHED
 70
64
  3
- - - - - - - - - - - - - - - - - - - -
 72
65
 73
2
 40
0.2
 49
0.1
 74
0
 49
-0.1
 74
0
  0
ENDTAB
  0
TABLE
  2
LAYER
  5
2
100
AcDbSymbolTable
 70
36
  0
LAYER
  5
10
100
AcDbSymbolTableRecord
100
AcDbLayerTableRecord
  2
0
 70
0
 62
7
  6
CONTINUOUS
370
-3
390
F
  0
LAYER
  5
1FA
100
AcDbSymbolTableRecord
100
AcDbLayerTableRecord
  2
DEFAULT_1
 70
0
 62
7
  6
CENTER
370
-3
390
F
  0
LAYER
  5
1FB
100
AcDbSymbolTableRecord
100
AcDbLayerTableRecord
  2
DEFAULT_2
 70
0
 62
8
  6
HIDDEN
370
-3
390
F
  0
LAYER
  5
1FC
100
AcDbSymbolTableRecord
100
AcDbLayerTableRecord
  2
DEFAULT_3
 70
0
 62
7
  6
PHANTOM
370
-3
390
F
  0
LAYER
  5
1FD
100
AcDbSymbolTableRecord
100
AcDbLayerTableRecord
  2
0_COMPONENTS
 70
0
 62
7
  6
CONTINUOUS
370
-3
390
F
  0
LAYER
  5
1FE
100
AcDbSymbolTableRecord
100
AcDbLayerTableRecord
  2
1_ALL_PLANES
 70
0
 62
7
  6
CONTINUOUS
370
-3
390
F
  0
LAYER
  5
1FF
100
AcDbSymbolTableRecord
100
AcDbLayerTableRecord
  2
1__DEF_ASM_PLN
 70
0
 62
7
  6
CONTINUOUS
370
-3
390
F
  0
LAYER
  5
200
100
AcDbSymbolTableRecord
100
AcDbLayerTableRecord
  2
1__DEF_PLANES
 70
0
 62
7
  6
CONTINUOUS
370
-3
390
F
  0
LAYER
  5
201
100
AcDbSymbolTableRecord
100
AcDbLayerTableRecord
  2
2_ALL_CSYS
 70
0
 62
7
  6
CONTINUOUS
370
-3
390
F
  0
LAYER
  5
202
100
AcDbSymbolTableRecord
100
AcDbLayerTableRecord
  2
2__DEF_ASM_CSYS
 70
0
 62
7
  6
CONTINUOUS
370
-3
390
F
  0
LAYER
  5
203
100
AcDbSymbolTableRecord
100
AcDbLayerTableRecord
  2
2__DEF_CSYS
 70
0
 62
7
  6
CONTINUOUS
370
-3
390
F
  0
LAYER
  5
204
100
AcDbSymbolTableRecord
100
AcDbLayerTableRecord
  2
3_ALL_AXES
 70
0
 62
7
  6
CONTINUOUS
370
-3
390
F
  0
LAYER
  5
205
100
AcDbSymbolTableRecord
100
AcDbLayerTableRecord
  2
4_ALL_POINTS
 70
0
 62
7
  6
CONTINUOUS
370
-3
390
F
  0
LAYER
  5
206
100
AcDbSymbolTableRecord
100
AcDbLayerTableRecord
  2
5_ALL_CURVES
 70
0
 62
7
  6
CONTINUOUS
370
-3
390
F
  0
LAYER
  5
207
100
AcDbSymbolTableRecord
100
AcDbLayerTableRecord
  2
5_ALL_GTOLS(FREE)
 70
0
 62
7
  6
CONTINUOUS
370
-3
390
F
  0
LAYER
  5
208
100
AcDbSymbolTableRecord
100
AcDbLayerTableRecord
  2
6_ALL_SURFS
 70
0
 62
7
  6
CONTINUOUS
370
-3
390
F
  0
LAYER
  5
209
100
AcDbSymbolTableRecord
100
AcDbLayerTableRecord
  2
CURVE
 70
0
 62
7
  6
CONTINUOUS
370
-3
390
F
  0
LAYER
  5
20A
100
AcDbSymbolTableRecord
100
AcDbLayerTableRecord
  2
PIANI
 70
0
 62
7
  6
CONTINUOUS
370
-3
390
F
  0
ENDTAB
  0
TABLE
  2
STYLE
  5
3
100
AcDbSymbolTable
 70
1
  0
STYLE
  5
11
100
AcDbSymbolTableRecord
100
AcDbTextStyleTableRecord
  2
STANDARD
 70
0
 40
0.0
 41
1.2
 50
0.0
 71
0
 42
0.2
  3
txt
  4

  0
STYLE
  5
20B
100
AcDbSymbolTableRecord
100
AcDbTextStyleTableRecord
  2
TEXTSTYLE_1
 70
0
 40
0.0
 41
0.8
 50
0.0
 71
0
 42
0.2
  3
gdt
  4

  0
STYLE
  5
20C
100
AcDbSymbolTableRecord
100
AcDbTextStyleTableRecord
  2
TEXTSTYLE_2
 70
0
 40
0.0
 41
1.2
 50
0.0
 71
0
 42
0.2
  3
gdt
  4

  0
ENDTAB
  0
TABLE
  2
VIEW
  5
6
100
AcDbSymbolTable
 70
0
  0
ENDTAB
  0
TABLE
  2
UCS
  5
7
100
AcDbSymbolTable
 70
0
  0
ENDTAB
  0
TABLE
  2
APPID
  5
9
100
AcDbSymbolTable
 70
1
  0
APPID
  5
20D
100
AcDbSymbolTableRecord
100
AcDbRegAppTableRecord
  2
ACAD
 70
0
  0
ENDTAB
  0
TABLE
  2
BLOCK_RECORD
  5
1
100
AcDbSymbolTable
 70
0
  0
BLOCK_RECORD
  5
20E
100
AcDbSymbolTableRecord
100
AcDbBlockTableRecord
  2
*Model_Space
  0
BLOCK_RECORD
  5
20F
100
AcDbSymbolTableRecord
100
AcDbBlockTableRecord
  2
*Paper_Space
  0
BLOCK_RECORD
  5
210
100
AcDbSymbolTableRecord
100
AcDbBlockTableRecord
  2
_FILLED
  0
BLOCK_RECORD
  5
211
100
AcDbSymbolTableRecord
100
AcDbBlockTableRecord
  2
*D0
  0
BLOCK_RECORD
  5
212
100
AcDbSymbolTableRecord
100
AcDbBlockTableRecord
  2
*D1
  0
BLOCK_RECORD
  5
213
100
AcDbSymbolTableRecord
100
AcDbBlockTableRecord
  2
*D2
  0
BLOCK_RECORD
  5
214
100
AcDbSymbolTableRecord
100
AcDbBlockTableRecord
  2
*D3
  0
BLOCK_RECORD
  5
215
100
AcDbSymbolTableRecord
100
AcDbBlockTableRecord
  2
*D4
  0
ENDTAB
  0
TABLE
  2
DIMSTYLE
  5
A
100
AcDbSymbolTable
 70
1
100
AcDbDimStyleTable
 71
0
  0
DIMSTYLE
105
216
100
AcDbSymbolTableRecord
100
AcDbDimStyleTableRecord
  2
STANDARD
 70
0
  3

  4

 40
1.0
 41
4.76
 42
0.1
 43
0.38
 44
1.0
 45
0.0
 46
0.0
 47
0.001
 48
0.001
140
3.0
141
0.09
142
0.0
143
25.4
144
1.0
145
0.0
146
1.0
147
0.625
 71
1.0
 72
0.0
 73
0
 74
0
 75
0
 76
0
 77
1
 78
8
170
0
171
2
172
0
173
0
174
0
175
0
176
0
177
0
178
7
270
2
271
3
272
3
273
2
274
2
275
0
280
0
281
0
282
0
283
1
284
8
285
0
286
0
287
3
288
0
340
11
278
46
341
210
342
210
343
210
344
210
  0
DIMSTYLE
105
217
100
AcDbSymbolTableRecord
100
AcDbDimStyleTableRecord
  2
DIMSTYLE_1
 70
0
  3

  4

 40
1.0
 41
4.76
 42
0.1
 43
0.38
 44
1.0
 45
0.0
 46
0.0
 47
0.01
 48
0.01
140
3.0
141
0.09
142
0.0
143
25.4
144
1.0
145
0.0
146
1.0
147
0.75
 71
0.0
 72
0.0
 73
0
 74
0
 75
0
 76
0
 77
1
 78
8
170
0
171
2
172
0
173
0
174
0
175
0
176
0
177
0
178
7
270
2
271
3
272
3
273
2
274
2
275
0
280
0
281
0
282
0
283
1
284
8
285
0
286
0
287
3
288
0
340
11
278
46
341
210
342
210
343
210
344
210
  0
ENDTAB
  0
ENDSEC
  0
SECTION
  2
BLOCKS
  0
BLOCK
  5
20
100
AcDbEntity
  8
0
100
AcDbBlockBegin
  2
*Model_Space
 70
0
 10
0.0
 20
0.0
 30
0.0
  3
*Model_Space
  1

  0
ENDBLK
  5
21
100
AcDbEntity
  8
0
100
AcDbBlockEnd
  0
BLOCK
  5
1C
100
AcDbEntity
  8
0
100
AcDbBlockBegin
  2
*Paper_Space
 70
0
 10
0.0
 20
0.0
 30
0.0
  3
*Paper_Space
  1

  0
ENDBLK
  5
1D
100
AcDbEntity
  8
0
100
AcDbBlockEnd
  0
BLOCK
  5
218
100
AcDbEntity
  8
0
100
AcDbBlockBegin
  2
_FILLED
 70
64
 10
0.0
 20
0.0
  3
_FILLED
  1

  0
SOLID
  5
219
100
AcDbEntity
  8
0
  6
BYBLOCK
 62
0
100
AcDbTrace
 10
0.0
 20
0.0
 11
-1.0
 21
0.1050420168
 12
-1.0
 22
-0.1050420168
 13
-1.0
 23
-0.1050420168
  0
ENDBLK
  5
21A
100
AcDbEntity
  8
0
  6
BYBLOCK
 62
0
100
AcDbBlockEnd
  0
BLOCK
  5
21B
100
AcDbEntity
  8
0
100
AcDbBlockBegin
 62
7
  6
CONTINUOUS
  2
*D0
 70
65
 10
0.0
 20
0.0
  3
*D0
  1

  0
MTEXT
  5
21C
100
AcDbEntity
  8
0
100
AcDbMText
 62
7
  6
CONTINUOUS
  7
STANDARD
 71
2
 72
1
 10
136.003607398
 20
130.2237767499
 30
0.0
 11
0.0
 21
1.0
 31
0.0
 44
0.9
  1
10.5
 40
3.0
 41
11.8928571429
  0
LINE
  5
21D
100
AcDbEntity
  8
0
100
AcDbLine
 62
7
  6
CONTINUOUS
 10
116.0190955929
 20
124.5667897024
 11
140.753607398
 21
124.5667897024
  0
LINE
  5
21E
100
AcDbEntity
  8
0
100
AcDbLine
 62
7
  6
CONTINUOUS
 10
123.9056107439
 20
135.0667897024
 11
140.753607398
 21
135.0667897024
  0
LINE
  5
21F
100
AcDbEntity
  8
0
100
AcDbLine
 62
7
  6
CONTINUOUS
 10
139.753607398
 20
124.5667897024
 11
139.753607398
 21
116.5667897024
  0
LINE
  5
220
100
AcDbEntity
  8
0
100
AcDbLine
 62
7
  6
CONTINUOUS
 10
139.753607398
 20
116.5667897024
 11
139.753607398
 21
129.8167897024
  0
LINE
  5
221
100
AcDbEntity
  8
0
100
AcDbLine
 62
7
  6
CONTINUOUS
 10
139.753607398
 20
135.0667897024
 11
139.753607398
 21
143.0667897024
  0
LINE
  5
222
100
AcDbEntity
  8
0
100
AcDbLine
 62
7
  6
CONTINUOUS
 10
139.753607398
 20
143.0667897024
 11
139.753607398
 21
129.8167897024
  0
INSERT
  5
223
100
AcDbEntity
  8
0
100
AcDbBlockReference
 62
7
  6
CONTINUOUS
  2
_FILLED
 10
139.753607398
 20
124.5667897024
 41
4.76
 42
4.76
 43
4.76
 50
90.0
  0
INSERT
  5
224
100
AcDbEntity
  8
0
100
AcDbBlockReference
 62
7
  6
CONTINUOUS
  2
_FILLED
 10
139.753607398
 20
135.0667897024
 41
4.76
 42
4.76
 43
4.76
 50
270.0
  0
ENDBLK
  5
225
100
AcDbEntity
  8
0
  6
BYBLOCK
 62
0
100
AcDbBlockEnd
  0
BLOCK
  5
226
100
AcDbEntity
  8
0
100
AcDbBlockBegin
 62
7
  6
CONTINUOUS
  2
*D1
 70
65
 10
0.0
 20
0.0
  3
*D1
  1

  0
MTEXT
  5
227
100
AcDbEntity
  8
0
100
AcDbMText
 62
7
  6
CONTINUOUS
  7
STANDARD
 71
2
 72
1
 10
136.02260188
 20
146.1320516435
 30
0.0
 11
0.0
 21
1.0
 31
0.0
 44
0.9
  1
35
 40
3.0
 41
6.4285714286
  0
LINE
  5
228
100
AcDbEntity
  8
0
100
AcDbLine
 62
7
  6
CONTINUOUS
 10
116.8190955929
 20
170.0667897024
 11
140.77260188
 21
170.0667897024
  0
LINE
  5
229
100
AcDbEntity
  8
0
100
AcDbLine
 62
7
  6
CONTINUOUS
 10
125.4190955929
 20
135.0667897024
 11
140.77260188
 21
135.0667897024
  0
LINE
  5
22A
100
AcDbEntity
  8
0
100
AcDbLine
 62
7
  6
CONTINUOUS
 10
139.77260188
 20
170.0667897024
 11
139.77260188
 21
152.5667897024
  0
LINE
  5
22B
100
AcDbEntity
  8
0
100
AcDbLine
 62
7
  6
CONTINUOUS
 10
139.77260188
 20
135.0667897024
 11
139.77260188
 21
152.5667897024
  0
INSERT
  5
22C
100
AcDbEntity
  8
0
100
AcDbBlockReference
 62
7
  6
CONTINUOUS
  2
_FILLED
 10
139.77260188
 20
170.0667897024
 41
4.76
 42
4.76
 43
4.76
 50
90.0
  0
INSERT
  5
22D
100
AcDbEntity
  8
0
100
AcDbBlockReference
 62
7
  6
CONTINUOUS
  2
_FILLED
 10
139.77260188
 20
135.0667897024
 41
4.76
 42
4.76
 43
4.76
 50
270.0
  0
ENDBLK
  5
22E
100
AcDbEntity
  8
0
  6
BYBLOCK
 62
0
100
AcDbBlockEnd
  0
BLOCK
  5
22F
100
AcDbEntity
  8
0
100
AcDbBlockBegin
 62
7
  6
CONTINUOUS
  2
*D2
 70
65
 10
0.0
 20
0.0
  3
*D2
  1

  0
MTEXT
  5
230
100
AcDbEntity
  8
0
100
AcDbMText
 62
7
  6
CONTINUOUS
  7
TEXTSTYLE_2
 71
2
 72
1
 10
102.6669488665
 20
189.637510696
 30
0.0
 11
1.0
 21
0.0
 31
0.0
 44
0.9
  1
{\Fgdt;n}\Ftxt;31
 40
3.0
 41
11.7857142857
  0
LINE
  5
231
100
AcDbEntity
  8
0
100
AcDbLine
 62
7
  6
CONTINUOUS
 10
118.9190955929
 20
159.9044546616
 11
118.9190955929
 21
186.887510696
  0
LINE
  5
232
100
AcDbEntity
  8
0
100
AcDbLine
 62
7
  6
CONTINUOUS
 10
87.9190955929
 20
159.9044546616
 11
87.9190955929
 21
186.887510696
  0
LINE
  5
233
100
AcDbEntity
  8
0
100
AcDbLine
 62
7
  6
CONTINUOUS
 10
118.9190955929
 20
185.887510696
 11
103.4190955929
 21
185.887510696
  0
LINE
  5
234
100
AcDbEntity
  8
0
100
AcDbLine
 62
7
  6
CONTINUOUS
 10
87.9190955929
 20
185.887510696
 11
103.4190955929
 21
185.887510696
  0
INSERT
  5
235
100
AcDbEntity
  8
0
100
AcDbBlockReference
 62
7
  6
CONTINUOUS
  2
_FILLED
 10
118.9190955929
 20
185.887510696
 41
4.76
 42
4.76
 43
4.76
  0
INSERT
  5
236
100
AcDbEntity
  8
0
100
AcDbBlockReference
 62
7
  6
CONTINUOUS
  2
_FILLED
 10
87.9190955929
 20
185.887510696
 41
4.76
 42
4.76
 43
4.76
 50
180.0
  0
ENDBLK
  5
237
100
AcDbEntity
  8
0
  6
BYBLOCK
 62
0
100
AcDbBlockEnd
  0
BLOCK
  5
238
100
AcDbEntity
  8
0
100
AcDbBlockBegin
 62
7
  6
CONTINUOUS
  2
*D3
 70
65
 10
0.0
 20
0.0
  3
*D3
  1

  0
MTEXT
  5
239
100
AcDbEntity
  8
0
100
AcDbMText
 62
7
  6
CONTINUOUS
  7
TEXTSTYLE_2
 71
2
 72
1
 10
103.7733997585
 20
116.7228941512
 30
0.0
 11
1.0
 21
0.0
 31
0.0
 44
0.9
  1
{\Fgdt;n}\Ftxt;17.78
 40
3.0
 41
21.75
  0
LINE
  5
23A
100
AcDbEntity
  8
0
100
AcDbLine
 62
7
  6
CONTINUOUS
 10
94.5290955929
 20
125.4667897024
 11
94.5290955929
 21
111.9728941512
  0
LINE
  5
23B
100
AcDbEntity
  8
0
100
AcDbLine
 62
7
  6
CONTINUOUS
 10
112.3090955929
 20
125.4667897024
 11
112.3090955929
 21
111.9728941512
  0
LINE
  5
23C
100
AcDbEntity
  8
0
100
AcDbLine
 62
7
  6
CONTINUOUS
 10
94.5290955929
 20
112.9728941512
 11
86.5290955929
 21
112.9728941512
  0
LINE
  5
23D
100
AcDbEntity
  8
0
100
AcDbLine
 62
7
  6
CONTINUOUS
 10
86.5290955929
 20
112.9728941512
 11
103.4190955929
 21
112.9728941512
  0
LINE
  5
23E
100
AcDbEntity
  8
0
100
AcDbLine
 62
7
  6
CONTINUOUS
 10
112.3090955929
 20
112.9728941512
 11
120.3090955929
 21
112.9728941512
  0
LINE
  5
23F
100
AcDbEntity
  8
0
100
AcDbLine
 62
7
  6
CONTINUOUS
 10
120.3090955929
 20
112.9728941512
 11
103.4190955929
 21
112.9728941512
  0
INSERT
  5
240
100
AcDbEntity
  8
0
100
AcDbBlockReference
 62
7
  6
CONTINUOUS
  2
_FILLED
 10
94.5290955929
 20
112.9728941512
 41
4.76
 42
4.76
 43
4.76
  0
INSERT
  5
241
100
AcDbEntity
  8
0
100
AcDbBlockReference
 62
7
  6
CONTINUOUS
  2
_FILLED
 10
112.3090955929
 20
112.9728941512
 41
4.76
 42
4.76
 43
4.76
 50
180.0
  0
ENDBLK
  5
242
100
AcDbEntity
  8
0
  6
BYBLOCK
 62
0
100
AcDbBlockEnd
  0
BLOCK
  5
243
100
AcDbEntity
  8
0
100
AcDbBlockBegin
 62
7
  6
CONTINUOUS
  2
*D4
 70
65
 10
0.0
 20
0.0
  3
*D4
  1

  0
MTEXT
  5
244
100
AcDbEntity
  8
0
100
AcDbMText
 62
7
  6
CONTINUOUS
  7
TEXTSTYLE_2
 71
2
 72
1
 10
103.4190955929
 20
107.197864999
 30
0.0
 11
1.0
 21
0.0
 31
0.0
 44
0.9
  1
{\Fgdt;n}\Ftxt;46.3
 40
3.0
 41
18.8571428571
  0
LINE
  5
245
100
AcDbEntity
  8
0
100
AcDbLine
 62
7
  6
CONTINUOUS
 10
80.2690955929
 20
127.4667897024
 11
80.2690955929
 21
102.447864999
  0
LINE
  5
246
100
AcDbEntity
  8
0
100
AcDbLine
 62
7
  6
CONTINUOUS
 10
126.5690955929
 20
127.4667897024
 11
126.5690955929
 21
102.447864999
  0
LINE
  5
247
100
AcDbEntity
  8
0
100
AcDbLine
 62
7
  6
CONTINUOUS
 10
80.2690955929
 20
103.447864999
 11
103.4190955929
 21
103.447864999
  0
LINE
  5
248
100
AcDbEntity
  8
0
100
AcDbLine
 62
7
  6
CONTINUOUS
 10
126.5690955929
 20
103.447864999
 11
103.4190955929
 21
103.447864999
  0
INSERT
  5
249
100
AcDbEntity
  8
0
100
AcDbBlockReference
 62
7
  6
CONTINUOUS
  2
_FILLED
 10
80.2690955929
 20
103.447864999
 41
4.76
 42
4.76
 43
4.76
 50
180.0
  0
INSERT
  5
24A
100
AcDbEntity
  8
0
100
AcDbBlockReference
 62
7
  6
CONTINUOUS
  2
_FILLED
 10
126.5690955929
 20
103.447864999
 41
4.76
 42
4.76
 43
4.76
  0
ENDBLK
  5
24B
100
AcDbEntity
  8
0
  6
BYBLOCK
 62
0
100
AcDbBlockEnd
  0
ENDSEC
  0
SECTION
  2
ENTITIES
  0
DIMENSION
  5
24C
100
AcDbEntity
  8
0
100
AcDbDimension
 62
7
  6
CONTINUOUS
  2
*D0
 10
139.753607398
 20
135.0667897024
 11
139.753607398
 21
129.7951990673
 70
160
 71
2
 42
10.5
  3
DIMSTYLE_1
100
AcDbAlignedDimension
 13
115.9190955929
 23
124.5667897024
 14
123.8056107439
 24
135.0667897024
 50
90.0
100
AcDbRotatedDimension
  0
DIMENSION
  5
24D
100
AcDbEntity
  8
0
100
AcDbDimension
 62
7
  6
CONTINUOUS
  2
*D1
 10
139.77260188
 20
135.0667897024
 11
139.77260188
 21
145.7034764098
 70
160
 71
2
 42
35.0
  3
DIMSTYLE_1
100
AcDbAlignedDimension
 13
116.7190955929
 23
170.0667897024
 14
125.3190955929
 24
135.0667897024
 50
270.0
100
AcDbRotatedDimension
  0
DIMENSION
  5
24E
100
AcDbEntity
  8
0
100
AcDbDimension
 62
7
  6
CONTINUOUS
  2
*D2
 10
87.9190955929
 20
185.887510696
 11
102.6669488665
 21
185.887510696
 70
160
 71
2
 42
31.0
  1
%%c<>
  3
DIMSTYLE_1
100
AcDbAlignedDimension
 13
118.9190955929
 23
159.8044546616
 14
87.9190955929
 24
159.8044546616
 50
180.0
100
AcDbRotatedDimension
  0
DIMENSION
  5
24F
100
AcDbEntity
  8
0
100
AcDbDimension
 62
7
  6
CONTINUOUS
  2
*D3
 10
112.3090955929
 20
112.9728941512
 11
103.7733997585
 21
112.9728941512
 70
160
 71
2
 42
17.78
  1
%%c<>
  3
DIMSTYLE_1
100
AcDbAlignedDimension
 13
94.5290955929
 23
125.5667897024
 14
112.3090955929
 24
125.5667897024
100
AcDbRotatedDimension
  0
DIMENSION
  5
250
100
AcDbEntity
  8
0
100
AcDbDimension
 62
7
  6
CONTINUOUS
  2
*D4
 10
126.5690955929
 20
103.447864999
 11
103.4190955929
 21
103.447864999
 70
160
 71
2
 42
46.3
  1
%%c<>
  3
DIMSTYLE_1
100
AcDbAlignedDimension
 13
80.2690955929
 23
127.5667897024
 14
126.5690955929
 24
127.5667897024
100
AcDbRotatedDimension
  0
LINE
  5
251
100
AcDbEntity
  8
0
100
AcDbLine
 62
7
  6
CONTINUOUS
 10
0.0
 20
0.0
 11
210.0
 21
0.0
  0
LINE
  5
252
100
AcDbEntity
  8
0
100
AcDbLine
 62
7
  6
CONTINUOUS
 10
0.0
 20
0.0
 11
0.0
 21
297.0
  0
LINE
  5
253
100
AcDbEntity
  8
0
100
AcDbLine
 62
7
  6
CONTINUOUS
 10
210.0
 20
0.0
 11
210.0
 21
297.0
  0
LINE
  5
254
100
AcDbEntity
  8
0
100
AcDbLine
 62
7
  6
CONTINUOUS
 10
0.0
 20
297.0
 11
210.0
 21
297.0
  0
LINE
  5
255
100
AcDbEntity
  8
0
100
AcDbLine
 62
7
  6
CONTINUOUS
 10
90.4190955929
 20
125.0667897024
 11
90.9190955929
 21
124.5667897024
  0
LINE
  5
256
100
AcDbEntity
  8
0
100
AcDbLine
 62
7
  6
CONTINUOUS
 10
80.2690955929
 20
127.5667897024
 11
80.2690955929
 21
132.3354188525
  0
LINE
  5
257
100
AcDbEntity
  8
3_ALL_AXES
100
AcDbLine
 62
7
  6
CONTINUOUS
 10
80.9190955929
 20
134.4667897024
 11
80.9190955929
 21
133.3167897024
  0
LINE
  5
258
100
AcDbEntity
  8
0
100
AcDbLine
 62
7
  6
CONTINUOUS
 10
115.9190955929
 20
124.5667897024
 11
90.9190955929
 21
124.5667897024
  0
LINE
  5
259
100
AcDbEntity
  8
0
100
AcDbLine
 62
7
  6
CONTINUOUS
 10
116.4190955929
 20
125.0667897024
 11
90.4190955929
 21
125.0667897024
  0
LINE
  5
25A
100
AcDbEntity
  8
0
100
AcDbLine
 62
7
  6
CONTINUOUS
 10
82.3893547481
 20
134.4667897024
 11
82.3893547481
 21
133.3167897024
  0
LINE
  5
25B
100
AcDbEntity
  8
3_ALL_AXES
100
AcDbLine
 62
7
  6
CONTINUOUS
 10
83.4190955929
 20
138.3667897024
 11
83.4190955929
 21
135.0667897024
  0
LINE
  5
25C
100
AcDbEntity
  8
0
100
AcDbLine
 62
7
  6
CONTINUOUS
 10
81.2690955929
 20
126.5667897024
 11
125.5690955929
 21
126.5667897024
  0
LINE
  5
25D
100
AcDbEntity
  8
0
100
AcDbLine
 62
7
  6
CONTINUOUS
 10
80.2690955929
 20
127.5667897024
 11
126.5690955929
 21
127.5667897024
  0
LINE
  5
25E
100
AcDbEntity
  8
0
100
AcDbLine
 62
7
  6
CONTINUOUS
 10
85.0887928131
 20
138.3667897024
 11
85.0887928131
 21
135.0667897024
  0
LINE
  5
25F
100
AcDbEntity
  8
3_ALL_AXES
100
AcDbLine
 62
7
  6
CONTINUOUS
 10
87.9190955929
 20
142.3667897024
 11
87.9190955929
 21
159.8044546616
  0
LINE
  5
260
100
AcDbEntity
  8
3_ALL_AXES
100
AcDbLine
 62
7
  6
CONTINUOUS
 10
88.1190955929
 20
168.0667897024
 11
88.1190955929
 21
167.3860516685
  0
LINE
  5
261
100
AcDbEntity
  8
3_ALL_AXES
100
AcDbLine
 62
7
  6
CONTINUOUS
 10
88.2690955929
 20
141.7605719197
 11
88.2690955929
 21
140.2667897024
  0
LINE
  5
262
100
AcDbEntity
  8
0
100
AcDbLine
 62
7
  6
CONTINUOUS
 10
80.2690955929
 20
132.3354188525
 11
126.5690955929
 21
132.3354188525
  0
LINE
  5
263
100
AcDbEntity
  8
3_ALL_AXES
100
AcDbLine
 62
7
  6
CONTINUOUS
 10
87.9190955929
 20
142.3667897024
 11
88.2690955929
 21
141.7605719197
  0
LINE
  5
264
100
AcDbEntity
  8
0
100
AcDbLine
 62
7
  6
CONTINUOUS
 10
90.4190955929
 20
125.0667897024
 11
90.4190955929
 21
126.5667897024
  0
LINE
  5
265
100
AcDbEntity
  8
0
100
AcDbLine
 62
7
  6
CONTINUOUS
 10
80.503410168
 20
132.9011042774
 11
126.3347810179
 21
132.9011042774
  0
LINE
  5
266
100
AcDbEntity
  8
0
100
AcDbLine
 62
7
  6
CONTINUOUS
 10
125.9190955929
 20
133.3167897024
 11
80.9190955929
 21
133.3167897024
  0
LINE
  5
267
100
AcDbEntity
  8
0
100
AcDbLine
 62
7
  6
CONTINUOUS
 10
125.9190955929
 20
134.4667897024
 11
124.4488364377
 21
134.4667897024
  0
LINE
  5
268
100
AcDbEntity
  8
0
100
AcDbLine
 62
7
  6
CONTINUOUS
 10
108.8154901194
 20
134.4667897024
 11
98.0227010664
 21
134.4667897024
  0
LINE
  5
269
100
AcDbEntity
  8
0
100
AcDbLine
 62
7
  6
CONTINUOUS
 10
82.3893547481
 20
134.4667897024
 11
80.9190955929
 21
134.4667897024
  0
LINE
  5
26A
100
AcDbEntity
  8
0
100
AcDbLine
 62
7
  6
CONTINUOUS
 10
81.5201742077
 20
135.0667897024
 11
85.0887928131
 21
135.0667897024
  0
LINE
  5
26B
100
AcDbEntity
  8
0
100
AcDbLine
 62
7
  6
CONTINUOUS
 10
98.5201061982
 20
135.0667897024
 11
108.3180849876
 21
135.0667897024
  0
LINE
  5
26C
100
AcDbEntity
  8
0
100
AcDbLine
 62
7
  6
CONTINUOUS
 10
121.7493983727
 20
135.0667897024
 11
125.3190956544
 21
135.0667897024
  0
LINE
  5
26D
100
AcDbEntity
  8
DEFAULT_2
100
AcDbLine
 62
8
  6
HIDDEN
 10
94.5290955929
 20
142.5667897024
 11
94.5290955929
 21
133.0744764052
  0
LINE
  5
26E
100
AcDbEntity
  8
DEFAULT_2
100
AcDbLine
 62
8
  6
HIDDEN
 10
94.5290955929
 20
131.2805767425
 11
94.5290955929
 21
125.5667897024
  0
LINE
  5
26F
100
AcDbEntity
  8
0
100
AcDbLine
 62
7
  6
CONTINUOUS
 10
123.4190955929
 20
138.3667897024
 11
121.7493983727
 21
138.3667897024
  0
LINE
  5
270
100
AcDbEntity
  8
0
100
AcDbLine
 62
7
  6
CONTINUOUS
 10
85.0887928131
 20
138.3667897024
 11
83.4190955929
 21
138.3667897024
  0
LINE
  5
271
100
AcDbEntity
  8
0
100
AcDbLine
 62
7
  6
CONTINUOUS
 10
84.9192100064
 20
139.8667897024
 11
96.7531150582
 21
139.8667897024
  0
LINE
  5
272
100
AcDbEntity
  8
0
100
AcDbLine
 62
7
  6
CONTINUOUS
 10
110.0850761277
 20
139.8667897024
 11
121.9190810847
 21
139.8667897024
  0
LINE
  5
273
100
AcDbEntity
  8
0
100
AcDbLine
 62
7
  6
CONTINUOUS
 10
88.2690955929
 20
140.2667897024
 11
99.9607722998
 21
140.2667897024
  0
LINE
  5
274
100
AcDbEntity
  8
0
100
AcDbLine
 62
7
  6
CONTINUOUS
 10
106.8774188861
 20
140.2667897024
 11
118.5690955929
 21
140.2667897024
  0
LINE
  5
275
100
AcDbEntity
  8
0
100
AcDbLine
 62
7
  6
CONTINUOUS
 10
98.6559558721
 20
144.0667897024
 11
98.6559558721
 21
142.3667897024
  0
LINE
  5
276
100
AcDbEntity
  8
0
100
AcDbLine
 62
7
  6
CONTINUOUS
 10
80.503410168
 20
132.9011042774
 11
80.9190955929
 21
133.3167897024
  0
LINE
  5
277
100
AcDbEntity
  8
0
100
AcDbLine
 62
7
  6
CONTINUOUS
 10
118.5690955929
 20
141.7605719197
 11
106.8774188861
 21
141.7605719197
  0
LINE
  5
278
100
AcDbEntity
  8
0
100
AcDbLine
 62
7
  6
CONTINUOUS
 10
99.9607722998
 20
141.7605719197
 11
88.2690955929
 21
141.7605719197
  0
LINE
  5
279
100
AcDbEntity
  8
0
100
AcDbLine
 62
7
  6
CONTINUOUS
 10
118.9190955929
 20
142.3667897024
 11
108.1822353137
 21
142.3667897024
  0
LINE
  5
27A
100
AcDbEntity
  8
0
100
AcDbLine
 62
7
  6
CONTINUOUS
 10
98.6559558721
 20
142.3667897024
 11
87.9190955929
 21
142.3667897024
  0
LINE
  5
27B
100
AcDbEntity
  8
0
100
AcDbLine
 62
7
  6
CONTINUOUS
 10
99.9607722998
 20
141.7605719197
 11
99.9607722998
 21
140.2667897024
  0
LINE
  5
27C
100
AcDbEntity
  8
0
100
AcDbLine
 62
7
  6
CONTINUOUS
 10
108.1822353137
 20
144.0667897024
 11
98.6559558721
 21
144.0667897024
  0
LINE
  5
27D
100
AcDbEntity
  8
0
100
AcDbLine
 62
7
  6
CONTINUOUS
 10
106.8774188861
 20
141.7605719197
 11
106.8774188861
 21
140.2667897024
  0
LINE
  5
27E
100
AcDbEntity
  8
0
100
AcDbLine
 62
7
  6
CONTINUOUS
 10
108.1822353137
 20
144.0667897024
 11
108.1822353137
 21
142.3667897024
  0
LINE
  5
27F
100
AcDbEntity
  8
0
100
AcDbLine
 62
7
  6
CONTINUOUS
 10
126.3347810179
 20
132.9011042774
 11
125.9190955929
 21
133.3167897024
  0
LINE
  5
280
100
AcDbEntity
  8
DEFAULT_2
100
AcDbLine
 62
8
  6
HIDDEN
 10
112.3090955929
 20
142.5667897024
 11
112.3090955929
 21
133.0744764052
  0
LINE
  5
281
100
AcDbEntity
  8
DEFAULT_2
100
AcDbLine
 62
8
  6
HIDDEN
 10
112.3090955929
 20
131.2805767425
 11
112.3090955929
 21
125.5667897024
  0
LINE
  5
282
100
AcDbEntity
  8
0
100
AcDbLine
 62
7
  6
CONTINUOUS
 10
116.4190955929
 20
125.0667897024
 11
116.4190955929
 21
126.5667897024
  0
LINE
  5
283
100
AcDbEntity
  8
3_ALL_AXES
100
AcDbLine
 62
7
  6
CONTINUOUS
 10
87.9190955929
 20
159.8044546616
 11
118.9190955929
 21
159.8044546616
  0
LINE
  5
284
100
AcDbEntity
  8
3_ALL_AXES
100
AcDbLine
 62
7
  6
CONTINUOUS
 10
118.5690955929
 20
141.7605719197
 11
118.5690955929
 21
140.2667897024
  0
LINE
  5
285
100
AcDbEntity
  8
3_ALL_AXES
100
AcDbLine
 62
7
  6
CONTINUOUS
 10
118.7190955929
 20
168.0667897024
 11
118.7190955929
 21
167.3860516685
  0
LINE
  5
286
100
AcDbEntity
  8
3_ALL_AXES
100
AcDbLine
 62
7
  6
CONTINUOUS
 10
118.1077748382
 20
161.4128829788
 11
88.7304163476
 21
161.4128829788
  0
LINE
  5
287
100
AcDbEntity
  8
3_ALL_AXES
100
AcDbLine
 62
7
  6
CONTINUOUS
 10
118.9190955929
 20
142.3667897024
 11
118.9190955929
 21
159.8044546616
  0
LINE
  5
288
100
AcDbEntity
  8
3_ALL_AXES
100
AcDbLine
 62
7
  6
CONTINUOUS
 10
118.9190955929
 20
142.3667897024
 11
118.5690955929
 21
141.7605719197
  0
LINE
  5
289
100
AcDbEntity
  8
0
100
AcDbLine
 62
7
  6
CONTINUOUS
 10
121.7493983727
 20
138.3667897024
 11
121.7493983727
 21
135.0667897024
  0
LINE
  5
28A
100
AcDbEntity
  8
3_ALL_AXES
100
AcDbLine
 62
7
  6
CONTINUOUS
 10
118.4625166456
 20
166.949306673
 11
88.3756745403
 21
166.949306673
  0
LINE
  5
28B
100
AcDbEntity
  8
3_ALL_AXES
100
AcDbLine
 62
7
  6
CONTINUOUS
 10
123.4190955929
 20
138.3667897024
 11
123.4190955929
 21
135.0667897024
  0
LINE
  5
28C
100
AcDbEntity
  8
0
100
AcDbLine
 62
7
  6
CONTINUOUS
 10
124.4488364377
 20
134.4667897024
 11
124.4488364377
 21
133.3167897024
  0
LINE
  5
28D
100
AcDbEntity
  8
3_ALL_AXES
100
AcDbLine
 62
7
  6
CONTINUOUS
 10
118.7190955929
 20
167.3860516685
 11
88.1190955929
 21
167.3860516685
  0
LINE
  5
28E
100
AcDbEntity
  8
3_ALL_AXES
100
AcDbLine
 62
7
  6
CONTINUOUS
 10
118.7190955929
 20
168.0667897024
 11
88.1190955929
 21
168.0667897024
  0
LINE
  5
28F
100
AcDbEntity
  8
3_ALL_AXES
100
AcDbLine
 62
7
  6
CONTINUOUS
 10
125.9190955929
 20
134.4667897024
 11
125.9190955929
 21
133.3167897024
  0
LINE
  5
290
100
AcDbEntity
  8
0
100
AcDbLine
 62
7
  6
CONTINUOUS
 10
126.5690955929
 20
127.5667897024
 11
126.5690955929
 21
132.3354188525
  0
LINE
  5
291
100
AcDbEntity
  8
3_ALL_AXES
100
AcDbLine
 62
7
  6
CONTINUOUS
 10
116.7190955929
 20
170.0667897024
 11
90.1190955929
 21
170.0667897024
  0
LINE
  5
292
100
AcDbEntity
  8
0
100
AcDbLine
 62
7
  6
CONTINUOUS
 10
116.4190955929
 20
125.0667897024
 11
115.9190955929
 21
124.5667897024
  0
ARC
  5
293
100
AcDbEntity
  8
0
100
AcDbCircle
 62
7
  6
CONTINUOUS
 10
96.7569289421
 20
237.2215545213
 40
97.3547648937
100
AcDbArc
 50
269.9977554314
 51
271.2922685921
  0
ARC
  5
294
100
AcDbEntity
  8
0
100
AcDbCircle
 62
7
  6
CONTINUOUS
 10
110.0514060252
 20
234.5695681758
 40
94.7027844589
100
AcDbArc
 50
268.6896053527
 51
270.0203706239
  0
ARC
  5
295
100
AcDbEntity
  8
0
100
AcDbCircle
 62
7
  6
CONTINUOUS
 10
111.9460792443
 20
137.8667444885
 40
4.5828036321
100
AcDbArc
 50
217.24909426
 51
217.6596615447
  0
ARC
  5
296
100
AcDbEntity
  8
0
100
AcDbCircle
 62
7
  6
CONTINUOUS
 10
94.8921119481
 20
137.8667444834
 40
4.5828036238
100
AcDbArc
 50
322.340338455
 51
322.750901548
  0
ARC
  5
297
100
AcDbEntity
  8
0
100
AcDbCircle
 62
7
  6
CONTINUOUS
 10
94.973013771
 20
137.8488084975
 40
4.5539701064
100
AcDbArc
 50
312.0421108637
 51
322.3454172081
  0
ARC
  5
298
100
AcDbEntity
  8
0
100
AcDbCircle
 62
7
  6
CONTINUOUS
 10
111.8530483717
 20
137.8375744281
 40
4.5375047992
100
AcDbArc
 50
217.6358380994
 51
227.9766338288
  0
ARC
  5
299
100
AcDbEntity
  8
3_ALL_AXES
100
AcDbCircle
 62
7
  6
CONTINUOUS
 10
120.0690955929
 20
164.0667897024
 40
3.3
100
AcDbArc
 50
119.133232784
 51
233.5344303991
  0
ARC
  5
29A
100
AcDbEntity
  8
3_ALL_AXES
100
AcDbCircle
 62
7
  6
CONTINUOUS
 10
86.7690955929
 20
164.0667897024
 40
3.3
100
AcDbArc
 50
306.4655696009
 51
60.866767216
  0
ARC
  5
29B
100
AcDbEntity
  8
3_ALL_AXES
100
AcDbCircle
 62
7
  6
CONTINUOUS
 10
116.7190955929
 20
168.0667897024
 40
2.0
100
AcDbArc
 50
0.0
 51
90.0
  0
ARC
  5
29C
100
AcDbEntity
  8
3_ALL_AXES
100
AcDbCircle
 62
7
  6
CONTINUOUS
 10
90.1190955929
 20
168.0667897024
 40
2.0
100
AcDbArc
 50
90.0
 51
180.0
  0
ARC
  5
29D
100
AcDbEntity
  8
3_ALL_AXES
100
AcDbCircle
 62
7
  6
CONTINUOUS
 10
89.9190955929
 20
159.8044546616
 40
2.0
100
AcDbArc
 50
126.4655696009
 51
180.0
  0
ARC
  5
29E
100
AcDbEntity
  8
3_ALL_AXES
100
AcDbCircle
 62
7
  6
CONTINUOUS
 10
116.9190955929
 20
159.8044546616
 40
2.0
100
AcDbArc
 50
0.0
 51
53.5344303991
  0
ARC
  5
29F
100
AcDbEntity
  8
0
100
AcDbCircle
 62
7
  6
CONTINUOUS
 10
121.9190955929
 20
138.3667897024
 40
1.5
100
AcDbArc
 50
0.0
 51
90.0
  0
ARC
  5
2A0
100
AcDbEntity
  8
0
100
AcDbCircle
 62
7
  6
CONTINUOUS
 10
84.9190955929
 20
138.3667897024
 40
1.5
100
AcDbArc
 50
90.0
 51
180.0
  0
ARC
  5
2A1
100
AcDbEntity
  8
0
100
AcDbCircle
 62
7
  6
CONTINUOUS
 10
81.2690955929
 20
127.5667897024
 40
1.0
100
AcDbArc
 50
180.0
 51
270.0
  0
ARC
  5
2A2
100
AcDbEntity
  8
0
100
AcDbCircle
 62
7
  6
CONTINUOUS
 10
125.5690955929
 20
127.5667897024
 40
1.0
100
AcDbArc
 50
270.0
 51
360.0
  0
ARC
  5
2A3
100
AcDbEntity
  8
0
100
AcDbCircle
 62
7
  6
CONTINUOUS
 10
81.0690955929
 20
132.3354188525
 40
0.8
100
AcDbArc
 50
134.9999999996
 51
180.0
  0
ARC
  5
2A4
100
AcDbEntity
  8
0
100
AcDbCircle
 62
7
  6
CONTINUOUS
 10
125.7690955929
 20
132.3354188525
 40
0.8
100
AcDbArc
 50
0.0
 51
45.0000000004
  0
ARC
  5
2A5
100
AcDbEntity
  8
0
100
AcDbCircle
 62
7
  6
CONTINUOUS
 10
125.3190955929
 20
134.4667897024
 40
0.6
100
AcDbArc
 50
0.0
 51
90.0
  0
ARC
  5
2A6
100
AcDbEntity
  8
0
100
AcDbCircle
 62
7
  6
CONTINUOUS
 10
81.5190955929
 20
134.4667897024
 40
0.6
100
AcDbArc
 50
90.0
 51
180.0
  0
ARC
  5
2A7
100
AcDbEntity
  8
3_ALL_AXES
100
AcDbCircle
 62
7
  6
CONTINUOUS
 10
118.2190955929
 20
167.3860516685
 40
0.5
100
AcDbArc
 50
299.133232784
 51
360.0
  0
ARC
  5
2A8
100
AcDbEntity
  8
3_ALL_AXES
100
AcDbCircle
 62
7
  6
CONTINUOUS
 10
88.6190955929
 20
167.3860516685
 40
0.5
100
AcDbArc
 50
180.0
 51
240.866767216
  0
ARC
  5
2A9
100
AcDbEntity
  8
0
100
AcDbCircle
 62
7
  6
CONTINUOUS
 10
118.9690955929
 20
140.2667897024
 40
0.4
100
AcDbArc
 50
180.0
 51
270.0
  0
ARC
  5
2AA
100
AcDbEntity
  8
0
100
AcDbCircle
 62
7
  6
CONTINUOUS
 10
87.8690955929
 20
140.2667897024
 40
0.4
100
AcDbArc
 50
270.0
 51
360.0
  0
SPLINE
  5
2AB
100
AcDbEntity
  8
0
100
AcDbSpline
 62
7
  6
CONTINUOUS
 70
0
 71
3
 72
11
 73
7
 74
0
 42
0.0000001
 43
0.0000001
 44
0.0000000001
 40
0.0
 40
0.0
 40
0.0
 40
0.0
 40
0.2441820758
 40
0.492440209
 40
0.7445698258
 40
1.0
 40
1.0
 40
1.0
 40
1.0
 10
111.819095622
 20
133.3167897024
 30
0.0
 10
111.5518025737
 20
133.3167897024
 30
0.0
 10
111.0115927765
 20
133.3665641983
 30
0.0
 10
110.2221860485
 20
133.585308769
 30
0.0
 10
109.4728311428
 20
133.9464429599
 30
0.0
 10
109.0232629723
 20
134.2796806134
 30
0.0
 10
108.8154901194
 20
134.4667897024
 30
0.0
  0
SPLINE
  5
2AC
100
AcDbEntity
  8
0
100
AcDbSpline
 62
7
  6
CONTINUOUS
 70
0
 71
3
 72
11
 73
7
 74
0
 42
0.0000001
 43
0.0000001
 44
0.0000000001
 40
0.0
 40
0.0
 40
0.0
 40
0.0
 40
0.255411428
 40
0.5075452847
 40
0.7558106666
 40
1.0
 40
1.0
 40
1.0
 40
1.0
 10
98.0227010664
 20
134.4667897024
 30
0.0
 10
97.8149434729
 20
134.2796943553
 30
0.0
 10
97.3653902142
 20
133.9464646785
 30
0.0
 10
96.6160475533
 20
133.5853231864
 30
0.0
 10
95.8266223121
 20
133.3665670791
 30
0.0
 10
95.2863965898
 20
133.3167897024
 30
0.0
 10
95.0190956111
 20
133.3167897024
 30
0.0
  0
SPLINE
  5
2AD
100
AcDbEntity
  8
0
100
AcDbSpline
 62
7
  6
CONTINUOUS
 70
0
 71
3
 72
13
 73
9
 74
0
 42
0.0000001
 43
0.0000001
 44
0.0000000001
 40
0.0
 40
0.0
 40
0.0
 40
0.0
 40
0.1252446974
 40
0.2504912091
 40
0.3757391537
 40
0.5009853741
 40
0.7504014996
 40
1.0
 40
1.0
 40
1.0
 40
1.0
 10
85.0887928131
 20
138.3667897024
 30
0.0
 10
85.0887928131
 20
138.4698046933
 30
0.0
 10
85.1121955078
 20
138.6765786515
 30
0.0
 10
85.2149117082
 20
138.9705804343
 30
0.0
 10
85.3783010061
 20
139.2357231574
 30
0.0
 10
85.6627346443
 20
139.536075909
 30
0.0
 10
86.1191350867
 20
139.7977336857
 30
0.0
 10
86.5329710629
 20
139.8667897024
 30
0.0
 10
86.7382682753
 20
139.8667897024
 30
0.0
  0
SPLINE
  5
2AE
100
AcDbEntity
  8
0
100
AcDbSpline
 62
7
  6
CONTINUOUS
 70
0
 71
3
 72
13
 73
9
 74
0
 42
0.0000001
 43
0.0000001
 44
0.0000000001
 40
0.0
 40
0.0
 40
0.0
 40
0.0
 40
0.249600418
 40
0.4990182238
 40
0.6242641517
 40
0.7495110674
 40
0.8747560284
 40
1.0
 40
1.0
 40
1.0
 40
1.0
 10
120.0999229105
 20
139.8667897024
 30
0.0
 10
120.305221694
 20
139.8667897024
 30
0.0
 10
120.7190607474
 20
139.797732769
 30
0.0
 10
121.1754625733
 20
139.5360714845
 30
0.0
 10
121.4598949022
 20
139.2357170805
 30
0.0
 10
121.6232813711
 20
138.9705754751
 30
0.0
 10
121.7259961915
 20
138.6765761982
 30
0.0
 10
121.7493983727
 20
138.4698040932
 30
0.0
 10
121.7493983727
 20
138.3667897024
 30
0.0
  0
SPLINE
  5
2AF
100
AcDbEntity
  8
0
100
AcDbSpline
 62
7
  6
CONTINUOUS
 70
0
 71
3
 72
14
 73
10
 74
0
 42
0.0000001
 43
0.0000001
 44
0.0000000001
 40
0.0
 40
0.0
 40
0.0
 40
0.0
 40
0.2495997771
 40
0.3746032038
 40
0.4996885872
 40
0.6248394448
 40
0.749945526
 40
0.8749575305
 40
1.0
 40
1.0
 40
1.0
 40
1.0
 10
98.5400764574
 20
135.0928584018
 30
0.0
 10
98.7956934136
 20
135.4290226613
 30
0.0
 10
99.1121327632
 20
135.990925555
 30
0.0
 10
99.3598596243
 20
136.8014768927
 30
0.0
 10
99.4573469739
 20
137.4311322654
 30
0.0
 10
99.4666550121
 20
138.0680977872
 30
0.0
 10
99.3878272795
 20
138.7002440106
 30
0.0
 10
99.2204826839
 20
139.3147364879
 30
0.0
 10
99.050495535
 20
139.7040406642
 30
0.0
 10
98.9525154211
 20
139.8915506812
 30
0.0
  0
SPLINE
  5
2B0
100
AcDbEntity
  8
0
100
AcDbSpline
 62
7
  6
CONTINUOUS
 70
0
 71
3
 72
17
 73
13
 74
0
 42
0.0000001
 43
0.0000001
 44
0.0000000001
 40
0.0
 40
0.0
 40
0.0
 40
0.0
 40
0.1249665455
 40
0.2499294716
 40
0.3124765366
 40
0.3750374857
 40
0.5000360142
 40
0.6249455755
 40
0.7498807114
 40
0.8748625434
 40
0.9374221973
 40
1.0
 40
1.0
 40
1.0
 40
1.0
 10
85.553540805
 20
133.3167897024
 30
0.0
 10
85.9357492423
 20
133.3167897024
 30
0.0
 10
86.7031734599
 20
133.4179095799
 30
0.0
 10
87.599691283
 20
133.7779978871
 30
0.0
 10
88.2439395001
 20
134.1938852145
 30
0.0
 10
88.827966255
 20
134.6908284937
 30
0.0
 10
89.4324315153
 20
135.4449692125
 30
0.0
 10
89.9097806867
 20
136.5012375087
 30
0.0
 10
90.0964963776
 20
137.6449545822
 30
0.0
 10
90.0117739377
 20
138.6079097702
 30
0.0
 10
89.7995343552
 20
139.3447134856
 30
0.0
 10
89.6457143697
 20
139.696615116
 30
0.0
 10
89.5581243038
 20
139.8667897024
 30
0.0
  0
SPLINE
  5
2B1
100
AcDbEntity
  8
0
100
AcDbSpline
 62
7
  6
CONTINUOUS
 70
0
 71
3
 72
14
 73
10
 74
0
 42
0.0000001
 43
0.0000001
 44
0.0000000001
 40
0.0
 40
0.0
 40
0.0
 40
0.0
 40
0.1250424695
 40
0.250054474
 40
0.3751605552
 40
0.5003114128
 40
0.6253967962
 40
0.7504002229
 40
1.0
 40
1.0
 40
1.0
 40
1.0
 10
107.8856757647
 20
139.8915506812
 30
0.0
 10
107.7876956573
 20
139.7040406766
 30
0.0
 10
107.6177085179
 20
139.3147365268
 30
0.0
 10
107.4503639245
 20
138.7002440927
 30
0.0
 10
107.3715361826
 20
138.068097913
 30
0.0
 10
107.3808441997
 20
137.431132433
 30
0.0
 10
107.4783315168
 20
136.8014770981
 30
0.0
 10
107.7260583185
 20
135.9909258007
 30
0.0
 10
108.0424976107
 20
135.4290229249
 30
0.0
 10
108.2981145255
 20
135.0928586688
 30
0.0
  0
SPLINE
  5
2B2
100
AcDbEntity
  8
0
100
AcDbSpline
 62
7
  6
CONTINUOUS
 70
0
 71
3
 72
17
 73
13
 74
0
 42
0.0000001
 43
0.0000001
 44
0.0000000001
 40
0.0
 40
0.0
 40
0.0
 40
0.0
 40
0.1249665455
 40
0.2499294716
 40
0.3124765366
 40
0.3750374857
 40
0.5000360142
 40
0.6249455755
 40
0.7498807114
 40
0.8748625434
 40
0.9374221973
 40
1.0
 40
1.0
 40
1.0
 40
1.0
 10
121.2846503808
 20
133.3167897024
 30
0.0
 10
120.9024419435
 20
133.3167897024
 30
0.0
 10
120.1350177259
 20
133.4179095799
 30
0.0
 10
119.2384999028
 20
133.7779978871
 30
0.0
 10
118.5942516858
 20
134.1938852145
 30
0.0
 10
118.0102249308
 20
134.6908284937
 30
0.0
 10
117.4057596705
 20
135.4449692125
 30
0.0
 10
116.9284104992
 20
136.5012375087
 30
0.0
 10
116.7416948083
 20
137.6449545822
 30
0.0
 10
116.8264172482
 20
138.6079097702
 30
0.0
 10
117.0386568307
 20
139.3447134856
 30
0.0
 10
117.1924768162
 20
139.696615116
 30
0.0
 10
117.280066882
 20
139.8667897024
 30
0.0
  0
SPLINE
  5
2B3
100
AcDbEntity
  8
0
100
AcDbSpline
 62
7
  6
CONTINUOUS
 70
0
 71
3
 72
15
 73
11
 74
0
 42
0.0000001
 43
0.0000001
 44
0.0000000001
 40
0.0
 40
0.0
 40
0.0
 40
0.0
 40
0.2500527298
 40
0.5000750633
 40
0.6251085371
 40
0.7501175503
 40
0.8126445681
 40
0.8751660277
 40
0.9376353396
 40
1.0
 40
1.0
 40
1.0
 40
1.0
 10
98.9525154211
 20
139.8915506812
 30
0.0
 10
99.0452299741
 20
139.9014720872
 30
0.0
 10
99.2300549404
 20
139.9271952562
 30
0.0
 10
99.4583925606
 20
139.975717731
 30
0.0
 10
99.6372423092
 20
140.0288013558
 30
0.0
 10
99.746329094
 20
140.0704995983
 30
0.0
 10
99.8298181147
 20
140.1122617422
 30
0.0
 10
99.8886878577
 20
140.1503848649
 30
0.0
 10
99.940874161
 20
140.1973981498
 30
0.0
 10
99.9607722998
 20
140.2435341138
 30
0.0
 10
99.9607722998
 20
140.2667897024
 30
0.0
  0
SPLINE
  5
2B4
100
AcDbEntity
  8
0
100
AcDbSpline
 62
7
  6
CONTINUOUS
 70
0
 71
3
 72
15
 73
11
 74
0
 42
0.0000001
 43
0.0000001
 44
0.0000000001
 40
0.0
 40
0.0
 40
0.0
 40
0.0
 40
0.0621659227
 40
0.1246499306
 40
0.187176258
 40
0.249719488
 40
0.3747549134
 40
0.4998145208
 40
0.7498922094
 40
1.0
 40
1.0
 40
1.0
 40
1.0
 10
106.8774188861
 20
140.2667897024
 30
0.0
 10
106.8774188861
 20
140.2436077796
 30
0.0
 10
106.897189988
 20
140.1975179956
 30
0.0
 10
106.9493121784
 20
140.1505034654
 30
0.0
 10
107.0081851126
 20
140.1123655932
 30
0.0
 10
107.0916806775
 20
140.0705700005
 30
0.0
 10
107.2007923806
 20
140.0288582642
 30
0.0
 10
107.3796777234
 20
139.9757410826
 30
0.0
 10
107.6080703957
 20
139.9272070909
 30
0.0
 10
107.7929390247
 20
139.9014744614
 30
0.0
 10
107.8856757647
 20
139.8915506812
 30
0.0
  0
SPLINE
  5
2B5
100
AcDbEntity
  8
0
100
AcDbSpline
 62
7
  6
CONTINUOUS
 70
0
 71
3
 72
12
 73
8
 74
0
 42
0.0000001
 43
0.0000001
 44
0.0000000001
 40
0.0
 40
0.0
 40
0.0
 40
0.0
 40
0.249639833
 40
0.3750517395
 40
0.5004748545
 40
0.7501723434
 40
1.0
 40
1.0
 40
1.0
 40
1.0
 10
82.3893547481
 20
134.4667897024
 30
0.0
 10
82.3893547481
 20
134.5476588747
 30
0.0
 10
82.4168674811
 20
134.6710749886
 30
0.0
 10
82.5004091144
 20
134.8109656911
 30
0.0
 10
82.6103381843
 20
134.9315587907
 30
0.0
 10
82.7884136783
 20
135.0380769868
 30
0.0
 10
82.9516504254
 20
135.0667897024
 30
0.0
 10
83.032580442
 20
135.0667897024
 30
0.0
  0
SPLINE
  5
2B6
100
AcDbEntity
  8
0
100
AcDbSpline
 62
7
  6
CONTINUOUS
 70
0
 71
3
 72
8
 73
4
 74
0
 42
0.0000001
 43
0.0000001
 44
0.0000000001
 40
0.0
 40
0.0
 40
0.0
 40
0.0
 40
1.0
 40
1.0
 40
1.0
 40
1.0
 10
99.9607722998
 20
141.7605719197
 30
0.0
 10
99.514778458
 20
141.9369085131
 30
0.0
 10
99.0793110402
 20
142.1414555
 30
0.0
 10
98.6559558721
 20
142.3667897024
 30
0.0
  0
SPLINE
  5
2B7
100
AcDbEntity
  8
0
100
AcDbSpline
 62
7
  6
CONTINUOUS
 70
0
 71
3
 72
12
 73
8
 74
0
 42
0.0000001
 43
0.0000001
 44
0.0000000001
 40
0.0
 40
0.0
 40
0.0
 40
0.0
 40
0.2498278872
 40
0.4995255255
 40
0.6249486392
 40
0.7503604459
 40
1.0
 40
1.0
 40
1.0
 40
1.0
 10
123.8056107439
 20
135.0667897024
 30
0.0
 10
123.886540835
 20
135.0667897024
 30
0.0
 10
124.0497777026
 20
135.0380769294
 30
0.0
 10
124.2278532855
 20
134.9315586114
 30
0.0
 10
124.3377822592
 20
134.8109654025
 30
0.0
 10
124.4213237656
 20
134.6710747727
 30
0.0
 10
124.4488364377
 20
134.5476587842
 30
0.0
 10
124.4488364377
 20
134.4667897024
 30
0.0
  0
SPLINE
  5
2B8
100
AcDbEntity
  8
0
100
AcDbSpline
 62
7
  6
CONTINUOUS
 70
0
 71
3
 72
8
 73
4
 74
0
 42
0.0000001
 43
0.0000001
 44
0.0000000001
 40
0.0
 40
0.0
 40
0.0
 40
0.0
 40
1.0
 40
1.0
 40
1.0
 40
1.0
 10
108.1822353137
 20
142.3667897024
 30
0.0
 10
107.7588801457
 20
142.1414555
 30
0.0
 10
107.3234127279
 20
141.9369085131
 30
0.0
 10
106.8774188861
 20
141.7605719197
 30
0.0
  0
ENDSEC
  0
SECTION
  2
OBJECTS
  0
DICTIONARY
  5
C
100
AcDbDictionary
280
0
281
1
  3
ACAD_GROUP
350
D
  3
ACAD_MLINESTYLE
350
17
  3
ACAD_LAYOUT
350
1A
  3
ACAD_PLOTSETTINGS
350
19
  3
ACAD_PLOTSTYLENAME
350
E
  0
DICTIONARY
  5
D
102
{ACAD_REACTORS
330
C
102
}
100
AcDbDictionary
280
0
281
1
  0
ACDBDICTIONARYWDFLT
  5
E
102
{ACAD_REACTORS
330
C
102
}
100
AcDbDictionary
281
1
  3
Normal
350
F
100
AcDbDictionaryWithDefault
340
F
  0
DICTIONARY
  5
17
102
{ACAD_REACTORS
330
C
102
}
100
AcDbDictionary
280
0
281
1
  3
Standard
350
18
  0
DICTIONARY
  5
19
102
{ACAD_REACTORS
330
C
102
}
100
AcDbDictionary
281
1
  0
DICTIONARY
  5
1A
102
{ACAD_REACTORS
330
C
102
}
100
AcDbDictionary
281
1
  3
Model
350
2B9
  3
Layout1
350
2BA
  0
ACDBPLACEHOLDER
  5
F
102
{ACAD_REACTORS
330
E
102
}
  0
MLINESTYLE
  5
18
102
{ACAD_REACTORS
330
17
102
}
100
AcDbMlineStyle
  2
STANDARD
 70
0
  3

 62
256
 51
90.0
 52
90.0
 71
2
 49
0.5
 62
256
  6
BYLAYER
 49
-0.5
 62
256
  6
BYLAYER
  0
LAYOUT
  5
2B9
102
{ACAD_REACTORS
330
1A
102
}
100
AcDbPlotSettings
  1

  2
none_device
  4

  6

 40
0.0
 41
0.0
 42
0.0
 43
0.0
 44
210.0
 45
297.0
 46
0.0
 47
0.0
 48
0.0
 49
0.0
140
0.0
141
0.0
142
1.0
143
1.0
 70
1024
 72
1
 73
0
 74
0
  7

 75
0
147
1.0
148
0.0
149
0.0
100
AcDbLayout
  1
Model
 70
0
 71
0
 10
0.0
 20
0.0
 11
210.0
 21
297.0
 12
0.0
 22
0.0
 32
0.0
 14
0.0
 24
0.0
 34
0.0
 15
0.0
 25
0.0
 35
0.0
146
0.0
 13
0.0
 23
0.0
 33
0.0
 16
1.0
 26
0.0
 36
0.0
 17
0.0
 27
1.0
 37
0.0
 76
0
330
20E
345
0
346
0
  0
LAYOUT
  5
2BA
102
{ACAD_REACTORS
330
1A
102
}
100
AcDbPlotSettings
  1

  2
none_device
  4

  6

 40
0.0
 41
0.0
 42
0.0
 43
0.0
 44
210.0
 45
297.0
 46
0.0
 47
0.0
 48
0.0
 49
0.0
140
0.0
141
0.0
142
1.0
143
1.0
 70
0
 72
1
 73
0
 74
0
  7

 75
0
147
1.0
148
0.0
149
0.0
100
AcDbLayout
  1
Layout1
 70
0
 71
1
 10
0.0
 20
0.0
 11
210.0
 21
297.0
 12
0.0
 22
0.0
 32
0.0
 14
0.0
 24
0.0
 34
0.0
 15
0.0
 25
0.0
 35
0.0
146
0.0
 13
0.0
 23
0.0
 33
0.0
 16
1.0
 26
0.0
 36
0.0
 17
0.0
 27
1.0
 37
0.0
 76
0
330
20F
345
0
346
0
  0
ENDSEC
  0
EOF
