  0
SECTION
  2
HEADER
  9
$ACADVER
  1
AC1009
  9
$INSBASE
 10
0.0
 20
0.0
 30
0.0
  9
$EXTMIN
 10
-6.050423
 20
-10.414609
 30
0.0
  9
$EXTMAX
 10
4.192035
 20
1.98549
 30
0.0
  9
$LIMMIN
 10
0.0
 20
0.0
  9
$LIMMAX
 10
12.0
 20
9.0
  9
$ORTHOMODE
 70
     0
  9
$REGENMODE
 70
     1
  9
$FILLMODE
 70
     1
  9
$QTEXTMODE
 70
     0
  9
$MIRRTEXT
 70
     1
  9
$DRAGMODE
 70
     2
  9
$LTSCALE
 40
0.35
  9
$OSMODE
 70
   165
  9
$ATTMODE
 70
     1
  9
$TEXTSIZE
 40
0.25
  9
$TRACEWID
 40
0.05
  9
$TEXTSTYLE
  7
STANDARD
  9
$CLAYER
  8
L
  9
$CELTYPE
  6
BYLAYER
  9
$CECOLOR
 62
   256
  9
$DIMSCALE
 40
1.0
  9
$DIMASZ
 40
0.12
  9
$DIMEXO
 40
0.0625
  9
$DIMDLI
 40
0.38
  9
$DIMRND
 40
0.0
  9
$DIMDLE
 40
0.0
  9
$DIMEXE
 40
0.05
  9
$DIMTP
 40
0.0
  9
$DIMTM
 40
0.0
  9
$DIMTXT
 40
0.125
  9
$DIMCEN
 40
0.09
  9
$DIMTSZ
 40
0.0
  9
$DIMTOL
 70
     0
  9
$DIMLIM
 70
     0
  9
$DIMTIH
 70
     1
  9
$DIMTOH
 70
     1
  9
$DIMSE1
 70
     0
  9
$DIMSE2
 70
     0
  9
$DIMTAD
 70
     0
  9
$DIMZIN
 70
     0
  9
$DIMBLK
  1

  9
$DIMASO
 70
     1
  9
$DIMSHO
 70
     1
  9
$DIMPOST
  1

  9
$DIMAPOST
  1

  9
$DIMALT
 70
     0
  9
$DIMALTD
 70
     2
  9
$DIMALTF
 40
25.4
  9
$DIMLFAC
 40
1.0
  9
$DIMTOFL
 70
     0
  9
$DIMTVP
 40
0.0
  9
$DIMTIX
 70
     0
  9
$DIMSOXD
 70
     0
  9
$DIMSAH
 70
     0
  9
$DIMBLK1
  1

  9
$DIMBLK2
  1

  9
$DIMSTYLE
  2
5P
  9
$DIMCLRD
 70
     0
  9
$DIMCLRE
 70
     0
  9
$DIMCLRT
 70
     0
  9
$DIMTFAC
 40
1.0
  9
$DIMGAP
 40
0.09
  9
$LUNITS
 70
     2
  9
$LUPREC
 70
     4
  9
$SKETCHINC
 40
0.1
  9
$FILLETRAD
 40
0.125
  9
$AUNITS
 70
     0
  9
$AUPREC
 70
     0
  9
$MENU
  1
acad
  9
$ELEVATION
 40
0.0
  9
$PELEVATION
 40
0.0
  9
$THICKNESS
 40
0.0
  9
$LIMCHECK
 70
     0
  9
$BLIPMODE
 70
     0
  9
$CHAMFERA
 40
0.0
  9
$CHAMFERB
 40
0.0
  9
$SKPOLY
 70
     0
  9
$TDCREATE
 40
2449806.482746
  9
$TDUPDATE
 40
2450903.592476
  9
$TDINDWG
 40
0.040067
  9
$TDUSRTIMER
 40
0.040067
  9
$USRTIMER
 70
     1
  9
$ANGBASE
 50
0.0
  9
$ANGDIR
 70
     0
  9
$PDMODE
 70
     0
  9
$PDSIZE
 40
0.0
  9
$PLINEWID
 40
0.0
  9
$COORDS
 70
     1
  9
$SPLFRAME
 70
     0
  9
$SPLINETYPE
 70
     6
  9
$SPLINESEGS
 70
     8
  9
$ATTDIA
 70
     1
  9
$ATTREQ
 70
     1
  9
$HANDLING
 70
     1
  9
$HANDSEED
  5
C1F
  9
$SURFTAB1
 70
     6
  9
$SURFTAB2
 70
     6
  9
$SURFTYPE
 70
     6
  9
$SURFU
 70
     6
  9
$SURFV
 70
     6
  9
$UCSNAME
  2

  9
$UCSORG
 10
0.0
 20
0.0
 30
0.0
  9
$UCSXDIR
 10
1.0
 20
0.0
 30
0.0
  9
$UCSYDIR
 10
0.0
 20
1.0
 30
0.0
  9
$PUCSNAME
  2

  9
$PUCSORG
 10
0.0
 20
0.0
 30
0.0
  9
$PUCSXDIR
 10
1.0
 20
0.0
 30
0.0
  9
$PUCSYDIR
 10
0.0
 20
1.0
 30
0.0
  9
$USERI1
 70
     0
  9
$USERI2
 70
     0
  9
$USERI3
 70
     0
  9
$USERI4
 70
     0
  9
$USERI5
 70
     0
  9
$USERR1
 40
0.0
  9
$USERR2
 40
0.0
  9
$USERR3
 40
0.0
  9
$USERR4
 40
0.0
  9
$USERR5
 40
0.0
  9
$WORLDVIEW
 70
     1
  9
$SHADEDGE
 70
     3
  9
$SHADEDIF
 70
    70
  9
$TILEMODE
 70
     1
  9
$MAXACTVP
 70
    16
  9
$PLIMCHECK
 70
     0
  9
$PEXTMIN
 10
1.000000E+020
 20
1.000000E+020
 30
1.000000E+020
  9
$PEXTMAX
 10
-1.000000E+020
 20
-1.000000E+020
 30
-1.000000E+020
  9
$PLIMMIN
 10
0.0
 20
0.0
  9
$PLIMMAX
 10
12.0
 20
9.0
  9
$UNITMODE
 70
     0
  9
$VISRETAIN
 70
     1
  9
$PLINEGEN
 70
     0
  9
$PSLTSCALE
 70
     1
  0
ENDSEC
  0
SECTION
  2
TABLES
  0
TABLE
  2
VPORT
 70
     2
  0
VPORT
  2
*ACTIVE
 70
     0
 10
0.0
 20
0.0
 11
1.0
 21
1.0
 12
-0.929171
 22
-3.680554
 13
0.0
 23
0.0
 14
0.25
 24
0.25
 15
0.0
 25
0.0
 16
0.0
 26
0.0
 36
1.0
 17
0.0
 27
0.0
 37
0.0
 40
13.605189
 41
1.566964
 42
50.0
 43
0.0
 44
0.0
 50
0.0
 51
0.0
 71
     0
 72
   100
 73
     1
 74
     1
 75
     0
 76
     0
 77
     0
 78
     0
  0
ENDTAB
  0
TABLE
  2
LTYPE
 70
     4
  0
LTYPE
  2
CONTINUOUS
 70
     0
  3
Solid line
 72
    65
 73
     0
 40
0.0
  0
LTYPE
  2
PHANTOM
 70
     0
  3
______  __  __  ______  __  __  ______  __  __ 
 72
    65
 73
     6
 40
2.5
 49
1.25
 49
-0.25
 49
0.25
 49
-0.25
 49
0.25
 49
-0.25
  0
LTYPE
  2
HIDDEN
 70
     0
  3
__ __ __ __ __ __ __ __ __ __ __ __ __ __ __ __
 72
    65
 73
     2
 40
0.375
 49
0.25
 49
-0.125
  0
LTYPE
  2
CENTER
 70
     0
  3
____ _ ____ _ ____ _ ____ _ ____ _ ____ _ ____ 
 72
    65
 73
     4
 40
2.0
 49
1.25
 49
-0.25
 49
0.25
 49
-0.25
  0
ENDTAB
  0
TABLE
  2
LAYER
 70
    17
  0
LAYER
  2
0
 70
     0
 62
     7
  6
CONTINUOUS
  0
LAYER
  2
P
 70
     0
 62
     2
  6
PHANTOM
  0
LAYER
  2
C
 70
     0
 62
     1
  6
CENTER
  0
LAYER
  2
D
 70
     0
 62
     7
  6
CONTINUOUS
  0
LAYER
  2
H
 70
     0
 62
     4
  6
HIDDEN
  0
LAYER
  2
L
 70
     0
 62
     5
  6
CONTINUOUS
  0
LAYER
  2
CAD_L
 70
     0
 62
     5
  6
CONTINUOUS
  0
LAYER
  2
README
 70
     1
 62
     2
  6
CONTINUOUS
  0
LAYER
  2
DEFPOINTS
 70
     0
 62
    -7
  6
CONTINUOUS
  0
LAYER
  2
F
 70
     0
 62
    13
  6
CONTINUOUS
  0
LAYER
  2
FRAME
 70
     0
 62
    13
  6
CONTINUOUS
  0
LAYER
  2
HAT
 70
     0
 62
     6
  6
CONTINUOUS
  0
LAYER
  2
LINE
 70
     0
 62
     7
  6
CONTINUOUS
  0
LAYER
  2
DIM
 70
     0
 62
     7
  6
CONTINUOUS
  0
LAYER
  2
AM_TR
 70
     0
 62
     7
  6
CONTINUOUS
  0
LAYER
  2
AM_BM
 70
     0
 62
     7
  6
CONTINUOUS
  0
LAYER
  2
AM_BL
 70
     0
 62
     7
  6
CONTINUOUS
  0
ENDTAB
  0
TABLE
  2
STYLE
 70
     3
  0
STYLE
  2
STANDARD
 70
     0
 40
0.0
 41
1.0
 50
0.0
 71
     0
 42
0.25
  3
txt
  4

  0
STYLE
  2
ROMANT
 70
     0
 40
0.3
 41
1.0
 50
0.0
 71
     0
 42
0.130237
  3
romant
  4

  0
STYLE
  2
ITALICT
 70
     0
 40
0.125
 41
1.0
 50
0.0
 71
     0
 42
0.125
  3
italict
  4

  0
ENDTAB
  0
TABLE
  2
VIEW
 70
     0
  0
ENDTAB
  0
TABLE
  2
UCS
 70
     0
  0
ENDTAB
  0
TABLE
  2
APPID
 70
     3
  0
APPID
  2
ACAD
 70
     0
  0
APPID
  2
MCAD_NO_VIS
 70
     0
  0
APPID
  2
ACAD_TEMP_GRAPHIC
 70
     0
  0
ENDTAB
  0
TABLE
  2
DIMSTYLE
 70
     2
  0
DIMSTYLE
  2
PARLEC
 70
     0
  3

  4

  5

  6

  7

 40
1.0
 41
0.12
 42
0.0625
 43
0.38
 44
0.05
 45
0.0
 46
0.0
 47
0.0
 48
0.0
140
0.125
141
0.09
142
0.0
143
25.4
144
1.0
145
0.0
146
1.0
147
0.09
 71
     0
 72
     0
 73
     1
 74
     1
 75
     0
 76
     0
 77
     0
 78
     0
170
     0
171
     2
172
     0
173
     0
174
     0
175
     0
176
     0
177
     0
178
     0
  0
DIMSTYLE
  2
5P
 70
     0
  3

  4

  5

  6

  7

 40
1.0
 41
0.12
 42
0.0625
 43
0.38
 44
0.05
 45
0.0
 46
0.0
 47
0.0
 48
0.0
140
0.125
141
0.09
142
0.0
143
25.4
144
1.0
145
0.0
146
1.0
147
0.09
 71
     0
 72
     0
 73
     1
 74
     1
 75
     0
 76
     0
 77
     0
 78
     0
170
     0
171
     2
172
     0
173
     0
174
     0
175
     0
176
     0
177
     0
178
     0
  0
ENDTAB
  0
ENDSEC
  0
SECTION
  2
BLOCKS
  0
BLOCK
  8
0
  2
$MODEL_SPACE
 70
     0
 10
0.0
 20
0.0
 30
0.0
  3
$MODEL_SPACE
  1

  0
ENDBLK
  5
9F
  8
0
  0
BLOCK
 67
     1
  8
0
  2
$PAPER_SPACE
 70
     0
 10
0.0
 20
0.0
 30
0.0
  3
$PAPER_SPACE
  1

  0
ENDBLK
  5
9D
 67
     1
  8
0
  0
BLOCK
  8
0
  2
R32C40_1
 70
     0
 10
0.0
 20
0.0
 30
0.0
  3
R32C40_1
  1

  0
ARC
  5
169
  8
L
 10
0.0
 20
0.032
 30
0.0
 40
0.032
 50
270.0
 51
0.0
  0
ARC
  5
16A
  8
L
 10
0.0
 20
1.718
 30
0.0
 40
0.032
 50
0.0
 51
90.0
  0
ENDBLK
  5
16B
  8
0
  0
BLOCK
  8
0
  2
CN30
 70
     0
 10
0.0
 20
0.0
 30
0.0
  3
CN30
  1

  0
LINE
  5
177
  8
L
 10
0.0
 20
0.0
 30
0.0
 11
0.0
 21
0.215
 31
0.0
  0
LINE
  5
178
  8
L
 10
-0.21
 20
0.0
 30
0.0
 11
-0.21
 21
0.28
 31
0.0
  0
LINE
  5
179
  8
L
 10
0.0
 20
0.215
 30
0.0
 11
-0.017417
 21
0.28
 31
0.0
  0
LINE
  5
17A
  8
L
 10
-0.017417
 20
0.28
 30
0.0
 11
-0.017417
 21
0.0
 31
0.0
  0
LINE
  5
17B
  8
L
 10
-0.017417
 20
0.140007
 30
0.0
 11
-0.21
 21
0.140007
 31
0.0
  0
ARC
  5
17C
  8
L
 10
-0.1
 20
0.28
 30
0.0
 40
0.015
 50
180.0
 51
0.0
  0
POLYLINE
  5
17D
  8
L
 66
     1
 10
0.0
 20
0.0
 30
0.0
 70
     1
  0
VERTEX
  5
BE7
  8
L
 10
-0.085
 20
0.140007
 30
0.0
 42
0.067874
  0
VERTEX
  5
BE8
  8
L
 10
-0.086213
 20
0.148898
 30
0.0
 42
0.080144
  0
VERTEX
  5
BE9
  8
L
 10
-0.089393
 20
0.155815
 30
0.0
 42
0.107095
  0
VERTEX
  5
BEA
  8
L
 10
-0.094604
 20
0.160832
 30
0.0
 42
0.139156
  0
VERTEX
  5
BEB
  8
L
 10
-0.1
 20
0.162363
 30
0.0
 42
0.139156
  0
VERTEX
  5
BEC
  8
L
 10
-0.105396
 20
0.160832
 30
0.0
 42
0.107095
  0
VERTEX
  5
BED
  8
L
 10
-0.110607
 20
0.155815
 30
0.0
 42
0.080144
  0
VERTEX
  5
BEE
  8
L
 10
-0.113787
 20
0.148898
 30
0.0
 42
0.067874
  0
VERTEX
  5
BEF
  8
L
 10
-0.115
 20
0.140007
 30
0.0
 42
0.067874
  0
VERTEX
  5
BF0
  8
L
 10
-0.113787
 20
0.131116
 30
0.0
 42
0.080144
  0
VERTEX
  5
BF1
  8
L
 10
-0.110607
 20
0.1242
 30
0.0
 42
0.107095
  0
VERTEX
  5
BF2
  8
L
 10
-0.105396
 20
0.119183
 30
0.0
 42
0.139156
  0
VERTEX
  5
BF3
  8
L
 10
-0.1
 20
0.117652
 30
0.0
 42
0.139156
  0
VERTEX
  5
BF4
  8
L
 10
-0.094604
 20
0.119183
 30
0.0
 42
0.107095
  0
VERTEX
  5
BF5
  8
L
 10
-0.089393
 20
0.1242
 30
0.0
 42
0.080144
  0
VERTEX
  5
BF6
  8
L
 10
-0.086213
 20
0.131116
 30
0.0
 42
0.067874
  0
SEQEND
  5
BF7
  8
L
  0
LINE
  5
18F
  8
L
 10
-0.085
 20
0.28
 30
0.0
 11
-0.017417
 21
0.28
 31
0.0
  0
LINE
  5
190
  8
L
 10
-0.085
 20
-0.28
 30
0.0
 11
-0.017417
 21
-0.28
 31
0.0
  0
POLYLINE
  5
191
  8
L
 66
     1
 10
0.0
 20
0.0
 30
0.0
 70
     1
  0
VERTEX
  5
BF8
  8
L
 10
-0.085
 20
-0.140007
 30
0.0
 42
-0.067874
  0
VERTEX
  5
BF9
  8
L
 10
-0.086213
 20
-0.148898
 30
0.0
 42
-0.080144
  0
VERTEX
  5
BFA
  8
L
 10
-0.089393
 20
-0.155815
 30
0.0
 42
-0.107095
  0
VERTEX
  5
BFB
  8
L
 10
-0.094604
 20
-0.160832
 30
0.0
 42
-0.139156
  0
VERTEX
  5
BFC
  8
L
 10
-0.1
 20
-0.162363
 30
0.0
 42
-0.139156
  0
VERTEX
  5
BFD
  8
L
 10
-0.105396
 20
-0.160832
 30
0.0
 42
-0.107095
  0
VERTEX
  5
BFE
  8
L
 10
-0.110607
 20
-0.155815
 30
0.0
 42
-0.080144
  0
VERTEX
  5
BFF
  8
L
 10
-0.113787
 20
-0.148898
 30
0.0
 42
-0.067874
  0
VERTEX
  5
C00
  8
L
 10
-0.115
 20
-0.140007
 30
0.0
 42
-0.067874
  0
VERTEX
  5
C01
  8
L
 10
-0.113787
 20
-0.131116
 30
0.0
 42
-0.080144
  0
VERTEX
  5
C02
  8
L
 10
-0.110607
 20
-0.1242
 30
0.0
 42
-0.107095
  0
VERTEX
  5
C03
  8
L
 10
-0.105396
 20
-0.119183
 30
0.0
 42
-0.139156
  0
VERTEX
  5
C04
  8
L
 10
-0.1
 20
-0.117652
 30
0.0
 42
-0.139156
  0
VERTEX
  5
C05
  8
L
 10
-0.094604
 20
-0.119183
 30
0.0
 42
-0.107095
  0
VERTEX
  5
C06
  8
L
 10
-0.089393
 20
-0.1242
 30
0.0
 42
-0.080144
  0
VERTEX
  5
C07
  8
L
 10
-0.086213
 20
-0.131116
 30
0.0
 42
-0.067874
  0
SEQEND
  5
C08
  8
L
  0
ARC
  5
1A3
  8
L
 10
-0.1
 20
-0.28
 30
0.0
 40
0.015
 50
360.0
 51
180.0
  0
LINE
  5
1A4
  8
L
 10
-0.017417
 20
-0.140007
 30
0.0
 11
-0.21
 21
-0.140007
 31
0.0
  0
LINE
  5
1A5
  8
L
 10
-0.017417
 20
-0.28
 30
0.0
 11
-0.017417
 21
0.0
 31
0.0
  0
LINE
  5
1A6
  8
L
 10
0.0
 20
-0.215
 30
0.0
 11
-0.017417
 21
-0.28
 31
0.0
  0
LINE
  5
1A7
  8
L
 10
-0.21
 20
0.0
 30
0.0
 11
-0.21
 21
-0.28
 31
0.0
  0
LINE
  5
1A8
  8
L
 10
0.0
 20
0.0
 30
0.0
 11
0.0
 21
-0.215
 31
0.0
  0
LINE
  5
1A9
  8
L
 10
-0.085
 20
-0.28
 30
0.0
 11
-0.017417
 21
-0.28
 31
0.0
  0
ARC
  5
1AA
  8
L
 10
-0.1
 20
-0.28
 30
0.0
 40
0.015
 50
360.0
 51
180.0
  0
LINE
  5
1AB
  8
L
 10
0.0
 20
-0.215
 30
0.0
 11
-0.017417
 21
-0.28
 31
0.0
  0
LINE
  5
1AC
  8
L
 10
-0.21
 20
-0.28
 30
0.0
 11
-0.115
 21
-0.28
 31
0.0
  0
LINE
  5
1AD
  8
L
 10
-0.21
 20
-0.28
 30
0.0
 11
-0.24
 21
-0.31
 31
0.0
  0
LINE
  5
1AE
  8
L
 10
-0.21
 20
0.28
 30
0.0
 11
-0.24
 21
0.31
 31
0.0
  0
LINE
  5
1AF
  8
L
 10
-0.21
 20
0.28
 30
0.0
 11
-0.115
 21
0.28
 31
0.0
  0
LINE
  5
1B0
  8
L
 10
0.0
 20
0.0
 30
0.0
 11
0.0
 21
-0.215
 31
0.0
  0
LINE
  5
1B1
  8
L
 10
-1.1
 20
-0.28
 30
0.0
 11
-1.07
 21
-0.31
 31
0.0
  0
LINE
  5
1B2
  8
L
 10
-1.07
 20
-0.31
 30
0.0
 11
-0.24
 21
-0.31
 31
0.0
  0
LINE
  5
1B3
  8
L
 10
0.0
 20
0.0
 30
0.0
 11
0.0
 21
-0.215
 31
0.0
  0
LINE
  5
1B4
  8
L
 10
-1.1
 20
0.0
 30
0.0
 11
-1.1
 21
-0.28
 31
0.0
  0
LINE
  5
1B5
  8
L
 10
-1.1
 20
0.0
 30
0.0
 11
-1.1
 21
0.28
 31
0.0
  0
LINE
  5
1B6
  8
L
 10
0.0
 20
0.0
 30
0.0
 11
0.0
 21
0.215
 31
0.0
  0
LINE
  5
1B7
  8
L
 10
-1.07
 20
0.31
 30
0.0
 11
-0.24
 21
0.31
 31
0.0
  0
LINE
  5
1B8
  8
L
 10
0.0
 20
0.215
 30
0.0
 11
-0.017417
 21
0.28
 31
0.0
  0
LINE
  5
1B9
  8
L
 10
-1.1
 20
0.28
 30
0.0
 11
-1.07
 21
0.31
 31
0.0
  0
ARC
  5
1BA
  8
L
 10
-0.1
 20
0.28
 30
0.0
 40
0.015
 50
180.0
 51
0.0
  0
LINE
  5
1BB
  8
L
 10
-0.085
 20
0.28
 30
0.0
 11
-0.017417
 21
0.28
 31
0.0
  0
ARC
  5
1BC
  8
L
 10
-0.098549
 20
0.0
 30
0.0
 40
0.178951
 50
128.520966
 51
231.479034
  0
ARC
  5
1BD
  8
L
 10
-0.180304
 20
-0.232892
 30
0.0
 40
0.097516
 50
107.729791
 51
232.253391
  0
ARC
  5
1BE
  8
L
 10
-0.180304
 20
0.232892
 30
0.0
 40
0.097516
 50
127.746609
 51
252.270209
  0
LINE
  5
1BF
  8
L
 10
-1.07
 20
0.31
 30
0.0
 11
-1.07
 21
-0.31
 31
0.0
  0
LINE
  5
1C0
  8
D
 10
-0.1775
 20
0.31
 30
0.0
 11
0.749535
 21
0.31
 31
0.0
  0
LINE
  5
1C1
  8
D
 10
-0.1775
 20
-0.31
 30
0.0
 11
0.749535
 21
-0.31
 31
0.0
  0
LINE
  5
1C2
  8
D
 10
0.687035
 20
0.435
 30
0.0
 11
0.687035
 21
0.56
 31
0.0
  0
LINE
  5
1C3
  8
D
 10
0.687035
 20
-0.435
 30
0.0
 11
0.687035
 21
-0.56
 31
0.0
  0
SOLID
  5
1C4
  8
D
 10
0.666201
 20
0.435
 30
0.0
 11
0.707868
 21
0.435
 31
0.0
 12
0.687035
 22
0.31
 32
0.0
 13
0.687035
 23
0.31
 33
0.0
  0
SOLID
  5
1C5
  8
D
 10
0.666201
 20
-0.435
 30
0.0
 11
0.707868
 21
-0.435
 31
0.0
 12
0.687035
 22
-0.31
 32
0.0
 13
0.687035
 23
-0.31
 33
0.0
  0
TEXT
  5
1C6
  8
D
 10
0.562035
 20
-0.0625
 30
0.0
 40
0.125
  1
.62
 72
     1
 11
0.687035
 21
0.0
 31
0.0
 73
     2
  0
ENDBLK
  5
1C7
  8
0
  0
BLOCK
  8
0
  2
A
 70
     0
 10
13.6875
 20
4.41218
 30
0.0
  3
A
  1

  0
TEXT
  5
3B1
  8
D
 10
13.894948
 20
4.49565
 30
0.0
 40
0.15
  1
A
  0
ENDBLK
  5
3B2
  8
0
  0
BLOCK
  8
0
  2
B
 70
     0
 10
14.187233
 20
4.41218
 30
0.0
  3
B
  1

  0
TEXT
  5
3B4
  8
D
 10
14.381279
 20
4.49565
 30
0.0
 40
0.15
  1
B
  0
ENDBLK
  5
3B5
  8
0
  0
BLOCK
  8
0
  2
2DFEAT
 70
     0
 10
13.674574
 20
1.41218
 30
0.0
  3
2DFEAT
  1

  0
LINE
  5
3B7
  8
D
 10
15.173774
 20
1.41218
 30
0.0
 11
15.173774
 21
1.71202
 31
0.0
  0
LINE
  5
3B8
  8
D
 10
13.674574
 20
1.41218
 30
0.0
 11
13.674574
 21
1.71202
 31
0.0
  0
LINE
  5
3B9
  8
D
 10
14.174307
 20
1.41218
 30
0.0
 11
14.174307
 21
1.71202
 31
0.0
  0
LINE
  5
3BA
  8
D
 10
16.107912
 20
1.71202
 30
0.0
 11
16.107912
 21
1.41218
 31
0.0
  0
LINE
  5
3BB
  8
D
 10
14.674041
 20
1.41218
 30
0.0
 11
14.674041
 21
1.71202
 31
0.0
  0
LINE
  5
3BC
  8
D
 10
13.674574
 20
1.71202
 30
0.0
 11
16.107912
 21
1.71202
 31
0.0
  0
LINE
  5
3BD
  8
D
 10
16.107912
 20
1.41218
 30
0.0
 11
13.674574
 21
1.41218
 31
0.0
  0
ENDBLK
  5
3BE
  8
0
  0
BLOCK
  8
0
  2
0005
 70
     0
 10
16.625
 20
1.375
 30
0.0
  3
0005
  1

  0
TEXT
  5
3C0
  8
D
 10
16.753264
 20
1.441082
 30
0.0
 40
0.15
  1
.0005
  0
ENDBLK
  5
3C1
  8
0
  0
BLOCK
  8
0
  2
1DFEAT
 70
     0
 10
13.674574
 20
2.01186
 30
0.0
  3
1DFEAT
  1

  0
LINE
  5
3C3
  8
D
 10
14.674041
 20
2.01186
 30
0.0
 11
14.674041
 21
2.3117
 31
0.0
  0
LINE
  5
3C4
  8
D
 10
14.174307
 20
2.01186
 30
0.0
 11
14.174307
 21
2.3117
 31
0.0
  0
LINE
  5
3C5
  8
D
 10
15.673507
 20
2.01186
 30
0.0
 11
13.674574
 21
2.01186
 31
0.0
  0
LINE
  5
3C6
  8
D
 10
15.673507
 20
2.3117
 30
0.0
 11
15.673507
 21
2.01186
 31
0.0
  0
LINE
  5
3C7
  8
D
 10
13.674574
 20
2.3117
 30
0.0
 11
15.673507
 21
2.3117
 31
0.0
  0
LINE
  5
3C8
  8
D
 10
13.674574
 20
2.01186
 30
0.0
 11
13.674574
 21
2.3117
 31
0.0
  0
ENDBLK
  5
3C9
  8
0
  0
BLOCK
  8
0
  2
PERP
 70
     0
 10
12.875
 20
2.3117
 30
0.0
  3
PERP
  1

  0
LINE
  5
3CB
  8
D
 10
12.97035
 20
2.355393
 30
0.0
 11
13.27019
 21
2.355393
 31
0.0
  0
LINE
  5
3CC
  8
D
 10
13.12027
 20
2.355393
 30
0.0
 11
13.12027
 21
2.555287
 31
0.0
  0
ENDBLK
  5
3CD
  8
0
  0
BLOCK
  8
0
  2
PARALLEL
 70
     0
 10
12.875
 20
2.01186
 30
0.0
  3
PARALLEL
  1

  0
LINE
  5
3CF
  8
D
 10
12.994308
 20
2.060453
 30
0.0
 11
13.079001
 21
2.262779
 31
0.0
  0
LINE
  5
3D0
  8
D
 10
13.186116
 20
2.060453
 30
0.0
 11
13.27081
 21
2.262779
 31
0.0
  0
ENDBLK
  5
3D1
  8
0
  0
BLOCK
  8
0
  2
0002
 70
     0
 10
16.625
 20
2.27452
 30
0.0
  3
0002
  1

  0
TEXT
  5
3D3
  8
D
 10
16.789201
 20
2.34549
 30
0.0
 40
0.15
  1
.0002
  0
ENDBLK
  5
3D4
  8
0
  0
BLOCK
  8
0
  2
DATUM
 70
     0
 10
13.674574
 20
2.611541
 30
0.0
  3
DATUM
  1

  0
LINE
  5
3D6
  8
D
 10
14.3742
 20
2.611541
 30
0.0
 11
13.674574
 21
2.611541
 31
0.0
  0
LINE
  5
3D7
  8
D
 10
14.18123
 20
2.765565
 30
0.0
 11
14.281177
 21
2.765565
 31
0.0
  0
LINE
  5
3D8
  8
D
 10
13.781443
 20
2.765565
 30
0.0
 11
13.88139
 21
2.765565
 31
0.0
  0
LINE
  5
3D9
  8
D
 10
14.3742
 20
2.911381
 30
0.0
 11
14.3742
 21
2.611541
 31
0.0
  0
LINE
  5
3DA
  8
D
 10
13.674574
 20
2.911381
 30
0.0
 11
14.3742
 21
2.911381
 31
0.0
  0
LINE
  5
3DB
  8
D
 10
13.674574
 20
2.611541
 30
0.0
 11
13.674574
 21
2.911381
 31
0.0
  0
ENDBLK
  5
3DC
  8
0
  0
BLOCK
  8
0
  2
15016
 70
     0
 10
0.0
 20
0.0
 30
0.0
  3
15016
  1

  0
TEXT
  5
3DE
  8
D
 10
-0.212545
 20
0.125
 30
0.0
 40
0.15
  1
16
  0
LINE
  5
3DF
  8
D
 10
0.0
 20
0.0
 30
0.0
 11
0.1875
 21
0.375
 31
0.0
  0
LINE
  5
3E0
  8
D
 10
-0.0625
 20
0.125
 30
0.0
 11
0.0
 21
0.0
 31
0.0
  0
ENDBLK
  5
3E1
  8
0
  0
BLOCK
  8
0
  2
TRUNOUT
 70
     0
 10
0.0
 20
0.0
 30
0.0
  3
TRUNOUT
  1

  0
SOLID
  5
3E3
  8
D
 10
0.347813
 20
0.166445
 30
0.0
 11
0.377611
 21
0.151546
 31
0.0
 12
0.407409
 22
0.248391
 32
0.0
 13
0.407409
 23
0.248391
 33
0.0
  0
LINE
  5
3E4
  8
D
 10
0.362712
 20
0.158996
 30
0.0
 11
0.307463
 21
0.048497
 31
0.0
  0
LINE
  5
3E5
  8
D
 10
0.307463
 20
0.048497
 30
0.0
 11
0.107569
 21
0.048497
 31
0.0
  0
LINE
  5
3E6
  8
D
 10
0.162818
 20
0.158996
 30
0.0
 11
0.107569
 21
0.048497
 31
0.0
  0
SOLID
  5
3E7
  8
D
 10
0.147919
 20
0.166445
 30
0.0
 11
0.177718
 21
0.151546
 31
0.0
 12
0.207516
 22
0.248391
 32
0.0
 13
0.207516
 23
0.248391
 33
0.0
  0
ENDBLK
  5
3E8
  8
0
  0
BLOCK
  8
0
  2
CIRC
 70
     0
 10
0.0
 20
0.0
 30
0.0
  3
CIRC
  1

  0
CIRCLE
  5
3EA
  8
D
 10
0.255071
 20
0.14115
 30
0.0
 40
0.119845
  0
ENDBLK
  5
3EB
  8
0
  0
BLOCK
  8
0
  2
SCARRW
 70
     0
 10
0.0
 20
0.0
 30
0.0
  3
SCARRW
  1

  0
LINE
  5
3ED
  8
D
 10
0.0
 20
0.206056
 30
0.0
 11
0.0
 21
0.0
 31
0.0
  0
LINE
  5
3EE
  8
D
 10
-0.30911
 20
0.433083
 30
0.0
 11
-0.30911
 21
0.206056
 31
0.0
  0
LINE
  5
3EF
  8
D
 10
-1.172229
 20
0.206056
 30
0.0
 11
-0.30911
 21
0.433083
 31
0.0
  0
LINE
  5
3F0
  8
D
 10
-1.172229
 20
0.206056
 30
0.0
 11
0.0
 21
0.206056
 31
0.0
  0
ENDBLK
  5
3F1
  8
0
  0
BLOCK
  8
0
  2
SECA
 70
     0
 10
0.0
 20
0.0
 30
0.0
  3
SECA
  1

  0
TEXT
  5
3F3
  8
D
 10
-0.125
 20
0.1875
 30
0.0
 40
0.125
  1
"A"
  7
ITALICT
  0
ENDBLK
  5
3F5
  8
0
  0
BLOCK
  8
0
  2
SECAA
 70
     0
 10
0.0
 20
0.0
 30
0.0
  3
SECAA
  1

  0
LINE
  5
3F7
  8
D
 10
-0.8125
 20
0.1875
 30
0.0
 11
0.875
 21
0.1875
 31
0.0
  0
LINE
  5
3F8
  8
D
 10
-0.875
 20
0.25
 30
0.0
 11
0.9375
 21
0.25
 31
0.0
  0
TEXT
  5
3F9
  8
D
 10
-0.8125
 20
0.3125
 30
0.0
 40
0.125
  1
SECTION "A"-"A"
  7
ITALICT
  0
ENDBLK
  5
3FA
  8
0
  0
BLOCK
  8
0
  2
BSIZE
 70
     2
 10
0.0
 20
0.0
 30
0.0
  3
BSIZE
  1

  0
LINE
  5
6C0
  8
F
 10
16.0
 20
0.5
 30
0.0
 11
9.25
 21
0.5
 31
0.0
  0
LINE
  5
6C1
  8
F
 10
9.25
 20
1.5
 30
0.0
 11
16.0
 21
1.5
 31
0.0
  0
LINE
  5
6C2
  8
F
 10
6.0
 20
0.5
 30
0.0
 11
2.25
 21
0.5
 31
0.0
  0
LINE
  5
6C3
  8
F
 10
9.25
 20
0.75
 30
0.0
 11
16.0
 21
0.75
 31
0.0
  0
LINE
  5
6C4
  8
F
 10
6.0
 20
1.0
 30
0.0
 11
2.25
 21
1.0
 31
0.0
  0
LINE
  5
6C5
  8
F
 10
9.25
 20
1.25
 30
0.0
 11
16.0
 21
1.25
 31
0.0
  0
LINE
  5
6C6
  8
F
 10
0.0
 20
0.0
 30
0.0
 11
16.0
 21
0.0
 31
0.0
  0
LINE
  5
6C7
  8
F
 10
16.0
 20
0.0
 30
0.0
 11
16.0
 21
10.0
 31
0.0
  0
LINE
  5
6C8
  8
F
 10
16.0
 20
10.0
 30
0.0
 11
0.0
 21
10.0
 31
0.0
  0
LINE
  5
6C9
  8
F
 10
0.0
 20
10.0
 30
0.0
 11
0.0
 21
0.0
 31
0.0
  0
LINE
  5
6CA
  8
F
 10
9.25
 20
0.0
 30
0.0
 11
9.25
 21
1.5
 31
0.0
  0
LINE
  5
6CB
  8
F
 10
8.75
 20
0.0
 30
0.0
 11
8.75
 21
0.5
 31
0.0
  0
LINE
  5
6CC
  8
F
 10
14.75
 20
0.5
 30
0.0
 11
14.75
 21
0.75
 31
0.0
  0
LINE
  5
6CD
  8
F
 10
11.75
 20
0.5
 30
0.0
 11
11.75
 21
0.75
 31
0.0
  0
TEXT
  5
6CE
  8
F
 10
13.28834
 20
0.348296
 30
0.0
 40
0.093
  1
DRAWING NO.
 72
     1
 11
13.75334
 21
0.348296
 31
0.0
  0
TEXT
  5
6CF
  8
F
 10
8.84696
 20
0.361402
 30
0.0
 40
0.093
  1
REV.
 72
     1
 11
9.00196
 21
0.361402
 31
0.0
  0
TEXT
  5
6D0
  8
F
 10
13.283821
 20
0.641219
 30
0.0
 40
0.07
  1
DRAWN
  0
TEXT
  5
6D1
  8
F
 10
13.292628
 20
0.529161
 30
0.0
 40
0.07
  1
BY
  0
TEXT
  5
6D2
  8
F
 10
14.791455
 20
0.650393
 30
0.0
 40
0.07
  1
DATE
  0
TEXT
  5
6D3
  8
F
 10
11.79215
 20
0.632045
 30
0.0
 40
0.07
  1
SCALE
  0
TEXT
  5
6D4
  8
F
 10
9.28438
 20
1.402687
 30
0.0
 40
0.07
  1
NAME
  0
TEXT
  5
6D5
  8
F
 10
9.289334
 20
1.144495
 30
0.0
 40
0.07
  1
MATERIAL
  0
TEXT
  5
6D6
  8
F
 10
9.294839
 20
0.891547
 30
0.0
 40
0.07
  1
HEAT TREAT
  0
TEXT
  5
6D7
  8
F
 10
9.288784
 20
0.647117
 30
0.0
 40
0.07
  1
FINISH
  0
TEXT
  5
6D8
  8
F
 10
4.50269
 20
9.858716
 30
0.0
 40
0.0575
  1
THIS DOCUMENT CONTAINS PROPRIETARY INFORMATION OF PARLEC INC. AND IS SUBJECT TO BEING RETURNED UPON REQUEST. IT SHALL NOT BE REPRODUCED IN WHOLE
  0
TEXT
  5
6D9
  8
F
 10
4.50269
 20
9.762882
 30
0.0
 40
0.0575
  1
OR IN PART WITHOUT WRITTEN PERMISSION OF PARLEC INC. ANY AUTHORIZED REPRODUCTION MUST BEAR THIS ENTIRE LEGEND.
  0
TEXT
  5
6DA
  8
F
 10
0.182089
 20
1.341743
 30
0.0
 40
0.07
  1
UNLESS OTHERWISE SPECIFIED
  0
TEXT
  5
6DB
  8
F
 10
0.182089
 20
1.225076
 30
0.0
 40
0.07
  1
BREAK ALL EDGES .010 X 45%%127
  0
TEXT
  5
6DC
  8
F
 10
0.182089
 20
1.10841
 30
0.0
 40
0.07
  1
CONCENTRICITY TO -A- .002 TIR
  0
TEXT
  5
6DD
  8
F
 10
0.182089
 20
0.991743
 30
0.0
 40
0.07
  1
UNMARKED ANGLES ARE 45%%127
  0
TEXT
  5
6DE
  8
F
 10
0.182089
 20
0.875076
 30
0.0
 40
0.07
  1
DECIMAL: .XX=%%P.015
  0
TEXT
  5
6DF
  8
F
 10
0.182089
 20
0.75841
 30
0.0
 40
0.07
  1
        .XXX=%%P.005
  0
TEXT
  5
6E0
  8
F
 10
0.182089
 20
0.641743
 30
0.0
 40
0.07
  1
        .XXXX=%%P.0005
  0
TEXT
  5
6E1
  8
F
 10
0.182089
 20
0.525076
 30
0.0
 40
0.07
  1
ANGULAR: DEGREE=%%P1%%127
  0
TEXT
  5
6E2
  8
F
 10
0.182089
 20
0.40841
 30
0.0
 40
0.07
  1
        MINUTES=%%P15'
  0
LINE
  5
6E3
  8
F
 10
0.0
 20
1.5
 30
0.0
 11
6.0
 21
1.5
 31
0.0
  0
LINE
  5
6E4
  8
F
 10
13.25
 20
0.0
 30
0.0
 11
13.25
 21
0.75
 31
0.0
  0
LINE
  5
6E5
  8
F
 10
2.25
 20
0.0
 30
0.0
 11
2.25
 21
1.5
 31
0.0
  0
LINE
  5
6E6
  8
F
 10
6.0
 20
0.0
 30
0.0
 11
6.0
 21
1.5
 31
0.0
  0
LINE
  5
6E7
  8
F
 10
2.25
 20
0.25
 30
0.0
 11
6.0
 21
0.25
 31
0.0
  0
TEXT
  5
6E8
  8
F
 10
2.295749
 20
0.087484
 30
0.0
 40
0.07
  1
LETTER
  0
TEXT
  5
6E9
  8
F
 10
3.548533
 20
0.070446
 30
0.0
 40
0.07
  1
REVISION
  0
TEXT
  5
6EA
  8
F
 10
5.109559
 20
0.078965
 30
0.0
 40
0.07
  1
DATE
  0
TEXT
  5
6EB
  8
F
 10
5.675403
 20
0.078965
 30
0.0
 40
0.07
  1
BY
  0
LINE
  5
6EC
  8
F
 10
5.0
 20
1.5
 30
0.0
 11
5.0
 21
0.0
 31
0.0
  0
LINE
  5
6ED
  8
F
 10
2.75
 20
1.5
 30
0.0
 11
2.75
 21
0.0
 31
0.0
  0
LINE
  5
6EE
  8
F
 10
5.5
 20
1.5
 30
0.0
 11
5.5
 21
0.0
 31
0.0
  0
LINE
  5
6EF
  8
F
 10
2.25
 20
1.25
 30
0.0
 11
6.0
 21
1.25
 31
0.0
  0
LINE
  5
6F0
  8
F
 10
16.0
 20
1.0
 30
0.0
 11
9.25
 21
1.0
 31
0.0
  0
LINE
  5
6F1
  8
F
 10
2.25
 20
0.75
 30
0.0
 11
6.0
 21
0.75
 31
0.0
  0
LINE
  5
6F2
  8
F
 10
9.25
 20
0.5
 30
0.0
 11
8.75
 21
0.5
 31
0.0
  0
TEXT
  5
6F3
  8
F
 10
10.259511
 20
0.070683
 30
0.0
 40
0.08835
  1
FAIRPORT, NEW YORK 14450
  0
LINE
  5
6F4
  8
F
 10
10.264413
 20
0.349603
 30
0.0
 11
10.264413
 21
0.192126
 31
0.0
  0
LINE
  5
6F5
  8
F
 10
10.264413
 20
0.192126
 30
0.0
 11
10.323911
 21
0.192126
 31
0.0
  0
LINE
  5
6F6
  8
F
 10
10.899942
 20
0.453918
 30
0.0
 11
10.959441
 21
0.453918
 31
0.0
  0
ARC
  5
6F7
  8
F
 10
10.368654
 20
0.349603
 30
0.0
 40
0.104241
 50
269.890544
 51
179.99999
  0
LINE
  5
6F8
  8
F
 10
10.323911
 20
0.304812
 30
0.0
 11
10.323911
 21
0.192126
 31
0.0
  0
LINE
  5
6F9
  8
F
 10
10.323911
 20
0.304812
 30
0.0
 11
10.368455
 21
0.245362
 31
0.0
  0
CIRCLE
  5
6FA
  8
F
 10
10.368654
 20
0.349603
 30
0.0
 40
0.047599
  0
ARC
  5
6FB
  8
F
 10
10.592881
 20
0.296367
 30
0.0
 40
0.104241
 50
0.018858
 51
278.071967
  0
ARC
  5
6FC
  8
F
 10
11.089105
 20
0.296367
 30
0.0
 40
0.104241
 50
14.507251
 51
328.258317
  0
ARC
  5
6FD
  8
F
 10
11.308135
 20
0.296367
 30
0.0
 40
0.104241
 50
30.701399
 51
270.0
  0
LINE
  5
6FE
  8
F
 10
10.697122
 20
0.296401
 30
0.0
 11
10.697156
 21
0.192195
 31
0.0
  0
LINE
  5
6FF
  8
F
 10
10.637637
 20
0.255542
 30
0.0
 11
10.637658
 21
0.192126
 31
0.0
  0
LINE
  5
700
  8
F
 10
10.637637
 20
0.255542
 30
0.0
 11
10.607518
 21
0.193159
 31
0.0
  0
CIRCLE
  5
701
  8
F
 10
10.592881
 20
0.296367
 30
0.0
 40
0.047599
  0
ARC
  5
702
  8
F
 10
10.592881
 20
0.296367
 30
0.0
 40
0.104241
 50
0.018858
 51
278.071967
  0
LINE
  5
703
  8
F
 10
10.697122
 20
0.296401
 30
0.0
 11
10.697156
 21
0.192126
 31
0.0
  0
LINE
  5
704
  8
F
 10
10.725714
 20
0.32489
 30
0.0
 11
10.725976
 21
0.192126
 31
0.0
  0
ARC
  5
705
  8
F
 10
10.801431
 20
0.32489
 30
0.0
 40
0.075717
 50
18.84596
 51
180.226252
  0
LINE
  5
706
  8
F
 10
10.875839
 20
0.350883
 30
0.0
 11
10.832731
 21
0.326832
 31
0.0
  0
LINE
  5
707
  8
F
 10
10.785212
 20
0.32489
 30
0.0
 11
10.785474
 21
0.192126
 31
0.0
  0
ARC
  5
708
  8
F
 10
10.809011
 20
0.32489
 30
0.0
 40
0.023799
 50
4.679095
 51
180.226252
  0
LINE
  5
709
  8
F
 10
10.899942
 20
0.453918
 30
0.0
 11
10.899942
 21
0.192126
 31
0.0
  0
LINE
  5
70A
  8
F
 10
10.959441
 20
0.453918
 30
0.0
 11
10.959441
 21
0.192126
 31
0.0
  0
ARC
  5
70B
  8
F
 10
11.089105
 20
0.296367
 30
0.0
 40
0.053548
 50
64.071568
 51
172.253555
  0
LINE
  5
70C
  8
F
 10
11.112519
 20
0.344525
 30
0.0
 11
11.036045
 21
0.303585
 31
0.0
  0
LINE
  5
70D
  8
F
 10
11.190022
 20
0.32248
 30
0.0
 11
11.058792
 21
0.252225
 31
0.0
  0
LINE
  5
70E
  8
F
 10
11.136488
 20
0.271421
 30
0.0
 11
11.177754
 21
0.241527
 31
0.0
  0
ARC
  5
70F
  8
F
 10
11.089105
 20
0.296367
 30
0.0
 40
0.053548
 50
235.5219
 51
332.233825
  0
ARC
  5
710
  8
F
 10
11.308135
 20
0.296367
 30
0.0
 40
0.053548
 50
37.476042
 51
270.0
  0
LINE
  5
711
  8
F
 10
11.397766
 20
0.349589
 30
0.0
 11
11.350632
 21
0.328947
 31
0.0
  0
LINE
  5
712
  8
F
 10
11.308135
 20
0.242819
 30
0.0
 11
11.438428
 21
0.242819
 31
0.0
  0
LINE
  5
713
  8
F
 10
11.438428
 20
0.242819
 30
0.0
 11
11.412209
 21
0.192126
 31
0.0
  0
LINE
  5
714
  8
F
 10
11.308135
 20
0.192126
 30
0.0
 11
11.412209
 21
0.192126
 31
0.0
  0
LINE
  5
715
  8
F
 10
10.899942
 20
0.192126
 30
0.0
 11
10.959441
 21
0.192126
 31
0.0
  0
LINE
  5
716
  8
F
 10
10.725976
 20
0.192126
 30
0.0
 11
10.785474
 21
0.192126
 31
0.0
  0
LINE
  5
717
  8
F
 10
10.637658
 20
0.192126
 30
0.0
 11
10.697156
 21
0.192126
 31
0.0
  0
ATTDEF
  5
718
  8
0
 10
9.6875
 20
1.3125
 30
0.0
 40
0.125
  1

  3
PART NAME (33 CHAR)
  2
PARTNAME
 70
     0
  0
ATTDEF
  5
719
  8
0
 10
9.9375
 20
1.0625
 30
0.0
 40
0.125
  1
86L20
  3
MATERIAL (31 CHAR)
  2
MATERIAL
 70
     0
  0
ATTDEF
  5
71A
  8
0
 10
10.0625
 20
0.8125
 30
0.0
 40
0.125
  1
----------
  3
HEAT TREAT (29 CHAR)
  2
HEATTREAT
 70
     0
  0
ATTDEF
  5
71B
  8
0
 10
9.847004
 20
0.563115
 30
0.0
 40
0.125
  1
BLK OX
  3
FINISH (8 CHAR)
  2
FINISH
 70
     0
  0
ATTDEF
  5
71C
  8
0
 10
12.1875
 20
0.5625
 30
0.0
 40
0.125
  1
FULL
  3
SCALE (5 CHAR)
  2
SCALE
 70
     0
  0
ATTDEF
  5
71D
  8
0
 10
13.9375
 20
0.5625
 30
0.0
 40
0.125
  1
MAH
  3
DRAWN BY (6 CHAR)
  2
NAME
 70
     0
  0
ATTDEF
  5
71E
  8
0
 10
15.125
 20
0.5625
 30
0.0
 40
0.125
  1

 41
1.227273
 72
     5
 11
15.6875
 21
0.5625
 31
0.0
  3

  2
DATE
 70
     0
  0
ATTDEF
  5
71F
  8
0
 10
13.5
 20
0.125
 30
0.0
 40
0.125
  1

  3
PART # (13 CHAR)
  2
PART#
 70
     0
  0
ATTDEF
  5
720
  8
0
 10
8.9375
 20
0.125
 30
0.0
 40
0.125
  1
A
  3

  2
REV
 70
     0
  0
ATTDEF
  5
721
  8
0
 10
2.4375
 20
0.3125
 30
0.0
 40
0.125
  1
A
  3

  2
LREV
 70
     0
  0
ATTDEF
  5
722
  8
0
 10
2.4375
 20
0.5625
 30
0.0
 40
0.125
  1

  3

  2
LREV
 70
     8
  0
ATTDEF
  5
723
  8
0
 10
2.4375
 20
0.8125
 30
0.0
 40
0.125
  1

  3

  2
LREV
 70
     8
  0
ATTDEF
  5
724
  8
0
 10
2.4375
 20
1.0625
 30
0.0
 40
0.125
  1

  3

  2
LREV
 70
     8
  0
ATTDEF
  5
725
  8
0
 10
2.4375
 20
1.3125
 30
0.0
 40
0.125
  1

  3

  2
LREV
 70
     8
  0
ATTDEF
  5
726
  8
0
 10
2.8125
 20
1.3125
 30
0.0
 40
0.125
  1

  3

  2
REVISION
 70
     8
  0
ATTDEF
  5
727
  8
0
 10
2.8125
 20
1.0625
 30
0.0
 40
0.125
  1

  3

  2
REVISION
 70
     8
  0
ATTDEF
  5
728
  8
0
 10
2.8125
 20
0.8125
 30
0.0
 40
0.125
  1

  3

  2
REVISION
 70
     8
  0
ATTDEF
  5
729
  8
0
 10
2.8125
 20
0.5625
 30
0.0
 40
0.125
  1

  3

  2
REVISION
 70
     8
  0
ATTDEF
  5
72A
  8
0
 10
2.8125
 20
0.3125
 30
0.0
 40
0.125
  1
RELEASED
  3
REVISION (8 CHAR)
  2
REVISION
 70
     0
  0
ATTDEF
  5
72B
  8
0
 10
5.0625
 20
0.5625
 30
0.0
 40
0.125
  1

 41
0.75
 72
     5
 11
5.4375
 21
0.5625
 31
0.0
  3
REVISION DATE
  2
REVD
 70
     8
  0
ATTDEF
  5
72C
  8
0
 10
5.0625
 20
0.3125
 30
0.0
 40
0.125
  1

 41
0.75
 72
     5
 11
5.4375
 21
0.3125
 31
0.0
  3
REVISION DATE
  2
REVD
 70
     0
  0
ATTDEF
  5
72D
  8
0
 10
5.0625
 20
0.8125
 30
0.0
 40
0.125
  1

 41
0.75
 72
     5
 11
5.4375
 21
0.8125
 31
0.0
  3
REVISION DATE
  2
REVD
 70
     8
  0
ATTDEF
  5
72E
  8
0
 10
5.0625
 20
1.0625
 30
0.0
 40
0.125
  1

 41
0.75
 72
     5
 11
5.4375
 21
1.0625
 31
0.0
  3
REVISION DATE
  2
REVD
 70
     8
  0
ATTDEF
  5
72F
  8
0
 10
5.0625
 20
1.3125
 30
0.0
 40
0.125
  1

 41
0.75
 72
     5
 11
5.4375
 21
1.3125
 31
0.0
  3
REVISION DATE
  2
REVD
 70
     8
  0
ATTDEF
  5
730
  8
0
 10
5.5625
 20
1.3125
 30
0.0
 40
0.125
  1

  3
REVISION BY
  2
REVBY
 70
     8
  0
ATTDEF
  5
731
  8
0
 10
5.5625
 20
1.0625
 30
0.0
 40
0.125
  1

  3
REVISION BY
  2
REVBY
 70
     8
  0
ATTDEF
  5
732
  8
0
 10
5.5625
 20
0.8125
 30
0.0
 40
0.125
  1

  3
REVISION BY
  2
REVBY
 70
     8
  0
ATTDEF
  5
733
  8
0
 10
5.5625
 20
0.5625
 30
0.0
 40
0.125
  1

  3
REVISION BY
  2
REVBY
 70
     8
  0
ATTDEF
  5
734
  8
0
 10
5.5625
 20
0.3125
 30
0.0
 40
0.125
  1
MAH
  3
REVISION BY
  2
REVBY
 70
     0
  0
LINE
  5
735
  8
D
 10
14.0
 20
9.5
 30
0.0
 11
14.0
 21
10.0
 31
0.0
  0
LINE
  5
736
  8
D
 10
12.0
 20
9.5
 30
0.0
 11
12.0
 21
9.776289
 31
0.0
  0
LINE
  5
737
  8
D
 10
16.0
 20
10.0
 30
0.0
 11
15.646447
 21
9.646447
 31
0.0
  0
TEXT
  5
738
  8
D
 10
14.9375
 20
9.7
 30
0.0
 40
0.125
  1
8
  0
TEXT
  5
739
  8
D
 10
15.6375
 20
9.0
 30
0.0
 40
0.125
  1
A
  0
TEXT
  5
73A
  8
D
 10
12.9375
 20
9.7
 30
0.0
 40
0.125
  1
7
  0
TEXT
  5
73B
  8
D
 10
10.9375
 20
9.45
 30
0.0
 40
0.125
  1
6
  0
TEXT
  5
73C
  8
D
 10
8.9375
 20
9.45
 30
0.0
 40
0.125
  1
5
  0
TEXT
  5
73D
  8
D
 10
6.9375
 20
9.45
 30
0.0
 40
0.125
  1
4
  0
TEXT
  5
73E
  8
D
 10
4.9375
 20
9.45
 30
0.0
 40
0.125
  1
3
  0
LINE
  5
73F
  8
D
 10
16.0
 20
8.0
 30
0.0
 11
15.5
 21
8.0
 31
0.0
  0
LINE
  5
740
  8
D
 10
16.0
 20
6.0
 30
0.0
 11
15.5
 21
6.0
 31
0.0
  0
LINE
  5
741
  8
D
 10
16.0
 20
4.0
 30
0.0
 11
15.5
 21
4.0
 31
0.0
  0
TEXT
  5
742
  8
D
 10
15.6375
 20
7.0
 30
0.0
 40
0.125
  1
B
  0
TEXT
  5
743
  8
D
 10
15.6375
 20
5.0
 30
0.0
 40
0.125
  1
C
  0
TEXT
  5
744
  8
D
 10
15.6375
 20
3.0
 30
0.0
 40
0.125
  1
D
  0
LINE
  5
745
  8
D
 10
6.0
 20
9.5
 30
0.0
 11
6.0
 21
9.686653
 31
0.0
  0
LINE
  5
746
  8
D
 10
4.0
 20
9.5
 30
0.0
 11
4.0
 21
10.0
 31
0.0
  0
LINE
  5
747
  8
D
 10
2.0
 20
9.5
 30
0.0
 11
2.0
 21
10.0
 31
0.0
  0
LINE
  5
748
  8
D
 10
8.0
 20
9.5
 30
0.0
 11
8.0
 21
9.686653
 31
0.0
  0
LINE
  5
749
  8
D
 10
10.0
 20
9.5
 30
0.0
 11
10.0
 21
9.686653
 31
0.0
  0
TEXT
  5
74A
  8
D
 10
2.9375
 20
9.7
 30
0.0
 40
0.125
  1
2
  0
TEXT
  5
74B
  8
D
 10
0.9375
 20
9.7
 30
0.0
 40
0.125
  1
1
  0
ENDBLK
  5
74C
  8
0
  0
BLOCK
  8
0
  2
32FINISH
 70
     0
 10
0.0
 20
0.0
 30
0.0
  3
32FINISH
  1

  0
LINE
  5
99A
  8
D
 10
-0.0625
 20
0.0625
 30
0.0
 11
0.0
 21
0.0
 31
0.0
  0
LINE
  5
99B
  8
D
 10
0.0
 20
0.0
 30
0.0
 11
0.125
 21
0.3125
 31
0.0
  0
TEXT
  5
99C
  8
D
 10
-0.206321
 20
0.066706
 30
0.0
 40
0.125
  1
32
  0
ENDBLK
  5
99D
  8
0
  0
BLOCK
  8
0
  2
*D20
 70
     1
 10
0.0
 20
0.0
 30
0.0
  3
*D20
  1

  0
LINE
  5
9B0
  8
0
  6
BYBLOCK
 62
     0
 10
0.0
 20
0.9375
 30
0.0
 11
0.0
 21
1.954866
 31
0.0
  0
LINE
  5
9B1
  8
0
  6
BYBLOCK
 62
     0
 10
3.38
 20
0.2775
 30
0.0
 11
3.38
 21
1.954866
 31
0.0
  0
LINE
  5
9B2
  8
0
  6
BYBLOCK
 62
     0
 10
0.12
 20
1.904866
 30
0.0
 11
1.4125
 21
1.904866
 31
0.0
  0
LINE
  5
9B3
  8
0
  6
BYBLOCK
 62
     0
 10
3.26
 20
1.904866
 30
0.0
 11
1.9675
 21
1.904866
 31
0.0
  0
SOLID
  5
9B4
  8
0
  6
BYBLOCK
 62
     0
 10
0.12
 20
1.924866
 30
0.0
 11
0.12
 21
1.884866
 31
0.0
 12
0.0
 22
1.904866
 32
0.0
 13
0.0
 23
1.904866
 33
0.0
  0
SOLID
  5
9B5
  8
0
  6
BYBLOCK
 62
     0
 10
3.26
 20
1.924866
 30
0.0
 11
3.26
 21
1.884866
 31
0.0
 12
3.38
 22
1.904866
 32
0.0
 13
3.38
 23
1.904866
 33
0.0
  0
TEXT
  5
9B6
  8
0
  6
BYBLOCK
 62
     0
 10
1.5025
 20
1.842366
 30
0.0
 40
0.125
  1
3.38
 72
     1
 11
1.69
 21
1.904866
 31
0.0
 73
     2
  0
POINT
  5
9B7
  8
DEFPOINTS
  6
BYBLOCK
 62
     0
 10
0.0
 20
0.875
 30
0.0
  0
POINT
  5
9B8
  8
DEFPOINTS
  6
BYBLOCK
 62
     0
 10
3.38
 20
0.215
 30
0.0
  0
POINT
  5
9B9
  8
DEFPOINTS
  6
BYBLOCK
 62
     0
 10
3.38
 20
1.904866
 30
0.0
  0
ENDBLK
  5
9BA
  8
0
  0
BLOCK
  8
0
  2
*D21
 70
     1
 10
0.0
 20
0.0
 30
0.0
  3
*D21
  1

  0
LINE
  5
9BC
  8
0
  6
BYBLOCK
 62
     0
 10
0.38
 20
-0.175
 30
0.0
 11
0.38
 21
-1.517064
 31
0.0
  0
LINE
  5
9BD
  8
0
  6
BYBLOCK
 62
     0
 10
3.38
 20
-0.2775
 30
0.0
 11
3.38
 21
-1.517064
 31
0.0
  0
LINE
  5
9BE
  8
0
  6
BYBLOCK
 62
     0
 10
0.5
 20
-1.467064
 30
0.0
 11
1.623333
 21
-1.467064
 31
0.0
  0
LINE
  5
9BF
  8
0
  6
BYBLOCK
 62
     0
 10
3.26
 20
-1.467064
 30
0.0
 11
2.136667
 21
-1.467064
 31
0.0
  0
SOLID
  5
9C0
  8
0
  6
BYBLOCK
 62
     0
 10
0.5
 20
-1.447064
 30
0.0
 11
0.5
 21
-1.487064
 31
0.0
 12
0.38
 22
-1.467064
 32
0.0
 13
0.38
 23
-1.467064
 33
0.0
  0
SOLID
  5
9C1
  8
0
  6
BYBLOCK
 62
     0
 10
3.26
 20
-1.447064
 30
0.0
 11
3.26
 21
-1.487064
 31
0.0
 12
3.38
 22
-1.467064
 32
0.0
 13
3.38
 23
-1.467064
 33
0.0
  0
TEXT
  5
9C2
  8
0
  6
BYBLOCK
 62
     0
 10
1.713333
 20
-1.529564
 30
0.0
 40
0.125
  1
3.00
 72
     1
 11
1.88
 21
-1.467064
 31
0.0
 73
     2
  0
POINT
  5
9C3
  8
DEFPOINTS
  6
BYBLOCK
 62
     0
 10
0.38
 20
-0.1125
 30
0.0
  0
POINT
  5
9C4
  8
DEFPOINTS
  6
BYBLOCK
 62
     0
 10
3.38
 20
-0.215
 30
0.0
  0
POINT
  5
9C5
  8
DEFPOINTS
  6
BYBLOCK
 62
     0
 10
3.38
 20
-1.467064
 30
0.0
  0
ENDBLK
  5
9C6
  8
0
  0
BLOCK
  8
0
  2
*D22
 70
     1
 10
0.0
 20
0.0
 30
0.0
  3
*D22
  1

  0
LINE
  5
9EF
  8
0
  6
BYBLOCK
 62
     0
 10
0.0
 20
1.601876
 30
0.0
 11
0.0
 21
1.647077
 31
0.0
  0
LINE
  5
9F0
  8
0
  6
BYBLOCK
 62
     0
 10
1.377
 20
0.9055
 30
0.0
 11
1.377
 21
1.647077
 31
0.0
  0
LINE
  5
9F1
  8
0
  6
BYBLOCK
 62
     0
 10
0.12
 20
1.597077
 30
0.0
 11
0.369333
 21
1.597077
 31
0.0
  0
LINE
  5
9F2
  8
0
  6
BYBLOCK
 62
     0
 10
1.257
 20
1.597077
 30
0.0
 11
1.007667
 21
1.597077
 31
0.0
  0
SOLID
  5
9F3
  8
0
  6
BYBLOCK
 62
     0
 10
0.12
 20
1.617077
 30
0.0
 11
0.12
 21
1.577077
 31
0.0
 12
0.0
 22
1.597077
 32
0.0
 13
0.0
 23
1.597077
 33
0.0
  0
SOLID
  5
9F4
  8
0
  6
BYBLOCK
 62
     0
 10
1.257
 20
1.617077
 30
0.0
 11
1.257
 21
1.577077
 31
0.0
 12
1.377
 22
1.597077
 32
0.0
 13
1.377
 23
1.597077
 33
0.0
  0
TEXT
  5
9F5
  8
0
  6
BYBLOCK
 62
     0
 10
0.459333
 20
1.534577
 30
0.0
 40
0.125
  1
1.375
 72
     1
 11
0.6885
 21
1.597077
 31
0.0
 73
     2
  0
POINT
  5
9F6
  8
DEFPOINTS
  6
BYBLOCK
 62
     0
 10
0.0
 20
1.539376
 30
0.0
  0
POINT
  5
9F7
  8
DEFPOINTS
  6
BYBLOCK
 62
     0
 10
1.377
 20
0.843
 30
0.0
  0
POINT
  5
9F8
  8
DEFPOINTS
  6
BYBLOCK
 62
     0
 10
1.377
 20
1.597077
 30
0.0
  0
ENDBLK
  5
9F9
  8
0
  0
BLOCK
  8
0
  2
C40_1
 70
     0
 10
0.0
 20
0.0
 30
0.0
  3
C40_1
  1

  0
LINE
  5
9FB
  8
L
 10
0.0
 20
0.875
 30
0.0
 11
0.105026
 21
0.875
 31
0.0
  0
LINE
  5
9FC
  8
L
 10
0.105026
 20
-0.875
 30
0.0
 11
0.0
 21
-0.875
 31
0.0
  0
LINE
  5
9FD
  8
L
 10
0.0
 20
0.875
 30
0.0
 11
0.0
 21
-0.875
 31
0.0
  0
LINE
  5
9FE
  8
L
 10
0.0
 20
0.875
 30
0.0
 11
-2.636158
 21
0.49056
 31
0.0
  0
LINE
  5
9FF
  8
H
 10
-2.5
 20
0.3125
 30
0.0
 11
-1.5675
 21
0.3125
 31
0.0
  0
LINE
  5
A00
  8
H
 10
-2.5
 20
0.266
 30
0.0
 11
-1.5675
 21
0.266
 31
0.0
  0
LINE
  5
A01
  8
L
 10
0.0
 20
-0.875
 30
0.0
 11
-2.636158
 21
-0.49056
 31
0.0
  0
LINE
  5
A02
  8
H
 10
-2.5
 20
-0.3125
 30
0.0
 11
-1.5675
 21
-0.3125
 31
0.0
  0
LINE
  5
A03
  8
H
 10
-2.5
 20
-0.266
 30
0.0
 11
-1.5675
 21
-0.266
 31
0.0
  0
LINE
  5
A04
  8
H
 10
-2.5
 20
-0.266
 30
0.0
 11
-2.5
 21
0.266
 31
0.0
  0
LINE
  5
A05
  8
H
 10
-2.619084
 20
0.3205
 30
0.0
 11
-2.619084
 21
-0.3205
 31
0.0
  0
LINE
  5
A06
  8
L
 10
-2.6875
 20
-0.43
 30
0.0
 11
-2.6875
 21
0.43
 31
0.0
  0
LINE
  5
A07
  8
H
 10
-2.5
 20
-0.3205
 30
0.0
 11
-2.5
 21
-0.266
 31
0.0
  0
LINE
  5
A08
  8
H
 10
-2.6875
 20
-0.36
 30
0.0
 11
-2.619084
 21
-0.3205
 31
0.0
  0
ARC
  5
A09
  8
L
 10
-2.6275
 20
-0.431188
 30
0.0
 40
0.06
 50
180.0
 51
261.702855
  0
LINE
  5
A0A
  8
L
 10
-2.6875
 20
-0.36
 30
0.0
 11
-2.6875
 21
-0.431188
 31
0.0
  0
LINE
  5
A0B
  8
H
 10
-2.619084
 20
-0.3205
 30
0.0
 11
-2.5
 21
-0.3205
 31
0.0
  0
LINE
  5
A0C
  8
H
 10
-2.5
 20
0.266
 30
0.0
 11
-2.5
 21
0.3205
 31
0.0
  0
LINE
  5
A0D
  8
H
 10
-2.6875
 20
0.36
 30
0.0
 11
-2.619084
 21
0.3205
 31
0.0
  0
ARC
  5
A0E
  8
L
 10
-2.6275
 20
0.431188
 30
0.0
 40
0.06
 50
98.297145
 51
180.0
  0
LINE
  5
A0F
  8
L
 10
-2.6875
 20
0.36
 30
0.0
 11
-2.6875
 21
0.431188
 31
0.0
  0
LINE
  5
A10
  8
H
 10
-2.619084
 20
0.3205
 30
0.0
 11
-2.5
 21
0.3205
 31
0.0
  0
LINE
  5
A11
  8
H
 10
-1.5675
 20
0.3125
 30
0.0
 11
-1.5675
 21
-0.3125
 31
0.0
  0
LINE
  5
A12
  8
L
 10
0.301366
 20
0.3125
 30
0.0
 11
0.301366
 21
1.25
 31
0.0
  0
LINE
  5
A13
  8
L
 10
0.579
 20
0.3125
 30
0.0
 11
0.579
 21
1.25
 31
0.0
  0
LINE
  5
A14
  8
L
 10
0.37671
 20
1.1195
 30
0.0
 11
0.37671
 21
0.3125
 31
0.0
  0
LINE
  5
A15
  8
L
 10
0.750026
 20
-1.22
 30
0.0
 11
0.750026
 21
-0.905
 31
0.0
  0
LINE
  5
A16
  8
L
 10
0.720026
 20
1.25
 30
0.0
 11
0.720026
 21
0.3125
 31
0.0
  0
LINE
  5
A17
  8
L
 10
0.503656
 20
1.1195
 30
0.0
 11
0.503656
 21
0.3125
 31
0.0
  0
LINE
  5
A18
  8
L
 10
0.155026
 20
1.25
 30
0.0
 11
0.155026
 21
0.3125
 31
0.0
  0
LINE
  5
A19
  8
L
 10
0.125026
 20
-1.22
 30
0.0
 11
0.125026
 21
0.895
 31
0.0
  0
LINE
  5
A1A
  8
L
 10
0.155026
 20
-0.3125
 30
0.0
 11
0.155026
 21
-1.25
 31
0.0
  0
LINE
  5
A1B
  8
L
 10
0.37671
 20
-0.3125
 30
0.0
 11
0.37671
 21
-1.1195
 31
0.0
  0
LINE
  5
A1C
  8
L
 10
0.720026
 20
-0.3125
 30
0.0
 11
0.720026
 21
-1.25
 31
0.0
  0
LINE
  5
A1D
  8
L
 10
0.579
 20
-1.25
 30
0.0
 11
0.579
 21
-0.3125
 31
0.0
  0
LINE
  5
A1E
  8
L
 10
0.301366
 20
-0.3125
 30
0.0
 11
0.301366
 21
-1.25
 31
0.0
  0
LINE
  5
A1F
  8
L
 10
0.503656
 20
-1.1195
 30
0.0
 11
0.503656
 21
-0.3125
 31
0.0
  0
LINE
  5
A20
  8
L
 10
0.394031
 20
-1.1095
 30
0.0
 11
0.486335
 21
-1.1095
 31
0.0
  0
LINE
  5
A21
  8
L
 10
0.155026
 20
-1.25
 30
0.0
 11
0.301366
 21
-1.25
 31
0.0
  0
LINE
  5
A22
  8
L
 10
0.125026
 20
-1.22
 30
0.0
 11
0.155026
 21
-1.25
 31
0.0
  0
LINE
  5
A23
  8
L
 10
0.37671
 20
-1.1195
 30
0.0
 11
0.301366
 21
-1.25
 31
0.0
  0
ARC
  5
A24
  8
L
 10
0.105026
 20
-0.895
 30
0.0
 40
0.02
 50
0.0
 51
90.0
  0
LINE
  5
A25
  8
L
 10
0.579
 20
-1.25
 30
0.0
 11
0.720026
 21
-1.25
 31
0.0
  0
LINE
  5
A26
  8
L
 10
0.503656
 20
-1.1195
 30
0.0
 11
0.579
 21
-1.25
 31
0.0
  0
LINE
  5
A27
  8
L
 10
0.720026
 20
-1.25
 30
0.0
 11
0.750026
 21
-1.22
 31
0.0
  0
CIRCLE
  5
A28
  8
L
 10
0.4375
 20
0.0
 30
0.0
 40
0.1875
  0
LINE
  5
A29
  8
L
 10
0.720026
 20
-0.3125
 30
0.0
 11
0.155026
 21
-0.3125
 31
0.0
  0
LINE
  5
A2A
  8
L
 10
0.720026
 20
0.3125
 30
0.0
 11
0.155026
 21
0.3125
 31
0.0
  0
LINE
  5
A2B
  8
L
 10
0.720026
 20
1.25
 30
0.0
 11
0.750026
 21
1.22
 31
0.0
  0
LINE
  5
A2C
  8
L
 10
0.503656
 20
1.1195
 30
0.0
 11
0.579
 21
1.25
 31
0.0
  0
LINE
  5
A2D
  8
L
 10
0.37671
 20
1.1195
 30
0.0
 11
0.301366
 21
1.25
 31
0.0
  0
LINE
  5
A2E
  8
L
 10
0.125026
 20
1.22
 30
0.0
 11
0.155026
 21
1.25
 31
0.0
  0
LINE
  5
A2F
  8
L
 10
0.394031
 20
1.1095
 30
0.0
 11
0.486335
 21
1.1095
 31
0.0
  0
LINE
  5
A30
  8
L
 10
0.125026
 20
0.895
 30
0.0
 11
0.125026
 21
1.22
 31
0.0
  0
ARC
  5
A31
  8
L
 10
0.105026
 20
0.895
 30
0.0
 40
0.02
 50
270.0
 51
0.0
  0
LINE
  5
A32
  8
L
 10
0.155026
 20
1.25
 30
0.0
 11
0.301366
 21
1.25
 31
0.0
  0
LINE
  5
A33
  8
L
 10
0.579
 20
1.25
 30
0.0
 11
0.720026
 21
1.25
 31
0.0
  0
POINT
  5
A34
  8
D
  6
BYBLOCK
 62
     0
 10
0.0
 20
0.875
 30
0.0
  0
POINT
  5
A35
  8
D
  6
BYBLOCK
 62
     0
 10
0.0
 20
-0.875
 30
0.0
  0
LINE
  5
A36
  8
L
 10
0.750026
 20
1.22
 30
0.0
 11
0.750026
 21
0.905
 31
0.0
  0
LINE
  5
A37
  8
L
 10
0.750026
 20
0.905
 30
0.0
 11
0.750026
 21
-0.905
 31
0.0
  0
LINE
  5
A38
  8
L
 10
0.780026
 20
0.875
 30
0.0
 11
1.345
 21
0.875
 31
0.0
  0
LINE
  5
A39
  8
L
 10
0.780026
 20
-0.875
 30
0.0
 11
1.345
 21
-0.875
 31
0.0
  0
ARC
  5
A3A
  8
L
 10
0.3125
 20
-0.135
 30
0.0
 40
0.125
 50
180.0
 51
270.0
  0
LINE
  5
A3B
  8
L
 10
0.3125
 20
-0.26
 30
0.0
 11
0.5625
 21
-0.26
 31
0.0
  0
LINE
  5
A3C
  8
L
 10
0.1875
 20
-0.135
 30
0.0
 11
0.1875
 21
0.135
 31
0.0
  0
ARC
  5
A3D
  8
L
 10
0.3125
 20
0.135
 30
0.0
 40
0.125
 50
90.0
 51
180.0
  0
LINE
  5
A3E
  8
L
 10
0.3125
 20
0.26
 30
0.0
 11
0.5625
 21
0.26
 31
0.0
  0
ARC
  5
A3F
  8
L
 10
0.5625
 20
0.135
 30
0.0
 40
0.125
 50
0.0
 51
90.0
  0
LINE
  5
A40
  8
L
 10
0.6875
 20
-0.135
 30
0.0
 11
0.6875
 21
0.135
 31
0.0
  0
ARC
  5
A41
  8
L
 10
0.5625
 20
-0.135
 30
0.0
 40
0.125
 50
270.0
 51
0.0
  0
LINE
  5
A42
  8
L
 10
0.75
 20
0.3425
 30
0.0
 11
0.579
 21
0.3425
 31
0.0
  0
LINE
  5
A43
  8
L
 10
0.301366
 20
0.3425
 30
0.0
 11
0.125
 21
0.3425
 31
0.0
  0
LINE
  5
A44
  8
L
 10
0.301366
 20
-0.3425
 30
0.0
 11
0.125
 21
-0.3425
 31
0.0
  0
LINE
  5
A45
  8
L
 10
0.75
 20
-0.3425
 30
0.0
 11
0.579
 21
-0.3425
 31
0.0
  0
ARC
  5
A46
  8
L
 10
0.780026
 20
0.905
 30
0.0
 40
0.03
 50
180.0
 51
270.0
  0
ARC
  5
A47
  8
L
 10
0.780026
 20
-0.905
 30
0.0
 40
0.03
 50
90.0
 51
180.0
  0
ARC
  5
A48
  8
L
 10
0.394031
 20
-1.1295
 30
0.0
 40
0.02
 50
90.0
 51
150.0
  0
ARC
  5
A49
  8
L
 10
0.486335
 20
-1.1295
 30
0.0
 40
0.02
 50
30.0
 51
90.0
  0
ARC
  5
A4A
  8
L
 10
0.394031
 20
1.1295
 30
0.0
 40
0.02
 50
210.0
 51
270.0
  0
ARC
  5
A4B
  8
L
 10
0.486335
 20
1.1295
 30
0.0
 40
0.02
 50
270.0
 51
330.0
  0
LINE
  5
A4C
  8
L
 10
0.155026
 20
-0.3125
 30
0.0
 11
0.125026
 21
-0.3425
 31
0.0
  0
LINE
  5
A4D
  8
L
 10
0.719974
 20
-0.3125
 30
0.0
 11
0.749974
 21
-0.3425
 31
0.0
  0
LINE
  5
A4E
  8
L
 10
0.719974
 20
0.3125
 30
0.0
 11
0.749974
 21
0.3425
 31
0.0
  0
LINE
  5
A4F
  8
L
 10
0.155026
 20
0.3125
 30
0.0
 11
0.125026
 21
0.3425
 31
0.0
  0
SOLID
  5
A50
  8
README
 10
-0.001114
 20
-0.12165
 30
0.0
 11
0.0384
 21
-0.115436
 31
0.0
 12
0.0
 22
0.0
 32
0.0
 13
0.0
 23
0.0
 33
0.0
  0
LINE
  5
A51
  8
README
 10
0.018643
 20
-0.118543
 30
0.0
 11
0.445186
 21
-2.83079
 31
0.0
  0
LINE
  5
A52
  8
README
 10
0.445186
 20
-2.83079
 30
0.0
 11
0.675155
 21
-2.83079
 31
0.0
  0
TEXT
  5
A53
  8
README
 10
0.781294
 20
-2.938348
 30
0.0
 40
0.25
  1
POINT 0,0
  0
TEXT
  5
A54
  8
README
 10
0.22111
 20
-3.375011
 30
0.0
 40
0.25
  1
AT GAGE LINE
  0
TEXT
  5
A55
  8
README
 10
0.781294
 20
4.786806
 30
0.0
 40
0.25
  1
S:\XREF\C40_1
  0
LINE
  5
A56
  8
D
 10
-0.36144
 20
0.950884
 30
0.0
 11
-0.790394
 21
1.914553
 31
0.0
  0
SOLID
  5
A57
  8
D
 10
-0.379503
 20
0.942298
 30
0.0
 11
-0.343377
 21
0.95947
 31
0.0
 12
-0.309925
 22
0.842504
 32
0.0
 13
-0.309925
 23
0.842504
 33
0.0
  0
LINE
  5
A58
  8
D
 10
-0.790394
 20
1.914553
 30
0.0
 11
-0.999464
 21
1.914553
 31
0.0
  0
TEXT
  5
A59
  8
D
 10
-2.385963
 20
1.86049
 30
0.0
 40
0.125
  1
40 V-FLANGE
  0
TEXT
  5
A5A
  8
D
 10
-2.663396
 20
1.86049
 30
0.0
 40
0.09
  1
CAT
  0
ENDBLK
  5
A5B
  8
0
  0
BLOCK
  8
0
  2
C40BASE1
 70
     0
 10
0.0
 20
0.0
 30
0.0
  3
C40BASE1
  1

  0
LINE
  5
AC0
  8
L
 10
0.0
 20
0.875
 30
0.0
 11
0.105026
 21
0.875
 31
0.0
  0
LINE
  5
AC1
  8
L
 10
0.105026
 20
-0.875
 30
0.0
 11
0.0
 21
-0.875
 31
0.0
  0
LINE
  5
AC2
  8
L
 10
0.0
 20
0.875
 30
0.0
 11
0.0
 21
-0.875
 31
0.0
  0
LINE
  5
AC3
  8
L
 10
0.0
 20
0.875
 30
0.0
 11
-2.636158
 21
0.49056
 31
0.0
  0
LINE
  5
AC4
  8
H
 10
-2.5
 20
0.3125
 30
0.0
 11
-1.5675
 21
0.3125
 31
0.0
  0
LINE
  5
AC5
  8
H
 10
-2.5
 20
0.266
 30
0.0
 11
-1.5675
 21
0.266
 31
0.0
  0
LINE
  5
AC6
  8
L
 10
0.0
 20
-0.875
 30
0.0
 11
-2.636158
 21
-0.49056
 31
0.0
  0
LINE
  5
AC7
  8
H
 10
-2.5
 20
-0.3125
 30
0.0
 11
-1.5675
 21
-0.3125
 31
0.0
  0
LINE
  5
AC8
  8
H
 10
-2.5
 20
-0.266
 30
0.0
 11
-1.5675
 21
-0.266
 31
0.0
  0
LINE
  5
AC9
  8
H
 10
-2.5
 20
-0.266
 30
0.0
 11
-2.5
 21
0.266
 31
0.0
  0
LINE
  5
ACA
  8
H
 10
-2.619084
 20
0.3205
 30
0.0
 11
-2.619084
 21
-0.3205
 31
0.0
  0
LINE
  5
ACB
  8
L
 10
-2.6875
 20
-0.43
 30
0.0
 11
-2.6875
 21
0.43
 31
0.0
  0
LINE
  5
ACC
  8
H
 10
-2.5
 20
-0.3205
 30
0.0
 11
-2.5
 21
-0.266
 31
0.0
  0
LINE
  5
ACD
  8
H
 10
-2.6875
 20
-0.36
 30
0.0
 11
-2.619084
 21
-0.3205
 31
0.0
  0
ARC
  5
ACE
  8
L
 10
-2.6275
 20
-0.431188
 30
0.0
 40
0.06
 50
180.0
 51
261.702855
  0
LINE
  5
ACF
  8
L
 10
-2.6875
 20
-0.36
 30
0.0
 11
-2.6875
 21
-0.431188
 31
0.0
  0
LINE
  5
AD0
  8
H
 10
-2.619084
 20
-0.3205
 30
0.0
 11
-2.5
 21
-0.3205
 31
0.0
  0
LINE
  5
AD1
  8
H
 10
-2.5
 20
0.266
 30
0.0
 11
-2.5
 21
0.3205
 31
0.0
  0
LINE
  5
AD2
  8
H
 10
-2.6875
 20
0.36
 30
0.0
 11
-2.619084
 21
0.3205
 31
0.0
  0
ARC
  5
AD3
  8
L
 10
-2.6275
 20
0.431188
 30
0.0
 40
0.06
 50
98.297145
 51
180.0
  0
LINE
  5
AD4
  8
L
 10
-2.6875
 20
0.36
 30
0.0
 11
-2.6875
 21
0.431188
 31
0.0
  0
LINE
  5
AD5
  8
H
 10
-2.619084
 20
0.3205
 30
0.0
 11
-2.5
 21
0.3205
 31
0.0
  0
LINE
  5
AD6
  8
H
 10
-1.5675
 20
0.3125
 30
0.0
 11
-1.5675
 21
-0.3125
 31
0.0
  0
ARC
  5
AD7
  8
L
 10
0.105026
 20
-0.895
 30
0.0
 40
0.02
 50
2.929012
 51
90.0
  0
LINE
  5
AD8
  8
L
 10
0.72
 20
0.32
 30
0.0
 11
0.155
 21
0.32
 31
0.0
  0
ARC
  5
AD9
  8
L
 10
0.105026
 20
0.895
 30
0.0
 40
0.02
 50
270.0
 51
357.070988
  0
LINE
  5
ADA
  8
L
 10
0.75
 20
0.35
 30
0.0
 11
0.579
 21
0.35
 31
0.0
  0
LINE
  5
ADB
  8
L
 10
0.301366
 20
0.35
 30
0.0
 11
0.125
 21
0.35
 31
0.0
  0
LINE
  5
ADC
  8
L
 10
0.155
 20
0.32
 30
0.0
 11
0.125
 21
0.35
 31
0.0
  0
SOLID
  5
ADD
  8
README
 10
-0.001114
 20
-0.12165
 30
0.0
 11
0.0384
 21
-0.115436
 31
0.0
 12
0.0
 22
0.0
 32
0.0
 13
0.0
 23
0.0
 33
0.0
  0
LINE
  5
ADE
  8
README
 10
0.018643
 20
-0.118543
 30
0.0
 11
0.445186
 21
-2.83079
 31
0.0
  0
LINE
  5
ADF
  8
README
 10
0.445186
 20
-2.83079
 30
0.0
 11
0.675155
 21
-2.83079
 31
0.0
  0
TEXT
  5
AE0
  8
README
 10
0.781294
 20
-2.938348
 30
0.0
 40
0.25
  1
POINT 0,0
  0
TEXT
  5
AE1
  8
README
 10
0.22111
 20
-3.375011
 30
0.0
 40
0.25
  1
AT GAGE LINE
  0
TEXT
  5
AE2
  8
README
 10
1.294264
 20
-4.953954
 30
0.0
 40
0.25
  1
S:\XREF\C40_1
  0
LINE
  5
AE3
  8
L
 10
0.72
 20
-0.32
 30
0.0
 11
0.155
 21
-0.32
 31
0.0
  0
LINE
  5
AE4
  8
L
 10
0.75
 20
-0.35
 30
0.0
 11
0.579
 21
-0.35
 31
0.0
  0
LINE
  5
AE5
  8
L
 10
0.301366
 20
-0.35
 30
0.0
 11
0.125
 21
-0.35
 31
0.0
  0
LINE
  5
AE6
  8
L
 10
0.155
 20
-0.32
 30
0.0
 11
0.125
 21
-0.35
 31
0.0
  0
LINE
  5
AE7
  8
L
 10
0.125
 20
-1.22
 30
0.0
 11
0.125
 21
1.22
 31
0.0
  0
LINE
  5
AE8
  8
L
 10
0.579
 20
0.32
 30
0.0
 11
0.579
 21
1.25
 31
0.0
  0
LINE
  5
AE9
  8
L
 10
0.301
 20
0.32
 30
0.0
 11
0.301
 21
1.25
 31
0.0
  0
LINE
  5
AEA
  8
L
 10
0.579
 20
1.25
 30
0.0
 11
0.503656
 21
1.1195
 31
0.0
  0
LINE
  5
AEB
  8
L
 10
0.301
 20
1.25
 30
0.0
 11
0.376344
 21
1.1195
 31
0.0
  0
LINE
  5
AEC
  8
L
 10
0.579
 20
1.25
 30
0.0
 11
0.72
 21
1.25
 31
0.0
  0
LINE
  5
AED
  8
L
 10
0.301
 20
1.25
 30
0.0
 11
0.155
 21
1.25
 31
0.0
  0
LINE
  5
AEE
  8
L
 10
0.155
 20
0.32
 30
0.0
 11
0.155
 21
1.25
 31
0.0
  0
LINE
  5
AEF
  8
L
 10
0.125
 20
1.22
 30
0.0
 11
0.155
 21
1.25
 31
0.0
  0
LINE
  5
AF0
  8
L
 10
0.486335
 20
1.1095
 30
0.0
 11
0.393665
 21
1.1095
 31
0.0
  0
LINE
  5
AF1
  8
L
 10
0.155
 20
-0.32
 30
0.0
 11
0.155
 21
-1.25
 31
0.0
  0
LINE
  5
AF2
  8
L
 10
0.301
 20
-0.32
 30
0.0
 11
0.301
 21
-1.25
 31
0.0
  0
LINE
  5
AF3
  8
L
 10
0.376344
 20
-0.32
 30
0.0
 11
0.376344
 21
-1.1195
 31
0.0
  0
LINE
  5
AF4
  8
L
 10
0.579
 20
-0.32
 30
0.0
 11
0.579
 21
-1.25
 31
0.0
  0
LINE
  5
AF5
  8
L
 10
0.579
 20
-1.25
 30
0.0
 11
0.503656
 21
-1.1195
 31
0.0
  0
LINE
  5
AF6
  8
L
 10
0.301
 20
-1.25
 30
0.0
 11
0.376344
 21
-1.1195
 31
0.0
  0
LINE
  5
AF7
  8
L
 10
0.125
 20
-1.22
 30
0.0
 11
0.155
 21
-1.25
 31
0.0
  0
LINE
  5
AF8
  8
L
 10
0.301
 20
-1.25
 30
0.0
 11
0.155
 21
-1.25
 31
0.0
  0
LINE
  5
AF9
  8
L
 10
0.579
 20
-1.25
 30
0.0
 11
0.72
 21
-1.25
 31
0.0
  0
LINE
  5
AFA
  8
L
 10
0.486335
 20
-1.1095
 30
0.0
 11
0.393665
 21
-1.1095
 31
0.0
  0
ARC
  5
AFB
  8
L
 10
0.393665
 20
-1.1295
 30
0.0
 40
0.02
 50
90.0
 51
150.0
  0
ARC
  5
AFC
  8
L
 10
0.486335
 20
-1.1295
 30
0.0
 40
0.02
 50
30.0
 51
90.0
  0
LINE
  5
AFD
  8
L
 10
0.393665
 20
-0.32
 30
0.0
 11
0.393665
 21
-1.1095
 31
0.0
  0
LINE
  5
AFE
  8
L
 10
0.486335
 20
-0.32
 30
0.0
 11
0.486335
 21
-1.1095
 31
0.0
  0
LINE
  5
AFF
  8
L
 10
0.503656
 20
-0.32
 30
0.0
 11
0.503656
 21
-1.1195
 31
0.0
  0
ARC
  5
B00
  8
L
 10
0.393665
 20
1.1295
 30
0.0
 40
0.02
 50
210.0
 51
270.0
  0
ARC
  5
B01
  8
L
 10
0.486335
 20
1.1295
 30
0.0
 40
0.02
 50
270.0
 51
330.0
  0
LINE
  5
B02
  8
L
 10
0.503656
 20
0.32
 30
0.0
 11
0.503656
 21
1.1195
 31
0.0
  0
LINE
  5
B03
  8
L
 10
0.486335
 20
0.32
 30
0.0
 11
0.486335
 21
1.1095
 31
0.0
  0
LINE
  5
B04
  8
L
 10
0.376344
 20
0.32
 30
0.0
 11
0.376344
 21
1.1195
 31
0.0
  0
LINE
  5
B05
  8
L
 10
0.393665
 20
0.32
 30
0.0
 11
0.393665
 21
1.1095
 31
0.0
  0
SOLID
  5
B06
  8
D
 10
-0.531723
 20
0.917865
 30
0.0
 11
-0.566567
 21
0.898221
 31
0.0
 12
-0.490212
 22
0.803511
 32
0.0
 13
-0.490212
 23
0.803511
 33
0.0
  0
LINE
  5
B07
  8
D
 10
-0.549145
 20
0.908043
 30
0.0
 11
-1.084677
 21
1.857944
 31
0.0
  0
LINE
  5
B08
  8
D
 10
-1.084677
 20
1.857944
 30
0.0
 11
-1.160266
 21
1.857944
 31
0.0
  0
TEXT
  5
B09
  8
D
 10
-2.562567
 20
1.799663
 30
0.0
 40
0.125
  1
40 V-FLANGE
 72
     2
 11
-1.2084
 21
1.862163
 31
0.0
 73
     2
  0
TEXT
  5
B0A
  8
D
 10
-2.846759
 20
1.803617
 30
0.0
 40
0.09
  1
CAT
  0
ENDBLK
  5
B0B
  8
0
  0
BLOCK
  8
0
  2
30DC_1
 70
     0
 10
0.0
 20
0.0
 30
0.0
  3
30DC_1
  1

  0
POLYLINE
  5
B0D
  8
CAD_L
 66
     1
 10
0.0
 20
0.0
 30
0.0
  0
VERTEX
  5
C09
  8
CAD_L
 10
-8.564397
 20
-9.414609
 30
0.0
  0
VERTEX
  5
C0A
  8
CAD_L
 10
-8.564397
 20
-9.414609
 30
0.0
  0
SEQEND
  5
C0B
  8
CAD_L
  0
POLYLINE
  5
B10
  8
CAD_L
 66
     1
 10
0.0
 20
0.0
 30
0.0
  0
VERTEX
  5
C0C
  8
CAD_L
 10
-9.141748
 20
-9.414609
 30
0.0
  0
VERTEX
  5
C0D
  8
CAD_L
 10
-9.141748
 20
-9.414609
 30
0.0
  0
SEQEND
  5
C0E
  8
CAD_L
  0
POLYLINE
  5
B13
  8
CAD_L
 66
     1
 10
0.0
 20
0.0
 30
0.0
  0
VERTEX
  5
C0F
  8
CAD_L
 10
-9.141748
 20
-9.414609
 30
0.0
  0
VERTEX
  5
C10
  8
CAD_L
 10
-9.141748
 20
-9.414609
 30
0.0
  0
SEQEND
  5
C11
  8
CAD_L
  0
POLYLINE
  5
B16
  8
CAD_L
 66
     1
 10
0.0
 20
0.0
 30
0.0
  0
VERTEX
  5
C12
  8
CAD_L
 10
-9.430423
 20
-9.914609
 30
0.0
  0
VERTEX
  5
C13
  8
CAD_L
 10
-9.430423
 20
-9.914609
 30
0.0
  0
SEQEND
  5
C14
  8
CAD_L
  0
POLYLINE
  5
B19
  8
CAD_L
 66
     1
 10
0.0
 20
0.0
 30
0.0
  0
VERTEX
  5
C15
  8
CAD_L
 10
-9.141748
 20
-10.414609
 30
0.0
  0
VERTEX
  5
C16
  8
CAD_L
 10
-9.141748
 20
-10.414609
 30
0.0
  0
SEQEND
  5
C17
  8
CAD_L
  0
POLYLINE
  5
B1C
  8
CAD_L
 66
     1
 10
0.0
 20
0.0
 30
0.0
  0
VERTEX
  5
C18
  8
CAD_L
 10
-8.564397
 20
-10.414609
 30
0.0
  0
VERTEX
  5
C19
  8
CAD_L
 10
-8.564397
 20
-10.414609
 30
0.0
  0
SEQEND
  5
C1A
  8
CAD_L
  0
POLYLINE
  5
B1F
  8
CAD_L
 66
     1
 10
0.0
 20
0.0
 30
0.0
  0
VERTEX
  5
C1B
  8
CAD_L
 10
-8.275722
 20
-9.914609
 30
0.0
  0
VERTEX
  5
C1C
  8
CAD_L
 10
-8.275722
 20
-9.914609
 30
0.0
  0
SEQEND
  5
C1D
  8
CAD_L
  0
LINE
  5
B22
  8
H
 10
-0.386
 20
0.188
 30
0.0
 11
-0.45512
 21
0.1565
 31
0.0
  0
LINE
  5
B23
  8
H
 10
-0.386
 20
-0.188
 30
0.0
 11
-0.45512
 21
-0.1565
 31
0.0
  0
LINE
  5
B24
  8
H
 10
-1.066
 20
0.1565
 30
0.0
 11
-1.107692
 21
0.1375
 31
0.0
  0
LINE
  5
B25
  8
H
 10
-1.066
 20
-0.1565
 30
0.0
 11
-1.107692
 21
-0.1375
 31
0.0
  0
LINE
  5
B26
  8
L
 10
-0.386
 20
-0.2205
 30
0.0
 11
-0.386
 21
0.2205
 31
0.0
  0
LINE
  5
B27
  8
H
 10
-1.066
 20
-0.1565
 30
0.0
 11
-1.066
 21
0.1565
 31
0.0
  0
LINE
  5
B28
  8
H
 10
-1.066
 20
0.1565
 30
0.0
 11
-0.45512
 21
0.1565
 31
0.0
  0
LINE
  5
B29
  8
H
 10
-1.066
 20
-0.1565
 30
0.0
 11
-0.45512
 21
-0.1565
 31
0.0
  0
LINE
  5
B2A
  8
H
 10
-0.45512
 20
0.1565
 30
0.0
 11
-0.45512
 21
-0.1565
 31
0.0
  0
LINE
  5
B2B
  8
H
 10
-1.236
 20
-0.15625
 30
0.0
 11
-1.236
 21
0.15625
 31
0.0
  0
LINE
  5
B2C
  8
H
 10
-1.649099
 20
0.1375
 30
0.0
 11
-1.107692
 21
0.1375
 31
0.0
  0
LINE
  5
B2D
  8
H
 10
-1.649099
 20
-0.1375
 30
0.0
 11
-1.107692
 21
-0.1375
 31
0.0
  0
LINE
  5
B2E
  8
H
 10
-1.107692
 20
0.1375
 30
0.0
 11
-1.107692
 21
-0.1375
 31
0.0
  0
LINE
  5
B2F
  8
H
 10
-1.649099
 20
0.15625
 30
0.0
 11
-1.236
 21
0.15625
 31
0.0
  0
LINE
  5
B30
  8
H
 10
-1.649099
 20
-0.15625
 30
0.0
 11
-1.236
 21
-0.15625
 31
0.0
  0
LINE
  5
B31
  8
L
 10
-0.846
 20
-0.2305
 30
0.0
 11
-0.846
 21
0.2305
 31
0.0
  0
LINE
  5
B32
  8
L
 10
-0.846
 20
0.2305
 30
0.0
 11
-0.396
 21
0.2305
 31
0.0
  0
LINE
  5
B33
  8
L
 10
-0.846
 20
-0.2305
 30
0.0
 11
-0.396
 21
-0.2305
 31
0.0
  0
LINE
  5
B34
  8
L
 10
-1.346
 20
0.2465
 30
0.0
 11
-0.855238
 21
0.2465
 31
0.0
  0
LINE
  5
B35
  8
L
 10
-1.346
 20
-0.2465
 30
0.0
 11
-0.855238
 21
-0.2465
 31
0.0
  0
LINE
  5
B36
  8
L
 10
-1.346
 20
-0.2465
 30
0.0
 11
-1.346
 21
0.2465
 31
0.0
  0
LINE
  5
B37
  8
L
 10
-1.649099
 20
0.31
 30
0.0
 11
-1.4095
 21
0.31
 31
0.0
  0
LINE
  5
B38
  8
L
 10
-1.649099
 20
-0.31
 30
0.0
 11
-1.4095
 21
-0.31
 31
0.0
  0
LINE
  5
B39
  8
L
 10
-1.4095
 20
-0.31
 30
0.0
 11
-1.346
 21
-0.2465
 31
0.0
  0
LINE
  5
B3A
  8
L
 10
-1.4095
 20
0.31
 30
0.0
 11
-1.346
 21
0.2465
 31
0.0
  0
LINE
  5
B3B
  8
L
 10
-1.116
 20
-0.2465
 30
0.0
 11
-1.116
 21
0.2465
 31
0.0
  0
LINE
  5
B3C
  8
H
 10
-1.116
 20
0.2165
 30
0.0
 11
-0.846
 21
0.2165
 31
0.0
  0
LINE
  5
B3D
  8
H
 10
-1.116
 20
-0.2165
 30
0.0
 11
-0.846
 21
-0.2165
 31
0.0
  0
LINE
  5
B3E
  8
L
 10
-1.4095
 20
0.31
 30
0.0
 11
-1.4095
 21
-0.31
 31
0.0
  0
POINT
  5
B3F
  8
DEFPOINTS
  6
BYBLOCK
 62
     0
 10
-0.846
 20
0.2465
 30
0.0
  0
POINT
  5
B40
  8
DEFPOINTS
  6
BYBLOCK
 62
     0
 10
-0.386
 20
0.2305
 30
0.0
  0
POINT
  5
B41
  8
DEFPOINTS
  6
BYBLOCK
 62
     0
 10
-1.116
 20
0.2165
 30
0.0
  0
POINT
  5
B42
  8
DEFPOINTS
  6
BYBLOCK
 62
     0
 10
-1.346
 20
0.2465
 30
0.0
  0
POINT
  5
B43
  8
DEFPOINTS
  6
BYBLOCK
 62
     0
 10
-1.4095
 20
-0.31
 30
0.0
  0
POINT
  5
B44
  8
DEFPOINTS
  6
BYBLOCK
 62
     0
 10
-1.4095
 20
0.31
 30
0.0
  0
POINT
  5
B45
  8
DEFPOINTS
  6
BYBLOCK
 62
     0
 10
-0.386
 20
-0.2305
 30
0.0
  0
POINT
  5
B46
  8
DEFPOINTS
  6
BYBLOCK
 62
     0
 10
-1.236
 20
-0.15625
 30
0.0
  0
LINE
  5
B47
  8
L
 10
-0.846
 20
0.2305
 30
0.0
 11
-0.855238
 21
0.2465
 31
0.0
  0
LINE
  5
B48
  8
L
 10
-0.846
 20
-0.2305
 30
0.0
 11
-0.855238
 21
-0.2465
 31
0.0
  0
LINE
  5
B49
  8
L
 10
-0.855238
 20
0.2465
 30
0.0
 11
-0.855238
 21
-0.2465
 31
0.0
  0
POINT
  5
B4A
  8
DEFPOINTS
  6
BYBLOCK
 62
     0
 10
-0.846
 20
-0.2305
 30
0.0
  0
POINT
  5
B4B
  8
DEFPOINTS
  6
BYBLOCK
 62
     0
 10
-0.855238
 20
0.2465
 30
0.0
  0
POINT
  5
B4C
  8
DEFPOINTS
  6
BYBLOCK
 62
     0
 10
-0.855238
 20
-0.2465
 30
0.0
  0
POINT
  5
B4D
  8
DEFPOINTS
  6
BYBLOCK
 62
     0
 10
-0.855238
 20
-0.2465
 30
0.0
  0
ARC
  5
B4E
  8
L
 10
-0.396
 20
-0.2205
 30
0.0
 40
0.01
 50
270.0
 51
360.0
  0
ARC
  5
B4F
  8
L
 10
-0.396
 20
0.2205
 30
0.0
 40
0.01
 50
360.0
 51
90.0
  0
POINT
  5
B50
  8
README
 10
0.0
 20
0.0
 30
0.0
  0
SOLID
  5
B51
  8
README
 10
0.091406
 20
-0.08028
 30
0.0
 11
0.112502
 21
-0.046296
 31
0.0
 12
0.0
 22
0.0
 32
0.0
 13
0.0
 23
0.0
 33
0.0
  0
LINE
  5
B52
  8
README
 10
0.101954
 20
-0.063288
 30
0.0
 11
2.747402
 21
-1.705446
 31
0.0
  0
LINE
  5
B53
  8
README
 10
2.747402
 20
-1.705446
 30
0.0
 11
2.963137
 21
-1.705446
 31
0.0
  0
TEXT
  5
B54
  8
README
 10
3.035049
 20
-2.136697
 30
0.0
 40
0.25
  1
PROJECTION AT COLLET NUT
  0
TEXT
  5
B55
  8
README
 10
3.035049
 20
-1.79529
 30
0.0
 40
0.25
  1
POINT 0,0
  0
TEXT
  5
B56
  8
README
 10
5.24633
 20
2.945093
 30
0.0
 40
0.25
  1
S:\XREF\30DC_1
  0
POINT
  5
B57
  8
DEFPOINTS
  6
BYBLOCK
 62
     0
 10
-0.386
 20
-0.2305
 30
0.0
  0
POINT
  5
B58
  8
DEFPOINTS
  6
BYBLOCK
 62
     0
 10
-0.386
 20
0.2305
 30
0.0
  0
ENDBLK
  5
B59
  8
0
  0
ENDSEC
  0
SECTION
  2
ENTITIES
  0
LINE
  5
B73
  8
H
 10
1.730901
 20
0.15625
 30
0.0
 11
-0.280884
 21
0.15625
 31
0.0
  0
LINE
  5
B74
  8
H
 10
1.730901
 20
0.1375
 30
0.0
 11
-0.269618
 21
0.1375
 31
0.0
  0
INSERT
  5
B75
  8
0
  2
R32C40_1
 10
1.345
 20
-0.875
 30
0.0
  0
LINE
  5
B76
  8
L
 10
1.377
 20
0.843
 30
0.0
 11
1.377
 21
-0.843
 31
0.0
  0
ARC
  5
B77
  8
L
 10
1.502
 20
0.435
 30
0.0
 40
0.125
 50
180.0
 51
270.0
  0
LINE
  5
B78
  8
L
 10
1.9705
 20
0.31
 30
0.0
 11
1.502
 21
0.31
 31
0.0
  0
LINE
  5
B79
  8
H
 10
1.730901
 20
-0.1375
 30
0.0
 11
-0.269618
 21
-0.1375
 31
0.0
  0
LINE
  5
B7A
  8
H
 10
1.730901
 20
-0.15625
 30
0.0
 11
-0.280884
 21
-0.15625
 31
0.0
  0
LINE
  5
B7B
  8
L
 10
1.9705
 20
-0.31
 30
0.0
 11
1.502
 21
-0.31
 31
0.0
  0
ARC
  5
B7C
  8
L
 10
1.502
 20
-0.435
 30
0.0
 40
0.125
 50
90.0
 51
180.0
  0
LINE
  5
B7D
  8
H
 10
-1.5675
 20
-0.266
 30
0.0
 11
-0.346829
 21
-0.266
 31
0.0
  0
LINE
  5
B7E
  8
H
 10
-0.346829
 20
0.266
 30
0.0
 11
-0.346829
 21
-0.266
 31
0.0
  0
LINE
  5
B7F
  8
H
 10
-0.269618
 20
-0.1375
 30
0.0
 11
-0.346829
 21
-0.266
 31
0.0
  0
LINE
  5
B80
  8
H
 10
-1.5675
 20
0.266
 30
0.0
 11
-0.346829
 21
0.266
 31
0.0
  0
LINE
  5
B81
  8
H
 10
-0.269618
 20
0.1375
 30
0.0
 11
-0.346829
 21
0.266
 31
0.0
  0
LINE
  5
B82
  8
H
 10
-0.269618
 20
0.1375
 30
0.0
 11
-0.269618
 21
-0.1375
 31
0.0
  0
POINT
  5
B83
  8
DEFPOINTS
  6
BYBLOCK
 62
     0
 10
0.0
 20
0.875
 30
0.0
  0
INSERT
  5
B84
  8
0
  2
CN30
 10
3.38
 20
0.0
 30
0.0
  0
DIMENSION
  5
B86
  8
0
  2
*D20
 10
3.38
 20
1.904866
 30
0.0
 11
1.69
 21
1.904866
 31
0.0
  1
3.38
 13
0.0
 23
0.875
 33
0.0
 14
3.38
 24
0.215
 34
0.0
  0
DIMENSION
  5
B87
  8
0
  2
*D21
 10
3.38
 20
-1.467064
 30
0.0
 11
1.88
 21
-1.467064
 31
0.0
  1
3.00
 13
0.38
 23
-0.1125
 33
0.0
 14
3.38
 24
-0.215
 34
0.0
  0
LINE
  5
B88
  8
L
 10
-0.477755
 20
0.503321
 30
0.0
 11
-0.434005
 21
0.503321
 31
0.0
  0
LINE
  5
B89
  8
L
 10
-0.477755
 20
0.695821
 30
0.0
 11
-0.434005
 21
0.695821
 31
0.0
  0
ARC
  5
B8A
  8
L
 10
-0.703542
 20
0.579971
 30
0.0
 40
0.07665
 50
0.018858
 51
278.071967
  0
CIRCLE
  5
B8B
  8
L
 10
-0.703542
 20
0.579971
 30
0.0
 40
0.035
  0
ARC
  5
B8C
  8
L
 10
-0.703542
 20
0.579971
 30
0.0
 40
0.07665
 50
0.018858
 51
278.071967
  0
LINE
  5
B8D
  8
L
 10
-0.901319
 20
0.586181
 30
0.0
 11
-0.901319
 21
0.503321
 31
0.0
  0
LINE
  5
B8E
  8
L
 10
-0.945069
 20
0.619117
 30
0.0
 11
-0.945069
 21
0.503321
 31
0.0
  0
LINE
  5
B8F
  8
L
 10
-0.945069
 20
0.503321
 30
0.0
 11
-0.901319
 21
0.503321
 31
0.0
  0
CIRCLE
  5
B90
  8
L
 10
-0.868419
 20
0.619117
 30
0.0
 40
0.035
  0
ARC
  5
B91
  8
L
 10
-0.868419
 20
0.619117
 30
0.0
 40
0.07665
 50
269.890544
 51
179.99999
  0
LINE
  5
B92
  8
L
 10
-0.901319
 20
0.586181
 30
0.0
 11
-0.868566
 21
0.542467
 31
0.0
  0
LINE
  5
B93
  8
L
 10
-0.477755
 20
0.695821
 30
0.0
 11
-0.477755
 21
0.503321
 31
0.0
  0
LINE
  5
B94
  8
L
 10
-0.562117
 20
0.600945
 30
0.0
 11
-0.561925
 21
0.503321
 31
0.0
  0
LINE
  5
B95
  8
L
 10
-0.605867
 20
0.600945
 30
0.0
 11
-0.605675
 21
0.503321
 31
0.0
  0
LINE
  5
B96
  8
L
 10
-0.626892
 20
0.579997
 30
0.0
 11
-0.626866
 21
0.503321
 31
0.0
  0
LINE
  5
B97
  8
L
 10
-0.670632
 20
0.549952
 30
0.0
 11
-0.692779
 21
0.504081
 31
0.0
  0
LINE
  5
B98
  8
L
 10
-0.670632
 20
0.549952
 30
0.0
 11
-0.670616
 21
0.503321
 31
0.0
  0
LINE
  5
B99
  8
L
 10
-0.626892
 20
0.579997
 30
0.0
 11
-0.626866
 21
0.503372
 31
0.0
  0
LINE
  5
B9A
  8
L
 10
-0.605675
 20
0.503321
 30
0.0
 11
-0.561925
 21
0.503321
 31
0.0
  0
LINE
  5
B9B
  8
L
 10
-0.670616
 20
0.503321
 30
0.0
 11
-0.626866
 21
0.503321
 31
0.0
  0
ARC
  5
B9C
  8
L
 10
-0.550191
 20
0.600945
 30
0.0
 40
0.055676
 50
18.846034
 51
180.226252
  0
LINE
  5
B9D
  8
L
 10
-0.4975
 20
0.61893
 30
0.0
 11
-0.527176
 21
0.602373
 31
0.0
  0
ARC
  5
B9E
  8
L
 10
-0.544617
 20
0.600945
 30
0.0
 40
0.0175
 50
4.679095
 51
180.226252
  0
ARC
  5
B9F
  8
L
 10
-0.177604
 20
0.579971
 30
0.0
 40
0.07665
 50
30.701399
 51
270.0
  0
ARC
  5
BA0
  8
L
 10
-0.33866
 20
0.579971
 30
0.0
 40
0.039375
 50
235.5219
 51
332.233922
  0
LINE
  5
BA1
  8
L
 10
-0.434005
 20
0.695821
 30
0.0
 11
-0.434005
 21
0.503321
 31
0.0
  0
ARC
  5
BA2
  8
L
 10
-0.33866
 20
0.579971
 30
0.0
 40
0.07665
 50
14.507251
 51
328.258317
  0
ARC
  5
BA3
  8
L
 10
-0.33866
 20
0.579971
 30
0.0
 40
0.039375
 50
64.071476
 51
172.253555
  0
LINE
  5
BA4
  8
L
 10
-0.321444
 20
0.615383
 30
0.0
 11
-0.377676
 21
0.585279
 31
0.0
  0
LINE
  5
BA5
  8
L
 10
-0.264454
 20
0.599172
 30
0.0
 11
-0.36095
 21
0.547513
 31
0.0
  0
LINE
  5
BA6
  8
L
 10
-0.303819
 20
0.561628
 30
0.0
 11
-0.273475
 21
0.539646
 31
0.0
  0
LINE
  5
BA7
  8
L
 10
-0.081797
 20
0.540596
 30
0.0
 11
-0.101076
 21
0.503321
 31
0.0
  0
LINE
  5
BA8
  8
L
 10
-0.177604
 20
0.503321
 30
0.0
 11
-0.101076
 21
0.503321
 31
0.0
  0
LINE
  5
BA9
  8
L
 10
-0.177604
 20
0.540596
 30
0.0
 11
-0.081797
 21
0.540596
 31
0.0
  0
LINE
  5
BAA
  8
L
 10
-0.111697
 20
0.619106
 30
0.0
 11
-0.146355
 21
0.603928
 31
0.0
  0
ARC
  5
BAB
  8
L
 10
-0.177604
 20
0.579971
 30
0.0
 40
0.039375
 50
37.476042
 51
270.0
  0
TEXT
  5
BAC
  8
0
 10
-0.872758
 20
0.368229
 30
0.0
 40
0.0875
  1
C40-30DC3
  0
DIMENSION
  5
BAD
  8
0
  2
*D22
 10
1.377
 20
1.597077
 30
0.0
 11
0.6885
 21
1.597077
 31
0.0
  1
1.375
 13
0.0
 23
1.539376
 33
0.0
 14
1.377
 24
0.843
 34
0.0
  0
INSERT
  5
BAE
  8
0
  2
C40_1
 10
0.0
 20
0.0
 30
0.0
  0
INSERT
  5
BAF
  8
0
  2
30DC_1
 10
3.38
 20
0.0
 30
0.0
  0
LINE
  5
BB7
  8
H
 10
0.38
 20
-0.1125
 30
0.0
 11
0.38
 21
0.1125
 31
0.0
  0
LINE
  5
BB8
  8
H
 10
0.343097
 20
0.149403
 30
0.0
 11
0.13
 21
0.149403
 31
0.0
  0
LINE
  5
BB9
  8
H
 10
0.33625
 20
-0.15625
 30
0.0
 11
0.33625
 21
0.15625
 31
0.0
  0
LINE
  5
BBA
  8
H
 10
0.239329
 20
0.078125
 30
0.0
 11
0.239329
 21
-0.078125
 31
0.0
  0
LINE
  5
BBB
  8
H
 10
0.274754
 20
0.0427
 30
0.0
 11
0.274754
 21
-0.0427
 31
0.0
  0
LINE
  5
BBC
  8
H
 10
0.33625
 20
0.15625
 30
0.0
 11
0.38
 21
0.1125
 31
0.0
  0
LINE
  5
BBD
  8
H
 10
0.239329
 20
0.078125
 30
0.0
 11
0.274754
 21
0.0427
 31
0.0
  0
LINE
  5
BBE
  8
H
 10
0.239329
 20
-0.078125
 30
0.0
 11
0.274754
 21
-0.0427
 31
0.0
  0
LINE
  5
BBF
  8
H
 10
0.33625
 20
-0.15625
 30
0.0
 11
0.38
 21
-0.1125
 31
0.0
  0
LINE
  5
BC0
  8
H
 10
0.33625
 20
-0.15625
 30
0.0
 11
0.13
 21
-0.15625
 31
0.0
  0
LINE
  5
BC1
  8
H
 10
0.343097
 20
-0.149403
 30
0.0
 11
0.13
 21
-0.149403
 31
0.0
  0
LINE
  5
BC2
  8
H
 10
0.13
 20
0.078125
 30
0.0
 11
0.239329
 21
0.078125
 31
0.0
  0
LINE
  5
BC3
  8
H
 10
0.13
 20
-0.078125
 30
0.0
 11
0.239329
 21
-0.078125
 31
0.0
  0
LINE
  5
BC4
  8
H
 10
0.13
 20
-0.15625
 30
0.0
 11
0.13
 21
0.15625
 31
0.0
  0
LINE
  5
BC5
  8
H
 10
0.13
 20
0.15625
 30
0.0
 11
0.33625
 21
0.15625
 31
0.0
  0
ENDSEC
  0
EOF
