  0
SECTION
  2
HEADER
  9
$ACADVER
  1
AC1009
  9
$INSBASE
 10
0.0
 20
0.0
 30
0.0
  9
$EXTMIN
 10
-2.6875
 20
-1.599471
 30
0.0
  9
$EXTMAX
 10
6.992389
 20
1.98549
 30
0.0
  9
$LIMMIN
 10
0.0
 20
0.0
  9
$LIMMAX
 10
12.0
 20
9.0
  9
$ORTHOMODE
 70
     0
  9
$REGENMODE
 70
     1
  9
$FILLMODE
 70
     1
  9
$QTEXTMODE
 70
     0
  9
$MIRRTEXT
 70
     1
  9
$DRAGMODE
 70
     2
  9
$LTSCALE
 40
0.35
  9
$OSMODE
 70
   165
  9
$ATTMODE
 70
     1
  9
$TEXTSIZE
 40
0.134
  9
$TRACEWID
 40
0.05
  9
$TEXTSTYLE
  7
STANDARD
  9
$CLAYER
  8
L
  9
$CELTYPE
  6
BYLAYER
  9
$CECOLOR
 62
   256
  9
$DIMSCALE
 40
1.0
  9
$DIMASZ
 40
0.12
  9
$DIMEXO
 40
0.0625
  9
$DIMDLI
 40
0.38
  9
$DIMRND
 40
0.0
  9
$DIMDLE
 40
0.0
  9
$DIMEXE
 40
0.05
  9
$DIMTP
 40
0.0
  9
$DIMTM
 40
0.0
  9
$DIMTXT
 40
0.125
  9
$DIMCEN
 40
0.09
  9
$DIMTSZ
 40
0.0
  9
$DIMTOL
 70
     0
  9
$DIMLIM
 70
     0
  9
$DIMTIH
 70
     1
  9
$DIMTOH
 70
     1
  9
$DIMSE1
 70
     0
  9
$DIMSE2
 70
     0
  9
$DIMTAD
 70
     0
  9
$DIMZIN
 70
     0
  9
$DIMBLK
  1

  9
$DIMASO
 70
     1
  9
$DIMSHO
 70
     1
  9
$DIMPOST
  1

  9
$DIMAPOST
  1

  9
$DIMALT
 70
     0
  9
$DIMALTD
 70
     2
  9
$DIMALTF
 40
25.4
  9
$DIMLFAC
 40
1.0
  9
$DIMTOFL
 70
     0
  9
$DIMTVP
 40
0.0
  9
$DIMTIX
 70
     0
  9
$DIMSOXD
 70
     0
  9
$DIMSAH
 70
     0
  9
$DIMBLK1
  1

  9
$DIMBLK2
  1

  9
$DIMSTYLE
  2
5P
  9
$DIMCLRD
 70
     0
  9
$DIMCLRE
 70
     0
  9
$DIMCLRT
 70
     0
  9
$DIMTFAC
 40
1.0
  9
$DIMGAP
 40
0.09
  9
$LUNITS
 70
     2
  9
$LUPREC
 70
     4
  9
$SKETCHINC
 40
0.1
  9
$FILLETRAD
 40
0.0
  9
$AUNITS
 70
     0
  9
$AUPREC
 70
     0
  9
$MENU
  1
acad
  9
$ELEVATION
 40
0.0
  9
$PELEVATION
 40
0.0
  9
$THICKNESS
 40
0.0
  9
$LIMCHECK
 70
     0
  9
$BLIPMODE
 70
     0
  9
$CHAMFERA
 40
0.0
  9
$CHAMFERB
 40
0.0
  9
$SKPOLY
 70
     0
  9
$TDCREATE
 40
2449798.520746
  9
$TDUPDATE
 40
2450903.592593
  9
$TDINDWG
 40
0.038819
  9
$TDUSRTIMER
 40
0.038819
  9
$USRTIMER
 70
     1
  9
$ANGBASE
 50
0.0
  9
$ANGDIR
 70
     0
  9
$PDMODE
 70
     0
  9
$PDSIZE
 40
0.0
  9
$PLINEWID
 40
0.0
  9
$COORDS
 70
     1
  9
$SPLFRAME
 70
     0
  9
$SPLINETYPE
 70
     6
  9
$SPLINESEGS
 70
     8
  9
$ATTDIA
 70
     1
  9
$ATTREQ
 70
     1
  9
$HANDLING
 70
     1
  9
$HANDSEED
  5
423
  9
$SURFTAB1
 70
     6
  9
$SURFTAB2
 70
     6
  9
$SURFTYPE
 70
     6
  9
$SURFU
 70
     6
  9
$SURFV
 70
     6
  9
$UCSNAME
  2

  9
$UCSORG
 10
0.0
 20
0.0
 30
0.0
  9
$UCSXDIR
 10
1.0
 20
0.0
 30
0.0
  9
$UCSYDIR
 10
0.0
 20
1.0
 30
0.0
  9
$PUCSNAME
  2

  9
$PUCSORG
 10
0.0
 20
0.0
 30
0.0
  9
$PUCSXDIR
 10
1.0
 20
0.0
 30
0.0
  9
$PUCSYDIR
 10
0.0
 20
1.0
 30
0.0
  9
$USERI1
 70
     0
  9
$USERI2
 70
     0
  9
$USERI3
 70
     0
  9
$USERI4
 70
     0
  9
$USERI5
 70
     0
  9
$USERR1
 40
0.0
  9
$USERR2
 40
0.0
  9
$USERR3
 40
0.0
  9
$USERR4
 40
0.0
  9
$USERR5
 40
0.0
  9
$WORLDVIEW
 70
     1
  9
$SHADEDGE
 70
     3
  9
$SHADEDIF
 70
    70
  9
$TILEMODE
 70
     1
  9
$MAXACTVP
 70
    16
  9
$PLIMCHECK
 70
     0
  9
$PEXTMIN
 10
1.000000E+020
 20
1.000000E+020
 30
1.000000E+020
  9
$PEXTMAX
 10
-1.000000E+020
 20
-1.000000E+020
 30
-1.000000E+020
  9
$PLIMMIN
 10
0.0
 20
0.0
  9
$PLIMMAX
 10
12.0
 20
9.0
  9
$UNITMODE
 70
     0
  9
$VISRETAIN
 70
     1
  9
$PLINEGEN
 70
     0
  9
$PSLTSCALE
 70
     1
  0
ENDSEC
  0
SECTION
  2
TABLES
  0
TABLE
  2
VPORT
 70
     2
  0
VPORT
  2
*ACTIVE
 70
     0
 10
0.0
 20
0.0
 11
1.0
 21
1.0
 12
2.146737
 22
0.437185
 13
0.0
 23
0.0
 14
1.0
 24
1.0
 15
0.0
 25
0.0
 16
0.0
 26
0.0
 36
1.0
 17
0.0
 27
0.0
 37
0.0
 40
6.225237
 41
1.566964
 42
50.0
 43
0.0
 44
0.0
 50
0.0
 51
0.0
 71
     0
 72
   100
 73
     1
 74
     1
 75
     0
 76
     0
 77
     0
 78
     0
  0
ENDTAB
  0
TABLE
  2
LTYPE
 70
     4
  0
LTYPE
  2
CONTINUOUS
 70
     0
  3
Solid line
 72
    65
 73
     0
 40
0.0
  0
LTYPE
  2
PHANTOM
 70
     0
  3
______  __  __  ______  __  __  ______  __  __ 
 72
    65
 73
     6
 40
2.5
 49
1.25
 49
-0.25
 49
0.25
 49
-0.25
 49
0.25
 49
-0.25
  0
LTYPE
  2
HIDDEN
 70
     0
  3
__ __ __ __ __ __ __ __ __ __ __ __ __ __ __ __
 72
    65
 73
     2
 40
0.375
 49
0.25
 49
-0.125
  0
LTYPE
  2
CENTER
 70
     0
  3
____ _ ____ _ ____ _ ____ _ ____ _ ____ _ ____ 
 72
    65
 73
     4
 40
2.0
 49
1.25
 49
-0.25
 49
0.25
 49
-0.25
  0
ENDTAB
  0
TABLE
  2
LAYER
 70
    14
  0
LAYER
  2
0
 70
     0
 62
     7
  6
CONTINUOUS
  0
LAYER
  2
P
 70
     0
 62
     2
  6
PHANTOM
  0
LAYER
  2
C
 70
     0
 62
     1
  6
CENTER
  0
LAYER
  2
D
 70
     0
 62
     7
  6
CONTINUOUS
  0
LAYER
  2
H
 70
     0
 62
     4
  6
HIDDEN
  0
LAYER
  2
L
 70
     0
 62
     5
  6
CONTINUOUS
  0
LAYER
  2
README
 70
     1
 62
     2
  6
CONTINUOUS
  0
LAYER
  2
DEFPOINTS
 70
     0
 62
    -7
  6
CONTINUOUS
  0
LAYER
  2
F
 70
     0
 62
    13
  6
CONTINUOUS
  0
LAYER
  2
LINE
 70
     0
 62
     3
  6
CONTINUOUS
  0
LAYER
  2
DIM
 70
     0
 62
     7
  6
CONTINUOUS
  0
LAYER
  2
AM_TR
 70
     0
 62
     7
  6
CONTINUOUS
  0
LAYER
  2
AM_BM
 70
     0
 62
     7
  6
CONTINUOUS
  0
LAYER
  2
AM_BL
 70
     0
 62
     7
  6
CONTINUOUS
  0
ENDTAB
  0
TABLE
  2
STYLE
 70
     2
  0
STYLE
  2
STANDARD
 70
     0
 40
0.0
 41
1.0
 50
0.0
 71
     0
 42
0.134
  3
txt
  4

  0
STYLE
  2
ROMANT
 70
     0
 40
0.3
 41
1.0
 50
0.0
 71
     0
 42
0.130237
  3
romant
  4

  0
ENDTAB
  0
TABLE
  2
VIEW
 70
     0
  0
ENDTAB
  0
TABLE
  2
UCS
 70
     0
  0
ENDTAB
  0
TABLE
  2
APPID
 70
     3
  0
APPID
  2
ACAD
 70
     0
  0
APPID
  2
MCAD_NO_VIS
 70
     0
  0
APPID
  2
ACAD_TEMP_GRAPHIC
 70
     0
  0
ENDTAB
  0
TABLE
  2
DIMSTYLE
 70
     2
  0
DIMSTYLE
  2
PARLEC
 70
     0
  3

  4

  5

  6

  7

 40
1.0
 41
0.12
 42
0.0625
 43
0.38
 44
0.05
 45
0.0
 46
0.0
 47
0.0
 48
0.0
140
0.125
141
0.09
142
0.0
143
25.4
144
1.0
145
0.0
146
1.0
147
0.09
 71
     0
 72
     0
 73
     1
 74
     1
 75
     0
 76
     0
 77
     0
 78
     0
170
     0
171
     2
172
     0
173
     0
174
     0
175
     0
176
     0
177
     0
178
     0
  0
DIMSTYLE
  2
5P
 70
     0
  3

  4

  5

  6

  7

 40
1.0
 41
0.12
 42
0.0625
 43
0.38
 44
0.05
 45
0.0
 46
0.0
 47
0.0
 48
0.0
140
0.125
141
0.09
142
0.0
143
25.4
144
1.0
145
0.0
146
1.0
147
0.09
 71
     0
 72
     0
 73
     1
 74
     1
 75
     0
 76
     0
 77
     0
 78
     0
170
     0
171
     2
172
     0
173
     0
174
     0
175
     0
176
     0
177
     0
178
     0
  0
ENDTAB
  0
ENDSEC
  0
SECTION
  2
BLOCKS
  0
BLOCK
  8
0
  2
$MODEL_SPACE
 70
     0
 10
0.0
 20
0.0
 30
0.0
  3
$MODEL_SPACE
  1

  0
ENDBLK
  5
9D
  8
0
  0
BLOCK
 67
     1
  8
0
  2
$PAPER_SPACE
 70
     0
 10
0.0
 20
0.0
 30
0.0
  3
$PAPER_SPACE
  1

  0
ENDBLK
  5
9B
 67
     1
  8
0
  0
BLOCK
  8
0
  2
*D0
 70
     1
 10
0.0
 20
0.0
 30
0.0
  3
*D0
  1

  0
LINE
  5
1D7
  8
0
  6
BYBLOCK
 62
     0
 10
0.0
 20
0.9375
 30
0.0
 11
0.0
 21
1.865958
 31
0.0
  0
LINE
  5
1D8
  8
0
  6
BYBLOCK
 62
     0
 10
6.0
 20
0.874295
 30
0.0
 11
6.0
 21
1.865958
 31
0.0
  0
LINE
  5
1D9
  8
0
  6
BYBLOCK
 62
     0
 10
0.12
 20
1.815958
 30
0.0
 11
2.743333
 21
1.815958
 31
0.0
  0
LINE
  5
1DA
  8
0
  6
BYBLOCK
 62
     0
 10
5.88
 20
1.815958
 30
0.0
 11
3.256667
 21
1.815958
 31
0.0
  0
SOLID
  5
1DB
  8
0
  6
BYBLOCK
 62
     0
 10
0.12
 20
1.835958
 30
0.0
 11
0.12
 21
1.795958
 31
0.0
 12
0.0
 22
1.815958
 32
0.0
 13
0.0
 23
1.815958
 33
0.0
  0
SOLID
  5
1DC
  8
0
  6
BYBLOCK
 62
     0
 10
5.88
 20
1.835958
 30
0.0
 11
5.88
 21
1.795958
 31
0.0
 12
6.0
 22
1.815958
 32
0.0
 13
6.0
 23
1.815958
 33
0.0
  0
TEXT
  5
1DD
  8
0
  6
BYBLOCK
 62
     0
 10
2.833333
 20
1.753458
 30
0.0
 40
0.125
  1
6.00
 72
     1
 11
3.0
 21
1.815958
 31
0.0
 73
     2
  0
POINT
  5
1DE
  8
DEFPOINTS
  6
BYBLOCK
 62
     0
 10
0.0
 20
0.875
 30
0.0
  0
POINT
  5
1DF
  8
DEFPOINTS
  6
BYBLOCK
 62
     0
 10
6.0
 20
0.811795
 30
0.0
  0
POINT
  5
1E0
  8
DEFPOINTS
  6
BYBLOCK
 62
     0
 10
6.0
 20
1.815958
 30
0.0
  0
ENDBLK
  5
1E1
  8
0
  0
BLOCK
  8
0
  2
*D1
 70
     1
 10
0.0
 20
0.0
 30
0.0
  3
*D1
  1

  0
LINE
  5
1E3
  8
0
  6
BYBLOCK
 62
     0
 10
2.0
 20
-0.39625
 30
0.0
 11
2.0
 21
-1.586971
 31
0.0
  0
LINE
  5
1E4
  8
0
  6
BYBLOCK
 62
     0
 10
6.0
 20
-0.874295
 30
0.0
 11
6.0
 21
-1.586971
 31
0.0
  0
LINE
  5
1E5
  8
0
  6
BYBLOCK
 62
     0
 10
2.12
 20
-1.536971
 30
0.0
 11
3.743333
 21
-1.536971
 31
0.0
  0
LINE
  5
1E6
  8
0
  6
BYBLOCK
 62
     0
 10
5.88
 20
-1.536971
 30
0.0
 11
4.256667
 21
-1.536971
 31
0.0
  0
SOLID
  5
1E7
  8
0
  6
BYBLOCK
 62
     0
 10
2.12
 20
-1.516971
 30
0.0
 11
2.12
 21
-1.556971
 31
0.0
 12
2.0
 22
-1.536971
 32
0.0
 13
2.0
 23
-1.536971
 33
0.0
  0
SOLID
  5
1E8
  8
0
  6
BYBLOCK
 62
     0
 10
5.88
 20
-1.516971
 30
0.0
 11
5.88
 21
-1.556971
 31
0.0
 12
6.0
 22
-1.536971
 32
0.0
 13
6.0
 23
-1.536971
 33
0.0
  0
TEXT
  5
1E9
  8
0
  6
BYBLOCK
 62
     0
 10
3.833333
 20
-1.599471
 30
0.0
 40
0.125
  1
4.00
 72
     1
 11
4.0
 21
-1.536971
 31
0.0
 73
     2
  0
POINT
  5
1EA
  8
DEFPOINTS
  6
BYBLOCK
 62
     0
 10
2.0
 20
-0.33375
 30
0.0
  0
POINT
  5
1EB
  8
DEFPOINTS
  6
BYBLOCK
 62
     0
 10
6.0
 20
-0.811795
 30
0.0
  0
POINT
  5
1EC
  8
DEFPOINTS
  6
BYBLOCK
 62
     0
 10
6.0
 20
-1.536971
 30
0.0
  0
ENDBLK
  5
1ED
  8
0
  0
BLOCK
  8
0
  2
*D2
 70
     1
 10
0.0
 20
0.0
 30
0.0
  3
*D2
  1

  0
LINE
  5
1EF
  8
0
  6
BYBLOCK
 62
     0
 10
5.933632
 20
0.985
 30
0.0
 11
6.875722
 21
0.985
 31
0.0
  0
LINE
  5
1F0
  8
0
  6
BYBLOCK
 62
     0
 10
5.933632
 20
-0.985
 30
0.0
 11
6.875722
 21
-0.985
 31
0.0
  0
LINE
  5
1F1
  8
0
  6
BYBLOCK
 62
     0
 10
6.825722
 20
0.865
 30
0.0
 11
6.825722
 21
0.1525
 31
0.0
  0
LINE
  5
1F2
  8
0
  6
BYBLOCK
 62
     0
 10
6.825722
 20
-0.865
 30
0.0
 11
6.825722
 21
-0.1525
 31
0.0
  0
SOLID
  5
1F3
  8
0
  6
BYBLOCK
 62
     0
 10
6.805722
 20
0.865
 30
0.0
 11
6.845722
 21
0.865
 31
0.0
 12
6.825722
 22
0.985
 32
0.0
 13
6.825722
 23
0.985
 33
0.0
  0
SOLID
  5
1F4
  8
0
  6
BYBLOCK
 62
     0
 10
6.805722
 20
-0.865
 30
0.0
 11
6.845722
 21
-0.865
 31
0.0
 12
6.825722
 22
-0.985
 32
0.0
 13
6.825722
 23
-0.985
 33
0.0
  0
TEXT
  5
1F5
  8
0
  6
BYBLOCK
 62
     0
 10
6.659055
 20
-0.0625
 30
0.0
 40
0.125
  1
1.97
 72
     1
 11
6.825722
 21
0.0
 31
0.0
 73
     2
  0
POINT
  5
1F6
  8
DEFPOINTS
  6
BYBLOCK
 62
     0
 10
5.871132
 20
0.985
 30
0.0
  0
POINT
  5
1F7
  8
DEFPOINTS
  6
BYBLOCK
 62
     0
 10
5.871132
 20
-0.985
 30
0.0
  0
POINT
  5
1F8
  8
DEFPOINTS
  6
BYBLOCK
 62
     0
 10
6.825722
 20
-0.985
 30
0.0
  0
ENDBLK
  5
1F9
  8
0
  0
BLOCK
  8
0
  2
C40_1
 70
     0
 10
0.0
 20
0.0
 30
0.0
  3
C40_1
  1

  0
LINE
  5
222
  8
L
 10
0.0
 20
0.875
 30
0.0
 11
0.105026
 21
0.875
 31
0.0
  0
LINE
  5
223
  8
L
 10
0.105026
 20
-0.875
 30
0.0
 11
0.0
 21
-0.875
 31
0.0
  0
LINE
  5
224
  8
L
 10
0.0
 20
0.875
 30
0.0
 11
0.0
 21
-0.875
 31
0.0
  0
LINE
  5
225
  8
L
 10
0.0
 20
0.875
 30
0.0
 11
-2.636158
 21
0.49056
 31
0.0
  0
LINE
  5
226
  8
H
 10
-2.5
 20
0.3125
 30
0.0
 11
-1.5675
 21
0.3125
 31
0.0
  0
LINE
  5
227
  8
H
 10
-2.5
 20
0.266
 30
0.0
 11
-1.5675
 21
0.266
 31
0.0
  0
LINE
  5
228
  8
L
 10
0.0
 20
-0.875
 30
0.0
 11
-2.636158
 21
-0.49056
 31
0.0
  0
LINE
  5
229
  8
H
 10
-2.5
 20
-0.3125
 30
0.0
 11
-1.5675
 21
-0.3125
 31
0.0
  0
LINE
  5
22A
  8
H
 10
-2.5
 20
-0.266
 30
0.0
 11
-1.5675
 21
-0.266
 31
0.0
  0
LINE
  5
22B
  8
H
 10
-2.5
 20
-0.266
 30
0.0
 11
-2.5
 21
0.266
 31
0.0
  0
LINE
  5
22C
  8
H
 10
-2.619084
 20
0.3205
 30
0.0
 11
-2.619084
 21
-0.3205
 31
0.0
  0
LINE
  5
22D
  8
L
 10
-2.6875
 20
-0.43
 30
0.0
 11
-2.6875
 21
0.43
 31
0.0
  0
LINE
  5
22E
  8
H
 10
-2.5
 20
-0.3205
 30
0.0
 11
-2.5
 21
-0.266
 31
0.0
  0
LINE
  5
22F
  8
H
 10
-2.6875
 20
-0.36
 30
0.0
 11
-2.619084
 21
-0.3205
 31
0.0
  0
ARC
  5
230
  8
L
 10
-2.6275
 20
-0.431188
 30
0.0
 40
0.06
 50
180.0
 51
261.702855
  0
LINE
  5
231
  8
L
 10
-2.6875
 20
-0.36
 30
0.0
 11
-2.6875
 21
-0.431188
 31
0.0
  0
LINE
  5
232
  8
H
 10
-2.619084
 20
-0.3205
 30
0.0
 11
-2.5
 21
-0.3205
 31
0.0
  0
LINE
  5
233
  8
H
 10
-2.5
 20
0.266
 30
0.0
 11
-2.5
 21
0.3205
 31
0.0
  0
LINE
  5
234
  8
H
 10
-2.6875
 20
0.36
 30
0.0
 11
-2.619084
 21
0.3205
 31
0.0
  0
ARC
  5
235
  8
L
 10
-2.6275
 20
0.431188
 30
0.0
 40
0.06
 50
98.297145
 51
180.0
  0
LINE
  5
236
  8
L
 10
-2.6875
 20
0.36
 30
0.0
 11
-2.6875
 21
0.431188
 31
0.0
  0
LINE
  5
237
  8
H
 10
-2.619084
 20
0.3205
 30
0.0
 11
-2.5
 21
0.3205
 31
0.0
  0
LINE
  5
238
  8
H
 10
-1.5675
 20
0.3125
 30
0.0
 11
-1.5675
 21
-0.3125
 31
0.0
  0
LINE
  5
239
  8
L
 10
0.301366
 20
0.3125
 30
0.0
 11
0.301366
 21
1.25
 31
0.0
  0
LINE
  5
23A
  8
L
 10
0.579
 20
0.3125
 30
0.0
 11
0.579
 21
1.25
 31
0.0
  0
LINE
  5
23B
  8
L
 10
0.37671
 20
1.1195
 30
0.0
 11
0.37671
 21
0.3125
 31
0.0
  0
LINE
  5
23C
  8
L
 10
0.750026
 20
-1.22
 30
0.0
 11
0.750026
 21
-0.905
 31
0.0
  0
LINE
  5
23D
  8
L
 10
0.720026
 20
1.25
 30
0.0
 11
0.720026
 21
0.3125
 31
0.0
  0
LINE
  5
23E
  8
L
 10
0.503656
 20
1.1195
 30
0.0
 11
0.503656
 21
0.3125
 31
0.0
  0
LINE
  5
23F
  8
L
 10
0.155026
 20
1.25
 30
0.0
 11
0.155026
 21
0.3125
 31
0.0
  0
LINE
  5
240
  8
L
 10
0.125026
 20
-1.22
 30
0.0
 11
0.125026
 21
0.895
 31
0.0
  0
LINE
  5
241
  8
L
 10
0.155026
 20
-0.3125
 30
0.0
 11
0.155026
 21
-1.25
 31
0.0
  0
LINE
  5
242
  8
L
 10
0.37671
 20
-0.3125
 30
0.0
 11
0.37671
 21
-1.1195
 31
0.0
  0
LINE
  5
243
  8
L
 10
0.720026
 20
-0.3125
 30
0.0
 11
0.720026
 21
-1.25
 31
0.0
  0
LINE
  5
244
  8
L
 10
0.579
 20
-1.25
 30
0.0
 11
0.579
 21
-0.3125
 31
0.0
  0
LINE
  5
245
  8
L
 10
0.301366
 20
-0.3125
 30
0.0
 11
0.301366
 21
-1.25
 31
0.0
  0
LINE
  5
246
  8
L
 10
0.503656
 20
-1.1195
 30
0.0
 11
0.503656
 21
-0.3125
 31
0.0
  0
LINE
  5
247
  8
L
 10
0.394031
 20
-1.1095
 30
0.0
 11
0.486335
 21
-1.1095
 31
0.0
  0
LINE
  5
248
  8
L
 10
0.155026
 20
-1.25
 30
0.0
 11
0.301366
 21
-1.25
 31
0.0
  0
LINE
  5
249
  8
L
 10
0.125026
 20
-1.22
 30
0.0
 11
0.155026
 21
-1.25
 31
0.0
  0
LINE
  5
24A
  8
L
 10
0.37671
 20
-1.1195
 30
0.0
 11
0.301366
 21
-1.25
 31
0.0
  0
ARC
  5
24B
  8
L
 10
0.105026
 20
-0.895
 30
0.0
 40
0.02
 50
0.0
 51
90.0
  0
LINE
  5
24C
  8
L
 10
0.579
 20
-1.25
 30
0.0
 11
0.720026
 21
-1.25
 31
0.0
  0
LINE
  5
24D
  8
L
 10
0.503656
 20
-1.1195
 30
0.0
 11
0.579
 21
-1.25
 31
0.0
  0
LINE
  5
24E
  8
L
 10
0.720026
 20
-1.25
 30
0.0
 11
0.750026
 21
-1.22
 31
0.0
  0
CIRCLE
  5
24F
  8
L
 10
0.4375
 20
0.0
 30
0.0
 40
0.1875
  0
LINE
  5
250
  8
L
 10
0.720026
 20
-0.3125
 30
0.0
 11
0.155026
 21
-0.3125
 31
0.0
  0
LINE
  5
251
  8
L
 10
0.720026
 20
0.3125
 30
0.0
 11
0.155026
 21
0.3125
 31
0.0
  0
LINE
  5
252
  8
L
 10
0.720026
 20
1.25
 30
0.0
 11
0.750026
 21
1.22
 31
0.0
  0
LINE
  5
253
  8
L
 10
0.503656
 20
1.1195
 30
0.0
 11
0.579
 21
1.25
 31
0.0
  0
LINE
  5
254
  8
L
 10
0.37671
 20
1.1195
 30
0.0
 11
0.301366
 21
1.25
 31
0.0
  0
LINE
  5
255
  8
L
 10
0.125026
 20
1.22
 30
0.0
 11
0.155026
 21
1.25
 31
0.0
  0
LINE
  5
256
  8
L
 10
0.394031
 20
1.1095
 30
0.0
 11
0.486335
 21
1.1095
 31
0.0
  0
LINE
  5
257
  8
L
 10
0.125026
 20
0.895
 30
0.0
 11
0.125026
 21
1.22
 31
0.0
  0
ARC
  5
258
  8
L
 10
0.105026
 20
0.895
 30
0.0
 40
0.02
 50
270.0
 51
0.0
  0
LINE
  5
259
  8
L
 10
0.155026
 20
1.25
 30
0.0
 11
0.301366
 21
1.25
 31
0.0
  0
LINE
  5
25A
  8
L
 10
0.579
 20
1.25
 30
0.0
 11
0.720026
 21
1.25
 31
0.0
  0
POINT
  5
25B
  8
D
  6
BYBLOCK
 62
     0
 10
0.0
 20
0.875
 30
0.0
  0
POINT
  5
25C
  8
D
  6
BYBLOCK
 62
     0
 10
0.0
 20
-0.875
 30
0.0
  0
LINE
  5
25D
  8
L
 10
0.750026
 20
1.22
 30
0.0
 11
0.750026
 21
0.905
 31
0.0
  0
LINE
  5
25E
  8
L
 10
0.750026
 20
0.905
 30
0.0
 11
0.750026
 21
-0.905
 31
0.0
  0
LINE
  5
25F
  8
L
 10
0.780026
 20
0.875
 30
0.0
 11
1.345
 21
0.875
 31
0.0
  0
LINE
  5
260
  8
L
 10
0.780026
 20
-0.875
 30
0.0
 11
1.345
 21
-0.875
 31
0.0
  0
ARC
  5
261
  8
L
 10
0.3125
 20
-0.135
 30
0.0
 40
0.125
 50
180.0
 51
270.0
  0
LINE
  5
262
  8
L
 10
0.3125
 20
-0.26
 30
0.0
 11
0.5625
 21
-0.26
 31
0.0
  0
LINE
  5
263
  8
L
 10
0.1875
 20
-0.135
 30
0.0
 11
0.1875
 21
0.135
 31
0.0
  0
ARC
  5
264
  8
L
 10
0.3125
 20
0.135
 30
0.0
 40
0.125
 50
90.0
 51
180.0
  0
LINE
  5
265
  8
L
 10
0.3125
 20
0.26
 30
0.0
 11
0.5625
 21
0.26
 31
0.0
  0
ARC
  5
266
  8
L
 10
0.5625
 20
0.135
 30
0.0
 40
0.125
 50
0.0
 51
90.0
  0
LINE
  5
267
  8
L
 10
0.6875
 20
-0.135
 30
0.0
 11
0.6875
 21
0.135
 31
0.0
  0
ARC
  5
268
  8
L
 10
0.5625
 20
-0.135
 30
0.0
 40
0.125
 50
270.0
 51
0.0
  0
LINE
  5
269
  8
L
 10
0.75
 20
0.3425
 30
0.0
 11
0.579
 21
0.3425
 31
0.0
  0
LINE
  5
26A
  8
L
 10
0.301366
 20
0.3425
 30
0.0
 11
0.125
 21
0.3425
 31
0.0
  0
LINE
  5
26B
  8
L
 10
0.301366
 20
-0.3425
 30
0.0
 11
0.125
 21
-0.3425
 31
0.0
  0
LINE
  5
26C
  8
L
 10
0.75
 20
-0.3425
 30
0.0
 11
0.579
 21
-0.3425
 31
0.0
  0
ARC
  5
26D
  8
L
 10
0.780026
 20
0.905
 30
0.0
 40
0.03
 50
180.0
 51
270.0
  0
ARC
  5
26E
  8
L
 10
0.780026
 20
-0.905
 30
0.0
 40
0.03
 50
90.0
 51
180.0
  0
ARC
  5
26F
  8
L
 10
0.394031
 20
-1.1295
 30
0.0
 40
0.02
 50
90.0
 51
150.0
  0
ARC
  5
270
  8
L
 10
0.486335
 20
-1.1295
 30
0.0
 40
0.02
 50
30.0
 51
90.0
  0
ARC
  5
271
  8
L
 10
0.394031
 20
1.1295
 30
0.0
 40
0.02
 50
210.0
 51
270.0
  0
ARC
  5
272
  8
L
 10
0.486335
 20
1.1295
 30
0.0
 40
0.02
 50
270.0
 51
330.0
  0
LINE
  5
273
  8
L
 10
0.155026
 20
-0.3125
 30
0.0
 11
0.125026
 21
-0.3425
 31
0.0
  0
LINE
  5
274
  8
L
 10
0.719974
 20
-0.3125
 30
0.0
 11
0.749974
 21
-0.3425
 31
0.0
  0
LINE
  5
275
  8
L
 10
0.719974
 20
0.3125
 30
0.0
 11
0.749974
 21
0.3425
 31
0.0
  0
LINE
  5
276
  8
L
 10
0.155026
 20
0.3125
 30
0.0
 11
0.125026
 21
0.3425
 31
0.0
  0
SOLID
  5
277
  8
README
 10
-0.001114
 20
-0.12165
 30
0.0
 11
0.0384
 21
-0.115436
 31
0.0
 12
0.0
 22
0.0
 32
0.0
 13
0.0
 23
0.0
 33
0.0
  0
LINE
  5
278
  8
README
 10
0.018643
 20
-0.118543
 30
0.0
 11
0.445186
 21
-2.83079
 31
0.0
  0
LINE
  5
279
  8
README
 10
0.445186
 20
-2.83079
 30
0.0
 11
0.675155
 21
-2.83079
 31
0.0
  0
TEXT
  5
27A
  8
README
 10
0.781294
 20
-2.938348
 30
0.0
 40
0.25
  1
POINT 0,0
  0
TEXT
  5
27B
  8
README
 10
0.22111
 20
-3.375011
 30
0.0
 40
0.25
  1
AT GAGE LINE
  0
TEXT
  5
27C
  8
README
 10
0.781294
 20
4.786806
 30
0.0
 40
0.25
  1
S:\XREF\C40_1
  0
LINE
  5
27D
  8
D
 10
-0.36144
 20
0.950884
 30
0.0
 11
-0.790394
 21
1.914553
 31
0.0
  0
SOLID
  5
27E
  8
D
 10
-0.379503
 20
0.942298
 30
0.0
 11
-0.343377
 21
0.95947
 31
0.0
 12
-0.309925
 22
0.842504
 32
0.0
 13
-0.309925
 23
0.842504
 33
0.0
  0
LINE
  5
27F
  8
D
 10
-0.790394
 20
1.914553
 30
0.0
 11
-0.999464
 21
1.914553
 31
0.0
  0
TEXT
  5
280
  8
D
 10
-2.385963
 20
1.86049
 30
0.0
 40
0.125
  1
40 V-FLANGE
  0
TEXT
  5
281
  8
D
 10
-2.663396
 20
1.86049
 30
0.0
 40
0.09
  1
CAT
  0
ENDBLK
  5
282
  8
0
  0
BLOCK
  8
0
  2
C40BASE1
 70
     0
 10
0.0
 20
0.0
 30
0.0
  3
C40BASE1
  1

  0
LINE
  5
2FD
  8
L
 10
0.0
 20
0.875
 30
0.0
 11
0.105026
 21
0.875
 31
0.0
  0
LINE
  5
2FE
  8
L
 10
0.105026
 20
-0.875
 30
0.0
 11
0.0
 21
-0.875
 31
0.0
  0
LINE
  5
2FF
  8
L
 10
0.0
 20
0.875
 30
0.0
 11
0.0
 21
-0.875
 31
0.0
  0
LINE
  5
300
  8
L
 10
0.0
 20
0.875
 30
0.0
 11
-2.636158
 21
0.49056
 31
0.0
  0
LINE
  5
301
  8
H
 10
-2.5
 20
0.3125
 30
0.0
 11
-1.5675
 21
0.3125
 31
0.0
  0
LINE
  5
302
  8
H
 10
-2.5
 20
0.266
 30
0.0
 11
-1.5675
 21
0.266
 31
0.0
  0
LINE
  5
303
  8
L
 10
0.0
 20
-0.875
 30
0.0
 11
-2.636158
 21
-0.49056
 31
0.0
  0
LINE
  5
304
  8
H
 10
-2.5
 20
-0.3125
 30
0.0
 11
-1.5675
 21
-0.3125
 31
0.0
  0
LINE
  5
305
  8
H
 10
-2.5
 20
-0.266
 30
0.0
 11
-1.5675
 21
-0.266
 31
0.0
  0
LINE
  5
306
  8
H
 10
-2.5
 20
-0.266
 30
0.0
 11
-2.5
 21
0.266
 31
0.0
  0
LINE
  5
307
  8
H
 10
-2.619084
 20
0.3205
 30
0.0
 11
-2.619084
 21
-0.3205
 31
0.0
  0
LINE
  5
308
  8
L
 10
-2.6875
 20
-0.43
 30
0.0
 11
-2.6875
 21
0.43
 31
0.0
  0
LINE
  5
309
  8
H
 10
-2.5
 20
-0.3205
 30
0.0
 11
-2.5
 21
-0.266
 31
0.0
  0
LINE
  5
30A
  8
H
 10
-2.6875
 20
-0.36
 30
0.0
 11
-2.619084
 21
-0.3205
 31
0.0
  0
ARC
  5
30B
  8
L
 10
-2.6275
 20
-0.431188
 30
0.0
 40
0.06
 50
180.0
 51
261.702855
  0
LINE
  5
30C
  8
L
 10
-2.6875
 20
-0.36
 30
0.0
 11
-2.6875
 21
-0.431188
 31
0.0
  0
LINE
  5
30D
  8
H
 10
-2.619084
 20
-0.3205
 30
0.0
 11
-2.5
 21
-0.3205
 31
0.0
  0
LINE
  5
30E
  8
H
 10
-2.5
 20
0.266
 30
0.0
 11
-2.5
 21
0.3205
 31
0.0
  0
LINE
  5
30F
  8
H
 10
-2.6875
 20
0.36
 30
0.0
 11
-2.619084
 21
0.3205
 31
0.0
  0
ARC
  5
310
  8
L
 10
-2.6275
 20
0.431188
 30
0.0
 40
0.06
 50
98.297145
 51
180.0
  0
LINE
  5
311
  8
L
 10
-2.6875
 20
0.36
 30
0.0
 11
-2.6875
 21
0.431188
 31
0.0
  0
LINE
  5
312
  8
H
 10
-2.619084
 20
0.3205
 30
0.0
 11
-2.5
 21
0.3205
 31
0.0
  0
LINE
  5
313
  8
H
 10
-1.5675
 20
0.3125
 30
0.0
 11
-1.5675
 21
-0.3125
 31
0.0
  0
ARC
  5
314
  8
L
 10
0.105026
 20
-0.895
 30
0.0
 40
0.02
 50
2.929012
 51
90.0
  0
LINE
  5
315
  8
L
 10
0.72
 20
0.32
 30
0.0
 11
0.155
 21
0.32
 31
0.0
  0
ARC
  5
316
  8
L
 10
0.105026
 20
0.895
 30
0.0
 40
0.02
 50
270.0
 51
357.070988
  0
LINE
  5
317
  8
L
 10
0.75
 20
0.35
 30
0.0
 11
0.579
 21
0.35
 31
0.0
  0
LINE
  5
318
  8
L
 10
0.301366
 20
0.35
 30
0.0
 11
0.125
 21
0.35
 31
0.0
  0
LINE
  5
319
  8
L
 10
0.155
 20
0.32
 30
0.0
 11
0.125
 21
0.35
 31
0.0
  0
SOLID
  5
31A
  8
README
 10
-0.001114
 20
-0.12165
 30
0.0
 11
0.0384
 21
-0.115436
 31
0.0
 12
0.0
 22
0.0
 32
0.0
 13
0.0
 23
0.0
 33
0.0
  0
LINE
  5
31B
  8
README
 10
0.018643
 20
-0.118543
 30
0.0
 11
0.445186
 21
-2.83079
 31
0.0
  0
LINE
  5
31C
  8
README
 10
0.445186
 20
-2.83079
 30
0.0
 11
0.675155
 21
-2.83079
 31
0.0
  0
TEXT
  5
31D
  8
README
 10
0.781294
 20
-2.938348
 30
0.0
 40
0.25
  1
POINT 0,0
  0
TEXT
  5
31E
  8
README
 10
0.22111
 20
-3.375011
 30
0.0
 40
0.25
  1
AT GAGE LINE
  0
TEXT
  5
31F
  8
README
 10
1.294264
 20
-4.953954
 30
0.0
 40
0.25
  1
S:\XREF\C40_1
  0
LINE
  5
320
  8
L
 10
0.72
 20
-0.32
 30
0.0
 11
0.155
 21
-0.32
 31
0.0
  0
LINE
  5
321
  8
L
 10
0.75
 20
-0.35
 30
0.0
 11
0.579
 21
-0.35
 31
0.0
  0
LINE
  5
322
  8
L
 10
0.301366
 20
-0.35
 30
0.0
 11
0.125
 21
-0.35
 31
0.0
  0
LINE
  5
323
  8
L
 10
0.155
 20
-0.32
 30
0.0
 11
0.125
 21
-0.35
 31
0.0
  0
LINE
  5
324
  8
L
 10
0.125
 20
-1.22
 30
0.0
 11
0.125
 21
1.22
 31
0.0
  0
LINE
  5
325
  8
L
 10
0.579
 20
0.32
 30
0.0
 11
0.579
 21
1.25
 31
0.0
  0
LINE
  5
326
  8
L
 10
0.301
 20
0.32
 30
0.0
 11
0.301
 21
1.25
 31
0.0
  0
LINE
  5
327
  8
L
 10
0.579
 20
1.25
 30
0.0
 11
0.503656
 21
1.1195
 31
0.0
  0
LINE
  5
328
  8
L
 10
0.301
 20
1.25
 30
0.0
 11
0.376344
 21
1.1195
 31
0.0
  0
LINE
  5
329
  8
L
 10
0.579
 20
1.25
 30
0.0
 11
0.72
 21
1.25
 31
0.0
  0
LINE
  5
32A
  8
L
 10
0.301
 20
1.25
 30
0.0
 11
0.155
 21
1.25
 31
0.0
  0
LINE
  5
32B
  8
L
 10
0.155
 20
0.32
 30
0.0
 11
0.155
 21
1.25
 31
0.0
  0
LINE
  5
32C
  8
L
 10
0.125
 20
1.22
 30
0.0
 11
0.155
 21
1.25
 31
0.0
  0
LINE
  5
32D
  8
L
 10
0.486335
 20
1.1095
 30
0.0
 11
0.393665
 21
1.1095
 31
0.0
  0
LINE
  5
32E
  8
L
 10
0.155
 20
-0.32
 30
0.0
 11
0.155
 21
-1.25
 31
0.0
  0
LINE
  5
32F
  8
L
 10
0.301
 20
-0.32
 30
0.0
 11
0.301
 21
-1.25
 31
0.0
  0
LINE
  5
330
  8
L
 10
0.376344
 20
-0.32
 30
0.0
 11
0.376344
 21
-1.1195
 31
0.0
  0
LINE
  5
331
  8
L
 10
0.579
 20
-0.32
 30
0.0
 11
0.579
 21
-1.25
 31
0.0
  0
LINE
  5
332
  8
L
 10
0.579
 20
-1.25
 30
0.0
 11
0.503656
 21
-1.1195
 31
0.0
  0
LINE
  5
333
  8
L
 10
0.301
 20
-1.25
 30
0.0
 11
0.376344
 21
-1.1195
 31
0.0
  0
LINE
  5
334
  8
L
 10
0.125
 20
-1.22
 30
0.0
 11
0.155
 21
-1.25
 31
0.0
  0
LINE
  5
335
  8
L
 10
0.301
 20
-1.25
 30
0.0
 11
0.155
 21
-1.25
 31
0.0
  0
LINE
  5
336
  8
L
 10
0.579
 20
-1.25
 30
0.0
 11
0.72
 21
-1.25
 31
0.0
  0
LINE
  5
337
  8
L
 10
0.486335
 20
-1.1095
 30
0.0
 11
0.393665
 21
-1.1095
 31
0.0
  0
ARC
  5
338
  8
L
 10
0.393665
 20
-1.1295
 30
0.0
 40
0.02
 50
90.0
 51
150.0
  0
ARC
  5
339
  8
L
 10
0.486335
 20
-1.1295
 30
0.0
 40
0.02
 50
30.0
 51
90.0
  0
LINE
  5
33A
  8
L
 10
0.393665
 20
-0.32
 30
0.0
 11
0.393665
 21
-1.1095
 31
0.0
  0
LINE
  5
33B
  8
L
 10
0.486335
 20
-0.32
 30
0.0
 11
0.486335
 21
-1.1095
 31
0.0
  0
LINE
  5
33C
  8
L
 10
0.503656
 20
-0.32
 30
0.0
 11
0.503656
 21
-1.1195
 31
0.0
  0
ARC
  5
33D
  8
L
 10
0.393665
 20
1.1295
 30
0.0
 40
0.02
 50
210.0
 51
270.0
  0
ARC
  5
33E
  8
L
 10
0.486335
 20
1.1295
 30
0.0
 40
0.02
 50
270.0
 51
330.0
  0
LINE
  5
33F
  8
L
 10
0.503656
 20
0.32
 30
0.0
 11
0.503656
 21
1.1195
 31
0.0
  0
LINE
  5
340
  8
L
 10
0.486335
 20
0.32
 30
0.0
 11
0.486335
 21
1.1095
 31
0.0
  0
LINE
  5
341
  8
L
 10
0.376344
 20
0.32
 30
0.0
 11
0.376344
 21
1.1195
 31
0.0
  0
LINE
  5
342
  8
L
 10
0.393665
 20
0.32
 30
0.0
 11
0.393665
 21
1.1095
 31
0.0
  0
SOLID
  5
343
  8
D
 10
-0.531723
 20
0.917865
 30
0.0
 11
-0.566567
 21
0.898221
 31
0.0
 12
-0.490212
 22
0.803511
 32
0.0
 13
-0.490212
 23
0.803511
 33
0.0
  0
LINE
  5
344
  8
D
 10
-0.549145
 20
0.908043
 30
0.0
 11
-1.084677
 21
1.857944
 31
0.0
  0
LINE
  5
345
  8
D
 10
-1.084677
 20
1.857944
 30
0.0
 11
-1.160266
 21
1.857944
 31
0.0
  0
TEXT
  5
346
  8
D
 10
-2.562567
 20
1.799663
 30
0.0
 40
0.125
  1
40 V-FLANGE
 72
     2
 11
-1.2084
 21
1.862163
 31
0.0
 73
     2
  0
TEXT
  5
347
  8
D
 10
-2.846759
 20
1.803617
 30
0.0
 40
0.09
  1
CAT
  0
ENDBLK
  5
348
  8
0
  0
BLOCK
  8
0
  2
32ER_1
 70
     0
 10
0.0
 20
0.0
 30
0.0
  3
32ER_1
  1

  0
LINE
  5
34A
  8
H
 10
-1.875
 20
0.4625
 30
0.0
 11
-1.875
 21
-0.4625
 31
0.0
  0
LINE
  5
34B
  8
H
 10
-1.716824
 20
0.4625
 30
0.0
 11
-1.716824
 21
-0.4625
 31
0.0
  0
LINE
  5
34C
  8
H
 10
-1.968171
 20
-0.370029
 30
0.0
 11
-1.968171
 21
0.370029
 31
0.0
  0
LINE
  5
34D
  8
L
 10
-1.09501
 20
-0.769
 30
0.0
 11
-1.09501
 21
0.769
 31
0.0
  0
LINE
  5
34E
  8
L
 10
-0.565
 20
0.769
 30
0.0
 11
-0.565
 21
-0.769
 31
0.0
  0
LINE
  5
34F
  8
L
 10
-0.525
 20
-0.729
 30
0.0
 11
-0.525
 21
0.729
 31
0.0
  0
LINE
  5
350
  8
L
 10
-0.565
 20
0.769
 30
0.0
 11
-0.565
 21
-0.769
 31
0.0
  0
LINE
  5
351
  8
L
 10
-0.525
 20
-0.729
 30
0.0
 11
-0.525
 21
0.729
 31
0.0
  0
LINE
  5
352
  8
H
 10
-1.875
 20
-0.4625
 30
0.0
 11
-1.716824
 21
-0.4625
 31
0.0
  0
LINE
  5
353
  8
H
 10
-1.875
 20
-0.4625
 30
0.0
 11
-1.968171
 21
-0.370029
 31
0.0
  0
LINE
  5
354
  8
H
 10
-2.532892
 20
-0.406
 30
0.0
 11
-1.931928
 21
-0.406
 31
0.0
  0
LINE
  5
355
  8
H
 10
-2.532892
 20
-0.370029
 30
0.0
 11
-1.968171
 21
-0.370029
 31
0.0
  0
LINE
  5
356
  8
H
 10
-0.525
 20
-0.63
 30
0.0
 11
-1.716824
 21
-0.4625
 31
0.0
  0
LINE
  5
357
  8
L
 10
-0.565
 20
-0.769
 30
0.0
 11
-0.525
 21
-0.729
 31
0.0
  0
LINE
  5
358
  8
L
 10
-1.09501
 20
-0.769
 30
0.0
 11
-0.565
 21
-0.769
 31
0.0
  0
LINE
  5
359
  8
H
 10
-1.09501
 20
-0.748
 30
0.0
 11
-0.544
 21
-0.748
 31
0.0
  0
LINE
  5
35A
  8
L
 10
-2.151833
 20
0.875
 30
0.0
 11
-1.20101
 21
0.875
 31
0.0
  0
LINE
  5
35B
  8
H
 10
-1.875
 20
0.4625
 30
0.0
 11
-1.716824
 21
0.4625
 31
0.0
  0
LINE
  5
35C
  8
H
 10
-2.532892
 20
0.406
 30
0.0
 11
-1.931928
 21
0.406
 31
0.0
  0
LINE
  5
35D
  8
H
 10
-2.532892
 20
0.370029
 30
0.0
 11
-1.968171
 21
0.370029
 31
0.0
  0
LINE
  5
35E
  8
H
 10
-1.875
 20
0.4625
 30
0.0
 11
-1.968171
 21
0.370029
 31
0.0
  0
LINE
  5
35F
  8
H
 10
-0.525
 20
0.63
 30
0.0
 11
-1.716824
 21
0.4625
 31
0.0
  0
LINE
  5
360
  8
L
 10
-1.09501
 20
0.769
 30
0.0
 11
-1.20101
 21
0.875
 31
0.0
  0
LINE
  5
361
  8
L
 10
-1.09501
 20
0.769
 30
0.0
 11
-0.565
 21
0.769
 31
0.0
  0
LINE
  5
362
  8
H
 10
-1.09501
 20
0.748
 30
0.0
 11
-0.544
 21
0.748
 31
0.0
  0
LINE
  5
363
  8
L
 10
-0.565
 20
0.769
 30
0.0
 11
-0.525
 21
0.729
 31
0.0
  0
LINE
  5
364
  8
L
 10
-1.09501
 20
-0.769
 30
0.0
 11
-1.20101
 21
-0.875
 31
0.0
  0
LINE
  5
365
  8
L
 10
-2.151833
 20
-0.875
 30
0.0
 11
-1.20101
 21
-0.875
 31
0.0
  0
LINE
  5
366
  8
L
 10
-1.20101
 20
0.875
 30
0.0
 11
-1.20101
 21
-0.875
 31
0.0
  0
POINT
  5
367
  8
README
 10
0.0
 20
0.0
 30
0.0
  0
SOLID
  5
368
  8
README
 10
0.071246
 20
-0.09861
 30
0.0
 11
0.099377
 21
-0.070173
 31
0.0
 12
0.0
 22
0.0
 32
0.0
 13
0.0
 23
0.0
 33
0.0
  0
LINE
  5
369
  8
README
 10
0.085312
 20
-0.084392
 30
0.0
 11
1.297753
 21
-1.283758
 31
0.0
  0
LINE
  5
36A
  8
README
 10
1.297753
 20
-1.283758
 30
0.0
 11
2.006388
 21
-1.283758
 31
0.0
  0
TEXT
  5
36B
  8
README
 10
2.273798
 20
-1.377304
 30
0.0
 40
0.25
  1
POINT 0,0
  0
TEXT
  5
36C
  8
README
 10
2.273798
 20
-1.793971
 30
0.0
 40
0.25
  1
PROJECTION AT COLLET NUT
  0
TEXT
  5
36D
  8
README
 10
3.624217
 20
2.573578
 30
0.0
 40
0.25
  1
S:\XREF\32ER_1
  0
POINT
  5
36E
  8
DEFPOINTS
  6
BYBLOCK
 62
     0
 10
-1.09501
 20
0.769
 30
0.0
  0
POINT
  5
36F
  8
DEFPOINTS
  6
BYBLOCK
 62
     0
 10
-2.151833
 20
0.875
 30
0.0
  0
POINT
  5
370
  8
DEFPOINTS
  6
BYBLOCK
 62
     0
 10
-1.20101
 20
0.875
 30
0.0
  0
POINT
  5
371
  8
DEFPOINTS
  6
BYBLOCK
 62
     0
 10
-1.20101
 20
0.875
 30
0.0
  0
ENDBLK
  5
372
  8
0
  0
ENDSEC
  0
SECTION
  2
ENTITIES
  0
LINE
  5
37F
  8
H
 10
3.467108
 20
0.406
 30
0.0
 11
1.475
 21
0.406
 31
0.0
  0
LINE
  5
380
  8
H
 10
3.467108
 20
0.370029
 30
0.0
 11
0.855
 21
0.370029
 31
0.0
  0
LINE
  5
381
  8
H
 10
0.855
 20
0.370029
 30
0.0
 11
0.792493
 21
0.266
 31
0.0
  0
LINE
  5
382
  8
H
 10
-1.5675
 20
0.266
 30
0.0
 11
0.792493
 21
0.266
 31
0.0
  0
LINE
  5
383
  8
H
 10
-1.5675
 20
-0.266
 30
0.0
 11
0.792493
 21
-0.266
 31
0.0
  0
LINE
  5
384
  8
H
 10
0.855
 20
-0.370029
 30
0.0
 11
0.792493
 21
-0.266
 31
0.0
  0
LINE
  5
385
  8
H
 10
3.467108
 20
-0.406
 30
0.0
 11
1.475
 21
-0.406
 31
0.0
  0
LINE
  5
386
  8
H
 10
3.467108
 20
-0.370029
 30
0.0
 11
0.855
 21
-0.370029
 31
0.0
  0
POINT
  5
387
  8
DEFPOINTS
  6
BYBLOCK
 62
     0
 10
0.0
 20
0.875
 30
0.0
  0
LINE
  5
388
  8
L
 10
1.345
 20
0.875
 30
0.0
 11
3.848167
 21
0.875
 31
0.0
  0
LINE
  5
389
  8
L
 10
1.345
 20
-0.875
 30
0.0
 11
2.118167
 21
-0.875
 31
0.0
  0
LINE
  5
38A
  8
H
 10
1.475
 20
-0.406
 30
0.0
 11
1.475
 21
0.406
 31
0.0
  0
LINE
  5
38B
  8
L
 10
1.345
 20
-0.875
 30
0.0
 11
3.848167
 21
-0.875
 31
0.0
  0
LINE
  5
38C
  8
H
 10
0.792493
 20
0.266
 30
0.0
 11
0.792493
 21
-0.266
 31
0.0
  0
LINE
  5
38D
  8
H
 10
0.855
 20
-0.370029
 30
0.0
 11
0.855
 21
0.370029
 31
0.0
  0
DIMENSION
  5
390
  8
0
  2
*D0
 10
6.0
 20
1.815958
 30
0.0
 11
3.0
 21
1.815958
 31
0.0
  1
6.00
 13
0.0
 23
0.875
 33
0.0
 14
6.0
 24
0.811795
 34
0.0
  0
DIMENSION
  5
391
  8
0
  2
*D1
 10
6.0
 20
-1.536971
 30
0.0
 11
4.0
 21
-1.536971
 31
0.0
  1
4.00
 13
2.0
 23
-0.33375
 33
0.0
 14
6.0
 24
-0.811795
 34
0.0
  0
DIMENSION
  5
392
  8
0
  2
*D2
 10
6.825722
 20
-0.985
 30
0.0
 11
6.825722
 21
0.0
 31
0.0
  1
1.97
 13
5.871132
 23
0.985
 33
0.0
 14
5.871132
 24
-0.985
 34
0.0
 50
90.0
  0
LINE
  5
393
  8
L
 10
-0.490254
 20
0.511283
 30
0.0
 11
-0.446504
 21
0.511283
 31
0.0
  0
LINE
  5
394
  8
L
 10
-0.490254
 20
0.703783
 30
0.0
 11
-0.446504
 21
0.703783
 31
0.0
  0
ARC
  5
395
  8
L
 10
-0.716041
 20
0.587933
 30
0.0
 40
0.07665
 50
0.018858
 51
278.071967
  0
CIRCLE
  5
396
  8
L
 10
-0.716041
 20
0.587933
 30
0.0
 40
0.035
  0
ARC
  5
397
  8
L
 10
-0.716041
 20
0.587933
 30
0.0
 40
0.07665
 50
0.018858
 51
278.071967
  0
LINE
  5
398
  8
L
 10
-0.913818
 20
0.594143
 30
0.0
 11
-0.913818
 21
0.511283
 31
0.0
  0
LINE
  5
399
  8
L
 10
-0.957568
 20
0.627079
 30
0.0
 11
-0.957568
 21
0.511283
 31
0.0
  0
LINE
  5
39A
  8
L
 10
-0.957568
 20
0.511283
 30
0.0
 11
-0.913818
 21
0.511283
 31
0.0
  0
CIRCLE
  5
39B
  8
L
 10
-0.880918
 20
0.627079
 30
0.0
 40
0.035
  0
ARC
  5
39C
  8
L
 10
-0.880918
 20
0.627079
 30
0.0
 40
0.07665
 50
269.890544
 51
179.99999
  0
LINE
  5
39D
  8
L
 10
-0.913818
 20
0.594143
 30
0.0
 11
-0.881065
 21
0.550429
 31
0.0
  0
LINE
  5
39E
  8
L
 10
-0.490254
 20
0.703783
 30
0.0
 11
-0.490254
 21
0.511283
 31
0.0
  0
LINE
  5
39F
  8
L
 10
-0.574616
 20
0.608907
 30
0.0
 11
-0.574424
 21
0.511283
 31
0.0
  0
LINE
  5
3A0
  8
L
 10
-0.618366
 20
0.608907
 30
0.0
 11
-0.618174
 21
0.511283
 31
0.0
  0
LINE
  5
3A1
  8
L
 10
-0.639391
 20
0.587958
 30
0.0
 11
-0.639365
 21
0.511283
 31
0.0
  0
LINE
  5
3A2
  8
L
 10
-0.683131
 20
0.557914
 30
0.0
 11
-0.705278
 21
0.512043
 31
0.0
  0
LINE
  5
3A3
  8
L
 10
-0.683131
 20
0.557914
 30
0.0
 11
-0.683115
 21
0.511283
 31
0.0
  0
LINE
  5
3A4
  8
L
 10
-0.639391
 20
0.587958
 30
0.0
 11
-0.639365
 21
0.511334
 31
0.0
  0
LINE
  5
3A5
  8
L
 10
-0.618174
 20
0.511283
 30
0.0
 11
-0.574424
 21
0.511283
 31
0.0
  0
LINE
  5
3A6
  8
L
 10
-0.683115
 20
0.511283
 30
0.0
 11
-0.639365
 21
0.511283
 31
0.0
  0
ARC
  5
3A7
  8
L
 10
-0.56269
 20
0.608907
 30
0.0
 40
0.055676
 50
18.846034
 51
180.226252
  0
LINE
  5
3A8
  8
L
 10
-0.509999
 20
0.626892
 30
0.0
 11
-0.539675
 21
0.610335
 31
0.0
  0
ARC
  5
3A9
  8
L
 10
-0.557116
 20
0.608907
 30
0.0
 40
0.0175
 50
4.679095
 51
180.226252
  0
ARC
  5
3AA
  8
L
 10
-0.190103
 20
0.587933
 30
0.0
 40
0.07665
 50
30.701399
 51
270.0
  0
ARC
  5
3AB
  8
L
 10
-0.351159
 20
0.587933
 30
0.0
 40
0.039375
 50
235.5219
 51
332.233922
  0
LINE
  5
3AC
  8
L
 10
-0.446504
 20
0.703783
 30
0.0
 11
-0.446504
 21
0.511283
 31
0.0
  0
ARC
  5
3AD
  8
L
 10
-0.351159
 20
0.587933
 30
0.0
 40
0.07665
 50
14.507251
 51
328.258317
  0
ARC
  5
3AE
  8
L
 10
-0.351159
 20
0.587933
 30
0.0
 40
0.039375
 50
64.071476
 51
172.253555
  0
LINE
  5
3AF
  8
L
 10
-0.333943
 20
0.623345
 30
0.0
 11
-0.390175
 21
0.593241
 31
0.0
  0
LINE
  5
3B0
  8
L
 10
-0.276953
 20
0.607134
 30
0.0
 11
-0.373449
 21
0.555475
 31
0.0
  0
LINE
  5
3B1
  8
L
 10
-0.316318
 20
0.56959
 30
0.0
 11
-0.285974
 21
0.547608
 31
0.0
  0
LINE
  5
3B2
  8
L
 10
-0.094296
 20
0.548558
 30
0.0
 11
-0.113575
 21
0.511283
 31
0.0
  0
LINE
  5
3B3
  8
L
 10
-0.190103
 20
0.511283
 30
0.0
 11
-0.113575
 21
0.511283
 31
0.0
  0
LINE
  5
3B4
  8
L
 10
-0.190103
 20
0.548558
 30
0.0
 11
-0.094296
 21
0.548558
 31
0.0
  0
LINE
  5
3B5
  8
L
 10
-0.124196
 20
0.627068
 30
0.0
 11
-0.158854
 21
0.61189
 31
0.0
  0
ARC
  5
3B6
  8
L
 10
-0.190103
 20
0.587933
 30
0.0
 40
0.039375
 50
37.476042
 51
270.0
  0
TEXT
  5
3B7
  8
0
 10
-0.885257
 20
0.376191
 30
0.0
 40
0.0875
  1
C40-32ER6
  0
INSERT
  5
3B8
  8
0
  2
C40_1
 10
0.0
 20
0.0
 30
0.0
  0
INSERT
  5
3B9
  8
0
  2
32ER_1
 10
6.0
 20
0.0
 30
0.0
  0
LINE
  5
3C1
  8
L
 10
5.24
 20
0.0
 30
0.0
 11
5.24
 21
-0.075
 31
0.0
  0
LINE
  5
3C2
  8
L
 10
5.24
 20
-0.075
 30
0.0
 11
5.963963
 21
-0.075
 31
0.0
  0
LINE
  5
3C3
  8
L
 10
5.963963
 20
-0.075
 30
0.0
 11
5.963963
 21
0.0
 31
0.0
  0
LINE
  5
3C4
  8
L
 10
5.871132
 20
0.985
 30
0.0
 11
5.871132
 21
0.864116
 31
0.0
  0
LINE
  5
3C5
  8
L
 10
5.871132
 20
0.985
 30
0.0
 11
5.871132
 21
0.864116
 31
0.0
  0
ARC
  5
3C6
  8
L
 10
5.871132
 20
0.935
 30
0.0
 40
0.05
 50
30.0
 51
90.0
  0
LINE
  5
3C7
  8
L
 10
5.963963
 20
0.075
 30
0.0
 11
5.963963
 21
0.0
 31
0.0
  0
LINE
  5
3C8
  8
L
 10
5.24
 20
0.817305
 30
0.0
 11
5.24
 21
0.864116
 31
0.0
  0
LINE
  5
3C9
  8
L
 10
5.284066
 20
0.852308
 30
0.0
 11
5.963963
 21
0.852308
 31
0.0
  0
LINE
  5
3CA
  8
L
 10
5.24
 20
0.864116
 30
0.0
 11
5.284066
 21
0.852308
 31
0.0
  0
LINE
  5
3CB
  8
L
 10
5.24
 20
0.864116
 30
0.0
 11
5.963963
 21
0.864116
 31
0.0
  0
LINE
  5
3CC
  8
L
 10
5.24
 20
0.817305
 30
0.0
 11
5.963963
 21
0.817305
 31
0.0
  0
LINE
  5
3CD
  8
L
 10
5.963963
 20
0.864116
 30
0.0
 11
5.963963
 21
0.817305
 31
0.0
  0
LINE
  5
3CE
  8
L
 10
5.24
 20
0.075
 30
0.0
 11
5.963963
 21
0.075
 31
0.0
  0
LINE
  5
3CF
  8
L
 10
5.24
 20
0.0
 30
0.0
 11
5.24
 21
0.075
 31
0.0
  0
LINE
  5
3D0
  8
L
 10
5.16
 20
0.985
 30
0.0
 11
5.12
 21
0.945
 31
0.0
  0
LINE
  5
3D1
  8
L
 10
5.914434
 20
0.96
 30
0.0
 11
6.0
 21
0.811795
 31
0.0
  0
LINE
  5
3D2
  8
L
 10
5.12
 20
0.0
 30
0.0
 11
5.12
 21
0.945
 31
0.0
  0
LINE
  5
3D3
  8
L
 10
5.16
 20
0.985
 30
0.0
 11
5.871132
 21
0.985
 31
0.0
  0
LINE
  5
3D4
  8
L
 10
6.0
 20
0.0
 30
0.0
 11
6.0
 21
0.811795
 31
0.0
  0
LINE
  5
3D5
  8
L
 10
5.24
 20
-0.817305
 30
0.0
 11
5.963963
 21
-0.817305
 31
0.0
  0
LINE
  5
3D6
  8
L
 10
5.16
 20
-0.985
 30
0.0
 11
5.871132
 21
-0.985
 31
0.0
  0
LINE
  5
3D7
  8
L
 10
5.24
 20
-0.864116
 30
0.0
 11
5.963963
 21
-0.864116
 31
0.0
  0
LINE
  5
3D8
  8
L
 10
5.284066
 20
-0.852308
 30
0.0
 11
5.963963
 21
-0.852308
 31
0.0
  0
LINE
  5
3D9
  8
L
 10
5.12
 20
0.0
 30
0.0
 11
5.12
 21
-0.945
 31
0.0
  0
LINE
  5
3DA
  8
L
 10
5.16
 20
-0.985
 30
0.0
 11
5.12
 21
-0.945
 31
0.0
  0
LINE
  5
3DB
  8
L
 10
5.24
 20
-0.864116
 30
0.0
 11
5.284066
 21
-0.852308
 31
0.0
  0
LINE
  5
3DC
  8
L
 10
5.24
 20
-0.817305
 30
0.0
 11
5.24
 21
-0.864116
 31
0.0
  0
LINE
  5
3DD
  8
L
 10
6.0
 20
0.0
 30
0.0
 11
6.0
 21
-0.811795
 31
0.0
  0
LINE
  5
3DE
  8
L
 10
5.871132
 20
-0.985
 30
0.0
 11
5.871132
 21
-0.864116
 31
0.0
  0
ARC
  5
3DF
  8
L
 10
5.871132
 20
-0.935
 30
0.0
 40
0.05
 50
270.0
 51
330.0
  0
LINE
  5
3E0
  8
L
 10
5.871132
 20
-0.985
 30
0.0
 11
5.871132
 21
-0.864116
 31
0.0
  0
LINE
  5
3E1
  8
L
 10
5.963963
 20
-0.864116
 30
0.0
 11
5.963963
 21
-0.817305
 31
0.0
  0
LINE
  5
3E2
  8
L
 10
5.914434
 20
-0.96
 30
0.0
 11
6.0
 21
-0.811795
 31
0.0
  0
LINE
  5
3E3
  8
L
 10
5.12
 20
0.0
 30
0.0
 11
5.12
 21
0.811795
 31
0.0
  0
LINE
  5
3E4
  8
L
 10
5.871132
 20
0.817305
 30
0.0
 11
5.871132
 21
0.075
 31
0.0
  0
LINE
  5
3E5
  8
L
 10
5.871132
 20
-0.817305
 30
0.0
 11
5.871132
 21
-0.075
 31
0.0
  0
LINE
  5
3E6
  8
L
 10
5.16
 20
0.985
 30
0.0
 11
5.16
 21
-0.985
 31
0.0
  0
LINE
  5
3E7
  8
H
 10
1.5375
 20
0.33375
 30
0.0
 11
1.61
 21
0.40625
 31
0.0
  0
LINE
  5
3E8
  8
H
 10
1.4375
 20
0.0
 30
0.0
 11
1.4375
 21
0.33375
 31
0.0
  0
LINE
  5
3E9
  8
H
 10
1.61
 20
0.40625
 30
0.0
 11
1.8275
 21
0.40625
 31
0.0
  0
LINE
  5
3EA
  8
H
 10
1.547969
 20
0.342969
 30
0.0
 11
1.889531
 21
0.342969
 31
0.0
  0
LINE
  5
3EB
  8
H
 10
2.0
 20
0.036
 30
0.0
 11
2.0
 21
0.33375
 31
0.0
  0
LINE
  5
3EC
  8
H
 10
1.9
 20
0.33375
 30
0.0
 11
1.8275
 21
0.40625
 31
0.0
  0
LINE
  5
3ED
  8
H
 10
1.5375
 20
0.0
 30
0.0
 11
1.5375
 21
0.3325
 31
0.0
  0
LINE
  5
3EE
  8
H
 10
1.9
 20
0.0
 30
0.0
 11
1.9
 21
0.33375
 31
0.0
  0
LINE
  5
3EF
  8
H
 10
1.4375
 20
0.33375
 30
0.0
 11
1.5375
 21
0.33375
 31
0.0
  0
LINE
  5
3F0
  8
H
 10
1.9
 20
0.33375
 30
0.0
 11
2.0
 21
0.33375
 31
0.0
  0
LINE
  5
3F1
  8
H
 10
1.9
 20
-0.33375
 30
0.0
 11
2.0
 21
-0.33375
 31
0.0
  0
LINE
  5
3F2
  8
H
 10
1.4375
 20
-0.33375
 30
0.0
 11
1.5375
 21
-0.33375
 31
0.0
  0
LINE
  5
3F3
  8
H
 10
1.9
 20
0.0
 30
0.0
 11
1.9
 21
-0.3325
 31
0.0
  0
LINE
  5
3F4
  8
H
 10
1.5375
 20
0.0
 30
0.0
 11
1.5375
 21
-0.3325
 31
0.0
  0
LINE
  5
3F5
  8
H
 10
1.9
 20
-0.33375
 30
0.0
 11
1.8275
 21
-0.40625
 31
0.0
  0
LINE
  5
3F6
  8
H
 10
2.0
 20
-0.036
 30
0.0
 11
2.0
 21
-0.33375
 31
0.0
  0
LINE
  5
3F7
  8
H
 10
1.547969
 20
-0.342969
 30
0.0
 11
1.889531
 21
-0.342969
 31
0.0
  0
LINE
  5
3F8
  8
H
 10
1.61
 20
-0.40625
 30
0.0
 11
1.8275
 21
-0.40625
 31
0.0
  0
LINE
  5
3F9
  8
H
 10
1.4375
 20
0.0
 30
0.0
 11
1.4375
 21
-0.33375
 31
0.0
  0
LINE
  5
3FA
  8
H
 10
1.5375
 20
-0.33375
 30
0.0
 11
1.61
 21
-0.40625
 31
0.0
  0
LINE
  5
3FB
  8
H
 10
1.61
 20
0.40625
 30
0.0
 11
1.61
 21
-0.40625
 31
0.0
  0
LINE
  5
3FC
  8
H
 10
1.8275
 20
-0.40625
 30
0.0
 11
1.8275
 21
0.40625
 31
0.0
  0
LINE
  5
3FD
  8
H
 10
1.91
 20
0.036
 30
0.0
 11
2.0
 21
0.036
 31
0.0
  0
LINE
  5
3FE
  8
H
 10
1.91
 20
-0.036
 30
0.0
 11
2.0
 21
-0.036
 31
0.0
  0
LINE
  5
3FF
  8
H
 10
1.91
 20
0.036
 30
0.0
 11
1.91
 21
-0.036
 31
0.0
  0
LINE
  5
400
  8
H
 10
1.4375
 20
0.0935
 30
0.0
 11
2.0
 21
0.0935
 31
0.0
  0
LINE
  5
401
  8
H
 10
1.4375
 20
-0.0935
 30
0.0
 11
2.0
 21
-0.0935
 31
0.0
  0
LINE
  5
402
  8
H
 10
1.8125
 20
0.0935
 30
0.0
 11
1.8125
 21
-0.0935
 31
0.0
  0
ENDSEC
  0
EOF
