  0
SECTION
  2
HEADER
  9
$ACADVER
  1
AC1009
  9
$INSBASE
 10
0.0
 20
0.0
 30
0.0
  9
$EXTMIN
 10
-2.6875
 20
-1.530191
 30
0.0
  9
$EXTMAX
 10
3.698057
 20
2.480351
 30
0.0
  9
$LIMMIN
 10
0.0
 20
0.0
  9
$LIMMAX
 10
12.0
 20
9.0
  9
$ORTHOMODE
 70
     1
  9
$REGENMODE
 70
     1
  9
$FILLMODE
 70
     1
  9
$QTEXTMODE
 70
     0
  9
$MIRRTEXT
 70
     1
  9
$DRAGMODE
 70
     2
  9
$LTSCALE
 40
0.35
  9
$OSMODE
 70
   165
  9
$ATTMODE
 70
     1
  9
$TEXTSIZE
 40
0.07
  9
$TRACEWID
 40
0.05
  9
$TEXTSTYLE
  7
STANDARD
  9
$CLAYER
  8
L
  9
$CELTYPE
  6
BYLAYER
  9
$CECOLOR
 62
   256
  9
$DIMSCALE
 40
1.0
  9
$DIMASZ
 40
0.12
  9
$DIMEXO
 40
0.0625
  9
$DIMDLI
 40
0.38
  9
$DIMRND
 40
0.0
  9
$DIMDLE
 40
0.0
  9
$DIMEXE
 40
0.05
  9
$DIMTP
 40
0.0
  9
$DIMTM
 40
0.0
  9
$DIMTXT
 40
0.125
  9
$DIMCEN
 40
0.09
  9
$DIMTSZ
 40
0.0
  9
$DIMTOL
 70
     0
  9
$DIMLIM
 70
     0
  9
$DIMTIH
 70
     1
  9
$DIMTOH
 70
     1
  9
$DIMSE1
 70
     0
  9
$DIMSE2
 70
     0
  9
$DIMTAD
 70
     0
  9
$DIMZIN
 70
     0
  9
$DIMBLK
  1

  9
$DIMASO
 70
     1
  9
$DIMSHO
 70
     1
  9
$DIMPOST
  1

  9
$DIMAPOST
  1

  9
$DIMALT
 70
     0
  9
$DIMALTD
 70
     2
  9
$DIMALTF
 40
25.4
  9
$DIMLFAC
 40
1.0
  9
$DIMTOFL
 70
     0
  9
$DIMTVP
 40
0.0
  9
$DIMTIX
 70
     0
  9
$DIMSOXD
 70
     0
  9
$DIMSAH
 70
     0
  9
$DIMBLK1
  1

  9
$DIMBLK2
  1

  9
$DIMSTYLE
  2
5P
  9
$DIMCLRD
 70
     0
  9
$DIMCLRE
 70
     0
  9
$DIMCLRT
 70
     0
  9
$DIMTFAC
 40
1.0
  9
$DIMGAP
 40
0.09
  9
$LUNITS
 70
     2
  9
$LUPREC
 70
     3
  9
$SKETCHINC
 40
0.1
  9
$FILLETRAD
 40
0.125
  9
$AUNITS
 70
     1
  9
$AUPREC
 70
     0
  9
$MENU
  1
acad
  9
$ELEVATION
 40
0.0
  9
$PELEVATION
 40
0.0
  9
$THICKNESS
 40
0.0
  9
$LIMCHECK
 70
     0
  9
$BLIPMODE
 70
     0
  9
$CHAMFERA
 40
0.0
  9
$CHAMFERB
 40
0.0
  9
$SKPOLY
 70
     0
  9
$TDCREATE
 40
2449786.391588
  9
$TDUPDATE
 40
2450903.593047
  9
$TDINDWG
 40
0.03517
  9
$TDUSRTIMER
 40
0.03517
  9
$USRTIMER
 70
     1
  9
$ANGBASE
 50
0.0
  9
$ANGDIR
 70
     0
  9
$PDMODE
 70
     0
  9
$PDSIZE
 40
0.0
  9
$PLINEWID
 40
0.0
  9
$COORDS
 70
     1
  9
$SPLFRAME
 70
     0
  9
$SPLINETYPE
 70
     6
  9
$SPLINESEGS
 70
     8
  9
$ATTDIA
 70
     1
  9
$ATTREQ
 70
     1
  9
$HANDLING
 70
     1
  9
$HANDSEED
  5
46F
  9
$SURFTAB1
 70
     6
  9
$SURFTAB2
 70
     6
  9
$SURFTYPE
 70
     6
  9
$SURFU
 70
     6
  9
$SURFV
 70
     6
  9
$UCSNAME
  2

  9
$UCSORG
 10
0.0
 20
0.0
 30
0.0
  9
$UCSXDIR
 10
1.0
 20
0.0
 30
0.0
  9
$UCSYDIR
 10
0.0
 20
1.0
 30
0.0
  9
$PUCSNAME
  2

  9
$PUCSORG
 10
0.0
 20
0.0
 30
0.0
  9
$PUCSXDIR
 10
1.0
 20
0.0
 30
0.0
  9
$PUCSYDIR
 10
0.0
 20
1.0
 30
0.0
  9
$USERI1
 70
     0
  9
$USERI2
 70
     0
  9
$USERI3
 70
     0
  9
$USERI4
 70
     0
  9
$USERI5
 70
     0
  9
$USERR1
 40
0.0
  9
$USERR2
 40
0.0
  9
$USERR3
 40
0.0
  9
$USERR4
 40
0.0
  9
$USERR5
 40
0.0
  9
$WORLDVIEW
 70
     1
  9
$SHADEDGE
 70
     3
  9
$SHADEDIF
 70
    70
  9
$TILEMODE
 70
     1
  9
$MAXACTVP
 70
    16
  9
$PLIMCHECK
 70
     0
  9
$PEXTMIN
 10
1.000000E+020
 20
1.000000E+020
 30
1.000000E+020
  9
$PEXTMAX
 10
-1.000000E+020
 20
-1.000000E+020
 30
-1.000000E+020
  9
$PLIMMIN
 10
0.0
 20
0.0
  9
$PLIMMAX
 10
12.0
 20
9.0
  9
$UNITMODE
 70
     0
  9
$VISRETAIN
 70
     1
  9
$PLINEGEN
 70
     0
  9
$PSLTSCALE
 70
     1
  0
ENDSEC
  0
SECTION
  2
TABLES
  0
TABLE
  2
VPORT
 70
     2
  0
VPORT
  2
*ACTIVE
 70
     0
 10
0.0
 20
0.0
 11
1.0
 21
1.0
 12
0.499506
 22
0.647782
 13
0.0
 23
0.0
 14
1.0
 24
1.0
 15
0.0
 25
0.0
 16
0.0
 26
0.0
 36
1.0
 17
0.0
 27
0.0
 37
0.0
 40
4.40075
 41
1.566964
 42
50.0
 43
0.0
 44
0.0
 50
0.0
 51
0.0
 71
     0
 72
 20000
 73
     1
 74
     0
 75
     0
 76
     0
 77
     0
 78
     0
  0
ENDTAB
  0
TABLE
  2
LTYPE
 70
    10
  0
LTYPE
  2
CONTINUOUS
 70
     0
  3
Solid line
 72
    65
 73
     0
 40
0.0
  0
LTYPE
  2
PHANTOM
 70
     0
  3
______  __  __  ______  __  __  ______  __  __ 
 72
    65
 73
     6
 40
2.5
 49
1.25
 49
-0.25
 49
0.25
 49
-0.25
 49
0.25
 49
-0.25
  0
LTYPE
  2
HIDDEN
 70
     0
  3
__ __ __ __ __ __ __ __ __ __ __ __ __ __ __ __
 72
    65
 73
     2
 40
0.375
 49
0.25
 49
-0.125
  0
LTYPE
  2
CENTER
 70
     0
  3
____ _ ____ _ ____ _ ____ _ ____ _ ____ _ ____ 
 72
    65
 73
     4
 40
2.0
 49
1.25
 49
-0.25
 49
0.25
 49
-0.25
  0
LTYPE
  2
C40_1$0$PHANTOM
 70
     0
  3
______  __  __  ______  __  __  ______  __  __ 
 72
    65
 73
     6
 40
2.5
 49
1.25
 49
-0.25
 49
0.25
 49
-0.25
 49
0.25
 49
-0.25
  0
LTYPE
  2
C40_1$0$HIDDEN
 70
     0
  3
__ __ __ __ __ __ __ __ __ __ __ __ __ __ __ __
 72
    65
 73
     2
 40
0.375
 49
0.25
 49
-0.125
  0
LTYPE
  2
C40_1$0$CENTER
 70
     0
  3
____ _ ____ _ ____ _ ____ _ ____ _ ____ _ ____ 
 72
    65
 73
     4
 40
2.0
 49
1.25
 49
-0.25
 49
0.25
 49
-0.25
  0
LTYPE
  2
75EM_2$0$PHANTOM
 70
     0
  3
______  __  __  ______  __  __  ______  __  __ 
 72
    65
 73
     6
 40
2.5
 49
1.25
 49
-0.25
 49
0.25
 49
-0.25
 49
0.25
 49
-0.25
  0
LTYPE
  2
75EM_2$0$HIDDEN
 70
     0
  3
__ __ __ __ __ __ __ __ __ __ __ __ __ __ __ __
 72
    65
 73
     2
 40
0.375
 49
0.25
 49
-0.125
  0
LTYPE
  2
75EM_2$0$CENTER
 70
     0
  3
____ _ ____ _ ____ _ ____ _ ____ _ ____ _ ____ 
 72
    65
 73
     4
 40
2.0
 49
1.25
 49
-0.25
 49
0.25
 49
-0.25
  0
ENDTAB
  0
TABLE
  2
LAYER
 70
    21
  0
LAYER
  2
0
 70
     0
 62
     7
  6
CONTINUOUS
  0
LAYER
  2
D
 70
     0
 62
     7
  6
CONTINUOUS
  0
LAYER
  2
H
 70
     0
 62
     4
  6
HIDDEN
  0
LAYER
  2
L
 70
     0
 62
     5
  6
CONTINUOUS
  0
LAYER
  2
CAD_D
 70
     0
 62
     7
  6
CONTINUOUS
  0
LAYER
  2
DEFPOINTS
 70
     0
 62
    -7
  6
CONTINUOUS
  0
LAYER
  2
F
 70
     0
 62
    13
  6
CONTINUOUS
  0
LAYER
  2
C40_1$0$P
 70
     0
 62
     2
  6
C40_1$0$PHANTOM
  0
LAYER
  2
C40_1$0$C
 70
     0
 62
     1
  6
C40_1$0$CENTER
  0
LAYER
  2
C40_1$0$D
 70
     0
 62
     7
  6
CONTINUOUS
  0
LAYER
  2
C40_1$0$H
 70
     0
 62
     4
  6
C40_1$0$HIDDEN
  0
LAYER
  2
C40_1$0$L
 70
     0
 62
     5
  6
CONTINUOUS
  0
LAYER
  2
C40_1$0$DIM
 70
     0
 62
     7
  6
CONTINUOUS
  0
LAYER
  2
C40_1$0$README
 70
     1
 62
     2
  6
CONTINUOUS
  0
LAYER
  2
75EM_2$0$D
 70
     0
 62
     7
  6
CONTINUOUS
  0
LAYER
  2
75EM_2$0$H
 70
     0
 62
     4
  6
75EM_2$0$HIDDEN
  0
LAYER
  2
75EM_2$0$L
 70
     0
 62
     5
  6
CONTINUOUS
  0
LAYER
  2
75EM_2$0$README
 70
     1
 62
     2
  6
CONTINUOUS
  0
LAYER
  2
AM_TR
 70
     0
 62
     7
  6
CONTINUOUS
  0
LAYER
  2
AM_BM
 70
     0
 62
     7
  6
CONTINUOUS
  0
LAYER
  2
AM_BL
 70
     0
 62
     7
  6
CONTINUOUS
  0
ENDTAB
  0
TABLE
  2
STYLE
 70
     4
  0
STYLE
  2
STANDARD
 70
     0
 40
0.0
 41
1.0
 50
0.0
 71
     0
 42
0.07
  3
txt
  4

  0
STYLE
  2
ROMANT
 70
     0
 40
0.3
 41
1.0
 50
0.0
 71
     0
 42
0.130237
  3
romant
  4

  0
STYLE
  2
C40_1$0$STANDARD
 70
     0
 40
0.0
 41
1.0
 50
0.0
 71
     0
 42
0.125
  3
txt
  4

  0
STYLE
  2
75EM_2$0$STANDARD
 70
     0
 40
0.0
 41
1.0
 50
0.0
 71
     0
 42
0.25
  3
txt
  4

  0
ENDTAB
  0
TABLE
  2
VIEW
 70
     0
  0
ENDTAB
  0
TABLE
  2
UCS
 70
     0
  0
ENDTAB
  0
TABLE
  2
APPID
 70
     3
  0
APPID
  2
ACAD
 70
     0
  0
APPID
  2
MCAD_NO_VIS
 70
     0
  0
APPID
  2
ACAD_TEMP_GRAPHIC
 70
     0
  0
ENDTAB
  0
TABLE
  2
DIMSTYLE
 70
     2
  0
DIMSTYLE
  2
PARLEC
 70
     0
  3

  4

  5

  6

  7

 40
1.0
 41
0.12
 42
0.0625
 43
0.38
 44
0.05
 45
0.0
 46
0.0
 47
0.0
 48
0.0
140
0.125
141
0.09
142
0.0
143
25.4
144
1.0
145
0.0
146
1.0
147
0.09
 71
     0
 72
     0
 73
     1
 74
     1
 75
     0
 76
     0
 77
     0
 78
     0
170
     0
171
     2
172
     0
173
     0
174
     0
175
     0
176
     0
177
     0
178
     0
  0
DIMSTYLE
  2
5P
 70
     0
  3

  4

  5

  6

  7

 40
1.0
 41
0.12
 42
0.0625
 43
0.38
 44
0.05
 45
0.0
 46
0.0
 47
0.0
 48
0.0
140
0.125
141
0.09
142
0.0
143
25.4
144
1.0
145
0.0
146
1.0
147
0.09
 71
     0
 72
     0
 73
     1
 74
     1
 75
     0
 76
     0
 77
     0
 78
     0
170
     0
171
     2
172
     0
173
     0
174
     0
175
     0
176
     0
177
     0
178
     0
  0
ENDTAB
  0
ENDSEC
  0
SECTION
  2
BLOCKS
  0
BLOCK
  8
0
  2
$MODEL_SPACE
 70
     0
 10
0.0
 20
0.0
 30
0.0
  3
$MODEL_SPACE
  1

  0
ENDBLK
  5
43C
  8
0
  0
BLOCK
 67
     1
  8
0
  2
$PAPER_SPACE
 70
     0
 10
0.0
 20
0.0
 30
0.0
  3
$PAPER_SPACE
  1

  0
ENDBLK
  5
43A
 67
     1
  8
0
  0
BLOCK
  8
0
  2
1DFEAT
 70
     0
 10
0.0
 20
0.0
 30
0.0
  3
1DFEAT
  1

  0
LINE
  5
125
  8
D
 10
1.249889
 20
0.0
 30
0.0
 11
1.249889
 21
0.249867
 31
0.0
  0
LINE
  5
126
  8
D
 10
0.416445
 20
0.0
 30
0.0
 11
0.416445
 21
0.249867
 31
0.0
  0
LINE
  5
127
  8
D
 10
1.665778
 20
0.0
 30
0.0
 11
0.0
 21
0.0
 31
0.0
  0
LINE
  5
128
  8
D
 10
1.665778
 20
0.249867
 30
0.0
 11
1.665778
 21
0.0
 31
0.0
  0
LINE
  5
129
  8
D
 10
0.0
 20
0.249867
 30
0.0
 11
1.665778
 21
0.249867
 31
0.0
  0
LINE
  5
12A
  8
D
 10
0.0
 20
0.0
 30
0.0
 11
0.0
 21
0.249867
 31
0.0
  0
ENDBLK
  5
12B
  8
0
  0
BLOCK
  8
0
  2
TRUNOUT
 70
     0
 10
0.0
 20
0.0
 30
0.0
  3
TRUNOUT
  1

  0
SOLID
  5
12D
  8
D
 10
0.289844
 20
0.138704
 30
0.0
 11
0.314676
 21
0.126288
 31
0.0
 12
0.339508
 22
0.206992
 32
0.0
 13
0.339508
 23
0.206992
 33
0.0
  0
LINE
  5
12E
  8
D
 10
0.30226
 20
0.132496
 30
0.0
 11
0.256219
 21
0.040414
 31
0.0
  0
LINE
  5
12F
  8
D
 10
0.256219
 20
0.040414
 30
0.0
 11
0.089641
 21
0.040414
 31
0.0
  0
LINE
  5
130
  8
D
 10
0.135682
 20
0.132496
 30
0.0
 11
0.089641
 21
0.040414
 31
0.0
  0
SOLID
  5
131
  8
D
 10
0.123266
 20
0.138704
 30
0.0
 11
0.148098
 21
0.126288
 31
0.0
 12
0.17293
 22
0.206992
 32
0.0
 13
0.17293
 23
0.206992
 33
0.0
  0
ENDBLK
  5
132
  8
0
  0
BLOCK
  8
0
  2
A
 70
     0
 10
0.0
 20
0.0
 30
0.0
  3
A
  1

  0
TEXT
  5
134
  8
D
 10
0.172873
 20
0.069558
 30
0.0
 40
0.125
  1
A
  0
ENDBLK
  5
135
  8
0
  0
BLOCK
  8
0
  6
CONTINUOUS
 62
     7
  2
C40_1
 70
     0
 10
0.0
 20
0.0
 30
0.0
  3
C40_1
  1
J:\XREFCAD\C40_1
  0
LINE
  5
213
  8
C40_1$0$L
 10
0.0
 20
0.875
 30
0.0
 11
0.105026
 21
0.875
 31
0.0
  0
LINE
  5
214
  8
C40_1$0$L
 10
0.105026
 20
-0.875
 30
0.0
 11
0.0
 21
-0.875
 31
0.0
  0
LINE
  5
215
  8
C40_1$0$L
 10
0.0
 20
0.875
 30
0.0
 11
0.0
 21
-0.875
 31
0.0
  0
LINE
  5
216
  8
C40_1$0$L
 10
0.0
 20
0.875
 30
0.0
 11
-2.636158
 21
0.49056
 31
0.0
  0
LINE
  5
217
  8
C40_1$0$H
 10
-2.5
 20
0.3125
 30
0.0
 11
-1.5675
 21
0.3125
 31
0.0
  0
LINE
  5
218
  8
C40_1$0$H
 10
-2.5
 20
0.266
 30
0.0
 11
-1.5675
 21
0.266
 31
0.0
  0
LINE
  5
219
  8
C40_1$0$L
 10
0.0
 20
-0.875
 30
0.0
 11
-2.636158
 21
-0.49056
 31
0.0
  0
LINE
  5
21A
  8
C40_1$0$H
 10
-2.5
 20
-0.3125
 30
0.0
 11
-1.5675
 21
-0.3125
 31
0.0
  0
LINE
  5
21B
  8
C40_1$0$H
 10
-2.5
 20
-0.266
 30
0.0
 11
-1.5675
 21
-0.266
 31
0.0
  0
LINE
  5
21C
  8
C40_1$0$H
 10
-2.5
 20
-0.266
 30
0.0
 11
-2.5
 21
0.266
 31
0.0
  0
LINE
  5
21D
  8
C40_1$0$H
 10
-2.619084
 20
0.3205
 30
0.0
 11
-2.619084
 21
-0.3205
 31
0.0
  0
LINE
  5
21E
  8
C40_1$0$L
 10
-2.6875
 20
-0.43
 30
0.0
 11
-2.6875
 21
0.43
 31
0.0
  0
LINE
  5
21F
  8
C40_1$0$H
 10
-2.5
 20
-0.3205
 30
0.0
 11
-2.5
 21
-0.266
 31
0.0
  0
LINE
  5
220
  8
C40_1$0$H
 10
-2.6875
 20
-0.36
 30
0.0
 11
-2.619084
 21
-0.3205
 31
0.0
  0
ARC
  5
221
  8
C40_1$0$L
 10
-2.6275
 20
-0.431188
 30
0.0
 40
0.06
 50
180.0
 51
261.702855
  0
LINE
  5
222
  8
C40_1$0$L
 10
-2.6875
 20
-0.36
 30
0.0
 11
-2.6875
 21
-0.431188
 31
0.0
  0
LINE
  5
223
  8
C40_1$0$H
 10
-2.619084
 20
-0.3205
 30
0.0
 11
-2.5
 21
-0.3205
 31
0.0
  0
LINE
  5
224
  8
C40_1$0$H
 10
-2.5
 20
0.266
 30
0.0
 11
-2.5
 21
0.3205
 31
0.0
  0
LINE
  5
225
  8
C40_1$0$H
 10
-2.6875
 20
0.36
 30
0.0
 11
-2.619084
 21
0.3205
 31
0.0
  0
ARC
  5
226
  8
C40_1$0$L
 10
-2.6275
 20
0.431188
 30
0.0
 40
0.06
 50
98.297145
 51
180.0
  0
LINE
  5
227
  8
C40_1$0$L
 10
-2.6875
 20
0.36
 30
0.0
 11
-2.6875
 21
0.431188
 31
0.0
  0
LINE
  5
228
  8
C40_1$0$H
 10
-2.619084
 20
0.3205
 30
0.0
 11
-2.5
 21
0.3205
 31
0.0
  0
LINE
  5
229
  8
C40_1$0$H
 10
-1.5675
 20
0.3125
 30
0.0
 11
-1.5675
 21
-0.3125
 31
0.0
  0
LINE
  5
22A
  8
C40_1$0$L
 10
0.301366
 20
0.3125
 30
0.0
 11
0.301366
 21
1.25
 31
0.0
  0
LINE
  5
22B
  8
C40_1$0$L
 10
0.579
 20
0.3125
 30
0.0
 11
0.579
 21
1.25
 31
0.0
  0
LINE
  5
22C
  8
C40_1$0$L
 10
0.37671
 20
1.1195
 30
0.0
 11
0.37671
 21
0.3125
 31
0.0
  0
LINE
  5
22D
  8
C40_1$0$L
 10
0.750026
 20
-1.22
 30
0.0
 11
0.750026
 21
-0.905
 31
0.0
  0
LINE
  5
22E
  8
C40_1$0$L
 10
0.720026
 20
1.25
 30
0.0
 11
0.720026
 21
0.3125
 31
0.0
  0
LINE
  5
22F
  8
C40_1$0$L
 10
0.503656
 20
1.1195
 30
0.0
 11
0.503656
 21
0.3125
 31
0.0
  0
LINE
  5
230
  8
C40_1$0$L
 10
0.155026
 20
1.25
 30
0.0
 11
0.155026
 21
0.3125
 31
0.0
  0
LINE
  5
231
  8
C40_1$0$L
 10
0.125026
 20
-1.22
 30
0.0
 11
0.125026
 21
0.895
 31
0.0
  0
LINE
  5
232
  8
C40_1$0$L
 10
0.155026
 20
-0.3125
 30
0.0
 11
0.155026
 21
-1.25
 31
0.0
  0
LINE
  5
233
  8
C40_1$0$L
 10
0.37671
 20
-0.3125
 30
0.0
 11
0.37671
 21
-1.1195
 31
0.0
  0
LINE
  5
234
  8
C40_1$0$L
 10
0.720026
 20
-0.3125
 30
0.0
 11
0.720026
 21
-1.25
 31
0.0
  0
LINE
  5
235
  8
C40_1$0$L
 10
0.579
 20
-1.25
 30
0.0
 11
0.579
 21
-0.3125
 31
0.0
  0
LINE
  5
236
  8
C40_1$0$L
 10
0.301366
 20
-0.3125
 30
0.0
 11
0.301366
 21
-1.25
 31
0.0
  0
LINE
  5
237
  8
C40_1$0$L
 10
0.503656
 20
-1.1195
 30
0.0
 11
0.503656
 21
-0.3125
 31
0.0
  0
LINE
  5
238
  8
C40_1$0$L
 10
0.394031
 20
-1.1095
 30
0.0
 11
0.486335
 21
-1.1095
 31
0.0
  0
LINE
  5
239
  8
C40_1$0$L
 10
0.155026
 20
-1.25
 30
0.0
 11
0.301366
 21
-1.25
 31
0.0
  0
LINE
  5
23A
  8
C40_1$0$L
 10
0.125026
 20
-1.22
 30
0.0
 11
0.155026
 21
-1.25
 31
0.0
  0
LINE
  5
23B
  8
C40_1$0$L
 10
0.37671
 20
-1.1195
 30
0.0
 11
0.301366
 21
-1.25
 31
0.0
  0
ARC
  5
23C
  8
C40_1$0$L
 10
0.105026
 20
-0.895
 30
0.0
 40
0.02
 50
0.0
 51
90.0
  0
LINE
  5
23D
  8
C40_1$0$L
 10
0.579
 20
-1.25
 30
0.0
 11
0.720026
 21
-1.25
 31
0.0
  0
LINE
  5
23E
  8
C40_1$0$L
 10
0.503656
 20
-1.1195
 30
0.0
 11
0.579
 21
-1.25
 31
0.0
  0
LINE
  5
23F
  8
C40_1$0$L
 10
0.720026
 20
-1.25
 30
0.0
 11
0.750026
 21
-1.22
 31
0.0
  0
CIRCLE
  5
240
  8
C40_1$0$L
 10
0.4375
 20
0.0
 30
0.0
 40
0.1875
  0
LINE
  5
241
  8
C40_1$0$L
 10
0.720026
 20
-0.3125
 30
0.0
 11
0.155026
 21
-0.3125
 31
0.0
  0
LINE
  5
242
  8
C40_1$0$L
 10
0.720026
 20
0.3125
 30
0.0
 11
0.155026
 21
0.3125
 31
0.0
  0
LINE
  5
243
  8
C40_1$0$L
 10
0.720026
 20
1.25
 30
0.0
 11
0.750026
 21
1.22
 31
0.0
  0
LINE
  5
244
  8
C40_1$0$L
 10
0.503656
 20
1.1195
 30
0.0
 11
0.579
 21
1.25
 31
0.0
  0
LINE
  5
245
  8
C40_1$0$L
 10
0.37671
 20
1.1195
 30
0.0
 11
0.301366
 21
1.25
 31
0.0
  0
LINE
  5
246
  8
C40_1$0$L
 10
0.125026
 20
1.22
 30
0.0
 11
0.155026
 21
1.25
 31
0.0
  0
LINE
  5
247
  8
C40_1$0$L
 10
0.394031
 20
1.1095
 30
0.0
 11
0.486335
 21
1.1095
 31
0.0
  0
LINE
  5
248
  8
C40_1$0$L
 10
0.125026
 20
0.895
 30
0.0
 11
0.125026
 21
1.22
 31
0.0
  0
ARC
  5
249
  8
C40_1$0$L
 10
0.105026
 20
0.895
 30
0.0
 40
0.02
 50
270.0
 51
0.0
  0
LINE
  5
24A
  8
C40_1$0$L
 10
0.155026
 20
1.25
 30
0.0
 11
0.301366
 21
1.25
 31
0.0
  0
LINE
  5
24B
  8
C40_1$0$L
 10
0.579
 20
1.25
 30
0.0
 11
0.720026
 21
1.25
 31
0.0
  0
POINT
  5
24C
  8
C40_1$0$D
  6
BYBLOCK
 62
     0
 10
0.0
 20
0.875
 30
0.0
  0
POINT
  5
24D
  8
C40_1$0$D
  6
BYBLOCK
 62
     0
 10
0.0
 20
-0.875
 30
0.0
  0
LINE
  5
24E
  8
C40_1$0$L
 10
0.750026
 20
1.22
 30
0.0
 11
0.750026
 21
0.905
 31
0.0
  0
LINE
  5
24F
  8
C40_1$0$L
 10
0.750026
 20
0.905
 30
0.0
 11
0.750026
 21
-0.905
 31
0.0
  0
LINE
  5
250
  8
C40_1$0$L
 10
0.780026
 20
0.875
 30
0.0
 11
1.345
 21
0.875
 31
0.0
  0
LINE
  5
251
  8
C40_1$0$L
 10
0.780026
 20
-0.875
 30
0.0
 11
1.345
 21
-0.875
 31
0.0
  0
ARC
  5
252
  8
C40_1$0$L
 10
0.3125
 20
-0.135
 30
0.0
 40
0.125
 50
180.0
 51
270.0
  0
LINE
  5
253
  8
C40_1$0$L
 10
0.3125
 20
-0.26
 30
0.0
 11
0.5625
 21
-0.26
 31
0.0
  0
LINE
  5
254
  8
C40_1$0$L
 10
0.1875
 20
-0.135
 30
0.0
 11
0.1875
 21
0.135
 31
0.0
  0
ARC
  5
255
  8
C40_1$0$L
 10
0.3125
 20
0.135
 30
0.0
 40
0.125
 50
90.0
 51
180.0
  0
LINE
  5
256
  8
C40_1$0$L
 10
0.3125
 20
0.26
 30
0.0
 11
0.5625
 21
0.26
 31
0.0
  0
ARC
  5
257
  8
C40_1$0$L
 10
0.5625
 20
0.135
 30
0.0
 40
0.125
 50
0.0
 51
90.0
  0
LINE
  5
258
  8
C40_1$0$L
 10
0.6875
 20
-0.135
 30
0.0
 11
0.6875
 21
0.135
 31
0.0
  0
ARC
  5
259
  8
C40_1$0$L
 10
0.5625
 20
-0.135
 30
0.0
 40
0.125
 50
270.0
 51
0.0
  0
LINE
  5
25A
  8
C40_1$0$L
 10
0.75
 20
0.3425
 30
0.0
 11
0.579
 21
0.3425
 31
0.0
  0
LINE
  5
25B
  8
C40_1$0$L
 10
0.301366
 20
0.3425
 30
0.0
 11
0.125
 21
0.3425
 31
0.0
  0
LINE
  5
25C
  8
C40_1$0$L
 10
0.301366
 20
-0.3425
 30
0.0
 11
0.125
 21
-0.3425
 31
0.0
  0
LINE
  5
25D
  8
C40_1$0$L
 10
0.75
 20
-0.3425
 30
0.0
 11
0.579
 21
-0.3425
 31
0.0
  0
ARC
  5
25E
  8
C40_1$0$L
 10
0.780026
 20
0.905
 30
0.0
 40
0.03
 50
180.0
 51
270.0
  0
ARC
  5
25F
  8
C40_1$0$L
 10
0.780026
 20
-0.905
 30
0.0
 40
0.03
 50
90.0
 51
180.0
  0
ARC
  5
260
  8
C40_1$0$L
 10
0.394031
 20
-1.1295
 30
0.0
 40
0.02
 50
90.0
 51
150.0
  0
ARC
  5
261
  8
C40_1$0$L
 10
0.486335
 20
-1.1295
 30
0.0
 40
0.02
 50
30.0
 51
90.0
  0
ARC
  5
262
  8
C40_1$0$L
 10
0.394031
 20
1.1295
 30
0.0
 40
0.02
 50
210.0
 51
270.0
  0
ARC
  5
263
  8
C40_1$0$L
 10
0.486335
 20
1.1295
 30
0.0
 40
0.02
 50
270.0
 51
330.0
  0
LINE
  5
264
  8
C40_1$0$L
 10
0.155026
 20
-0.3125
 30
0.0
 11
0.125026
 21
-0.3425
 31
0.0
  0
LINE
  5
265
  8
C40_1$0$L
 10
0.719974
 20
-0.3125
 30
0.0
 11
0.749974
 21
-0.3425
 31
0.0
  0
LINE
  5
266
  8
C40_1$0$L
 10
0.719974
 20
0.3125
 30
0.0
 11
0.749974
 21
0.3425
 31
0.0
  0
LINE
  5
267
  8
C40_1$0$L
 10
0.155026
 20
0.3125
 30
0.0
 11
0.125026
 21
0.3425
 31
0.0
  0
SOLID
  5
268
  8
C40_1$0$README
 10
-0.001114
 20
-0.12165
 30
0.0
 11
0.0384
 21
-0.115436
 31
0.0
 12
0.0
 22
0.0
 32
0.0
 13
0.0
 23
0.0
 33
0.0
  0
LINE
  5
269
  8
C40_1$0$README
 10
0.018643
 20
-0.118543
 30
0.0
 11
0.445186
 21
-2.83079
 31
0.0
  0
LINE
  5
26A
  8
C40_1$0$README
 10
0.445186
 20
-2.83079
 30
0.0
 11
0.675155
 21
-2.83079
 31
0.0
  0
TEXT
  5
26B
  8
C40_1$0$README
 10
0.781294
 20
-2.938348
 30
0.0
 40
0.25
  1
POINT 0,0
  7
C40_1$0$STANDARD
  0
TEXT
  5
26C
  8
C40_1$0$README
 10
0.22111
 20
-3.375011
 30
0.0
 40
0.25
  1
AT GAGE LINE
  7
C40_1$0$STANDARD
  0
TEXT
  5
26D
  8
C40_1$0$README
 10
0.781294
 20
4.786806
 30
0.0
 40
0.25
  1
S:\XREF\C40_1
  7
C40_1$0$STANDARD
  0
LINE
  5
26E
  8
C40_1$0$D
 10
-0.36144
 20
0.950884
 30
0.0
 11
-0.790394
 21
1.914553
 31
0.0
  0
SOLID
  5
26F
  8
C40_1$0$D
 10
-0.379503
 20
0.942298
 30
0.0
 11
-0.343377
 21
0.95947
 31
0.0
 12
-0.309925
 22
0.842504
 32
0.0
 13
-0.309925
 23
0.842504
 33
0.0
  0
LINE
  5
270
  8
C40_1$0$D
 10
-0.790394
 20
1.914553
 30
0.0
 11
-0.999464
 21
1.914553
 31
0.0
  0
TEXT
  5
271
  8
C40_1$0$D
 10
-2.385963
 20
1.86049
 30
0.0
 40
0.125
  1
40 V-FLANGE
  7
C40_1$0$STANDARD
  0
TEXT
  5
272
  8
C40_1$0$D
 10
-2.663396
 20
1.86049
 30
0.0
 40
0.09
  1
CAT
  7
C40_1$0$STANDARD
  0
ENDBLK
  5
191
  8
0
  6
CONTINUOUS
 62
     7
  0
BLOCK
  8
0
  2
C40_1$0$C40BASE1
 70
     0
 10
0.0
 20
0.0
 30
0.0
  3
C40_1$0$C40BASE1
  1

  0
LINE
  5
297
  8
C40_1$0$L
 10
0.0
 20
0.875
 30
0.0
 11
0.105026
 21
0.875
 31
0.0
  0
LINE
  5
298
  8
C40_1$0$L
 10
0.105026
 20
-0.875
 30
0.0
 11
0.0
 21
-0.875
 31
0.0
  0
LINE
  5
299
  8
C40_1$0$L
 10
0.0
 20
0.875
 30
0.0
 11
0.0
 21
-0.875
 31
0.0
  0
LINE
  5
29A
  8
C40_1$0$L
 10
0.0
 20
0.875
 30
0.0
 11
-2.636158
 21
0.49056
 31
0.0
  0
LINE
  5
29B
  8
C40_1$0$H
 10
-2.5
 20
0.3125
 30
0.0
 11
-1.5675
 21
0.3125
 31
0.0
  0
LINE
  5
29C
  8
C40_1$0$H
 10
-2.5
 20
0.266
 30
0.0
 11
-1.5675
 21
0.266
 31
0.0
  0
LINE
  5
29D
  8
C40_1$0$L
 10
0.0
 20
-0.875
 30
0.0
 11
-2.636158
 21
-0.49056
 31
0.0
  0
LINE
  5
29E
  8
C40_1$0$H
 10
-2.5
 20
-0.3125
 30
0.0
 11
-1.5675
 21
-0.3125
 31
0.0
  0
LINE
  5
29F
  8
C40_1$0$H
 10
-2.5
 20
-0.266
 30
0.0
 11
-1.5675
 21
-0.266
 31
0.0
  0
LINE
  5
2A0
  8
C40_1$0$H
 10
-2.5
 20
-0.266
 30
0.0
 11
-2.5
 21
0.266
 31
0.0
  0
LINE
  5
2A1
  8
C40_1$0$H
 10
-2.619084
 20
0.3205
 30
0.0
 11
-2.619084
 21
-0.3205
 31
0.0
  0
LINE
  5
2A2
  8
C40_1$0$L
 10
-2.6875
 20
-0.43
 30
0.0
 11
-2.6875
 21
0.43
 31
0.0
  0
LINE
  5
2A3
  8
C40_1$0$H
 10
-2.5
 20
-0.3205
 30
0.0
 11
-2.5
 21
-0.266
 31
0.0
  0
LINE
  5
2A4
  8
C40_1$0$H
 10
-2.6875
 20
-0.36
 30
0.0
 11
-2.619084
 21
-0.3205
 31
0.0
  0
ARC
  5
2A5
  8
C40_1$0$L
 10
-2.6275
 20
-0.431188
 30
0.0
 40
0.06
 50
180.0
 51
261.702855
  0
LINE
  5
2A6
  8
C40_1$0$L
 10
-2.6875
 20
-0.36
 30
0.0
 11
-2.6875
 21
-0.431188
 31
0.0
  0
LINE
  5
2A7
  8
C40_1$0$H
 10
-2.619084
 20
-0.3205
 30
0.0
 11
-2.5
 21
-0.3205
 31
0.0
  0
LINE
  5
2A8
  8
C40_1$0$H
 10
-2.5
 20
0.266
 30
0.0
 11
-2.5
 21
0.3205
 31
0.0
  0
LINE
  5
2A9
  8
C40_1$0$H
 10
-2.6875
 20
0.36
 30
0.0
 11
-2.619084
 21
0.3205
 31
0.0
  0
ARC
  5
2AA
  8
C40_1$0$L
 10
-2.6275
 20
0.431188
 30
0.0
 40
0.06
 50
98.297145
 51
180.0
  0
LINE
  5
2AB
  8
C40_1$0$L
 10
-2.6875
 20
0.36
 30
0.0
 11
-2.6875
 21
0.431188
 31
0.0
  0
LINE
  5
2AC
  8
C40_1$0$H
 10
-2.619084
 20
0.3205
 30
0.0
 11
-2.5
 21
0.3205
 31
0.0
  0
LINE
  5
2AD
  8
C40_1$0$H
 10
-1.5675
 20
0.3125
 30
0.0
 11
-1.5675
 21
-0.3125
 31
0.0
  0
ARC
  5
2AE
  8
C40_1$0$L
 10
0.105026
 20
-0.895
 30
0.0
 40
0.02
 50
2.929012
 51
90.0
  0
LINE
  5
2AF
  8
C40_1$0$L
 10
0.72
 20
0.32
 30
0.0
 11
0.155
 21
0.32
 31
0.0
  0
ARC
  5
2B0
  8
C40_1$0$L
 10
0.105026
 20
0.895
 30
0.0
 40
0.02
 50
270.0
 51
357.070988
  0
LINE
  5
2B1
  8
C40_1$0$L
 10
0.75
 20
0.35
 30
0.0
 11
0.579
 21
0.35
 31
0.0
  0
LINE
  5
2B2
  8
C40_1$0$L
 10
0.301366
 20
0.35
 30
0.0
 11
0.125
 21
0.35
 31
0.0
  0
LINE
  5
2B3
  8
C40_1$0$L
 10
0.155
 20
0.32
 30
0.0
 11
0.125
 21
0.35
 31
0.0
  0
SOLID
  5
2B4
  8
C40_1$0$README
 10
-0.001114
 20
-0.12165
 30
0.0
 11
0.0384
 21
-0.115436
 31
0.0
 12
0.0
 22
0.0
 32
0.0
 13
0.0
 23
0.0
 33
0.0
  0
LINE
  5
2B5
  8
C40_1$0$README
 10
0.018643
 20
-0.118543
 30
0.0
 11
0.445186
 21
-2.83079
 31
0.0
  0
LINE
  5
2B6
  8
C40_1$0$README
 10
0.445186
 20
-2.83079
 30
0.0
 11
0.675155
 21
-2.83079
 31
0.0
  0
TEXT
  5
2B7
  8
C40_1$0$README
 10
0.781294
 20
-2.938348
 30
0.0
 40
0.25
  1
POINT 0,0
  7
C40_1$0$STANDARD
  0
TEXT
  5
2B8
  8
C40_1$0$README
 10
0.22111
 20
-3.375011
 30
0.0
 40
0.25
  1
AT GAGE LINE
  7
C40_1$0$STANDARD
  0
TEXT
  5
2B9
  8
C40_1$0$README
 10
1.294264
 20
-4.953954
 30
0.0
 40
0.25
  1
S:\XREF\C40_1
  7
C40_1$0$STANDARD
  0
LINE
  5
2BA
  8
C40_1$0$L
 10
0.72
 20
-0.32
 30
0.0
 11
0.155
 21
-0.32
 31
0.0
  0
LINE
  5
2BB
  8
C40_1$0$L
 10
0.75
 20
-0.35
 30
0.0
 11
0.579
 21
-0.35
 31
0.0
  0
LINE
  5
2BC
  8
C40_1$0$L
 10
0.301366
 20
-0.35
 30
0.0
 11
0.125
 21
-0.35
 31
0.0
  0
LINE
  5
2BD
  8
C40_1$0$L
 10
0.155
 20
-0.32
 30
0.0
 11
0.125
 21
-0.35
 31
0.0
  0
LINE
  5
2BE
  8
C40_1$0$L
 10
0.125
 20
-1.22
 30
0.0
 11
0.125
 21
1.22
 31
0.0
  0
LINE
  5
2BF
  8
C40_1$0$L
 10
0.579
 20
0.32
 30
0.0
 11
0.579
 21
1.25
 31
0.0
  0
LINE
  5
2C0
  8
C40_1$0$L
 10
0.301
 20
0.32
 30
0.0
 11
0.301
 21
1.25
 31
0.0
  0
LINE
  5
2C1
  8
C40_1$0$L
 10
0.579
 20
1.25
 30
0.0
 11
0.503656
 21
1.1195
 31
0.0
  0
LINE
  5
2C2
  8
C40_1$0$L
 10
0.301
 20
1.25
 30
0.0
 11
0.376344
 21
1.1195
 31
0.0
  0
LINE
  5
2C3
  8
C40_1$0$L
 10
0.579
 20
1.25
 30
0.0
 11
0.72
 21
1.25
 31
0.0
  0
LINE
  5
2C4
  8
C40_1$0$L
 10
0.301
 20
1.25
 30
0.0
 11
0.155
 21
1.25
 31
0.0
  0
LINE
  5
2C5
  8
C40_1$0$L
 10
0.155
 20
0.32
 30
0.0
 11
0.155
 21
1.25
 31
0.0
  0
LINE
  5
2C6
  8
C40_1$0$L
 10
0.125
 20
1.22
 30
0.0
 11
0.155
 21
1.25
 31
0.0
  0
LINE
  5
2C7
  8
C40_1$0$L
 10
0.486335
 20
1.1095
 30
0.0
 11
0.393665
 21
1.1095
 31
0.0
  0
LINE
  5
2C8
  8
C40_1$0$L
 10
0.155
 20
-0.32
 30
0.0
 11
0.155
 21
-1.25
 31
0.0
  0
LINE
  5
2C9
  8
C40_1$0$L
 10
0.301
 20
-0.32
 30
0.0
 11
0.301
 21
-1.25
 31
0.0
  0
LINE
  5
2CA
  8
C40_1$0$L
 10
0.376344
 20
-0.32
 30
0.0
 11
0.376344
 21
-1.1195
 31
0.0
  0
LINE
  5
2CB
  8
C40_1$0$L
 10
0.579
 20
-0.32
 30
0.0
 11
0.579
 21
-1.25
 31
0.0
  0
LINE
  5
2CC
  8
C40_1$0$L
 10
0.579
 20
-1.25
 30
0.0
 11
0.503656
 21
-1.1195
 31
0.0
  0
LINE
  5
2CD
  8
C40_1$0$L
 10
0.301
 20
-1.25
 30
0.0
 11
0.376344
 21
-1.1195
 31
0.0
  0
LINE
  5
2CE
  8
C40_1$0$L
 10
0.125
 20
-1.22
 30
0.0
 11
0.155
 21
-1.25
 31
0.0
  0
LINE
  5
2CF
  8
C40_1$0$L
 10
0.301
 20
-1.25
 30
0.0
 11
0.155
 21
-1.25
 31
0.0
  0
LINE
  5
2D0
  8
C40_1$0$L
 10
0.579
 20
-1.25
 30
0.0
 11
0.72
 21
-1.25
 31
0.0
  0
LINE
  5
2D1
  8
C40_1$0$L
 10
0.486335
 20
-1.1095
 30
0.0
 11
0.393665
 21
-1.1095
 31
0.0
  0
ARC
  5
2D2
  8
C40_1$0$L
 10
0.393665
 20
-1.1295
 30
0.0
 40
0.02
 50
90.0
 51
150.0
  0
ARC
  5
2D3
  8
C40_1$0$L
 10
0.486335
 20
-1.1295
 30
0.0
 40
0.02
 50
30.0
 51
90.0
  0
LINE
  5
2D4
  8
C40_1$0$L
 10
0.393665
 20
-0.32
 30
0.0
 11
0.393665
 21
-1.1095
 31
0.0
  0
LINE
  5
2D5
  8
C40_1$0$L
 10
0.486335
 20
-0.32
 30
0.0
 11
0.486335
 21
-1.1095
 31
0.0
  0
LINE
  5
2D6
  8
C40_1$0$L
 10
0.503656
 20
-0.32
 30
0.0
 11
0.503656
 21
-1.1195
 31
0.0
  0
ARC
  5
2D7
  8
C40_1$0$L
 10
0.393665
 20
1.1295
 30
0.0
 40
0.02
 50
210.0
 51
270.0
  0
ARC
  5
2D8
  8
C40_1$0$L
 10
0.486335
 20
1.1295
 30
0.0
 40
0.02
 50
270.0
 51
330.0
  0
LINE
  5
2D9
  8
C40_1$0$L
 10
0.503656
 20
0.32
 30
0.0
 11
0.503656
 21
1.1195
 31
0.0
  0
LINE
  5
2DA
  8
C40_1$0$L
 10
0.486335
 20
0.32
 30
0.0
 11
0.486335
 21
1.1095
 31
0.0
  0
LINE
  5
2DB
  8
C40_1$0$L
 10
0.376344
 20
0.32
 30
0.0
 11
0.376344
 21
1.1195
 31
0.0
  0
LINE
  5
2DC
  8
C40_1$0$L
 10
0.393665
 20
0.32
 30
0.0
 11
0.393665
 21
1.1095
 31
0.0
  0
SOLID
  5
2DD
  8
C40_1$0$D
 10
-0.531723
 20
0.917865
 30
0.0
 11
-0.566567
 21
0.898221
 31
0.0
 12
-0.490212
 22
0.803511
 32
0.0
 13
-0.490212
 23
0.803511
 33
0.0
  0
LINE
  5
2DE
  8
C40_1$0$D
 10
-0.549145
 20
0.908043
 30
0.0
 11
-1.084677
 21
1.857944
 31
0.0
  0
LINE
  5
2DF
  8
C40_1$0$D
 10
-1.084677
 20
1.857944
 30
0.0
 11
-1.160266
 21
1.857944
 31
0.0
  0
TEXT
  5
2E0
  8
C40_1$0$D
 10
-2.562567
 20
1.799663
 30
0.0
 40
0.125
  1
40 V-FLANGE
  7
C40_1$0$STANDARD
 72
     2
 11
-1.2084
 21
1.862163
 31
0.0
 73
     2
  0
TEXT
  5
2E1
  8
C40_1$0$D
 10
-2.846759
 20
1.803617
 30
0.0
 40
0.09
  1
CAT
  7
C40_1$0$STANDARD
  0
ENDBLK
  5
2E3
  8
0
  0
BLOCK
  8
0
  2
75EM_2$0$PP0003
 70
     0
 10
0.0
 20
0.0
 30
0.0
  3
75EM_2$0$PP0003
  1

  0
TEXT
  5
20C
  8
0
 10
0.000292
 20
0.054248
 30
0.0
 40
0.09
  1
-.0000
  7
75EM_2$0$STANDARD
  0
TEXT
  5
20D
  8
0
 10
0.000292
 20
0.172822
 30
0.0
 40
0.09
  1
+.0003
  7
75EM_2$0$STANDARD
  0
ENDBLK
  5
20F
  8
0
  0
BLOCK
  8
0
  2
*D6
 70
     1
 10
0.0
 20
0.0
 30
0.0
  3
*D6
  1

  0
LINE
  5
37E
  8
0
  6
BYBLOCK
 62
     0
 10
-0.62
 20
-0.4575
 30
0.0
 11
-0.62
 21
-1.517691
 31
0.0
  0
LINE
  5
37F
  8
0
  6
BYBLOCK
 62
     0
 10
1.75
 20
-0.56759
 30
0.0
 11
1.75
 21
-1.517691
 31
0.0
  0
LINE
  5
380
  8
0
  6
BYBLOCK
 62
     0
 10
-0.5
 20
-1.467691
 30
0.0
 11
0.2875
 21
-1.467691
 31
0.0
  0
LINE
  5
381
  8
0
  6
BYBLOCK
 62
     0
 10
1.63
 20
-1.467691
 30
0.0
 11
0.8425
 21
-1.467691
 31
0.0
  0
SOLID
  5
382
  8
0
  6
BYBLOCK
 62
     0
 10
-0.5
 20
-1.447691
 30
0.0
 11
-0.5
 21
-1.487691
 31
0.0
 12
-0.62
 22
-1.467691
 32
0.0
 13
-0.62
 23
-1.467691
 33
0.0
  0
SOLID
  5
383
  8
0
  6
BYBLOCK
 62
     0
 10
1.63
 20
-1.447691
 30
0.0
 11
1.63
 21
-1.487691
 31
0.0
 12
1.75
 22
-1.467691
 32
0.0
 13
1.75
 23
-1.467691
 33
0.0
  0
TEXT
  5
384
  8
0
  6
CONTINUOUS
 62
     0
 10
0.3775
 20
-1.530191
 30
0.0
 40
0.125
  1
2.38
  0
POINT
  5
385
  8
DEFPOINTS
  6
BYBLOCK
 62
     0
 10
-0.62
 20
-0.395
 30
0.0
  0
POINT
  5
386
  8
DEFPOINTS
  6
BYBLOCK
 62
     0
 10
1.75
 20
-0.50509
 30
0.0
  0
POINT
  5
387
  8
DEFPOINTS
  6
BYBLOCK
 62
     0
 10
1.75
 20
-1.467691
 30
0.0
  0
ENDBLK
  5
388
  8
0
  0
BLOCK
  8
0
  2
LOGO
 70
     0
 10
0.0
 20
0.0
 30
0.0
  3
LOGO
  1

  0
LINE
  5
38A
  8
L
 10
0.105445
 20
-0.151819
 30
0.0
 11
0.230445
 21
-0.151819
 31
0.0
  0
LINE
  5
38B
  8
L
 10
0.105445
 20
0.398181
 30
0.0
 11
0.230445
 21
0.398181
 31
0.0
  0
ARC
  5
38C
  8
L
 10
-0.539661
 20
0.067181
 30
0.0
 40
0.219
 50
0.018858
 51
278.071967
  0
CIRCLE
  5
38D
  8
L
 10
-0.539661
 20
0.067181
 30
0.0
 40
0.1
  0
ARC
  5
38E
  8
L
 10
-0.539661
 20
0.067181
 30
0.0
 40
0.219
 50
0.018858
 51
278.071967
  0
LINE
  5
38F
  8
L
 10
-1.10474
 20
0.084924
 30
0.0
 11
-1.10474
 21
-0.151819
 31
0.0
  0
LINE
  5
390
  8
L
 10
-1.22974
 20
0.179025
 30
0.0
 11
-1.22974
 21
-0.151819
 31
0.0
  0
LINE
  5
391
  8
L
 10
-1.22974
 20
-0.151819
 30
0.0
 11
-1.10474
 21
-0.151819
 31
0.0
  0
CIRCLE
  5
392
  8
L
 10
-1.01074
 20
0.179025
 30
0.0
 40
0.1
  0
ARC
  5
393
  8
L
 10
-1.01074
 20
0.179025
 30
0.0
 40
0.219
 50
269.890544
 51
179.99999
  0
LINE
  5
394
  8
L
 10
-1.10474
 20
0.084924
 30
0.0
 11
-1.011159
 21
-0.039974
 31
0.0
  0
LINE
  5
395
  8
L
 10
0.105445
 20
0.398181
 30
0.0
 11
0.105445
 21
-0.151819
 31
0.0
  0
LINE
  5
396
  8
L
 10
-0.135592
 20
0.127106
 30
0.0
 11
-0.135041
 21
-0.151819
 31
0.0
  0
LINE
  5
397
  8
L
 10
-0.260592
 20
0.127106
 30
0.0
 11
-0.260041
 21
-0.151819
 31
0.0
  0
LINE
  5
398
  8
L
 10
-0.320661
 20
0.067253
 30
0.0
 11
-0.320589
 21
-0.151819
 31
0.0
  0
LINE
  5
399
  8
L
 10
-0.445633
 20
-0.018588
 30
0.0
 11
-0.50891
 21
-0.149649
 31
0.0
  0
LINE
  5
39A
  8
L
 10
-0.445633
 20
-0.018588
 30
0.0
 11
-0.445589
 21
-0.151819
 31
0.0
  0
LINE
  5
39B
  8
L
 10
-0.320661
 20
0.067253
 30
0.0
 11
-0.320589
 21
-0.151675
 31
0.0
  0
LINE
  5
39C
  8
L
 10
-0.260041
 20
-0.151819
 30
0.0
 11
-0.135041
 21
-0.151819
 31
0.0
  0
LINE
  5
39D
  8
L
 10
-0.445589
 20
-0.151819
 30
0.0
 11
-0.320589
 21
-0.151819
 31
0.0
  0
ARC
  5
39E
  8
L
 10
-0.101517
 20
0.127106
 30
0.0
 40
0.159075
 50
18.846034
 51
180.226252
  0
LINE
  5
39F
  8
L
 10
0.04903
 20
0.178491
 30
0.0
 11
-0.035759
 21
0.131185
 31
0.0
  0
ARC
  5
3A0
  8
L
 10
-0.085592
 20
0.127106
 30
0.0
 40
0.05
 50
4.679095
 51
180.226252
  0
ARC
  5
3A1
  8
L
 10
0.963019
 20
0.067181
 30
0.0
 40
0.219
 50
30.701399
 51
270.0
  0
ARC
  5
3A2
  8
L
 10
0.502857
 20
0.067181
 30
0.0
 40
0.1125
 50
235.5219
 51
332.233922
  0
LINE
  5
3A3
  8
L
 10
0.230445
 20
0.398181
 30
0.0
 11
0.230445
 21
-0.151819
 31
0.0
  0
ARC
  5
3A4
  8
L
 10
0.502857
 20
0.067181
 30
0.0
 40
0.219
 50
14.507251
 51
328.258317
  0
ARC
  5
3A5
  8
L
 10
0.502857
 20
0.067181
 30
0.0
 40
0.1125
 50
64.071476
 51
172.253555
  0
LINE
  5
3A6
  8
L
 10
0.552048
 20
0.168357
 30
0.0
 11
0.391384
 21
0.082345
 31
0.0
  0
LINE
  5
3A7
  8
L
 10
0.714875
 20
0.122041
 30
0.0
 11
0.439172
 21
-0.025557
 31
0.0
  0
LINE
  5
3A8
  8
L
 10
0.602404
 20
0.014771
 30
0.0
 11
0.689101
 21
-0.048033
 31
0.0
  0
LINE
  5
3A9
  8
L
 10
1.236751
 20
-0.045319
 30
0.0
 11
1.181669
 21
-0.151819
 31
0.0
  0
LINE
  5
3AA
  8
L
 10
0.963019
 20
-0.151819
 30
0.0
 11
1.181669
 21
-0.151819
 31
0.0
  0
LINE
  5
3AB
  8
L
 10
0.963019
 20
-0.045319
 30
0.0
 11
1.236751
 21
-0.045319
 31
0.0
  0
LINE
  5
3AC
  8
L
 10
1.151324
 20
0.178995
 30
0.0
 11
1.0523
 21
0.135629
 31
0.0
  0
ARC
  5
3AD
  8
L
 10
0.963019
 20
0.067181
 30
0.0
 40
0.1125
 50
37.476042
 51
270.0
  0
ENDBLK
  5
3AF
  8
0
  0
ENDSEC
  0
SECTION
  2
ENTITIES
  0
LINE
  5
16E
  8
L
 10
1.012196
 20
0.875047
 30
0.0
 11
0.875
 21
0.875047
 31
0.0
  0
LINE
  5
16F
  8
L
 10
1.012196
 20
-0.875047
 30
0.0
 11
0.875
 21
-0.875047
 31
0.0
  0
LINE
  5
172
  8
0
  6
BYBLOCK
 62
     0
 10
0.12
 20
2.417851
 30
0.0
 11
0.56625
 21
2.417851
 31
0.0
  0
LINE
  5
173
  8
0
  6
BYBLOCK
 62
     0
 10
1.63
 20
2.417851
 30
0.0
 11
1.18375
 21
2.417851
 31
0.0
  0
SOLID
  5
174
  8
0
  6
BYBLOCK
 62
     0
 10
0.12
 20
2.437851
 30
0.0
 11
0.12
 21
2.397851
 31
0.0
 12
0.0
 22
2.417851
 32
0.0
 13
0.0
 23
2.417851
 33
0.0
  0
SOLID
  5
175
  8
0
  6
BYBLOCK
 62
     0
 10
1.63
 20
2.437851
 30
0.0
 11
1.63
 21
2.397851
 31
0.0
 12
1.75
 22
2.417851
 32
0.0
 13
1.75
 23
2.417851
 33
0.0
  0
TEXT
  5
176
  8
0
  6
BYBLOCK
 62
     0
 10
0.708333
 20
2.355351
 30
0.0
 40
0.125
  1
1.75
 72
     4
 11
0.875
 21
2.417851
 31
0.0
  0
POINT
  5
177
  8
DEFPOINTS
  6
BYBLOCK
 62
     0
 10
0.0
 20
0.875
 30
0.0
  0
POINT
  5
179
  8
DEFPOINTS
  6
BYBLOCK
 62
     0
 10
1.75
 20
2.417851
 30
0.0
  0
LINE
  5
17A
  8
0
  6
BYBLOCK
 62
     0
 10
0.0
 20
0.989199
 30
0.0
 11
0.0
 21
2.467851
 31
0.0
  0
LINE
  5
17B
  8
H
 10
-0.62
 20
0.395
 30
0.0
 11
-0.25
 21
0.395
 31
0.0
  0
LINE
  5
17C
  8
H
 10
-0.62
 20
-0.395
 30
0.0
 11
-0.25
 21
-0.395
 31
0.0
  0
LINE
  5
17D
  8
H
 10
-0.25
 20
0.374953
 30
0.0
 11
-0.25
 21
0.395
 31
0.0
  0
LINE
  5
17E
  8
H
 10
-0.62
 20
-0.395
 30
0.0
 11
-0.62
 21
0.395
 31
0.0
  0
LINE
  5
17F
  8
H
 10
-0.25
 20
-0.374953
 30
0.0
 11
-0.25
 21
-0.395
 31
0.0
  0
LINE
  5
180
  8
H
 10
-1.5675
 20
0.266
 30
0.0
 11
-0.685466
 21
0.266
 31
0.0
  0
LINE
  5
181
  8
H
 10
-1.5675
 20
-0.266
 30
0.0
 11
-0.685466
 21
-0.266
 31
0.0
  0
POINT
  5
182
  8
DEFPOINTS
  6
BYBLOCK
 62
     0
 10
-0.62
 20
-0.395
 30
0.0
  0
LINE
  5
183
  8
H
 10
-0.62
 20
0.374953
 30
0.0
 11
-0.685466
 21
0.266
 31
0.0
  0
LINE
  5
184
  8
H
 10
-0.62
 20
-0.374953
 30
0.0
 11
-0.685466
 21
-0.266
 31
0.0
  0
LINE
  5
185
  8
H
 10
-0.685466
 20
0.266
 30
0.0
 11
-0.685466
 21
-0.266
 31
0.0
  0
INSERT
  5
186
  8
0
  2
C40_1
 10
0.0
 20
0.0
 30
0.0
  0
DIMENSION
  5
189
  8
0
  2
*D6
 10
1.75
 20
-1.467691
 30
0.0
 11
0.565
 21
-1.467691
 31
0.0
  1
{2.38}
 13
-0.62
 23
-0.395
 33
0.0
 14
1.75
 24
-0.50509
 34
0.0
  0
LINE
  5
345
  8
75EM_2$0$D
 10
1.505497
 20
-0.875047
 30
0.0
 11
1.722374
 21
-0.875047
 31
0.0
  0
LINE
  5
346
  8
75EM_2$0$D
 10
1.501469
 20
0.874953
 30
0.0
 11
1.713452
 21
0.874953
 31
0.0
  0
LINE
  5
347
  8
75EM_2$0$D
 10
1.7525
 20
0.374953
 30
0.0
 11
2.520573
 21
0.365713
 31
0.0
  0
LINE
  5
348
  8
75EM_2$0$D
 10
1.7525
 20
-0.375047
 30
0.0
 11
2.520573
 21
-0.384287
 31
0.0
  0
LINE
  5
349
  8
75EM_2$0$L
 10
1.75
 20
-0.50509
 30
0.0
 11
1.380043
 21
-0.875047
 31
0.0
  0
CIRCLE
  5
34A
  8
75EM_2$0$L
 10
0.75
 20
0.0
 30
0.0
 40
0.2855
  0
CIRCLE
  5
34B
  8
75EM_2$0$H
 10
0.75
 20
0.0
 30
0.0
 40
0.3125
  0
LINE
  5
34C
  8
75EM_2$0$H
 10
-0.25
 20
0.374953
 30
0.0
 11
1.69
 21
0.374953
 31
0.0
  0
LINE
  5
34D
  8
75EM_2$0$H
 10
-0.250052
 20
-0.375047
 30
0.0
 11
1.69
 21
-0.375047
 31
0.0
  0
LINE
  5
34E
  8
75EM_2$0$H
 10
-0.25
 20
0.374953
 30
0.0
 11
-0.25
 21
-0.375047
 31
0.0
  0
LINE
  5
34F
  8
75EM_2$0$H
 10
1.69
 20
0.374953
 30
0.0
 11
1.69
 21
-0.375047
 31
0.0
  0
LINE
  5
350
  8
75EM_2$0$L
 10
1.75
 20
0.50509
 30
0.0
 11
1.75
 21
0.001598
 31
0.0
  0
LINE
  5
351
  8
75EM_2$0$L
 10
1.75
 20
0.50509
 30
0.0
 11
1.75
 21
-0.50509
 31
0.0
  0
LINE
  5
352
  8
75EM_2$0$L
 10
1.75
 20
0.001598
 30
0.0
 11
1.75
 21
-0.50509
 31
0.0
  0
LINE
  5
353
  8
75EM_2$0$H
 10
1.69
 20
-0.374957
 30
0.0
 11
1.75
 21
-0.409598
 31
0.0
  0
LINE
  5
354
  8
75EM_2$0$H
 10
1.69
 20
0.374953
 30
0.0
 11
1.75
 21
0.409594
 31
0.0
  0
SOLID
  5
355
  8
75EM_2$0$D
 10
3.491201
 20
-0.764287
 30
0.0
 11
3.531201
 21
-0.764287
 31
0.0
 12
3.511201
 22
-0.884287
 32
0.0
 13
3.511201
 23
-0.884287
 33
0.0
  0
TEXT
  5
356
  8
75EM_2$0$D
 10
2.727555
 20
-1.515112
 30
0.0
 40
0.125
  1
.750
  7
75EM_2$0$STANDARD
 72
     4
 11
2.904639
 21
-1.452612
 31
0.0
  0
SOLID
  5
357
  8
75EM_2$0$D
 10
2.450573
 20
-0.504287
 30
0.0
 11
2.490573
 21
-0.504287
 31
0.0
 12
2.470573
 22
-0.384287
 32
0.0
 13
2.470573
 23
-0.384287
 33
0.0
  0
LINE
  5
358
  8
75EM_2$0$D
 10
2.470573
 20
-0.504287
 30
0.0
 11
2.470573
 21
-1.467146
 31
0.0
  0
SOLID
  5
359
  8
75EM_2$0$D
 10
2.450573
 20
0.485713
 30
0.0
 11
2.490573
 21
0.485713
 31
0.0
 12
2.470573
 22
0.365713
 32
0.0
 13
2.470573
 23
0.365713
 33
0.0
  0
LINE
  5
35A
  8
75EM_2$0$D
 10
2.470573
 20
0.485713
 30
0.0
 11
2.470573
 21
0.588213
 31
0.0
  0
LINE
  5
35B
  8
75EM_2$0$D
 10
3.511201
 20
0.745713
 30
0.0
 11
3.511201
 21
0.1477
 31
0.0
  0
TEXT
  5
35C
  8
75EM_2$0$D
 10
3.364724
 20
-0.062166
 30
0.0
 40
0.125
  1
1.75
  7
75EM_2$0$STANDARD
 72
     4
 11
3.53139
 21
0.000334
 31
0.0
  0
SOLID
  5
35D
  8
75EM_2$0$D
 10
3.491201
 20
0.745713
 30
0.0
 11
3.531201
 21
0.745713
 31
0.0
 12
3.511201
 22
0.865713
 32
0.0
 13
3.511201
 23
0.865713
 33
0.0
  0
LINE
  5
35E
  8
75EM_2$0$D
 10
3.511201
 20
-0.154983
 30
0.0
 11
3.511201
 21
-0.884287
 31
0.0
  0
POINT
  5
35F
  8
DEFPOINTS
  6
BYBLOCK
 62
     0
 10
1.69
 20
0.374953
 30
0.0
  0
POINT
  5
360
  8
DEFPOINTS
  6
BYBLOCK
 62
     0
 10
1.7525
 20
0.374953
 30
0.0
  0
POINT
  5
361
  8
DEFPOINTS
  6
BYBLOCK
 62
     0
 10
2.520573
 20
0.365713
 30
0.0
  0
POINT
  5
362
  8
DEFPOINTS
  6
BYBLOCK
 62
     0
 10
1.75
 20
0.409594
 30
0.0
  0
LINE
  5
363
  8
75EM_2$0$D
 10
2.470573
 20
-1.467146
 30
0.0
 11
2.616325
 21
-1.467146
 31
0.0
  0
LINE
  5
364
  8
75EM_2$0$D
 10
1.79867
 20
0.874953
 30
0.0
 11
3.561201
 21
0.865713
 31
0.0
  0
LINE
  5
365
  8
75EM_2$0$D
 10
1.785475
 20
-0.875047
 30
0.0
 11
2.443835
 21
-0.884287
 31
0.0
  0
LINE
  5
366
  8
75EM_2$0$D
 10
2.501888
 20
-0.884287
 30
0.0
 11
3.561201
 21
-0.884287
 31
0.0
  0
LINE
  5
367
  8
75EM_2$0$L
 10
1.380043
 20
-0.875047
 30
0.0
 11
1.012196
 21
-0.875047
 31
0.0
  0
LINE
  5
368
  8
75EM_2$0$L
 10
1.380043
 20
0.875047
 30
0.0
 11
1.012196
 21
0.875047
 31
0.0
  0
LINE
  5
369
  8
0
  6
BYBLOCK
 62
     0
 10
0.75
 20
0.637496
 30
0.0
 11
0.75
 21
1.942326
 31
0.0
  0
LINE
  5
36A
  8
0
  6
BYBLOCK
 62
     0
 10
1.75
 20
0.637496
 30
0.0
 11
1.75
 21
2.442712
 31
0.0
  0
LINE
  5
36B
  8
0
  6
BYBLOCK
 62
     0
 10
0.87
 20
1.892326
 30
0.0
 11
1.014167
 21
1.892326
 31
0.0
  0
LINE
  5
36C
  8
0
  6
BYBLOCK
 62
     0
 10
1.63
 20
1.892326
 30
0.0
 11
1.485833
 21
1.892326
 31
0.0
  0
SOLID
  5
36D
  8
0
  6
BYBLOCK
 62
     0
 10
0.87
 20
1.912326
 30
0.0
 11
0.87
 21
1.872326
 31
0.0
 12
0.75
 22
1.892326
 32
0.0
 13
0.75
 23
1.892326
 33
0.0
  0
SOLID
  5
36E
  8
0
  6
BYBLOCK
 62
     0
 10
1.63
 20
1.912326
 30
0.0
 11
1.63
 21
1.872326
 31
0.0
 12
1.75
 22
1.892326
 32
0.0
 13
1.75
 23
1.892326
 33
0.0
  0
TEXT
  5
36F
  8
0
  6
BYBLOCK
 62
     0
 10
1.104167
 20
1.829826
 30
0.0
 40
0.125
  1
1.00
  7
75EM_2$0$STANDARD
 72
     4
 11
1.25
 21
1.892326
 31
0.0
  0
POINT
  5
370
  8
DEFPOINTS
  6
BYBLOCK
 62
     0
 10
1.75
 20
1.892326
 30
0.0
  0
LINE
  5
371
  8
75EM_2$0$L
 10
1.380043
 20
0.874953
 30
0.0
 11
1.380043
 21
-0.875047
 31
0.0
  0
POINT
  5
372
  8
DEFPOINTS
  6
BYBLOCK
 62
     0
 10
1.380043
 20
-0.875047
 30
0.0
  0
POINT
  5
373
  8
DEFPOINTS
  6
BYBLOCK
 62
     0
 10
1.75
 20
-0.50509
 30
0.0
  0
POINT
  5
374
  8
DEFPOINTS
  6
BYBLOCK
 62
     0
 10
1.380043
 20
-0.875047
 30
0.0
  0
LINE
  5
375
  8
75EM_2$0$L
 10
1.75
 20
0.50509
 30
0.0
 11
1.380043
 21
0.875047
 31
0.0
  0
SOLID
  5
376
  8
75EM_2$0$README
 10
1.778689
 20
-0.118224
 30
0.0
 11
1.815482
 21
-0.102529
 31
0.0
 12
1.75
 22
0.0
 32
0.0
 13
1.75
 23
0.0
 33
0.0
  0
LINE
  5
377
  8
75EM_2$0$README
 10
1.797085
 20
-0.110376
 30
0.0
 11
2.79599
 21
-2.451982
 31
0.0
  0
LINE
  5
378
  8
75EM_2$0$README
 10
2.79599
 20
-2.451982
 30
0.0
 11
2.91599
 21
-2.451982
 31
0.0
  0
TEXT
  5
379
  8
75EM_2$0$README
 10
2.980191
 20
-2.582333
 30
0.0
 40
0.25
  1
POINT 0,0
  7
75EM_2$0$STANDARD
  0
TEXT
  5
37A
  8
75EM_2$0$README
 10
3.078267
 20
1.79929
 30
0.0
 40
0.25
  1
S:\XREF\75EM_2
  7
75EM_2$0$STANDARD
  0
INSERT
  5
3B0
  8
0
  2
LOGO
 10
-0.441348
 20
0.61144
 30
0.0
 41
0.3
 42
0.3
 43
0.3
  0
TEXT
  5
3B1
  8
0
 10
-0.728147
 20
0.456851
 30
0.0
 40
0.07
  1
C40-75EM1
  0
POLYLINE
  5
3B2
  8
0
 66
     1
 10
0.0
 20
0.0
 30
0.0
 70
     1
  0
VERTEX
  5
467
  8
0
 10
0.942959
 20
0.0
 30
0.0
  0
VERTEX
  5
468
  8
0
 10
0.84648
 20
0.167108
 30
0.0
  0
VERTEX
  5
469
  8
0
 10
0.65352
 20
0.167108
 30
0.0
  0
VERTEX
  5
46A
  8
0
 10
0.557041
 20
0.0
 30
0.0
  0
VERTEX
  5
46B
  8
0
 10
0.65352
 20
-0.167108
 30
0.0
  0
VERTEX
  5
46C
  8
0
 10
0.84648
 20
-0.167108
 30
0.0
  0
SEQEND
  5
46D
  8
0
  0
SOLID
  5
3BA
  8
0
  6
CONTINUOUS
 10
-1.069312
 20
0.294033
 30
0.0
 11
-0.97723
 21
0.214529
 31
0.0
 12
-1.038549
 22
0.3196
 32
0.0
 13
-1.038549
 23
0.3196
 33
0.0
210
0.0
220
0.0
230
-1.0
  0
POLYLINE
  5
3BD
  8
0
  6
CONTINUOUS
 66
     1
 10
0.0
 20
0.0
 30
0.0
 70
     8
1001
ACAD
1000
R13OBJECT
1002
{
1005
3BA
1002
}
  0
VERTEX
  5
3BE
  8
0
  6
CONTINUOUS
 10
1.053931
 20
0.306817
 30
0.0
 70
    32
1001
ACAD
1000
R13OBJECT
1002
{
1005
3BA
1002
}
  0
VERTEX
  5
3BF
  8
0
  6
CONTINUOUS
 10
2.154328
 20
1.630846
 30
0.0
 70
    32
1001
ACAD
1000
R13OBJECT
1002
{
1005
3BA
1002
}
  0
SEQEND
  5
3C0
  8
0
  6
CONTINUOUS
1001
ACAD
1000
R13OBJECT
1002
{
1005
3BA
1002
}
  0
POLYLINE
  5
3C1
  8
0
  6
CONTINUOUS
 66
     1
 10
0.0
 20
0.0
 30
0.0
 70
     8
1001
ACAD
1000
R13OBJECT
1002
{
1005
3BA
1002
}
  0
VERTEX
  5
3C2
  8
0
  6
CONTINUOUS
 10
2.154328
 20
1.630846
 30
0.0
 70
    32
1001
ACAD
1000
R13OBJECT
1002
{
1005
3BA
1002
}
  0
VERTEX
  5
3C3
  8
0
  6
CONTINUOUS
 10
2.256492
 20
1.630846
 30
0.0
 70
    32
1001
ACAD
1000
R13OBJECT
1002
{
1005
3BA
1002
}
  0
SEQEND
  5
3C4
  8
0
  6
CONTINUOUS
1001
ACAD
1000
R13OBJECT
1002
{
1005
3BA
1002
}
  0
TEXT
  5
3BB
  8
0
  6
CONTINUOUS
 10
2.346492
 20
1.568346
 30
0.0
 40
0.125
  1
029-925
  0
ENDSEC
  0
EOF
