  0
SECTION
  2
HEADER
  9
$ACADVER
  1
AC1009
  9
$INSBASE
 10
0.0
 20
0.0
 30
0.0
  9
$EXTMIN
 10
-4.0
 20
-2.518201
 30
0.0
  9
$EXTMAX
 10
3.484205
 20
3.028767
 30
0.0
  9
$LIMMIN
 10
0.0
 20
0.0
  9
$LIMMAX
 10
12.0
 20
9.0
  9
$ORTHOMODE
 70
     1
  9
$REGENMODE
 70
     1
  9
$FILLMODE
 70
     1
  9
$QTEXTMODE
 70
     0
  9
$MIRRTEXT
 70
     1
  9
$DRAGMODE
 70
     2
  9
$LTSCALE
 40
0.35
  9
$OSMODE
 70
   165
  9
$ATTMODE
 70
     1
  9
$TEXTSIZE
 40
0.149
  9
$TRACEWID
 40
0.05
  9
$TEXTSTYLE
  7
STANDARD
  9
$CLAYER
  8
L
  9
$CELTYPE
  6
BYLAYER
  9
$CECOLOR
 62
   256
  9
$DIMSCALE
 40
1.0
  9
$DIMASZ
 40
0.12
  9
$DIMEXO
 40
0.0625
  9
$DIMDLI
 40
0.38
  9
$DIMRND
 40
0.0
  9
$DIMDLE
 40
0.0
  9
$DIMEXE
 40
0.05
  9
$DIMTP
 40
0.0
  9
$DIMTM
 40
0.0
  9
$DIMTXT
 40
0.125
  9
$DIMCEN
 40
0.09
  9
$DIMTSZ
 40
0.0
  9
$DIMTOL
 70
     0
  9
$DIMLIM
 70
     0
  9
$DIMTIH
 70
     1
  9
$DIMTOH
 70
     1
  9
$DIMSE1
 70
     0
  9
$DIMSE2
 70
     0
  9
$DIMTAD
 70
     0
  9
$DIMZIN
 70
     0
  9
$DIMBLK
  1

  9
$DIMASO
 70
     1
  9
$DIMSHO
 70
     1
  9
$DIMPOST
  1

  9
$DIMAPOST
  1

  9
$DIMALT
 70
     0
  9
$DIMALTD
 70
     2
  9
$DIMALTF
 40
25.4
  9
$DIMLFAC
 40
1.0
  9
$DIMTOFL
 70
     0
  9
$DIMTVP
 40
0.0
  9
$DIMTIX
 70
     0
  9
$DIMSOXD
 70
     0
  9
$DIMSAH
 70
     0
  9
$DIMBLK1
  1

  9
$DIMBLK2
  1

  9
$DIMSTYLE
  2
5P
  9
$DIMCLRD
 70
     0
  9
$DIMCLRE
 70
     0
  9
$DIMCLRT
 70
     0
  9
$DIMTFAC
 40
1.0
  9
$DIMGAP
 40
0.09
  9
$LUNITS
 70
     2
  9
$LUPREC
 70
     3
  9
$SKETCHINC
 40
0.1
  9
$FILLETRAD
 40
0.0
  9
$AUNITS
 70
     1
  9
$AUPREC
 70
     0
  9
$MENU
  1
acad
  9
$ELEVATION
 40
0.0
  9
$PELEVATION
 40
0.0
  9
$THICKNESS
 40
0.0
  9
$LIMCHECK
 70
     0
  9
$BLIPMODE
 70
     0
  9
$CHAMFERA
 40
0.0
  9
$CHAMFERB
 40
0.0
  9
$SKPOLY
 70
     0
  9
$TDCREATE
 40
2449801.42704
  9
$TDUPDATE
 40
2450904.475882
  9
$TDINDWG
 40
0.05869
  9
$TDUSRTIMER
 40
0.05869
  9
$USRTIMER
 70
     1
  9
$ANGBASE
 50
0.0
  9
$ANGDIR
 70
     0
  9
$PDMODE
 70
     0
  9
$PDSIZE
 40
0.0
  9
$PLINEWID
 40
0.0
  9
$COORDS
 70
     1
  9
$SPLFRAME
 70
     0
  9
$SPLINETYPE
 70
     6
  9
$SPLINESEGS
 70
     8
  9
$ATTDIA
 70
     1
  9
$ATTREQ
 70
     1
  9
$HANDLING
 70
     1
  9
$HANDSEED
  5
7F9
  9
$SURFTAB1
 70
     6
  9
$SURFTAB2
 70
     6
  9
$SURFTYPE
 70
     6
  9
$SURFU
 70
     6
  9
$SURFV
 70
     6
  9
$UCSNAME
  2

  9
$UCSORG
 10
0.0
 20
0.0
 30
0.0
  9
$UCSXDIR
 10
1.0
 20
0.0
 30
0.0
  9
$UCSYDIR
 10
0.0
 20
1.0
 30
0.0
  9
$PUCSNAME
  2

  9
$PUCSORG
 10
0.0
 20
0.0
 30
0.0
  9
$PUCSXDIR
 10
1.0
 20
0.0
 30
0.0
  9
$PUCSYDIR
 10
0.0
 20
1.0
 30
0.0
  9
$USERI1
 70
     0
  9
$USERI2
 70
     0
  9
$USERI3
 70
     0
  9
$USERI4
 70
     0
  9
$USERI5
 70
     0
  9
$USERR1
 40
0.0
  9
$USERR2
 40
0.0
  9
$USERR3
 40
0.0
  9
$USERR4
 40
0.0
  9
$USERR5
 40
0.0
  9
$WORLDVIEW
 70
     1
  9
$SHADEDGE
 70
     3
  9
$SHADEDIF
 70
    70
  9
$TILEMODE
 70
     1
  9
$MAXACTVP
 70
    16
  9
$PLIMCHECK
 70
     0
  9
$PEXTMIN
 10
1.000000E+020
 20
1.000000E+020
 30
1.000000E+020
  9
$PEXTMAX
 10
-1.000000E+020
 20
-1.000000E+020
 30
-1.000000E+020
  9
$PLIMMIN
 10
0.0
 20
0.0
  9
$PLIMMAX
 10
12.0
 20
9.0
  9
$UNITMODE
 70
     0
  9
$VISRETAIN
 70
     1
  9
$PLINEGEN
 70
     0
  9
$PSLTSCALE
 70
     1
  0
ENDSEC
  0
SECTION
  2
TABLES
  0
TABLE
  2
VPORT
 70
     2
  0
VPORT
  2
*ACTIVE
 70
     0
 10
0.0
 20
0.0
 11
1.0
 21
1.0
 12
-0.268565
 22
0.420245
 13
0.0
 23
0.0
 14
1.0
 24
1.0
 15
0.0
 25
0.0
 16
0.0
 26
0.0
 36
1.0
 17
0.0
 27
0.0
 37
0.0
 40
5.93867
 41
1.605903
 42
50.0
 43
0.0
 44
0.0
 50
0.0
 51
0.0
 71
     0
 72
 20000
 73
     1
 74
     0
 75
     0
 76
     0
 77
     0
 78
     0
  0
ENDTAB
  0
TABLE
  2
LTYPE
 70
     6
  0
LTYPE
  2
CONTINUOUS
 70
     0
  3
Solid line
 72
    65
 73
     0
 40
0.0
  0
LTYPE
  2
HIDDEN
 70
     0
  3
__ __ __ __ __ __ __ __ __ __ __ __ __ __ __ __
 72
    65
 73
     2
 40
0.375
 49
0.25
 49
-0.125
  0
LTYPE
  2
C50_BASE$0$HIDDEN
 70
     0
  3
__ __ __ __ __ __ __ __ __ __ __ __ __ __ __ __
 72
    65
 73
     2
 40
0.375
 49
0.25
 49
-0.125
  0
LTYPE
  2
01MT_3$0$HIDDEN
 70
     0
  3
_ _ _ _ _ _ _ _ _ _ _ _ _ _ _ _ _ _ _ _ _ _ _
 72
    65
 73
     2
 40
0.375
 49
0.25
 49
-0.125
  0
LTYPE
  2
CENTER
 70
     0
  3
Center ____ _ ____ _ ____ _ ____ _ ____ _ ____
 72
    65
 73
     4
 40
2.0
 49
1.25
 49
-0.25
 49
0.25
 49
-0.25
  0
LTYPE
  2
PHANTOM
 70
     0
  3
Phantom ______  __  __  ______  __  __  ______
 72
    65
 73
     6
 40
2.5
 49
1.25
 49
-0.25
 49
0.25
 49
-0.25
 49
0.25
 49
-0.25
  0
ENDTAB
  0
TABLE
  2
LAYER
 70
    21
  0
LAYER
  2
0
 70
     0
 62
     7
  6
CONTINUOUS
  0
LAYER
  2
D
 70
     0
 62
     7
  6
CONTINUOUS
  0
LAYER
  2
H
 70
     0
 62
     4
  6
HIDDEN
  0
LAYER
  2
L
 70
     0
 62
     5
  6
CONTINUOUS
  0
LAYER
  2
DEFPOINTS
 70
     0
 62
    -7
  6
CONTINUOUS
  0
LAYER
  2
01MT_3$0$L
 70
     0
 62
     5
  6
CONTINUOUS
  0
LAYER
  2
01MT_3$0$H
 70
     0
 62
     4
  6
01MT_3$0$HIDDEN
  0
LAYER
  2
01MT_3$0$D
 70
     0
 62
     7
  6
CONTINUOUS
  0
LAYER
  2
01MT_3$0$README
 70
     1
 62
     2
  6
CONTINUOUS
  0
LAYER
  2
C50_2$0$D
 70
     0
 62
     7
  6
CONTINUOUS
  0
LAYER
  2
C50_2$0$L
 70
     0
 62
     5
  6
CONTINUOUS
  0
LAYER
  2
C50_BASE$0$D
 70
     0
 62
     7
  6
CONTINUOUS
  0
LAYER
  2
C50_BASE$0$H
 70
     0
 62
     4
  6
C50_BASE$0$HIDDEN
  0
LAYER
  2
C50_BASE$0$L
 70
     0
 62
     5
  6
CONTINUOUS
  0
LAYER
  2
F
 70
     0
 62
    13
  6
CONTINUOUS
  0
LAYER
  2
C
 70
     0
 62
     1
  6
CENTER
  0
LAYER
  2
P
 70
     0
 62
     2
  6
PHANTOM
  0
LAYER
  2
S
 70
     0
 62
     6
  6
CONTINUOUS
  0
LAYER
  2
AM_TR
 70
     0
 62
     7
  6
CONTINUOUS
  0
LAYER
  2
AM_BM
 70
     0
 62
     7
  6
CONTINUOUS
  0
LAYER
  2
AM_BL
 70
     0
 62
     7
  6
CONTINUOUS
  0
ENDTAB
  0
TABLE
  2
STYLE
 70
     3
  0
STYLE
  2
STANDARD
 70
     0
 40
0.0
 41
1.0
 50
0.0
 71
     0
 42
0.149
  3
txt
  4

  0
STYLE
  2
01MT_3$0$STANDARD
 70
     0
 40
0.0
 41
1.0
 50
0.0
 71
     0
 42
0.25
  3
txt
  4

  0
STYLE
  2
C50_BASE$0$STANDARD
 70
     0
 40
0.0
 41
1.0
 50
0.0
 71
     0
 42
0.075
  3
txt
  4

  0
ENDTAB
  0
TABLE
  2
VIEW
 70
     0
  0
ENDTAB
  0
TABLE
  2
UCS
 70
     0
  0
ENDTAB
  0
TABLE
  2
APPID
 70
     3
  0
APPID
  2
ACAD
 70
     0
  0
APPID
  2
MCAD_NO_VIS
 70
     0
  0
APPID
  2
ACAD_TEMP_GRAPHIC
 70
     0
  0
ENDTAB
  0
TABLE
  2
DIMSTYLE
 70
     7
  0
DIMSTYLE
  2
PARLEC
 70
     0
  3

  4

  5

  6

  7

 40
1.0
 41
0.12
 42
0.0625
 43
0.38
 44
0.05
 45
0.0
 46
0.0
 47
0.0
 48
0.0
140
0.125
141
0.09
142
0.0
143
25.4
144
1.0
145
0.0
146
1.0
147
0.09
 71
     0
 72
     0
 73
     1
 74
     1
 75
     0
 76
     0
 77
     0
 78
     0
170
     0
171
     2
172
     0
173
     0
174
     0
175
     0
176
     0
177
     0
178
     0
  0
DIMSTYLE
  2
0P
 70
     0
  3

  4

  5

  6

  7

 40
1.0
 41
0.12
 42
0.0625
 43
0.38
 44
0.05
 45
0.0
 46
0.0
 47
0.0
 48
0.0
140
0.125
141
0.09
142
0.0
143
25.4
144
1.0
145
0.0
146
1.0
147
0.09
 71
     0
 72
     0
 73
     1
 74
     1
 75
     0
 76
     0
 77
     0
 78
     0
170
     0
171
     2
172
     0
173
     0
174
     0
175
     0
176
     0
177
     0
178
     0
  0
DIMSTYLE
  2
1P
 70
     0
  3

  4

  5

  6

  7

 40
1.0
 41
0.12
 42
0.0625
 43
0.38
 44
0.05
 45
0.0
 46
0.0
 47
0.0
 48
0.0
140
0.125
141
0.09
142
0.0
143
25.4
144
1.0
145
0.0
146
1.0
147
0.09
 71
     0
 72
     0
 73
     1
 74
     1
 75
     0
 76
     0
 77
     0
 78
     0
170
     0
171
     2
172
     0
173
     0
174
     0
175
     0
176
     0
177
     0
178
     0
  0
DIMSTYLE
  2
2P
 70
     0
  3

  4

  5

  6

  7

 40
1.0
 41
0.12
 42
0.0625
 43
0.38
 44
0.05
 45
0.0
 46
0.0
 47
0.0
 48
0.0
140
0.125
141
0.09
142
0.0
143
25.4
144
1.0
145
0.0
146
1.0
147
0.09
 71
     0
 72
     0
 73
     1
 74
     1
 75
     0
 76
     0
 77
     0
 78
     0
170
     0
171
     2
172
     0
173
     0
174
     0
175
     0
176
     0
177
     0
178
     0
  0
DIMSTYLE
  2
3P
 70
     0
  3

  4

  5

  6

  7

 40
1.0
 41
0.12
 42
0.0625
 43
0.38
 44
0.05
 45
0.0
 46
0.0
 47
0.0
 48
0.0
140
0.125
141
0.09
142
0.0
143
25.4
144
1.0
145
0.0
146
1.0
147
0.09
 71
     0
 72
     0
 73
     1
 74
     1
 75
     0
 76
     0
 77
     0
 78
     0
170
     0
171
     2
172
     0
173
     0
174
     0
175
     0
176
     0
177
     0
178
     0
  0
DIMSTYLE
  2
4P
 70
     0
  3

  4

  5

  6

  7

 40
1.0
 41
0.12
 42
0.0625
 43
0.38
 44
0.05
 45
0.0
 46
0.0
 47
0.0
 48
0.0
140
0.125
141
0.09
142
0.0
143
25.4
144
1.0
145
0.0
146
1.0
147
0.09
 71
     0
 72
     0
 73
     1
 74
     1
 75
     0
 76
     0
 77
     0
 78
     0
170
     0
171
     2
172
     0
173
     0
174
     0
175
     0
176
     0
177
     0
178
     0
  0
DIMSTYLE
  2
5P
 70
     0
  3

  4

  5

  6

  7

 40
1.0
 41
0.12
 42
0.0625
 43
0.38
 44
0.05
 45
0.0
 46
0.0
 47
0.0
 48
0.0
140
0.125
141
0.09
142
0.0
143
25.4
144
1.0
145
0.0
146
1.0
147
0.09
 71
     0
 72
     0
 73
     1
 74
     1
 75
     0
 76
     0
 77
     0
 78
     0
170
     0
171
     2
172
     0
173
     0
174
     0
175
     0
176
     0
177
     0
178
     0
  0
ENDTAB
  0
ENDSEC
  0
SECTION
  2
BLOCKS
  0
BLOCK
  8
0
  2
$MODEL_SPACE
 70
     0
 10
0.0
 20
0.0
 30
0.0
  3
$MODEL_SPACE
  1

  0
ENDBLK
  5
7CE
  8
0
  0
BLOCK
 67
     1
  8
0
  2
$PAPER_SPACE
 70
     0
 10
0.0
 20
0.0
 30
0.0
  3
$PAPER_SPACE
  1

  0
ENDBLK
  5
7CC
 67
     1
  8
0
  0
BLOCK
  8
0
  6
CONTINUOUS
 62
     7
  2
01MT_3
 70
     0
 10
0.0
 20
0.0
 30
0.0
  3
01MT_3
  1
J:\XREFCAD\01MT_3
  0
LINE
  5
68C
  8
01MT_3$0$H
 10
-0.06
 20
0.236004
 30
0.0
 11
-1.784282
 21
0.193
 31
0.0
  0
LINE
  5
68D
  8
01MT_3$0$H
 10
-0.06
 20
-0.236004
 30
0.0
 11
-1.784282
 21
-0.193
 31
0.0
  0
LINE
  5
68E
  8
01MT_3$0$H
 10
-0.06
 20
-0.236004
 30
0.0
 11
-0.06
 21
0.236004
 31
0.0
  0
LINE
  5
68F
  8
01MT_3$0$H
 10
-0.06
 20
0.236004
 30
0.0
 11
0.0
 21
0.270645
 31
0.0
  0
LINE
  5
690
  8
01MT_3$0$H
 10
-0.06
 20
-0.236004
 30
0.0
 11
0.0
 21
-0.270645
 31
0.0
  0
LINE
  5
691
  8
01MT_3$0$H
 10
-2.187282
 20
0.193
 30
0.0
 11
-2.234914
 21
0.1105
 31
0.0
  0
LINE
  5
692
  8
01MT_3$0$H
 10
-2.187282
 20
0.1105
 30
0.0
 11
-2.187282
 21
0.193
 31
0.0
  0
LINE
  5
693
  8
01MT_3$0$H
 10
-2.187282
 20
-0.193
 30
0.0
 11
-2.234914
 21
-0.1105
 31
0.0
  0
LINE
  5
694
  8
01MT_3$0$H
 10
-2.187282
 20
-0.1105
 30
0.0
 11
-2.187282
 21
-0.193
 31
0.0
  0
LINE
  5
695
  8
01MT_3$0$L
 10
0.0
 20
0.0
 30
0.0
 11
0.0
 21
0.37
 31
0.0
  0
LINE
  5
696
  8
01MT_3$0$L
 10
0.0
 20
-1.25
 30
0.0
 11
0.0
 21
1.25
 31
0.0
  0
LINE
  5
697
  8
01MT_3$0$H
 10
-2.187282
 20
0.193
 30
0.0
 11
-1.784282
 21
0.193
 31
0.0
  0
LINE
  5
698
  8
01MT_3$0$H
 10
-2.187282
 20
-0.193
 30
0.0
 11
-1.784282
 21
-0.193
 31
0.0
  0
LINE
  5
699
  8
01MT_3$0$H
 10
-1.784282
 20
0.193
 30
0.0
 11
-1.784282
 21
-0.193
 31
0.0
  0
TEXT
  5
69A
  8
01MT_3$0$D
 10
0.462378
 20
-0.088718
 30
0.0
 40
0.125
  1
.475
  7
01MT_3$0$STANDARD
 72
     4
 11
0.649878
 21
-0.026218
 31
0.0
  0
LINE
  5
69B
  8
01MT_3$0$D
 10
0.0625
 20
-0.2375
 30
0.0
 11
0.738678
 21
-0.2375
 31
0.0
  0
SOLID
  5
69C
  8
01MT_3$0$D
 10
0.668678
 20
-0.1175
 30
0.0
 11
0.708678
 21
-0.1175
 31
0.0
 12
0.688678
 22
-0.2375
 32
0.0
 13
0.688678
 23
-0.2375
 33
0.0
  0
SOLID
  5
69D
  8
01MT_3$0$D
 10
0.668678
 20
0.1175
 30
0.0
 11
0.708678
 21
0.1175
 31
0.0
 12
0.688678
 22
0.2375
 32
0.0
 13
0.688678
 23
0.2375
 33
0.0
  0
LINE
  5
69E
  8
01MT_3$0$D
 10
0.688678
 20
0.1175
 30
0.0
 11
0.688678
 21
0.058887
 31
0.0
  0
LINE
  5
69F
  8
01MT_3$0$D
 10
0.0625
 20
0.2375
 30
0.0
 11
0.738678
 21
0.2375
 31
0.0
  0
LINE
  5
6A0
  8
01MT_3$0$L
 10
-2.701
 20
-0.1105
 30
0.0
 11
-2.169
 21
-0.1105
 31
0.0
  0
ARC
  5
6A1
  8
01MT_3$0$L
 10
-2.701
 20
0.0
 30
0.0
 40
0.1105
 50
90.0
 51
270.0
  0
LINE
  5
6A2
  8
01MT_3$0$L
 10
-2.701
 20
0.1105
 30
0.0
 11
-2.169
 21
0.1105
 31
0.0
  0
LINE
  5
6A3
  8
01MT_3$0$L
 10
-2.701
 20
0.1105
 30
0.0
 11
-2.701
 21
0.1105
 31
0.0
  0
ARC
  5
6A4
  8
01MT_3$0$L
 10
-2.169
 20
0.0
 30
0.0
 40
0.1105
 50
270.0
 51
90.0
  0
ARC
  5
6A5
  8
01MT_3$0$L
 10
-2.169
 20
0.0
 30
0.0
 40
0.21875
 50
270.0
 51
90.0
  0
LINE
  5
6A6
  8
01MT_3$0$L
 10
-2.701
 20
0.21875
 30
0.0
 11
-2.169
 21
0.21875
 31
0.0
  0
ARC
  5
6A7
  8
01MT_3$0$L
 10
-2.701
 20
0.0
 30
0.0
 40
0.21875
 50
90.0
 51
270.0
  0
LINE
  5
6A8
  8
01MT_3$0$L
 10
-2.701
 20
-0.21875
 30
0.0
 11
-2.169
 21
-0.21875
 31
0.0
  0
SOLID
  5
6A9
  8
01MT_3$0$README
 10
0.108604
 20
-0.05482
 30
0.0
 11
0.120513
 21
-0.016634
 31
0.0
 12
0.0
 22
0.0
 32
0.0
 13
0.0
 23
0.0
 33
0.0
  0
LINE
  5
6AA
  8
01MT_3$0$README
 10
0.114558
 20
-0.035727
 30
0.0
 11
2.824183
 21
-0.880778
 31
0.0
  0
LINE
  5
6AB
  8
01MT_3$0$README
 10
2.824183
 20
-0.880778
 30
0.0
 11
3.077806
 21
-0.880778
 31
0.0
  0
TEXT
  5
6AC
  8
01MT_3$0$README
 10
3.167806
 20
-1.005778
 30
0.0
 40
0.25
  1
POINT 0,0
  7
01MT_3$0$STANDARD
 11
3.167806
 21
-0.880778
 31
0.0
 73
     2
  0
TEXT
  5
6AD
  8
01MT_3$0$README
 10
4.495106
 20
-6.708144
 30
0.0
 40
0.25
  1
S:\XREF\01MT_3
  7
01MT_3$0$STANDARD
  0
LINE
  5
6AE
  8
01MT_3$0$D
 10
1.796705
 20
1.375
 30
0.0
 11
1.796705
 21
0.1525
 31
0.0
  0
LINE
  5
6AF
  8
01MT_3$0$D
 10
1.796705
 20
-1.375
 30
0.0
 11
1.796705
 21
-0.1525
 31
0.0
  0
SOLID
  5
6B0
  8
01MT_3$0$D
 10
1.776705
 20
1.255
 30
0.0
 11
1.816705
 21
1.255
 31
0.0
 12
1.796705
 22
1.375
 32
0.0
 13
1.796705
 23
1.375
 33
0.0
  0
SOLID
  5
6B1
  8
01MT_3$0$D
 10
1.776705
 20
-1.255
 30
0.0
 11
1.816705
 21
-1.255
 31
0.0
 12
1.796705
 22
-1.375
 32
0.0
 13
1.796705
 23
-1.375
 33
0.0
  0
TEXT
  5
6B2
  8
01MT_3$0$D
 10
1.609205
 20
-0.0625
 30
0.0
 40
0.125
  1
2.75
  7
01MT_3$0$STANDARD
 72
     4
 11
1.796705
 21
0.0
 31
0.0
  0
LINE
  5
6B3
  8
01MT_3$0$L
 10
0.0
 20
1.25
 30
0.0
 11
-0.125
 21
1.375
 31
0.0
  0
LINE
  5
6B4
  8
01MT_3$0$L
 10
-0.125
 20
1.375
 30
0.0
 11
-0.309747
 21
1.375
 31
0.0
  0
LINE
  5
6B5
  8
01MT_3$0$D
 10
0.058037
 20
1.375
 30
0.0
 11
1.846705
 21
1.375
 31
0.0
  0
LINE
  5
6B6
  8
01MT_3$0$L
 10
0.0
 20
-1.25
 30
0.0
 11
-0.125
 21
-1.375
 31
0.0
  0
LINE
  5
6B7
  8
01MT_3$0$L
 10
-0.125
 20
-1.375
 30
0.0
 11
-0.309747
 21
-1.375
 31
0.0
  0
LINE
  5
6B8
  8
01MT_3$0$L
 10
-0.125
 20
-1.375
 30
0.0
 11
-0.125
 21
1.375
 31
0.0
  0
LINE
  5
6B9
  8
01MT_3$0$D
 10
0.05312
 20
-1.375
 30
0.0
 11
1.846705
 21
-1.375
 31
0.0
  0
INSERT
  5
6BA
  8
01MT_3$0$D
  2
01MT_3$0$P001
 10
0.819334
 20
0.069749
 30
0.0
  0
ENDBLK
  5
21B
  8
0
  6
CONTINUOUS
 62
     7
  0
BLOCK
  8
0
  6
CONTINUOUS
 62
     7
  2
C50_2
 70
     0
 10
0.0
 20
0.0
 30
0.0
  3
C50_2
  1
C50_2
  0
LINE
  5
491
  8
C50_2$0$L
 10
0.72
 20
-1.9375
 30
0.0
 11
0.72
 21
-0.51
 31
0.0
  0
LINE
  5
492
  8
C50_2$0$L
 10
0.75
 20
0.0
 30
0.0
 11
0.75
 21
-1.9075
 31
0.0
  0
LINE
  5
493
  8
C50_2$0$L
 10
1.033675
 20
-1.375
 30
0.0
 11
0.78
 21
-1.375
 31
0.0
  0
LINE
  5
494
  8
C50_2$0$L
 10
0.72
 20
-1.9375
 30
0.0
 11
0.75
 21
-1.9075
 31
0.0
  0
ARC
  5
495
  8
C50_2$0$L
 10
0.78
 20
-1.405
 30
0.0
 40
0.03
 50
90.0
 51
180.0
  0
LINE
  5
496
  8
C50_2$0$L
 10
0.75
 20
0.0
 30
0.0
 11
0.75
 21
1.9075
 31
0.0
  0
LINE
  5
497
  8
C50_2$0$L
 10
0.72
 20
1.9375
 30
0.0
 11
0.72
 21
0.51
 31
0.0
  0
LINE
  5
498
  8
C50_2$0$L
 10
0.78
 20
1.375
 30
0.0
 11
1.033675
 21
1.375
 31
0.0
  0
ARC
  5
499
  8
C50_2$0$L
 10
0.78
 20
1.405
 30
0.0
 40
0.03
 50
180.0
 51
270.0
  0
LINE
  5
49A
  8
C50_2$0$L
 10
0.72
 20
1.9375
 30
0.0
 11
0.75
 21
1.9075
 31
0.0
  0
INSERT
  5
49B
  8
C50_2$0$D
  2
C50_BASE
 10
0.0
 20
0.0
 30
0.0
  0
LINE
  5
49C
  8
C50_2$0$L
 10
0.695204
 20
0.51
 30
0.0
 11
0.75
 21
0.51
 31
0.0
  0
LINE
  5
49D
  8
C50_2$0$L
 10
0.695204
 20
-0.51
 30
0.0
 11
0.75
 21
-0.51
 31
0.0
  0
ENDBLK
  5
21F
  8
0
  6
CONTINUOUS
 62
     7
  0
BLOCK
  8
0
  2
*D2
 70
     1
 10
0.0
 20
0.0
 30
0.0
  3
*D2
  1
J:\XREFCAD\01MT_3
  0
LINE
  5
1AF
  8
0
  6
BYBLOCK
 62
     0
 10
0.0
 20
1.4375
 30
0.0
 11
0.0
 21
2.940516
 31
0.0
  0
LINE
  5
1B0
  8
0
  6
BYBLOCK
 62
     0
 10
1.5
 20
2.377682
 30
0.0
 11
1.5
 21
2.940516
 31
0.0
  0
LINE
  5
1B1
  8
0
  6
BYBLOCK
 62
     0
 10
0.12
 20
2.890516
 30
0.0
 11
0.451667
 21
2.890516
 31
0.0
  0
LINE
  5
1B2
  8
0
  6
BYBLOCK
 62
     0
 10
1.38
 20
2.890516
 30
0.0
 11
1.048333
 21
2.890516
 31
0.0
  0
SOLID
  5
1B3
  8
0
  6
BYBLOCK
 62
     0
 10
0.12
 20
2.910516
 30
0.0
 11
0.12
 21
2.870516
 31
0.0
 12
0.0
 22
2.890516
 32
0.0
 13
0.0
 23
2.890516
 33
0.0
  0
SOLID
  5
1B4
  8
0
  6
BYBLOCK
 62
     0
 10
1.38
 20
2.910516
 30
0.0
 11
1.38
 21
2.870516
 31
0.0
 12
1.5
 22
2.890516
 32
0.0
 13
1.5
 23
2.890516
 33
0.0
  0
TEXT
  5
1B5
  8
0
  6
BYBLOCK
 62
     0
 10
0.541667
 20
2.828016
 30
0.0
 40
0.125
  1
1.500
 72
     1
 11
0.75
 21
2.890516
 31
0.0
 73
     2
  0
POINT
  5
1B6
  8
DEFPOINTS
  6
BYBLOCK
 62
     0
 10
0.0
 20
1.375
 30
0.0
  0
POINT
  5
1B7
  8
DEFPOINTS
  6
BYBLOCK
 62
     0
 10
1.5
 20
2.315182
 30
0.0
  0
POINT
  5
1B8
  8
DEFPOINTS
  6
BYBLOCK
 62
     0
 10
1.5
 20
2.890516
 30
0.0
  0
ENDBLK
  5
1B9
  8
0
  0
BLOCK
  8
0
  2
01MT_3$0$P001
 70
     0
 10
0.0
 20
0.0
 30
0.0
  3
01MT_3$0$P001
  1

  0
TEXT
  5
6D7
  8
0
 10
0.000292
 20
0.001094
 30
0.0
 40
0.09
  1
%%P.001
  7
01MT_3$0$STANDARD
  0
ENDBLK
  5
6D9
  8
0
  0
BLOCK
  8
0
  6
CONTINUOUS
 62
     7
  2
C50_BASE
 70
     0
 10
0.0
 20
0.0
 30
0.0
  3
C50_BASE
  1
C50_BASE
  0
LINE
  5
224
  8
C50_BASE$0$L
 10
0.0
 20
0.0
 30
0.0
 11
0.0
 21
-1.375
 31
0.0
  0
LINE
  5
225
  8
C50_BASE$0$L
 10
0.0
 20
-1.375
 30
0.0
 11
-3.897317
 21
-0.806641
 31
0.0
  0
LINE
  5
226
  8
C50_BASE$0$L
 10
0.0
 20
-1.375
 30
0.0
 11
0.105
 21
-1.375
 31
0.0
  0
ARC
  5
227
  8
C50_BASE$0$L
 10
-3.88241
 20
0.69
 30
0.0
 40
0.11759
 50
97.282949
 51
180.0
  0
LINE
  5
228
  8
C50_BASE$0$H
 10
-4.0
 20
0.5625
 30
0.0
 11
-3.918594
 21
0.5155
 31
0.0
  0
LINE
  5
229
  8
C50_BASE$0$H
 10
-4.0
 20
-0.5625
 30
0.0
 11
-3.918594
 21
-0.5155
 31
0.0
  0
ARC
  5
22A
  8
C50_BASE$0$L
 10
-3.88241
 20
-0.69
 30
0.0
 40
0.11759
 50
180.0
 51
262.717051
  0
LINE
  5
22B
  8
C50_BASE$0$L
 10
-4.0
 20
-0.69
 30
0.0
 11
-4.0
 21
0.69
 31
0.0
  0
LINE
  5
22C
  8
C50_BASE$0$L
 10
0.0
 20
1.375
 30
0.0
 11
-3.897317
 21
0.806641
 31
0.0
  0
LINE
  5
22D
  8
C50_BASE$0$H
 10
-3.75
 20
-0.5
 30
0.0
 11
-2.25
 21
-0.5
 31
0.0
  0
LINE
  5
22E
  8
C50_BASE$0$H
 10
-3.75
 20
-0.4375
 30
0.0
 11
-2.25
 21
-0.4375
 31
0.0
  0
LINE
  5
22F
  8
C50_BASE$0$H
 10
-3.75
 20
0.4375
 30
0.0
 11
-2.25
 21
0.4375
 31
0.0
  0
LINE
  5
230
  8
C50_BASE$0$H
 10
-3.75
 20
0.5
 30
0.0
 11
-2.25
 21
0.5
 31
0.0
  0
LINE
  5
231
  8
C50_BASE$0$H
 10
-3.918594
 20
0.5155
 30
0.0
 11
-3.918594
 21
-0.0025
 31
0.0
  0
LINE
  5
232
  8
C50_BASE$0$H
 10
-3.75
 20
0.0
 30
0.0
 11
-3.75
 21
0.5155
 31
0.0
  0
LINE
  5
233
  8
C50_BASE$0$H
 10
-3.75
 20
0.0
 30
0.0
 11
-3.75
 21
-0.5155
 31
0.0
  0
LINE
  5
234
  8
C50_BASE$0$H
 10
-3.918594
 20
-0.5155
 30
0.0
 11
-3.918594
 21
0.0025
 31
0.0
  0
LINE
  5
235
  8
C50_BASE$0$H
 10
-3.918594
 20
-0.5155
 30
0.0
 11
-3.75
 21
-0.5155
 31
0.0
  0
LINE
  5
236
  8
C50_BASE$0$H
 10
-3.918594
 20
0.5155
 30
0.0
 11
-3.75
 21
0.5155
 31
0.0
  0
LINE
  5
237
  8
C50_BASE$0$H
 10
-2.25
 20
0.5
 30
0.0
 11
-2.25
 21
-0.5
 31
0.0
  0
LINE
  5
238
  8
C50_BASE$0$L
 10
0.0
 20
0.0
 30
0.0
 11
0.0
 21
1.375
 31
0.0
  0
CIRCLE
  5
239
  8
C50_BASE$0$L
 10
0.44
 20
0.0
 30
0.0
 40
0.1875
  0
LINE
  5
23A
  8
C50_BASE$0$L
 10
0.125
 20
0.51
 30
0.0
 11
0.695204
 21
0.51
 31
0.0
  0
LINE
  5
23B
  8
C50_BASE$0$L
 10
0.0
 20
1.375
 30
0.0
 11
0.105
 21
1.375
 31
0.0
  0
POINT
  5
23C
  8
DEFPOINTS
  6
BYBLOCK
 62
     0
 10
0.0
 20
1.375
 30
0.0
  0
POINT
  5
23D
  8
DEFPOINTS
  6
BYBLOCK
 62
     0
 10
0.0
 20
-1.375
 30
0.0
  0
POINT
  5
23E
  8
DEFPOINTS
  6
BYBLOCK
 62
     0
 10
0.0
 20
1.375
 30
0.0
  0
LINE
  5
23F
  8
C50_BASE$0$L
 10
0.125
 20
-1.9075
 30
0.0
 11
0.125
 21
1.9075
 31
0.0
  0
LINE
  5
240
  8
C50_BASE$0$L
 10
0.5155
 20
0.51
 30
0.0
 11
0.5155
 21
1.827515
 31
0.0
  0
LINE
  5
241
  8
C50_BASE$0$L
 10
0.3645
 20
0.51
 30
0.0
 11
0.3645
 21
1.827515
 31
0.0
  0
LINE
  5
242
  8
C50_BASE$0$L
 10
0.579
 20
0.51
 30
0.0
 11
0.579
 21
1.9375
 31
0.0
  0
LINE
  5
243
  8
C50_BASE$0$L
 10
0.301
 20
0.51
 30
0.0
 11
0.301
 21
1.9375
 31
0.0
  0
LINE
  5
244
  8
C50_BASE$0$L
 10
0.579
 20
1.9375
 30
0.0
 11
0.5155
 21
1.827515
 31
0.0
  0
LINE
  5
245
  8
C50_BASE$0$L
 10
0.301
 20
1.9375
 30
0.0
 11
0.3645
 21
1.827515
 31
0.0
  0
LINE
  5
246
  8
C50_BASE$0$L
 10
0.579
 20
1.9375
 30
0.0
 11
0.72
 21
1.9375
 31
0.0
  0
LINE
  5
247
  8
C50_BASE$0$L
 10
0.301
 20
1.9375
 30
0.0
 11
0.155
 21
1.9375
 31
0.0
  0
LINE
  5
248
  8
C50_BASE$0$L
 10
0.155
 20
0.51
 30
0.0
 11
0.155
 21
1.9375
 31
0.0
  0
LINE
  5
249
  8
C50_BASE$0$L
 10
0.125
 20
1.9075
 30
0.0
 11
0.155
 21
1.9375
 31
0.0
  0
LINE
  5
24A
  8
C50_BASE$0$L
 10
0.5155
 20
1.797
 30
0.0
 11
0.3645
 21
1.797
 31
0.0
  0
ARC
  5
24B
  8
C50_BASE$0$L
 10
0.105
 20
1.395
 30
0.0
 40
0.02
 50
270.0
 51
0.0
  0
LINE
  5
24C
  8
C50_BASE$0$L
 10
0.579
 20
-0.51
 30
0.0
 11
0.579
 21
-1.9375
 31
0.0
  0
LINE
  5
24D
  8
C50_BASE$0$L
 10
0.5155
 20
-0.51
 30
0.0
 11
0.5155
 21
-1.827515
 31
0.0
  0
LINE
  5
24E
  8
C50_BASE$0$L
 10
0.3645
 20
-0.51
 30
0.0
 11
0.3645
 21
-1.827515
 31
0.0
  0
LINE
  5
24F
  8
C50_BASE$0$L
 10
0.301
 20
-0.51
 30
0.0
 11
0.301
 21
-1.9375
 31
0.0
  0
LINE
  5
250
  8
C50_BASE$0$L
 10
0.155
 20
-0.51
 30
0.0
 11
0.155
 21
-1.9375
 31
0.0
  0
LINE
  5
251
  8
C50_BASE$0$L
 10
0.579
 20
-1.9375
 30
0.0
 11
0.72
 21
-1.9375
 31
0.0
  0
LINE
  5
252
  8
C50_BASE$0$L
 10
0.301
 20
-1.9375
 30
0.0
 11
0.3645
 21
-1.827515
 31
0.0
  0
LINE
  5
253
  8
C50_BASE$0$L
 10
0.579
 20
-1.9375
 30
0.0
 11
0.5155
 21
-1.827515
 31
0.0
  0
LINE
  5
254
  8
C50_BASE$0$L
 10
0.301
 20
-1.9375
 30
0.0
 11
0.155
 21
-1.9375
 31
0.0
  0
LINE
  5
255
  8
C50_BASE$0$L
 10
0.125
 20
-1.9075
 30
0.0
 11
0.155
 21
-1.9375
 31
0.0
  0
LINE
  5
256
  8
C50_BASE$0$L
 10
0.5155
 20
-1.797
 30
0.0
 11
0.3645
 21
-1.797
 31
0.0
  0
LINE
  5
257
  8
C50_BASE$0$L
 10
0.125
 20
-0.51
 30
0.0
 11
0.695204
 21
-0.51
 31
0.0
  0
ARC
  5
258
  8
C50_BASE$0$L
 10
0.105
 20
-1.395
 30
0.0
 40
0.02
 50
0.0
 51
90.0
  0
SOLID
  5
259
  8
C50_BASE$0$D
 10
-0.371748
 20
1.44279
 30
0.0
 11
-0.408045
 21
1.425982
 31
0.0
 12
-0.339474
 22
1.325493
 32
0.0
 13
-0.339474
 23
1.325493
 33
0.0
  0
LINE
  5
25A
  8
C50_BASE$0$D
 10
-0.389896
 20
1.434386
 30
0.0
 11
-1.092609
 21
2.951982
 31
0.0
  0
LINE
  5
25B
  8
C50_BASE$0$D
 10
-1.092609
 20
2.951982
 30
0.0
 11
-1.225138
 21
2.951982
 31
0.0
  0
TEXT
  5
25C
  8
C50_BASE$0$D
 10
-2.677478
 20
2.903767
 30
0.0
 40
0.125
  1
50 V-FLANGE
  7
C50_BASE$0$STANDARD
 72
     2
 11
-1.323312
 21
2.966267
 31
0.0
 73
     2
  0
TEXT
  5
25D
  8
C50_BASE$0$D
 10
-3.030563
 20
2.905161
 30
0.0
 40
0.09
  1
CAT
  7
C50_BASE$0$STANDARD
 72
     2
 11
-2.790563
 21
2.950161
 31
0.0
 73
     2
  0
ENDBLK
  5
222
  8
0
  6
CONTINUOUS
 62
     7
  0
ENDSEC
  0
SECTION
  2
ENTITIES
  0
POINT
  5
1E1
  8
DEFPOINTS
  6
BYBLOCK
 62
     0
 10
0.0
 20
0.875
 30
0.0
  0
LINE
  5
1E4
  8
H
 10
-2.25
 20
-0.4375
 30
0.0
 11
-1.040395
 21
-0.4375
 31
0.0
  0
LINE
  5
1E5
  8
H
 10
-1.040395
 20
0.4375
 30
0.0
 11
-1.040395
 21
0.1105
 31
0.0
  0
LINE
  5
1E6
  8
H
 10
-2.25
 20
0.4375
 30
0.0
 11
-1.040395
 21
0.4375
 31
0.0
  0
LINE
  5
1E7
  8
H
 10
-0.843914
 20
0.1105
 30
0.0
 11
-1.040395
 21
0.4375
 31
0.0
  0
LINE
  5
1E8
  8
H
 10
-0.843914
 20
-0.1105
 30
0.0
 11
-1.040395
 21
-0.4375
 31
0.0
  0
LINE
  5
1E9
  8
L
 10
1.033675
 20
1.375
 30
0.0
 11
1.190253
 21
1.375
 31
0.0
  0
LINE
  5
1EA
  8
L
 10
1.033675
 20
-1.375
 30
0.0
 11
1.190253
 21
-1.375
 31
0.0
  0
LINE
  5
1EB
  8
H
 10
-1.040395
 20
-0.1105
 30
0.0
 11
-1.040395
 21
-0.4375
 31
0.0
  0
DIMENSION
  5
1EC
  8
D
  2
*D2
 10
1.5
 20
2.890516
 30
0.0
 11
0.75
 21
2.890516
 31
0.0
  1
1.500
 13
0.0
 23
1.375
 33
0.0
 14
1.5
 24
2.315182
 34
0.0
  0
LINE
  5
1ED
  8
L
 10
-0.649303
 20
0.815509
 30
0.0
 11
-0.586803
 21
0.815509
 31
0.0
  0
LINE
  5
1EE
  8
L
 10
-0.649303
 20
1.090509
 30
0.0
 11
-0.586803
 21
1.090509
 31
0.0
  0
ARC
  5
1EF
  8
L
 10
-0.971856
 20
0.925009
 30
0.0
 40
0.1095
 50
0.018858
 51
278.071967
  0
CIRCLE
  5
1F0
  8
L
 10
-0.971856
 20
0.925009
 30
0.0
 40
0.05
  0
ARC
  5
1F1
  8
L
 10
-0.971856
 20
0.925009
 30
0.0
 40
0.1095
 50
0.018858
 51
278.071967
  0
LINE
  5
1F2
  8
L
 10
-1.254395
 20
0.933881
 30
0.0
 11
-1.254395
 21
0.815509
 31
0.0
  0
LINE
  5
1F3
  8
L
 10
-1.316895
 20
0.980931
 30
0.0
 11
-1.316895
 21
0.815509
 31
0.0
  0
LINE
  5
1F4
  8
L
 10
-1.316895
 20
0.815509
 30
0.0
 11
-1.254395
 21
0.815509
 31
0.0
  0
CIRCLE
  5
1F5
  8
L
 10
-1.207395
 20
0.980931
 30
0.0
 40
0.05
  0
ARC
  5
1F6
  8
L
 10
-1.207395
 20
0.980931
 30
0.0
 40
0.1095
 50
269.890544
 51
179.99999
  0
LINE
  5
1F7
  8
L
 10
-1.254395
 20
0.933881
 30
0.0
 11
-1.207605
 21
0.871432
 31
0.0
  0
LINE
  5
1F8
  8
L
 10
-0.649303
 20
1.090509
 30
0.0
 11
-0.649303
 21
0.815509
 31
0.0
  0
LINE
  5
1F9
  8
L
 10
-0.769821
 20
0.954972
 30
0.0
 11
-0.769546
 21
0.815509
 31
0.0
  0
LINE
  5
1FA
  8
L
 10
-0.832321
 20
0.954972
 30
0.0
 11
-0.832046
 21
0.815509
 31
0.0
  0
LINE
  5
1FB
  8
L
 10
-0.862356
 20
0.925045
 30
0.0
 11
-0.86232
 21
0.815509
 31
0.0
  0
LINE
  5
1FC
  8
L
 10
-0.924842
 20
0.882125
 30
0.0
 11
-0.95648
 21
0.816594
 31
0.0
  0
LINE
  5
1FD
  8
L
 10
-0.924842
 20
0.882125
 30
0.0
 11
-0.92482
 21
0.815509
 31
0.0
  0
LINE
  5
1FE
  8
L
 10
-0.862356
 20
0.925045
 30
0.0
 11
-0.86232
 21
0.815581
 31
0.0
  0
LINE
  5
1FF
  8
L
 10
-0.832046
 20
0.815509
 30
0.0
 11
-0.769546
 21
0.815509
 31
0.0
  0
LINE
  5
200
  8
L
 10
-0.92482
 20
0.815509
 30
0.0
 11
-0.86232
 21
0.815509
 31
0.0
  0
ARC
  5
201
  8
L
 10
-0.752784
 20
0.954972
 30
0.0
 40
0.079538
 50
18.846034
 51
180.226252
  0
LINE
  5
202
  8
L
 10
-0.67751
 20
0.980665
 30
0.0
 11
-0.719905
 21
0.957011
 31
0.0
  0
ARC
  5
203
  8
L
 10
-0.744821
 20
0.954972
 30
0.0
 40
0.025
 50
4.679095
 51
180.226252
  0
ARC
  5
204
  8
L
 10
-0.220516
 20
0.925009
 30
0.0
 40
0.1095
 50
30.701399
 51
270.0
  0
ARC
  5
205
  8
L
 10
-0.450597
 20
0.925009
 30
0.0
 40
0.05625
 50
235.5219
 51
332.233922
  0
LINE
  5
206
  8
L
 10
-0.586803
 20
1.090509
 30
0.0
 11
-0.586803
 21
0.815509
 31
0.0
  0
ARC
  5
207
  8
L
 10
-0.450597
 20
0.925009
 30
0.0
 40
0.1095
 50
14.507251
 51
328.258317
  0
ARC
  5
208
  8
L
 10
-0.450597
 20
0.925009
 30
0.0
 40
0.05625
 50
64.071476
 51
172.253555
  0
LINE
  5
209
  8
L
 10
-0.426002
 20
0.975597
 30
0.0
 11
-0.506333
 21
0.932591
 31
0.0
  0
LINE
  5
20A
  8
L
 10
-0.344588
 20
0.952439
 30
0.0
 11
-0.482439
 21
0.87864
 31
0.0
  0
LINE
  5
20B
  8
L
 10
-0.400824
 20
0.898805
 30
0.0
 11
-0.357475
 21
0.867402
 31
0.0
  0
LINE
  5
20C
  8
L
 10
-0.08365
 20
0.868759
 30
0.0
 11
-0.111191
 21
0.815509
 31
0.0
  0
LINE
  5
20D
  8
L
 10
-0.220516
 20
0.815509
 30
0.0
 11
-0.111191
 21
0.815509
 31
0.0
  0
LINE
  5
20E
  8
L
 10
-0.220516
 20
0.868759
 30
0.0
 11
-0.08365
 21
0.868759
 31
0.0
  0
LINE
  5
20F
  8
L
 10
-0.126363
 20
0.980916
 30
0.0
 11
-0.175875
 21
0.959233
 31
0.0
  0
ARC
  5
210
  8
L
 10
-0.220516
 20
0.925009
 30
0.0
 40
0.05625
 50
37.476042
 51
270.0
  0
TEXT
  5
211
  8
0
 10
-1.213593
 20
0.62252
 30
0.0
 40
0.125
  1
C50-01MT1
  0
LINE
  5
212
  8
D
 10
1.5
 20
2.377682
 30
0.0
 11
1.5
 21
1.380345
 31
0.0
  0
SOLID
  5
213
  8
D
 10
-0.11756
 20
-0.308533
 30
0.0
 11
-0.083564
 21
-0.287457
 31
0.0
 12
-0.163792
 22
-0.196005
 32
0.0
 13
-0.163792
 23
-0.196005
 33
0.0
  0
LINE
  5
214
  8
D
 10
-0.100562
 20
-0.297995
 30
0.0
 11
1.23714
 21
-2.455701
 31
0.0
  0
LINE
  5
215
  8
D
 10
1.23714
 20
-2.455701
 30
0.0
 11
1.45083
 21
-2.455701
 31
0.0
  0
TEXT
  5
216
  8
D
 10
1.54083
 20
-2.518201
 30
0.0
 40
0.125
  1
#1 MORSE TAPER
 11
1.54083
 21
-2.455701
 31
0.0
 73
     2
  0
LINE
  5
6DB
  8
01MT_3$0$H
 10
1.44
 20
0.236004
 30
0.0
 11
-0.284282
 21
0.193
 31
0.0
  0
LINE
  5
6DC
  8
01MT_3$0$H
 10
1.44
 20
-0.236004
 30
0.0
 11
-0.284282
 21
-0.193
 31
0.0
  0
LINE
  5
6DD
  8
01MT_3$0$H
 10
1.44
 20
-0.236004
 30
0.0
 11
1.44
 21
0.236004
 31
0.0
  0
LINE
  5
6DE
  8
01MT_3$0$H
 10
1.44
 20
0.236004
 30
0.0
 11
1.5
 21
0.270645
 31
0.0
  0
LINE
  5
6DF
  8
01MT_3$0$H
 10
1.44
 20
-0.236004
 30
0.0
 11
1.5
 21
-0.270645
 31
0.0
  0
LINE
  5
6E0
  8
01MT_3$0$H
 10
-0.687282
 20
0.193
 30
0.0
 11
-0.734914
 21
0.1105
 31
0.0
  0
LINE
  5
6E1
  8
01MT_3$0$H
 10
-0.687282
 20
0.1105
 30
0.0
 11
-0.687282
 21
0.193
 31
0.0
  0
LINE
  5
6E2
  8
01MT_3$0$H
 10
-0.687282
 20
-0.193
 30
0.0
 11
-0.734914
 21
-0.1105
 31
0.0
  0
LINE
  5
6E3
  8
01MT_3$0$H
 10
-0.687282
 20
-0.1105
 30
0.0
 11
-0.687282
 21
-0.193
 31
0.0
  0
LINE
  5
6E4
  8
01MT_3$0$L
 10
1.5
 20
0.0
 30
0.0
 11
1.5
 21
0.37
 31
0.0
  0
LINE
  5
6E5
  8
01MT_3$0$L
 10
1.5
 20
-1.25
 30
0.0
 11
1.5
 21
1.25
 31
0.0
  0
LINE
  5
6E6
  8
01MT_3$0$H
 10
-0.687282
 20
0.193
 30
0.0
 11
-0.284282
 21
0.193
 31
0.0
  0
LINE
  5
6E7
  8
01MT_3$0$H
 10
-0.687282
 20
-0.193
 30
0.0
 11
-0.284282
 21
-0.193
 31
0.0
  0
LINE
  5
6E8
  8
01MT_3$0$H
 10
-0.284282
 20
0.193
 30
0.0
 11
-0.284282
 21
-0.193
 31
0.0
  0
TEXT
  5
6E9
  8
01MT_3$0$D
 10
1.962378
 20
-0.088718
 30
0.0
 40
0.125
  1
.475
  7
01MT_3$0$STANDARD
 72
     4
 11
2.149878
 21
-0.026218
 31
0.0
  0
LINE
  5
6EA
  8
01MT_3$0$D
 10
1.5625
 20
-0.2375
 30
0.0
 11
2.238678
 21
-0.2375
 31
0.0
  0
SOLID
  5
6EB
  8
01MT_3$0$D
 10
2.168678
 20
-0.1175
 30
0.0
 11
2.208678
 21
-0.1175
 31
0.0
 12
2.188678
 22
-0.2375
 32
0.0
 13
2.188678
 23
-0.2375
 33
0.0
  0
SOLID
  5
6EC
  8
01MT_3$0$D
 10
2.168678
 20
0.1175
 30
0.0
 11
2.208678
 21
0.1175
 31
0.0
 12
2.188678
 22
0.2375
 32
0.0
 13
2.188678
 23
0.2375
 33
0.0
  0
LINE
  5
6ED
  8
01MT_3$0$D
 10
2.188678
 20
0.1175
 30
0.0
 11
2.188678
 21
0.058887
 31
0.0
  0
LINE
  5
6EE
  8
01MT_3$0$D
 10
1.5625
 20
0.2375
 30
0.0
 11
2.238678
 21
0.2375
 31
0.0
  0
LINE
  5
6EF
  8
01MT_3$0$L
 10
-1.201
 20
-0.1105
 30
0.0
 11
-0.669
 21
-0.1105
 31
0.0
  0
ARC
  5
6F0
  8
01MT_3$0$L
 10
-1.201
 20
0.0
 30
0.0
 40
0.1105
 50
90.0
 51
270.0
  0
LINE
  5
6F1
  8
01MT_3$0$L
 10
-1.201
 20
0.1105
 30
0.0
 11
-0.669
 21
0.1105
 31
0.0
  0
LINE
  5
6F2
  8
01MT_3$0$L
 10
-1.201
 20
0.1105
 30
0.0
 11
-1.201
 21
0.1105
 31
0.0
  0
ARC
  5
6F3
  8
01MT_3$0$L
 10
-0.669
 20
0.0
 30
0.0
 40
0.1105
 50
270.0
 51
90.0
  0
ARC
  5
6F4
  8
01MT_3$0$L
 10
-0.669
 20
0.0
 30
0.0
 40
0.21875
 50
270.0
 51
90.0
  0
LINE
  5
6F5
  8
01MT_3$0$L
 10
-1.201
 20
0.21875
 30
0.0
 11
-0.669
 21
0.21875
 31
0.0
  0
ARC
  5
6F6
  8
01MT_3$0$L
 10
-1.201
 20
0.0
 30
0.0
 40
0.21875
 50
90.0
 51
270.0
  0
LINE
  5
6F7
  8
01MT_3$0$L
 10
-1.201
 20
-0.21875
 30
0.0
 11
-0.669
 21
-0.21875
 31
0.0
  0
SOLID
  5
6F8
  8
01MT_3$0$README
 10
1.608604
 20
-0.05482
 30
0.0
 11
1.620513
 21
-0.016634
 31
0.0
 12
1.5
 22
0.0
 32
0.0
 13
1.5
 23
0.0
 33
0.0
  0
LINE
  5
6F9
  8
01MT_3$0$README
 10
1.614558
 20
-0.035727
 30
0.0
 11
4.324183
 21
-0.880778
 31
0.0
  0
LINE
  5
6FA
  8
01MT_3$0$README
 10
4.324183
 20
-0.880778
 30
0.0
 11
4.577806
 21
-0.880778
 31
0.0
  0
TEXT
  5
6FB
  8
01MT_3$0$README
 10
4.667806
 20
-1.005778
 30
0.0
 40
0.25
  1
POINT 0,0
  7
01MT_3$0$STANDARD
 11
4.667806
 21
-0.880778
 31
0.0
 73
     2
  0
TEXT
  5
6FC
  8
01MT_3$0$README
 10
5.995106
 20
-6.708144
 30
0.0
 40
0.25
  1
S:\XREF\01MT_3
  7
01MT_3$0$STANDARD
  0
LINE
  5
6FD
  8
01MT_3$0$D
 10
3.296705
 20
1.375
 30
0.0
 11
3.296705
 21
0.1525
 31
0.0
  0
LINE
  5
6FE
  8
01MT_3$0$D
 10
3.296705
 20
-1.375
 30
0.0
 11
3.296705
 21
-0.1525
 31
0.0
  0
SOLID
  5
6FF
  8
01MT_3$0$D
 10
3.276705
 20
1.255
 30
0.0
 11
3.316705
 21
1.255
 31
0.0
 12
3.296705
 22
1.375
 32
0.0
 13
3.296705
 23
1.375
 33
0.0
  0
SOLID
  5
700
  8
01MT_3$0$D
 10
3.276705
 20
-1.255
 30
0.0
 11
3.316705
 21
-1.255
 31
0.0
 12
3.296705
 22
-1.375
 32
0.0
 13
3.296705
 23
-1.375
 33
0.0
  0
TEXT
  5
701
  8
01MT_3$0$D
 10
3.109205
 20
-0.0625
 30
0.0
 40
0.125
  1
2.75
  7
01MT_3$0$STANDARD
 72
     4
 11
3.296705
 21
0.0
 31
0.0
  0
LINE
  5
702
  8
01MT_3$0$L
 10
1.5
 20
1.25
 30
0.0
 11
1.375
 21
1.375
 31
0.0
  0
LINE
  5
703
  8
01MT_3$0$L
 10
1.375
 20
1.375
 30
0.0
 11
1.190253
 21
1.375
 31
0.0
  0
LINE
  5
704
  8
01MT_3$0$D
 10
1.558037
 20
1.375
 30
0.0
 11
3.346705
 21
1.375
 31
0.0
  0
LINE
  5
705
  8
01MT_3$0$L
 10
1.5
 20
-1.25
 30
0.0
 11
1.375
 21
-1.375
 31
0.0
  0
LINE
  5
706
  8
01MT_3$0$L
 10
1.375
 20
-1.375
 30
0.0
 11
1.190253
 21
-1.375
 31
0.0
  0
LINE
  5
707
  8
01MT_3$0$L
 10
1.375
 20
-1.375
 30
0.0
 11
1.375
 21
1.375
 31
0.0
  0
LINE
  5
708
  8
01MT_3$0$D
 10
1.55312
 20
-1.375
 30
0.0
 11
3.346705
 21
-1.375
 31
0.0
  0
INSERT
  5
709
  8
01MT_3$0$D
  2
01MT_3$0$P001
 10
2.319334
 20
0.069749
 30
0.0
  0
LINE
  5
70A
  8
C50_2$0$L
 10
0.72
 20
-1.9375
 30
0.0
 11
0.72
 21
-0.51
 31
0.0
  0
LINE
  5
70B
  8
C50_2$0$L
 10
0.75
 20
0.0
 30
0.0
 11
0.75
 21
-1.9075
 31
0.0
  0
LINE
  5
70C
  8
C50_2$0$L
 10
1.033675
 20
-1.375
 30
0.0
 11
0.78
 21
-1.375
 31
0.0
  0
LINE
  5
70D
  8
C50_2$0$L
 10
0.72
 20
-1.9375
 30
0.0
 11
0.75
 21
-1.9075
 31
0.0
  0
ARC
  5
70E
  8
C50_2$0$L
 10
0.78
 20
-1.405
 30
0.0
 40
0.03
 50
90.0
 51
180.0
  0
LINE
  5
70F
  8
C50_2$0$L
 10
0.75
 20
0.0
 30
0.0
 11
0.75
 21
1.9075
 31
0.0
  0
LINE
  5
710
  8
C50_2$0$L
 10
0.72
 20
1.9375
 30
0.0
 11
0.72
 21
0.51
 31
0.0
  0
LINE
  5
711
  8
C50_2$0$L
 10
0.78
 20
1.375
 30
0.0
 11
1.033675
 21
1.375
 31
0.0
  0
ARC
  5
712
  8
C50_2$0$L
 10
0.78
 20
1.405
 30
0.0
 40
0.03
 50
180.0
 51
270.0
  0
LINE
  5
713
  8
C50_2$0$L
 10
0.72
 20
1.9375
 30
0.0
 11
0.75
 21
1.9075
 31
0.0
  0
LINE
  5
715
  8
C50_2$0$L
 10
0.695204
 20
0.51
 30
0.0
 11
0.75
 21
0.51
 31
0.0
  0
LINE
  5
716
  8
C50_2$0$L
 10
0.695204
 20
-0.51
 30
0.0
 11
0.75
 21
-0.51
 31
0.0
  0
LINE
  5
717
  8
C50_BASE$0$L
 10
0.0
 20
0.0
 30
0.0
 11
0.0
 21
-1.375
 31
0.0
  0
LINE
  5
718
  8
C50_BASE$0$L
 10
0.0
 20
-1.375
 30
0.0
 11
-3.897317
 21
-0.806641
 31
0.0
  0
LINE
  5
719
  8
C50_BASE$0$L
 10
0.0
 20
-1.375
 30
0.0
 11
0.105
 21
-1.375
 31
0.0
  0
ARC
  5
71A
  8
C50_BASE$0$L
 10
-3.88241
 20
0.69
 30
0.0
 40
0.11759
 50
97.282949
 51
180.0
  0
LINE
  5
71B
  8
C50_BASE$0$H
 10
-4.0
 20
0.5625
 30
0.0
 11
-3.918594
 21
0.5155
 31
0.0
  0
LINE
  5
71C
  8
C50_BASE$0$H
 10
-4.0
 20
-0.5625
 30
0.0
 11
-3.918594
 21
-0.5155
 31
0.0
  0
ARC
  5
71D
  8
C50_BASE$0$L
 10
-3.88241
 20
-0.69
 30
0.0
 40
0.11759
 50
180.0
 51
262.717051
  0
LINE
  5
71E
  8
C50_BASE$0$L
 10
-4.0
 20
-0.69
 30
0.0
 11
-4.0
 21
0.69
 31
0.0
  0
LINE
  5
71F
  8
C50_BASE$0$L
 10
0.0
 20
1.375
 30
0.0
 11
-3.897317
 21
0.806641
 31
0.0
  0
LINE
  5
720
  8
C50_BASE$0$H
 10
-3.75
 20
-0.5
 30
0.0
 11
-2.25
 21
-0.5
 31
0.0
  0
LINE
  5
721
  8
C50_BASE$0$H
 10
-3.75
 20
-0.4375
 30
0.0
 11
-2.25
 21
-0.4375
 31
0.0
  0
LINE
  5
722
  8
C50_BASE$0$H
 10
-3.75
 20
0.4375
 30
0.0
 11
-2.25
 21
0.4375
 31
0.0
  0
LINE
  5
723
  8
C50_BASE$0$H
 10
-3.75
 20
0.5
 30
0.0
 11
-2.25
 21
0.5
 31
0.0
  0
LINE
  5
724
  8
C50_BASE$0$H
 10
-3.918594
 20
0.5155
 30
0.0
 11
-3.918594
 21
-0.0025
 31
0.0
  0
LINE
  5
725
  8
C50_BASE$0$H
 10
-3.75
 20
0.0
 30
0.0
 11
-3.75
 21
0.5155
 31
0.0
  0
LINE
  5
726
  8
C50_BASE$0$H
 10
-3.75
 20
0.0
 30
0.0
 11
-3.75
 21
-0.5155
 31
0.0
  0
LINE
  5
727
  8
C50_BASE$0$H
 10
-3.918594
 20
-0.5155
 30
0.0
 11
-3.918594
 21
0.0025
 31
0.0
  0
LINE
  5
728
  8
C50_BASE$0$H
 10
-3.918594
 20
-0.5155
 30
0.0
 11
-3.75
 21
-0.5155
 31
0.0
  0
LINE
  5
729
  8
C50_BASE$0$H
 10
-3.918594
 20
0.5155
 30
0.0
 11
-3.75
 21
0.5155
 31
0.0
  0
LINE
  5
72A
  8
C50_BASE$0$H
 10
-2.25
 20
0.5
 30
0.0
 11
-2.25
 21
-0.5
 31
0.0
  0
LINE
  5
72B
  8
C50_BASE$0$L
 10
0.0
 20
0.0
 30
0.0
 11
0.0
 21
1.375
 31
0.0
  0
CIRCLE
  5
72C
  8
C50_BASE$0$L
 10
0.44
 20
0.0
 30
0.0
 40
0.1875
  0
LINE
  5
72D
  8
C50_BASE$0$L
 10
0.125
 20
0.51
 30
0.0
 11
0.695204
 21
0.51
 31
0.0
  0
LINE
  5
72E
  8
C50_BASE$0$L
 10
0.0
 20
1.375
 30
0.0
 11
0.105
 21
1.375
 31
0.0
  0
POINT
  5
72F
  8
DEFPOINTS
  6
BYBLOCK
 62
     0
 10
0.0
 20
1.375
 30
0.0
  0
POINT
  5
730
  8
DEFPOINTS
  6
BYBLOCK
 62
     0
 10
0.0
 20
-1.375
 30
0.0
  0
POINT
  5
731
  8
DEFPOINTS
  6
BYBLOCK
 62
     0
 10
0.0
 20
1.375
 30
0.0
  0
LINE
  5
732
  8
C50_BASE$0$L
 10
0.125
 20
-1.9075
 30
0.0
 11
0.125
 21
1.9075
 31
0.0
  0
LINE
  5
733
  8
C50_BASE$0$L
 10
0.5155
 20
0.51
 30
0.0
 11
0.5155
 21
1.827515
 31
0.0
  0
LINE
  5
734
  8
C50_BASE$0$L
 10
0.3645
 20
0.51
 30
0.0
 11
0.3645
 21
1.827515
 31
0.0
  0
LINE
  5
735
  8
C50_BASE$0$L
 10
0.579
 20
0.51
 30
0.0
 11
0.579
 21
1.9375
 31
0.0
  0
LINE
  5
736
  8
C50_BASE$0$L
 10
0.301
 20
0.51
 30
0.0
 11
0.301
 21
1.9375
 31
0.0
  0
LINE
  5
737
  8
C50_BASE$0$L
 10
0.579
 20
1.9375
 30
0.0
 11
0.5155
 21
1.827515
 31
0.0
  0
LINE
  5
738
  8
C50_BASE$0$L
 10
0.301
 20
1.9375
 30
0.0
 11
0.3645
 21
1.827515
 31
0.0
  0
LINE
  5
739
  8
C50_BASE$0$L
 10
0.579
 20
1.9375
 30
0.0
 11
0.72
 21
1.9375
 31
0.0
  0
LINE
  5
73A
  8
C50_BASE$0$L
 10
0.301
 20
1.9375
 30
0.0
 11
0.155
 21
1.9375
 31
0.0
  0
LINE
  5
73B
  8
C50_BASE$0$L
 10
0.155
 20
0.51
 30
0.0
 11
0.155
 21
1.9375
 31
0.0
  0
LINE
  5
73C
  8
C50_BASE$0$L
 10
0.125
 20
1.9075
 30
0.0
 11
0.155
 21
1.9375
 31
0.0
  0
LINE
  5
73D
  8
C50_BASE$0$L
 10
0.5155
 20
1.797
 30
0.0
 11
0.3645
 21
1.797
 31
0.0
  0
ARC
  5
73E
  8
C50_BASE$0$L
 10
0.105
 20
1.395
 30
0.0
 40
0.02
 50
270.0
 51
0.0
  0
LINE
  5
73F
  8
C50_BASE$0$L
 10
0.579
 20
-0.51
 30
0.0
 11
0.579
 21
-1.9375
 31
0.0
  0
LINE
  5
740
  8
C50_BASE$0$L
 10
0.5155
 20
-0.51
 30
0.0
 11
0.5155
 21
-1.827515
 31
0.0
  0
LINE
  5
741
  8
C50_BASE$0$L
 10
0.3645
 20
-0.51
 30
0.0
 11
0.3645
 21
-1.827515
 31
0.0
  0
LINE
  5
742
  8
C50_BASE$0$L
 10
0.301
 20
-0.51
 30
0.0
 11
0.301
 21
-1.9375
 31
0.0
  0
LINE
  5
743
  8
C50_BASE$0$L
 10
0.155
 20
-0.51
 30
0.0
 11
0.155
 21
-1.9375
 31
0.0
  0
LINE
  5
744
  8
C50_BASE$0$L
 10
0.579
 20
-1.9375
 30
0.0
 11
0.72
 21
-1.9375
 31
0.0
  0
LINE
  5
745
  8
C50_BASE$0$L
 10
0.301
 20
-1.9375
 30
0.0
 11
0.3645
 21
-1.827515
 31
0.0
  0
LINE
  5
746
  8
C50_BASE$0$L
 10
0.579
 20
-1.9375
 30
0.0
 11
0.5155
 21
-1.827515
 31
0.0
  0
LINE
  5
747
  8
C50_BASE$0$L
 10
0.301
 20
-1.9375
 30
0.0
 11
0.155
 21
-1.9375
 31
0.0
  0
LINE
  5
748
  8
C50_BASE$0$L
 10
0.125
 20
-1.9075
 30
0.0
 11
0.155
 21
-1.9375
 31
0.0
  0
LINE
  5
749
  8
C50_BASE$0$L
 10
0.5155
 20
-1.797
 30
0.0
 11
0.3645
 21
-1.797
 31
0.0
  0
LINE
  5
74A
  8
C50_BASE$0$L
 10
0.125
 20
-0.51
 30
0.0
 11
0.695204
 21
-0.51
 31
0.0
  0
ARC
  5
74B
  8
C50_BASE$0$L
 10
0.105
 20
-1.395
 30
0.0
 40
0.02
 50
0.0
 51
90.0
  0
SOLID
  5
74C
  8
C50_BASE$0$D
 10
-0.371748
 20
1.44279
 30
0.0
 11
-0.408045
 21
1.425982
 31
0.0
 12
-0.339474
 22
1.325493
 32
0.0
 13
-0.339474
 23
1.325493
 33
0.0
  0
LINE
  5
74D
  8
C50_BASE$0$D
 10
-0.389896
 20
1.434386
 30
0.0
 11
-1.092609
 21
2.951982
 31
0.0
  0
LINE
  5
74E
  8
C50_BASE$0$D
 10
-1.092609
 20
2.951982
 30
0.0
 11
-1.225138
 21
2.951982
 31
0.0
  0
TEXT
  5
74F
  8
C50_BASE$0$D
 10
-2.677478
 20
2.903767
 30
0.0
 40
0.125
  1
50 V-FLANGE
  7
C50_BASE$0$STANDARD
 72
     2
 11
-1.323312
 21
2.966267
 31
0.0
 73
     2
  0
TEXT
  5
750
  8
C50_BASE$0$D
 10
-3.030563
 20
2.905161
 30
0.0
 40
0.09
  1
CAT
  7
C50_BASE$0$STANDARD
 72
     2
 11
-2.790563
 21
2.950161
 31
0.0
 73
     2
  0
ENDSEC
  0
EOF
