  0
SECTION
  2
HEADER
  9
$ACADVER
  1
AC1009
  9
$INSBASE
 10
0.0
 20
0.0
 30
0.0
  9
$EXTMIN
 10
-4.0
 20
-4.231922
 30
0.0
  9
$EXTMAX
 10
10.243115
 20
4.236324
 30
0.0
  9
$LIMMIN
 10
0.0
 20
0.0
  9
$LIMMAX
 10
12.0
 20
9.0
  9
$ORTHOMODE
 70
     1
  9
$REGENMODE
 70
     1
  9
$FILLMODE
 70
     1
  9
$QTEXTMODE
 70
     0
  9
$MIRRTEXT
 70
     1
  9
$DRAGMODE
 70
     2
  9
$LTSCALE
 40
0.35
  9
$OSMODE
 70
   165
  9
$ATTMODE
 70
     1
  9
$TEXTSIZE
 40
0.125
  9
$TRACEWID
 40
0.05
  9
$TEXTSTYLE
  7
STANDARD
  9
$CLAYER
  8
L
  9
$CELTYPE
  6
BYLAYER
  9
$CECOLOR
 62
   256
  9
$DIMSCALE
 40
1.0
  9
$DIMASZ
 40
0.12
  9
$DIMEXO
 40
0.0625
  9
$DIMDLI
 40
0.38
  9
$DIMRND
 40
0.0
  9
$DIMDLE
 40
0.0
  9
$DIMEXE
 40
0.05
  9
$DIMTP
 40
0.0
  9
$DIMTM
 40
0.0
  9
$DIMTXT
 40
0.125
  9
$DIMCEN
 40
0.09
  9
$DIMTSZ
 40
0.0
  9
$DIMTOL
 70
     0
  9
$DIMLIM
 70
     0
  9
$DIMTIH
 70
     1
  9
$DIMTOH
 70
     1
  9
$DIMSE1
 70
     0
  9
$DIMSE2
 70
     0
  9
$DIMTAD
 70
     0
  9
$DIMZIN
 70
     0
  9
$DIMBLK
  1

  9
$DIMASO
 70
     1
  9
$DIMSHO
 70
     1
  9
$DIMPOST
  1

  9
$DIMAPOST
  1

  9
$DIMALT
 70
     0
  9
$DIMALTD
 70
     2
  9
$DIMALTF
 40
25.4
  9
$DIMLFAC
 40
1.0
  9
$DIMTOFL
 70
     0
  9
$DIMTVP
 40
0.0
  9
$DIMTIX
 70
     0
  9
$DIMSOXD
 70
     0
  9
$DIMSAH
 70
     0
  9
$DIMBLK1
  1

  9
$DIMBLK2
  1

  9
$DIMSTYLE
  2
5P
  9
$DIMCLRD
 70
     0
  9
$DIMCLRE
 70
     0
  9
$DIMCLRT
 70
     0
  9
$DIMTFAC
 40
1.0
  9
$DIMGAP
 40
0.09
  9
$LUNITS
 70
     2
  9
$LUPREC
 70
     3
  9
$SKETCHINC
 40
0.1
  9
$FILLETRAD
 40
0.03
  9
$AUNITS
 70
     1
  9
$AUPREC
 70
     0
  9
$MENU
  1
acad
  9
$ELEVATION
 40
0.0
  9
$PELEVATION
 40
0.0
  9
$THICKNESS
 40
0.0
  9
$LIMCHECK
 70
     0
  9
$BLIPMODE
 70
     0
  9
$CHAMFERA
 40
0.0
  9
$CHAMFERB
 40
0.0
  9
$SKPOLY
 70
     0
  9
$TDCREATE
 40
2449857.546201
  9
$TDUPDATE
 40
2450910.453111
  9
$TDINDWG
 40
0.16393
  9
$TDUSRTIMER
 40
0.16393
  9
$USRTIMER
 70
     1
  9
$ANGBASE
 50
0.0
  9
$ANGDIR
 70
     0
  9
$PDMODE
 70
     0
  9
$PDSIZE
 40
0.0
  9
$PLINEWID
 40
0.0
  9
$COORDS
 70
     1
  9
$SPLFRAME
 70
     0
  9
$SPLINETYPE
 70
     6
  9
$SPLINESEGS
 70
     8
  9
$ATTDIA
 70
     1
  9
$ATTREQ
 70
     1
  9
$HANDLING
 70
     1
  9
$HANDSEED
  5
135E
  9
$SURFTAB1
 70
     6
  9
$SURFTAB2
 70
     6
  9
$SURFTYPE
 70
     6
  9
$SURFU
 70
     6
  9
$SURFV
 70
     6
  9
$UCSNAME
  2

  9
$UCSORG
 10
0.0
 20
0.0
 30
0.0
  9
$UCSXDIR
 10
1.0
 20
0.0
 30
0.0
  9
$UCSYDIR
 10
0.0
 20
1.0
 30
0.0
  9
$PUCSNAME
  2

  9
$PUCSORG
 10
0.0
 20
0.0
 30
0.0
  9
$PUCSXDIR
 10
1.0
 20
0.0
 30
0.0
  9
$PUCSYDIR
 10
0.0
 20
1.0
 30
0.0
  9
$USERI1
 70
     0
  9
$USERI2
 70
     0
  9
$USERI3
 70
     0
  9
$USERI4
 70
     0
  9
$USERI5
 70
     0
  9
$USERR1
 40
0.0
  9
$USERR2
 40
0.0
  9
$USERR3
 40
0.0
  9
$USERR4
 40
0.0
  9
$USERR5
 40
0.0
  9
$WORLDVIEW
 70
     1
  9
$SHADEDGE
 70
     3
  9
$SHADEDIF
 70
    70
  9
$TILEMODE
 70
     1
  9
$MAXACTVP
 70
    16
  9
$PLIMCHECK
 70
     0
  9
$PEXTMIN
 10
1.000000E+020
 20
1.000000E+020
 30
1.000000E+020
  9
$PEXTMAX
 10
-1.000000E+020
 20
-1.000000E+020
 30
-1.000000E+020
  9
$PLIMMIN
 10
0.0
 20
0.0
  9
$PLIMMAX
 10
12.0
 20
9.0
  9
$UNITMODE
 70
     0
  9
$VISRETAIN
 70
     1
  9
$PLINEGEN
 70
     0
  9
$PSLTSCALE
 70
     1
  0
ENDSEC
  0
SECTION
  2
TABLES
  0
TABLE
  2
VPORT
 70
     2
  0
VPORT
  2
*ACTIVE
 70
     0
 10
0.0
 20
0.0
 11
1.0
 21
1.0
 12
3.110718
 22
0.25398
 13
0.0
 23
0.0
 14
2.0
 24
2.0
 15
0.0
 25
0.0
 16
0.0
 26
0.0
 36
1.0
 17
0.0
 27
0.0
 37
0.0
 40
9.065954
 41
1.605903
 42
50.0
 43
0.0
 44
0.0
 50
0.0
 51
0.0
 71
     0
 72
 20000
 73
     1
 74
     0
 75
     0
 76
     0
 77
     0
 78
     0
  0
ENDTAB
  0
TABLE
  2
LTYPE
 70
     5
  0
LTYPE
  2
CONTINUOUS
 70
     0
  3
Solid line
 72
    65
 73
     0
 40
0.0
  0
LTYPE
  2
HIDDEN
 70
     0
  3
__ __ __ __ __ __ __ __ __ __ __ __ __ __ __ __
 72
    65
 73
     2
 40
0.375
 49
0.25
 49
-0.125
  0
LTYPE
  2
C50_BASE$0$HIDDEN
 70
     0
  3
__ __ __ __ __ __ __ __ __ __ __ __ __ __ __ __
 72
    65
 73
     2
 40
0.375
 49
0.25
 49
-0.125
  0
LTYPE
  2
CENTER
 70
     0
  3
Center ____ _ ____ _ ____ _ ____ _ ____ _ ____
 72
    65
 73
     4
 40
2.0
 49
1.25
 49
-0.25
 49
0.25
 49
-0.25
  0
LTYPE
  2
PHANTOM
 70
     0
  3
Phantom ______  __  __  ______  __  __  ______
 72
    65
 73
     6
 40
2.5
 49
1.25
 49
-0.25
 49
0.25
 49
-0.25
 49
0.25
 49
-0.25
  0
ENDTAB
  0
TABLE
  2
LAYER
 70
    22
  0
LAYER
  2
0
 70
     0
 62
     7
  6
CONTINUOUS
  0
LAYER
  2
D
 70
     0
 62
     7
  6
CONTINUOUS
  0
LAYER
  2
H
 70
     0
 62
     4
  6
HIDDEN
  0
LAYER
  2
L
 70
     0
 62
     5
  6
CONTINUOUS
  0
LAYER
  2
DEFPOINTS
 70
     0
 62
    -7
  6
CONTINUOUS
  0
LAYER
  2
C50_1$0$D
 70
     0
 62
     7
  6
CONTINUOUS
  0
LAYER
  2
C50_1$0$L
 70
     0
 62
     5
  6
CONTINUOUS
  0
LAYER
  2
C50_BASE$0$D
 70
     0
 62
     7
  6
CONTINUOUS
  0
LAYER
  2
C50_BASE$0$H
 70
     0
 62
     4
  6
C50_BASE$0$HIDDEN
  0
LAYER
  2
C50_BASE$0$L
 70
     0
 62
     5
  6
CONTINUOUS
  0
LAYER
  2
DIM_ATT
 70
     0
 62
     7
  6
CONTINUOUS
  0
LAYER
  2
OBJECT
 70
     0
 62
     1
  6
CONTINUOUS
  0
LAYER
  2
LINE
 70
     0
 62
     3
  6
CONTINUOUS
  0
LAYER
  2
HIDDEN
 70
     0
 62
     3
  6
HIDDEN
  0
LAYER
  2
HIDOB
 70
     0
 62
     7
  6
HIDDEN
  0
LAYER
  2
F
 70
     0
 62
    13
  6
CONTINUOUS
  0
LAYER
  2
C
 70
     0
 62
     1
  6
CENTER
  0
LAYER
  2
P
 70
     0
 62
     2
  6
PHANTOM
  0
LAYER
  2
S
 70
     0
 62
     6
  6
CONTINUOUS
  0
LAYER
  2
AM_TR
 70
     0
 62
     7
  6
CONTINUOUS
  0
LAYER
  2
AM_BM
 70
     0
 62
     7
  6
CONTINUOUS
  0
LAYER
  2
AM_BL
 70
     0
 62
     7
  6
CONTINUOUS
  0
ENDTAB
  0
TABLE
  2
STYLE
 70
     2
  0
STYLE
  2
STANDARD
 70
     0
 40
0.0
 41
1.0
 50
0.0
 71
     0
 42
0.125
  3
txt
  4

  0
STYLE
  2
C50_BASE$0$STANDARD
 70
     0
 40
0.0
 41
1.0
 50
0.0
 71
     0
 42
0.075
  3
txt
  4

  0
ENDTAB
  0
TABLE
  2
VIEW
 70
     0
  0
ENDTAB
  0
TABLE
  2
UCS
 70
     0
  0
ENDTAB
  0
TABLE
  2
APPID
 70
     3
  0
APPID
  2
ACAD
 70
     0
  0
APPID
  2
MCAD_NO_VIS
 70
     0
  0
APPID
  2
ACAD_TEMP_GRAPHIC
 70
     0
  0
ENDTAB
  0
TABLE
  2
DIMSTYLE
 70
     7
  0
DIMSTYLE
  2
PARLEC
 70
     0
  3

  4

  5

  6

  7

 40
1.0
 41
0.12
 42
0.0625
 43
0.38
 44
0.05
 45
0.0
 46
0.0
 47
0.0
 48
0.0
140
0.125
141
0.09
142
0.0
143
25.4
144
1.0
145
0.0
146
1.0
147
0.09
 71
     0
 72
     0
 73
     1
 74
     1
 75
     0
 76
     0
 77
     0
 78
     0
170
     0
171
     2
172
     0
173
     0
174
     0
175
     0
176
     0
177
     0
178
     0
  0
DIMSTYLE
  2
0P
 70
     0
  3

  4

  5

  6

  7

 40
1.0
 41
0.12
 42
0.0625
 43
0.38
 44
0.05
 45
0.0
 46
0.0
 47
0.0
 48
0.0
140
0.125
141
0.09
142
0.0
143
25.4
144
1.0
145
0.0
146
1.0
147
0.09
 71
     0
 72
     0
 73
     1
 74
     1
 75
     0
 76
     0
 77
     0
 78
     0
170
     0
171
     2
172
     0
173
     0
174
     0
175
     0
176
     0
177
     0
178
     0
  0
DIMSTYLE
  2
1P
 70
     0
  3

  4

  5

  6

  7

 40
1.0
 41
0.12
 42
0.0625
 43
0.38
 44
0.05
 45
0.0
 46
0.0
 47
0.0
 48
0.0
140
0.125
141
0.09
142
0.0
143
25.4
144
1.0
145
0.0
146
1.0
147
0.09
 71
     0
 72
     0
 73
     1
 74
     1
 75
     0
 76
     0
 77
     0
 78
     0
170
     0
171
     2
172
     0
173
     0
174
     0
175
     0
176
     0
177
     0
178
     0
  0
DIMSTYLE
  2
2P
 70
     0
  3

  4

  5

  6

  7

 40
1.0
 41
0.12
 42
0.0625
 43
0.38
 44
0.05
 45
0.0
 46
0.0
 47
0.0
 48
0.0
140
0.125
141
0.09
142
0.0
143
25.4
144
1.0
145
0.0
146
1.0
147
0.09
 71
     0
 72
     0
 73
     1
 74
     1
 75
     0
 76
     0
 77
     0
 78
     0
170
     0
171
     2
172
     0
173
     0
174
     0
175
     0
176
     0
177
     0
178
     0
  0
DIMSTYLE
  2
3P
 70
     0
  3

  4

  5

  6

  7

 40
1.0
 41
0.12
 42
0.0625
 43
0.38
 44
0.05
 45
0.0
 46
0.0
 47
0.0
 48
0.0
140
0.125
141
0.09
142
0.0
143
25.4
144
1.0
145
0.0
146
1.0
147
0.09
 71
     0
 72
     0
 73
     1
 74
     1
 75
     0
 76
     0
 77
     0
 78
     0
170
     0
171
     2
172
     0
173
     0
174
     0
175
     0
176
     0
177
     0
178
     0
  0
DIMSTYLE
  2
4P
 70
     0
  3

  4

  5

  6

  7

 40
1.0
 41
0.12
 42
0.0625
 43
0.38
 44
0.05
 45
0.0
 46
0.0
 47
0.0
 48
0.0
140
0.125
141
0.09
142
0.0
143
25.4
144
1.0
145
0.0
146
1.0
147
0.09
 71
     0
 72
     0
 73
     1
 74
     1
 75
     0
 76
     0
 77
     0
 78
     0
170
     0
171
     2
172
     0
173
     0
174
     0
175
     0
176
     0
177
     0
178
     0
  0
DIMSTYLE
  2
5P
 70
     0
  3

  4

  5

  6

  7

 40
1.0
 41
0.12
 42
0.0625
 43
0.38
 44
0.05
 45
0.0
 46
0.0
 47
0.0
 48
0.0
140
0.125
141
0.09
142
0.0
143
25.4
144
1.0
145
0.0
146
1.0
147
0.09
 71
     0
 72
     0
 73
     1
 74
     1
 75
     0
 76
     0
 77
     0
 78
     0
170
     0
171
     2
172
     0
173
     0
174
     0
175
     0
176
     0
177
     0
178
     0
  0
ENDTAB
  0
ENDSEC
  0
SECTION
  2
BLOCKS
  0
BLOCK
  8
0
  2
$MODEL_SPACE
 70
     0
 10
0.0
 20
0.0
 30
0.0
  3
$MODEL_SPACE
  1

  0
ENDBLK
  5
F17
  8
0
  0
BLOCK
 67
     1
  8
0
  2
$PAPER_SPACE
 70
     0
 10
0.0
 20
0.0
 30
0.0
  3
$PAPER_SPACE
  1

  0
ENDBLK
  5
F15
 67
     1
  8
0
  0
BLOCK
  8
0
  6
CONTINUOUS
 62
     7
  2
C50_1
 70
     0
 10
0.0
 20
0.0
 30
0.0
  3
C50_1
  1
C50_1
  0
LINE
  5
BD4
  8
C50_1$0$L
 10
0.72
 20
-1.9375
 30
0.0
 11
0.75
 21
-1.9075
 31
0.0
  0
LINE
  5
BD5
  8
C50_1$0$L
 10
0.78
 20
1.375
 30
0.0
 11
1.287974
 21
1.375
 31
0.0
  0
ARC
  5
BD6
  8
C50_1$0$L
 10
0.78
 20
1.405
 30
0.0
 40
0.03
 50
180.0
 51
270.0
  0
LINE
  5
BD7
  8
C50_1$0$L
 10
0.75
 20
0.0
 30
0.0
 11
0.75
 21
1.907502
 31
0.0
  0
LINE
  5
BD8
  8
C50_1$0$L
 10
0.72
 20
0.51
 30
0.0
 11
0.72
 21
1.937502
 31
0.0
  0
LINE
  5
BD9
  8
C50_1$0$L
 10
0.72
 20
1.937502
 30
0.0
 11
0.75
 21
1.907502
 31
0.0
  0
LINE
  5
BDA
  8
C50_1$0$L
 10
0.75
 20
0.0
 30
0.0
 11
0.75
 21
-1.907502
 31
0.0
  0
LINE
  5
BDB
  8
C50_1$0$L
 10
0.72
 20
-0.51
 30
0.0
 11
0.72
 21
-1.937502
 31
0.0
  0
POINT
  5
BDC
  8
DEFPOINTS
  6
BYBLOCK
 62
     0
 10
0.75
 20
-1.907502
 30
0.0
  0
LINE
  5
BDD
  8
C50_1$0$L
 10
0.72
 20
-1.937502
 30
0.0
 11
0.75
 21
-1.907502
 31
0.0
  0
LINE
  5
BDE
  8
C50_1$0$L
 10
0.78
 20
-1.375
 30
0.0
 11
1.287974
 21
-1.375
 31
0.0
  0
ARC
  5
BDF
  8
C50_1$0$L
 10
0.78
 20
-1.405
 30
0.0
 40
0.03
 50
90.0
 51
180.0
  0
INSERT
  5
BE0
  8
C50_1$0$D
  2
C50_BASE
 10
0.0
 20
0.0
 30
0.0
  0
LINE
  5
BE1
  8
C50_1$0$L
 10
0.695204
 20
0.51
 30
0.0
 11
0.75
 21
0.51
 31
0.0
  0
LINE
  5
BE2
  8
C50_1$0$L
 10
0.695204
 20
-0.51
 30
0.0
 11
0.75
 21
-0.51
 31
0.0
  0
ENDBLK
  5
6DD
  8
0
  6
CONTINUOUS
 62
     7
  0
BLOCK
  8
0
  2
LOGO
 70
     0
 10
0.0
 20
0.0
 30
0.0
  3
LOGO
  1

  0
LINE
  5
19D
  8
L
 10
0.105445
 20
-0.151819
 30
0.0
 11
0.230445
 21
-0.151819
 31
0.0
  0
LINE
  5
19E
  8
L
 10
0.105445
 20
0.398181
 30
0.0
 11
0.230445
 21
0.398181
 31
0.0
  0
ARC
  5
19F
  8
L
 10
-0.539661
 20
0.067181
 30
0.0
 40
0.219
 50
0.018858
 51
278.071967
  0
CIRCLE
  5
1A0
  8
L
 10
-0.539661
 20
0.067181
 30
0.0
 40
0.1
  0
ARC
  5
1A1
  8
L
 10
-0.539661
 20
0.067181
 30
0.0
 40
0.219
 50
0.018858
 51
278.071967
  0
LINE
  5
1A2
  8
L
 10
-1.10474
 20
0.084924
 30
0.0
 11
-1.10474
 21
-0.151819
 31
0.0
  0
LINE
  5
1A3
  8
L
 10
-1.22974
 20
0.179025
 30
0.0
 11
-1.22974
 21
-0.151819
 31
0.0
  0
LINE
  5
1A4
  8
L
 10
-1.22974
 20
-0.151819
 30
0.0
 11
-1.10474
 21
-0.151819
 31
0.0
  0
CIRCLE
  5
1A5
  8
L
 10
-1.01074
 20
0.179025
 30
0.0
 40
0.1
  0
ARC
  5
1A6
  8
L
 10
-1.01074
 20
0.179025
 30
0.0
 40
0.219
 50
269.890544
 51
179.99999
  0
LINE
  5
1A7
  8
L
 10
-1.10474
 20
0.084924
 30
0.0
 11
-1.011159
 21
-0.039974
 31
0.0
  0
LINE
  5
1A8
  8
L
 10
0.105445
 20
0.398181
 30
0.0
 11
0.105445
 21
-0.151819
 31
0.0
  0
LINE
  5
1A9
  8
L
 10
-0.135592
 20
0.127106
 30
0.0
 11
-0.135041
 21
-0.151819
 31
0.0
  0
LINE
  5
1AA
  8
L
 10
-0.260592
 20
0.127106
 30
0.0
 11
-0.260041
 21
-0.151819
 31
0.0
  0
LINE
  5
1AB
  8
L
 10
-0.320661
 20
0.067253
 30
0.0
 11
-0.320589
 21
-0.151819
 31
0.0
  0
LINE
  5
1AC
  8
L
 10
-0.445633
 20
-0.018588
 30
0.0
 11
-0.50891
 21
-0.149649
 31
0.0
  0
LINE
  5
1AD
  8
L
 10
-0.445633
 20
-0.018588
 30
0.0
 11
-0.445589
 21
-0.151819
 31
0.0
  0
LINE
  5
1AE
  8
L
 10
-0.320661
 20
0.067253
 30
0.0
 11
-0.320589
 21
-0.151675
 31
0.0
  0
LINE
  5
1AF
  8
L
 10
-0.260041
 20
-0.151819
 30
0.0
 11
-0.135041
 21
-0.151819
 31
0.0
  0
LINE
  5
1B0
  8
L
 10
-0.445589
 20
-0.151819
 30
0.0
 11
-0.320589
 21
-0.151819
 31
0.0
  0
ARC
  5
1B1
  8
L
 10
-0.101517
 20
0.127106
 30
0.0
 40
0.159075
 50
18.846034
 51
180.226252
  0
LINE
  5
1B2
  8
L
 10
0.04903
 20
0.178491
 30
0.0
 11
-0.035759
 21
0.131185
 31
0.0
  0
ARC
  5
1B3
  8
L
 10
-0.085592
 20
0.127106
 30
0.0
 40
0.05
 50
4.679095
 51
180.226252
  0
ARC
  5
1B4
  8
L
 10
0.963019
 20
0.067181
 30
0.0
 40
0.219
 50
30.701399
 51
270.0
  0
ARC
  5
1B5
  8
L
 10
0.502857
 20
0.067181
 30
0.0
 40
0.1125
 50
235.5219
 51
332.233922
  0
LINE
  5
1B6
  8
L
 10
0.230445
 20
0.398181
 30
0.0
 11
0.230445
 21
-0.151819
 31
0.0
  0
ARC
  5
1B7
  8
L
 10
0.502857
 20
0.067181
 30
0.0
 40
0.219
 50
14.507251
 51
328.258317
  0
ARC
  5
1B8
  8
L
 10
0.502857
 20
0.067181
 30
0.0
 40
0.1125
 50
64.071476
 51
172.253555
  0
LINE
  5
1B9
  8
L
 10
0.552048
 20
0.168357
 30
0.0
 11
0.391384
 21
0.082345
 31
0.0
  0
LINE
  5
1BA
  8
L
 10
0.714875
 20
0.122041
 30
0.0
 11
0.439172
 21
-0.025557
 31
0.0
  0
LINE
  5
1BB
  8
L
 10
0.602404
 20
0.014771
 30
0.0
 11
0.689101
 21
-0.048033
 31
0.0
  0
LINE
  5
1BC
  8
L
 10
1.236751
 20
-0.045319
 30
0.0
 11
1.181669
 21
-0.151819
 31
0.0
  0
LINE
  5
1BD
  8
L
 10
0.963019
 20
-0.151819
 30
0.0
 11
1.181669
 21
-0.151819
 31
0.0
  0
LINE
  5
1BE
  8
L
 10
0.963019
 20
-0.045319
 30
0.0
 11
1.236751
 21
-0.045319
 31
0.0
  0
LINE
  5
1BF
  8
L
 10
1.151324
 20
0.178995
 30
0.0
 11
1.0523
 21
0.135629
 31
0.0
  0
ARC
  5
1C0
  8
L
 10
0.963019
 20
0.067181
 30
0.0
 40
0.1125
 50
37.476042
 51
270.0
  0
ENDBLK
  5
1C1
  8
0
  0
BLOCK
  8
0
  2
ATT_BLK
 70
     2
 10
0.0
 20
0.0
 30
0.0
  3
ATT_BLK
  1

  0
ATTDEF
  5
2DA
  8
DIM_ATT
 10
0.0
 20
0.0
 30
0.0
 40
0.2
  1
0
  3

  2
TYPE
 70
     1
  0
ATTDEF
  5
2DB
  8
DIM_ATT
 10
0.0
 20
-0.333333
 30
0.0
 40
0.2
  1
0
  3

  2
A1
 70
     1
  0
ATTDEF
  5
2DC
  8
DIM_ATT
 10
0.0
 20
-0.666667
 30
0.0
 40
0.2
  1
0
  3

  2
A2
 70
     1
  0
ATTDEF
  5
2DD
  8
DIM_ATT
 10
0.0
 20
-1.0
 30
0.0
 40
0.2
  1
0
  3

  2
A3
 70
     1
  0
ATTDEF
  5
2DE
  8
DIM_ATT
 10
0.0
 20
-1.333333
 30
0.0
 40
0.2
  1
0
  3

  2
A4
 70
     1
  0
ATTDEF
  5
2DF
  8
DIM_ATT
 10
0.0
 20
-1.666667
 30
0.0
 40
0.2
  1
0
  3

  2
A5
 70
     1
  0
ATTDEF
  5
2E0
  8
DIM_ATT
 10
0.0
 20
-2.0
 30
0.0
 40
0.2
  1
0
  3

  2
A6
 70
     1
  0
ATTDEF
  5
2E1
  8
DIM_ATT
 10
0.0
 20
-2.333333
 30
0.0
 40
0.2
  1
0
  3

  2
A7
 70
     1
  0
ATTDEF
  5
2E2
  8
DIM_ATT
 10
0.0
 20
-2.666667
 30
0.0
 40
0.2
  1
0
  3

  2
A8
 70
     1
  0
ENDBLK
  5
2E3
  8
0
  0
BLOCK
  8
0
  2
22KY
 70
     0
 10
0.0
 20
0.0
 30
0.0
  3
22KY
  1

  0
INSERT
  5
474
  8
DIM_ATT
 66
     1
  2
ATT_BLK
 10
5.9574
 20
7.8618
 30
0.0
  0
ATTRIB
  5
475
  8
DIM_ATT
 10
5.9574
 20
7.9968
 30
0.0
 40
0.09
  1
HOR
  2
TYPE
 70
     1
  0
ATTRIB
  5
476
  8
DIM_ATT
 10
5.9574
 20
7.8618
 30
0.0
 40
0.09
  1
.38
  2
A1
 70
     1
  0
ATTRIB
  5
477
  8
DIM_ATT
 10
5.9574
 20
7.7268
 30
0.0
 40
0.09
  1
5.957400,7.861800
  2
A2
 70
     1
  0
ATTRIB
  5
478
  8
DIM_ATT
 10
5.9574
 20
7.5918
 30
0.0
 40
0.09
  1
6.337400,7.832300
  2
A3
 70
     1
  0
ATTRIB
  5
479
  8
DIM_ATT
 10
5.9574
 20
7.4568
 30
0.0
 40
0.09
  1
1.000000,9.159900
  2
A4
 70
     1
  0
ATTRIB
  5
47A
  8
DIM_ATT
 10
5.9574
 20
7.3218
 30
0.0
 40
0.09
  1

  2
A5
 70
     1
  0
ATTRIB
  5
47B
  8
DIM_ATT
 10
5.9574
 20
7.1868
 30
0.0
 40
0.09
  1
DIMFIX
  2
A6
 70
     1
  0
ATTRIB
  5
47C
  8
DIM_ATT
 10
5.9574
 20
7.0518
 30
0.0
 40
0.09
  1
0
  2
A7
 70
     1
  0
ATTRIB
  5
47D
  8
DIM_ATT
 10
5.9574
 20
6.9168
 30
0.0
 40
0.09
  1
0
  2
A8
 70
     1
  0
SEQEND
  5
47E
  8
DIM_ATT
  0
INSERT
  5
47F
  8
DIM_ATT
 66
     1
  2
ATT_BLK
 10
6.9174
 20
6.8513
 30
0.0
  0
ATTRIB
  5
480
  8
DIM_ATT
 10
6.9174
 20
6.9863
 30
0.0
 40
0.09
  1
HOR
  2
TYPE
 70
     1
  0
ATTRIB
  5
481
  8
DIM_ATT
 10
6.9174
 20
6.8513
 30
0.0
 40
0.09
  1
.16
  2
A1
 70
     1
  0
ATTRIB
  5
482
  8
DIM_ATT
 10
6.9174
 20
6.7163
 30
0.0
 40
0.09
  1
7.077400,6.881300
  2
A2
 70
     1
  0
ATTRIB
  5
483
  8
DIM_ATT
 10
6.9174
 20
6.5813
 30
0.0
 40
0.09
  1
6.917400,6.851300
  2
A3
 70
     1
  0
ATTRIB
  5
484
  8
DIM_ATT
 10
6.9174
 20
6.4463
 30
0.0
 40
0.09
  1
1.000000,5.949300
  2
A4
 70
     1
  0
ATTRIB
  5
485
  8
DIM_ATT
 10
6.9174
 20
6.3113
 30
0.0
 40
0.09
  1

  2
A5
 70
     1
  0
ATTRIB
  5
486
  8
DIM_ATT
 10
6.9174
 20
6.1763
 30
0.0
 40
0.09
  1
DIMFIX
  2
A6
 70
     1
  0
ATTRIB
  5
487
  8
DIM_ATT
 10
6.9174
 20
6.0413
 30
0.0
 40
0.09
  1
0
  2
A7
 70
     1
  0
ATTRIB
  5
488
  8
DIM_ATT
 10
6.9174
 20
5.9063
 30
0.0
 40
0.09
  1
0
  2
A8
 70
     1
  0
SEQEND
  5
489
  8
DIM_ATT
  0
INSERT
  5
48A
  8
DIM_ATT
 66
     1
  2
ATT_BLK
 10
5.9574
 20
6.8418
 30
0.0
  0
ATTRIB
  5
48B
  8
DIM_ATT
 10
5.9574
 20
6.9768
 30
0.0
 40
0.09
  1
HOR
  2
TYPE
 70
     1
  0
ATTRIB
  5
48C
  8
DIM_ATT
 10
5.9574
 20
6.8418
 30
0.0
 40
0.09
  1
1.12
  2
A1
 70
     1
  0
ATTRIB
  5
48D
  8
DIM_ATT
 10
5.9574
 20
6.7068
 30
0.0
 40
0.09
  1
5.957400,6.841800
  2
A2
 70
     1
  0
ATTRIB
  5
48E
  8
DIM_ATT
 10
5.9574
 20
6.5718
 30
0.0
 40
0.09
  1
7.077400,6.881300
  2
A3
 70
     1
  0
ATTRIB
  5
48F
  8
DIM_ATT
 10
5.9574
 20
6.4368
 30
0.0
 40
0.09
  1
1.000000,4.698100
  2
A4
 70
     1
  0
ATTRIB
  5
490
  8
DIM_ATT
 10
5.9574
 20
6.3018
 30
0.0
 40
0.09
  1

  2
A5
 70
     1
  0
ATTRIB
  5
491
  8
DIM_ATT
 10
5.9574
 20
6.1668
 30
0.0
 40
0.09
  1
DIMFIX
  2
A6
 70
     1
  0
ATTRIB
  5
492
  8
DIM_ATT
 10
5.9574
 20
6.0318
 30
0.0
 40
0.09
  1
0
  2
A7
 70
     1
  0
ATTRIB
  5
493
  8
DIM_ATT
 10
5.9574
 20
5.8968
 30
0.0
 40
0.09
  1
0
  2
A8
 70
     1
  0
SEQEND
  5
494
  8
DIM_ATT
  0
INSERT
  5
495
  8
DIM_ATT
 66
     1
  2
ATT_BLK
 10
10.1144
 20
7.3518
 30
0.0
  0
ATTRIB
  5
496
  8
DIM_ATT
 10
10.1144
 20
7.4868
 30
0.0
 40
0.09
  1
HOR
  2
TYPE
 70
     1
  0
ATTRIB
  5
497
  8
DIM_ATT
 10
10.1144
 20
7.3518
 30
0.0
 40
0.09
  1
0.53000
  2
A1
 70
     1
  0
ATTRIB
  5
498
  8
DIM_ATT
 10
10.1144
 20
7.2168
 30
0.0
 40
0.09
  1
10.114400,7.351800
  2
A2
 70
     1
  0
ATTRIB
  5
499
  8
DIM_ATT
 10
10.1144
 20
7.0818
 30
0.0
 40
0.09
  1
10.644400,5.943900
  2
A3
 70
     1
  0
ATTRIB
  5
49A
  8
DIM_ATT
 10
10.1144
 20
6.9468
 30
0.0
 40
0.09
  1
1.000000,5.877400
  2
A4
 70
     1
  0
ATTRIB
  5
49B
  8
DIM_ATT
 10
10.1144
 20
6.8118
 30
0.0
 40
0.09
  1

  2
A5
 70
     1
  0
ATTRIB
  5
49C
  8
DIM_ATT
 10
10.1144
 20
6.6768
 30
0.0
 40
0.09
  1
DIMFIX
  2
A6
 70
     1
  0
ATTRIB
  5
49D
  8
DIM_ATT
 10
10.1144
 20
6.5418
 30
0.0
 40
0.09
  1
0
  2
A7
 70
     1
  0
ATTRIB
  5
49E
  8
DIM_ATT
 10
10.1144
 20
6.4068
 30
0.0
 40
0.09
  1
0
  2
A8
 70
     1
  0
SEQEND
  5
49F
  8
DIM_ATT
  0
INSERT
  5
4A0
  8
DIM_ATT
 66
     1
  2
ATT_BLK
 10
10.6444
 20
6.0835
 30
0.0
  0
ATTRIB
  5
4A1
  8
DIM_ATT
 10
10.6444
 20
6.2185
 30
0.0
 40
0.09
  1
HOR
  2
TYPE
 70
     1
  0
ATTRIB
  5
4A2
  8
DIM_ATT
 10
10.6444
 20
6.0835
 30
0.0
 40
0.09
  1
0.53000
  2
A1
 70
     1
  0
ATTRIB
  5
4A3
  8
DIM_ATT
 10
10.6444
 20
5.9485
 30
0.0
 40
0.09
  1
11.174400,7.351800
  2
A2
 70
     1
  0
ATTRIB
  5
4A4
  8
DIM_ATT
 10
10.6444
 20
5.8135
 30
0.0
 40
0.09
  1
10.644400,6.083500
  2
A3
 70
     1
  0
ATTRIB
  5
4A5
  8
DIM_ATT
 10
10.6444
 20
5.6785
 30
0.0
 40
0.09
  1
1.000000,6.083500
  2
A4
 70
     1
  0
ATTRIB
  5
4A6
  8
DIM_ATT
 10
10.6444
 20
5.5435
 30
0.0
 40
0.09
  1

  2
A5
 70
     1
  0
ATTRIB
  5
4A7
  8
DIM_ATT
 10
10.6444
 20
5.4085
 30
0.0
 40
0.09
  1
DIMFIX
  2
A6
 70
     1
  0
ATTRIB
  5
4A8
  8
DIM_ATT
 10
10.6444
 20
5.2735
 30
0.0
 40
0.09
  1
0
  2
A7
 70
     1
  0
ATTRIB
  5
4A9
  8
DIM_ATT
 10
10.6444
 20
5.1385
 30
0.0
 40
0.09
  1
0
  2
A8
 70
     1
  0
SEQEND
  5
4AA
  8
DIM_ATT
  0
INSERT
  5
4AB
  8
DIM_ATT
 66
     1
  2
ATT_BLK
 10
7.0774
 20
7.3518
 30
0.0
  0
ATTRIB
  5
4AC
  8
DIM_ATT
 10
7.0774
 20
7.4868
 30
0.0
 40
0.09
  1
VER
  2
TYPE
 70
     1
  0
ATTRIB
  5
4AD
  8
DIM_ATT
 10
7.0774
 20
7.3518
 30
0.0
 40
0.09
  1
0.50050
  2
A1
 70
     1
  0
ATTRIB
  5
4AE
  8
DIM_ATT
 10
7.0774
 20
7.2168
 30
0.0
 40
0.09
  1
7.077400,7.351800
  2
A2
 70
     1
  0
ATTRIB
  5
4AF
  8
DIM_ATT
 10
7.0774
 20
7.0818
 30
0.0
 40
0.09
  1
7.047400,7.852300
  2
A3
 70
     1
  0
ATTRIB
  5
4B0
  8
DIM_ATT
 10
7.0774
 20
6.9468
 30
0.0
 40
0.09
  1
7.371800,1.000000
  2
A4
 70
     1
  0
ATTRIB
  5
4B1
  8
DIM_ATT
 10
7.0774
 20
6.8118
 30
0.0
 40
0.09
  1
6.337400,1.000000
  2
A5
 70
     1
  0
ATTRIB
  5
4B2
  8
DIM_ATT
 10
7.0774
 20
6.6768
 30
0.0
 40
0.09
  1
DIMFIXHIDE
  2
A6
 70
     1
  0
ATTRIB
  5
4B3
  8
DIM_ATT
 10
7.0774
 20
6.5418
 30
0.0
 40
0.09
  1
0
  2
A7
 70
     1
  0
ATTRIB
  5
4B4
  8
DIM_ATT
 10
7.0774
 20
6.4068
 30
0.0
 40
0.09
  1
0
  2
A8
 70
     1
  0
SEQEND
  5
4B5
  8
DIM_ATT
  0
INSERT
  5
4B6
  8
DIM_ATT
 66
     1
  2
ATT_BLK
 10
7.0474
 20
6.8513
 30
0.0
  0
ATTRIB
  5
4B7
  8
DIM_ATT
 10
7.0474
 20
6.9863
 30
0.0
 40
0.09
  1
VER
  2
TYPE
 70
     1
  0
ATTRIB
  5
4B8
  8
DIM_ATT
 10
7.0474
 20
6.8513
 30
0.0
 40
0.09
  1
0.50050
  2
A1
 70
     1
  0
ATTRIB
  5
4B9
  8
DIM_ATT
 10
7.0474
 20
6.7163
 30
0.0
 40
0.09
  1
7.077400,7.351800
  2
A2
 70
     1
  0
ATTRIB
  5
4BA
  8
DIM_ATT
 10
7.0474
 20
6.5813
 30
0.0
 40
0.09
  1
7.047400,6.851300
  2
A3
 70
     1
  0
ATTRIB
  5
4BB
  8
DIM_ATT
 10
7.0474
 20
6.4463
 30
0.0
 40
0.09
  1
7.456900,1.000000
  2
A4
 70
     1
  0
ATTRIB
  5
4BC
  8
DIM_ATT
 10
7.0474
 20
6.3113
 30
0.0
 40
0.09
  1
6.367700,1.000000
  2
A5
 70
     1
  0
ATTRIB
  5
4BD
  8
DIM_ATT
 10
7.0474
 20
6.1763
 30
0.0
 40
0.09
  1
DIMFIXHIDE
  2
A6
 70
     1
  0
ATTRIB
  5
4BE
  8
DIM_ATT
 10
7.0474
 20
6.0413
 30
0.0
 40
0.09
  1
0
  2
A7
 70
     1
  0
ATTRIB
  5
4BF
  8
DIM_ATT
 10
7.0474
 20
5.9063
 30
0.0
 40
0.09
  1
0
  2
A8
 70
     1
  0
SEQEND
  5
4C0
  8
DIM_ATT
  0
INSERT
  5
4C1
  8
DIM_ATT
 66
     1
  2
ATT_BLK
 10
5.9574
 20
7.3518
 30
0.0
  0
ATTRIB
  5
4C2
  8
DIM_ATT
 10
5.9574
 20
7.4868
 30
0.0
 40
0.09
  1
VER
  2
TYPE
 70
     1
  0
ATTRIB
  5
4C3
  8
DIM_ATT
 10
5.9574
 20
7.3518
 30
0.0
 40
0.09
  1
0.53000
  2
A1
 70
     1
  0
ATTRIB
  5
4C4
  8
DIM_ATT
 10
5.9574
 20
7.2168
 30
0.0
 40
0.09
  1
5.957400,7.351800
  2
A2
 70
     1
  0
ATTRIB
  5
4C5
  8
DIM_ATT
 10
5.9574
 20
7.0818
 30
0.0
 40
0.09
  1
5.977400,7.881800
  2
A3
 70
     1
  0
ATTRIB
  5
4C6
  8
DIM_ATT
 10
5.9574
 20
6.9468
 30
0.0
 40
0.09
  1
5.567500,1.000000
  2
A4
 70
     1
  0
ATTRIB
  5
4C7
  8
DIM_ATT
 10
5.9574
 20
6.8118
 30
0.0
 40
0.09
  1
6.337400,1.000000
  2
A5
 70
     1
  0
ATTRIB
  5
4C8
  8
DIM_ATT
 10
5.9574
 20
6.6768
 30
0.0
 40
0.09
  1
DIMFIXHIDE
  2
A6
 70
     1
  0
ATTRIB
  5
4C9
  8
DIM_ATT
 10
5.9574
 20
6.5418
 30
0.0
 40
0.09
  1
0
  2
A7
 70
     1
  0
ATTRIB
  5
4CA
  8
DIM_ATT
 10
5.9574
 20
6.4068
 30
0.0
 40
0.09
  1
0
  2
A8
 70
     1
  0
SEQEND
  5
4CB
  8
DIM_ATT
  0
INSERT
  5
4CC
  8
DIM_ATT
 66
     1
  2
ATT_BLK
 10
5.9774
 20
6.8218
 30
0.0
  0
ATTRIB
  5
4CD
  8
DIM_ATT
 10
5.9774
 20
6.9568
 30
0.0
 40
0.09
  1
VER
  2
TYPE
 70
     1
  0
ATTRIB
  5
4CE
  8
DIM_ATT
 10
5.9774
 20
6.8218
 30
0.0
 40
0.09
  1
0.53000
  2
A1
 70
     1
  0
ATTRIB
  5
4CF
  8
DIM_ATT
 10
5.9774
 20
6.6868
 30
0.0
 40
0.09
  1
5.957400,7.351800
  2
A2
 70
     1
  0
ATTRIB
  5
4D0
  8
DIM_ATT
 10
5.9774
 20
6.5518
 30
0.0
 40
0.09
  1
5.977400,6.821800
  2
A3
 70
     1
  0
ATTRIB
  5
4D1
  8
DIM_ATT
 10
5.9774
 20
6.4168
 30
0.0
 40
0.09
  1
5.459000,1.000000
  2
A4
 70
     1
  0
ATTRIB
  5
4D2
  8
DIM_ATT
 10
5.9774
 20
6.2818
 30
0.0
 40
0.09
  1
6.337400,1.000000
  2
A5
 70
     1
  0
ATTRIB
  5
4D3
  8
DIM_ATT
 10
5.9774
 20
6.1468
 30
0.0
 40
0.09
  1
DIMFIXHIDE
  2
A6
 70
     1
  0
ATTRIB
  5
4D4
  8
DIM_ATT
 10
5.9774
 20
6.0118
 30
0.0
 40
0.09
  1
0
  2
A7
 70
     1
  0
ATTRIB
  5
4D5
  8
DIM_ATT
 10
5.9774
 20
5.8768
 30
0.0
 40
0.09
  1
0
  2
A8
 70
     1
  0
SEQEND
  5
4D6
  8
DIM_ATT
  0
INSERT
  5
4D7
  8
DIM_ATT
 66
     1
  2
ATT_BLK
 10
6.3374
 20
7.3518
 30
0.0
  0
ATTRIB
  5
4D8
  8
DIM_ATT
 10
6.3374
 20
7.4868
 30
0.0
 40
0.09
  1
VER
  2
TYPE
 70
     1
  0
ATTRIB
  5
4D9
  8
DIM_ATT
 10
6.3374
 20
7.3518
 30
0.0
 40
0.09
  1
0.48500
  2
A1
 70
     1
  0
ATTRIB
  5
4DA
  8
DIM_ATT
 10
6.3374
 20
7.2168
 30
0.0
 40
0.09
  1
6.337400,7.836800
  2
A2
 70
     1
  0
ATTRIB
  5
4DB
  8
DIM_ATT
 10
6.3374
 20
7.0818
 30
0.0
 40
0.09
  1
6.337400,7.351800
  2
A3
 70
     1
  0
ATTRIB
  5
4DC
  8
DIM_ATT
 10
6.3374
 20
6.9468
 30
0.0
 40
0.09
  1
3.628600,1.000000
  2
A4
 70
     1
  0
ATTRIB
  5
4DD
  8
DIM_ATT
 10
6.3374
 20
6.8118
 30
0.0
 40
0.09
  1
6.397400,1.000000
  2
A5
 70
     1
  0
ATTRIB
  5
4DE
  8
DIM_ATT
 10
6.3374
 20
6.6768
 30
0.0
 40
0.09
  1
DIMFIXHIDE
  2
A6
 70
     1
  0
ATTRIB
  5
4DF
  8
DIM_ATT
 10
6.3374
 20
6.5418
 30
0.0
 40
0.09
  1
0
  2
A7
 70
     1
  0
ATTRIB
  5
4E0
  8
DIM_ATT
 10
6.3374
 20
6.4068
 30
0.0
 40
0.09
  1
0
  2
A8
 70
     1
  0
SEQEND
  5
4E1
  8
DIM_ATT
  0
INSERT
  5
4E2
  8
DIM_ATT
 66
     1
  2
ATT_BLK
 10
6.3374
 20
6.8668
 30
0.0
  0
ATTRIB
  5
4E3
  8
DIM_ATT
 10
6.3374
 20
7.0018
 30
0.0
 40
0.09
  1
VER
  2
TYPE
 70
     1
  0
ATTRIB
  5
4E4
  8
DIM_ATT
 10
6.3374
 20
6.8668
 30
0.0
 40
0.09
  1
0.48500
  2
A1
 70
     1
  0
ATTRIB
  5
4E5
  8
DIM_ATT
 10
6.3374
 20
6.7318
 30
0.0
 40
0.09
  1
6.337400,7.351800
  2
A2
 70
     1
  0
ATTRIB
  5
4E6
  8
DIM_ATT
 10
6.3374
 20
6.5968
 30
0.0
 40
0.09
  1
6.337400,6.866800
  2
A3
 70
     1
  0
ATTRIB
  5
4E7
  8
DIM_ATT
 10
6.3374
 20
6.4618
 30
0.0
 40
0.09
  1
3.506000,1.000000
  2
A4
 70
     1
  0
ATTRIB
  5
4E8
  8
DIM_ATT
 10
6.3374
 20
6.3268
 30
0.0
 40
0.09
  1
6.397400,1.000000
  2
A5
 70
     1
  0
ATTRIB
  5
4E9
  8
DIM_ATT
 10
6.3374
 20
6.1918
 30
0.0
 40
0.09
  1
DIMFIXHIDE
  2
A6
 70
     1
  0
ATTRIB
  5
4EA
  8
DIM_ATT
 10
6.3374
 20
6.0568
 30
0.0
 40
0.09
  1
0
  2
A7
 70
     1
  0
ATTRIB
  5
4EB
  8
DIM_ATT
 10
6.3374
 20
5.9218
 30
0.0
 40
0.09
  1
0
  2
A8
 70
     1
  0
SEQEND
  5
4EC
  8
DIM_ATT
  0
INSERT
  5
4ED
  8
DIM_ATT
 66
     1
  2
ATT_BLK
 10
7.0774
 20
7.3518
 30
0.0
  0
ATTRIB
  5
4EE
  8
DIM_ATT
 10
7.0774
 20
7.4868
 30
0.0
 40
0.09
  1
VER
  2
TYPE
 70
     1
  0
ATTRIB
  5
4EF
  8
DIM_ATT
 10
7.0774
 20
7.3518
 30
0.0
 40
0.09
  1
0.25000
  2
A1
 70
     1
  0
ATTRIB
  5
4F0
  8
DIM_ATT
 10
7.0774
 20
7.2168
 30
0.0
 40
0.09
  1
7.077400,7.601800
  2
A2
 70
     1
  0
ATTRIB
  5
4F1
  8
DIM_ATT
 10
7.0774
 20
7.0818
 30
0.0
 40
0.09
  1
7.077400,7.351800
  2
A3
 70
     1
  0
ATTRIB
  5
4F2
  8
DIM_ATT
 10
7.0774
 20
6.9468
 30
0.0
 40
0.09
  1
9.359500,1.000000
  2
A4
 70
     1
  0
ATTRIB
  5
4F3
  8
DIM_ATT
 10
7.0774
 20
6.8118
 30
0.0
 40
0.09
  1

  2
A5
 70
     1
  0
ATTRIB
  5
4F4
  8
DIM_ATT
 10
7.0774
 20
6.6768
 30
0.0
 40
0.09
  1
DIMFIXHIDE
  2
A6
 70
     1
  0
ATTRIB
  5
4F5
  8
DIM_ATT
 10
7.0774
 20
6.5418
 30
0.0
 40
0.09
  1
0
  2
A7
 70
     1
  0
ATTRIB
  5
4F6
  8
DIM_ATT
 10
7.0774
 20
6.4068
 30
0.0
 40
0.09
  1
0
  2
A8
 70
     1
  0
SEQEND
  5
4F7
  8
DIM_ATT
  0
INSERT
  5
4F8
  8
DIM_ATT
 66
     1
  2
ATT_BLK
 10
7.0774
 20
7.1018
 30
0.0
  0
ATTRIB
  5
4F9
  8
DIM_ATT
 10
7.0774
 20
7.2368
 30
0.0
 40
0.09
  1
VER
  2
TYPE
 70
     1
  0
ATTRIB
  5
4FA
  8
DIM_ATT
 10
7.0774
 20
7.1018
 30
0.0
 40
0.09
  1
0.25000
  2
A1
 70
     1
  0
ATTRIB
  5
4FB
  8
DIM_ATT
 10
7.0774
 20
6.9668
 30
0.0
 40
0.09
  1
7.077400,7.351800
  2
A2
 70
     1
  0
ATTRIB
  5
4FC
  8
DIM_ATT
 10
7.0774
 20
6.8318
 30
0.0
 40
0.09
  1
7.077400,7.101800
  2
A3
 70
     1
  0
ATTRIB
  5
4FD
  8
DIM_ATT
 10
7.0774
 20
6.6968
 30
0.0
 40
0.09
  1
9.597100,1.000000
  2
A4
 70
     1
  0
ATTRIB
  5
4FE
  8
DIM_ATT
 10
7.0774
 20
6.5618
 30
0.0
 40
0.09
  1

  2
A5
 70
     1
  0
ATTRIB
  5
4FF
  8
DIM_ATT
 10
7.0774
 20
6.4268
 30
0.0
 40
0.09
  1
DIMFIXHIDE
  2
A6
 70
     1
  0
ATTRIB
  5
500
  8
DIM_ATT
 10
7.0774
 20
6.2918
 30
0.0
 40
0.09
  1
0
  2
A7
 70
     1
  0
ATTRIB
  5
501
  8
DIM_ATT
 10
7.0774
 20
6.1568
 30
0.0
 40
0.09
  1
0
  2
A8
 70
     1
  0
SEQEND
  5
502
  8
DIM_ATT
  0
INSERT
  5
503
  8
DIM_ATT
 66
     1
  2
ATT_BLK
 10
11.8118
 20
7.3518
 30
0.0
  0
ATTRIB
  5
504
  8
DIM_ATT
 10
11.8118
 20
7.4868
 30
0.0
 40
0.09
  1
VER
  2
TYPE
 70
     1
  0
ATTRIB
  5
505
  8
DIM_ATT
 10
11.8118
 20
7.3518
 30
0.0
 40
0.09
  1
0.53000
  2
A1
 70
     1
  0
ATTRIB
  5
506
  8
DIM_ATT
 10
11.8118
 20
7.2168
 30
0.0
 40
0.09
  1
10.644400,7.881800
  2
A2
 70
     1
  0
ATTRIB
  5
507
  8
DIM_ATT
 10
11.8118
 20
7.0818
 30
0.0
 40
0.09
  1
11.811800,7.351800
  2
A3
 70
     1
  0
ATTRIB
  5
508
  8
DIM_ATT
 10
11.8118
 20
6.9468
 30
0.0
 40
0.09
  1
11.811800,1.000000
  2
A4
 70
     1
  0
ATTRIB
  5
509
  8
DIM_ATT
 10
11.8118
 20
6.8118
 30
0.0
 40
0.09
  1

  2
A5
 70
     1
  0
ATTRIB
  5
50A
  8
DIM_ATT
 10
11.8118
 20
6.6768
 30
0.0
 40
0.09
  1
DIMFIX
  2
A6
 70
     1
  0
ATTRIB
  5
50B
  8
DIM_ATT
 10
11.8118
 20
6.5418
 30
0.0
 40
0.09
  1
0
  2
A7
 70
     1
  0
ATTRIB
  5
50C
  8
DIM_ATT
 10
11.8118
 20
6.4068
 30
0.0
 40
0.09
  1
0
  2
A8
 70
     1
  0
SEQEND
  5
50D
  8
DIM_ATT
  0
INSERT
  5
50E
  8
DIM_ATT
 66
     1
  2
ATT_BLK
 10
10.6444
 20
6.8218
 30
0.0
  0
ATTRIB
  5
50F
  8
DIM_ATT
 10
10.6444
 20
6.9568
 30
0.0
 40
0.09
  1
VER
  2
TYPE
 70
     1
  0
ATTRIB
  5
510
  8
DIM_ATT
 10
10.6444
 20
6.8218
 30
0.0
 40
0.09
  1
0.53000
  2
A1
 70
     1
  0
ATTRIB
  5
511
  8
DIM_ATT
 10
10.6444
 20
6.6868
 30
0.0
 40
0.09
  1
10.644400,6.821800
  2
A2
 70
     1
  0
ATTRIB
  5
512
  8
DIM_ATT
 10
10.6444
 20
6.5518
 30
0.0
 40
0.09
  1
8.741200,7.351800
  2
A3
 70
     1
  0
ATTRIB
  5
513
  8
DIM_ATT
 10
10.6444
 20
6.4168
 30
0.0
 40
0.09
  1
8.734900,1.000000
  2
A4
 70
     1
  0
ATTRIB
  5
514
  8
DIM_ATT
 10
10.6444
 20
6.2818
 30
0.0
 40
0.09
  1

  2
A5
 70
     1
  0
ATTRIB
  5
515
  8
DIM_ATT
 10
10.6444
 20
6.1468
 30
0.0
 40
0.09
  1
DIMFIX
  2
A6
 70
     1
  0
ATTRIB
  5
516
  8
DIM_ATT
 10
10.6444
 20
6.0118
 30
0.0
 40
0.09
  1
0
  2
A7
 70
     1
  0
ATTRIB
  5
517
  8
DIM_ATT
 10
10.6444
 20
5.8768
 30
0.0
 40
0.09
  1
0
  2
A8
 70
     1
  0
SEQEND
  5
518
  8
DIM_ATT
  0
INSERT
  5
519
  8
DIM_ATT
 66
     1
  2
ATT_BLK
 10
10.6131
 20
7.8712
 30
0.0
  0
ATTRIB
  5
51A
  8
DIM_ATT
 10
10.6131
 20
8.0062
 30
0.0
 40
0.09
  1
ALI
  2
TYPE
 70
     1
  0
ATTRIB
  5
51B
  8
DIM_ATT
 10
10.6131
 20
7.8712
 30
0.0
 40
0.09
  1
.747
  2
A1
 70
     1
  0
ATTRIB
  5
51C
  8
DIM_ATT
 10
10.6131
 20
7.7362
 30
0.0
 40
0.09
  1
10.613100,7.871200
  2
A2
 70
     1
  0
ATTRIB
  5
51D
  8
DIM_ATT
 10
10.6131
 20
7.6012
 30
0.0
 40
0.09
  1
11.163800,7.320500
  2
A3
 70
     1
  0
ATTRIB
  5
51E
  8
DIM_ATT
 10
10.6131
 20
7.4662
 30
0.0
 40
0.09
  1
11.739700,8.504900
  2
A4
 70
     1
  0
ATTRIB
  5
51F
  8
DIM_ATT
 10
10.6131
 20
7.3312
 30
0.0
 40
0.09
  1
0
  2
A5
 70
     1
  0
ATTRIB
  5
520
  8
DIM_ATT
 10
10.6131
 20
7.1962
 30
0.0
 40
0.09
  1
DIMFIX
  2
A6
 70
     1
  0
ATTRIB
  5
521
  8
DIM_ATT
 10
10.6131
 20
7.0612
 30
0.0
 40
0.09
  1
0
  2
A7
 70
     1
  0
ATTRIB
  5
522
  8
DIM_ATT
 10
10.6131
 20
6.9262
 30
0.0
 40
0.09
  1
0
  2
A8
 70
     1
  0
SEQEND
  5
523
  8
DIM_ATT
  0
INSERT
  5
524
  8
DIM_ATT
 66
     1
  2
ATT_BLK
 10
10.6758
 20
7.8712
 30
0.0
  0
ATTRIB
  5
525
  8
DIM_ATT
 10
10.6758
 20
8.0062
 30
0.0
 40
0.09
  1
ALI
  2
TYPE
 70
     1
  0
ATTRIB
  5
526
  8
DIM_ATT
 10
10.6758
 20
7.8712
 30
0.0
 40
0.09
  1
.747
  2
A1
 70
     1
  0
ATTRIB
  5
527
  8
DIM_ATT
 10
10.6758
 20
7.7362
 30
0.0
 40
0.09
  1
10.675800,7.871200
  2
A2
 70
     1
  0
ATTRIB
  5
528
  8
DIM_ATT
 10
10.6758
 20
7.6012
 30
0.0
 40
0.09
  1
10.125000,7.320500
  2
A3
 70
     1
  0
ATTRIB
  5
529
  8
DIM_ATT
 10
10.6758
 20
7.4662
 30
0.0
 40
0.09
  1
9.267364,8.895350
  2
A4
 70
     1
  0
ATTRIB
  5
52A
  8
DIM_ATT
 10
10.6758
 20
7.3312
 30
0.0
 40
0.09
  1
0
  2
A5
 70
     1
  0
ATTRIB
  5
52B
  8
DIM_ATT
 10
10.6758
 20
7.1962
 30
0.0
 40
0.09
  1
DIMFIX
  2
A6
 70
     1
  0
ATTRIB
  5
52C
  8
DIM_ATT
 10
10.6758
 20
7.0612
 30
0.0
 40
0.09
  1
0
  2
A7
 70
     1
  0
ATTRIB
  5
52D
  8
DIM_ATT
 10
10.6758
 20
6.9262
 30
0.0
 40
0.09
  1
0
  2
A8
 70
     1
  0
SEQEND
  5
52E
  8
DIM_ATT
  0
INSERT
  5
52F
  8
DIM_ATT
 66
     1
  2
ATT_BLK
 10
10.6444
 20
7.3518
 30
0.0
  0
ATTRIB
  5
530
  8
DIM_ATT
 10
10.6444
 20
7.4868
 30
0.0
 40
0.09
  1
RAD
  2
TYPE
 70
     1
  0
ATTRIB
  5
531
  8
DIM_ATT
 10
10.6444
 20
7.3518
 30
0.0
 40
0.09
  1
.25
  2
A1
 70
     1
  0
ATTRIB
  5
532
  8
DIM_ATT
 10
10.6444
 20
7.2168
 30
0.0
 40
0.09
  1
DIMFIXHIDE 10.644400 7.351800 10.514191 7.565214
  2
A2
 70
     1
  0
ATTRIB
  5
533
  8
DIM_ATT
 10
10.6444
 20
7.0818
 30
0.0
 40
0.09
  1
: : CIRCLE : 8 : OBJECT : 10 : 10.644400 : 20 : 7.351800 : 40 : 0.250008 : 
  2
A3
 70
     1
  0
ATTRIB
  5
534
  8
DIM_ATT
 10
10.6444
 20
6.9468
 30
0.0
 40
0.09
  1
0
  2
A4
 70
     1
  0
ATTRIB
  5
535
  8
DIM_ATT
 10
10.6444
 20
6.8118
 30
0.0
 40
0.09
  1
0
  2
A5
 70
     1
  0
ATTRIB
  5
536
  8
DIM_ATT
 10
10.6444
 20
6.6768
 30
0.0
 40
0.09
  1
0
  2
A6
 70
     1
  0
ATTRIB
  5
537
  8
DIM_ATT
 10
10.6444
 20
6.5418
 30
0.0
 40
0.09
  1
0
  2
A7
 70
     1
  0
ATTRIB
  5
538
  8
DIM_ATT
 10
10.6444
 20
6.4068
 30
0.0
 40
0.09
  1
0
  2
A8
 70
     1
  0
SEQEND
  5
539
  8
DIM_ATT
  0
INSERT
  5
53A
  8
DIM_ATT
 66
     1
  2
ATT_BLK
 10
10.6444
 20
7.3518
 30
0.0
  0
ATTRIB
  5
53B
  8
DIM_ATT
 10
10.6444
 20
7.4868
 30
0.0
 40
0.09
  1
RAD
  2
TYPE
 70
     1
  0
ATTRIB
  5
53C
  8
DIM_ATT
 10
10.6444
 20
7.3518
 30
0.0
 40
0.09
  1
0.53000
  2
A1
 70
     1
  0
ATTRIB
  5
53D
  8
DIM_ATT
 10
10.6444
 20
7.2168
 30
0.0
 40
0.09
  1
DIMFIXHIDE 10.644400 7.351800 10.913802 6.895376
  2
A2
 70
     1
  0
ATTRIB
  5
53E
  8
DIM_ATT
 10
10.6444
 20
7.0818
 30
0.0
 40
0.09
  1
: : CIRCLE : 8 : HIDOB : 10 : 10.644400 : 20 : 7.351800 : 40 : 0.529991 : 
  2
A3
 70
     1
  0
ATTRIB
  5
53F
  8
DIM_ATT
 10
10.6444
 20
6.9468
 30
0.0
 40
0.09
  1
0
  2
A4
 70
     1
  0
ATTRIB
  5
540
  8
DIM_ATT
 10
10.6444
 20
6.8118
 30
0.0
 40
0.09
  1
0
  2
A5
 70
     1
  0
ATTRIB
  5
541
  8
DIM_ATT
 10
10.6444
 20
6.6768
 30
0.0
 40
0.09
  1
0
  2
A6
 70
     1
  0
ATTRIB
  5
542
  8
DIM_ATT
 10
10.6444
 20
6.5418
 30
0.0
 40
0.09
  1
0
  2
A7
 70
     1
  0
ATTRIB
  5
543
  8
DIM_ATT
 10
10.6444
 20
6.4068
 30
0.0
 40
0.09
  1
0
  2
A8
 70
     1
  0
SEQEND
  5
544
  8
DIM_ATT
  0
INSERT
  5
545
  8
DIM_ATT
 66
     1
  2
ATT_BLK
 10
10.6444
 20
7.3518
 30
0.0
  0
ATTRIB
  5
546
  8
DIM_ATT
 10
10.6444
 20
7.4868
 30
0.0
 40
0.09
  1
RAD
  2
TYPE
 70
     1
  0
ATTRIB
  5
547
  8
DIM_ATT
 10
10.6444
 20
7.3518
 30
0.0
 40
0.09
  1
0.50050
  2
A1
 70
     1
  0
ATTRIB
  5
548
  8
DIM_ATT
 10
10.6444
 20
7.2168
 30
0.0
 40
0.09
  1
DIMFIX 10.644400 7.351800 10.321773 6.969162
  2
A2
 70
     1
  0
ATTRIB
  5
549
  8
DIM_ATT
 10
10.6444
 20
7.0818
 30
0.0
 40
0.09
  1
: : CIRCLE : 8 : OBJECT : 10 : 10.644400 : 20 : 7.351800 : 40 : 0.500500 : 
  2
A3
 70
     1
  0
ATTRIB
  5
54A
  8
DIM_ATT
 10
10.6444
 20
6.9468
 30
0.0
 40
0.09
  1
0
  2
A4
 70
     1
  0
ATTRIB
  5
54B
  8
DIM_ATT
 10
10.6444
 20
6.8118
 30
0.0
 40
0.09
  1
0
  2
A5
 70
     1
  0
ATTRIB
  5
54C
  8
DIM_ATT
 10
10.6444
 20
6.6768
 30
0.0
 40
0.09
  1
0
  2
A6
 70
     1
  0
ATTRIB
  5
54D
  8
DIM_ATT
 10
10.6444
 20
6.5418
 30
0.0
 40
0.09
  1
0
  2
A7
 70
     1
  0
ATTRIB
  5
54E
  8
DIM_ATT
 10
10.6444
 20
6.4068
 30
0.0
 40
0.09
  1
0
  2
A8
 70
     1
  0
SEQEND
  5
54F
  8
DIM_ATT
  0
INSERT
  5
550
  8
DIM_ATT
 66
     1
  2
ATT_BLK
 10
7.672522
 20
9.628974
 30
0.0
  0
ATTRIB
  5
551
  8
DIM_ATT
 10
7.672522
 20
9.763974
 30
0.0
 40
0.09
  1
HOR
  2
TYPE
 70
     1
  0
ATTRIB
  5
552
  8
DIM_ATT
 10
7.672522
 20
9.628974
 30
0.0
 40
0.09
  1
.38
  2
A1
 70
     1
  0
ATTRIB
  5
553
  8
DIM_ATT
 10
7.672522
 20
9.493974
 30
0.0
 40
0.09
  1
5.957400,7.800800
  2
A2
 70
     1
  0
ATTRIB
  5
554
  8
DIM_ATT
 10
7.672522
 20
9.358974
 30
0.0
 40
0.09
  1
6.337400,7.707050
  2
A3
 70
     1
  0
ATTRIB
  5
555
  8
DIM_ATT
 10
7.672522
 20
9.223974
 30
0.0
 40
0.09
  1
1.000000,9.098900
  2
A4
 70
     1
  0
ATTRIB
  5
556
  8
DIM_ATT
 10
7.672522
 20
9.088974
 30
0.0
 40
0.09
  1

  2
A5
 70
     1
  0
ATTRIB
  5
557
  8
DIM_ATT
 10
7.672522
 20
8.953974
 30
0.0
 40
0.09
  1
DIMFIX
  2
A6
 70
     1
  0
ATTRIB
  5
558
  8
DIM_ATT
 10
7.672522
 20
8.818974
 30
0.0
 40
0.09
  1
0
  2
A7
 70
     1
  0
ATTRIB
  5
559
  8
DIM_ATT
 10
7.672522
 20
8.683974
 30
0.0
 40
0.09
  1
0
  2
A8
 70
     1
  0
SEQEND
  5
55A
  8
DIM_ATT
  0
INSERT
  5
55B
  8
DIM_ATT
 66
     1
  2
ATT_BLK
 10
8.632522
 20
8.804724
 30
0.0
  0
ATTRIB
  5
55C
  8
DIM_ATT
 10
8.632522
 20
8.939724
 30
0.0
 40
0.09
  1
HOR
  2
TYPE
 70
     1
  0
ATTRIB
  5
55D
  8
DIM_ATT
 10
8.632522
 20
8.804724
 30
0.0
 40
0.09
  1
.16
  2
A1
 70
     1
  0
ATTRIB
  5
55E
  8
DIM_ATT
 10
8.632522
 20
8.669724
 30
0.0
 40
0.09
  1
7.077400,7.006550
  2
A2
 70
     1
  0
ATTRIB
  5
55F
  8
DIM_ATT
 10
8.632522
 20
8.534724
 30
0.0
 40
0.09
  1
6.917400,6.976550
  2
A3
 70
     1
  0
ATTRIB
  5
560
  8
DIM_ATT
 10
8.632522
 20
8.399724
 30
0.0
 40
0.09
  1
1.000000,6.010300
  2
A4
 70
     1
  0
ATTRIB
  5
561
  8
DIM_ATT
 10
8.632522
 20
8.264724
 30
0.0
 40
0.09
  1

  2
A5
 70
     1
  0
ATTRIB
  5
562
  8
DIM_ATT
 10
8.632522
 20
8.129724
 30
0.0
 40
0.09
  1
DIMFIX
  2
A6
 70
     1
  0
ATTRIB
  5
563
  8
DIM_ATT
 10
8.632522
 20
7.994724
 30
0.0
 40
0.09
  1
0
  2
A7
 70
     1
  0
ATTRIB
  5
564
  8
DIM_ATT
 10
8.632522
 20
7.859724
 30
0.0
 40
0.09
  1
0
  2
A8
 70
     1
  0
SEQEND
  5
565
  8
DIM_ATT
  0
INSERT
  5
566
  8
DIM_ATT
 66
     1
  2
ATT_BLK
 10
7.672522
 20
8.730974
 30
0.0
  0
ATTRIB
  5
567
  8
DIM_ATT
 10
7.672522
 20
8.865974
 30
0.0
 40
0.09
  1
HOR
  2
TYPE
 70
     1
  0
ATTRIB
  5
568
  8
DIM_ATT
 10
7.672522
 20
8.730974
 30
0.0
 40
0.09
  1
1.12
  2
A1
 70
     1
  0
ATTRIB
  5
569
  8
DIM_ATT
 10
7.672522
 20
8.595974
 30
0.0
 40
0.09
  1
5.957400,6.902800
  2
A2
 70
     1
  0
ATTRIB
  5
56A
  8
DIM_ATT
 10
7.672522
 20
8.460974
 30
0.0
 40
0.09
  1
7.077400,7.006550
  2
A3
 70
     1
  0
ATTRIB
  5
56B
  8
DIM_ATT
 10
7.672522
 20
8.325974
 30
0.0
 40
0.09
  1
1.000000,4.759100
  2
A4
 70
     1
  0
ATTRIB
  5
56C
  8
DIM_ATT
 10
7.672522
 20
8.190974
 30
0.0
 40
0.09
  1

  2
A5
 70
     1
  0
ATTRIB
  5
56D
  8
DIM_ATT
 10
7.672522
 20
8.055974
 30
0.0
 40
0.09
  1
DIMFIX
  2
A6
 70
     1
  0
ATTRIB
  5
56E
  8
DIM_ATT
 10
7.672522
 20
7.920974
 30
0.0
 40
0.09
  1
0
  2
A7
 70
     1
  0
ATTRIB
  5
56F
  8
DIM_ATT
 10
7.672522
 20
7.785974
 30
0.0
 40
0.09
  1
0
  2
A8
 70
     1
  0
SEQEND
  5
570
  8
DIM_ATT
  0
INSERT
  5
571
  8
DIM_ATT
 66
     1
  2
ATT_BLK
 10
11.829522
 20
9.179974
 30
0.0
  0
ATTRIB
  5
572
  8
DIM_ATT
 10
11.829522
 20
9.314974
 30
0.0
 40
0.09
  1
HOR
  2
TYPE
 70
     1
  0
ATTRIB
  5
573
  8
DIM_ATT
 10
11.829522
 20
9.179974
 30
0.0
 40
0.09
  1
0.46900
  2
A1
 70
     1
  0
ATTRIB
  5
574
  8
DIM_ATT
 10
11.829522
 20
9.044974
 30
0.0
 40
0.09
  1
10.114400,7.351800
  2
A2
 70
     1
  0
ATTRIB
  5
575
  8
DIM_ATT
 10
11.829522
 20
8.909974
 30
0.0
 40
0.09
  1
10.583400,6.004900
  2
A3
 70
     1
  0
ATTRIB
  5
576
  8
DIM_ATT
 10
11.829522
 20
8.774974
 30
0.0
 40
0.09
  1
1.000000,5.938400
  2
A4
 70
     1
  0
ATTRIB
  5
577
  8
DIM_ATT
 10
11.829522
 20
8.639974
 30
0.0
 40
0.09
  1

  2
A5
 70
     1
  0
ATTRIB
  5
578
  8
DIM_ATT
 10
11.829522
 20
8.504974
 30
0.0
 40
0.09
  1
DIMFIX
  2
A6
 70
     1
  0
ATTRIB
  5
579
  8
DIM_ATT
 10
11.829522
 20
8.369974
 30
0.0
 40
0.09
  1
0
  2
A7
 70
     1
  0
ATTRIB
  5
57A
  8
DIM_ATT
 10
11.829522
 20
8.234974
 30
0.0
 40
0.09
  1
0
  2
A8
 70
     1
  0
SEQEND
  5
57B
  8
DIM_ATT
  0
INSERT
  5
57C
  8
DIM_ATT
 66
     1
  2
ATT_BLK
 10
12.298522
 20
7.972674
 30
0.0
  0
ATTRIB
  5
57D
  8
DIM_ATT
 10
12.298522
 20
8.107674
 30
0.0
 40
0.09
  1
HOR
  2
TYPE
 70
     1
  0
ATTRIB
  5
57E
  8
DIM_ATT
 10
12.298522
 20
7.972674
 30
0.0
 40
0.09
  1
0.46900
  2
A1
 70
     1
  0
ATTRIB
  5
57F
  8
DIM_ATT
 10
12.298522
 20
7.837674
 30
0.0
 40
0.09
  1
11.052400,7.351800
  2
A2
 70
     1
  0
ATTRIB
  5
580
  8
DIM_ATT
 10
12.298522
 20
7.702674
 30
0.0
 40
0.09
  1
10.583400,6.144500
  2
A3
 70
     1
  0
ATTRIB
  5
581
  8
DIM_ATT
 10
12.298522
 20
7.567674
 30
0.0
 40
0.09
  1
1.000000,6.144500
  2
A4
 70
     1
  0
ATTRIB
  5
582
  8
DIM_ATT
 10
12.298522
 20
7.432674
 30
0.0
 40
0.09
  1

  2
A5
 70
     1
  0
ATTRIB
  5
583
  8
DIM_ATT
 10
12.298522
 20
7.297674
 30
0.0
 40
0.09
  1
DIMFIX
  2
A6
 70
     1
  0
ATTRIB
  5
584
  8
DIM_ATT
 10
12.298522
 20
7.162674
 30
0.0
 40
0.09
  1
0
  2
A7
 70
     1
  0
ATTRIB
  5
585
  8
DIM_ATT
 10
12.298522
 20
7.027674
 30
0.0
 40
0.09
  1
0
  2
A8
 70
     1
  0
SEQEND
  5
586
  8
DIM_ATT
  0
INSERT
  5
587
  8
DIM_ATT
 66
     1
  2
ATT_BLK
 10
8.792522
 20
9.179974
 30
0.0
  0
ATTRIB
  5
588
  8
DIM_ATT
 10
8.792522
 20
9.314974
 30
0.0
 40
0.09
  1
VER
  2
TYPE
 70
     1
  0
ATTRIB
  5
589
  8
DIM_ATT
 10
8.792522
 20
9.179974
 30
0.0
 40
0.09
  1
0.37525
  2
A1
 70
     1
  0
ATTRIB
  5
58A
  8
DIM_ATT
 10
8.792522
 20
9.044974
 30
0.0
 40
0.09
  1
7.077400,7.351800
  2
A2
 70
     1
  0
ATTRIB
  5
58B
  8
DIM_ATT
 10
8.792522
 20
8.909974
 30
0.0
 40
0.09
  1
7.047400,7.727050
  2
A3
 70
     1
  0
ATTRIB
  5
58C
  8
DIM_ATT
 10
8.792522
 20
8.774974
 30
0.0
 40
0.09
  1
7.371800,1.000000
  2
A4
 70
     1
  0
ATTRIB
  5
58D
  8
DIM_ATT
 10
8.792522
 20
8.639974
 30
0.0
 40
0.09
  1
6.337400,1.000000
  2
A5
 70
     1
  0
ATTRIB
  5
58E
  8
DIM_ATT
 10
8.792522
 20
8.504974
 30
0.0
 40
0.09
  1
DIMFIXHIDE
  2
A6
 70
     1
  0
ATTRIB
  5
58F
  8
DIM_ATT
 10
8.792522
 20
8.369974
 30
0.0
 40
0.09
  1
0
  2
A7
 70
     1
  0
ATTRIB
  5
590
  8
DIM_ATT
 10
8.792522
 20
8.234974
 30
0.0
 40
0.09
  1
0
  2
A8
 70
     1
  0
SEQEND
  5
591
  8
DIM_ATT
  0
INSERT
  5
592
  8
DIM_ATT
 66
     1
  2
ATT_BLK
 10
8.762522
 20
8.804724
 30
0.0
  0
ATTRIB
  5
593
  8
DIM_ATT
 10
8.762522
 20
8.939724
 30
0.0
 40
0.09
  1
VER
  2
TYPE
 70
     1
  0
ATTRIB
  5
594
  8
DIM_ATT
 10
8.762522
 20
8.804724
 30
0.0
 40
0.09
  1
0.37525
  2
A1
 70
     1
  0
ATTRIB
  5
595
  8
DIM_ATT
 10
8.762522
 20
8.669724
 30
0.0
 40
0.09
  1
7.077400,7.351800
  2
A2
 70
     1
  0
ATTRIB
  5
596
  8
DIM_ATT
 10
8.762522
 20
8.534724
 30
0.0
 40
0.09
  1
7.047400,6.976550
  2
A3
 70
     1
  0
ATTRIB
  5
597
  8
DIM_ATT
 10
8.762522
 20
8.399724
 30
0.0
 40
0.09
  1
7.456900,1.000000
  2
A4
 70
     1
  0
ATTRIB
  5
598
  8
DIM_ATT
 10
8.762522
 20
8.264724
 30
0.0
 40
0.09
  1
6.367700,1.000000
  2
A5
 70
     1
  0
ATTRIB
  5
599
  8
DIM_ATT
 10
8.762522
 20
8.129724
 30
0.0
 40
0.09
  1
DIMFIXHIDE
  2
A6
 70
     1
  0
ATTRIB
  5
59A
  8
DIM_ATT
 10
8.762522
 20
7.994724
 30
0.0
 40
0.09
  1
0
  2
A7
 70
     1
  0
ATTRIB
  5
59B
  8
DIM_ATT
 10
8.762522
 20
7.859724
 30
0.0
 40
0.09
  1
0
  2
A8
 70
     1
  0
SEQEND
  5
59C
  8
DIM_ATT
  0
INSERT
  5
59D
  8
DIM_ATT
 66
     1
  2
ATT_BLK
 10
7.672522
 20
9.179974
 30
0.0
  0
ATTRIB
  5
59E
  8
DIM_ATT
 10
7.672522
 20
9.314974
 30
0.0
 40
0.09
  1
VER
  2
TYPE
 70
     1
  0
ATTRIB
  5
59F
  8
DIM_ATT
 10
7.672522
 20
9.179974
 30
0.0
 40
0.09
  1
0.46900
  2
A1
 70
     1
  0
ATTRIB
  5
5A0
  8
DIM_ATT
 10
7.672522
 20
9.044974
 30
0.0
 40
0.09
  1
5.957400,7.351800
  2
A2
 70
     1
  0
ATTRIB
  5
5A1
  8
DIM_ATT
 10
7.672522
 20
8.909974
 30
0.0
 40
0.09
  1
5.977400,7.820800
  2
A3
 70
     1
  0
ATTRIB
  5
5A2
  8
DIM_ATT
 10
7.672522
 20
8.774974
 30
0.0
 40
0.09
  1
5.567500,1.000000
  2
A4
 70
     1
  0
ATTRIB
  5
5A3
  8
DIM_ATT
 10
7.672522
 20
8.639974
 30
0.0
 40
0.09
  1
6.337400,1.000000
  2
A5
 70
     1
  0
ATTRIB
  5
5A4
  8
DIM_ATT
 10
7.672522
 20
8.504974
 30
0.0
 40
0.09
  1
DIMFIXHIDE
  2
A6
 70
     1
  0
ATTRIB
  5
5A5
  8
DIM_ATT
 10
7.672522
 20
8.369974
 30
0.0
 40
0.09
  1
0
  2
A7
 70
     1
  0
ATTRIB
  5
5A6
  8
DIM_ATT
 10
7.672522
 20
8.234974
 30
0.0
 40
0.09
  1
0
  2
A8
 70
     1
  0
SEQEND
  5
5A7
  8
DIM_ATT
  0
INSERT
  5
5A8
  8
DIM_ATT
 66
     1
  2
ATT_BLK
 10
7.692522
 20
8.710974
 30
0.0
  0
ATTRIB
  5
5A9
  8
DIM_ATT
 10
7.692522
 20
8.845974
 30
0.0
 40
0.09
  1
VER
  2
TYPE
 70
     1
  0
ATTRIB
  5
5AA
  8
DIM_ATT
 10
7.692522
 20
8.710974
 30
0.0
 40
0.09
  1
0.46900
  2
A1
 70
     1
  0
ATTRIB
  5
5AB
  8
DIM_ATT
 10
7.692522
 20
8.575974
 30
0.0
 40
0.09
  1
5.957400,7.351800
  2
A2
 70
     1
  0
ATTRIB
  5
5AC
  8
DIM_ATT
 10
7.692522
 20
8.440974
 30
0.0
 40
0.09
  1
5.977400,6.882800
  2
A3
 70
     1
  0
ATTRIB
  5
5AD
  8
DIM_ATT
 10
7.692522
 20
8.305974
 30
0.0
 40
0.09
  1
5.459000,1.000000
  2
A4
 70
     1
  0
ATTRIB
  5
5AE
  8
DIM_ATT
 10
7.692522
 20
8.170974
 30
0.0
 40
0.09
  1
6.337400,1.000000
  2
A5
 70
     1
  0
ATTRIB
  5
5AF
  8
DIM_ATT
 10
7.692522
 20
8.035974
 30
0.0
 40
0.09
  1
DIMFIXHIDE
  2
A6
 70
     1
  0
ATTRIB
  5
5B0
  8
DIM_ATT
 10
7.692522
 20
7.900974
 30
0.0
 40
0.09
  1
0
  2
A7
 70
     1
  0
ATTRIB
  5
5B1
  8
DIM_ATT
 10
7.692522
 20
7.765974
 30
0.0
 40
0.09
  1
0
  2
A8
 70
     1
  0
SEQEND
  5
5B2
  8
DIM_ATT
  0
INSERT
  5
5B3
  8
DIM_ATT
 66
     1
  2
ATT_BLK
 10
8.052522
 20
9.179974
 30
0.0
  0
ATTRIB
  5
5B4
  8
DIM_ATT
 10
8.052522
 20
9.314974
 30
0.0
 40
0.09
  1
VER
  2
TYPE
 70
     1
  0
ATTRIB
  5
5B5
  8
DIM_ATT
 10
8.052522
 20
9.179974
 30
0.0
 40
0.09
  1
0.36000
  2
A1
 70
     1
  0
ATTRIB
  5
5B6
  8
DIM_ATT
 10
8.052522
 20
9.044974
 30
0.0
 40
0.09
  1
6.337400,7.711800
  2
A2
 70
     1
  0
ATTRIB
  5
5B7
  8
DIM_ATT
 10
8.052522
 20
8.909974
 30
0.0
 40
0.09
  1
6.337400,7.351800
  2
A3
 70
     1
  0
ATTRIB
  5
5B8
  8
DIM_ATT
 10
8.052522
 20
8.774974
 30
0.0
 40
0.09
  1
3.628600,1.000000
  2
A4
 70
     1
  0
ATTRIB
  5
5B9
  8
DIM_ATT
 10
8.052522
 20
8.639974
 30
0.0
 40
0.09
  1
6.397400,1.000000
  2
A5
 70
     1
  0
ATTRIB
  5
5BA
  8
DIM_ATT
 10
8.052522
 20
8.504974
 30
0.0
 40
0.09
  1
DIMFIXHIDE
  2
A6
 70
     1
  0
ATTRIB
  5
5BB
  8
DIM_ATT
 10
8.052522
 20
8.369974
 30
0.0
 40
0.09
  1
0
  2
A7
 70
     1
  0
ATTRIB
  5
5BC
  8
DIM_ATT
 10
8.052522
 20
8.234974
 30
0.0
 40
0.09
  1
0
  2
A8
 70
     1
  0
SEQEND
  5
5BD
  8
DIM_ATT
  0
INSERT
  5
5BE
  8
DIM_ATT
 66
     1
  2
ATT_BLK
 10
8.052522
 20
8.819974
 30
0.0
  0
ATTRIB
  5
5BF
  8
DIM_ATT
 10
8.052522
 20
8.954974
 30
0.0
 40
0.09
  1
VER
  2
TYPE
 70
     1
  0
ATTRIB
  5
5C0
  8
DIM_ATT
 10
8.052522
 20
8.819974
 30
0.0
 40
0.09
  1
0.36000
  2
A1
 70
     1
  0
ATTRIB
  5
5C1
  8
DIM_ATT
 10
8.052522
 20
8.684974
 30
0.0
 40
0.09
  1
6.337400,7.351800
  2
A2
 70
     1
  0
ATTRIB
  5
5C2
  8
DIM_ATT
 10
8.052522
 20
8.549974
 30
0.0
 40
0.09
  1
6.337400,6.991800
  2
A3
 70
     1
  0
ATTRIB
  5
5C3
  8
DIM_ATT
 10
8.052522
 20
8.414974
 30
0.0
 40
0.09
  1
3.506000,1.000000
  2
A4
 70
     1
  0
ATTRIB
  5
5C4
  8
DIM_ATT
 10
8.052522
 20
8.279974
 30
0.0
 40
0.09
  1
6.397400,1.000000
  2
A5
 70
     1
  0
ATTRIB
  5
5C5
  8
DIM_ATT
 10
8.052522
 20
8.144974
 30
0.0
 40
0.09
  1
DIMFIXHIDE
  2
A6
 70
     1
  0
ATTRIB
  5
5C6
  8
DIM_ATT
 10
8.052522
 20
8.009974
 30
0.0
 40
0.09
  1
0
  2
A7
 70
     1
  0
ATTRIB
  5
5C7
  8
DIM_ATT
 10
8.052522
 20
7.874974
 30
0.0
 40
0.09
  1
0
  2
A8
 70
     1
  0
SEQEND
  5
5C8
  8
DIM_ATT
  0
INSERT
  5
5C9
  8
DIM_ATT
 66
     1
  2
ATT_BLK
 10
8.792522
 20
9.179974
 30
0.0
  0
ATTRIB
  5
5CA
  8
DIM_ATT
 10
8.792522
 20
9.314974
 30
0.0
 40
0.09
  1
VER
  2
TYPE
 70
     1
  0
ATTRIB
  5
5CB
  8
DIM_ATT
 10
8.792522
 20
9.179974
 30
0.0
 40
0.09
  1
0.25000
  2
A1
 70
     1
  0
ATTRIB
  5
5CC
  8
DIM_ATT
 10
8.792522
 20
9.044974
 30
0.0
 40
0.09
  1
7.077400,7.601800
  2
A2
 70
     1
  0
ATTRIB
  5
5CD
  8
DIM_ATT
 10
8.792522
 20
8.909974
 30
0.0
 40
0.09
  1
7.077400,7.351800
  2
A3
 70
     1
  0
ATTRIB
  5
5CE
  8
DIM_ATT
 10
8.792522
 20
8.774974
 30
0.0
 40
0.09
  1
9.359500,1.000000
  2
A4
 70
     1
  0
ATTRIB
  5
5CF
  8
DIM_ATT
 10
8.792522
 20
8.639974
 30
0.0
 40
0.09
  1

  2
A5
 70
     1
  0
ATTRIB
  5
5D0
  8
DIM_ATT
 10
8.792522
 20
8.504974
 30
0.0
 40
0.09
  1
DIMFIXHIDE
  2
A6
 70
     1
  0
ATTRIB
  5
5D1
  8
DIM_ATT
 10
8.792522
 20
8.369974
 30
0.0
 40
0.09
  1
0
  2
A7
 70
     1
  0
ATTRIB
  5
5D2
  8
DIM_ATT
 10
8.792522
 20
8.234974
 30
0.0
 40
0.09
  1
0
  2
A8
 70
     1
  0
SEQEND
  5
5D3
  8
DIM_ATT
  0
INSERT
  5
5D4
  8
DIM_ATT
 66
     1
  2
ATT_BLK
 10
8.792522
 20
8.929974
 30
0.0
  0
ATTRIB
  5
5D5
  8
DIM_ATT
 10
8.792522
 20
9.064974
 30
0.0
 40
0.09
  1
VER
  2
TYPE
 70
     1
  0
ATTRIB
  5
5D6
  8
DIM_ATT
 10
8.792522
 20
8.929974
 30
0.0
 40
0.09
  1
0.25000
  2
A1
 70
     1
  0
ATTRIB
  5
5D7
  8
DIM_ATT
 10
8.792522
 20
8.794974
 30
0.0
 40
0.09
  1
7.077400,7.351800
  2
A2
 70
     1
  0
ATTRIB
  5
5D8
  8
DIM_ATT
 10
8.792522
 20
8.659974
 30
0.0
 40
0.09
  1
7.077400,7.101800
  2
A3
 70
     1
  0
ATTRIB
  5
5D9
  8
DIM_ATT
 10
8.792522
 20
8.524974
 30
0.0
 40
0.09
  1
9.597100,1.000000
  2
A4
 70
     1
  0
ATTRIB
  5
5DA
  8
DIM_ATT
 10
8.792522
 20
8.389974
 30
0.0
 40
0.09
  1

  2
A5
 70
     1
  0
ATTRIB
  5
5DB
  8
DIM_ATT
 10
8.792522
 20
8.254974
 30
0.0
 40
0.09
  1
DIMFIXHIDE
  2
A6
 70
     1
  0
ATTRIB
  5
5DC
  8
DIM_ATT
 10
8.792522
 20
8.119974
 30
0.0
 40
0.09
  1
0
  2
A7
 70
     1
  0
ATTRIB
  5
5DD
  8
DIM_ATT
 10
8.792522
 20
7.984974
 30
0.0
 40
0.09
  1
0
  2
A8
 70
     1
  0
SEQEND
  5
5DE
  8
DIM_ATT
  0
INSERT
  5
5DF
  8
DIM_ATT
 66
     1
  2
ATT_BLK
 10
13.404922
 20
9.179974
 30
0.0
  0
ATTRIB
  5
5E0
  8
DIM_ATT
 10
13.404922
 20
9.314974
 30
0.0
 40
0.09
  1
VER
  2
TYPE
 70
     1
  0
ATTRIB
  5
5E1
  8
DIM_ATT
 10
13.404922
 20
9.179974
 30
0.0
 40
0.09
  1
0.46900
  2
A1
 70
     1
  0
ATTRIB
  5
5E2
  8
DIM_ATT
 10
13.404922
 20
9.044974
 30
0.0
 40
0.09
  1
10.583400,7.820800
  2
A2
 70
     1
  0
ATTRIB
  5
5E3
  8
DIM_ATT
 10
13.404922
 20
8.909974
 30
0.0
 40
0.09
  1
11.689800,7.351800
  2
A3
 70
     1
  0
ATTRIB
  5
5E4
  8
DIM_ATT
 10
13.404922
 20
8.774974
 30
0.0
 40
0.09
  1
11.689800,1.000000
  2
A4
 70
     1
  0
ATTRIB
  5
5E5
  8
DIM_ATT
 10
13.404922
 20
8.639974
 30
0.0
 40
0.09
  1

  2
A5
 70
     1
  0
ATTRIB
  5
5E6
  8
DIM_ATT
 10
13.404922
 20
8.504974
 30
0.0
 40
0.09
  1
DIMFIX
  2
A6
 70
     1
  0
ATTRIB
  5
5E7
  8
DIM_ATT
 10
13.404922
 20
8.369974
 30
0.0
 40
0.09
  1
0
  2
A7
 70
     1
  0
ATTRIB
  5
5E8
  8
DIM_ATT
 10
13.404922
 20
8.234974
 30
0.0
 40
0.09
  1
0
  2
A8
 70
     1
  0
SEQEND
  5
5E9
  8
DIM_ATT
  0
INSERT
  5
5EA
  8
DIM_ATT
 66
     1
  2
ATT_BLK
 10
12.298522
 20
8.710974
 30
0.0
  0
ATTRIB
  5
5EB
  8
DIM_ATT
 10
12.298522
 20
8.845974
 30
0.0
 40
0.09
  1
VER
  2
TYPE
 70
     1
  0
ATTRIB
  5
5EC
  8
DIM_ATT
 10
12.298522
 20
8.710974
 30
0.0
 40
0.09
  1
0.46900
  2
A1
 70
     1
  0
ATTRIB
  5
5ED
  8
DIM_ATT
 10
12.298522
 20
8.575974
 30
0.0
 40
0.09
  1
10.583400,6.882800
  2
A2
 70
     1
  0
ATTRIB
  5
5EE
  8
DIM_ATT
 10
12.298522
 20
8.440974
 30
0.0
 40
0.09
  1
8.741200,7.351800
  2
A3
 70
     1
  0
ATTRIB
  5
5EF
  8
DIM_ATT
 10
12.298522
 20
8.305974
 30
0.0
 40
0.09
  1
8.734900,1.000000
  2
A4
 70
     1
  0
ATTRIB
  5
5F0
  8
DIM_ATT
 10
12.298522
 20
8.170974
 30
0.0
 40
0.09
  1

  2
A5
 70
     1
  0
ATTRIB
  5
5F1
  8
DIM_ATT
 10
12.298522
 20
8.035974
 30
0.0
 40
0.09
  1
DIMFIX
  2
A6
 70
     1
  0
ATTRIB
  5
5F2
  8
DIM_ATT
 10
12.298522
 20
7.900974
 30
0.0
 40
0.09
  1
0
  2
A7
 70
     1
  0
ATTRIB
  5
5F3
  8
DIM_ATT
 10
12.298522
 20
7.765974
 30
0.0
 40
0.09
  1
0
  2
A8
 70
     1
  0
SEQEND
  5
5F4
  8
DIM_ATT
  0
INSERT
  5
5F5
  8
DIM_ATT
 66
     1
  2
ATT_BLK
 10
12.267222
 20
9.638374
 30
0.0
  0
ATTRIB
  5
5F6
  8
DIM_ATT
 10
12.267222
 20
9.773374
 30
0.0
 40
0.09
  1
ALI
  2
TYPE
 70
     1
  0
ATTRIB
  5
5F7
  8
DIM_ATT
 10
12.267222
 20
9.638374
 30
0.0
 40
0.09
  1
.747
  2
A1
 70
     1
  0
ATTRIB
  5
5F8
  8
DIM_ATT
 10
12.267222
 20
9.503374
 30
0.0
 40
0.09
  1
10.552100,7.810200
  2
A2
 70
     1
  0
ATTRIB
  5
5F9
  8
DIM_ATT
 10
12.267222
 20
9.368374
 30
0.0
 40
0.09
  1
11.041800,7.320500
  2
A3
 70
     1
  0
ATTRIB
  5
5FA
  8
DIM_ATT
 10
12.267222
 20
9.233374
 30
0.0
 40
0.09
  1
11.678700,8.443900
  2
A4
 70
     1
  0
ATTRIB
  5
5FB
  8
DIM_ATT
 10
12.267222
 20
9.098374
 30
0.0
 40
0.09
  1
0
  2
A5
 70
     1
  0
ATTRIB
  5
5FC
  8
DIM_ATT
 10
12.267222
 20
8.963374
 30
0.0
 40
0.09
  1
DIMFIX
  2
A6
 70
     1
  0
ATTRIB
  5
5FD
  8
DIM_ATT
 10
12.267222
 20
8.828374
 30
0.0
 40
0.09
  1
0
  2
A7
 70
     1
  0
ATTRIB
  5
5FE
  8
DIM_ATT
 10
12.267222
 20
8.693374
 30
0.0
 40
0.09
  1
0
  2
A8
 70
     1
  0
SEQEND
  5
5FF
  8
DIM_ATT
  0
INSERT
  5
600
  8
DIM_ATT
 66
     1
  2
ATT_BLK
 10
12.329922
 20
9.638374
 30
0.0
  0
ATTRIB
  5
601
  8
DIM_ATT
 10
12.329922
 20
9.773374
 30
0.0
 40
0.09
  1
ALI
  2
TYPE
 70
     1
  0
ATTRIB
  5
602
  8
DIM_ATT
 10
12.329922
 20
9.638374
 30
0.0
 40
0.09
  1
.747
  2
A1
 70
     1
  0
ATTRIB
  5
603
  8
DIM_ATT
 10
12.329922
 20
9.503374
 30
0.0
 40
0.09
  1
10.614800,7.810200
  2
A2
 70
     1
  0
ATTRIB
  5
604
  8
DIM_ATT
 10
12.329922
 20
9.368374
 30
0.0
 40
0.09
  1
10.125000,7.320500
  2
A3
 70
     1
  0
ATTRIB
  5
605
  8
DIM_ATT
 10
12.329922
 20
9.233374
 30
0.0
 40
0.09
  1
9.206375,8.834366
  2
A4
 70
     1
  0
ATTRIB
  5
606
  8
DIM_ATT
 10
12.329922
 20
9.098374
 30
0.0
 40
0.09
  1
0
  2
A5
 70
     1
  0
ATTRIB
  5
607
  8
DIM_ATT
 10
12.329922
 20
8.963374
 30
0.0
 40
0.09
  1
DIMFIX
  2
A6
 70
     1
  0
ATTRIB
  5
608
  8
DIM_ATT
 10
12.329922
 20
8.828374
 30
0.0
 40
0.09
  1
0
  2
A7
 70
     1
  0
ATTRIB
  5
609
  8
DIM_ATT
 10
12.329922
 20
8.693374
 30
0.0
 40
0.09
  1
0
  2
A8
 70
     1
  0
SEQEND
  5
60A
  8
DIM_ATT
  0
POLYLINE
  5
60B
  8
OBJECT
 66
     1
 10
0.0
 20
0.0
 30
0.0
  0
VERTEX
  5
132D
  8
OBJECT
 10
-0.56
 20
0.50025
 30
0.0
  0
VERTEX
  5
132E
  8
OBJECT
 10
-0.56
 20
-0.50025
 30
0.0
  0
SEQEND
  5
132F
  8
OBJECT
  0
INSERT
  5
60F
  8
DIM_ATT
 66
     1
  2
ATT_BLK
 10
12.298522
 20
9.179974
 30
0.0
  0
ATTRIB
  5
610
  8
DIM_ATT
 10
12.298522
 20
9.314974
 30
0.0
 40
0.09
  1
RAD
  2
TYPE
 70
     1
  0
ATTRIB
  5
611
  8
DIM_ATT
 10
12.298522
 20
9.179974
 30
0.0
 40
0.09
  1
.25
  2
A1
 70
     1
  0
ATTRIB
  5
612
  8
DIM_ATT
 10
12.298522
 20
9.044974
 30
0.0
 40
0.09
  1
DIMFIXHIDE 10.583400 7.351800 10.453191 7.565214
  2
A2
 70
     1
  0
ATTRIB
  5
613
  8
DIM_ATT
 10
12.298522
 20
8.909974
 30
0.0
 40
0.09
  1
: : CIRCLE : 8 : OBJECT : 10 : 10.583400 : 20 : 7.351800 : 40 : 0.250008 : 
  2
A3
 70
     1
  0
ATTRIB
  5
614
  8
DIM_ATT
 10
12.298522
 20
8.774974
 30
0.0
 40
0.09
  1
0
  2
A4
 70
     1
  0
ATTRIB
  5
615
  8
DIM_ATT
 10
12.298522
 20
8.639974
 30
0.0
 40
0.09
  1
0
  2
A5
 70
     1
  0
ATTRIB
  5
616
  8
DIM_ATT
 10
12.298522
 20
8.504974
 30
0.0
 40
0.09
  1
0
  2
A6
 70
     1
  0
ATTRIB
  5
617
  8
DIM_ATT
 10
12.298522
 20
8.369974
 30
0.0
 40
0.09
  1
0
  2
A7
 70
     1
  0
ATTRIB
  5
618
  8
DIM_ATT
 10
12.298522
 20
8.234974
 30
0.0
 40
0.09
  1
0
  2
A8
 70
     1
  0
SEQEND
  5
619
  8
DIM_ATT
  0
INSERT
  5
61A
  8
DIM_ATT
 66
     1
  2
ATT_BLK
 10
12.298522
 20
9.179974
 30
0.0
  0
ATTRIB
  5
61B
  8
DIM_ATT
 10
12.298522
 20
9.314974
 30
0.0
 40
0.09
  1
RAD
  2
TYPE
 70
     1
  0
ATTRIB
  5
61C
  8
DIM_ATT
 10
12.298522
 20
9.179974
 30
0.0
 40
0.09
  1
0.46900
  2
A1
 70
     1
  0
ATTRIB
  5
61D
  8
DIM_ATT
 10
12.298522
 20
9.044974
 30
0.0
 40
0.09
  1
DIMFIXHIDE 10.583400 7.351800 10.821795 6.947908
  2
A2
 70
     1
  0
ATTRIB
  5
61E
  8
DIM_ATT
 10
12.298522
 20
8.909974
 30
0.0
 40
0.09
  1
: : CIRCLE : 8 : HIDOB : 10 : 10.583400 : 20 : 7.351800 : 40 : 0.468991 : 
  2
A3
 70
     1
  0
ATTRIB
  5
61F
  8
DIM_ATT
 10
12.298522
 20
8.774974
 30
0.0
 40
0.09
  1
0
  2
A4
 70
     1
  0
ATTRIB
  5
620
  8
DIM_ATT
 10
12.298522
 20
8.639974
 30
0.0
 40
0.09
  1
0
  2
A5
 70
     1
  0
ATTRIB
  5
621
  8
DIM_ATT
 10
12.298522
 20
8.504974
 30
0.0
 40
0.09
  1
0
  2
A6
 70
     1
  0
ATTRIB
  5
622
  8
DIM_ATT
 10
12.298522
 20
8.369974
 30
0.0
 40
0.09
  1
0
  2
A7
 70
     1
  0
ATTRIB
  5
623
  8
DIM_ATT
 10
12.298522
 20
8.234974
 30
0.0
 40
0.09
  1
0
  2
A8
 70
     1
  0
SEQEND
  5
624
  8
DIM_ATT
  0
INSERT
  5
625
  8
DIM_ATT
 66
     1
  2
ATT_BLK
 10
12.298522
 20
9.179974
 30
0.0
  0
ATTRIB
  5
626
  8
DIM_ATT
 10
12.298522
 20
9.314974
 30
0.0
 40
0.09
  1
RAD
  2
TYPE
 70
     1
  0
ATTRIB
  5
627
  8
DIM_ATT
 10
12.298522
 20
9.179974
 30
0.0
 40
0.09
  1
0.37525
  2
A1
 70
     1
  0
ATTRIB
  5
628
  8
DIM_ATT
 10
12.298522
 20
9.044974
 30
0.0
 40
0.09
  1
DIMFIX 10.583400 7.351800 10.341510 7.064917
  2
A2
 70
     1
  0
ATTRIB
  5
629
  8
DIM_ATT
 10
12.298522
 20
8.909974
 30
0.0
 40
0.09
  1
: : CIRCLE : 8 : OBJECT : 10 : 10.583400 : 20 : 7.351800 : 40 : 0.375250 : 
  2
A3
 70
     1
  0
ATTRIB
  5
62A
  8
DIM_ATT
 10
12.298522
 20
8.774974
 30
0.0
 40
0.09
  1
0
  2
A4
 70
     1
  0
ATTRIB
  5
62B
  8
DIM_ATT
 10
12.298522
 20
8.639974
 30
0.0
 40
0.09
  1
0
  2
A5
 70
     1
  0
ATTRIB
  5
62C
  8
DIM_ATT
 10
12.298522
 20
8.504974
 30
0.0
 40
0.09
  1
0
  2
A6
 70
     1
  0
ATTRIB
  5
62D
  8
DIM_ATT
 10
12.298522
 20
8.369974
 30
0.0
 40
0.09
  1
0
  2
A7
 70
     1
  0
ATTRIB
  5
62E
  8
DIM_ATT
 10
12.298522
 20
8.234974
 30
0.0
 40
0.09
  1
0
  2
A8
 70
     1
  0
SEQEND
  5
62F
  8
DIM_ATT
  0
LINE
  5
630
  8
OBJECT
 10
0.02
 20
0.527497
 30
0.0
 11
0.02
 21
-0.527497
 31
0.0
  0
LINE
  5
631
  8
OBJECT
 10
0.36
 20
-0.527497
 30
0.0
 11
0.36
 21
0.527497
 31
0.0
  0
LINE
  5
632
  8
OBJECT
 10
-0.69
 20
-0.50025
 30
0.0
 11
-0.69
 21
0.50025
 31
0.0
  0
LINE
  5
633
  8
OBJECT
 10
-0.06
 20
-0.50025
 30
0.0
 11
-0.69
 21
-0.50025
 31
0.0
  0
LINE
  5
634
  8
OBJECT
 10
-0.69
 20
-0.50025
 30
0.0
 11
-0.72
 21
-0.47025
 31
0.0
  0
LINE
  5
635
  8
OBJECT
 10
-0.72
 20
-0.47025
 30
0.0
 11
-0.72
 21
0.47025
 31
0.0
  0
LINE
  5
636
  8
OBJECT
 10
-0.72
 20
0.47025
 30
0.0
 11
-0.69
 21
0.50025
 31
0.0
  0
LINE
  5
637
  8
OBJECT
 10
-0.69
 20
0.50025
 30
0.0
 11
-0.06
 21
0.50025
 31
0.0
  0
LINE
  5
638
  8
OBJECT
 10
-0.06
 20
0.50025
 30
0.0
 11
-0.06
 21
-0.50025
 31
0.0
  0
LINE
  5
639
  8
OBJECT
 10
-0.06
 20
0.0
 30
0.0
 11
-0.06
 21
0.50025
 31
0.0
  0
LINE
  5
63A
  8
OBJECT
 10
0.38
 20
-0.507497
 30
0.0
 11
0.36
 21
-0.527497
 31
0.0
  0
LINE
  5
63B
  8
OBJECT
 10
0.36
 20
-0.527497
 30
0.0
 11
0.02
 21
-0.527497
 31
0.0
  0
LINE
  5
63C
  8
OBJECT
 10
0.02
 20
-0.527497
 30
0.0
 11
0.0
 21
-0.507497
 31
0.0
  0
LINE
  5
63D
  8
OBJECT
 10
0.0
 20
-0.507497
 30
0.0
 11
0.0
 21
0.507497
 31
0.0
  0
LINE
  5
63E
  8
OBJECT
 10
0.38
 20
-0.507497
 30
0.0
 11
0.38
 21
0.507497
 31
0.0
  0
LINE
  5
63F
  8
OBJECT
 10
0.02
 20
0.527497
 30
0.0
 11
0.0
 21
0.507497
 31
0.0
  0
LINE
  5
640
  8
OBJECT
 10
0.36
 20
0.527497
 30
0.0
 11
0.02
 21
0.527497
 31
0.0
  0
LINE
  5
641
  8
OBJECT
 10
0.38
 20
0.507497
 30
0.0
 11
0.36
 21
0.527497
 31
0.0
  0
POLYLINE
  5
642
  8
OBJECT
 66
     1
 10
0.0
 20
0.0
 30
0.0
  0
VERTEX
  5
1330
  8
OBJECT
 10
-0.06
 20
-0.485
 30
0.0
  0
VERTEX
  5
1331
  8
OBJECT
 10
0.0
 20
-0.485
 30
0.0
  0
SEQEND
  5
1332
  8
OBJECT
  0
POLYLINE
  5
646
  8
OBJECT
 66
     1
 10
0.0
 20
0.0
 30
0.0
  0
VERTEX
  5
1333
  8
OBJECT
 10
-0.06
 20
0.485
 30
0.0
  0
VERTEX
  5
1334
  8
OBJECT
 10
0.0
 20
0.485
 30
0.0
  0
SEQEND
  5
1335
  8
OBJECT
  0
LINE
  5
64A
  8
HIDOB
 10
-0.68
 20
-0.125
 30
0.0
 11
-0.72
 21
-0.148094
 31
0.0
  0
LINE
  5
64B
  8
HIDOB
 10
-0.68
 20
-0.125
 30
0.0
 11
-0.68
 21
0.125
 31
0.0
  0
LINE
  5
64C
  8
HIDOB
 10
-0.68
 20
0.125
 30
0.0
 11
-0.72
 21
0.148094
 31
0.0
  0
LINE
  5
64D
  8
HIDOB
 10
0.34
 20
-0.125
 30
0.0
 11
0.38
 21
-0.148094
 31
0.0
  0
LINE
  5
64E
  8
HIDOB
 10
0.34
 20
-0.125
 30
0.0
 11
0.34
 21
0.125
 31
0.0
  0
LINE
  5
64F
  8
HIDOB
 10
0.34
 20
0.125
 30
0.0
 11
0.38
 21
0.148094
 31
0.0
  0
POLYLINE
  5
650
  8
HIDOB
 66
     1
 10
0.0
 20
0.0
 30
0.0
  0
VERTEX
  5
1336
  8
HIDOB
 10
-0.68
 20
-0.125
 30
0.0
  0
VERTEX
  5
1337
  8
HIDOB
 10
0.34
 20
-0.125
 30
0.0
  0
SEQEND
  5
1338
  8
HIDOB
  0
POLYLINE
  5
654
  8
HIDOB
 66
     1
 10
0.0
 20
0.0
 30
0.0
  0
VERTEX
  5
1339
  8
HIDOB
 10
-0.68
 20
0.125
 30
0.0
  0
VERTEX
  5
133A
  8
HIDOB
 10
0.34
 20
0.125
 30
0.0
  0
SEQEND
  5
133B
  8
HIDOB
  0
ENDBLK
  5
658
  8
0
  0
BLOCK
  8
0
  2
FMC-200
 70
     0
 10
0.0
 20
0.0
 30
0.0
  3
FMC-200
  1

  0
LINE
  5
65A
  8
LINE
 10
1.0
 20
0.0
 30
0.0
 11
1.0
 21
0.98
 31
0.0
  0
LINE
  5
65B
  8
LINE
 10
0.98
 20
1.0
 30
0.0
 11
0.24
 21
1.0
 31
0.0
  0
LINE
  5
65C
  8
LINE
 10
0.0
 20
0.940412
 30
0.0
 11
0.0
 21
0.0
 31
0.0
  0
LINE
  5
65D
  8
LINE
 10
1.75
 20
0.0
 30
0.0
 11
1.75
 21
0.46
 31
0.0
  0
LINE
  5
65E
  8
LINE
 10
1.05
 20
0.5
 30
0.0
 11
1.59
 21
0.5
 31
0.0
  0
LINE
  5
65F
  8
LINE
 10
1.69
 20
0.495
 30
0.0
 11
1.75
 21
0.46
 31
0.0
  0
LINE
  5
660
  8
LINE
 10
1.69
 20
0.495
 30
0.0
 11
1.69
 21
0.0
 31
0.0
  0
LINE
  5
661
  8
LINE
 10
1.59
 20
0.0
 30
0.0
 11
1.59
 21
0.5
 31
0.0
  0
LINE
  5
662
  8
LINE
 10
1.59
 20
0.495
 30
0.0
 11
1.69
 21
0.495
 31
0.0
  0
LINE
  5
663
  8
LINE
 10
1.05
 20
0.0
 30
0.0
 11
1.05
 21
0.5
 31
0.0
  0
LINE
  5
664
  8
HIDDEN
 10
1.05
 20
0.5
 30
0.0
 11
0.990325
 21
0.465547
 31
0.0
  0
LINE
  5
665
  8
HIDDEN
 10
1.0
 20
0.528868
 30
0.0
 11
0.965325
 21
0.508848
 31
0.0
  0
LINE
  5
666
  8
HIDDEN
 10
0.990325
 20
0.465547
 30
0.0
 11
0.965325
 21
0.508848
 31
0.0
  0
LINE
  5
667
  8
LINE
 10
0.24
 20
1.0
 30
0.0
 11
0.24
 21
0.0
 31
0.0
  0
LINE
  5
668
  8
LINE
 10
0.24
 20
1.0
 30
0.0
 11
0.106448
 21
0.98123
 31
0.0
  0
LINE
  5
669
  8
LINE
 10
0.058682
 20
0.989653
 30
0.0
 11
0.106448
 21
0.98123
 31
0.0
  0
ARC
  5
66A
  8
LINE
 10
0.05
 20
0.940412
 30
0.0
 40
0.05
 50
80.0
 51
180.0
  0
LINE
  5
66B
  8
LINE
 10
0.106448
 20
0.98123
 30
0.0
 11
0.106448
 21
0.0
 31
0.0
  0
LINE
  5
66C
  8
LINE
 10
1.0
 20
0.98
 30
0.0
 11
0.98
 21
1.0
 31
0.0
  0
LINE
  5
66D
  8
LINE
 10
0.98
 20
1.0
 30
0.0
 11
0.98
 21
0.0
 31
0.0
  0
LINE
  5
66E
  8
HIDDEN
 10
0.06
 20
0.39
 30
0.0
 11
0.55
 21
0.39
 31
0.0
  0
LINE
  5
66F
  8
HIDDEN
 10
0.55
 20
0.39
 30
0.0
 11
0.55
 21
0.0
 31
0.0
  0
LINE
  5
670
  8
HIDDEN
 10
0.55
 20
0.2625
 30
0.0
 11
1.69
 21
0.2625
 31
0.0
  0
LINE
  5
671
  8
LINE
 10
1.69
 20
0.2625
 30
0.0
 11
1.75
 21
0.297141
 31
0.0
  0
LINE
  5
672
  8
HIDDEN
 10
0.06
 20
0.39
 30
0.0
 11
0.06
 21
0.0
 31
0.0
  0
LINE
  5
673
  8
LINE
 10
0.06
 20
0.39
 30
0.0
 11
0.0
 21
0.424641
 31
0.0
  0
LINE
  5
674
  8
LINE
 10
0.06
 20
-0.39
 30
0.0
 11
0.0
 21
-0.424641
 31
0.0
  0
LINE
  5
675
  8
HIDDEN
 10
0.06
 20
-0.39
 30
0.0
 11
0.06
 21
0.0
 31
0.0
  0
LINE
  5
676
  8
LINE
 10
1.69
 20
-0.2625
 30
0.0
 11
1.75
 21
-0.297141
 31
0.0
  0
LINE
  5
677
  8
HIDDEN
 10
0.55
 20
-0.2625
 30
0.0
 11
1.69
 21
-0.2625
 31
0.0
  0
LINE
  5
678
  8
HIDDEN
 10
0.55
 20
-0.39
 30
0.0
 11
0.55
 21
0.0
 31
0.0
  0
LINE
  5
679
  8
HIDDEN
 10
0.06
 20
-0.39
 30
0.0
 11
0.55
 21
-0.39
 31
0.0
  0
LINE
  5
67A
  8
LINE
 10
0.98
 20
-1.0
 30
0.0
 11
0.98
 21
0.0
 31
0.0
  0
LINE
  5
67B
  8
LINE
 10
1.0
 20
-0.98
 30
0.0
 11
0.98
 21
-1.0
 31
0.0
  0
LINE
  5
67C
  8
LINE
 10
0.106448
 20
-0.98123
 30
0.0
 11
0.106448
 21
0.0
 31
0.0
  0
ARC
  5
67D
  8
LINE
 10
0.05
 20
-0.940412
 30
0.0
 40
0.05
 50
180.0
 51
280.0
  0
LINE
  5
67E
  8
LINE
 10
0.058682
 20
-0.989653
 30
0.0
 11
0.106448
 21
-0.98123
 31
0.0
  0
LINE
  5
67F
  8
LINE
 10
0.24
 20
-1.0
 30
0.0
 11
0.106448
 21
-0.98123
 31
0.0
  0
LINE
  5
680
  8
LINE
 10
0.24
 20
-1.0
 30
0.0
 11
0.24
 21
0.0
 31
0.0
  0
LINE
  5
681
  8
HIDDEN
 10
0.990325
 20
-0.465547
 30
0.0
 11
0.965325
 21
-0.508848
 31
0.0
  0
LINE
  5
682
  8
HIDDEN
 10
1.0
 20
-0.528868
 30
0.0
 11
0.965325
 21
-0.508848
 31
0.0
  0
LINE
  5
683
  8
HIDDEN
 10
1.05
 20
-0.5
 30
0.0
 11
0.990325
 21
-0.465547
 31
0.0
  0
LINE
  5
684
  8
LINE
 10
1.05
 20
0.0
 30
0.0
 11
1.05
 21
-0.5
 31
0.0
  0
LINE
  5
685
  8
LINE
 10
1.59
 20
-0.495
 30
0.0
 11
1.69
 21
-0.495
 31
0.0
  0
LINE
  5
686
  8
LINE
 10
1.59
 20
0.0
 30
0.0
 11
1.59
 21
-0.5
 31
0.0
  0
LINE
  5
687
  8
LINE
 10
1.69
 20
-0.495
 30
0.0
 11
1.69
 21
0.0
 31
0.0
  0
LINE
  5
688
  8
LINE
 10
1.69
 20
-0.495
 30
0.0
 11
1.75
 21
-0.46
 31
0.0
  0
LINE
  5
689
  8
LINE
 10
1.05
 20
-0.5
 30
0.0
 11
1.59
 21
-0.5
 31
0.0
  0
LINE
  5
68A
  8
LINE
 10
1.75
 20
0.0
 30
0.0
 11
1.75
 21
-0.46
 31
0.0
  0
LINE
  5
68B
  8
LINE
 10
0.0
 20
-0.940412
 30
0.0
 11
0.0
 21
0.0
 31
0.0
  0
LINE
  5
68C
  8
LINE
 10
0.98
 20
-1.0
 30
0.0
 11
0.24
 21
-1.0
 31
0.0
  0
LINE
  5
68D
  8
LINE
 10
1.0
 20
0.0
 30
0.0
 11
1.0
 21
-0.98
 31
0.0
  0
POINT
  5
68E
  8
DEFPOINTS
  6
BYBLOCK
 62
     0
 10
0.24
 20
1.0
 30
0.0
  0
POINT
  5
68F
  8
DEFPOINTS
  6
BYBLOCK
 62
     0
 10
0.106448
 20
0.98123
 30
0.0
  0
POINT
  5
690
  8
DEFPOINTS
  6
BYBLOCK
 62
     0
 10
0.98
 20
1.0
 30
0.0
  0
POINT
  5
691
  8
DEFPOINTS
  6
BYBLOCK
 62
     0
 10
0.24
 20
1.0
 30
0.0
  0
POINT
  5
692
  8
DEFPOINTS
  6
BYBLOCK
 62
     0
 10
1.75
 20
-0.46
 30
0.0
  0
POINT
  5
693
  8
DEFPOINTS
  6
BYBLOCK
 62
     0
 10
1.0
 20
-0.98
 30
0.0
  0
POINT
  5
694
  8
DEFPOINTS
  6
BYBLOCK
 62
     0
 10
0.0
 20
-0.940412
 30
0.0
  0
POINT
  5
695
  8
DEFPOINTS
  6
BYBLOCK
 62
     0
 10
0.24
 20
-1.0
 30
0.0
  0
POINT
  5
696
  8
DEFPOINTS
  6
BYBLOCK
 62
     0
 10
0.0
 20
-0.940412
 30
0.0
  0
POINT
  5
697
  8
DEFPOINTS
  6
BYBLOCK
 62
     0
 10
1.0
 20
-0.98
 30
0.0
  0
POINT
  5
698
  8
DEFPOINTS
  6
BYBLOCK
 62
     0
 10
1.59
 20
-0.5
 30
0.0
  0
POINT
  5
699
  8
DEFPOINTS
  6
BYBLOCK
 62
     0
 10
1.75
 20
-0.46
 30
0.0
  0
POINT
  5
69A
  8
DEFPOINTS
  6
BYBLOCK
 62
     0
 10
0.0
 20
0.940412
 30
0.0
  0
POINT
  5
69B
  8
DEFPOINTS
  6
BYBLOCK
 62
     0
 10
0.55
 20
0.39
 30
0.0
  0
ENDBLK
  5
69C
  8
0
  0
BLOCK
  8
0
  2
*D5
 70
     1
 10
0.0
 20
0.0
 30
0.0
  3
*D5
  1

  0
LINE
  5
6AA
  8
0
  6
BYBLOCK
 62
     0
 10
3.0725
 20
1.0
 30
0.0
 11
4.258464
 21
1.0
 31
0.0
  0
LINE
  5
6AB
  8
0
  6
BYBLOCK
 62
     0
 10
3.0725
 20
-1.0
 30
0.0
 11
4.258464
 21
-1.0
 31
0.0
  0
LINE
  5
6AC
  8
0
  6
BYBLOCK
 62
     0
 10
4.208464
 20
0.88
 30
0.0
 11
4.208464
 21
0.1525
 31
0.0
  0
LINE
  5
6AD
  8
0
  6
BYBLOCK
 62
     0
 10
4.208464
 20
-0.88
 30
0.0
 11
4.208464
 21
-0.1525
 31
0.0
  0
SOLID
  5
6AE
  8
0
  6
BYBLOCK
 62
     0
 10
4.188464
 20
0.88
 30
0.0
 11
4.228464
 21
0.88
 31
0.0
 12
4.208464
 22
1.0
 32
0.0
 13
4.208464
 23
1.0
 33
0.0
  0
SOLID
  5
6AF
  8
0
  6
BYBLOCK
 62
     0
 10
4.188464
 20
-0.88
 30
0.0
 11
4.228464
 21
-0.88
 31
0.0
 12
4.208464
 22
-1.0
 32
0.0
 13
4.208464
 23
-1.0
 33
0.0
  0
TEXT
  5
6B0
  8
0
  6
BYBLOCK
 62
     0
 10
4.041798
 20
-0.0625
 30
0.0
 40
0.125
  1
2.00
 72
     1
 11
4.208464
 21
0.0
 31
0.0
 73
     2
  0
POINT
  5
6B1
  8
DEFPOINTS
  6
BYBLOCK
 62
     0
 10
3.01
 20
1.0
 30
0.0
  0
POINT
  5
6B2
  8
DEFPOINTS
  6
BYBLOCK
 62
     0
 10
3.01
 20
-1.0
 30
0.0
  0
POINT
  5
6B3
  8
DEFPOINTS
  6
BYBLOCK
 62
     0
 10
4.208464
 20
-1.0
 30
0.0
  0
ENDBLK
  5
6B4
  8
0
  0
BLOCK
  8
0
  6
CONTINUOUS
 62
     7
  2
C50_BASE
 70
     0
 10
0.0
 20
0.0
 30
0.0
  3
C50_BASE
  1
C50_BASE
  0
LINE
  5
967
  8
C50_BASE$0$L
 10
0.0
 20
0.0
 30
0.0
 11
0.0
 21
-1.375
 31
0.0
  0
LINE
  5
968
  8
C50_BASE$0$L
 10
0.0
 20
-1.375
 30
0.0
 11
-3.897317
 21
-0.806641
 31
0.0
  0
LINE
  5
969
  8
C50_BASE$0$L
 10
0.0
 20
-1.375
 30
0.0
 11
0.105
 21
-1.375
 31
0.0
  0
ARC
  5
96A
  8
C50_BASE$0$L
 10
-3.88241
 20
0.69
 30
0.0
 40
0.11759
 50
97.282949
 51
180.0
  0
LINE
  5
96B
  8
C50_BASE$0$H
 10
-4.0
 20
0.5625
 30
0.0
 11
-3.918594
 21
0.5155
 31
0.0
  0
LINE
  5
96C
  8
C50_BASE$0$H
 10
-4.0
 20
-0.5625
 30
0.0
 11
-3.918594
 21
-0.5155
 31
0.0
  0
ARC
  5
96D
  8
C50_BASE$0$L
 10
-3.88241
 20
-0.69
 30
0.0
 40
0.11759
 50
180.0
 51
262.717051
  0
LINE
  5
96E
  8
C50_BASE$0$L
 10
-4.0
 20
-0.69
 30
0.0
 11
-4.0
 21
0.69
 31
0.0
  0
LINE
  5
96F
  8
C50_BASE$0$L
 10
0.0
 20
1.375
 30
0.0
 11
-3.897317
 21
0.806641
 31
0.0
  0
LINE
  5
970
  8
C50_BASE$0$H
 10
-3.75
 20
-0.5
 30
0.0
 11
-2.25
 21
-0.5
 31
0.0
  0
LINE
  5
971
  8
C50_BASE$0$H
 10
-3.75
 20
-0.4375
 30
0.0
 11
-2.25
 21
-0.4375
 31
0.0
  0
LINE
  5
972
  8
C50_BASE$0$H
 10
-3.75
 20
0.4375
 30
0.0
 11
-2.25
 21
0.4375
 31
0.0
  0
LINE
  5
973
  8
C50_BASE$0$H
 10
-3.75
 20
0.5
 30
0.0
 11
-2.25
 21
0.5
 31
0.0
  0
LINE
  5
974
  8
C50_BASE$0$H
 10
-3.918594
 20
0.5155
 30
0.0
 11
-3.918594
 21
-0.0025
 31
0.0
  0
LINE
  5
975
  8
C50_BASE$0$H
 10
-3.75
 20
0.0
 30
0.0
 11
-3.75
 21
0.5155
 31
0.0
  0
LINE
  5
976
  8
C50_BASE$0$H
 10
-3.75
 20
0.0
 30
0.0
 11
-3.75
 21
-0.5155
 31
0.0
  0
LINE
  5
977
  8
C50_BASE$0$H
 10
-3.918594
 20
-0.5155
 30
0.0
 11
-3.918594
 21
0.0025
 31
0.0
  0
LINE
  5
978
  8
C50_BASE$0$H
 10
-3.918594
 20
-0.5155
 30
0.0
 11
-3.75
 21
-0.5155
 31
0.0
  0
LINE
  5
979
  8
C50_BASE$0$H
 10
-3.918594
 20
0.5155
 30
0.0
 11
-3.75
 21
0.5155
 31
0.0
  0
LINE
  5
97A
  8
C50_BASE$0$H
 10
-2.25
 20
0.5
 30
0.0
 11
-2.25
 21
-0.5
 31
0.0
  0
LINE
  5
97B
  8
C50_BASE$0$L
 10
0.0
 20
0.0
 30
0.0
 11
0.0
 21
1.375
 31
0.0
  0
CIRCLE
  5
97C
  8
C50_BASE$0$L
 10
0.44
 20
0.0
 30
0.0
 40
0.1875
  0
LINE
  5
97D
  8
C50_BASE$0$L
 10
0.125
 20
0.51
 30
0.0
 11
0.695204
 21
0.51
 31
0.0
  0
LINE
  5
97E
  8
C50_BASE$0$L
 10
0.0
 20
1.375
 30
0.0
 11
0.105
 21
1.375
 31
0.0
  0
POINT
  5
97F
  8
DEFPOINTS
  6
BYBLOCK
 62
     0
 10
0.0
 20
1.375
 30
0.0
  0
POINT
  5
980
  8
DEFPOINTS
  6
BYBLOCK
 62
     0
 10
0.0
 20
-1.375
 30
0.0
  0
POINT
  5
981
  8
DEFPOINTS
  6
BYBLOCK
 62
     0
 10
0.0
 20
1.375
 30
0.0
  0
LINE
  5
982
  8
C50_BASE$0$L
 10
0.125
 20
-1.9075
 30
0.0
 11
0.125
 21
1.9075
 31
0.0
  0
LINE
  5
983
  8
C50_BASE$0$L
 10
0.5155
 20
0.51
 30
0.0
 11
0.5155
 21
1.827515
 31
0.0
  0
LINE
  5
984
  8
C50_BASE$0$L
 10
0.3645
 20
0.51
 30
0.0
 11
0.3645
 21
1.827515
 31
0.0
  0
LINE
  5
985
  8
C50_BASE$0$L
 10
0.579
 20
0.51
 30
0.0
 11
0.579
 21
1.9375
 31
0.0
  0
LINE
  5
986
  8
C50_BASE$0$L
 10
0.301
 20
0.51
 30
0.0
 11
0.301
 21
1.9375
 31
0.0
  0
LINE
  5
987
  8
C50_BASE$0$L
 10
0.579
 20
1.9375
 30
0.0
 11
0.5155
 21
1.827515
 31
0.0
  0
LINE
  5
988
  8
C50_BASE$0$L
 10
0.301
 20
1.9375
 30
0.0
 11
0.3645
 21
1.827515
 31
0.0
  0
LINE
  5
989
  8
C50_BASE$0$L
 10
0.579
 20
1.9375
 30
0.0
 11
0.72
 21
1.9375
 31
0.0
  0
LINE
  5
98A
  8
C50_BASE$0$L
 10
0.301
 20
1.9375
 30
0.0
 11
0.155
 21
1.9375
 31
0.0
  0
LINE
  5
98B
  8
C50_BASE$0$L
 10
0.155
 20
0.51
 30
0.0
 11
0.155
 21
1.9375
 31
0.0
  0
LINE
  5
98C
  8
C50_BASE$0$L
 10
0.125
 20
1.9075
 30
0.0
 11
0.155
 21
1.9375
 31
0.0
  0
LINE
  5
98D
  8
C50_BASE$0$L
 10
0.5155
 20
1.797
 30
0.0
 11
0.3645
 21
1.797
 31
0.0
  0
ARC
  5
98E
  8
C50_BASE$0$L
 10
0.105
 20
1.395
 30
0.0
 40
0.02
 50
270.0
 51
0.0
  0
LINE
  5
98F
  8
C50_BASE$0$L
 10
0.579
 20
-0.51
 30
0.0
 11
0.579
 21
-1.9375
 31
0.0
  0
LINE
  5
990
  8
C50_BASE$0$L
 10
0.5155
 20
-0.51
 30
0.0
 11
0.5155
 21
-1.827515
 31
0.0
  0
LINE
  5
991
  8
C50_BASE$0$L
 10
0.3645
 20
-0.51
 30
0.0
 11
0.3645
 21
-1.827515
 31
0.0
  0
LINE
  5
992
  8
C50_BASE$0$L
 10
0.301
 20
-0.51
 30
0.0
 11
0.301
 21
-1.9375
 31
0.0
  0
LINE
  5
993
  8
C50_BASE$0$L
 10
0.155
 20
-0.51
 30
0.0
 11
0.155
 21
-1.9375
 31
0.0
  0
LINE
  5
994
  8
C50_BASE$0$L
 10
0.579
 20
-1.9375
 30
0.0
 11
0.72
 21
-1.9375
 31
0.0
  0
LINE
  5
995
  8
C50_BASE$0$L
 10
0.301
 20
-1.9375
 30
0.0
 11
0.3645
 21
-1.827515
 31
0.0
  0
LINE
  5
996
  8
C50_BASE$0$L
 10
0.579
 20
-1.9375
 30
0.0
 11
0.5155
 21
-1.827515
 31
0.0
  0
LINE
  5
997
  8
C50_BASE$0$L
 10
0.301
 20
-1.9375
 30
0.0
 11
0.155
 21
-1.9375
 31
0.0
  0
LINE
  5
998
  8
C50_BASE$0$L
 10
0.125
 20
-1.9075
 30
0.0
 11
0.155
 21
-1.9375
 31
0.0
  0
LINE
  5
999
  8
C50_BASE$0$L
 10
0.5155
 20
-1.797
 30
0.0
 11
0.3645
 21
-1.797
 31
0.0
  0
LINE
  5
99A
  8
C50_BASE$0$L
 10
0.125
 20
-0.51
 30
0.0
 11
0.695204
 21
-0.51
 31
0.0
  0
ARC
  5
99B
  8
C50_BASE$0$L
 10
0.105
 20
-1.395
 30
0.0
 40
0.02
 50
0.0
 51
90.0
  0
SOLID
  5
99C
  8
C50_BASE$0$D
 10
-0.371748
 20
1.44279
 30
0.0
 11
-0.408045
 21
1.425982
 31
0.0
 12
-0.339474
 22
1.325493
 32
0.0
 13
-0.339474
 23
1.325493
 33
0.0
  0
LINE
  5
99D
  8
C50_BASE$0$D
 10
-0.389896
 20
1.434386
 30
0.0
 11
-1.092609
 21
2.951982
 31
0.0
  0
LINE
  5
99E
  8
C50_BASE$0$D
 10
-1.092609
 20
2.951982
 30
0.0
 11
-1.225138
 21
2.951982
 31
0.0
  0
TEXT
  5
99F
  8
C50_BASE$0$D
 10
-2.677478
 20
2.903767
 30
0.0
 40
0.125
  1
50 V-FLANGE
  7
C50_BASE$0$STANDARD
 72
     2
 11
-1.323312
 21
2.966267
 31
0.0
 73
     2
  0
TEXT
  5
9A0
  8
C50_BASE$0$D
 10
-3.030563
 20
2.905161
 30
0.0
 40
0.09
  1
CAT
  7
C50_BASE$0$STANDARD
 72
     2
 11
-2.790563
 21
2.950161
 31
0.0
 73
     2
  0
ENDBLK
  5
6E0
  8
0
  6
CONTINUOUS
 62
     7
  0
BLOCK
  8
0
  2
*D7
 70
     1
 10
0.0
 20
0.0
 30
0.0
  3
*D7
  1

  0
LINE
  5
95B
  8
0
  6
BYBLOCK
 62
     0
 10
2.2825
 20
2.53065
 30
0.0
 11
5.425843
 21
2.53065
 31
0.0
  0
LINE
  5
95C
  8
0
  6
BYBLOCK
 62
     0
 10
2.2825
 20
-2.53065
 30
0.0
 11
5.425843
 21
-2.53065
 31
0.0
  0
LINE
  5
95D
  8
0
  6
BYBLOCK
 62
     0
 10
5.375843
 20
2.41065
 30
0.0
 11
5.375843
 21
0.1525
 31
0.0
  0
LINE
  5
95E
  8
0
  6
BYBLOCK
 62
     0
 10
5.375843
 20
-2.41065
 30
0.0
 11
5.375843
 21
-0.1525
 31
0.0
  0
SOLID
  5
95F
  8
0
  6
BYBLOCK
 62
     0
 10
5.355843
 20
2.41065
 30
0.0
 11
5.395843
 21
2.41065
 31
0.0
 12
5.375843
 22
2.53065
 32
0.0
 13
5.375843
 23
2.53065
 33
0.0
  0
SOLID
  5
960
  8
0
  6
BYBLOCK
 62
     0
 10
5.355843
 20
-2.41065
 30
0.0
 11
5.395843
 21
-2.41065
 31
0.0
 12
5.375843
 22
-2.53065
 32
0.0
 13
5.375843
 23
-2.53065
 33
0.0
  0
TEXT
  5
961
  8
0
  6
CONTINUOUS
 62
     0
 10
5.094593
 20
-0.0625
 30
0.0
 40
0.125
  1
5.0613
  0
POINT
  5
962
  8
DEFPOINTS
  6
BYBLOCK
 62
     0
 10
2.22
 20
2.53065
 30
0.0
  0
POINT
  5
963
  8
DEFPOINTS
  6
BYBLOCK
 62
     0
 10
2.22
 20
-2.53065
 30
0.0
  0
POINT
  5
964
  8
DEFPOINTS
  6
BYBLOCK
 62
     0
 10
5.375843
 20
-2.53065
 30
0.0
  0
ENDBLK
  5
965
  8
0
  0
ENDSEC
  0
SECTION
  2
ENTITIES
  0
POINT
  5
6B5
  8
DEFPOINTS
  6
BYBLOCK
 62
     0
 10
0.0
 20
-0.875
 30
0.0
  0
LINE
  5
6B6
  8
H
 10
-2.25
 20
-0.4375
 30
0.0
 11
-0.762877
 21
-0.4375
 31
0.0
  0
LINE
  5
6B7
  8
H
 10
-2.25
 20
0.4375
 30
0.0
 11
-0.762877
 21
0.4375
 31
0.0
  0
LINE
  5
6B8
  8
H
 10
-0.650215
 20
0.25
 30
0.0
 11
-0.762877
 21
0.4375
 31
0.0
  0
LINE
  5
6B9
  8
H
 10
-0.762877
 20
0.4375
 30
0.0
 11
-0.762877
 21
-0.4375
 31
0.0
  0
LINE
  5
6BA
  8
L
 10
1.033675
 20
-1.375
 30
0.0
 11
1.35
 21
-1.375
 31
0.0
  0
LINE
  5
6BB
  8
L
 10
1.287974
 20
1.375
 30
0.0
 11
1.35
 21
1.375
 31
0.0
  0
LINE
  5
6BC
  8
L
 10
1.38
 20
2.4075
 30
0.0
 11
1.38
 21
1.405
 31
0.0
  0
ARC
  5
6BD
  8
L
 10
1.35
 20
1.405
 30
0.0
 40
0.03
 50
270.0
 51
0.0
  0
LINE
  5
6BE
  8
L
 10
1.32
 20
-1.375
 30
0.0
 11
1.35
 21
-1.375
 31
0.0
  0
ARC
  5
6BF
  8
L
 10
1.35
 20
-1.405
 30
0.0
 40
0.03
 50
0.0
 51
90.0
  0
INSERT
  5
6C0
  8
D
  2
C50_1
 10
0.0
 20
0.0
 30
0.0
  0
LINE
  5
6C1
  8
L
 10
1.38
 20
1.435934
 30
0.0
 11
1.38
 21
-1.405
 31
0.0
  0
LINE
  5
6C3
  8
H
 10
0.941966
 20
0.25
 30
0.0
 11
-0.650215
 21
0.25
 31
0.0
  0
LINE
  5
6C4
  8
H
 10
0.941966
 20
-0.25
 30
0.0
 11
-0.650215
 21
-0.25
 31
0.0
  0
LINE
  5
6C5
  8
H
 10
-0.650215
 20
-0.25
 30
0.0
 11
-0.762877
 21
-0.4375
 31
0.0
  0
LINE
  5
6C6
  8
H
 10
-0.650215
 20
0.25
 30
0.0
 11
-0.650215
 21
-0.25
 31
0.0
  0
LINE
  5
6C7
  8
D
 10
0.0
 20
4.151235
 30
0.0
 11
0.0
 21
1.510877
 31
0.0
  0
INSERT
  5
6C8
  8
D
  2
LOGO
 10
-0.765072
 20
0.851618
 30
0.0
 41
0.5
 42
0.5
 43
0.5
  0
TEXT
  5
6C9
  8
D
 10
-1.220835
 20
0.534686
 30
0.0
 40
0.125
  1
C50-20FM1
  0
LINE
  5
6CA
  8
0
  6
BYBLOCK
 62
     0
 10
0.0
 20
4.151235
 30
0.0
 11
0.0
 21
4.213707
 31
0.0
  0
LINE
  5
6CB
  8
0
  6
BYBLOCK
 62
     0
 10
2.25
 20
3.924157
 30
0.0
 11
2.25
 21
4.213707
 31
0.0
  0
LINE
  5
6CC
  8
0
  6
BYBLOCK
 62
     0
 10
0.12
 20
4.163707
 30
0.0
 11
0.795417
 21
4.163707
 31
0.0
  0
LINE
  5
6CD
  8
0
  6
BYBLOCK
 62
     0
 10
2.13
 20
4.163707
 30
0.0
 11
1.454583
 21
4.163707
 31
0.0
  0
SOLID
  5
6CE
  8
0
  6
BYBLOCK
 62
     0
 10
0.12
 20
4.183707
 30
0.0
 11
0.12
 21
4.143707
 31
0.0
 12
0.0
 22
4.163707
 32
0.0
 13
0.0
 23
4.163707
 33
0.0
  0
SOLID
  5
6CF
  8
0
  6
BYBLOCK
 62
     0
 10
2.13
 20
4.183707
 30
0.0
 11
2.13
 21
4.143707
 31
0.0
 12
2.25
 22
4.163707
 32
0.0
 13
2.25
 23
4.163707
 33
0.0
  0
TEXT
  5
6D0
  8
0
  6
BYBLOCK
 62
     0
 10
0.9375
 20
4.101207
 30
0.0
 40
0.125
  1
2.25
 72
     4
 11
1.125
 21
4.163707
 31
0.0
  0
POINT
  5
6D1
  8
DEFPOINTS
  6
BYBLOCK
 62
     0
 10
0.0
 20
4.088735
 30
0.0
  0
POINT
  5
6D2
  8
DEFPOINTS
  6
BYBLOCK
 62
     0
 10
2.25
 20
3.861657
 30
0.0
  0
POINT
  5
6D3
  8
DEFPOINTS
  6
BYBLOCK
 62
     0
 10
2.25
 20
4.163707
 30
0.0
  0
DIMENSION
  5
6D7
  8
D
  2
*D5
 10
4.208464
 20
-1.0
 30
0.0
 11
4.208464
 21
0.0
 31
0.0
  1
2.00
 13
3.01
 23
1.0
 33
0.0
 14
3.01
 24
-1.0
 34
0.0
 50
90.0
  0
LINE
  5
926
  8
L
 10
2.25
 20
2.50065
 30
0.0
 11
2.25
 21
0.0
 31
0.0
  0
POLYLINE
  5
927
  8
0
 66
     1
 10
0.0
 20
0.0
 30
0.0
  0
VERTEX
  5
133C
  8
0
 10
10.243115
 20
-4.231922
 30
0.0
  0
VERTEX
  5
133D
  8
0
 10
10.243115
 20
-4.231922
 30
0.0
  0
SEQEND
  5
133E
  8
0
  0
LINE
  5
92F
  8
L
 10
1.41
 20
2.53065
 30
0.0
 11
2.22
 21
2.53065
 31
0.0
  0
LINE
  5
930
  8
L
 10
2.25
 20
2.50065
 30
0.0
 11
2.22
 21
2.53065
 31
0.0
  0
LINE
  5
931
  8
L
 10
2.22
 20
2.53065
 30
0.0
 11
2.22
 21
-2.53065
 31
0.0
  0
LINE
  5
932
  8
L
 10
1.38
 20
2.50065
 30
0.0
 11
1.41
 21
2.53065
 31
0.0
  0
LINE
  5
933
  8
L
 10
1.41
 20
2.53065
 30
0.0
 11
1.41
 21
-2.53065
 31
0.0
  0
LINE
  5
934
  8
L
 10
1.38
 20
-2.50065
 30
0.0
 11
1.38
 21
2.50065
 31
0.0
  0
LINE
  5
935
  8
L
 10
2.25
 20
-2.50065
 30
0.0
 11
2.25
 21
0.0
 31
0.0
  0
LINE
  5
936
  8
L
 10
1.38
 20
-2.50065
 30
0.0
 11
1.41
 21
-2.53065
 31
0.0
  0
LINE
  5
937
  8
L
 10
2.25
 20
-2.50065
 30
0.0
 11
2.22
 21
-2.53065
 31
0.0
  0
LINE
  5
938
  8
H
 10
2.15
 20
-0.5
 30
0.0
 11
2.15
 21
0.5
 31
0.0
  0
LINE
  5
939
  8
H
 10
1.25
 20
-0.515
 30
0.0
 11
1.25
 21
0.515
 31
0.0
  0
LINE
  5
93A
  8
H
 10
1.25
 20
0.515
 30
0.0
 11
1.5
 21
0.515
 31
0.0
  0
LINE
  5
93B
  8
H
 10
1.25
 20
-0.515
 30
0.0
 11
1.5
 21
-0.515
 31
0.0
  0
LINE
  5
93C
  8
H
 10
1.5
 20
-0.515
 30
0.0
 11
1.5
 21
0.515
 31
0.0
  0
LINE
  5
93D
  8
H
 10
1.5
 20
0.5
 30
0.0
 11
2.15
 21
0.5
 31
0.0
  0
LINE
  5
93E
  8
H
 10
1.5
 20
-0.5
 30
0.0
 11
2.15
 21
-0.5
 31
0.0
  0
LINE
  5
93F
  8
H
 10
2.15
 20
0.5
 30
0.0
 11
2.25
 21
0.557735
 31
0.0
  0
LINE
  5
940
  8
H
 10
2.15
 20
-0.5
 30
0.0
 11
2.25
 21
-0.557735
 31
0.0
  0
LINE
  5
941
  8
H
 10
1.25
 20
0.5
 30
0.0
 11
1.099785
 21
0.25
 31
0.0
  0
LINE
  5
942
  8
H
 10
0.941966
 20
0.25
 30
0.0
 11
1.099785
 21
0.25
 31
0.0
  0
LINE
  5
943
  8
H
 10
0.941966
 20
-0.25
 30
0.0
 11
1.099785
 21
-0.25
 31
0.0
  0
LINE
  5
944
  8
H
 10
1.25
 20
-0.5
 30
0.0
 11
1.099785
 21
-0.25
 31
0.0
  0
LINE
  5
945
  8
H
 10
1.099785
 20
0.25
 30
0.0
 11
1.099785
 21
-0.25
 31
0.0
  0
DIMENSION
  5
946
  8
D
  2
*D7
 10
5.375843
 20
-2.53065
 30
0.0
 11
5.375843
 21
0.0
 31
0.0
 13
2.22
 23
2.53065
 33
0.0
 14
2.22
 24
-2.53065
 34
0.0
 50
90.0
  0
LINE
  5
947
  8
D
 10
2.25
 20
2.660513
 30
0.0
 11
2.25
 21
4.236324
 31
0.0
  0
LINE
  5
948
  8
H
 10
1.38
 20
2.28
 30
0.0
 11
2.25
 21
2.28
 31
0.0
  0
LINE
  5
949
  8
H
 10
1.38
 20
1.28
 30
0.0
 11
2.25
 21
1.28
 31
0.0
  0
LINE
  5
94A
  8
H
 10
1.38
 20
-1.28
 30
0.0
 11
2.25
 21
-1.28
 31
0.0
  0
LINE
  5
94B
  8
H
 10
1.38
 20
-2.28
 30
0.0
 11
2.25
 21
-2.28
 31
0.0
  0
LINE
  5
94C
  8
L
 10
1.41
 20
-2.53065
 30
0.0
 11
2.22
 21
-2.53065
 31
0.0
  0
LINE
  5
F28
  8
L
 10
2.25
 20
0.0
 30
0.0
 11
2.25
 21
-0.98
 31
0.0
  0
LINE
  5
F29
  8
L
 10
2.27
 20
-1.0
 30
0.0
 11
3.01
 21
-1.0
 31
0.0
  0
LINE
  5
F2A
  8
L
 10
3.25
 20
-0.940412
 30
0.0
 11
3.25
 21
0.0
 31
0.0
  0
LINE
  5
F2B
  8
H
 10
1.5
 20
0.0
 30
0.0
 11
1.5
 21
-0.46
 31
0.0
  0
LINE
  5
F2C
  8
H
 10
2.2
 20
-0.5
 30
0.0
 11
1.66
 21
-0.5
 31
0.0
  0
LINE
  5
F2D
  8
H
 10
1.56
 20
-0.495
 30
0.0
 11
1.5
 21
-0.46
 31
0.0
  0
LINE
  5
F2E
  8
H
 10
1.56
 20
-0.495
 30
0.0
 11
1.56
 21
0.0
 31
0.0
  0
LINE
  5
F2F
  8
H
 10
1.66
 20
0.0
 30
0.0
 11
1.66
 21
-0.5
 31
0.0
  0
LINE
  5
F30
  8
H
 10
1.66
 20
-0.495
 30
0.0
 11
1.56
 21
-0.495
 31
0.0
  0
LINE
  5
F31
  8
H
 10
2.2
 20
0.0
 30
0.0
 11
2.2
 21
-0.5
 31
0.0
  0
LINE
  5
F32
  8
H
 10
2.2
 20
-0.5
 30
0.0
 11
2.259675
 21
-0.465547
 31
0.0
  0
LINE
  5
F33
  8
H
 10
2.25
 20
-0.528868
 30
0.0
 11
2.284675
 21
-0.508848
 31
0.0
  0
LINE
  5
F34
  8
H
 10
2.259675
 20
-0.465547
 30
0.0
 11
2.284675
 21
-0.508848
 31
0.0
  0
LINE
  5
F35
  8
L
 10
3.01
 20
-1.0
 30
0.0
 11
3.01
 21
0.0
 31
0.0
  0
LINE
  5
F36
  8
L
 10
3.01
 20
-1.0
 30
0.0
 11
3.143552
 21
-0.98123
 31
0.0
  0
LINE
  5
F37
  8
L
 10
3.191318
 20
-0.989653
 30
0.0
 11
3.143552
 21
-0.98123
 31
0.0
  0
ARC
  5
F38
  8
L
 10
3.2
 20
-0.940412
 30
0.0
 40
0.05
 50
260.0
 51
0.0
  0
LINE
  5
F39
  8
L
 10
3.143552
 20
-0.98123
 30
0.0
 11
3.143552
 21
0.0
 31
0.0
  0
LINE
  5
F3A
  8
L
 10
2.25
 20
-0.98
 30
0.0
 11
2.27
 21
-1.0
 31
0.0
  0
LINE
  5
F3B
  8
L
 10
2.27
 20
-1.0
 30
0.0
 11
2.27
 21
0.0
 31
0.0
  0
LINE
  5
F3C
  8
H
 10
3.19
 20
-0.39
 30
0.0
 11
2.7
 21
-0.39
 31
0.0
  0
LINE
  5
F3D
  8
H
 10
2.7
 20
-0.39
 30
0.0
 11
2.7
 21
0.0
 31
0.0
  0
LINE
  5
F3E
  8
H
 10
2.7
 20
-0.2625
 30
0.0
 11
1.56
 21
-0.2625
 31
0.0
  0
LINE
  5
F3F
  8
H
 10
1.56
 20
-0.2625
 30
0.0
 11
1.5
 21
-0.297141
 31
0.0
  0
LINE
  5
F40
  8
H
 10
3.19
 20
-0.39
 30
0.0
 11
3.19
 21
0.0
 31
0.0
  0
LINE
  5
F41
  8
H
 10
3.19
 20
-0.39
 30
0.0
 11
3.25
 21
-0.424641
 31
0.0
  0
LINE
  5
F42
  8
H
 10
3.19
 20
0.39
 30
0.0
 11
3.25
 21
0.424641
 31
0.0
  0
LINE
  5
F43
  8
H
 10
3.19
 20
0.39
 30
0.0
 11
3.19
 21
0.0
 31
0.0
  0
LINE
  5
F44
  8
H
 10
1.56
 20
0.2625
 30
0.0
 11
1.5
 21
0.297141
 31
0.0
  0
LINE
  5
F45
  8
H
 10
2.7
 20
0.2625
 30
0.0
 11
1.56
 21
0.2625
 31
0.0
  0
LINE
  5
F46
  8
H
 10
2.7
 20
0.39
 30
0.0
 11
2.7
 21
0.0
 31
0.0
  0
LINE
  5
F47
  8
H
 10
3.19
 20
0.39
 30
0.0
 11
2.7
 21
0.39
 31
0.0
  0
LINE
  5
F48
  8
L
 10
2.27
 20
1.0
 30
0.0
 11
2.27
 21
0.0
 31
0.0
  0
LINE
  5
F49
  8
L
 10
2.25
 20
0.98
 30
0.0
 11
2.27
 21
1.0
 31
0.0
  0
LINE
  5
F4A
  8
L
 10
3.143552
 20
0.98123
 30
0.0
 11
3.143552
 21
0.0
 31
0.0
  0
ARC
  5
F4B
  8
L
 10
3.2
 20
0.940412
 30
0.0
 40
0.05
 50
0.0
 51
100.0
  0
LINE
  5
F4C
  8
L
 10
3.191318
 20
0.989653
 30
0.0
 11
3.143552
 21
0.98123
 31
0.0
  0
LINE
  5
F4D
  8
L
 10
3.01
 20
1.0
 30
0.0
 11
3.143552
 21
0.98123
 31
0.0
  0
LINE
  5
F4E
  8
L
 10
3.01
 20
1.0
 30
0.0
 11
3.01
 21
0.0
 31
0.0
  0
LINE
  5
F4F
  8
H
 10
2.259675
 20
0.465547
 30
0.0
 11
2.284675
 21
0.508848
 31
0.0
  0
LINE
  5
F50
  8
H
 10
2.25
 20
0.528868
 30
0.0
 11
2.284675
 21
0.508848
 31
0.0
  0
LINE
  5
F51
  8
H
 10
2.2
 20
0.5
 30
0.0
 11
2.259675
 21
0.465547
 31
0.0
  0
LINE
  5
F52
  8
H
 10
2.2
 20
0.0
 30
0.0
 11
2.2
 21
0.5
 31
0.0
  0
LINE
  5
F53
  8
H
 10
1.66
 20
0.495
 30
0.0
 11
1.56
 21
0.495
 31
0.0
  0
LINE
  5
F54
  8
H
 10
1.66
 20
0.0
 30
0.0
 11
1.66
 21
0.5
 31
0.0
  0
LINE
  5
F55
  8
H
 10
1.56
 20
0.495
 30
0.0
 11
1.56
 21
0.0
 31
0.0
  0
LINE
  5
F56
  8
H
 10
1.56
 20
0.495
 30
0.0
 11
1.5
 21
0.46
 31
0.0
  0
LINE
  5
F57
  8
H
 10
2.2
 20
0.5
 30
0.0
 11
1.66
 21
0.5
 31
0.0
  0
LINE
  5
F58
  8
H
 10
1.5
 20
0.0
 30
0.0
 11
1.5
 21
0.46
 31
0.0
  0
LINE
  5
F59
  8
L
 10
3.25
 20
0.940412
 30
0.0
 11
3.25
 21
0.0
 31
0.0
  0
LINE
  5
F5A
  8
L
 10
2.27
 20
1.0
 30
0.0
 11
3.01
 21
1.0
 31
0.0
  0
LINE
  5
F5B
  8
L
 10
2.25
 20
0.0
 30
0.0
 11
2.25
 21
0.98
 31
0.0
  0
POINT
  5
F5C
  8
L
 10
3.01
 20
-1.0
 30
0.0
  0
POINT
  5
F5D
  8
L
 10
3.143552
 20
-0.98123
 30
0.0
  0
POINT
  5
F5E
  8
L
 10
2.27
 20
-1.0
 30
0.0
  0
POINT
  5
F5F
  8
L
 10
3.01
 20
-1.0
 30
0.0
  0
POINT
  5
F60
  8
H
 10
1.5
 20
0.46
 30
0.0
  0
POINT
  5
F61
  8
L
 10
2.25
 20
0.98
 30
0.0
  0
POINT
  5
F62
  8
L
 10
3.25
 20
0.940412
 30
0.0
  0
POINT
  5
F63
  8
L
 10
3.01
 20
1.0
 30
0.0
  0
POINT
  5
F64
  8
L
 10
3.25
 20
0.940412
 30
0.0
  0
POINT
  5
F65
  8
L
 10
2.25
 20
0.98
 30
0.0
  0
POINT
  5
F66
  8
H
 10
1.66
 20
0.5
 30
0.0
  0
POINT
  5
F67
  8
H
 10
1.5
 20
0.46
 30
0.0
  0
POINT
  5
F68
  8
L
 10
3.25
 20
-0.940412
 30
0.0
  0
POINT
  5
F69
  8
H
 10
2.7
 20
-0.39
 30
0.0
  0
INSERT
  5
F6A
  8
DIM_ATT
 66
     1
  2
ATT_BLK
 10
13.438927
 20
6.0818
 30
0.0
  0
ATTRIB
  5
F6B
  8
DIM_ATT
 10
13.438927
 20
6.2168
 30
0.0
 40
0.09
  1
HOR
  2
TYPE
 70
     1
  0
ATTRIB
  5
F6C
  8
DIM_ATT
 10
13.438927
 20
6.0818
 30
0.0
 40
0.09
  1
.38
  2
A1
 70
     1
  0
ATTRIB
  5
F6D
  8
DIM_ATT
 10
13.438927
 20
5.9468
 30
0.0
 40
0.09
  1
5.957400,7.861800
  2
A2
 70
     1
  0
ATTRIB
  5
F6E
  8
DIM_ATT
 10
13.438927
 20
5.8118
 30
0.0
 40
0.09
  1
6.337400,7.832300
  2
A3
 70
     1
  0
ATTRIB
  5
F6F
  8
DIM_ATT
 10
13.438927
 20
5.6768
 30
0.0
 40
0.09
  1
1.000000,9.159900
  2
A4
 70
     1
  0
ATTRIB
  5
F70
  8
DIM_ATT
 10
13.438927
 20
5.5418
 30
0.0
 40
0.09
  1

  2
A5
 70
     1
  0
ATTRIB
  5
F71
  8
DIM_ATT
 10
13.438927
 20
5.4068
 30
0.0
 40
0.09
  1
DIMFIX
  2
A6
 70
     1
  0
ATTRIB
  5
F72
  8
DIM_ATT
 10
13.438927
 20
5.2718
 30
0.0
 40
0.09
  1
0
  2
A7
 70
     1
  0
ATTRIB
  5
F73
  8
DIM_ATT
 10
13.438927
 20
5.1368
 30
0.0
 40
0.09
  1
0
  2
A8
 70
     1
  0
SEQEND
  5
F74
  8
DIM_ATT
  0
INSERT
  5
F75
  8
DIM_ATT
 66
     1
  2
ATT_BLK
 10
14.398927
 20
5.0713
 30
0.0
  0
ATTRIB
  5
F76
  8
DIM_ATT
 10
14.398927
 20
5.2063
 30
0.0
 40
0.09
  1
HOR
  2
TYPE
 70
     1
  0
ATTRIB
  5
F77
  8
DIM_ATT
 10
14.398927
 20
5.0713
 30
0.0
 40
0.09
  1
.16
  2
A1
 70
     1
  0
ATTRIB
  5
F78
  8
DIM_ATT
 10
14.398927
 20
4.9363
 30
0.0
 40
0.09
  1
7.077400,6.881300
  2
A2
 70
     1
  0
ATTRIB
  5
F79
  8
DIM_ATT
 10
14.398927
 20
4.8013
 30
0.0
 40
0.09
  1
6.917400,6.851300
  2
A3
 70
     1
  0
ATTRIB
  5
F7A
  8
DIM_ATT
 10
14.398927
 20
4.6663
 30
0.0
 40
0.09
  1
1.000000,5.949300
  2
A4
 70
     1
  0
ATTRIB
  5
F7B
  8
DIM_ATT
 10
14.398927
 20
4.5313
 30
0.0
 40
0.09
  1

  2
A5
 70
     1
  0
ATTRIB
  5
F7C
  8
DIM_ATT
 10
14.398927
 20
4.3963
 30
0.0
 40
0.09
  1
DIMFIX
  2
A6
 70
     1
  0
ATTRIB
  5
F7D
  8
DIM_ATT
 10
14.398927
 20
4.2613
 30
0.0
 40
0.09
  1
0
  2
A7
 70
     1
  0
ATTRIB
  5
F7E
  8
DIM_ATT
 10
14.398927
 20
4.1263
 30
0.0
 40
0.09
  1
0
  2
A8
 70
     1
  0
SEQEND
  5
F7F
  8
DIM_ATT
  0
INSERT
  5
F80
  8
DIM_ATT
 66
     1
  2
ATT_BLK
 10
13.438927
 20
5.0618
 30
0.0
  0
ATTRIB
  5
F81
  8
DIM_ATT
 10
13.438927
 20
5.1968
 30
0.0
 40
0.09
  1
HOR
  2
TYPE
 70
     1
  0
ATTRIB
  5
F82
  8
DIM_ATT
 10
13.438927
 20
5.0618
 30
0.0
 40
0.09
  1
1.12
  2
A1
 70
     1
  0
ATTRIB
  5
F83
  8
DIM_ATT
 10
13.438927
 20
4.9268
 30
0.0
 40
0.09
  1
5.957400,6.841800
  2
A2
 70
     1
  0
ATTRIB
  5
F84
  8
DIM_ATT
 10
13.438927
 20
4.7918
 30
0.0
 40
0.09
  1
7.077400,6.881300
  2
A3
 70
     1
  0
ATTRIB
  5
F85
  8
DIM_ATT
 10
13.438927
 20
4.6568
 30
0.0
 40
0.09
  1
1.000000,4.698100
  2
A4
 70
     1
  0
ATTRIB
  5
F86
  8
DIM_ATT
 10
13.438927
 20
4.5218
 30
0.0
 40
0.09
  1

  2
A5
 70
     1
  0
ATTRIB
  5
F87
  8
DIM_ATT
 10
13.438927
 20
4.3868
 30
0.0
 40
0.09
  1
DIMFIX
  2
A6
 70
     1
  0
ATTRIB
  5
F88
  8
DIM_ATT
 10
13.438927
 20
4.2518
 30
0.0
 40
0.09
  1
0
  2
A7
 70
     1
  0
ATTRIB
  5
F89
  8
DIM_ATT
 10
13.438927
 20
4.1168
 30
0.0
 40
0.09
  1
0
  2
A8
 70
     1
  0
SEQEND
  5
F8A
  8
DIM_ATT
  0
INSERT
  5
F8B
  8
DIM_ATT
 66
     1
  2
ATT_BLK
 10
17.595927
 20
5.5718
 30
0.0
  0
ATTRIB
  5
F8C
  8
DIM_ATT
 10
17.595927
 20
5.7068
 30
0.0
 40
0.09
  1
HOR
  2
TYPE
 70
     1
  0
ATTRIB
  5
F8D
  8
DIM_ATT
 10
17.595927
 20
5.5718
 30
0.0
 40
0.09
  1
0.53000
  2
A1
 70
     1
  0
ATTRIB
  5
F8E
  8
DIM_ATT
 10
17.595927
 20
5.4368
 30
0.0
 40
0.09
  1
10.114400,7.351800
  2
A2
 70
     1
  0
ATTRIB
  5
F8F
  8
DIM_ATT
 10
17.595927
 20
5.3018
 30
0.0
 40
0.09
  1
10.644400,5.943900
  2
A3
 70
     1
  0
ATTRIB
  5
F90
  8
DIM_ATT
 10
17.595927
 20
5.1668
 30
0.0
 40
0.09
  1
1.000000,5.877400
  2
A4
 70
     1
  0
ATTRIB
  5
F91
  8
DIM_ATT
 10
17.595927
 20
5.0318
 30
0.0
 40
0.09
  1

  2
A5
 70
     1
  0
ATTRIB
  5
F92
  8
DIM_ATT
 10
17.595927
 20
4.8968
 30
0.0
 40
0.09
  1
DIMFIX
  2
A6
 70
     1
  0
ATTRIB
  5
F93
  8
DIM_ATT
 10
17.595927
 20
4.7618
 30
0.0
 40
0.09
  1
0
  2
A7
 70
     1
  0
ATTRIB
  5
F94
  8
DIM_ATT
 10
17.595927
 20
4.6268
 30
0.0
 40
0.09
  1
0
  2
A8
 70
     1
  0
SEQEND
  5
F95
  8
DIM_ATT
  0
INSERT
  5
F96
  8
DIM_ATT
 66
     1
  2
ATT_BLK
 10
18.125927
 20
4.3035
 30
0.0
  0
ATTRIB
  5
F97
  8
DIM_ATT
 10
18.125927
 20
4.4385
 30
0.0
 40
0.09
  1
HOR
  2
TYPE
 70
     1
  0
ATTRIB
  5
F98
  8
DIM_ATT
 10
18.125927
 20
4.3035
 30
0.0
 40
0.09
  1
0.53000
  2
A1
 70
     1
  0
ATTRIB
  5
F99
  8
DIM_ATT
 10
18.125927
 20
4.1685
 30
0.0
 40
0.09
  1
11.174400,7.351800
  2
A2
 70
     1
  0
ATTRIB
  5
F9A
  8
DIM_ATT
 10
18.125927
 20
4.0335
 30
0.0
 40
0.09
  1
10.644400,6.083500
  2
A3
 70
     1
  0
ATTRIB
  5
F9B
  8
DIM_ATT
 10
18.125927
 20
3.8985
 30
0.0
 40
0.09
  1
1.000000,6.083500
  2
A4
 70
     1
  0
ATTRIB
  5
F9C
  8
DIM_ATT
 10
18.125927
 20
3.7635
 30
0.0
 40
0.09
  1

  2
A5
 70
     1
  0
ATTRIB
  5
F9D
  8
DIM_ATT
 10
18.125927
 20
3.6285
 30
0.0
 40
0.09
  1
DIMFIX
  2
A6
 70
     1
  0
ATTRIB
  5
F9E
  8
DIM_ATT
 10
18.125927
 20
3.4935
 30
0.0
 40
0.09
  1
0
  2
A7
 70
     1
  0
ATTRIB
  5
F9F
  8
DIM_ATT
 10
18.125927
 20
3.3585
 30
0.0
 40
0.09
  1
0
  2
A8
 70
     1
  0
SEQEND
  5
FA0
  8
DIM_ATT
  0
INSERT
  5
FA1
  8
DIM_ATT
 66
     1
  2
ATT_BLK
 10
14.558927
 20
5.5718
 30
0.0
  0
ATTRIB
  5
FA2
  8
DIM_ATT
 10
14.558927
 20
5.7068
 30
0.0
 40
0.09
  1
VER
  2
TYPE
 70
     1
  0
ATTRIB
  5
FA3
  8
DIM_ATT
 10
14.558927
 20
5.5718
 30
0.0
 40
0.09
  1
0.50050
  2
A1
 70
     1
  0
ATTRIB
  5
FA4
  8
DIM_ATT
 10
14.558927
 20
5.4368
 30
0.0
 40
0.09
  1
7.077400,7.351800
  2
A2
 70
     1
  0
ATTRIB
  5
FA5
  8
DIM_ATT
 10
14.558927
 20
5.3018
 30
0.0
 40
0.09
  1
7.047400,7.852300
  2
A3
 70
     1
  0
ATTRIB
  5
FA6
  8
DIM_ATT
 10
14.558927
 20
5.1668
 30
0.0
 40
0.09
  1
7.371800,1.000000
  2
A4
 70
     1
  0
ATTRIB
  5
FA7
  8
DIM_ATT
 10
14.558927
 20
5.0318
 30
0.0
 40
0.09
  1
6.337400,1.000000
  2
A5
 70
     1
  0
ATTRIB
  5
FA8
  8
DIM_ATT
 10
14.558927
 20
4.8968
 30
0.0
 40
0.09
  1
DIMFIXHIDE
  2
A6
 70
     1
  0
ATTRIB
  5
FA9
  8
DIM_ATT
 10
14.558927
 20
4.7618
 30
0.0
 40
0.09
  1
0
  2
A7
 70
     1
  0
ATTRIB
  5
FAA
  8
DIM_ATT
 10
14.558927
 20
4.6268
 30
0.0
 40
0.09
  1
0
  2
A8
 70
     1
  0
SEQEND
  5
FAB
  8
DIM_ATT
  0
INSERT
  5
FAC
  8
DIM_ATT
 66
     1
  2
ATT_BLK
 10
14.528927
 20
5.0713
 30
0.0
  0
ATTRIB
  5
FAD
  8
DIM_ATT
 10
14.528927
 20
5.2063
 30
0.0
 40
0.09
  1
VER
  2
TYPE
 70
     1
  0
ATTRIB
  5
FAE
  8
DIM_ATT
 10
14.528927
 20
5.0713
 30
0.0
 40
0.09
  1
0.50050
  2
A1
 70
     1
  0
ATTRIB
  5
FAF
  8
DIM_ATT
 10
14.528927
 20
4.9363
 30
0.0
 40
0.09
  1
7.077400,7.351800
  2
A2
 70
     1
  0
ATTRIB
  5
FB0
  8
DIM_ATT
 10
14.528927
 20
4.8013
 30
0.0
 40
0.09
  1
7.047400,6.851300
  2
A3
 70
     1
  0
ATTRIB
  5
FB1
  8
DIM_ATT
 10
14.528927
 20
4.6663
 30
0.0
 40
0.09
  1
7.456900,1.000000
  2
A4
 70
     1
  0
ATTRIB
  5
FB2
  8
DIM_ATT
 10
14.528927
 20
4.5313
 30
0.0
 40
0.09
  1
6.367700,1.000000
  2
A5
 70
     1
  0
ATTRIB
  5
FB3
  8
DIM_ATT
 10
14.528927
 20
4.3963
 30
0.0
 40
0.09
  1
DIMFIXHIDE
  2
A6
 70
     1
  0
ATTRIB
  5
FB4
  8
DIM_ATT
 10
14.528927
 20
4.2613
 30
0.0
 40
0.09
  1
0
  2
A7
 70
     1
  0
ATTRIB
  5
FB5
  8
DIM_ATT
 10
14.528927
 20
4.1263
 30
0.0
 40
0.09
  1
0
  2
A8
 70
     1
  0
SEQEND
  5
FB6
  8
DIM_ATT
  0
INSERT
  5
FB7
  8
DIM_ATT
 66
     1
  2
ATT_BLK
 10
13.438927
 20
5.5718
 30
0.0
  0
ATTRIB
  5
FB8
  8
DIM_ATT
 10
13.438927
 20
5.7068
 30
0.0
 40
0.09
  1
VER
  2
TYPE
 70
     1
  0
ATTRIB
  5
FB9
  8
DIM_ATT
 10
13.438927
 20
5.5718
 30
0.0
 40
0.09
  1
0.53000
  2
A1
 70
     1
  0
ATTRIB
  5
FBA
  8
DIM_ATT
 10
13.438927
 20
5.4368
 30
0.0
 40
0.09
  1
5.957400,7.351800
  2
A2
 70
     1
  0
ATTRIB
  5
FBB
  8
DIM_ATT
 10
13.438927
 20
5.3018
 30
0.0
 40
0.09
  1
5.977400,7.881800
  2
A3
 70
     1
  0
ATTRIB
  5
FBC
  8
DIM_ATT
 10
13.438927
 20
5.1668
 30
0.0
 40
0.09
  1
5.567500,1.000000
  2
A4
 70
     1
  0
ATTRIB
  5
FBD
  8
DIM_ATT
 10
13.438927
 20
5.0318
 30
0.0
 40
0.09
  1
6.337400,1.000000
  2
A5
 70
     1
  0
ATTRIB
  5
FBE
  8
DIM_ATT
 10
13.438927
 20
4.8968
 30
0.0
 40
0.09
  1
DIMFIXHIDE
  2
A6
 70
     1
  0
ATTRIB
  5
FBF
  8
DIM_ATT
 10
13.438927
 20
4.7618
 30
0.0
 40
0.09
  1
0
  2
A7
 70
     1
  0
ATTRIB
  5
FC0
  8
DIM_ATT
 10
13.438927
 20
4.6268
 30
0.0
 40
0.09
  1
0
  2
A8
 70
     1
  0
SEQEND
  5
FC1
  8
DIM_ATT
  0
INSERT
  5
FC2
  8
DIM_ATT
 66
     1
  2
ATT_BLK
 10
13.458927
 20
5.0418
 30
0.0
  0
ATTRIB
  5
FC3
  8
DIM_ATT
 10
13.458927
 20
5.1768
 30
0.0
 40
0.09
  1
VER
  2
TYPE
 70
     1
  0
ATTRIB
  5
FC4
  8
DIM_ATT
 10
13.458927
 20
5.0418
 30
0.0
 40
0.09
  1
0.53000
  2
A1
 70
     1
  0
ATTRIB
  5
FC5
  8
DIM_ATT
 10
13.458927
 20
4.9068
 30
0.0
 40
0.09
  1
5.957400,7.351800
  2
A2
 70
     1
  0
ATTRIB
  5
FC6
  8
DIM_ATT
 10
13.458927
 20
4.7718
 30
0.0
 40
0.09
  1
5.977400,6.821800
  2
A3
 70
     1
  0
ATTRIB
  5
FC7
  8
DIM_ATT
 10
13.458927
 20
4.6368
 30
0.0
 40
0.09
  1
5.459000,1.000000
  2
A4
 70
     1
  0
ATTRIB
  5
FC8
  8
DIM_ATT
 10
13.458927
 20
4.5018
 30
0.0
 40
0.09
  1
6.337400,1.000000
  2
A5
 70
     1
  0
ATTRIB
  5
FC9
  8
DIM_ATT
 10
13.458927
 20
4.3668
 30
0.0
 40
0.09
  1
DIMFIXHIDE
  2
A6
 70
     1
  0
ATTRIB
  5
FCA
  8
DIM_ATT
 10
13.458927
 20
4.2318
 30
0.0
 40
0.09
  1
0
  2
A7
 70
     1
  0
ATTRIB
  5
FCB
  8
DIM_ATT
 10
13.458927
 20
4.0968
 30
0.0
 40
0.09
  1
0
  2
A8
 70
     1
  0
SEQEND
  5
FCC
  8
DIM_ATT
  0
INSERT
  5
FCD
  8
DIM_ATT
 66
     1
  2
ATT_BLK
 10
13.818927
 20
5.5718
 30
0.0
  0
ATTRIB
  5
FCE
  8
DIM_ATT
 10
13.818927
 20
5.7068
 30
0.0
 40
0.09
  1
VER
  2
TYPE
 70
     1
  0
ATTRIB
  5
FCF
  8
DIM_ATT
 10
13.818927
 20
5.5718
 30
0.0
 40
0.09
  1
0.48500
  2
A1
 70
     1
  0
ATTRIB
  5
FD0
  8
DIM_ATT
 10
13.818927
 20
5.4368
 30
0.0
 40
0.09
  1
6.337400,7.836800
  2
A2
 70
     1
  0
ATTRIB
  5
FD1
  8
DIM_ATT
 10
13.818927
 20
5.3018
 30
0.0
 40
0.09
  1
6.337400,7.351800
  2
A3
 70
     1
  0
ATTRIB
  5
FD2
  8
DIM_ATT
 10
13.818927
 20
5.1668
 30
0.0
 40
0.09
  1
3.628600,1.000000
  2
A4
 70
     1
  0
ATTRIB
  5
FD3
  8
DIM_ATT
 10
13.818927
 20
5.0318
 30
0.0
 40
0.09
  1
6.397400,1.000000
  2
A5
 70
     1
  0
ATTRIB
  5
FD4
  8
DIM_ATT
 10
13.818927
 20
4.8968
 30
0.0
 40
0.09
  1
DIMFIXHIDE
  2
A6
 70
     1
  0
ATTRIB
  5
FD5
  8
DIM_ATT
 10
13.818927
 20
4.7618
 30
0.0
 40
0.09
  1
0
  2
A7
 70
     1
  0
ATTRIB
  5
FD6
  8
DIM_ATT
 10
13.818927
 20
4.6268
 30
0.0
 40
0.09
  1
0
  2
A8
 70
     1
  0
SEQEND
  5
FD7
  8
DIM_ATT
  0
INSERT
  5
FD8
  8
DIM_ATT
 66
     1
  2
ATT_BLK
 10
13.818927
 20
5.0868
 30
0.0
  0
ATTRIB
  5
FD9
  8
DIM_ATT
 10
13.818927
 20
5.2218
 30
0.0
 40
0.09
  1
VER
  2
TYPE
 70
     1
  0
ATTRIB
  5
FDA
  8
DIM_ATT
 10
13.818927
 20
5.0868
 30
0.0
 40
0.09
  1
0.48500
  2
A1
 70
     1
  0
ATTRIB
  5
FDB
  8
DIM_ATT
 10
13.818927
 20
4.9518
 30
0.0
 40
0.09
  1
6.337400,7.351800
  2
A2
 70
     1
  0
ATTRIB
  5
FDC
  8
DIM_ATT
 10
13.818927
 20
4.8168
 30
0.0
 40
0.09
  1
6.337400,6.866800
  2
A3
 70
     1
  0
ATTRIB
  5
FDD
  8
DIM_ATT
 10
13.818927
 20
4.6818
 30
0.0
 40
0.09
  1
3.506000,1.000000
  2
A4
 70
     1
  0
ATTRIB
  5
FDE
  8
DIM_ATT
 10
13.818927
 20
4.5468
 30
0.0
 40
0.09
  1
6.397400,1.000000
  2
A5
 70
     1
  0
ATTRIB
  5
FDF
  8
DIM_ATT
 10
13.818927
 20
4.4118
 30
0.0
 40
0.09
  1
DIMFIXHIDE
  2
A6
 70
     1
  0
ATTRIB
  5
FE0
  8
DIM_ATT
 10
13.818927
 20
4.2768
 30
0.0
 40
0.09
  1
0
  2
A7
 70
     1
  0
ATTRIB
  5
FE1
  8
DIM_ATT
 10
13.818927
 20
4.1418
 30
0.0
 40
0.09
  1
0
  2
A8
 70
     1
  0
SEQEND
  5
FE2
  8
DIM_ATT
  0
INSERT
  5
FE3
  8
DIM_ATT
 66
     1
  2
ATT_BLK
 10
14.558927
 20
5.5718
 30
0.0
  0
ATTRIB
  5
FE4
  8
DIM_ATT
 10
14.558927
 20
5.7068
 30
0.0
 40
0.09
  1
VER
  2
TYPE
 70
     1
  0
ATTRIB
  5
FE5
  8
DIM_ATT
 10
14.558927
 20
5.5718
 30
0.0
 40
0.09
  1
0.25000
  2
A1
 70
     1
  0
ATTRIB
  5
FE6
  8
DIM_ATT
 10
14.558927
 20
5.4368
 30
0.0
 40
0.09
  1
7.077400,7.601800
  2
A2
 70
     1
  0
ATTRIB
  5
FE7
  8
DIM_ATT
 10
14.558927
 20
5.3018
 30
0.0
 40
0.09
  1
7.077400,7.351800
  2
A3
 70
     1
  0
ATTRIB
  5
FE8
  8
DIM_ATT
 10
14.558927
 20
5.1668
 30
0.0
 40
0.09
  1
9.359500,1.000000
  2
A4
 70
     1
  0
ATTRIB
  5
FE9
  8
DIM_ATT
 10
14.558927
 20
5.0318
 30
0.0
 40
0.09
  1

  2
A5
 70
     1
  0
ATTRIB
  5
FEA
  8
DIM_ATT
 10
14.558927
 20
4.8968
 30
0.0
 40
0.09
  1
DIMFIXHIDE
  2
A6
 70
     1
  0
ATTRIB
  5
FEB
  8
DIM_ATT
 10
14.558927
 20
4.7618
 30
0.0
 40
0.09
  1
0
  2
A7
 70
     1
  0
ATTRIB
  5
FEC
  8
DIM_ATT
 10
14.558927
 20
4.6268
 30
0.0
 40
0.09
  1
0
  2
A8
 70
     1
  0
SEQEND
  5
FED
  8
DIM_ATT
  0
INSERT
  5
FEE
  8
DIM_ATT
 66
     1
  2
ATT_BLK
 10
14.558927
 20
5.3218
 30
0.0
  0
ATTRIB
  5
FEF
  8
DIM_ATT
 10
14.558927
 20
5.4568
 30
0.0
 40
0.09
  1
VER
  2
TYPE
 70
     1
  0
ATTRIB
  5
FF0
  8
DIM_ATT
 10
14.558927
 20
5.3218
 30
0.0
 40
0.09
  1
0.25000
  2
A1
 70
     1
  0
ATTRIB
  5
FF1
  8
DIM_ATT
 10
14.558927
 20
5.1868
 30
0.0
 40
0.09
  1
7.077400,7.351800
  2
A2
 70
     1
  0
ATTRIB
  5
FF2
  8
DIM_ATT
 10
14.558927
 20
5.0518
 30
0.0
 40
0.09
  1
7.077400,7.101800
  2
A3
 70
     1
  0
ATTRIB
  5
FF3
  8
DIM_ATT
 10
14.558927
 20
4.9168
 30
0.0
 40
0.09
  1
9.597100,1.000000
  2
A4
 70
     1
  0
ATTRIB
  5
FF4
  8
DIM_ATT
 10
14.558927
 20
4.7818
 30
0.0
 40
0.09
  1

  2
A5
 70
     1
  0
ATTRIB
  5
FF5
  8
DIM_ATT
 10
14.558927
 20
4.6468
 30
0.0
 40
0.09
  1
DIMFIXHIDE
  2
A6
 70
     1
  0
ATTRIB
  5
FF6
  8
DIM_ATT
 10
14.558927
 20
4.5118
 30
0.0
 40
0.09
  1
0
  2
A7
 70
     1
  0
ATTRIB
  5
FF7
  8
DIM_ATT
 10
14.558927
 20
4.3768
 30
0.0
 40
0.09
  1
0
  2
A8
 70
     1
  0
SEQEND
  5
FF8
  8
DIM_ATT
  0
INSERT
  5
FF9
  8
DIM_ATT
 66
     1
  2
ATT_BLK
 10
19.293327
 20
5.5718
 30
0.0
  0
ATTRIB
  5
FFA
  8
DIM_ATT
 10
19.293327
 20
5.7068
 30
0.0
 40
0.09
  1
VER
  2
TYPE
 70
     1
  0
ATTRIB
  5
FFB
  8
DIM_ATT
 10
19.293327
 20
5.5718
 30
0.0
 40
0.09
  1
0.53000
  2
A1
 70
     1
  0
ATTRIB
  5
FFC
  8
DIM_ATT
 10
19.293327
 20
5.4368
 30
0.0
 40
0.09
  1
10.644400,7.881800
  2
A2
 70
     1
  0
ATTRIB
  5
FFD
  8
DIM_ATT
 10
19.293327
 20
5.3018
 30
0.0
 40
0.09
  1
11.811800,7.351800
  2
A3
 70
     1
  0
ATTRIB
  5
FFE
  8
DIM_ATT
 10
19.293327
 20
5.1668
 30
0.0
 40
0.09
  1
11.811800,1.000000
  2
A4
 70
     1
  0
ATTRIB
  5
FFF
  8
DIM_ATT
 10
19.293327
 20
5.0318
 30
0.0
 40
0.09
  1

  2
A5
 70
     1
  0
ATTRIB
  5
1000
  8
DIM_ATT
 10
19.293327
 20
4.8968
 30
0.0
 40
0.09
  1
DIMFIX
  2
A6
 70
     1
  0
ATTRIB
  5
1001
  8
DIM_ATT
 10
19.293327
 20
4.7618
 30
0.0
 40
0.09
  1
0
  2
A7
 70
     1
  0
ATTRIB
  5
1002
  8
DIM_ATT
 10
19.293327
 20
4.6268
 30
0.0
 40
0.09
  1
0
  2
A8
 70
     1
  0
SEQEND
  5
1003
  8
DIM_ATT
  0
INSERT
  5
1004
  8
DIM_ATT
 66
     1
  2
ATT_BLK
 10
18.125927
 20
5.0418
 30
0.0
  0
ATTRIB
  5
1005
  8
DIM_ATT
 10
18.125927
 20
5.1768
 30
0.0
 40
0.09
  1
VER
  2
TYPE
 70
     1
  0
ATTRIB
  5
1006
  8
DIM_ATT
 10
18.125927
 20
5.0418
 30
0.0
 40
0.09
  1
0.53000
  2
A1
 70
     1
  0
ATTRIB
  5
1007
  8
DIM_ATT
 10
18.125927
 20
4.9068
 30
0.0
 40
0.09
  1
10.644400,6.821800
  2
A2
 70
     1
  0
ATTRIB
  5
1008
  8
DIM_ATT
 10
18.125927
 20
4.7718
 30
0.0
 40
0.09
  1
8.741200,7.351800
  2
A3
 70
     1
  0
ATTRIB
  5
1009
  8
DIM_ATT
 10
18.125927
 20
4.6368
 30
0.0
 40
0.09
  1
8.734900,1.000000
  2
A4
 70
     1
  0
ATTRIB
  5
100A
  8
DIM_ATT
 10
18.125927
 20
4.5018
 30
0.0
 40
0.09
  1

  2
A5
 70
     1
  0
ATTRIB
  5
100B
  8
DIM_ATT
 10
18.125927
 20
4.3668
 30
0.0
 40
0.09
  1
DIMFIX
  2
A6
 70
     1
  0
ATTRIB
  5
100C
  8
DIM_ATT
 10
18.125927
 20
4.2318
 30
0.0
 40
0.09
  1
0
  2
A7
 70
     1
  0
ATTRIB
  5
100D
  8
DIM_ATT
 10
18.125927
 20
4.0968
 30
0.0
 40
0.09
  1
0
  2
A8
 70
     1
  0
SEQEND
  5
100E
  8
DIM_ATT
  0
INSERT
  5
100F
  8
DIM_ATT
 66
     1
  2
ATT_BLK
 10
18.094627
 20
6.0912
 30
0.0
  0
ATTRIB
  5
1010
  8
DIM_ATT
 10
18.094627
 20
6.2262
 30
0.0
 40
0.09
  1
ALI
  2
TYPE
 70
     1
  0
ATTRIB
  5
1011
  8
DIM_ATT
 10
18.094627
 20
6.0912
 30
0.0
 40
0.09
  1
.747
  2
A1
 70
     1
  0
ATTRIB
  5
1012
  8
DIM_ATT
 10
18.094627
 20
5.9562
 30
0.0
 40
0.09
  1
10.613100,7.871200
  2
A2
 70
     1
  0
ATTRIB
  5
1013
  8
DIM_ATT
 10
18.094627
 20
5.8212
 30
0.0
 40
0.09
  1
11.163800,7.320500
  2
A3
 70
     1
  0
ATTRIB
  5
1014
  8
DIM_ATT
 10
18.094627
 20
5.6862
 30
0.0
 40
0.09
  1
11.739700,8.504900
  2
A4
 70
     1
  0
ATTRIB
  5
1015
  8
DIM_ATT
 10
18.094627
 20
5.5512
 30
0.0
 40
0.09
  1
0
  2
A5
 70
     1
  0
ATTRIB
  5
1016
  8
DIM_ATT
 10
18.094627
 20
5.4162
 30
0.0
 40
0.09
  1
DIMFIX
  2
A6
 70
     1
  0
ATTRIB
  5
1017
  8
DIM_ATT
 10
18.094627
 20
5.2812
 30
0.0
 40
0.09
  1
0
  2
A7
 70
     1
  0
ATTRIB
  5
1018
  8
DIM_ATT
 10
18.094627
 20
5.1462
 30
0.0
 40
0.09
  1
0
  2
A8
 70
     1
  0
SEQEND
  5
1019
  8
DIM_ATT
  0
INSERT
  5
101A
  8
DIM_ATT
 66
     1
  2
ATT_BLK
 10
18.157327
 20
6.0912
 30
0.0
  0
ATTRIB
  5
101B
  8
DIM_ATT
 10
18.157327
 20
6.2262
 30
0.0
 40
0.09
  1
ALI
  2
TYPE
 70
     1
  0
ATTRIB
  5
101C
  8
DIM_ATT
 10
18.157327
 20
6.0912
 30
0.0
 40
0.09
  1
.747
  2
A1
 70
     1
  0
ATTRIB
  5
101D
  8
DIM_ATT
 10
18.157327
 20
5.9562
 30
0.0
 40
0.09
  1
10.675800,7.871200
  2
A2
 70
     1
  0
ATTRIB
  5
101E
  8
DIM_ATT
 10
18.157327
 20
5.8212
 30
0.0
 40
0.09
  1
10.125000,7.320500
  2
A3
 70
     1
  0
ATTRIB
  5
101F
  8
DIM_ATT
 10
18.157327
 20
5.6862
 30
0.0
 40
0.09
  1
9.267364,8.895350
  2
A4
 70
     1
  0
ATTRIB
  5
1020
  8
DIM_ATT
 10
18.157327
 20
5.5512
 30
0.0
 40
0.09
  1
0
  2
A5
 70
     1
  0
ATTRIB
  5
1021
  8
DIM_ATT
 10
18.157327
 20
5.4162
 30
0.0
 40
0.09
  1
DIMFIX
  2
A6
 70
     1
  0
ATTRIB
  5
1022
  8
DIM_ATT
 10
18.157327
 20
5.2812
 30
0.0
 40
0.09
  1
0
  2
A7
 70
     1
  0
ATTRIB
  5
1023
  8
DIM_ATT
 10
18.157327
 20
5.1462
 30
0.0
 40
0.09
  1
0
  2
A8
 70
     1
  0
SEQEND
  5
1024
  8
DIM_ATT
  0
INSERT
  5
1025
  8
DIM_ATT
 66
     1
  2
ATT_BLK
 10
18.125927
 20
5.5718
 30
0.0
  0
ATTRIB
  5
1026
  8
DIM_ATT
 10
18.125927
 20
5.7068
 30
0.0
 40
0.09
  1
RAD
  2
TYPE
 70
     1
  0
ATTRIB
  5
1027
  8
DIM_ATT
 10
18.125927
 20
5.5718
 30
0.0
 40
0.09
  1
.25
  2
A1
 70
     1
  0
ATTRIB
  5
1028
  8
DIM_ATT
 10
18.125927
 20
5.4368
 30
0.0
 40
0.09
  1
DIMFIXHIDE 10.644400 7.351800 10.514191 7.565214
  2
A2
 70
     1
  0
ATTRIB
  5
1029
  8
DIM_ATT
 10
18.125927
 20
5.3018
 30
0.0
 40
0.09
  1
: : CIRCLE : 8 : OBJECT : 10 : 10.644400 : 20 : 7.351800 : 40 : 0.250008 : 
  2
A3
 70
     1
  0
ATTRIB
  5
102A
  8
DIM_ATT
 10
18.125927
 20
5.1668
 30
0.0
 40
0.09
  1
0
  2
A4
 70
     1
  0
ATTRIB
  5
102B
  8
DIM_ATT
 10
18.125927
 20
5.0318
 30
0.0
 40
0.09
  1
0
  2
A5
 70
     1
  0
ATTRIB
  5
102C
  8
DIM_ATT
 10
18.125927
 20
4.8968
 30
0.0
 40
0.09
  1
0
  2
A6
 70
     1
  0
ATTRIB
  5
102D
  8
DIM_ATT
 10
18.125927
 20
4.7618
 30
0.0
 40
0.09
  1
0
  2
A7
 70
     1
  0
ATTRIB
  5
102E
  8
DIM_ATT
 10
18.125927
 20
4.6268
 30
0.0
 40
0.09
  1
0
  2
A8
 70
     1
  0
SEQEND
  5
102F
  8
DIM_ATT
  0
INSERT
  5
1030
  8
DIM_ATT
 66
     1
  2
ATT_BLK
 10
18.125927
 20
5.5718
 30
0.0
  0
ATTRIB
  5
1031
  8
DIM_ATT
 10
18.125927
 20
5.7068
 30
0.0
 40
0.09
  1
RAD
  2
TYPE
 70
     1
  0
ATTRIB
  5
1032
  8
DIM_ATT
 10
18.125927
 20
5.5718
 30
0.0
 40
0.09
  1
0.53000
  2
A1
 70
     1
  0
ATTRIB
  5
1033
  8
DIM_ATT
 10
18.125927
 20
5.4368
 30
0.0
 40
0.09
  1
DIMFIXHIDE 10.644400 7.351800 10.913802 6.895376
  2
A2
 70
     1
  0
ATTRIB
  5
1034
  8
DIM_ATT
 10
18.125927
 20
5.3018
 30
0.0
 40
0.09
  1
: : CIRCLE : 8 : HIDOB : 10 : 10.644400 : 20 : 7.351800 : 40 : 0.529991 : 
  2
A3
 70
     1
  0
ATTRIB
  5
1035
  8
DIM_ATT
 10
18.125927
 20
5.1668
 30
0.0
 40
0.09
  1
0
  2
A4
 70
     1
  0
ATTRIB
  5
1036
  8
DIM_ATT
 10
18.125927
 20
5.0318
 30
0.0
 40
0.09
  1
0
  2
A5
 70
     1
  0
ATTRIB
  5
1037
  8
DIM_ATT
 10
18.125927
 20
4.8968
 30
0.0
 40
0.09
  1
0
  2
A6
 70
     1
  0
ATTRIB
  5
1038
  8
DIM_ATT
 10
18.125927
 20
4.7618
 30
0.0
 40
0.09
  1
0
  2
A7
 70
     1
  0
ATTRIB
  5
1039
  8
DIM_ATT
 10
18.125927
 20
4.6268
 30
0.0
 40
0.09
  1
0
  2
A8
 70
     1
  0
SEQEND
  5
103A
  8
DIM_ATT
  0
INSERT
  5
103B
  8
DIM_ATT
 66
     1
  2
ATT_BLK
 10
18.125927
 20
5.5718
 30
0.0
  0
ATTRIB
  5
103C
  8
DIM_ATT
 10
18.125927
 20
5.7068
 30
0.0
 40
0.09
  1
RAD
  2
TYPE
 70
     1
  0
ATTRIB
  5
103D
  8
DIM_ATT
 10
18.125927
 20
5.5718
 30
0.0
 40
0.09
  1
0.50050
  2
A1
 70
     1
  0
ATTRIB
  5
103E
  8
DIM_ATT
 10
18.125927
 20
5.4368
 30
0.0
 40
0.09
  1
DIMFIX 10.644400 7.351800 10.321773 6.969162
  2
A2
 70
     1
  0
ATTRIB
  5
103F
  8
DIM_ATT
 10
18.125927
 20
5.3018
 30
0.0
 40
0.09
  1
: : CIRCLE : 8 : OBJECT : 10 : 10.644400 : 20 : 7.351800 : 40 : 0.500500 : 
  2
A3
 70
     1
  0
ATTRIB
  5
1040
  8
DIM_ATT
 10
18.125927
 20
5.1668
 30
0.0
 40
0.09
  1
0
  2
A4
 70
     1
  0
ATTRIB
  5
1041
  8
DIM_ATT
 10
18.125927
 20
5.0318
 30
0.0
 40
0.09
  1
0
  2
A5
 70
     1
  0
ATTRIB
  5
1042
  8
DIM_ATT
 10
18.125927
 20
4.8968
 30
0.0
 40
0.09
  1
0
  2
A6
 70
     1
  0
ATTRIB
  5
1043
  8
DIM_ATT
 10
18.125927
 20
4.7618
 30
0.0
 40
0.09
  1
0
  2
A7
 70
     1
  0
ATTRIB
  5
1044
  8
DIM_ATT
 10
18.125927
 20
4.6268
 30
0.0
 40
0.09
  1
0
  2
A8
 70
     1
  0
SEQEND
  5
1045
  8
DIM_ATT
  0
INSERT
  5
1046
  8
DIM_ATT
 66
     1
  2
ATT_BLK
 10
15.154049
 20
7.848974
 30
0.0
  0
ATTRIB
  5
1047
  8
DIM_ATT
 10
15.154049
 20
7.983974
 30
0.0
 40
0.09
  1
HOR
  2
TYPE
 70
     1
  0
ATTRIB
  5
1048
  8
DIM_ATT
 10
15.154049
 20
7.848974
 30
0.0
 40
0.09
  1
.38
  2
A1
 70
     1
  0
ATTRIB
  5
1049
  8
DIM_ATT
 10
15.154049
 20
7.713974
 30
0.0
 40
0.09
  1
5.957400,7.800800
  2
A2
 70
     1
  0
ATTRIB
  5
104A
  8
DIM_ATT
 10
15.154049
 20
7.578974
 30
0.0
 40
0.09
  1
6.337400,7.707050
  2
A3
 70
     1
  0
ATTRIB
  5
104B
  8
DIM_ATT
 10
15.154049
 20
7.443974
 30
0.0
 40
0.09
  1
1.000000,9.098900
  2
A4
 70
     1
  0
ATTRIB
  5
104C
  8
DIM_ATT
 10
15.154049
 20
7.308974
 30
0.0
 40
0.09
  1

  2
A5
 70
     1
  0
ATTRIB
  5
104D
  8
DIM_ATT
 10
15.154049
 20
7.173974
 30
0.0
 40
0.09
  1
DIMFIX
  2
A6
 70
     1
  0
ATTRIB
  5
104E
  8
DIM_ATT
 10
15.154049
 20
7.038974
 30
0.0
 40
0.09
  1
0
  2
A7
 70
     1
  0
ATTRIB
  5
104F
  8
DIM_ATT
 10
15.154049
 20
6.903974
 30
0.0
 40
0.09
  1
0
  2
A8
 70
     1
  0
SEQEND
  5
1050
  8
DIM_ATT
  0
INSERT
  5
1051
  8
DIM_ATT
 66
     1
  2
ATT_BLK
 10
16.114049
 20
7.024724
 30
0.0
  0
ATTRIB
  5
1052
  8
DIM_ATT
 10
16.114049
 20
7.159724
 30
0.0
 40
0.09
  1
HOR
  2
TYPE
 70
     1
  0
ATTRIB
  5
1053
  8
DIM_ATT
 10
16.114049
 20
7.024724
 30
0.0
 40
0.09
  1
.16
  2
A1
 70
     1
  0
ATTRIB
  5
1054
  8
DIM_ATT
 10
16.114049
 20
6.889724
 30
0.0
 40
0.09
  1
7.077400,7.006550
  2
A2
 70
     1
  0
ATTRIB
  5
1055
  8
DIM_ATT
 10
16.114049
 20
6.754724
 30
0.0
 40
0.09
  1
6.917400,6.976550
  2
A3
 70
     1
  0
ATTRIB
  5
1056
  8
DIM_ATT
 10
16.114049
 20
6.619724
 30
0.0
 40
0.09
  1
1.000000,6.010300
  2
A4
 70
     1
  0
ATTRIB
  5
1057
  8
DIM_ATT
 10
16.114049
 20
6.484724
 30
0.0
 40
0.09
  1

  2
A5
 70
     1
  0
ATTRIB
  5
1058
  8
DIM_ATT
 10
16.114049
 20
6.349724
 30
0.0
 40
0.09
  1
DIMFIX
  2
A6
 70
     1
  0
ATTRIB
  5
1059
  8
DIM_ATT
 10
16.114049
 20
6.214724
 30
0.0
 40
0.09
  1
0
  2
A7
 70
     1
  0
ATTRIB
  5
105A
  8
DIM_ATT
 10
16.114049
 20
6.079724
 30
0.0
 40
0.09
  1
0
  2
A8
 70
     1
  0
SEQEND
  5
105B
  8
DIM_ATT
  0
INSERT
  5
105C
  8
DIM_ATT
 66
     1
  2
ATT_BLK
 10
15.154049
 20
6.950974
 30
0.0
  0
ATTRIB
  5
105D
  8
DIM_ATT
 10
15.154049
 20
7.085974
 30
0.0
 40
0.09
  1
HOR
  2
TYPE
 70
     1
  0
ATTRIB
  5
105E
  8
DIM_ATT
 10
15.154049
 20
6.950974
 30
0.0
 40
0.09
  1
1.12
  2
A1
 70
     1
  0
ATTRIB
  5
105F
  8
DIM_ATT
 10
15.154049
 20
6.815974
 30
0.0
 40
0.09
  1
5.957400,6.902800
  2
A2
 70
     1
  0
ATTRIB
  5
1060
  8
DIM_ATT
 10
15.154049
 20
6.680974
 30
0.0
 40
0.09
  1
7.077400,7.006550
  2
A3
 70
     1
  0
ATTRIB
  5
1061
  8
DIM_ATT
 10
15.154049
 20
6.545974
 30
0.0
 40
0.09
  1
1.000000,4.759100
  2
A4
 70
     1
  0
ATTRIB
  5
1062
  8
DIM_ATT
 10
15.154049
 20
6.410974
 30
0.0
 40
0.09
  1

  2
A5
 70
     1
  0
ATTRIB
  5
1063
  8
DIM_ATT
 10
15.154049
 20
6.275974
 30
0.0
 40
0.09
  1
DIMFIX
  2
A6
 70
     1
  0
ATTRIB
  5
1064
  8
DIM_ATT
 10
15.154049
 20
6.140974
 30
0.0
 40
0.09
  1
0
  2
A7
 70
     1
  0
ATTRIB
  5
1065
  8
DIM_ATT
 10
15.154049
 20
6.005974
 30
0.0
 40
0.09
  1
0
  2
A8
 70
     1
  0
SEQEND
  5
1066
  8
DIM_ATT
  0
INSERT
  5
1067
  8
DIM_ATT
 66
     1
  2
ATT_BLK
 10
19.311049
 20
7.399974
 30
0.0
  0
ATTRIB
  5
1068
  8
DIM_ATT
 10
19.311049
 20
7.534974
 30
0.0
 40
0.09
  1
HOR
  2
TYPE
 70
     1
  0
ATTRIB
  5
1069
  8
DIM_ATT
 10
19.311049
 20
7.399974
 30
0.0
 40
0.09
  1
0.46900
  2
A1
 70
     1
  0
ATTRIB
  5
106A
  8
DIM_ATT
 10
19.311049
 20
7.264974
 30
0.0
 40
0.09
  1
10.114400,7.351800
  2
A2
 70
     1
  0
ATTRIB
  5
106B
  8
DIM_ATT
 10
19.311049
 20
7.129974
 30
0.0
 40
0.09
  1
10.583400,6.004900
  2
A3
 70
     1
  0
ATTRIB
  5
106C
  8
DIM_ATT
 10
19.311049
 20
6.994974
 30
0.0
 40
0.09
  1
1.000000,5.938400
  2
A4
 70
     1
  0
ATTRIB
  5
106D
  8
DIM_ATT
 10
19.311049
 20
6.859974
 30
0.0
 40
0.09
  1

  2
A5
 70
     1
  0
ATTRIB
  5
106E
  8
DIM_ATT
 10
19.311049
 20
6.724974
 30
0.0
 40
0.09
  1
DIMFIX
  2
A6
 70
     1
  0
ATTRIB
  5
106F
  8
DIM_ATT
 10
19.311049
 20
6.589974
 30
0.0
 40
0.09
  1
0
  2
A7
 70
     1
  0
ATTRIB
  5
1070
  8
DIM_ATT
 10
19.311049
 20
6.454974
 30
0.0
 40
0.09
  1
0
  2
A8
 70
     1
  0
SEQEND
  5
1071
  8
DIM_ATT
  0
INSERT
  5
1072
  8
DIM_ATT
 66
     1
  2
ATT_BLK
 10
19.780049
 20
6.192674
 30
0.0
  0
ATTRIB
  5
1073
  8
DIM_ATT
 10
19.780049
 20
6.327674
 30
0.0
 40
0.09
  1
HOR
  2
TYPE
 70
     1
  0
ATTRIB
  5
1074
  8
DIM_ATT
 10
19.780049
 20
6.192674
 30
0.0
 40
0.09
  1
0.46900
  2
A1
 70
     1
  0
ATTRIB
  5
1075
  8
DIM_ATT
 10
19.780049
 20
6.057674
 30
0.0
 40
0.09
  1
11.052400,7.351800
  2
A2
 70
     1
  0
ATTRIB
  5
1076
  8
DIM_ATT
 10
19.780049
 20
5.922674
 30
0.0
 40
0.09
  1
10.583400,6.144500
  2
A3
 70
     1
  0
ATTRIB
  5
1077
  8
DIM_ATT
 10
19.780049
 20
5.787674
 30
0.0
 40
0.09
  1
1.000000,6.144500
  2
A4
 70
     1
  0
ATTRIB
  5
1078
  8
DIM_ATT
 10
19.780049
 20
5.652674
 30
0.0
 40
0.09
  1

  2
A5
 70
     1
  0
ATTRIB
  5
1079
  8
DIM_ATT
 10
19.780049
 20
5.517674
 30
0.0
 40
0.09
  1
DIMFIX
  2
A6
 70
     1
  0
ATTRIB
  5
107A
  8
DIM_ATT
 10
19.780049
 20
5.382674
 30
0.0
 40
0.09
  1
0
  2
A7
 70
     1
  0
ATTRIB
  5
107B
  8
DIM_ATT
 10
19.780049
 20
5.247674
 30
0.0
 40
0.09
  1
0
  2
A8
 70
     1
  0
SEQEND
  5
107C
  8
DIM_ATT
  0
INSERT
  5
107D
  8
DIM_ATT
 66
     1
  2
ATT_BLK
 10
16.274049
 20
7.399974
 30
0.0
  0
ATTRIB
  5
107E
  8
DIM_ATT
 10
16.274049
 20
7.534974
 30
0.0
 40
0.09
  1
VER
  2
TYPE
 70
     1
  0
ATTRIB
  5
107F
  8
DIM_ATT
 10
16.274049
 20
7.399974
 30
0.0
 40
0.09
  1
0.37525
  2
A1
 70
     1
  0
ATTRIB
  5
1080
  8
DIM_ATT
 10
16.274049
 20
7.264974
 30
0.0
 40
0.09
  1
7.077400,7.351800
  2
A2
 70
     1
  0
ATTRIB
  5
1081
  8
DIM_ATT
 10
16.274049
 20
7.129974
 30
0.0
 40
0.09
  1
7.047400,7.727050
  2
A3
 70
     1
  0
ATTRIB
  5
1082
  8
DIM_ATT
 10
16.274049
 20
6.994974
 30
0.0
 40
0.09
  1
7.371800,1.000000
  2
A4
 70
     1
  0
ATTRIB
  5
1083
  8
DIM_ATT
 10
16.274049
 20
6.859974
 30
0.0
 40
0.09
  1
6.337400,1.000000
  2
A5
 70
     1
  0
ATTRIB
  5
1084
  8
DIM_ATT
 10
16.274049
 20
6.724974
 30
0.0
 40
0.09
  1
DIMFIXHIDE
  2
A6
 70
     1
  0
ATTRIB
  5
1085
  8
DIM_ATT
 10
16.274049
 20
6.589974
 30
0.0
 40
0.09
  1
0
  2
A7
 70
     1
  0
ATTRIB
  5
1086
  8
DIM_ATT
 10
16.274049
 20
6.454974
 30
0.0
 40
0.09
  1
0
  2
A8
 70
     1
  0
SEQEND
  5
1087
  8
DIM_ATT
  0
INSERT
  5
1088
  8
DIM_ATT
 66
     1
  2
ATT_BLK
 10
16.244049
 20
7.024724
 30
0.0
  0
ATTRIB
  5
1089
  8
DIM_ATT
 10
16.244049
 20
7.159724
 30
0.0
 40
0.09
  1
VER
  2
TYPE
 70
     1
  0
ATTRIB
  5
108A
  8
DIM_ATT
 10
16.244049
 20
7.024724
 30
0.0
 40
0.09
  1
0.37525
  2
A1
 70
     1
  0
ATTRIB
  5
108B
  8
DIM_ATT
 10
16.244049
 20
6.889724
 30
0.0
 40
0.09
  1
7.077400,7.351800
  2
A2
 70
     1
  0
ATTRIB
  5
108C
  8
DIM_ATT
 10
16.244049
 20
6.754724
 30
0.0
 40
0.09
  1
7.047400,6.976550
  2
A3
 70
     1
  0
ATTRIB
  5
108D
  8
DIM_ATT
 10
16.244049
 20
6.619724
 30
0.0
 40
0.09
  1
7.456900,1.000000
  2
A4
 70
     1
  0
ATTRIB
  5
108E
  8
DIM_ATT
 10
16.244049
 20
6.484724
 30
0.0
 40
0.09
  1
6.367700,1.000000
  2
A5
 70
     1
  0
ATTRIB
  5
108F
  8
DIM_ATT
 10
16.244049
 20
6.349724
 30
0.0
 40
0.09
  1
DIMFIXHIDE
  2
A6
 70
     1
  0
ATTRIB
  5
1090
  8
DIM_ATT
 10
16.244049
 20
6.214724
 30
0.0
 40
0.09
  1
0
  2
A7
 70
     1
  0
ATTRIB
  5
1091
  8
DIM_ATT
 10
16.244049
 20
6.079724
 30
0.0
 40
0.09
  1
0
  2
A8
 70
     1
  0
SEQEND
  5
1092
  8
DIM_ATT
  0
INSERT
  5
1093
  8
DIM_ATT
 66
     1
  2
ATT_BLK
 10
15.154049
 20
7.399974
 30
0.0
  0
ATTRIB
  5
1094
  8
DIM_ATT
 10
15.154049
 20
7.534974
 30
0.0
 40
0.09
  1
VER
  2
TYPE
 70
     1
  0
ATTRIB
  5
1095
  8
DIM_ATT
 10
15.154049
 20
7.399974
 30
0.0
 40
0.09
  1
0.46900
  2
A1
 70
     1
  0
ATTRIB
  5
1096
  8
DIM_ATT
 10
15.154049
 20
7.264974
 30
0.0
 40
0.09
  1
5.957400,7.351800
  2
A2
 70
     1
  0
ATTRIB
  5
1097
  8
DIM_ATT
 10
15.154049
 20
7.129974
 30
0.0
 40
0.09
  1
5.977400,7.820800
  2
A3
 70
     1
  0
ATTRIB
  5
1098
  8
DIM_ATT
 10
15.154049
 20
6.994974
 30
0.0
 40
0.09
  1
5.567500,1.000000
  2
A4
 70
     1
  0
ATTRIB
  5
1099
  8
DIM_ATT
 10
15.154049
 20
6.859974
 30
0.0
 40
0.09
  1
6.337400,1.000000
  2
A5
 70
     1
  0
ATTRIB
  5
109A
  8
DIM_ATT
 10
15.154049
 20
6.724974
 30
0.0
 40
0.09
  1
DIMFIXHIDE
  2
A6
 70
     1
  0
ATTRIB
  5
109B
  8
DIM_ATT
 10
15.154049
 20
6.589974
 30
0.0
 40
0.09
  1
0
  2
A7
 70
     1
  0
ATTRIB
  5
109C
  8
DIM_ATT
 10
15.154049
 20
6.454974
 30
0.0
 40
0.09
  1
0
  2
A8
 70
     1
  0
SEQEND
  5
109D
  8
DIM_ATT
  0
INSERT
  5
109E
  8
DIM_ATT
 66
     1
  2
ATT_BLK
 10
15.174049
 20
6.930974
 30
0.0
  0
ATTRIB
  5
109F
  8
DIM_ATT
 10
15.174049
 20
7.065974
 30
0.0
 40
0.09
  1
VER
  2
TYPE
 70
     1
  0
ATTRIB
  5
10A0
  8
DIM_ATT
 10
15.174049
 20
6.930974
 30
0.0
 40
0.09
  1
0.46900
  2
A1
 70
     1
  0
ATTRIB
  5
10A1
  8
DIM_ATT
 10
15.174049
 20
6.795974
 30
0.0
 40
0.09
  1
5.957400,7.351800
  2
A2
 70
     1
  0
ATTRIB
  5
10A2
  8
DIM_ATT
 10
15.174049
 20
6.660974
 30
0.0
 40
0.09
  1
5.977400,6.882800
  2
A3
 70
     1
  0
ATTRIB
  5
10A3
  8
DIM_ATT
 10
15.174049
 20
6.525974
 30
0.0
 40
0.09
  1
5.459000,1.000000
  2
A4
 70
     1
  0
ATTRIB
  5
10A4
  8
DIM_ATT
 10
15.174049
 20
6.390974
 30
0.0
 40
0.09
  1
6.337400,1.000000
  2
A5
 70
     1
  0
ATTRIB
  5
10A5
  8
DIM_ATT
 10
15.174049
 20
6.255974
 30
0.0
 40
0.09
  1
DIMFIXHIDE
  2
A6
 70
     1
  0
ATTRIB
  5
10A6
  8
DIM_ATT
 10
15.174049
 20
6.120974
 30
0.0
 40
0.09
  1
0
  2
A7
 70
     1
  0
ATTRIB
  5
10A7
  8
DIM_ATT
 10
15.174049
 20
5.985974
 30
0.0
 40
0.09
  1
0
  2
A8
 70
     1
  0
SEQEND
  5
10A8
  8
DIM_ATT
  0
INSERT
  5
10A9
  8
DIM_ATT
 66
     1
  2
ATT_BLK
 10
15.534049
 20
7.399974
 30
0.0
  0
ATTRIB
  5
10AA
  8
DIM_ATT
 10
15.534049
 20
7.534974
 30
0.0
 40
0.09
  1
VER
  2
TYPE
 70
     1
  0
ATTRIB
  5
10AB
  8
DIM_ATT
 10
15.534049
 20
7.399974
 30
0.0
 40
0.09
  1
0.36000
  2
A1
 70
     1
  0
ATTRIB
  5
10AC
  8
DIM_ATT
 10
15.534049
 20
7.264974
 30
0.0
 40
0.09
  1
6.337400,7.711800
  2
A2
 70
     1
  0
ATTRIB
  5
10AD
  8
DIM_ATT
 10
15.534049
 20
7.129974
 30
0.0
 40
0.09
  1
6.337400,7.351800
  2
A3
 70
     1
  0
ATTRIB
  5
10AE
  8
DIM_ATT
 10
15.534049
 20
6.994974
 30
0.0
 40
0.09
  1
3.628600,1.000000
  2
A4
 70
     1
  0
ATTRIB
  5
10AF
  8
DIM_ATT
 10
15.534049
 20
6.859974
 30
0.0
 40
0.09
  1
6.397400,1.000000
  2
A5
 70
     1
  0
ATTRIB
  5
10B0
  8
DIM_ATT
 10
15.534049
 20
6.724974
 30
0.0
 40
0.09
  1
DIMFIXHIDE
  2
A6
 70
     1
  0
ATTRIB
  5
10B1
  8
DIM_ATT
 10
15.534049
 20
6.589974
 30
0.0
 40
0.09
  1
0
  2
A7
 70
     1
  0
ATTRIB
  5
10B2
  8
DIM_ATT
 10
15.534049
 20
6.454974
 30
0.0
 40
0.09
  1
0
  2
A8
 70
     1
  0
SEQEND
  5
10B3
  8
DIM_ATT
  0
INSERT
  5
10B4
  8
DIM_ATT
 66
     1
  2
ATT_BLK
 10
15.534049
 20
7.039974
 30
0.0
  0
ATTRIB
  5
10B5
  8
DIM_ATT
 10
15.534049
 20
7.174974
 30
0.0
 40
0.09
  1
VER
  2
TYPE
 70
     1
  0
ATTRIB
  5
10B6
  8
DIM_ATT
 10
15.534049
 20
7.039974
 30
0.0
 40
0.09
  1
0.36000
  2
A1
 70
     1
  0
ATTRIB
  5
10B7
  8
DIM_ATT
 10
15.534049
 20
6.904974
 30
0.0
 40
0.09
  1
6.337400,7.351800
  2
A2
 70
     1
  0
ATTRIB
  5
10B8
  8
DIM_ATT
 10
15.534049
 20
6.769974
 30
0.0
 40
0.09
  1
6.337400,6.991800
  2
A3
 70
     1
  0
ATTRIB
  5
10B9
  8
DIM_ATT
 10
15.534049
 20
6.634974
 30
0.0
 40
0.09
  1
3.506000,1.000000
  2
A4
 70
     1
  0
ATTRIB
  5
10BA
  8
DIM_ATT
 10
15.534049
 20
6.499974
 30
0.0
 40
0.09
  1
6.397400,1.000000
  2
A5
 70
     1
  0
ATTRIB
  5
10BB
  8
DIM_ATT
 10
15.534049
 20
6.364974
 30
0.0
 40
0.09
  1
DIMFIXHIDE
  2
A6
 70
     1
  0
ATTRIB
  5
10BC
  8
DIM_ATT
 10
15.534049
 20
6.229974
 30
0.0
 40
0.09
  1
0
  2
A7
 70
     1
  0
ATTRIB
  5
10BD
  8
DIM_ATT
 10
15.534049
 20
6.094974
 30
0.0
 40
0.09
  1
0
  2
A8
 70
     1
  0
SEQEND
  5
10BE
  8
DIM_ATT
  0
INSERT
  5
10BF
  8
DIM_ATT
 66
     1
  2
ATT_BLK
 10
16.274049
 20
7.399974
 30
0.0
  0
ATTRIB
  5
10C0
  8
DIM_ATT
 10
16.274049
 20
7.534974
 30
0.0
 40
0.09
  1
VER
  2
TYPE
 70
     1
  0
ATTRIB
  5
10C1
  8
DIM_ATT
 10
16.274049
 20
7.399974
 30
0.0
 40
0.09
  1
0.25000
  2
A1
 70
     1
  0
ATTRIB
  5
10C2
  8
DIM_ATT
 10
16.274049
 20
7.264974
 30
0.0
 40
0.09
  1
7.077400,7.601800
  2
A2
 70
     1
  0
ATTRIB
  5
10C3
  8
DIM_ATT
 10
16.274049
 20
7.129974
 30
0.0
 40
0.09
  1
7.077400,7.351800
  2
A3
 70
     1
  0
ATTRIB
  5
10C4
  8
DIM_ATT
 10
16.274049
 20
6.994974
 30
0.0
 40
0.09
  1
9.359500,1.000000
  2
A4
 70
     1
  0
ATTRIB
  5
10C5
  8
DIM_ATT
 10
16.274049
 20
6.859974
 30
0.0
 40
0.09
  1

  2
A5
 70
     1
  0
ATTRIB
  5
10C6
  8
DIM_ATT
 10
16.274049
 20
6.724974
 30
0.0
 40
0.09
  1
DIMFIXHIDE
  2
A6
 70
     1
  0
ATTRIB
  5
10C7
  8
DIM_ATT
 10
16.274049
 20
6.589974
 30
0.0
 40
0.09
  1
0
  2
A7
 70
     1
  0
ATTRIB
  5
10C8
  8
DIM_ATT
 10
16.274049
 20
6.454974
 30
0.0
 40
0.09
  1
0
  2
A8
 70
     1
  0
SEQEND
  5
10C9
  8
DIM_ATT
  0
INSERT
  5
10CA
  8
DIM_ATT
 66
     1
  2
ATT_BLK
 10
16.274049
 20
7.149974
 30
0.0
  0
ATTRIB
  5
10CB
  8
DIM_ATT
 10
16.274049
 20
7.284974
 30
0.0
 40
0.09
  1
VER
  2
TYPE
 70
     1
  0
ATTRIB
  5
10CC
  8
DIM_ATT
 10
16.274049
 20
7.149974
 30
0.0
 40
0.09
  1
0.25000
  2
A1
 70
     1
  0
ATTRIB
  5
10CD
  8
DIM_ATT
 10
16.274049
 20
7.014974
 30
0.0
 40
0.09
  1
7.077400,7.351800
  2
A2
 70
     1
  0
ATTRIB
  5
10CE
  8
DIM_ATT
 10
16.274049
 20
6.879974
 30
0.0
 40
0.09
  1
7.077400,7.101800
  2
A3
 70
     1
  0
ATTRIB
  5
10CF
  8
DIM_ATT
 10
16.274049
 20
6.744974
 30
0.0
 40
0.09
  1
9.597100,1.000000
  2
A4
 70
     1
  0
ATTRIB
  5
10D0
  8
DIM_ATT
 10
16.274049
 20
6.609974
 30
0.0
 40
0.09
  1

  2
A5
 70
     1
  0
ATTRIB
  5
10D1
  8
DIM_ATT
 10
16.274049
 20
6.474974
 30
0.0
 40
0.09
  1
DIMFIXHIDE
  2
A6
 70
     1
  0
ATTRIB
  5
10D2
  8
DIM_ATT
 10
16.274049
 20
6.339974
 30
0.0
 40
0.09
  1
0
  2
A7
 70
     1
  0
ATTRIB
  5
10D3
  8
DIM_ATT
 10
16.274049
 20
6.204974
 30
0.0
 40
0.09
  1
0
  2
A8
 70
     1
  0
SEQEND
  5
10D4
  8
DIM_ATT
  0
INSERT
  5
10D5
  8
DIM_ATT
 66
     1
  2
ATT_BLK
 10
20.886449
 20
7.399974
 30
0.0
  0
ATTRIB
  5
10D6
  8
DIM_ATT
 10
20.886449
 20
7.534974
 30
0.0
 40
0.09
  1
VER
  2
TYPE
 70
     1
  0
ATTRIB
  5
10D7
  8
DIM_ATT
 10
20.886449
 20
7.399974
 30
0.0
 40
0.09
  1
0.46900
  2
A1
 70
     1
  0
ATTRIB
  5
10D8
  8
DIM_ATT
 10
20.886449
 20
7.264974
 30
0.0
 40
0.09
  1
10.583400,7.820800
  2
A2
 70
     1
  0
ATTRIB
  5
10D9
  8
DIM_ATT
 10
20.886449
 20
7.129974
 30
0.0
 40
0.09
  1
11.689800,7.351800
  2
A3
 70
     1
  0
ATTRIB
  5
10DA
  8
DIM_ATT
 10
20.886449
 20
6.994974
 30
0.0
 40
0.09
  1
11.689800,1.000000
  2
A4
 70
     1
  0
ATTRIB
  5
10DB
  8
DIM_ATT
 10
20.886449
 20
6.859974
 30
0.0
 40
0.09
  1

  2
A5
 70
     1
  0
ATTRIB
  5
10DC
  8
DIM_ATT
 10
20.886449
 20
6.724974
 30
0.0
 40
0.09
  1
DIMFIX
  2
A6
 70
     1
  0
ATTRIB
  5
10DD
  8
DIM_ATT
 10
20.886449
 20
6.589974
 30
0.0
 40
0.09
  1
0
  2
A7
 70
     1
  0
ATTRIB
  5
10DE
  8
DIM_ATT
 10
20.886449
 20
6.454974
 30
0.0
 40
0.09
  1
0
  2
A8
 70
     1
  0
SEQEND
  5
10DF
  8
DIM_ATT
  0
INSERT
  5
10E0
  8
DIM_ATT
 66
     1
  2
ATT_BLK
 10
19.780049
 20
6.930974
 30
0.0
  0
ATTRIB
  5
10E1
  8
DIM_ATT
 10
19.780049
 20
7.065974
 30
0.0
 40
0.09
  1
VER
  2
TYPE
 70
     1
  0
ATTRIB
  5
10E2
  8
DIM_ATT
 10
19.780049
 20
6.930974
 30
0.0
 40
0.09
  1
0.46900
  2
A1
 70
     1
  0
ATTRIB
  5
10E3
  8
DIM_ATT
 10
19.780049
 20
6.795974
 30
0.0
 40
0.09
  1
10.583400,6.882800
  2
A2
 70
     1
  0
ATTRIB
  5
10E4
  8
DIM_ATT
 10
19.780049
 20
6.660974
 30
0.0
 40
0.09
  1
8.741200,7.351800
  2
A3
 70
     1
  0
ATTRIB
  5
10E5
  8
DIM_ATT
 10
19.780049
 20
6.525974
 30
0.0
 40
0.09
  1
8.734900,1.000000
  2
A4
 70
     1
  0
ATTRIB
  5
10E6
  8
DIM_ATT
 10
19.780049
 20
6.390974
 30
0.0
 40
0.09
  1

  2
A5
 70
     1
  0
ATTRIB
  5
10E7
  8
DIM_ATT
 10
19.780049
 20
6.255974
 30
0.0
 40
0.09
  1
DIMFIX
  2
A6
 70
     1
  0
ATTRIB
  5
10E8
  8
DIM_ATT
 10
19.780049
 20
6.120974
 30
0.0
 40
0.09
  1
0
  2
A7
 70
     1
  0
ATTRIB
  5
10E9
  8
DIM_ATT
 10
19.780049
 20
5.985974
 30
0.0
 40
0.09
  1
0
  2
A8
 70
     1
  0
SEQEND
  5
10EA
  8
DIM_ATT
  0
INSERT
  5
10EB
  8
DIM_ATT
 66
     1
  2
ATT_BLK
 10
19.748749
 20
7.858374
 30
0.0
  0
ATTRIB
  5
10EC
  8
DIM_ATT
 10
19.748749
 20
7.993374
 30
0.0
 40
0.09
  1
ALI
  2
TYPE
 70
     1
  0
ATTRIB
  5
10ED
  8
DIM_ATT
 10
19.748749
 20
7.858374
 30
0.0
 40
0.09
  1
.747
  2
A1
 70
     1
  0
ATTRIB
  5
10EE
  8
DIM_ATT
 10
19.748749
 20
7.723374
 30
0.0
 40
0.09
  1
10.552100,7.810200
  2
A2
 70
     1
  0
ATTRIB
  5
10EF
  8
DIM_ATT
 10
19.748749
 20
7.588374
 30
0.0
 40
0.09
  1
11.041800,7.320500
  2
A3
 70
     1
  0
ATTRIB
  5
10F0
  8
DIM_ATT
 10
19.748749
 20
7.453374
 30
0.0
 40
0.09
  1
11.678700,8.443900
  2
A4
 70
     1
  0
ATTRIB
  5
10F1
  8
DIM_ATT
 10
19.748749
 20
7.318374
 30
0.0
 40
0.09
  1
0
  2
A5
 70
     1
  0
ATTRIB
  5
10F2
  8
DIM_ATT
 10
19.748749
 20
7.183374
 30
0.0
 40
0.09
  1
DIMFIX
  2
A6
 70
     1
  0
ATTRIB
  5
10F3
  8
DIM_ATT
 10
19.748749
 20
7.048374
 30
0.0
 40
0.09
  1
0
  2
A7
 70
     1
  0
ATTRIB
  5
10F4
  8
DIM_ATT
 10
19.748749
 20
6.913374
 30
0.0
 40
0.09
  1
0
  2
A8
 70
     1
  0
SEQEND
  5
10F5
  8
DIM_ATT
  0
INSERT
  5
10F6
  8
DIM_ATT
 66
     1
  2
ATT_BLK
 10
19.811449
 20
7.858374
 30
0.0
  0
ATTRIB
  5
10F7
  8
DIM_ATT
 10
19.811449
 20
7.993374
 30
0.0
 40
0.09
  1
ALI
  2
TYPE
 70
     1
  0
ATTRIB
  5
10F8
  8
DIM_ATT
 10
19.811449
 20
7.858374
 30
0.0
 40
0.09
  1
.747
  2
A1
 70
     1
  0
ATTRIB
  5
10F9
  8
DIM_ATT
 10
19.811449
 20
7.723374
 30
0.0
 40
0.09
  1
10.614800,7.810200
  2
A2
 70
     1
  0
ATTRIB
  5
10FA
  8
DIM_ATT
 10
19.811449
 20
7.588374
 30
0.0
 40
0.09
  1
10.125000,7.320500
  2
A3
 70
     1
  0
ATTRIB
  5
10FB
  8
DIM_ATT
 10
19.811449
 20
7.453374
 30
0.0
 40
0.09
  1
9.206375,8.834366
  2
A4
 70
     1
  0
ATTRIB
  5
10FC
  8
DIM_ATT
 10
19.811449
 20
7.318374
 30
0.0
 40
0.09
  1
0
  2
A5
 70
     1
  0
ATTRIB
  5
10FD
  8
DIM_ATT
 10
19.811449
 20
7.183374
 30
0.0
 40
0.09
  1
DIMFIX
  2
A6
 70
     1
  0
ATTRIB
  5
10FE
  8
DIM_ATT
 10
19.811449
 20
7.048374
 30
0.0
 40
0.09
  1
0
  2
A7
 70
     1
  0
ATTRIB
  5
10FF
  8
DIM_ATT
 10
19.811449
 20
6.913374
 30
0.0
 40
0.09
  1
0
  2
A8
 70
     1
  0
SEQEND
  5
1100
  8
DIM_ATT
  0
POLYLINE
  5
1101
  8
H
 66
     1
 10
0.0
 20
0.0
 30
0.0
  0
VERTEX
  5
133F
  8
H
 10
1.69
 20
-1.27975
 30
0.0
  0
VERTEX
  5
1340
  8
H
 10
1.69
 20
-2.28025
 30
0.0
  0
SEQEND
  5
1341
  8
H
  0
INSERT
  5
1102
  8
DIM_ATT
 66
     1
  2
ATT_BLK
 10
19.780049
 20
7.399974
 30
0.0
  0
ATTRIB
  5
1103
  8
DIM_ATT
 10
19.780049
 20
7.534974
 30
0.0
 40
0.09
  1
RAD
  2
TYPE
 70
     1
  0
ATTRIB
  5
1104
  8
DIM_ATT
 10
19.780049
 20
7.399974
 30
0.0
 40
0.09
  1
.25
  2
A1
 70
     1
  0
ATTRIB
  5
1105
  8
DIM_ATT
 10
19.780049
 20
7.264974
 30
0.0
 40
0.09
  1
DIMFIXHIDE 10.583400 7.351800 10.453191 7.565214
  2
A2
 70
     1
  0
ATTRIB
  5
1106
  8
DIM_ATT
 10
19.780049
 20
7.129974
 30
0.0
 40
0.09
  1
: : CIRCLE : 8 : OBJECT : 10 : 10.583400 : 20 : 7.351800 : 40 : 0.250008 : 
  2
A3
 70
     1
  0
ATTRIB
  5
1107
  8
DIM_ATT
 10
19.780049
 20
6.994974
 30
0.0
 40
0.09
  1
0
  2
A4
 70
     1
  0
ATTRIB
  5
1108
  8
DIM_ATT
 10
19.780049
 20
6.859974
 30
0.0
 40
0.09
  1
0
  2
A5
 70
     1
  0
ATTRIB
  5
1109
  8
DIM_ATT
 10
19.780049
 20
6.724974
 30
0.0
 40
0.09
  1
0
  2
A6
 70
     1
  0
ATTRIB
  5
110A
  8
DIM_ATT
 10
19.780049
 20
6.589974
 30
0.0
 40
0.09
  1
0
  2
A7
 70
     1
  0
ATTRIB
  5
110B
  8
DIM_ATT
 10
19.780049
 20
6.454974
 30
0.0
 40
0.09
  1
0
  2
A8
 70
     1
  0
SEQEND
  5
110C
  8
DIM_ATT
  0
INSERT
  5
110D
  8
DIM_ATT
 66
     1
  2
ATT_BLK
 10
19.780049
 20
7.399974
 30
0.0
  0
ATTRIB
  5
110E
  8
DIM_ATT
 10
19.780049
 20
7.534974
 30
0.0
 40
0.09
  1
RAD
  2
TYPE
 70
     1
  0
ATTRIB
  5
110F
  8
DIM_ATT
 10
19.780049
 20
7.399974
 30
0.0
 40
0.09
  1
0.46900
  2
A1
 70
     1
  0
ATTRIB
  5
1110
  8
DIM_ATT
 10
19.780049
 20
7.264974
 30
0.0
 40
0.09
  1
DIMFIXHIDE 10.583400 7.351800 10.821795 6.947908
  2
A2
 70
     1
  0
ATTRIB
  5
1111
  8
DIM_ATT
 10
19.780049
 20
7.129974
 30
0.0
 40
0.09
  1
: : CIRCLE : 8 : HIDOB : 10 : 10.583400 : 20 : 7.351800 : 40 : 0.468991 : 
  2
A3
 70
     1
  0
ATTRIB
  5
1112
  8
DIM_ATT
 10
19.780049
 20
6.994974
 30
0.0
 40
0.09
  1
0
  2
A4
 70
     1
  0
ATTRIB
  5
1113
  8
DIM_ATT
 10
19.780049
 20
6.859974
 30
0.0
 40
0.09
  1
0
  2
A5
 70
     1
  0
ATTRIB
  5
1114
  8
DIM_ATT
 10
19.780049
 20
6.724974
 30
0.0
 40
0.09
  1
0
  2
A6
 70
     1
  0
ATTRIB
  5
1115
  8
DIM_ATT
 10
19.780049
 20
6.589974
 30
0.0
 40
0.09
  1
0
  2
A7
 70
     1
  0
ATTRIB
  5
1116
  8
DIM_ATT
 10
19.780049
 20
6.454974
 30
0.0
 40
0.09
  1
0
  2
A8
 70
     1
  0
SEQEND
  5
1117
  8
DIM_ATT
  0
INSERT
  5
1118
  8
DIM_ATT
 66
     1
  2
ATT_BLK
 10
19.780049
 20
7.399974
 30
0.0
  0
ATTRIB
  5
1119
  8
DIM_ATT
 10
19.780049
 20
7.534974
 30
0.0
 40
0.09
  1
RAD
  2
TYPE
 70
     1
  0
ATTRIB
  5
111A
  8
DIM_ATT
 10
19.780049
 20
7.399974
 30
0.0
 40
0.09
  1
0.37525
  2
A1
 70
     1
  0
ATTRIB
  5
111B
  8
DIM_ATT
 10
19.780049
 20
7.264974
 30
0.0
 40
0.09
  1
DIMFIX 10.583400 7.351800 10.341510 7.064917
  2
A2
 70
     1
  0
ATTRIB
  5
111C
  8
DIM_ATT
 10
19.780049
 20
7.129974
 30
0.0
 40
0.09
  1
: : CIRCLE : 8 : OBJECT : 10 : 10.583400 : 20 : 7.351800 : 40 : 0.375250 : 
  2
A3
 70
     1
  0
ATTRIB
  5
111D
  8
DIM_ATT
 10
19.780049
 20
6.994974
 30
0.0
 40
0.09
  1
0
  2
A4
 70
     1
  0
ATTRIB
  5
111E
  8
DIM_ATT
 10
19.780049
 20
6.859974
 30
0.0
 40
0.09
  1
0
  2
A5
 70
     1
  0
ATTRIB
  5
111F
  8
DIM_ATT
 10
19.780049
 20
6.724974
 30
0.0
 40
0.09
  1
0
  2
A6
 70
     1
  0
ATTRIB
  5
1120
  8
DIM_ATT
 10
19.780049
 20
6.589974
 30
0.0
 40
0.09
  1
0
  2
A7
 70
     1
  0
ATTRIB
  5
1121
  8
DIM_ATT
 10
19.780049
 20
6.454974
 30
0.0
 40
0.09
  1
0
  2
A8
 70
     1
  0
SEQEND
  5
1122
  8
DIM_ATT
  0
LINE
  5
1123
  8
L
 10
2.27
 20
-1.252503
 30
0.0
 11
2.27
 21
-2.307497
 31
0.0
  0
LINE
  5
1124
  8
L
 10
2.61
 20
-2.307497
 30
0.0
 11
2.61
 21
-1.252503
 31
0.0
  0
LINE
  5
1125
  8
H
 10
1.56
 20
-2.28025
 30
0.0
 11
1.56
 21
-1.27975
 31
0.0
  0
LINE
  5
1126
  8
H
 10
2.19
 20
-2.28025
 30
0.0
 11
1.56
 21
-2.28025
 31
0.0
  0
LINE
  5
1127
  8
H
 10
1.56
 20
-2.28025
 30
0.0
 11
1.53
 21
-2.25025
 31
0.0
  0
LINE
  5
1128
  8
H
 10
1.53
 20
-2.25025
 30
0.0
 11
1.53
 21
-1.30975
 31
0.0
  0
LINE
  5
1129
  8
H
 10
1.53
 20
-1.30975
 30
0.0
 11
1.56
 21
-1.27975
 31
0.0
  0
LINE
  5
112A
  8
H
 10
1.56
 20
-1.27975
 30
0.0
 11
2.19
 21
-1.27975
 31
0.0
  0
LINE
  5
112B
  8
H
 10
2.19
 20
-1.27975
 30
0.0
 11
2.19
 21
-2.28025
 31
0.0
  0
LINE
  5
112C
  8
H
 10
2.19
 20
-1.78
 30
0.0
 11
2.19
 21
-1.27975
 31
0.0
  0
LINE
  5
112D
  8
L
 10
2.63
 20
-2.287497
 30
0.0
 11
2.61
 21
-2.307497
 31
0.0
  0
LINE
  5
112E
  8
L
 10
2.61
 20
-2.307497
 30
0.0
 11
2.27
 21
-2.307497
 31
0.0
  0
LINE
  5
112F
  8
L
 10
2.27
 20
-2.307497
 30
0.0
 11
2.25
 21
-2.287497
 31
0.0
  0
LINE
  5
1130
  8
L
 10
2.25
 20
-2.287497
 30
0.0
 11
2.25
 21
-1.272503
 31
0.0
  0
LINE
  5
1131
  8
L
 10
2.63
 20
-2.287497
 30
0.0
 11
2.63
 21
-1.272503
 31
0.0
  0
LINE
  5
1132
  8
L
 10
2.27
 20
-1.252503
 30
0.0
 11
2.25
 21
-1.272503
 31
0.0
  0
LINE
  5
1133
  8
L
 10
2.61
 20
-1.252503
 30
0.0
 11
2.27
 21
-1.252503
 31
0.0
  0
LINE
  5
1134
  8
L
 10
2.63
 20
-1.272503
 30
0.0
 11
2.61
 21
-1.252503
 31
0.0
  0
POLYLINE
  5
1135
  8
H
 66
     1
 10
0.0
 20
0.0
 30
0.0
  0
VERTEX
  5
1342
  8
H
 10
2.19
 20
-2.265
 30
0.0
  0
VERTEX
  5
1343
  8
H
 10
2.25
 20
-2.265
 30
0.0
  0
SEQEND
  5
1344
  8
H
  0
POLYLINE
  5
1136
  8
H
 66
     1
 10
0.0
 20
0.0
 30
0.0
  0
VERTEX
  5
1345
  8
H
 10
2.19
 20
-1.295
 30
0.0
  0
VERTEX
  5
1346
  8
H
 10
2.25
 20
-1.295
 30
0.0
  0
SEQEND
  5
1347
  8
H
  0
LINE
  5
1137
  8
H
 10
1.57
 20
-1.905
 30
0.0
 11
1.53
 21
-1.928094
 31
0.0
  0
LINE
  5
1138
  8
H
 10
1.57
 20
-1.905
 30
0.0
 11
1.57
 21
-1.655
 31
0.0
  0
LINE
  5
1139
  8
H
 10
1.57
 20
-1.655
 30
0.0
 11
1.53
 21
-1.631906
 31
0.0
  0
LINE
  5
113A
  8
H
 10
2.59
 20
-1.905
 30
0.0
 11
2.63
 21
-1.928094
 31
0.0
  0
LINE
  5
113B
  8
H
 10
2.59
 20
-1.905
 30
0.0
 11
2.59
 21
-1.655
 31
0.0
  0
LINE
  5
113C
  8
H
 10
2.59
 20
-1.655
 30
0.0
 11
2.63
 21
-1.631906
 31
0.0
  0
POLYLINE
  5
113D
  8
H
 66
     1
 10
0.0
 20
0.0
 30
0.0
  0
VERTEX
  5
1348
  8
H
 10
1.57
 20
-1.905
 30
0.0
  0
VERTEX
  5
1349
  8
H
 10
2.59
 20
-1.905
 30
0.0
  0
SEQEND
  5
134A
  8
H
  0
POLYLINE
  5
113E
  8
H
 66
     1
 10
0.0
 20
0.0
 30
0.0
  0
VERTEX
  5
134B
  8
H
 10
1.57
 20
-1.655
 30
0.0
  0
VERTEX
  5
134C
  8
H
 10
2.59
 20
-1.655
 30
0.0
  0
SEQEND
  5
134D
  8
H
  0
INSERT
  5
113F
  8
DIM_ATT
 66
     1
  2
ATT_BLK
 10
-13.438927
 20
-6.0818
 30
0.0
 43
-1.0
 50
180.0
210
0.0
220
0.0
230
-1.0
  0
ATTRIB
  5
1140
  8
DIM_ATT
 10
13.438927
 20
-6.2168
 30
0.0
 40
0.09
  1
HOR
 51
-180.0
 71
     4
  2
TYPE
 70
     1
  0
ATTRIB
  5
1141
  8
DIM_ATT
 10
13.438927
 20
-6.0818
 30
0.0
 40
0.09
  1
.38
 51
-180.0
 71
     4
  2
A1
 70
     1
  0
ATTRIB
  5
1142
  8
DIM_ATT
 10
13.438927
 20
-5.9468
 30
0.0
 40
0.09
  1
5.957400,7.861800
 51
-180.0
 71
     4
  2
A2
 70
     1
  0
ATTRIB
  5
1143
  8
DIM_ATT
 10
13.438927
 20
-5.8118
 30
0.0
 40
0.09
  1
6.337400,7.832300
 51
-180.0
 71
     4
  2
A3
 70
     1
  0
ATTRIB
  5
1144
  8
DIM_ATT
 10
13.438927
 20
-5.6768
 30
0.0
 40
0.09
  1
1.000000,9.159900
 51
-180.0
 71
     4
  2
A4
 70
     1
  0
ATTRIB
  5
1145
  8
DIM_ATT
 10
13.438927
 20
-5.5418
 30
0.0
 40
0.09
  1

 51
-180.0
 71
     4
  2
A5
 70
     1
  0
ATTRIB
  5
1146
  8
DIM_ATT
 10
13.438927
 20
-5.4068
 30
0.0
 40
0.09
  1
DIMFIX
 51
-180.0
 71
     4
  2
A6
 70
     1
  0
ATTRIB
  5
1147
  8
DIM_ATT
 10
13.438927
 20
-5.2718
 30
0.0
 40
0.09
  1
0
 51
-180.0
 71
     4
  2
A7
 70
     1
  0
ATTRIB
  5
1148
  8
DIM_ATT
 10
13.438927
 20
-5.1368
 30
0.0
 40
0.09
  1
0
 51
-180.0
 71
     4
  2
A8
 70
     1
  0
SEQEND
  5
1149
  8
DIM_ATT
  0
INSERT
  5
114A
  8
DIM_ATT
 66
     1
  2
ATT_BLK
 10
-14.398927
 20
-5.0713
 30
0.0
 43
-1.0
 50
180.0
210
0.0
220
0.0
230
-1.0
  0
ATTRIB
  5
114B
  8
DIM_ATT
 10
14.398927
 20
-5.2063
 30
0.0
 40
0.09
  1
HOR
 51
-180.0
 71
     4
  2
TYPE
 70
     1
  0
ATTRIB
  5
114C
  8
DIM_ATT
 10
14.398927
 20
-5.0713
 30
0.0
 40
0.09
  1
.16
 51
-180.0
 71
     4
  2
A1
 70
     1
  0
ATTRIB
  5
114D
  8
DIM_ATT
 10
14.398927
 20
-4.9363
 30
0.0
 40
0.09
  1
7.077400,6.881300
 51
-180.0
 71
     4
  2
A2
 70
     1
  0
ATTRIB
  5
114E
  8
DIM_ATT
 10
14.398927
 20
-4.8013
 30
0.0
 40
0.09
  1
6.917400,6.851300
 51
-180.0
 71
     4
  2
A3
 70
     1
  0
ATTRIB
  5
114F
  8
DIM_ATT
 10
14.398927
 20
-4.6663
 30
0.0
 40
0.09
  1
1.000000,5.949300
 51
-180.0
 71
     4
  2
A4
 70
     1
  0
ATTRIB
  5
1150
  8
DIM_ATT
 10
14.398927
 20
-4.5313
 30
0.0
 40
0.09
  1

 51
-180.0
 71
     4
  2
A5
 70
     1
  0
ATTRIB
  5
1151
  8
DIM_ATT
 10
14.398927
 20
-4.3963
 30
0.0
 40
0.09
  1
DIMFIX
 51
-180.0
 71
     4
  2
A6
 70
     1
  0
ATTRIB
  5
1152
  8
DIM_ATT
 10
14.398927
 20
-4.2613
 30
0.0
 40
0.09
  1
0
 51
-180.0
 71
     4
  2
A7
 70
     1
  0
ATTRIB
  5
1153
  8
DIM_ATT
 10
14.398927
 20
-4.1263
 30
0.0
 40
0.09
  1
0
 51
-180.0
 71
     4
  2
A8
 70
     1
  0
SEQEND
  5
1154
  8
DIM_ATT
  0
INSERT
  5
1155
  8
DIM_ATT
 66
     1
  2
ATT_BLK
 10
-13.438927
 20
-5.0618
 30
0.0
 43
-1.0
 50
180.0
210
0.0
220
0.0
230
-1.0
  0
ATTRIB
  5
1156
  8
DIM_ATT
 10
13.438927
 20
-5.1968
 30
0.0
 40
0.09
  1
HOR
 51
-180.0
 71
     4
  2
TYPE
 70
     1
  0
ATTRIB
  5
1157
  8
DIM_ATT
 10
13.438927
 20
-5.0618
 30
0.0
 40
0.09
  1
1.12
 51
-180.0
 71
     4
  2
A1
 70
     1
  0
ATTRIB
  5
1158
  8
DIM_ATT
 10
13.438927
 20
-4.9268
 30
0.0
 40
0.09
  1
5.957400,6.841800
 51
-180.0
 71
     4
  2
A2
 70
     1
  0
ATTRIB
  5
1159
  8
DIM_ATT
 10
13.438927
 20
-4.7918
 30
0.0
 40
0.09
  1
7.077400,6.881300
 51
-180.0
 71
     4
  2
A3
 70
     1
  0
ATTRIB
  5
115A
  8
DIM_ATT
 10
13.438927
 20
-4.6568
 30
0.0
 40
0.09
  1
1.000000,4.698100
 51
-180.0
 71
     4
  2
A4
 70
     1
  0
ATTRIB
  5
115B
  8
DIM_ATT
 10
13.438927
 20
-4.5218
 30
0.0
 40
0.09
  1

 51
-180.0
 71
     4
  2
A5
 70
     1
  0
ATTRIB
  5
115C
  8
DIM_ATT
 10
13.438927
 20
-4.3868
 30
0.0
 40
0.09
  1
DIMFIX
 51
-180.0
 71
     4
  2
A6
 70
     1
  0
ATTRIB
  5
115D
  8
DIM_ATT
 10
13.438927
 20
-4.2518
 30
0.0
 40
0.09
  1
0
 51
-180.0
 71
     4
  2
A7
 70
     1
  0
ATTRIB
  5
115E
  8
DIM_ATT
 10
13.438927
 20
-4.1168
 30
0.0
 40
0.09
  1
0
 51
-180.0
 71
     4
  2
A8
 70
     1
  0
SEQEND
  5
115F
  8
DIM_ATT
  0
INSERT
  5
1160
  8
DIM_ATT
 66
     1
  2
ATT_BLK
 10
-17.595927
 20
-5.5718
 30
0.0
 43
-1.0
 50
180.0
210
0.0
220
0.0
230
-1.0
  0
ATTRIB
  5
1161
  8
DIM_ATT
 10
17.595927
 20
-5.7068
 30
0.0
 40
0.09
  1
HOR
 50
360.0
 51
-180.0
 71
     4
  2
TYPE
 70
     1
  0
ATTRIB
  5
1162
  8
DIM_ATT
 10
17.595927
 20
-5.5718
 30
0.0
 40
0.09
  1
0.53000
 50
360.0
 51
-180.0
 71
     4
  2
A1
 70
     1
  0
ATTRIB
  5
1163
  8
DIM_ATT
 10
17.595927
 20
-5.4368
 30
0.0
 40
0.09
  1
10.114400,7.351800
 50
360.0
 51
-180.0
 71
     4
  2
A2
 70
     1
  0
ATTRIB
  5
1164
  8
DIM_ATT
 10
17.595927
 20
-5.3018
 30
0.0
 40
0.09
  1
10.644400,5.943900
 50
360.0
 51
-180.0
 71
     4
  2
A3
 70
     1
  0
ATTRIB
  5
1165
  8
DIM_ATT
 10
17.595927
 20
-5.1668
 30
0.0
 40
0.09
  1
1.000000,5.877400
 50
360.0
 51
-180.0
 71
     4
  2
A4
 70
     1
  0
ATTRIB
  5
1166
  8
DIM_ATT
 10
17.595927
 20
-5.0318
 30
0.0
 40
0.09
  1

 50
360.0
 51
-180.0
 71
     4
  2
A5
 70
     1
  0
ATTRIB
  5
1167
  8
DIM_ATT
 10
17.595927
 20
-4.8968
 30
0.0
 40
0.09
  1
DIMFIX
 50
360.0
 51
-180.0
 71
     4
  2
A6
 70
     1
  0
ATTRIB
  5
1168
  8
DIM_ATT
 10
17.595927
 20
-4.7618
 30
0.0
 40
0.09
  1
0
 50
360.0
 51
-180.0
 71
     4
  2
A7
 70
     1
  0
ATTRIB
  5
1169
  8
DIM_ATT
 10
17.595927
 20
-4.6268
 30
0.0
 40
0.09
  1
0
 50
360.0
 51
-180.0
 71
     4
  2
A8
 70
     1
  0
SEQEND
  5
116A
  8
DIM_ATT
  0
INSERT
  5
116B
  8
DIM_ATT
 66
     1
  2
ATT_BLK
 10
-18.125927
 20
-4.3035
 30
0.0
 43
-1.0
 50
180.0
210
0.0
220
0.0
230
-1.0
  0
ATTRIB
  5
116C
  8
DIM_ATT
 10
18.125927
 20
-4.4385
 30
0.0
 40
0.09
  1
HOR
 50
360.0
 51
-180.0
 71
     4
  2
TYPE
 70
     1
  0
ATTRIB
  5
116D
  8
DIM_ATT
 10
18.125927
 20
-4.3035
 30
0.0
 40
0.09
  1
0.53000
 50
360.0
 51
-180.0
 71
     4
  2
A1
 70
     1
  0
ATTRIB
  5
116E
  8
DIM_ATT
 10
18.125927
 20
-4.1685
 30
0.0
 40
0.09
  1
11.174400,7.351800
 50
360.0
 51
-180.0
 71
     4
  2
A2
 70
     1
  0
ATTRIB
  5
116F
  8
DIM_ATT
 10
18.125927
 20
-4.0335
 30
0.0
 40
0.09
  1
10.644400,6.083500
 50
360.0
 51
-180.0
 71
     4
  2
A3
 70
     1
  0
ATTRIB
  5
1170
  8
DIM_ATT
 10
18.125927
 20
-3.8985
 30
0.0
 40
0.09
  1
1.000000,6.083500
 50
360.0
 51
-180.0
 71
     4
  2
A4
 70
     1
  0
ATTRIB
  5
1171
  8
DIM_ATT
 10
18.125927
 20
-3.7635
 30
0.0
 40
0.09
  1

 50
360.0
 51
-180.0
 71
     4
  2
A5
 70
     1
  0
ATTRIB
  5
1172
  8
DIM_ATT
 10
18.125927
 20
-3.6285
 30
0.0
 40
0.09
  1
DIMFIX
 50
360.0
 51
-180.0
 71
     4
  2
A6
 70
     1
  0
ATTRIB
  5
1173
  8
DIM_ATT
 10
18.125927
 20
-3.4935
 30
0.0
 40
0.09
  1
0
 50
360.0
 51
-180.0
 71
     4
  2
A7
 70
     1
  0
ATTRIB
  5
1174
  8
DIM_ATT
 10
18.125927
 20
-3.3585
 30
0.0
 40
0.09
  1
0
 50
360.0
 51
-180.0
 71
     4
  2
A8
 70
     1
  0
SEQEND
  5
1175
  8
DIM_ATT
  0
INSERT
  5
1176
  8
DIM_ATT
 66
     1
  2
ATT_BLK
 10
-14.558927
 20
-5.5718
 30
0.0
 43
-1.0
 50
180.0
210
0.0
220
0.0
230
-1.0
  0
ATTRIB
  5
1177
  8
DIM_ATT
 10
14.558927
 20
-5.7068
 30
0.0
 40
0.09
  1
VER
 51
-180.0
 71
     4
  2
TYPE
 70
     1
  0
ATTRIB
  5
1178
  8
DIM_ATT
 10
14.558927
 20
-5.5718
 30
0.0
 40
0.09
  1
0.50050
 51
-180.0
 71
     4
  2
A1
 70
     1
  0
ATTRIB
  5
1179
  8
DIM_ATT
 10
14.558927
 20
-5.4368
 30
0.0
 40
0.09
  1
7.077400,7.351800
 51
-180.0
 71
     4
  2
A2
 70
     1
  0
ATTRIB
  5
117A
  8
DIM_ATT
 10
14.558927
 20
-5.3018
 30
0.0
 40
0.09
  1
7.047400,7.852300
 51
-180.0
 71
     4
  2
A3
 70
     1
  0
ATTRIB
  5
117B
  8
DIM_ATT
 10
14.558927
 20
-5.1668
 30
0.0
 40
0.09
  1
7.371800,1.000000
 51
-180.0
 71
     4
  2
A4
 70
     1
  0
ATTRIB
  5
117C
  8
DIM_ATT
 10
14.558927
 20
-5.0318
 30
0.0
 40
0.09
  1
6.337400,1.000000
 51
-180.0
 71
     4
  2
A5
 70
     1
  0
ATTRIB
  5
117D
  8
DIM_ATT
 10
14.558927
 20
-4.8968
 30
0.0
 40
0.09
  1
DIMFIXHIDE
 51
-180.0
 71
     4
  2
A6
 70
     1
  0
ATTRIB
  5
117E
  8
DIM_ATT
 10
14.558927
 20
-4.7618
 30
0.0
 40
0.09
  1
0
 51
-180.0
 71
     4
  2
A7
 70
     1
  0
ATTRIB
  5
117F
  8
DIM_ATT
 10
14.558927
 20
-4.6268
 30
0.0
 40
0.09
  1
0
 51
-180.0
 71
     4
  2
A8
 70
     1
  0
SEQEND
  5
1180
  8
DIM_ATT
  0
INSERT
  5
1181
  8
DIM_ATT
 66
     1
  2
ATT_BLK
 10
-14.528927
 20
-5.0713
 30
0.0
 43
-1.0
 50
180.0
210
0.0
220
0.0
230
-1.0
  0
ATTRIB
  5
1182
  8
DIM_ATT
 10
14.528927
 20
-5.2063
 30
0.0
 40
0.09
  1
VER
 51
-180.0
 71
     4
  2
TYPE
 70
     1
  0
ATTRIB
  5
1183
  8
DIM_ATT
 10
14.528927
 20
-5.0713
 30
0.0
 40
0.09
  1
0.50050
 51
-180.0
 71
     4
  2
A1
 70
     1
  0
ATTRIB
  5
1184
  8
DIM_ATT
 10
14.528927
 20
-4.9363
 30
0.0
 40
0.09
  1
7.077400,7.351800
 51
-180.0
 71
     4
  2
A2
 70
     1
  0
ATTRIB
  5
1185
  8
DIM_ATT
 10
14.528927
 20
-4.8013
 30
0.0
 40
0.09
  1
7.047400,6.851300
 51
-180.0
 71
     4
  2
A3
 70
     1
  0
ATTRIB
  5
1186
  8
DIM_ATT
 10
14.528927
 20
-4.6663
 30
0.0
 40
0.09
  1
7.456900,1.000000
 51
-180.0
 71
     4
  2
A4
 70
     1
  0
ATTRIB
  5
1187
  8
DIM_ATT
 10
14.528927
 20
-4.5313
 30
0.0
 40
0.09
  1
6.367700,1.000000
 51
-180.0
 71
     4
  2
A5
 70
     1
  0
ATTRIB
  5
1188
  8
DIM_ATT
 10
14.528927
 20
-4.3963
 30
0.0
 40
0.09
  1
DIMFIXHIDE
 51
-180.0
 71
     4
  2
A6
 70
     1
  0
ATTRIB
  5
1189
  8
DIM_ATT
 10
14.528927
 20
-4.2613
 30
0.0
 40
0.09
  1
0
 51
-180.0
 71
     4
  2
A7
 70
     1
  0
ATTRIB
  5
118A
  8
DIM_ATT
 10
14.528927
 20
-4.1263
 30
0.0
 40
0.09
  1
0
 51
-180.0
 71
     4
  2
A8
 70
     1
  0
SEQEND
  5
118B
  8
DIM_ATT
  0
INSERT
  5
118C
  8
DIM_ATT
 66
     1
  2
ATT_BLK
 10
-13.438927
 20
-5.5718
 30
0.0
 43
-1.0
 50
180.0
210
0.0
220
0.0
230
-1.0
  0
ATTRIB
  5
118D
  8
DIM_ATT
 10
13.438927
 20
-5.7068
 30
0.0
 40
0.09
  1
VER
 51
-180.0
 71
     4
  2
TYPE
 70
     1
  0
ATTRIB
  5
118E
  8
DIM_ATT
 10
13.438927
 20
-5.5718
 30
0.0
 40
0.09
  1
0.53000
 51
-180.0
 71
     4
  2
A1
 70
     1
  0
ATTRIB
  5
118F
  8
DIM_ATT
 10
13.438927
 20
-5.4368
 30
0.0
 40
0.09
  1
5.957400,7.351800
 51
-180.0
 71
     4
  2
A2
 70
     1
  0
ATTRIB
  5
1190
  8
DIM_ATT
 10
13.438927
 20
-5.3018
 30
0.0
 40
0.09
  1
5.977400,7.881800
 51
-180.0
 71
     4
  2
A3
 70
     1
  0
ATTRIB
  5
1191
  8
DIM_ATT
 10
13.438927
 20
-5.1668
 30
0.0
 40
0.09
  1
5.567500,1.000000
 51
-180.0
 71
     4
  2
A4
 70
     1
  0
ATTRIB
  5
1192
  8
DIM_ATT
 10
13.438927
 20
-5.0318
 30
0.0
 40
0.09
  1
6.337400,1.000000
 51
-180.0
 71
     4
  2
A5
 70
     1
  0
ATTRIB
  5
1193
  8
DIM_ATT
 10
13.438927
 20
-4.8968
 30
0.0
 40
0.09
  1
DIMFIXHIDE
 51
-180.0
 71
     4
  2
A6
 70
     1
  0
ATTRIB
  5
1194
  8
DIM_ATT
 10
13.438927
 20
-4.7618
 30
0.0
 40
0.09
  1
0
 51
-180.0
 71
     4
  2
A7
 70
     1
  0
ATTRIB
  5
1195
  8
DIM_ATT
 10
13.438927
 20
-4.6268
 30
0.0
 40
0.09
  1
0
 51
-180.0
 71
     4
  2
A8
 70
     1
  0
SEQEND
  5
1196
  8
DIM_ATT
  0
INSERT
  5
1197
  8
DIM_ATT
 66
     1
  2
ATT_BLK
 10
-13.458927
 20
-5.0418
 30
0.0
 43
-1.0
 50
180.0
210
0.0
220
0.0
230
-1.0
  0
ATTRIB
  5
1198
  8
DIM_ATT
 10
13.458927
 20
-5.1768
 30
0.0
 40
0.09
  1
VER
 51
-180.0
 71
     4
  2
TYPE
 70
     1
  0
ATTRIB
  5
1199
  8
DIM_ATT
 10
13.458927
 20
-5.0418
 30
0.0
 40
0.09
  1
0.53000
 51
-180.0
 71
     4
  2
A1
 70
     1
  0
ATTRIB
  5
119A
  8
DIM_ATT
 10
13.458927
 20
-4.9068
 30
0.0
 40
0.09
  1
5.957400,7.351800
 51
-180.0
 71
     4
  2
A2
 70
     1
  0
ATTRIB
  5
119B
  8
DIM_ATT
 10
13.458927
 20
-4.7718
 30
0.0
 40
0.09
  1
5.977400,6.821800
 51
-180.0
 71
     4
  2
A3
 70
     1
  0
ATTRIB
  5
119C
  8
DIM_ATT
 10
13.458927
 20
-4.6368
 30
0.0
 40
0.09
  1
5.459000,1.000000
 51
-180.0
 71
     4
  2
A4
 70
     1
  0
ATTRIB
  5
119D
  8
DIM_ATT
 10
13.458927
 20
-4.5018
 30
0.0
 40
0.09
  1
6.337400,1.000000
 51
-180.0
 71
     4
  2
A5
 70
     1
  0
ATTRIB
  5
119E
  8
DIM_ATT
 10
13.458927
 20
-4.3668
 30
0.0
 40
0.09
  1
DIMFIXHIDE
 51
-180.0
 71
     4
  2
A6
 70
     1
  0
ATTRIB
  5
119F
  8
DIM_ATT
 10
13.458927
 20
-4.2318
 30
0.0
 40
0.09
  1
0
 51
-180.0
 71
     4
  2
A7
 70
     1
  0
ATTRIB
  5
11A0
  8
DIM_ATT
 10
13.458927
 20
-4.0968
 30
0.0
 40
0.09
  1
0
 51
-180.0
 71
     4
  2
A8
 70
     1
  0
SEQEND
  5
11A1
  8
DIM_ATT
  0
INSERT
  5
11A2
  8
DIM_ATT
 66
     1
  2
ATT_BLK
 10
-13.818927
 20
-5.5718
 30
0.0
 43
-1.0
 50
180.0
210
0.0
220
0.0
230
-1.0
  0
ATTRIB
  5
11A3
  8
DIM_ATT
 10
13.818927
 20
-5.7068
 30
0.0
 40
0.09
  1
VER
 51
-180.0
 71
     4
  2
TYPE
 70
     1
  0
ATTRIB
  5
11A4
  8
DIM_ATT
 10
13.818927
 20
-5.5718
 30
0.0
 40
0.09
  1
0.48500
 51
-180.0
 71
     4
  2
A1
 70
     1
  0
ATTRIB
  5
11A5
  8
DIM_ATT
 10
13.818927
 20
-5.4368
 30
0.0
 40
0.09
  1
6.337400,7.836800
 51
-180.0
 71
     4
  2
A2
 70
     1
  0
ATTRIB
  5
11A6
  8
DIM_ATT
 10
13.818927
 20
-5.3018
 30
0.0
 40
0.09
  1
6.337400,7.351800
 51
-180.0
 71
     4
  2
A3
 70
     1
  0
ATTRIB
  5
11A7
  8
DIM_ATT
 10
13.818927
 20
-5.1668
 30
0.0
 40
0.09
  1
3.628600,1.000000
 51
-180.0
 71
     4
  2
A4
 70
     1
  0
ATTRIB
  5
11A8
  8
DIM_ATT
 10
13.818927
 20
-5.0318
 30
0.0
 40
0.09
  1
6.397400,1.000000
 51
-180.0
 71
     4
  2
A5
 70
     1
  0
ATTRIB
  5
11A9
  8
DIM_ATT
 10
13.818927
 20
-4.8968
 30
0.0
 40
0.09
  1
DIMFIXHIDE
 51
-180.0
 71
     4
  2
A6
 70
     1
  0
ATTRIB
  5
11AA
  8
DIM_ATT
 10
13.818927
 20
-4.7618
 30
0.0
 40
0.09
  1
0
 51
-180.0
 71
     4
  2
A7
 70
     1
  0
ATTRIB
  5
11AB
  8
DIM_ATT
 10
13.818927
 20
-4.6268
 30
0.0
 40
0.09
  1
0
 51
-180.0
 71
     4
  2
A8
 70
     1
  0
SEQEND
  5
11AC
  8
DIM_ATT
  0
INSERT
  5
11AD
  8
DIM_ATT
 66
     1
  2
ATT_BLK
 10
-13.818927
 20
-5.0868
 30
0.0
 43
-1.0
 50
180.0
210
0.0
220
0.0
230
-1.0
  0
ATTRIB
  5
11AE
  8
DIM_ATT
 10
13.818927
 20
-5.2218
 30
0.0
 40
0.09
  1
VER
 51
-180.0
 71
     4
  2
TYPE
 70
     1
  0
ATTRIB
  5
11AF
  8
DIM_ATT
 10
13.818927
 20
-5.0868
 30
0.0
 40
0.09
  1
0.48500
 51
-180.0
 71
     4
  2
A1
 70
     1
  0
ATTRIB
  5
11B0
  8
DIM_ATT
 10
13.818927
 20
-4.9518
 30
0.0
 40
0.09
  1
6.337400,7.351800
 51
-180.0
 71
     4
  2
A2
 70
     1
  0
ATTRIB
  5
11B1
  8
DIM_ATT
 10
13.818927
 20
-4.8168
 30
0.0
 40
0.09
  1
6.337400,6.866800
 51
-180.0
 71
     4
  2
A3
 70
     1
  0
ATTRIB
  5
11B2
  8
DIM_ATT
 10
13.818927
 20
-4.6818
 30
0.0
 40
0.09
  1
3.506000,1.000000
 51
-180.0
 71
     4
  2
A4
 70
     1
  0
ATTRIB
  5
11B3
  8
DIM_ATT
 10
13.818927
 20
-4.5468
 30
0.0
 40
0.09
  1
6.397400,1.000000
 51
-180.0
 71
     4
  2
A5
 70
     1
  0
ATTRIB
  5
11B4
  8
DIM_ATT
 10
13.818927
 20
-4.4118
 30
0.0
 40
0.09
  1
DIMFIXHIDE
 51
-180.0
 71
     4
  2
A6
 70
     1
  0
ATTRIB
  5
11B5
  8
DIM_ATT
 10
13.818927
 20
-4.2768
 30
0.0
 40
0.09
  1
0
 51
-180.0
 71
     4
  2
A7
 70
     1
  0
ATTRIB
  5
11B6
  8
DIM_ATT
 10
13.818927
 20
-4.1418
 30
0.0
 40
0.09
  1
0
 51
-180.0
 71
     4
  2
A8
 70
     1
  0
SEQEND
  5
11B7
  8
DIM_ATT
  0
INSERT
  5
11B8
  8
DIM_ATT
 66
     1
  2
ATT_BLK
 10
-14.558927
 20
-5.5718
 30
0.0
 43
-1.0
 50
180.0
210
0.0
220
0.0
230
-1.0
  0
ATTRIB
  5
11B9
  8
DIM_ATT
 10
14.558927
 20
-5.7068
 30
0.0
 40
0.09
  1
VER
 51
-180.0
 71
     4
  2
TYPE
 70
     1
  0
ATTRIB
  5
11BA
  8
DIM_ATT
 10
14.558927
 20
-5.5718
 30
0.0
 40
0.09
  1
0.25000
 51
-180.0
 71
     4
  2
A1
 70
     1
  0
ATTRIB
  5
11BB
  8
DIM_ATT
 10
14.558927
 20
-5.4368
 30
0.0
 40
0.09
  1
7.077400,7.601800
 51
-180.0
 71
     4
  2
A2
 70
     1
  0
ATTRIB
  5
11BC
  8
DIM_ATT
 10
14.558927
 20
-5.3018
 30
0.0
 40
0.09
  1
7.077400,7.351800
 51
-180.0
 71
     4
  2
A3
 70
     1
  0
ATTRIB
  5
11BD
  8
DIM_ATT
 10
14.558927
 20
-5.1668
 30
0.0
 40
0.09
  1
9.359500,1.000000
 51
-180.0
 71
     4
  2
A4
 70
     1
  0
ATTRIB
  5
11BE
  8
DIM_ATT
 10
14.558927
 20
-5.0318
 30
0.0
 40
0.09
  1

 51
-180.0
 71
     4
  2
A5
 70
     1
  0
ATTRIB
  5
11BF
  8
DIM_ATT
 10
14.558927
 20
-4.8968
 30
0.0
 40
0.09
  1
DIMFIXHIDE
 51
-180.0
 71
     4
  2
A6
 70
     1
  0
ATTRIB
  5
11C0
  8
DIM_ATT
 10
14.558927
 20
-4.7618
 30
0.0
 40
0.09
  1
0
 51
-180.0
 71
     4
  2
A7
 70
     1
  0
ATTRIB
  5
11C1
  8
DIM_ATT
 10
14.558927
 20
-4.6268
 30
0.0
 40
0.09
  1
0
 51
-180.0
 71
     4
  2
A8
 70
     1
  0
SEQEND
  5
11C2
  8
DIM_ATT
  0
INSERT
  5
11C3
  8
DIM_ATT
 66
     1
  2
ATT_BLK
 10
-14.558927
 20
-5.3218
 30
0.0
 43
-1.0
 50
180.0
210
0.0
220
0.0
230
-1.0
  0
ATTRIB
  5
11C4
  8
DIM_ATT
 10
14.558927
 20
-5.4568
 30
0.0
 40
0.09
  1
VER
 51
-180.0
 71
     4
  2
TYPE
 70
     1
  0
ATTRIB
  5
11C5
  8
DIM_ATT
 10
14.558927
 20
-5.3218
 30
0.0
 40
0.09
  1
0.25000
 51
-180.0
 71
     4
  2
A1
 70
     1
  0
ATTRIB
  5
11C6
  8
DIM_ATT
 10
14.558927
 20
-5.1868
 30
0.0
 40
0.09
  1
7.077400,7.351800
 51
-180.0
 71
     4
  2
A2
 70
     1
  0
ATTRIB
  5
11C7
  8
DIM_ATT
 10
14.558927
 20
-5.0518
 30
0.0
 40
0.09
  1
7.077400,7.101800
 51
-180.0
 71
     4
  2
A3
 70
     1
  0
ATTRIB
  5
11C8
  8
DIM_ATT
 10
14.558927
 20
-4.9168
 30
0.0
 40
0.09
  1
9.597100,1.000000
 51
-180.0
 71
     4
  2
A4
 70
     1
  0
ATTRIB
  5
11C9
  8
DIM_ATT
 10
14.558927
 20
-4.7818
 30
0.0
 40
0.09
  1

 51
-180.0
 71
     4
  2
A5
 70
     1
  0
ATTRIB
  5
11CA
  8
DIM_ATT
 10
14.558927
 20
-4.6468
 30
0.0
 40
0.09
  1
DIMFIXHIDE
 51
-180.0
 71
     4
  2
A6
 70
     1
  0
ATTRIB
  5
11CB
  8
DIM_ATT
 10
14.558927
 20
-4.5118
 30
0.0
 40
0.09
  1
0
 51
-180.0
 71
     4
  2
A7
 70
     1
  0
ATTRIB
  5
11CC
  8
DIM_ATT
 10
14.558927
 20
-4.3768
 30
0.0
 40
0.09
  1
0
 51
-180.0
 71
     4
  2
A8
 70
     1
  0
SEQEND
  5
11CD
  8
DIM_ATT
  0
INSERT
  5
11CE
  8
DIM_ATT
 66
     1
  2
ATT_BLK
 10
-19.293327
 20
-5.5718
 30
0.0
 43
-1.0
 50
180.0
210
0.0
220
0.0
230
-1.0
  0
ATTRIB
  5
11CF
  8
DIM_ATT
 10
19.293327
 20
-5.7068
 30
0.0
 40
0.09
  1
VER
 51
-180.0
 71
     4
  2
TYPE
 70
     1
  0
ATTRIB
  5
11D0
  8
DIM_ATT
 10
19.293327
 20
-5.5718
 30
0.0
 40
0.09
  1
0.53000
 51
-180.0
 71
     4
  2
A1
 70
     1
  0
ATTRIB
  5
11D1
  8
DIM_ATT
 10
19.293327
 20
-5.4368
 30
0.0
 40
0.09
  1
10.644400,7.881800
 51
-180.0
 71
     4
  2
A2
 70
     1
  0
ATTRIB
  5
11D2
  8
DIM_ATT
 10
19.293327
 20
-5.3018
 30
0.0
 40
0.09
  1
11.811800,7.351800
 51
-180.0
 71
     4
  2
A3
 70
     1
  0
ATTRIB
  5
11D3
  8
DIM_ATT
 10
19.293327
 20
-5.1668
 30
0.0
 40
0.09
  1
11.811800,1.000000
 51
-180.0
 71
     4
  2
A4
 70
     1
  0
ATTRIB
  5
11D4
  8
DIM_ATT
 10
19.293327
 20
-5.0318
 30
0.0
 40
0.09
  1

 51
-180.0
 71
     4
  2
A5
 70
     1
  0
ATTRIB
  5
11D5
  8
DIM_ATT
 10
19.293327
 20
-4.8968
 30
0.0
 40
0.09
  1
DIMFIX
 51
-180.0
 71
     4
  2
A6
 70
     1
  0
ATTRIB
  5
11D6
  8
DIM_ATT
 10
19.293327
 20
-4.7618
 30
0.0
 40
0.09
  1
0
 51
-180.0
 71
     4
  2
A7
 70
     1
  0
ATTRIB
  5
11D7
  8
DIM_ATT
 10
19.293327
 20
-4.6268
 30
0.0
 40
0.09
  1
0
 51
-180.0
 71
     4
  2
A8
 70
     1
  0
SEQEND
  5
11D8
  8
DIM_ATT
  0
INSERT
  5
11D9
  8
DIM_ATT
 66
     1
  2
ATT_BLK
 10
-18.125927
 20
-5.0418
 30
0.0
 43
-1.0
 50
180.0
210
0.0
220
0.0
230
-1.0
  0
ATTRIB
  5
11DA
  8
DIM_ATT
 10
18.125927
 20
-5.1768
 30
0.0
 40
0.09
  1
VER
 50
360.0
 51
-180.0
 71
     4
  2
TYPE
 70
     1
  0
ATTRIB
  5
11DB
  8
DIM_ATT
 10
18.125927
 20
-5.0418
 30
0.0
 40
0.09
  1
0.53000
 50
360.0
 51
-180.0
 71
     4
  2
A1
 70
     1
  0
ATTRIB
  5
11DC
  8
DIM_ATT
 10
18.125927
 20
-4.9068
 30
0.0
 40
0.09
  1
10.644400,6.821800
 50
360.0
 51
-180.0
 71
     4
  2
A2
 70
     1
  0
ATTRIB
  5
11DD
  8
DIM_ATT
 10
18.125927
 20
-4.7718
 30
0.0
 40
0.09
  1
8.741200,7.351800
 50
360.0
 51
-180.0
 71
     4
  2
A3
 70
     1
  0
ATTRIB
  5
11DE
  8
DIM_ATT
 10
18.125927
 20
-4.6368
 30
0.0
 40
0.09
  1
8.734900,1.000000
 50
360.0
 51
-180.0
 71
     4
  2
A4
 70
     1
  0
ATTRIB
  5
11DF
  8
DIM_ATT
 10
18.125927
 20
-4.5018
 30
0.0
 40
0.09
  1

 50
360.0
 51
-180.0
 71
     4
  2
A5
 70
     1
  0
ATTRIB
  5
11E0
  8
DIM_ATT
 10
18.125927
 20
-4.3668
 30
0.0
 40
0.09
  1
DIMFIX
 50
360.0
 51
-180.0
 71
     4
  2
A6
 70
     1
  0
ATTRIB
  5
11E1
  8
DIM_ATT
 10
18.125927
 20
-4.2318
 30
0.0
 40
0.09
  1
0
 50
360.0
 51
-180.0
 71
     4
  2
A7
 70
     1
  0
ATTRIB
  5
11E2
  8
DIM_ATT
 10
18.125927
 20
-4.0968
 30
0.0
 40
0.09
  1
0
 50
360.0
 51
-180.0
 71
     4
  2
A8
 70
     1
  0
SEQEND
  5
11E3
  8
DIM_ATT
  0
INSERT
  5
11E4
  8
DIM_ATT
 66
     1
  2
ATT_BLK
 10
-18.094627
 20
-6.0912
 30
0.0
 43
-1.0
 50
180.0
210
0.0
220
0.0
230
-1.0
  0
ATTRIB
  5
11E5
  8
DIM_ATT
 10
18.094627
 20
-6.2262
 30
0.0
 40
0.09
  1
ALI
 51
-180.0
 71
     4
  2
TYPE
 70
     1
  0
ATTRIB
  5
11E6
  8
DIM_ATT
 10
18.094627
 20
-6.0912
 30
0.0
 40
0.09
  1
.747
 50
360.0
 51
-180.0
 71
     4
  2
A1
 70
     1
  0
ATTRIB
  5
11E7
  8
DIM_ATT
 10
18.094627
 20
-5.9562
 30
0.0
 40
0.09
  1
10.613100,7.871200
 50
360.0
 51
-180.0
 71
     4
  2
A2
 70
     1
  0
ATTRIB
  5
11E8
  8
DIM_ATT
 10
18.094627
 20
-5.8212
 30
0.0
 40
0.09
  1
11.163800,7.320500
 50
360.0
 51
-180.0
 71
     4
  2
A3
 70
     1
  0
ATTRIB
  5
11E9
  8
DIM_ATT
 10
18.094627
 20
-5.6862
 30
0.0
 40
0.09
  1
11.739700,8.504900
 50
360.0
 51
-180.0
 71
     4
  2
A4
 70
     1
  0
ATTRIB
  5
11EA
  8
DIM_ATT
 10
18.094627
 20
-5.5512
 30
0.0
 40
0.09
  1
0
 50
360.0
 51
-180.0
 71
     4
  2
A5
 70
     1
  0
ATTRIB
  5
11EB
  8
DIM_ATT
 10
18.094627
 20
-5.4162
 30
0.0
 40
0.09
  1
DIMFIX
 50
360.0
 51
-180.0
 71
     4
  2
A6
 70
     1
  0
ATTRIB
  5
11EC
  8
DIM_ATT
 10
18.094627
 20
-5.2812
 30
0.0
 40
0.09
  1
0
 50
360.0
 51
-180.0
 71
     4
  2
A7
 70
     1
  0
ATTRIB
  5
11ED
  8
DIM_ATT
 10
18.094627
 20
-5.1462
 30
0.0
 40
0.09
  1
0
 50
360.0
 51
-180.0
 71
     4
  2
A8
 70
     1
  0
SEQEND
  5
11EE
  8
DIM_ATT
  0
INSERT
  5
11EF
  8
DIM_ATT
 66
     1
  2
ATT_BLK
 10
-18.157327
 20
-6.0912
 30
0.0
 43
-1.0
 50
180.0
210
0.0
220
0.0
230
-1.0
  0
ATTRIB
  5
11F0
  8
DIM_ATT
 10
18.157327
 20
-6.2262
 30
0.0
 40
0.09
  1
ALI
 51
-180.0
 71
     4
  2
TYPE
 70
     1
  0
ATTRIB
  5
11F1
  8
DIM_ATT
 10
18.157327
 20
-6.0912
 30
0.0
 40
0.09
  1
.747
 50
360.0
 51
-180.0
 71
     4
  2
A1
 70
     1
  0
ATTRIB
  5
11F2
  8
DIM_ATT
 10
18.157327
 20
-5.9562
 30
0.0
 40
0.09
  1
10.675800,7.871200
 50
360.0
 51
-180.0
 71
     4
  2
A2
 70
     1
  0
ATTRIB
  5
11F3
  8
DIM_ATT
 10
18.157327
 20
-5.8212
 30
0.0
 40
0.09
  1
10.125000,7.320500
 50
360.0
 51
-180.0
 71
     4
  2
A3
 70
     1
  0
ATTRIB
  5
11F4
  8
DIM_ATT
 10
18.157327
 20
-5.6862
 30
0.0
 40
0.09
  1
9.267364,8.895350
 50
360.0
 51
-180.0
 71
     4
  2
A4
 70
     1
  0
ATTRIB
  5
11F5
  8
DIM_ATT
 10
18.157327
 20
-5.5512
 30
0.0
 40
0.09
  1
0
 50
360.0
 51
-180.0
 71
     4
  2
A5
 70
     1
  0
ATTRIB
  5
11F6
  8
DIM_ATT
 10
18.157327
 20
-5.4162
 30
0.0
 40
0.09
  1
DIMFIX
 50
360.0
 51
-180.0
 71
     4
  2
A6
 70
     1
  0
ATTRIB
  5
11F7
  8
DIM_ATT
 10
18.157327
 20
-5.2812
 30
0.0
 40
0.09
  1
0
 50
360.0
 51
-180.0
 71
     4
  2
A7
 70
     1
  0
ATTRIB
  5
11F8
  8
DIM_ATT
 10
18.157327
 20
-5.1462
 30
0.0
 40
0.09
  1
0
 50
360.0
 51
-180.0
 71
     4
  2
A8
 70
     1
  0
SEQEND
  5
11F9
  8
DIM_ATT
  0
INSERT
  5
11FA
  8
DIM_ATT
 66
     1
  2
ATT_BLK
 10
-18.125927
 20
-5.5718
 30
0.0
 43
-1.0
 50
180.0
210
0.0
220
0.0
230
-1.0
  0
ATTRIB
  5
11FB
  8
DIM_ATT
 10
18.125927
 20
-5.7068
 30
0.0
 40
0.09
  1
RAD
 50
360.0
 51
-180.0
 71
     4
  2
TYPE
 70
     1
  0
ATTRIB
  5
11FC
  8
DIM_ATT
 10
18.125927
 20
-5.5718
 30
0.0
 40
0.09
  1
.25
 50
360.0
 51
-180.0
 71
     4
  2
A1
 70
     1
  0
ATTRIB
  5
11FD
  8
DIM_ATT
 10
18.125927
 20
-5.4368
 30
0.0
 40
0.09
  1
DIMFIXHIDE 10.644400 7.351800 10.514191 7.565214
 50
360.0
 51
-180.0
 71
     4
  2
A2
 70
     1
  0
ATTRIB
  5
11FE
  8
DIM_ATT
 10
18.125927
 20
-5.3018
 30
0.0
 40
0.09
  1
: : CIRCLE : 8 : OBJECT : 10 : 10.644400 : 20 : 7.351800 : 40 : 0.250008 : 
 50
360.0
 51
-180.0
 71
     4
  2
A3
 70
     1
  0
ATTRIB
  5
11FF
  8
DIM_ATT
 10
18.125927
 20
-5.1668
 30
0.0
 40
0.09
  1
0
 50
360.0
 51
-180.0
 71
     4
  2
A4
 70
     1
  0
ATTRIB
  5
1200
  8
DIM_ATT
 10
18.125927
 20
-5.0318
 30
0.0
 40
0.09
  1
0
 50
360.0
 51
-180.0
 71
     4
  2
A5
 70
     1
  0
ATTRIB
  5
1201
  8
DIM_ATT
 10
18.125927
 20
-4.8968
 30
0.0
 40
0.09
  1
0
 50
360.0
 51
-180.0
 71
     4
  2
A6
 70
     1
  0
ATTRIB
  5
1202
  8
DIM_ATT
 10
18.125927
 20
-4.7618
 30
0.0
 40
0.09
  1
0
 50
360.0
 51
-180.0
 71
     4
  2
A7
 70
     1
  0
ATTRIB
  5
1203
  8
DIM_ATT
 10
18.125927
 20
-4.6268
 30
0.0
 40
0.09
  1
0
 50
360.0
 51
-180.0
 71
     4
  2
A8
 70
     1
  0
SEQEND
  5
1204
  8
DIM_ATT
  0
INSERT
  5
1205
  8
DIM_ATT
 66
     1
  2
ATT_BLK
 10
-18.125927
 20
-5.5718
 30
0.0
 43
-1.0
 50
180.0
210
0.0
220
0.0
230
-1.0
  0
ATTRIB
  5
1206
  8
DIM_ATT
 10
18.125927
 20
-5.7068
 30
0.0
 40
0.09
  1
RAD
 50
360.0
 51
-180.0
 71
     4
  2
TYPE
 70
     1
  0
ATTRIB
  5
1207
  8
DIM_ATT
 10
18.125927
 20
-5.5718
 30
0.0
 40
0.09
  1
0.53000
 50
360.0
 51
-180.0
 71
     4
  2
A1
 70
     1
  0
ATTRIB
  5
1208
  8
DIM_ATT
 10
18.125927
 20
-5.4368
 30
0.0
 40
0.09
  1
DIMFIXHIDE 10.644400 7.351800 10.913802 6.895376
 50
360.0
 51
-180.0
 71
     4
  2
A2
 70
     1
  0
ATTRIB
  5
1209
  8
DIM_ATT
 10
18.125927
 20
-5.3018
 30
0.0
 40
0.09
  1
: : CIRCLE : 8 : HIDOB : 10 : 10.644400 : 20 : 7.351800 : 40 : 0.529991 : 
 50
360.0
 51
-180.0
 71
     4
  2
A3
 70
     1
  0
ATTRIB
  5
120A
  8
DIM_ATT
 10
18.125927
 20
-5.1668
 30
0.0
 40
0.09
  1
0
 50
360.0
 51
-180.0
 71
     4
  2
A4
 70
     1
  0
ATTRIB
  5
120B
  8
DIM_ATT
 10
18.125927
 20
-5.0318
 30
0.0
 40
0.09
  1
0
 50
360.0
 51
-180.0
 71
     4
  2
A5
 70
     1
  0
ATTRIB
  5
120C
  8
DIM_ATT
 10
18.125927
 20
-4.8968
 30
0.0
 40
0.09
  1
0
 50
360.0
 51
-180.0
 71
     4
  2
A6
 70
     1
  0
ATTRIB
  5
120D
  8
DIM_ATT
 10
18.125927
 20
-4.7618
 30
0.0
 40
0.09
  1
0
 50
360.0
 51
-180.0
 71
     4
  2
A7
 70
     1
  0
ATTRIB
  5
120E
  8
DIM_ATT
 10
18.125927
 20
-4.6268
 30
0.0
 40
0.09
  1
0
 50
360.0
 51
-180.0
 71
     4
  2
A8
 70
     1
  0
SEQEND
  5
120F
  8
DIM_ATT
  0
INSERT
  5
1210
  8
DIM_ATT
 66
     1
  2
ATT_BLK
 10
-18.125927
 20
-5.5718
 30
0.0
 43
-1.0
 50
180.0
210
0.0
220
0.0
230
-1.0
  0
ATTRIB
  5
1211
  8
DIM_ATT
 10
18.125927
 20
-5.7068
 30
0.0
 40
0.09
  1
RAD
 50
360.0
 51
-180.0
 71
     4
  2
TYPE
 70
     1
  0
ATTRIB
  5
1212
  8
DIM_ATT
 10
18.125927
 20
-5.5718
 30
0.0
 40
0.09
  1
0.50050
 50
360.0
 51
-180.0
 71
     4
  2
A1
 70
     1
  0
ATTRIB
  5
1213
  8
DIM_ATT
 10
18.125927
 20
-5.4368
 30
0.0
 40
0.09
  1
DIMFIX 10.644400 7.351800 10.321773 6.969162
 50
360.0
 51
-180.0
 71
     4
  2
A2
 70
     1
  0
ATTRIB
  5
1214
  8
DIM_ATT
 10
18.125927
 20
-5.3018
 30
0.0
 40
0.09
  1
: : CIRCLE : 8 : OBJECT : 10 : 10.644400 : 20 : 7.351800 : 40 : 0.500500 : 
 50
360.0
 51
-180.0
 71
     4
  2
A3
 70
     1
  0
ATTRIB
  5
1215
  8
DIM_ATT
 10
18.125927
 20
-5.1668
 30
0.0
 40
0.09
  1
0
 50
360.0
 51
-180.0
 71
     4
  2
A4
 70
     1
  0
ATTRIB
  5
1216
  8
DIM_ATT
 10
18.125927
 20
-5.0318
 30
0.0
 40
0.09
  1
0
 50
360.0
 51
-180.0
 71
     4
  2
A5
 70
     1
  0
ATTRIB
  5
1217
  8
DIM_ATT
 10
18.125927
 20
-4.8968
 30
0.0
 40
0.09
  1
0
 50
360.0
 51
-180.0
 71
     4
  2
A6
 70
     1
  0
ATTRIB
  5
1218
  8
DIM_ATT
 10
18.125927
 20
-4.7618
 30
0.0
 40
0.09
  1
0
 50
360.0
 51
-180.0
 71
     4
  2
A7
 70
     1
  0
ATTRIB
  5
1219
  8
DIM_ATT
 10
18.125927
 20
-4.6268
 30
0.0
 40
0.09
  1
0
 50
360.0
 51
-180.0
 71
     4
  2
A8
 70
     1
  0
SEQEND
  5
121A
  8
DIM_ATT
  0
INSERT
  5
121B
  8
DIM_ATT
 66
     1
  2
ATT_BLK
 10
-15.154049
 20
-7.848974
 30
0.0
 43
-1.0
 50
180.0
210
0.0
220
0.0
230
-1.0
  0
ATTRIB
  5
121C
  8
DIM_ATT
 10
15.154049
 20
-7.983974
 30
0.0
 40
0.09
  1
HOR
 51
-180.0
 71
     4
  2
TYPE
 70
     1
  0
ATTRIB
  5
121D
  8
DIM_ATT
 10
15.154049
 20
-7.848974
 30
0.0
 40
0.09
  1
.38
 51
-180.0
 71
     4
  2
A1
 70
     1
  0
ATTRIB
  5
121E
  8
DIM_ATT
 10
15.154049
 20
-7.713974
 30
0.0
 40
0.09
  1
5.957400,7.800800
 51
-180.0
 71
     4
  2
A2
 70
     1
  0
ATTRIB
  5
121F
  8
DIM_ATT
 10
15.154049
 20
-7.578974
 30
0.0
 40
0.09
  1
6.337400,7.707050
 51
-180.0
 71
     4
  2
A3
 70
     1
  0
ATTRIB
  5
1220
  8
DIM_ATT
 10
15.154049
 20
-7.443974
 30
0.0
 40
0.09
  1
1.000000,9.098900
 51
-180.0
 71
     4
  2
A4
 70
     1
  0
ATTRIB
  5
1221
  8
DIM_ATT
 10
15.154049
 20
-7.308974
 30
0.0
 40
0.09
  1

 51
-180.0
 71
     4
  2
A5
 70
     1
  0
ATTRIB
  5
1222
  8
DIM_ATT
 10
15.154049
 20
-7.173974
 30
0.0
 40
0.09
  1
DIMFIX
 51
-180.0
 71
     4
  2
A6
 70
     1
  0
ATTRIB
  5
1223
  8
DIM_ATT
 10
15.154049
 20
-7.038974
 30
0.0
 40
0.09
  1
0
 51
-180.0
 71
     4
  2
A7
 70
     1
  0
ATTRIB
  5
1224
  8
DIM_ATT
 10
15.154049
 20
-6.903974
 30
0.0
 40
0.09
  1
0
 51
-180.0
 71
     4
  2
A8
 70
     1
  0
SEQEND
  5
1225
  8
DIM_ATT
  0
INSERT
  5
1226
  8
DIM_ATT
 66
     1
  2
ATT_BLK
 10
-16.114049
 20
-7.024724
 30
0.0
 43
-1.0
 50
180.0
210
0.0
220
0.0
230
-1.0
  0
ATTRIB
  5
1227
  8
DIM_ATT
 10
16.114049
 20
-7.159724
 30
0.0
 40
0.09
  1
HOR
 51
-180.0
 71
     4
  2
TYPE
 70
     1
  0
ATTRIB
  5
1228
  8
DIM_ATT
 10
16.114049
 20
-7.024724
 30
0.0
 40
0.09
  1
.16
 51
-180.0
 71
     4
  2
A1
 70
     1
  0
ATTRIB
  5
1229
  8
DIM_ATT
 10
16.114049
 20
-6.889724
 30
0.0
 40
0.09
  1
7.077400,7.006550
 51
-180.0
 71
     4
  2
A2
 70
     1
  0
ATTRIB
  5
122A
  8
DIM_ATT
 10
16.114049
 20
-6.754724
 30
0.0
 40
0.09
  1
6.917400,6.976550
 51
-180.0
 71
     4
  2
A3
 70
     1
  0
ATTRIB
  5
122B
  8
DIM_ATT
 10
16.114049
 20
-6.619724
 30
0.0
 40
0.09
  1
1.000000,6.010300
 51
-180.0
 71
     4
  2
A4
 70
     1
  0
ATTRIB
  5
122C
  8
DIM_ATT
 10
16.114049
 20
-6.484724
 30
0.0
 40
0.09
  1

 51
-180.0
 71
     4
  2
A5
 70
     1
  0
ATTRIB
  5
122D
  8
DIM_ATT
 10
16.114049
 20
-6.349724
 30
0.0
 40
0.09
  1
DIMFIX
 51
-180.0
 71
     4
  2
A6
 70
     1
  0
ATTRIB
  5
122E
  8
DIM_ATT
 10
16.114049
 20
-6.214724
 30
0.0
 40
0.09
  1
0
 51
-180.0
 71
     4
  2
A7
 70
     1
  0
ATTRIB
  5
122F
  8
DIM_ATT
 10
16.114049
 20
-6.079724
 30
0.0
 40
0.09
  1
0
 51
-180.0
 71
     4
  2
A8
 70
     1
  0
SEQEND
  5
1230
  8
DIM_ATT
  0
INSERT
  5
1231
  8
DIM_ATT
 66
     1
  2
ATT_BLK
 10
-15.154049
 20
-6.950974
 30
0.0
 43
-1.0
 50
180.0
210
0.0
220
0.0
230
-1.0
  0
ATTRIB
  5
1232
  8
DIM_ATT
 10
15.154049
 20
-7.085974
 30
0.0
 40
0.09
  1
HOR
 51
-180.0
 71
     4
  2
TYPE
 70
     1
  0
ATTRIB
  5
1233
  8
DIM_ATT
 10
15.154049
 20
-6.950974
 30
0.0
 40
0.09
  1
1.12
 51
-180.0
 71
     4
  2
A1
 70
     1
  0
ATTRIB
  5
1234
  8
DIM_ATT
 10
15.154049
 20
-6.815974
 30
0.0
 40
0.09
  1
5.957400,6.902800
 51
-180.0
 71
     4
  2
A2
 70
     1
  0
ATTRIB
  5
1235
  8
DIM_ATT
 10
15.154049
 20
-6.680974
 30
0.0
 40
0.09
  1
7.077400,7.006550
 51
-180.0
 71
     4
  2
A3
 70
     1
  0
ATTRIB
  5
1236
  8
DIM_ATT
 10
15.154049
 20
-6.545974
 30
0.0
 40
0.09
  1
1.000000,4.759100
 51
-180.0
 71
     4
  2
A4
 70
     1
  0
ATTRIB
  5
1237
  8
DIM_ATT
 10
15.154049
 20
-6.410974
 30
0.0
 40
0.09
  1

 51
-180.0
 71
     4
  2
A5
 70
     1
  0
ATTRIB
  5
1238
  8
DIM_ATT
 10
15.154049
 20
-6.275974
 30
0.0
 40
0.09
  1
DIMFIX
 51
-180.0
 71
     4
  2
A6
 70
     1
  0
ATTRIB
  5
1239
  8
DIM_ATT
 10
15.154049
 20
-6.140974
 30
0.0
 40
0.09
  1
0
 51
-180.0
 71
     4
  2
A7
 70
     1
  0
ATTRIB
  5
123A
  8
DIM_ATT
 10
15.154049
 20
-6.005974
 30
0.0
 40
0.09
  1
0
 51
-180.0
 71
     4
  2
A8
 70
     1
  0
SEQEND
  5
123B
  8
DIM_ATT
  0
INSERT
  5
123C
  8
DIM_ATT
 66
     1
  2
ATT_BLK
 10
-19.311049
 20
-7.399974
 30
0.0
 43
-1.0
 50
180.0
210
0.0
220
0.0
230
-1.0
  0
ATTRIB
  5
123D
  8
DIM_ATT
 10
19.311049
 20
-7.534974
 30
0.0
 40
0.09
  1
HOR
 51
-180.0
 71
     4
  2
TYPE
 70
     1
  0
ATTRIB
  5
123E
  8
DIM_ATT
 10
19.311049
 20
-7.399974
 30
0.0
 40
0.09
  1
0.46900
 51
-180.0
 71
     4
  2
A1
 70
     1
  0
ATTRIB
  5
123F
  8
DIM_ATT
 10
19.311049
 20
-7.264974
 30
0.0
 40
0.09
  1
10.114400,7.351800
 51
-180.0
 71
     4
  2
A2
 70
     1
  0
ATTRIB
  5
1240
  8
DIM_ATT
 10
19.311049
 20
-7.129974
 30
0.0
 40
0.09
  1
10.583400,6.004900
 51
-180.0
 71
     4
  2
A3
 70
     1
  0
ATTRIB
  5
1241
  8
DIM_ATT
 10
19.311049
 20
-6.994974
 30
0.0
 40
0.09
  1
1.000000,5.938400
 51
-180.0
 71
     4
  2
A4
 70
     1
  0
ATTRIB
  5
1242
  8
DIM_ATT
 10
19.311049
 20
-6.859974
 30
0.0
 40
0.09
  1

 51
-180.0
 71
     4
  2
A5
 70
     1
  0
ATTRIB
  5
1243
  8
DIM_ATT
 10
19.311049
 20
-6.724974
 30
0.0
 40
0.09
  1
DIMFIX
 51
-180.0
 71
     4
  2
A6
 70
     1
  0
ATTRIB
  5
1244
  8
DIM_ATT
 10
19.311049
 20
-6.589974
 30
0.0
 40
0.09
  1
0
 51
-180.0
 71
     4
  2
A7
 70
     1
  0
ATTRIB
  5
1245
  8
DIM_ATT
 10
19.311049
 20
-6.454974
 30
0.0
 40
0.09
  1
0
 51
-180.0
 71
     4
  2
A8
 70
     1
  0
SEQEND
  5
1246
  8
DIM_ATT
  0
INSERT
  5
1247
  8
DIM_ATT
 66
     1
  2
ATT_BLK
 10
-19.780049
 20
-6.192674
 30
0.0
 43
-1.0
 50
180.0
210
0.0
220
0.0
230
-1.0
  0
ATTRIB
  5
1248
  8
DIM_ATT
 10
19.780049
 20
-6.327674
 30
0.0
 40
0.09
  1
HOR
 51
-180.0
 71
     4
  2
TYPE
 70
     1
  0
ATTRIB
  5
1249
  8
DIM_ATT
 10
19.780049
 20
-6.192674
 30
0.0
 40
0.09
  1
0.46900
 51
-180.0
 71
     4
  2
A1
 70
     1
  0
ATTRIB
  5
124A
  8
DIM_ATT
 10
19.780049
 20
-6.057674
 30
0.0
 40
0.09
  1
11.052400,7.351800
 51
-180.0
 71
     4
  2
A2
 70
     1
  0
ATTRIB
  5
124B
  8
DIM_ATT
 10
19.780049
 20
-5.922674
 30
0.0
 40
0.09
  1
10.583400,6.144500
 51
-180.0
 71
     4
  2
A3
 70
     1
  0
ATTRIB
  5
124C
  8
DIM_ATT
 10
19.780049
 20
-5.787674
 30
0.0
 40
0.09
  1
1.000000,6.144500
 51
-180.0
 71
     4
  2
A4
 70
     1
  0
ATTRIB
  5
124D
  8
DIM_ATT
 10
19.780049
 20
-5.652674
 30
0.0
 40
0.09
  1

 51
-180.0
 71
     4
  2
A5
 70
     1
  0
ATTRIB
  5
124E
  8
DIM_ATT
 10
19.780049
 20
-5.517674
 30
0.0
 40
0.09
  1
DIMFIX
 51
-180.0
 71
     4
  2
A6
 70
     1
  0
ATTRIB
  5
124F
  8
DIM_ATT
 10
19.780049
 20
-5.382674
 30
0.0
 40
0.09
  1
0
 51
-180.0
 71
     4
  2
A7
 70
     1
  0
ATTRIB
  5
1250
  8
DIM_ATT
 10
19.780049
 20
-5.247674
 30
0.0
 40
0.09
  1
0
 51
-180.0
 71
     4
  2
A8
 70
     1
  0
SEQEND
  5
1251
  8
DIM_ATT
  0
INSERT
  5
1252
  8
DIM_ATT
 66
     1
  2
ATT_BLK
 10
-16.274049
 20
-7.399974
 30
0.0
 43
-1.0
 50
180.0
210
0.0
220
0.0
230
-1.0
  0
ATTRIB
  5
1253
  8
DIM_ATT
 10
16.274049
 20
-7.534974
 30
0.0
 40
0.09
  1
VER
 51
-180.0
 71
     4
  2
TYPE
 70
     1
  0
ATTRIB
  5
1254
  8
DIM_ATT
 10
16.274049
 20
-7.399974
 30
0.0
 40
0.09
  1
0.37525
 51
-180.0
 71
     4
  2
A1
 70
     1
  0
ATTRIB
  5
1255
  8
DIM_ATT
 10
16.274049
 20
-7.264974
 30
0.0
 40
0.09
  1
7.077400,7.351800
 51
-180.0
 71
     4
  2
A2
 70
     1
  0
ATTRIB
  5
1256
  8
DIM_ATT
 10
16.274049
 20
-7.129974
 30
0.0
 40
0.09
  1
7.047400,7.727050
 51
-180.0
 71
     4
  2
A3
 70
     1
  0
ATTRIB
  5
1257
  8
DIM_ATT
 10
16.274049
 20
-6.994974
 30
0.0
 40
0.09
  1
7.371800,1.000000
 51
-180.0
 71
     4
  2
A4
 70
     1
  0
ATTRIB
  5
1258
  8
DIM_ATT
 10
16.274049
 20
-6.859974
 30
0.0
 40
0.09
  1
6.337400,1.000000
 51
-180.0
 71
     4
  2
A5
 70
     1
  0
ATTRIB
  5
1259
  8
DIM_ATT
 10
16.274049
 20
-6.724974
 30
0.0
 40
0.09
  1
DIMFIXHIDE
 51
-180.0
 71
     4
  2
A6
 70
     1
  0
ATTRIB
  5
125A
  8
DIM_ATT
 10
16.274049
 20
-6.589974
 30
0.0
 40
0.09
  1
0
 51
-180.0
 71
     4
  2
A7
 70
     1
  0
ATTRIB
  5
125B
  8
DIM_ATT
 10
16.274049
 20
-6.454974
 30
0.0
 40
0.09
  1
0
 51
-180.0
 71
     4
  2
A8
 70
     1
  0
SEQEND
  5
125C
  8
DIM_ATT
  0
INSERT
  5
125D
  8
DIM_ATT
 66
     1
  2
ATT_BLK
 10
-16.244049
 20
-7.024724
 30
0.0
 43
-1.0
 50
180.0
210
0.0
220
0.0
230
-1.0
  0
ATTRIB
  5
125E
  8
DIM_ATT
 10
16.244049
 20
-7.159724
 30
0.0
 40
0.09
  1
VER
 51
-180.0
 71
     4
  2
TYPE
 70
     1
  0
ATTRIB
  5
125F
  8
DIM_ATT
 10
16.244049
 20
-7.024724
 30
0.0
 40
0.09
  1
0.37525
 51
-180.0
 71
     4
  2
A1
 70
     1
  0
ATTRIB
  5
1260
  8
DIM_ATT
 10
16.244049
 20
-6.889724
 30
0.0
 40
0.09
  1
7.077400,7.351800
 51
-180.0
 71
     4
  2
A2
 70
     1
  0
ATTRIB
  5
1261
  8
DIM_ATT
 10
16.244049
 20
-6.754724
 30
0.0
 40
0.09
  1
7.047400,6.976550
 51
-180.0
 71
     4
  2
A3
 70
     1
  0
ATTRIB
  5
1262
  8
DIM_ATT
 10
16.244049
 20
-6.619724
 30
0.0
 40
0.09
  1
7.456900,1.000000
 51
-180.0
 71
     4
  2
A4
 70
     1
  0
ATTRIB
  5
1263
  8
DIM_ATT
 10
16.244049
 20
-6.484724
 30
0.0
 40
0.09
  1
6.367700,1.000000
 51
-180.0
 71
     4
  2
A5
 70
     1
  0
ATTRIB
  5
1264
  8
DIM_ATT
 10
16.244049
 20
-6.349724
 30
0.0
 40
0.09
  1
DIMFIXHIDE
 51
-180.0
 71
     4
  2
A6
 70
     1
  0
ATTRIB
  5
1265
  8
DIM_ATT
 10
16.244049
 20
-6.214724
 30
0.0
 40
0.09
  1
0
 51
-180.0
 71
     4
  2
A7
 70
     1
  0
ATTRIB
  5
1266
  8
DIM_ATT
 10
16.244049
 20
-6.079724
 30
0.0
 40
0.09
  1
0
 51
-180.0
 71
     4
  2
A8
 70
     1
  0
SEQEND
  5
1267
  8
DIM_ATT
  0
INSERT
  5
1268
  8
DIM_ATT
 66
     1
  2
ATT_BLK
 10
-15.154049
 20
-7.399974
 30
0.0
 43
-1.0
 50
180.0
210
0.0
220
0.0
230
-1.0
  0
ATTRIB
  5
1269
  8
DIM_ATT
 10
15.154049
 20
-7.534974
 30
0.0
 40
0.09
  1
VER
 51
-180.0
 71
     4
  2
TYPE
 70
     1
  0
ATTRIB
  5
126A
  8
DIM_ATT
 10
15.154049
 20
-7.399974
 30
0.0
 40
0.09
  1
0.46900
 51
-180.0
 71
     4
  2
A1
 70
     1
  0
ATTRIB
  5
126B
  8
DIM_ATT
 10
15.154049
 20
-7.264974
 30
0.0
 40
0.09
  1
5.957400,7.351800
 51
-180.0
 71
     4
  2
A2
 70
     1
  0
ATTRIB
  5
126C
  8
DIM_ATT
 10
15.154049
 20
-7.129974
 30
0.0
 40
0.09
  1
5.977400,7.820800
 51
-180.0
 71
     4
  2
A3
 70
     1
  0
ATTRIB
  5
126D
  8
DIM_ATT
 10
15.154049
 20
-6.994974
 30
0.0
 40
0.09
  1
5.567500,1.000000
 51
-180.0
 71
     4
  2
A4
 70
     1
  0
ATTRIB
  5
126E
  8
DIM_ATT
 10
15.154049
 20
-6.859974
 30
0.0
 40
0.09
  1
6.337400,1.000000
 51
-180.0
 71
     4
  2
A5
 70
     1
  0
ATTRIB
  5
126F
  8
DIM_ATT
 10
15.154049
 20
-6.724974
 30
0.0
 40
0.09
  1
DIMFIXHIDE
 51
-180.0
 71
     4
  2
A6
 70
     1
  0
ATTRIB
  5
1270
  8
DIM_ATT
 10
15.154049
 20
-6.589974
 30
0.0
 40
0.09
  1
0
 51
-180.0
 71
     4
  2
A7
 70
     1
  0
ATTRIB
  5
1271
  8
DIM_ATT
 10
15.154049
 20
-6.454974
 30
0.0
 40
0.09
  1
0
 51
-180.0
 71
     4
  2
A8
 70
     1
  0
SEQEND
  5
1272
  8
DIM_ATT
  0
INSERT
  5
1273
  8
DIM_ATT
 66
     1
  2
ATT_BLK
 10
-15.174049
 20
-6.930974
 30
0.0
 43
-1.0
 50
180.0
210
0.0
220
0.0
230
-1.0
  0
ATTRIB
  5
1274
  8
DIM_ATT
 10
15.174049
 20
-7.065974
 30
0.0
 40
0.09
  1
VER
 51
-180.0
 71
     4
  2
TYPE
 70
     1
  0
ATTRIB
  5
1275
  8
DIM_ATT
 10
15.174049
 20
-6.930974
 30
0.0
 40
0.09
  1
0.46900
 51
-180.0
 71
     4
  2
A1
 70
     1
  0
ATTRIB
  5
1276
  8
DIM_ATT
 10
15.174049
 20
-6.795974
 30
0.0
 40
0.09
  1
5.957400,7.351800
 51
-180.0
 71
     4
  2
A2
 70
     1
  0
ATTRIB
  5
1277
  8
DIM_ATT
 10
15.174049
 20
-6.660974
 30
0.0
 40
0.09
  1
5.977400,6.882800
 51
-180.0
 71
     4
  2
A3
 70
     1
  0
ATTRIB
  5
1278
  8
DIM_ATT
 10
15.174049
 20
-6.525974
 30
0.0
 40
0.09
  1
5.459000,1.000000
 51
-180.0
 71
     4
  2
A4
 70
     1
  0
ATTRIB
  5
1279
  8
DIM_ATT
 10
15.174049
 20
-6.390974
 30
0.0
 40
0.09
  1
6.337400,1.000000
 51
-180.0
 71
     4
  2
A5
 70
     1
  0
ATTRIB
  5
127A
  8
DIM_ATT
 10
15.174049
 20
-6.255974
 30
0.0
 40
0.09
  1
DIMFIXHIDE
 51
-180.0
 71
     4
  2
A6
 70
     1
  0
ATTRIB
  5
127B
  8
DIM_ATT
 10
15.174049
 20
-6.120974
 30
0.0
 40
0.09
  1
0
 51
-180.0
 71
     4
  2
A7
 70
     1
  0
ATTRIB
  5
127C
  8
DIM_ATT
 10
15.174049
 20
-5.985974
 30
0.0
 40
0.09
  1
0
 51
-180.0
 71
     4
  2
A8
 70
     1
  0
SEQEND
  5
127D
  8
DIM_ATT
  0
INSERT
  5
127E
  8
DIM_ATT
 66
     1
  2
ATT_BLK
 10
-15.534049
 20
-7.399974
 30
0.0
 43
-1.0
 50
180.0
210
0.0
220
0.0
230
-1.0
  0
ATTRIB
  5
127F
  8
DIM_ATT
 10
15.534049
 20
-7.534974
 30
0.0
 40
0.09
  1
VER
 51
-180.0
 71
     4
  2
TYPE
 70
     1
  0
ATTRIB
  5
1280
  8
DIM_ATT
 10
15.534049
 20
-7.399974
 30
0.0
 40
0.09
  1
0.36000
 51
-180.0
 71
     4
  2
A1
 70
     1
  0
ATTRIB
  5
1281
  8
DIM_ATT
 10
15.534049
 20
-7.264974
 30
0.0
 40
0.09
  1
6.337400,7.711800
 51
-180.0
 71
     4
  2
A2
 70
     1
  0
ATTRIB
  5
1282
  8
DIM_ATT
 10
15.534049
 20
-7.129974
 30
0.0
 40
0.09
  1
6.337400,7.351800
 51
-180.0
 71
     4
  2
A3
 70
     1
  0
ATTRIB
  5
1283
  8
DIM_ATT
 10
15.534049
 20
-6.994974
 30
0.0
 40
0.09
  1
3.628600,1.000000
 51
-180.0
 71
     4
  2
A4
 70
     1
  0
ATTRIB
  5
1284
  8
DIM_ATT
 10
15.534049
 20
-6.859974
 30
0.0
 40
0.09
  1
6.397400,1.000000
 51
-180.0
 71
     4
  2
A5
 70
     1
  0
ATTRIB
  5
1285
  8
DIM_ATT
 10
15.534049
 20
-6.724974
 30
0.0
 40
0.09
  1
DIMFIXHIDE
 51
-180.0
 71
     4
  2
A6
 70
     1
  0
ATTRIB
  5
1286
  8
DIM_ATT
 10
15.534049
 20
-6.589974
 30
0.0
 40
0.09
  1
0
 51
-180.0
 71
     4
  2
A7
 70
     1
  0
ATTRIB
  5
1287
  8
DIM_ATT
 10
15.534049
 20
-6.454974
 30
0.0
 40
0.09
  1
0
 51
-180.0
 71
     4
  2
A8
 70
     1
  0
SEQEND
  5
1288
  8
DIM_ATT
  0
INSERT
  5
1289
  8
DIM_ATT
 66
     1
  2
ATT_BLK
 10
-15.534049
 20
-7.039974
 30
0.0
 43
-1.0
 50
180.0
210
0.0
220
0.0
230
-1.0
  0
ATTRIB
  5
128A
  8
DIM_ATT
 10
15.534049
 20
-7.174974
 30
0.0
 40
0.09
  1
VER
 51
-180.0
 71
     4
  2
TYPE
 70
     1
  0
ATTRIB
  5
128B
  8
DIM_ATT
 10
15.534049
 20
-7.039974
 30
0.0
 40
0.09
  1
0.36000
 51
-180.0
 71
     4
  2
A1
 70
     1
  0
ATTRIB
  5
128C
  8
DIM_ATT
 10
15.534049
 20
-6.904974
 30
0.0
 40
0.09
  1
6.337400,7.351800
 51
-180.0
 71
     4
  2
A2
 70
     1
  0
ATTRIB
  5
128D
  8
DIM_ATT
 10
15.534049
 20
-6.769974
 30
0.0
 40
0.09
  1
6.337400,6.991800
 51
-180.0
 71
     4
  2
A3
 70
     1
  0
ATTRIB
  5
128E
  8
DIM_ATT
 10
15.534049
 20
-6.634974
 30
0.0
 40
0.09
  1
3.506000,1.000000
 51
-180.0
 71
     4
  2
A4
 70
     1
  0
ATTRIB
  5
128F
  8
DIM_ATT
 10
15.534049
 20
-6.499974
 30
0.0
 40
0.09
  1
6.397400,1.000000
 51
-180.0
 71
     4
  2
A5
 70
     1
  0
ATTRIB
  5
1290
  8
DIM_ATT
 10
15.534049
 20
-6.364974
 30
0.0
 40
0.09
  1
DIMFIXHIDE
 51
-180.0
 71
     4
  2
A6
 70
     1
  0
ATTRIB
  5
1291
  8
DIM_ATT
 10
15.534049
 20
-6.229974
 30
0.0
 40
0.09
  1
0
 51
-180.0
 71
     4
  2
A7
 70
     1
  0
ATTRIB
  5
1292
  8
DIM_ATT
 10
15.534049
 20
-6.094974
 30
0.0
 40
0.09
  1
0
 51
-180.0
 71
     4
  2
A8
 70
     1
  0
SEQEND
  5
1293
  8
DIM_ATT
  0
INSERT
  5
1294
  8
DIM_ATT
 66
     1
  2
ATT_BLK
 10
-16.274049
 20
-7.399974
 30
0.0
 43
-1.0
 50
180.0
210
0.0
220
0.0
230
-1.0
  0
ATTRIB
  5
1295
  8
DIM_ATT
 10
16.274049
 20
-7.534974
 30
0.0
 40
0.09
  1
VER
 51
-180.0
 71
     4
  2
TYPE
 70
     1
  0
ATTRIB
  5
1296
  8
DIM_ATT
 10
16.274049
 20
-7.399974
 30
0.0
 40
0.09
  1
0.25000
 51
-180.0
 71
     4
  2
A1
 70
     1
  0
ATTRIB
  5
1297
  8
DIM_ATT
 10
16.274049
 20
-7.264974
 30
0.0
 40
0.09
  1
7.077400,7.601800
 51
-180.0
 71
     4
  2
A2
 70
     1
  0
ATTRIB
  5
1298
  8
DIM_ATT
 10
16.274049
 20
-7.129974
 30
0.0
 40
0.09
  1
7.077400,7.351800
 51
-180.0
 71
     4
  2
A3
 70
     1
  0
ATTRIB
  5
1299
  8
DIM_ATT
 10
16.274049
 20
-6.994974
 30
0.0
 40
0.09
  1
9.359500,1.000000
 51
-180.0
 71
     4
  2
A4
 70
     1
  0
ATTRIB
  5
129A
  8
DIM_ATT
 10
16.274049
 20
-6.859974
 30
0.0
 40
0.09
  1

 51
-180.0
 71
     4
  2
A5
 70
     1
  0
ATTRIB
  5
129B
  8
DIM_ATT
 10
16.274049
 20
-6.724974
 30
0.0
 40
0.09
  1
DIMFIXHIDE
 51
-180.0
 71
     4
  2
A6
 70
     1
  0
ATTRIB
  5
129C
  8
DIM_ATT
 10
16.274049
 20
-6.589974
 30
0.0
 40
0.09
  1
0
 51
-180.0
 71
     4
  2
A7
 70
     1
  0
ATTRIB
  5
129D
  8
DIM_ATT
 10
16.274049
 20
-6.454974
 30
0.0
 40
0.09
  1
0
 51
-180.0
 71
     4
  2
A8
 70
     1
  0
SEQEND
  5
129E
  8
DIM_ATT
  0
INSERT
  5
129F
  8
DIM_ATT
 66
     1
  2
ATT_BLK
 10
-16.274049
 20
-7.149974
 30
0.0
 43
-1.0
 50
180.0
210
0.0
220
0.0
230
-1.0
  0
ATTRIB
  5
12A0
  8
DIM_ATT
 10
16.274049
 20
-7.284974
 30
0.0
 40
0.09
  1
VER
 51
-180.0
 71
     4
  2
TYPE
 70
     1
  0
ATTRIB
  5
12A1
  8
DIM_ATT
 10
16.274049
 20
-7.149974
 30
0.0
 40
0.09
  1
0.25000
 51
-180.0
 71
     4
  2
A1
 70
     1
  0
ATTRIB
  5
12A2
  8
DIM_ATT
 10
16.274049
 20
-7.014974
 30
0.0
 40
0.09
  1
7.077400,7.351800
 51
-180.0
 71
     4
  2
A2
 70
     1
  0
ATTRIB
  5
12A3
  8
DIM_ATT
 10
16.274049
 20
-6.879974
 30
0.0
 40
0.09
  1
7.077400,7.101800
 51
-180.0
 71
     4
  2
A3
 70
     1
  0
ATTRIB
  5
12A4
  8
DIM_ATT
 10
16.274049
 20
-6.744974
 30
0.0
 40
0.09
  1
9.597100,1.000000
 51
-180.0
 71
     4
  2
A4
 70
     1
  0
ATTRIB
  5
12A5
  8
DIM_ATT
 10
16.274049
 20
-6.609974
 30
0.0
 40
0.09
  1

 51
-180.0
 71
     4
  2
A5
 70
     1
  0
ATTRIB
  5
12A6
  8
DIM_ATT
 10
16.274049
 20
-6.474974
 30
0.0
 40
0.09
  1
DIMFIXHIDE
 51
-180.0
 71
     4
  2
A6
 70
     1
  0
ATTRIB
  5
12A7
  8
DIM_ATT
 10
16.274049
 20
-6.339974
 30
0.0
 40
0.09
  1
0
 51
-180.0
 71
     4
  2
A7
 70
     1
  0
ATTRIB
  5
12A8
  8
DIM_ATT
 10
16.274049
 20
-6.204974
 30
0.0
 40
0.09
  1
0
 51
-180.0
 71
     4
  2
A8
 70
     1
  0
SEQEND
  5
12A9
  8
DIM_ATT
  0
INSERT
  5
12AA
  8
DIM_ATT
 66
     1
  2
ATT_BLK
 10
-20.886449
 20
-7.399974
 30
0.0
 43
-1.0
 50
180.0
210
0.0
220
0.0
230
-1.0
  0
ATTRIB
  5
12AB
  8
DIM_ATT
 10
20.886449
 20
-7.534974
 30
0.0
 40
0.09
  1
VER
 51
-180.0
 71
     4
  2
TYPE
 70
     1
  0
ATTRIB
  5
12AC
  8
DIM_ATT
 10
20.886449
 20
-7.399974
 30
0.0
 40
0.09
  1
0.46900
 51
-180.0
 71
     4
  2
A1
 70
     1
  0
ATTRIB
  5
12AD
  8
DIM_ATT
 10
20.886449
 20
-7.264974
 30
0.0
 40
0.09
  1
10.583400,7.820800
 51
-180.0
 71
     4
  2
A2
 70
     1
  0
ATTRIB
  5
12AE
  8
DIM_ATT
 10
20.886449
 20
-7.129974
 30
0.0
 40
0.09
  1
11.689800,7.351800
 51
-180.0
 71
     4
  2
A3
 70
     1
  0
ATTRIB
  5
12AF
  8
DIM_ATT
 10
20.886449
 20
-6.994974
 30
0.0
 40
0.09
  1
11.689800,1.000000
 51
-180.0
 71
     4
  2
A4
 70
     1
  0
ATTRIB
  5
12B0
  8
DIM_ATT
 10
20.886449
 20
-6.859974
 30
0.0
 40
0.09
  1

 51
-180.0
 71
     4
  2
A5
 70
     1
  0
ATTRIB
  5
12B1
  8
DIM_ATT
 10
20.886449
 20
-6.724974
 30
0.0
 40
0.09
  1
DIMFIX
 51
-180.0
 71
     4
  2
A6
 70
     1
  0
ATTRIB
  5
12B2
  8
DIM_ATT
 10
20.886449
 20
-6.589974
 30
0.0
 40
0.09
  1
0
 51
-180.0
 71
     4
  2
A7
 70
     1
  0
ATTRIB
  5
12B3
  8
DIM_ATT
 10
20.886449
 20
-6.454974
 30
0.0
 40
0.09
  1
0
 51
-180.0
 71
     4
  2
A8
 70
     1
  0
SEQEND
  5
12B4
  8
DIM_ATT
  0
INSERT
  5
12B5
  8
DIM_ATT
 66
     1
  2
ATT_BLK
 10
-19.780049
 20
-6.930974
 30
0.0
 43
-1.0
 50
180.0
210
0.0
220
0.0
230
-1.0
  0
ATTRIB
  5
12B6
  8
DIM_ATT
 10
19.780049
 20
-7.065974
 30
0.0
 40
0.09
  1
VER
 51
-180.0
 71
     4
  2
TYPE
 70
     1
  0
ATTRIB
  5
12B7
  8
DIM_ATT
 10
19.780049
 20
-6.930974
 30
0.0
 40
0.09
  1
0.46900
 51
-180.0
 71
     4
  2
A1
 70
     1
  0
ATTRIB
  5
12B8
  8
DIM_ATT
 10
19.780049
 20
-6.795974
 30
0.0
 40
0.09
  1
10.583400,6.882800
 51
-180.0
 71
     4
  2
A2
 70
     1
  0
ATTRIB
  5
12B9
  8
DIM_ATT
 10
19.780049
 20
-6.660974
 30
0.0
 40
0.09
  1
8.741200,7.351800
 51
-180.0
 71
     4
  2
A3
 70
     1
  0
ATTRIB
  5
12BA
  8
DIM_ATT
 10
19.780049
 20
-6.525974
 30
0.0
 40
0.09
  1
8.734900,1.000000
 51
-180.0
 71
     4
  2
A4
 70
     1
  0
ATTRIB
  5
12BB
  8
DIM_ATT
 10
19.780049
 20
-6.390974
 30
0.0
 40
0.09
  1

 51
-180.0
 71
     4
  2
A5
 70
     1
  0
ATTRIB
  5
12BC
  8
DIM_ATT
 10
19.780049
 20
-6.255974
 30
0.0
 40
0.09
  1
DIMFIX
 51
-180.0
 71
     4
  2
A6
 70
     1
  0
ATTRIB
  5
12BD
  8
DIM_ATT
 10
19.780049
 20
-6.120974
 30
0.0
 40
0.09
  1
0
 51
-180.0
 71
     4
  2
A7
 70
     1
  0
ATTRIB
  5
12BE
  8
DIM_ATT
 10
19.780049
 20
-5.985974
 30
0.0
 40
0.09
  1
0
 51
-180.0
 71
     4
  2
A8
 70
     1
  0
SEQEND
  5
12BF
  8
DIM_ATT
  0
INSERT
  5
12C0
  8
DIM_ATT
 66
     1
  2
ATT_BLK
 10
-19.748749
 20
-7.858374
 30
0.0
 43
-1.0
 50
180.0
210
0.0
220
0.0
230
-1.0
  0
ATTRIB
  5
12C1
  8
DIM_ATT
 10
19.748749
 20
-7.993374
 30
0.0
 40
0.09
  1
ALI
 51
-180.0
 71
     4
  2
TYPE
 70
     1
  0
ATTRIB
  5
12C2
  8
DIM_ATT
 10
19.748749
 20
-7.858374
 30
0.0
 40
0.09
  1
.747
 51
-180.0
 71
     4
  2
A1
 70
     1
  0
ATTRIB
  5
12C3
  8
DIM_ATT
 10
19.748749
 20
-7.723374
 30
0.0
 40
0.09
  1
10.552100,7.810200
 51
-180.0
 71
     4
  2
A2
 70
     1
  0
ATTRIB
  5
12C4
  8
DIM_ATT
 10
19.748749
 20
-7.588374
 30
0.0
 40
0.09
  1
11.041800,7.320500
 51
-180.0
 71
     4
  2
A3
 70
     1
  0
ATTRIB
  5
12C5
  8
DIM_ATT
 10
19.748749
 20
-7.453374
 30
0.0
 40
0.09
  1
11.678700,8.443900
 51
-180.0
 71
     4
  2
A4
 70
     1
  0
ATTRIB
  5
12C6
  8
DIM_ATT
 10
19.748749
 20
-7.318374
 30
0.0
 40
0.09
  1
0
 51
-180.0
 71
     4
  2
A5
 70
     1
  0
ATTRIB
  5
12C7
  8
DIM_ATT
 10
19.748749
 20
-7.183374
 30
0.0
 40
0.09
  1
DIMFIX
 51
-180.0
 71
     4
  2
A6
 70
     1
  0
ATTRIB
  5
12C8
  8
DIM_ATT
 10
19.748749
 20
-7.048374
 30
0.0
 40
0.09
  1
0
 51
-180.0
 71
     4
  2
A7
 70
     1
  0
ATTRIB
  5
12C9
  8
DIM_ATT
 10
19.748749
 20
-6.913374
 30
0.0
 40
0.09
  1
0
 51
-180.0
 71
     4
  2
A8
 70
     1
  0
SEQEND
  5
12CA
  8
DIM_ATT
  0
INSERT
  5
12CB
  8
DIM_ATT
 66
     1
  2
ATT_BLK
 10
-19.811449
 20
-7.858374
 30
0.0
 43
-1.0
 50
180.0
210
0.0
220
0.0
230
-1.0
  0
ATTRIB
  5
12CC
  8
DIM_ATT
 10
19.811449
 20
-7.993374
 30
0.0
 40
0.09
  1
ALI
 51
-180.0
 71
     4
  2
TYPE
 70
     1
  0
ATTRIB
  5
12CD
  8
DIM_ATT
 10
19.811449
 20
-7.858374
 30
0.0
 40
0.09
  1
.747
 51
-180.0
 71
     4
  2
A1
 70
     1
  0
ATTRIB
  5
12CE
  8
DIM_ATT
 10
19.811449
 20
-7.723374
 30
0.0
 40
0.09
  1
10.614800,7.810200
 51
-180.0
 71
     4
  2
A2
 70
     1
  0
ATTRIB
  5
12CF
  8
DIM_ATT
 10
19.811449
 20
-7.588374
 30
0.0
 40
0.09
  1
10.125000,7.320500
 51
-180.0
 71
     4
  2
A3
 70
     1
  0
ATTRIB
  5
12D0
  8
DIM_ATT
 10
19.811449
 20
-7.453374
 30
0.0
 40
0.09
  1
9.206375,8.834366
 51
-180.0
 71
     4
  2
A4
 70
     1
  0
ATTRIB
  5
12D1
  8
DIM_ATT
 10
19.811449
 20
-7.318374
 30
0.0
 40
0.09
  1
0
 51
-180.0
 71
     4
  2
A5
 70
     1
  0
ATTRIB
  5
12D2
  8
DIM_ATT
 10
19.811449
 20
-7.183374
 30
0.0
 40
0.09
  1
DIMFIX
 51
-180.0
 71
     4
  2
A6
 70
     1
  0
ATTRIB
  5
12D3
  8
DIM_ATT
 10
19.811449
 20
-7.048374
 30
0.0
 40
0.09
  1
0
 51
-180.0
 71
     4
  2
A7
 70
     1
  0
ATTRIB
  5
12D4
  8
DIM_ATT
 10
19.811449
 20
-6.913374
 30
0.0
 40
0.09
  1
0
 51
-180.0
 71
     4
  2
A8
 70
     1
  0
SEQEND
  5
12D5
  8
DIM_ATT
  0
POLYLINE
  5
12D6
  8
H
 66
     1
 10
0.0
 20
0.0
 30
0.0
  0
VERTEX
  5
134E
  8
H
 10
1.69
 20
1.27975
 30
0.0
  0
VERTEX
  5
134F
  8
H
 10
1.69
 20
2.28025
 30
0.0
  0
SEQEND
  5
1350
  8
H
  0
INSERT
  5
12D7
  8
DIM_ATT
 66
     1
  2
ATT_BLK
 10
-19.780049
 20
-7.399974
 30
0.0
 43
-1.0
 50
180.0
210
0.0
220
0.0
230
-1.0
  0
ATTRIB
  5
12D8
  8
DIM_ATT
 10
19.780049
 20
-7.534974
 30
0.0
 40
0.09
  1
RAD
 51
-180.0
 71
     4
  2
TYPE
 70
     1
  0
ATTRIB
  5
12D9
  8
DIM_ATT
 10
19.780049
 20
-7.399974
 30
0.0
 40
0.09
  1
.25
 51
-180.0
 71
     4
  2
A1
 70
     1
  0
ATTRIB
  5
12DA
  8
DIM_ATT
 10
19.780049
 20
-7.264974
 30
0.0
 40
0.09
  1
DIMFIXHIDE 10.583400 7.351800 10.453191 7.565214
 51
-180.0
 71
     4
  2
A2
 70
     1
  0
ATTRIB
  5
12DB
  8
DIM_ATT
 10
19.780049
 20
-7.129974
 30
0.0
 40
0.09
  1
: : CIRCLE : 8 : OBJECT : 10 : 10.583400 : 20 : 7.351800 : 40 : 0.250008 : 
 51
-180.0
 71
     4
  2
A3
 70
     1
  0
ATTRIB
  5
12DC
  8
DIM_ATT
 10
19.780049
 20
-6.994974
 30
0.0
 40
0.09
  1
0
 51
-180.0
 71
     4
  2
A4
 70
     1
  0
ATTRIB
  5
12DD
  8
DIM_ATT
 10
19.780049
 20
-6.859974
 30
0.0
 40
0.09
  1
0
 51
-180.0
 71
     4
  2
A5
 70
     1
  0
ATTRIB
  5
12DE
  8
DIM_ATT
 10
19.780049
 20
-6.724974
 30
0.0
 40
0.09
  1
0
 51
-180.0
 71
     4
  2
A6
 70
     1
  0
ATTRIB
  5
12DF
  8
DIM_ATT
 10
19.780049
 20
-6.589974
 30
0.0
 40
0.09
  1
0
 51
-180.0
 71
     4
  2
A7
 70
     1
  0
ATTRIB
  5
12E0
  8
DIM_ATT
 10
19.780049
 20
-6.454974
 30
0.0
 40
0.09
  1
0
 51
-180.0
 71
     4
  2
A8
 70
     1
  0
SEQEND
  5
12E1
  8
DIM_ATT
  0
INSERT
  5
12E2
  8
DIM_ATT
 66
     1
  2
ATT_BLK
 10
-19.780049
 20
-7.399974
 30
0.0
 43
-1.0
 50
180.0
210
0.0
220
0.0
230
-1.0
  0
ATTRIB
  5
12E3
  8
DIM_ATT
 10
19.780049
 20
-7.534974
 30
0.0
 40
0.09
  1
RAD
 51
-180.0
 71
     4
  2
TYPE
 70
     1
  0
ATTRIB
  5
12E4
  8
DIM_ATT
 10
19.780049
 20
-7.399974
 30
0.0
 40
0.09
  1
0.46900
 51
-180.0
 71
     4
  2
A1
 70
     1
  0
ATTRIB
  5
12E5
  8
DIM_ATT
 10
19.780049
 20
-7.264974
 30
0.0
 40
0.09
  1
DIMFIXHIDE 10.583400 7.351800 10.821795 6.947908
 51
-180.0
 71
     4
  2
A2
 70
     1
  0
ATTRIB
  5
12E6
  8
DIM_ATT
 10
19.780049
 20
-7.129974
 30
0.0
 40
0.09
  1
: : CIRCLE : 8 : HIDOB : 10 : 10.583400 : 20 : 7.351800 : 40 : 0.468991 : 
 51
-180.0
 71
     4
  2
A3
 70
     1
  0
ATTRIB
  5
12E7
  8
DIM_ATT
 10
19.780049
 20
-6.994974
 30
0.0
 40
0.09
  1
0
 51
-180.0
 71
     4
  2
A4
 70
     1
  0
ATTRIB
  5
12E8
  8
DIM_ATT
 10
19.780049
 20
-6.859974
 30
0.0
 40
0.09
  1
0
 51
-180.0
 71
     4
  2
A5
 70
     1
  0
ATTRIB
  5
12E9
  8
DIM_ATT
 10
19.780049
 20
-6.724974
 30
0.0
 40
0.09
  1
0
 51
-180.0
 71
     4
  2
A6
 70
     1
  0
ATTRIB
  5
12EA
  8
DIM_ATT
 10
19.780049
 20
-6.589974
 30
0.0
 40
0.09
  1
0
 51
-180.0
 71
     4
  2
A7
 70
     1
  0
ATTRIB
  5
12EB
  8
DIM_ATT
 10
19.780049
 20
-6.454974
 30
0.0
 40
0.09
  1
0
 51
-180.0
 71
     4
  2
A8
 70
     1
  0
SEQEND
  5
12EC
  8
DIM_ATT
  0
INSERT
  5
12ED
  8
DIM_ATT
 66
     1
  2
ATT_BLK
 10
-19.780049
 20
-7.399974
 30
0.0
 43
-1.0
 50
180.0
210
0.0
220
0.0
230
-1.0
  0
ATTRIB
  5
12EE
  8
DIM_ATT
 10
19.780049
 20
-7.534974
 30
0.0
 40
0.09
  1
RAD
 51
-180.0
 71
     4
  2
TYPE
 70
     1
  0
ATTRIB
  5
12EF
  8
DIM_ATT
 10
19.780049
 20
-7.399974
 30
0.0
 40
0.09
  1
0.37525
 51
-180.0
 71
     4
  2
A1
 70
     1
  0
ATTRIB
  5
12F0
  8
DIM_ATT
 10
19.780049
 20
-7.264974
 30
0.0
 40
0.09
  1
DIMFIX 10.583400 7.351800 10.341510 7.064917
 51
-180.0
 71
     4
  2
A2
 70
     1
  0
ATTRIB
  5
12F1
  8
DIM_ATT
 10
19.780049
 20
-7.129974
 30
0.0
 40
0.09
  1
: : CIRCLE : 8 : OBJECT : 10 : 10.583400 : 20 : 7.351800 : 40 : 0.375250 : 
 51
-180.0
 71
     4
  2
A3
 70
     1
  0
ATTRIB
  5
12F2
  8
DIM_ATT
 10
19.780049
 20
-6.994974
 30
0.0
 40
0.09
  1
0
 51
-180.0
 71
     4
  2
A4
 70
     1
  0
ATTRIB
  5
12F3
  8
DIM_ATT
 10
19.780049
 20
-6.859974
 30
0.0
 40
0.09
  1
0
 51
-180.0
 71
     4
  2
A5
 70
     1
  0
ATTRIB
  5
12F4
  8
DIM_ATT
 10
19.780049
 20
-6.724974
 30
0.0
 40
0.09
  1
0
 51
-180.0
 71
     4
  2
A6
 70
     1
  0
ATTRIB
  5
12F5
  8
DIM_ATT
 10
19.780049
 20
-6.589974
 30
0.0
 40
0.09
  1
0
 51
-180.0
 71
     4
  2
A7
 70
     1
  0
ATTRIB
  5
12F6
  8
DIM_ATT
 10
19.780049
 20
-6.454974
 30
0.0
 40
0.09
  1
0
 51
-180.0
 71
     4
  2
A8
 70
     1
  0
SEQEND
  5
12F7
  8
DIM_ATT
  0
LINE
  5
12F8
  8
L
 10
2.27
 20
1.252503
 30
0.0
 11
2.27
 21
2.307497
 31
0.0
  0
LINE
  5
12F9
  8
L
 10
2.61
 20
2.307497
 30
0.0
 11
2.61
 21
1.252503
 31
0.0
  0
LINE
  5
12FA
  8
H
 10
1.56
 20
2.28025
 30
0.0
 11
1.56
 21
1.27975
 31
0.0
  0
LINE
  5
12FB
  8
H
 10
2.19
 20
2.28025
 30
0.0
 11
1.56
 21
2.28025
 31
0.0
  0
LINE
  5
12FC
  8
H
 10
1.56
 20
2.28025
 30
0.0
 11
1.53
 21
2.25025
 31
0.0
  0
LINE
  5
12FD
  8
H
 10
1.53
 20
2.25025
 30
0.0
 11
1.53
 21
1.30975
 31
0.0
  0
LINE
  5
12FE
  8
H
 10
1.53
 20
1.30975
 30
0.0
 11
1.56
 21
1.27975
 31
0.0
  0
LINE
  5
12FF
  8
H
 10
1.56
 20
1.27975
 30
0.0
 11
2.19
 21
1.27975
 31
0.0
  0
LINE
  5
1300
  8
H
 10
2.19
 20
1.27975
 30
0.0
 11
2.19
 21
2.28025
 31
0.0
  0
LINE
  5
1301
  8
H
 10
2.19
 20
1.78
 30
0.0
 11
2.19
 21
1.27975
 31
0.0
  0
LINE
  5
1302
  8
L
 10
2.63
 20
2.287497
 30
0.0
 11
2.61
 21
2.307497
 31
0.0
  0
LINE
  5
1303
  8
L
 10
2.61
 20
2.307497
 30
0.0
 11
2.27
 21
2.307497
 31
0.0
  0
LINE
  5
1304
  8
L
 10
2.27
 20
2.307497
 30
0.0
 11
2.25
 21
2.287497
 31
0.0
  0
LINE
  5
1305
  8
L
 10
2.25
 20
2.287497
 30
0.0
 11
2.25
 21
1.272503
 31
0.0
  0
LINE
  5
1306
  8
L
 10
2.63
 20
2.287497
 30
0.0
 11
2.63
 21
1.272503
 31
0.0
  0
LINE
  5
1307
  8
L
 10
2.27
 20
1.252503
 30
0.0
 11
2.25
 21
1.272503
 31
0.0
  0
LINE
  5
1308
  8
L
 10
2.61
 20
1.252503
 30
0.0
 11
2.27
 21
1.252503
 31
0.0
  0
LINE
  5
1309
  8
L
 10
2.63
 20
1.272503
 30
0.0
 11
2.61
 21
1.252503
 31
0.0
  0
POLYLINE
  5
130A
  8
H
 66
     1
 10
0.0
 20
0.0
 30
0.0
  0
VERTEX
  5
1351
  8
H
 10
2.19
 20
2.265
 30
0.0
  0
VERTEX
  5
1352
  8
H
 10
2.25
 20
2.265
 30
0.0
  0
SEQEND
  5
1353
  8
H
  0
POLYLINE
  5
130B
  8
H
 66
     1
 10
0.0
 20
0.0
 30
0.0
  0
VERTEX
  5
1354
  8
H
 10
2.19
 20
1.295
 30
0.0
  0
VERTEX
  5
1355
  8
H
 10
2.25
 20
1.295
 30
0.0
  0
SEQEND
  5
1356
  8
H
  0
LINE
  5
130C
  8
H
 10
1.57
 20
1.905
 30
0.0
 11
1.53
 21
1.928094
 31
0.0
  0
LINE
  5
130D
  8
H
 10
1.57
 20
1.905
 30
0.0
 11
1.57
 21
1.655
 31
0.0
  0
LINE
  5
130E
  8
H
 10
1.57
 20
1.655
 30
0.0
 11
1.53
 21
1.631906
 31
0.0
  0
LINE
  5
130F
  8
H
 10
2.59
 20
1.905
 30
0.0
 11
2.63
 21
1.928094
 31
0.0
  0
LINE
  5
1310
  8
H
 10
2.59
 20
1.905
 30
0.0
 11
2.59
 21
1.655
 31
0.0
  0
LINE
  5
1311
  8
H
 10
2.59
 20
1.655
 30
0.0
 11
2.63
 21
1.631906
 31
0.0
  0
POLYLINE
  5
1312
  8
H
 66
     1
 10
0.0
 20
0.0
 30
0.0
  0
VERTEX
  5
1357
  8
H
 10
1.57
 20
1.905
 30
0.0
  0
VERTEX
  5
1358
  8
H
 10
2.59
 20
1.905
 30
0.0
  0
SEQEND
  5
1359
  8
H
  0
POLYLINE
  5
1313
  8
H
 66
     1
 10
0.0
 20
0.0
 30
0.0
  0
VERTEX
  5
135A
  8
H
 10
1.57
 20
1.655
 30
0.0
  0
VERTEX
  5
135B
  8
H
 10
2.59
 20
1.655
 30
0.0
  0
SEQEND
  5
135C
  8
H
  0
ENDSEC
  0
EOF
