  0
SECTION
  2
HEADER
  9
$ACADVER
  1
AC1009
  9
$INSBASE
 10
0.0
 20
0.0
 30
0.0
  9
$EXTMIN
 10
-4.0
 20
-2.4375
 30
0.0
  9
$EXTMAX
 10
6.411078
 20
3.953219
 30
0.0
  9
$LIMMIN
 10
0.0
 20
0.0
  9
$LIMMAX
 10
12.0
 20
9.0
  9
$ORTHOMODE
 70
     1
  9
$REGENMODE
 70
     1
  9
$FILLMODE
 70
     1
  9
$QTEXTMODE
 70
     0
  9
$MIRRTEXT
 70
     1
  9
$DRAGMODE
 70
     2
  9
$LTSCALE
 40
0.35
  9
$OSMODE
 70
   165
  9
$ATTMODE
 70
     1
  9
$TEXTSIZE
 40
0.125
  9
$TRACEWID
 40
0.05
  9
$TEXTSTYLE
  7
STANDARD
  9
$CLAYER
  8
L
  9
$CELTYPE
  6
BYLAYER
  9
$CECOLOR
 62
   256
  9
$DIMSCALE
 40
1.0
  9
$DIMASZ
 40
0.12
  9
$DIMEXO
 40
0.0625
  9
$DIMDLI
 40
0.38
  9
$DIMRND
 40
0.0
  9
$DIMDLE
 40
0.0
  9
$DIMEXE
 40
0.05
  9
$DIMTP
 40
0.0
  9
$DIMTM
 40
0.0
  9
$DIMTXT
 40
0.125
  9
$DIMCEN
 40
0.09
  9
$DIMTSZ
 40
0.0
  9
$DIMTOL
 70
     0
  9
$DIMLIM
 70
     0
  9
$DIMTIH
 70
     1
  9
$DIMTOH
 70
     1
  9
$DIMSE1
 70
     0
  9
$DIMSE2
 70
     0
  9
$DIMTAD
 70
     0
  9
$DIMZIN
 70
     0
  9
$DIMBLK
  1

  9
$DIMASO
 70
     1
  9
$DIMSHO
 70
     1
  9
$DIMPOST
  1

  9
$DIMAPOST
  1

  9
$DIMALT
 70
     0
  9
$DIMALTD
 70
     2
  9
$DIMALTF
 40
25.4
  9
$DIMLFAC
 40
1.0
  9
$DIMTOFL
 70
     0
  9
$DIMTVP
 40
0.0
  9
$DIMTIX
 70
     0
  9
$DIMSOXD
 70
     0
  9
$DIMSAH
 70
     0
  9
$DIMBLK1
  1

  9
$DIMBLK2
  1

  9
$DIMSTYLE
  2
5P
  9
$DIMCLRD
 70
     0
  9
$DIMCLRE
 70
     0
  9
$DIMCLRT
 70
     0
  9
$DIMTFAC
 40
1.0
  9
$DIMGAP
 40
0.09
  9
$LUNITS
 70
     2
  9
$LUPREC
 70
     3
  9
$SKETCHINC
 40
0.1
  9
$FILLETRAD
 40
0.03
  9
$AUNITS
 70
     1
  9
$AUPREC
 70
     0
  9
$MENU
  1
acad
  9
$ELEVATION
 40
0.0
  9
$PELEVATION
 40
0.0
  9
$THICKNESS
 40
0.0
  9
$LIMCHECK
 70
     0
  9
$BLIPMODE
 70
     0
  9
$CHAMFERA
 40
0.0
  9
$CHAMFERB
 40
0.0
  9
$SKPOLY
 70
     0
  9
$TDCREATE
 40
2449857.546201
  9
$TDUPDATE
 40
2450910.455605
  9
$TDINDWG
 40
0.031967
  9
$TDUSRTIMER
 40
0.031967
  9
$USRTIMER
 70
     1
  9
$ANGBASE
 50
0.0
  9
$ANGDIR
 70
     0
  9
$PDMODE
 70
     0
  9
$PDSIZE
 40
0.0
  9
$PLINEWID
 40
0.0
  9
$COORDS
 70
     1
  9
$SPLFRAME
 70
     0
  9
$SPLINETYPE
 70
     6
  9
$SPLINESEGS
 70
     8
  9
$ATTDIA
 70
     1
  9
$ATTREQ
 70
     1
  9
$HANDLING
 70
     1
  9
$HANDSEED
  5
FA6
  9
$SURFTAB1
 70
     6
  9
$SURFTAB2
 70
     6
  9
$SURFTYPE
 70
     6
  9
$SURFU
 70
     6
  9
$SURFV
 70
     6
  9
$UCSNAME
  2

  9
$UCSORG
 10
0.0
 20
0.0
 30
0.0
  9
$UCSXDIR
 10
1.0
 20
0.0
 30
0.0
  9
$UCSYDIR
 10
0.0
 20
1.0
 30
0.0
  9
$PUCSNAME
  2

  9
$PUCSORG
 10
0.0
 20
0.0
 30
0.0
  9
$PUCSXDIR
 10
1.0
 20
0.0
 30
0.0
  9
$PUCSYDIR
 10
0.0
 20
1.0
 30
0.0
  9
$USERI1
 70
     0
  9
$USERI2
 70
     0
  9
$USERI3
 70
     0
  9
$USERI4
 70
     0
  9
$USERI5
 70
     0
  9
$USERR1
 40
0.0
  9
$USERR2
 40
0.0
  9
$USERR3
 40
0.0
  9
$USERR4
 40
0.0
  9
$USERR5
 40
0.0
  9
$WORLDVIEW
 70
     1
  9
$SHADEDGE
 70
     3
  9
$SHADEDIF
 70
    70
  9
$TILEMODE
 70
     1
  9
$MAXACTVP
 70
    16
  9
$PLIMCHECK
 70
     0
  9
$PEXTMIN
 10
1.000000E+020
 20
1.000000E+020
 30
1.000000E+020
  9
$PEXTMAX
 10
-1.000000E+020
 20
-1.000000E+020
 30
-1.000000E+020
  9
$PLIMMIN
 10
0.0
 20
0.0
  9
$PLIMMAX
 10
12.0
 20
9.0
  9
$UNITMODE
 70
     0
  9
$VISRETAIN
 70
     1
  9
$PLINEGEN
 70
     0
  9
$PSLTSCALE
 70
     1
  0
ENDSEC
  0
SECTION
  2
TABLES
  0
TABLE
  2
VPORT
 70
     2
  0
VPORT
  2
*ACTIVE
 70
     0
 10
0.0
 20
0.0
 11
1.0
 21
1.0
 12
1.205299
 22
0.948038
 13
0.0
 23
0.0
 14
2.0
 24
2.0
 15
0.0
 25
0.0
 16
0.0
 26
0.0
 36
1.0
 17
0.0
 27
0.0
 37
0.0
 40
6.841941
 41
1.605903
 42
50.0
 43
0.0
 44
0.0
 50
0.0
 51
0.0
 71
     0
 72
 20000
 73
     1
 74
     0
 75
     0
 76
     0
 77
     0
 78
     0
  0
ENDTAB
  0
TABLE
  2
LTYPE
 70
     6
  0
LTYPE
  2
CONTINUOUS
 70
     0
  3
Solid line
 72
    65
 73
     0
 40
0.0
  0
LTYPE
  2
HIDDEN
 70
     0
  3
__ __ __ __ __ __ __ __ __ __ __ __ __ __ __ __
 72
    65
 73
     2
 40
0.375
 49
0.25
 49
-0.125
  0
LTYPE
  2
C50_BASE$0$HIDDEN
 70
     0
  3
__ __ __ __ __ __ __ __ __ __ __ __ __ __ __ __
 72
    65
 73
     2
 40
0.375
 49
0.25
 49
-0.125
  0
LTYPE
  2
DASHED
 70
     0
  3
__ __ __ __ __ __ __ __ __ __ __ __ __ __ __
 72
    65
 73
     2
 40
0.75
 49
0.5
 49
-0.25
  0
LTYPE
  2
CENTER
 70
     0
  3
Center ____ _ ____ _ ____ _ ____ _ ____ _ ____
 72
    65
 73
     4
 40
2.0
 49
1.25
 49
-0.25
 49
0.25
 49
-0.25
  0
LTYPE
  2
PHANTOM
 70
     0
  3
Phantom ______  __  __  ______  __  __  ______
 72
    65
 73
     6
 40
2.5
 49
1.25
 49
-0.25
 49
0.25
 49
-0.25
 49
0.25
 49
-0.25
  0
ENDTAB
  0
TABLE
  2
LAYER
 70
    21
  0
LAYER
  2
0
 70
     0
 62
     7
  6
CONTINUOUS
  0
LAYER
  2
D
 70
     0
 62
     7
  6
CONTINUOUS
  0
LAYER
  2
H
 70
     0
 62
     4
  6
HIDDEN
  0
LAYER
  2
L
 70
     0
 62
     5
  6
CONTINUOUS
  0
LAYER
  2
DEFPOINTS
 70
     0
 62
    -7
  6
CONTINUOUS
  0
LAYER
  2
C50_1$0$D
 70
     0
 62
     7
  6
CONTINUOUS
  0
LAYER
  2
C50_1$0$L
 70
     0
 62
     5
  6
CONTINUOUS
  0
LAYER
  2
C50_BASE$0$D
 70
     0
 62
     7
  6
CONTINUOUS
  0
LAYER
  2
C50_BASE$0$H
 70
     0
 62
     4
  6
C50_BASE$0$HIDDEN
  0
LAYER
  2
C50_BASE$0$L
 70
     0
 62
     5
  6
CONTINUOUS
  0
LAYER
  2
DIM_ATT
 70
     0
 62
     7
  6
CONTINUOUS
  0
LAYER
  2
OBJECT
 70
     0
 62
     1
  6
CONTINUOUS
  0
LAYER
  2
HIDOB
 70
     0
 62
     7
  6
HIDDEN
  0
LAYER
  2
HIDDEN
 70
     0
 62
     4
  6
DASHED
  0
LAYER
  2
F
 70
     0
 62
    13
  6
CONTINUOUS
  0
LAYER
  2
C
 70
     0
 62
     1
  6
CENTER
  0
LAYER
  2
P
 70
     0
 62
     2
  6
PHANTOM
  0
LAYER
  2
S
 70
     0
 62
     6
  6
CONTINUOUS
  0
LAYER
  2
AM_TR
 70
     0
 62
     7
  6
CONTINUOUS
  0
LAYER
  2
AM_BM
 70
     0
 62
     7
  6
CONTINUOUS
  0
LAYER
  2
AM_BL
 70
     0
 62
     7
  6
CONTINUOUS
  0
ENDTAB
  0
TABLE
  2
STYLE
 70
     2
  0
STYLE
  2
STANDARD
 70
     0
 40
0.0
 41
1.0
 50
0.0
 71
     0
 42
0.125
  3
txt
  4

  0
STYLE
  2
C50_BASE$0$STANDARD
 70
     0
 40
0.0
 41
1.0
 50
0.0
 71
     0
 42
0.075
  3
txt
  4

  0
ENDTAB
  0
TABLE
  2
VIEW
 70
     0
  0
ENDTAB
  0
TABLE
  2
UCS
 70
     0
  0
ENDTAB
  0
TABLE
  2
APPID
 70
     3
  0
APPID
  2
ACAD
 70
     0
  0
APPID
  2
MCAD_NO_VIS
 70
     0
  0
APPID
  2
ACAD_TEMP_GRAPHIC
 70
     0
  0
ENDTAB
  0
TABLE
  2
DIMSTYLE
 70
     7
  0
DIMSTYLE
  2
PARLEC
 70
     0
  3

  4

  5

  6

  7

 40
1.0
 41
0.12
 42
0.0625
 43
0.38
 44
0.05
 45
0.0
 46
0.0
 47
0.0
 48
0.0
140
0.125
141
0.09
142
0.0
143
25.4
144
1.0
145
0.0
146
1.0
147
0.09
 71
     0
 72
     0
 73
     1
 74
     1
 75
     0
 76
     0
 77
     0
 78
     0
170
     0
171
     2
172
     0
173
     0
174
     0
175
     0
176
     0
177
     0
178
     0
  0
DIMSTYLE
  2
0P
 70
     0
  3

  4

  5

  6

  7

 40
1.0
 41
0.12
 42
0.0625
 43
0.38
 44
0.05
 45
0.0
 46
0.0
 47
0.0
 48
0.0
140
0.125
141
0.09
142
0.0
143
25.4
144
1.0
145
0.0
146
1.0
147
0.09
 71
     0
 72
     0
 73
     1
 74
     1
 75
     0
 76
     0
 77
     0
 78
     0
170
     0
171
     2
172
     0
173
     0
174
     0
175
     0
176
     0
177
     0
178
     0
  0
DIMSTYLE
  2
1P
 70
     0
  3

  4

  5

  6

  7

 40
1.0
 41
0.12
 42
0.0625
 43
0.38
 44
0.05
 45
0.0
 46
0.0
 47
0.0
 48
0.0
140
0.125
141
0.09
142
0.0
143
25.4
144
1.0
145
0.0
146
1.0
147
0.09
 71
     0
 72
     0
 73
     1
 74
     1
 75
     0
 76
     0
 77
     0
 78
     0
170
     0
171
     2
172
     0
173
     0
174
     0
175
     0
176
     0
177
     0
178
     0
  0
DIMSTYLE
  2
2P
 70
     0
  3

  4

  5

  6

  7

 40
1.0
 41
0.12
 42
0.0625
 43
0.38
 44
0.05
 45
0.0
 46
0.0
 47
0.0
 48
0.0
140
0.125
141
0.09
142
0.0
143
25.4
144
1.0
145
0.0
146
1.0
147
0.09
 71
     0
 72
     0
 73
     1
 74
     1
 75
     0
 76
     0
 77
     0
 78
     0
170
     0
171
     2
172
     0
173
     0
174
     0
175
     0
176
     0
177
     0
178
     0
  0
DIMSTYLE
  2
3P
 70
     0
  3

  4

  5

  6

  7

 40
1.0
 41
0.12
 42
0.0625
 43
0.38
 44
0.05
 45
0.0
 46
0.0
 47
0.0
 48
0.0
140
0.125
141
0.09
142
0.0
143
25.4
144
1.0
145
0.0
146
1.0
147
0.09
 71
     0
 72
     0
 73
     1
 74
     1
 75
     0
 76
     0
 77
     0
 78
     0
170
     0
171
     2
172
     0
173
     0
174
     0
175
     0
176
     0
177
     0
178
     0
  0
DIMSTYLE
  2
4P
 70
     0
  3

  4

  5

  6

  7

 40
1.0
 41
0.12
 42
0.0625
 43
0.38
 44
0.05
 45
0.0
 46
0.0
 47
0.0
 48
0.0
140
0.125
141
0.09
142
0.0
143
25.4
144
1.0
145
0.0
146
1.0
147
0.09
 71
     0
 72
     0
 73
     1
 74
     1
 75
     0
 76
     0
 77
     0
 78
     0
170
     0
171
     2
172
     0
173
     0
174
     0
175
     0
176
     0
177
     0
178
     0
  0
DIMSTYLE
  2
5P
 70
     0
  3

  4

  5

  6

  7

 40
1.0
 41
0.12
 42
0.0625
 43
0.38
 44
0.05
 45
0.0
 46
0.0
 47
0.0
 48
0.0
140
0.125
141
0.09
142
0.0
143
25.4
144
1.0
145
0.0
146
1.0
147
0.09
 71
     0
 72
     0
 73
     1
 74
     1
 75
     0
 76
     0
 77
     0
 78
     0
170
     0
171
     2
172
     0
173
     0
174
     0
175
     0
176
     0
177
     0
178
     0
  0
ENDTAB
  0
ENDSEC
  0
SECTION
  2
BLOCKS
  0
BLOCK
  8
0
  2
$MODEL_SPACE
 70
     0
 10
0.0
 20
0.0
 30
0.0
  3
$MODEL_SPACE
  1

  0
ENDBLK
  5
DE5
  8
0
  0
BLOCK
 67
     1
  8
0
  2
$PAPER_SPACE
 70
     0
 10
0.0
 20
0.0
 30
0.0
  3
$PAPER_SPACE
  1

  0
ENDBLK
  5
DE3
 67
     1
  8
0
  0
BLOCK
  8
0
  6
CONTINUOUS
 62
     7
  2
C50_1
 70
     0
 10
0.0
 20
0.0
 30
0.0
  3
C50_1
  1
C50_1
  0
LINE
  5
99D
  8
C50_1$0$L
 10
0.72
 20
-1.9375
 30
0.0
 11
0.75
 21
-1.9075
 31
0.0
  0
LINE
  5
99E
  8
C50_1$0$L
 10
0.78
 20
1.375
 30
0.0
 11
1.287974
 21
1.375
 31
0.0
  0
ARC
  5
99F
  8
C50_1$0$L
 10
0.78
 20
1.405
 30
0.0
 40
0.03
 50
180.0
 51
270.0
  0
LINE
  5
9A0
  8
C50_1$0$L
 10
0.75
 20
0.0
 30
0.0
 11
0.75
 21
1.907502
 31
0.0
  0
LINE
  5
9A1
  8
C50_1$0$L
 10
0.72
 20
0.51
 30
0.0
 11
0.72
 21
1.937502
 31
0.0
  0
LINE
  5
9A2
  8
C50_1$0$L
 10
0.72
 20
1.937502
 30
0.0
 11
0.75
 21
1.907502
 31
0.0
  0
LINE
  5
9A3
  8
C50_1$0$L
 10
0.75
 20
0.0
 30
0.0
 11
0.75
 21
-1.907502
 31
0.0
  0
LINE
  5
9A4
  8
C50_1$0$L
 10
0.72
 20
-0.51
 30
0.0
 11
0.72
 21
-1.937502
 31
0.0
  0
POINT
  5
9A5
  8
DEFPOINTS
  6
BYBLOCK
 62
     0
 10
0.75
 20
-1.907502
 30
0.0
  0
LINE
  5
9A6
  8
C50_1$0$L
 10
0.72
 20
-1.937502
 30
0.0
 11
0.75
 21
-1.907502
 31
0.0
  0
LINE
  5
9A7
  8
C50_1$0$L
 10
0.78
 20
-1.375
 30
0.0
 11
1.287974
 21
-1.375
 31
0.0
  0
ARC
  5
9A8
  8
C50_1$0$L
 10
0.78
 20
-1.405
 30
0.0
 40
0.03
 50
90.0
 51
180.0
  0
INSERT
  5
9A9
  8
C50_1$0$D
  2
C50_BASE
 10
0.0
 20
0.0
 30
0.0
  0
LINE
  5
9AA
  8
C50_1$0$L
 10
0.695204
 20
0.51
 30
0.0
 11
0.75
 21
0.51
 31
0.0
  0
LINE
  5
9AB
  8
C50_1$0$L
 10
0.695204
 20
-0.51
 30
0.0
 11
0.75
 21
-0.51
 31
0.0
  0
ENDBLK
  5
42B
  8
0
  6
CONTINUOUS
 62
     7
  0
BLOCK
  8
0
  2
20KY
 70
     0
 10
0.0
 20
0.0
 30
0.0
  3
20KY
  1

  0
INSERT
  5
17A
  8
DIM_ATT
 66
     1
  2
ATT_BLK
 10
5.9574
 20
7.8008
 30
0.0
  0
ATTRIB
  5
17B
  8
DIM_ATT
 10
5.9574
 20
7.9358
 30
0.0
 40
0.09
  1
HOR
  2
TYPE
 70
     1
  0
ATTRIB
  5
17C
  8
DIM_ATT
 10
5.9574
 20
7.8008
 30
0.0
 40
0.09
  1
.38
  2
A1
 70
     1
  0
ATTRIB
  5
17D
  8
DIM_ATT
 10
5.9574
 20
7.6658
 30
0.0
 40
0.09
  1
5.957400,7.800800
  2
A2
 70
     1
  0
ATTRIB
  5
17E
  8
DIM_ATT
 10
5.9574
 20
7.5308
 30
0.0
 40
0.09
  1
6.337400,7.707050
  2
A3
 70
     1
  0
ATTRIB
  5
17F
  8
DIM_ATT
 10
5.9574
 20
7.3958
 30
0.0
 40
0.09
  1
1.000000,9.098900
  2
A4
 70
     1
  0
ATTRIB
  5
180
  8
DIM_ATT
 10
5.9574
 20
7.2608
 30
0.0
 40
0.09
  1

  2
A5
 70
     1
  0
ATTRIB
  5
181
  8
DIM_ATT
 10
5.9574
 20
7.1258
 30
0.0
 40
0.09
  1
DIMFIX
  2
A6
 70
     1
  0
ATTRIB
  5
182
  8
DIM_ATT
 10
5.9574
 20
6.9908
 30
0.0
 40
0.09
  1
0
  2
A7
 70
     1
  0
ATTRIB
  5
183
  8
DIM_ATT
 10
5.9574
 20
6.8558
 30
0.0
 40
0.09
  1
0
  2
A8
 70
     1
  0
SEQEND
  5
184
  8
DIM_ATT
  0
INSERT
  5
185
  8
DIM_ATT
 66
     1
  2
ATT_BLK
 10
6.9174
 20
6.97655
 30
0.0
  0
ATTRIB
  5
186
  8
DIM_ATT
 10
6.9174
 20
7.11155
 30
0.0
 40
0.09
  1
HOR
  2
TYPE
 70
     1
  0
ATTRIB
  5
187
  8
DIM_ATT
 10
6.9174
 20
6.97655
 30
0.0
 40
0.09
  1
.16
  2
A1
 70
     1
  0
ATTRIB
  5
188
  8
DIM_ATT
 10
6.9174
 20
6.84155
 30
0.0
 40
0.09
  1
7.077400,7.006550
  2
A2
 70
     1
  0
ATTRIB
  5
189
  8
DIM_ATT
 10
6.9174
 20
6.70655
 30
0.0
 40
0.09
  1
6.917400,6.976550
  2
A3
 70
     1
  0
ATTRIB
  5
18A
  8
DIM_ATT
 10
6.9174
 20
6.57155
 30
0.0
 40
0.09
  1
1.000000,6.010300
  2
A4
 70
     1
  0
ATTRIB
  5
18B
  8
DIM_ATT
 10
6.9174
 20
6.43655
 30
0.0
 40
0.09
  1

  2
A5
 70
     1
  0
ATTRIB
  5
18C
  8
DIM_ATT
 10
6.9174
 20
6.30155
 30
0.0
 40
0.09
  1
DIMFIX
  2
A6
 70
     1
  0
ATTRIB
  5
18D
  8
DIM_ATT
 10
6.9174
 20
6.16655
 30
0.0
 40
0.09
  1
0
  2
A7
 70
     1
  0
ATTRIB
  5
18E
  8
DIM_ATT
 10
6.9174
 20
6.03155
 30
0.0
 40
0.09
  1
0
  2
A8
 70
     1
  0
SEQEND
  5
18F
  8
DIM_ATT
  0
INSERT
  5
190
  8
DIM_ATT
 66
     1
  2
ATT_BLK
 10
5.9574
 20
6.9028
 30
0.0
  0
ATTRIB
  5
191
  8
DIM_ATT
 10
5.9574
 20
7.0378
 30
0.0
 40
0.09
  1
HOR
  2
TYPE
 70
     1
  0
ATTRIB
  5
192
  8
DIM_ATT
 10
5.9574
 20
6.9028
 30
0.0
 40
0.09
  1
1.12
  2
A1
 70
     1
  0
ATTRIB
  5
193
  8
DIM_ATT
 10
5.9574
 20
6.7678
 30
0.0
 40
0.09
  1
5.957400,6.902800
  2
A2
 70
     1
  0
ATTRIB
  5
194
  8
DIM_ATT
 10
5.9574
 20
6.6328
 30
0.0
 40
0.09
  1
7.077400,7.006550
  2
A3
 70
     1
  0
ATTRIB
  5
195
  8
DIM_ATT
 10
5.9574
 20
6.4978
 30
0.0
 40
0.09
  1
1.000000,4.759100
  2
A4
 70
     1
  0
ATTRIB
  5
196
  8
DIM_ATT
 10
5.9574
 20
6.3628
 30
0.0
 40
0.09
  1

  2
A5
 70
     1
  0
ATTRIB
  5
197
  8
DIM_ATT
 10
5.9574
 20
6.2278
 30
0.0
 40
0.09
  1
DIMFIX
  2
A6
 70
     1
  0
ATTRIB
  5
198
  8
DIM_ATT
 10
5.9574
 20
6.0928
 30
0.0
 40
0.09
  1
0
  2
A7
 70
     1
  0
ATTRIB
  5
199
  8
DIM_ATT
 10
5.9574
 20
5.9578
 30
0.0
 40
0.09
  1
0
  2
A8
 70
     1
  0
SEQEND
  5
19A
  8
DIM_ATT
  0
INSERT
  5
19B
  8
DIM_ATT
 66
     1
  2
ATT_BLK
 10
10.1144
 20
7.3518
 30
0.0
  0
ATTRIB
  5
19C
  8
DIM_ATT
 10
10.1144
 20
7.4868
 30
0.0
 40
0.09
  1
HOR
  2
TYPE
 70
     1
  0
ATTRIB
  5
19D
  8
DIM_ATT
 10
10.1144
 20
7.3518
 30
0.0
 40
0.09
  1
0.46900
  2
A1
 70
     1
  0
ATTRIB
  5
19E
  8
DIM_ATT
 10
10.1144
 20
7.2168
 30
0.0
 40
0.09
  1
10.114400,7.351800
  2
A2
 70
     1
  0
ATTRIB
  5
19F
  8
DIM_ATT
 10
10.1144
 20
7.0818
 30
0.0
 40
0.09
  1
10.583400,6.004900
  2
A3
 70
     1
  0
ATTRIB
  5
1A0
  8
DIM_ATT
 10
10.1144
 20
6.9468
 30
0.0
 40
0.09
  1
1.000000,5.938400
  2
A4
 70
     1
  0
ATTRIB
  5
1A1
  8
DIM_ATT
 10
10.1144
 20
6.8118
 30
0.0
 40
0.09
  1

  2
A5
 70
     1
  0
ATTRIB
  5
1A2
  8
DIM_ATT
 10
10.1144
 20
6.6768
 30
0.0
 40
0.09
  1
DIMFIX
  2
A6
 70
     1
  0
ATTRIB
  5
1A3
  8
DIM_ATT
 10
10.1144
 20
6.5418
 30
0.0
 40
0.09
  1
0
  2
A7
 70
     1
  0
ATTRIB
  5
1A4
  8
DIM_ATT
 10
10.1144
 20
6.4068
 30
0.0
 40
0.09
  1
0
  2
A8
 70
     1
  0
SEQEND
  5
1A5
  8
DIM_ATT
  0
INSERT
  5
1A6
  8
DIM_ATT
 66
     1
  2
ATT_BLK
 10
10.5834
 20
6.1445
 30
0.0
  0
ATTRIB
  5
1A7
  8
DIM_ATT
 10
10.5834
 20
6.2795
 30
0.0
 40
0.09
  1
HOR
  2
TYPE
 70
     1
  0
ATTRIB
  5
1A8
  8
DIM_ATT
 10
10.5834
 20
6.1445
 30
0.0
 40
0.09
  1
0.46900
  2
A1
 70
     1
  0
ATTRIB
  5
1A9
  8
DIM_ATT
 10
10.5834
 20
6.0095
 30
0.0
 40
0.09
  1
11.052400,7.351800
  2
A2
 70
     1
  0
ATTRIB
  5
1AA
  8
DIM_ATT
 10
10.5834
 20
5.8745
 30
0.0
 40
0.09
  1
10.583400,6.144500
  2
A3
 70
     1
  0
ATTRIB
  5
1AB
  8
DIM_ATT
 10
10.5834
 20
5.7395
 30
0.0
 40
0.09
  1
1.000000,6.144500
  2
A4
 70
     1
  0
ATTRIB
  5
1AC
  8
DIM_ATT
 10
10.5834
 20
5.6045
 30
0.0
 40
0.09
  1

  2
A5
 70
     1
  0
ATTRIB
  5
1AD
  8
DIM_ATT
 10
10.5834
 20
5.4695
 30
0.0
 40
0.09
  1
DIMFIX
  2
A6
 70
     1
  0
ATTRIB
  5
1AE
  8
DIM_ATT
 10
10.5834
 20
5.3345
 30
0.0
 40
0.09
  1
0
  2
A7
 70
     1
  0
ATTRIB
  5
1AF
  8
DIM_ATT
 10
10.5834
 20
5.1995
 30
0.0
 40
0.09
  1
0
  2
A8
 70
     1
  0
SEQEND
  5
1B0
  8
DIM_ATT
  0
INSERT
  5
1B1
  8
DIM_ATT
 66
     1
  2
ATT_BLK
 10
7.0774
 20
7.3518
 30
0.0
  0
ATTRIB
  5
1B2
  8
DIM_ATT
 10
7.0774
 20
7.4868
 30
0.0
 40
0.09
  1
VER
  2
TYPE
 70
     1
  0
ATTRIB
  5
1B3
  8
DIM_ATT
 10
7.0774
 20
7.3518
 30
0.0
 40
0.09
  1
0.37525
  2
A1
 70
     1
  0
ATTRIB
  5
1B4
  8
DIM_ATT
 10
7.0774
 20
7.2168
 30
0.0
 40
0.09
  1
7.077400,7.351800
  2
A2
 70
     1
  0
ATTRIB
  5
1B5
  8
DIM_ATT
 10
7.0774
 20
7.0818
 30
0.0
 40
0.09
  1
7.047400,7.727050
  2
A3
 70
     1
  0
ATTRIB
  5
1B6
  8
DIM_ATT
 10
7.0774
 20
6.9468
 30
0.0
 40
0.09
  1
7.371800,1.000000
  2
A4
 70
     1
  0
ATTRIB
  5
1B7
  8
DIM_ATT
 10
7.0774
 20
6.8118
 30
0.0
 40
0.09
  1
6.337400,1.000000
  2
A5
 70
     1
  0
ATTRIB
  5
1B8
  8
DIM_ATT
 10
7.0774
 20
6.6768
 30
0.0
 40
0.09
  1
DIMFIXHIDE
  2
A6
 70
     1
  0
ATTRIB
  5
1B9
  8
DIM_ATT
 10
7.0774
 20
6.5418
 30
0.0
 40
0.09
  1
0
  2
A7
 70
     1
  0
ATTRIB
  5
1BA
  8
DIM_ATT
 10
7.0774
 20
6.4068
 30
0.0
 40
0.09
  1
0
  2
A8
 70
     1
  0
SEQEND
  5
1BB
  8
DIM_ATT
  0
INSERT
  5
1BC
  8
DIM_ATT
 66
     1
  2
ATT_BLK
 10
7.0474
 20
6.97655
 30
0.0
  0
ATTRIB
  5
1BD
  8
DIM_ATT
 10
7.0474
 20
7.11155
 30
0.0
 40
0.09
  1
VER
  2
TYPE
 70
     1
  0
ATTRIB
  5
1BE
  8
DIM_ATT
 10
7.0474
 20
6.97655
 30
0.0
 40
0.09
  1
0.37525
  2
A1
 70
     1
  0
ATTRIB
  5
1BF
  8
DIM_ATT
 10
7.0474
 20
6.84155
 30
0.0
 40
0.09
  1
7.077400,7.351800
  2
A2
 70
     1
  0
ATTRIB
  5
1C0
  8
DIM_ATT
 10
7.0474
 20
6.70655
 30
0.0
 40
0.09
  1
7.047400,6.976550
  2
A3
 70
     1
  0
ATTRIB
  5
1C1
  8
DIM_ATT
 10
7.0474
 20
6.57155
 30
0.0
 40
0.09
  1
7.456900,1.000000
  2
A4
 70
     1
  0
ATTRIB
  5
1C2
  8
DIM_ATT
 10
7.0474
 20
6.43655
 30
0.0
 40
0.09
  1
6.367700,1.000000
  2
A5
 70
     1
  0
ATTRIB
  5
1C3
  8
DIM_ATT
 10
7.0474
 20
6.30155
 30
0.0
 40
0.09
  1
DIMFIXHIDE
  2
A6
 70
     1
  0
ATTRIB
  5
1C4
  8
DIM_ATT
 10
7.0474
 20
6.16655
 30
0.0
 40
0.09
  1
0
  2
A7
 70
     1
  0
ATTRIB
  5
1C5
  8
DIM_ATT
 10
7.0474
 20
6.03155
 30
0.0
 40
0.09
  1
0
  2
A8
 70
     1
  0
SEQEND
  5
1C6
  8
DIM_ATT
  0
INSERT
  5
1C7
  8
DIM_ATT
 66
     1
  2
ATT_BLK
 10
5.9574
 20
7.3518
 30
0.0
  0
ATTRIB
  5
1C8
  8
DIM_ATT
 10
5.9574
 20
7.4868
 30
0.0
 40
0.09
  1
VER
  2
TYPE
 70
     1
  0
ATTRIB
  5
1C9
  8
DIM_ATT
 10
5.9574
 20
7.3518
 30
0.0
 40
0.09
  1
0.46900
  2
A1
 70
     1
  0
ATTRIB
  5
1CA
  8
DIM_ATT
 10
5.9574
 20
7.2168
 30
0.0
 40
0.09
  1
5.957400,7.351800
  2
A2
 70
     1
  0
ATTRIB
  5
1CB
  8
DIM_ATT
 10
5.9574
 20
7.0818
 30
0.0
 40
0.09
  1
5.977400,7.820800
  2
A3
 70
     1
  0
ATTRIB
  5
1CC
  8
DIM_ATT
 10
5.9574
 20
6.9468
 30
0.0
 40
0.09
  1
5.567500,1.000000
  2
A4
 70
     1
  0
ATTRIB
  5
1CD
  8
DIM_ATT
 10
5.9574
 20
6.8118
 30
0.0
 40
0.09
  1
6.337400,1.000000
  2
A5
 70
     1
  0
ATTRIB
  5
1CE
  8
DIM_ATT
 10
5.9574
 20
6.6768
 30
0.0
 40
0.09
  1
DIMFIXHIDE
  2
A6
 70
     1
  0
ATTRIB
  5
1CF
  8
DIM_ATT
 10
5.9574
 20
6.5418
 30
0.0
 40
0.09
  1
0
  2
A7
 70
     1
  0
ATTRIB
  5
1D0
  8
DIM_ATT
 10
5.9574
 20
6.4068
 30
0.0
 40
0.09
  1
0
  2
A8
 70
     1
  0
SEQEND
  5
1D1
  8
DIM_ATT
  0
INSERT
  5
1D2
  8
DIM_ATT
 66
     1
  2
ATT_BLK
 10
5.9774
 20
6.8828
 30
0.0
  0
ATTRIB
  5
1D3
  8
DIM_ATT
 10
5.9774
 20
7.0178
 30
0.0
 40
0.09
  1
VER
  2
TYPE
 70
     1
  0
ATTRIB
  5
1D4
  8
DIM_ATT
 10
5.9774
 20
6.8828
 30
0.0
 40
0.09
  1
0.46900
  2
A1
 70
     1
  0
ATTRIB
  5
1D5
  8
DIM_ATT
 10
5.9774
 20
6.7478
 30
0.0
 40
0.09
  1
5.957400,7.351800
  2
A2
 70
     1
  0
ATTRIB
  5
1D6
  8
DIM_ATT
 10
5.9774
 20
6.6128
 30
0.0
 40
0.09
  1
5.977400,6.882800
  2
A3
 70
     1
  0
ATTRIB
  5
1D7
  8
DIM_ATT
 10
5.9774
 20
6.4778
 30
0.0
 40
0.09
  1
5.459000,1.000000
  2
A4
 70
     1
  0
ATTRIB
  5
1D8
  8
DIM_ATT
 10
5.9774
 20
6.3428
 30
0.0
 40
0.09
  1
6.337400,1.000000
  2
A5
 70
     1
  0
ATTRIB
  5
1D9
  8
DIM_ATT
 10
5.9774
 20
6.2078
 30
0.0
 40
0.09
  1
DIMFIXHIDE
  2
A6
 70
     1
  0
ATTRIB
  5
1DA
  8
DIM_ATT
 10
5.9774
 20
6.0728
 30
0.0
 40
0.09
  1
0
  2
A7
 70
     1
  0
ATTRIB
  5
1DB
  8
DIM_ATT
 10
5.9774
 20
5.9378
 30
0.0
 40
0.09
  1
0
  2
A8
 70
     1
  0
SEQEND
  5
1DC
  8
DIM_ATT
  0
INSERT
  5
1DD
  8
DIM_ATT
 66
     1
  2
ATT_BLK
 10
6.3374
 20
7.3518
 30
0.0
  0
ATTRIB
  5
1DE
  8
DIM_ATT
 10
6.3374
 20
7.4868
 30
0.0
 40
0.09
  1
VER
  2
TYPE
 70
     1
  0
ATTRIB
  5
1DF
  8
DIM_ATT
 10
6.3374
 20
7.3518
 30
0.0
 40
0.09
  1
0.36000
  2
A1
 70
     1
  0
ATTRIB
  5
1E0
  8
DIM_ATT
 10
6.3374
 20
7.2168
 30
0.0
 40
0.09
  1
6.337400,7.711800
  2
A2
 70
     1
  0
ATTRIB
  5
1E1
  8
DIM_ATT
 10
6.3374
 20
7.0818
 30
0.0
 40
0.09
  1
6.337400,7.351800
  2
A3
 70
     1
  0
ATTRIB
  5
1E2
  8
DIM_ATT
 10
6.3374
 20
6.9468
 30
0.0
 40
0.09
  1
3.628600,1.000000
  2
A4
 70
     1
  0
ATTRIB
  5
1E3
  8
DIM_ATT
 10
6.3374
 20
6.8118
 30
0.0
 40
0.09
  1
6.397400,1.000000
  2
A5
 70
     1
  0
ATTRIB
  5
1E4
  8
DIM_ATT
 10
6.3374
 20
6.6768
 30
0.0
 40
0.09
  1
DIMFIXHIDE
  2
A6
 70
     1
  0
ATTRIB
  5
1E5
  8
DIM_ATT
 10
6.3374
 20
6.5418
 30
0.0
 40
0.09
  1
0
  2
A7
 70
     1
  0
ATTRIB
  5
1E6
  8
DIM_ATT
 10
6.3374
 20
6.4068
 30
0.0
 40
0.09
  1
0
  2
A8
 70
     1
  0
SEQEND
  5
1E7
  8
DIM_ATT
  0
INSERT
  5
1E8
  8
DIM_ATT
 66
     1
  2
ATT_BLK
 10
6.3374
 20
6.9918
 30
0.0
  0
ATTRIB
  5
1E9
  8
DIM_ATT
 10
6.3374
 20
7.1268
 30
0.0
 40
0.09
  1
VER
  2
TYPE
 70
     1
  0
ATTRIB
  5
1EA
  8
DIM_ATT
 10
6.3374
 20
6.9918
 30
0.0
 40
0.09
  1
0.36000
  2
A1
 70
     1
  0
ATTRIB
  5
1EB
  8
DIM_ATT
 10
6.3374
 20
6.8568
 30
0.0
 40
0.09
  1
6.337400,7.351800
  2
A2
 70
     1
  0
ATTRIB
  5
1EC
  8
DIM_ATT
 10
6.3374
 20
6.7218
 30
0.0
 40
0.09
  1
6.337400,6.991800
  2
A3
 70
     1
  0
ATTRIB
  5
1ED
  8
DIM_ATT
 10
6.3374
 20
6.5868
 30
0.0
 40
0.09
  1
3.506000,1.000000
  2
A4
 70
     1
  0
ATTRIB
  5
1EE
  8
DIM_ATT
 10
6.3374
 20
6.4518
 30
0.0
 40
0.09
  1
6.397400,1.000000
  2
A5
 70
     1
  0
ATTRIB
  5
1EF
  8
DIM_ATT
 10
6.3374
 20
6.3168
 30
0.0
 40
0.09
  1
DIMFIXHIDE
  2
A6
 70
     1
  0
ATTRIB
  5
1F0
  8
DIM_ATT
 10
6.3374
 20
6.1818
 30
0.0
 40
0.09
  1
0
  2
A7
 70
     1
  0
ATTRIB
  5
1F1
  8
DIM_ATT
 10
6.3374
 20
6.0468
 30
0.0
 40
0.09
  1
0
  2
A8
 70
     1
  0
SEQEND
  5
1F2
  8
DIM_ATT
  0
INSERT
  5
1F3
  8
DIM_ATT
 66
     1
  2
ATT_BLK
 10
7.0774
 20
7.3518
 30
0.0
  0
ATTRIB
  5
1F4
  8
DIM_ATT
 10
7.0774
 20
7.4868
 30
0.0
 40
0.09
  1
VER
  2
TYPE
 70
     1
  0
ATTRIB
  5
1F5
  8
DIM_ATT
 10
7.0774
 20
7.3518
 30
0.0
 40
0.09
  1
0.25000
  2
A1
 70
     1
  0
ATTRIB
  5
1F6
  8
DIM_ATT
 10
7.0774
 20
7.2168
 30
0.0
 40
0.09
  1
7.077400,7.601800
  2
A2
 70
     1
  0
ATTRIB
  5
1F7
  8
DIM_ATT
 10
7.0774
 20
7.0818
 30
0.0
 40
0.09
  1
7.077400,7.351800
  2
A3
 70
     1
  0
ATTRIB
  5
1F8
  8
DIM_ATT
 10
7.0774
 20
6.9468
 30
0.0
 40
0.09
  1
9.359500,1.000000
  2
A4
 70
     1
  0
ATTRIB
  5
1F9
  8
DIM_ATT
 10
7.0774
 20
6.8118
 30
0.0
 40
0.09
  1

  2
A5
 70
     1
  0
ATTRIB
  5
1FA
  8
DIM_ATT
 10
7.0774
 20
6.6768
 30
0.0
 40
0.09
  1
DIMFIXHIDE
  2
A6
 70
     1
  0
ATTRIB
  5
1FB
  8
DIM_ATT
 10
7.0774
 20
6.5418
 30
0.0
 40
0.09
  1
0
  2
A7
 70
     1
  0
ATTRIB
  5
1FC
  8
DIM_ATT
 10
7.0774
 20
6.4068
 30
0.0
 40
0.09
  1
0
  2
A8
 70
     1
  0
SEQEND
  5
1FD
  8
DIM_ATT
  0
INSERT
  5
1FE
  8
DIM_ATT
 66
     1
  2
ATT_BLK
 10
7.0774
 20
7.1018
 30
0.0
  0
ATTRIB
  5
1FF
  8
DIM_ATT
 10
7.0774
 20
7.2368
 30
0.0
 40
0.09
  1
VER
  2
TYPE
 70
     1
  0
ATTRIB
  5
200
  8
DIM_ATT
 10
7.0774
 20
7.1018
 30
0.0
 40
0.09
  1
0.25000
  2
A1
 70
     1
  0
ATTRIB
  5
201
  8
DIM_ATT
 10
7.0774
 20
6.9668
 30
0.0
 40
0.09
  1
7.077400,7.351800
  2
A2
 70
     1
  0
ATTRIB
  5
202
  8
DIM_ATT
 10
7.0774
 20
6.8318
 30
0.0
 40
0.09
  1
7.077400,7.101800
  2
A3
 70
     1
  0
ATTRIB
  5
203
  8
DIM_ATT
 10
7.0774
 20
6.6968
 30
0.0
 40
0.09
  1
9.597100,1.000000
  2
A4
 70
     1
  0
ATTRIB
  5
204
  8
DIM_ATT
 10
7.0774
 20
6.5618
 30
0.0
 40
0.09
  1

  2
A5
 70
     1
  0
ATTRIB
  5
205
  8
DIM_ATT
 10
7.0774
 20
6.4268
 30
0.0
 40
0.09
  1
DIMFIXHIDE
  2
A6
 70
     1
  0
ATTRIB
  5
206
  8
DIM_ATT
 10
7.0774
 20
6.2918
 30
0.0
 40
0.09
  1
0
  2
A7
 70
     1
  0
ATTRIB
  5
207
  8
DIM_ATT
 10
7.0774
 20
6.1568
 30
0.0
 40
0.09
  1
0
  2
A8
 70
     1
  0
SEQEND
  5
208
  8
DIM_ATT
  0
INSERT
  5
209
  8
DIM_ATT
 66
     1
  2
ATT_BLK
 10
11.6898
 20
7.3518
 30
0.0
  0
ATTRIB
  5
20A
  8
DIM_ATT
 10
11.6898
 20
7.4868
 30
0.0
 40
0.09
  1
VER
  2
TYPE
 70
     1
  0
ATTRIB
  5
20B
  8
DIM_ATT
 10
11.6898
 20
7.3518
 30
0.0
 40
0.09
  1
0.46900
  2
A1
 70
     1
  0
ATTRIB
  5
20C
  8
DIM_ATT
 10
11.6898
 20
7.2168
 30
0.0
 40
0.09
  1
10.583400,7.820800
  2
A2
 70
     1
  0
ATTRIB
  5
20D
  8
DIM_ATT
 10
11.6898
 20
7.0818
 30
0.0
 40
0.09
  1
11.689800,7.351800
  2
A3
 70
     1
  0
ATTRIB
  5
20E
  8
DIM_ATT
 10
11.6898
 20
6.9468
 30
0.0
 40
0.09
  1
11.689800,1.000000
  2
A4
 70
     1
  0
ATTRIB
  5
20F
  8
DIM_ATT
 10
11.6898
 20
6.8118
 30
0.0
 40
0.09
  1

  2
A5
 70
     1
  0
ATTRIB
  5
210
  8
DIM_ATT
 10
11.6898
 20
6.6768
 30
0.0
 40
0.09
  1
DIMFIX
  2
A6
 70
     1
  0
ATTRIB
  5
211
  8
DIM_ATT
 10
11.6898
 20
6.5418
 30
0.0
 40
0.09
  1
0
  2
A7
 70
     1
  0
ATTRIB
  5
212
  8
DIM_ATT
 10
11.6898
 20
6.4068
 30
0.0
 40
0.09
  1
0
  2
A8
 70
     1
  0
SEQEND
  5
213
  8
DIM_ATT
  0
INSERT
  5
214
  8
DIM_ATT
 66
     1
  2
ATT_BLK
 10
10.5834
 20
6.8828
 30
0.0
  0
ATTRIB
  5
215
  8
DIM_ATT
 10
10.5834
 20
7.0178
 30
0.0
 40
0.09
  1
VER
  2
TYPE
 70
     1
  0
ATTRIB
  5
216
  8
DIM_ATT
 10
10.5834
 20
6.8828
 30
0.0
 40
0.09
  1
0.46900
  2
A1
 70
     1
  0
ATTRIB
  5
217
  8
DIM_ATT
 10
10.5834
 20
6.7478
 30
0.0
 40
0.09
  1
10.583400,6.882800
  2
A2
 70
     1
  0
ATTRIB
  5
218
  8
DIM_ATT
 10
10.5834
 20
6.6128
 30
0.0
 40
0.09
  1
8.741200,7.351800
  2
A3
 70
     1
  0
ATTRIB
  5
219
  8
DIM_ATT
 10
10.5834
 20
6.4778
 30
0.0
 40
0.09
  1
8.734900,1.000000
  2
A4
 70
     1
  0
ATTRIB
  5
21A
  8
DIM_ATT
 10
10.5834
 20
6.3428
 30
0.0
 40
0.09
  1

  2
A5
 70
     1
  0
ATTRIB
  5
21B
  8
DIM_ATT
 10
10.5834
 20
6.2078
 30
0.0
 40
0.09
  1
DIMFIX
  2
A6
 70
     1
  0
ATTRIB
  5
21C
  8
DIM_ATT
 10
10.5834
 20
6.0728
 30
0.0
 40
0.09
  1
0
  2
A7
 70
     1
  0
ATTRIB
  5
21D
  8
DIM_ATT
 10
10.5834
 20
5.9378
 30
0.0
 40
0.09
  1
0
  2
A8
 70
     1
  0
SEQEND
  5
21E
  8
DIM_ATT
  0
INSERT
  5
21F
  8
DIM_ATT
 66
     1
  2
ATT_BLK
 10
10.5521
 20
7.8102
 30
0.0
  0
ATTRIB
  5
220
  8
DIM_ATT
 10
10.5521
 20
7.9452
 30
0.0
 40
0.09
  1
ALI
  2
TYPE
 70
     1
  0
ATTRIB
  5
221
  8
DIM_ATT
 10
10.5521
 20
7.8102
 30
0.0
 40
0.09
  1
.747
  2
A1
 70
     1
  0
ATTRIB
  5
222
  8
DIM_ATT
 10
10.5521
 20
7.6752
 30
0.0
 40
0.09
  1
10.552100,7.810200
  2
A2
 70
     1
  0
ATTRIB
  5
223
  8
DIM_ATT
 10
10.5521
 20
7.5402
 30
0.0
 40
0.09
  1
11.041800,7.320500
  2
A3
 70
     1
  0
ATTRIB
  5
224
  8
DIM_ATT
 10
10.5521
 20
7.4052
 30
0.0
 40
0.09
  1
11.678700,8.443900
  2
A4
 70
     1
  0
ATTRIB
  5
225
  8
DIM_ATT
 10
10.5521
 20
7.2702
 30
0.0
 40
0.09
  1
0
  2
A5
 70
     1
  0
ATTRIB
  5
226
  8
DIM_ATT
 10
10.5521
 20
7.1352
 30
0.0
 40
0.09
  1
DIMFIX
  2
A6
 70
     1
  0
ATTRIB
  5
227
  8
DIM_ATT
 10
10.5521
 20
7.0002
 30
0.0
 40
0.09
  1
0
  2
A7
 70
     1
  0
ATTRIB
  5
228
  8
DIM_ATT
 10
10.5521
 20
6.8652
 30
0.0
 40
0.09
  1
0
  2
A8
 70
     1
  0
SEQEND
  5
229
  8
DIM_ATT
  0
INSERT
  5
22A
  8
DIM_ATT
 66
     1
  2
ATT_BLK
 10
10.6148
 20
7.8102
 30
0.0
  0
ATTRIB
  5
22B
  8
DIM_ATT
 10
10.6148
 20
7.9452
 30
0.0
 40
0.09
  1
ALI
  2
TYPE
 70
     1
  0
ATTRIB
  5
22C
  8
DIM_ATT
 10
10.6148
 20
7.8102
 30
0.0
 40
0.09
  1
.747
  2
A1
 70
     1
  0
ATTRIB
  5
22D
  8
DIM_ATT
 10
10.6148
 20
7.6752
 30
0.0
 40
0.09
  1
10.614800,7.810200
  2
A2
 70
     1
  0
ATTRIB
  5
22E
  8
DIM_ATT
 10
10.6148
 20
7.5402
 30
0.0
 40
0.09
  1
10.125000,7.320500
  2
A3
 70
     1
  0
ATTRIB
  5
22F
  8
DIM_ATT
 10
10.6148
 20
7.4052
 30
0.0
 40
0.09
  1
9.206375,8.834366
  2
A4
 70
     1
  0
ATTRIB
  5
230
  8
DIM_ATT
 10
10.6148
 20
7.2702
 30
0.0
 40
0.09
  1
0
  2
A5
 70
     1
  0
ATTRIB
  5
231
  8
DIM_ATT
 10
10.6148
 20
7.1352
 30
0.0
 40
0.09
  1
DIMFIX
  2
A6
 70
     1
  0
ATTRIB
  5
232
  8
DIM_ATT
 10
10.6148
 20
7.0002
 30
0.0
 40
0.09
  1
0
  2
A7
 70
     1
  0
ATTRIB
  5
233
  8
DIM_ATT
 10
10.6148
 20
6.8652
 30
0.0
 40
0.09
  1
0
  2
A8
 70
     1
  0
SEQEND
  5
234
  8
DIM_ATT
  0
POLYLINE
  5
235
  8
OBJECT
 66
     1
 10
0.0
 20
0.0
 30
0.0
  0
VERTEX
  5
F3B
  8
OBJECT
 10
-0.56
 20
0.0
 30
0.0
  0
VERTEX
  5
F3C
  8
OBJECT
 10
-0.56
 20
-0.37525
 30
0.0
  0
SEQEND
  5
F3D
  8
OBJECT
  0
POLYLINE
  5
239
  8
OBJECT
 66
     1
 10
0.0
 20
0.0
 30
0.0
  0
VERTEX
  5
F3E
  8
OBJECT
 10
-0.56
 20
0.0
 30
0.0
  0
VERTEX
  5
F3F
  8
OBJECT
 10
-0.56
 20
0.37525
 30
0.0
  0
SEQEND
  5
F40
  8
OBJECT
  0
POLYLINE
  5
23D
  8
OBJECT
 66
     1
 10
0.0
 20
0.0
 30
0.0
 70
     1
  0
VERTEX
  5
F41
  8
OBJECT
 10
0.02
 20
0.464
 30
0.0
  0
VERTEX
  5
F42
  8
OBJECT
 10
0.36
 20
0.464
 30
0.0
  0
VERTEX
  5
F43
  8
OBJECT
 10
0.38
 20
0.444
 30
0.0
  0
VERTEX
  5
F44
  8
OBJECT
 10
0.38
 20
0.0
 30
0.0
  0
VERTEX
  5
F45
  8
OBJECT
 10
0.38
 20
-0.444
 30
0.0
  0
VERTEX
  5
F46
  8
OBJECT
 10
0.36
 20
-0.464
 30
0.0
  0
VERTEX
  5
F47
  8
OBJECT
 10
0.02
 20
-0.464
 30
0.0
  0
VERTEX
  5
F48
  8
OBJECT
 10
0.0
 20
-0.444
 30
0.0
  0
VERTEX
  5
F49
  8
OBJECT
 10
0.0
 20
0.0
 30
0.0
  0
VERTEX
  5
F4A
  8
OBJECT
 10
0.0
 20
0.444
 30
0.0
  0
SEQEND
  5
F4B
  8
OBJECT
  0
INSERT
  5
249
  8
DIM_ATT
 66
     1
  2
ATT_BLK
 10
10.5834
 20
7.3518
 30
0.0
  0
ATTRIB
  5
24A
  8
DIM_ATT
 10
10.5834
 20
7.4868
 30
0.0
 40
0.09
  1
RAD
  2
TYPE
 70
     1
  0
ATTRIB
  5
24B
  8
DIM_ATT
 10
10.5834
 20
7.3518
 30
0.0
 40
0.09
  1
.25
  2
A1
 70
     1
  0
ATTRIB
  5
24C
  8
DIM_ATT
 10
10.5834
 20
7.2168
 30
0.0
 40
0.09
  1
DIMFIXHIDE 10.583400 7.351800 10.453191 7.565214
  2
A2
 70
     1
  0
ATTRIB
  5
24D
  8
DIM_ATT
 10
10.5834
 20
7.0818
 30
0.0
 40
0.09
  1
: : CIRCLE : 8 : OBJECT : 10 : 10.583400 : 20 : 7.351800 : 40 : 0.250008 : 
  2
A3
 70
     1
  0
ATTRIB
  5
24E
  8
DIM_ATT
 10
10.5834
 20
6.9468
 30
0.0
 40
0.09
  1
0
  2
A4
 70
     1
  0
ATTRIB
  5
24F
  8
DIM_ATT
 10
10.5834
 20
6.8118
 30
0.0
 40
0.09
  1
0
  2
A5
 70
     1
  0
ATTRIB
  5
250
  8
DIM_ATT
 10
10.5834
 20
6.6768
 30
0.0
 40
0.09
  1
0
  2
A6
 70
     1
  0
ATTRIB
  5
251
  8
DIM_ATT
 10
10.5834
 20
6.5418
 30
0.0
 40
0.09
  1
0
  2
A7
 70
     1
  0
ATTRIB
  5
252
  8
DIM_ATT
 10
10.5834
 20
6.4068
 30
0.0
 40
0.09
  1
0
  2
A8
 70
     1
  0
SEQEND
  5
253
  8
DIM_ATT
  0
INSERT
  5
254
  8
DIM_ATT
 66
     1
  2
ATT_BLK
 10
10.5834
 20
7.3518
 30
0.0
  0
ATTRIB
  5
255
  8
DIM_ATT
 10
10.5834
 20
7.4868
 30
0.0
 40
0.09
  1
RAD
  2
TYPE
 70
     1
  0
ATTRIB
  5
256
  8
DIM_ATT
 10
10.5834
 20
7.3518
 30
0.0
 40
0.09
  1
0.46900
  2
A1
 70
     1
  0
ATTRIB
  5
257
  8
DIM_ATT
 10
10.5834
 20
7.2168
 30
0.0
 40
0.09
  1
DIMFIXHIDE 10.583400 7.351800 10.821795 6.947908
  2
A2
 70
     1
  0
ATTRIB
  5
258
  8
DIM_ATT
 10
10.5834
 20
7.0818
 30
0.0
 40
0.09
  1
: : CIRCLE : 8 : HIDOB : 10 : 10.583400 : 20 : 7.351800 : 40 : 0.468991 : 
  2
A3
 70
     1
  0
ATTRIB
  5
259
  8
DIM_ATT
 10
10.5834
 20
6.9468
 30
0.0
 40
0.09
  1
0
  2
A4
 70
     1
  0
ATTRIB
  5
25A
  8
DIM_ATT
 10
10.5834
 20
6.8118
 30
0.0
 40
0.09
  1
0
  2
A5
 70
     1
  0
ATTRIB
  5
25B
  8
DIM_ATT
 10
10.5834
 20
6.6768
 30
0.0
 40
0.09
  1
0
  2
A6
 70
     1
  0
ATTRIB
  5
25C
  8
DIM_ATT
 10
10.5834
 20
6.5418
 30
0.0
 40
0.09
  1
0
  2
A7
 70
     1
  0
ATTRIB
  5
25D
  8
DIM_ATT
 10
10.5834
 20
6.4068
 30
0.0
 40
0.09
  1
0
  2
A8
 70
     1
  0
SEQEND
  5
25E
  8
DIM_ATT
  0
INSERT
  5
25F
  8
DIM_ATT
 66
     1
  2
ATT_BLK
 10
10.5834
 20
7.3518
 30
0.0
  0
ATTRIB
  5
260
  8
DIM_ATT
 10
10.5834
 20
7.4868
 30
0.0
 40
0.09
  1
RAD
  2
TYPE
 70
     1
  0
ATTRIB
  5
261
  8
DIM_ATT
 10
10.5834
 20
7.3518
 30
0.0
 40
0.09
  1
0.37525
  2
A1
 70
     1
  0
ATTRIB
  5
262
  8
DIM_ATT
 10
10.5834
 20
7.2168
 30
0.0
 40
0.09
  1
DIMFIX 10.583400 7.351800 10.341510 7.064917
  2
A2
 70
     1
  0
ATTRIB
  5
263
  8
DIM_ATT
 10
10.5834
 20
7.0818
 30
0.0
 40
0.09
  1
: : CIRCLE : 8 : OBJECT : 10 : 10.583400 : 20 : 7.351800 : 40 : 0.375250 : 
  2
A3
 70
     1
  0
ATTRIB
  5
264
  8
DIM_ATT
 10
10.5834
 20
6.9468
 30
0.0
 40
0.09
  1
0
  2
A4
 70
     1
  0
ATTRIB
  5
265
  8
DIM_ATT
 10
10.5834
 20
6.8118
 30
0.0
 40
0.09
  1
0
  2
A5
 70
     1
  0
ATTRIB
  5
266
  8
DIM_ATT
 10
10.5834
 20
6.6768
 30
0.0
 40
0.09
  1
0
  2
A6
 70
     1
  0
ATTRIB
  5
267
  8
DIM_ATT
 10
10.5834
 20
6.5418
 30
0.0
 40
0.09
  1
0
  2
A7
 70
     1
  0
ATTRIB
  5
268
  8
DIM_ATT
 10
10.5834
 20
6.4068
 30
0.0
 40
0.09
  1
0
  2
A8
 70
     1
  0
SEQEND
  5
269
  8
DIM_ATT
  0
LINE
  5
26A
  8
OBJECT
 10
0.02
 20
0.464
 30
0.0
 11
0.02
 21
-0.464
 31
0.0
  0
LINE
  5
26B
  8
OBJECT
 10
0.36
 20
-0.464
 30
0.0
 11
0.36
 21
0.464
 31
0.0
  0
LINE
  5
26C
  8
OBJECT
 10
-0.69
 20
-0.37525
 30
0.0
 11
-0.69
 21
0.37525
 31
0.0
  0
LINE
  5
26D
  8
OBJECT
 10
-0.06
 20
-0.37525
 30
0.0
 11
-0.69
 21
-0.37525
 31
0.0
  0
LINE
  5
26E
  8
OBJECT
 10
-0.69
 20
-0.37525
 30
0.0
 11
-0.72
 21
-0.34525
 31
0.0
  0
LINE
  5
26F
  8
OBJECT
 10
-0.72
 20
-0.34525
 30
0.0
 11
-0.72
 21
0.0
 31
0.0
  0
LINE
  5
270
  8
OBJECT
 10
-0.72
 20
0.0
 30
0.0
 11
-0.72
 21
0.34525
 31
0.0
  0
LINE
  5
271
  8
OBJECT
 10
-0.72
 20
0.34525
 30
0.0
 11
-0.69
 21
0.37525
 31
0.0
  0
LINE
  5
272
  8
OBJECT
 10
-0.69
 20
0.37525
 30
0.0
 11
-0.06
 21
0.37525
 31
0.0
  0
LINE
  5
273
  8
OBJECT
 10
-0.06
 20
0.0
 30
0.0
 11
-0.06
 21
-0.37525
 31
0.0
  0
LINE
  5
274
  8
OBJECT
 10
-0.06
 20
0.0
 30
0.0
 11
-0.06
 21
0.37525
 31
0.0
  0
POLYLINE
  5
275
  8
OBJECT
 66
     1
 10
0.0
 20
0.0
 30
0.0
  0
VERTEX
  5
F4C
  8
OBJECT
 10
-0.06
 20
-0.36
 30
0.0
  0
VERTEX
  5
F4D
  8
OBJECT
 10
0.0
 20
-0.36
 30
0.0
  0
SEQEND
  5
F4E
  8
OBJECT
  0
POLYLINE
  5
279
  8
OBJECT
 66
     1
 10
0.0
 20
0.0
 30
0.0
  0
VERTEX
  5
F4F
  8
OBJECT
 10
-0.06
 20
0.36
 30
0.0
  0
VERTEX
  5
F50
  8
OBJECT
 10
0.0
 20
0.36
 30
0.0
  0
SEQEND
  5
F51
  8
OBJECT
  0
LINE
  5
27D
  8
HIDOB
 10
-0.68
 20
-0.125
 30
0.0
 11
-0.72
 21
-0.148094
 31
0.0
  0
LINE
  5
27E
  8
HIDOB
 10
-0.68
 20
-0.125
 30
0.0
 11
-0.68
 21
0.125
 31
0.0
  0
LINE
  5
27F
  8
HIDOB
 10
0.34
 20
-0.125
 30
0.0
 11
0.38
 21
-0.148094
 31
0.0
  0
LINE
  5
280
  8
HIDOB
 10
0.34
 20
-0.125
 30
0.0
 11
0.34
 21
0.125
 31
0.0
  0
LINE
  5
281
  8
HIDOB
 10
-0.68
 20
0.125
 30
0.0
 11
-0.72
 21
0.148094
 31
0.0
  0
LINE
  5
282
  8
HIDOB
 10
0.34
 20
0.125
 30
0.0
 11
0.38
 21
0.148094
 31
0.0
  0
POLYLINE
  5
283
  8
HIDOB
 66
     1
 10
0.0
 20
0.0
 30
0.0
  0
VERTEX
  5
F52
  8
HIDOB
 10
-0.68
 20
0.125
 30
0.0
  0
VERTEX
  5
F53
  8
HIDOB
 10
0.34
 20
0.125
 30
0.0
  0
SEQEND
  5
F54
  8
HIDOB
  0
POLYLINE
  5
287
  8
HIDOB
 66
     1
 10
0.0
 20
0.0
 30
0.0
  0
VERTEX
  5
F55
  8
HIDOB
 10
-0.68
 20
-0.125
 30
0.0
  0
VERTEX
  5
F56
  8
HIDOB
 10
0.34
 20
-0.125
 30
0.0
  0
SEQEND
  5
F57
  8
HIDOB
  0
ENDBLK
  5
28B
  8
0
  0
BLOCK
  8
0
  2
ATT_BLK
 70
     2
 10
0.0
 20
0.0
 30
0.0
  3
ATT_BLK
  1

  0
ATTDEF
  5
28D
  8
DIM_ATT
 10
0.0
 20
0.0
 30
0.0
 40
0.2
  1
0
  3

  2
TYPE
 70
     1
  0
ATTDEF
  5
28E
  8
DIM_ATT
 10
0.0
 20
-0.333333
 30
0.0
 40
0.2
  1
0
  3

  2
A1
 70
     1
  0
ATTDEF
  5
28F
  8
DIM_ATT
 10
0.0
 20
-0.666667
 30
0.0
 40
0.2
  1
0
  3

  2
A2
 70
     1
  0
ATTDEF
  5
290
  8
DIM_ATT
 10
0.0
 20
-1.0
 30
0.0
 40
0.2
  1
0
  3

  2
A3
 70
     1
  0
ATTDEF
  5
291
  8
DIM_ATT
 10
0.0
 20
-1.333333
 30
0.0
 40
0.2
  1
0
  3

  2
A4
 70
     1
  0
ATTDEF
  5
292
  8
DIM_ATT
 10
0.0
 20
-1.666667
 30
0.0
 40
0.2
  1
0
  3

  2
A5
 70
     1
  0
ATTDEF
  5
293
  8
DIM_ATT
 10
0.0
 20
-2.0
 30
0.0
 40
0.2
  1
0
  3

  2
A6
 70
     1
  0
ATTDEF
  5
294
  8
DIM_ATT
 10
0.0
 20
-2.333333
 30
0.0
 40
0.2
  1
0
  3

  2
A7
 70
     1
  0
ATTDEF
  5
295
  8
DIM_ATT
 10
0.0
 20
-2.666667
 30
0.0
 40
0.2
  1
0
  3

  2
A8
 70
     1
  0
ENDBLK
  5
296
  8
0
  0
BLOCK
  8
0
  2
20LS
 70
     0
 10
0.0
 20
0.0
 30
0.0
  3
20LS
  1

  0
POLYLINE
  5
367
  8
OBJECT
 66
     1
 10
0.0
 20
0.0
 30
0.0
  0
VERTEX
  5
F58
  8
OBJECT
 10
-0.12
 20
0.5
 30
0.0
  0
VERTEX
  5
F59
  8
OBJECT
 10
-0.12
 20
-0.5
 30
0.0
  0
SEQEND
  5
F5A
  8
OBJECT
  0
POLYLINE
  5
36B
  8
OBJECT
 66
     1
 10
0.0
 20
0.0
 30
0.0
  0
VERTEX
  5
F5B
  8
OBJECT
 10
0.6
 20
-1.25
 30
0.0
  0
VERTEX
  5
F5C
  8
OBJECT
 10
0.6
 20
0.0
 30
0.0
  0
SEQEND
  5
F5D
  8
OBJECT
  0
POLYLINE
  5
36F
  8
OBJECT
 66
     1
 10
0.0
 20
0.0
 30
0.0
  0
VERTEX
  5
F5E
  8
OBJECT
 10
0.03
 20
-1.25
 30
0.0
  0
VERTEX
  5
F5F
  8
OBJECT
 10
0.03
 20
0.0
 30
0.0
  0
SEQEND
  5
F60
  8
OBJECT
  0
POLYLINE
  5
373
  8
OBJECT
 66
     1
 10
0.0
 20
0.0
 30
0.0
  0
VERTEX
  5
F61
  8
OBJECT
 10
0.0
 20
-0.25
 30
0.0
  0
VERTEX
  5
F62
  8
OBJECT
 10
0.0
 20
0.0
 30
0.0
  0
SEQEND
  5
F63
  8
OBJECT
  0
POLYLINE
  5
377
  8
OBJECT
 66
     1
 10
0.0
 20
0.0
 30
0.0
  0
VERTEX
  5
F64
  8
OBJECT
 10
0.0
 20
0.25
 30
0.0
  0
VERTEX
  5
F65
  8
OBJECT
 10
0.0
 20
0.0
 30
0.0
  0
SEQEND
  5
F66
  8
OBJECT
  0
POLYLINE
  5
37B
  8
OBJECT
 66
     1
 10
0.0
 20
0.0
 30
0.0
  0
VERTEX
  5
F67
  8
OBJECT
 10
0.03
 20
1.25
 30
0.0
  0
VERTEX
  5
F68
  8
OBJECT
 10
0.03
 20
0.0
 30
0.0
  0
SEQEND
  5
F69
  8
OBJECT
  0
POLYLINE
  5
37F
  8
OBJECT
 66
     1
 10
0.0
 20
0.0
 30
0.0
  0
VERTEX
  5
F6A
  8
OBJECT
 10
0.6
 20
1.25
 30
0.0
  0
VERTEX
  5
F6B
  8
OBJECT
 10
0.6
 20
0.0
 30
0.0
  0
SEQEND
  5
F6C
  8
OBJECT
  0
LINE
  5
383
  8
OBJECT
 10
-1.31
 20
0.0
 30
0.0
 11
-1.31
 21
0.461
 31
0.0
  0
LINE
  5
384
  8
OBJECT
 10
-1.25
 20
0.5
 30
0.0
 11
0.0
 21
0.5
 31
0.0
  0
LINE
  5
385
  8
OBJECT
 10
0.0
 20
0.25
 30
0.0
 11
0.0
 21
1.22
 31
0.0
  0
LINE
  5
386
  8
OBJECT
 10
0.0
 20
1.22
 30
0.0
 11
0.03
 21
1.25
 31
0.0
  0
LINE
  5
387
  8
OBJECT
 10
0.03
 20
1.25
 30
0.0
 11
0.6
 21
1.25
 31
0.0
  0
LINE
  5
388
  8
OBJECT
 10
0.6
 20
1.25
 30
0.0
 11
0.63
 21
1.22
 31
0.0
  0
LINE
  5
389
  8
OBJECT
 10
0.63
 20
1.22
 30
0.0
 11
0.63
 21
0.0
 31
0.0
  0
LINE
  5
38A
  8
OBJECT
 10
-1.31
 20
0.0
 30
0.0
 11
-1.31
 21
-0.461
 31
0.0
  0
LINE
  5
38B
  8
OBJECT
 10
-1.25
 20
-0.5
 30
0.0
 11
0.0
 21
-0.5
 31
0.0
  0
LINE
  5
38C
  8
OBJECT
 10
0.0
 20
-0.25
 30
0.0
 11
0.0
 21
-1.22
 31
0.0
  0
LINE
  5
38D
  8
OBJECT
 10
0.0
 20
-1.22
 30
0.0
 11
0.03
 21
-1.25
 31
0.0
  0
LINE
  5
38E
  8
OBJECT
 10
0.03
 20
-1.25
 30
0.0
 11
0.6
 21
-1.25
 31
0.0
  0
LINE
  5
38F
  8
OBJECT
 10
0.6
 20
-1.25
 30
0.0
 11
0.63
 21
-1.22
 31
0.0
  0
LINE
  5
390
  8
OBJECT
 10
0.63
 20
-1.22
 30
0.0
 11
0.63
 21
0.0
 31
0.0
  0
LINE
  5
391
  8
OBJECT
 10
-1.25
 20
-0.5
 30
0.0
 11
-1.25
 21
0.0
 31
0.0
  0
LINE
  5
392
  8
OBJECT
 10
-1.25
 20
0.5
 30
0.0
 11
-1.25
 21
0.0
 31
0.0
  0
INSERT
  5
393
  8
OBJECT
  2
HEX_LS
 10
0.63
 20
0.0
 30
0.0
  0
LINE
  5
394
  8
HIDDEN
 10
-1.31
 20
0.461
 30
0.0
 11
-0.12
 21
0.461
 31
0.0
  0
LINE
  5
395
  8
HIDDEN
 10
-1.31
 20
-0.461
 30
0.0
 11
-0.12
 21
-0.461
 31
0.0
  0
LINE
  5
396
  8
OBJECT
 10
-1.31
 20
0.461
 30
0.0
 11
-1.25
 21
0.5
 31
0.0
  0
LINE
  5
397
  8
OBJECT
 10
-1.31
 20
-0.461
 30
0.0
 11
-1.25
 21
-0.5
 31
0.0
  0
ENDBLK
  5
398
  8
0
  0
BLOCK
  8
0
  2
HEX_LS
 70
     0
 10
0.0
 20
0.0
 30
0.0
  3
HEX_LS
  1

  0
LINE
  5
39A
  8
H
 10
-0.479785
 20
0.25
 30
0.0
 11
0.0
 21
0.25
 31
0.0
  0
LINE
  5
39B
  8
H
 10
-0.479785
 20
0.22
 30
0.0
 11
0.0
 21
0.22
 31
0.0
  0
LINE
  5
39C
  8
H
 10
-0.63
 20
0.0
 30
0.0
 11
-0.479785
 21
0.25
 31
0.0
  0
LINE
  5
39D
  8
H
 10
-0.479785
 20
0.25
 30
0.0
 11
-0.479785
 21
0.0
 31
0.0
  0
LINE
  5
39E
  8
H
 10
-0.479785
 20
-0.22
 30
0.0
 11
0.0
 21
-0.22
 31
0.0
  0
LINE
  5
39F
  8
H
 10
-0.479785
 20
-0.25
 30
0.0
 11
0.0
 21
-0.25
 31
0.0
  0
LINE
  5
3A0
  8
H
 10
-0.479785
 20
-0.25
 30
0.0
 11
-0.479785
 21
0.0
 31
0.0
  0
LINE
  5
3A1
  8
H
 10
-0.63
 20
0.0
 30
0.0
 11
-0.479785
 21
-0.25
 31
0.0
  0
ENDBLK
  5
3A2
  8
0
  0
BLOCK
  8
0
  6
CONTINUOUS
 62
     7
  2
C50_BASE
 70
     0
 10
0.0
 20
0.0
 30
0.0
  3
C50_BASE
  1
C50_BASE
  0
LINE
  5
730
  8
C50_BASE$0$L
 10
0.0
 20
0.0
 30
0.0
 11
0.0
 21
-1.375
 31
0.0
  0
LINE
  5
731
  8
C50_BASE$0$L
 10
0.0
 20
-1.375
 30
0.0
 11
-3.897317
 21
-0.806641
 31
0.0
  0
LINE
  5
732
  8
C50_BASE$0$L
 10
0.0
 20
-1.375
 30
0.0
 11
0.105
 21
-1.375
 31
0.0
  0
ARC
  5
733
  8
C50_BASE$0$L
 10
-3.88241
 20
0.69
 30
0.0
 40
0.11759
 50
97.282949
 51
180.0
  0
LINE
  5
734
  8
C50_BASE$0$H
 10
-4.0
 20
0.5625
 30
0.0
 11
-3.918594
 21
0.5155
 31
0.0
  0
LINE
  5
735
  8
C50_BASE$0$H
 10
-4.0
 20
-0.5625
 30
0.0
 11
-3.918594
 21
-0.5155
 31
0.0
  0
ARC
  5
736
  8
C50_BASE$0$L
 10
-3.88241
 20
-0.69
 30
0.0
 40
0.11759
 50
180.0
 51
262.717051
  0
LINE
  5
737
  8
C50_BASE$0$L
 10
-4.0
 20
-0.69
 30
0.0
 11
-4.0
 21
0.69
 31
0.0
  0
LINE
  5
738
  8
C50_BASE$0$L
 10
0.0
 20
1.375
 30
0.0
 11
-3.897317
 21
0.806641
 31
0.0
  0
LINE
  5
739
  8
C50_BASE$0$H
 10
-3.75
 20
-0.5
 30
0.0
 11
-2.25
 21
-0.5
 31
0.0
  0
LINE
  5
73A
  8
C50_BASE$0$H
 10
-3.75
 20
-0.4375
 30
0.0
 11
-2.25
 21
-0.4375
 31
0.0
  0
LINE
  5
73B
  8
C50_BASE$0$H
 10
-3.75
 20
0.4375
 30
0.0
 11
-2.25
 21
0.4375
 31
0.0
  0
LINE
  5
73C
  8
C50_BASE$0$H
 10
-3.75
 20
0.5
 30
0.0
 11
-2.25
 21
0.5
 31
0.0
  0
LINE
  5
73D
  8
C50_BASE$0$H
 10
-3.918594
 20
0.5155
 30
0.0
 11
-3.918594
 21
-0.0025
 31
0.0
  0
LINE
  5
73E
  8
C50_BASE$0$H
 10
-3.75
 20
0.0
 30
0.0
 11
-3.75
 21
0.5155
 31
0.0
  0
LINE
  5
73F
  8
C50_BASE$0$H
 10
-3.75
 20
0.0
 30
0.0
 11
-3.75
 21
-0.5155
 31
0.0
  0
LINE
  5
740
  8
C50_BASE$0$H
 10
-3.918594
 20
-0.5155
 30
0.0
 11
-3.918594
 21
0.0025
 31
0.0
  0
LINE
  5
741
  8
C50_BASE$0$H
 10
-3.918594
 20
-0.5155
 30
0.0
 11
-3.75
 21
-0.5155
 31
0.0
  0
LINE
  5
742
  8
C50_BASE$0$H
 10
-3.918594
 20
0.5155
 30
0.0
 11
-3.75
 21
0.5155
 31
0.0
  0
LINE
  5
743
  8
C50_BASE$0$H
 10
-2.25
 20
0.5
 30
0.0
 11
-2.25
 21
-0.5
 31
0.0
  0
LINE
  5
744
  8
C50_BASE$0$L
 10
0.0
 20
0.0
 30
0.0
 11
0.0
 21
1.375
 31
0.0
  0
CIRCLE
  5
745
  8
C50_BASE$0$L
 10
0.44
 20
0.0
 30
0.0
 40
0.1875
  0
LINE
  5
746
  8
C50_BASE$0$L
 10
0.125
 20
0.51
 30
0.0
 11
0.695204
 21
0.51
 31
0.0
  0
LINE
  5
747
  8
C50_BASE$0$L
 10
0.0
 20
1.375
 30
0.0
 11
0.105
 21
1.375
 31
0.0
  0
POINT
  5
748
  8
DEFPOINTS
  6
BYBLOCK
 62
     0
 10
0.0
 20
1.375
 30
0.0
  0
POINT
  5
749
  8
DEFPOINTS
  6
BYBLOCK
 62
     0
 10
0.0
 20
-1.375
 30
0.0
  0
POINT
  5
74A
  8
DEFPOINTS
  6
BYBLOCK
 62
     0
 10
0.0
 20
1.375
 30
0.0
  0
LINE
  5
74B
  8
C50_BASE$0$L
 10
0.125
 20
-1.9075
 30
0.0
 11
0.125
 21
1.9075
 31
0.0
  0
LINE
  5
74C
  8
C50_BASE$0$L
 10
0.5155
 20
0.51
 30
0.0
 11
0.5155
 21
1.827515
 31
0.0
  0
LINE
  5
74D
  8
C50_BASE$0$L
 10
0.3645
 20
0.51
 30
0.0
 11
0.3645
 21
1.827515
 31
0.0
  0
LINE
  5
74E
  8
C50_BASE$0$L
 10
0.579
 20
0.51
 30
0.0
 11
0.579
 21
1.9375
 31
0.0
  0
LINE
  5
74F
  8
C50_BASE$0$L
 10
0.301
 20
0.51
 30
0.0
 11
0.301
 21
1.9375
 31
0.0
  0
LINE
  5
750
  8
C50_BASE$0$L
 10
0.579
 20
1.9375
 30
0.0
 11
0.5155
 21
1.827515
 31
0.0
  0
LINE
  5
751
  8
C50_BASE$0$L
 10
0.301
 20
1.9375
 30
0.0
 11
0.3645
 21
1.827515
 31
0.0
  0
LINE
  5
752
  8
C50_BASE$0$L
 10
0.579
 20
1.9375
 30
0.0
 11
0.72
 21
1.9375
 31
0.0
  0
LINE
  5
753
  8
C50_BASE$0$L
 10
0.301
 20
1.9375
 30
0.0
 11
0.155
 21
1.9375
 31
0.0
  0
LINE
  5
754
  8
C50_BASE$0$L
 10
0.155
 20
0.51
 30
0.0
 11
0.155
 21
1.9375
 31
0.0
  0
LINE
  5
755
  8
C50_BASE$0$L
 10
0.125
 20
1.9075
 30
0.0
 11
0.155
 21
1.9375
 31
0.0
  0
LINE
  5
756
  8
C50_BASE$0$L
 10
0.5155
 20
1.797
 30
0.0
 11
0.3645
 21
1.797
 31
0.0
  0
ARC
  5
757
  8
C50_BASE$0$L
 10
0.105
 20
1.395
 30
0.0
 40
0.02
 50
270.0
 51
0.0
  0
LINE
  5
758
  8
C50_BASE$0$L
 10
0.579
 20
-0.51
 30
0.0
 11
0.579
 21
-1.9375
 31
0.0
  0
LINE
  5
759
  8
C50_BASE$0$L
 10
0.5155
 20
-0.51
 30
0.0
 11
0.5155
 21
-1.827515
 31
0.0
  0
LINE
  5
75A
  8
C50_BASE$0$L
 10
0.3645
 20
-0.51
 30
0.0
 11
0.3645
 21
-1.827515
 31
0.0
  0
LINE
  5
75B
  8
C50_BASE$0$L
 10
0.301
 20
-0.51
 30
0.0
 11
0.301
 21
-1.9375
 31
0.0
  0
LINE
  5
75C
  8
C50_BASE$0$L
 10
0.155
 20
-0.51
 30
0.0
 11
0.155
 21
-1.9375
 31
0.0
  0
LINE
  5
75D
  8
C50_BASE$0$L
 10
0.579
 20
-1.9375
 30
0.0
 11
0.72
 21
-1.9375
 31
0.0
  0
LINE
  5
75E
  8
C50_BASE$0$L
 10
0.301
 20
-1.9375
 30
0.0
 11
0.3645
 21
-1.827515
 31
0.0
  0
LINE
  5
75F
  8
C50_BASE$0$L
 10
0.579
 20
-1.9375
 30
0.0
 11
0.5155
 21
-1.827515
 31
0.0
  0
LINE
  5
760
  8
C50_BASE$0$L
 10
0.301
 20
-1.9375
 30
0.0
 11
0.155
 21
-1.9375
 31
0.0
  0
LINE
  5
761
  8
C50_BASE$0$L
 10
0.125
 20
-1.9075
 30
0.0
 11
0.155
 21
-1.9375
 31
0.0
  0
LINE
  5
762
  8
C50_BASE$0$L
 10
0.5155
 20
-1.797
 30
0.0
 11
0.3645
 21
-1.797
 31
0.0
  0
LINE
  5
763
  8
C50_BASE$0$L
 10
0.125
 20
-0.51
 30
0.0
 11
0.695204
 21
-0.51
 31
0.0
  0
ARC
  5
764
  8
C50_BASE$0$L
 10
0.105
 20
-1.395
 30
0.0
 40
0.02
 50
0.0
 51
90.0
  0
SOLID
  5
765
  8
C50_BASE$0$D
 10
-0.371748
 20
1.44279
 30
0.0
 11
-0.408045
 21
1.425982
 31
0.0
 12
-0.339474
 22
1.325493
 32
0.0
 13
-0.339474
 23
1.325493
 33
0.0
  0
LINE
  5
766
  8
C50_BASE$0$D
 10
-0.389896
 20
1.434386
 30
0.0
 11
-1.092609
 21
2.951982
 31
0.0
  0
LINE
  5
767
  8
C50_BASE$0$D
 10
-1.092609
 20
2.951982
 30
0.0
 11
-1.225138
 21
2.951982
 31
0.0
  0
TEXT
  5
768
  8
C50_BASE$0$D
 10
-2.677478
 20
2.903767
 30
0.0
 40
0.125
  1
50 V-FLANGE
  7
C50_BASE$0$STANDARD
 72
     2
 11
-1.323312
 21
2.966267
 31
0.0
 73
     2
  0
TEXT
  5
769
  8
C50_BASE$0$D
 10
-3.030563
 20
2.905161
 30
0.0
 40
0.09
  1
CAT
  7
C50_BASE$0$STANDARD
 72
     2
 11
-2.790563
 21
2.950161
 31
0.0
 73
     2
  0
ENDBLK
  5
42E
  8
0
  6
CONTINUOUS
 62
     7
  0
BLOCK
  8
0
  2
*D6
 70
     1
 10
0.0
 20
0.0
 30
0.0
  3
*D6
  1

  0
LINE
  5
D0B
  8
0
  6
BYBLOCK
 62
     0
 10
3.359499
 20
0.9998
 30
0.0
 11
5.184765
 21
0.9998
 31
0.0
  0
LINE
  5
D0C
  8
0
  6
BYBLOCK
 62
     0
 10
3.359499
 20
-0.9998
 30
0.0
 11
5.184765
 21
-0.9998
 31
0.0
  0
LINE
  5
D0D
  8
0
  6
BYBLOCK
 62
     0
 10
5.134765
 20
0.8798
 30
0.0
 11
5.134765
 21
0.1525
 31
0.0
  0
LINE
  5
D0E
  8
0
  6
BYBLOCK
 62
     0
 10
5.134765
 20
-0.8798
 30
0.0
 11
5.134765
 21
-0.1525
 31
0.0
  0
SOLID
  5
D0F
  8
0
  6
BYBLOCK
 62
     0
 10
5.114765
 20
0.8798
 30
0.0
 11
5.154765
 21
0.8798
 31
0.0
 12
5.134765
 22
0.9998
 32
0.0
 13
5.134765
 23
0.9998
 33
0.0
  0
SOLID
  5
D10
  8
0
  6
BYBLOCK
 62
     0
 10
5.114765
 20
-0.8798
 30
0.0
 11
5.154765
 21
-0.8798
 31
0.0
 12
5.134765
 22
-0.9998
 32
0.0
 13
5.134765
 23
-0.9998
 33
0.0
  0
TEXT
  5
D11
  8
0
  6
CONTINUOUS
 62
     0
 10
4.916015
 20
-0.0625
 30
0.0
 40
0.125
  1
2.000
  0
POINT
  5
D12
  8
DEFPOINTS
  6
BYBLOCK
 62
     0
 10
3.296999
 20
0.9998
 30
0.0
  0
POINT
  5
D13
  8
DEFPOINTS
  6
BYBLOCK
 62
     0
 10
3.296999
 20
-0.9998
 30
0.0
  0
POINT
  5
D14
  8
DEFPOINTS
  6
BYBLOCK
 62
     0
 10
5.134765
 20
-0.9998
 30
0.0
  0
ENDBLK
  5
D15
  8
0
  0
ENDSEC
  0
SECTION
  2
ENTITIES
  0
POINT
  5
3CA
  8
DEFPOINTS
  6
BYBLOCK
 62
     0
 10
0.0
 20
-0.875
 30
0.0
  0
LINE
  5
3CC
  8
H
 10
-2.25
 20
-0.4375
 30
0.0
 11
1.099877
 21
-0.4375
 31
0.0
  0
LINE
  5
3CD
  8
H
 10
-2.25
 20
0.4375
 30
0.0
 11
1.099877
 21
0.4375
 31
0.0
  0
LINE
  5
3CE
  8
H
 10
1.113997
 20
0.461
 30
0.0
 11
1.099877
 21
0.4375
 31
0.0
  0
LINE
  5
3CF
  8
0
  6
BYBLOCK
 62
     0
 10
5.556783
 20
2.4375
 30
0.0
 11
5.711415
 21
2.4375
 31
0.0
  0
LINE
  5
3D0
  8
L
 10
1.033675
 20
-1.375
 30
0.0
 11
1.35
 21
-1.375
 31
0.0
  0
POINT
  5
3D1
  8
DEFPOINTS
  6
BYBLOCK
 62
     0
 10
3.96
 20
2.4375
 30
0.0
  0
LINE
  5
3D2
  8
L
 10
1.287974
 20
1.375
 30
0.0
 11
1.35
 21
1.375
 31
0.0
  0
LINE
  5
3D3
  8
L
 10
1.38
 20
2.4075
 30
0.0
 11
1.38
 21
1.405
 31
0.0
  0
ARC
  5
3D4
  8
L
 10
1.35
 20
1.405
 30
0.0
 40
0.03
 50
270.0
 51
0.0
  0
LINE
  5
3D5
  8
H
 10
1.55
 20
1.967
 30
0.0
 11
1.38
 21
1.684072
 31
0.0
  0
LINE
  5
3D6
  8
L
 10
1.894283
 20
2.4375
 30
0.0
 11
1.41
 21
2.4375
 31
0.0
  0
ARC
  5
3D7
  8
L
 10
1.41
 20
2.4075
 30
0.0
 40
0.03
 50
90.0
 51
180.0
  0
LINE
  5
3D8
  8
L
 10
1.38
 20
-2.4075
 30
0.0
 11
1.38
 21
-1.405
 31
0.0
  0
LINE
  5
3D9
  8
L
 10
1.894283
 20
-2.4375
 30
0.0
 11
1.41
 21
-2.4375
 31
0.0
  0
ARC
  5
3DA
  8
L
 10
1.41
 20
-2.4075
 30
0.0
 40
0.03
 50
180.0
 51
270.0
  0
LINE
  5
3DB
  8
L
 10
1.32
 20
-1.375
 30
0.0
 11
1.35
 21
-1.375
 31
0.0
  0
ARC
  5
3DC
  8
L
 10
1.35
 20
-1.405
 30
0.0
 40
0.03
 50
0.0
 51
90.0
  0
LINE
  5
3DD
  8
H
 10
1.169979
 20
-1.375
 30
0.0
 11
1.3
 21
-1.158608
 31
0.0
  0
LINE
  5
3DF
  8
L
 10
1.38
 20
1.435934
 30
0.0
 11
1.38
 21
-1.405
 31
0.0
  0
LINE
  5
3E0
  8
H
 10
1.3625
 20
0.461
 30
0.0
 11
1.113997
 21
0.461
 31
0.0
  0
LINE
  5
3E1
  8
H
 10
1.113997
 20
0.461
 30
0.0
 11
1.113997
 21
-0.461
 31
0.0
  0
LINE
  5
3E2
  8
H
 10
1.3625
 20
-0.461
 30
0.0
 11
1.113997
 21
-0.461
 31
0.0
  0
LINE
  5
3E3
  8
H
 10
1.113997
 20
-0.461
 30
0.0
 11
1.099877
 21
-0.4375
 31
0.0
  0
LINE
  5
3E4
  8
H
 10
1.099877
 20
0.4375
 30
0.0
 11
1.099877
 21
-0.4375
 31
0.0
  0
LINE
  5
3E5
  8
H
 10
1.65
 20
1.225
 30
0.0
 11
1.65
 21
1.975
 31
0.0
  0
LINE
  5
3E6
  8
H
 10
1.55
 20
1.233
 30
0.0
 11
1.55
 21
1.967
 31
0.0
  0
LINE
  5
3E7
  8
H
 10
2.019462
 20
1.975
 30
0.0
 11
1.65
 21
1.975
 31
0.0
  0
LINE
  5
3E8
  8
H
 10
1.65
 20
1.967
 30
0.0
 11
1.55
 21
1.967
 31
0.0
  0
LINE
  5
3E9
  8
H
 10
1.55
 20
1.233
 30
0.0
 11
1.38
 21
1.515928
 31
0.0
  0
LINE
  5
3EA
  8
H
 10
2.019462
 20
1.225
 30
0.0
 11
1.65
 21
1.225
 31
0.0
  0
LINE
  5
3EB
  8
H
 10
1.65
 20
1.233
 30
0.0
 11
1.55
 21
1.233
 31
0.0
  0
LINE
  5
3EC
  8
H
 10
1.5
 20
-1.127108
 30
0.0
 11
1.5
 21
-1.752108
 31
0.0
  0
LINE
  5
3ED
  8
H
 10
1.3
 20
-1.158608
 30
0.0
 11
1.3
 21
-1.375
 31
0.0
  0
LINE
  5
3EE
  8
H
 10
2.019462
 20
-1.752108
 30
0.0
 11
1.5
 21
-1.752108
 31
0.0
  0
LINE
  5
3EF
  8
H
 10
2.019462
 20
-1.720608
 30
0.0
 11
1.38
 21
-1.720608
 31
0.0
  0
LINE
  5
3F0
  8
H
 10
2.019462
 20
-1.127108
 30
0.0
 11
1.5
 21
-1.127108
 31
0.0
  0
LINE
  5
3F1
  8
H
 10
2.019462
 20
-1.158608
 30
0.0
 11
1.3
 21
-1.158608
 31
0.0
  0
LINE
  5
3F4
  8
0
  6
BYBLOCK
 62
     0
 10
0.0
 20
1.4375
 30
0.0
 11
0.0
 21
3.940719
 31
0.0
  0
LINE
  5
3F5
  8
0
  6
BYBLOCK
 62
     0
 10
2.4
 20
3.070519
 30
0.0
 11
2.4
 21
3.940719
 31
0.0
  0
LINE
  5
3F6
  8
0
  6
BYBLOCK
 62
     0
 10
0.12
 20
3.890719
 30
0.0
 11
0.880833
 21
3.890719
 31
0.0
  0
LINE
  5
3F7
  8
0
  6
BYBLOCK
 62
     0
 10
2.28
 20
3.890719
 30
0.0
 11
1.519167
 21
3.890719
 31
0.0
  0
SOLID
  5
3F8
  8
0
  6
BYBLOCK
 62
     0
 10
0.12
 20
3.910719
 30
0.0
 11
0.12
 21
3.870719
 31
0.0
 12
0.0
 22
3.890719
 32
0.0
 13
0.0
 23
3.890719
 33
0.0
  0
SOLID
  5
3F9
  8
0
  6
BYBLOCK
 62
     0
 10
2.28
 20
3.910719
 30
0.0
 11
2.28
 21
3.870719
 31
0.0
 12
2.4
 22
3.890719
 32
0.0
 13
2.4
 23
3.890719
 33
0.0
  0
TEXT
  5
3FA
  8
0
  6
BYBLOCK
 62
     0
 10
1.022917
 20
3.828219
 30
0.0
 40
0.125
  1
2.40
 72
     4
 11
1.2
 21
3.890719
 31
0.0
  0
POINT
  5
3FB
  8
DEFPOINTS
  6
BYBLOCK
 62
     0
 10
0.0
 20
1.375
 30
0.0
  0
POINT
  5
3FC
  8
DEFPOINTS
  6
BYBLOCK
 62
     0
 10
2.4
 20
3.008019
 30
0.0
  0
POINT
  5
3FD
  8
DEFPOINTS
  6
BYBLOCK
 62
     0
 10
2.4
 20
3.890719
 30
0.0
  0
LINE
  5
3FE
  8
L
 10
-0.81002
 20
0.823289
 30
0.0
 11
-0.744395
 21
0.823289
 31
0.0
  0
LINE
  5
3FF
  8
L
 10
-0.81002
 20
1.112039
 30
0.0
 11
-0.744395
 21
1.112039
 31
0.0
  0
ARC
  5
400
  8
L
 10
-1.148701
 20
0.938264
 30
0.0
 40
0.114975
 50
0.018858
 51
278.071967
  0
CIRCLE
  5
401
  8
L
 10
-1.148701
 20
0.938264
 30
0.0
 40
0.0525
  0
ARC
  5
402
  8
L
 10
-1.148701
 20
0.938264
 30
0.0
 40
0.114975
 50
0.018858
 51
278.071967
  0
LINE
  5
403
  8
L
 10
-1.445367
 20
0.947579
 30
0.0
 11
-1.445367
 21
0.823289
 31
0.0
  0
LINE
  5
404
  8
L
 10
-1.510992
 20
0.996982
 30
0.0
 11
-1.510992
 21
0.823289
 31
0.0
  0
LINE
  5
405
  8
L
 10
-1.510992
 20
0.823289
 30
0.0
 11
-1.445367
 21
0.823289
 31
0.0
  0
CIRCLE
  5
406
  8
L
 10
-1.396017
 20
0.996982
 30
0.0
 40
0.0525
  0
ARC
  5
407
  8
L
 10
-1.396017
 20
0.996982
 30
0.0
 40
0.114975
 50
269.890544
 51
179.99999
  0
LINE
  5
408
  8
L
 10
-1.445367
 20
0.947579
 30
0.0
 11
-1.396237
 21
0.882008
 31
0.0
  0
LINE
  5
409
  8
L
 10
-0.81002
 20
1.112039
 30
0.0
 11
-0.81002
 21
0.823289
 31
0.0
  0
LINE
  5
40A
  8
L
 10
-0.936564
 20
0.969725
 30
0.0
 11
-0.936275
 21
0.823289
 31
0.0
  0
LINE
  5
40B
  8
L
 10
-1.002189
 20
0.969725
 30
0.0
 11
-1.0019
 21
0.823289
 31
0.0
  0
LINE
  5
40C
  8
L
 10
-1.033726
 20
0.938302
 30
0.0
 11
-1.033688
 21
0.823289
 31
0.0
  0
LINE
  5
40D
  8
L
 10
-1.099336
 20
0.893235
 30
0.0
 11
-1.132556
 21
0.824428
 31
0.0
  0
LINE
  5
40E
  8
L
 10
-1.099336
 20
0.893235
 30
0.0
 11
-1.099313
 21
0.823289
 31
0.0
  0
LINE
  5
40F
  8
L
 10
-1.033726
 20
0.938302
 30
0.0
 11
-1.033688
 21
0.823365
 31
0.0
  0
LINE
  5
410
  8
L
 10
-1.0019
 20
0.823289
 30
0.0
 11
-0.936275
 21
0.823289
 31
0.0
  0
LINE
  5
411
  8
L
 10
-1.099313
 20
0.823289
 30
0.0
 11
-1.033688
 21
0.823289
 31
0.0
  0
ARC
  5
412
  8
L
 10
-0.918675
 20
0.969725
 30
0.0
 40
0.083514
 50
18.846034
 51
180.226252
  0
LINE
  5
413
  8
L
 10
-0.839638
 20
0.996702
 30
0.0
 11
-0.884152
 21
0.971866
 31
0.0
  0
ARC
  5
414
  8
L
 10
-0.910314
 20
0.969725
 30
0.0
 40
0.02625
 50
4.679095
 51
180.226252
  0
ARC
  5
415
  8
L
 10
-0.359794
 20
0.938264
 30
0.0
 40
0.114975
 50
30.701399
 51
270.0
  0
ARC
  5
416
  8
L
 10
-0.601379
 20
0.938264
 30
0.0
 40
0.059063
 50
235.5219
 51
332.233922
  0
LINE
  5
417
  8
L
 10
-0.744395
 20
1.112039
 30
0.0
 11
-0.744395
 21
0.823289
 31
0.0
  0
ARC
  5
418
  8
L
 10
-0.601379
 20
0.938264
 30
0.0
 40
0.114975
 50
14.507251
 51
328.258317
  0
ARC
  5
419
  8
L
 10
-0.601379
 20
0.938264
 30
0.0
 40
0.059063
 50
64.071476
 51
172.253555
  0
LINE
  5
41A
  8
L
 10
-0.575554
 20
0.991381
 30
0.0
 11
-0.659902
 21
0.946225
 31
0.0
  0
LINE
  5
41B
  8
L
 10
-0.490069
 20
0.967065
 30
0.0
 11
-0.634813
 21
0.889577
 31
0.0
  0
LINE
  5
41C
  8
L
 10
-0.549117
 20
0.910749
 30
0.0
 11
-0.503601
 21
0.877777
 31
0.0
  0
LINE
  5
41D
  8
L
 10
-0.216084
 20
0.879201
 30
0.0
 11
-0.245002
 21
0.823289
 31
0.0
  0
LINE
  5
41E
  8
L
 10
-0.359794
 20
0.823289
 30
0.0
 11
-0.245002
 21
0.823289
 31
0.0
  0
LINE
  5
41F
  8
L
 10
-0.359794
 20
0.879201
 30
0.0
 11
-0.216084
 21
0.879201
 31
0.0
  0
LINE
  5
420
  8
L
 10
-0.260933
 20
0.996966
 30
0.0
 11
-0.312921
 21
0.974199
 31
0.0
  0
ARC
  5
421
  8
L
 10
-0.359794
 20
0.938264
 30
0.0
 40
0.059063
 50
37.476042
 51
270.0
  0
TEXT
  5
422
  8
0
 10
-1.402525
 20
0.62065
 30
0.0
 40
0.13125
  1
C50-20SM2
  0
LINE
  5
6C1
  8
D
 10
3.391557
 20
2.4375
 30
0.0
 11
6.046244
 21
2.4375
 31
0.0
  0
LINE
  5
6C2
  8
D
 10
3.594715
 20
-2.43195
 30
0.0
 11
6.039008
 21
-2.43195
 31
0.0
  0
LINE
  5
6C3
  8
L
 10
1.894283
 20
2.4375
 30
0.0
 11
2.36
 21
2.4375
 31
0.0
  0
LINE
  5
6C4
  8
L
 10
3.337
 20
-0.959799
 30
0.0
 11
3.337
 21
0.0
 31
0.0
  0
POLYLINE
  5
6C5
  8
L
 66
     1
 10
0.0
 20
0.0
 30
0.0
  0
VERTEX
  5
F6D
  8
L
 10
2.4
 20
-0.7498
 30
0.0
  0
VERTEX
  5
F6E
  8
L
 10
2.4
 20
0.0
 30
0.0
  0
SEQEND
  5
F6F
  8
L
  0
LINE
  5
6C9
  8
L
 10
2.436468
 20
0.9698
 30
0.0
 11
2.436468
 21
-0.961247
 31
0.0
  0
LINE
  5
6CA
  8
H
 10
2.37
 20
0.9898
 30
0.0
 11
2.37
 21
-0.9898
 31
0.0
  0
LINE
  5
6CB
  8
L
 10
2.4
 20
2.397499
 30
0.0
 11
2.4
 21
0.7498
 31
0.0
  0
POLYLINE
  5
6CC
  8
L
 66
     1
 10
0.0
 20
0.0
 30
0.0
  0
VERTEX
  5
F70
  8
L
 10
2.4
 20
0.7498
 30
0.0
  0
VERTEX
  5
F71
  8
L
 10
2.4
 20
0.0
 30
0.0
  0
SEQEND
  5
F72
  8
L
  0
LINE
  5
6D0
  8
H
 10
3.088104
 20
0.0
 30
0.0
 11
3.087058
 21
0.515
 31
0.0
  0
LINE
  5
6D1
  8
L
 10
3.337
 20
0.9598
 30
0.0
 11
3.337
 21
0.0
 31
0.0
  0
ARC
  5
6D2
  8
L
 10
3.296999
 20
0.959799
 30
0.0
 40
0.040001
 50
0.001327
 51
90.0
  0
LINE
  5
6D3
  8
D
 10
2.41
 20
2.4375
 30
0.0
 11
3.291356
 21
2.4375
 31
0.0
  0
ARC
  5
6D4
  8
L
 10
2.359999
 20
2.397499
 30
0.0
 40
0.040001
 50
0.0
 51
89.998673
  0
LINE
  5
6D5
  8
D
 10
2.28
 20
3.322432
 30
0.0
 11
2.173367
 21
3.322432
 31
0.0
  0
SOLID
  5
6D6
  8
D
 10
3.457
 20
3.342432
 30
0.0
 11
3.457
 21
3.302432
 31
0.0
 12
3.337
 22
3.322432
 32
0.0
 13
3.337
 23
3.322432
 33
0.0
  0
SOLID
  5
6D7
  8
D
 10
2.28
 20
3.342432
 30
0.0
 11
2.28
 21
3.302432
 31
0.0
 12
2.4
 22
3.322432
 32
0.0
 13
2.4
 23
3.322432
 33
0.0
  0
TEXT
  5
6D8
  8
D
 10
2.73736
 20
3.259932
 30
0.0
 40
0.125
  1
.94
 72
     4
 11
2.86236
 21
3.322432
 31
0.0
  0
LINE
  5
6D9
  8
D
 10
3.457
 20
3.322432
 30
0.0
 11
3.577
 21
3.322432
 31
0.0
  0
LINE
  5
6DA
  8
0
 10
6.223578
 20
-2.43195
 30
0.0
 11
6.223578
 21
-0.1525
 31
0.0
  0
LINE
  5
6DB
  8
0
 10
5.900484
 20
-2.43195
 30
0.0
 11
6.261342
 21
-2.43195
 31
0.0
  0
SOLID
  5
6DC
  8
0
 10
6.203578
 20
-2.31195
 30
0.0
 11
6.243578
 21
-2.31195
 31
0.0
 12
6.223578
 22
-2.43195
 32
0.0
 13
6.223578
 23
-2.43195
 33
0.0
  0
LINE
  5
6DD
  8
0
 10
6.223578
 20
2.4375
 30
0.0
 11
6.223578
 21
0.1525
 31
0.0
  0
TEXT
  5
6DF
  8
0
 10
6.036078
 20
-0.0625
 30
0.0
 40
0.125
  1
4.88
 72
     4
 11
6.223578
 21
0.0
 31
0.0
  0
LINE
  5
6E0
  8
0
 10
5.947272
 20
2.4375
 30
0.0
 11
6.268578
 21
2.4375
 31
0.0
  0
SOLID
  5
6E1
  8
0
 10
6.203578
 20
2.3175
 30
0.0
 11
6.243578
 21
2.3175
 31
0.0
 12
6.223578
 22
2.4375
 32
0.0
 13
6.223578
 23
2.4375
 33
0.0
  0
LINE
  5
6E2
  8
H
 10
1.837
 20
0.461
 30
0.0
 11
3.087079
 21
0.461
 31
0.0
  0
LINE
  5
6E3
  8
H
 10
1.837
 20
0.5
 30
0.0
 11
3.087088
 21
0.5
 31
0.0
  0
LINE
  5
6E4
  8
H
 10
1.837
 20
0.5
 30
0.0
 11
1.837
 21
-0.5
 31
0.0
  0
LINE
  5
6E5
  8
H
 10
2.37
 20
1.036268
 30
0.0
 11
2.37
 21
0.9898
 31
0.0
  0
LINE
  5
6E6
  8
H
 10
2.37
 20
1.036268
 30
0.0
 11
2.4
 21
1.066268
 31
0.0
  0
LINE
  5
6E7
  8
H
 10
2.39
 20
0.9698
 30
0.0
 11
2.436468
 21
0.9698
 31
0.0
  0
ARC
  5
6E8
  8
H
 10
2.39
 20
0.9898
 30
0.0
 40
0.02
 50
180.0
 51
270.0
  0
LINE
  5
6E9
  8
H
 10
2.37
 20
0.9998
 30
0.0
 11
2.37
 21
0.9898
 31
0.0
  0
LINE
  5
6EA
  8
H
 10
2.436468
 20
0.9698
 30
0.0
 11
2.466468
 21
0.9998
 31
0.0
  0
LINE
  5
6EB
  8
L
 10
2.466468
 20
0.9998
 30
0.0
 11
3.297
 21
0.9998
 31
0.0
  0
LINE
  5
6F4
  8
D
 10
3.337
 20
1.065201
 30
0.0
 11
3.337
 21
3.383461
 31
0.0
  0
LINE
  5
6F5
  8
L
 10
2.4
 20
-2.397499
 30
0.0
 11
2.4
 21
-0.7498
 31
0.0
  0
LINE
  5
6F6
  8
L
 10
1.894283
 20
-2.4375
 30
0.0
 11
2.36
 21
-2.4375
 31
0.0
  0
ARC
  5
6F7
  8
L
 10
2.359999
 20
-2.397499
 30
0.0
 40
0.040001
 50
270.001327
 51
0.0
  0
ARC
  5
6F8
  8
L
 10
3.296999
 20
-0.959799
 30
0.0
 40
0.040001
 50
270.0
 51
0.0
  0
LINE
  5
6F9
  8
L
 10
2.466468
 20
-0.9998
 30
0.0
 11
3.297
 21
-0.9998
 31
0.0
  0
LINE
  5
6FA
  8
H
 10
2.37
 20
-1.036268
 30
0.0
 11
2.4
 21
-1.066268
 31
0.0
  0
LINE
  5
6FB
  8
H
 10
2.39
 20
-0.9698
 30
0.0
 11
2.436468
 21
-0.9698
 31
0.0
  0
LINE
  5
6FC
  8
H
 10
2.37
 20
-1.036268
 30
0.0
 11
2.37
 21
-0.9898
 31
0.0
  0
ARC
  5
6FD
  8
H
 10
2.39
 20
-0.9898
 30
0.0
 40
0.02
 50
90.0
 51
180.0
  0
LINE
  5
6FE
  8
H
 10
2.37
 20
-0.9998
 30
0.0
 11
2.37
 21
-0.9898
 31
0.0
  0
LINE
  5
6FF
  8
H
 10
2.436468
 20
-0.9698
 30
0.0
 11
2.466468
 21
-0.9998
 31
0.0
  0
DIMENSION
  5
700
  8
D
  2
*D6
 10
5.134765
 20
-0.9998
 30
0.0
 11
5.134765
 21
0.0
 31
0.0
  1
{2.000}
 13
3.296999
 23
0.9998
 33
0.0
 14
3.296999
 24
-0.9998
 34
0.0
 50
90.0
  0
LINE
  5
701
  8
D
 10
2.486601
 20
-2.43195
 30
0.0
 11
2.769571
 21
-2.43195
 31
0.0
  0
LINE
  5
702
  8
H
 10
1.837
 20
-0.5
 30
0.0
 11
3.087088
 21
-0.5
 31
0.0
  0
LINE
  5
703
  8
H
 10
1.837
 20
-0.461
 30
0.0
 11
3.087079
 21
-0.461
 31
0.0
  0
LINE
  5
704
  8
H
 10
3.088104
 20
0.0
 30
0.0
 11
3.087058
 21
-0.515
 31
0.0
  0
LINE
  5
705
  8
H
 10
3.235675
 20
-0.515
 30
0.0
 11
3.337
 21
-0.5735
 31
0.0
  0
LINE
  5
706
  8
H
 10
3.235675
 20
-0.515
 30
0.0
 11
3.236721
 21
0.0
 31
0.0
  0
LINE
  5
707
  8
H
 10
3.087058
 20
-0.515
 30
0.0
 11
3.235675
 21
-0.515
 31
0.0
  0
LINE
  5
708
  8
H
 10
3.235675
 20
0.515
 30
0.0
 11
3.236721
 21
0.0
 31
0.0
  0
LINE
  5
709
  8
H
 10
3.087058
 20
0.515
 30
0.0
 11
3.235675
 21
0.515
 31
0.0
  0
LINE
  5
70A
  8
H
 10
3.235675
 20
0.515
 30
0.0
 11
3.337
 21
0.5735
 31
0.0
  0
LINE
  5
70B
  8
H
 10
2.4
 20
-1.158608
 30
0.0
 11
2.019462
 21
-1.158608
 31
0.0
  0
LINE
  5
70C
  8
H
 10
2.4
 20
-1.127108
 30
0.0
 11
2.019462
 21
-1.127108
 31
0.0
  0
LINE
  5
70D
  8
H
 10
2.4
 20
-1.720608
 30
0.0
 11
2.019462
 21
-1.720608
 31
0.0
  0
LINE
  5
70E
  8
H
 10
2.4
 20
-1.752108
 30
0.0
 11
2.019462
 21
-1.752108
 31
0.0
  0
LINE
  5
70F
  8
D
 10
2.923833
 20
-2.43195
 30
0.0
 11
3.594715
 21
-2.43195
 31
0.0
  0
LINE
  5
710
  8
H
 10
1.837
 20
0.461
 30
0.0
 11
1.3625
 21
0.461
 31
0.0
  0
LINE
  5
711
  8
H
 10
1.837
 20
-0.461
 30
0.0
 11
1.3625
 21
-0.461
 31
0.0
  0
LINE
  5
712
  8
H
 10
2.4
 20
1.975
 30
0.0
 11
2.019462
 21
1.975
 31
0.0
  0
LINE
  5
713
  8
H
 10
2.4
 20
1.225
 30
0.0
 11
2.019462
 21
1.225
 31
0.0
  0
LINE
  5
714
  8
D
 10
2.4
 20
2.482733
 30
0.0
 11
2.4
 21
3.365139
 31
0.0
  0
LINE
  5
715
  8
D
 10
2.486601
 20
-2.43195
 30
0.0
 11
3.457542
 21
-2.43195
 31
0.0
  0
LINE
  5
BD8
  8
C50_1$0$L
 10
0.72
 20
-1.9375
 30
0.0
 11
0.75
 21
-1.9075
 31
0.0
  0
LINE
  5
BD9
  8
C50_1$0$L
 10
0.78
 20
1.375
 30
0.0
 11
1.287974
 21
1.375
 31
0.0
  0
ARC
  5
BDA
  8
C50_1$0$L
 10
0.78
 20
1.405
 30
0.0
 40
0.03
 50
180.0
 51
270.0
  0
LINE
  5
BDB
  8
C50_1$0$L
 10
0.75
 20
0.0
 30
0.0
 11
0.75
 21
1.907502
 31
0.0
  0
LINE
  5
BDC
  8
C50_1$0$L
 10
0.72
 20
0.51
 30
0.0
 11
0.72
 21
1.937502
 31
0.0
  0
LINE
  5
BDD
  8
C50_1$0$L
 10
0.72
 20
1.937502
 30
0.0
 11
0.75
 21
1.907502
 31
0.0
  0
LINE
  5
BDE
  8
C50_1$0$L
 10
0.75
 20
0.0
 30
0.0
 11
0.75
 21
-1.907502
 31
0.0
  0
LINE
  5
BDF
  8
C50_1$0$L
 10
0.72
 20
-0.51
 30
0.0
 11
0.72
 21
-1.937502
 31
0.0
  0
POINT
  5
BE0
  8
DEFPOINTS
  6
BYBLOCK
 62
     0
 10
0.75
 20
-1.907502
 30
0.0
  0
LINE
  5
BE1
  8
C50_1$0$L
 10
0.72
 20
-1.937502
 30
0.0
 11
0.75
 21
-1.907502
 31
0.0
  0
LINE
  5
BE2
  8
C50_1$0$L
 10
0.78
 20
-1.375
 30
0.0
 11
1.287974
 21
-1.375
 31
0.0
  0
ARC
  5
BE3
  8
C50_1$0$L
 10
0.78
 20
-1.405
 30
0.0
 40
0.03
 50
90.0
 51
180.0
  0
LINE
  5
BE5
  8
C50_1$0$L
 10
0.695204
 20
0.51
 30
0.0
 11
0.75
 21
0.51
 31
0.0
  0
LINE
  5
BE6
  8
C50_1$0$L
 10
0.695204
 20
-0.51
 30
0.0
 11
0.75
 21
-0.51
 31
0.0
  0
LINE
  5
BE7
  8
C50_BASE$0$L
 10
0.0
 20
0.0
 30
0.0
 11
0.0
 21
-1.375
 31
0.0
  0
LINE
  5
BE8
  8
C50_BASE$0$L
 10
0.0
 20
-1.375
 30
0.0
 11
-3.897317
 21
-0.806641
 31
0.0
  0
LINE
  5
BE9
  8
C50_BASE$0$L
 10
0.0
 20
-1.375
 30
0.0
 11
0.105
 21
-1.375
 31
0.0
  0
ARC
  5
BEA
  8
C50_BASE$0$L
 10
-3.88241
 20
0.69
 30
0.0
 40
0.11759
 50
97.282949
 51
180.0
  0
LINE
  5
BEB
  8
C50_BASE$0$H
 10
-4.0
 20
0.5625
 30
0.0
 11
-3.918594
 21
0.5155
 31
0.0
  0
LINE
  5
BEC
  8
C50_BASE$0$H
 10
-4.0
 20
-0.5625
 30
0.0
 11
-3.918594
 21
-0.5155
 31
0.0
  0
ARC
  5
BED
  8
C50_BASE$0$L
 10
-3.88241
 20
-0.69
 30
0.0
 40
0.11759
 50
180.0
 51
262.717051
  0
LINE
  5
BEE
  8
C50_BASE$0$L
 10
-4.0
 20
-0.69
 30
0.0
 11
-4.0
 21
0.69
 31
0.0
  0
LINE
  5
BEF
  8
C50_BASE$0$L
 10
0.0
 20
1.375
 30
0.0
 11
-3.897317
 21
0.806641
 31
0.0
  0
LINE
  5
BF0
  8
C50_BASE$0$H
 10
-3.75
 20
-0.5
 30
0.0
 11
-2.25
 21
-0.5
 31
0.0
  0
LINE
  5
BF1
  8
C50_BASE$0$H
 10
-3.75
 20
-0.4375
 30
0.0
 11
-2.25
 21
-0.4375
 31
0.0
  0
LINE
  5
BF2
  8
C50_BASE$0$H
 10
-3.75
 20
0.4375
 30
0.0
 11
-2.25
 21
0.4375
 31
0.0
  0
LINE
  5
BF3
  8
C50_BASE$0$H
 10
-3.75
 20
0.5
 30
0.0
 11
-2.25
 21
0.5
 31
0.0
  0
LINE
  5
BF4
  8
C50_BASE$0$H
 10
-3.918594
 20
0.5155
 30
0.0
 11
-3.918594
 21
-0.0025
 31
0.0
  0
LINE
  5
BF5
  8
C50_BASE$0$H
 10
-3.75
 20
0.0
 30
0.0
 11
-3.75
 21
0.5155
 31
0.0
  0
LINE
  5
BF6
  8
C50_BASE$0$H
 10
-3.75
 20
0.0
 30
0.0
 11
-3.75
 21
-0.5155
 31
0.0
  0
LINE
  5
BF7
  8
C50_BASE$0$H
 10
-3.918594
 20
-0.5155
 30
0.0
 11
-3.918594
 21
0.0025
 31
0.0
  0
LINE
  5
BF8
  8
C50_BASE$0$H
 10
-3.918594
 20
-0.5155
 30
0.0
 11
-3.75
 21
-0.5155
 31
0.0
  0
LINE
  5
BF9
  8
C50_BASE$0$H
 10
-3.918594
 20
0.5155
 30
0.0
 11
-3.75
 21
0.5155
 31
0.0
  0
LINE
  5
BFA
  8
C50_BASE$0$H
 10
-2.25
 20
0.5
 30
0.0
 11
-2.25
 21
-0.5
 31
0.0
  0
LINE
  5
BFB
  8
C50_BASE$0$L
 10
0.0
 20
0.0
 30
0.0
 11
0.0
 21
1.375
 31
0.0
  0
CIRCLE
  5
BFC
  8
C50_BASE$0$L
 10
0.44
 20
0.0
 30
0.0
 40
0.1875
  0
LINE
  5
BFD
  8
C50_BASE$0$L
 10
0.125
 20
0.51
 30
0.0
 11
0.695204
 21
0.51
 31
0.0
  0
LINE
  5
BFE
  8
C50_BASE$0$L
 10
0.0
 20
1.375
 30
0.0
 11
0.105
 21
1.375
 31
0.0
  0
POINT
  5
BFF
  8
DEFPOINTS
  6
BYBLOCK
 62
     0
 10
0.0
 20
1.375
 30
0.0
  0
POINT
  5
C00
  8
DEFPOINTS
  6
BYBLOCK
 62
     0
 10
0.0
 20
-1.375
 30
0.0
  0
POINT
  5
C01
  8
DEFPOINTS
  6
BYBLOCK
 62
     0
 10
0.0
 20
1.375
 30
0.0
  0
LINE
  5
C02
  8
C50_BASE$0$L
 10
0.125
 20
-1.9075
 30
0.0
 11
0.125
 21
1.9075
 31
0.0
  0
LINE
  5
C03
  8
C50_BASE$0$L
 10
0.5155
 20
0.51
 30
0.0
 11
0.5155
 21
1.827515
 31
0.0
  0
LINE
  5
C04
  8
C50_BASE$0$L
 10
0.3645
 20
0.51
 30
0.0
 11
0.3645
 21
1.827515
 31
0.0
  0
LINE
  5
C05
  8
C50_BASE$0$L
 10
0.579
 20
0.51
 30
0.0
 11
0.579
 21
1.9375
 31
0.0
  0
LINE
  5
C06
  8
C50_BASE$0$L
 10
0.301
 20
0.51
 30
0.0
 11
0.301
 21
1.9375
 31
0.0
  0
LINE
  5
C07
  8
C50_BASE$0$L
 10
0.579
 20
1.9375
 30
0.0
 11
0.5155
 21
1.827515
 31
0.0
  0
LINE
  5
C08
  8
C50_BASE$0$L
 10
0.301
 20
1.9375
 30
0.0
 11
0.3645
 21
1.827515
 31
0.0
  0
LINE
  5
C09
  8
C50_BASE$0$L
 10
0.579
 20
1.9375
 30
0.0
 11
0.72
 21
1.9375
 31
0.0
  0
LINE
  5
C0A
  8
C50_BASE$0$L
 10
0.301
 20
1.9375
 30
0.0
 11
0.155
 21
1.9375
 31
0.0
  0
LINE
  5
C0B
  8
C50_BASE$0$L
 10
0.155
 20
0.51
 30
0.0
 11
0.155
 21
1.9375
 31
0.0
  0
LINE
  5
C0C
  8
C50_BASE$0$L
 10
0.125
 20
1.9075
 30
0.0
 11
0.155
 21
1.9375
 31
0.0
  0
LINE
  5
C0D
  8
C50_BASE$0$L
 10
0.5155
 20
1.797
 30
0.0
 11
0.3645
 21
1.797
 31
0.0
  0
ARC
  5
C0E
  8
C50_BASE$0$L
 10
0.105
 20
1.395
 30
0.0
 40
0.02
 50
270.0
 51
0.0
  0
LINE
  5
C0F
  8
C50_BASE$0$L
 10
0.579
 20
-0.51
 30
0.0
 11
0.579
 21
-1.9375
 31
0.0
  0
LINE
  5
C10
  8
C50_BASE$0$L
 10
0.5155
 20
-0.51
 30
0.0
 11
0.5155
 21
-1.827515
 31
0.0
  0
LINE
  5
C11
  8
C50_BASE$0$L
 10
0.3645
 20
-0.51
 30
0.0
 11
0.3645
 21
-1.827515
 31
0.0
  0
LINE
  5
C12
  8
C50_BASE$0$L
 10
0.301
 20
-0.51
 30
0.0
 11
0.301
 21
-1.9375
 31
0.0
  0
LINE
  5
C13
  8
C50_BASE$0$L
 10
0.155
 20
-0.51
 30
0.0
 11
0.155
 21
-1.9375
 31
0.0
  0
LINE
  5
C14
  8
C50_BASE$0$L
 10
0.579
 20
-1.9375
 30
0.0
 11
0.72
 21
-1.9375
 31
0.0
  0
LINE
  5
C15
  8
C50_BASE$0$L
 10
0.301
 20
-1.9375
 30
0.0
 11
0.3645
 21
-1.827515
 31
0.0
  0
LINE
  5
C16
  8
C50_BASE$0$L
 10
0.579
 20
-1.9375
 30
0.0
 11
0.5155
 21
-1.827515
 31
0.0
  0
LINE
  5
C17
  8
C50_BASE$0$L
 10
0.301
 20
-1.9375
 30
0.0
 11
0.155
 21
-1.9375
 31
0.0
  0
LINE
  5
C18
  8
C50_BASE$0$L
 10
0.125
 20
-1.9075
 30
0.0
 11
0.155
 21
-1.9375
 31
0.0
  0
LINE
  5
C19
  8
C50_BASE$0$L
 10
0.5155
 20
-1.797
 30
0.0
 11
0.3645
 21
-1.797
 31
0.0
  0
LINE
  5
C1A
  8
C50_BASE$0$L
 10
0.125
 20
-0.51
 30
0.0
 11
0.695204
 21
-0.51
 31
0.0
  0
ARC
  5
C1B
  8
C50_BASE$0$L
 10
0.105
 20
-1.395
 30
0.0
 40
0.02
 50
0.0
 51
90.0
  0
SOLID
  5
C1C
  8
C50_BASE$0$D
 10
-0.371748
 20
1.44279
 30
0.0
 11
-0.408045
 21
1.425982
 31
0.0
 12
-0.339474
 22
1.325493
 32
0.0
 13
-0.339474
 23
1.325493
 33
0.0
  0
LINE
  5
C1D
  8
C50_BASE$0$D
 10
-0.389896
 20
1.434386
 30
0.0
 11
-1.092609
 21
2.951982
 31
0.0
  0
LINE
  5
C1E
  8
C50_BASE$0$D
 10
-1.092609
 20
2.951982
 30
0.0
 11
-1.225138
 21
2.951982
 31
0.0
  0
TEXT
  5
C1F
  8
C50_BASE$0$D
 10
-2.677478
 20
2.903767
 30
0.0
 40
0.125
  1
50 V-FLANGE
  7
C50_BASE$0$STANDARD
 72
     2
 11
-1.323312
 21
2.966267
 31
0.0
 73
     2
  0
TEXT
  5
C20
  8
C50_BASE$0$D
 10
-3.030563
 20
2.905161
 30
0.0
 40
0.09
  1
CAT
  7
C50_BASE$0$STANDARD
 72
     2
 11
-2.790563
 21
2.950161
 31
0.0
 73
     2
  0
POLYLINE
  5
DF6
  8
H
 66
     1
 10
0.0
 20
0.0
 30
0.0
  0
VERTEX
  5
F73
  8
H
 10
3.304213
 20
0.5
 30
0.0
  0
VERTEX
  5
F74
  8
H
 10
3.304213
 20
-0.5
 30
0.0
  0
SEQEND
  5
F75
  8
H
  0
POLYLINE
  5
DF7
  8
L
 66
     1
 10
0.0
 20
0.0
 30
0.0
  0
VERTEX
  5
F76
  8
L
 10
4.024213
 20
-1.25
 30
0.0
  0
VERTEX
  5
F77
  8
L
 10
4.024213
 20
0.0
 30
0.0
  0
SEQEND
  5
F78
  8
L
  0
POLYLINE
  5
DF8
  8
L
 66
     1
 10
0.0
 20
0.0
 30
0.0
  0
VERTEX
  5
F79
  8
L
 10
3.454213
 20
-1.25
 30
0.0
  0
VERTEX
  5
F7A
  8
L
 10
3.454213
 20
0.0
 30
0.0
  0
SEQEND
  5
F7B
  8
L
  0
POLYLINE
  5
DF9
  8
L
 66
     1
 10
0.0
 20
0.0
 30
0.0
  0
VERTEX
  5
F7C
  8
L
 10
3.424213
 20
-0.25
 30
0.0
  0
VERTEX
  5
F7D
  8
L
 10
3.424213
 20
0.0
 30
0.0
  0
SEQEND
  5
F7E
  8
L
  0
POLYLINE
  5
DFA
  8
L
 66
     1
 10
0.0
 20
0.0
 30
0.0
  0
VERTEX
  5
F7F
  8
L
 10
3.424213
 20
0.25
 30
0.0
  0
VERTEX
  5
F80
  8
L
 10
3.424213
 20
0.0
 30
0.0
  0
SEQEND
  5
F81
  8
L
  0
POLYLINE
  5
DFB
  8
L
 66
     1
 10
0.0
 20
0.0
 30
0.0
  0
VERTEX
  5
F82
  8
L
 10
3.454213
 20
1.25
 30
0.0
  0
VERTEX
  5
F83
  8
L
 10
3.454213
 20
0.0
 30
0.0
  0
SEQEND
  5
F84
  8
L
  0
POLYLINE
  5
DFC
  8
L
 66
     1
 10
0.0
 20
0.0
 30
0.0
  0
VERTEX
  5
F85
  8
L
 10
4.024213
 20
1.25
 30
0.0
  0
VERTEX
  5
F86
  8
L
 10
4.024213
 20
0.0
 30
0.0
  0
SEQEND
  5
F87
  8
L
  0
LINE
  5
DFD
  8
H
 10
2.114213
 20
0.0
 30
0.0
 11
2.114213
 21
0.461
 31
0.0
  0
LINE
  5
DFE
  8
H
 10
2.174213
 20
0.5
 30
0.0
 11
3.424213
 21
0.5
 31
0.0
  0
LINE
  5
DFF
  8
L
 10
3.424213
 20
0.25
 30
0.0
 11
3.424213
 21
1.22
 31
0.0
  0
LINE
  5
E00
  8
L
 10
3.424213
 20
1.22
 30
0.0
 11
3.454213
 21
1.25
 31
0.0
  0
LINE
  5
E01
  8
L
 10
3.454213
 20
1.25
 30
0.0
 11
4.024213
 21
1.25
 31
0.0
  0
LINE
  5
E02
  8
L
 10
4.024213
 20
1.25
 30
0.0
 11
4.054213
 21
1.22
 31
0.0
  0
LINE
  5
E03
  8
L
 10
4.054213
 20
1.22
 30
0.0
 11
4.054213
 21
0.0
 31
0.0
  0
LINE
  5
E04
  8
H
 10
2.114213
 20
0.0
 30
0.0
 11
2.114213
 21
-0.461
 31
0.0
  0
LINE
  5
E05
  8
H
 10
2.174213
 20
-0.5
 30
0.0
 11
3.424213
 21
-0.5
 31
0.0
  0
LINE
  5
E06
  8
L
 10
3.424213
 20
-0.25
 30
0.0
 11
3.424213
 21
-1.22
 31
0.0
  0
LINE
  5
E07
  8
L
 10
3.424213
 20
-1.22
 30
0.0
 11
3.454213
 21
-1.25
 31
0.0
  0
LINE
  5
E08
  8
L
 10
3.454213
 20
-1.25
 30
0.0
 11
4.024213
 21
-1.25
 31
0.0
  0
LINE
  5
E09
  8
L
 10
4.024213
 20
-1.25
 30
0.0
 11
4.054213
 21
-1.22
 31
0.0
  0
LINE
  5
E0A
  8
L
 10
4.054213
 20
-1.22
 30
0.0
 11
4.054213
 21
0.0
 31
0.0
  0
LINE
  5
E0B
  8
H
 10
2.174213
 20
-0.5
 30
0.0
 11
2.174213
 21
0.0
 31
0.0
  0
LINE
  5
E0C
  8
H
 10
2.174213
 20
0.5
 30
0.0
 11
2.174213
 21
0.0
 31
0.0
  0
INSERT
  5
E0D
  8
L
  2
HEX_LS
 10
4.054213
 20
0.0
 30
0.0
  0
LINE
  5
E0E
  8
H
 10
2.114213
 20
0.461
 30
0.0
 11
3.304213
 21
0.461
 31
0.0
  0
LINE
  5
E0F
  8
H
 10
2.114213
 20
-0.461
 30
0.0
 11
3.304213
 21
-0.461
 31
0.0
  0
LINE
  5
E10
  8
H
 10
2.114213
 20
0.461
 30
0.0
 11
2.174213
 21
0.5
 31
0.0
  0
LINE
  5
E11
  8
H
 10
2.114213
 20
-0.461
 30
0.0
 11
2.174213
 21
-0.5
 31
0.0
  0
INSERT
  5
E12
  8
DIM_ATT
 66
     1
  2
ATT_BLK
 10
14.452905
 20
9.4008
 30
0.0
  0
ATTRIB
  5
E13
  8
DIM_ATT
 10
14.452905
 20
9.5358
 30
0.0
 40
0.09
  1
HOR
  2
TYPE
 70
     1
  0
ATTRIB
  5
E14
  8
DIM_ATT
 10
14.452905
 20
9.4008
 30
0.0
 40
0.09
  1
.38
  2
A1
 70
     1
  0
ATTRIB
  5
E15
  8
DIM_ATT
 10
14.452905
 20
9.2658
 30
0.0
 40
0.09
  1
5.957400,7.800800
  2
A2
 70
     1
  0
ATTRIB
  5
E16
  8
DIM_ATT
 10
14.452905
 20
9.1308
 30
0.0
 40
0.09
  1
6.337400,7.707050
  2
A3
 70
     1
  0
ATTRIB
  5
E17
  8
DIM_ATT
 10
14.452905
 20
8.9958
 30
0.0
 40
0.09
  1
1.000000,9.098900
  2
A4
 70
     1
  0
ATTRIB
  5
E18
  8
DIM_ATT
 10
14.452905
 20
8.8608
 30
0.0
 40
0.09
  1

  2
A5
 70
     1
  0
ATTRIB
  5
E19
  8
DIM_ATT
 10
14.452905
 20
8.7258
 30
0.0
 40
0.09
  1
DIMFIX
  2
A6
 70
     1
  0
ATTRIB
  5
E1A
  8
DIM_ATT
 10
14.452905
 20
8.5908
 30
0.0
 40
0.09
  1
0
  2
A7
 70
     1
  0
ATTRIB
  5
E1B
  8
DIM_ATT
 10
14.452905
 20
8.4558
 30
0.0
 40
0.09
  1
0
  2
A8
 70
     1
  0
SEQEND
  5
E1C
  8
DIM_ATT
  0
INSERT
  5
E1D
  8
DIM_ATT
 66
     1
  2
ATT_BLK
 10
15.412905
 20
8.57655
 30
0.0
  0
ATTRIB
  5
E1E
  8
DIM_ATT
 10
15.412905
 20
8.71155
 30
0.0
 40
0.09
  1
HOR
  2
TYPE
 70
     1
  0
ATTRIB
  5
E1F
  8
DIM_ATT
 10
15.412905
 20
8.57655
 30
0.0
 40
0.09
  1
.16
  2
A1
 70
     1
  0
ATTRIB
  5
E20
  8
DIM_ATT
 10
15.412905
 20
8.44155
 30
0.0
 40
0.09
  1
7.077400,7.006550
  2
A2
 70
     1
  0
ATTRIB
  5
E21
  8
DIM_ATT
 10
15.412905
 20
8.30655
 30
0.0
 40
0.09
  1
6.917400,6.976550
  2
A3
 70
     1
  0
ATTRIB
  5
E22
  8
DIM_ATT
 10
15.412905
 20
8.17155
 30
0.0
 40
0.09
  1
1.000000,6.010300
  2
A4
 70
     1
  0
ATTRIB
  5
E23
  8
DIM_ATT
 10
15.412905
 20
8.03655
 30
0.0
 40
0.09
  1

  2
A5
 70
     1
  0
ATTRIB
  5
E24
  8
DIM_ATT
 10
15.412905
 20
7.90155
 30
0.0
 40
0.09
  1
DIMFIX
  2
A6
 70
     1
  0
ATTRIB
  5
E25
  8
DIM_ATT
 10
15.412905
 20
7.76655
 30
0.0
 40
0.09
  1
0
  2
A7
 70
     1
  0
ATTRIB
  5
E26
  8
DIM_ATT
 10
15.412905
 20
7.63155
 30
0.0
 40
0.09
  1
0
  2
A8
 70
     1
  0
SEQEND
  5
E27
  8
DIM_ATT
  0
INSERT
  5
E28
  8
DIM_ATT
 66
     1
  2
ATT_BLK
 10
14.452905
 20
8.5028
 30
0.0
  0
ATTRIB
  5
E29
  8
DIM_ATT
 10
14.452905
 20
8.6378
 30
0.0
 40
0.09
  1
HOR
  2
TYPE
 70
     1
  0
ATTRIB
  5
E2A
  8
DIM_ATT
 10
14.452905
 20
8.5028
 30
0.0
 40
0.09
  1
1.12
  2
A1
 70
     1
  0
ATTRIB
  5
E2B
  8
DIM_ATT
 10
14.452905
 20
8.3678
 30
0.0
 40
0.09
  1
5.957400,6.902800
  2
A2
 70
     1
  0
ATTRIB
  5
E2C
  8
DIM_ATT
 10
14.452905
 20
8.2328
 30
0.0
 40
0.09
  1
7.077400,7.006550
  2
A3
 70
     1
  0
ATTRIB
  5
E2D
  8
DIM_ATT
 10
14.452905
 20
8.0978
 30
0.0
 40
0.09
  1
1.000000,4.759100
  2
A4
 70
     1
  0
ATTRIB
  5
E2E
  8
DIM_ATT
 10
14.452905
 20
7.9628
 30
0.0
 40
0.09
  1

  2
A5
 70
     1
  0
ATTRIB
  5
E2F
  8
DIM_ATT
 10
14.452905
 20
7.8278
 30
0.0
 40
0.09
  1
DIMFIX
  2
A6
 70
     1
  0
ATTRIB
  5
E30
  8
DIM_ATT
 10
14.452905
 20
7.6928
 30
0.0
 40
0.09
  1
0
  2
A7
 70
     1
  0
ATTRIB
  5
E31
  8
DIM_ATT
 10
14.452905
 20
7.5578
 30
0.0
 40
0.09
  1
0
  2
A8
 70
     1
  0
SEQEND
  5
E32
  8
DIM_ATT
  0
INSERT
  5
E33
  8
DIM_ATT
 66
     1
  2
ATT_BLK
 10
18.609905
 20
8.9518
 30
0.0
  0
ATTRIB
  5
E34
  8
DIM_ATT
 10
18.609905
 20
9.0868
 30
0.0
 40
0.09
  1
HOR
  2
TYPE
 70
     1
  0
ATTRIB
  5
E35
  8
DIM_ATT
 10
18.609905
 20
8.9518
 30
0.0
 40
0.09
  1
0.46900
  2
A1
 70
     1
  0
ATTRIB
  5
E36
  8
DIM_ATT
 10
18.609905
 20
8.8168
 30
0.0
 40
0.09
  1
10.114400,7.351800
  2
A2
 70
     1
  0
ATTRIB
  5
E37
  8
DIM_ATT
 10
18.609905
 20
8.6818
 30
0.0
 40
0.09
  1
10.583400,6.004900
  2
A3
 70
     1
  0
ATTRIB
  5
E38
  8
DIM_ATT
 10
18.609905
 20
8.5468
 30
0.0
 40
0.09
  1
1.000000,5.938400
  2
A4
 70
     1
  0
ATTRIB
  5
E39
  8
DIM_ATT
 10
18.609905
 20
8.4118
 30
0.0
 40
0.09
  1

  2
A5
 70
     1
  0
ATTRIB
  5
E3A
  8
DIM_ATT
 10
18.609905
 20
8.2768
 30
0.0
 40
0.09
  1
DIMFIX
  2
A6
 70
     1
  0
ATTRIB
  5
E3B
  8
DIM_ATT
 10
18.609905
 20
8.1418
 30
0.0
 40
0.09
  1
0
  2
A7
 70
     1
  0
ATTRIB
  5
E3C
  8
DIM_ATT
 10
18.609905
 20
8.0068
 30
0.0
 40
0.09
  1
0
  2
A8
 70
     1
  0
SEQEND
  5
E3D
  8
DIM_ATT
  0
INSERT
  5
E3E
  8
DIM_ATT
 66
     1
  2
ATT_BLK
 10
19.078905
 20
7.7445
 30
0.0
  0
ATTRIB
  5
E3F
  8
DIM_ATT
 10
19.078905
 20
7.8795
 30
0.0
 40
0.09
  1
HOR
  2
TYPE
 70
     1
  0
ATTRIB
  5
E40
  8
DIM_ATT
 10
19.078905
 20
7.7445
 30
0.0
 40
0.09
  1
0.46900
  2
A1
 70
     1
  0
ATTRIB
  5
E41
  8
DIM_ATT
 10
19.078905
 20
7.6095
 30
0.0
 40
0.09
  1
11.052400,7.351800
  2
A2
 70
     1
  0
ATTRIB
  5
E42
  8
DIM_ATT
 10
19.078905
 20
7.4745
 30
0.0
 40
0.09
  1
10.583400,6.144500
  2
A3
 70
     1
  0
ATTRIB
  5
E43
  8
DIM_ATT
 10
19.078905
 20
7.3395
 30
0.0
 40
0.09
  1
1.000000,6.144500
  2
A4
 70
     1
  0
ATTRIB
  5
E44
  8
DIM_ATT
 10
19.078905
 20
7.2045
 30
0.0
 40
0.09
  1

  2
A5
 70
     1
  0
ATTRIB
  5
E45
  8
DIM_ATT
 10
19.078905
 20
7.0695
 30
0.0
 40
0.09
  1
DIMFIX
  2
A6
 70
     1
  0
ATTRIB
  5
E46
  8
DIM_ATT
 10
19.078905
 20
6.9345
 30
0.0
 40
0.09
  1
0
  2
A7
 70
     1
  0
ATTRIB
  5
E47
  8
DIM_ATT
 10
19.078905
 20
6.7995
 30
0.0
 40
0.09
  1
0
  2
A8
 70
     1
  0
SEQEND
  5
E48
  8
DIM_ATT
  0
INSERT
  5
E49
  8
DIM_ATT
 66
     1
  2
ATT_BLK
 10
15.572905
 20
8.9518
 30
0.0
  0
ATTRIB
  5
E4A
  8
DIM_ATT
 10
15.572905
 20
9.0868
 30
0.0
 40
0.09
  1
VER
  2
TYPE
 70
     1
  0
ATTRIB
  5
E4B
  8
DIM_ATT
 10
15.572905
 20
8.9518
 30
0.0
 40
0.09
  1
0.37525
  2
A1
 70
     1
  0
ATTRIB
  5
E4C
  8
DIM_ATT
 10
15.572905
 20
8.8168
 30
0.0
 40
0.09
  1
7.077400,7.351800
  2
A2
 70
     1
  0
ATTRIB
  5
E4D
  8
DIM_ATT
 10
15.572905
 20
8.6818
 30
0.0
 40
0.09
  1
7.047400,7.727050
  2
A3
 70
     1
  0
ATTRIB
  5
E4E
  8
DIM_ATT
 10
15.572905
 20
8.5468
 30
0.0
 40
0.09
  1
7.371800,1.000000
  2
A4
 70
     1
  0
ATTRIB
  5
E4F
  8
DIM_ATT
 10
15.572905
 20
8.4118
 30
0.0
 40
0.09
  1
6.337400,1.000000
  2
A5
 70
     1
  0
ATTRIB
  5
E50
  8
DIM_ATT
 10
15.572905
 20
8.2768
 30
0.0
 40
0.09
  1
DIMFIXHIDE
  2
A6
 70
     1
  0
ATTRIB
  5
E51
  8
DIM_ATT
 10
15.572905
 20
8.1418
 30
0.0
 40
0.09
  1
0
  2
A7
 70
     1
  0
ATTRIB
  5
E52
  8
DIM_ATT
 10
15.572905
 20
8.0068
 30
0.0
 40
0.09
  1
0
  2
A8
 70
     1
  0
SEQEND
  5
E53
  8
DIM_ATT
  0
INSERT
  5
E54
  8
DIM_ATT
 66
     1
  2
ATT_BLK
 10
15.542905
 20
8.57655
 30
0.0
  0
ATTRIB
  5
E55
  8
DIM_ATT
 10
15.542905
 20
8.71155
 30
0.0
 40
0.09
  1
VER
  2
TYPE
 70
     1
  0
ATTRIB
  5
E56
  8
DIM_ATT
 10
15.542905
 20
8.57655
 30
0.0
 40
0.09
  1
0.37525
  2
A1
 70
     1
  0
ATTRIB
  5
E57
  8
DIM_ATT
 10
15.542905
 20
8.44155
 30
0.0
 40
0.09
  1
7.077400,7.351800
  2
A2
 70
     1
  0
ATTRIB
  5
E58
  8
DIM_ATT
 10
15.542905
 20
8.30655
 30
0.0
 40
0.09
  1
7.047400,6.976550
  2
A3
 70
     1
  0
ATTRIB
  5
E59
  8
DIM_ATT
 10
15.542905
 20
8.17155
 30
0.0
 40
0.09
  1
7.456900,1.000000
  2
A4
 70
     1
  0
ATTRIB
  5
E5A
  8
DIM_ATT
 10
15.542905
 20
8.03655
 30
0.0
 40
0.09
  1
6.367700,1.000000
  2
A5
 70
     1
  0
ATTRIB
  5
E5B
  8
DIM_ATT
 10
15.542905
 20
7.90155
 30
0.0
 40
0.09
  1
DIMFIXHIDE
  2
A6
 70
     1
  0
ATTRIB
  5
E5C
  8
DIM_ATT
 10
15.542905
 20
7.76655
 30
0.0
 40
0.09
  1
0
  2
A7
 70
     1
  0
ATTRIB
  5
E5D
  8
DIM_ATT
 10
15.542905
 20
7.63155
 30
0.0
 40
0.09
  1
0
  2
A8
 70
     1
  0
SEQEND
  5
E5E
  8
DIM_ATT
  0
INSERT
  5
E5F
  8
DIM_ATT
 66
     1
  2
ATT_BLK
 10
14.452905
 20
8.9518
 30
0.0
  0
ATTRIB
  5
E60
  8
DIM_ATT
 10
14.452905
 20
9.0868
 30
0.0
 40
0.09
  1
VER
  2
TYPE
 70
     1
  0
ATTRIB
  5
E61
  8
DIM_ATT
 10
14.452905
 20
8.9518
 30
0.0
 40
0.09
  1
0.46900
  2
A1
 70
     1
  0
ATTRIB
  5
E62
  8
DIM_ATT
 10
14.452905
 20
8.8168
 30
0.0
 40
0.09
  1
5.957400,7.351800
  2
A2
 70
     1
  0
ATTRIB
  5
E63
  8
DIM_ATT
 10
14.452905
 20
8.6818
 30
0.0
 40
0.09
  1
5.977400,7.820800
  2
A3
 70
     1
  0
ATTRIB
  5
E64
  8
DIM_ATT
 10
14.452905
 20
8.5468
 30
0.0
 40
0.09
  1
5.567500,1.000000
  2
A4
 70
     1
  0
ATTRIB
  5
E65
  8
DIM_ATT
 10
14.452905
 20
8.4118
 30
0.0
 40
0.09
  1
6.337400,1.000000
  2
A5
 70
     1
  0
ATTRIB
  5
E66
  8
DIM_ATT
 10
14.452905
 20
8.2768
 30
0.0
 40
0.09
  1
DIMFIXHIDE
  2
A6
 70
     1
  0
ATTRIB
  5
E67
  8
DIM_ATT
 10
14.452905
 20
8.1418
 30
0.0
 40
0.09
  1
0
  2
A7
 70
     1
  0
ATTRIB
  5
E68
  8
DIM_ATT
 10
14.452905
 20
8.0068
 30
0.0
 40
0.09
  1
0
  2
A8
 70
     1
  0
SEQEND
  5
E69
  8
DIM_ATT
  0
INSERT
  5
E6A
  8
DIM_ATT
 66
     1
  2
ATT_BLK
 10
14.472905
 20
8.4828
 30
0.0
  0
ATTRIB
  5
E6B
  8
DIM_ATT
 10
14.472905
 20
8.6178
 30
0.0
 40
0.09
  1
VER
  2
TYPE
 70
     1
  0
ATTRIB
  5
E6C
  8
DIM_ATT
 10
14.472905
 20
8.4828
 30
0.0
 40
0.09
  1
0.46900
  2
A1
 70
     1
  0
ATTRIB
  5
E6D
  8
DIM_ATT
 10
14.472905
 20
8.3478
 30
0.0
 40
0.09
  1
5.957400,7.351800
  2
A2
 70
     1
  0
ATTRIB
  5
E6E
  8
DIM_ATT
 10
14.472905
 20
8.2128
 30
0.0
 40
0.09
  1
5.977400,6.882800
  2
A3
 70
     1
  0
ATTRIB
  5
E6F
  8
DIM_ATT
 10
14.472905
 20
8.0778
 30
0.0
 40
0.09
  1
5.459000,1.000000
  2
A4
 70
     1
  0
ATTRIB
  5
E70
  8
DIM_ATT
 10
14.472905
 20
7.9428
 30
0.0
 40
0.09
  1
6.337400,1.000000
  2
A5
 70
     1
  0
ATTRIB
  5
E71
  8
DIM_ATT
 10
14.472905
 20
7.8078
 30
0.0
 40
0.09
  1
DIMFIXHIDE
  2
A6
 70
     1
  0
ATTRIB
  5
E72
  8
DIM_ATT
 10
14.472905
 20
7.6728
 30
0.0
 40
0.09
  1
0
  2
A7
 70
     1
  0
ATTRIB
  5
E73
  8
DIM_ATT
 10
14.472905
 20
7.5378
 30
0.0
 40
0.09
  1
0
  2
A8
 70
     1
  0
SEQEND
  5
E74
  8
DIM_ATT
  0
INSERT
  5
E75
  8
DIM_ATT
 66
     1
  2
ATT_BLK
 10
14.832905
 20
8.9518
 30
0.0
  0
ATTRIB
  5
E76
  8
DIM_ATT
 10
14.832905
 20
9.0868
 30
0.0
 40
0.09
  1
VER
  2
TYPE
 70
     1
  0
ATTRIB
  5
E77
  8
DIM_ATT
 10
14.832905
 20
8.9518
 30
0.0
 40
0.09
  1
0.36000
  2
A1
 70
     1
  0
ATTRIB
  5
E78
  8
DIM_ATT
 10
14.832905
 20
8.8168
 30
0.0
 40
0.09
  1
6.337400,7.711800
  2
A2
 70
     1
  0
ATTRIB
  5
E79
  8
DIM_ATT
 10
14.832905
 20
8.6818
 30
0.0
 40
0.09
  1
6.337400,7.351800
  2
A3
 70
     1
  0
ATTRIB
  5
E7A
  8
DIM_ATT
 10
14.832905
 20
8.5468
 30
0.0
 40
0.09
  1
3.628600,1.000000
  2
A4
 70
     1
  0
ATTRIB
  5
E7B
  8
DIM_ATT
 10
14.832905
 20
8.4118
 30
0.0
 40
0.09
  1
6.397400,1.000000
  2
A5
 70
     1
  0
ATTRIB
  5
E7C
  8
DIM_ATT
 10
14.832905
 20
8.2768
 30
0.0
 40
0.09
  1
DIMFIXHIDE
  2
A6
 70
     1
  0
ATTRIB
  5
E7D
  8
DIM_ATT
 10
14.832905
 20
8.1418
 30
0.0
 40
0.09
  1
0
  2
A7
 70
     1
  0
ATTRIB
  5
E7E
  8
DIM_ATT
 10
14.832905
 20
8.0068
 30
0.0
 40
0.09
  1
0
  2
A8
 70
     1
  0
SEQEND
  5
E7F
  8
DIM_ATT
  0
INSERT
  5
E80
  8
DIM_ATT
 66
     1
  2
ATT_BLK
 10
14.832905
 20
8.5918
 30
0.0
  0
ATTRIB
  5
E81
  8
DIM_ATT
 10
14.832905
 20
8.7268
 30
0.0
 40
0.09
  1
VER
  2
TYPE
 70
     1
  0
ATTRIB
  5
E82
  8
DIM_ATT
 10
14.832905
 20
8.5918
 30
0.0
 40
0.09
  1
0.36000
  2
A1
 70
     1
  0
ATTRIB
  5
E83
  8
DIM_ATT
 10
14.832905
 20
8.4568
 30
0.0
 40
0.09
  1
6.337400,7.351800
  2
A2
 70
     1
  0
ATTRIB
  5
E84
  8
DIM_ATT
 10
14.832905
 20
8.3218
 30
0.0
 40
0.09
  1
6.337400,6.991800
  2
A3
 70
     1
  0
ATTRIB
  5
E85
  8
DIM_ATT
 10
14.832905
 20
8.1868
 30
0.0
 40
0.09
  1
3.506000,1.000000
  2
A4
 70
     1
  0
ATTRIB
  5
E86
  8
DIM_ATT
 10
14.832905
 20
8.0518
 30
0.0
 40
0.09
  1
6.397400,1.000000
  2
A5
 70
     1
  0
ATTRIB
  5
E87
  8
DIM_ATT
 10
14.832905
 20
7.9168
 30
0.0
 40
0.09
  1
DIMFIXHIDE
  2
A6
 70
     1
  0
ATTRIB
  5
E88
  8
DIM_ATT
 10
14.832905
 20
7.7818
 30
0.0
 40
0.09
  1
0
  2
A7
 70
     1
  0
ATTRIB
  5
E89
  8
DIM_ATT
 10
14.832905
 20
7.6468
 30
0.0
 40
0.09
  1
0
  2
A8
 70
     1
  0
SEQEND
  5
E8A
  8
DIM_ATT
  0
INSERT
  5
E8B
  8
DIM_ATT
 66
     1
  2
ATT_BLK
 10
15.572905
 20
8.9518
 30
0.0
  0
ATTRIB
  5
E8C
  8
DIM_ATT
 10
15.572905
 20
9.0868
 30
0.0
 40
0.09
  1
VER
  2
TYPE
 70
     1
  0
ATTRIB
  5
E8D
  8
DIM_ATT
 10
15.572905
 20
8.9518
 30
0.0
 40
0.09
  1
0.25000
  2
A1
 70
     1
  0
ATTRIB
  5
E8E
  8
DIM_ATT
 10
15.572905
 20
8.8168
 30
0.0
 40
0.09
  1
7.077400,7.601800
  2
A2
 70
     1
  0
ATTRIB
  5
E8F
  8
DIM_ATT
 10
15.572905
 20
8.6818
 30
0.0
 40
0.09
  1
7.077400,7.351800
  2
A3
 70
     1
  0
ATTRIB
  5
E90
  8
DIM_ATT
 10
15.572905
 20
8.5468
 30
0.0
 40
0.09
  1
9.359500,1.000000
  2
A4
 70
     1
  0
ATTRIB
  5
E91
  8
DIM_ATT
 10
15.572905
 20
8.4118
 30
0.0
 40
0.09
  1

  2
A5
 70
     1
  0
ATTRIB
  5
E92
  8
DIM_ATT
 10
15.572905
 20
8.2768
 30
0.0
 40
0.09
  1
DIMFIXHIDE
  2
A6
 70
     1
  0
ATTRIB
  5
E93
  8
DIM_ATT
 10
15.572905
 20
8.1418
 30
0.0
 40
0.09
  1
0
  2
A7
 70
     1
  0
ATTRIB
  5
E94
  8
DIM_ATT
 10
15.572905
 20
8.0068
 30
0.0
 40
0.09
  1
0
  2
A8
 70
     1
  0
SEQEND
  5
E95
  8
DIM_ATT
  0
INSERT
  5
E96
  8
DIM_ATT
 66
     1
  2
ATT_BLK
 10
15.572905
 20
8.7018
 30
0.0
  0
ATTRIB
  5
E97
  8
DIM_ATT
 10
15.572905
 20
8.8368
 30
0.0
 40
0.09
  1
VER
  2
TYPE
 70
     1
  0
ATTRIB
  5
E98
  8
DIM_ATT
 10
15.572905
 20
8.7018
 30
0.0
 40
0.09
  1
0.25000
  2
A1
 70
     1
  0
ATTRIB
  5
E99
  8
DIM_ATT
 10
15.572905
 20
8.5668
 30
0.0
 40
0.09
  1
7.077400,7.351800
  2
A2
 70
     1
  0
ATTRIB
  5
E9A
  8
DIM_ATT
 10
15.572905
 20
8.4318
 30
0.0
 40
0.09
  1
7.077400,7.101800
  2
A3
 70
     1
  0
ATTRIB
  5
E9B
  8
DIM_ATT
 10
15.572905
 20
8.2968
 30
0.0
 40
0.09
  1
9.597100,1.000000
  2
A4
 70
     1
  0
ATTRIB
  5
E9C
  8
DIM_ATT
 10
15.572905
 20
8.1618
 30
0.0
 40
0.09
  1

  2
A5
 70
     1
  0
ATTRIB
  5
E9D
  8
DIM_ATT
 10
15.572905
 20
8.0268
 30
0.0
 40
0.09
  1
DIMFIXHIDE
  2
A6
 70
     1
  0
ATTRIB
  5
E9E
  8
DIM_ATT
 10
15.572905
 20
7.8918
 30
0.0
 40
0.09
  1
0
  2
A7
 70
     1
  0
ATTRIB
  5
E9F
  8
DIM_ATT
 10
15.572905
 20
7.7568
 30
0.0
 40
0.09
  1
0
  2
A8
 70
     1
  0
SEQEND
  5
EA0
  8
DIM_ATT
  0
INSERT
  5
EA1
  8
DIM_ATT
 66
     1
  2
ATT_BLK
 10
20.185305
 20
8.9518
 30
0.0
  0
ATTRIB
  5
EA2
  8
DIM_ATT
 10
20.185305
 20
9.0868
 30
0.0
 40
0.09
  1
VER
  2
TYPE
 70
     1
  0
ATTRIB
  5
EA3
  8
DIM_ATT
 10
20.185305
 20
8.9518
 30
0.0
 40
0.09
  1
0.46900
  2
A1
 70
     1
  0
ATTRIB
  5
EA4
  8
DIM_ATT
 10
20.185305
 20
8.8168
 30
0.0
 40
0.09
  1
10.583400,7.820800
  2
A2
 70
     1
  0
ATTRIB
  5
EA5
  8
DIM_ATT
 10
20.185305
 20
8.6818
 30
0.0
 40
0.09
  1
11.689800,7.351800
  2
A3
 70
     1
  0
ATTRIB
  5
EA6
  8
DIM_ATT
 10
20.185305
 20
8.5468
 30
0.0
 40
0.09
  1
11.689800,1.000000
  2
A4
 70
     1
  0
ATTRIB
  5
EA7
  8
DIM_ATT
 10
20.185305
 20
8.4118
 30
0.0
 40
0.09
  1

  2
A5
 70
     1
  0
ATTRIB
  5
EA8
  8
DIM_ATT
 10
20.185305
 20
8.2768
 30
0.0
 40
0.09
  1
DIMFIX
  2
A6
 70
     1
  0
ATTRIB
  5
EA9
  8
DIM_ATT
 10
20.185305
 20
8.1418
 30
0.0
 40
0.09
  1
0
  2
A7
 70
     1
  0
ATTRIB
  5
EAA
  8
DIM_ATT
 10
20.185305
 20
8.0068
 30
0.0
 40
0.09
  1
0
  2
A8
 70
     1
  0
SEQEND
  5
EAB
  8
DIM_ATT
  0
INSERT
  5
EAC
  8
DIM_ATT
 66
     1
  2
ATT_BLK
 10
19.078905
 20
8.4828
 30
0.0
  0
ATTRIB
  5
EAD
  8
DIM_ATT
 10
19.078905
 20
8.6178
 30
0.0
 40
0.09
  1
VER
  2
TYPE
 70
     1
  0
ATTRIB
  5
EAE
  8
DIM_ATT
 10
19.078905
 20
8.4828
 30
0.0
 40
0.09
  1
0.46900
  2
A1
 70
     1
  0
ATTRIB
  5
EAF
  8
DIM_ATT
 10
19.078905
 20
8.3478
 30
0.0
 40
0.09
  1
10.583400,6.882800
  2
A2
 70
     1
  0
ATTRIB
  5
EB0
  8
DIM_ATT
 10
19.078905
 20
8.2128
 30
0.0
 40
0.09
  1
8.741200,7.351800
  2
A3
 70
     1
  0
ATTRIB
  5
EB1
  8
DIM_ATT
 10
19.078905
 20
8.0778
 30
0.0
 40
0.09
  1
8.734900,1.000000
  2
A4
 70
     1
  0
ATTRIB
  5
EB2
  8
DIM_ATT
 10
19.078905
 20
7.9428
 30
0.0
 40
0.09
  1

  2
A5
 70
     1
  0
ATTRIB
  5
EB3
  8
DIM_ATT
 10
19.078905
 20
7.8078
 30
0.0
 40
0.09
  1
DIMFIX
  2
A6
 70
     1
  0
ATTRIB
  5
EB4
  8
DIM_ATT
 10
19.078905
 20
7.6728
 30
0.0
 40
0.09
  1
0
  2
A7
 70
     1
  0
ATTRIB
  5
EB5
  8
DIM_ATT
 10
19.078905
 20
7.5378
 30
0.0
 40
0.09
  1
0
  2
A8
 70
     1
  0
SEQEND
  5
EB6
  8
DIM_ATT
  0
INSERT
  5
EB7
  8
DIM_ATT
 66
     1
  2
ATT_BLK
 10
19.047605
 20
9.4102
 30
0.0
  0
ATTRIB
  5
EB8
  8
DIM_ATT
 10
19.047605
 20
9.5452
 30
0.0
 40
0.09
  1
ALI
  2
TYPE
 70
     1
  0
ATTRIB
  5
EB9
  8
DIM_ATT
 10
19.047605
 20
9.4102
 30
0.0
 40
0.09
  1
.747
  2
A1
 70
     1
  0
ATTRIB
  5
EBA
  8
DIM_ATT
 10
19.047605
 20
9.2752
 30
0.0
 40
0.09
  1
10.552100,7.810200
  2
A2
 70
     1
  0
ATTRIB
  5
EBB
  8
DIM_ATT
 10
19.047605
 20
9.1402
 30
0.0
 40
0.09
  1
11.041800,7.320500
  2
A3
 70
     1
  0
ATTRIB
  5
EBC
  8
DIM_ATT
 10
19.047605
 20
9.0052
 30
0.0
 40
0.09
  1
11.678700,8.443900
  2
A4
 70
     1
  0
ATTRIB
  5
EBD
  8
DIM_ATT
 10
19.047605
 20
8.8702
 30
0.0
 40
0.09
  1
0
  2
A5
 70
     1
  0
ATTRIB
  5
EBE
  8
DIM_ATT
 10
19.047605
 20
8.7352
 30
0.0
 40
0.09
  1
DIMFIX
  2
A6
 70
     1
  0
ATTRIB
  5
EBF
  8
DIM_ATT
 10
19.047605
 20
8.6002
 30
0.0
 40
0.09
  1
0
  2
A7
 70
     1
  0
ATTRIB
  5
EC0
  8
DIM_ATT
 10
19.047605
 20
8.4652
 30
0.0
 40
0.09
  1
0
  2
A8
 70
     1
  0
SEQEND
  5
EC1
  8
DIM_ATT
  0
INSERT
  5
EC2
  8
DIM_ATT
 66
     1
  2
ATT_BLK
 10
19.110305
 20
9.4102
 30
0.0
  0
ATTRIB
  5
EC3
  8
DIM_ATT
 10
19.110305
 20
9.5452
 30
0.0
 40
0.09
  1
ALI
  2
TYPE
 70
     1
  0
ATTRIB
  5
EC4
  8
DIM_ATT
 10
19.110305
 20
9.4102
 30
0.0
 40
0.09
  1
.747
  2
A1
 70
     1
  0
ATTRIB
  5
EC5
  8
DIM_ATT
 10
19.110305
 20
9.2752
 30
0.0
 40
0.09
  1
10.614800,7.810200
  2
A2
 70
     1
  0
ATTRIB
  5
EC6
  8
DIM_ATT
 10
19.110305
 20
9.1402
 30
0.0
 40
0.09
  1
10.125000,7.320500
  2
A3
 70
     1
  0
ATTRIB
  5
EC7
  8
DIM_ATT
 10
19.110305
 20
9.0052
 30
0.0
 40
0.09
  1
9.206375,8.834366
  2
A4
 70
     1
  0
ATTRIB
  5
EC8
  8
DIM_ATT
 10
19.110305
 20
8.8702
 30
0.0
 40
0.09
  1
0
  2
A5
 70
     1
  0
ATTRIB
  5
EC9
  8
DIM_ATT
 10
19.110305
 20
8.7352
 30
0.0
 40
0.09
  1
DIMFIX
  2
A6
 70
     1
  0
ATTRIB
  5
ECA
  8
DIM_ATT
 10
19.110305
 20
8.6002
 30
0.0
 40
0.09
  1
0
  2
A7
 70
     1
  0
ATTRIB
  5
ECB
  8
DIM_ATT
 10
19.110305
 20
8.4652
 30
0.0
 40
0.09
  1
0
  2
A8
 70
     1
  0
SEQEND
  5
ECC
  8
DIM_ATT
  0
POLYLINE
  5
ECD
  8
H
 66
     1
 10
0.0
 20
0.0
 30
0.0
  0
VERTEX
  5
F88
  8
H
 10
1.84
 20
1.6
 30
0.0
  0
VERTEX
  5
F89
  8
H
 10
1.84
 20
1.22475
 30
0.0
  0
SEQEND
  5
F8A
  8
H
  0
POLYLINE
  5
ECE
  8
H
 66
     1
 10
0.0
 20
0.0
 30
0.0
  0
VERTEX
  5
F8B
  8
H
 10
1.84
 20
1.6
 30
0.0
  0
VERTEX
  5
F8C
  8
H
 10
1.84
 20
1.97525
 30
0.0
  0
SEQEND
  5
F8D
  8
H
  0
POLYLINE
  5
ECF
  8
L
 66
     1
 10
0.0
 20
0.0
 30
0.0
 70
     1
  0
VERTEX
  5
F8E
  8
L
 10
2.42
 20
2.064
 30
0.0
  0
VERTEX
  5
F8F
  8
L
 10
2.76
 20
2.064
 30
0.0
  0
VERTEX
  5
F90
  8
L
 10
2.78
 20
2.044
 30
0.0
  0
VERTEX
  5
F91
  8
L
 10
2.78
 20
1.6
 30
0.0
  0
VERTEX
  5
F92
  8
L
 10
2.78
 20
1.156
 30
0.0
  0
VERTEX
  5
F93
  8
L
 10
2.76
 20
1.136
 30
0.0
  0
VERTEX
  5
F94
  8
L
 10
2.42
 20
1.136
 30
0.0
  0
VERTEX
  5
F95
  8
L
 10
2.4
 20
1.156
 30
0.0
  0
VERTEX
  5
F96
  8
L
 10
2.4
 20
1.6
 30
0.0
  0
VERTEX
  5
F97
  8
L
 10
2.4
 20
2.044
 30
0.0
  0
SEQEND
  5
F98
  8
L
  0
INSERT
  5
ED0
  8
DIM_ATT
 66
     1
  2
ATT_BLK
 10
19.078905
 20
8.9518
 30
0.0
  0
ATTRIB
  5
ED1
  8
DIM_ATT
 10
19.078905
 20
9.0868
 30
0.0
 40
0.09
  1
RAD
  2
TYPE
 70
     1
  0
ATTRIB
  5
ED2
  8
DIM_ATT
 10
19.078905
 20
8.9518
 30
0.0
 40
0.09
  1
.25
  2
A1
 70
     1
  0
ATTRIB
  5
ED3
  8
DIM_ATT
 10
19.078905
 20
8.8168
 30
0.0
 40
0.09
  1
DIMFIXHIDE 10.583400 7.351800 10.453191 7.565214
  2
A2
 70
     1
  0
ATTRIB
  5
ED4
  8
DIM_ATT
 10
19.078905
 20
8.6818
 30
0.0
 40
0.09
  1
: : CIRCLE : 8 : OBJECT : 10 : 10.583400 : 20 : 7.351800 : 40 : 0.250008 : 
  2
A3
 70
     1
  0
ATTRIB
  5
ED5
  8
DIM_ATT
 10
19.078905
 20
8.5468
 30
0.0
 40
0.09
  1
0
  2
A4
 70
     1
  0
ATTRIB
  5
ED6
  8
DIM_ATT
 10
19.078905
 20
8.4118
 30
0.0
 40
0.09
  1
0
  2
A5
 70
     1
  0
ATTRIB
  5
ED7
  8
DIM_ATT
 10
19.078905
 20
8.2768
 30
0.0
 40
0.09
  1
0
  2
A6
 70
     1
  0
ATTRIB
  5
ED8
  8
DIM_ATT
 10
19.078905
 20
8.1418
 30
0.0
 40
0.09
  1
0
  2
A7
 70
     1
  0
ATTRIB
  5
ED9
  8
DIM_ATT
 10
19.078905
 20
8.0068
 30
0.0
 40
0.09
  1
0
  2
A8
 70
     1
  0
SEQEND
  5
EDA
  8
DIM_ATT
  0
INSERT
  5
EDB
  8
DIM_ATT
 66
     1
  2
ATT_BLK
 10
19.078905
 20
8.9518
 30
0.0
  0
ATTRIB
  5
EDC
  8
DIM_ATT
 10
19.078905
 20
9.0868
 30
0.0
 40
0.09
  1
RAD
  2
TYPE
 70
     1
  0
ATTRIB
  5
EDD
  8
DIM_ATT
 10
19.078905
 20
8.9518
 30
0.0
 40
0.09
  1
0.46900
  2
A1
 70
     1
  0
ATTRIB
  5
EDE
  8
DIM_ATT
 10
19.078905
 20
8.8168
 30
0.0
 40
0.09
  1
DIMFIXHIDE 10.583400 7.351800 10.821795 6.947908
  2
A2
 70
     1
  0
ATTRIB
  5
EDF
  8
DIM_ATT
 10
19.078905
 20
8.6818
 30
0.0
 40
0.09
  1
: : CIRCLE : 8 : HIDOB : 10 : 10.583400 : 20 : 7.351800 : 40 : 0.468991 : 
  2
A3
 70
     1
  0
ATTRIB
  5
EE0
  8
DIM_ATT
 10
19.078905
 20
8.5468
 30
0.0
 40
0.09
  1
0
  2
A4
 70
     1
  0
ATTRIB
  5
EE1
  8
DIM_ATT
 10
19.078905
 20
8.4118
 30
0.0
 40
0.09
  1
0
  2
A5
 70
     1
  0
ATTRIB
  5
EE2
  8
DIM_ATT
 10
19.078905
 20
8.2768
 30
0.0
 40
0.09
  1
0
  2
A6
 70
     1
  0
ATTRIB
  5
EE3
  8
DIM_ATT
 10
19.078905
 20
8.1418
 30
0.0
 40
0.09
  1
0
  2
A7
 70
     1
  0
ATTRIB
  5
EE4
  8
DIM_ATT
 10
19.078905
 20
8.0068
 30
0.0
 40
0.09
  1
0
  2
A8
 70
     1
  0
SEQEND
  5
EE5
  8
DIM_ATT
  0
INSERT
  5
EE6
  8
DIM_ATT
 66
     1
  2
ATT_BLK
 10
19.078905
 20
8.9518
 30
0.0
  0
ATTRIB
  5
EE7
  8
DIM_ATT
 10
19.078905
 20
9.0868
 30
0.0
 40
0.09
  1
RAD
  2
TYPE
 70
     1
  0
ATTRIB
  5
EE8
  8
DIM_ATT
 10
19.078905
 20
8.9518
 30
0.0
 40
0.09
  1
0.37525
  2
A1
 70
     1
  0
ATTRIB
  5
EE9
  8
DIM_ATT
 10
19.078905
 20
8.8168
 30
0.0
 40
0.09
  1
DIMFIX 10.583400 7.351800 10.341510 7.064917
  2
A2
 70
     1
  0
ATTRIB
  5
EEA
  8
DIM_ATT
 10
19.078905
 20
8.6818
 30
0.0
 40
0.09
  1
: : CIRCLE : 8 : OBJECT : 10 : 10.583400 : 20 : 7.351800 : 40 : 0.375250 : 
  2
A3
 70
     1
  0
ATTRIB
  5
EEB
  8
DIM_ATT
 10
19.078905
 20
8.5468
 30
0.0
 40
0.09
  1
0
  2
A4
 70
     1
  0
ATTRIB
  5
EEC
  8
DIM_ATT
 10
19.078905
 20
8.4118
 30
0.0
 40
0.09
  1
0
  2
A5
 70
     1
  0
ATTRIB
  5
EED
  8
DIM_ATT
 10
19.078905
 20
8.2768
 30
0.0
 40
0.09
  1
0
  2
A6
 70
     1
  0
ATTRIB
  5
EEE
  8
DIM_ATT
 10
19.078905
 20
8.1418
 30
0.0
 40
0.09
  1
0
  2
A7
 70
     1
  0
ATTRIB
  5
EEF
  8
DIM_ATT
 10
19.078905
 20
8.0068
 30
0.0
 40
0.09
  1
0
  2
A8
 70
     1
  0
SEQEND
  5
EF0
  8
DIM_ATT
  0
LINE
  5
EF1
  8
L
 10
2.42
 20
2.064
 30
0.0
 11
2.42
 21
1.136
 31
0.0
  0
LINE
  5
EF2
  8
L
 10
2.76
 20
1.136
 30
0.0
 11
2.76
 21
2.064
 31
0.0
  0
LINE
  5
EF3
  8
H
 10
1.71
 20
1.22475
 30
0.0
 11
1.71
 21
1.97525
 31
0.0
  0
LINE
  5
EF4
  8
H
 10
2.34
 20
1.22475
 30
0.0
 11
1.71
 21
1.22475
 31
0.0
  0
LINE
  5
EF5
  8
H
 10
1.71
 20
1.22475
 30
0.0
 11
1.68
 21
1.25475
 31
0.0
  0
LINE
  5
EF6
  8
H
 10
1.68
 20
1.25475
 30
0.0
 11
1.68
 21
1.6
 31
0.0
  0
LINE
  5
EF7
  8
H
 10
1.68
 20
1.6
 30
0.0
 11
1.68
 21
1.94525
 31
0.0
  0
LINE
  5
EF8
  8
H
 10
1.68
 20
1.94525
 30
0.0
 11
1.71
 21
1.97525
 31
0.0
  0
LINE
  5
EF9
  8
H
 10
1.71
 20
1.97525
 30
0.0
 11
2.34
 21
1.97525
 31
0.0
  0
LINE
  5
EFA
  8
H
 10
2.34
 20
1.6
 30
0.0
 11
2.34
 21
1.22475
 31
0.0
  0
LINE
  5
EFB
  8
H
 10
2.34
 20
1.6
 30
0.0
 11
2.34
 21
1.97525
 31
0.0
  0
POLYLINE
  5
EFC
  8
H
 66
     1
 10
0.0
 20
0.0
 30
0.0
  0
VERTEX
  5
F99
  8
H
 10
2.34
 20
1.24
 30
0.0
  0
VERTEX
  5
F9A
  8
H
 10
2.4
 20
1.24
 30
0.0
  0
SEQEND
  5
F9B
  8
H
  0
POLYLINE
  5
EFD
  8
H
 66
     1
 10
0.0
 20
0.0
 30
0.0
  0
VERTEX
  5
F9C
  8
H
 10
2.34
 20
1.96
 30
0.0
  0
VERTEX
  5
F9D
  8
H
 10
2.4
 20
1.96
 30
0.0
  0
SEQEND
  5
F9E
  8
H
  0
LINE
  5
EFE
  8
H
 10
1.72
 20
1.475
 30
0.0
 11
1.68
 21
1.451906
 31
0.0
  0
LINE
  5
EFF
  8
H
 10
1.72
 20
1.475
 30
0.0
 11
1.72
 21
1.725
 31
0.0
  0
LINE
  5
F00
  8
H
 10
2.74
 20
1.475
 30
0.0
 11
2.78
 21
1.451906
 31
0.0
  0
LINE
  5
F01
  8
H
 10
2.74
 20
1.475
 30
0.0
 11
2.74
 21
1.725
 31
0.0
  0
LINE
  5
F02
  8
H
 10
1.72
 20
1.725
 30
0.0
 11
1.68
 21
1.748094
 31
0.0
  0
LINE
  5
F03
  8
H
 10
2.74
 20
1.725
 30
0.0
 11
2.78
 21
1.748094
 31
0.0
  0
POLYLINE
  5
F04
  8
H
 66
     1
 10
0.0
 20
0.0
 30
0.0
  0
VERTEX
  5
F9F
  8
H
 10
1.72
 20
1.725
 30
0.0
  0
VERTEX
  5
FA0
  8
H
 10
2.74
 20
1.725
 30
0.0
  0
SEQEND
  5
FA1
  8
H
  0
POLYLINE
  5
F05
  8
H
 66
     1
 10
0.0
 20
0.0
 30
0.0
  0
VERTEX
  5
FA2
  8
H
 10
1.72
 20
1.475
 30
0.0
  0
VERTEX
  5
FA3
  8
H
 10
2.74
 20
1.475
 30
0.0
  0
SEQEND
  5
FA4
  8
H
  0
ENDSEC
  0
EOF
