  0
SECTION
  2
HEADER
  9
$ACADVER
  1
AC1009
  9
$INSBASE
 10
0.0
 20
0.0
 30
0.0
  9
$EXTMIN
 10
-4.0
 20
-2.157296
 30
0.0
  9
$EXTMAX
 10
6.831156
 20
3.028767
 30
0.0
  9
$LIMMIN
 10
0.0
 20
0.0
  9
$LIMMAX
 10
12.0
 20
9.0
  9
$ORTHOMODE
 70
     0
  9
$REGENMODE
 70
     1
  9
$FILLMODE
 70
     1
  9
$QTEXTMODE
 70
     0
  9
$MIRRTEXT
 70
     1
  9
$DRAGMODE
 70
     2
  9
$LTSCALE
 40
0.35
  9
$OSMODE
 70
   165
  9
$ATTMODE
 70
     1
  9
$TEXTSIZE
 40
0.125
  9
$TRACEWID
 40
0.05
  9
$TEXTSTYLE
  7
STANDARD
  9
$CLAYER
  8
L
  9
$CELTYPE
  6
BYLAYER
  9
$CECOLOR
 62
   256
  9
$DIMSCALE
 40
1.0
  9
$DIMASZ
 40
0.12
  9
$DIMEXO
 40
0.0625
  9
$DIMDLI
 40
0.38
  9
$DIMRND
 40
0.0
  9
$DIMDLE
 40
0.0
  9
$DIMEXE
 40
0.05
  9
$DIMTP
 40
0.0
  9
$DIMTM
 40
0.0
  9
$DIMTXT
 40
0.125
  9
$DIMCEN
 40
0.09
  9
$DIMTSZ
 40
0.0
  9
$DIMTOL
 70
     0
  9
$DIMLIM
 70
     0
  9
$DIMTIH
 70
     1
  9
$DIMTOH
 70
     1
  9
$DIMSE1
 70
     0
  9
$DIMSE2
 70
     0
  9
$DIMTAD
 70
     0
  9
$DIMZIN
 70
     0
  9
$DIMBLK
  1

  9
$DIMASO
 70
     1
  9
$DIMSHO
 70
     1
  9
$DIMPOST
  1

  9
$DIMAPOST
  1

  9
$DIMALT
 70
     0
  9
$DIMALTD
 70
     2
  9
$DIMALTF
 40
25.4
  9
$DIMLFAC
 40
1.0
  9
$DIMTOFL
 70
     0
  9
$DIMTVP
 40
0.0
  9
$DIMTIX
 70
     0
  9
$DIMSOXD
 70
     0
  9
$DIMSAH
 70
     0
  9
$DIMBLK1
  1

  9
$DIMBLK2
  1

  9
$DIMSTYLE
  2
5P
  9
$DIMCLRD
 70
     0
  9
$DIMCLRE
 70
     0
  9
$DIMCLRT
 70
     0
  9
$DIMTFAC
 40
1.0
  9
$DIMGAP
 40
0.09
  9
$LUNITS
 70
     2
  9
$LUPREC
 70
     3
  9
$SKETCHINC
 40
0.1
  9
$FILLETRAD
 40
0.12
  9
$AUNITS
 70
     1
  9
$AUPREC
 70
     0
  9
$MENU
  1
acad
  9
$ELEVATION
 40
0.0
  9
$PELEVATION
 40
0.0
  9
$THICKNESS
 40
0.0
  9
$LIMCHECK
 70
     0
  9
$BLIPMODE
 70
     0
  9
$CHAMFERA
 40
0.0
  9
$CHAMFERB
 40
0.0
  9
$SKPOLY
 70
     0
  9
$TDCREATE
 40
2449798.519325
  9
$TDUPDATE
 40
2450910.459897
  9
$TDINDWG
 40
0.072039
  9
$TDUSRTIMER
 40
0.072039
  9
$USRTIMER
 70
     1
  9
$ANGBASE
 50
0.0
  9
$ANGDIR
 70
     0
  9
$PDMODE
 70
     0
  9
$PDSIZE
 40
0.0
  9
$PLINEWID
 40
0.0
  9
$COORDS
 70
     1
  9
$SPLFRAME
 70
     0
  9
$SPLINETYPE
 70
     6
  9
$SPLINESEGS
 70
     8
  9
$ATTDIA
 70
     1
  9
$ATTREQ
 70
     1
  9
$HANDLING
 70
     1
  9
$HANDSEED
  5
9FB
  9
$SURFTAB1
 70
     6
  9
$SURFTAB2
 70
     6
  9
$SURFTYPE
 70
     6
  9
$SURFU
 70
     6
  9
$SURFV
 70
     6
  9
$UCSNAME
  2

  9
$UCSORG
 10
0.0
 20
0.0
 30
0.0
  9
$UCSXDIR
 10
1.0
 20
0.0
 30
0.0
  9
$UCSYDIR
 10
0.0
 20
1.0
 30
0.0
  9
$PUCSNAME
  2

  9
$PUCSORG
 10
0.0
 20
0.0
 30
0.0
  9
$PUCSXDIR
 10
1.0
 20
0.0
 30
0.0
  9
$PUCSYDIR
 10
0.0
 20
1.0
 30
0.0
  9
$USERI1
 70
     0
  9
$USERI2
 70
     0
  9
$USERI3
 70
     0
  9
$USERI4
 70
     0
  9
$USERI5
 70
     0
  9
$USERR1
 40
0.0
  9
$USERR2
 40
0.0
  9
$USERR3
 40
0.0
  9
$USERR4
 40
0.0
  9
$USERR5
 40
0.0
  9
$WORLDVIEW
 70
     1
  9
$SHADEDGE
 70
     3
  9
$SHADEDIF
 70
    70
  9
$TILEMODE
 70
     1
  9
$MAXACTVP
 70
    16
  9
$PLIMCHECK
 70
     0
  9
$PEXTMIN
 10
1.000000E+020
 20
1.000000E+020
 30
1.000000E+020
  9
$PEXTMAX
 10
-1.000000E+020
 20
-1.000000E+020
 30
-1.000000E+020
  9
$PLIMMIN
 10
0.0
 20
0.0
  9
$PLIMMAX
 10
12.0
 20
9.0
  9
$UNITMODE
 70
     0
  9
$VISRETAIN
 70
     1
  9
$PLINEGEN
 70
     0
  9
$PSLTSCALE
 70
     1
  0
ENDSEC
  0
SECTION
  2
TABLES
  0
TABLE
  2
VPORT
 70
     2
  0
VPORT
  2
*ACTIVE
 70
     0
 10
0.0
 20
0.0
 11
1.0
 21
1.0
 12
1.404876
 22
0.624622
 13
0.0
 23
0.0
 14
0.25
 24
0.25
 15
0.0
 25
0.0
 16
0.0
 26
0.0
 36
1.0
 17
0.0
 27
0.0
 37
0.0
 40
6.80305
 41
1.605903
 42
50.0
 43
0.0
 44
0.0
 50
0.0
 51
0.0
 71
     0
 72
 20000
 73
     1
 74
     0
 75
     0
 76
     0
 77
     0
 78
     0
  0
ENDTAB
  0
TABLE
  2
LTYPE
 70
     6
  0
LTYPE
  2
CONTINUOUS
 70
     0
  3
Solid line
 72
    65
 73
     0
 40
0.0
  0
LTYPE
  2
HIDDEN
 70
     0
  3
__ __ __ __ __ __ __ __ __ __ __ __ __ __ __ __
 72
    65
 73
     2
 40
0.375
 49
0.25
 49
-0.125
  0
LTYPE
  2
C50_BASE$0$HIDDEN
 70
     0
  3
__ __ __ __ __ __ __ __ __ __ __ __ __ __ __ __
 72
    65
 73
     2
 40
0.375
 49
0.25
 49
-0.125
  0
LTYPE
  2
32ER_2$0$HIDDEN
 70
     0
  3
__ __ __ __ __ __ __ __ __ __ __ __ __ __ __ __
 72
    65
 73
     2
 40
0.375
 49
0.25
 49
-0.125
  0
LTYPE
  2
CENTER
 70
     0
  3
Center ____ _ ____ _ ____ _ ____ _ ____ _ ____
 72
    65
 73
     4
 40
2.0
 49
1.25
 49
-0.25
 49
0.25
 49
-0.25
  0
LTYPE
  2
PHANTOM
 70
     0
  3
Phantom ______  __  __  ______  __  __  ______
 72
    65
 73
     6
 40
2.5
 49
1.25
 49
-0.25
 49
0.25
 49
-0.25
 49
0.25
 49
-0.25
  0
ENDTAB
  0
TABLE
  2
LAYER
 70
    21
  0
LAYER
  2
0
 70
     0
 62
     7
  6
CONTINUOUS
  0
LAYER
  2
H
 70
     0
 62
     4
  6
HIDDEN
  0
LAYER
  2
L
 70
     0
 62
     5
  6
CONTINUOUS
  0
LAYER
  2
DEFPOINTS
 70
     0
 62
    -7
  6
CONTINUOUS
  0
LAYER
  2
C50_1$0$D
 70
     0
 62
     7
  6
CONTINUOUS
  0
LAYER
  2
C50_1$0$L
 70
     0
 62
     5
  6
CONTINUOUS
  0
LAYER
  2
32ER_2$0$H
 70
     0
 62
     4
  6
32ER_2$0$HIDDEN
  0
LAYER
  2
32ER_2$0$L
 70
     0
 62
     5
  6
CONTINUOUS
  0
LAYER
  2
32ER_2$0$README
 70
     1
 62
     2
  6
CONTINUOUS
  0
LAYER
  2
C50_BASE$0$D
 70
     0
 62
     7
  6
CONTINUOUS
  0
LAYER
  2
C50_BASE$0$H
 70
     0
 62
     4
  6
C50_BASE$0$HIDDEN
  0
LAYER
  2
C50_BASE$0$L
 70
     0
 62
     5
  6
CONTINUOUS
  0
LAYER
  2
LINE
 70
     0
 62
     3
  6
CONTINUOUS
  0
LAYER
  2
F
 70
     0
 62
    13
  6
CONTINUOUS
  0
LAYER
  2
D
 70
     0
 62
     7
  6
CONTINUOUS
  0
LAYER
  2
C
 70
     0
 62
     1
  6
CENTER
  0
LAYER
  2
P
 70
     0
 62
     2
  6
PHANTOM
  0
LAYER
  2
S
 70
     0
 62
     6
  6
CONTINUOUS
  0
LAYER
  2
AM_TR
 70
     0
 62
     7
  6
CONTINUOUS
  0
LAYER
  2
AM_BM
 70
     0
 62
     7
  6
CONTINUOUS
  0
LAYER
  2
AM_BL
 70
     0
 62
     7
  6
CONTINUOUS
  0
ENDTAB
  0
TABLE
  2
STYLE
 70
     3
  0
STYLE
  2
STANDARD
 70
     0
 40
0.0
 41
1.0
 50
0.0
 71
     0
 42
0.125
  3
txt
  4

  0
STYLE
  2
C50_BASE$0$STANDARD
 70
     0
 40
0.0
 41
1.0
 50
0.0
 71
     0
 42
0.075
  3
txt
  4

  0
STYLE
  2
32ER_2$0$STANDARD
 70
     0
 40
0.0
 41
1.0
 50
0.0
 71
     0
 42
0.25
  3
txt
  4

  0
ENDTAB
  0
TABLE
  2
VIEW
 70
     0
  0
ENDTAB
  0
TABLE
  2
UCS
 70
     0
  0
ENDTAB
  0
TABLE
  2
APPID
 70
     3
  0
APPID
  2
ACAD
 70
     0
  0
APPID
  2
MCAD_NO_VIS
 70
     0
  0
APPID
  2
ACAD_TEMP_GRAPHIC
 70
     0
  0
ENDTAB
  0
TABLE
  2
DIMSTYLE
 70
     7
  0
DIMSTYLE
  2
PARLEC
 70
     0
  3

  4

  5

  6

  7

 40
1.0
 41
0.12
 42
0.0625
 43
0.38
 44
0.05
 45
0.0
 46
0.0
 47
0.0
 48
0.0
140
0.125
141
0.09
142
0.0
143
25.4
144
1.0
145
0.0
146
1.0
147
0.09
 71
     0
 72
     0
 73
     1
 74
     1
 75
     0
 76
     0
 77
     0
 78
     0
170
     0
171
     2
172
     0
173
     0
174
     0
175
     0
176
     0
177
     0
178
     0
  0
DIMSTYLE
  2
0P
 70
     0
  3

  4

  5

  6

  7

 40
1.0
 41
0.12
 42
0.0625
 43
0.38
 44
0.05
 45
0.0
 46
0.0
 47
0.0
 48
0.0
140
0.125
141
0.09
142
0.0
143
25.4
144
1.0
145
0.0
146
1.0
147
0.09
 71
     0
 72
     0
 73
     1
 74
     1
 75
     0
 76
     0
 77
     0
 78
     0
170
     0
171
     2
172
     0
173
     0
174
     0
175
     0
176
     0
177
     0
178
     0
  0
DIMSTYLE
  2
1P
 70
     0
  3

  4

  5

  6

  7

 40
1.0
 41
0.12
 42
0.0625
 43
0.38
 44
0.05
 45
0.0
 46
0.0
 47
0.0
 48
0.0
140
0.125
141
0.09
142
0.0
143
25.4
144
1.0
145
0.0
146
1.0
147
0.09
 71
     0
 72
     0
 73
     1
 74
     1
 75
     0
 76
     0
 77
     0
 78
     0
170
     0
171
     2
172
     0
173
     0
174
     0
175
     0
176
     0
177
     0
178
     0
  0
DIMSTYLE
  2
2P
 70
     0
  3

  4

  5

  6

  7

 40
1.0
 41
0.12
 42
0.0625
 43
0.38
 44
0.05
 45
0.0
 46
0.0
 47
0.0
 48
0.0
140
0.125
141
0.09
142
0.0
143
25.4
144
1.0
145
0.0
146
1.0
147
0.09
 71
     0
 72
     0
 73
     1
 74
     1
 75
     0
 76
     0
 77
     0
 78
     0
170
     0
171
     2
172
     0
173
     0
174
     0
175
     0
176
     0
177
     0
178
     0
  0
DIMSTYLE
  2
3P
 70
     0
  3

  4

  5

  6

  7

 40
1.0
 41
0.12
 42
0.0625
 43
0.38
 44
0.05
 45
0.0
 46
0.0
 47
0.0
 48
0.0
140
0.125
141
0.09
142
0.0
143
25.4
144
1.0
145
0.0
146
1.0
147
0.09
 71
     0
 72
     0
 73
     1
 74
     1
 75
     0
 76
     0
 77
     0
 78
     0
170
     0
171
     2
172
     0
173
     0
174
     0
175
     0
176
     0
177
     0
178
     0
  0
DIMSTYLE
  2
4P
 70
     0
  3

  4

  5

  6

  7

 40
1.0
 41
0.12
 42
0.0625
 43
0.38
 44
0.05
 45
0.0
 46
0.0
 47
0.0
 48
0.0
140
0.125
141
0.09
142
0.0
143
25.4
144
1.0
145
0.0
146
1.0
147
0.09
 71
     0
 72
     0
 73
     1
 74
     1
 75
     0
 76
     0
 77
     0
 78
     0
170
     0
171
     2
172
     0
173
     0
174
     0
175
     0
176
     0
177
     0
178
     0
  0
DIMSTYLE
  2
5P
 70
     0
  3

  4

  5

  6

  7

 40
1.0
 41
0.12
 42
0.0625
 43
0.38
 44
0.05
 45
0.0
 46
0.0
 47
0.0
 48
0.0
140
0.125
141
0.09
142
0.0
143
25.4
144
1.0
145
0.0
146
1.0
147
0.09
 71
     0
 72
     0
 73
     1
 74
     1
 75
     0
 76
     0
 77
     0
 78
     0
170
     0
171
     2
172
     0
173
     0
174
     0
175
     0
176
     0
177
     0
178
     0
  0
ENDTAB
  0
ENDSEC
  0
SECTION
  2
BLOCKS
  0
BLOCK
  8
0
  2
$MODEL_SPACE
 70
     0
 10
0.0
 20
0.0
 30
0.0
  3
$MODEL_SPACE
  1

  0
ENDBLK
  5
9A9
  8
0
  0
BLOCK
 67
     1
  8
0
  2
$PAPER_SPACE
 70
     0
 10
0.0
 20
0.0
 30
0.0
  3
$PAPER_SPACE
  1

  0
ENDBLK
  5
9A7
 67
     1
  8
0
  0
BLOCK
  8
0
  6
CONTINUOUS
 62
     7
  2
C50_1
 70
     0
 10
0.0
 20
0.0
 30
0.0
  3
C50_1
  1
C50_1
  0
LINE
  5
50B
  8
C50_1$0$L
 10
0.72
 20
-1.9375
 30
0.0
 11
0.75
 21
-1.9075
 31
0.0
  0
LINE
  5
50C
  8
C50_1$0$L
 10
0.78
 20
1.375
 30
0.0
 11
1.287974
 21
1.375
 31
0.0
  0
ARC
  5
50D
  8
C50_1$0$L
 10
0.78
 20
1.405
 30
0.0
 40
0.03
 50
180.0
 51
270.0
  0
LINE
  5
50E
  8
C50_1$0$L
 10
0.75
 20
0.0
 30
0.0
 11
0.75
 21
1.907502
 31
0.0
  0
LINE
  5
50F
  8
C50_1$0$L
 10
0.72
 20
0.51
 30
0.0
 11
0.72
 21
1.937502
 31
0.0
  0
LINE
  5
510
  8
C50_1$0$L
 10
0.72
 20
1.937502
 30
0.0
 11
0.75
 21
1.907502
 31
0.0
  0
LINE
  5
511
  8
C50_1$0$L
 10
0.75
 20
0.0
 30
0.0
 11
0.75
 21
-1.907502
 31
0.0
  0
LINE
  5
512
  8
C50_1$0$L
 10
0.72
 20
-0.51
 30
0.0
 11
0.72
 21
-1.937502
 31
0.0
  0
POINT
  5
513
  8
DEFPOINTS
  6
BYBLOCK
 62
     0
 10
0.75
 20
-1.907502
 30
0.0
  0
LINE
  5
514
  8
C50_1$0$L
 10
0.72
 20
-1.937502
 30
0.0
 11
0.75
 21
-1.907502
 31
0.0
  0
LINE
  5
515
  8
C50_1$0$L
 10
0.78
 20
-1.375
 30
0.0
 11
1.287974
 21
-1.375
 31
0.0
  0
ARC
  5
516
  8
C50_1$0$L
 10
0.78
 20
-1.405
 30
0.0
 40
0.03
 50
90.0
 51
180.0
  0
INSERT
  5
517
  8
C50_1$0$D
  2
C50_BASE
 10
0.0
 20
0.0
 30
0.0
  0
LINE
  5
518
  8
C50_1$0$L
 10
0.695204
 20
0.51
 30
0.0
 11
0.75
 21
0.51
 31
0.0
  0
LINE
  5
519
  8
C50_1$0$L
 10
0.695204
 20
-0.51
 30
0.0
 11
0.75
 21
-0.51
 31
0.0
  0
ENDBLK
  5
296
  8
0
  6
CONTINUOUS
 62
     7
  0
BLOCK
  8
0
  6
CONTINUOUS
 62
     7
  2
32ER_2
 70
     0
 10
0.0
 20
0.0
 30
0.0
  3
32ER_2
  1
J:\XREFCAD\32ER_2
  0
LINE
  5
747
  8
32ER_2$0$H
 10
-1.875
 20
0.4625
 30
0.0
 11
-1.875
 21
-0.4625
 31
0.0
  0
LINE
  5
748
  8
32ER_2$0$H
 10
-1.716824
 20
0.4625
 30
0.0
 11
-1.716824
 21
-0.4625
 31
0.0
  0
LINE
  5
749
  8
32ER_2$0$H
 10
-1.968171
 20
-0.370029
 30
0.0
 11
-1.968171
 21
0.370029
 31
0.0
  0
LINE
  5
74A
  8
32ER_2$0$L
 10
-1.09501
 20
-0.769
 30
0.0
 11
-1.09501
 21
0.769
 31
0.0
  0
LINE
  5
74B
  8
32ER_2$0$L
 10
-0.565
 20
0.769
 30
0.0
 11
-0.565
 21
-0.769
 31
0.0
  0
LINE
  5
74C
  8
32ER_2$0$L
 10
-0.525
 20
-0.729
 30
0.0
 11
-0.525
 21
0.729
 31
0.0
  0
LINE
  5
74D
  8
32ER_2$0$L
 10
-0.565
 20
0.769
 30
0.0
 11
-0.565
 21
-0.769
 31
0.0
  0
LINE
  5
74E
  8
32ER_2$0$L
 10
-0.525
 20
-0.729
 30
0.0
 11
-0.525
 21
0.729
 31
0.0
  0
LINE
  5
74F
  8
32ER_2$0$H
 10
-1.875
 20
-0.4625
 30
0.0
 11
-1.716824
 21
-0.4625
 31
0.0
  0
LINE
  5
750
  8
32ER_2$0$H
 10
-1.875
 20
-0.4625
 30
0.0
 11
-1.968171
 21
-0.370029
 31
0.0
  0
LINE
  5
751
  8
32ER_2$0$H
 10
-2.532892
 20
-0.406
 30
0.0
 11
-1.931928
 21
-0.406
 31
0.0
  0
LINE
  5
752
  8
32ER_2$0$H
 10
-2.532892
 20
-0.370029
 30
0.0
 11
-1.968171
 21
-0.370029
 31
0.0
  0
LINE
  5
753
  8
32ER_2$0$H
 10
-0.525
 20
-0.63
 30
0.0
 11
-1.716824
 21
-0.4625
 31
0.0
  0
LINE
  5
754
  8
32ER_2$0$L
 10
-0.565
 20
-0.769
 30
0.0
 11
-0.525
 21
-0.729
 31
0.0
  0
LINE
  5
755
  8
32ER_2$0$L
 10
-1.09501
 20
-0.769
 30
0.0
 11
-0.565
 21
-0.769
 31
0.0
  0
LINE
  5
756
  8
32ER_2$0$H
 10
-1.09501
 20
-0.748
 30
0.0
 11
-0.544
 21
-0.748
 31
0.0
  0
LINE
  5
757
  8
32ER_2$0$L
 10
-2.151833
 20
0.94
 30
0.0
 11
-1.26601
 21
0.94
 31
0.0
  0
LINE
  5
758
  8
32ER_2$0$H
 10
-1.875
 20
0.4625
 30
0.0
 11
-1.716824
 21
0.4625
 31
0.0
  0
LINE
  5
759
  8
32ER_2$0$H
 10
-2.532892
 20
0.406
 30
0.0
 11
-1.931928
 21
0.406
 31
0.0
  0
LINE
  5
75A
  8
32ER_2$0$H
 10
-2.532892
 20
0.370029
 30
0.0
 11
-1.968171
 21
0.370029
 31
0.0
  0
LINE
  5
75B
  8
32ER_2$0$H
 10
-1.875
 20
0.4625
 30
0.0
 11
-1.968171
 21
0.370029
 31
0.0
  0
LINE
  5
75C
  8
32ER_2$0$H
 10
-0.525
 20
0.63
 30
0.0
 11
-1.716824
 21
0.4625
 31
0.0
  0
LINE
  5
75D
  8
32ER_2$0$L
 10
-1.09501
 20
0.769
 30
0.0
 11
-1.26601
 21
0.94
 31
0.0
  0
LINE
  5
75E
  8
32ER_2$0$L
 10
-1.09501
 20
0.769
 30
0.0
 11
-0.565
 21
0.769
 31
0.0
  0
LINE
  5
75F
  8
32ER_2$0$H
 10
-1.09501
 20
0.748
 30
0.0
 11
-0.544
 21
0.748
 31
0.0
  0
LINE
  5
760
  8
32ER_2$0$L
 10
-0.565
 20
0.769
 30
0.0
 11
-0.525
 21
0.729
 31
0.0
  0
LINE
  5
761
  8
32ER_2$0$L
 10
-1.26601
 20
0.94
 30
0.0
 11
-1.26601
 21
-0.94
 31
0.0
  0
POINT
  5
762
  8
32ER_2$0$README
 10
0.0
 20
0.0
 30
0.0
  0
SOLID
  5
763
  8
32ER_2$0$README
 10
0.071246
 20
-0.09861
 30
0.0
 11
0.099377
 21
-0.070173
 31
0.0
 12
0.0
 22
0.0
 32
0.0
 13
0.0
 23
0.0
 33
0.0
  0
LINE
  5
764
  8
32ER_2$0$README
 10
0.085312
 20
-0.084392
 30
0.0
 11
1.297753
 21
-1.283758
 31
0.0
  0
LINE
  5
765
  8
32ER_2$0$README
 10
1.297753
 20
-1.283758
 30
0.0
 11
2.006388
 21
-1.283758
 31
0.0
  0
TEXT
  5
766
  8
32ER_2$0$README
 10
2.273798
 20
-1.377304
 30
0.0
 40
0.25
  1
POINT 0,0
  7
32ER_2$0$STANDARD
  0
TEXT
  5
767
  8
32ER_2$0$README
 10
2.273798
 20
-1.793971
 30
0.0
 40
0.25
  1
PROJECTION AT COLLET NUT
  7
32ER_2$0$STANDARD
  0
TEXT
  5
768
  8
32ER_2$0$README
 10
3.624217
 20
2.573578
 30
0.0
 40
0.25
  1
S:\XREF\32ER_1
  7
32ER_2$0$STANDARD
  0
POINT
  5
769
  8
DEFPOINTS
  6
BYBLOCK
 62
     0
 10
-1.09501
 20
0.769
 30
0.0
  0
POINT
  5
76A
  8
DEFPOINTS
  6
BYBLOCK
 62
     0
 10
-1.09501
 20
0.769
 30
0.0
  0
POINT
  5
76B
  8
DEFPOINTS
  6
BYBLOCK
 62
     0
 10
-2.151833
 20
0.94
 30
0.0
  0
POINT
  5
76C
  8
DEFPOINTS
  6
BYBLOCK
 62
     0
 10
-1.26601
 20
0.94
 30
0.0
  0
POINT
  5
76D
  8
DEFPOINTS
  6
BYBLOCK
 62
     0
 10
-1.26601
 20
0.94
 30
0.0
  0
LINE
  5
76E
  8
32ER_2$0$L
 10
-1.09501
 20
-0.769
 30
0.0
 11
-1.26601
 21
-0.94
 31
0.0
  0
LINE
  5
76F
  8
32ER_2$0$L
 10
-2.151833
 20
-0.94
 30
0.0
 11
-1.26601
 21
-0.94
 31
0.0
  0
ENDBLK
  5
29C
  8
0
  6
CONTINUOUS
 62
     7
  0
BLOCK
  8
0
  2
32ERN
 70
     0
 10
0.0
 20
0.0
 30
0.0
  3
32ERN
  1

  0
LINE
  5
199
  8
LINE
 62
     7
 10
-0.76
 20
0.0
 30
0.0
 11
-0.76
 21
-0.075
 31
0.0
  0
LINE
  5
19A
  8
LINE
 62
     7
 10
-0.76
 20
-0.075
 30
0.0
 11
-0.036037
 21
-0.075
 31
0.0
  0
LINE
  5
19B
  8
LINE
 62
     7
 10
-0.036037
 20
-0.075
 30
0.0
 11
-0.036037
 21
0.0
 31
0.0
  0
LINE
  5
19C
  8
LINE
 62
     7
 10
-0.128868
 20
0.985
 30
0.0
 11
-0.128868
 21
0.864116
 31
0.0
  0
LINE
  5
19D
  8
LINE
 62
     7
 10
-0.128868
 20
0.985
 30
0.0
 11
-0.128868
 21
0.864116
 31
0.0
  0
ARC
  5
19E
  8
LINE
 62
     7
 10
-0.128868
 20
0.935
 30
0.0
 40
0.05
 50
30.0
 51
90.0
  0
LINE
  5
19F
  8
LINE
 62
     7
 10
-0.036037
 20
0.075
 30
0.0
 11
-0.036037
 21
0.0
 31
0.0
  0
LINE
  5
1A0
  8
LINE
 62
     7
 10
-0.76
 20
0.817305
 30
0.0
 11
-0.76
 21
0.864116
 31
0.0
  0
LINE
  5
1A1
  8
LINE
 62
     7
 10
-0.715934
 20
0.852308
 30
0.0
 11
-0.036037
 21
0.852308
 31
0.0
  0
LINE
  5
1A2
  8
LINE
 62
     7
 10
-0.76
 20
0.864116
 30
0.0
 11
-0.715934
 21
0.852308
 31
0.0
  0
LINE
  5
1A3
  8
LINE
 62
     7
 10
-0.76
 20
0.864116
 30
0.0
 11
-0.036037
 21
0.864116
 31
0.0
  0
LINE
  5
1A4
  8
LINE
 62
     7
 10
-0.76
 20
0.817305
 30
0.0
 11
-0.036037
 21
0.817305
 31
0.0
  0
LINE
  5
1A5
  8
LINE
 62
     7
 10
-0.036037
 20
0.864116
 30
0.0
 11
-0.036037
 21
0.817305
 31
0.0
  0
LINE
  5
1A6
  8
LINE
 62
     7
 10
-0.76
 20
0.075
 30
0.0
 11
-0.036037
 21
0.075
 31
0.0
  0
LINE
  5
1A7
  8
LINE
 62
     7
 10
-0.76
 20
0.0
 30
0.0
 11
-0.76
 21
0.075
 31
0.0
  0
LINE
  5
1A8
  8
LINE
 62
     7
 10
-0.84
 20
0.985
 30
0.0
 11
-0.88
 21
0.945
 31
0.0
  0
LINE
  5
1A9
  8
LINE
 62
     7
 10
-0.085566
 20
0.96
 30
0.0
 11
0.0
 21
0.811795
 31
0.0
  0
LINE
  5
1AA
  8
LINE
 62
     7
 10
-0.88
 20
0.0
 30
0.0
 11
-0.88
 21
0.945
 31
0.0
  0
LINE
  5
1AB
  8
LINE
 62
     7
 10
-0.84
 20
0.985
 30
0.0
 11
-0.128868
 21
0.985
 31
0.0
  0
LINE
  5
1AC
  8
LINE
 62
     7
 10
0.0
 20
0.0
 30
0.0
 11
0.0
 21
0.811795
 31
0.0
  0
LINE
  5
1AD
  8
LINE
 62
     7
 10
-0.76
 20
-0.817305
 30
0.0
 11
-0.036037
 21
-0.817305
 31
0.0
  0
LINE
  5
1AE
  8
LINE
 62
     7
 10
-0.84
 20
-0.985
 30
0.0
 11
-0.128868
 21
-0.985
 31
0.0
  0
LINE
  5
1AF
  8
LINE
 62
     7
 10
-0.76
 20
-0.864116
 30
0.0
 11
-0.036037
 21
-0.864116
 31
0.0
  0
LINE
  5
1B0
  8
LINE
 62
     7
 10
-0.715934
 20
-0.852308
 30
0.0
 11
-0.036037
 21
-0.852308
 31
0.0
  0
LINE
  5
1B1
  8
LINE
 62
     7
 10
-0.88
 20
0.0
 30
0.0
 11
-0.88
 21
-0.945
 31
0.0
  0
LINE
  5
1B2
  8
LINE
 62
     7
 10
-0.84
 20
-0.985
 30
0.0
 11
-0.88
 21
-0.945
 31
0.0
  0
LINE
  5
1B3
  8
LINE
 62
     7
 10
-0.76
 20
-0.864116
 30
0.0
 11
-0.715934
 21
-0.852308
 31
0.0
  0
LINE
  5
1B4
  8
LINE
 62
     7
 10
-0.76
 20
-0.817305
 30
0.0
 11
-0.76
 21
-0.864116
 31
0.0
  0
LINE
  5
1B5
  8
LINE
 62
     7
 10
0.0
 20
0.0
 30
0.0
 11
0.0
 21
-0.811795
 31
0.0
  0
LINE
  5
1B6
  8
LINE
 62
     7
 10
-0.128868
 20
-0.985
 30
0.0
 11
-0.128868
 21
-0.864116
 31
0.0
  0
ARC
  5
1B7
  8
LINE
 62
     7
 10
-0.128868
 20
-0.935
 30
0.0
 40
0.05
 50
270.0
 51
330.0
  0
LINE
  5
1B8
  8
LINE
 62
     7
 10
-0.128868
 20
-0.985
 30
0.0
 11
-0.128868
 21
-0.864116
 31
0.0
  0
LINE
  5
1B9
  8
LINE
 62
     7
 10
-0.036037
 20
-0.864116
 30
0.0
 11
-0.036037
 21
-0.817305
 31
0.0
  0
LINE
  5
1BA
  8
LINE
 62
     7
 10
-0.085566
 20
-0.96
 30
0.0
 11
0.0
 21
-0.811795
 31
0.0
  0
LINE
  5
1BB
  8
LINE
 62
     7
 10
-0.88
 20
0.0
 30
0.0
 11
-0.88
 21
0.811795
 31
0.0
  0
LINE
  5
1BC
  8
LINE
 62
     7
 10
-0.128868
 20
0.817305
 30
0.0
 11
-0.128868
 21
0.075
 31
0.0
  0
LINE
  5
1BD
  8
LINE
 62
     7
 10
-0.128868
 20
-0.817305
 30
0.0
 11
-0.128868
 21
-0.075
 31
0.0
  0
LINE
  5
1BE
  8
0
 10
-0.84
 20
0.985
 30
0.0
 11
-0.84
 21
-0.985
 31
0.0
  0
ENDBLK
  5
1BF
  8
0
  0
BLOCK
  8
0
  2
BS-18
 70
     0
 10
0.0
 20
0.0
 30
0.0
  3
BS-18
  1

  0
LINE
  5
1C1
  8
L
 10
-0.4625
 20
0.33375
 30
0.0
 11
-0.39
 21
0.40625
 31
0.0
  0
LINE
  5
1C2
  8
L
 10
-0.5625
 20
0.0
 30
0.0
 11
-0.5625
 21
0.33375
 31
0.0
  0
LINE
  5
1C3
  8
L
 10
-0.39
 20
0.40625
 30
0.0
 11
-0.1725
 21
0.40625
 31
0.0
  0
LINE
  5
1C4
  8
H
 10
-0.452031
 20
0.342969
 30
0.0
 11
-0.110469
 21
0.342969
 31
0.0
  0
LINE
  5
1C5
  8
L
 10
0.0
 20
0.036
 30
0.0
 11
0.0
 21
0.33375
 31
0.0
  0
LINE
  5
1C6
  8
L
 10
-0.1
 20
0.33375
 30
0.0
 11
-0.1725
 21
0.40625
 31
0.0
  0
LINE
  5
1C7
  8
L
 10
-0.4625
 20
0.0
 30
0.0
 11
-0.4625
 21
0.3325
 31
0.0
  0
LINE
  5
1C8
  8
L
 10
-0.1
 20
0.0
 30
0.0
 11
-0.1
 21
0.33375
 31
0.0
  0
LINE
  5
1C9
  8
L
 10
-0.5625
 20
0.33375
 30
0.0
 11
-0.4625
 21
0.33375
 31
0.0
  0
LINE
  5
1CA
  8
L
 10
-0.1
 20
0.33375
 30
0.0
 11
0.0
 21
0.33375
 31
0.0
  0
LINE
  5
1CB
  8
L
 10
-0.1
 20
-0.33375
 30
0.0
 11
0.0
 21
-0.33375
 31
0.0
  0
LINE
  5
1CC
  8
L
 10
-0.5625
 20
-0.33375
 30
0.0
 11
-0.4625
 21
-0.33375
 31
0.0
  0
LINE
  5
1CD
  8
L
 10
-0.1
 20
0.0
 30
0.0
 11
-0.1
 21
-0.3325
 31
0.0
  0
LINE
  5
1CE
  8
L
 10
-0.4625
 20
0.0
 30
0.0
 11
-0.4625
 21
-0.3325
 31
0.0
  0
LINE
  5
1CF
  8
L
 10
-0.1
 20
-0.33375
 30
0.0
 11
-0.1725
 21
-0.40625
 31
0.0
  0
LINE
  5
1D0
  8
L
 10
0.0
 20
-0.036
 30
0.0
 11
0.0
 21
-0.33375
 31
0.0
  0
LINE
  5
1D1
  8
H
 10
-0.452031
 20
-0.342969
 30
0.0
 11
-0.110469
 21
-0.342969
 31
0.0
  0
LINE
  5
1D2
  8
L
 10
-0.39
 20
-0.40625
 30
0.0
 11
-0.1725
 21
-0.40625
 31
0.0
  0
LINE
  5
1D3
  8
L
 10
-0.5625
 20
0.0
 30
0.0
 11
-0.5625
 21
-0.33375
 31
0.0
  0
LINE
  5
1D4
  8
L
 10
-0.4625
 20
-0.33375
 30
0.0
 11
-0.39
 21
-0.40625
 31
0.0
  0
LINE
  5
1D5
  8
L
 10
-0.39
 20
0.40625
 30
0.0
 11
-0.39
 21
-0.40625
 31
0.0
  0
LINE
  5
1D6
  8
L
 10
-0.1725
 20
-0.40625
 30
0.0
 11
-0.1725
 21
0.40625
 31
0.0
  0
LINE
  5
1D7
  8
L
 10
-0.09
 20
0.036
 30
0.0
 11
0.0
 21
0.036
 31
0.0
  0
LINE
  5
1D8
  8
L
 10
-0.09
 20
-0.036
 30
0.0
 11
0.0
 21
-0.036
 31
0.0
  0
LINE
  5
1D9
  8
L
 10
-0.09
 20
0.036
 30
0.0
 11
-0.09
 21
-0.036
 31
0.0
  0
LINE
  5
1DA
  8
H
 10
-0.5625
 20
0.0935
 30
0.0
 11
0.0
 21
0.0935
 31
0.0
  0
LINE
  5
1DB
  8
H
 10
-0.5625
 20
-0.0935
 30
0.0
 11
0.0
 21
-0.0935
 31
0.0
  0
LINE
  5
1DC
  8
H
 10
-0.1875
 20
0.0935
 30
0.0
 11
-0.1875
 21
-0.0935
 31
0.0
  0
ENDBLK
  5
1DD
  8
0
  0
BLOCK
  8
0
  2
*D4
 70
     1
 10
0.0
 20
0.0
 30
0.0
  3
*D4
  1

  0
LINE
  5
205
  8
0
  6
BYBLOCK
 62
     0
 10
0.0
 20
1.4375
 30
0.0
 11
0.0
 21
2.81609
 31
0.0
  0
LINE
  5
206
  8
0
  6
BYBLOCK
 62
     0
 10
6.0
 20
0.874295
 30
0.0
 11
6.0
 21
2.81609
 31
0.0
  0
LINE
  5
207
  8
0
  6
BYBLOCK
 62
     0
 10
0.12
 20
2.76609
 30
0.0
 11
2.743333
 21
2.76609
 31
0.0
  0
LINE
  5
208
  8
0
  6
BYBLOCK
 62
     0
 10
5.88
 20
2.76609
 30
0.0
 11
3.256667
 21
2.76609
 31
0.0
  0
SOLID
  5
209
  8
0
  6
BYBLOCK
 62
     0
 10
0.12
 20
2.78609
 30
0.0
 11
0.12
 21
2.74609
 31
0.0
 12
0.0
 22
2.76609
 32
0.0
 13
0.0
 23
2.76609
 33
0.0
  0
SOLID
  5
20A
  8
0
  6
BYBLOCK
 62
     0
 10
5.88
 20
2.78609
 30
0.0
 11
5.88
 21
2.74609
 31
0.0
 12
6.0
 22
2.76609
 32
0.0
 13
6.0
 23
2.76609
 33
0.0
  0
TEXT
  5
20B
  8
0
  6
BYBLOCK
 62
     0
 10
2.833333
 20
2.70359
 30
0.0
 40
0.125
  1
6.00
 72
     1
 11
3.0
 21
2.76609
 31
0.0
 73
     2
  0
POINT
  5
20C
  8
DEFPOINTS
  6
BYBLOCK
 62
     0
 10
0.0
 20
1.375
 30
0.0
  0
POINT
  5
20D
  8
DEFPOINTS
  6
BYBLOCK
 62
     0
 10
6.0
 20
0.811795
 30
0.0
  0
POINT
  5
20E
  8
DEFPOINTS
  6
BYBLOCK
 62
     0
 10
6.0
 20
2.76609
 30
0.0
  0
ENDBLK
  5
20F
  8
0
  0
BLOCK
  8
0
  2
*D5
 70
     1
 10
0.0
 20
0.0
 30
0.0
  3
*D5
  1

  0
LINE
  5
211
  8
0
  6
BYBLOCK
 62
     0
 10
3.0
 20
-0.39625
 30
0.0
 11
3.0
 21
-2.144796
 31
0.0
  0
LINE
  5
212
  8
0
  6
BYBLOCK
 62
     0
 10
6.0
 20
-0.874295
 30
0.0
 11
6.0
 21
-2.144796
 31
0.0
  0
LINE
  5
213
  8
0
  6
BYBLOCK
 62
     0
 10
3.12
 20
-2.094796
 30
0.0
 11
4.243333
 21
-2.094796
 31
0.0
  0
LINE
  5
214
  8
0
  6
BYBLOCK
 62
     0
 10
5.88
 20
-2.094796
 30
0.0
 11
4.756667
 21
-2.094796
 31
0.0
  0
SOLID
  5
215
  8
0
  6
BYBLOCK
 62
     0
 10
3.12
 20
-2.074796
 30
0.0
 11
3.12
 21
-2.114796
 31
0.0
 12
3.0
 22
-2.094796
 32
0.0
 13
3.0
 23
-2.094796
 33
0.0
  0
SOLID
  5
216
  8
0
  6
BYBLOCK
 62
     0
 10
5.88
 20
-2.074796
 30
0.0
 11
5.88
 21
-2.114796
 31
0.0
 12
6.0
 22
-2.094796
 32
0.0
 13
6.0
 23
-2.094796
 33
0.0
  0
TEXT
  5
217
  8
0
  6
BYBLOCK
 62
     0
 10
4.333333
 20
-2.157296
 30
0.0
 40
0.125
  1
3.00
 72
     1
 11
4.5
 21
-2.094796
 31
0.0
 73
     2
  0
POINT
  5
218
  8
DEFPOINTS
  6
BYBLOCK
 62
     0
 10
3.0
 20
-0.33375
 30
0.0
  0
POINT
  5
219
  8
DEFPOINTS
  6
BYBLOCK
 62
     0
 10
6.0
 20
-0.811795
 30
0.0
  0
POINT
  5
21A
  8
DEFPOINTS
  6
BYBLOCK
 62
     0
 10
6.0
 20
-2.094796
 30
0.0
  0
ENDBLK
  5
21B
  8
0
  0
BLOCK
  8
0
  2
*D6
 70
     1
 10
0.0
 20
0.0
 30
0.0
  3
*D6
  1

  0
LINE
  5
21D
  8
0
  6
BYBLOCK
 62
     0
 10
5.933632
 20
0.985
 30
0.0
 11
6.71449
 21
0.985
 31
0.0
  0
LINE
  5
21E
  8
0
  6
BYBLOCK
 62
     0
 10
5.933632
 20
-0.985
 30
0.0
 11
6.71449
 21
-0.985
 31
0.0
  0
LINE
  5
21F
  8
0
  6
BYBLOCK
 62
     0
 10
6.66449
 20
0.865
 30
0.0
 11
6.66449
 21
0.1525
 31
0.0
  0
LINE
  5
220
  8
0
  6
BYBLOCK
 62
     0
 10
6.66449
 20
-0.865
 30
0.0
 11
6.66449
 21
-0.1525
 31
0.0
  0
SOLID
  5
221
  8
0
  6
BYBLOCK
 62
     0
 10
6.64449
 20
0.865
 30
0.0
 11
6.68449
 21
0.865
 31
0.0
 12
6.66449
 22
0.985
 32
0.0
 13
6.66449
 23
0.985
 33
0.0
  0
SOLID
  5
222
  8
0
  6
BYBLOCK
 62
     0
 10
6.64449
 20
-0.865
 30
0.0
 11
6.68449
 21
-0.865
 31
0.0
 12
6.66449
 22
-0.985
 32
0.0
 13
6.66449
 23
-0.985
 33
0.0
  0
TEXT
  5
223
  8
0
  6
BYBLOCK
 62
     0
 10
6.497823
 20
-0.0625
 30
0.0
 40
0.125
  1
1.97
 72
     1
 11
6.66449
 21
0.0
 31
0.0
 73
     2
  0
POINT
  5
224
  8
DEFPOINTS
  6
BYBLOCK
 62
     0
 10
5.871132
 20
0.985
 30
0.0
  0
POINT
  5
225
  8
DEFPOINTS
  6
BYBLOCK
 62
     0
 10
5.871132
 20
-0.985
 30
0.0
  0
POINT
  5
226
  8
DEFPOINTS
  6
BYBLOCK
 62
     0
 10
6.66449
 20
-0.985
 30
0.0
  0
ENDBLK
  5
227
  8
0
  0
BLOCK
  8
0
  6
CONTINUOUS
 62
     7
  2
C50_BASE
 70
     0
 10
0.0
 20
0.0
 30
0.0
  3
C50_BASE
  1
C50_BASE
  0
LINE
  5
29E
  8
C50_BASE$0$L
 10
0.0
 20
0.0
 30
0.0
 11
0.0
 21
-1.375
 31
0.0
  0
LINE
  5
29F
  8
C50_BASE$0$L
 10
0.0
 20
-1.375
 30
0.0
 11
-3.897317
 21
-0.806641
 31
0.0
  0
LINE
  5
2A0
  8
C50_BASE$0$L
 10
0.0
 20
-1.375
 30
0.0
 11
0.105
 21
-1.375
 31
0.0
  0
ARC
  5
2A1
  8
C50_BASE$0$L
 10
-3.88241
 20
0.69
 30
0.0
 40
0.11759
 50
97.282949
 51
180.0
  0
LINE
  5
2A2
  8
C50_BASE$0$H
 10
-4.0
 20
0.5625
 30
0.0
 11
-3.918594
 21
0.5155
 31
0.0
  0
LINE
  5
2A3
  8
C50_BASE$0$H
 10
-4.0
 20
-0.5625
 30
0.0
 11
-3.918594
 21
-0.5155
 31
0.0
  0
ARC
  5
2A4
  8
C50_BASE$0$L
 10
-3.88241
 20
-0.69
 30
0.0
 40
0.11759
 50
180.0
 51
262.717051
  0
LINE
  5
2A5
  8
C50_BASE$0$L
 10
-4.0
 20
-0.69
 30
0.0
 11
-4.0
 21
0.69
 31
0.0
  0
LINE
  5
2A6
  8
C50_BASE$0$L
 10
0.0
 20
1.375
 30
0.0
 11
-3.897317
 21
0.806641
 31
0.0
  0
LINE
  5
2A7
  8
C50_BASE$0$H
 10
-3.75
 20
-0.5
 30
0.0
 11
-2.25
 21
-0.5
 31
0.0
  0
LINE
  5
2A8
  8
C50_BASE$0$H
 10
-3.75
 20
-0.4375
 30
0.0
 11
-2.25
 21
-0.4375
 31
0.0
  0
LINE
  5
2A9
  8
C50_BASE$0$H
 10
-3.75
 20
0.4375
 30
0.0
 11
-2.25
 21
0.4375
 31
0.0
  0
LINE
  5
2AA
  8
C50_BASE$0$H
 10
-3.75
 20
0.5
 30
0.0
 11
-2.25
 21
0.5
 31
0.0
  0
LINE
  5
2AB
  8
C50_BASE$0$H
 10
-3.918594
 20
0.5155
 30
0.0
 11
-3.918594
 21
-0.0025
 31
0.0
  0
LINE
  5
2AC
  8
C50_BASE$0$H
 10
-3.75
 20
0.0
 30
0.0
 11
-3.75
 21
0.5155
 31
0.0
  0
LINE
  5
2AD
  8
C50_BASE$0$H
 10
-3.75
 20
0.0
 30
0.0
 11
-3.75
 21
-0.5155
 31
0.0
  0
LINE
  5
2AE
  8
C50_BASE$0$H
 10
-3.918594
 20
-0.5155
 30
0.0
 11
-3.918594
 21
0.0025
 31
0.0
  0
LINE
  5
2AF
  8
C50_BASE$0$H
 10
-3.918594
 20
-0.5155
 30
0.0
 11
-3.75
 21
-0.5155
 31
0.0
  0
LINE
  5
2B0
  8
C50_BASE$0$H
 10
-3.918594
 20
0.5155
 30
0.0
 11
-3.75
 21
0.5155
 31
0.0
  0
LINE
  5
2B1
  8
C50_BASE$0$H
 10
-2.25
 20
0.5
 30
0.0
 11
-2.25
 21
-0.5
 31
0.0
  0
LINE
  5
2B2
  8
C50_BASE$0$L
 10
0.0
 20
0.0
 30
0.0
 11
0.0
 21
1.375
 31
0.0
  0
CIRCLE
  5
2B3
  8
C50_BASE$0$L
 10
0.44
 20
0.0
 30
0.0
 40
0.1875
  0
LINE
  5
2B4
  8
C50_BASE$0$L
 10
0.125
 20
0.51
 30
0.0
 11
0.695204
 21
0.51
 31
0.0
  0
LINE
  5
2B5
  8
C50_BASE$0$L
 10
0.0
 20
1.375
 30
0.0
 11
0.105
 21
1.375
 31
0.0
  0
POINT
  5
2B6
  8
DEFPOINTS
  6
BYBLOCK
 62
     0
 10
0.0
 20
1.375
 30
0.0
  0
POINT
  5
2B7
  8
DEFPOINTS
  6
BYBLOCK
 62
     0
 10
0.0
 20
-1.375
 30
0.0
  0
POINT
  5
2B8
  8
DEFPOINTS
  6
BYBLOCK
 62
     0
 10
0.0
 20
1.375
 30
0.0
  0
LINE
  5
2B9
  8
C50_BASE$0$L
 10
0.125
 20
-1.9075
 30
0.0
 11
0.125
 21
1.9075
 31
0.0
  0
LINE
  5
2BA
  8
C50_BASE$0$L
 10
0.5155
 20
0.51
 30
0.0
 11
0.5155
 21
1.827515
 31
0.0
  0
LINE
  5
2BB
  8
C50_BASE$0$L
 10
0.3645
 20
0.51
 30
0.0
 11
0.3645
 21
1.827515
 31
0.0
  0
LINE
  5
2BC
  8
C50_BASE$0$L
 10
0.579
 20
0.51
 30
0.0
 11
0.579
 21
1.9375
 31
0.0
  0
LINE
  5
2BD
  8
C50_BASE$0$L
 10
0.301
 20
0.51
 30
0.0
 11
0.301
 21
1.9375
 31
0.0
  0
LINE
  5
2BE
  8
C50_BASE$0$L
 10
0.579
 20
1.9375
 30
0.0
 11
0.5155
 21
1.827515
 31
0.0
  0
LINE
  5
2BF
  8
C50_BASE$0$L
 10
0.301
 20
1.9375
 30
0.0
 11
0.3645
 21
1.827515
 31
0.0
  0
LINE
  5
2C0
  8
C50_BASE$0$L
 10
0.579
 20
1.9375
 30
0.0
 11
0.72
 21
1.9375
 31
0.0
  0
LINE
  5
2C1
  8
C50_BASE$0$L
 10
0.301
 20
1.9375
 30
0.0
 11
0.155
 21
1.9375
 31
0.0
  0
LINE
  5
2C2
  8
C50_BASE$0$L
 10
0.155
 20
0.51
 30
0.0
 11
0.155
 21
1.9375
 31
0.0
  0
LINE
  5
2C3
  8
C50_BASE$0$L
 10
0.125
 20
1.9075
 30
0.0
 11
0.155
 21
1.9375
 31
0.0
  0
LINE
  5
2C4
  8
C50_BASE$0$L
 10
0.5155
 20
1.797
 30
0.0
 11
0.3645
 21
1.797
 31
0.0
  0
ARC
  5
2C5
  8
C50_BASE$0$L
 10
0.105
 20
1.395
 30
0.0
 40
0.02
 50
270.0
 51
0.0
  0
LINE
  5
2C6
  8
C50_BASE$0$L
 10
0.579
 20
-0.51
 30
0.0
 11
0.579
 21
-1.9375
 31
0.0
  0
LINE
  5
2C7
  8
C50_BASE$0$L
 10
0.5155
 20
-0.51
 30
0.0
 11
0.5155
 21
-1.827515
 31
0.0
  0
LINE
  5
2C8
  8
C50_BASE$0$L
 10
0.3645
 20
-0.51
 30
0.0
 11
0.3645
 21
-1.827515
 31
0.0
  0
LINE
  5
2C9
  8
C50_BASE$0$L
 10
0.301
 20
-0.51
 30
0.0
 11
0.301
 21
-1.9375
 31
0.0
  0
LINE
  5
2CA
  8
C50_BASE$0$L
 10
0.155
 20
-0.51
 30
0.0
 11
0.155
 21
-1.9375
 31
0.0
  0
LINE
  5
2CB
  8
C50_BASE$0$L
 10
0.579
 20
-1.9375
 30
0.0
 11
0.72
 21
-1.9375
 31
0.0
  0
LINE
  5
2CC
  8
C50_BASE$0$L
 10
0.301
 20
-1.9375
 30
0.0
 11
0.3645
 21
-1.827515
 31
0.0
  0
LINE
  5
2CD
  8
C50_BASE$0$L
 10
0.579
 20
-1.9375
 30
0.0
 11
0.5155
 21
-1.827515
 31
0.0
  0
LINE
  5
2CE
  8
C50_BASE$0$L
 10
0.301
 20
-1.9375
 30
0.0
 11
0.155
 21
-1.9375
 31
0.0
  0
LINE
  5
2CF
  8
C50_BASE$0$L
 10
0.125
 20
-1.9075
 30
0.0
 11
0.155
 21
-1.9375
 31
0.0
  0
LINE
  5
2D0
  8
C50_BASE$0$L
 10
0.5155
 20
-1.797
 30
0.0
 11
0.3645
 21
-1.797
 31
0.0
  0
LINE
  5
2D1
  8
C50_BASE$0$L
 10
0.125
 20
-0.51
 30
0.0
 11
0.695204
 21
-0.51
 31
0.0
  0
ARC
  5
2D2
  8
C50_BASE$0$L
 10
0.105
 20
-1.395
 30
0.0
 40
0.02
 50
0.0
 51
90.0
  0
SOLID
  5
2D3
  8
C50_BASE$0$D
 10
-0.371748
 20
1.44279
 30
0.0
 11
-0.408045
 21
1.425982
 31
0.0
 12
-0.339474
 22
1.325493
 32
0.0
 13
-0.339474
 23
1.325493
 33
0.0
  0
LINE
  5
2D4
  8
C50_BASE$0$D
 10
-0.389896
 20
1.434386
 30
0.0
 11
-1.092609
 21
2.951982
 31
0.0
  0
LINE
  5
2D5
  8
C50_BASE$0$D
 10
-1.092609
 20
2.951982
 30
0.0
 11
-1.225138
 21
2.951982
 31
0.0
  0
TEXT
  5
2D6
  8
C50_BASE$0$D
 10
-2.677478
 20
2.903767
 30
0.0
 40
0.125
  1
50 V-FLANGE
  7
C50_BASE$0$STANDARD
 72
     2
 11
-1.323312
 21
2.966267
 31
0.0
 73
     2
  0
TEXT
  5
2D7
  8
C50_BASE$0$D
 10
-3.030563
 20
2.905161
 30
0.0
 40
0.09
  1
CAT
  7
C50_BASE$0$STANDARD
 72
     2
 11
-2.790563
 21
2.950161
 31
0.0
 73
     2
  0
ENDBLK
  5
299
  8
0
  6
CONTINUOUS
 62
     7
  0
ENDSEC
  0
SECTION
  2
ENTITIES
  0
POINT
  5
24F
  8
DEFPOINTS
  6
BYBLOCK
 62
     0
 10
0.0
 20
0.875
 30
0.0
  0
LINE
  5
250
  8
H
 10
1.51554
 20
0.370029
 30
0.0
 11
1.475
 21
0.4375
 31
0.0
  0
LINE
  5
251
  8
H
 10
-2.25
 20
0.4375
 30
0.0
 11
1.475
 21
0.4375
 31
0.0
  0
LINE
  5
252
  8
L
 10
4.723507
 20
-0.94
 30
0.0
 11
1.497
 21
-0.94
 31
0.0
  0
LINE
  5
253
  8
L
 10
1.38
 20
-1.343
 30
0.0
 11
1.38
 21
1.343
 31
0.0
  0
ARC
  5
254
  8
L
 10
1.497
 20
-1.06
 30
0.0
 40
0.12
 50
90.0
 51
167.161432
  0
LINE
  5
255
  8
H
 10
1.51554
 20
0.370029
 30
0.0
 11
1.51554
 21
-0.370029
 31
0.0
  0
LINE
  5
256
  8
H
 10
1.475
 20
0.4375
 30
0.0
 11
1.475
 21
-0.4375
 31
0.0
  0
LINE
  5
258
  8
L
 10
1.32
 20
1.375
 30
0.0
 11
1.348
 21
1.375
 31
0.0
  0
ARC
  5
259
  8
L
 10
1.348
 20
1.343
 30
0.0
 40
0.032
 50
0.0
 51
90.0
  0
LINE
  5
25A
  8
H
 10
-2.25
 20
-0.4375
 30
0.0
 11
1.475
 21
-0.4375
 31
0.0
  0
ARC
  5
25B
  8
L
 10
1.348
 20
-1.343
 30
0.0
 40
0.032
 50
270.0
 51
0.0
  0
LINE
  5
25C
  8
L
 10
1.32
 20
-1.375
 30
0.0
 11
1.348
 21
-1.375
 31
0.0
  0
LINE
  5
25D
  8
L
 10
4.723507
 20
0.94
 30
0.0
 11
1.497
 21
0.94
 31
0.0
  0
ARC
  5
25E
  8
L
 10
1.497
 20
1.06
 30
0.0
 40
0.12
 50
192.838568
 51
270.0
  0
LINE
  5
25F
  8
H
 10
3.467108
 20
0.406
 30
0.0
 11
1.493927
 21
0.406
 31
0.0
  0
LINE
  5
260
  8
H
 10
3.467108
 20
0.370029
 30
0.0
 11
1.51554
 21
0.370029
 31
0.0
  0
LINE
  5
261
  8
H
 10
3.467108
 20
-0.370029
 30
0.0
 11
1.51554
 21
-0.370029
 31
0.0
  0
LINE
  5
262
  8
H
 10
3.467108
 20
-0.406
 30
0.0
 11
1.493927
 21
-0.406
 31
0.0
  0
LINE
  5
263
  8
H
 10
1.51554
 20
-0.370029
 30
0.0
 11
1.475
 21
-0.4375
 31
0.0
  0
LINE
  5
265
  8
L
 10
1.287974
 20
1.375
 30
0.0
 11
1.32
 21
1.375
 31
0.0
  0
LINE
  5
266
  8
L
 10
1.287974
 20
-1.375
 30
0.0
 11
1.32
 21
-1.375
 31
0.0
  0
INSERT
  5
268
  8
0
  2
BS-18
 10
3.0
 20
0.0
 30
0.0
  0
DIMENSION
  5
269
  8
0
  2
*D4
 10
6.0
 20
2.76609
 30
0.0
 11
3.0
 21
2.76609
 31
0.0
  1
6.00
 13
0.0
 23
1.375
 33
0.0
 14
6.0
 24
0.811795
 34
0.0
  0
DIMENSION
  5
26A
  8
0
  2
*D5
 10
6.0
 20
-2.094796
 30
0.0
 11
4.5
 21
-2.094796
 31
0.0
  1
3.00
 13
3.0
 23
-0.33375
 33
0.0
 14
6.0
 24
-0.811795
 34
0.0
  0
DIMENSION
  5
26B
  8
0
  2
*D6
 10
6.66449
 20
-0.985
 30
0.0
 11
6.66449
 21
0.0
 31
0.0
  1
1.97
 13
5.871132
 23
0.985
 33
0.0
 14
5.871132
 24
-0.985
 34
0.0
 50
90.0
  0
LINE
  5
26C
  8
L
 10
-0.607844
 20
0.863438
 30
0.0
 11
-0.545344
 21
0.863438
 31
0.0
  0
LINE
  5
26D
  8
L
 10
-0.607844
 20
1.138438
 30
0.0
 11
-0.545344
 21
1.138438
 31
0.0
  0
ARC
  5
26E
  8
L
 10
-0.930397
 20
0.972938
 30
0.0
 40
0.1095
 50
0.018858
 51
278.071967
  0
CIRCLE
  5
26F
  8
L
 10
-0.930397
 20
0.972938
 30
0.0
 40
0.05
  0
ARC
  5
270
  8
L
 10
-0.930397
 20
0.972938
 30
0.0
 40
0.1095
 50
0.018858
 51
278.071967
  0
LINE
  5
271
  8
L
 10
-1.212936
 20
0.981809
 30
0.0
 11
-1.212936
 21
0.863438
 31
0.0
  0
LINE
  5
272
  8
L
 10
-1.275436
 20
1.02886
 30
0.0
 11
-1.275436
 21
0.863438
 31
0.0
  0
LINE
  5
273
  8
L
 10
-1.275436
 20
0.863438
 30
0.0
 11
-1.212936
 21
0.863438
 31
0.0
  0
CIRCLE
  5
274
  8
L
 10
-1.165936
 20
1.02886
 30
0.0
 40
0.05
  0
ARC
  5
275
  8
L
 10
-1.165936
 20
1.02886
 30
0.0
 40
0.1095
 50
269.890544
 51
179.99999
  0
LINE
  5
276
  8
L
 10
-1.212936
 20
0.981809
 30
0.0
 11
-1.166146
 21
0.91936
 31
0.0
  0
LINE
  5
277
  8
L
 10
-0.607844
 20
1.138438
 30
0.0
 11
-0.607844
 21
0.863438
 31
0.0
  0
LINE
  5
278
  8
L
 10
-0.728362
 20
1.0029
 30
0.0
 11
-0.728087
 21
0.863438
 31
0.0
  0
LINE
  5
279
  8
L
 10
-0.790862
 20
1.0029
 30
0.0
 11
-0.790587
 21
0.863438
 31
0.0
  0
LINE
  5
27A
  8
L
 10
-0.820897
 20
0.972974
 30
0.0
 11
-0.820861
 21
0.863438
 31
0.0
  0
LINE
  5
27B
  8
L
 10
-0.883383
 20
0.930053
 30
0.0
 11
-0.915021
 21
0.864523
 31
0.0
  0
LINE
  5
27C
  8
L
 10
-0.883383
 20
0.930053
 30
0.0
 11
-0.883361
 21
0.863438
 31
0.0
  0
LINE
  5
27D
  8
L
 10
-0.820897
 20
0.972974
 30
0.0
 11
-0.820861
 21
0.86351
 31
0.0
  0
LINE
  5
27E
  8
L
 10
-0.790587
 20
0.863438
 30
0.0
 11
-0.728087
 21
0.863438
 31
0.0
  0
LINE
  5
27F
  8
L
 10
-0.883361
 20
0.863438
 30
0.0
 11
-0.820861
 21
0.863438
 31
0.0
  0
ARC
  5
280
  8
L
 10
-0.711325
 20
1.0029
 30
0.0
 40
0.079538
 50
18.846034
 51
180.226252
  0
LINE
  5
281
  8
L
 10
-0.636051
 20
1.028593
 30
0.0
 11
-0.678446
 21
1.00494
 31
0.0
  0
ARC
  5
282
  8
L
 10
-0.703362
 20
1.0029
 30
0.0
 40
0.025
 50
4.679095
 51
180.226252
  0
ARC
  5
283
  8
L
 10
-0.179057
 20
0.972938
 30
0.0
 40
0.1095
 50
30.701399
 51
270.0
  0
ARC
  5
284
  8
L
 10
-0.409138
 20
0.972938
 30
0.0
 40
0.05625
 50
235.5219
 51
332.233922
  0
LINE
  5
285
  8
L
 10
-0.545344
 20
1.138438
 30
0.0
 11
-0.545344
 21
0.863438
 31
0.0
  0
ARC
  5
286
  8
L
 10
-0.409138
 20
0.972938
 30
0.0
 40
0.1095
 50
14.507251
 51
328.258317
  0
ARC
  5
287
  8
L
 10
-0.409138
 20
0.972938
 30
0.0
 40
0.05625
 50
64.071476
 51
172.253555
  0
LINE
  5
288
  8
L
 10
-0.384542
 20
1.023526
 30
0.0
 11
-0.464874
 21
0.98052
 31
0.0
  0
LINE
  5
289
  8
L
 10
-0.303129
 20
1.000368
 30
0.0
 11
-0.44098
 21
0.926569
 31
0.0
  0
LINE
  5
28A
  8
L
 10
-0.359364
 20
0.946733
 30
0.0
 11
-0.316016
 21
0.915331
 31
0.0
  0
LINE
  5
28B
  8
L
 10
-0.042191
 20
0.916688
 30
0.0
 11
-0.069732
 21
0.863438
 31
0.0
  0
LINE
  5
28C
  8
L
 10
-0.179057
 20
0.863438
 30
0.0
 11
-0.069732
 21
0.863438
 31
0.0
  0
LINE
  5
28D
  8
L
 10
-0.179057
 20
0.916688
 30
0.0
 11
-0.042191
 21
0.916688
 31
0.0
  0
LINE
  5
28E
  8
L
 10
-0.084904
 20
1.028845
 30
0.0
 11
-0.134416
 21
1.007162
 31
0.0
  0
ARC
  5
28F
  8
L
 10
-0.179057
 20
0.972938
 30
0.0
 40
0.05625
 50
37.476042
 51
270.0
  0
TEXT
  5
290
  8
0
 10
-1.172134
 20
0.670448
 30
0.0
 40
0.125
  1
C5032ER6
  0
LINE
  5
7B0
  8
32ER_2$0$H
 10
4.125
 20
0.4625
 30
0.0
 11
4.125
 21
-0.4625
 31
0.0
  0
LINE
  5
7B1
  8
32ER_2$0$H
 10
4.283176
 20
0.4625
 30
0.0
 11
4.283176
 21
-0.4625
 31
0.0
  0
LINE
  5
7B2
  8
32ER_2$0$H
 10
4.031829
 20
-0.370029
 30
0.0
 11
4.031829
 21
0.370029
 31
0.0
  0
LINE
  5
7B3
  8
32ER_2$0$L
 10
4.90499
 20
-0.769
 30
0.0
 11
4.90499
 21
0.769
 31
0.0
  0
LINE
  5
7B4
  8
L
 10
5.435
 20
0.769
 30
0.0
 11
5.435
 21
-0.769
 31
0.0
  0
LINE
  5
7B5
  8
L
 10
5.475
 20
-0.729
 30
0.0
 11
5.475
 21
0.729
 31
0.0
  0
LINE
  5
7B6
  8
L
 10
5.435
 20
0.769
 30
0.0
 11
5.435
 21
-0.769
 31
0.0
  0
LINE
  5
7B7
  8
L
 10
5.475
 20
-0.729
 30
0.0
 11
5.475
 21
0.729
 31
0.0
  0
LINE
  5
7B8
  8
32ER_2$0$H
 10
4.125
 20
-0.4625
 30
0.0
 11
4.283176
 21
-0.4625
 31
0.0
  0
LINE
  5
7B9
  8
32ER_2$0$H
 10
4.125
 20
-0.4625
 30
0.0
 11
4.031829
 21
-0.370029
 31
0.0
  0
LINE
  5
7BA
  8
32ER_2$0$H
 10
3.467108
 20
-0.406
 30
0.0
 11
4.068072
 21
-0.406
 31
0.0
  0
LINE
  5
7BB
  8
32ER_2$0$H
 10
3.467108
 20
-0.370029
 30
0.0
 11
4.031829
 21
-0.370029
 31
0.0
  0
LINE
  5
7BC
  8
32ER_2$0$H
 10
5.475
 20
-0.63
 30
0.0
 11
4.283176
 21
-0.4625
 31
0.0
  0
LINE
  5
7BD
  8
L
 10
5.435
 20
-0.769
 30
0.0
 11
5.475
 21
-0.729
 31
0.0
  0
LINE
  5
7BE
  8
32ER_2$0$L
 10
4.90499
 20
-0.769
 30
0.0
 11
5.435
 21
-0.769
 31
0.0
  0
LINE
  5
7BF
  8
32ER_2$0$H
 10
4.90499
 20
-0.748
 30
0.0
 11
5.456
 21
-0.748
 31
0.0
  0
LINE
  5
7C0
  8
32ER_2$0$L
 10
3.848167
 20
0.94
 30
0.0
 11
4.73399
 21
0.94
 31
0.0
  0
LINE
  5
7C1
  8
32ER_2$0$H
 10
4.125
 20
0.4625
 30
0.0
 11
4.283176
 21
0.4625
 31
0.0
  0
LINE
  5
7C2
  8
32ER_2$0$H
 10
3.467108
 20
0.406
 30
0.0
 11
4.068072
 21
0.406
 31
0.0
  0
LINE
  5
7C3
  8
32ER_2$0$H
 10
3.467108
 20
0.370029
 30
0.0
 11
4.031829
 21
0.370029
 31
0.0
  0
LINE
  5
7C4
  8
32ER_2$0$H
 10
4.125
 20
0.4625
 30
0.0
 11
4.031829
 21
0.370029
 31
0.0
  0
LINE
  5
7C5
  8
32ER_2$0$H
 10
5.475
 20
0.63
 30
0.0
 11
4.283176
 21
0.4625
 31
0.0
  0
LINE
  5
7C6
  8
32ER_2$0$L
 10
4.90499
 20
0.769
 30
0.0
 11
4.73399
 21
0.94
 31
0.0
  0
LINE
  5
7C7
  8
32ER_2$0$L
 10
4.90499
 20
0.769
 30
0.0
 11
5.435
 21
0.769
 31
0.0
  0
LINE
  5
7C8
  8
32ER_2$0$H
 10
4.90499
 20
0.748
 30
0.0
 11
5.456
 21
0.748
 31
0.0
  0
LINE
  5
7C9
  8
L
 10
5.435
 20
0.769
 30
0.0
 11
5.475
 21
0.729
 31
0.0
  0
LINE
  5
7CA
  8
32ER_2$0$L
 10
4.73399
 20
0.94
 30
0.0
 11
4.73399
 21
-0.94
 31
0.0
  0
POINT
  5
7CB
  8
32ER_2$0$README
 10
6.0
 20
0.0
 30
0.0
  0
SOLID
  5
7CC
  8
32ER_2$0$README
 10
6.071246
 20
-0.09861
 30
0.0
 11
6.099377
 21
-0.070173
 31
0.0
 12
6.0
 22
0.0
 32
0.0
 13
6.0
 23
0.0
 33
0.0
  0
LINE
  5
7CD
  8
32ER_2$0$README
 10
6.085312
 20
-0.084392
 30
0.0
 11
7.297753
 21
-1.283758
 31
0.0
  0
LINE
  5
7CE
  8
32ER_2$0$README
 10
7.297753
 20
-1.283758
 30
0.0
 11
8.006388
 21
-1.283758
 31
0.0
  0
TEXT
  5
7CF
  8
32ER_2$0$README
 10
8.273798
 20
-1.377304
 30
0.0
 40
0.25
  1
POINT 0,0
  7
32ER_2$0$STANDARD
  0
TEXT
  5
7D0
  8
32ER_2$0$README
 10
8.273798
 20
-1.793971
 30
0.0
 40
0.25
  1
PROJECTION AT COLLET NUT
  7
32ER_2$0$STANDARD
  0
TEXT
  5
7D1
  8
32ER_2$0$README
 10
9.624217
 20
2.573578
 30
0.0
 40
0.25
  1
S:\XREF\32ER_1
  7
32ER_2$0$STANDARD
  0
POINT
  5
7D2
  8
DEFPOINTS
  6
BYBLOCK
 62
     0
 10
4.90499
 20
0.769
 30
0.0
  0
POINT
  5
7D3
  8
DEFPOINTS
  6
BYBLOCK
 62
     0
 10
4.90499
 20
0.769
 30
0.0
  0
POINT
  5
7D4
  8
DEFPOINTS
  6
BYBLOCK
 62
     0
 10
3.848167
 20
0.94
 30
0.0
  0
POINT
  5
7D5
  8
DEFPOINTS
  6
BYBLOCK
 62
     0
 10
4.73399
 20
0.94
 30
0.0
  0
POINT
  5
7D6
  8
DEFPOINTS
  6
BYBLOCK
 62
     0
 10
4.73399
 20
0.94
 30
0.0
  0
LINE
  5
7D7
  8
32ER_2$0$L
 10
4.90499
 20
-0.769
 30
0.0
 11
4.73399
 21
-0.94
 31
0.0
  0
LINE
  5
7D8
  8
32ER_2$0$L
 10
3.848167
 20
-0.94
 30
0.0
 11
4.73399
 21
-0.94
 31
0.0
  0
LINE
  5
7D9
  8
C50_1$0$L
 10
0.72
 20
-1.9375
 30
0.0
 11
0.75
 21
-1.9075
 31
0.0
  0
LINE
  5
7DA
  8
C50_1$0$L
 10
0.78
 20
1.375
 30
0.0
 11
1.287974
 21
1.375
 31
0.0
  0
ARC
  5
7DB
  8
C50_1$0$L
 10
0.78
 20
1.405
 30
0.0
 40
0.03
 50
180.0
 51
270.0
  0
LINE
  5
7DC
  8
C50_1$0$L
 10
0.75
 20
0.0
 30
0.0
 11
0.75
 21
1.907502
 31
0.0
  0
LINE
  5
7DD
  8
C50_1$0$L
 10
0.72
 20
0.51
 30
0.0
 11
0.72
 21
1.937502
 31
0.0
  0
LINE
  5
7DE
  8
C50_1$0$L
 10
0.72
 20
1.937502
 30
0.0
 11
0.75
 21
1.907502
 31
0.0
  0
LINE
  5
7DF
  8
C50_1$0$L
 10
0.75
 20
0.0
 30
0.0
 11
0.75
 21
-1.907502
 31
0.0
  0
LINE
  5
7E0
  8
C50_1$0$L
 10
0.72
 20
-0.51
 30
0.0
 11
0.72
 21
-1.937502
 31
0.0
  0
POINT
  5
7E1
  8
DEFPOINTS
  6
BYBLOCK
 62
     0
 10
0.75
 20
-1.907502
 30
0.0
  0
LINE
  5
7E2
  8
C50_1$0$L
 10
0.72
 20
-1.937502
 30
0.0
 11
0.75
 21
-1.907502
 31
0.0
  0
LINE
  5
7E3
  8
C50_1$0$L
 10
0.78
 20
-1.375
 30
0.0
 11
1.287974
 21
-1.375
 31
0.0
  0
ARC
  5
7E4
  8
C50_1$0$L
 10
0.78
 20
-1.405
 30
0.0
 40
0.03
 50
90.0
 51
180.0
  0
LINE
  5
7E6
  8
C50_1$0$L
 10
0.695204
 20
0.51
 30
0.0
 11
0.75
 21
0.51
 31
0.0
  0
LINE
  5
7E7
  8
C50_1$0$L
 10
0.695204
 20
-0.51
 30
0.0
 11
0.75
 21
-0.51
 31
0.0
  0
LINE
  5
7E8
  8
C50_BASE$0$L
 10
0.0
 20
0.0
 30
0.0
 11
0.0
 21
-1.375
 31
0.0
  0
LINE
  5
7E9
  8
C50_BASE$0$L
 10
0.0
 20
-1.375
 30
0.0
 11
-3.897317
 21
-0.806641
 31
0.0
  0
LINE
  5
7EA
  8
C50_BASE$0$L
 10
0.0
 20
-1.375
 30
0.0
 11
0.105
 21
-1.375
 31
0.0
  0
ARC
  5
7EB
  8
C50_BASE$0$L
 10
-3.88241
 20
0.69
 30
0.0
 40
0.11759
 50
97.282949
 51
180.0
  0
LINE
  5
7EC
  8
C50_BASE$0$H
 10
-4.0
 20
0.5625
 30
0.0
 11
-3.918594
 21
0.5155
 31
0.0
  0
LINE
  5
7ED
  8
C50_BASE$0$H
 10
-4.0
 20
-0.5625
 30
0.0
 11
-3.918594
 21
-0.5155
 31
0.0
  0
ARC
  5
7EE
  8
C50_BASE$0$L
 10
-3.88241
 20
-0.69
 30
0.0
 40
0.11759
 50
180.0
 51
262.717051
  0
LINE
  5
7EF
  8
C50_BASE$0$L
 10
-4.0
 20
-0.69
 30
0.0
 11
-4.0
 21
0.69
 31
0.0
  0
LINE
  5
7F0
  8
C50_BASE$0$L
 10
0.0
 20
1.375
 30
0.0
 11
-3.897317
 21
0.806641
 31
0.0
  0
LINE
  5
7F1
  8
C50_BASE$0$H
 10
-3.75
 20
-0.5
 30
0.0
 11
-2.25
 21
-0.5
 31
0.0
  0
LINE
  5
7F2
  8
C50_BASE$0$H
 10
-3.75
 20
-0.4375
 30
0.0
 11
-2.25
 21
-0.4375
 31
0.0
  0
LINE
  5
7F3
  8
C50_BASE$0$H
 10
-3.75
 20
0.4375
 30
0.0
 11
-2.25
 21
0.4375
 31
0.0
  0
LINE
  5
7F4
  8
C50_BASE$0$H
 10
-3.75
 20
0.5
 30
0.0
 11
-2.25
 21
0.5
 31
0.0
  0
LINE
  5
7F5
  8
C50_BASE$0$H
 10
-3.918594
 20
0.5155
 30
0.0
 11
-3.918594
 21
-0.0025
 31
0.0
  0
LINE
  5
7F6
  8
C50_BASE$0$H
 10
-3.75
 20
0.0
 30
0.0
 11
-3.75
 21
0.5155
 31
0.0
  0
LINE
  5
7F7
  8
C50_BASE$0$H
 10
-3.75
 20
0.0
 30
0.0
 11
-3.75
 21
-0.5155
 31
0.0
  0
LINE
  5
7F8
  8
C50_BASE$0$H
 10
-3.918594
 20
-0.5155
 30
0.0
 11
-3.918594
 21
0.0025
 31
0.0
  0
LINE
  5
7F9
  8
C50_BASE$0$H
 10
-3.918594
 20
-0.5155
 30
0.0
 11
-3.75
 21
-0.5155
 31
0.0
  0
LINE
  5
7FA
  8
C50_BASE$0$H
 10
-3.918594
 20
0.5155
 30
0.0
 11
-3.75
 21
0.5155
 31
0.0
  0
LINE
  5
7FB
  8
C50_BASE$0$H
 10
-2.25
 20
0.5
 30
0.0
 11
-2.25
 21
-0.5
 31
0.0
  0
LINE
  5
7FC
  8
C50_BASE$0$L
 10
0.0
 20
0.0
 30
0.0
 11
0.0
 21
1.375
 31
0.0
  0
CIRCLE
  5
7FD
  8
C50_BASE$0$L
 10
0.44
 20
0.0
 30
0.0
 40
0.1875
  0
LINE
  5
7FE
  8
C50_BASE$0$L
 10
0.125
 20
0.51
 30
0.0
 11
0.695204
 21
0.51
 31
0.0
  0
LINE
  5
7FF
  8
C50_BASE$0$L
 10
0.0
 20
1.375
 30
0.0
 11
0.105
 21
1.375
 31
0.0
  0
POINT
  5
800
  8
DEFPOINTS
  6
BYBLOCK
 62
     0
 10
0.0
 20
1.375
 30
0.0
  0
POINT
  5
801
  8
DEFPOINTS
  6
BYBLOCK
 62
     0
 10
0.0
 20
-1.375
 30
0.0
  0
POINT
  5
802
  8
DEFPOINTS
  6
BYBLOCK
 62
     0
 10
0.0
 20
1.375
 30
0.0
  0
LINE
  5
803
  8
C50_BASE$0$L
 10
0.125
 20
-1.9075
 30
0.0
 11
0.125
 21
1.9075
 31
0.0
  0
LINE
  5
804
  8
C50_BASE$0$L
 10
0.5155
 20
0.51
 30
0.0
 11
0.5155
 21
1.827515
 31
0.0
  0
LINE
  5
805
  8
C50_BASE$0$L
 10
0.3645
 20
0.51
 30
0.0
 11
0.3645
 21
1.827515
 31
0.0
  0
LINE
  5
806
  8
C50_BASE$0$L
 10
0.579
 20
0.51
 30
0.0
 11
0.579
 21
1.9375
 31
0.0
  0
LINE
  5
807
  8
C50_BASE$0$L
 10
0.301
 20
0.51
 30
0.0
 11
0.301
 21
1.9375
 31
0.0
  0
LINE
  5
808
  8
C50_BASE$0$L
 10
0.579
 20
1.9375
 30
0.0
 11
0.5155
 21
1.827515
 31
0.0
  0
LINE
  5
809
  8
C50_BASE$0$L
 10
0.301
 20
1.9375
 30
0.0
 11
0.3645
 21
1.827515
 31
0.0
  0
LINE
  5
80A
  8
C50_BASE$0$L
 10
0.579
 20
1.9375
 30
0.0
 11
0.72
 21
1.9375
 31
0.0
  0
LINE
  5
80B
  8
C50_BASE$0$L
 10
0.301
 20
1.9375
 30
0.0
 11
0.155
 21
1.9375
 31
0.0
  0
LINE
  5
80C
  8
C50_BASE$0$L
 10
0.155
 20
0.51
 30
0.0
 11
0.155
 21
1.9375
 31
0.0
  0
LINE
  5
80D
  8
C50_BASE$0$L
 10
0.125
 20
1.9075
 30
0.0
 11
0.155
 21
1.9375
 31
0.0
  0
LINE
  5
80E
  8
C50_BASE$0$L
 10
0.5155
 20
1.797
 30
0.0
 11
0.3645
 21
1.797
 31
0.0
  0
ARC
  5
80F
  8
C50_BASE$0$L
 10
0.105
 20
1.395
 30
0.0
 40
0.02
 50
270.0
 51
0.0
  0
LINE
  5
810
  8
C50_BASE$0$L
 10
0.579
 20
-0.51
 30
0.0
 11
0.579
 21
-1.9375
 31
0.0
  0
LINE
  5
811
  8
C50_BASE$0$L
 10
0.5155
 20
-0.51
 30
0.0
 11
0.5155
 21
-1.827515
 31
0.0
  0
LINE
  5
812
  8
C50_BASE$0$L
 10
0.3645
 20
-0.51
 30
0.0
 11
0.3645
 21
-1.827515
 31
0.0
  0
LINE
  5
813
  8
C50_BASE$0$L
 10
0.301
 20
-0.51
 30
0.0
 11
0.301
 21
-1.9375
 31
0.0
  0
LINE
  5
814
  8
C50_BASE$0$L
 10
0.155
 20
-0.51
 30
0.0
 11
0.155
 21
-1.9375
 31
0.0
  0
LINE
  5
815
  8
C50_BASE$0$L
 10
0.579
 20
-1.9375
 30
0.0
 11
0.72
 21
-1.9375
 31
0.0
  0
LINE
  5
816
  8
C50_BASE$0$L
 10
0.301
 20
-1.9375
 30
0.0
 11
0.3645
 21
-1.827515
 31
0.0
  0
LINE
  5
817
  8
C50_BASE$0$L
 10
0.579
 20
-1.9375
 30
0.0
 11
0.5155
 21
-1.827515
 31
0.0
  0
LINE
  5
818
  8
C50_BASE$0$L
 10
0.301
 20
-1.9375
 30
0.0
 11
0.155
 21
-1.9375
 31
0.0
  0
LINE
  5
819
  8
C50_BASE$0$L
 10
0.125
 20
-1.9075
 30
0.0
 11
0.155
 21
-1.9375
 31
0.0
  0
LINE
  5
81A
  8
C50_BASE$0$L
 10
0.5155
 20
-1.797
 30
0.0
 11
0.3645
 21
-1.797
 31
0.0
  0
LINE
  5
81B
  8
C50_BASE$0$L
 10
0.125
 20
-0.51
 30
0.0
 11
0.695204
 21
-0.51
 31
0.0
  0
ARC
  5
81C
  8
C50_BASE$0$L
 10
0.105
 20
-1.395
 30
0.0
 40
0.02
 50
0.0
 51
90.0
  0
SOLID
  5
81D
  8
C50_BASE$0$D
 10
-0.371748
 20
1.44279
 30
0.0
 11
-0.408045
 21
1.425982
 31
0.0
 12
-0.339474
 22
1.325493
 32
0.0
 13
-0.339474
 23
1.325493
 33
0.0
  0
LINE
  5
81E
  8
C50_BASE$0$D
 10
-0.389896
 20
1.434386
 30
0.0
 11
-1.092609
 21
2.951982
 31
0.0
  0
LINE
  5
81F
  8
C50_BASE$0$D
 10
-1.092609
 20
2.951982
 30
0.0
 11
-1.225138
 21
2.951982
 31
0.0
  0
TEXT
  5
820
  8
C50_BASE$0$D
 10
-2.677478
 20
2.903767
 30
0.0
 40
0.125
  1
50 V-FLANGE
  7
C50_BASE$0$STANDARD
 72
     2
 11
-1.323312
 21
2.966267
 31
0.0
 73
     2
  0
TEXT
  5
821
  8
C50_BASE$0$D
 10
-3.030563
 20
2.905161
 30
0.0
 40
0.09
  1
CAT
  7
C50_BASE$0$STANDARD
 72
     2
 11
-2.790563
 21
2.950161
 31
0.0
 73
     2
  0
LINE
  5
8E3
  8
0
  6
CONTINUOUS
 10
0.0
 20
2.447004
 30
0.0
 11
0.0
 21
2.378744
 31
0.0
  0
LINE
  5
8E4
  8
0
  6
CONTINUOUS
 10
1.38
 20
1.4055
 30
0.0
 11
1.38
 21
2.478744
 31
0.0
  0
LINE
  5
8E5
  8
0
  6
CONTINUOUS
 10
0.12
 20
2.428744
 30
0.0
 11
0.370833
 21
2.428744
 31
0.0
  0
LINE
  5
8E6
  8
0
  6
CONTINUOUS
 10
1.26
 20
2.428744
 30
0.0
 11
1.009167
 21
2.428744
 31
0.0
  0
SOLID
  5
8E7
  8
0
  6
CONTINUOUS
 10
0.12
 20
2.448744
 30
0.0
 11
0.12
 21
2.408744
 31
0.0
 12
0.0
 22
2.428744
 32
0.0
 13
0.0
 23
2.428744
 33
0.0
  0
SOLID
  5
8E8
  8
0
  6
CONTINUOUS
 10
1.26
 20
2.448744
 30
0.0
 11
1.26
 21
2.408744
 31
0.0
 12
1.38
 22
2.428744
 32
0.0
 13
1.38
 23
2.428744
 33
0.0
  0
TEXT
  5
8E9
  8
0
  6
CONTINUOUS
 10
0.460833
 20
2.366244
 30
0.0
 40
0.125
  1
1.375
  0
LINE
  5
9BB
  8
L
 10
5.24
 20
0.0
 30
0.0
 11
5.24
 21
-0.075
 31
0.0
  0
LINE
  5
9BC
  8
L
 10
5.24
 20
-0.075
 30
0.0
 11
5.963963
 21
-0.075
 31
0.0
  0
LINE
  5
9BD
  8
L
 10
5.963963
 20
-0.075
 30
0.0
 11
5.963963
 21
0.0
 31
0.0
  0
LINE
  5
9BE
  8
L
 10
5.871132
 20
0.985
 30
0.0
 11
5.871132
 21
0.864116
 31
0.0
  0
LINE
  5
9BF
  8
L
 10
5.871132
 20
0.985
 30
0.0
 11
5.871132
 21
0.864116
 31
0.0
  0
ARC
  5
9C0
  8
L
 10
5.871132
 20
0.935
 30
0.0
 40
0.05
 50
30.0
 51
90.0
  0
LINE
  5
9C1
  8
L
 10
5.963963
 20
0.075
 30
0.0
 11
5.963963
 21
0.0
 31
0.0
  0
LINE
  5
9C2
  8
L
 10
5.24
 20
0.817305
 30
0.0
 11
5.24
 21
0.864116
 31
0.0
  0
LINE
  5
9C3
  8
L
 10
5.284066
 20
0.852308
 30
0.0
 11
5.963963
 21
0.852308
 31
0.0
  0
LINE
  5
9C4
  8
L
 10
5.24
 20
0.864116
 30
0.0
 11
5.284066
 21
0.852308
 31
0.0
  0
LINE
  5
9C5
  8
L
 10
5.24
 20
0.864116
 30
0.0
 11
5.963963
 21
0.864116
 31
0.0
  0
LINE
  5
9C6
  8
L
 10
5.24
 20
0.817305
 30
0.0
 11
5.963963
 21
0.817305
 31
0.0
  0
LINE
  5
9C7
  8
L
 10
5.963963
 20
0.864116
 30
0.0
 11
5.963963
 21
0.817305
 31
0.0
  0
LINE
  5
9C8
  8
L
 10
5.24
 20
0.075
 30
0.0
 11
5.963963
 21
0.075
 31
0.0
  0
LINE
  5
9C9
  8
L
 10
5.24
 20
0.0
 30
0.0
 11
5.24
 21
0.075
 31
0.0
  0
LINE
  5
9CA
  8
L
 10
5.16
 20
0.985
 30
0.0
 11
5.12
 21
0.945
 31
0.0
  0
LINE
  5
9CB
  8
L
 10
5.914434
 20
0.96
 30
0.0
 11
6.0
 21
0.811795
 31
0.0
  0
LINE
  5
9CC
  8
L
 10
5.12
 20
0.0
 30
0.0
 11
5.12
 21
0.945
 31
0.0
  0
LINE
  5
9CD
  8
L
 10
5.16
 20
0.985
 30
0.0
 11
5.871132
 21
0.985
 31
0.0
  0
LINE
  5
9CE
  8
L
 10
6.0
 20
0.0
 30
0.0
 11
6.0
 21
0.811795
 31
0.0
  0
LINE
  5
9CF
  8
L
 10
5.24
 20
-0.817305
 30
0.0
 11
5.963963
 21
-0.817305
 31
0.0
  0
LINE
  5
9D0
  8
L
 10
5.16
 20
-0.985
 30
0.0
 11
5.871132
 21
-0.985
 31
0.0
  0
LINE
  5
9D1
  8
L
 10
5.24
 20
-0.864116
 30
0.0
 11
5.963963
 21
-0.864116
 31
0.0
  0
LINE
  5
9D2
  8
L
 10
5.284066
 20
-0.852308
 30
0.0
 11
5.963963
 21
-0.852308
 31
0.0
  0
LINE
  5
9D3
  8
L
 10
5.12
 20
0.0
 30
0.0
 11
5.12
 21
-0.945
 31
0.0
  0
LINE
  5
9D4
  8
L
 10
5.16
 20
-0.985
 30
0.0
 11
5.12
 21
-0.945
 31
0.0
  0
LINE
  5
9D5
  8
L
 10
5.24
 20
-0.864116
 30
0.0
 11
5.284066
 21
-0.852308
 31
0.0
  0
LINE
  5
9D6
  8
L
 10
5.24
 20
-0.817305
 30
0.0
 11
5.24
 21
-0.864116
 31
0.0
  0
LINE
  5
9D7
  8
L
 10
6.0
 20
0.0
 30
0.0
 11
6.0
 21
-0.811795
 31
0.0
  0
LINE
  5
9D8
  8
L
 10
5.871132
 20
-0.985
 30
0.0
 11
5.871132
 21
-0.864116
 31
0.0
  0
ARC
  5
9D9
  8
L
 10
5.871132
 20
-0.935
 30
0.0
 40
0.05
 50
270.0
 51
330.0
  0
LINE
  5
9DA
  8
L
 10
5.871132
 20
-0.985
 30
0.0
 11
5.871132
 21
-0.864116
 31
0.0
  0
LINE
  5
9DB
  8
L
 10
5.963963
 20
-0.864116
 30
0.0
 11
5.963963
 21
-0.817305
 31
0.0
  0
LINE
  5
9DC
  8
L
 10
5.914434
 20
-0.96
 30
0.0
 11
6.0
 21
-0.811795
 31
0.0
  0
LINE
  5
9DD
  8
L
 10
5.12
 20
0.0
 30
0.0
 11
5.12
 21
0.811795
 31
0.0
  0
LINE
  5
9DE
  8
L
 10
5.871132
 20
0.817305
 30
0.0
 11
5.871132
 21
0.075
 31
0.0
  0
LINE
  5
9DF
  8
L
 10
5.871132
 20
-0.817305
 30
0.0
 11
5.871132
 21
-0.075
 31
0.0
  0
LINE
  5
9E0
  8
L
 10
5.16
 20
0.985
 30
0.0
 11
5.16
 21
-0.985
 31
0.0
  0
ENDSEC
  0
EOF
