  0
SECTION
  2
HEADER
  9
$ACADVER
  1
AC1009
  9
$INSBASE
 10
0.44
 20
0.0
 30
0.0
  9
$EXTMIN
 10
-4.0
 20
-1.9375
 30
0.0
  9
$EXTMAX
 10
6.263186
 20
3.028767
 30
0.0
  9
$LIMMIN
 10
0.0
 20
0.0
  9
$LIMMAX
 10
12.0
 20
9.0
  9
$ORTHOMODE
 70
     1
  9
$REGENMODE
 70
     1
  9
$FILLMODE
 70
     1
  9
$QTEXTMODE
 70
     0
  9
$MIRRTEXT
 70
     1
  9
$DRAGMODE
 70
     2
  9
$LTSCALE
 40
1.0
  9
$OSMODE
 70
   165
  9
$ATTMODE
 70
     1
  9
$TEXTSIZE
 40
0.2
  9
$TRACEWID
 40
0.05
  9
$TEXTSTYLE
  7
CATALOG
  9
$CLAYER
  8
L
  9
$CELTYPE
  6
BYLAYER
  9
$CECOLOR
 62
   256
  9
$DIMSCALE
 40
1.0
  9
$DIMASZ
 40
0.125
  9
$DIMEXO
 40
0.0625
  9
$DIMDLI
 40
0.38
  9
$DIMRND
 40
0.0
  9
$DIMDLE
 40
0.0
  9
$DIMEXE
 40
0.125
  9
$DIMTP
 40
0.0
  9
$DIMTM
 40
0.0
  9
$DIMTXT
 40
0.125
  9
$DIMCEN
 40
0.09
  9
$DIMTSZ
 40
0.0
  9
$DIMTOL
 70
     0
  9
$DIMLIM
 70
     0
  9
$DIMTIH
 70
     1
  9
$DIMTOH
 70
     1
  9
$DIMSE1
 70
     0
  9
$DIMSE2
 70
     0
  9
$DIMTAD
 70
     0
  9
$DIMZIN
 70
     4
  9
$DIMBLK
  1

  9
$DIMASO
 70
     1
  9
$DIMSHO
 70
     1
  9
$DIMPOST
  1

  9
$DIMAPOST
  1

  9
$DIMALT
 70
     0
  9
$DIMALTD
 70
     2
  9
$DIMALTF
 40
25.4
  9
$DIMLFAC
 40
1.0
  9
$DIMTOFL
 70
     0
  9
$DIMTVP
 40
0.0
  9
$DIMTIX
 70
     0
  9
$DIMSOXD
 70
     0
  9
$DIMSAH
 70
     0
  9
$DIMBLK1
  1

  9
$DIMBLK2
  1

  9
$DIMSTYLE
  2
2P
  9
$DIMCLRD
 70
     0
  9
$DIMCLRE
 70
     0
  9
$DIMCLRT
 70
     0
  9
$DIMTFAC
 40
1.0
  9
$DIMGAP
 40
0.09
  9
$LUNITS
 70
     2
  9
$LUPREC
 70
     3
  9
$SKETCHINC
 40
0.1
  9
$FILLETRAD
 40
0.03
  9
$AUNITS
 70
     1
  9
$AUPREC
 70
     0
  9
$MENU
  1
acad
  9
$ELEVATION
 40
0.0
  9
$PELEVATION
 40
0.0
  9
$THICKNESS
 40
0.0
  9
$LIMCHECK
 70
     0
  9
$BLIPMODE
 70
     0
  9
$CHAMFERA
 40
0.0
  9
$CHAMFERB
 40
0.0
  9
$SKPOLY
 70
     0
  9
$TDCREATE
 40
2450534.44264
  9
$TDUPDATE
 40
2450898.599427
  9
$TDINDWG
 40
0.03011
  9
$TDUSRTIMER
 40
0.03011
  9
$USRTIMER
 70
     1
  9
$ANGBASE
 50
0.0
  9
$ANGDIR
 70
     0
  9
$PDMODE
 70
     0
  9
$PDSIZE
 40
0.0
  9
$PLINEWID
 40
0.0
  9
$COORDS
 70
     1
  9
$SPLFRAME
 70
     0
  9
$SPLINETYPE
 70
     6
  9
$SPLINESEGS
 70
     8
  9
$ATTDIA
 70
     1
  9
$ATTREQ
 70
     1
  9
$HANDLING
 70
     1
  9
$HANDSEED
  5
19C
  9
$SURFTAB1
 70
     6
  9
$SURFTAB2
 70
     6
  9
$SURFTYPE
 70
     6
  9
$SURFU
 70
     6
  9
$SURFV
 70
     6
  9
$UCSNAME
  2

  9
$UCSORG
 10
0.0
 20
0.0
 30
0.0
  9
$UCSXDIR
 10
1.0
 20
0.0
 30
0.0
  9
$UCSYDIR
 10
0.0
 20
1.0
 30
0.0
  9
$PUCSNAME
  2

  9
$PUCSORG
 10
0.0
 20
0.0
 30
0.0
  9
$PUCSXDIR
 10
1.0
 20
0.0
 30
0.0
  9
$PUCSYDIR
 10
0.0
 20
1.0
 30
0.0
  9
$USERI1
 70
     0
  9
$USERI2
 70
     0
  9
$USERI3
 70
     0
  9
$USERI4
 70
     0
  9
$USERI5
 70
     0
  9
$USERR1
 40
0.0
  9
$USERR2
 40
0.0
  9
$USERR3
 40
0.0
  9
$USERR4
 40
0.0
  9
$USERR5
 40
0.0
  9
$WORLDVIEW
 70
     1
  9
$SHADEDGE
 70
     3
  9
$SHADEDIF
 70
    70
  9
$TILEMODE
 70
     1
  9
$MAXACTVP
 70
    16
  9
$PLIMCHECK
 70
     0
  9
$PEXTMIN
 10
1.000000E+020
 20
1.000000E+020
 30
1.000000E+020
  9
$PEXTMAX
 10
-1.000000E+020
 20
-1.000000E+020
 30
-1.000000E+020
  9
$PLIMMIN
 10
0.0
 20
0.0
  9
$PLIMMAX
 10
12.0
 20
9.0
  9
$UNITMODE
 70
     0
  9
$VISRETAIN
 70
     1
  9
$PLINEGEN
 70
     0
  9
$PSLTSCALE
 70
     1
  0
ENDSEC
  0
SECTION
  2
TABLES
  0
TABLE
  2
VPORT
 70
     2
  0
VPORT
  2
*ACTIVE
 70
     0
 10
0.0
 20
0.0
 11
1.0
 21
1.0
 12
1.120341
 22
0.724777
 13
0.0
 23
0.0
 14
1.0
 24
1.0
 15
0.0
 25
0.0
 16
0.0
 26
0.0
 36
1.0
 17
0.0
 27
0.0
 37
0.0
 40
6.447006
 41
1.605903
 42
50.0
 43
0.0
 44
0.0
 50
0.0
 51
0.0
 71
     0
 72
 20000
 73
     1
 74
     0
 75
     0
 76
     0
 77
     0
 78
     0
  0
ENDTAB
  0
TABLE
  2
LTYPE
 70
     4
  0
LTYPE
  2
CONTINUOUS
 70
     0
  3
Solid line
 72
    65
 73
     0
 40
0.0
  0
LTYPE
  2
HIDDEN
 70
     0
  3
__ __ __ __ __ __ __ __ __ __ __ __ __ __ __ __
 72
    65
 73
     2
 40
0.375
 49
0.25
 49
-0.125
  0
LTYPE
  2
CENTER
 70
     0
  3
Center ____ _ ____ _ ____ _ ____ _ ____ _ ____
 72
    65
 73
     4
 40
2.0
 49
1.25
 49
-0.25
 49
0.25
 49
-0.25
  0
LTYPE
  2
PHANTOM
 70
     0
  3
Phantom ______  __  __  ______  __  __  ______
 72
    65
 73
     6
 40
2.5
 49
1.25
 49
-0.25
 49
0.25
 49
-0.25
 49
0.25
 49
-0.25
  0
ENDTAB
  0
TABLE
  2
LAYER
 70
    13
  0
LAYER
  2
0
 70
     0
 62
     7
  6
CONTINUOUS
  0
LAYER
  2
L
 70
     0
 62
     5
  6
CONTINUOUS
  0
LAYER
  2
H
 70
     0
 62
     4
  6
HIDDEN
  0
LAYER
  2
D
 70
     0
 62
     7
  6
CONTINUOUS
  0
LAYER
  2
C50_BASE$0$D
 70
     0
 62
     7
  6
CONTINUOUS
  0
LAYER
  2
F
 70
     0
 62
    13
  6
CONTINUOUS
  0
LAYER
  2
C
 70
     0
 62
     1
  6
CENTER
  0
LAYER
  2
P
 70
     0
 62
     2
  6
PHANTOM
  0
LAYER
  2
S
 70
     0
 62
     6
  6
CONTINUOUS
  0
LAYER
  2
DEFPOINTS
 70
     0
 62
     7
  6
CONTINUOUS
  0
LAYER
  2
AM_TR
 70
     0
 62
     7
  6
CONTINUOUS
  0
LAYER
  2
AM_BM
 70
     0
 62
     7
  6
CONTINUOUS
  0
LAYER
  2
AM_BL
 70
     0
 62
     7
  6
CONTINUOUS
  0
ENDTAB
  0
TABLE
  2
STYLE
 70
     3
  0
STYLE
  2
STANDARD
 70
     0
 40
0.0
 41
1.0
 50
0.0
 71
     0
 42
0.2
  3
txt
  4

  0
STYLE
  2
CATALOG
 70
     0
 40
0.0
 41
1.0
 50
0.0
 71
     0
 42
0.2
  3
romans.shx
  4

  0
STYLE
  2
C50_BASE$0$STANDARD
 70
     0
 40
0.0
 41
1.0
 50
0.0
 71
     0
 42
0.075
  3
txt
  4

  0
ENDTAB
  0
TABLE
  2
VIEW
 70
     0
  0
ENDTAB
  0
TABLE
  2
UCS
 70
     0
  0
ENDTAB
  0
TABLE
  2
APPID
 70
     3
  0
APPID
  2
ACAD
 70
     0
  0
APPID
  2
MCAD_NO_VIS
 70
     0
  0
APPID
  2
ACAD_TEMP_GRAPHIC
 70
     0
  0
ENDTAB
  0
TABLE
  2
DIMSTYLE
 70
     7
  0
DIMSTYLE
  2
5P
 70
     0
  3

  4

  5

  6

  7

 40
1.0
 41
0.125
 42
0.0625
 43
0.38
 44
0.125
 45
0.0
 46
0.0
 47
0.0
 48
0.0
140
0.125
141
0.09
142
0.0
143
25.4
144
1.0
145
0.0
146
1.0
147
0.09
 71
     0
 72
     0
 73
     1
 74
     1
 75
     0
 76
     0
 77
     0
 78
     4
170
     0
171
     2
172
     0
173
     0
174
     0
175
     0
176
     0
177
     0
178
     0
  0
DIMSTYLE
  2
PARLEC
 70
     0
  3

  4

  5

  6

  7

 40
1.0
 41
0.12
 42
0.0625
 43
0.38
 44
0.05
 45
0.0
 46
0.0
 47
0.0
 48
0.0
140
0.125
141
0.09
142
0.0
143
25.4
144
1.0
145
0.0
146
1.0
147
0.09
 71
     0
 72
     0
 73
     1
 74
     1
 75
     0
 76
     0
 77
     0
 78
     0
170
     0
171
     2
172
     0
173
     0
174
     0
175
     0
176
     0
177
     0
178
     0
  0
DIMSTYLE
  2
0P
 70
     0
  3

  4

  5

  6

  7

 40
1.0
 41
0.125
 42
0.0625
 43
0.38
 44
0.125
 45
0.0
 46
0.0
 47
0.0
 48
0.0
140
0.125
141
0.09
142
0.0
143
25.4
144
1.0
145
0.0
146
1.0
147
0.09
 71
     0
 72
     0
 73
     1
 74
     1
 75
     0
 76
     0
 77
     0
 78
     4
170
     0
171
     2
172
     0
173
     0
174
     0
175
     0
176
     0
177
     0
178
     0
  0
DIMSTYLE
  2
1P
 70
     0
  3

  4

  5

  6

  7

 40
1.0
 41
0.125
 42
0.0625
 43
0.38
 44
0.125
 45
0.0
 46
0.0
 47
0.0
 48
0.0
140
0.125
141
0.09
142
0.0
143
25.4
144
1.0
145
0.0
146
1.0
147
0.09
 71
     0
 72
     0
 73
     1
 74
     1
 75
     0
 76
     0
 77
     0
 78
     4
170
     0
171
     2
172
     0
173
     0
174
     0
175
     0
176
     0
177
     0
178
     0
  0
DIMSTYLE
  2
2P
 70
     0
  3

  4

  5

  6

  7

 40
1.0
 41
0.125
 42
0.0625
 43
0.38
 44
0.125
 45
0.0
 46
0.0
 47
0.0
 48
0.0
140
0.125
141
0.09
142
0.0
143
25.4
144
1.0
145
0.0
146
1.0
147
0.09
 71
     0
 72
     0
 73
     1
 74
     1
 75
     0
 76
     0
 77
     0
 78
     4
170
     0
171
     2
172
     0
173
     0
174
     0
175
     0
176
     0
177
     0
178
     0
  0
DIMSTYLE
  2
3P
 70
     0
  3

  4

  5

  6

  7

 40
1.0
 41
0.125
 42
0.0625
 43
0.38
 44
0.125
 45
0.0
 46
0.0
 47
0.0
 48
0.0
140
0.125
141
0.09
142
0.0
143
25.4
144
1.0
145
0.0
146
1.0
147
0.09
 71
     0
 72
     0
 73
     1
 74
     1
 75
     0
 76
     0
 77
     0
 78
     4
170
     0
171
     2
172
     0
173
     0
174
     0
175
     0
176
     0
177
     0
178
     0
  0
DIMSTYLE
  2
4P
 70
     0
  3

  4

  5

  6

  7

 40
1.0
 41
0.125
 42
0.0625
 43
0.38
 44
0.125
 45
0.0
 46
0.0
 47
0.0
 48
0.0
140
0.125
141
0.09
142
0.0
143
25.4
144
1.0
145
0.0
146
1.0
147
0.09
 71
     0
 72
     0
 73
     1
 74
     1
 75
     0
 76
     0
 77
     0
 78
     4
170
     0
171
     2
172
     0
173
     0
174
     0
175
     0
176
     0
177
     0
178
     0
  0
ENDTAB
  0
ENDSEC
  0
SECTION
  2
BLOCKS
  0
BLOCK
  8
0
  2
$MODEL_SPACE
 70
     0
 10
0.0
 20
0.0
 30
0.0
  3
$MODEL_SPACE
  1

  0
ENDBLK
  5
6
  8
0
  0
BLOCK
 67
     1
  8
0
  2
$PAPER_SPACE
 70
     0
 10
0.0
 20
0.0
 30
0.0
  3
$PAPER_SPACE
  1

  0
ENDBLK
  5
9
 67
     1
  8
0
  0
BLOCK
  8
0
  2
CADALOG
 70
     0
 10
0.0
 20
0.0
 30
0.0
  3
CADALOG
  1

  0
ARC
  5
9E
  8
L
 10
-0.929963
 20
0.894551
 30
0.0
 40
0.1095
 50
0.018858
 51
278.071967
  0
ARC
  5
9F
  8
L
 10
-0.929963
 20
0.894551
 30
0.0
 40
0.1095
 50
0.018858
 51
278.071967
  0
TEXT
  5
A0
  8
D
 10
-1.148894
 20
0.567926
 30
0.0
 40
0.125
  1
C50-xxxxx
  0
ARC
  5
A1
  8
L
 10
-1.165503
 20
0.950473
 30
0.0
 40
0.1095
 50
269.890544
 51
179.99999
  0
CIRCLE
  5
A2
  8
L
 10
-1.165503
 20
0.950473
 30
0.0
 40
0.05
  0
LINE
  5
A3
  8
L
 10
-1.275003
 20
0.785051
 30
0.0
 11
-1.212503
 21
0.785051
 31
0.0
  0
LINE
  5
A4
  8
L
 10
-1.275003
 20
0.950473
 30
0.0
 11
-1.275003
 21
0.785051
 31
0.0
  0
LINE
  5
A5
  8
L
 10
-1.212503
 20
0.903423
 30
0.0
 11
-1.212503
 21
0.785051
 31
0.0
  0
LINE
  5
A6
  8
L
 10
-1.212503
 20
0.903423
 30
0.0
 11
-1.165712
 21
0.840974
 31
0.0
  0
LINE
  5
A7
  8
L
 10
-0.302695
 20
0.921981
 30
0.0
 11
-0.440547
 21
0.848182
 31
0.0
  0
ARC
  5
A8
  8
L
 10
-0.408704
 20
0.894551
 30
0.0
 40
0.1095
 50
14.507251
 51
328.258317
  0
ARC
  5
A9
  8
L
 10
-0.408704
 20
0.894551
 30
0.0
 40
0.05625
 50
235.5219
 51
332.233922
  0
LINE
  5
AA
  8
L
 10
-0.54491
 20
1.060051
 30
0.0
 11
-0.54491
 21
0.785051
 31
0.0
  0
ARC
  5
AB
  8
L
 10
-0.710891
 20
0.924514
 30
0.0
 40
0.079538
 50
18.846034
 51
180.226252
  0
LINE
  5
AC
  8
L
 10
-0.60741
 20
1.060051
 30
0.0
 11
-0.60741
 21
0.785051
 31
0.0
  0
ARC
  5
AD
  8
L
 10
-0.702929
 20
0.924514
 30
0.0
 40
0.025
 50
4.679095
 51
180.226252
  0
LINE
  5
AE
  8
L
 10
-0.882927
 20
0.785051
 30
0.0
 11
-0.820427
 21
0.785051
 31
0.0
  0
CIRCLE
  5
AF
  8
L
 10
-0.929963
 20
0.894551
 30
0.0
 40
0.05
  0
LINE
  5
B0
  8
L
 10
-0.882949
 20
0.851667
 30
0.0
 11
-0.882927
 21
0.785051
 31
0.0
  0
LINE
  5
B1
  8
L
 10
-0.882949
 20
0.851667
 30
0.0
 11
-0.914588
 21
0.786136
 31
0.0
  0
LINE
  5
B2
  8
L
 10
-0.790153
 20
0.785051
 30
0.0
 11
-0.727653
 21
0.785051
 31
0.0
  0
LINE
  5
B3
  8
L
 10
-0.820463
 20
0.894587
 30
0.0
 11
-0.820427
 21
0.785123
 31
0.0
  0
LINE
  5
B4
  8
L
 10
-0.820463
 20
0.894587
 30
0.0
 11
-0.820427
 21
0.785051
 31
0.0
  0
LINE
  5
B5
  8
L
 10
-0.790429
 20
0.924514
 30
0.0
 11
-0.790153
 21
0.785051
 31
0.0
  0
LINE
  5
B6
  8
L
 10
-0.727929
 20
0.924514
 30
0.0
 11
-0.727653
 21
0.785051
 31
0.0
  0
LINE
  5
B7
  8
L
 10
-0.635618
 20
0.950206
 30
0.0
 11
-0.678012
 21
0.926553
 31
0.0
  0
LINE
  5
B8
  8
L
 10
-0.60741
 20
0.785051
 30
0.0
 11
-0.54491
 21
0.785051
 31
0.0
  0
LINE
  5
B9
  8
L
 10
-0.384109
 20
0.945139
 30
0.0
 11
-0.464441
 21
0.902133
 31
0.0
  0
ARC
  5
BA
  8
L
 10
-0.408704
 20
0.894551
 30
0.0
 40
0.05625
 50
64.071476
 51
172.253555
  0
LINE
  5
BB
  8
L
 10
-0.60741
 20
1.060051
 30
0.0
 11
-0.54491
 21
1.060051
 31
0.0
  0
ARC
  5
BC
  8
L
 10
-0.178623
 20
0.894551
 30
0.0
 40
0.1095
 50
30.701399
 51
270.0
  0
LINE
  5
BD
  8
L
 10
-0.178623
 20
0.838301
 30
0.0
 11
-0.041757
 21
0.838301
 31
0.0
  0
LINE
  5
BE
  8
L
 10
-0.041757
 20
0.838301
 30
0.0
 11
-0.069298
 21
0.785051
 31
0.0
  0
ARC
  5
BF
  8
L
 10
-0.178623
 20
0.894551
 30
0.0
 40
0.05625
 50
37.476042
 51
270.0
  0
LINE
  5
C0
  8
L
 10
-0.358931
 20
0.868346
 30
0.0
 11
-0.315582
 21
0.836944
 31
0.0
  0
LINE
  5
C1
  8
L
 10
-0.084471
 20
0.950458
 30
0.0
 11
-0.133983
 21
0.928775
 31
0.0
  0
LINE
  5
C2
  8
L
 10
-0.178623
 20
0.785051
 30
0.0
 11
-0.069298
 21
0.785051
 31
0.0
  0
LINE
  5
C3
  8
C50_BASE$0$D
 10
-0.389896
 20
1.434386
 30
0.0
 11
-1.092609
 21
2.951982
 31
0.0
  0
TEXT
  5
C4
  8
C50_BASE$0$D
 10
-2.677478
 20
2.903767
 30
0.0
 40
0.125
  1
50 V-FLANGE
  7
C50_BASE$0$STANDARD
 72
     2
 11
-1.323312
 21
2.966267
 31
0.0
 73
     2
  0
TEXT
  5
C5
  8
C50_BASE$0$D
 10
-3.030563
 20
2.905161
 30
0.0
 40
0.09
  1
CAT
  7
C50_BASE$0$STANDARD
 72
     2
 11
-2.790563
 21
2.950161
 31
0.0
 73
     2
  0
LINE
  5
C6
  8
C50_BASE$0$D
 10
-1.092609
 20
2.951982
 30
0.0
 11
-1.225138
 21
2.951982
 31
0.0
  0
SOLID
  5
C7
  8
C50_BASE$0$D
 10
-0.371748
 20
1.44279
 30
0.0
 11
-0.408045
 21
1.425982
 31
0.0
 12
-0.339474
 22
1.325493
 32
0.0
 13
-0.339474
 23
1.325493
 33
0.0
  0
ENDBLK
  5
C9
  8
0
  0
BLOCK
  8
0
  2
*D1
 70
     1
 10
0.0
 20
0.0
 30
0.0
  3
*D1
  1

  0
LINE
  5
168
  8
0
  6
BYBLOCK
 62
     0
 10
0.0
 20
1.4375
 30
0.0
 11
0.0
 21
2.151867
 31
0.0
  0
LINE
  5
169
  8
0
  6
BYBLOCK
 62
     0
 10
5.0
 20
0.513756
 30
0.0
 11
5.0
 21
2.151867
 31
0.0
  0
LINE
  5
16A
  8
0
  6
BYBLOCK
 62
     0
 10
0.125
 20
2.026867
 30
0.0
 11
2.219524
 21
2.026867
 31
0.0
  0
LINE
  5
16B
  8
0
  6
BYBLOCK
 62
     0
 10
4.875
 20
2.026867
 30
0.0
 11
2.780476
 21
2.026867
 31
0.0
  0
SOLID
  5
16C
  8
0
  6
BYBLOCK
 62
     0
 10
0.125
 20
2.0477
 30
0.0
 11
0.125
 21
2.006034
 31
0.0
 12
0.0
 22
2.026867
 32
0.0
 13
0.0
 23
2.026867
 33
0.0
  0
SOLID
  5
16D
  8
0
  6
BYBLOCK
 62
     0
 10
4.875
 20
2.0477
 30
0.0
 11
4.875
 21
2.006034
 31
0.0
 12
5.0
 22
2.026867
 32
0.0
 13
5.0
 23
2.026867
 33
0.0
  0
TEXT
  8
0
  40
0.125
  5
198
  62
0
  72
0
  71
0
 10
2.25000
 20
1.80562
 30
0.000000
  1
5.00
  7
CATALOG
  0
POINT
  5
16F
  8
DEFPOINTS
  6
BYBLOCK
 62
     0
 10
0.0
 20
1.375
 30
0.0
  0
POINT
  5
170
  8
DEFPOINTS
  6
BYBLOCK
 62
     0
 10
5.0
 20
0.451256
 30
0.0
  0
POINT
  5
171
  8
DEFPOINTS
  6
BYBLOCK
 62
     0
 10
5.0
 20
2.026867
 30
0.0
  0
ENDBLK
  5
172
  8
0
  0
BLOCK
  8
0
  2
*D2
 70
     1
 10
0.0
 20
0.0
 30
0.0
  3
*D2
  1

  0
LINE
  5
15C
  8
0
  6
BYBLOCK
 62
     0
 10
5.0
 20
0.513756
 30
0.0
 11
5.0
 21
1.278421
 31
0.0
  0
LINE
  5
15D
  8
0
  6
BYBLOCK
 62
     0
 10
3.75
 20
0.24945
 30
0.0
 11
3.75
 21
1.278421
 31
0.0
  0
LINE
  5
15E
  8
0
  6
BYBLOCK
 62
     0
 10
4.875
 20
1.153421
 30
0.0
 11
4.646548
 21
1.153421
 31
0.0
  0
LINE
  5
15F
  8
0
  6
BYBLOCK
 62
     0
 10
3.875
 20
1.153421
 30
0.0
 11
4.103452
 21
1.153421
 31
0.0
  0
SOLID
  5
160
  8
0
  6
BYBLOCK
 62
     0
 10
4.875
 20
1.174255
 30
0.0
 11
4.875
 21
1.132588
 31
0.0
 12
5.0
 22
1.153421
 32
0.0
 13
5.0
 23
1.153421
 33
0.0
  0
SOLID
  5
161
  8
0
  6
BYBLOCK
 62
     0
 10
3.875
 20
1.174255
 30
0.0
 11
3.875
 21
1.132588
 31
0.0
 12
3.75
 22
1.153421
 32
0.0
 13
3.75
 23
1.153421
 33
0.0
  0
TEXT
  8
0
  40
0.125
  5
199
  62
0
  72
0
  71
0
 10
4.12500
 20
0.932171
 30
0.000000
  1
1.25
  7
CATALOG
  0
POINT
  5
163
  8
DEFPOINTS
  6
BYBLOCK
 62
     0
 10
5.0
 20
0.451256
 30
0.0
  0
POINT
  5
164
  8
DEFPOINTS
  6
BYBLOCK
 62
     0
 10
3.75
 20
0.18695
 30
0.0
  0
POINT
  5
165
  8
DEFPOINTS
  6
BYBLOCK
 62
     0
 10
3.75
 20
1.153421
 30
0.0
  0
ENDBLK
  5
166
  8
0
  0
BLOCK
  8
0
  2
*D3
 70
     1
 10
0.0
 20
0.0
 30
0.0
  3
*D3
  1

  0
LINE
  5
150
  8
0
  6
BYBLOCK
 62
     0
 10
5.0325
 20
-0.18695
 30
0.0
 11
5.489675
 21
-0.18695
 31
0.0
  0
LINE
  5
151
  8
0
  6
BYBLOCK
 62
     0
 10
5.0325
 20
0.18695
 30
0.0
 11
5.489675
 21
0.18695
 31
0.0
  0
LINE
  5
152
  8
0
  6
BYBLOCK
 62
     0
 10
5.364675
 20
-0.31195
 30
0.0
 11
5.364675
 21
-0.43695
 31
0.0
  0
LINE
  5
153
  8
0
  6
BYBLOCK
 62
     0
 10
5.364675
 20
0.31195
 30
0.0
 11
5.364675
 21
0.43695
 31
0.0
  0
SOLID
  5
154
  8
0
  6
BYBLOCK
 62
     0
 10
5.343842
 20
-0.31195
 30
0.0
 11
5.385509
 21
-0.31195
 31
0.0
 12
5.364675
 22
-0.18695
 32
0.0
 13
5.364675
 23
-0.18695
 33
0.0
  0
SOLID
  5
155
  8
0
  6
BYBLOCK
 62
     0
 10
5.343842
 20
0.31195
 30
0.0
 11
5.385509
 21
0.31195
 31
0.0
 12
5.364675
 22
0.18695
 32
0.0
 13
5.364675
 23
0.18695
 33
0.0
  0
TEXT
  8
0
  40
0.125
  5
19A
  62
0
  72
0
  71
0
 10
5.11468
 20
-0.221250
 30
0.000000
  1
.37
  7
CATALOG
  0
POINT
  5
157
  8
DEFPOINTS
  6
BYBLOCK
 62
     0
 10
4.97
 20
-0.18695
 30
0.0
  0
POINT
  5
158
  8
DEFPOINTS
  6
BYBLOCK
 62
     0
 10
4.97
 20
0.18695
 30
0.0
  0
POINT
  5
159
  8
DEFPOINTS
  6
BYBLOCK
 62
     0
 10
5.364675
 20
0.18695
 30
0.0
  0
ENDBLK
  5
15A
  8
0
  0
BLOCK
  8
0
  2
*D4
 70
     1
 10
0.0
 20
0.0
 30
0.0
  3
*D4
  1

  0
LINE
  5
144
  8
0
  6
BYBLOCK
 62
     0
 10
5.003745
 20
-0.513171
 30
0.0
 11
6.206639
 21
-0.513171
 31
0.0
  0
LINE
  5
145
  8
0
  6
BYBLOCK
 62
     0
 10
5.003745
 20
0.513171
 30
0.0
 11
6.206639
 21
0.513171
 31
0.0
  0
LINE
  5
146
  8
0
  6
BYBLOCK
 62
     0
 10
6.081639
 20
-0.388171
 30
0.0
 11
6.081639
 21
-0.1525
 31
0.0
  0
LINE
  5
147
  8
0
  6
BYBLOCK
 62
     0
 10
6.081639
 20
0.388171
 30
0.0
 11
6.081639
 21
0.1525
 31
0.0
  0
SOLID
  5
148
  8
0
  6
BYBLOCK
 62
     0
 10
6.060805
 20
-0.388171
 30
0.0
 11
6.102472
 21
-0.388171
 31
0.0
 12
6.081639
 22
-0.513171
 32
0.0
 13
6.081639
 23
-0.513171
 33
0.0
  0
SOLID
  5
149
  8
0
  6
BYBLOCK
 62
     0
 10
6.060805
 20
0.388171
 30
0.0
 11
6.102472
 21
0.388171
 31
0.0
 12
6.081639
 22
0.513171
 32
0.0
 13
6.081639
 23
0.513171
 33
0.0
  0
TEXT
  8
0
  40
0.125
  5
19B
  62
0
  72
0
  71
0
 10
5.83164
 20
-0.221250
 30
0.000000
  1
1.03
  7
CATALOG
  0
POINT
  5
14B
  8
DEFPOINTS
  6
BYBLOCK
 62
     0
 10
4.941245
 20
-0.513171
 30
0.0
  0
POINT
  5
14C
  8
DEFPOINTS
  6
BYBLOCK
 62
     0
 10
4.941245
 20
0.513171
 30
0.0
  0
POINT
  5
14D
  8
DEFPOINTS
  6
BYBLOCK
 62
     0
 10
6.081639
 20
0.513171
 30
0.0
  0
ENDBLK
  5
14E
  8
0
  0
ENDSEC
  0
SECTION
  2
ENTITIES
  0
LINE
  5
1F
  8
H
 10
-3.75
 20
-0.5
 30
0.0
 11
-2.25
 21
-0.5
 31
0.0
  0
LINE
  5
22
  8
H
 10
-3.75
 20
-0.4375
 30
0.0
 11
-2.25
 21
-0.4375
 31
0.0
  0
LINE
  5
23
  8
H
 10
-3.75
 20
0.4375
 30
0.0
 11
-2.25
 21
0.4375
 31
0.0
  0
LINE
  5
24
  8
H
 10
-3.75
 20
0.5
 30
0.0
 11
-2.25
 21
0.5
 31
0.0
  0
LINE
  5
25
  8
L
 10
0.0
 20
-1.375
 30
0.0
 11
-3.897317
 21
-0.806641
 31
0.0
  0
LINE
  5
26
  8
L
 10
0.0
 20
1.375
 30
0.0
 11
-3.897317
 21
0.806641
 31
0.0
  0
ARC
  5
27
  8
L
 10
-3.88241
 20
0.69
 30
0.0
 40
0.11759
 50
97.282949
 51
180.0
  0
LINE
  5
28
  8
H
 10
-3.75
 20
0.0
 30
0.0
 11
-3.75
 21
-0.5155
 31
0.0
  0
LINE
  5
29
  8
H
 10
-3.918594
 20
-0.5155
 30
0.0
 11
-3.918594
 21
0.0025
 31
0.0
  0
LINE
  5
2A
  8
L
 10
-4.0
 20
-0.69
 30
0.0
 11
-4.0
 21
0.69
 31
0.0
  0
LINE
  5
2B
  8
H
 10
-3.918594
 20
-0.5155
 30
0.0
 11
-3.75
 21
-0.5155
 31
0.0
  0
LINE
  5
2C
  8
H
 10
-4.0
 20
-0.5625
 30
0.0
 11
-3.918594
 21
-0.5155
 31
0.0
  0
ARC
  5
2D
  8
L
 10
-3.88241
 20
-0.69
 30
0.0
 40
0.11759
 50
180.0
 51
262.717051
  0
LINE
  5
2E
  8
H
 10
-3.918594
 20
0.5155
 30
0.0
 11
-3.918594
 21
-0.0025
 31
0.0
  0
LINE
  5
2F
  8
H
 10
-3.75
 20
0.0
 30
0.0
 11
-3.75
 21
0.5155
 31
0.0
  0
LINE
  5
30
  8
H
 10
-3.918594
 20
0.5155
 30
0.0
 11
-3.75
 21
0.5155
 31
0.0
  0
LINE
  5
31
  8
H
 10
-4.0
 20
0.5625
 30
0.0
 11
-3.918594
 21
0.5155
 31
0.0
  0
LINE
  5
32
  8
L
 10
1.38
 20
-1.345
 30
0.0
 11
1.38
 21
-0.623503
 31
0.0
  0
LINE
  5
33
  8
L
 10
0.0
 20
-0.51
 30
0.0
 11
0.0
 21
-1.375
 31
0.0
  0
LINE
  5
34
  8
L
 10
0.579
 20
-0.51
 30
0.0
 11
0.579
 21
-1.9375
 31
0.0
  0
LINE
  5
35
  8
L
 10
0.376344
 20
-0.51
 30
0.0
 11
0.376344
 21
-1.807
 31
0.0
  0
LINE
  5
36
  8
L
 10
0.393665
 20
-0.51
 30
0.0
 11
0.393665
 21
-1.797
 31
0.0
  0
LINE
  5
37
  8
L
 10
0.486335
 20
-0.51
 30
0.0
 11
0.486335
 21
-1.797
 31
0.0
  0
LINE
  5
38
  8
L
 10
0.503656
 20
-0.51
 30
0.0
 11
0.503656
 21
-1.807
 31
0.0
  0
LINE
  5
39
  8
L
 10
0.75
 20
-0.51
 30
0.0
 11
0.75
 21
-1.907499
 31
0.0
  0
LINE
  5
3A
  8
L
 10
0.72
 20
-0.509999
 30
0.0
 11
0.72
 21
-1.9375
 31
0.0
  0
LINE
  5
3B
  8
L
 10
0.125
 20
-1.9075
 30
0.0
 11
0.125
 21
-0.51
 31
0.0
  0
LINE
  5
3C
  8
L
 10
0.301
 20
-0.51
 30
0.0
 11
0.301
 21
-1.9375
 31
0.0
  0
LINE
  5
3D
  8
L
 10
0.155
 20
-0.51
 30
0.0
 11
0.155
 21
-1.9375
 31
0.0
  0
LINE
  5
3E
  8
L
 10
0.78
 20
-1.375
 30
0.0
 11
1.287974
 21
-1.375
 31
0.0
  0
LINE
  5
3F
  8
L
 10
0.486335
 20
-1.797
 30
0.0
 11
0.393665
 21
-1.797
 31
0.0
  0
LINE
  5
40
  8
L
 10
0.301
 20
-1.9375
 30
0.0
 11
0.155
 21
-1.9375
 31
0.0
  0
LINE
  5
41
  8
L
 10
0.125
 20
-1.9075
 30
0.0
 11
0.155
 21
-1.9375
 31
0.0
  0
ARC
  5
42
  8
L
 10
0.393665
 20
-1.817
 30
0.0
 40
0.02
 50
90.0
 51
150.0
  0
LINE
  5
43
  8
L
 10
0.301
 20
-1.9375
 30
0.0
 11
0.376344
 21
-1.807
 31
0.0
  0
LINE
  5
44
  8
L
 10
0.579
 20
-1.9375
 30
0.0
 11
0.72
 21
-1.9375
 31
0.0
  0
LINE
  5
45
  8
L
 10
0.579
 20
-1.9375
 30
0.0
 11
0.503656
 21
-1.807
 31
0.0
  0
ARC
  5
46
  8
L
 10
0.486335
 20
-1.817
 30
0.0
 40
0.02
 50
30.0
 51
90.0
  0
LINE
  5
47
  8
L
 10
0.75
 20
-1.907499
 30
0.0
 11
0.72
 21
-1.937499
 31
0.0
  0
LINE
  5
48
  8
L
 10
0.0
 20
-1.375
 30
0.0
 11
0.105
 21
-1.375
 31
0.0
  0
POINT
  5
49
  8
L
 10
0.0
 20
-1.375
 30
0.0
  0
ARC
  5
4A
  8
L
 10
0.105
 20
-1.395
 30
0.0
 40
0.02
 50
0.0
 51
90.0
  0
ARC
  5
4B
  8
L
 10
0.78
 20
-1.405
 30
0.0
 40
0.03
 50
90.0
 51
180.0
  0
LINE
  5
4C
  8
L
 10
1.287974
 20
-1.375
 30
0.0
 11
1.35
 21
-1.375
 31
0.0
  0
ARC
  5
4D
  8
L
 10
1.35
 20
-1.345
 30
0.0
 40
0.03
 50
270.0
 51
0.0
  0
LINE
  5
4E
  8
H
 10
1.153286
 20
-0.172
 30
0.0
 11
3.0
 21
-0.172
 31
0.0
  0
LINE
  5
4F
  8
H
 10
1.153286
 20
0.172
 30
0.0
 11
3.0
 21
0.172
 31
0.0
  0
LINE
  5
50
  8
L
 10
4.0
 20
0.5625
 30
0.0
 11
1.41
 21
0.5625
 31
0.0
  0
LINE
  5
51
  8
L
 10
4.0
 20
-0.5625
 30
0.0
 11
1.41
 21
-0.5625
 31
0.0
  0
LINE
  5
52
  8
H
 10
1.0
 20
-0.4375
 30
0.0
 11
-2.25
 21
-0.4375
 31
0.0
  0
LINE
  5
53
  8
H
 10
-2.25
 20
0.4375
 30
0.0
 11
1.0
 21
0.4375
 31
0.0
  0
LINE
  5
54
  8
H
 10
-2.25
 20
0.5
 30
0.0
 11
-2.25
 21
-0.5
 31
0.0
  0
LINE
  5
55
  8
L
 10
1.38
 20
1.345
 30
0.0
 11
1.38
 21
0.623503
 31
0.0
  0
LINE
  5
56
  8
L
 10
0.0
 20
0.51
 30
0.0
 11
0.0
 21
1.375
 31
0.0
  0
LINE
  5
57
  8
L
 10
0.579
 20
0.51
 30
0.0
 11
0.579
 21
1.9375
 31
0.0
  0
LINE
  5
58
  8
L
 10
0.301
 20
0.51
 30
0.0
 11
0.301
 21
1.9375
 31
0.0
  0
LINE
  5
59
  8
L
 10
0.155
 20
0.51
 30
0.0
 11
0.155
 21
1.9375
 31
0.0
  0
LINE
  5
5A
  8
L
 10
0.125
 20
0.51
 30
0.0
 11
0.125
 21
1.9075
 31
0.0
  0
LINE
  5
5B
  8
L
 10
0.376344
 20
0.51
 30
0.0
 11
0.376344
 21
1.807
 31
0.0
  0
LINE
  5
5C
  8
L
 10
0.393665
 20
0.51
 30
0.0
 11
0.393665
 21
1.797
 31
0.0
  0
LINE
  5
5D
  8
L
 10
0.486335
 20
0.51
 30
0.0
 11
0.486335
 21
1.797
 31
0.0
  0
LINE
  5
5E
  8
L
 10
0.503656
 20
0.51
 30
0.0
 11
0.503656
 21
1.807
 31
0.0
  0
LINE
  5
5F
  8
L
 10
0.72
 20
0.509999
 30
0.0
 11
0.72
 21
1.9375
 31
0.0
  0
LINE
  5
60
  8
L
 10
0.75
 20
0.51
 30
0.0
 11
0.75
 21
1.907499
 31
0.0
  0
POLYLINE
  5
61
  8
L
 66
     1
 10
0.0
 20
0.0
 30
0.0
 70
     1
  0
VERTEX
  5
18E
  8
L
 10
0.1895
 20
-0.321
 30
0.0
  0
VERTEX
  5
18F
  8
L
 10
0.1895
 20
0.321
 30
0.0
 42
-0.414214
  0
VERTEX
  5
190
  8
L
 10
0.3145
 20
0.446
 30
0.0
  0
VERTEX
  5
191
  8
L
 10
0.5655
 20
0.446
 30
0.0
 42
-0.414214
  0
VERTEX
  5
192
  8
L
 10
0.6905
 20
0.321
 30
0.0
  0
VERTEX
  5
193
  8
L
 10
0.6905
 20
-0.321
 30
0.0
 42
-0.414214
  0
VERTEX
  5
194
  8
L
 10
0.5655
 20
-0.446
 30
0.0
  0
VERTEX
  5
195
  8
L
 10
0.3145
 20
-0.446
 30
0.0
 42
-0.414214
  0
SEQEND
  5
196
  8
L
  0
LINE
  5
62
  8
L
 10
0.125
 20
0.375
 30
0.0
 11
0.125
 21
-0.375
 31
0.0
  0
LINE
  5
63
  8
L
 10
0.0
 20
0.353553
 30
0.0
 11
0.0
 21
-0.353553
 31
0.0
  0
CIRCLE
  5
64
  8
L
 10
0.44
 20
0.0
 30
0.0
 40
0.1875
  0
LINE
  5
65
  8
L
 10
0.75
 20
0.51
 30
0.0
 11
0.75
 21
-0.51
 31
0.0
  0
LINE
  5
66
  8
L
 10
0.125
 20
0.51
 30
0.0
 11
0.125
 21
-0.51
 31
0.0
  0
LINE
  5
67
  8
L
 10
0.0
 20
0.51
 30
0.0
 11
0.0
 21
-0.51
 31
0.0
  0
LINE
  5
68
  8
L
 10
0.125
 20
-0.51
 30
0.0
 11
0.75
 21
-0.51
 31
0.0
  0
LINE
  5
69
  8
L
 10
0.695204
 20
-0.51
 30
0.0
 11
0.75
 21
-0.51
 31
0.0
  0
LINE
  5
6A
  8
L
 10
0.125
 20
0.51
 30
0.0
 11
0.75
 21
0.51
 31
0.0
  0
LINE
  5
6B
  8
L
 10
0.695204
 20
0.51
 30
0.0
 11
0.75
 21
0.51
 31
0.0
  0
LINE
  5
6C
  8
H
 10
1.0
 20
0.4375
 30
0.0
 11
1.0
 21
-0.4375
 31
0.0
  0
LINE
  5
6D
  8
H
 10
1.153286
 20
0.172
 30
0.0
 11
1.153286
 21
-0.172
 31
0.0
  0
LINE
  5
6E
  8
L
 10
1.38
 20
0.6225
 30
0.0
 11
1.38
 21
-0.6225
 31
0.0
  0
ARC
  5
6F
  8
L
 10
1.41
 20
-0.5925
 30
0.0
 40
0.03
 50
90.0
 51
180.0
  0
LINE
  5
70
  8
H
 10
1.0
 20
-0.4375
 30
0.0
 11
1.153286
 21
-0.172
 31
0.0
  0
LINE
  5
71
  8
H
 10
1.0
 20
0.4375
 30
0.0
 11
1.153286
 21
0.172
 31
0.0
  0
ARC
  5
72
  8
L
 10
1.41
 20
0.5925
 30
0.0
 40
0.03
 50
180.0
 51
270.0
  0
LINE
  5
73
  8
L
 10
0.78
 20
1.375
 30
0.0
 11
1.287974
 21
1.375
 31
0.0
  0
LINE
  5
74
  8
L
 10
0.0
 20
1.375
 30
0.0
 11
0.105
 21
1.375
 31
0.0
  0
POINT
  5
75
  8
L
 10
0.0
 20
1.375
 30
0.0
  0
POINT
  5
76
  8
L
 10
0.0
 20
1.375
 30
0.0
  0
ARC
  5
77
  8
L
 10
0.105
 20
1.395
 30
0.0
 40
0.02
 50
270.0
 51
0.0
  0
ARC
  5
78
  8
L
 10
0.78
 20
1.405
 30
0.0
 40
0.03
 50
180.0
 51
270.0
  0
LINE
  5
79
  8
L
 10
0.486335
 20
1.797
 30
0.0
 11
0.393665
 21
1.797
 31
0.0
  0
LINE
  5
7A
  8
L
 10
0.301
 20
1.9375
 30
0.0
 11
0.376344
 21
1.807
 31
0.0
  0
ARC
  5
7B
  8
L
 10
0.393665
 20
1.817
 30
0.0
 40
0.02
 50
210.0
 51
270.0
  0
LINE
  5
7C
  8
L
 10
0.301
 20
1.9375
 30
0.0
 11
0.155
 21
1.9375
 31
0.0
  0
LINE
  5
7D
  8
L
 10
0.125
 20
1.9075
 30
0.0
 11
0.155
 21
1.9375
 31
0.0
  0
LINE
  5
7E
  8
L
 10
0.579
 20
1.9375
 30
0.0
 11
0.503656
 21
1.807
 31
0.0
  0
ARC
  5
7F
  8
L
 10
0.486335
 20
1.817
 30
0.0
 40
0.02
 50
270.0
 51
330.0
  0
LINE
  5
80
  8
L
 10
0.579
 20
1.9375
 30
0.0
 11
0.72
 21
1.9375
 31
0.0
  0
LINE
  5
81
  8
L
 10
0.75
 20
1.907499
 30
0.0
 11
0.72
 21
1.937499
 31
0.0
  0
LINE
  5
82
  8
L
 10
1.287974
 20
1.375
 30
0.0
 11
1.35
 21
1.375
 31
0.0
  0
ARC
  5
83
  8
L
 10
1.35
 20
1.345
 30
0.0
 40
0.03
 50
0.0
 51
90.0
  0
LINE
  5
84
  8
H
 10
4.0
 20
-0.18695
 30
0.0
 11
4.97
 21
-0.18695
 31
0.0
  0
LINE
  5
85
  8
H
 10
4.0
 20
0.18695
 30
0.0
 11
4.97
 21
0.18695
 31
0.0
  0
LINE
  5
86
  8
L
 10
4.0
 20
0.5625
 30
0.0
 11
4.941245
 21
0.513171
 31
0.0
  0
LINE
  5
87
  8
L
 10
4.0
 20
-0.5625
 30
0.0
 11
4.941245
 21
-0.513171
 31
0.0
  0
LINE
  5
88
  8
H
 10
3.75
 20
-0.20695
 30
0.0
 11
3.0
 21
-0.20695
 31
0.0
  0
LINE
  5
89
  8
H
 10
3.75
 20
0.20695
 30
0.0
 11
3.0
 21
0.20695
 31
0.0
  0
LINE
  5
8A
  8
H
 10
3.0
 20
0.20695
 30
0.0
 11
3.0
 21
-0.20695
 31
0.0
  0
LINE
  5
8B
  8
H
 10
3.75
 20
0.20695
 30
0.0
 11
3.75
 21
-0.20695
 31
0.0
  0
LINE
  5
8C
  8
L
 10
4.0
 20
0.5625
 30
0.0
 11
4.0
 21
-0.5625
 31
0.0
  0
LINE
  5
8D
  8
H
 10
4.0
 20
-0.18695
 30
0.0
 11
3.75
 21
-0.18695
 31
0.0
  0
LINE
  5
8E
  8
H
 10
4.0
 20
0.18695
 30
0.0
 11
3.75
 21
0.18695
 31
0.0
  0
LINE
  5
8F
  8
H
 10
4.97
 20
0.18695
 30
0.0
 11
4.97
 21
-0.18695
 31
0.0
  0
LINE
  5
90
  8
L
 10
5.0
 20
0.451256
 30
0.0
 11
5.0
 21
-0.451256
 31
0.0
  0
ARC
  5
91
  8
L
 10
4.938
 20
-0.451256
 30
0.0
 40
0.062
 50
273.0
 51
360.0
  0
LINE
  5
92
  8
H
 10
4.97
 20
-0.18695
 30
0.0
 11
5.0
 21
-0.204271
 31
0.0
  0
LINE
  5
93
  8
H
 10
4.97
 20
0.18695
 30
0.0
 11
5.0
 21
0.204271
 31
0.0
  0
ARC
  5
94
  8
L
 10
4.938
 20
0.451256
 30
0.0
 40
0.062
 50
360.0
 51
87.0
  0
ARC
  5
DB
  8
L
 10
-0.929963
 20
0.894551
 30
0.0
 40
0.1095
 50
0.018858
 51
278.071967
  0
ARC
  5
DC
  8
L
 10
-0.929963
 20
0.894551
 30
0.0
 40
0.1095
 50
0.018858
 51
278.071967
  0
TEXT
  5
DD
  8
D
 10
-1.148894
 20
0.567926
 30
0.0
 40
0.125
  1
C50-38SF5
  0
ARC
  5
DE
  8
L
 10
-1.165503
 20
0.950473
 30
0.0
 40
0.1095
 50
269.890544
 51
179.99999
  0
CIRCLE
  5
DF
  8
L
 10
-1.165503
 20
0.950473
 30
0.0
 40
0.05
  0
LINE
  5
E0
  8
L
 10
-1.275003
 20
0.785051
 30
0.0
 11
-1.212503
 21
0.785051
 31
0.0
  0
LINE
  5
E1
  8
L
 10
-1.275003
 20
0.950473
 30
0.0
 11
-1.275003
 21
0.785051
 31
0.0
  0
LINE
  5
E2
  8
L
 10
-1.212503
 20
0.903423
 30
0.0
 11
-1.212503
 21
0.785051
 31
0.0
  0
LINE
  5
E3
  8
L
 10
-1.212503
 20
0.903423
 30
0.0
 11
-1.165712
 21
0.840974
 31
0.0
  0
LINE
  5
E4
  8
L
 10
-0.302695
 20
0.921981
 30
0.0
 11
-0.440547
 21
0.848182
 31
0.0
  0
ARC
  5
E5
  8
L
 10
-0.408704
 20
0.894551
 30
0.0
 40
0.1095
 50
14.507251
 51
328.258317
  0
ARC
  5
E6
  8
L
 10
-0.408704
 20
0.894551
 30
0.0
 40
0.05625
 50
235.5219
 51
332.233922
  0
LINE
  5
E7
  8
L
 10
-0.54491
 20
1.060051
 30
0.0
 11
-0.54491
 21
0.785051
 31
0.0
  0
ARC
  5
E8
  8
L
 10
-0.710891
 20
0.924514
 30
0.0
 40
0.079538
 50
18.846034
 51
180.226252
  0
LINE
  5
E9
  8
L
 10
-0.60741
 20
1.060051
 30
0.0
 11
-0.60741
 21
0.785051
 31
0.0
  0
ARC
  5
EA
  8
L
 10
-0.702929
 20
0.924514
 30
0.0
 40
0.025
 50
4.679095
 51
180.226252
  0
LINE
  5
EB
  8
L
 10
-0.882927
 20
0.785051
 30
0.0
 11
-0.820427
 21
0.785051
 31
0.0
  0
CIRCLE
  5
EC
  8
L
 10
-0.929963
 20
0.894551
 30
0.0
 40
0.05
  0
LINE
  5
ED
  8
L
 10
-0.882949
 20
0.851667
 30
0.0
 11
-0.882927
 21
0.785051
 31
0.0
  0
LINE
  5
EE
  8
L
 10
-0.882949
 20
0.851667
 30
0.0
 11
-0.914588
 21
0.786136
 31
0.0
  0
LINE
  5
EF
  8
L
 10
-0.790153
 20
0.785051
 30
0.0
 11
-0.727653
 21
0.785051
 31
0.0
  0
LINE
  5
F0
  8
L
 10
-0.820463
 20
0.894587
 30
0.0
 11
-0.820427
 21
0.785123
 31
0.0
  0
LINE
  5
F1
  8
L
 10
-0.820463
 20
0.894587
 30
0.0
 11
-0.820427
 21
0.785051
 31
0.0
  0
LINE
  5
F2
  8
L
 10
-0.790429
 20
0.924514
 30
0.0
 11
-0.790153
 21
0.785051
 31
0.0
  0
LINE
  5
F3
  8
L
 10
-0.727929
 20
0.924514
 30
0.0
 11
-0.727653
 21
0.785051
 31
0.0
  0
LINE
  5
F4
  8
L
 10
-0.635618
 20
0.950206
 30
0.0
 11
-0.678012
 21
0.926553
 31
0.0
  0
LINE
  5
F5
  8
L
 10
-0.60741
 20
0.785051
 30
0.0
 11
-0.54491
 21
0.785051
 31
0.0
  0
LINE
  5
F6
  8
L
 10
-0.384109
 20
0.945139
 30
0.0
 11
-0.464441
 21
0.902133
 31
0.0
  0
ARC
  5
F7
  8
L
 10
-0.408704
 20
0.894551
 30
0.0
 40
0.05625
 50
64.071476
 51
172.253555
  0
LINE
  5
F8
  8
L
 10
-0.60741
 20
1.060051
 30
0.0
 11
-0.54491
 21
1.060051
 31
0.0
  0
ARC
  5
F9
  8
L
 10
-0.178623
 20
0.894551
 30
0.0
 40
0.1095
 50
30.701399
 51
270.0
  0
LINE
  5
FA
  8
L
 10
-0.178623
 20
0.838301
 30
0.0
 11
-0.041757
 21
0.838301
 31
0.0
  0
LINE
  5
FB
  8
L
 10
-0.041757
 20
0.838301
 30
0.0
 11
-0.069298
 21
0.785051
 31
0.0
  0
ARC
  5
FC
  8
L
 10
-0.178623
 20
0.894551
 30
0.0
 40
0.05625
 50
37.476042
 51
270.0
  0
LINE
  5
FD
  8
L
 10
-0.358931
 20
0.868346
 30
0.0
 11
-0.315582
 21
0.836944
 31
0.0
  0
LINE
  5
FE
  8
L
 10
-0.084471
 20
0.950458
 30
0.0
 11
-0.133983
 21
0.928775
 31
0.0
  0
LINE
  5
FF
  8
L
 10
-0.178623
 20
0.785051
 30
0.0
 11
-0.069298
 21
0.785051
 31
0.0
  0
LINE
  5
100
  8
C50_BASE$0$D
 10
-0.389896
 20
1.434386
 30
0.0
 11
-1.092609
 21
2.951982
 31
0.0
  0
TEXT
  5
101
  8
C50_BASE$0$D
 10
-2.677478
 20
2.903767
 30
0.0
 40
0.125
  1
50 V-FLANGE
  7
C50_BASE$0$STANDARD
 72
     2
 11
-1.323312
 21
2.966267
 31
0.0
 73
     2
  0
TEXT
  5
102
  8
C50_BASE$0$D
 10
-3.030563
 20
2.905161
 30
0.0
 40
0.09
  1
CAT
  7
C50_BASE$0$STANDARD
 72
     2
 11
-2.790563
 21
2.950161
 31
0.0
 73
     2
  0
LINE
  5
103
  8
C50_BASE$0$D
 10
-1.092609
 20
2.951982
 30
0.0
 11
-1.225138
 21
2.951982
 31
0.0
  0
SOLID
  5
104
  8
C50_BASE$0$D
 10
-0.371748
 20
1.44279
 30
0.0
 11
-0.408045
 21
1.425982
 31
0.0
 12
-0.339474
 22
1.325493
 32
0.0
 13
-0.339474
 23
1.325493
 33
0.0
  0
DIMENSION
  5
118
  8
D
  2
*D1
 10
5.0
 20
2.026867
 30
0.0
 11
2.5
 21
2.026867
 31
0.0
 70
     0
 13
0.0
 23
1.375
 33
0.0
 14
5.0
 24
0.451256
 34
0.0
  0
DIMENSION
  5
126
  8
D
  2
*D2
 10
3.75
 20
1.153421
 30
0.0
 11
4.375
 21
1.153421
 31
0.0
 70
     0
 13
5.0
 23
0.451256
 33
0.0
 14
3.75
 24
0.18695
 34
0.0
  0
DIMENSION
  5
134
  8
D
  2
*D3
 10
5.364675
 20
0.18695
 30
0.0
 11
5.364675
 21
0.0
 31
0.0
 70
     0
 13
4.97
 23
-0.18695
 33
0.0
 14
4.97
 24
0.18695
 34
0.0
 50
90.0
  0
DIMENSION
  5
142
  8
D
  2
*D4
 10
6.081639
 20
0.513171
 30
0.0
 11
6.081639
 21
0.0
 31
0.0
 70
     0
 13
4.941245
 23
-0.513171
 33
0.0
 14
4.941245
 24
0.513171
 34
0.0
 50
90.0
  0
ENDSEC
  0
EOF
