  0
SECTION
  2
HEADER
  9
$ACADVER
  1
AC1009
  9
$INSBASE
 10
0.0
 20
0.0
 30
0.0
  9
$EXTMIN
 10
-4.0
 20
-3.0625
 30
0.0
  9
$EXTMAX
 10
9.147108
 20
4.059027
 30
0.0
  9
$LIMMIN
 10
0.0
 20
0.0
  9
$LIMMAX
 10
12.0
 20
9.0
  9
$ORTHOMODE
 70
     1
  9
$REGENMODE
 70
     1
  9
$FILLMODE
 70
     1
  9
$QTEXTMODE
 70
     0
  9
$MIRRTEXT
 70
     1
  9
$DRAGMODE
 70
     2
  9
$LTSCALE
 40
0.35
  9
$OSMODE
 70
   165
  9
$ATTMODE
 70
     1
  9
$TEXTSIZE
 40
0.09
  9
$TRACEWID
 40
0.05
  9
$TEXTSTYLE
  7
STANDARD
  9
$CLAYER
  8
L
  9
$CELTYPE
  6
BYLAYER
  9
$CECOLOR
 62
   256
  9
$DIMSCALE
 40
1.0
  9
$DIMASZ
 40
0.12
  9
$DIMEXO
 40
0.0625
  9
$DIMDLI
 40
0.38
  9
$DIMRND
 40
0.0
  9
$DIMDLE
 40
0.0
  9
$DIMEXE
 40
0.05
  9
$DIMTP
 40
0.0
  9
$DIMTM
 40
0.0
  9
$DIMTXT
 40
0.125
  9
$DIMCEN
 40
0.09
  9
$DIMTSZ
 40
0.0
  9
$DIMTOL
 70
     0
  9
$DIMLIM
 70
     0
  9
$DIMTIH
 70
     1
  9
$DIMTOH
 70
     1
  9
$DIMSE1
 70
     0
  9
$DIMSE2
 70
     0
  9
$DIMTAD
 70
     0
  9
$DIMZIN
 70
     0
  9
$DIMBLK
  1

  9
$DIMASO
 70
     1
  9
$DIMSHO
 70
     1
  9
$DIMPOST
  1

  9
$DIMAPOST
  1

  9
$DIMALT
 70
     0
  9
$DIMALTD
 70
     2
  9
$DIMALTF
 40
25.4
  9
$DIMLFAC
 40
1.0
  9
$DIMTOFL
 70
     0
  9
$DIMTVP
 40
0.0
  9
$DIMTIX
 70
     0
  9
$DIMSOXD
 70
     0
  9
$DIMSAH
 70
     0
  9
$DIMBLK1
  1

  9
$DIMBLK2
  1

  9
$DIMSTYLE
  2
5P
  9
$DIMCLRD
 70
     0
  9
$DIMCLRE
 70
     0
  9
$DIMCLRT
 70
     0
  9
$DIMTFAC
 40
1.0
  9
$DIMGAP
 40
0.09
  9
$LUNITS
 70
     2
  9
$LUPREC
 70
     3
  9
$SKETCHINC
 40
0.1
  9
$FILLETRAD
 40
0.03
  9
$AUNITS
 70
     1
  9
$AUPREC
 70
     0
  9
$MENU
  1
acad
  9
$ELEVATION
 40
0.0
  9
$PELEVATION
 40
0.0
  9
$THICKNESS
 40
0.0
  9
$LIMCHECK
 70
     0
  9
$BLIPMODE
 70
     0
  9
$CHAMFERA
 40
0.0
  9
$CHAMFERB
 40
0.0
  9
$SKPOLY
 70
     0
  9
$TDCREATE
 40
2449862.315806
  9
$TDUPDATE
 40
2450910.461935
  9
$TDINDWG
 40
0.018026
  9
$TDUSRTIMER
 40
0.018026
  9
$USRTIMER
 70
     1
  9
$ANGBASE
 50
0.0
  9
$ANGDIR
 70
     0
  9
$PDMODE
 70
     0
  9
$PDSIZE
 40
0.0
  9
$PLINEWID
 40
0.0
  9
$COORDS
 70
     1
  9
$SPLFRAME
 70
     0
  9
$SPLINETYPE
 70
     6
  9
$SPLINESEGS
 70
     8
  9
$ATTDIA
 70
     1
  9
$ATTREQ
 70
     1
  9
$HANDLING
 70
     1
  9
$HANDSEED
  5
791
  9
$SURFTAB1
 70
     6
  9
$SURFTAB2
 70
     6
  9
$SURFTYPE
 70
     6
  9
$SURFU
 70
     6
  9
$SURFV
 70
     6
  9
$UCSNAME
  2

  9
$UCSORG
 10
0.0
 20
0.0
 30
0.0
  9
$UCSXDIR
 10
1.0
 20
0.0
 30
0.0
  9
$UCSYDIR
 10
0.0
 20
1.0
 30
0.0
  9
$PUCSNAME
  2

  9
$PUCSORG
 10
0.0
 20
0.0
 30
0.0
  9
$PUCSXDIR
 10
1.0
 20
0.0
 30
0.0
  9
$PUCSYDIR
 10
0.0
 20
1.0
 30
0.0
  9
$USERI1
 70
     0
  9
$USERI2
 70
     0
  9
$USERI3
 70
     0
  9
$USERI4
 70
     0
  9
$USERI5
 70
     0
  9
$USERR1
 40
0.0
  9
$USERR2
 40
0.0
  9
$USERR3
 40
0.0
  9
$USERR4
 40
0.0
  9
$USERR5
 40
0.0
  9
$WORLDVIEW
 70
     1
  9
$SHADEDGE
 70
     3
  9
$SHADEDIF
 70
    70
  9
$TILEMODE
 70
     1
  9
$MAXACTVP
 70
    16
  9
$PLIMCHECK
 70
     0
  9
$PEXTMIN
 10
1.000000E+020
 20
1.000000E+020
 30
1.000000E+020
  9
$PEXTMAX
 10
-1.000000E+020
 20
-1.000000E+020
 30
-1.000000E+020
  9
$PLIMMIN
 10
0.0
 20
0.0
  9
$PLIMMAX
 10
12.0
 20
9.0
  9
$UNITMODE
 70
     0
  9
$VISRETAIN
 70
     1
  9
$PLINEGEN
 70
     0
  9
$PSLTSCALE
 70
     1
  0
ENDSEC
  0
SECTION
  2
TABLES
  0
TABLE
  2
VPORT
 70
     2
  0
VPORT
  2
*ACTIVE
 70
     0
 10
0.0
 20
0.0
 11
1.0
 21
1.0
 12
2.562622
 22
0.724278
 13
0.0
 23
0.0
 14
1.0
 24
1.0
 15
0.0
 25
0.0
 16
0.0
 26
0.0
 36
1.0
 17
0.0
 27
0.0
 37
0.0
 40
8.254197
 41
1.605903
 42
50.0
 43
0.0
 44
0.0
 50
0.0
 51
0.0
 71
     0
 72
 20000
 73
     1
 74
     0
 75
     0
 76
     0
 77
     0
 78
     0
  0
ENDTAB
  0
TABLE
  2
LTYPE
 70
     5
  0
LTYPE
  2
CONTINUOUS
 70
     0
  3
Solid line
 72
    65
 73
     0
 40
0.0
  0
LTYPE
  2
HIDDEN
 70
     0
  3
__ __ __ __ __ __ __ __ __ __ __ __ __ __ __ __
 72
    65
 73
     2
 40
0.375
 49
0.25
 49
-0.125
  0
LTYPE
  2
C50_BASE$0$HIDDEN
 70
     0
  3
__ __ __ __ __ __ __ __ __ __ __ __ __ __ __ __
 72
    65
 73
     2
 40
0.375
 49
0.25
 49
-0.125
  0
LTYPE
  2
CENTER
 70
     0
  3
Center ____ _ ____ _ ____ _ ____ _ ____ _ ____
 72
    65
 73
     4
 40
2.0
 49
1.25
 49
-0.25
 49
0.25
 49
-0.25
  0
LTYPE
  2
PHANTOM
 70
     0
  3
Phantom ______  __  __  ______  __  __  ______
 72
    65
 73
     6
 40
2.5
 49
1.25
 49
-0.25
 49
0.25
 49
-0.25
 49
0.25
 49
-0.25
  0
ENDTAB
  0
TABLE
  2
LAYER
 70
    18
  0
LAYER
  2
0
 70
     0
 62
     7
  6
CONTINUOUS
  0
LAYER
  2
H
 70
     0
 62
     4
  6
HIDDEN
  0
LAYER
  2
L
 70
     0
 62
     5
  6
CONTINUOUS
  0
LAYER
  2
DEFPOINTS
 70
     0
 62
    -7
  6
CONTINUOUS
  0
LAYER
  2
C50_1$0$D
 70
     0
 62
     7
  6
CONTINUOUS
  0
LAYER
  2
C50_1$0$L
 70
     0
 62
     5
  6
CONTINUOUS
  0
LAYER
  2
61BB_1$0$L
 70
     0
 62
     5
  6
CONTINUOUS
  0
LAYER
  2
C50_BASE$0$D
 70
     0
 62
     7
  6
CONTINUOUS
  0
LAYER
  2
C50_BASE$0$H
 70
     0
 62
     4
  6
C50_BASE$0$HIDDEN
  0
LAYER
  2
C50_BASE$0$L
 70
     0
 62
     5
  6
CONTINUOUS
  0
LAYER
  2
F
 70
     0
 62
    13
  6
CONTINUOUS
  0
LAYER
  2
D
 70
     0
 62
     7
  6
CONTINUOUS
  0
LAYER
  2
C
 70
     0
 62
     1
  6
CENTER
  0
LAYER
  2
P
 70
     0
 62
     2
  6
PHANTOM
  0
LAYER
  2
S
 70
     0
 62
     6
  6
CONTINUOUS
  0
LAYER
  2
AM_TR
 70
     0
 62
     7
  6
CONTINUOUS
  0
LAYER
  2
AM_BM
 70
     0
 62
     7
  6
CONTINUOUS
  0
LAYER
  2
AM_BL
 70
     0
 62
     7
  6
CONTINUOUS
  0
ENDTAB
  0
TABLE
  2
STYLE
 70
     3
  0
STYLE
  2
STANDARD
 70
     0
 40
0.0
 41
1.0
 50
0.0
 71
     0
 42
0.09
  3
txt
  4

  0
STYLE
  2
C50_BASE$0$STANDARD
 70
     0
 40
0.0
 41
1.0
 50
0.0
 71
     0
 42
0.075
  3
txt
  4

  0
STYLE
  2
61BB_1$0$STANDARD
 70
     0
 40
0.0
 41
1.0
 50
0.0
 71
     0
 42
0.125
  3
txt
  4

  0
ENDTAB
  0
TABLE
  2
VIEW
 70
     0
  0
ENDTAB
  0
TABLE
  2
UCS
 70
     0
  0
ENDTAB
  0
TABLE
  2
APPID
 70
     3
  0
APPID
  2
ACAD
 70
     0
  0
APPID
  2
MCAD_NO_VIS
 70
     0
  0
APPID
  2
ACAD_TEMP_GRAPHIC
 70
     0
  0
ENDTAB
  0
TABLE
  2
DIMSTYLE
 70
     7
  0
DIMSTYLE
  2
PARLEC
 70
     0
  3

  4

  5

  6

  7

 40
1.0
 41
0.12
 42
0.0625
 43
0.38
 44
0.05
 45
0.0
 46
0.0
 47
0.0
 48
0.0
140
0.125
141
0.09
142
0.0
143
25.4
144
1.0
145
0.0
146
1.0
147
0.09
 71
     0
 72
     0
 73
     1
 74
     1
 75
     0
 76
     0
 77
     0
 78
     0
170
     0
171
     2
172
     0
173
     0
174
     0
175
     0
176
     0
177
     0
178
     0
  0
DIMSTYLE
  2
0P
 70
     0
  3

  4

  5

  6

  7

 40
1.0
 41
0.12
 42
0.0625
 43
0.38
 44
0.05
 45
0.0
 46
0.0
 47
0.0
 48
0.0
140
0.125
141
0.09
142
0.0
143
25.4
144
1.0
145
0.0
146
1.0
147
0.09
 71
     0
 72
     0
 73
     1
 74
     1
 75
     0
 76
     0
 77
     0
 78
     0
170
     0
171
     2
172
     0
173
     0
174
     0
175
     0
176
     0
177
     0
178
     0
  0
DIMSTYLE
  2
1P
 70
     0
  3

  4

  5

  6

  7

 40
1.0
 41
0.12
 42
0.0625
 43
0.38
 44
0.05
 45
0.0
 46
0.0
 47
0.0
 48
0.0
140
0.125
141
0.09
142
0.0
143
25.4
144
1.0
145
0.0
146
1.0
147
0.09
 71
     0
 72
     0
 73
     1
 74
     1
 75
     0
 76
     0
 77
     0
 78
     0
170
     0
171
     2
172
     0
173
     0
174
     0
175
     0
176
     0
177
     0
178
     0
  0
DIMSTYLE
  2
2P
 70
     0
  3

  4

  5

  6

  7

 40
1.0
 41
0.12
 42
0.0625
 43
0.38
 44
0.05
 45
0.0
 46
0.0
 47
0.0
 48
0.0
140
0.125
141
0.09
142
0.0
143
25.4
144
1.0
145
0.0
146
1.0
147
0.09
 71
     0
 72
     0
 73
     1
 74
     1
 75
     0
 76
     0
 77
     0
 78
     0
170
     0
171
     2
172
     0
173
     0
174
     0
175
     0
176
     0
177
     0
178
     0
  0
DIMSTYLE
  2
3P
 70
     0
  3

  4

  5

  6

  7

 40
1.0
 41
0.12
 42
0.0625
 43
0.38
 44
0.05
 45
0.0
 46
0.0
 47
0.0
 48
0.0
140
0.125
141
0.09
142
0.0
143
25.4
144
1.0
145
0.0
146
1.0
147
0.09
 71
     0
 72
     0
 73
     1
 74
     1
 75
     0
 76
     0
 77
     0
 78
     0
170
     0
171
     2
172
     0
173
     0
174
     0
175
     0
176
     0
177
     0
178
     0
  0
DIMSTYLE
  2
4P
 70
     0
  3

  4

  5

  6

  7

 40
1.0
 41
0.12
 42
0.0625
 43
0.38
 44
0.05
 45
0.0
 46
0.0
 47
0.0
 48
0.0
140
0.125
141
0.09
142
0.0
143
25.4
144
1.0
145
0.0
146
1.0
147
0.09
 71
     0
 72
     0
 73
     1
 74
     1
 75
     0
 76
     0
 77
     0
 78
     0
170
     0
171
     2
172
     0
173
     0
174
     0
175
     0
176
     0
177
     0
178
     0
  0
DIMSTYLE
  2
5P
 70
     0
  3

  4

  5

  6

  7

 40
1.0
 41
0.12
 42
0.0625
 43
0.38
 44
0.05
 45
0.0
 46
0.0
 47
0.0
 48
0.0
140
0.125
141
0.09
142
0.0
143
25.4
144
1.0
145
0.0
146
1.0
147
0.09
 71
     0
 72
     0
 73
     1
 74
     1
 75
     0
 76
     0
 77
     0
 78
     0
170
     0
171
     2
172
     0
173
     0
174
     0
175
     0
176
     0
177
     0
178
     0
  0
ENDTAB
  0
ENDSEC
  0
SECTION
  2
BLOCKS
  0
BLOCK
  8
0
  2
$MODEL_SPACE
 70
     0
 10
0.0
 20
0.0
 30
0.0
  3
$MODEL_SPACE
  1

  0
ENDBLK
  5
765
  8
0
  0
BLOCK
 67
     1
  8
0
  2
$PAPER_SPACE
 70
     0
 10
0.0
 20
0.0
 30
0.0
  3
$PAPER_SPACE
  1

  0
ENDBLK
  5
763
 67
     1
  8
0
  0
BLOCK
  8
0
  6
CONTINUOUS
 62
     7
  2
C50_1
 70
     0
 10
0.0
 20
0.0
 30
0.0
  3
C50_1
  1
C50_1
  0
LINE
  5
4A4
  8
C50_1$0$L
 10
0.72
 20
-1.9375
 30
0.0
 11
0.75
 21
-1.9075
 31
0.0
  0
LINE
  5
4A5
  8
C50_1$0$L
 10
0.78
 20
1.375
 30
0.0
 11
1.287974
 21
1.375
 31
0.0
  0
ARC
  5
4A6
  8
C50_1$0$L
 10
0.78
 20
1.405
 30
0.0
 40
0.03
 50
180.0
 51
270.0
  0
LINE
  5
4A7
  8
C50_1$0$L
 10
0.75
 20
0.0
 30
0.0
 11
0.75
 21
1.907502
 31
0.0
  0
LINE
  5
4A8
  8
C50_1$0$L
 10
0.72
 20
0.51
 30
0.0
 11
0.72
 21
1.937502
 31
0.0
  0
LINE
  5
4A9
  8
C50_1$0$L
 10
0.72
 20
1.937502
 30
0.0
 11
0.75
 21
1.907502
 31
0.0
  0
LINE
  5
4AA
  8
C50_1$0$L
 10
0.75
 20
0.0
 30
0.0
 11
0.75
 21
-1.907502
 31
0.0
  0
LINE
  5
4AB
  8
C50_1$0$L
 10
0.72
 20
-0.51
 30
0.0
 11
0.72
 21
-1.937502
 31
0.0
  0
POINT
  5
4AC
  8
DEFPOINTS
  6
BYBLOCK
 62
     0
 10
0.75
 20
-1.907502
 30
0.0
  0
LINE
  5
4AD
  8
C50_1$0$L
 10
0.72
 20
-1.937502
 30
0.0
 11
0.75
 21
-1.907502
 31
0.0
  0
LINE
  5
4AE
  8
C50_1$0$L
 10
0.78
 20
-1.375
 30
0.0
 11
1.287974
 21
-1.375
 31
0.0
  0
ARC
  5
4AF
  8
C50_1$0$L
 10
0.78
 20
-1.405
 30
0.0
 40
0.03
 50
90.0
 51
180.0
  0
INSERT
  5
4B0
  8
C50_1$0$D
  2
C50_BASE
 10
0.0
 20
0.0
 30
0.0
  0
LINE
  5
4B1
  8
C50_1$0$L
 10
0.695204
 20
0.51
 30
0.0
 11
0.75
 21
0.51
 31
0.0
  0
LINE
  5
4B2
  8
C50_1$0$L
 10
0.695204
 20
-0.51
 30
0.0
 11
0.75
 21
-0.51
 31
0.0
  0
ENDBLK
  5
1DE
  8
0
  6
CONTINUOUS
 62
     7
  0
BLOCK
  8
0
  6
CONTINUOUS
 62
     7
  2
61BB_1
 70
     0
 10
0.0
 20
0.0
 30
0.0
  3
61BB_1
  1
61BB_1
  0
LINE
  5
1E6
  8
61BB_1$0$L
 10
0.0
 20
-3.0625
 30
0.0
 11
0.0
 21
3.0625
 31
0.0
  0
LINE
  5
1E7
  8
0
  6
BYBLOCK
 62
     0
 10
1.865858
 20
3.0625
 30
0.0
 11
1.865858
 21
0.1525
 31
0.0
  0
LINE
  5
1E8
  8
0
  6
BYBLOCK
 62
     0
 10
1.865858
 20
-3.0625
 30
0.0
 11
1.865858
 21
-0.1525
 31
0.0
  0
SOLID
  5
1E9
  8
0
  6
BYBLOCK
 62
     0
 10
1.845858
 20
2.9375
 30
0.0
 11
1.885858
 21
2.9375
 31
0.0
 12
1.865858
 22
3.0575
 32
0.0
 13
1.865858
 23
3.0575
 33
0.0
  0
TEXT
  5
1EA
  8
0
  6
BYBLOCK
 62
     0
 10
1.584608
 20
-0.0625
 30
0.0
 40
0.125
  1
6.1250
  7
61BB_1$0$STANDARD
 72
     4
 11
1.865858
 21
0.0
 31
0.0
  0
LINE
  5
1EB
  8
61BB_1$0$L
 10
-1.472371
 20
3.0625
 30
0.0
 11
0.0
 21
3.0625
 31
0.0
  0
LINE
  5
1EC
  8
61BB_1$0$L
 10
-1.472371
 20
-3.0625
 30
0.0
 11
0.0
 21
-3.0625
 31
0.0
  0
LINE
  5
1ED
  8
0
  6
BYBLOCK
 62
     0
 10
0.0625
 20
-3.0625
 30
0.0
 11
0.965513
 21
-3.0625
 31
0.0
  0
LINE
  5
1EE
  8
0
  6
BYBLOCK
 62
     0
 10
1.066222
 20
-3.0625
 30
0.0
 11
1.915858
 21
-3.0625
 31
0.0
  0
LINE
  5
1EF
  8
0
  6
BYBLOCK
 62
     0
 10
0.052126
 20
3.0625
 30
0.0
 11
1.915858
 21
3.0625
 31
0.0
  0
LINE
  5
1F0
  8
0
 10
0.0625
 20
-3.0625
 30
0.0
 11
1.820448
 21
-3.0625
 31
0.0
  0
SOLID
  5
1F1
  8
0
  6
BYBLOCK
 62
     0
 10
1.845858
 20
-2.9375
 30
0.0
 11
1.885858
 21
-2.9375
 31
0.0
 12
1.865858
 22
-3.0575
 32
0.0
 13
1.865858
 23
-3.0575
 33
0.0
  0
ENDBLK
  5
1E4
  8
0
  6
CONTINUOUS
 62
     7
  0
BLOCK
  8
0
  2
*D2
 70
     1
 10
0.0
 20
0.0
 30
0.0
  3
*D2
  1
61BB_1
  0
LINE
  5
16D
  8
0
  6
BYBLOCK
 62
     0
 10
0.0
 20
1.4375
 30
0.0
 11
0.0
 21
4.046527
 31
0.0
  0
LINE
  5
16E
  8
0
  6
BYBLOCK
 62
     0
 10
7.0
 20
3.125
 30
0.0
 11
7.0
 21
4.046527
 31
0.0
  0
LINE
  5
16F
  8
0
  6
BYBLOCK
 62
     0
 10
0.12
 20
3.996527
 30
0.0
 11
3.243333
 21
3.996527
 31
0.0
  0
LINE
  5
170
  8
0
  6
BYBLOCK
 62
     0
 10
6.88
 20
3.996527
 30
0.0
 11
3.756667
 21
3.996527
 31
0.0
  0
SOLID
  5
171
  8
0
  6
BYBLOCK
 62
     0
 10
0.12
 20
4.016527
 30
0.0
 11
0.12
 21
3.976527
 31
0.0
 12
0.0
 22
3.996527
 32
0.0
 13
0.0
 23
3.996527
 33
0.0
  0
SOLID
  5
172
  8
0
  6
BYBLOCK
 62
     0
 10
6.88
 20
4.016527
 30
0.0
 11
6.88
 21
3.976527
 31
0.0
 12
7.0
 22
3.996527
 32
0.0
 13
7.0
 23
3.996527
 33
0.0
  0
TEXT
  5
173
  8
0
  6
BYBLOCK
 62
     0
 10
3.333333
 20
3.934027
 30
0.0
 40
0.125
  1
7.00
 72
     1
 11
3.5
 21
3.996527
 31
0.0
 73
     2
  0
POINT
  5
174
  8
DEFPOINTS
  6
BYBLOCK
 62
     0
 10
0.0
 20
1.375
 30
0.0
  0
POINT
  5
175
  8
DEFPOINTS
  6
BYBLOCK
 62
     0
 10
7.0
 20
3.0625
 30
0.0
  0
POINT
  5
176
  8
DEFPOINTS
  6
BYBLOCK
 62
     0
 10
7.0
 20
3.996527
 30
0.0
  0
ENDBLK
  5
177
  8
0
  0
BLOCK
  8
0
  6
CONTINUOUS
 62
     7
  2
C50_BASE
 70
     0
 10
0.0
 20
0.0
 30
0.0
  3
C50_BASE
  1
C50_BASE
  0
LINE
  5
237
  8
C50_BASE$0$L
 10
0.0
 20
0.0
 30
0.0
 11
0.0
 21
-1.375
 31
0.0
  0
LINE
  5
238
  8
C50_BASE$0$L
 10
0.0
 20
-1.375
 30
0.0
 11
-3.897317
 21
-0.806641
 31
0.0
  0
LINE
  5
239
  8
C50_BASE$0$L
 10
0.0
 20
-1.375
 30
0.0
 11
0.105
 21
-1.375
 31
0.0
  0
ARC
  5
23A
  8
C50_BASE$0$L
 10
-3.88241
 20
0.69
 30
0.0
 40
0.11759
 50
97.282949
 51
180.0
  0
LINE
  5
23B
  8
C50_BASE$0$H
 10
-4.0
 20
0.5625
 30
0.0
 11
-3.918594
 21
0.5155
 31
0.0
  0
LINE
  5
23C
  8
C50_BASE$0$H
 10
-4.0
 20
-0.5625
 30
0.0
 11
-3.918594
 21
-0.5155
 31
0.0
  0
ARC
  5
23D
  8
C50_BASE$0$L
 10
-3.88241
 20
-0.69
 30
0.0
 40
0.11759
 50
180.0
 51
262.717051
  0
LINE
  5
23E
  8
C50_BASE$0$L
 10
-4.0
 20
-0.69
 30
0.0
 11
-4.0
 21
0.69
 31
0.0
  0
LINE
  5
23F
  8
C50_BASE$0$L
 10
0.0
 20
1.375
 30
0.0
 11
-3.897317
 21
0.806641
 31
0.0
  0
LINE
  5
240
  8
C50_BASE$0$H
 10
-3.75
 20
-0.5
 30
0.0
 11
-2.25
 21
-0.5
 31
0.0
  0
LINE
  5
241
  8
C50_BASE$0$H
 10
-3.75
 20
-0.4375
 30
0.0
 11
-2.25
 21
-0.4375
 31
0.0
  0
LINE
  5
242
  8
C50_BASE$0$H
 10
-3.75
 20
0.4375
 30
0.0
 11
-2.25
 21
0.4375
 31
0.0
  0
LINE
  5
243
  8
C50_BASE$0$H
 10
-3.75
 20
0.5
 30
0.0
 11
-2.25
 21
0.5
 31
0.0
  0
LINE
  5
244
  8
C50_BASE$0$H
 10
-3.918594
 20
0.5155
 30
0.0
 11
-3.918594
 21
-0.0025
 31
0.0
  0
LINE
  5
245
  8
C50_BASE$0$H
 10
-3.75
 20
0.0
 30
0.0
 11
-3.75
 21
0.5155
 31
0.0
  0
LINE
  5
246
  8
C50_BASE$0$H
 10
-3.75
 20
0.0
 30
0.0
 11
-3.75
 21
-0.5155
 31
0.0
  0
LINE
  5
247
  8
C50_BASE$0$H
 10
-3.918594
 20
-0.5155
 30
0.0
 11
-3.918594
 21
0.0025
 31
0.0
  0
LINE
  5
248
  8
C50_BASE$0$H
 10
-3.918594
 20
-0.5155
 30
0.0
 11
-3.75
 21
-0.5155
 31
0.0
  0
LINE
  5
249
  8
C50_BASE$0$H
 10
-3.918594
 20
0.5155
 30
0.0
 11
-3.75
 21
0.5155
 31
0.0
  0
LINE
  5
24A
  8
C50_BASE$0$H
 10
-2.25
 20
0.5
 30
0.0
 11
-2.25
 21
-0.5
 31
0.0
  0
LINE
  5
24B
  8
C50_BASE$0$L
 10
0.0
 20
0.0
 30
0.0
 11
0.0
 21
1.375
 31
0.0
  0
CIRCLE
  5
24C
  8
C50_BASE$0$L
 10
0.44
 20
0.0
 30
0.0
 40
0.1875
  0
LINE
  5
24D
  8
C50_BASE$0$L
 10
0.125
 20
0.51
 30
0.0
 11
0.695204
 21
0.51
 31
0.0
  0
LINE
  5
24E
  8
C50_BASE$0$L
 10
0.0
 20
1.375
 30
0.0
 11
0.105
 21
1.375
 31
0.0
  0
POINT
  5
24F
  8
DEFPOINTS
  6
BYBLOCK
 62
     0
 10
0.0
 20
1.375
 30
0.0
  0
POINT
  5
250
  8
DEFPOINTS
  6
BYBLOCK
 62
     0
 10
0.0
 20
-1.375
 30
0.0
  0
POINT
  5
251
  8
DEFPOINTS
  6
BYBLOCK
 62
     0
 10
0.0
 20
1.375
 30
0.0
  0
LINE
  5
252
  8
C50_BASE$0$L
 10
0.125
 20
-1.9075
 30
0.0
 11
0.125
 21
1.9075
 31
0.0
  0
LINE
  5
253
  8
C50_BASE$0$L
 10
0.5155
 20
0.51
 30
0.0
 11
0.5155
 21
1.827515
 31
0.0
  0
LINE
  5
254
  8
C50_BASE$0$L
 10
0.3645
 20
0.51
 30
0.0
 11
0.3645
 21
1.827515
 31
0.0
  0
LINE
  5
255
  8
C50_BASE$0$L
 10
0.579
 20
0.51
 30
0.0
 11
0.579
 21
1.9375
 31
0.0
  0
LINE
  5
256
  8
C50_BASE$0$L
 10
0.301
 20
0.51
 30
0.0
 11
0.301
 21
1.9375
 31
0.0
  0
LINE
  5
257
  8
C50_BASE$0$L
 10
0.579
 20
1.9375
 30
0.0
 11
0.5155
 21
1.827515
 31
0.0
  0
LINE
  5
258
  8
C50_BASE$0$L
 10
0.301
 20
1.9375
 30
0.0
 11
0.3645
 21
1.827515
 31
0.0
  0
LINE
  5
259
  8
C50_BASE$0$L
 10
0.579
 20
1.9375
 30
0.0
 11
0.72
 21
1.9375
 31
0.0
  0
LINE
  5
25A
  8
C50_BASE$0$L
 10
0.301
 20
1.9375
 30
0.0
 11
0.155
 21
1.9375
 31
0.0
  0
LINE
  5
25B
  8
C50_BASE$0$L
 10
0.155
 20
0.51
 30
0.0
 11
0.155
 21
1.9375
 31
0.0
  0
LINE
  5
25C
  8
C50_BASE$0$L
 10
0.125
 20
1.9075
 30
0.0
 11
0.155
 21
1.9375
 31
0.0
  0
LINE
  5
25D
  8
C50_BASE$0$L
 10
0.5155
 20
1.797
 30
0.0
 11
0.3645
 21
1.797
 31
0.0
  0
ARC
  5
25E
  8
C50_BASE$0$L
 10
0.105
 20
1.395
 30
0.0
 40
0.02
 50
270.0
 51
0.0
  0
LINE
  5
25F
  8
C50_BASE$0$L
 10
0.579
 20
-0.51
 30
0.0
 11
0.579
 21
-1.9375
 31
0.0
  0
LINE
  5
260
  8
C50_BASE$0$L
 10
0.5155
 20
-0.51
 30
0.0
 11
0.5155
 21
-1.827515
 31
0.0
  0
LINE
  5
261
  8
C50_BASE$0$L
 10
0.3645
 20
-0.51
 30
0.0
 11
0.3645
 21
-1.827515
 31
0.0
  0
LINE
  5
262
  8
C50_BASE$0$L
 10
0.301
 20
-0.51
 30
0.0
 11
0.301
 21
-1.9375
 31
0.0
  0
LINE
  5
263
  8
C50_BASE$0$L
 10
0.155
 20
-0.51
 30
0.0
 11
0.155
 21
-1.9375
 31
0.0
  0
LINE
  5
264
  8
C50_BASE$0$L
 10
0.579
 20
-1.9375
 30
0.0
 11
0.72
 21
-1.9375
 31
0.0
  0
LINE
  5
265
  8
C50_BASE$0$L
 10
0.301
 20
-1.9375
 30
0.0
 11
0.3645
 21
-1.827515
 31
0.0
  0
LINE
  5
266
  8
C50_BASE$0$L
 10
0.579
 20
-1.9375
 30
0.0
 11
0.5155
 21
-1.827515
 31
0.0
  0
LINE
  5
267
  8
C50_BASE$0$L
 10
0.301
 20
-1.9375
 30
0.0
 11
0.155
 21
-1.9375
 31
0.0
  0
LINE
  5
268
  8
C50_BASE$0$L
 10
0.125
 20
-1.9075
 30
0.0
 11
0.155
 21
-1.9375
 31
0.0
  0
LINE
  5
269
  8
C50_BASE$0$L
 10
0.5155
 20
-1.797
 30
0.0
 11
0.3645
 21
-1.797
 31
0.0
  0
LINE
  5
26A
  8
C50_BASE$0$L
 10
0.125
 20
-0.51
 30
0.0
 11
0.695204
 21
-0.51
 31
0.0
  0
ARC
  5
26B
  8
C50_BASE$0$L
 10
0.105
 20
-1.395
 30
0.0
 40
0.02
 50
0.0
 51
90.0
  0
SOLID
  5
26C
  8
C50_BASE$0$D
 10
-0.371748
 20
1.44279
 30
0.0
 11
-0.408045
 21
1.425982
 31
0.0
 12
-0.339474
 22
1.325493
 32
0.0
 13
-0.339474
 23
1.325493
 33
0.0
  0
LINE
  5
26D
  8
C50_BASE$0$D
 10
-0.389896
 20
1.434386
 30
0.0
 11
-1.092609
 21
2.951982
 31
0.0
  0
LINE
  5
26E
  8
C50_BASE$0$D
 10
-1.092609
 20
2.951982
 30
0.0
 11
-1.225138
 21
2.951982
 31
0.0
  0
TEXT
  5
26F
  8
C50_BASE$0$D
 10
-2.677478
 20
2.903767
 30
0.0
 40
0.125
  1
50 V-FLANGE
  7
C50_BASE$0$STANDARD
 72
     2
 11
-1.323312
 21
2.966267
 31
0.0
 73
     2
  0
TEXT
  5
270
  8
C50_BASE$0$D
 10
-3.030563
 20
2.905161
 30
0.0
 40
0.09
  1
CAT
  7
C50_BASE$0$STANDARD
 72
     2
 11
-2.790563
 21
2.950161
 31
0.0
 73
     2
  0
ENDBLK
  5
1E1
  8
0
  6
CONTINUOUS
 62
     7
  0
ENDSEC
  0
SECTION
  2
ENTITIES
  0
LINE
  5
19F
  8
L
 10
6.461885
 20
3.0625
 30
0.0
 11
1.41
 21
3.0625
 31
0.0
  0
LINE
  5
1A0
  8
L
 10
1.38
 20
3.0325
 30
0.0
 11
1.38
 21
1.405
 31
0.0
  0
LINE
  5
1A1
  8
H
 10
-2.25
 20
-0.4375
 30
0.0
 11
-0.762877
 21
-0.4375
 31
0.0
  0
LINE
  5
1A2
  8
H
 10
-0.762877
 20
0.4375
 30
0.0
 11
-0.762877
 21
-0.4375
 31
0.0
  0
LINE
  5
1A3
  8
H
 10
-2.25
 20
0.4375
 30
0.0
 11
-0.762877
 21
0.4375
 31
0.0
  0
LINE
  5
1A4
  8
H
 10
-0.5
 20
0.0
 30
0.0
 11
-0.762877
 21
0.4375
 31
0.0
  0
LINE
  5
1A5
  8
H
 10
-0.5
 20
0.0
 30
0.0
 11
-0.762877
 21
-0.4375
 31
0.0
  0
LINE
  5
1A6
  8
L
 10
1.32
 20
1.375
 30
0.0
 11
1.35
 21
1.375
 31
0.0
  0
ARC
  5
1A7
  8
L
 10
1.35
 20
1.405
 30
0.0
 40
0.03
 50
270.0
 51
0.0
  0
LINE
  5
1A8
  8
L
 10
1.32
 20
-1.375
 30
0.0
 11
1.35
 21
-1.375
 31
0.0
  0
ARC
  5
1A9
  8
L
 10
1.35
 20
-1.405
 30
0.0
 40
0.03
 50
0.0
 51
90.0
  0
ARC
  5
1AA
  8
L
 10
1.41
 20
3.0325
 30
0.0
 40
0.03
 50
90.0
 51
180.0
  0
INSERT
  5
1AB
  8
0
  2
61BB_1
 10
7.0
 20
0.0
 30
0.0
  0
LINE
  5
1AC
  8
L
 10
6.461885
 20
-3.0625
 30
0.0
 11
1.41
 21
-3.0625
 31
0.0
  0
LINE
  5
1AD
  8
L
 10
1.38
 20
-3.0325
 30
0.0
 11
1.38
 21
1.405
 31
0.0
  0
ARC
  5
1AE
  8
L
 10
1.41
 20
-3.0325
 30
0.0
 40
0.03
 50
180.0
 51
270.0
  0
ARC
  5
1AF
  8
L
 10
1.41
 20
-3.0325
 30
0.0
 40
0.03
 50
180.0
 51
270.0
  0
INSERT
  5
1B0
  8
0
  2
C50_1
 10
0.0
 20
0.0
 30
0.0
  0
DIMENSION
  5
1B1
  8
0
  2
*D2
 10
7.0
 20
3.996527
 30
0.0
 11
3.5
 21
3.996527
 31
0.0
  1
7.00
 13
0.0
 23
1.375
 33
0.0
 14
7.0
 24
3.0625
 34
0.0
  0
LINE
  5
1B2
  8
L
 10
-0.64646
 20
0.791592
 30
0.0
 11
-0.58396
 21
0.791592
 31
0.0
  0
LINE
  5
1B3
  8
L
 10
-0.64646
 20
1.066592
 30
0.0
 11
-0.58396
 21
1.066592
 31
0.0
  0
ARC
  5
1B4
  8
L
 10
-0.969013
 20
0.901092
 30
0.0
 40
0.1095
 50
0.018858
 51
278.071967
  0
CIRCLE
  5
1B5
  8
L
 10
-0.969013
 20
0.901092
 30
0.0
 40
0.05
  0
ARC
  5
1B6
  8
L
 10
-0.969013
 20
0.901092
 30
0.0
 40
0.1095
 50
0.018858
 51
278.071967
  0
LINE
  5
1B7
  8
L
 10
-1.251552
 20
0.909963
 30
0.0
 11
-1.251552
 21
0.791592
 31
0.0
  0
LINE
  5
1B8
  8
L
 10
-1.314052
 20
0.957014
 30
0.0
 11
-1.314052
 21
0.791592
 31
0.0
  0
LINE
  5
1B9
  8
L
 10
-1.314052
 20
0.791592
 30
0.0
 11
-1.251552
 21
0.791592
 31
0.0
  0
CIRCLE
  5
1BA
  8
L
 10
-1.204552
 20
0.957014
 30
0.0
 40
0.05
  0
ARC
  5
1BB
  8
L
 10
-1.204552
 20
0.957014
 30
0.0
 40
0.1095
 50
269.890544
 51
179.99999
  0
LINE
  5
1BC
  8
L
 10
-1.251552
 20
0.909963
 30
0.0
 11
-1.204762
 21
0.847514
 31
0.0
  0
LINE
  5
1BD
  8
L
 10
-0.64646
 20
1.066592
 30
0.0
 11
-0.64646
 21
0.791592
 31
0.0
  0
LINE
  5
1BE
  8
L
 10
-0.766978
 20
0.931054
 30
0.0
 11
-0.766703
 21
0.791592
 31
0.0
  0
LINE
  5
1BF
  8
L
 10
-0.829478
 20
0.931054
 30
0.0
 11
-0.829203
 21
0.791592
 31
0.0
  0
LINE
  5
1C0
  8
L
 10
-0.859513
 20
0.901128
 30
0.0
 11
-0.859477
 21
0.791592
 31
0.0
  0
LINE
  5
1C1
  8
L
 10
-0.921999
 20
0.858207
 30
0.0
 11
-0.953637
 21
0.792677
 31
0.0
  0
LINE
  5
1C2
  8
L
 10
-0.921999
 20
0.858207
 30
0.0
 11
-0.921977
 21
0.791592
 31
0.0
  0
LINE
  5
1C3
  8
L
 10
-0.859513
 20
0.901128
 30
0.0
 11
-0.859477
 21
0.791664
 31
0.0
  0
LINE
  5
1C4
  8
L
 10
-0.829203
 20
0.791592
 30
0.0
 11
-0.766703
 21
0.791592
 31
0.0
  0
LINE
  5
1C5
  8
L
 10
-0.921977
 20
0.791592
 30
0.0
 11
-0.859477
 21
0.791592
 31
0.0
  0
ARC
  5
1C6
  8
L
 10
-0.749941
 20
0.931054
 30
0.0
 40
0.079538
 50
18.846034
 51
180.226252
  0
LINE
  5
1C7
  8
L
 10
-0.674667
 20
0.956747
 30
0.0
 11
-0.717062
 21
0.933094
 31
0.0
  0
ARC
  5
1C8
  8
L
 10
-0.741978
 20
0.931054
 30
0.0
 40
0.025
 50
4.679095
 51
180.226252
  0
ARC
  5
1C9
  8
L
 10
-0.217673
 20
0.901092
 30
0.0
 40
0.1095
 50
30.701399
 51
270.0
  0
ARC
  5
1CA
  8
L
 10
-0.447754
 20
0.901092
 30
0.0
 40
0.05625
 50
235.5219
 51
332.233922
  0
LINE
  5
1CB
  8
L
 10
-0.58396
 20
1.066592
 30
0.0
 11
-0.58396
 21
0.791592
 31
0.0
  0
ARC
  5
1CC
  8
L
 10
-0.447754
 20
0.901092
 30
0.0
 40
0.1095
 50
14.507251
 51
328.258317
  0
ARC
  5
1CD
  8
L
 10
-0.447754
 20
0.901092
 30
0.0
 40
0.05625
 50
64.071476
 51
172.253555
  0
LINE
  5
1CE
  8
L
 10
-0.423159
 20
0.95168
 30
0.0
 11
-0.50349
 21
0.908674
 31
0.0
  0
LINE
  5
1CF
  8
L
 10
-0.341745
 20
0.928522
 30
0.0
 11
-0.479596
 21
0.854723
 31
0.0
  0
LINE
  5
1D0
  8
L
 10
-0.397981
 20
0.874887
 30
0.0
 11
-0.354632
 21
0.843485
 31
0.0
  0
LINE
  5
1D1
  8
L
 10
-0.080807
 20
0.844842
 30
0.0
 11
-0.108348
 21
0.791592
 31
0.0
  0
LINE
  5
1D2
  8
L
 10
-0.217673
 20
0.791592
 30
0.0
 11
-0.108348
 21
0.791592
 31
0.0
  0
LINE
  5
1D3
  8
L
 10
-0.217673
 20
0.844842
 30
0.0
 11
-0.080807
 21
0.844842
 31
0.0
  0
LINE
  5
1D4
  8
L
 10
-0.12352
 20
0.956999
 30
0.0
 11
-0.173032
 21
0.935316
 31
0.0
  0
ARC
  5
1D5
  8
L
 10
-0.217673
 20
0.901092
 30
0.0
 40
0.05625
 50
37.476042
 51
270.0
  0
TEXT
  5
1D6
  8
0
 10
-1.21075
 20
0.598602
 30
0.0
 40
0.125
  1
C50-61BB7
  0
LINE
  5
1D7
  8
L
 10
1.32
 20
1.375
 30
0.0
 11
1.287974
 21
1.375
 31
0.0
  0
LINE
  5
1D8
  8
L
 10
1.287974
 20
-1.375
 30
0.0
 11
1.32
 21
-1.375
 31
0.0
  0
ENDSEC
  0
EOF
