  0
SECTION
  2
HEADER
  9
$ACADVER
  1
AC1009
  9
$INSBASE
 10
0.0
 20
0.0
 30
0.0
  9
$EXTMIN
 10
-4.0
 20
-1.937502
 30
0.0
  9
$EXTMAX
 10
6.053505
 20
3.028767
 30
0.0
  9
$LIMMIN
 10
0.0
 20
0.0
  9
$LIMMAX
 10
12.0
 20
9.0
  9
$ORTHOMODE
 70
     1
  9
$REGENMODE
 70
     1
  9
$FILLMODE
 70
     1
  9
$QTEXTMODE
 70
     0
  9
$MIRRTEXT
 70
     1
  9
$DRAGMODE
 70
     2
  9
$LTSCALE
 40
0.35
  9
$OSMODE
 70
   165
  9
$ATTMODE
 70
     1
  9
$TEXTSIZE
 40
0.188
  9
$TRACEWID
 40
0.05
  9
$TEXTSTYLE
  7
STANDARD
  9
$CLAYER
  8
L
  9
$CELTYPE
  6
BYLAYER
  9
$CECOLOR
 62
   256
  9
$DIMSCALE
 40
1.0
  9
$DIMASZ
 40
0.12
  9
$DIMEXO
 40
0.0625
  9
$DIMDLI
 40
0.38
  9
$DIMRND
 40
0.0
  9
$DIMDLE
 40
0.0
  9
$DIMEXE
 40
0.05
  9
$DIMTP
 40
0.0
  9
$DIMTM
 40
0.0
  9
$DIMTXT
 40
0.125
  9
$DIMCEN
 40
0.09
  9
$DIMTSZ
 40
0.0
  9
$DIMTOL
 70
     0
  9
$DIMLIM
 70
     0
  9
$DIMTIH
 70
     1
  9
$DIMTOH
 70
     1
  9
$DIMSE1
 70
     0
  9
$DIMSE2
 70
     0
  9
$DIMTAD
 70
     0
  9
$DIMZIN
 70
     0
  9
$DIMBLK
  1

  9
$DIMASO
 70
     1
  9
$DIMSHO
 70
     1
  9
$DIMPOST
  1

  9
$DIMAPOST
  1

  9
$DIMALT
 70
     0
  9
$DIMALTD
 70
     2
  9
$DIMALTF
 40
25.4
  9
$DIMLFAC
 40
1.0
  9
$DIMTOFL
 70
     0
  9
$DIMTVP
 40
0.0
  9
$DIMTIX
 70
     0
  9
$DIMSOXD
 70
     0
  9
$DIMSAH
 70
     0
  9
$DIMBLK1
  1

  9
$DIMBLK2
  1

  9
$DIMSTYLE
  2
5P
  9
$DIMCLRD
 70
     0
  9
$DIMCLRE
 70
     0
  9
$DIMCLRT
 70
     0
  9
$DIMTFAC
 40
1.0
  9
$DIMGAP
 40
0.09
  9
$LUNITS
 70
     2
  9
$LUPREC
 70
     3
  9
$SKETCHINC
 40
0.1
  9
$FILLETRAD
 40
0.06
  9
$AUNITS
 70
     1
  9
$AUPREC
 70
     0
  9
$MENU
  1
acad
  9
$ELEVATION
 40
0.0
  9
$PELEVATION
 40
0.0
  9
$THICKNESS
 40
0.0
  9
$LIMCHECK
 70
     0
  9
$BLIPMODE
 70
     0
  9
$CHAMFERA
 40
0.0
  9
$CHAMFERB
 40
0.0
  9
$SKPOLY
 70
     0
  9
$TDCREATE
 40
2449798.518896
  9
$TDUPDATE
 40
2450910.422918
  9
$TDINDWG
 40
0.039917
  9
$TDUSRTIMER
 40
0.039917
  9
$USRTIMER
 70
     1
  9
$ANGBASE
 50
0.0
  9
$ANGDIR
 70
     0
  9
$PDMODE
 70
     0
  9
$PDSIZE
 40
0.0
  9
$PLINEWID
 40
0.0
  9
$COORDS
 70
     1
  9
$SPLFRAME
 70
     0
  9
$SPLINETYPE
 70
     6
  9
$SPLINESEGS
 70
     8
  9
$ATTDIA
 70
     1
  9
$ATTREQ
 70
     1
  9
$HANDLING
 70
     1
  9
$HANDSEED
  5
1334
  9
$SURFTAB1
 70
     6
  9
$SURFTAB2
 70
     6
  9
$SURFTYPE
 70
     6
  9
$SURFU
 70
     6
  9
$SURFV
 70
     6
  9
$UCSNAME
  2

  9
$UCSORG
 10
0.0
 20
0.0
 30
0.0
  9
$UCSXDIR
 10
1.0
 20
0.0
 30
0.0
  9
$UCSYDIR
 10
0.0
 20
1.0
 30
0.0
  9
$PUCSNAME
  2

  9
$PUCSORG
 10
0.0
 20
0.0
 30
0.0
  9
$PUCSXDIR
 10
1.0
 20
0.0
 30
0.0
  9
$PUCSYDIR
 10
0.0
 20
1.0
 30
0.0
  9
$USERI1
 70
     0
  9
$USERI2
 70
     0
  9
$USERI3
 70
     0
  9
$USERI4
 70
     0
  9
$USERI5
 70
     0
  9
$USERR1
 40
0.0
  9
$USERR2
 40
0.0
  9
$USERR3
 40
0.0
  9
$USERR4
 40
0.0
  9
$USERR5
 40
0.0
  9
$WORLDVIEW
 70
     1
  9
$SHADEDGE
 70
     3
  9
$SHADEDIF
 70
    70
  9
$TILEMODE
 70
     1
  9
$MAXACTVP
 70
    16
  9
$PLIMCHECK
 70
     0
  9
$PEXTMIN
 10
1.000000E+020
 20
1.000000E+020
 30
1.000000E+020
  9
$PEXTMAX
 10
-1.000000E+020
 20
-1.000000E+020
 30
-1.000000E+020
  9
$PLIMMIN
 10
0.0
 20
0.0
  9
$PLIMMAX
 10
12.0
 20
9.0
  9
$UNITMODE
 70
     0
  9
$VISRETAIN
 70
     1
  9
$PLINEGEN
 70
     0
  9
$PSLTSCALE
 70
     1
  0
ENDSEC
  0
SECTION
  2
TABLES
  0
TABLE
  2
VPORT
 70
     2
  0
VPORT
  2
*ACTIVE
 70
     0
 10
0.0
 20
0.0
 11
1.0
 21
1.0
 12
1.015991
 22
0.720964
 13
0.0
 23
0.0
 14
0.25
 24
0.25
 15
0.0
 25
0.0
 16
0.0
 26
0.0
 36
1.0
 17
0.0
 27
0.0
 37
0.0
 40
6.315543
 41
1.605903
 42
50.0
 43
0.0
 44
0.0
 50
0.0
 51
0.0
 71
     0
 72
 20000
 73
     1
 74
     0
 75
     0
 76
     0
 77
     0
 78
     0
  0
ENDTAB
  0
TABLE
  2
LTYPE
 70
     6
  0
LTYPE
  2
CONTINUOUS
 70
     0
  3
Solid line
 72
    65
 73
     0
 40
0.0
  0
LTYPE
  2
HIDDEN
 70
     0
  3
__ __ __ __ __ __ __ __ __ __ __ __ __ __ __ __
 72
    65
 73
     2
 40
0.375
 49
0.25
 49
-0.125
  0
LTYPE
  2
C50_BASE$0$HIDDEN
 70
     0
  3
__ __ __ __ __ __ __ __ __ __ __ __ __ __ __ __
 72
    65
 73
     2
 40
0.375
 49
0.25
 49
-0.125
  0
LTYPE
  2
DASHED
 70
     0
  3
__ __ __ __ __ __ __ __ __ __ __ __ __ __ __
 72
    65
 73
     2
 40
0.75
 49
0.5
 49
-0.25
  0
LTYPE
  2
CENTER
 70
     0
  3
Center ____ _ ____ _ ____ _ ____ _ ____ _ ____
 72
    65
 73
     4
 40
2.0
 49
1.25
 49
-0.25
 49
0.25
 49
-0.25
  0
LTYPE
  2
PHANTOM
 70
     0
  3
Phantom ______  __  __  ______  __  __  ______
 72
    65
 73
     6
 40
2.5
 49
1.25
 49
-0.25
 49
0.25
 49
-0.25
 49
0.25
 49
-0.25
  0
ENDTAB
  0
TABLE
  2
LAYER
 70
    21
  0
LAYER
  2
0
 70
     0
 62
     7
  6
CONTINUOUS
  0
LAYER
  2
D
 70
     0
 62
     7
  6
CONTINUOUS
  0
LAYER
  2
H
 70
     0
 62
     4
  6
HIDDEN
  0
LAYER
  2
L
 70
     0
 62
     5
  6
CONTINUOUS
  0
LAYER
  2
DEFPOINTS
 70
     0
 62
    -7
  6
CONTINUOUS
  0
LAYER
  2
C50_1$0$D
 70
     0
 62
     7
  6
CONTINUOUS
  0
LAYER
  2
C50_1$0$L
 70
     0
 62
     5
  6
CONTINUOUS
  0
LAYER
  2
C50_BASE$0$D
 70
     0
 62
     7
  6
CONTINUOUS
  0
LAYER
  2
C50_BASE$0$H
 70
     0
 62
     4
  6
C50_BASE$0$HIDDEN
  0
LAYER
  2
C50_BASE$0$L
 70
     0
 62
     5
  6
CONTINUOUS
  0
LAYER
  2
DIM_ATT
 70
     0
 62
     7
  6
CONTINUOUS
  0
LAYER
  2
OBJECT
 70
     0
 62
     1
  6
CONTINUOUS
  0
LAYER
  2
HIDOB
 70
     0
 62
     1
  6
HIDDEN
  0
LAYER
  2
HIDDEN
 70
     0
 62
     4
  6
DASHED
  0
LAYER
  2
F
 70
     0
 62
    13
  6
CONTINUOUS
  0
LAYER
  2
C
 70
     0
 62
     1
  6
CENTER
  0
LAYER
  2
P
 70
     0
 62
     2
  6
PHANTOM
  0
LAYER
  2
S
 70
     0
 62
     6
  6
CONTINUOUS
  0
LAYER
  2
AM_TR
 70
     0
 62
     7
  6
CONTINUOUS
  0
LAYER
  2
AM_BM
 70
     0
 62
     7
  6
CONTINUOUS
  0
LAYER
  2
AM_BL
 70
     0
 62
     7
  6
CONTINUOUS
  0
ENDTAB
  0
TABLE
  2
STYLE
 70
     2
  0
STYLE
  2
STANDARD
 70
     0
 40
0.0
 41
1.0
 50
0.0
 71
     0
 42
0.188
  3
txt
  4

  0
STYLE
  2
C50_BASE$0$STANDARD
 70
     0
 40
0.0
 41
1.0
 50
0.0
 71
     0
 42
0.075
  3
txt
  4

  0
ENDTAB
  0
TABLE
  2
VIEW
 70
     0
  0
ENDTAB
  0
TABLE
  2
UCS
 70
     0
  0
ENDTAB
  0
TABLE
  2
APPID
 70
     3
  0
APPID
  2
ACAD
 70
     0
  0
APPID
  2
MCAD_NO_VIS
 70
     0
  0
APPID
  2
ACAD_TEMP_GRAPHIC
 70
     0
  0
ENDTAB
  0
TABLE
  2
DIMSTYLE
 70
     7
  0
DIMSTYLE
  2
PARLEC
 70
     0
  3

  4

  5

  6

  7

 40
1.0
 41
0.12
 42
0.0625
 43
0.38
 44
0.05
 45
0.0
 46
0.0
 47
0.0
 48
0.0
140
0.125
141
0.09
142
0.0
143
25.4
144
1.0
145
0.0
146
1.0
147
0.09
 71
     0
 72
     0
 73
     1
 74
     1
 75
     0
 76
     0
 77
     0
 78
     0
170
     0
171
     2
172
     0
173
     0
174
     0
175
     0
176
     0
177
     0
178
     0
  0
DIMSTYLE
  2
0P
 70
     0
  3

  4

  5

  6

  7

 40
1.0
 41
0.12
 42
0.0625
 43
0.38
 44
0.05
 45
0.0
 46
0.0
 47
0.0
 48
0.0
140
0.125
141
0.09
142
0.0
143
25.4
144
1.0
145
0.0
146
1.0
147
0.09
 71
     0
 72
     0
 73
     1
 74
     1
 75
     0
 76
     0
 77
     0
 78
     0
170
     0
171
     2
172
     0
173
     0
174
     0
175
     0
176
     0
177
     0
178
     0
  0
DIMSTYLE
  2
1P
 70
     0
  3

  4

  5

  6

  7

 40
1.0
 41
0.12
 42
0.0625
 43
0.38
 44
0.05
 45
0.0
 46
0.0
 47
0.0
 48
0.0
140
0.125
141
0.09
142
0.0
143
25.4
144
1.0
145
0.0
146
1.0
147
0.09
 71
     0
 72
     0
 73
     1
 74
     1
 75
     0
 76
     0
 77
     0
 78
     0
170
     0
171
     2
172
     0
173
     0
174
     0
175
     0
176
     0
177
     0
178
     0
  0
DIMSTYLE
  2
2P
 70
     0
  3

  4

  5

  6

  7

 40
1.0
 41
0.12
 42
0.0625
 43
0.38
 44
0.05
 45
0.0
 46
0.0
 47
0.0
 48
0.0
140
0.125
141
0.09
142
0.0
143
25.4
144
1.0
145
0.0
146
1.0
147
0.09
 71
     0
 72
     0
 73
     1
 74
     1
 75
     0
 76
     0
 77
     0
 78
     0
170
     0
171
     2
172
     0
173
     0
174
     0
175
     0
176
     0
177
     0
178
     0
  0
DIMSTYLE
  2
3P
 70
     0
  3

  4

  5

  6

  7

 40
1.0
 41
0.12
 42
0.0625
 43
0.38
 44
0.05
 45
0.0
 46
0.0
 47
0.0
 48
0.0
140
0.125
141
0.09
142
0.0
143
25.4
144
1.0
145
0.0
146
1.0
147
0.09
 71
     0
 72
     0
 73
     1
 74
     1
 75
     0
 76
     0
 77
     0
 78
     0
170
     0
171
     2
172
     0
173
     0
174
     0
175
     0
176
     0
177
     0
178
     0
  0
DIMSTYLE
  2
4P
 70
     0
  3

  4

  5

  6

  7

 40
1.0
 41
0.12
 42
0.0625
 43
0.38
 44
0.05
 45
0.0
 46
0.0
 47
0.0
 48
0.0
140
0.125
141
0.09
142
0.0
143
25.4
144
1.0
145
0.0
146
1.0
147
0.09
 71
     0
 72
     0
 73
     1
 74
     1
 75
     0
 76
     0
 77
     0
 78
     0
170
     0
171
     2
172
     0
173
     0
174
     0
175
     0
176
     0
177
     0
178
     0
  0
DIMSTYLE
  2
5P
 70
     0
  3

  4

  5

  6

  7

 40
1.0
 41
0.12
 42
0.0625
 43
0.38
 44
0.05
 45
0.0
 46
0.0
 47
0.0
 48
0.0
140
0.125
141
0.09
142
0.0
143
25.4
144
1.0
145
0.0
146
1.0
147
0.09
 71
     0
 72
     0
 73
     1
 74
     1
 75
     0
 76
     0
 77
     0
 78
     0
170
     0
171
     2
172
     0
173
     0
174
     0
175
     0
176
     0
177
     0
178
     0
  0
ENDTAB
  0
ENDSEC
  0
SECTION
  2
BLOCKS
  0
BLOCK
  8
0
  2
$MODEL_SPACE
 70
     0
 10
0.0
 20
0.0
 30
0.0
  3
$MODEL_SPACE
  1

  0
ENDBLK
  5
E91
  8
0
  0
BLOCK
 67
     1
  8
0
  2
$PAPER_SPACE
 70
     0
 10
0.0
 20
0.0
 30
0.0
  3
$PAPER_SPACE
  1

  0
ENDBLK
  5
E8F
 67
     1
  8
0
  0
BLOCK
  8
0
  6
CONTINUOUS
 62
     7
  2
C50_1
 70
     0
 10
0.0
 20
0.0
 30
0.0
  3
C50_1
  1
C50_1
  0
LINE
  5
A5F
  8
C50_1$0$L
 10
0.72
 20
-1.9375
 30
0.0
 11
0.75
 21
-1.9075
 31
0.0
  0
LINE
  5
A60
  8
C50_1$0$L
 10
0.78
 20
1.375
 30
0.0
 11
1.287974
 21
1.375
 31
0.0
  0
ARC
  5
A61
  8
C50_1$0$L
 10
0.78
 20
1.405
 30
0.0
 40
0.03
 50
180.0
 51
270.0
  0
LINE
  5
A62
  8
C50_1$0$L
 10
0.75
 20
0.0
 30
0.0
 11
0.75
 21
1.907502
 31
0.0
  0
LINE
  5
A63
  8
C50_1$0$L
 10
0.72
 20
0.51
 30
0.0
 11
0.72
 21
1.937502
 31
0.0
  0
LINE
  5
A64
  8
C50_1$0$L
 10
0.72
 20
1.937502
 30
0.0
 11
0.75
 21
1.907502
 31
0.0
  0
LINE
  5
A65
  8
C50_1$0$L
 10
0.75
 20
0.0
 30
0.0
 11
0.75
 21
-1.907502
 31
0.0
  0
LINE
  5
A66
  8
C50_1$0$L
 10
0.72
 20
-0.51
 30
0.0
 11
0.72
 21
-1.937502
 31
0.0
  0
POINT
  5
A67
  8
DEFPOINTS
  6
BYBLOCK
 62
     0
 10
0.75
 20
-1.907502
 30
0.0
  0
LINE
  5
A68
  8
C50_1$0$L
 10
0.72
 20
-1.937502
 30
0.0
 11
0.75
 21
-1.907502
 31
0.0
  0
LINE
  5
A69
  8
C50_1$0$L
 10
0.78
 20
-1.375
 30
0.0
 11
1.287974
 21
-1.375
 31
0.0
  0
ARC
  5
A6A
  8
C50_1$0$L
 10
0.78
 20
-1.405
 30
0.0
 40
0.03
 50
90.0
 51
180.0
  0
INSERT
  5
A6B
  8
C50_1$0$D
  2
C50_BASE
 10
0.0
 20
0.0
 30
0.0
  0
LINE
  5
A6C
  8
C50_1$0$L
 10
0.695204
 20
0.51
 30
0.0
 11
0.75
 21
0.51
 31
0.0
  0
LINE
  5
A6D
  8
C50_1$0$L
 10
0.695204
 20
-0.51
 30
0.0
 11
0.75
 21
-0.51
 31
0.0
  0
ENDBLK
  5
506
  8
0
  6
CONTINUOUS
 62
     7
  0
BLOCK
  8
0
  2
C50R06
 70
     0
 10
0.0
 20
0.0
 30
0.0
  3
C50R06
  1

  0
POINT
  5
185
  8
DEFPOINTS
  6
BYBLOCK
 62
     0
 10
0.06
 20
-0.110494
 30
0.0
  0
LINE
  5
186
  8
L
 10
0.06
 20
-0.06
 30
0.0
 11
0.06
 21
-2.553341
 31
0.0
  0
LINE
  5
187
  8
L
 10
0.06
 20
-2.69
 30
0.0
 11
0.06
 21
-2.553341
 31
0.0
  0
ARC
  5
188
  8
L
 10
0.0
 20
-0.06
 30
0.0
 40
0.06
 50
0.0
 51
90.0
  0
ARC
  5
189
  8
L
 10
0.0
 20
-2.69
 30
0.0
 40
0.06
 50
270.0
 51
0.0
  0
ENDBLK
  5
18A
  8
0
  0
BLOCK
  8
0
  2
*D2
 70
     1
 10
0.0
 20
0.0
 30
0.0
  3
*D2
  1
75SM_1
  0
LINE
  5
1B2
  8
0
  6
BYBLOCK
 62
     0
 10
0.0
 20
1.4375
 30
0.0
 11
0.0
 21
2.832177
 31
0.0
  0
LINE
  5
1B3
  8
0
  6
BYBLOCK
 62
     0
 10
3.5
 20
0.8975
 30
0.0
 11
3.5
 21
2.832177
 31
0.0
  0
LINE
  5
1B4
  8
0
  6
BYBLOCK
 62
     0
 10
0.12
 20
2.782177
 30
0.0
 11
1.482917
 21
2.782177
 31
0.0
  0
LINE
  5
1B5
  8
0
  6
BYBLOCK
 62
     0
 10
3.38
 20
2.782177
 30
0.0
 11
2.017083
 21
2.782177
 31
0.0
  0
SOLID
  5
1B6
  8
0
  6
BYBLOCK
 62
     0
 10
0.12
 20
2.802177
 30
0.0
 11
0.12
 21
2.762177
 31
0.0
 12
0.0
 22
2.782177
 32
0.0
 13
0.0
 23
2.782177
 33
0.0
  0
SOLID
  5
1B7
  8
0
  6
BYBLOCK
 62
     0
 10
3.38
 20
2.802177
 30
0.0
 11
3.38
 21
2.762177
 31
0.0
 12
3.5
 22
2.782177
 32
0.0
 13
3.5
 23
2.782177
 33
0.0
  0
TEXT
  5
1B8
  8
0
  6
BYBLOCK
 62
     0
 10
1.572917
 20
2.719677
 30
0.0
 40
0.125
  1
3.50
 72
     1
 11
1.75
 21
2.782177
 31
0.0
 73
     2
  0
POINT
  5
1B9
  8
DEFPOINTS
  6
BYBLOCK
 62
     0
 10
0.0
 20
1.375
 30
0.0
  0
POINT
  5
1BA
  8
DEFPOINTS
  6
BYBLOCK
 62
     0
 10
3.5
 20
0.835
 30
0.0
  0
POINT
  5
1BB
  8
DEFPOINTS
  6
BYBLOCK
 62
     0
 10
3.5
 20
2.782177
 30
0.0
  0
ENDBLK
  5
1BC
  8
0
  0
BLOCK
  8
0
  2
75KY
 70
     0
 10
0.0
 20
0.0
 30
0.0
  3
75KY
  1

  0
INSERT
  5
1E5
  8
DIM_ATT
 66
     1
  2
ATT_BLK
 10
5.9574
 20
7.5193
 30
0.0
  0
ATTRIB
  5
1E6
  8
DIM_ATT
 10
5.9574
 20
7.6543
 30
0.0
 40
0.09
  1
HOR
  2
TYPE
 70
     1
  0
ATTRIB
  5
1E7
  8
DIM_ATT
 10
5.9574
 20
7.5193
 30
0.0
 40
0.09
  1
.16
  2
A1
 70
     1
  0
ATTRIB
  5
1E8
  8
DIM_ATT
 10
5.9574
 20
7.3843
 30
0.0
 40
0.09
  1
5.957400,7.519300
  2
A2
 70
     1
  0
ATTRIB
  5
1E9
  8
DIM_ATT
 10
5.9574
 20
7.2493
 30
0.0
 40
0.09
  1
6.117400,7.488300
  2
A3
 70
     1
  0
ATTRIB
  5
1EA
  8
DIM_ATT
 10
5.9574
 20
7.1143
 30
0.0
 40
0.09
  1
1.000000,8.817400
  2
A4
 70
     1
  0
ATTRIB
  5
1EB
  8
DIM_ATT
 10
5.9574
 20
6.9793
 30
0.0
 40
0.09
  1

  2
A5
 70
     1
  0
ATTRIB
  5
1EC
  8
DIM_ATT
 10
5.9574
 20
6.8443
 30
0.0
 40
0.09
  1
DIMFIX
  2
A6
 70
     1
  0
ATTRIB
  5
1ED
  8
DIM_ATT
 10
5.9574
 20
6.7093
 30
0.0
 40
0.09
  1
0
  2
A7
 70
     1
  0
ATTRIB
  5
1EE
  8
DIM_ATT
 10
5.9574
 20
6.5743
 30
0.0
 40
0.09
  1
0
  2
A8
 70
     1
  0
SEQEND
  5
1EF
  8
DIM_ATT
  0
INSERT
  5
1F0
  8
DIM_ATT
 66
     1
  2
ATT_BLK
 10
6.3974
 20
7.1953
 30
0.0
  0
ATTRIB
  5
1F1
  8
DIM_ATT
 10
6.3974
 20
7.3303
 30
0.0
 40
0.09
  1
HOR
  2
TYPE
 70
     1
  0
ATTRIB
  5
1F2
  8
DIM_ATT
 10
6.3974
 20
7.1953
 30
0.0
 40
0.09
  1
.09
  2
A1
 70
     1
  0
ATTRIB
  5
1F3
  8
DIM_ATT
 10
6.3974
 20
7.0603
 30
0.0
 40
0.09
  1
6.487400,7.225300
  2
A2
 70
     1
  0
ATTRIB
  5
1F4
  8
DIM_ATT
 10
6.3974
 20
6.9253
 30
0.0
 40
0.09
  1
6.397400,7.195300
  2
A3
 70
     1
  0
ATTRIB
  5
1F5
  8
DIM_ATT
 10
6.3974
 20
6.7903
 30
0.0
 40
0.09
  1
1.000000,6.291800
  2
A4
 70
     1
  0
ATTRIB
  5
1F6
  8
DIM_ATT
 10
6.3974
 20
6.6553
 30
0.0
 40
0.09
  1

  2
A5
 70
     1
  0
ATTRIB
  5
1F7
  8
DIM_ATT
 10
6.3974
 20
6.5203
 30
0.0
 40
0.09
  1
DIMFIX
  2
A6
 70
     1
  0
ATTRIB
  5
1F8
  8
DIM_ATT
 10
6.3974
 20
6.3853
 30
0.0
 40
0.09
  1
0
  2
A7
 70
     1
  0
ATTRIB
  5
1F9
  8
DIM_ATT
 10
6.3974
 20
6.2503
 30
0.0
 40
0.09
  1
0
  2
A8
 70
     1
  0
SEQEND
  5
1FA
  8
DIM_ATT
  0
INSERT
  5
1FB
  8
DIM_ATT
 66
     1
  2
ATT_BLK
 10
5.9574
 20
7.1843
 30
0.0
  0
ATTRIB
  5
1FC
  8
DIM_ATT
 10
5.9574
 20
7.3193
 30
0.0
 40
0.09
  1
HOR
  2
TYPE
 70
     1
  0
ATTRIB
  5
1FD
  8
DIM_ATT
 10
5.9574
 20
7.1843
 30
0.0
 40
0.09
  1
.530
  2
A1
 70
     1
  0
ATTRIB
  5
1FE
  8
DIM_ATT
 10
5.9574
 20
7.0493
 30
0.0
 40
0.09
  1
5.957400,7.184300
  2
A2
 70
     1
  0
ATTRIB
  5
1FF
  8
DIM_ATT
 10
5.9574
 20
6.9143
 30
0.0
 40
0.09
  1
6.487400,7.225300
  2
A3
 70
     1
  0
ATTRIB
  5
200
  8
DIM_ATT
 10
5.9574
 20
6.7793
 30
0.0
 40
0.09
  1
1.000000,5.040600
  2
A4
 70
     1
  0
ATTRIB
  5
201
  8
DIM_ATT
 10
5.9574
 20
6.6443
 30
0.0
 40
0.09
  1

  2
A5
 70
     1
  0
ATTRIB
  5
202
  8
DIM_ATT
 10
5.9574
 20
6.5093
 30
0.0
 40
0.09
  1
DIMFIX
  2
A6
 70
     1
  0
ATTRIB
  5
203
  8
DIM_ATT
 10
5.9574
 20
6.3743
 30
0.0
 40
0.09
  1
0
  2
A7
 70
     1
  0
ATTRIB
  5
204
  8
DIM_ATT
 10
5.9574
 20
6.2393
 30
0.0
 40
0.09
  1
0
  2
A8
 70
     1
  0
SEQEND
  5
205
  8
DIM_ATT
  0
INSERT
  5
206
  8
DIM_ATT
 66
     1
  2
ATT_BLK
 10
9.5244
 20
7.3518
 30
0.0
  0
ATTRIB
  5
207
  8
DIM_ATT
 10
9.5244
 20
7.4868
 30
0.0
 40
0.09
  1
HOR
  2
TYPE
 70
     1
  0
ATTRIB
  5
208
  8
DIM_ATT
 10
9.5244
 20
7.3518
 30
0.0
 40
0.09
  1
0.18750
  2
A1
 70
     1
  0
ATTRIB
  5
209
  8
DIM_ATT
 10
9.5244
 20
7.2168
 30
0.0
 40
0.09
  1
9.524400,7.351800
  2
A2
 70
     1
  0
ATTRIB
  5
20A
  8
DIM_ATT
 10
9.5244
 20
7.0818
 30
0.0
 40
0.09
  1
9.711900,6.286400
  2
A3
 70
     1
  0
ATTRIB
  5
20B
  8
DIM_ATT
 10
9.5244
 20
6.9468
 30
0.0
 40
0.09
  1
1.000000,6.219900
  2
A4
 70
     1
  0
ATTRIB
  5
20C
  8
DIM_ATT
 10
9.5244
 20
6.8118
 30
0.0
 40
0.09
  1

  2
A5
 70
     1
  0
ATTRIB
  5
20D
  8
DIM_ATT
 10
9.5244
 20
6.6768
 30
0.0
 40
0.09
  1
DIMFIX
  2
A6
 70
     1
  0
ATTRIB
  5
20E
  8
DIM_ATT
 10
9.5244
 20
6.5418
 30
0.0
 40
0.09
  1
0
  2
A7
 70
     1
  0
ATTRIB
  5
20F
  8
DIM_ATT
 10
9.5244
 20
6.4068
 30
0.0
 40
0.09
  1
0
  2
A8
 70
     1
  0
SEQEND
  5
210
  8
DIM_ATT
  0
INSERT
  5
211
  8
DIM_ATT
 66
     1
  2
ATT_BLK
 10
9.7119
 20
6.426
 30
0.0
  0
ATTRIB
  5
212
  8
DIM_ATT
 10
9.7119
 20
6.561
 30
0.0
 40
0.09
  1
HOR
  2
TYPE
 70
     1
  0
ATTRIB
  5
213
  8
DIM_ATT
 10
9.7119
 20
6.426
 30
0.0
 40
0.09
  1
0.18750
  2
A1
 70
     1
  0
ATTRIB
  5
214
  8
DIM_ATT
 10
9.7119
 20
6.291
 30
0.0
 40
0.09
  1
9.899400,7.351800
  2
A2
 70
     1
  0
ATTRIB
  5
215
  8
DIM_ATT
 10
9.7119
 20
6.156
 30
0.0
 40
0.09
  1
9.711900,6.426000
  2
A3
 70
     1
  0
ATTRIB
  5
216
  8
DIM_ATT
 10
9.7119
 20
6.021
 30
0.0
 40
0.09
  1
1.000000,6.426000
  2
A4
 70
     1
  0
ATTRIB
  5
217
  8
DIM_ATT
 10
9.7119
 20
5.886
 30
0.0
 40
0.09
  1

  2
A5
 70
     1
  0
ATTRIB
  5
218
  8
DIM_ATT
 10
9.7119
 20
5.751
 30
0.0
 40
0.09
  1
DIMFIX
  2
A6
 70
     1
  0
ATTRIB
  5
219
  8
DIM_ATT
 10
9.7119
 20
5.616
 30
0.0
 40
0.09
  1
0
  2
A7
 70
     1
  0
ATTRIB
  5
21A
  8
DIM_ATT
 10
9.7119
 20
5.481
 30
0.0
 40
0.09
  1
0
  2
A8
 70
     1
  0
SEQEND
  5
21B
  8
DIM_ATT
  0
INSERT
  5
21C
  8
DIM_ATT
 66
     1
  2
ATT_BLK
 10
6.4874
 20
7.3518
 30
0.0
  0
ATTRIB
  5
21D
  8
DIM_ATT
 10
6.4874
 20
7.4868
 30
0.0
 40
0.09
  1
VER
  2
TYPE
 70
     1
  0
ATTRIB
  5
21E
  8
DIM_ATT
 10
6.4874
 20
7.3518
 30
0.0
 40
0.09
  1
0.15650
  2
A1
 70
     1
  0
ATTRIB
  5
21F
  8
DIM_ATT
 10
6.4874
 20
7.2168
 30
0.0
 40
0.09
  1
6.487400,7.351800
  2
A2
 70
     1
  0
ATTRIB
  5
220
  8
DIM_ATT
 10
6.4874
 20
7.0818
 30
0.0
 40
0.09
  1
6.457400,7.508300
  2
A3
 70
     1
  0
ATTRIB
  5
221
  8
DIM_ATT
 10
6.4874
 20
6.9468
 30
0.0
 40
0.09
  1
6.781800,1.000000
  2
A4
 70
     1
  0
ATTRIB
  5
222
  8
DIM_ATT
 10
6.4874
 20
6.8118
 30
0.0
 40
0.09
  1
6.117400,1.000000
  2
A5
 70
     1
  0
ATTRIB
  5
223
  8
DIM_ATT
 10
6.4874
 20
6.6768
 30
0.0
 40
0.09
  1
DIMFIXHIDE
  2
A6
 70
     1
  0
ATTRIB
  5
224
  8
DIM_ATT
 10
6.4874
 20
6.5418
 30
0.0
 40
0.09
  1
0
  2
A7
 70
     1
  0
ATTRIB
  5
225
  8
DIM_ATT
 10
6.4874
 20
6.4068
 30
0.0
 40
0.09
  1
0
  2
A8
 70
     1
  0
SEQEND
  5
226
  8
DIM_ATT
  0
INSERT
  5
227
  8
DIM_ATT
 66
     1
  2
ATT_BLK
 10
6.4574
 20
7.1953
 30
0.0
  0
ATTRIB
  5
228
  8
DIM_ATT
 10
6.4574
 20
7.3303
 30
0.0
 40
0.09
  1
VER
  2
TYPE
 70
     1
  0
ATTRIB
  5
229
  8
DIM_ATT
 10
6.4574
 20
7.1953
 30
0.0
 40
0.09
  1
0.15650
  2
A1
 70
     1
  0
ATTRIB
  5
22A
  8
DIM_ATT
 10
6.4574
 20
7.0603
 30
0.0
 40
0.09
  1
6.487400,7.351800
  2
A2
 70
     1
  0
ATTRIB
  5
22B
  8
DIM_ATT
 10
6.4574
 20
6.9253
 30
0.0
 40
0.09
  1
6.457400,7.195300
  2
A3
 70
     1
  0
ATTRIB
  5
22C
  8
DIM_ATT
 10
6.4574
 20
6.7903
 30
0.0
 40
0.09
  1
6.866900,1.000000
  2
A4
 70
     1
  0
ATTRIB
  5
22D
  8
DIM_ATT
 10
6.4574
 20
6.6553
 30
0.0
 40
0.09
  1
6.367700,1.000000
  2
A5
 70
     1
  0
ATTRIB
  5
22E
  8
DIM_ATT
 10
6.4574
 20
6.5203
 30
0.0
 40
0.09
  1
DIMFIXHIDE
  2
A6
 70
     1
  0
ATTRIB
  5
22F
  8
DIM_ATT
 10
6.4574
 20
6.3853
 30
0.0
 40
0.09
  1
0
  2
A7
 70
     1
  0
ATTRIB
  5
230
  8
DIM_ATT
 10
6.4574
 20
6.2503
 30
0.0
 40
0.09
  1
0
  2
A8
 70
     1
  0
SEQEND
  5
231
  8
DIM_ATT
  0
INSERT
  5
232
  8
DIM_ATT
 66
     1
  2
ATT_BLK
 10
5.9574
 20
7.3518
 30
0.0
  0
ATTRIB
  5
233
  8
DIM_ATT
 10
5.9574
 20
7.4868
 30
0.0
 40
0.09
  1
VER
  2
TYPE
 70
     1
  0
ATTRIB
  5
234
  8
DIM_ATT
 10
5.9574
 20
7.3518
 30
0.0
 40
0.09
  1
0.18750
  2
A1
 70
     1
  0
ATTRIB
  5
235
  8
DIM_ATT
 10
5.9574
 20
7.2168
 30
0.0
 40
0.09
  1
5.957400,7.351800
  2
A2
 70
     1
  0
ATTRIB
  5
236
  8
DIM_ATT
 10
5.9574
 20
7.0818
 30
0.0
 40
0.09
  1
5.977400,7.539300
  2
A3
 70
     1
  0
ATTRIB
  5
237
  8
DIM_ATT
 10
5.9574
 20
6.9468
 30
0.0
 40
0.09
  1
5.567500,1.000000
  2
A4
 70
     1
  0
ATTRIB
  5
238
  8
DIM_ATT
 10
5.9574
 20
6.8118
 30
0.0
 40
0.09
  1
6.117400,1.000000
  2
A5
 70
     1
  0
ATTRIB
  5
239
  8
DIM_ATT
 10
5.9574
 20
6.6768
 30
0.0
 40
0.09
  1
DIMFIXHIDE
  2
A6
 70
     1
  0
ATTRIB
  5
23A
  8
DIM_ATT
 10
5.9574
 20
6.5418
 30
0.0
 40
0.09
  1
0
  2
A7
 70
     1
  0
ATTRIB
  5
23B
  8
DIM_ATT
 10
5.9574
 20
6.4068
 30
0.0
 40
0.09
  1
0
  2
A8
 70
     1
  0
SEQEND
  5
23C
  8
DIM_ATT
  0
INSERT
  5
23D
  8
DIM_ATT
 66
     1
  2
ATT_BLK
 10
5.9774
 20
7.1643
 30
0.0
  0
ATTRIB
  5
23E
  8
DIM_ATT
 10
5.9774
 20
7.2993
 30
0.0
 40
0.09
  1
VER
  2
TYPE
 70
     1
  0
ATTRIB
  5
23F
  8
DIM_ATT
 10
5.9774
 20
7.1643
 30
0.0
 40
0.09
  1
0.18750
  2
A1
 70
     1
  0
ATTRIB
  5
240
  8
DIM_ATT
 10
5.9774
 20
7.0293
 30
0.0
 40
0.09
  1
5.957400,7.351800
  2
A2
 70
     1
  0
ATTRIB
  5
241
  8
DIM_ATT
 10
5.9774
 20
6.8943
 30
0.0
 40
0.09
  1
5.977400,7.164300
  2
A3
 70
     1
  0
ATTRIB
  5
242
  8
DIM_ATT
 10
5.9774
 20
6.7593
 30
0.0
 40
0.09
  1
5.459000,1.000000
  2
A4
 70
     1
  0
ATTRIB
  5
243
  8
DIM_ATT
 10
5.9774
 20
6.6243
 30
0.0
 40
0.09
  1
6.117400,1.000000
  2
A5
 70
     1
  0
ATTRIB
  5
244
  8
DIM_ATT
 10
5.9774
 20
6.4893
 30
0.0
 40
0.09
  1
DIMFIXHIDE
  2
A6
 70
     1
  0
ATTRIB
  5
245
  8
DIM_ATT
 10
5.9774
 20
6.3543
 30
0.0
 40
0.09
  1
0
  2
A7
 70
     1
  0
ATTRIB
  5
246
  8
DIM_ATT
 10
5.9774
 20
6.2193
 30
0.0
 40
0.09
  1
0
  2
A8
 70
     1
  0
SEQEND
  5
247
  8
DIM_ATT
  0
INSERT
  5
248
  8
DIM_ATT
 66
     1
  2
ATT_BLK
 10
6.1174
 20
7.3518
 30
0.0
  0
ATTRIB
  5
249
  8
DIM_ATT
 10
6.1174
 20
7.4868
 30
0.0
 40
0.09
  1
VER
  2
TYPE
 70
     1
  0
ATTRIB
  5
24A
  8
DIM_ATT
 10
6.1174
 20
7.3518
 30
0.0
 40
0.09
  1
0.14000
  2
A1
 70
     1
  0
ATTRIB
  5
24B
  8
DIM_ATT
 10
6.1174
 20
7.2168
 30
0.0
 40
0.09
  1
6.117400,7.491800
  2
A2
 70
     1
  0
ATTRIB
  5
24C
  8
DIM_ATT
 10
6.1174
 20
7.0818
 30
0.0
 40
0.09
  1
6.117400,7.351800
  2
A3
 70
     1
  0
ATTRIB
  5
24D
  8
DIM_ATT
 10
6.1174
 20
6.9468
 30
0.0
 40
0.09
  1
3.628600,1.000000
  2
A4
 70
     1
  0
ATTRIB
  5
24E
  8
DIM_ATT
 10
6.1174
 20
6.8118
 30
0.0
 40
0.09
  1
6.397400,1.000000
  2
A5
 70
     1
  0
ATTRIB
  5
24F
  8
DIM_ATT
 10
6.1174
 20
6.6768
 30
0.0
 40
0.09
  1
DIMFIXHIDE
  2
A6
 70
     1
  0
ATTRIB
  5
250
  8
DIM_ATT
 10
6.1174
 20
6.5418
 30
0.0
 40
0.09
  1
0
  2
A7
 70
     1
  0
ATTRIB
  5
251
  8
DIM_ATT
 10
6.1174
 20
6.4068
 30
0.0
 40
0.09
  1
0
  2
A8
 70
     1
  0
SEQEND
  5
252
  8
DIM_ATT
  0
INSERT
  5
253
  8
DIM_ATT
 66
     1
  2
ATT_BLK
 10
6.1174
 20
7.2118
 30
0.0
  0
ATTRIB
  5
254
  8
DIM_ATT
 10
6.1174
 20
7.3468
 30
0.0
 40
0.09
  1
VER
  2
TYPE
 70
     1
  0
ATTRIB
  5
255
  8
DIM_ATT
 10
6.1174
 20
7.2118
 30
0.0
 40
0.09
  1
0.14000
  2
A1
 70
     1
  0
ATTRIB
  5
256
  8
DIM_ATT
 10
6.1174
 20
7.0768
 30
0.0
 40
0.09
  1
6.117400,7.351800
  2
A2
 70
     1
  0
ATTRIB
  5
257
  8
DIM_ATT
 10
6.1174
 20
6.9418
 30
0.0
 40
0.09
  1
6.117400,7.211800
  2
A3
 70
     1
  0
ATTRIB
  5
258
  8
DIM_ATT
 10
6.1174
 20
6.8068
 30
0.0
 40
0.09
  1
3.506000,1.000000
  2
A4
 70
     1
  0
ATTRIB
  5
259
  8
DIM_ATT
 10
6.1174
 20
6.6718
 30
0.0
 40
0.09
  1
6.397400,1.000000
  2
A5
 70
     1
  0
ATTRIB
  5
25A
  8
DIM_ATT
 10
6.1174
 20
6.5368
 30
0.0
 40
0.09
  1
DIMFIXHIDE
  2
A6
 70
     1
  0
ATTRIB
  5
25B
  8
DIM_ATT
 10
6.1174
 20
6.4018
 30
0.0
 40
0.09
  1
0
  2
A7
 70
     1
  0
ATTRIB
  5
25C
  8
DIM_ATT
 10
6.1174
 20
6.2668
 30
0.0
 40
0.09
  1
0
  2
A8
 70
     1
  0
SEQEND
  5
25D
  8
DIM_ATT
  0
INSERT
  5
25E
  8
DIM_ATT
 66
     1
  2
ATT_BLK
 10
6.4874
 20
7.3518
 30
0.0
  0
ATTRIB
  5
25F
  8
DIM_ATT
 10
6.4874
 20
7.4868
 30
0.0
 40
0.09
  1
VER
  2
TYPE
 70
     1
  0
ATTRIB
  5
260
  8
DIM_ATT
 10
6.4874
 20
7.3518
 30
0.0
 40
0.09
  1
0.09000
  2
A1
 70
     1
  0
ATTRIB
  5
261
  8
DIM_ATT
 10
6.4874
 20
7.2168
 30
0.0
 40
0.09
  1
6.487400,7.441800
  2
A2
 70
     1
  0
ATTRIB
  5
262
  8
DIM_ATT
 10
6.4874
 20
7.0818
 30
0.0
 40
0.09
  1
6.487400,7.351800
  2
A3
 70
     1
  0
ATTRIB
  5
263
  8
DIM_ATT
 10
6.4874
 20
6.9468
 30
0.0
 40
0.09
  1
8.769500,1.000000
  2
A4
 70
     1
  0
ATTRIB
  5
264
  8
DIM_ATT
 10
6.4874
 20
6.8118
 30
0.0
 40
0.09
  1

  2
A5
 70
     1
  0
ATTRIB
  5
265
  8
DIM_ATT
 10
6.4874
 20
6.6768
 30
0.0
 40
0.09
  1
DIMFIXHIDE
  2
A6
 70
     1
  0
ATTRIB
  5
266
  8
DIM_ATT
 10
6.4874
 20
6.5418
 30
0.0
 40
0.09
  1
0
  2
A7
 70
     1
  0
ATTRIB
  5
267
  8
DIM_ATT
 10
6.4874
 20
6.4068
 30
0.0
 40
0.09
  1
0
  2
A8
 70
     1
  0
SEQEND
  5
268
  8
DIM_ATT
  0
INSERT
  5
269
  8
DIM_ATT
 66
     1
  2
ATT_BLK
 10
6.4874
 20
7.2618
 30
0.0
  0
ATTRIB
  5
26A
  8
DIM_ATT
 10
6.4874
 20
7.3968
 30
0.0
 40
0.09
  1
VER
  2
TYPE
 70
     1
  0
ATTRIB
  5
26B
  8
DIM_ATT
 10
6.4874
 20
7.2618
 30
0.0
 40
0.09
  1
0.09000
  2
A1
 70
     1
  0
ATTRIB
  5
26C
  8
DIM_ATT
 10
6.4874
 20
7.1268
 30
0.0
 40
0.09
  1
6.487400,7.351800
  2
A2
 70
     1
  0
ATTRIB
  5
26D
  8
DIM_ATT
 10
6.4874
 20
6.9918
 30
0.0
 40
0.09
  1
6.487400,7.261800
  2
A3
 70
     1
  0
ATTRIB
  5
26E
  8
DIM_ATT
 10
6.4874
 20
6.8568
 30
0.0
 40
0.09
  1
9.007100,1.000000
  2
A4
 70
     1
  0
ATTRIB
  5
26F
  8
DIM_ATT
 10
6.4874
 20
6.7218
 30
0.0
 40
0.09
  1

  2
A5
 70
     1
  0
ATTRIB
  5
270
  8
DIM_ATT
 10
6.4874
 20
6.5868
 30
0.0
 40
0.09
  1
DIMFIXHIDE
  2
A6
 70
     1
  0
ATTRIB
  5
271
  8
DIM_ATT
 10
6.4874
 20
6.4518
 30
0.0
 40
0.09
  1
0
  2
A7
 70
     1
  0
ATTRIB
  5
272
  8
DIM_ATT
 10
6.4874
 20
6.3168
 30
0.0
 40
0.09
  1
0
  2
A8
 70
     1
  0
SEQEND
  5
273
  8
DIM_ATT
  0
INSERT
  5
274
  8
DIM_ATT
 66
     1
  2
ATT_BLK
 10
10.5368
 20
7.3518
 30
0.0
  0
ATTRIB
  5
275
  8
DIM_ATT
 10
10.5368
 20
7.4868
 30
0.0
 40
0.09
  1
VER
  2
TYPE
 70
     1
  0
ATTRIB
  5
276
  8
DIM_ATT
 10
10.5368
 20
7.3518
 30
0.0
 40
0.09
  1
0.18750
  2
A1
 70
     1
  0
ATTRIB
  5
277
  8
DIM_ATT
 10
10.5368
 20
7.2168
 30
0.0
 40
0.09
  1
9.711900,7.539300
  2
A2
 70
     1
  0
ATTRIB
  5
278
  8
DIM_ATT
 10
10.5368
 20
7.0818
 30
0.0
 40
0.09
  1
10.536800,7.351800
  2
A3
 70
     1
  0
ATTRIB
  5
279
  8
DIM_ATT
 10
10.5368
 20
6.9468
 30
0.0
 40
0.09
  1
10.536800,1.000000
  2
A4
 70
     1
  0
ATTRIB
  5
27A
  8
DIM_ATT
 10
10.5368
 20
6.8118
 30
0.0
 40
0.09
  1

  2
A5
 70
     1
  0
ATTRIB
  5
27B
  8
DIM_ATT
 10
10.5368
 20
6.6768
 30
0.0
 40
0.09
  1
DIMFIX
  2
A6
 70
     1
  0
ATTRIB
  5
27C
  8
DIM_ATT
 10
10.5368
 20
6.5418
 30
0.0
 40
0.09
  1
0
  2
A7
 70
     1
  0
ATTRIB
  5
27D
  8
DIM_ATT
 10
10.5368
 20
6.4068
 30
0.0
 40
0.09
  1
0
  2
A8
 70
     1
  0
SEQEND
  5
27E
  8
DIM_ATT
  0
INSERT
  5
27F
  8
DIM_ATT
 66
     1
  2
ATT_BLK
 10
9.7119
 20
7.1643
 30
0.0
  0
ATTRIB
  5
280
  8
DIM_ATT
 10
9.7119
 20
7.2993
 30
0.0
 40
0.09
  1
VER
  2
TYPE
 70
     1
  0
ATTRIB
  5
281
  8
DIM_ATT
 10
9.7119
 20
7.1643
 30
0.0
 40
0.09
  1
0.18750
  2
A1
 70
     1
  0
ATTRIB
  5
282
  8
DIM_ATT
 10
9.7119
 20
7.0293
 30
0.0
 40
0.09
  1
9.711900,7.164300
  2
A2
 70
     1
  0
ATTRIB
  5
283
  8
DIM_ATT
 10
9.7119
 20
6.8943
 30
0.0
 40
0.09
  1
8.151200,7.351800
  2
A3
 70
     1
  0
ATTRIB
  5
284
  8
DIM_ATT
 10
9.7119
 20
6.7593
 30
0.0
 40
0.09
  1
8.144900,1.000000
  2
A4
 70
     1
  0
ATTRIB
  5
285
  8
DIM_ATT
 10
9.7119
 20
6.6243
 30
0.0
 40
0.09
  1

  2
A5
 70
     1
  0
ATTRIB
  5
286
  8
DIM_ATT
 10
9.7119
 20
6.4893
 30
0.0
 40
0.09
  1
DIMFIX
  2
A6
 70
     1
  0
ATTRIB
  5
287
  8
DIM_ATT
 10
9.7119
 20
6.3543
 30
0.0
 40
0.09
  1
0
  2
A7
 70
     1
  0
ATTRIB
  5
288
  8
DIM_ATT
 10
9.7119
 20
6.2193
 30
0.0
 40
0.09
  1
0
  2
A8
 70
     1
  0
SEQEND
  5
289
  8
DIM_ATT
  0
INSERT
  5
28A
  8
DIM_ATT
 66
     1
  2
ATT_BLK
 10
9.6806
 20
7.5287
 30
0.0
  0
ATTRIB
  5
28B
  8
DIM_ATT
 10
9.6806
 20
7.6637
 30
0.0
 40
0.09
  1
ALI
  2
TYPE
 70
     1
  0
ATTRIB
  5
28C
  8
DIM_ATT
 10
9.6806
 20
7.5287
 30
0.0
 40
0.09
  1
.309
  2
A1
 70
     1
  0
ATTRIB
  5
28D
  8
DIM_ATT
 10
9.6806
 20
7.3937
 30
0.0
 40
0.09
  1
9.680600,7.528700
  2
A2
 70
     1
  0
ATTRIB
  5
28E
  8
DIM_ATT
 10
9.6806
 20
7.2587
 30
0.0
 40
0.09
  1
9.888800,7.320500
  2
A3
 70
     1
  0
ATTRIB
  5
28F
  8
DIM_ATT
 10
9.6806
 20
7.1237
 30
0.0
 40
0.09
  1
10.807200,8.162400
  2
A4
 70
     1
  0
ATTRIB
  5
290
  8
DIM_ATT
 10
9.6806
 20
6.9887
 30
0.0
 40
0.09
  1
0
  2
A5
 70
     1
  0
ATTRIB
  5
291
  8
DIM_ATT
 10
9.6806
 20
6.8537
 30
0.0
 40
0.09
  1
DIMFIX
  2
A6
 70
     1
  0
ATTRIB
  5
292
  8
DIM_ATT
 10
9.6806
 20
6.7187
 30
0.0
 40
0.09
  1
0
  2
A7
 70
     1
  0
ATTRIB
  5
293
  8
DIM_ATT
 10
9.6806
 20
6.5837
 30
0.0
 40
0.09
  1
0
  2
A8
 70
     1
  0
SEQEND
  5
294
  8
DIM_ATT
  0
INSERT
  5
295
  8
DIM_ATT
 66
     1
  2
ATT_BLK
 10
9.7433
 20
7.5287
 30
0.0
  0
ATTRIB
  5
296
  8
DIM_ATT
 10
9.7433
 20
7.6637
 30
0.0
 40
0.09
  1
ALI
  2
TYPE
 70
     1
  0
ATTRIB
  5
297
  8
DIM_ATT
 10
9.7433
 20
7.5287
 30
0.0
 40
0.09
  1
.309
  2
A1
 70
     1
  0
ATTRIB
  5
298
  8
DIM_ATT
 10
9.7433
 20
7.3937
 30
0.0
 40
0.09
  1
9.743300,7.528700
  2
A2
 70
     1
  0
ATTRIB
  5
299
  8
DIM_ATT
 10
9.7433
 20
7.2587
 30
0.0
 40
0.09
  1
9.535000,7.320500
  2
A3
 70
     1
  0
ATTRIB
  5
29A
  8
DIM_ATT
 10
9.7433
 20
7.1237
 30
0.0
 40
0.09
  1
8.335017,8.553060
  2
A4
 70
     1
  0
ATTRIB
  5
29B
  8
DIM_ATT
 10
9.7433
 20
6.9887
 30
0.0
 40
0.09
  1
0
  2
A5
 70
     1
  0
ATTRIB
  5
29C
  8
DIM_ATT
 10
9.7433
 20
6.8537
 30
0.0
 40
0.09
  1
DIMFIX
  2
A6
 70
     1
  0
ATTRIB
  5
29D
  8
DIM_ATT
 10
9.7433
 20
6.7187
 30
0.0
 40
0.09
  1
0
  2
A7
 70
     1
  0
ATTRIB
  5
29E
  8
DIM_ATT
 10
9.7433
 20
6.5837
 30
0.0
 40
0.09
  1
0
  2
A8
 70
     1
  0
SEQEND
  5
29F
  8
DIM_ATT
  0
INSERT
  5
2A0
  8
DIM_ATT
 66
     1
  2
ATT_BLK
 10
9.7119
 20
7.3518
 30
0.0
  0
ATTRIB
  5
2A1
  8
DIM_ATT
 10
9.7119
 20
7.4868
 30
0.0
 40
0.09
  1
RAD
  2
TYPE
 70
     1
  0
ATTRIB
  5
2A2
  8
DIM_ATT
 10
9.7119
 20
7.3518
 30
0.0
 40
0.09
  1
.09
  2
A1
 70
     1
  0
ATTRIB
  5
2A3
  8
DIM_ATT
 10
9.7119
 20
7.2168
 30
0.0
 40
0.09
  1
DIMFIXHIDE 9.711900 7.351800 9.665025 7.428629
  2
A2
 70
     1
  0
ATTRIB
  5
2A4
  8
DIM_ATT
 10
9.7119
 20
7.0818
 30
0.0
 40
0.09
  1
: : CIRCLE : 8 : OBJECT : 10 : 9.711900 : 20 : 7.351800 : 40 : 0.090008 : 
  2
A3
 70
     1
  0
ATTRIB
  5
2A5
  8
DIM_ATT
 10
9.7119
 20
6.9468
 30
0.0
 40
0.09
  1
0
  2
A4
 70
     1
  0
ATTRIB
  5
2A6
  8
DIM_ATT
 10
9.7119
 20
6.8118
 30
0.0
 40
0.09
  1
0
  2
A5
 70
     1
  0
ATTRIB
  5
2A7
  8
DIM_ATT
 10
9.7119
 20
6.6768
 30
0.0
 40
0.09
  1
0
  2
A6
 70
     1
  0
ATTRIB
  5
2A8
  8
DIM_ATT
 10
9.7119
 20
6.5418
 30
0.0
 40
0.09
  1
0
  2
A7
 70
     1
  0
ATTRIB
  5
2A9
  8
DIM_ATT
 10
9.7119
 20
6.4068
 30
0.0
 40
0.09
  1
0
  2
A8
 70
     1
  0
SEQEND
  5
2AA
  8
DIM_ATT
  0
INSERT
  5
2AB
  8
DIM_ATT
 66
     1
  2
ATT_BLK
 10
9.7119
 20
7.3518
 30
0.0
  0
ATTRIB
  5
2AC
  8
DIM_ATT
 10
9.7119
 20
7.4868
 30
0.0
 40
0.09
  1
RAD
  2
TYPE
 70
     1
  0
ATTRIB
  5
2AD
  8
DIM_ATT
 10
9.7119
 20
7.3518
 30
0.0
 40
0.09
  1
0.18750
  2
A1
 70
     1
  0
ATTRIB
  5
2AE
  8
DIM_ATT
 10
9.7119
 20
7.2168
 30
0.0
 40
0.09
  1
DIMFIXHIDE 9.711900 7.351800 9.807207 7.190329
  2
A2
 70
     1
  0
ATTRIB
  5
2AF
  8
DIM_ATT
 10
9.7119
 20
7.0818
 30
0.0
 40
0.09
  1
: : CIRCLE : 8 : HIDOB : 10 : 9.711900 : 20 : 7.351800 : 40 : 0.187491 : 
  2
A3
 70
     1
  0
ATTRIB
  5
2B0
  8
DIM_ATT
 10
9.7119
 20
6.9468
 30
0.0
 40
0.09
  1
0
  2
A4
 70
     1
  0
ATTRIB
  5
2B1
  8
DIM_ATT
 10
9.7119
 20
6.8118
 30
0.0
 40
0.09
  1
0
  2
A5
 70
     1
  0
ATTRIB
  5
2B2
  8
DIM_ATT
 10
9.7119
 20
6.6768
 30
0.0
 40
0.09
  1
0
  2
A6
 70
     1
  0
ATTRIB
  5
2B3
  8
DIM_ATT
 10
9.7119
 20
6.5418
 30
0.0
 40
0.09
  1
0
  2
A7
 70
     1
  0
ATTRIB
  5
2B4
  8
DIM_ATT
 10
9.7119
 20
6.4068
 30
0.0
 40
0.09
  1
0
  2
A8
 70
     1
  0
SEQEND
  5
2B5
  8
DIM_ATT
  0
INSERT
  5
2B6
  8
DIM_ATT
 66
     1
  2
ATT_BLK
 10
9.7119
 20
7.3518
 30
0.0
  0
ATTRIB
  5
2B7
  8
DIM_ATT
 10
9.7119
 20
7.4868
 30
0.0
 40
0.09
  1
RAD
  2
TYPE
 70
     1
  0
ATTRIB
  5
2B8
  8
DIM_ATT
 10
9.7119
 20
7.3518
 30
0.0
 40
0.09
  1
0.15650
  2
A1
 70
     1
  0
ATTRIB
  5
2B9
  8
DIM_ATT
 10
9.7119
 20
7.2168
 30
0.0
 40
0.09
  1
DIMFIX 9.711900 7.351800 9.611019 7.232154
  2
A2
 70
     1
  0
ATTRIB
  5
2BA
  8
DIM_ATT
 10
9.7119
 20
7.0818
 30
0.0
 40
0.09
  1
: : CIRCLE : 8 : OBJECT : 10 : 9.711900 : 20 : 7.351800 : 40 : 0.156500 : 
  2
A3
 70
     1
  0
ATTRIB
  5
2BB
  8
DIM_ATT
 10
9.7119
 20
6.9468
 30
0.0
 40
0.09
  1
0
  2
A4
 70
     1
  0
ATTRIB
  5
2BC
  8
DIM_ATT
 10
9.7119
 20
6.8118
 30
0.0
 40
0.09
  1
0
  2
A5
 70
     1
  0
ATTRIB
  5
2BD
  8
DIM_ATT
 10
9.7119
 20
6.6768
 30
0.0
 40
0.09
  1
0
  2
A6
 70
     1
  0
ATTRIB
  5
2BE
  8
DIM_ATT
 10
9.7119
 20
6.5418
 30
0.0
 40
0.09
  1
0
  2
A7
 70
     1
  0
ATTRIB
  5
2BF
  8
DIM_ATT
 10
9.7119
 20
6.4068
 30
0.0
 40
0.09
  1
0
  2
A8
 70
     1
  0
SEQEND
  5
2C0
  8
DIM_ATT
  0
INSERT
  5
2C1
  8
DIM_ATT
 66
     1
  2
ATT_BLK
 10
14.438642
 20
14.364268
 30
0.0
  0
ATTRIB
  5
2C2
  8
DIM_ATT
 10
14.438642
 20
14.499268
 30
0.0
 40
0.09
  1
HOR
  2
TYPE
 70
     1
  0
ATTRIB
  5
2C3
  8
DIM_ATT
 10
14.438642
 20
14.364268
 30
0.0
 40
0.09
  1
.16
  2
A1
 70
     1
  0
ATTRIB
  5
2C4
  8
DIM_ATT
 10
14.438642
 20
14.229268
 30
0.0
 40
0.09
  1
5.957400,7.519300
  2
A2
 70
     1
  0
ATTRIB
  5
2C5
  8
DIM_ATT
 10
14.438642
 20
14.094268
 30
0.0
 40
0.09
  1
6.117400,7.488300
  2
A3
 70
     1
  0
ATTRIB
  5
2C6
  8
DIM_ATT
 10
14.438642
 20
13.959268
 30
0.0
 40
0.09
  1
1.000000,8.817400
  2
A4
 70
     1
  0
ATTRIB
  5
2C7
  8
DIM_ATT
 10
14.438642
 20
13.824268
 30
0.0
 40
0.09
  1

  2
A5
 70
     1
  0
ATTRIB
  5
2C8
  8
DIM_ATT
 10
14.438642
 20
13.689268
 30
0.0
 40
0.09
  1
DIMFIX
  2
A6
 70
     1
  0
ATTRIB
  5
2C9
  8
DIM_ATT
 10
14.438642
 20
13.554268
 30
0.0
 40
0.09
  1
0
  2
A7
 70
     1
  0
ATTRIB
  5
2CA
  8
DIM_ATT
 10
14.438642
 20
13.419268
 30
0.0
 40
0.09
  1
0
  2
A8
 70
     1
  0
SEQEND
  5
2CB
  8
DIM_ATT
  0
INSERT
  5
2CC
  8
DIM_ATT
 66
     1
  2
ATT_BLK
 10
14.878642
 20
14.040268
 30
0.0
  0
ATTRIB
  5
2CD
  8
DIM_ATT
 10
14.878642
 20
14.175268
 30
0.0
 40
0.09
  1
HOR
  2
TYPE
 70
     1
  0
ATTRIB
  5
2CE
  8
DIM_ATT
 10
14.878642
 20
14.040268
 30
0.0
 40
0.09
  1
.09
  2
A1
 70
     1
  0
ATTRIB
  5
2CF
  8
DIM_ATT
 10
14.878642
 20
13.905268
 30
0.0
 40
0.09
  1
6.487400,7.225300
  2
A2
 70
     1
  0
ATTRIB
  5
2D0
  8
DIM_ATT
 10
14.878642
 20
13.770268
 30
0.0
 40
0.09
  1
6.397400,7.195300
  2
A3
 70
     1
  0
ATTRIB
  5
2D1
  8
DIM_ATT
 10
14.878642
 20
13.635268
 30
0.0
 40
0.09
  1
1.000000,6.291800
  2
A4
 70
     1
  0
ATTRIB
  5
2D2
  8
DIM_ATT
 10
14.878642
 20
13.500268
 30
0.0
 40
0.09
  1

  2
A5
 70
     1
  0
ATTRIB
  5
2D3
  8
DIM_ATT
 10
14.878642
 20
13.365268
 30
0.0
 40
0.09
  1
DIMFIX
  2
A6
 70
     1
  0
ATTRIB
  5
2D4
  8
DIM_ATT
 10
14.878642
 20
13.230268
 30
0.0
 40
0.09
  1
0
  2
A7
 70
     1
  0
ATTRIB
  5
2D5
  8
DIM_ATT
 10
14.878642
 20
13.095268
 30
0.0
 40
0.09
  1
0
  2
A8
 70
     1
  0
SEQEND
  5
2D6
  8
DIM_ATT
  0
INSERT
  5
2D7
  8
DIM_ATT
 66
     1
  2
ATT_BLK
 10
14.438642
 20
14.029268
 30
0.0
  0
ATTRIB
  5
2D8
  8
DIM_ATT
 10
14.438642
 20
14.164268
 30
0.0
 40
0.09
  1
HOR
  2
TYPE
 70
     1
  0
ATTRIB
  5
2D9
  8
DIM_ATT
 10
14.438642
 20
14.029268
 30
0.0
 40
0.09
  1
.530
  2
A1
 70
     1
  0
ATTRIB
  5
2DA
  8
DIM_ATT
 10
14.438642
 20
13.894268
 30
0.0
 40
0.09
  1
5.957400,7.184300
  2
A2
 70
     1
  0
ATTRIB
  5
2DB
  8
DIM_ATT
 10
14.438642
 20
13.759268
 30
0.0
 40
0.09
  1
6.487400,7.225300
  2
A3
 70
     1
  0
ATTRIB
  5
2DC
  8
DIM_ATT
 10
14.438642
 20
13.624268
 30
0.0
 40
0.09
  1
1.000000,5.040600
  2
A4
 70
     1
  0
ATTRIB
  5
2DD
  8
DIM_ATT
 10
14.438642
 20
13.489268
 30
0.0
 40
0.09
  1

  2
A5
 70
     1
  0
ATTRIB
  5
2DE
  8
DIM_ATT
 10
14.438642
 20
13.354268
 30
0.0
 40
0.09
  1
DIMFIX
  2
A6
 70
     1
  0
ATTRIB
  5
2DF
  8
DIM_ATT
 10
14.438642
 20
13.219268
 30
0.0
 40
0.09
  1
0
  2
A7
 70
     1
  0
ATTRIB
  5
2E0
  8
DIM_ATT
 10
14.438642
 20
13.084268
 30
0.0
 40
0.09
  1
0
  2
A8
 70
     1
  0
SEQEND
  5
2E1
  8
DIM_ATT
  0
INSERT
  5
2E2
  8
DIM_ATT
 66
     1
  2
ATT_BLK
 10
18.005642
 20
14.196768
 30
0.0
  0
ATTRIB
  5
2E3
  8
DIM_ATT
 10
18.005642
 20
14.331768
 30
0.0
 40
0.09
  1
HOR
  2
TYPE
 70
     1
  0
ATTRIB
  5
2E4
  8
DIM_ATT
 10
18.005642
 20
14.196768
 30
0.0
 40
0.09
  1
0.18750
  2
A1
 70
     1
  0
ATTRIB
  5
2E5
  8
DIM_ATT
 10
18.005642
 20
14.061768
 30
0.0
 40
0.09
  1
9.524400,7.351800
  2
A2
 70
     1
  0
ATTRIB
  5
2E6
  8
DIM_ATT
 10
18.005642
 20
13.926768
 30
0.0
 40
0.09
  1
9.711900,6.286400
  2
A3
 70
     1
  0
ATTRIB
  5
2E7
  8
DIM_ATT
 10
18.005642
 20
13.791768
 30
0.0
 40
0.09
  1
1.000000,6.219900
  2
A4
 70
     1
  0
ATTRIB
  5
2E8
  8
DIM_ATT
 10
18.005642
 20
13.656768
 30
0.0
 40
0.09
  1

  2
A5
 70
     1
  0
ATTRIB
  5
2E9
  8
DIM_ATT
 10
18.005642
 20
13.521768
 30
0.0
 40
0.09
  1
DIMFIX
  2
A6
 70
     1
  0
ATTRIB
  5
2EA
  8
DIM_ATT
 10
18.005642
 20
13.386768
 30
0.0
 40
0.09
  1
0
  2
A7
 70
     1
  0
ATTRIB
  5
2EB
  8
DIM_ATT
 10
18.005642
 20
13.251768
 30
0.0
 40
0.09
  1
0
  2
A8
 70
     1
  0
SEQEND
  5
2EC
  8
DIM_ATT
  0
INSERT
  5
2ED
  8
DIM_ATT
 66
     1
  2
ATT_BLK
 10
18.193142
 20
13.270968
 30
0.0
  0
ATTRIB
  5
2EE
  8
DIM_ATT
 10
18.193142
 20
13.405968
 30
0.0
 40
0.09
  1
HOR
  2
TYPE
 70
     1
  0
ATTRIB
  5
2EF
  8
DIM_ATT
 10
18.193142
 20
13.270968
 30
0.0
 40
0.09
  1
0.18750
  2
A1
 70
     1
  0
ATTRIB
  5
2F0
  8
DIM_ATT
 10
18.193142
 20
13.135968
 30
0.0
 40
0.09
  1
9.899400,7.351800
  2
A2
 70
     1
  0
ATTRIB
  5
2F1
  8
DIM_ATT
 10
18.193142
 20
13.000968
 30
0.0
 40
0.09
  1
9.711900,6.426000
  2
A3
 70
     1
  0
ATTRIB
  5
2F2
  8
DIM_ATT
 10
18.193142
 20
12.865968
 30
0.0
 40
0.09
  1
1.000000,6.426000
  2
A4
 70
     1
  0
ATTRIB
  5
2F3
  8
DIM_ATT
 10
18.193142
 20
12.730968
 30
0.0
 40
0.09
  1

  2
A5
 70
     1
  0
ATTRIB
  5
2F4
  8
DIM_ATT
 10
18.193142
 20
12.595968
 30
0.0
 40
0.09
  1
DIMFIX
  2
A6
 70
     1
  0
ATTRIB
  5
2F5
  8
DIM_ATT
 10
18.193142
 20
12.460968
 30
0.0
 40
0.09
  1
0
  2
A7
 70
     1
  0
ATTRIB
  5
2F6
  8
DIM_ATT
 10
18.193142
 20
12.325968
 30
0.0
 40
0.09
  1
0
  2
A8
 70
     1
  0
SEQEND
  5
2F7
  8
DIM_ATT
  0
INSERT
  5
2F8
  8
DIM_ATT
 66
     1
  2
ATT_BLK
 10
14.968642
 20
14.196768
 30
0.0
  0
ATTRIB
  5
2F9
  8
DIM_ATT
 10
14.968642
 20
14.331768
 30
0.0
 40
0.09
  1
VER
  2
TYPE
 70
     1
  0
ATTRIB
  5
2FA
  8
DIM_ATT
 10
14.968642
 20
14.196768
 30
0.0
 40
0.09
  1
0.15650
  2
A1
 70
     1
  0
ATTRIB
  5
2FB
  8
DIM_ATT
 10
14.968642
 20
14.061768
 30
0.0
 40
0.09
  1
6.487400,7.351800
  2
A2
 70
     1
  0
ATTRIB
  5
2FC
  8
DIM_ATT
 10
14.968642
 20
13.926768
 30
0.0
 40
0.09
  1
6.457400,7.508300
  2
A3
 70
     1
  0
ATTRIB
  5
2FD
  8
DIM_ATT
 10
14.968642
 20
13.791768
 30
0.0
 40
0.09
  1
6.781800,1.000000
  2
A4
 70
     1
  0
ATTRIB
  5
2FE
  8
DIM_ATT
 10
14.968642
 20
13.656768
 30
0.0
 40
0.09
  1
6.117400,1.000000
  2
A5
 70
     1
  0
ATTRIB
  5
2FF
  8
DIM_ATT
 10
14.968642
 20
13.521768
 30
0.0
 40
0.09
  1
DIMFIXHIDE
  2
A6
 70
     1
  0
ATTRIB
  5
300
  8
DIM_ATT
 10
14.968642
 20
13.386768
 30
0.0
 40
0.09
  1
0
  2
A7
 70
     1
  0
ATTRIB
  5
301
  8
DIM_ATT
 10
14.968642
 20
13.251768
 30
0.0
 40
0.09
  1
0
  2
A8
 70
     1
  0
SEQEND
  5
302
  8
DIM_ATT
  0
INSERT
  5
303
  8
DIM_ATT
 66
     1
  2
ATT_BLK
 10
14.938642
 20
14.040268
 30
0.0
  0
ATTRIB
  5
304
  8
DIM_ATT
 10
14.938642
 20
14.175268
 30
0.0
 40
0.09
  1
VER
  2
TYPE
 70
     1
  0
ATTRIB
  5
305
  8
DIM_ATT
 10
14.938642
 20
14.040268
 30
0.0
 40
0.09
  1
0.15650
  2
A1
 70
     1
  0
ATTRIB
  5
306
  8
DIM_ATT
 10
14.938642
 20
13.905268
 30
0.0
 40
0.09
  1
6.487400,7.351800
  2
A2
 70
     1
  0
ATTRIB
  5
307
  8
DIM_ATT
 10
14.938642
 20
13.770268
 30
0.0
 40
0.09
  1
6.457400,7.195300
  2
A3
 70
     1
  0
ATTRIB
  5
308
  8
DIM_ATT
 10
14.938642
 20
13.635268
 30
0.0
 40
0.09
  1
6.866900,1.000000
  2
A4
 70
     1
  0
ATTRIB
  5
309
  8
DIM_ATT
 10
14.938642
 20
13.500268
 30
0.0
 40
0.09
  1
6.367700,1.000000
  2
A5
 70
     1
  0
ATTRIB
  5
30A
  8
DIM_ATT
 10
14.938642
 20
13.365268
 30
0.0
 40
0.09
  1
DIMFIXHIDE
  2
A6
 70
     1
  0
ATTRIB
  5
30B
  8
DIM_ATT
 10
14.938642
 20
13.230268
 30
0.0
 40
0.09
  1
0
  2
A7
 70
     1
  0
ATTRIB
  5
30C
  8
DIM_ATT
 10
14.938642
 20
13.095268
 30
0.0
 40
0.09
  1
0
  2
A8
 70
     1
  0
SEQEND
  5
30D
  8
DIM_ATT
  0
INSERT
  5
30E
  8
DIM_ATT
 66
     1
  2
ATT_BLK
 10
14.438642
 20
14.196768
 30
0.0
  0
ATTRIB
  5
30F
  8
DIM_ATT
 10
14.438642
 20
14.331768
 30
0.0
 40
0.09
  1
VER
  2
TYPE
 70
     1
  0
ATTRIB
  5
310
  8
DIM_ATT
 10
14.438642
 20
14.196768
 30
0.0
 40
0.09
  1
0.18750
  2
A1
 70
     1
  0
ATTRIB
  5
311
  8
DIM_ATT
 10
14.438642
 20
14.061768
 30
0.0
 40
0.09
  1
5.957400,7.351800
  2
A2
 70
     1
  0
ATTRIB
  5
312
  8
DIM_ATT
 10
14.438642
 20
13.926768
 30
0.0
 40
0.09
  1
5.977400,7.539300
  2
A3
 70
     1
  0
ATTRIB
  5
313
  8
DIM_ATT
 10
14.438642
 20
13.791768
 30
0.0
 40
0.09
  1
5.567500,1.000000
  2
A4
 70
     1
  0
ATTRIB
  5
314
  8
DIM_ATT
 10
14.438642
 20
13.656768
 30
0.0
 40
0.09
  1
6.117400,1.000000
  2
A5
 70
     1
  0
ATTRIB
  5
315
  8
DIM_ATT
 10
14.438642
 20
13.521768
 30
0.0
 40
0.09
  1
DIMFIXHIDE
  2
A6
 70
     1
  0
ATTRIB
  5
316
  8
DIM_ATT
 10
14.438642
 20
13.386768
 30
0.0
 40
0.09
  1
0
  2
A7
 70
     1
  0
ATTRIB
  5
317
  8
DIM_ATT
 10
14.438642
 20
13.251768
 30
0.0
 40
0.09
  1
0
  2
A8
 70
     1
  0
SEQEND
  5
318
  8
DIM_ATT
  0
INSERT
  5
319
  8
DIM_ATT
 66
     1
  2
ATT_BLK
 10
14.458642
 20
14.009268
 30
0.0
  0
ATTRIB
  5
31A
  8
DIM_ATT
 10
14.458642
 20
14.144268
 30
0.0
 40
0.09
  1
VER
  2
TYPE
 70
     1
  0
ATTRIB
  5
31B
  8
DIM_ATT
 10
14.458642
 20
14.009268
 30
0.0
 40
0.09
  1
0.18750
  2
A1
 70
     1
  0
ATTRIB
  5
31C
  8
DIM_ATT
 10
14.458642
 20
13.874268
 30
0.0
 40
0.09
  1
5.957400,7.351800
  2
A2
 70
     1
  0
ATTRIB
  5
31D
  8
DIM_ATT
 10
14.458642
 20
13.739268
 30
0.0
 40
0.09
  1
5.977400,7.164300
  2
A3
 70
     1
  0
ATTRIB
  5
31E
  8
DIM_ATT
 10
14.458642
 20
13.604268
 30
0.0
 40
0.09
  1
5.459000,1.000000
  2
A4
 70
     1
  0
ATTRIB
  5
31F
  8
DIM_ATT
 10
14.458642
 20
13.469268
 30
0.0
 40
0.09
  1
6.117400,1.000000
  2
A5
 70
     1
  0
ATTRIB
  5
320
  8
DIM_ATT
 10
14.458642
 20
13.334268
 30
0.0
 40
0.09
  1
DIMFIXHIDE
  2
A6
 70
     1
  0
ATTRIB
  5
321
  8
DIM_ATT
 10
14.458642
 20
13.199268
 30
0.0
 40
0.09
  1
0
  2
A7
 70
     1
  0
ATTRIB
  5
322
  8
DIM_ATT
 10
14.458642
 20
13.064268
 30
0.0
 40
0.09
  1
0
  2
A8
 70
     1
  0
SEQEND
  5
323
  8
DIM_ATT
  0
INSERT
  5
324
  8
DIM_ATT
 66
     1
  2
ATT_BLK
 10
14.598642
 20
14.196768
 30
0.0
  0
ATTRIB
  5
325
  8
DIM_ATT
 10
14.598642
 20
14.331768
 30
0.0
 40
0.09
  1
VER
  2
TYPE
 70
     1
  0
ATTRIB
  5
326
  8
DIM_ATT
 10
14.598642
 20
14.196768
 30
0.0
 40
0.09
  1
0.14000
  2
A1
 70
     1
  0
ATTRIB
  5
327
  8
DIM_ATT
 10
14.598642
 20
14.061768
 30
0.0
 40
0.09
  1
6.117400,7.491800
  2
A2
 70
     1
  0
ATTRIB
  5
328
  8
DIM_ATT
 10
14.598642
 20
13.926768
 30
0.0
 40
0.09
  1
6.117400,7.351800
  2
A3
 70
     1
  0
ATTRIB
  5
329
  8
DIM_ATT
 10
14.598642
 20
13.791768
 30
0.0
 40
0.09
  1
3.628600,1.000000
  2
A4
 70
     1
  0
ATTRIB
  5
32A
  8
DIM_ATT
 10
14.598642
 20
13.656768
 30
0.0
 40
0.09
  1
6.397400,1.000000
  2
A5
 70
     1
  0
ATTRIB
  5
32B
  8
DIM_ATT
 10
14.598642
 20
13.521768
 30
0.0
 40
0.09
  1
DIMFIXHIDE
  2
A6
 70
     1
  0
ATTRIB
  5
32C
  8
DIM_ATT
 10
14.598642
 20
13.386768
 30
0.0
 40
0.09
  1
0
  2
A7
 70
     1
  0
ATTRIB
  5
32D
  8
DIM_ATT
 10
14.598642
 20
13.251768
 30
0.0
 40
0.09
  1
0
  2
A8
 70
     1
  0
SEQEND
  5
32E
  8
DIM_ATT
  0
INSERT
  5
32F
  8
DIM_ATT
 66
     1
  2
ATT_BLK
 10
14.598642
 20
14.056768
 30
0.0
  0
ATTRIB
  5
330
  8
DIM_ATT
 10
14.598642
 20
14.191768
 30
0.0
 40
0.09
  1
VER
  2
TYPE
 70
     1
  0
ATTRIB
  5
331
  8
DIM_ATT
 10
14.598642
 20
14.056768
 30
0.0
 40
0.09
  1
0.14000
  2
A1
 70
     1
  0
ATTRIB
  5
332
  8
DIM_ATT
 10
14.598642
 20
13.921768
 30
0.0
 40
0.09
  1
6.117400,7.351800
  2
A2
 70
     1
  0
ATTRIB
  5
333
  8
DIM_ATT
 10
14.598642
 20
13.786768
 30
0.0
 40
0.09
  1
6.117400,7.211800
  2
A3
 70
     1
  0
ATTRIB
  5
334
  8
DIM_ATT
 10
14.598642
 20
13.651768
 30
0.0
 40
0.09
  1
3.506000,1.000000
  2
A4
 70
     1
  0
ATTRIB
  5
335
  8
DIM_ATT
 10
14.598642
 20
13.516768
 30
0.0
 40
0.09
  1
6.397400,1.000000
  2
A5
 70
     1
  0
ATTRIB
  5
336
  8
DIM_ATT
 10
14.598642
 20
13.381768
 30
0.0
 40
0.09
  1
DIMFIXHIDE
  2
A6
 70
     1
  0
ATTRIB
  5
337
  8
DIM_ATT
 10
14.598642
 20
13.246768
 30
0.0
 40
0.09
  1
0
  2
A7
 70
     1
  0
ATTRIB
  5
338
  8
DIM_ATT
 10
14.598642
 20
13.111768
 30
0.0
 40
0.09
  1
0
  2
A8
 70
     1
  0
SEQEND
  5
339
  8
DIM_ATT
  0
INSERT
  5
33A
  8
DIM_ATT
 66
     1
  2
ATT_BLK
 10
14.968642
 20
14.196768
 30
0.0
  0
ATTRIB
  5
33B
  8
DIM_ATT
 10
14.968642
 20
14.331768
 30
0.0
 40
0.09
  1
VER
  2
TYPE
 70
     1
  0
ATTRIB
  5
33C
  8
DIM_ATT
 10
14.968642
 20
14.196768
 30
0.0
 40
0.09
  1
0.04500
  2
A1
 70
     1
  0
ATTRIB
  5
33D
  8
DIM_ATT
 10
14.968642
 20
14.061768
 30
0.0
 40
0.09
  1
6.487400,7.396800
  2
A2
 70
     1
  0
ATTRIB
  5
33E
  8
DIM_ATT
 10
14.968642
 20
13.926768
 30
0.0
 40
0.09
  1
6.487400,7.351800
  2
A3
 70
     1
  0
ATTRIB
  5
33F
  8
DIM_ATT
 10
14.968642
 20
13.791768
 30
0.0
 40
0.09
  1
8.769500,1.000000
  2
A4
 70
     1
  0
ATTRIB
  5
340
  8
DIM_ATT
 10
14.968642
 20
13.656768
 30
0.0
 40
0.09
  1

  2
A5
 70
     1
  0
ATTRIB
  5
341
  8
DIM_ATT
 10
14.968642
 20
13.521768
 30
0.0
 40
0.09
  1
DIMFIXHIDE
  2
A6
 70
     1
  0
ATTRIB
  5
342
  8
DIM_ATT
 10
14.968642
 20
13.386768
 30
0.0
 40
0.09
  1
0
  2
A7
 70
     1
  0
ATTRIB
  5
343
  8
DIM_ATT
 10
14.968642
 20
13.251768
 30
0.0
 40
0.09
  1
0
  2
A8
 70
     1
  0
SEQEND
  5
344
  8
DIM_ATT
  0
INSERT
  5
345
  8
DIM_ATT
 66
     1
  2
ATT_BLK
 10
14.968642
 20
14.151768
 30
0.0
  0
ATTRIB
  5
346
  8
DIM_ATT
 10
14.968642
 20
14.286768
 30
0.0
 40
0.09
  1
VER
  2
TYPE
 70
     1
  0
ATTRIB
  5
347
  8
DIM_ATT
 10
14.968642
 20
14.151768
 30
0.0
 40
0.09
  1
0.04500
  2
A1
 70
     1
  0
ATTRIB
  5
348
  8
DIM_ATT
 10
14.968642
 20
14.016768
 30
0.0
 40
0.09
  1
6.487400,7.351800
  2
A2
 70
     1
  0
ATTRIB
  5
349
  8
DIM_ATT
 10
14.968642
 20
13.881768
 30
0.0
 40
0.09
  1
6.487400,7.306800
  2
A3
 70
     1
  0
ATTRIB
  5
34A
  8
DIM_ATT
 10
14.968642
 20
13.746768
 30
0.0
 40
0.09
  1
9.007100,1.000000
  2
A4
 70
     1
  0
ATTRIB
  5
34B
  8
DIM_ATT
 10
14.968642
 20
13.611768
 30
0.0
 40
0.09
  1

  2
A5
 70
     1
  0
ATTRIB
  5
34C
  8
DIM_ATT
 10
14.968642
 20
13.476768
 30
0.0
 40
0.09
  1
DIMFIXHIDE
  2
A6
 70
     1
  0
ATTRIB
  5
34D
  8
DIM_ATT
 10
14.968642
 20
13.341768
 30
0.0
 40
0.09
  1
0
  2
A7
 70
     1
  0
ATTRIB
  5
34E
  8
DIM_ATT
 10
14.968642
 20
13.206768
 30
0.0
 40
0.09
  1
0
  2
A8
 70
     1
  0
SEQEND
  5
34F
  8
DIM_ATT
  0
INSERT
  5
350
  8
DIM_ATT
 66
     1
  2
ATT_BLK
 10
19.018042
 20
14.196768
 30
0.0
  0
ATTRIB
  5
351
  8
DIM_ATT
 10
19.018042
 20
14.331768
 30
0.0
 40
0.09
  1
VER
  2
TYPE
 70
     1
  0
ATTRIB
  5
352
  8
DIM_ATT
 10
19.018042
 20
14.196768
 30
0.0
 40
0.09
  1
0.18750
  2
A1
 70
     1
  0
ATTRIB
  5
353
  8
DIM_ATT
 10
19.018042
 20
14.061768
 30
0.0
 40
0.09
  1
9.711900,7.539300
  2
A2
 70
     1
  0
ATTRIB
  5
354
  8
DIM_ATT
 10
19.018042
 20
13.926768
 30
0.0
 40
0.09
  1
10.536800,7.351800
  2
A3
 70
     1
  0
ATTRIB
  5
355
  8
DIM_ATT
 10
19.018042
 20
13.791768
 30
0.0
 40
0.09
  1
10.536800,1.000000
  2
A4
 70
     1
  0
ATTRIB
  5
356
  8
DIM_ATT
 10
19.018042
 20
13.656768
 30
0.0
 40
0.09
  1

  2
A5
 70
     1
  0
ATTRIB
  5
357
  8
DIM_ATT
 10
19.018042
 20
13.521768
 30
0.0
 40
0.09
  1
DIMFIX
  2
A6
 70
     1
  0
ATTRIB
  5
358
  8
DIM_ATT
 10
19.018042
 20
13.386768
 30
0.0
 40
0.09
  1
0
  2
A7
 70
     1
  0
ATTRIB
  5
359
  8
DIM_ATT
 10
19.018042
 20
13.251768
 30
0.0
 40
0.09
  1
0
  2
A8
 70
     1
  0
SEQEND
  5
35A
  8
DIM_ATT
  0
INSERT
  5
35B
  8
DIM_ATT
 66
     1
  2
ATT_BLK
 10
18.193142
 20
14.009268
 30
0.0
  0
ATTRIB
  5
35C
  8
DIM_ATT
 10
18.193142
 20
14.144268
 30
0.0
 40
0.09
  1
VER
  2
TYPE
 70
     1
  0
ATTRIB
  5
35D
  8
DIM_ATT
 10
18.193142
 20
14.009268
 30
0.0
 40
0.09
  1
0.18750
  2
A1
 70
     1
  0
ATTRIB
  5
35E
  8
DIM_ATT
 10
18.193142
 20
13.874268
 30
0.0
 40
0.09
  1
9.711900,7.164300
  2
A2
 70
     1
  0
ATTRIB
  5
35F
  8
DIM_ATT
 10
18.193142
 20
13.739268
 30
0.0
 40
0.09
  1
8.151200,7.351800
  2
A3
 70
     1
  0
ATTRIB
  5
360
  8
DIM_ATT
 10
18.193142
 20
13.604268
 30
0.0
 40
0.09
  1
8.144900,1.000000
  2
A4
 70
     1
  0
ATTRIB
  5
361
  8
DIM_ATT
 10
18.193142
 20
13.469268
 30
0.0
 40
0.09
  1

  2
A5
 70
     1
  0
ATTRIB
  5
362
  8
DIM_ATT
 10
18.193142
 20
13.334268
 30
0.0
 40
0.09
  1
DIMFIX
  2
A6
 70
     1
  0
ATTRIB
  5
363
  8
DIM_ATT
 10
18.193142
 20
13.199268
 30
0.0
 40
0.09
  1
0
  2
A7
 70
     1
  0
ATTRIB
  5
364
  8
DIM_ATT
 10
18.193142
 20
13.064268
 30
0.0
 40
0.09
  1
0
  2
A8
 70
     1
  0
SEQEND
  5
365
  8
DIM_ATT
  0
INSERT
  5
366
  8
DIM_ATT
 66
     1
  2
ATT_BLK
 10
18.161842
 20
14.373668
 30
0.0
  0
ATTRIB
  5
367
  8
DIM_ATT
 10
18.161842
 20
14.508668
 30
0.0
 40
0.09
  1
ALI
  2
TYPE
 70
     1
  0
ATTRIB
  5
368
  8
DIM_ATT
 10
18.161842
 20
14.373668
 30
0.0
 40
0.09
  1
.309
  2
A1
 70
     1
  0
ATTRIB
  5
369
  8
DIM_ATT
 10
18.161842
 20
14.238668
 30
0.0
 40
0.09
  1
9.680600,7.528700
  2
A2
 70
     1
  0
ATTRIB
  5
36A
  8
DIM_ATT
 10
18.161842
 20
14.103668
 30
0.0
 40
0.09
  1
9.888800,7.320500
  2
A3
 70
     1
  0
ATTRIB
  5
36B
  8
DIM_ATT
 10
18.161842
 20
13.968668
 30
0.0
 40
0.09
  1
10.807200,8.162400
  2
A4
 70
     1
  0
ATTRIB
  5
36C
  8
DIM_ATT
 10
18.161842
 20
13.833668
 30
0.0
 40
0.09
  1
0
  2
A5
 70
     1
  0
ATTRIB
  5
36D
  8
DIM_ATT
 10
18.161842
 20
13.698668
 30
0.0
 40
0.09
  1
DIMFIX
  2
A6
 70
     1
  0
ATTRIB
  5
36E
  8
DIM_ATT
 10
18.161842
 20
13.563668
 30
0.0
 40
0.09
  1
0
  2
A7
 70
     1
  0
ATTRIB
  5
36F
  8
DIM_ATT
 10
18.161842
 20
13.428668
 30
0.0
 40
0.09
  1
0
  2
A8
 70
     1
  0
SEQEND
  5
370
  8
DIM_ATT
  0
INSERT
  5
371
  8
DIM_ATT
 66
     1
  2
ATT_BLK
 10
18.224542
 20
14.373668
 30
0.0
  0
ATTRIB
  5
372
  8
DIM_ATT
 10
18.224542
 20
14.508668
 30
0.0
 40
0.09
  1
ALI
  2
TYPE
 70
     1
  0
ATTRIB
  5
373
  8
DIM_ATT
 10
18.224542
 20
14.373668
 30
0.0
 40
0.09
  1
.309
  2
A1
 70
     1
  0
ATTRIB
  5
374
  8
DIM_ATT
 10
18.224542
 20
14.238668
 30
0.0
 40
0.09
  1
9.743300,7.528700
  2
A2
 70
     1
  0
ATTRIB
  5
375
  8
DIM_ATT
 10
18.224542
 20
14.103668
 30
0.0
 40
0.09
  1
9.535000,7.320500
  2
A3
 70
     1
  0
ATTRIB
  5
376
  8
DIM_ATT
 10
18.224542
 20
13.968668
 30
0.0
 40
0.09
  1
8.335017,8.553060
  2
A4
 70
     1
  0
ATTRIB
  5
377
  8
DIM_ATT
 10
18.224542
 20
13.833668
 30
0.0
 40
0.09
  1
0
  2
A5
 70
     1
  0
ATTRIB
  5
378
  8
DIM_ATT
 10
18.224542
 20
13.698668
 30
0.0
 40
0.09
  1
DIMFIX
  2
A6
 70
     1
  0
ATTRIB
  5
379
  8
DIM_ATT
 10
18.224542
 20
13.563668
 30
0.0
 40
0.09
  1
0
  2
A7
 70
     1
  0
ATTRIB
  5
37A
  8
DIM_ATT
 10
18.224542
 20
13.428668
 30
0.0
 40
0.09
  1
0
  2
A8
 70
     1
  0
SEQEND
  5
37B
  8
DIM_ATT
  0
POLYLINE
  5
37C
  8
OBJECT
 66
     1
 10
0.0
 20
0.0
 30
0.0
  0
VERTEX
  5
1267
  8
OBJECT
 10
-0.26
 20
0.0
 30
0.0
  0
VERTEX
  5
1268
  8
OBJECT
 10
-0.26
 20
-0.1565
 30
0.0
  0
SEQEND
  5
1269
  8
OBJECT
  0
POLYLINE
  5
380
  8
OBJECT
 66
     1
 10
0.0
 20
0.0
 30
0.0
  0
VERTEX
  5
126A
  8
OBJECT
 10
-0.26
 20
0.0
 30
0.0
  0
VERTEX
  5
126B
  8
OBJECT
 10
-0.26
 20
-0.1565
 30
0.0
  0
SEQEND
  5
126C
  8
OBJECT
  0
POLYLINE
  5
384
  8
OBJECT
 66
     1
 10
0.0
 20
0.0
 30
0.0
  0
VERTEX
  5
126D
  8
OBJECT
 10
-0.26
 20
0.0
 30
0.0
  0
VERTEX
  5
126E
  8
OBJECT
 10
-0.26
 20
0.1565
 30
0.0
  0
SEQEND
  5
126F
  8
OBJECT
  0
POLYLINE
  5
388
  8
OBJECT
 66
     1
 10
0.0
 20
0.0
 30
0.0
  0
VERTEX
  5
1270
  8
OBJECT
 10
-0.26
 20
0.0
 30
0.0
  0
VERTEX
  5
1271
  8
OBJECT
 10
-0.26
 20
0.1565
 30
0.0
  0
SEQEND
  5
1272
  8
OBJECT
  0
POLYLINE
  5
38C
  8
OBJECT
 66
     1
 10
0.0
 20
0.0
 30
0.0
 70
     1
  0
VERTEX
  5
1273
  8
OBJECT
 10
0.02
 20
0.1825
 30
0.0
  0
VERTEX
  5
1274
  8
OBJECT
 10
0.14
 20
0.1825
 30
0.0
  0
VERTEX
  5
1275
  8
OBJECT
 10
0.16
 20
0.1625
 30
0.0
  0
VERTEX
  5
1276
  8
OBJECT
 10
0.16
 20
0.0
 30
0.0
  0
VERTEX
  5
1277
  8
OBJECT
 10
0.16
 20
-0.1625
 30
0.0
  0
VERTEX
  5
1278
  8
OBJECT
 10
0.14
 20
-0.1825
 30
0.0
  0
VERTEX
  5
1279
  8
OBJECT
 10
0.02
 20
-0.1825
 30
0.0
  0
VERTEX
  5
127A
  8
OBJECT
 10
0.0
 20
-0.1625
 30
0.0
  0
VERTEX
  5
127B
  8
OBJECT
 10
0.0
 20
0.0
 30
0.0
  0
VERTEX
  5
127C
  8
OBJECT
 10
0.0
 20
0.1625
 30
0.0
  0
SEQEND
  5
127D
  8
OBJECT
  0
POLYLINE
  5
398
  8
OBJECT
 66
     1
 10
0.0
 20
0.0
 30
0.0
  0
VERTEX
  5
127E
  8
OBJECT
 10
-0.26
 20
-0.1565
 30
0.0
  0
VERTEX
  5
127F
  8
OBJECT
 10
-0.32
 20
-0.1565
 30
0.0
  0
VERTEX
  5
1280
  8
OBJECT
 10
-0.35
 20
-0.1265
 30
0.0
  0
VERTEX
  5
1281
  8
OBJECT
 10
-0.35
 20
0.0
 30
0.0
  0
VERTEX
  5
1282
  8
OBJECT
 10
-0.35
 20
0.1265
 30
0.0
  0
VERTEX
  5
1283
  8
OBJECT
 10
-0.32
 20
0.1565
 30
0.0
  0
VERTEX
  5
1284
  8
OBJECT
 10
-0.26
 20
0.1565
 30
0.0
  0
SEQEND
  5
1285
  8
OBJECT
  0
INSERT
  5
3A1
  8
DIM_ATT
 66
     1
  2
ATT_BLK
 10
18.193142
 20
14.196768
 30
0.0
  0
ATTRIB
  5
3A2
  8
DIM_ATT
 10
18.193142
 20
14.331768
 30
0.0
 40
0.09
  1
RAD
  2
TYPE
 70
     1
  0
ATTRIB
  5
3A3
  8
DIM_ATT
 10
18.193142
 20
14.196768
 30
0.0
 40
0.09
  1
.09
  2
A1
 70
     1
  0
ATTRIB
  5
3A4
  8
DIM_ATT
 10
18.193142
 20
14.061768
 30
0.0
 40
0.09
  1
DIMFIXHIDE 9.711900 7.351800 9.688462 7.390215
  2
A2
 70
     1
  0
ATTRIB
  5
3A5
  8
DIM_ATT
 10
18.193142
 20
13.926768
 30
0.0
 40
0.09
  1
: : CIRCLE : 8 : OBJECT : 10 : 9.711900 : 20 : 7.351800 : 40 : 0.045008 : 
  2
A3
 70
     1
  0
ATTRIB
  5
3A6
  8
DIM_ATT
 10
18.193142
 20
13.791768
 30
0.0
 40
0.09
  1
0
  2
A4
 70
     1
  0
ATTRIB
  5
3A7
  8
DIM_ATT
 10
18.193142
 20
13.656768
 30
0.0
 40
0.09
  1
0
  2
A5
 70
     1
  0
ATTRIB
  5
3A8
  8
DIM_ATT
 10
18.193142
 20
13.521768
 30
0.0
 40
0.09
  1
0
  2
A6
 70
     1
  0
ATTRIB
  5
3A9
  8
DIM_ATT
 10
18.193142
 20
13.386768
 30
0.0
 40
0.09
  1
0
  2
A7
 70
     1
  0
ATTRIB
  5
3AA
  8
DIM_ATT
 10
18.193142
 20
13.251768
 30
0.0
 40
0.09
  1
0
  2
A8
 70
     1
  0
SEQEND
  5
3AB
  8
DIM_ATT
  0
INSERT
  5
3AC
  8
DIM_ATT
 66
     1
  2
ATT_BLK
 10
18.193142
 20
14.196768
 30
0.0
  0
ATTRIB
  5
3AD
  8
DIM_ATT
 10
18.193142
 20
14.331768
 30
0.0
 40
0.09
  1
RAD
  2
TYPE
 70
     1
  0
ATTRIB
  5
3AE
  8
DIM_ATT
 10
18.193142
 20
14.196768
 30
0.0
 40
0.09
  1
0.18750
  2
A1
 70
     1
  0
ATTRIB
  5
3AF
  8
DIM_ATT
 10
18.193142
 20
14.061768
 30
0.0
 40
0.09
  1
DIMFIXHIDE 9.711900 7.351800 9.807207 7.190329
  2
A2
 70
     1
  0
ATTRIB
  5
3B0
  8
DIM_ATT
 10
18.193142
 20
13.926768
 30
0.0
 40
0.09
  1
: : CIRCLE : 8 : HIDOB : 10 : 9.711900 : 20 : 7.351800 : 40 : 0.187491 : 
  2
A3
 70
     1
  0
ATTRIB
  5
3B1
  8
DIM_ATT
 10
18.193142
 20
13.791768
 30
0.0
 40
0.09
  1
0
  2
A4
 70
     1
  0
ATTRIB
  5
3B2
  8
DIM_ATT
 10
18.193142
 20
13.656768
 30
0.0
 40
0.09
  1
0
  2
A5
 70
     1
  0
ATTRIB
  5
3B3
  8
DIM_ATT
 10
18.193142
 20
13.521768
 30
0.0
 40
0.09
  1
0
  2
A6
 70
     1
  0
ATTRIB
  5
3B4
  8
DIM_ATT
 10
18.193142
 20
13.386768
 30
0.0
 40
0.09
  1
0
  2
A7
 70
     1
  0
ATTRIB
  5
3B5
  8
DIM_ATT
 10
18.193142
 20
13.251768
 30
0.0
 40
0.09
  1
0
  2
A8
 70
     1
  0
SEQEND
  5
3B6
  8
DIM_ATT
  0
INSERT
  5
3B7
  8
DIM_ATT
 66
     1
  2
ATT_BLK
 10
18.193142
 20
14.196768
 30
0.0
  0
ATTRIB
  5
3B8
  8
DIM_ATT
 10
18.193142
 20
14.331768
 30
0.0
 40
0.09
  1
RAD
  2
TYPE
 70
     1
  0
ATTRIB
  5
3B9
  8
DIM_ATT
 10
18.193142
 20
14.196768
 30
0.0
 40
0.09
  1
0.15650
  2
A1
 70
     1
  0
ATTRIB
  5
3BA
  8
DIM_ATT
 10
18.193142
 20
14.061768
 30
0.0
 40
0.09
  1
DIMFIX 9.711900 7.351800 9.611019 7.232154
  2
A2
 70
     1
  0
ATTRIB
  5
3BB
  8
DIM_ATT
 10
18.193142
 20
13.926768
 30
0.0
 40
0.09
  1
: : CIRCLE : 8 : OBJECT : 10 : 9.711900 : 20 : 7.351800 : 40 : 0.156500 : 
  2
A3
 70
     1
  0
ATTRIB
  5
3BC
  8
DIM_ATT
 10
18.193142
 20
13.791768
 30
0.0
 40
0.09
  1
0
  2
A4
 70
     1
  0
ATTRIB
  5
3BD
  8
DIM_ATT
 10
18.193142
 20
13.656768
 30
0.0
 40
0.09
  1
0
  2
A5
 70
     1
  0
ATTRIB
  5
3BE
  8
DIM_ATT
 10
18.193142
 20
13.521768
 30
0.0
 40
0.09
  1
0
  2
A6
 70
     1
  0
ATTRIB
  5
3BF
  8
DIM_ATT
 10
18.193142
 20
13.386768
 30
0.0
 40
0.09
  1
0
  2
A7
 70
     1
  0
ATTRIB
  5
3C0
  8
DIM_ATT
 10
18.193142
 20
13.251768
 30
0.0
 40
0.09
  1
0
  2
A8
 70
     1
  0
SEQEND
  5
3C1
  8
DIM_ATT
  0
LINE
  5
3C2
  8
OBJECT
 10
0.14
 20
-0.1825
 30
0.0
 11
0.14
 21
0.1825
 31
0.0
  0
LINE
  5
3C3
  8
OBJECT
 10
0.02
 20
-0.1825
 30
0.0
 11
0.02
 21
0.1825
 31
0.0
  0
LINE
  5
3C4
  8
OBJECT
 10
-0.26
 20
-0.1565
 30
0.0
 11
-0.06
 21
-0.1565
 31
0.0
  0
LINE
  5
3C5
  8
OBJECT
 10
-0.06
 20
0.1565
 30
0.0
 11
-0.06
 21
-0.1565
 31
0.0
  0
LINE
  5
3C6
  8
OBJECT
 10
-0.26
 20
0.1565
 30
0.0
 11
-0.06
 21
0.1565
 31
0.0
  0
LINE
  5
3C7
  8
OBJECT
 10
-0.32
 20
-0.1565
 30
0.0
 11
-0.32
 21
0.1565
 31
0.0
  0
POLYLINE
  5
3C8
  8
HIDOB
 66
     1
 10
0.0
 20
0.0
 30
0.0
  0
VERTEX
  5
1286
  8
HIDOB
 10
-0.35
 20
-0.031
 30
0.0
  0
VERTEX
  5
1287
  8
HIDOB
 10
0.16
 20
-0.031
 30
0.0
  0
SEQEND
  5
1288
  8
HIDOB
  0
POLYLINE
  5
3CC
  8
HIDOB
 66
     1
 10
0.0
 20
0.0
 30
0.0
  0
VERTEX
  5
1289
  8
HIDOB
 10
-0.35
 20
0.031
 30
0.0
  0
VERTEX
  5
128A
  8
HIDOB
 10
0.16
 20
0.031
 30
0.0
  0
SEQEND
  5
128B
  8
HIDOB
  0
POLYLINE
  5
3D0
  8
OBJECT
 66
     1
 10
0.0
 20
0.0
 30
0.0
  0
VERTEX
  5
128C
  8
OBJECT
 10
-0.06
 20
0.15
 30
0.0
  0
VERTEX
  5
128D
  8
OBJECT
 10
0.0
 20
0.15
 30
0.0
  0
SEQEND
  5
128E
  8
OBJECT
  0
POLYLINE
  5
3D4
  8
OBJECT
 66
     1
 10
0.0
 20
0.0
 30
0.0
  0
VERTEX
  5
128F
  8
OBJECT
 10
-0.06
 20
-0.15
 30
0.0
  0
VERTEX
  5
1290
  8
OBJECT
 10
0.0
 20
-0.15
 30
0.0
  0
SEQEND
  5
1291
  8
OBJECT
  0
ENDBLK
  5
3D8
  8
0
  0
BLOCK
  8
0
  2
ATT_BLK
 70
     2
 10
0.0
 20
0.0
 30
0.0
  3
ATT_BLK
  1

  0
ATTDEF
  5
3DA
  8
DIM_ATT
 10
0.0
 20
0.0
 30
0.0
 40
0.2
  1
0
  3

  2
TYPE
 70
     1
  0
ATTDEF
  5
3DB
  8
DIM_ATT
 10
0.0
 20
-0.333333
 30
0.0
 40
0.2
  1
0
  3

  2
A1
 70
     1
  0
ATTDEF
  5
3DC
  8
DIM_ATT
 10
0.0
 20
-0.666667
 30
0.0
 40
0.2
  1
0
  3

  2
A2
 70
     1
  0
ATTDEF
  5
3DD
  8
DIM_ATT
 10
0.0
 20
-1.0
 30
0.0
 40
0.2
  1
0
  3

  2
A3
 70
     1
  0
ATTDEF
  5
3DE
  8
DIM_ATT
 10
0.0
 20
-1.333333
 30
0.0
 40
0.2
  1
0
  3

  2
A4
 70
     1
  0
ATTDEF
  5
3DF
  8
DIM_ATT
 10
0.0
 20
-1.666667
 30
0.0
 40
0.2
  1
0
  3

  2
A5
 70
     1
  0
ATTDEF
  5
3E0
  8
DIM_ATT
 10
0.0
 20
-2.0
 30
0.0
 40
0.2
  1
0
  3

  2
A6
 70
     1
  0
ATTDEF
  5
3E1
  8
DIM_ATT
 10
0.0
 20
-2.333333
 30
0.0
 40
0.2
  1
0
  3

  2
A7
 70
     1
  0
ATTDEF
  5
3E2
  8
DIM_ATT
 10
0.0
 20
-2.666667
 30
0.0
 40
0.2
  1
0
  3

  2
A8
 70
     1
  0
ENDBLK
  5
3E3
  8
0
  0
BLOCK
  8
0
  2
75LS
 70
     0
 10
0.0
 20
0.0
 30
0.0
  3
75LS
  1

  0
POLYLINE
  5
464
  8
OBJECT
 66
     1
 10
0.0
 20
0.0
 30
0.0
  0
VERTEX
  5
1292
  8
OBJECT
 10
-0.1
 20
0.1875
 30
0.0
  0
VERTEX
  5
1293
  8
OBJECT
 10
-0.1
 20
-0.1875
 30
0.0
  0
SEQEND
  5
1294
  8
OBJECT
  0
POLYLINE
  5
468
  8
OBJECT
 66
     1
 10
0.0
 20
0.0
 30
0.0
  0
VERTEX
  5
1295
  8
OBJECT
 10
0.31
 20
-0.44
 30
0.0
  0
VERTEX
  5
1296
  8
OBJECT
 10
0.31
 20
0.0
 30
0.0
  0
SEQEND
  5
1297
  8
OBJECT
  0
POLYLINE
  5
46C
  8
OBJECT
 66
     1
 10
0.0
 20
0.0
 30
0.0
  0
VERTEX
  5
1298
  8
OBJECT
 10
0.03
 20
-0.44
 30
0.0
  0
VERTEX
  5
1299
  8
OBJECT
 10
0.03
 20
0.0
 30
0.0
  0
SEQEND
  5
129A
  8
OBJECT
  0
POLYLINE
  5
470
  8
OBJECT
 66
     1
 10
0.0
 20
0.0
 30
0.0
  0
VERTEX
  5
129B
  8
OBJECT
 10
0.0
 20
-0.125
 30
0.0
  0
VERTEX
  5
129C
  8
OBJECT
 10
0.0
 20
0.0
 30
0.0
  0
SEQEND
  5
129D
  8
OBJECT
  0
POLYLINE
  5
474
  8
OBJECT
 66
     1
 10
0.0
 20
0.0
 30
0.0
  0
VERTEX
  5
129E
  8
OBJECT
 10
-0.6
 20
-0.1875
 30
0.0
  0
VERTEX
  5
129F
  8
OBJECT
 10
-0.6
 20
0.0
 30
0.0
  0
SEQEND
  5
12A0
  8
OBJECT
  0
POLYLINE
  5
478
  8
OBJECT
 66
     1
 10
0.0
 20
0.0
 30
0.0
  0
VERTEX
  5
12A1
  8
OBJECT
 10
-0.6
 20
0.1875
 30
0.0
  0
VERTEX
  5
12A2
  8
OBJECT
 10
-0.6
 20
0.0
 30
0.0
  0
SEQEND
  5
12A3
  8
OBJECT
  0
POLYLINE
  5
47C
  8
OBJECT
 66
     1
 10
0.0
 20
0.0
 30
0.0
  0
VERTEX
  5
12A4
  8
OBJECT
 10
0.0
 20
0.125
 30
0.0
  0
VERTEX
  5
12A5
  8
OBJECT
 10
0.0
 20
0.0
 30
0.0
  0
SEQEND
  5
12A6
  8
OBJECT
  0
POLYLINE
  5
480
  8
OBJECT
 66
     1
 10
0.0
 20
0.0
 30
0.0
  0
VERTEX
  5
12A7
  8
OBJECT
 10
0.03
 20
0.44
 30
0.0
  0
VERTEX
  5
12A8
  8
OBJECT
 10
0.03
 20
0.0
 30
0.0
  0
SEQEND
  5
12A9
  8
OBJECT
  0
POLYLINE
  5
484
  8
OBJECT
 66
     1
 10
0.0
 20
0.0
 30
0.0
  0
VERTEX
  5
12AA
  8
OBJECT
 10
0.31
 20
0.44
 30
0.0
  0
VERTEX
  5
12AB
  8
OBJECT
 10
0.31
 20
0.0
 30
0.0
  0
SEQEND
  5
12AC
  8
OBJECT
  0
LINE
  5
488
  8
OBJECT
 10
-0.63
 20
0.0
 30
0.0
 11
-0.63
 21
0.1575
 31
0.0
  0
LINE
  5
489
  8
OBJECT
 10
-0.63
 20
0.1575
 30
0.0
 11
-0.6
 21
0.1875
 31
0.0
  0
LINE
  5
48A
  8
OBJECT
 10
-0.6
 20
0.1875
 30
0.0
 11
0.0
 21
0.1875
 31
0.0
  0
LINE
  5
48B
  8
OBJECT
 10
0.0
 20
0.125
 30
0.0
 11
0.0
 21
0.41
 31
0.0
  0
LINE
  5
48C
  8
OBJECT
 10
0.0
 20
0.41
 30
0.0
 11
0.03
 21
0.44
 31
0.0
  0
LINE
  5
48D
  8
OBJECT
 10
0.03
 20
0.44
 30
0.0
 11
0.31
 21
0.44
 31
0.0
  0
LINE
  5
48E
  8
OBJECT
 10
0.31
 20
0.44
 30
0.0
 11
0.34
 21
0.41
 31
0.0
  0
LINE
  5
48F
  8
OBJECT
 10
0.34
 20
0.41
 30
0.0
 11
0.34
 21
0.0
 31
0.0
  0
LINE
  5
490
  8
OBJECT
 10
-0.63
 20
0.0
 30
0.0
 11
-0.63
 21
-0.1575
 31
0.0
  0
LINE
  5
491
  8
OBJECT
 10
-0.63
 20
-0.1575
 30
0.0
 11
-0.6
 21
-0.1875
 31
0.0
  0
LINE
  5
492
  8
OBJECT
 10
-0.6
 20
-0.1875
 30
0.0
 11
0.0
 21
-0.1875
 31
0.0
  0
LINE
  5
493
  8
OBJECT
 10
0.0
 20
-0.125
 30
0.0
 11
0.0
 21
-0.41
 31
0.0
  0
LINE
  5
494
  8
OBJECT
 10
0.0
 20
-0.41
 30
0.0
 11
0.03
 21
-0.44
 31
0.0
  0
LINE
  5
495
  8
OBJECT
 10
0.03
 20
-0.44
 30
0.0
 11
0.31
 21
-0.44
 31
0.0
  0
LINE
  5
496
  8
OBJECT
 10
0.31
 20
-0.44
 30
0.0
 11
0.34
 21
-0.41
 31
0.0
  0
LINE
  5
497
  8
OBJECT
 10
0.34
 20
-0.41
 30
0.0
 11
0.34
 21
0.0
 31
0.0
  0
LINE
  5
498
  8
HIDDEN
 10
-0.63
 20
0.1575
 30
0.0
 11
-0.1
 21
0.1575
 31
0.0
  0
LINE
  5
499
  8
HIDDEN
 10
-0.63
 20
-0.1575
 30
0.0
 11
-0.1
 21
-0.1575
 31
0.0
  0
INSERT
  5
49A
  8
OBJECT
  2
HEX_LS
 10
0.34
 20
0.0
 30
0.0
 41
0.5
 42
0.5
 43
0.5
  0
ENDBLK
  5
49B
  8
0
  0
BLOCK
  8
0
  2
HEX_LS
 70
     0
 10
0.0
 20
0.0
 30
0.0
  3
HEX_LS
  1

  0
LINE
  5
49D
  8
H
 10
-0.479785
 20
0.25
 30
0.0
 11
0.0
 21
0.25
 31
0.0
  0
LINE
  5
49E
  8
H
 10
-0.479785
 20
0.22
 30
0.0
 11
0.0
 21
0.22
 31
0.0
  0
LINE
  5
49F
  8
H
 10
-0.63
 20
0.0
 30
0.0
 11
-0.479785
 21
0.25
 31
0.0
  0
LINE
  5
4A0
  8
H
 10
-0.479785
 20
0.25
 30
0.0
 11
-0.479785
 21
0.0
 31
0.0
  0
LINE
  5
4A1
  8
H
 10
-0.479785
 20
-0.22
 30
0.0
 11
0.0
 21
-0.22
 31
0.0
  0
LINE
  5
4A2
  8
H
 10
-0.479785
 20
-0.25
 30
0.0
 11
0.0
 21
-0.25
 31
0.0
  0
LINE
  5
4A3
  8
H
 10
-0.479785
 20
-0.25
 30
0.0
 11
-0.479785
 21
0.0
 31
0.0
  0
LINE
  5
4A4
  8
H
 10
-0.63
 20
0.0
 30
0.0
 11
-0.479785
 21
-0.25
 31
0.0
  0
ENDBLK
  5
4A5
  8
0
  0
BLOCK
  8
0
  2
*D7
 70
     1
 10
0.0
 20
0.0
 30
0.0
  3
*D7
  1

  0
LINE
  5
4A7
  8
0
  6
BYBLOCK
 62
     0
 10
0.0
 20
2.211687
 30
0.0
 11
0.0
 21
2.494484
 31
0.0
  0
LINE
  5
4A8
  8
0
  6
BYBLOCK
 62
     0
 10
1.38
 20
1.3775
 30
0.0
 11
1.38
 21
2.494484
 31
0.0
  0
LINE
  5
4A9
  8
0
  6
BYBLOCK
 62
     0
 10
0.12
 20
2.444484
 30
0.0
 11
0.370833
 21
2.444484
 31
0.0
  0
LINE
  5
4AA
  8
0
  6
BYBLOCK
 62
     0
 10
1.26
 20
2.444484
 30
0.0
 11
1.009167
 21
2.444484
 31
0.0
  0
SOLID
  5
4AB
  8
0
  6
BYBLOCK
 62
     0
 10
0.12
 20
2.464484
 30
0.0
 11
0.12
 21
2.424484
 31
0.0
 12
0.0
 22
2.444484
 32
0.0
 13
0.0
 23
2.444484
 33
0.0
  0
SOLID
  5
4AC
  8
0
  6
BYBLOCK
 62
     0
 10
1.26
 20
2.464484
 30
0.0
 11
1.26
 21
2.424484
 31
0.0
 12
1.38
 22
2.444484
 32
0.0
 13
1.38
 23
2.444484
 33
0.0
  0
TEXT
  5
4AD
  8
0
  6
BYBLOCK
 62
     0
 10
0.460833
 20
2.381984
 30
0.0
 40
0.125
  1
1.375
 72
     1
 11
0.69
 21
2.444484
 31
0.0
 73
     2
  0
POINT
  5
4AE
  8
DEFPOINTS
  6
BYBLOCK
 62
     0
 10
0.0
 20
2.149187
 30
0.0
  0
POINT
  5
4AF
  8
DEFPOINTS
  6
BYBLOCK
 62
     0
 10
1.38
 20
1.315
 30
0.0
  0
POINT
  5
4B0
  8
DEFPOINTS
  6
BYBLOCK
 62
     0
 10
1.38
 20
2.444484
 30
0.0
  0
ENDBLK
  5
4B1
  8
0
  0
BLOCK
  8
0
  6
CONTINUOUS
 62
     7
  2
C50_BASE
 70
     0
 10
0.0
 20
0.0
 30
0.0
  3
C50_BASE
  1
C50_BASE
  0
LINE
  5
7F2
  8
C50_BASE$0$L
 10
0.0
 20
0.0
 30
0.0
 11
0.0
 21
-1.375
 31
0.0
  0
LINE
  5
7F3
  8
C50_BASE$0$L
 10
0.0
 20
-1.375
 30
0.0
 11
-3.897317
 21
-0.806641
 31
0.0
  0
LINE
  5
7F4
  8
C50_BASE$0$L
 10
0.0
 20
-1.375
 30
0.0
 11
0.105
 21
-1.375
 31
0.0
  0
ARC
  5
7F5
  8
C50_BASE$0$L
 10
-3.88241
 20
0.69
 30
0.0
 40
0.11759
 50
97.282949
 51
180.0
  0
LINE
  5
7F6
  8
C50_BASE$0$H
 10
-4.0
 20
0.5625
 30
0.0
 11
-3.918594
 21
0.5155
 31
0.0
  0
LINE
  5
7F7
  8
C50_BASE$0$H
 10
-4.0
 20
-0.5625
 30
0.0
 11
-3.918594
 21
-0.5155
 31
0.0
  0
ARC
  5
7F8
  8
C50_BASE$0$L
 10
-3.88241
 20
-0.69
 30
0.0
 40
0.11759
 50
180.0
 51
262.717051
  0
LINE
  5
7F9
  8
C50_BASE$0$L
 10
-4.0
 20
-0.69
 30
0.0
 11
-4.0
 21
0.69
 31
0.0
  0
LINE
  5
7FA
  8
C50_BASE$0$L
 10
0.0
 20
1.375
 30
0.0
 11
-3.897317
 21
0.806641
 31
0.0
  0
LINE
  5
7FB
  8
C50_BASE$0$H
 10
-3.75
 20
-0.5
 30
0.0
 11
-2.25
 21
-0.5
 31
0.0
  0
LINE
  5
7FC
  8
C50_BASE$0$H
 10
-3.75
 20
-0.4375
 30
0.0
 11
-2.25
 21
-0.4375
 31
0.0
  0
LINE
  5
7FD
  8
C50_BASE$0$H
 10
-3.75
 20
0.4375
 30
0.0
 11
-2.25
 21
0.4375
 31
0.0
  0
LINE
  5
7FE
  8
C50_BASE$0$H
 10
-3.75
 20
0.5
 30
0.0
 11
-2.25
 21
0.5
 31
0.0
  0
LINE
  5
7FF
  8
C50_BASE$0$H
 10
-3.918594
 20
0.5155
 30
0.0
 11
-3.918594
 21
-0.0025
 31
0.0
  0
LINE
  5
800
  8
C50_BASE$0$H
 10
-3.75
 20
0.0
 30
0.0
 11
-3.75
 21
0.5155
 31
0.0
  0
LINE
  5
801
  8
C50_BASE$0$H
 10
-3.75
 20
0.0
 30
0.0
 11
-3.75
 21
-0.5155
 31
0.0
  0
LINE
  5
802
  8
C50_BASE$0$H
 10
-3.918594
 20
-0.5155
 30
0.0
 11
-3.918594
 21
0.0025
 31
0.0
  0
LINE
  5
803
  8
C50_BASE$0$H
 10
-3.918594
 20
-0.5155
 30
0.0
 11
-3.75
 21
-0.5155
 31
0.0
  0
LINE
  5
804
  8
C50_BASE$0$H
 10
-3.918594
 20
0.5155
 30
0.0
 11
-3.75
 21
0.5155
 31
0.0
  0
LINE
  5
805
  8
C50_BASE$0$H
 10
-2.25
 20
0.5
 30
0.0
 11
-2.25
 21
-0.5
 31
0.0
  0
LINE
  5
806
  8
C50_BASE$0$L
 10
0.0
 20
0.0
 30
0.0
 11
0.0
 21
1.375
 31
0.0
  0
CIRCLE
  5
807
  8
C50_BASE$0$L
 10
0.44
 20
0.0
 30
0.0
 40
0.1875
  0
LINE
  5
808
  8
C50_BASE$0$L
 10
0.125
 20
0.51
 30
0.0
 11
0.695204
 21
0.51
 31
0.0
  0
LINE
  5
809
  8
C50_BASE$0$L
 10
0.0
 20
1.375
 30
0.0
 11
0.105
 21
1.375
 31
0.0
  0
POINT
  5
80A
  8
DEFPOINTS
  6
BYBLOCK
 62
     0
 10
0.0
 20
1.375
 30
0.0
  0
POINT
  5
80B
  8
DEFPOINTS
  6
BYBLOCK
 62
     0
 10
0.0
 20
-1.375
 30
0.0
  0
POINT
  5
80C
  8
DEFPOINTS
  6
BYBLOCK
 62
     0
 10
0.0
 20
1.375
 30
0.0
  0
LINE
  5
80D
  8
C50_BASE$0$L
 10
0.125
 20
-1.9075
 30
0.0
 11
0.125
 21
1.9075
 31
0.0
  0
LINE
  5
80E
  8
C50_BASE$0$L
 10
0.5155
 20
0.51
 30
0.0
 11
0.5155
 21
1.827515
 31
0.0
  0
LINE
  5
80F
  8
C50_BASE$0$L
 10
0.3645
 20
0.51
 30
0.0
 11
0.3645
 21
1.827515
 31
0.0
  0
LINE
  5
810
  8
C50_BASE$0$L
 10
0.579
 20
0.51
 30
0.0
 11
0.579
 21
1.9375
 31
0.0
  0
LINE
  5
811
  8
C50_BASE$0$L
 10
0.301
 20
0.51
 30
0.0
 11
0.301
 21
1.9375
 31
0.0
  0
LINE
  5
812
  8
C50_BASE$0$L
 10
0.579
 20
1.9375
 30
0.0
 11
0.5155
 21
1.827515
 31
0.0
  0
LINE
  5
813
  8
C50_BASE$0$L
 10
0.301
 20
1.9375
 30
0.0
 11
0.3645
 21
1.827515
 31
0.0
  0
LINE
  5
814
  8
C50_BASE$0$L
 10
0.579
 20
1.9375
 30
0.0
 11
0.72
 21
1.9375
 31
0.0
  0
LINE
  5
815
  8
C50_BASE$0$L
 10
0.301
 20
1.9375
 30
0.0
 11
0.155
 21
1.9375
 31
0.0
  0
LINE
  5
816
  8
C50_BASE$0$L
 10
0.155
 20
0.51
 30
0.0
 11
0.155
 21
1.9375
 31
0.0
  0
LINE
  5
817
  8
C50_BASE$0$L
 10
0.125
 20
1.9075
 30
0.0
 11
0.155
 21
1.9375
 31
0.0
  0
LINE
  5
818
  8
C50_BASE$0$L
 10
0.5155
 20
1.797
 30
0.0
 11
0.3645
 21
1.797
 31
0.0
  0
ARC
  5
819
  8
C50_BASE$0$L
 10
0.105
 20
1.395
 30
0.0
 40
0.02
 50
270.0
 51
0.0
  0
LINE
  5
81A
  8
C50_BASE$0$L
 10
0.579
 20
-0.51
 30
0.0
 11
0.579
 21
-1.9375
 31
0.0
  0
LINE
  5
81B
  8
C50_BASE$0$L
 10
0.5155
 20
-0.51
 30
0.0
 11
0.5155
 21
-1.827515
 31
0.0
  0
LINE
  5
81C
  8
C50_BASE$0$L
 10
0.3645
 20
-0.51
 30
0.0
 11
0.3645
 21
-1.827515
 31
0.0
  0
LINE
  5
81D
  8
C50_BASE$0$L
 10
0.301
 20
-0.51
 30
0.0
 11
0.301
 21
-1.9375
 31
0.0
  0
LINE
  5
81E
  8
C50_BASE$0$L
 10
0.155
 20
-0.51
 30
0.0
 11
0.155
 21
-1.9375
 31
0.0
  0
LINE
  5
81F
  8
C50_BASE$0$L
 10
0.579
 20
-1.9375
 30
0.0
 11
0.72
 21
-1.9375
 31
0.0
  0
LINE
  5
820
  8
C50_BASE$0$L
 10
0.301
 20
-1.9375
 30
0.0
 11
0.3645
 21
-1.827515
 31
0.0
  0
LINE
  5
821
  8
C50_BASE$0$L
 10
0.579
 20
-1.9375
 30
0.0
 11
0.5155
 21
-1.827515
 31
0.0
  0
LINE
  5
822
  8
C50_BASE$0$L
 10
0.301
 20
-1.9375
 30
0.0
 11
0.155
 21
-1.9375
 31
0.0
  0
LINE
  5
823
  8
C50_BASE$0$L
 10
0.125
 20
-1.9075
 30
0.0
 11
0.155
 21
-1.9375
 31
0.0
  0
LINE
  5
824
  8
C50_BASE$0$L
 10
0.5155
 20
-1.797
 30
0.0
 11
0.3645
 21
-1.797
 31
0.0
  0
LINE
  5
825
  8
C50_BASE$0$L
 10
0.125
 20
-0.51
 30
0.0
 11
0.695204
 21
-0.51
 31
0.0
  0
ARC
  5
826
  8
C50_BASE$0$L
 10
0.105
 20
-1.395
 30
0.0
 40
0.02
 50
0.0
 51
90.0
  0
SOLID
  5
827
  8
C50_BASE$0$D
 10
-0.371748
 20
1.44279
 30
0.0
 11
-0.408045
 21
1.425982
 31
0.0
 12
-0.339474
 22
1.325493
 32
0.0
 13
-0.339474
 23
1.325493
 33
0.0
  0
LINE
  5
828
  8
C50_BASE$0$D
 10
-0.389896
 20
1.434386
 30
0.0
 11
-1.092609
 21
2.951982
 31
0.0
  0
LINE
  5
829
  8
C50_BASE$0$D
 10
-1.092609
 20
2.951982
 30
0.0
 11
-1.225138
 21
2.951982
 31
0.0
  0
TEXT
  5
82A
  8
C50_BASE$0$D
 10
-2.677478
 20
2.903767
 30
0.0
 40
0.125
  1
50 V-FLANGE
  7
C50_BASE$0$STANDARD
 72
     2
 11
-1.323312
 21
2.966267
 31
0.0
 73
     2
  0
TEXT
  5
82B
  8
C50_BASE$0$D
 10
-3.030563
 20
2.905161
 30
0.0
 40
0.09
  1
CAT
  7
C50_BASE$0$STANDARD
 72
     2
 11
-2.790563
 21
2.950161
 31
0.0
 73
     2
  0
ENDBLK
  5
509
  8
0
  6
CONTINUOUS
 62
     7
  0
ENDSEC
  0
SECTION
  2
ENTITIES
  0
POINT
  5
4B2
  8
DEFPOINTS
  6
BYBLOCK
 62
     0
 10
0.0
 20
-0.875
 30
0.0
  0
LINE
  5
4B3
  8
H
 10
-2.25
 20
-0.4375
 30
0.0
 11
-0.762877
 21
-0.4375
 31
0.0
  0
LINE
  5
4B4
  8
H
 10
-2.25
 20
0.4375
 30
0.0
 11
-0.762877
 21
0.4375
 31
0.0
  0
LINE
  5
4B5
  8
H
 10
-0.594636
 20
0.1575
 30
0.0
 11
-0.762877
 21
0.4375
 31
0.0
  0
LINE
  5
4B6
  8
H
 10
-0.762877
 20
0.4375
 30
0.0
 11
-0.762877
 21
-0.4375
 31
0.0
  0
INSERT
  5
4B9
  8
D
  2
C50R06
 10
1.32
 20
1.375
 30
0.0
  0
ARC
  5
4BA
  8
L
 10
1.44
 20
0.935
 30
0.0
 40
0.06
 50
180.0
 51
270.0
  0
ARC
  5
4BB
  8
L
 10
1.44
 20
-0.935
 30
0.0
 40
0.06
 50
90.0
 51
180.0
  0
LINE
  5
4BC
  8
L
 10
3.46
 20
0.875
 30
0.0
 11
1.44
 21
0.875
 31
0.0
  0
LINE
  5
4BD
  8
L
 10
3.46
 20
-0.875
 30
0.0
 11
1.44
 21
-0.875
 31
0.0
  0
LINE
  5
4BE
  8
H
 10
3.08
 20
0.4687
 30
0.0
 11
3.08
 21
0.7813
 31
0.0
  0
LINE
  5
4BF
  8
H
 10
3.307077
 20
0.7813
 30
0.0
 11
3.08
 21
0.7813
 31
0.0
  0
LINE
  5
4C0
  8
H
 10
3.08
 20
0.7733
 30
0.0
 11
2.98
 21
0.7733
 31
0.0
  0
LINE
  5
4C1
  8
H
 10
2.98
 20
0.4767
 30
0.0
 11
2.98
 21
0.7733
 31
0.0
  0
LINE
  5
4C2
  8
H
 10
2.98
 20
0.7733
 30
0.0
 11
2.890892
 21
0.625
 31
0.0
  0
LINE
  5
4C3
  8
H
 10
2.98
 20
0.4767
 30
0.0
 11
2.890892
 21
0.625
 31
0.0
  0
LINE
  5
4C4
  8
H
 10
3.08
 20
0.4767
 30
0.0
 11
2.98
 21
0.4767
 31
0.0
  0
LINE
  5
4C5
  8
H
 10
3.307077
 20
0.4687
 30
0.0
 11
3.08
 21
0.4687
 31
0.0
  0
LINE
  5
4C6
  8
H
 10
3.08
 20
-0.4767
 30
0.0
 11
2.98
 21
-0.4767
 31
0.0
  0
LINE
  5
4C7
  8
H
 10
2.98
 20
-0.4767
 30
0.0
 11
2.98
 21
-0.7733
 31
0.0
  0
LINE
  5
4C8
  8
H
 10
2.98
 20
-0.4767
 30
0.0
 11
2.890892
 21
-0.625
 31
0.0
  0
LINE
  5
4C9
  8
H
 10
3.08
 20
-0.4687
 30
0.0
 11
3.08
 21
-0.7813
 31
0.0
  0
LINE
  5
4CA
  8
H
 10
3.307077
 20
-0.4687
 30
0.0
 11
3.08
 21
-0.4687
 31
0.0
  0
LINE
  5
4CB
  8
H
 10
3.08
 20
-0.7733
 30
0.0
 11
2.98
 21
-0.7733
 31
0.0
  0
LINE
  5
4CC
  8
H
 10
2.98
 20
-0.7733
 30
0.0
 11
2.890892
 21
-0.625
 31
0.0
  0
LINE
  5
4CD
  8
H
 10
3.307077
 20
-0.7813
 30
0.0
 11
3.08
 21
-0.7813
 31
0.0
  0
LINE
  5
4CE
  8
H
 10
2.889566
 20
0.1575
 30
0.0
 11
-0.594636
 21
0.1575
 31
0.0
  0
LINE
  5
4CF
  8
H
 10
2.889566
 20
-0.1575
 30
0.0
 11
-0.594636
 21
-0.1575
 31
0.0
  0
LINE
  5
4D0
  8
H
 10
-0.594636
 20
-0.1575
 30
0.0
 11
-0.762877
 21
-0.4375
 31
0.0
  0
LINE
  5
4D1
  8
H
 10
-0.594636
 20
0.1575
 30
0.0
 11
-0.594636
 21
-0.1575
 31
0.0
  0
DIMENSION
  5
4D2
  8
D
  2
*D2
 10
3.5
 20
2.782177
 30
0.0
 11
1.75
 21
2.782177
 31
0.0
  1
3.50
 13
0.0
 23
1.375
 33
0.0
 14
3.5
 24
0.835
 34
0.0
  0
LINE
  5
4D3
  8
L
 10
-0.636799
 20
0.831195
 30
0.0
 11
-0.574299
 21
0.831195
 31
0.0
  0
LINE
  5
4D4
  8
L
 10
-0.636799
 20
1.106195
 30
0.0
 11
-0.574299
 21
1.106195
 31
0.0
  0
ARC
  5
4D5
  8
L
 10
-0.959352
 20
0.940695
 30
0.0
 40
0.1095
 50
0.018858
 51
278.071967
  0
CIRCLE
  5
4D6
  8
L
 10
-0.959352
 20
0.940695
 30
0.0
 40
0.05
  0
ARC
  5
4D7
  8
L
 10
-0.959352
 20
0.940695
 30
0.0
 40
0.1095
 50
0.018858
 51
278.071967
  0
LINE
  5
4D8
  8
L
 10
-1.241892
 20
0.949566
 30
0.0
 11
-1.241892
 21
0.831195
 31
0.0
  0
LINE
  5
4D9
  8
L
 10
-1.304392
 20
0.996617
 30
0.0
 11
-1.304392
 21
0.831195
 31
0.0
  0
LINE
  5
4DA
  8
L
 10
-1.304392
 20
0.831195
 30
0.0
 11
-1.241892
 21
0.831195
 31
0.0
  0
CIRCLE
  5
4DB
  8
L
 10
-1.194892
 20
0.996617
 30
0.0
 40
0.05
  0
ARC
  5
4DC
  8
L
 10
-1.194892
 20
0.996617
 30
0.0
 40
0.1095
 50
269.890544
 51
179.99999
  0
LINE
  5
4DD
  8
L
 10
-1.241892
 20
0.949566
 30
0.0
 11
-1.195101
 21
0.887117
 31
0.0
  0
LINE
  5
4DE
  8
L
 10
-0.636799
 20
1.106195
 30
0.0
 11
-0.636799
 21
0.831195
 31
0.0
  0
LINE
  5
4DF
  8
L
 10
-0.757318
 20
0.970657
 30
0.0
 11
-0.757042
 21
0.831195
 31
0.0
  0
LINE
  5
4E0
  8
L
 10
-0.819818
 20
0.970657
 30
0.0
 11
-0.819542
 21
0.831195
 31
0.0
  0
LINE
  5
4E1
  8
L
 10
-0.849852
 20
0.940731
 30
0.0
 11
-0.849816
 21
0.831195
 31
0.0
  0
LINE
  5
4E2
  8
L
 10
-0.912338
 20
0.89781
 30
0.0
 11
-0.943977
 21
0.83228
 31
0.0
  0
LINE
  5
4E3
  8
L
 10
-0.912338
 20
0.89781
 30
0.0
 11
-0.912316
 21
0.831195
 31
0.0
  0
LINE
  5
4E4
  8
L
 10
-0.849852
 20
0.940731
 30
0.0
 11
-0.849816
 21
0.831267
 31
0.0
  0
LINE
  5
4E5
  8
L
 10
-0.819542
 20
0.831195
 30
0.0
 11
-0.757042
 21
0.831195
 31
0.0
  0
LINE
  5
4E6
  8
L
 10
-0.912316
 20
0.831195
 30
0.0
 11
-0.849816
 21
0.831195
 31
0.0
  0
ARC
  5
4E7
  8
L
 10
-0.74028
 20
0.970657
 30
0.0
 40
0.079538
 50
18.846034
 51
180.226252
  0
LINE
  5
4E8
  8
L
 10
-0.665007
 20
0.99635
 30
0.0
 11
-0.707401
 21
0.972697
 31
0.0
  0
ARC
  5
4E9
  8
L
 10
-0.732318
 20
0.970657
 30
0.0
 40
0.025
 50
4.679095
 51
180.226252
  0
ARC
  5
4EA
  8
L
 10
-0.208012
 20
0.940695
 30
0.0
 40
0.1095
 50
30.701399
 51
270.0
  0
ARC
  5
4EB
  8
L
 10
-0.438093
 20
0.940695
 30
0.0
 40
0.05625
 50
235.5219
 51
332.233922
  0
LINE
  5
4EC
  8
L
 10
-0.574299
 20
1.106195
 30
0.0
 11
-0.574299
 21
0.831195
 31
0.0
  0
ARC
  5
4ED
  8
L
 10
-0.438093
 20
0.940695
 30
0.0
 40
0.1095
 50
14.507251
 51
328.258317
  0
ARC
  5
4EE
  8
L
 10
-0.438093
 20
0.940695
 30
0.0
 40
0.05625
 50
64.071476
 51
172.253555
  0
LINE
  5
4EF
  8
L
 10
-0.413498
 20
0.991282
 30
0.0
 11
-0.49383
 21
0.948277
 31
0.0
  0
LINE
  5
4F0
  8
L
 10
-0.332084
 20
0.968125
 30
0.0
 11
-0.469936
 21
0.894326
 31
0.0
  0
LINE
  5
4F1
  8
L
 10
-0.38832
 20
0.91449
 30
0.0
 11
-0.344971
 21
0.883088
 31
0.0
  0
LINE
  5
4F2
  8
L
 10
-0.071146
 20
0.884445
 30
0.0
 11
-0.098687
 21
0.831195
 31
0.0
  0
LINE
  5
4F3
  8
L
 10
-0.208012
 20
0.831195
 30
0.0
 11
-0.098687
 21
0.831195
 31
0.0
  0
LINE
  5
4F4
  8
L
 10
-0.208012
 20
0.884445
 30
0.0
 11
-0.071146
 21
0.884445
 31
0.0
  0
LINE
  5
4F5
  8
L
 10
-0.11386
 20
0.996602
 30
0.0
 11
-0.163372
 21
0.974919
 31
0.0
  0
ARC
  5
4F6
  8
L
 10
-0.208012
 20
0.940695
 30
0.0
 40
0.05625
 50
37.476042
 51
270.0
  0
TEXT
  5
4F7
  8
0
 10
-1.20109
 20
0.638205
 30
0.0
 40
0.125
  1
C50-75SM3
  0
LINE
  5
4F8
  8
L
 10
1.287974
 20
1.375
 30
0.0
 11
1.32
 21
1.375
 31
0.0
  0
LINE
  5
4F9
  8
L
 10
1.287974
 20
-1.375
 30
0.0
 11
1.32
 21
-1.375
 31
0.0
  0
DIMENSION
  5
4FD
  8
D
  2
*D7
 10
1.38
 20
2.444484
 30
0.0
 11
0.69
 21
2.444484
 31
0.0
  1
1.375
 13
0.0
 23
2.149187
 33
0.0
 14
1.38
 24
1.315
 34
0.0
  0
LINE
  5
78C
  8
0
  6
BYBLOCK
 62
     0
 10
3.510003
 20
-0.875005
 30
0.0
 11
4.395285
 21
-0.875005
 31
0.0
  0
LINE
  5
78D
  8
0
  6
BYBLOCK
 62
     0
 10
3.510003
 20
0.874995
 30
0.0
 11
4.16362
 21
0.874995
 31
0.0
  0
LINE
  5
78E
  8
0
  6
BYBLOCK
 62
     0
 10
4.197003
 20
-0.374805
 30
0.0
 11
5.216115
 21
-0.374805
 31
0.0
  0
LINE
  5
78F
  8
0
  6
BYBLOCK
 62
     0
 10
4.197003
 20
0.374795
 30
0.0
 11
5.216115
 21
0.374795
 31
0.0
  0
LINE
  5
790
  8
L
 10
3.5
 20
-0.835
 30
0.0
 11
3.5
 21
-0.3748
 31
0.0
  0
LINE
  5
791
  8
L
 10
3.443172
 20
-0.875
 30
0.0
 11
3.46
 21
-0.875
 31
0.0
  0
ARC
  5
792
  8
L
 10
3.46
 20
-0.835
 30
0.0
 40
0.04
 50
270.0
 51
0.0
  0
POINT
  5
793
  8
DEFPOINTS
  6
BYBLOCK
 62
     0
 10
3.460003
 20
-0.875005
 30
0.0
  0
LINE
  5
794
  8
D
 10
4.187003
 20
0.42036
 30
0.0
 11
4.187003
 21
2.066926
 31
0.0
  0
LINE
  5
795
  8
H
 10
3.187
 20
-0.1875
 30
0.0
 11
3.999
 21
-0.1875
 31
0.0
  0
LINE
  5
796
  8
H
 10
3.187
 20
0.1875
 30
0.0
 11
3.999
 21
0.1875
 31
0.0
  0
LINE
  5
797
  8
L
 10
3.566468
 20
-0.3748
 30
0.0
 11
4.147
 21
-0.3748
 31
0.0
  0
LINE
  5
798
  8
L
 10
3.5
 20
0.835
 30
0.0
 11
3.5
 21
0.3748
 31
0.0
  0
LINE
  5
799
  8
H
 10
3.187
 20
0.1875
 30
0.0
 11
3.187
 21
-0.1875
 31
0.0
  0
POLYLINE
  5
79A
  8
L
 66
     1
 10
0.0
 20
0.0
 30
0.0
  0
VERTEX
  5
12AD
  8
L
 10
3.500003
 20
-0.3748
 30
0.0
  0
VERTEX
  5
12AE
  8
L
 10
3.500003
 20
-0.000005
 30
0.0
  0
SEQEND
  5
12AF
  8
L
  0
POLYLINE
  5
79E
  8
L
 66
     1
 10
0.0
 20
0.0
 30
0.0
  0
VERTEX
  5
12B0
  8
L
 10
3.500003
 20
-0.3748
 30
0.0
  0
VERTEX
  5
12B1
  8
L
 10
3.500003
 20
0.0
 30
0.0
  0
SEQEND
  5
12B2
  8
L
  0
LINE
  5
7A2
  8
H
 10
3.470008
 20
0.411276
 30
0.0
 11
3.470008
 21
-0.37425
 31
0.0
  0
LINE
  5
7A3
  8
L
 10
3.536468
 20
0.3448
 30
0.0
 11
3.536468
 21
-0.3448
 31
0.0
  0
LINE
  5
7A4
  8
H
 10
3.490003
 20
-0.3448
 30
0.0
 11
3.500003
 21
-0.3448
 31
0.0
  0
POLYLINE
  5
7A5
  8
L
 66
     1
 10
0.0
 20
0.0
 30
0.0
  0
VERTEX
  5
12B3
  8
L
 10
3.5
 20
0.3748
 30
0.0
  0
VERTEX
  5
12B4
  8
L
 10
3.5
 20
0.0
 30
0.0
  0
SEQEND
  5
12B5
  8
L
  0
POLYLINE
  5
7A9
  8
L
 66
     1
 10
0.0
 20
0.0
 30
0.0
  0
VERTEX
  5
12B6
  8
L
 10
3.500003
 20
0.3748
 30
0.0
  0
VERTEX
  5
12B7
  8
L
 10
3.500003
 20
-0.000005
 30
0.0
  0
SEQEND
  5
12B8
  8
L
  0
POLYLINE
  5
7AD
  8
L
 66
     1
 10
0.0
 20
0.0
 30
0.0
  0
VERTEX
  5
12B9
  8
L
 10
3.500003
 20
0.3748
 30
0.0
  0
VERTEX
  5
12BA
  8
L
 10
3.500003
 20
0.0
 30
0.0
  0
SEQEND
  5
12BB
  8
L
  0
POLYLINE
  5
7B1
  8
L
 66
     1
 10
0.0
 20
0.0
 30
0.0
  0
VERTEX
  5
12BC
  8
L
 10
3.500003
 20
0.3748
 30
0.0
  0
VERTEX
  5
12BD
  8
L
 10
3.500003
 20
0.0
 30
0.0
  0
SEQEND
  5
12BE
  8
L
  0
LINE
  5
7B5
  8
L
 10
3.443172
 20
0.875
 30
0.0
 11
3.46
 21
0.875
 31
0.0
  0
LINE
  5
7B6
  8
H
 10
3.5
 20
0.7813
 30
0.0
 11
3.307077
 21
0.7813
 31
0.0
  0
LINE
  5
7B7
  8
H
 10
3.5
 20
0.4687
 30
0.0
 11
3.307077
 21
0.4687
 31
0.0
  0
ARC
  5
7B8
  8
L
 10
3.46
 20
0.835
 30
0.0
 40
0.04
 50
0.0
 51
90.0
  0
POINT
  5
7B9
  8
DEFPOINTS
  6
BYBLOCK
 62
     0
 10
3.460003
 20
0.874995
 30
0.0
  0
LINE
  5
7BA
  8
H
 10
4.127
 20
0.2125
 30
0.0
 11
4.187
 21
0.247141
 31
0.0
  0
ARC
  5
7BB
  8
L
 10
4.146999
 20
0.334799
 30
0.0
 40
0.040001
 50
0.001327
 51
89.998673
  0
LINE
  5
7BC
  8
H
 10
4.127
 20
-0.2125
 30
0.0
 11
4.187
 21
-0.247141
 31
0.0
  0
ARC
  5
7BD
  8
L
 10
4.146999
 20
-0.334799
 30
0.0
 40
0.040001
 50
270.001327
 51
359.998673
  0
POLYLINE
  5
7BE
  8
H
 66
     1
 10
0.0
 20
0.0
 30
0.0
  0
VERTEX
  5
12BF
  8
H
 10
4.127
 20
-0.2125
 30
0.0
  0
VERTEX
  5
12C0
  8
H
 10
4.127
 20
0.2125
 30
0.0
  0
SEQEND
  5
12C1
  8
H
  0
LINE
  5
7C2
  8
H
 10
3.999
 20
0.2125
 30
0.0
 11
3.999
 21
-0.2125
 31
0.0
  0
POINT
  5
7C3
  8
DEFPOINTS
  6
BYBLOCK
 62
     0
 10
4.147003
 20
-0.374805
 30
0.0
  0
LINE
  5
7C4
  8
H
 10
3.999
 20
-0.2125
 30
0.0
 11
4.127
 21
-0.2125
 31
0.0
  0
POINT
  5
7C5
  8
DEFPOINTS
  6
BYBLOCK
 62
     0
 10
4.147003
 20
0.374795
 30
0.0
  0
LINE
  5
7C6
  8
H
 10
3.999
 20
0.2125
 30
0.0
 11
4.127
 21
0.2125
 31
0.0
  0
LINE
  5
7C7
  8
L
 10
4.187
 20
-0.3348
 30
0.0
 11
4.187
 21
0.0
 31
0.0
  0
LINE
  5
7C8
  8
L
 10
4.187
 20
0.3348
 30
0.0
 11
4.187
 21
0.0
 31
0.0
  0
TEXT
  5
7C9
  8
D
 10
3.702076
 20
1.959426
 30
0.0
 40
0.125
  1
.68
 72
     4
 11
3.827076
 21
2.021926
 31
0.0
  0
LINE
  5
7CA
  8
D
 10
3.380003
 20
2.021926
 30
0.0
 11
3.260003
 21
2.021926
 31
0.0
  0
SOLID
  5
7CB
  8
D
 10
3.380003
 20
2.041926
 30
0.0
 11
3.380003
 21
2.001926
 31
0.0
 12
3.500003
 22
2.021926
 32
0.0
 13
3.500003
 23
2.021926
 33
0.0
  0
LINE
  5
7CC
  8
D
 10
4.307003
 20
2.021926
 30
0.0
 11
4.427003
 21
2.021926
 31
0.0
  0
SOLID
  5
7CD
  8
D
 10
4.307003
 20
2.041926
 30
0.0
 11
4.307003
 21
2.001926
 31
0.0
 12
4.187003
 22
2.021926
 32
0.0
 13
4.187003
 23
2.021926
 33
0.0
  0
LINE
  5
7CE
  8
0
  6
BYBLOCK
 62
     0
 10
5.886838
 20
-0.755005
 30
0.0
 11
5.886838
 21
-0.152505
 31
0.0
  0
POINT
  5
7CF
  8
DEFPOINTS
  6
BYBLOCK
 62
     0
 10
5.886838
 20
-0.875005
 30
0.0
  0
SOLID
  5
7D0
  8
0
  6
BYBLOCK
 62
     0
 10
5.866838
 20
-0.755005
 30
0.0
 11
5.906838
 21
-0.755005
 31
0.0
 12
5.886838
 22
-0.875005
 32
0.0
 13
5.886838
 23
-0.875005
 33
0.0
  0
TEXT
  5
7D1
  8
0
  6
BYBLOCK
 62
     0
 10
4.994031
 20
-0.062505
 30
0.0
 40
0.125
  1
.750
 72
     4
 11
5.171115
 21
-0.000005
 31
0.0
  0
POINT
  5
7D3
  8
DEFPOINTS
  6
BYBLOCK
 62
     0
 10
5.171115
 20
-0.374805
 30
0.0
  0
SOLID
  5
7D4
  8
0
  6
BYBLOCK
 62
     0
 10
5.151115
 20
-0.254805
 30
0.0
 11
5.191115
 21
-0.254805
 31
0.0
 12
5.171115
 22
-0.374805
 32
0.0
 13
5.171115
 23
-0.374805
 33
0.0
  0
LINE
  5
7D5
  8
0
  6
BYBLOCK
 62
     0
 10
5.171115
 20
-0.254805
 30
0.0
 11
5.171115
 21
-0.152505
 31
0.0
  0
SOLID
  5
7D6
  8
0
  6
BYBLOCK
 62
     0
 10
5.151115
 20
0.254795
 30
0.0
 11
5.191115
 21
0.254795
 31
0.0
 12
5.171115
 22
0.374795
 32
0.0
 13
5.171115
 23
0.374795
 33
0.0
  0
LINE
  5
7D7
  8
0
  6
BYBLOCK
 62
     0
 10
5.171115
 20
0.254795
 30
0.0
 11
5.171115
 21
0.152495
 31
0.0
  0
LINE
  5
7D8
  8
0
  6
BYBLOCK
 62
     0
 10
5.886838
 20
0.754995
 30
0.0
 11
5.886838
 21
0.152495
 31
0.0
  0
TEXT
  5
7D9
  8
0
  6
BYBLOCK
 62
     0
 10
5.720172
 20
-0.062505
 30
0.0
 40
0.125
  1
1.75
 72
     4
 11
5.886838
 21
-0.000005
 31
0.0
  0
SOLID
  5
7DA
  8
0
  6
BYBLOCK
 62
     0
 10
5.866838
 20
0.754995
 30
0.0
 11
5.906838
 21
0.754995
 31
0.0
 12
5.886838
 22
0.874995
 32
0.0
 13
5.886838
 23
0.874995
 33
0.0
  0
LINE
  5
7DB
  8
0
  6
BYBLOCK
 62
     0
 10
4.513364
 20
-0.875005
 30
0.0
 11
5.931838
 21
-0.875005
 31
0.0
  0
LINE
  5
7DC
  8
0
  6
BYBLOCK
 62
     0
 10
4.214586
 20
0.874995
 30
0.0
 11
5.931838
 21
0.874995
 31
0.0
  0
LINE
  5
7DD
  8
H
 10
3.187
 20
0.1575
 30
0.0
 11
3.999
 21
0.1575
 31
0.0
  0
LINE
  5
7DE
  8
H
 10
3.187
 20
-0.1575
 30
0.0
 11
3.999
 21
-0.1575
 31
0.0
  0
LINE
  5
7DF
  8
H
 10
3.536468
 20
-0.3448
 30
0.0
 11
3.566468
 21
-0.3748
 31
0.0
  0
ARC
  5
7E0
  8
H
 10
3.49
 20
-0.3648
 30
0.0
 40
0.02
 50
90.0
 51
180.0
  0
LINE
  5
7E1
  8
H
 10
3.47
 20
-0.411268
 30
0.0
 11
3.47
 21
-0.3648
 31
0.0
  0
LINE
  5
7E2
  8
H
 10
3.47
 20
-0.411268
 30
0.0
 11
3.5
 21
-0.441268
 31
0.0
  0
LINE
  5
7E3
  8
H
 10
3.49
 20
-0.3448
 30
0.0
 11
3.536468
 21
-0.3448
 31
0.0
  0
LINE
  5
7E4
  8
H
 10
3.47
 20
0.411268
 30
0.0
 11
3.5
 21
0.441268
 31
0.0
  0
ARC
  5
7E5
  8
H
 10
3.49
 20
0.3648
 30
0.0
 40
0.02
 50
180.0
 51
270.0
  0
LINE
  5
7E6
  8
H
 10
3.49
 20
0.3448
 30
0.0
 11
3.536468
 21
0.3448
 31
0.0
  0
LINE
  5
7E7
  8
H
 10
3.536468
 20
0.3448
 30
0.0
 11
3.566468
 21
0.3748
 31
0.0
  0
LINE
  5
7E8
  8
L
 10
3.566468
 20
0.3748
 30
0.0
 11
4.147
 21
0.3748
 31
0.0
  0
LINE
  5
7EC
  8
H
 10
3.187
 20
0.1575
 30
0.0
 11
2.889566
 21
0.1575
 31
0.0
  0
LINE
  5
7ED
  8
H
 10
3.187
 20
-0.1575
 30
0.0
 11
2.889566
 21
-0.1575
 31
0.0
  0
LINE
  5
7EE
  8
H
 10
3.5
 20
-0.4687
 30
0.0
 11
3.307077
 21
-0.4687
 31
0.0
  0
LINE
  5
7EF
  8
H
 10
3.5
 20
-0.7813
 30
0.0
 11
3.307077
 21
-0.7813
 31
0.0
  0
LINE
  5
7F0
  8
0
 10
3.510003
 20
-0.875005
 30
0.0
 11
4.861795
 21
-0.875005
 31
0.0
  0
LINE
  5
C9A
  8
C50_1$0$L
 10
0.72
 20
-1.9375
 30
0.0
 11
0.75
 21
-1.9075
 31
0.0
  0
LINE
  5
C9B
  8
C50_1$0$L
 10
0.78
 20
1.375
 30
0.0
 11
1.287974
 21
1.375
 31
0.0
  0
ARC
  5
C9C
  8
C50_1$0$L
 10
0.78
 20
1.405
 30
0.0
 40
0.03
 50
180.0
 51
270.0
  0
LINE
  5
C9D
  8
C50_1$0$L
 10
0.75
 20
0.0
 30
0.0
 11
0.75
 21
1.907502
 31
0.0
  0
LINE
  5
C9E
  8
C50_1$0$L
 10
0.72
 20
0.51
 30
0.0
 11
0.72
 21
1.937502
 31
0.0
  0
LINE
  5
C9F
  8
C50_1$0$L
 10
0.72
 20
1.937502
 30
0.0
 11
0.75
 21
1.907502
 31
0.0
  0
LINE
  5
CA0
  8
C50_1$0$L
 10
0.75
 20
0.0
 30
0.0
 11
0.75
 21
-1.907502
 31
0.0
  0
LINE
  5
CA1
  8
C50_1$0$L
 10
0.72
 20
-0.51
 30
0.0
 11
0.72
 21
-1.937502
 31
0.0
  0
POINT
  5
CA2
  8
DEFPOINTS
  6
BYBLOCK
 62
     0
 10
0.75
 20
-1.907502
 30
0.0
  0
LINE
  5
CA3
  8
C50_1$0$L
 10
0.72
 20
-1.937502
 30
0.0
 11
0.75
 21
-1.907502
 31
0.0
  0
LINE
  5
CA4
  8
C50_1$0$L
 10
0.78
 20
-1.375
 30
0.0
 11
1.287974
 21
-1.375
 31
0.0
  0
ARC
  5
CA5
  8
C50_1$0$L
 10
0.78
 20
-1.405
 30
0.0
 40
0.03
 50
90.0
 51
180.0
  0
LINE
  5
CA7
  8
C50_1$0$L
 10
0.695204
 20
0.51
 30
0.0
 11
0.75
 21
0.51
 31
0.0
  0
LINE
  5
CA8
  8
C50_1$0$L
 10
0.695204
 20
-0.51
 30
0.0
 11
0.75
 21
-0.51
 31
0.0
  0
LINE
  5
CA9
  8
C50_BASE$0$L
 10
0.0
 20
0.0
 30
0.0
 11
0.0
 21
-1.375
 31
0.0
  0
LINE
  5
CAA
  8
C50_BASE$0$L
 10
0.0
 20
-1.375
 30
0.0
 11
-3.897317
 21
-0.806641
 31
0.0
  0
LINE
  5
CAB
  8
C50_BASE$0$L
 10
0.0
 20
-1.375
 30
0.0
 11
0.105
 21
-1.375
 31
0.0
  0
ARC
  5
CAC
  8
C50_BASE$0$L
 10
-3.88241
 20
0.69
 30
0.0
 40
0.11759
 50
97.282949
 51
180.0
  0
LINE
  5
CAD
  8
C50_BASE$0$H
 10
-4.0
 20
0.5625
 30
0.0
 11
-3.918594
 21
0.5155
 31
0.0
  0
LINE
  5
CAE
  8
C50_BASE$0$H
 10
-4.0
 20
-0.5625
 30
0.0
 11
-3.918594
 21
-0.5155
 31
0.0
  0
ARC
  5
CAF
  8
C50_BASE$0$L
 10
-3.88241
 20
-0.69
 30
0.0
 40
0.11759
 50
180.0
 51
262.717051
  0
LINE
  5
CB0
  8
C50_BASE$0$L
 10
-4.0
 20
-0.69
 30
0.0
 11
-4.0
 21
0.69
 31
0.0
  0
LINE
  5
CB1
  8
C50_BASE$0$L
 10
0.0
 20
1.375
 30
0.0
 11
-3.897317
 21
0.806641
 31
0.0
  0
LINE
  5
CB2
  8
C50_BASE$0$H
 10
-3.75
 20
-0.5
 30
0.0
 11
-2.25
 21
-0.5
 31
0.0
  0
LINE
  5
CB3
  8
C50_BASE$0$H
 10
-3.75
 20
-0.4375
 30
0.0
 11
-2.25
 21
-0.4375
 31
0.0
  0
LINE
  5
CB4
  8
C50_BASE$0$H
 10
-3.75
 20
0.4375
 30
0.0
 11
-2.25
 21
0.4375
 31
0.0
  0
LINE
  5
CB5
  8
C50_BASE$0$H
 10
-3.75
 20
0.5
 30
0.0
 11
-2.25
 21
0.5
 31
0.0
  0
LINE
  5
CB6
  8
C50_BASE$0$H
 10
-3.918594
 20
0.5155
 30
0.0
 11
-3.918594
 21
-0.0025
 31
0.0
  0
LINE
  5
CB7
  8
C50_BASE$0$H
 10
-3.75
 20
0.0
 30
0.0
 11
-3.75
 21
0.5155
 31
0.0
  0
LINE
  5
CB8
  8
C50_BASE$0$H
 10
-3.75
 20
0.0
 30
0.0
 11
-3.75
 21
-0.5155
 31
0.0
  0
LINE
  5
CB9
  8
C50_BASE$0$H
 10
-3.918594
 20
-0.5155
 30
0.0
 11
-3.918594
 21
0.0025
 31
0.0
  0
LINE
  5
CBA
  8
C50_BASE$0$H
 10
-3.918594
 20
-0.5155
 30
0.0
 11
-3.75
 21
-0.5155
 31
0.0
  0
LINE
  5
CBB
  8
C50_BASE$0$H
 10
-3.918594
 20
0.5155
 30
0.0
 11
-3.75
 21
0.5155
 31
0.0
  0
LINE
  5
CBC
  8
C50_BASE$0$H
 10
-2.25
 20
0.5
 30
0.0
 11
-2.25
 21
-0.5
 31
0.0
  0
LINE
  5
CBD
  8
C50_BASE$0$L
 10
0.0
 20
0.0
 30
0.0
 11
0.0
 21
1.375
 31
0.0
  0
CIRCLE
  5
CBE
  8
C50_BASE$0$L
 10
0.44
 20
0.0
 30
0.0
 40
0.1875
  0
LINE
  5
CBF
  8
C50_BASE$0$L
 10
0.125
 20
0.51
 30
0.0
 11
0.695204
 21
0.51
 31
0.0
  0
LINE
  5
CC0
  8
C50_BASE$0$L
 10
0.0
 20
1.375
 30
0.0
 11
0.105
 21
1.375
 31
0.0
  0
POINT
  5
CC1
  8
DEFPOINTS
  6
BYBLOCK
 62
     0
 10
0.0
 20
1.375
 30
0.0
  0
POINT
  5
CC2
  8
DEFPOINTS
  6
BYBLOCK
 62
     0
 10
0.0
 20
-1.375
 30
0.0
  0
POINT
  5
CC3
  8
DEFPOINTS
  6
BYBLOCK
 62
     0
 10
0.0
 20
1.375
 30
0.0
  0
LINE
  5
CC4
  8
C50_BASE$0$L
 10
0.125
 20
-1.9075
 30
0.0
 11
0.125
 21
1.9075
 31
0.0
  0
LINE
  5
CC5
  8
C50_BASE$0$L
 10
0.5155
 20
0.51
 30
0.0
 11
0.5155
 21
1.827515
 31
0.0
  0
LINE
  5
CC6
  8
C50_BASE$0$L
 10
0.3645
 20
0.51
 30
0.0
 11
0.3645
 21
1.827515
 31
0.0
  0
LINE
  5
CC7
  8
C50_BASE$0$L
 10
0.579
 20
0.51
 30
0.0
 11
0.579
 21
1.9375
 31
0.0
  0
LINE
  5
CC8
  8
C50_BASE$0$L
 10
0.301
 20
0.51
 30
0.0
 11
0.301
 21
1.9375
 31
0.0
  0
LINE
  5
CC9
  8
C50_BASE$0$L
 10
0.579
 20
1.9375
 30
0.0
 11
0.5155
 21
1.827515
 31
0.0
  0
LINE
  5
CCA
  8
C50_BASE$0$L
 10
0.301
 20
1.9375
 30
0.0
 11
0.3645
 21
1.827515
 31
0.0
  0
LINE
  5
CCB
  8
C50_BASE$0$L
 10
0.579
 20
1.9375
 30
0.0
 11
0.72
 21
1.9375
 31
0.0
  0
LINE
  5
CCC
  8
C50_BASE$0$L
 10
0.301
 20
1.9375
 30
0.0
 11
0.155
 21
1.9375
 31
0.0
  0
LINE
  5
CCD
  8
C50_BASE$0$L
 10
0.155
 20
0.51
 30
0.0
 11
0.155
 21
1.9375
 31
0.0
  0
LINE
  5
CCE
  8
C50_BASE$0$L
 10
0.125
 20
1.9075
 30
0.0
 11
0.155
 21
1.9375
 31
0.0
  0
LINE
  5
CCF
  8
C50_BASE$0$L
 10
0.5155
 20
1.797
 30
0.0
 11
0.3645
 21
1.797
 31
0.0
  0
ARC
  5
CD0
  8
C50_BASE$0$L
 10
0.105
 20
1.395
 30
0.0
 40
0.02
 50
270.0
 51
0.0
  0
LINE
  5
CD1
  8
C50_BASE$0$L
 10
0.579
 20
-0.51
 30
0.0
 11
0.579
 21
-1.9375
 31
0.0
  0
LINE
  5
CD2
  8
C50_BASE$0$L
 10
0.5155
 20
-0.51
 30
0.0
 11
0.5155
 21
-1.827515
 31
0.0
  0
LINE
  5
CD3
  8
C50_BASE$0$L
 10
0.3645
 20
-0.51
 30
0.0
 11
0.3645
 21
-1.827515
 31
0.0
  0
LINE
  5
CD4
  8
C50_BASE$0$L
 10
0.301
 20
-0.51
 30
0.0
 11
0.301
 21
-1.9375
 31
0.0
  0
LINE
  5
CD5
  8
C50_BASE$0$L
 10
0.155
 20
-0.51
 30
0.0
 11
0.155
 21
-1.9375
 31
0.0
  0
LINE
  5
CD6
  8
C50_BASE$0$L
 10
0.579
 20
-1.9375
 30
0.0
 11
0.72
 21
-1.9375
 31
0.0
  0
LINE
  5
CD7
  8
C50_BASE$0$L
 10
0.301
 20
-1.9375
 30
0.0
 11
0.3645
 21
-1.827515
 31
0.0
  0
LINE
  5
CD8
  8
C50_BASE$0$L
 10
0.579
 20
-1.9375
 30
0.0
 11
0.5155
 21
-1.827515
 31
0.0
  0
LINE
  5
CD9
  8
C50_BASE$0$L
 10
0.301
 20
-1.9375
 30
0.0
 11
0.155
 21
-1.9375
 31
0.0
  0
LINE
  5
CDA
  8
C50_BASE$0$L
 10
0.125
 20
-1.9075
 30
0.0
 11
0.155
 21
-1.9375
 31
0.0
  0
LINE
  5
CDB
  8
C50_BASE$0$L
 10
0.5155
 20
-1.797
 30
0.0
 11
0.3645
 21
-1.797
 31
0.0
  0
LINE
  5
CDC
  8
C50_BASE$0$L
 10
0.125
 20
-0.51
 30
0.0
 11
0.695204
 21
-0.51
 31
0.0
  0
ARC
  5
CDD
  8
C50_BASE$0$L
 10
0.105
 20
-1.395
 30
0.0
 40
0.02
 50
0.0
 51
90.0
  0
SOLID
  5
CDE
  8
C50_BASE$0$D
 10
-0.371748
 20
1.44279
 30
0.0
 11
-0.408045
 21
1.425982
 31
0.0
 12
-0.339474
 22
1.325493
 32
0.0
 13
-0.339474
 23
1.325493
 33
0.0
  0
LINE
  5
CDF
  8
C50_BASE$0$D
 10
-0.389896
 20
1.434386
 30
0.0
 11
-1.092609
 21
2.951982
 31
0.0
  0
LINE
  5
CE0
  8
C50_BASE$0$D
 10
-1.092609
 20
2.951982
 30
0.0
 11
-1.225138
 21
2.951982
 31
0.0
  0
TEXT
  5
CE1
  8
C50_BASE$0$D
 10
-2.677478
 20
2.903767
 30
0.0
 40
0.125
  1
50 V-FLANGE
  7
C50_BASE$0$STANDARD
 72
     2
 11
-1.323312
 21
2.966267
 31
0.0
 73
     2
  0
TEXT
  5
CE2
  8
C50_BASE$0$D
 10
-3.030563
 20
2.905161
 30
0.0
 40
0.09
  1
CAT
  7
C50_BASE$0$STANDARD
 72
     2
 11
-2.790563
 21
2.950161
 31
0.0
 73
     2
  0
POLYLINE
  5
EA2
  8
H
 66
     1
 10
0.0
 20
0.0
 30
0.0
  0
VERTEX
  5
12C2
  8
H
 10
4.103646
 20
0.1875
 30
0.0
  0
VERTEX
  5
12C3
  8
H
 10
4.103646
 20
-0.1875
 30
0.0
  0
SEQEND
  5
12C4
  8
H
  0
POLYLINE
  5
EA3
  8
L
 66
     1
 10
0.0
 20
0.0
 30
0.0
  0
VERTEX
  5
12C5
  8
L
 10
4.513646
 20
-0.44
 30
0.0
  0
VERTEX
  5
12C6
  8
L
 10
4.513646
 20
0.0
 30
0.0
  0
SEQEND
  5
12C7
  8
L
  0
POLYLINE
  5
EA4
  8
L
 66
     1
 10
0.0
 20
0.0
 30
0.0
  0
VERTEX
  5
12C8
  8
L
 10
4.233646
 20
-0.44
 30
0.0
  0
VERTEX
  5
12C9
  8
L
 10
4.233646
 20
0.0
 30
0.0
  0
SEQEND
  5
12CA
  8
L
  0
POLYLINE
  5
EA5
  8
L
 66
     1
 10
0.0
 20
0.0
 30
0.0
  0
VERTEX
  5
12CB
  8
L
 10
4.203646
 20
-0.125
 30
0.0
  0
VERTEX
  5
12CC
  8
L
 10
4.203646
 20
0.0
 30
0.0
  0
SEQEND
  5
12CD
  8
L
  0
POLYLINE
  5
EA6
  8
H
 66
     1
 10
0.0
 20
0.0
 30
0.0
  0
VERTEX
  5
12CE
  8
H
 10
3.603646
 20
-0.1875
 30
0.0
  0
VERTEX
  5
12CF
  8
H
 10
3.603646
 20
0.0
 30
0.0
  0
SEQEND
  5
12D0
  8
H
  0
POLYLINE
  5
EA7
  8
H
 66
     1
 10
0.0
 20
0.0
 30
0.0
  0
VERTEX
  5
12D1
  8
H
 10
3.603646
 20
0.1875
 30
0.0
  0
VERTEX
  5
12D2
  8
H
 10
3.603646
 20
0.0
 30
0.0
  0
SEQEND
  5
12D3
  8
H
  0
POLYLINE
  5
EA8
  8
L
 66
     1
 10
0.0
 20
0.0
 30
0.0
  0
VERTEX
  5
12D4
  8
L
 10
4.203646
 20
0.125
 30
0.0
  0
VERTEX
  5
12D5
  8
L
 10
4.203646
 20
0.0
 30
0.0
  0
SEQEND
  5
12D6
  8
L
  0
POLYLINE
  5
EA9
  8
L
 66
     1
 10
0.0
 20
0.0
 30
0.0
  0
VERTEX
  5
12D7
  8
L
 10
4.233646
 20
0.44
 30
0.0
  0
VERTEX
  5
12D8
  8
L
 10
4.233646
 20
0.0
 30
0.0
  0
SEQEND
  5
12D9
  8
L
  0
POLYLINE
  5
EAA
  8
L
 66
     1
 10
0.0
 20
0.0
 30
0.0
  0
VERTEX
  5
12DA
  8
L
 10
4.513646
 20
0.44
 30
0.0
  0
VERTEX
  5
12DB
  8
L
 10
4.513646
 20
0.0
 30
0.0
  0
SEQEND
  5
12DC
  8
L
  0
LINE
  5
EAB
  8
H
 10
3.573646
 20
0.0
 30
0.0
 11
3.573646
 21
0.1575
 31
0.0
  0
LINE
  5
EAC
  8
H
 10
3.573646
 20
0.1575
 30
0.0
 11
3.603646
 21
0.1875
 31
0.0
  0
LINE
  5
EAD
  8
H
 10
3.603646
 20
0.1875
 30
0.0
 11
4.203646
 21
0.1875
 31
0.0
  0
LINE
  5
EAE
  8
L
 10
4.203646
 20
0.125
 30
0.0
 11
4.203646
 21
0.41
 31
0.0
  0
LINE
  5
EAF
  8
L
 10
4.203646
 20
0.41
 30
0.0
 11
4.233646
 21
0.44
 31
0.0
  0
LINE
  5
EB0
  8
L
 10
4.233646
 20
0.44
 30
0.0
 11
4.513646
 21
0.44
 31
0.0
  0
LINE
  5
EB1
  8
L
 10
4.513646
 20
0.44
 30
0.0
 11
4.543646
 21
0.41
 31
0.0
  0
LINE
  5
EB2
  8
L
 10
4.543646
 20
0.41
 30
0.0
 11
4.543646
 21
0.0
 31
0.0
  0
LINE
  5
EB3
  8
H
 10
3.573646
 20
0.0
 30
0.0
 11
3.573646
 21
-0.1575
 31
0.0
  0
LINE
  5
EB4
  8
H
 10
3.573646
 20
-0.1575
 30
0.0
 11
3.603646
 21
-0.1875
 31
0.0
  0
LINE
  5
EB5
  8
H
 10
3.603646
 20
-0.1875
 30
0.0
 11
4.203646
 21
-0.1875
 31
0.0
  0
LINE
  5
EB6
  8
L
 10
4.203646
 20
-0.125
 30
0.0
 11
4.203646
 21
-0.41
 31
0.0
  0
LINE
  5
EB7
  8
L
 10
4.203646
 20
-0.41
 30
0.0
 11
4.233646
 21
-0.44
 31
0.0
  0
LINE
  5
EB8
  8
L
 10
4.233646
 20
-0.44
 30
0.0
 11
4.513646
 21
-0.44
 31
0.0
  0
LINE
  5
EB9
  8
L
 10
4.513646
 20
-0.44
 30
0.0
 11
4.543646
 21
-0.41
 31
0.0
  0
LINE
  5
EBA
  8
L
 10
4.543646
 20
-0.41
 30
0.0
 11
4.543646
 21
0.0
 31
0.0
  0
LINE
  5
EBB
  8
H
 10
3.573646
 20
0.1575
 30
0.0
 11
4.103646
 21
0.1575
 31
0.0
  0
LINE
  5
EBC
  8
H
 10
3.573646
 20
-0.1575
 30
0.0
 11
4.103646
 21
-0.1575
 31
0.0
  0
INSERT
  5
EBD
  8
L
  2
HEX_LS
 10
4.543646
 20
0.0
 30
0.0
 41
0.5
 42
0.5
 43
0.5
  0
INSERT
  5
EBE
  8
DIM_ATT
 66
     1
  2
ATT_BLK
 10
-12.827975
 20
-8.1443
 30
0.0
 43
-1.0
 50
180.0
210
0.0
220
0.0
230
-1.0
  0
ATTRIB
  5
EBF
  8
DIM_ATT
 10
12.827975
 20
-8.2793
 30
0.0
 40
0.09
  1
HOR
 51
-180.0
 71
     4
  2
TYPE
 70
     1
  0
ATTRIB
  5
EC0
  8
DIM_ATT
 10
12.827975
 20
-8.1443
 30
0.0
 40
0.09
  1
.16
 51
-180.0
 71
     4
  2
A1
 70
     1
  0
ATTRIB
  5
EC1
  8
DIM_ATT
 10
12.827975
 20
-8.0093
 30
0.0
 40
0.09
  1
5.957400,7.519300
 51
-180.0
 71
     4
  2
A2
 70
     1
  0
ATTRIB
  5
EC2
  8
DIM_ATT
 10
12.827975
 20
-7.8743
 30
0.0
 40
0.09
  1
6.117400,7.488300
 51
-180.0
 71
     4
  2
A3
 70
     1
  0
ATTRIB
  5
EC3
  8
DIM_ATT
 10
12.827975
 20
-7.7393
 30
0.0
 40
0.09
  1
1.000000,8.817400
 51
-180.0
 71
     4
  2
A4
 70
     1
  0
ATTRIB
  5
EC4
  8
DIM_ATT
 10
12.827975
 20
-7.6043
 30
0.0
 40
0.09
  1

 51
-180.0
 71
     4
  2
A5
 70
     1
  0
ATTRIB
  5
EC5
  8
DIM_ATT
 10
12.827975
 20
-7.4693
 30
0.0
 40
0.09
  1
DIMFIX
 51
-180.0
 71
     4
  2
A6
 70
     1
  0
ATTRIB
  5
EC6
  8
DIM_ATT
 10
12.827975
 20
-7.3343
 30
0.0
 40
0.09
  1
0
 51
-180.0
 71
     4
  2
A7
 70
     1
  0
ATTRIB
  5
EC7
  8
DIM_ATT
 10
12.827975
 20
-7.1993
 30
0.0
 40
0.09
  1
0
 51
-180.0
 71
     4
  2
A8
 70
     1
  0
SEQEND
  5
EC8
  8
DIM_ATT
  0
INSERT
  5
EC9
  8
DIM_ATT
 66
     1
  2
ATT_BLK
 10
-13.267975
 20
-7.8203
 30
0.0
 43
-1.0
 50
180.0
210
0.0
220
0.0
230
-1.0
  0
ATTRIB
  5
ECA
  8
DIM_ATT
 10
13.267975
 20
-7.9553
 30
0.0
 40
0.09
  1
HOR
 51
-180.0
 71
     4
  2
TYPE
 70
     1
  0
ATTRIB
  5
ECB
  8
DIM_ATT
 10
13.267975
 20
-7.8203
 30
0.0
 40
0.09
  1
.09
 51
-180.0
 71
     4
  2
A1
 70
     1
  0
ATTRIB
  5
ECC
  8
DIM_ATT
 10
13.267975
 20
-7.6853
 30
0.0
 40
0.09
  1
6.487400,7.225300
 51
-180.0
 71
     4
  2
A2
 70
     1
  0
ATTRIB
  5
ECD
  8
DIM_ATT
 10
13.267975
 20
-7.5503
 30
0.0
 40
0.09
  1
6.397400,7.195300
 51
-180.0
 71
     4
  2
A3
 70
     1
  0
ATTRIB
  5
ECE
  8
DIM_ATT
 10
13.267975
 20
-7.4153
 30
0.0
 40
0.09
  1
1.000000,6.291800
 51
-180.0
 71
     4
  2
A4
 70
     1
  0
ATTRIB
  5
ECF
  8
DIM_ATT
 10
13.267975
 20
-7.2803
 30
0.0
 40
0.09
  1

 51
-180.0
 71
     4
  2
A5
 70
     1
  0
ATTRIB
  5
ED0
  8
DIM_ATT
 10
13.267975
 20
-7.1453
 30
0.0
 40
0.09
  1
DIMFIX
 51
-180.0
 71
     4
  2
A6
 70
     1
  0
ATTRIB
  5
ED1
  8
DIM_ATT
 10
13.267975
 20
-7.0103
 30
0.0
 40
0.09
  1
0
 51
-180.0
 71
     4
  2
A7
 70
     1
  0
ATTRIB
  5
ED2
  8
DIM_ATT
 10
13.267975
 20
-6.8753
 30
0.0
 40
0.09
  1
0
 51
-180.0
 71
     4
  2
A8
 70
     1
  0
SEQEND
  5
ED3
  8
DIM_ATT
  0
INSERT
  5
ED4
  8
DIM_ATT
 66
     1
  2
ATT_BLK
 10
-12.827975
 20
-7.8093
 30
0.0
 43
-1.0
 50
180.0
210
0.0
220
0.0
230
-1.0
  0
ATTRIB
  5
ED5
  8
DIM_ATT
 10
12.827975
 20
-7.9443
 30
0.0
 40
0.09
  1
HOR
 51
-180.0
 71
     4
  2
TYPE
 70
     1
  0
ATTRIB
  5
ED6
  8
DIM_ATT
 10
12.827975
 20
-7.8093
 30
0.0
 40
0.09
  1
.530
 51
-180.0
 71
     4
  2
A1
 70
     1
  0
ATTRIB
  5
ED7
  8
DIM_ATT
 10
12.827975
 20
-7.6743
 30
0.0
 40
0.09
  1
5.957400,7.184300
 51
-180.0
 71
     4
  2
A2
 70
     1
  0
ATTRIB
  5
ED8
  8
DIM_ATT
 10
12.827975
 20
-7.5393
 30
0.0
 40
0.09
  1
6.487400,7.225300
 51
-180.0
 71
     4
  2
A3
 70
     1
  0
ATTRIB
  5
ED9
  8
DIM_ATT
 10
12.827975
 20
-7.4043
 30
0.0
 40
0.09
  1
1.000000,5.040600
 51
-180.0
 71
     4
  2
A4
 70
     1
  0
ATTRIB
  5
EDA
  8
DIM_ATT
 10
12.827975
 20
-7.2693
 30
0.0
 40
0.09
  1

 51
-180.0
 71
     4
  2
A5
 70
     1
  0
ATTRIB
  5
EDB
  8
DIM_ATT
 10
12.827975
 20
-7.1343
 30
0.0
 40
0.09
  1
DIMFIX
 51
-180.0
 71
     4
  2
A6
 70
     1
  0
ATTRIB
  5
EDC
  8
DIM_ATT
 10
12.827975
 20
-6.9993
 30
0.0
 40
0.09
  1
0
 51
-180.0
 71
     4
  2
A7
 70
     1
  0
ATTRIB
  5
EDD
  8
DIM_ATT
 10
12.827975
 20
-6.8643
 30
0.0
 40
0.09
  1
0
 51
-180.0
 71
     4
  2
A8
 70
     1
  0
SEQEND
  5
EDE
  8
DIM_ATT
  0
INSERT
  5
EDF
  8
DIM_ATT
 66
     1
  2
ATT_BLK
 10
-16.394975
 20
-7.9768
 30
0.0
 43
-1.0
 50
180.0
210
0.0
220
0.0
230
-1.0
  0
ATTRIB
  5
EE0
  8
DIM_ATT
 10
16.394975
 20
-8.1118
 30
0.0
 40
0.09
  1
HOR
 51
-180.0
 71
     4
  2
TYPE
 70
     1
  0
ATTRIB
  5
EE1
  8
DIM_ATT
 10
16.394975
 20
-7.9768
 30
0.0
 40
0.09
  1
0.18750
 51
-180.0
 71
     4
  2
A1
 70
     1
  0
ATTRIB
  5
EE2
  8
DIM_ATT
 10
16.394975
 20
-7.8418
 30
0.0
 40
0.09
  1
9.524400,7.351800
 51
-180.0
 71
     4
  2
A2
 70
     1
  0
ATTRIB
  5
EE3
  8
DIM_ATT
 10
16.394975
 20
-7.7068
 30
0.0
 40
0.09
  1
9.711900,6.286400
 51
-180.0
 71
     4
  2
A3
 70
     1
  0
ATTRIB
  5
EE4
  8
DIM_ATT
 10
16.394975
 20
-7.5718
 30
0.0
 40
0.09
  1
1.000000,6.219900
 51
-180.0
 71
     4
  2
A4
 70
     1
  0
ATTRIB
  5
EE5
  8
DIM_ATT
 10
16.394975
 20
-7.4368
 30
0.0
 40
0.09
  1

 51
-180.0
 71
     4
  2
A5
 70
     1
  0
ATTRIB
  5
EE6
  8
DIM_ATT
 10
16.394975
 20
-7.3018
 30
0.0
 40
0.09
  1
DIMFIX
 51
-180.0
 71
     4
  2
A6
 70
     1
  0
ATTRIB
  5
EE7
  8
DIM_ATT
 10
16.394975
 20
-7.1668
 30
0.0
 40
0.09
  1
0
 51
-180.0
 71
     4
  2
A7
 70
     1
  0
ATTRIB
  5
EE8
  8
DIM_ATT
 10
16.394975
 20
-7.0318
 30
0.0
 40
0.09
  1
0
 51
-180.0
 71
     4
  2
A8
 70
     1
  0
SEQEND
  5
EE9
  8
DIM_ATT
  0
INSERT
  5
EEA
  8
DIM_ATT
 66
     1
  2
ATT_BLK
 10
-16.582475
 20
-7.051
 30
0.0
 43
-1.0
 50
180.0
210
0.0
220
0.0
230
-1.0
  0
ATTRIB
  5
EEB
  8
DIM_ATT
 10
16.582475
 20
-7.186
 30
0.0
 40
0.09
  1
HOR
 51
-180.0
 71
     4
  2
TYPE
 70
     1
  0
ATTRIB
  5
EEC
  8
DIM_ATT
 10
16.582475
 20
-7.051
 30
0.0
 40
0.09
  1
0.18750
 51
-180.0
 71
     4
  2
A1
 70
     1
  0
ATTRIB
  5
EED
  8
DIM_ATT
 10
16.582475
 20
-6.916
 30
0.0
 40
0.09
  1
9.899400,7.351800
 51
-180.0
 71
     4
  2
A2
 70
     1
  0
ATTRIB
  5
EEE
  8
DIM_ATT
 10
16.582475
 20
-6.781
 30
0.0
 40
0.09
  1
9.711900,6.426000
 51
-180.0
 71
     4
  2
A3
 70
     1
  0
ATTRIB
  5
EEF
  8
DIM_ATT
 10
16.582475
 20
-6.646
 30
0.0
 40
0.09
  1
1.000000,6.426000
 51
-180.0
 71
     4
  2
A4
 70
     1
  0
ATTRIB
  5
EF0
  8
DIM_ATT
 10
16.582475
 20
-6.511
 30
0.0
 40
0.09
  1

 51
-180.0
 71
     4
  2
A5
 70
     1
  0
ATTRIB
  5
EF1
  8
DIM_ATT
 10
16.582475
 20
-6.376
 30
0.0
 40
0.09
  1
DIMFIX
 51
-180.0
 71
     4
  2
A6
 70
     1
  0
ATTRIB
  5
EF2
  8
DIM_ATT
 10
16.582475
 20
-6.241
 30
0.0
 40
0.09
  1
0
 51
-180.0
 71
     4
  2
A7
 70
     1
  0
ATTRIB
  5
EF3
  8
DIM_ATT
 10
16.582475
 20
-6.106
 30
0.0
 40
0.09
  1
0
 51
-180.0
 71
     4
  2
A8
 70
     1
  0
SEQEND
  5
EF4
  8
DIM_ATT
  0
INSERT
  5
EF5
  8
DIM_ATT
 66
     1
  2
ATT_BLK
 10
-13.357975
 20
-7.9768
 30
0.0
 43
-1.0
 50
180.0
210
0.0
220
0.0
230
-1.0
  0
ATTRIB
  5
EF6
  8
DIM_ATT
 10
13.357975
 20
-8.1118
 30
0.0
 40
0.09
  1
VER
 51
-180.0
 71
     4
  2
TYPE
 70
     1
  0
ATTRIB
  5
EF7
  8
DIM_ATT
 10
13.357975
 20
-7.9768
 30
0.0
 40
0.09
  1
0.15650
 51
-180.0
 71
     4
  2
A1
 70
     1
  0
ATTRIB
  5
EF8
  8
DIM_ATT
 10
13.357975
 20
-7.8418
 30
0.0
 40
0.09
  1
6.487400,7.351800
 51
-180.0
 71
     4
  2
A2
 70
     1
  0
ATTRIB
  5
EF9
  8
DIM_ATT
 10
13.357975
 20
-7.7068
 30
0.0
 40
0.09
  1
6.457400,7.508300
 51
-180.0
 71
     4
  2
A3
 70
     1
  0
ATTRIB
  5
EFA
  8
DIM_ATT
 10
13.357975
 20
-7.5718
 30
0.0
 40
0.09
  1
6.781800,1.000000
 51
-180.0
 71
     4
  2
A4
 70
     1
  0
ATTRIB
  5
EFB
  8
DIM_ATT
 10
13.357975
 20
-7.4368
 30
0.0
 40
0.09
  1
6.117400,1.000000
 51
-180.0
 71
     4
  2
A5
 70
     1
  0
ATTRIB
  5
EFC
  8
DIM_ATT
 10
13.357975
 20
-7.3018
 30
0.0
 40
0.09
  1
DIMFIXHIDE
 51
-180.0
 71
     4
  2
A6
 70
     1
  0
ATTRIB
  5
EFD
  8
DIM_ATT
 10
13.357975
 20
-7.1668
 30
0.0
 40
0.09
  1
0
 51
-180.0
 71
     4
  2
A7
 70
     1
  0
ATTRIB
  5
EFE
  8
DIM_ATT
 10
13.357975
 20
-7.0318
 30
0.0
 40
0.09
  1
0
 51
-180.0
 71
     4
  2
A8
 70
     1
  0
SEQEND
  5
EFF
  8
DIM_ATT
  0
INSERT
  5
F00
  8
DIM_ATT
 66
     1
  2
ATT_BLK
 10
-13.327975
 20
-7.8203
 30
0.0
 43
-1.0
 50
180.0
210
0.0
220
0.0
230
-1.0
  0
ATTRIB
  5
F01
  8
DIM_ATT
 10
13.327975
 20
-7.9553
 30
0.0
 40
0.09
  1
VER
 51
-180.0
 71
     4
  2
TYPE
 70
     1
  0
ATTRIB
  5
F02
  8
DIM_ATT
 10
13.327975
 20
-7.8203
 30
0.0
 40
0.09
  1
0.15650
 51
-180.0
 71
     4
  2
A1
 70
     1
  0
ATTRIB
  5
F03
  8
DIM_ATT
 10
13.327975
 20
-7.6853
 30
0.0
 40
0.09
  1
6.487400,7.351800
 51
-180.0
 71
     4
  2
A2
 70
     1
  0
ATTRIB
  5
F04
  8
DIM_ATT
 10
13.327975
 20
-7.5503
 30
0.0
 40
0.09
  1
6.457400,7.195300
 51
-180.0
 71
     4
  2
A3
 70
     1
  0
ATTRIB
  5
F05
  8
DIM_ATT
 10
13.327975
 20
-7.4153
 30
0.0
 40
0.09
  1
6.866900,1.000000
 51
-180.0
 71
     4
  2
A4
 70
     1
  0
ATTRIB
  5
F06
  8
DIM_ATT
 10
13.327975
 20
-7.2803
 30
0.0
 40
0.09
  1
6.367700,1.000000
 51
-180.0
 71
     4
  2
A5
 70
     1
  0
ATTRIB
  5
F07
  8
DIM_ATT
 10
13.327975
 20
-7.1453
 30
0.0
 40
0.09
  1
DIMFIXHIDE
 51
-180.0
 71
     4
  2
A6
 70
     1
  0
ATTRIB
  5
F08
  8
DIM_ATT
 10
13.327975
 20
-7.0103
 30
0.0
 40
0.09
  1
0
 51
-180.0
 71
     4
  2
A7
 70
     1
  0
ATTRIB
  5
F09
  8
DIM_ATT
 10
13.327975
 20
-6.8753
 30
0.0
 40
0.09
  1
0
 51
-180.0
 71
     4
  2
A8
 70
     1
  0
SEQEND
  5
F0A
  8
DIM_ATT
  0
INSERT
  5
F0B
  8
DIM_ATT
 66
     1
  2
ATT_BLK
 10
-12.827975
 20
-7.9768
 30
0.0
 43
-1.0
 50
180.0
210
0.0
220
0.0
230
-1.0
  0
ATTRIB
  5
F0C
  8
DIM_ATT
 10
12.827975
 20
-8.1118
 30
0.0
 40
0.09
  1
VER
 51
-180.0
 71
     4
  2
TYPE
 70
     1
  0
ATTRIB
  5
F0D
  8
DIM_ATT
 10
12.827975
 20
-7.9768
 30
0.0
 40
0.09
  1
0.18750
 51
-180.0
 71
     4
  2
A1
 70
     1
  0
ATTRIB
  5
F0E
  8
DIM_ATT
 10
12.827975
 20
-7.8418
 30
0.0
 40
0.09
  1
5.957400,7.351800
 51
-180.0
 71
     4
  2
A2
 70
     1
  0
ATTRIB
  5
F0F
  8
DIM_ATT
 10
12.827975
 20
-7.7068
 30
0.0
 40
0.09
  1
5.977400,7.539300
 51
-180.0
 71
     4
  2
A3
 70
     1
  0
ATTRIB
  5
F10
  8
DIM_ATT
 10
12.827975
 20
-7.5718
 30
0.0
 40
0.09
  1
5.567500,1.000000
 51
-180.0
 71
     4
  2
A4
 70
     1
  0
ATTRIB
  5
F11
  8
DIM_ATT
 10
12.827975
 20
-7.4368
 30
0.0
 40
0.09
  1
6.117400,1.000000
 51
-180.0
 71
     4
  2
A5
 70
     1
  0
ATTRIB
  5
F12
  8
DIM_ATT
 10
12.827975
 20
-7.3018
 30
0.0
 40
0.09
  1
DIMFIXHIDE
 51
-180.0
 71
     4
  2
A6
 70
     1
  0
ATTRIB
  5
F13
  8
DIM_ATT
 10
12.827975
 20
-7.1668
 30
0.0
 40
0.09
  1
0
 51
-180.0
 71
     4
  2
A7
 70
     1
  0
ATTRIB
  5
F14
  8
DIM_ATT
 10
12.827975
 20
-7.0318
 30
0.0
 40
0.09
  1
0
 51
-180.0
 71
     4
  2
A8
 70
     1
  0
SEQEND
  5
F15
  8
DIM_ATT
  0
INSERT
  5
F16
  8
DIM_ATT
 66
     1
  2
ATT_BLK
 10
-12.847975
 20
-7.7893
 30
0.0
 43
-1.0
 50
180.0
210
0.0
220
0.0
230
-1.0
  0
ATTRIB
  5
F17
  8
DIM_ATT
 10
12.847975
 20
-7.9243
 30
0.0
 40
0.09
  1
VER
 51
-180.0
 71
     4
  2
TYPE
 70
     1
  0
ATTRIB
  5
F18
  8
DIM_ATT
 10
12.847975
 20
-7.7893
 30
0.0
 40
0.09
  1
0.18750
 51
-180.0
 71
     4
  2
A1
 70
     1
  0
ATTRIB
  5
F19
  8
DIM_ATT
 10
12.847975
 20
-7.6543
 30
0.0
 40
0.09
  1
5.957400,7.351800
 51
-180.0
 71
     4
  2
A2
 70
     1
  0
ATTRIB
  5
F1A
  8
DIM_ATT
 10
12.847975
 20
-7.5193
 30
0.0
 40
0.09
  1
5.977400,7.164300
 51
-180.0
 71
     4
  2
A3
 70
     1
  0
ATTRIB
  5
F1B
  8
DIM_ATT
 10
12.847975
 20
-7.3843
 30
0.0
 40
0.09
  1
5.459000,1.000000
 51
-180.0
 71
     4
  2
A4
 70
     1
  0
ATTRIB
  5
F1C
  8
DIM_ATT
 10
12.847975
 20
-7.2493
 30
0.0
 40
0.09
  1
6.117400,1.000000
 51
-180.0
 71
     4
  2
A5
 70
     1
  0
ATTRIB
  5
F1D
  8
DIM_ATT
 10
12.847975
 20
-7.1143
 30
0.0
 40
0.09
  1
DIMFIXHIDE
 51
-180.0
 71
     4
  2
A6
 70
     1
  0
ATTRIB
  5
F1E
  8
DIM_ATT
 10
12.847975
 20
-6.9793
 30
0.0
 40
0.09
  1
0
 51
-180.0
 71
     4
  2
A7
 70
     1
  0
ATTRIB
  5
F1F
  8
DIM_ATT
 10
12.847975
 20
-6.8443
 30
0.0
 40
0.09
  1
0
 51
-180.0
 71
     4
  2
A8
 70
     1
  0
SEQEND
  5
F20
  8
DIM_ATT
  0
INSERT
  5
F21
  8
DIM_ATT
 66
     1
  2
ATT_BLK
 10
-12.987975
 20
-7.9768
 30
0.0
 43
-1.0
 50
180.0
210
0.0
220
0.0
230
-1.0
  0
ATTRIB
  5
F22
  8
DIM_ATT
 10
12.987975
 20
-8.1118
 30
0.0
 40
0.09
  1
VER
 51
-180.0
 71
     4
  2
TYPE
 70
     1
  0
ATTRIB
  5
F23
  8
DIM_ATT
 10
12.987975
 20
-7.9768
 30
0.0
 40
0.09
  1
0.14000
 51
-180.0
 71
     4
  2
A1
 70
     1
  0
ATTRIB
  5
F24
  8
DIM_ATT
 10
12.987975
 20
-7.8418
 30
0.0
 40
0.09
  1
6.117400,7.491800
 51
-180.0
 71
     4
  2
A2
 70
     1
  0
ATTRIB
  5
F25
  8
DIM_ATT
 10
12.987975
 20
-7.7068
 30
0.0
 40
0.09
  1
6.117400,7.351800
 51
-180.0
 71
     4
  2
A3
 70
     1
  0
ATTRIB
  5
F26
  8
DIM_ATT
 10
12.987975
 20
-7.5718
 30
0.0
 40
0.09
  1
3.628600,1.000000
 51
-180.0
 71
     4
  2
A4
 70
     1
  0
ATTRIB
  5
F27
  8
DIM_ATT
 10
12.987975
 20
-7.4368
 30
0.0
 40
0.09
  1
6.397400,1.000000
 51
-180.0
 71
     4
  2
A5
 70
     1
  0
ATTRIB
  5
F28
  8
DIM_ATT
 10
12.987975
 20
-7.3018
 30
0.0
 40
0.09
  1
DIMFIXHIDE
 51
-180.0
 71
     4
  2
A6
 70
     1
  0
ATTRIB
  5
F29
  8
DIM_ATT
 10
12.987975
 20
-7.1668
 30
0.0
 40
0.09
  1
0
 51
-180.0
 71
     4
  2
A7
 70
     1
  0
ATTRIB
  5
F2A
  8
DIM_ATT
 10
12.987975
 20
-7.0318
 30
0.0
 40
0.09
  1
0
 51
-180.0
 71
     4
  2
A8
 70
     1
  0
SEQEND
  5
F2B
  8
DIM_ATT
  0
INSERT
  5
F2C
  8
DIM_ATT
 66
     1
  2
ATT_BLK
 10
-12.987975
 20
-7.8368
 30
0.0
 43
-1.0
 50
180.0
210
0.0
220
0.0
230
-1.0
  0
ATTRIB
  5
F2D
  8
DIM_ATT
 10
12.987975
 20
-7.9718
 30
0.0
 40
0.09
  1
VER
 51
-180.0
 71
     4
  2
TYPE
 70
     1
  0
ATTRIB
  5
F2E
  8
DIM_ATT
 10
12.987975
 20
-7.8368
 30
0.0
 40
0.09
  1
0.14000
 51
-180.0
 71
     4
  2
A1
 70
     1
  0
ATTRIB
  5
F2F
  8
DIM_ATT
 10
12.987975
 20
-7.7018
 30
0.0
 40
0.09
  1
6.117400,7.351800
 51
-180.0
 71
     4
  2
A2
 70
     1
  0
ATTRIB
  5
F30
  8
DIM_ATT
 10
12.987975
 20
-7.5668
 30
0.0
 40
0.09
  1
6.117400,7.211800
 51
-180.0
 71
     4
  2
A3
 70
     1
  0
ATTRIB
  5
F31
  8
DIM_ATT
 10
12.987975
 20
-7.4318
 30
0.0
 40
0.09
  1
3.506000,1.000000
 51
-180.0
 71
     4
  2
A4
 70
     1
  0
ATTRIB
  5
F32
  8
DIM_ATT
 10
12.987975
 20
-7.2968
 30
0.0
 40
0.09
  1
6.397400,1.000000
 51
-180.0
 71
     4
  2
A5
 70
     1
  0
ATTRIB
  5
F33
  8
DIM_ATT
 10
12.987975
 20
-7.1618
 30
0.0
 40
0.09
  1
DIMFIXHIDE
 51
-180.0
 71
     4
  2
A6
 70
     1
  0
ATTRIB
  5
F34
  8
DIM_ATT
 10
12.987975
 20
-7.0268
 30
0.0
 40
0.09
  1
0
 51
-180.0
 71
     4
  2
A7
 70
     1
  0
ATTRIB
  5
F35
  8
DIM_ATT
 10
12.987975
 20
-6.8918
 30
0.0
 40
0.09
  1
0
 51
-180.0
 71
     4
  2
A8
 70
     1
  0
SEQEND
  5
F36
  8
DIM_ATT
  0
INSERT
  5
F37
  8
DIM_ATT
 66
     1
  2
ATT_BLK
 10
-13.357975
 20
-7.9768
 30
0.0
 43
-1.0
 50
180.0
210
0.0
220
0.0
230
-1.0
  0
ATTRIB
  5
F38
  8
DIM_ATT
 10
13.357975
 20
-8.1118
 30
0.0
 40
0.09
  1
VER
 51
-180.0
 71
     4
  2
TYPE
 70
     1
  0
ATTRIB
  5
F39
  8
DIM_ATT
 10
13.357975
 20
-7.9768
 30
0.0
 40
0.09
  1
0.09000
 51
-180.0
 71
     4
  2
A1
 70
     1
  0
ATTRIB
  5
F3A
  8
DIM_ATT
 10
13.357975
 20
-7.8418
 30
0.0
 40
0.09
  1
6.487400,7.441800
 51
-180.0
 71
     4
  2
A2
 70
     1
  0
ATTRIB
  5
F3B
  8
DIM_ATT
 10
13.357975
 20
-7.7068
 30
0.0
 40
0.09
  1
6.487400,7.351800
 51
-180.0
 71
     4
  2
A3
 70
     1
  0
ATTRIB
  5
F3C
  8
DIM_ATT
 10
13.357975
 20
-7.5718
 30
0.0
 40
0.09
  1
8.769500,1.000000
 51
-180.0
 71
     4
  2
A4
 70
     1
  0
ATTRIB
  5
F3D
  8
DIM_ATT
 10
13.357975
 20
-7.4368
 30
0.0
 40
0.09
  1

 51
-180.0
 71
     4
  2
A5
 70
     1
  0
ATTRIB
  5
F3E
  8
DIM_ATT
 10
13.357975
 20
-7.3018
 30
0.0
 40
0.09
  1
DIMFIXHIDE
 51
-180.0
 71
     4
  2
A6
 70
     1
  0
ATTRIB
  5
F3F
  8
DIM_ATT
 10
13.357975
 20
-7.1668
 30
0.0
 40
0.09
  1
0
 51
-180.0
 71
     4
  2
A7
 70
     1
  0
ATTRIB
  5
F40
  8
DIM_ATT
 10
13.357975
 20
-7.0318
 30
0.0
 40
0.09
  1
0
 51
-180.0
 71
     4
  2
A8
 70
     1
  0
SEQEND
  5
F41
  8
DIM_ATT
  0
INSERT
  5
F42
  8
DIM_ATT
 66
     1
  2
ATT_BLK
 10
-13.357975
 20
-7.8868
 30
0.0
 43
-1.0
 50
180.0
210
0.0
220
0.0
230
-1.0
  0
ATTRIB
  5
F43
  8
DIM_ATT
 10
13.357975
 20
-8.0218
 30
0.0
 40
0.09
  1
VER
 51
-180.0
 71
     4
  2
TYPE
 70
     1
  0
ATTRIB
  5
F44
  8
DIM_ATT
 10
13.357975
 20
-7.8868
 30
0.0
 40
0.09
  1
0.09000
 51
-180.0
 71
     4
  2
A1
 70
     1
  0
ATTRIB
  5
F45
  8
DIM_ATT
 10
13.357975
 20
-7.7518
 30
0.0
 40
0.09
  1
6.487400,7.351800
 51
-180.0
 71
     4
  2
A2
 70
     1
  0
ATTRIB
  5
F46
  8
DIM_ATT
 10
13.357975
 20
-7.6168
 30
0.0
 40
0.09
  1
6.487400,7.261800
 51
-180.0
 71
     4
  2
A3
 70
     1
  0
ATTRIB
  5
F47
  8
DIM_ATT
 10
13.357975
 20
-7.4818
 30
0.0
 40
0.09
  1
9.007100,1.000000
 51
-180.0
 71
     4
  2
A4
 70
     1
  0
ATTRIB
  5
F48
  8
DIM_ATT
 10
13.357975
 20
-7.3468
 30
0.0
 40
0.09
  1

 51
-180.0
 71
     4
  2
A5
 70
     1
  0
ATTRIB
  5
F49
  8
DIM_ATT
 10
13.357975
 20
-7.2118
 30
0.0
 40
0.09
  1
DIMFIXHIDE
 51
-180.0
 71
     4
  2
A6
 70
     1
  0
ATTRIB
  5
F4A
  8
DIM_ATT
 10
13.357975
 20
-7.0768
 30
0.0
 40
0.09
  1
0
 51
-180.0
 71
     4
  2
A7
 70
     1
  0
ATTRIB
  5
F4B
  8
DIM_ATT
 10
13.357975
 20
-6.9418
 30
0.0
 40
0.09
  1
0
 51
-180.0
 71
     4
  2
A8
 70
     1
  0
SEQEND
  5
F4C
  8
DIM_ATT
  0
INSERT
  5
F4D
  8
DIM_ATT
 66
     1
  2
ATT_BLK
 10
-17.407375
 20
-7.9768
 30
0.0
 43
-1.0
 50
180.0
210
0.0
220
0.0
230
-1.0
  0
ATTRIB
  5
F4E
  8
DIM_ATT
 10
17.407375
 20
-8.1118
 30
0.0
 40
0.09
  1
VER
 51
-180.0
 71
     4
  2
TYPE
 70
     1
  0
ATTRIB
  5
F4F
  8
DIM_ATT
 10
17.407375
 20
-7.9768
 30
0.0
 40
0.09
  1
0.18750
 51
-180.0
 71
     4
  2
A1
 70
     1
  0
ATTRIB
  5
F50
  8
DIM_ATT
 10
17.407375
 20
-7.8418
 30
0.0
 40
0.09
  1
9.711900,7.539300
 51
-180.0
 71
     4
  2
A2
 70
     1
  0
ATTRIB
  5
F51
  8
DIM_ATT
 10
17.407375
 20
-7.7068
 30
0.0
 40
0.09
  1
10.536800,7.351800
 51
-180.0
 71
     4
  2
A3
 70
     1
  0
ATTRIB
  5
F52
  8
DIM_ATT
 10
17.407375
 20
-7.5718
 30
0.0
 40
0.09
  1
10.536800,1.000000
 50
360.0
 51
-180.0
 71
     4
  2
A4
 70
     1
  0
ATTRIB
  5
F53
  8
DIM_ATT
 10
17.407375
 20
-7.4368
 30
0.0
 40
0.09
  1

 50
360.0
 51
-180.0
 71
     4
  2
A5
 70
     1
  0
ATTRIB
  5
F54
  8
DIM_ATT
 10
17.407375
 20
-7.3018
 30
0.0
 40
0.09
  1
DIMFIX
 50
360.0
 51
-180.0
 71
     4
  2
A6
 70
     1
  0
ATTRIB
  5
F55
  8
DIM_ATT
 10
17.407375
 20
-7.1668
 30
0.0
 40
0.09
  1
0
 50
360.0
 51
-180.0
 71
     4
  2
A7
 70
     1
  0
ATTRIB
  5
F56
  8
DIM_ATT
 10
17.407375
 20
-7.0318
 30
0.0
 40
0.09
  1
0
 51
-180.0
 71
     4
  2
A8
 70
     1
  0
SEQEND
  5
F57
  8
DIM_ATT
  0
INSERT
  5
F58
  8
DIM_ATT
 66
     1
  2
ATT_BLK
 10
-16.582475
 20
-7.7893
 30
0.0
 43
-1.0
 50
180.0
210
0.0
220
0.0
230
-1.0
  0
ATTRIB
  5
F59
  8
DIM_ATT
 10
16.582475
 20
-7.9243
 30
0.0
 40
0.09
  1
VER
 51
-180.0
 71
     4
  2
TYPE
 70
     1
  0
ATTRIB
  5
F5A
  8
DIM_ATT
 10
16.582475
 20
-7.7893
 30
0.0
 40
0.09
  1
0.18750
 51
-180.0
 71
     4
  2
A1
 70
     1
  0
ATTRIB
  5
F5B
  8
DIM_ATT
 10
16.582475
 20
-7.6543
 30
0.0
 40
0.09
  1
9.711900,7.164300
 51
-180.0
 71
     4
  2
A2
 70
     1
  0
ATTRIB
  5
F5C
  8
DIM_ATT
 10
16.582475
 20
-7.5193
 30
0.0
 40
0.09
  1
8.151200,7.351800
 51
-180.0
 71
     4
  2
A3
 70
     1
  0
ATTRIB
  5
F5D
  8
DIM_ATT
 10
16.582475
 20
-7.3843
 30
0.0
 40
0.09
  1
8.144900,1.000000
 51
-180.0
 71
     4
  2
A4
 70
     1
  0
ATTRIB
  5
F5E
  8
DIM_ATT
 10
16.582475
 20
-7.2493
 30
0.0
 40
0.09
  1

 51
-180.0
 71
     4
  2
A5
 70
     1
  0
ATTRIB
  5
F5F
  8
DIM_ATT
 10
16.582475
 20
-7.1143
 30
0.0
 40
0.09
  1
DIMFIX
 51
-180.0
 71
     4
  2
A6
 70
     1
  0
ATTRIB
  5
F60
  8
DIM_ATT
 10
16.582475
 20
-6.9793
 30
0.0
 40
0.09
  1
0
 51
-180.0
 71
     4
  2
A7
 70
     1
  0
ATTRIB
  5
F61
  8
DIM_ATT
 10
16.582475
 20
-6.8443
 30
0.0
 40
0.09
  1
0
 51
-180.0
 71
     4
  2
A8
 70
     1
  0
SEQEND
  5
F62
  8
DIM_ATT
  0
INSERT
  5
F63
  8
DIM_ATT
 66
     1
  2
ATT_BLK
 10
-16.551175
 20
-8.1537
 30
0.0
 43
-1.0
 50
180.0
210
0.0
220
0.0
230
-1.0
  0
ATTRIB
  5
F64
  8
DIM_ATT
 10
16.551175
 20
-8.2887
 30
0.0
 40
0.09
  1
ALI
 51
-180.0
 71
     4
  2
TYPE
 70
     1
  0
ATTRIB
  5
F65
  8
DIM_ATT
 10
16.551175
 20
-8.1537
 30
0.0
 40
0.09
  1
.309
 51
-180.0
 71
     4
  2
A1
 70
     1
  0
ATTRIB
  5
F66
  8
DIM_ATT
 10
16.551175
 20
-8.0187
 30
0.0
 40
0.09
  1
9.680600,7.528700
 51
-180.0
 71
     4
  2
A2
 70
     1
  0
ATTRIB
  5
F67
  8
DIM_ATT
 10
16.551175
 20
-7.8837
 30
0.0
 40
0.09
  1
9.888800,7.320500
 51
-180.0
 71
     4
  2
A3
 70
     1
  0
ATTRIB
  5
F68
  8
DIM_ATT
 10
16.551175
 20
-7.7487
 30
0.0
 40
0.09
  1
10.807200,8.162400
 51
-180.0
 71
     4
  2
A4
 70
     1
  0
ATTRIB
  5
F69
  8
DIM_ATT
 10
16.551175
 20
-7.6137
 30
0.0
 40
0.09
  1
0
 51
-180.0
 71
     4
  2
A5
 70
     1
  0
ATTRIB
  5
F6A
  8
DIM_ATT
 10
16.551175
 20
-7.4787
 30
0.0
 40
0.09
  1
DIMFIX
 51
-180.0
 71
     4
  2
A6
 70
     1
  0
ATTRIB
  5
F6B
  8
DIM_ATT
 10
16.551175
 20
-7.3437
 30
0.0
 40
0.09
  1
0
 51
-180.0
 71
     4
  2
A7
 70
     1
  0
ATTRIB
  5
F6C
  8
DIM_ATT
 10
16.551175
 20
-7.2087
 30
0.0
 40
0.09
  1
0
 51
-180.0
 71
     4
  2
A8
 70
     1
  0
SEQEND
  5
F6D
  8
DIM_ATT
  0
INSERT
  5
F6E
  8
DIM_ATT
 66
     1
  2
ATT_BLK
 10
-16.613875
 20
-8.1537
 30
0.0
 43
-1.0
 50
180.0
210
0.0
220
0.0
230
-1.0
  0
ATTRIB
  5
F6F
  8
DIM_ATT
 10
16.613875
 20
-8.2887
 30
0.0
 40
0.09
  1
ALI
 51
-180.0
 71
     4
  2
TYPE
 70
     1
  0
ATTRIB
  5
F70
  8
DIM_ATT
 10
16.613875
 20
-8.1537
 30
0.0
 40
0.09
  1
.309
 51
-180.0
 71
     4
  2
A1
 70
     1
  0
ATTRIB
  5
F71
  8
DIM_ATT
 10
16.613875
 20
-8.0187
 30
0.0
 40
0.09
  1
9.743300,7.528700
 51
-180.0
 71
     4
  2
A2
 70
     1
  0
ATTRIB
  5
F72
  8
DIM_ATT
 10
16.613875
 20
-7.8837
 30
0.0
 40
0.09
  1
9.535000,7.320500
 51
-180.0
 71
     4
  2
A3
 70
     1
  0
ATTRIB
  5
F73
  8
DIM_ATT
 10
16.613875
 20
-7.7487
 30
0.0
 40
0.09
  1
8.335017,8.553060
 51
-180.0
 71
     4
  2
A4
 70
     1
  0
ATTRIB
  5
F74
  8
DIM_ATT
 10
16.613875
 20
-7.6137
 30
0.0
 40
0.09
  1
0
 51
-180.0
 71
     4
  2
A5
 70
     1
  0
ATTRIB
  5
F75
  8
DIM_ATT
 10
16.613875
 20
-7.4787
 30
0.0
 40
0.09
  1
DIMFIX
 51
-180.0
 71
     4
  2
A6
 70
     1
  0
ATTRIB
  5
F76
  8
DIM_ATT
 10
16.613875
 20
-7.3437
 30
0.0
 40
0.09
  1
0
 51
-180.0
 71
     4
  2
A7
 70
     1
  0
ATTRIB
  5
F77
  8
DIM_ATT
 10
16.613875
 20
-7.2087
 30
0.0
 40
0.09
  1
0
 51
-180.0
 71
     4
  2
A8
 70
     1
  0
SEQEND
  5
F78
  8
DIM_ATT
  0
INSERT
  5
F79
  8
DIM_ATT
 66
     1
  2
ATT_BLK
 10
-16.582475
 20
-7.9768
 30
0.0
 43
-1.0
 50
180.0
210
0.0
220
0.0
230
-1.0
  0
ATTRIB
  5
F7A
  8
DIM_ATT
 10
16.582475
 20
-8.1118
 30
0.0
 40
0.09
  1
RAD
 51
-180.0
 71
     4
  2
TYPE
 70
     1
  0
ATTRIB
  5
F7B
  8
DIM_ATT
 10
16.582475
 20
-7.9768
 30
0.0
 40
0.09
  1
.09
 51
-180.0
 71
     4
  2
A1
 70
     1
  0
ATTRIB
  5
F7C
  8
DIM_ATT
 10
16.582475
 20
-7.8418
 30
0.0
 40
0.09
  1
DIMFIXHIDE 9.711900 7.351800 9.665025 7.428629
 51
-180.0
 71
     4
  2
A2
 70
     1
  0
ATTRIB
  5
F7D
  8
DIM_ATT
 10
16.582475
 20
-7.7068
 30
0.0
 40
0.09
  1
: : CIRCLE : 8 : OBJECT : 10 : 9.711900 : 20 : 7.351800 : 40 : 0.090008 : 
 51
-180.0
 71
     4
  2
A3
 70
     1
  0
ATTRIB
  5
F7E
  8
DIM_ATT
 10
16.582475
 20
-7.5718
 30
0.0
 40
0.09
  1
0
 51
-180.0
 71
     4
  2
A4
 70
     1
  0
ATTRIB
  5
F7F
  8
DIM_ATT
 10
16.582475
 20
-7.4368
 30
0.0
 40
0.09
  1
0
 51
-180.0
 71
     4
  2
A5
 70
     1
  0
ATTRIB
  5
F80
  8
DIM_ATT
 10
16.582475
 20
-7.3018
 30
0.0
 40
0.09
  1
0
 51
-180.0
 71
     4
  2
A6
 70
     1
  0
ATTRIB
  5
F81
  8
DIM_ATT
 10
16.582475
 20
-7.1668
 30
0.0
 40
0.09
  1
0
 51
-180.0
 71
     4
  2
A7
 70
     1
  0
ATTRIB
  5
F82
  8
DIM_ATT
 10
16.582475
 20
-7.0318
 30
0.0
 40
0.09
  1
0
 51
-180.0
 71
     4
  2
A8
 70
     1
  0
SEQEND
  5
F83
  8
DIM_ATT
  0
INSERT
  5
F84
  8
DIM_ATT
 66
     1
  2
ATT_BLK
 10
-16.582475
 20
-7.9768
 30
0.0
 43
-1.0
 50
180.0
210
0.0
220
0.0
230
-1.0
  0
ATTRIB
  5
F85
  8
DIM_ATT
 10
16.582475
 20
-8.1118
 30
0.0
 40
0.09
  1
RAD
 51
-180.0
 71
     4
  2
TYPE
 70
     1
  0
ATTRIB
  5
F86
  8
DIM_ATT
 10
16.582475
 20
-7.9768
 30
0.0
 40
0.09
  1
0.18750
 51
-180.0
 71
     4
  2
A1
 70
     1
  0
ATTRIB
  5
F87
  8
DIM_ATT
 10
16.582475
 20
-7.8418
 30
0.0
 40
0.09
  1
DIMFIXHIDE 9.711900 7.351800 9.807207 7.190329
 51
-180.0
 71
     4
  2
A2
 70
     1
  0
ATTRIB
  5
F88
  8
DIM_ATT
 10
16.582475
 20
-7.7068
 30
0.0
 40
0.09
  1
: : CIRCLE : 8 : HIDOB : 10 : 9.711900 : 20 : 7.351800 : 40 : 0.187491 : 
 51
-180.0
 71
     4
  2
A3
 70
     1
  0
ATTRIB
  5
F89
  8
DIM_ATT
 10
16.582475
 20
-7.5718
 30
0.0
 40
0.09
  1
0
 51
-180.0
 71
     4
  2
A4
 70
     1
  0
ATTRIB
  5
F8A
  8
DIM_ATT
 10
16.582475
 20
-7.4368
 30
0.0
 40
0.09
  1
0
 51
-180.0
 71
     4
  2
A5
 70
     1
  0
ATTRIB
  5
F8B
  8
DIM_ATT
 10
16.582475
 20
-7.3018
 30
0.0
 40
0.09
  1
0
 51
-180.0
 71
     4
  2
A6
 70
     1
  0
ATTRIB
  5
F8C
  8
DIM_ATT
 10
16.582475
 20
-7.1668
 30
0.0
 40
0.09
  1
0
 51
-180.0
 71
     4
  2
A7
 70
     1
  0
ATTRIB
  5
F8D
  8
DIM_ATT
 10
16.582475
 20
-7.0318
 30
0.0
 40
0.09
  1
0
 51
-180.0
 71
     4
  2
A8
 70
     1
  0
SEQEND
  5
F8E
  8
DIM_ATT
  0
INSERT
  5
F8F
  8
DIM_ATT
 66
     1
  2
ATT_BLK
 10
-16.582475
 20
-7.9768
 30
0.0
 43
-1.0
 50
180.0
210
0.0
220
0.0
230
-1.0
  0
ATTRIB
  5
F90
  8
DIM_ATT
 10
16.582475
 20
-8.1118
 30
0.0
 40
0.09
  1
RAD
 51
-180.0
 71
     4
  2
TYPE
 70
     1
  0
ATTRIB
  5
F91
  8
DIM_ATT
 10
16.582475
 20
-7.9768
 30
0.0
 40
0.09
  1
0.15650
 51
-180.0
 71
     4
  2
A1
 70
     1
  0
ATTRIB
  5
F92
  8
DIM_ATT
 10
16.582475
 20
-7.8418
 30
0.0
 40
0.09
  1
DIMFIX 9.711900 7.351800 9.611019 7.232154
 51
-180.0
 71
     4
  2
A2
 70
     1
  0
ATTRIB
  5
F93
  8
DIM_ATT
 10
16.582475
 20
-7.7068
 30
0.0
 40
0.09
  1
: : CIRCLE : 8 : OBJECT : 10 : 9.711900 : 20 : 7.351800 : 40 : 0.156500 : 
 51
-180.0
 71
     4
  2
A3
 70
     1
  0
ATTRIB
  5
F94
  8
DIM_ATT
 10
16.582475
 20
-7.5718
 30
0.0
 40
0.09
  1
0
 51
-180.0
 71
     4
  2
A4
 70
     1
  0
ATTRIB
  5
F95
  8
DIM_ATT
 10
16.582475
 20
-7.4368
 30
0.0
 40
0.09
  1
0
 51
-180.0
 71
     4
  2
A5
 70
     1
  0
ATTRIB
  5
F96
  8
DIM_ATT
 10
16.582475
 20
-7.3018
 30
0.0
 40
0.09
  1
0
 51
-180.0
 71
     4
  2
A6
 70
     1
  0
ATTRIB
  5
F97
  8
DIM_ATT
 10
16.582475
 20
-7.1668
 30
0.0
 40
0.09
  1
0
 51
-180.0
 71
     4
  2
A7
 70
     1
  0
ATTRIB
  5
F98
  8
DIM_ATT
 10
16.582475
 20
-7.0318
 30
0.0
 40
0.09
  1
0
 51
-180.0
 71
     4
  2
A8
 70
     1
  0
SEQEND
  5
F99
  8
DIM_ATT
  0
INSERT
  5
F9A
  8
DIM_ATT
 66
     1
  2
ATT_BLK
 10
-21.309217
 20
-14.989268
 30
0.0
 43
-1.0
 50
180.0
210
0.0
220
0.0
230
-1.0
  0
ATTRIB
  5
F9B
  8
DIM_ATT
 10
21.309217
 20
-15.124268
 30
0.0
 40
0.09
  1
HOR
 51
-180.0
 71
     4
  2
TYPE
 70
     1
  0
ATTRIB
  5
F9C
  8
DIM_ATT
 10
21.309217
 20
-14.989268
 30
0.0
 40
0.09
  1
.16
 51
-180.0
 71
     4
  2
A1
 70
     1
  0
ATTRIB
  5
F9D
  8
DIM_ATT
 10
21.309217
 20
-14.854268
 30
0.0
 40
0.09
  1
5.957400,7.519300
 51
-180.0
 71
     4
  2
A2
 70
     1
  0
ATTRIB
  5
F9E
  8
DIM_ATT
 10
21.309217
 20
-14.719268
 30
0.0
 40
0.09
  1
6.117400,7.488300
 51
-180.0
 71
     4
  2
A3
 70
     1
  0
ATTRIB
  5
F9F
  8
DIM_ATT
 10
21.309217
 20
-14.584268
 30
0.0
 40
0.09
  1
1.000000,8.817400
 51
-180.0
 71
     4
  2
A4
 70
     1
  0
ATTRIB
  5
FA0
  8
DIM_ATT
 10
21.309217
 20
-14.449268
 30
0.0
 40
0.09
  1

 51
-180.0
 71
     4
  2
A5
 70
     1
  0
ATTRIB
  5
FA1
  8
DIM_ATT
 10
21.309217
 20
-14.314268
 30
0.0
 40
0.09
  1
DIMFIX
 51
-180.0
 71
     4
  2
A6
 70
     1
  0
ATTRIB
  5
FA2
  8
DIM_ATT
 10
21.309217
 20
-14.179268
 30
0.0
 40
0.09
  1
0
 51
-180.0
 71
     4
  2
A7
 70
     1
  0
ATTRIB
  5
FA3
  8
DIM_ATT
 10
21.309217
 20
-14.044268
 30
0.0
 40
0.09
  1
0
 51
-180.0
 71
     4
  2
A8
 70
     1
  0
SEQEND
  5
FA4
  8
DIM_ATT
  0
INSERT
  5
FA5
  8
DIM_ATT
 66
     1
  2
ATT_BLK
 10
-21.749217
 20
-14.665268
 30
0.0
 43
-1.0
 50
180.0
210
0.0
220
0.0
230
-1.0
  0
ATTRIB
  5
FA6
  8
DIM_ATT
 10
21.749217
 20
-14.800268
 30
0.0
 40
0.09
  1
HOR
 51
-180.0
 71
     4
  2
TYPE
 70
     1
  0
ATTRIB
  5
FA7
  8
DIM_ATT
 10
21.749217
 20
-14.665268
 30
0.0
 40
0.09
  1
.09
 51
-180.0
 71
     4
  2
A1
 70
     1
  0
ATTRIB
  5
FA8
  8
DIM_ATT
 10
21.749217
 20
-14.530268
 30
0.0
 40
0.09
  1
6.487400,7.225300
 51
-180.0
 71
     4
  2
A2
 70
     1
  0
ATTRIB
  5
FA9
  8
DIM_ATT
 10
21.749217
 20
-14.395268
 30
0.0
 40
0.09
  1
6.397400,7.195300
 51
-180.0
 71
     4
  2
A3
 70
     1
  0
ATTRIB
  5
FAA
  8
DIM_ATT
 10
21.749217
 20
-14.260268
 30
0.0
 40
0.09
  1
1.000000,6.291800
 51
-180.0
 71
     4
  2
A4
 70
     1
  0
ATTRIB
  5
FAB
  8
DIM_ATT
 10
21.749217
 20
-14.125268
 30
0.0
 40
0.09
  1

 51
-180.0
 71
     4
  2
A5
 70
     1
  0
ATTRIB
  5
FAC
  8
DIM_ATT
 10
21.749217
 20
-13.990268
 30
0.0
 40
0.09
  1
DIMFIX
 51
-180.0
 71
     4
  2
A6
 70
     1
  0
ATTRIB
  5
FAD
  8
DIM_ATT
 10
21.749217
 20
-13.855268
 30
0.0
 40
0.09
  1
0
 51
-180.0
 71
     4
  2
A7
 70
     1
  0
ATTRIB
  5
FAE
  8
DIM_ATT
 10
21.749217
 20
-13.720268
 30
0.0
 40
0.09
  1
0
 51
-180.0
 71
     4
  2
A8
 70
     1
  0
SEQEND
  5
FAF
  8
DIM_ATT
  0
INSERT
  5
FB0
  8
DIM_ATT
 66
     1
  2
ATT_BLK
 10
-21.309217
 20
-14.654268
 30
0.0
 43
-1.0
 50
180.0
210
0.0
220
0.0
230
-1.0
  0
ATTRIB
  5
FB1
  8
DIM_ATT
 10
21.309217
 20
-14.789268
 30
0.0
 40
0.09
  1
HOR
 51
-180.0
 71
     4
  2
TYPE
 70
     1
  0
ATTRIB
  5
FB2
  8
DIM_ATT
 10
21.309217
 20
-14.654268
 30
0.0
 40
0.09
  1
.530
 51
-180.0
 71
     4
  2
A1
 70
     1
  0
ATTRIB
  5
FB3
  8
DIM_ATT
 10
21.309217
 20
-14.519268
 30
0.0
 40
0.09
  1
5.957400,7.184300
 51
-180.0
 71
     4
  2
A2
 70
     1
  0
ATTRIB
  5
FB4
  8
DIM_ATT
 10
21.309217
 20
-14.384268
 30
0.0
 40
0.09
  1
6.487400,7.225300
 51
-180.0
 71
     4
  2
A3
 70
     1
  0
ATTRIB
  5
FB5
  8
DIM_ATT
 10
21.309217
 20
-14.249268
 30
0.0
 40
0.09
  1
1.000000,5.040600
 51
-180.0
 71
     4
  2
A4
 70
     1
  0
ATTRIB
  5
FB6
  8
DIM_ATT
 10
21.309217
 20
-14.114268
 30
0.0
 40
0.09
  1

 51
-180.0
 71
     4
  2
A5
 70
     1
  0
ATTRIB
  5
FB7
  8
DIM_ATT
 10
21.309217
 20
-13.979268
 30
0.0
 40
0.09
  1
DIMFIX
 51
-180.0
 71
     4
  2
A6
 70
     1
  0
ATTRIB
  5
FB8
  8
DIM_ATT
 10
21.309217
 20
-13.844268
 30
0.0
 40
0.09
  1
0
 51
-180.0
 71
     4
  2
A7
 70
     1
  0
ATTRIB
  5
FB9
  8
DIM_ATT
 10
21.309217
 20
-13.709268
 30
0.0
 40
0.09
  1
0
 51
-180.0
 71
     4
  2
A8
 70
     1
  0
SEQEND
  5
FBA
  8
DIM_ATT
  0
INSERT
  5
FBB
  8
DIM_ATT
 66
     1
  2
ATT_BLK
 10
-24.876217
 20
-14.821768
 30
0.0
 43
-1.0
 50
180.0
210
0.0
220
0.0
230
-1.0
  0
ATTRIB
  5
FBC
  8
DIM_ATT
 10
24.876217
 20
-14.956768
 30
0.0
 40
0.09
  1
HOR
 51
-180.0
 71
     4
  2
TYPE
 70
     1
  0
ATTRIB
  5
FBD
  8
DIM_ATT
 10
24.876217
 20
-14.821768
 30
0.0
 40
0.09
  1
0.18750
 51
-180.0
 71
     4
  2
A1
 70
     1
  0
ATTRIB
  5
FBE
  8
DIM_ATT
 10
24.876217
 20
-14.686768
 30
0.0
 40
0.09
  1
9.524400,7.351800
 51
-180.0
 71
     4
  2
A2
 70
     1
  0
ATTRIB
  5
FBF
  8
DIM_ATT
 10
24.876217
 20
-14.551768
 30
0.0
 40
0.09
  1
9.711900,6.286400
 51
-180.0
 71
     4
  2
A3
 70
     1
  0
ATTRIB
  5
FC0
  8
DIM_ATT
 10
24.876217
 20
-14.416768
 30
0.0
 40
0.09
  1
1.000000,6.219900
 51
-180.0
 71
     4
  2
A4
 70
     1
  0
ATTRIB
  5
FC1
  8
DIM_ATT
 10
24.876217
 20
-14.281768
 30
0.0
 40
0.09
  1

 51
-180.0
 71
     4
  2
A5
 70
     1
  0
ATTRIB
  5
FC2
  8
DIM_ATT
 10
24.876217
 20
-14.146768
 30
0.0
 40
0.09
  1
DIMFIX
 51
-180.0
 71
     4
  2
A6
 70
     1
  0
ATTRIB
  5
FC3
  8
DIM_ATT
 10
24.876217
 20
-14.011768
 30
0.0
 40
0.09
  1
0
 51
-180.0
 71
     4
  2
A7
 70
     1
  0
ATTRIB
  5
FC4
  8
DIM_ATT
 10
24.876217
 20
-13.876768
 30
0.0
 40
0.09
  1
0
 51
-180.0
 71
     4
  2
A8
 70
     1
  0
SEQEND
  5
FC5
  8
DIM_ATT
  0
INSERT
  5
FC6
  8
DIM_ATT
 66
     1
  2
ATT_BLK
 10
-25.063717
 20
-13.895968
 30
0.0
 43
-1.0
 50
180.0
210
0.0
220
0.0
230
-1.0
  0
ATTRIB
  5
FC7
  8
DIM_ATT
 10
25.063717
 20
-14.030968
 30
0.0
 40
0.09
  1
HOR
 51
-180.0
 71
     4
  2
TYPE
 70
     1
  0
ATTRIB
  5
FC8
  8
DIM_ATT
 10
25.063717
 20
-13.895968
 30
0.0
 40
0.09
  1
0.18750
 51
-180.0
 71
     4
  2
A1
 70
     1
  0
ATTRIB
  5
FC9
  8
DIM_ATT
 10
25.063717
 20
-13.760968
 30
0.0
 40
0.09
  1
9.899400,7.351800
 51
-180.0
 71
     4
  2
A2
 70
     1
  0
ATTRIB
  5
FCA
  8
DIM_ATT
 10
25.063717
 20
-13.625968
 30
0.0
 40
0.09
  1
9.711900,6.426000
 51
-180.0
 71
     4
  2
A3
 70
     1
  0
ATTRIB
  5
FCB
  8
DIM_ATT
 10
25.063717
 20
-13.490968
 30
0.0
 40
0.09
  1
1.000000,6.426000
 51
-180.0
 71
     4
  2
A4
 70
     1
  0
ATTRIB
  5
FCC
  8
DIM_ATT
 10
25.063717
 20
-13.355968
 30
0.0
 40
0.09
  1

 51
-180.0
 71
     4
  2
A5
 70
     1
  0
ATTRIB
  5
FCD
  8
DIM_ATT
 10
25.063717
 20
-13.220968
 30
0.0
 40
0.09
  1
DIMFIX
 51
-180.0
 71
     4
  2
A6
 70
     1
  0
ATTRIB
  5
FCE
  8
DIM_ATT
 10
25.063717
 20
-13.085968
 30
0.0
 40
0.09
  1
0
 51
-180.0
 71
     4
  2
A7
 70
     1
  0
ATTRIB
  5
FCF
  8
DIM_ATT
 10
25.063717
 20
-12.950968
 30
0.0
 40
0.09
  1
0
 51
-180.0
 71
     4
  2
A8
 70
     1
  0
SEQEND
  5
FD0
  8
DIM_ATT
  0
INSERT
  5
FD1
  8
DIM_ATT
 66
     1
  2
ATT_BLK
 10
-21.839217
 20
-14.821768
 30
0.0
 43
-1.0
 50
180.0
210
0.0
220
0.0
230
-1.0
  0
ATTRIB
  5
FD2
  8
DIM_ATT
 10
21.839217
 20
-14.956768
 30
0.0
 40
0.09
  1
VER
 51
-180.0
 71
     4
  2
TYPE
 70
     1
  0
ATTRIB
  5
FD3
  8
DIM_ATT
 10
21.839217
 20
-14.821768
 30
0.0
 40
0.09
  1
0.15650
 51
-180.0
 71
     4
  2
A1
 70
     1
  0
ATTRIB
  5
FD4
  8
DIM_ATT
 10
21.839217
 20
-14.686768
 30
0.0
 40
0.09
  1
6.487400,7.351800
 51
-180.0
 71
     4
  2
A2
 70
     1
  0
ATTRIB
  5
FD5
  8
DIM_ATT
 10
21.839217
 20
-14.551768
 30
0.0
 40
0.09
  1
6.457400,7.508300
 51
-180.0
 71
     4
  2
A3
 70
     1
  0
ATTRIB
  5
FD6
  8
DIM_ATT
 10
21.839217
 20
-14.416768
 30
0.0
 40
0.09
  1
6.781800,1.000000
 51
-180.0
 71
     4
  2
A4
 70
     1
  0
ATTRIB
  5
FD7
  8
DIM_ATT
 10
21.839217
 20
-14.281768
 30
0.0
 40
0.09
  1
6.117400,1.000000
 51
-180.0
 71
     4
  2
A5
 70
     1
  0
ATTRIB
  5
FD8
  8
DIM_ATT
 10
21.839217
 20
-14.146768
 30
0.0
 40
0.09
  1
DIMFIXHIDE
 51
-180.0
 71
     4
  2
A6
 70
     1
  0
ATTRIB
  5
FD9
  8
DIM_ATT
 10
21.839217
 20
-14.011768
 30
0.0
 40
0.09
  1
0
 51
-180.0
 71
     4
  2
A7
 70
     1
  0
ATTRIB
  5
FDA
  8
DIM_ATT
 10
21.839217
 20
-13.876768
 30
0.0
 40
0.09
  1
0
 51
-180.0
 71
     4
  2
A8
 70
     1
  0
SEQEND
  5
FDB
  8
DIM_ATT
  0
INSERT
  5
FDC
  8
DIM_ATT
 66
     1
  2
ATT_BLK
 10
-21.809217
 20
-14.665268
 30
0.0
 43
-1.0
 50
180.0
210
0.0
220
0.0
230
-1.0
  0
ATTRIB
  5
FDD
  8
DIM_ATT
 10
21.809217
 20
-14.800268
 30
0.0
 40
0.09
  1
VER
 51
-180.0
 71
     4
  2
TYPE
 70
     1
  0
ATTRIB
  5
FDE
  8
DIM_ATT
 10
21.809217
 20
-14.665268
 30
0.0
 40
0.09
  1
0.15650
 51
-180.0
 71
     4
  2
A1
 70
     1
  0
ATTRIB
  5
FDF
  8
DIM_ATT
 10
21.809217
 20
-14.530268
 30
0.0
 40
0.09
  1
6.487400,7.351800
 51
-180.0
 71
     4
  2
A2
 70
     1
  0
ATTRIB
  5
FE0
  8
DIM_ATT
 10
21.809217
 20
-14.395268
 30
0.0
 40
0.09
  1
6.457400,7.195300
 51
-180.0
 71
     4
  2
A3
 70
     1
  0
ATTRIB
  5
FE1
  8
DIM_ATT
 10
21.809217
 20
-14.260268
 30
0.0
 40
0.09
  1
6.866900,1.000000
 51
-180.0
 71
     4
  2
A4
 70
     1
  0
ATTRIB
  5
FE2
  8
DIM_ATT
 10
21.809217
 20
-14.125268
 30
0.0
 40
0.09
  1
6.367700,1.000000
 51
-180.0
 71
     4
  2
A5
 70
     1
  0
ATTRIB
  5
FE3
  8
DIM_ATT
 10
21.809217
 20
-13.990268
 30
0.0
 40
0.09
  1
DIMFIXHIDE
 51
-180.0
 71
     4
  2
A6
 70
     1
  0
ATTRIB
  5
FE4
  8
DIM_ATT
 10
21.809217
 20
-13.855268
 30
0.0
 40
0.09
  1
0
 51
-180.0
 71
     4
  2
A7
 70
     1
  0
ATTRIB
  5
FE5
  8
DIM_ATT
 10
21.809217
 20
-13.720268
 30
0.0
 40
0.09
  1
0
 51
-180.0
 71
     4
  2
A8
 70
     1
  0
SEQEND
  5
FE6
  8
DIM_ATT
  0
INSERT
  5
FE7
  8
DIM_ATT
 66
     1
  2
ATT_BLK
 10
-21.309217
 20
-14.821768
 30
0.0
 43
-1.0
 50
180.0
210
0.0
220
0.0
230
-1.0
  0
ATTRIB
  5
FE8
  8
DIM_ATT
 10
21.309217
 20
-14.956768
 30
0.0
 40
0.09
  1
VER
 51
-180.0
 71
     4
  2
TYPE
 70
     1
  0
ATTRIB
  5
FE9
  8
DIM_ATT
 10
21.309217
 20
-14.821768
 30
0.0
 40
0.09
  1
0.18750
 51
-180.0
 71
     4
  2
A1
 70
     1
  0
ATTRIB
  5
FEA
  8
DIM_ATT
 10
21.309217
 20
-14.686768
 30
0.0
 40
0.09
  1
5.957400,7.351800
 51
-180.0
 71
     4
  2
A2
 70
     1
  0
ATTRIB
  5
FEB
  8
DIM_ATT
 10
21.309217
 20
-14.551768
 30
0.0
 40
0.09
  1
5.977400,7.539300
 51
-180.0
 71
     4
  2
A3
 70
     1
  0
ATTRIB
  5
FEC
  8
DIM_ATT
 10
21.309217
 20
-14.416768
 30
0.0
 40
0.09
  1
5.567500,1.000000
 51
-180.0
 71
     4
  2
A4
 70
     1
  0
ATTRIB
  5
FED
  8
DIM_ATT
 10
21.309217
 20
-14.281768
 30
0.0
 40
0.09
  1
6.117400,1.000000
 51
-180.0
 71
     4
  2
A5
 70
     1
  0
ATTRIB
  5
FEE
  8
DIM_ATT
 10
21.309217
 20
-14.146768
 30
0.0
 40
0.09
  1
DIMFIXHIDE
 51
-180.0
 71
     4
  2
A6
 70
     1
  0
ATTRIB
  5
FEF
  8
DIM_ATT
 10
21.309217
 20
-14.011768
 30
0.0
 40
0.09
  1
0
 51
-180.0
 71
     4
  2
A7
 70
     1
  0
ATTRIB
  5
FF0
  8
DIM_ATT
 10
21.309217
 20
-13.876768
 30
0.0
 40
0.09
  1
0
 51
-180.0
 71
     4
  2
A8
 70
     1
  0
SEQEND
  5
FF1
  8
DIM_ATT
  0
INSERT
  5
FF2
  8
DIM_ATT
 66
     1
  2
ATT_BLK
 10
-21.329217
 20
-14.634268
 30
0.0
 43
-1.0
 50
180.0
210
0.0
220
0.0
230
-1.0
  0
ATTRIB
  5
FF3
  8
DIM_ATT
 10
21.329217
 20
-14.769268
 30
0.0
 40
0.09
  1
VER
 51
-180.0
 71
     4
  2
TYPE
 70
     1
  0
ATTRIB
  5
FF4
  8
DIM_ATT
 10
21.329217
 20
-14.634268
 30
0.0
 40
0.09
  1
0.18750
 51
-180.0
 71
     4
  2
A1
 70
     1
  0
ATTRIB
  5
FF5
  8
DIM_ATT
 10
21.329217
 20
-14.499268
 30
0.0
 40
0.09
  1
5.957400,7.351800
 51
-180.0
 71
     4
  2
A2
 70
     1
  0
ATTRIB
  5
FF6
  8
DIM_ATT
 10
21.329217
 20
-14.364268
 30
0.0
 40
0.09
  1
5.977400,7.164300
 51
-180.0
 71
     4
  2
A3
 70
     1
  0
ATTRIB
  5
FF7
  8
DIM_ATT
 10
21.329217
 20
-14.229268
 30
0.0
 40
0.09
  1
5.459000,1.000000
 51
-180.0
 71
     4
  2
A4
 70
     1
  0
ATTRIB
  5
FF8
  8
DIM_ATT
 10
21.329217
 20
-14.094268
 30
0.0
 40
0.09
  1
6.117400,1.000000
 51
-180.0
 71
     4
  2
A5
 70
     1
  0
ATTRIB
  5
FF9
  8
DIM_ATT
 10
21.329217
 20
-13.959268
 30
0.0
 40
0.09
  1
DIMFIXHIDE
 51
-180.0
 71
     4
  2
A6
 70
     1
  0
ATTRIB
  5
FFA
  8
DIM_ATT
 10
21.329217
 20
-13.824268
 30
0.0
 40
0.09
  1
0
 51
-180.0
 71
     4
  2
A7
 70
     1
  0
ATTRIB
  5
FFB
  8
DIM_ATT
 10
21.329217
 20
-13.689268
 30
0.0
 40
0.09
  1
0
 51
-180.0
 71
     4
  2
A8
 70
     1
  0
SEQEND
  5
FFC
  8
DIM_ATT
  0
INSERT
  5
FFD
  8
DIM_ATT
 66
     1
  2
ATT_BLK
 10
-21.469217
 20
-14.821768
 30
0.0
 43
-1.0
 50
180.0
210
0.0
220
0.0
230
-1.0
  0
ATTRIB
  5
FFE
  8
DIM_ATT
 10
21.469217
 20
-14.956768
 30
0.0
 40
0.09
  1
VER
 51
-180.0
 71
     4
  2
TYPE
 70
     1
  0
ATTRIB
  5
FFF
  8
DIM_ATT
 10
21.469217
 20
-14.821768
 30
0.0
 40
0.09
  1
0.14000
 51
-180.0
 71
     4
  2
A1
 70
     1
  0
ATTRIB
  5
1000
  8
DIM_ATT
 10
21.469217
 20
-14.686768
 30
0.0
 40
0.09
  1
6.117400,7.491800
 51
-180.0
 71
     4
  2
A2
 70
     1
  0
ATTRIB
  5
1001
  8
DIM_ATT
 10
21.469217
 20
-14.551768
 30
0.0
 40
0.09
  1
6.117400,7.351800
 51
-180.0
 71
     4
  2
A3
 70
     1
  0
ATTRIB
  5
1002
  8
DIM_ATT
 10
21.469217
 20
-14.416768
 30
0.0
 40
0.09
  1
3.628600,1.000000
 51
-180.0
 71
     4
  2
A4
 70
     1
  0
ATTRIB
  5
1003
  8
DIM_ATT
 10
21.469217
 20
-14.281768
 30
0.0
 40
0.09
  1
6.397400,1.000000
 51
-180.0
 71
     4
  2
A5
 70
     1
  0
ATTRIB
  5
1004
  8
DIM_ATT
 10
21.469217
 20
-14.146768
 30
0.0
 40
0.09
  1
DIMFIXHIDE
 51
-180.0
 71
     4
  2
A6
 70
     1
  0
ATTRIB
  5
1005
  8
DIM_ATT
 10
21.469217
 20
-14.011768
 30
0.0
 40
0.09
  1
0
 51
-180.0
 71
     4
  2
A7
 70
     1
  0
ATTRIB
  5
1006
  8
DIM_ATT
 10
21.469217
 20
-13.876768
 30
0.0
 40
0.09
  1
0
 51
-180.0
 71
     4
  2
A8
 70
     1
  0
SEQEND
  5
1007
  8
DIM_ATT
  0
INSERT
  5
1008
  8
DIM_ATT
 66
     1
  2
ATT_BLK
 10
-21.469217
 20
-14.681768
 30
0.0
 43
-1.0
 50
180.0
210
0.0
220
0.0
230
-1.0
  0
ATTRIB
  5
1009
  8
DIM_ATT
 10
21.469217
 20
-14.816768
 30
0.0
 40
0.09
  1
VER
 51
-180.0
 71
     4
  2
TYPE
 70
     1
  0
ATTRIB
  5
100A
  8
DIM_ATT
 10
21.469217
 20
-14.681768
 30
0.0
 40
0.09
  1
0.14000
 51
-180.0
 71
     4
  2
A1
 70
     1
  0
ATTRIB
  5
100B
  8
DIM_ATT
 10
21.469217
 20
-14.546768
 30
0.0
 40
0.09
  1
6.117400,7.351800
 51
-180.0
 71
     4
  2
A2
 70
     1
  0
ATTRIB
  5
100C
  8
DIM_ATT
 10
21.469217
 20
-14.411768
 30
0.0
 40
0.09
  1
6.117400,7.211800
 51
-180.0
 71
     4
  2
A3
 70
     1
  0
ATTRIB
  5
100D
  8
DIM_ATT
 10
21.469217
 20
-14.276768
 30
0.0
 40
0.09
  1
3.506000,1.000000
 51
-180.0
 71
     4
  2
A4
 70
     1
  0
ATTRIB
  5
100E
  8
DIM_ATT
 10
21.469217
 20
-14.141768
 30
0.0
 40
0.09
  1
6.397400,1.000000
 51
-180.0
 71
     4
  2
A5
 70
     1
  0
ATTRIB
  5
100F
  8
DIM_ATT
 10
21.469217
 20
-14.006768
 30
0.0
 40
0.09
  1
DIMFIXHIDE
 51
-180.0
 71
     4
  2
A6
 70
     1
  0
ATTRIB
  5
1010
  8
DIM_ATT
 10
21.469217
 20
-13.871768
 30
0.0
 40
0.09
  1
0
 51
-180.0
 71
     4
  2
A7
 70
     1
  0
ATTRIB
  5
1011
  8
DIM_ATT
 10
21.469217
 20
-13.736768
 30
0.0
 40
0.09
  1
0
 51
-180.0
 71
     4
  2
A8
 70
     1
  0
SEQEND
  5
1012
  8
DIM_ATT
  0
INSERT
  5
1013
  8
DIM_ATT
 66
     1
  2
ATT_BLK
 10
-21.839217
 20
-14.821768
 30
0.0
 43
-1.0
 50
180.0
210
0.0
220
0.0
230
-1.0
  0
ATTRIB
  5
1014
  8
DIM_ATT
 10
21.839217
 20
-14.956768
 30
0.0
 40
0.09
  1
VER
 51
-180.0
 71
     4
  2
TYPE
 70
     1
  0
ATTRIB
  5
1015
  8
DIM_ATT
 10
21.839217
 20
-14.821768
 30
0.0
 40
0.09
  1
0.04500
 51
-180.0
 71
     4
  2
A1
 70
     1
  0
ATTRIB
  5
1016
  8
DIM_ATT
 10
21.839217
 20
-14.686768
 30
0.0
 40
0.09
  1
6.487400,7.396800
 51
-180.0
 71
     4
  2
A2
 70
     1
  0
ATTRIB
  5
1017
  8
DIM_ATT
 10
21.839217
 20
-14.551768
 30
0.0
 40
0.09
  1
6.487400,7.351800
 51
-180.0
 71
     4
  2
A3
 70
     1
  0
ATTRIB
  5
1018
  8
DIM_ATT
 10
21.839217
 20
-14.416768
 30
0.0
 40
0.09
  1
8.769500,1.000000
 51
-180.0
 71
     4
  2
A4
 70
     1
  0
ATTRIB
  5
1019
  8
DIM_ATT
 10
21.839217
 20
-14.281768
 30
0.0
 40
0.09
  1

 51
-180.0
 71
     4
  2
A5
 70
     1
  0
ATTRIB
  5
101A
  8
DIM_ATT
 10
21.839217
 20
-14.146768
 30
0.0
 40
0.09
  1
DIMFIXHIDE
 51
-180.0
 71
     4
  2
A6
 70
     1
  0
ATTRIB
  5
101B
  8
DIM_ATT
 10
21.839217
 20
-14.011768
 30
0.0
 40
0.09
  1
0
 51
-180.0
 71
     4
  2
A7
 70
     1
  0
ATTRIB
  5
101C
  8
DIM_ATT
 10
21.839217
 20
-13.876768
 30
0.0
 40
0.09
  1
0
 51
-180.0
 71
     4
  2
A8
 70
     1
  0
SEQEND
  5
101D
  8
DIM_ATT
  0
INSERT
  5
101E
  8
DIM_ATT
 66
     1
  2
ATT_BLK
 10
-21.839217
 20
-14.776768
 30
0.0
 43
-1.0
 50
180.0
210
0.0
220
0.0
230
-1.0
  0
ATTRIB
  5
101F
  8
DIM_ATT
 10
21.839217
 20
-14.911768
 30
0.0
 40
0.09
  1
VER
 51
-180.0
 71
     4
  2
TYPE
 70
     1
  0
ATTRIB
  5
1020
  8
DIM_ATT
 10
21.839217
 20
-14.776768
 30
0.0
 40
0.09
  1
0.04500
 51
-180.0
 71
     4
  2
A1
 70
     1
  0
ATTRIB
  5
1021
  8
DIM_ATT
 10
21.839217
 20
-14.641768
 30
0.0
 40
0.09
  1
6.487400,7.351800
 51
-180.0
 71
     4
  2
A2
 70
     1
  0
ATTRIB
  5
1022
  8
DIM_ATT
 10
21.839217
 20
-14.506768
 30
0.0
 40
0.09
  1
6.487400,7.306800
 51
-180.0
 71
     4
  2
A3
 70
     1
  0
ATTRIB
  5
1023
  8
DIM_ATT
 10
21.839217
 20
-14.371768
 30
0.0
 40
0.09
  1
9.007100,1.000000
 51
-180.0
 71
     4
  2
A4
 70
     1
  0
ATTRIB
  5
1024
  8
DIM_ATT
 10
21.839217
 20
-14.236768
 30
0.0
 40
0.09
  1

 51
-180.0
 71
     4
  2
A5
 70
     1
  0
ATTRIB
  5
1025
  8
DIM_ATT
 10
21.839217
 20
-14.101768
 30
0.0
 40
0.09
  1
DIMFIXHIDE
 51
-180.0
 71
     4
  2
A6
 70
     1
  0
ATTRIB
  5
1026
  8
DIM_ATT
 10
21.839217
 20
-13.966768
 30
0.0
 40
0.09
  1
0
 51
-180.0
 71
     4
  2
A7
 70
     1
  0
ATTRIB
  5
1027
  8
DIM_ATT
 10
21.839217
 20
-13.831768
 30
0.0
 40
0.09
  1
0
 51
-180.0
 71
     4
  2
A8
 70
     1
  0
SEQEND
  5
1028
  8
DIM_ATT
  0
INSERT
  5
1029
  8
DIM_ATT
 66
     1
  2
ATT_BLK
 10
-25.888617
 20
-14.821768
 30
0.0
 43
-1.0
 50
180.0
210
0.0
220
0.0
230
-1.0
  0
ATTRIB
  5
102A
  8
DIM_ATT
 10
25.888617
 20
-14.956768
 30
0.0
 40
0.09
  1
VER
 51
-180.0
 71
     4
  2
TYPE
 70
     1
  0
ATTRIB
  5
102B
  8
DIM_ATT
 10
25.888617
 20
-14.821768
 30
0.0
 40
0.09
  1
0.18750
 51
-180.0
 71
     4
  2
A1
 70
     1
  0
ATTRIB
  5
102C
  8
DIM_ATT
 10
25.888617
 20
-14.686768
 30
0.0
 40
0.09
  1
9.711900,7.539300
 51
-180.0
 71
     4
  2
A2
 70
     1
  0
ATTRIB
  5
102D
  8
DIM_ATT
 10
25.888617
 20
-14.551768
 30
0.0
 40
0.09
  1
10.536800,7.351800
 51
-180.0
 71
     4
  2
A3
 70
     1
  0
ATTRIB
  5
102E
  8
DIM_ATT
 10
25.888617
 20
-14.416768
 30
0.0
 40
0.09
  1
10.536800,1.000000
 51
-180.0
 71
     4
  2
A4
 70
     1
  0
ATTRIB
  5
102F
  8
DIM_ATT
 10
25.888617
 20
-14.281768
 30
0.0
 40
0.09
  1

 51
-180.0
 71
     4
  2
A5
 70
     1
  0
ATTRIB
  5
1030
  8
DIM_ATT
 10
25.888617
 20
-14.146768
 30
0.0
 40
0.09
  1
DIMFIX
 51
-180.0
 71
     4
  2
A6
 70
     1
  0
ATTRIB
  5
1031
  8
DIM_ATT
 10
25.888617
 20
-14.011768
 30
0.0
 40
0.09
  1
0
 51
-180.0
 71
     4
  2
A7
 70
     1
  0
ATTRIB
  5
1032
  8
DIM_ATT
 10
25.888617
 20
-13.876768
 30
0.0
 40
0.09
  1
0
 51
-180.0
 71
     4
  2
A8
 70
     1
  0
SEQEND
  5
1033
  8
DIM_ATT
  0
INSERT
  5
1034
  8
DIM_ATT
 66
     1
  2
ATT_BLK
 10
-25.063717
 20
-14.634268
 30
0.0
 43
-1.0
 50
180.0
210
0.0
220
0.0
230
-1.0
  0
ATTRIB
  5
1035
  8
DIM_ATT
 10
25.063717
 20
-14.769268
 30
0.0
 40
0.09
  1
VER
 51
-180.0
 71
     4
  2
TYPE
 70
     1
  0
ATTRIB
  5
1036
  8
DIM_ATT
 10
25.063717
 20
-14.634268
 30
0.0
 40
0.09
  1
0.18750
 51
-180.0
 71
     4
  2
A1
 70
     1
  0
ATTRIB
  5
1037
  8
DIM_ATT
 10
25.063717
 20
-14.499268
 30
0.0
 40
0.09
  1
9.711900,7.164300
 51
-180.0
 71
     4
  2
A2
 70
     1
  0
ATTRIB
  5
1038
  8
DIM_ATT
 10
25.063717
 20
-14.364268
 30
0.0
 40
0.09
  1
8.151200,7.351800
 51
-180.0
 71
     4
  2
A3
 70
     1
  0
ATTRIB
  5
1039
  8
DIM_ATT
 10
25.063717
 20
-14.229268
 30
0.0
 40
0.09
  1
8.144900,1.000000
 51
-180.0
 71
     4
  2
A4
 70
     1
  0
ATTRIB
  5
103A
  8
DIM_ATT
 10
25.063717
 20
-14.094268
 30
0.0
 40
0.09
  1

 51
-180.0
 71
     4
  2
A5
 70
     1
  0
ATTRIB
  5
103B
  8
DIM_ATT
 10
25.063717
 20
-13.959268
 30
0.0
 40
0.09
  1
DIMFIX
 51
-180.0
 71
     4
  2
A6
 70
     1
  0
ATTRIB
  5
103C
  8
DIM_ATT
 10
25.063717
 20
-13.824268
 30
0.0
 40
0.09
  1
0
 51
-180.0
 71
     4
  2
A7
 70
     1
  0
ATTRIB
  5
103D
  8
DIM_ATT
 10
25.063717
 20
-13.689268
 30
0.0
 40
0.09
  1
0
 51
-180.0
 71
     4
  2
A8
 70
     1
  0
SEQEND
  5
103E
  8
DIM_ATT
  0
INSERT
  5
103F
  8
DIM_ATT
 66
     1
  2
ATT_BLK
 10
-25.032417
 20
-14.998668
 30
0.0
 43
-1.0
 50
180.0
210
0.0
220
0.0
230
-1.0
  0
ATTRIB
  5
1040
  8
DIM_ATT
 10
25.032417
 20
-15.133668
 30
0.0
 40
0.09
  1
ALI
 51
-180.0
 71
     4
  2
TYPE
 70
     1
  0
ATTRIB
  5
1041
  8
DIM_ATT
 10
25.032417
 20
-14.998668
 30
0.0
 40
0.09
  1
.309
 51
-180.0
 71
     4
  2
A1
 70
     1
  0
ATTRIB
  5
1042
  8
DIM_ATT
 10
25.032417
 20
-14.863668
 30
0.0
 40
0.09
  1
9.680600,7.528700
 51
-180.0
 71
     4
  2
A2
 70
     1
  0
ATTRIB
  5
1043
  8
DIM_ATT
 10
25.032417
 20
-14.728668
 30
0.0
 40
0.09
  1
9.888800,7.320500
 51
-180.0
 71
     4
  2
A3
 70
     1
  0
ATTRIB
  5
1044
  8
DIM_ATT
 10
25.032417
 20
-14.593668
 30
0.0
 40
0.09
  1
10.807200,8.162400
 51
-180.0
 71
     4
  2
A4
 70
     1
  0
ATTRIB
  5
1045
  8
DIM_ATT
 10
25.032417
 20
-14.458668
 30
0.0
 40
0.09
  1
0
 51
-180.0
 71
     4
  2
A5
 70
     1
  0
ATTRIB
  5
1046
  8
DIM_ATT
 10
25.032417
 20
-14.323668
 30
0.0
 40
0.09
  1
DIMFIX
 51
-180.0
 71
     4
  2
A6
 70
     1
  0
ATTRIB
  5
1047
  8
DIM_ATT
 10
25.032417
 20
-14.188668
 30
0.0
 40
0.09
  1
0
 51
-180.0
 71
     4
  2
A7
 70
     1
  0
ATTRIB
  5
1048
  8
DIM_ATT
 10
25.032417
 20
-14.053668
 30
0.0
 40
0.09
  1
0
 51
-180.0
 71
     4
  2
A8
 70
     1
  0
SEQEND
  5
1049
  8
DIM_ATT
  0
INSERT
  5
104A
  8
DIM_ATT
 66
     1
  2
ATT_BLK
 10
-25.095117
 20
-14.998668
 30
0.0
 43
-1.0
 50
180.0
210
0.0
220
0.0
230
-1.0
  0
ATTRIB
  5
104B
  8
DIM_ATT
 10
25.095117
 20
-15.133668
 30
0.0
 40
0.09
  1
ALI
 51
-180.0
 71
     4
  2
TYPE
 70
     1
  0
ATTRIB
  5
104C
  8
DIM_ATT
 10
25.095117
 20
-14.998668
 30
0.0
 40
0.09
  1
.309
 51
-180.0
 71
     4
  2
A1
 70
     1
  0
ATTRIB
  5
104D
  8
DIM_ATT
 10
25.095117
 20
-14.863668
 30
0.0
 40
0.09
  1
9.743300,7.528700
 51
-180.0
 71
     4
  2
A2
 70
     1
  0
ATTRIB
  5
104E
  8
DIM_ATT
 10
25.095117
 20
-14.728668
 30
0.0
 40
0.09
  1
9.535000,7.320500
 51
-180.0
 71
     4
  2
A3
 70
     1
  0
ATTRIB
  5
104F
  8
DIM_ATT
 10
25.095117
 20
-14.593668
 30
0.0
 40
0.09
  1
8.335017,8.553060
 51
-180.0
 71
     4
  2
A4
 70
     1
  0
ATTRIB
  5
1050
  8
DIM_ATT
 10
25.095117
 20
-14.458668
 30
0.0
 40
0.09
  1
0
 51
-180.0
 71
     4
  2
A5
 70
     1
  0
ATTRIB
  5
1051
  8
DIM_ATT
 10
25.095117
 20
-14.323668
 30
0.0
 40
0.09
  1
DIMFIX
 51
-180.0
 71
     4
  2
A6
 70
     1
  0
ATTRIB
  5
1052
  8
DIM_ATT
 10
25.095117
 20
-14.188668
 30
0.0
 40
0.09
  1
0
 51
-180.0
 71
     4
  2
A7
 70
     1
  0
ATTRIB
  5
1053
  8
DIM_ATT
 10
25.095117
 20
-14.053668
 30
0.0
 40
0.09
  1
0
 51
-180.0
 71
     4
  2
A8
 70
     1
  0
SEQEND
  5
1054
  8
DIM_ATT
  0
POLYLINE
  5
1055
  8
H
 66
     1
 10
0.0
 20
0.0
 30
0.0
  0
VERTEX
  5
12DD
  8
H
 10
3.24
 20
-0.625
 30
0.0
  0
VERTEX
  5
12DE
  8
H
 10
3.24
 20
-0.4685
 30
0.0
  0
SEQEND
  5
12DF
  8
H
  0
POLYLINE
  5
1056
  8
H
 66
     1
 10
0.0
 20
0.0
 30
0.0
  0
VERTEX
  5
12E0
  8
H
 10
3.24
 20
-0.625
 30
0.0
  0
VERTEX
  5
12E1
  8
H
 10
3.24
 20
-0.4685
 30
0.0
  0
SEQEND
  5
12E2
  8
H
  0
POLYLINE
  5
1057
  8
H
 66
     1
 10
0.0
 20
0.0
 30
0.0
  0
VERTEX
  5
12E3
  8
H
 10
3.24
 20
-0.625
 30
0.0
  0
VERTEX
  5
12E4
  8
H
 10
3.24
 20
-0.7815
 30
0.0
  0
SEQEND
  5
12E5
  8
H
  0
POLYLINE
  5
1058
  8
H
 66
     1
 10
0.0
 20
0.0
 30
0.0
  0
VERTEX
  5
12E6
  8
H
 10
3.24
 20
-0.625
 30
0.0
  0
VERTEX
  5
12E7
  8
H
 10
3.24
 20
-0.7815
 30
0.0
  0
SEQEND
  5
12E8
  8
H
  0
POLYLINE
  5
1059
  8
L
 66
     1
 10
0.0
 20
0.0
 30
0.0
 70
     1
  0
VERTEX
  5
12E9
  8
L
 10
3.52
 20
-0.8075
 30
0.0
  0
VERTEX
  5
12EA
  8
L
 10
3.64
 20
-0.8075
 30
0.0
  0
VERTEX
  5
12EB
  8
L
 10
3.66
 20
-0.7875
 30
0.0
  0
VERTEX
  5
12EC
  8
L
 10
3.66
 20
-0.625
 30
0.0
  0
VERTEX
  5
12ED
  8
L
 10
3.66
 20
-0.4625
 30
0.0
  0
VERTEX
  5
12EE
  8
L
 10
3.64
 20
-0.4425
 30
0.0
  0
VERTEX
  5
12EF
  8
L
 10
3.52
 20
-0.4425
 30
0.0
  0
VERTEX
  5
12F0
  8
L
 10
3.5
 20
-0.4625
 30
0.0
  0
VERTEX
  5
12F1
  8
L
 10
3.5
 20
-0.625
 30
0.0
  0
VERTEX
  5
12F2
  8
L
 10
3.5
 20
-0.7875
 30
0.0
  0
SEQEND
  5
12F3
  8
L
  0
POLYLINE
  5
105A
  8
H
 66
     1
 10
0.0
 20
0.0
 30
0.0
  0
VERTEX
  5
12F4
  8
H
 10
3.24
 20
-0.4685
 30
0.0
  0
VERTEX
  5
12F5
  8
H
 10
3.18
 20
-0.4685
 30
0.0
  0
VERTEX
  5
12F6
  8
H
 10
3.15
 20
-0.4985
 30
0.0
  0
VERTEX
  5
12F7
  8
H
 10
3.15
 20
-0.625
 30
0.0
  0
VERTEX
  5
12F8
  8
H
 10
3.15
 20
-0.7515
 30
0.0
  0
VERTEX
  5
12F9
  8
H
 10
3.18
 20
-0.7815
 30
0.0
  0
VERTEX
  5
12FA
  8
H
 10
3.24
 20
-0.7815
 30
0.0
  0
SEQEND
  5
12FB
  8
H
  0
INSERT
  5
105B
  8
DIM_ATT
 66
     1
  2
ATT_BLK
 10
-25.063717
 20
-14.821768
 30
0.0
 43
-1.0
 50
180.0
210
0.0
220
0.0
230
-1.0
  0
ATTRIB
  5
105C
  8
DIM_ATT
 10
25.063717
 20
-14.956768
 30
0.0
 40
0.09
  1
RAD
 51
-180.0
 71
     4
  2
TYPE
 70
     1
  0
ATTRIB
  5
105D
  8
DIM_ATT
 10
25.063717
 20
-14.821768
 30
0.0
 40
0.09
  1
.09
 51
-180.0
 71
     4
  2
A1
 70
     1
  0
ATTRIB
  5
105E
  8
DIM_ATT
 10
25.063717
 20
-14.686768
 30
0.0
 40
0.09
  1
DIMFIXHIDE 9.711900 7.351800 9.688462 7.390215
 51
-180.0
 71
     4
  2
A2
 70
     1
  0
ATTRIB
  5
105F
  8
DIM_ATT
 10
25.063717
 20
-14.551768
 30
0.0
 40
0.09
  1
: : CIRCLE : 8 : OBJECT : 10 : 9.711900 : 20 : 7.351800 : 40 : 0.045008 : 
 51
-180.0
 71
     4
  2
A3
 70
     1
  0
ATTRIB
  5
1060
  8
DIM_ATT
 10
25.063717
 20
-14.416768
 30
0.0
 40
0.09
  1
0
 51
-180.0
 71
     4
  2
A4
 70
     1
  0
ATTRIB
  5
1061
  8
DIM_ATT
 10
25.063717
 20
-14.281768
 30
0.0
 40
0.09
  1
0
 51
-180.0
 71
     4
  2
A5
 70
     1
  0
ATTRIB
  5
1062
  8
DIM_ATT
 10
25.063717
 20
-14.146768
 30
0.0
 40
0.09
  1
0
 51
-180.0
 71
     4
  2
A6
 70
     1
  0
ATTRIB
  5
1063
  8
DIM_ATT
 10
25.063717
 20
-14.011768
 30
0.0
 40
0.09
  1
0
 51
-180.0
 71
     4
  2
A7
 70
     1
  0
ATTRIB
  5
1064
  8
DIM_ATT
 10
25.063717
 20
-13.876768
 30
0.0
 40
0.09
  1
0
 51
-180.0
 71
     4
  2
A8
 70
     1
  0
SEQEND
  5
1065
  8
DIM_ATT
  0
INSERT
  5
1066
  8
DIM_ATT
 66
     1
  2
ATT_BLK
 10
-25.063717
 20
-14.821768
 30
0.0
 43
-1.0
 50
180.0
210
0.0
220
0.0
230
-1.0
  0
ATTRIB
  5
1067
  8
DIM_ATT
 10
25.063717
 20
-14.956768
 30
0.0
 40
0.09
  1
RAD
 51
-180.0
 71
     4
  2
TYPE
 70
     1
  0
ATTRIB
  5
1068
  8
DIM_ATT
 10
25.063717
 20
-14.821768
 30
0.0
 40
0.09
  1
0.18750
 51
-180.0
 71
     4
  2
A1
 70
     1
  0
ATTRIB
  5
1069
  8
DIM_ATT
 10
25.063717
 20
-14.686768
 30
0.0
 40
0.09
  1
DIMFIXHIDE 9.711900 7.351800 9.807207 7.190329
 51
-180.0
 71
     4
  2
A2
 70
     1
  0
ATTRIB
  5
106A
  8
DIM_ATT
 10
25.063717
 20
-14.551768
 30
0.0
 40
0.09
  1
: : CIRCLE : 8 : HIDOB : 10 : 9.711900 : 20 : 7.351800 : 40 : 0.187491 : 
 51
-180.0
 71
     4
  2
A3
 70
     1
  0
ATTRIB
  5
106B
  8
DIM_ATT
 10
25.063717
 20
-14.416768
 30
0.0
 40
0.09
  1
0
 51
-180.0
 71
     4
  2
A4
 70
     1
  0
ATTRIB
  5
106C
  8
DIM_ATT
 10
25.063717
 20
-14.281768
 30
0.0
 40
0.09
  1
0
 51
-180.0
 71
     4
  2
A5
 70
     1
  0
ATTRIB
  5
106D
  8
DIM_ATT
 10
25.063717
 20
-14.146768
 30
0.0
 40
0.09
  1
0
 51
-180.0
 71
     4
  2
A6
 70
     1
  0
ATTRIB
  5
106E
  8
DIM_ATT
 10
25.063717
 20
-14.011768
 30
0.0
 40
0.09
  1
0
 51
-180.0
 71
     4
  2
A7
 70
     1
  0
ATTRIB
  5
106F
  8
DIM_ATT
 10
25.063717
 20
-13.876768
 30
0.0
 40
0.09
  1
0
 51
-180.0
 71
     4
  2
A8
 70
     1
  0
SEQEND
  5
1070
  8
DIM_ATT
  0
INSERT
  5
1071
  8
DIM_ATT
 66
     1
  2
ATT_BLK
 10
-25.063717
 20
-14.821768
 30
0.0
 43
-1.0
 50
180.0
210
0.0
220
0.0
230
-1.0
  0
ATTRIB
  5
1072
  8
DIM_ATT
 10
25.063717
 20
-14.956768
 30
0.0
 40
0.09
  1
RAD
 51
-180.0
 71
     4
  2
TYPE
 70
     1
  0
ATTRIB
  5
1073
  8
DIM_ATT
 10
25.063717
 20
-14.821768
 30
0.0
 40
0.09
  1
0.15650
 51
-180.0
 71
     4
  2
A1
 70
     1
  0
ATTRIB
  5
1074
  8
DIM_ATT
 10
25.063717
 20
-14.686768
 30
0.0
 40
0.09
  1
DIMFIX 9.711900 7.351800 9.611019 7.232154
 51
-180.0
 71
     4
  2
A2
 70
     1
  0
ATTRIB
  5
1075
  8
DIM_ATT
 10
25.063717
 20
-14.551768
 30
0.0
 40
0.09
  1
: : CIRCLE : 8 : OBJECT : 10 : 9.711900 : 20 : 7.351800 : 40 : 0.156500 : 
 51
-180.0
 71
     4
  2
A3
 70
     1
  0
ATTRIB
  5
1076
  8
DIM_ATT
 10
25.063717
 20
-14.416768
 30
0.0
 40
0.09
  1
0
 51
-180.0
 71
     4
  2
A4
 70
     1
  0
ATTRIB
  5
1077
  8
DIM_ATT
 10
25.063717
 20
-14.281768
 30
0.0
 40
0.09
  1
0
 51
-180.0
 71
     4
  2
A5
 70
     1
  0
ATTRIB
  5
1078
  8
DIM_ATT
 10
25.063717
 20
-14.146768
 30
0.0
 40
0.09
  1
0
 51
-180.0
 71
     4
  2
A6
 70
     1
  0
ATTRIB
  5
1079
  8
DIM_ATT
 10
25.063717
 20
-14.011768
 30
0.0
 40
0.09
  1
0
 51
-180.0
 71
     4
  2
A7
 70
     1
  0
ATTRIB
  5
107A
  8
DIM_ATT
 10
25.063717
 20
-13.876768
 30
0.0
 40
0.09
  1
0
 51
-180.0
 71
     4
  2
A8
 70
     1
  0
SEQEND
  5
107B
  8
DIM_ATT
  0
LINE
  5
107C
  8
L
 10
3.64
 20
-0.4425
 30
0.0
 11
3.64
 21
-0.8075
 31
0.0
  0
LINE
  5
107D
  8
L
 10
3.52
 20
-0.4425
 30
0.0
 11
3.52
 21
-0.8075
 31
0.0
  0
LINE
  5
107E
  8
H
 10
3.24
 20
-0.4685
 30
0.0
 11
3.44
 21
-0.4685
 31
0.0
  0
LINE
  5
107F
  8
H
 10
3.44
 20
-0.7815
 30
0.0
 11
3.44
 21
-0.4685
 31
0.0
  0
LINE
  5
1080
  8
H
 10
3.24
 20
-0.7815
 30
0.0
 11
3.44
 21
-0.7815
 31
0.0
  0
LINE
  5
1081
  8
H
 10
3.18
 20
-0.4685
 30
0.0
 11
3.18
 21
-0.7815
 31
0.0
  0
POLYLINE
  5
1082
  8
H
 66
     1
 10
0.0
 20
0.0
 30
0.0
  0
VERTEX
  5
12FC
  8
H
 10
3.15
 20
-0.594
 30
0.0
  0
VERTEX
  5
12FD
  8
H
 10
3.66
 20
-0.594
 30
0.0
  0
SEQEND
  5
12FE
  8
H
  0
POLYLINE
  5
1083
  8
H
 66
     1
 10
0.0
 20
0.0
 30
0.0
  0
VERTEX
  5
12FF
  8
H
 10
3.15
 20
-0.656
 30
0.0
  0
VERTEX
  5
1300
  8
H
 10
3.66
 20
-0.656
 30
0.0
  0
SEQEND
  5
1301
  8
H
  0
POLYLINE
  5
1084
  8
H
 66
     1
 10
0.0
 20
0.0
 30
0.0
  0
VERTEX
  5
1302
  8
H
 10
3.44
 20
-0.775
 30
0.0
  0
VERTEX
  5
1303
  8
H
 10
3.5
 20
-0.775
 30
0.0
  0
SEQEND
  5
1304
  8
H
  0
POLYLINE
  5
1085
  8
H
 66
     1
 10
0.0
 20
0.0
 30
0.0
  0
VERTEX
  5
1305
  8
H
 10
3.44
 20
-0.475
 30
0.0
  0
VERTEX
  5
1306
  8
H
 10
3.5
 20
-0.475
 30
0.0
  0
SEQEND
  5
1307
  8
H
  0
INSERT
  5
1086
  8
DIM_ATT
 66
     1
  2
ATT_BLK
 10
12.827975
 20
8.1443
 30
0.0
  0
ATTRIB
  5
1087
  8
DIM_ATT
 10
12.827975
 20
8.2793
 30
0.0
 40
0.09
  1
HOR
  2
TYPE
 70
     1
  0
ATTRIB
  5
1088
  8
DIM_ATT
 10
12.827975
 20
8.1443
 30
0.0
 40
0.09
  1
.16
  2
A1
 70
     1
  0
ATTRIB
  5
1089
  8
DIM_ATT
 10
12.827975
 20
8.0093
 30
0.0
 40
0.09
  1
5.957400,7.519300
  2
A2
 70
     1
  0
ATTRIB
  5
108A
  8
DIM_ATT
 10
12.827975
 20
7.8743
 30
0.0
 40
0.09
  1
6.117400,7.488300
  2
A3
 70
     1
  0
ATTRIB
  5
108B
  8
DIM_ATT
 10
12.827975
 20
7.7393
 30
0.0
 40
0.09
  1
1.000000,8.817400
  2
A4
 70
     1
  0
ATTRIB
  5
108C
  8
DIM_ATT
 10
12.827975
 20
7.6043
 30
0.0
 40
0.09
  1

  2
A5
 70
     1
  0
ATTRIB
  5
108D
  8
DIM_ATT
 10
12.827975
 20
7.4693
 30
0.0
 40
0.09
  1
DIMFIX
  2
A6
 70
     1
  0
ATTRIB
  5
108E
  8
DIM_ATT
 10
12.827975
 20
7.3343
 30
0.0
 40
0.09
  1
0
  2
A7
 70
     1
  0
ATTRIB
  5
108F
  8
DIM_ATT
 10
12.827975
 20
7.1993
 30
0.0
 40
0.09
  1
0
  2
A8
 70
     1
  0
SEQEND
  5
1090
  8
DIM_ATT
  0
INSERT
  5
1091
  8
DIM_ATT
 66
     1
  2
ATT_BLK
 10
13.267975
 20
7.8203
 30
0.0
  0
ATTRIB
  5
1092
  8
DIM_ATT
 10
13.267975
 20
7.9553
 30
0.0
 40
0.09
  1
HOR
  2
TYPE
 70
     1
  0
ATTRIB
  5
1093
  8
DIM_ATT
 10
13.267975
 20
7.8203
 30
0.0
 40
0.09
  1
.09
  2
A1
 70
     1
  0
ATTRIB
  5
1094
  8
DIM_ATT
 10
13.267975
 20
7.6853
 30
0.0
 40
0.09
  1
6.487400,7.225300
  2
A2
 70
     1
  0
ATTRIB
  5
1095
  8
DIM_ATT
 10
13.267975
 20
7.5503
 30
0.0
 40
0.09
  1
6.397400,7.195300
  2
A3
 70
     1
  0
ATTRIB
  5
1096
  8
DIM_ATT
 10
13.267975
 20
7.4153
 30
0.0
 40
0.09
  1
1.000000,6.291800
  2
A4
 70
     1
  0
ATTRIB
  5
1097
  8
DIM_ATT
 10
13.267975
 20
7.2803
 30
0.0
 40
0.09
  1

  2
A5
 70
     1
  0
ATTRIB
  5
1098
  8
DIM_ATT
 10
13.267975
 20
7.1453
 30
0.0
 40
0.09
  1
DIMFIX
  2
A6
 70
     1
  0
ATTRIB
  5
1099
  8
DIM_ATT
 10
13.267975
 20
7.0103
 30
0.0
 40
0.09
  1
0
  2
A7
 70
     1
  0
ATTRIB
  5
109A
  8
DIM_ATT
 10
13.267975
 20
6.8753
 30
0.0
 40
0.09
  1
0
  2
A8
 70
     1
  0
SEQEND
  5
109B
  8
DIM_ATT
  0
INSERT
  5
109C
  8
DIM_ATT
 66
     1
  2
ATT_BLK
 10
12.827975
 20
7.8093
 30
0.0
  0
ATTRIB
  5
109D
  8
DIM_ATT
 10
12.827975
 20
7.9443
 30
0.0
 40
0.09
  1
HOR
  2
TYPE
 70
     1
  0
ATTRIB
  5
109E
  8
DIM_ATT
 10
12.827975
 20
7.8093
 30
0.0
 40
0.09
  1
.530
  2
A1
 70
     1
  0
ATTRIB
  5
109F
  8
DIM_ATT
 10
12.827975
 20
7.6743
 30
0.0
 40
0.09
  1
5.957400,7.184300
  2
A2
 70
     1
  0
ATTRIB
  5
10A0
  8
DIM_ATT
 10
12.827975
 20
7.5393
 30
0.0
 40
0.09
  1
6.487400,7.225300
  2
A3
 70
     1
  0
ATTRIB
  5
10A1
  8
DIM_ATT
 10
12.827975
 20
7.4043
 30
0.0
 40
0.09
  1
1.000000,5.040600
  2
A4
 70
     1
  0
ATTRIB
  5
10A2
  8
DIM_ATT
 10
12.827975
 20
7.2693
 30
0.0
 40
0.09
  1

  2
A5
 70
     1
  0
ATTRIB
  5
10A3
  8
DIM_ATT
 10
12.827975
 20
7.1343
 30
0.0
 40
0.09
  1
DIMFIX
  2
A6
 70
     1
  0
ATTRIB
  5
10A4
  8
DIM_ATT
 10
12.827975
 20
6.9993
 30
0.0
 40
0.09
  1
0
  2
A7
 70
     1
  0
ATTRIB
  5
10A5
  8
DIM_ATT
 10
12.827975
 20
6.8643
 30
0.0
 40
0.09
  1
0
  2
A8
 70
     1
  0
SEQEND
  5
10A6
  8
DIM_ATT
  0
INSERT
  5
10A7
  8
DIM_ATT
 66
     1
  2
ATT_BLK
 10
16.394975
 20
7.9768
 30
0.0
  0
ATTRIB
  5
10A8
  8
DIM_ATT
 10
16.394975
 20
8.1118
 30
0.0
 40
0.09
  1
HOR
  2
TYPE
 70
     1
  0
ATTRIB
  5
10A9
  8
DIM_ATT
 10
16.394975
 20
7.9768
 30
0.0
 40
0.09
  1
0.18750
  2
A1
 70
     1
  0
ATTRIB
  5
10AA
  8
DIM_ATT
 10
16.394975
 20
7.8418
 30
0.0
 40
0.09
  1
9.524400,7.351800
  2
A2
 70
     1
  0
ATTRIB
  5
10AB
  8
DIM_ATT
 10
16.394975
 20
7.7068
 30
0.0
 40
0.09
  1
9.711900,6.286400
  2
A3
 70
     1
  0
ATTRIB
  5
10AC
  8
DIM_ATT
 10
16.394975
 20
7.5718
 30
0.0
 40
0.09
  1
1.000000,6.219900
  2
A4
 70
     1
  0
ATTRIB
  5
10AD
  8
DIM_ATT
 10
16.394975
 20
7.4368
 30
0.0
 40
0.09
  1

  2
A5
 70
     1
  0
ATTRIB
  5
10AE
  8
DIM_ATT
 10
16.394975
 20
7.3018
 30
0.0
 40
0.09
  1
DIMFIX
  2
A6
 70
     1
  0
ATTRIB
  5
10AF
  8
DIM_ATT
 10
16.394975
 20
7.1668
 30
0.0
 40
0.09
  1
0
  2
A7
 70
     1
  0
ATTRIB
  5
10B0
  8
DIM_ATT
 10
16.394975
 20
7.0318
 30
0.0
 40
0.09
  1
0
  2
A8
 70
     1
  0
SEQEND
  5
10B1
  8
DIM_ATT
  0
INSERT
  5
10B2
  8
DIM_ATT
 66
     1
  2
ATT_BLK
 10
16.582475
 20
7.051
 30
0.0
  0
ATTRIB
  5
10B3
  8
DIM_ATT
 10
16.582475
 20
7.186
 30
0.0
 40
0.09
  1
HOR
  2
TYPE
 70
     1
  0
ATTRIB
  5
10B4
  8
DIM_ATT
 10
16.582475
 20
7.051
 30
0.0
 40
0.09
  1
0.18750
  2
A1
 70
     1
  0
ATTRIB
  5
10B5
  8
DIM_ATT
 10
16.582475
 20
6.916
 30
0.0
 40
0.09
  1
9.899400,7.351800
  2
A2
 70
     1
  0
ATTRIB
  5
10B6
  8
DIM_ATT
 10
16.582475
 20
6.781
 30
0.0
 40
0.09
  1
9.711900,6.426000
  2
A3
 70
     1
  0
ATTRIB
  5
10B7
  8
DIM_ATT
 10
16.582475
 20
6.646
 30
0.0
 40
0.09
  1
1.000000,6.426000
  2
A4
 70
     1
  0
ATTRIB
  5
10B8
  8
DIM_ATT
 10
16.582475
 20
6.511
 30
0.0
 40
0.09
  1

  2
A5
 70
     1
  0
ATTRIB
  5
10B9
  8
DIM_ATT
 10
16.582475
 20
6.376
 30
0.0
 40
0.09
  1
DIMFIX
  2
A6
 70
     1
  0
ATTRIB
  5
10BA
  8
DIM_ATT
 10
16.582475
 20
6.241
 30
0.0
 40
0.09
  1
0
  2
A7
 70
     1
  0
ATTRIB
  5
10BB
  8
DIM_ATT
 10
16.582475
 20
6.106
 30
0.0
 40
0.09
  1
0
  2
A8
 70
     1
  0
SEQEND
  5
10BC
  8
DIM_ATT
  0
INSERT
  5
10BD
  8
DIM_ATT
 66
     1
  2
ATT_BLK
 10
13.357975
 20
7.9768
 30
0.0
  0
ATTRIB
  5
10BE
  8
DIM_ATT
 10
13.357975
 20
8.1118
 30
0.0
 40
0.09
  1
VER
  2
TYPE
 70
     1
  0
ATTRIB
  5
10BF
  8
DIM_ATT
 10
13.357975
 20
7.9768
 30
0.0
 40
0.09
  1
0.15650
  2
A1
 70
     1
  0
ATTRIB
  5
10C0
  8
DIM_ATT
 10
13.357975
 20
7.8418
 30
0.0
 40
0.09
  1
6.487400,7.351800
  2
A2
 70
     1
  0
ATTRIB
  5
10C1
  8
DIM_ATT
 10
13.357975
 20
7.7068
 30
0.0
 40
0.09
  1
6.457400,7.508300
  2
A3
 70
     1
  0
ATTRIB
  5
10C2
  8
DIM_ATT
 10
13.357975
 20
7.5718
 30
0.0
 40
0.09
  1
6.781800,1.000000
  2
A4
 70
     1
  0
ATTRIB
  5
10C3
  8
DIM_ATT
 10
13.357975
 20
7.4368
 30
0.0
 40
0.09
  1
6.117400,1.000000
  2
A5
 70
     1
  0
ATTRIB
  5
10C4
  8
DIM_ATT
 10
13.357975
 20
7.3018
 30
0.0
 40
0.09
  1
DIMFIXHIDE
  2
A6
 70
     1
  0
ATTRIB
  5
10C5
  8
DIM_ATT
 10
13.357975
 20
7.1668
 30
0.0
 40
0.09
  1
0
  2
A7
 70
     1
  0
ATTRIB
  5
10C6
  8
DIM_ATT
 10
13.357975
 20
7.0318
 30
0.0
 40
0.09
  1
0
  2
A8
 70
     1
  0
SEQEND
  5
10C7
  8
DIM_ATT
  0
INSERT
  5
10C8
  8
DIM_ATT
 66
     1
  2
ATT_BLK
 10
13.327975
 20
7.8203
 30
0.0
  0
ATTRIB
  5
10C9
  8
DIM_ATT
 10
13.327975
 20
7.9553
 30
0.0
 40
0.09
  1
VER
  2
TYPE
 70
     1
  0
ATTRIB
  5
10CA
  8
DIM_ATT
 10
13.327975
 20
7.8203
 30
0.0
 40
0.09
  1
0.15650
  2
A1
 70
     1
  0
ATTRIB
  5
10CB
  8
DIM_ATT
 10
13.327975
 20
7.6853
 30
0.0
 40
0.09
  1
6.487400,7.351800
  2
A2
 70
     1
  0
ATTRIB
  5
10CC
  8
DIM_ATT
 10
13.327975
 20
7.5503
 30
0.0
 40
0.09
  1
6.457400,7.195300
  2
A3
 70
     1
  0
ATTRIB
  5
10CD
  8
DIM_ATT
 10
13.327975
 20
7.4153
 30
0.0
 40
0.09
  1
6.866900,1.000000
  2
A4
 70
     1
  0
ATTRIB
  5
10CE
  8
DIM_ATT
 10
13.327975
 20
7.2803
 30
0.0
 40
0.09
  1
6.367700,1.000000
  2
A5
 70
     1
  0
ATTRIB
  5
10CF
  8
DIM_ATT
 10
13.327975
 20
7.1453
 30
0.0
 40
0.09
  1
DIMFIXHIDE
  2
A6
 70
     1
  0
ATTRIB
  5
10D0
  8
DIM_ATT
 10
13.327975
 20
7.0103
 30
0.0
 40
0.09
  1
0
  2
A7
 70
     1
  0
ATTRIB
  5
10D1
  8
DIM_ATT
 10
13.327975
 20
6.8753
 30
0.0
 40
0.09
  1
0
  2
A8
 70
     1
  0
SEQEND
  5
10D2
  8
DIM_ATT
  0
INSERT
  5
10D3
  8
DIM_ATT
 66
     1
  2
ATT_BLK
 10
12.827975
 20
7.9768
 30
0.0
  0
ATTRIB
  5
10D4
  8
DIM_ATT
 10
12.827975
 20
8.1118
 30
0.0
 40
0.09
  1
VER
  2
TYPE
 70
     1
  0
ATTRIB
  5
10D5
  8
DIM_ATT
 10
12.827975
 20
7.9768
 30
0.0
 40
0.09
  1
0.18750
  2
A1
 70
     1
  0
ATTRIB
  5
10D6
  8
DIM_ATT
 10
12.827975
 20
7.8418
 30
0.0
 40
0.09
  1
5.957400,7.351800
  2
A2
 70
     1
  0
ATTRIB
  5
10D7
  8
DIM_ATT
 10
12.827975
 20
7.7068
 30
0.0
 40
0.09
  1
5.977400,7.539300
  2
A3
 70
     1
  0
ATTRIB
  5
10D8
  8
DIM_ATT
 10
12.827975
 20
7.5718
 30
0.0
 40
0.09
  1
5.567500,1.000000
  2
A4
 70
     1
  0
ATTRIB
  5
10D9
  8
DIM_ATT
 10
12.827975
 20
7.4368
 30
0.0
 40
0.09
  1
6.117400,1.000000
  2
A5
 70
     1
  0
ATTRIB
  5
10DA
  8
DIM_ATT
 10
12.827975
 20
7.3018
 30
0.0
 40
0.09
  1
DIMFIXHIDE
  2
A6
 70
     1
  0
ATTRIB
  5
10DB
  8
DIM_ATT
 10
12.827975
 20
7.1668
 30
0.0
 40
0.09
  1
0
  2
A7
 70
     1
  0
ATTRIB
  5
10DC
  8
DIM_ATT
 10
12.827975
 20
7.0318
 30
0.0
 40
0.09
  1
0
  2
A8
 70
     1
  0
SEQEND
  5
10DD
  8
DIM_ATT
  0
INSERT
  5
10DE
  8
DIM_ATT
 66
     1
  2
ATT_BLK
 10
12.847975
 20
7.7893
 30
0.0
  0
ATTRIB
  5
10DF
  8
DIM_ATT
 10
12.847975
 20
7.9243
 30
0.0
 40
0.09
  1
VER
  2
TYPE
 70
     1
  0
ATTRIB
  5
10E0
  8
DIM_ATT
 10
12.847975
 20
7.7893
 30
0.0
 40
0.09
  1
0.18750
  2
A1
 70
     1
  0
ATTRIB
  5
10E1
  8
DIM_ATT
 10
12.847975
 20
7.6543
 30
0.0
 40
0.09
  1
5.957400,7.351800
  2
A2
 70
     1
  0
ATTRIB
  5
10E2
  8
DIM_ATT
 10
12.847975
 20
7.5193
 30
0.0
 40
0.09
  1
5.977400,7.164300
  2
A3
 70
     1
  0
ATTRIB
  5
10E3
  8
DIM_ATT
 10
12.847975
 20
7.3843
 30
0.0
 40
0.09
  1
5.459000,1.000000
  2
A4
 70
     1
  0
ATTRIB
  5
10E4
  8
DIM_ATT
 10
12.847975
 20
7.2493
 30
0.0
 40
0.09
  1
6.117400,1.000000
  2
A5
 70
     1
  0
ATTRIB
  5
10E5
  8
DIM_ATT
 10
12.847975
 20
7.1143
 30
0.0
 40
0.09
  1
DIMFIXHIDE
  2
A6
 70
     1
  0
ATTRIB
  5
10E6
  8
DIM_ATT
 10
12.847975
 20
6.9793
 30
0.0
 40
0.09
  1
0
  2
A7
 70
     1
  0
ATTRIB
  5
10E7
  8
DIM_ATT
 10
12.847975
 20
6.8443
 30
0.0
 40
0.09
  1
0
  2
A8
 70
     1
  0
SEQEND
  5
10E8
  8
DIM_ATT
  0
INSERT
  5
10E9
  8
DIM_ATT
 66
     1
  2
ATT_BLK
 10
12.987975
 20
7.9768
 30
0.0
  0
ATTRIB
  5
10EA
  8
DIM_ATT
 10
12.987975
 20
8.1118
 30
0.0
 40
0.09
  1
VER
  2
TYPE
 70
     1
  0
ATTRIB
  5
10EB
  8
DIM_ATT
 10
12.987975
 20
7.9768
 30
0.0
 40
0.09
  1
0.14000
  2
A1
 70
     1
  0
ATTRIB
  5
10EC
  8
DIM_ATT
 10
12.987975
 20
7.8418
 30
0.0
 40
0.09
  1
6.117400,7.491800
  2
A2
 70
     1
  0
ATTRIB
  5
10ED
  8
DIM_ATT
 10
12.987975
 20
7.7068
 30
0.0
 40
0.09
  1
6.117400,7.351800
  2
A3
 70
     1
  0
ATTRIB
  5
10EE
  8
DIM_ATT
 10
12.987975
 20
7.5718
 30
0.0
 40
0.09
  1
3.628600,1.000000
  2
A4
 70
     1
  0
ATTRIB
  5
10EF
  8
DIM_ATT
 10
12.987975
 20
7.4368
 30
0.0
 40
0.09
  1
6.397400,1.000000
  2
A5
 70
     1
  0
ATTRIB
  5
10F0
  8
DIM_ATT
 10
12.987975
 20
7.3018
 30
0.0
 40
0.09
  1
DIMFIXHIDE
  2
A6
 70
     1
  0
ATTRIB
  5
10F1
  8
DIM_ATT
 10
12.987975
 20
7.1668
 30
0.0
 40
0.09
  1
0
  2
A7
 70
     1
  0
ATTRIB
  5
10F2
  8
DIM_ATT
 10
12.987975
 20
7.0318
 30
0.0
 40
0.09
  1
0
  2
A8
 70
     1
  0
SEQEND
  5
10F3
  8
DIM_ATT
  0
INSERT
  5
10F4
  8
DIM_ATT
 66
     1
  2
ATT_BLK
 10
12.987975
 20
7.8368
 30
0.0
  0
ATTRIB
  5
10F5
  8
DIM_ATT
 10
12.987975
 20
7.9718
 30
0.0
 40
0.09
  1
VER
  2
TYPE
 70
     1
  0
ATTRIB
  5
10F6
  8
DIM_ATT
 10
12.987975
 20
7.8368
 30
0.0
 40
0.09
  1
0.14000
  2
A1
 70
     1
  0
ATTRIB
  5
10F7
  8
DIM_ATT
 10
12.987975
 20
7.7018
 30
0.0
 40
0.09
  1
6.117400,7.351800
  2
A2
 70
     1
  0
ATTRIB
  5
10F8
  8
DIM_ATT
 10
12.987975
 20
7.5668
 30
0.0
 40
0.09
  1
6.117400,7.211800
  2
A3
 70
     1
  0
ATTRIB
  5
10F9
  8
DIM_ATT
 10
12.987975
 20
7.4318
 30
0.0
 40
0.09
  1
3.506000,1.000000
  2
A4
 70
     1
  0
ATTRIB
  5
10FA
  8
DIM_ATT
 10
12.987975
 20
7.2968
 30
0.0
 40
0.09
  1
6.397400,1.000000
  2
A5
 70
     1
  0
ATTRIB
  5
10FB
  8
DIM_ATT
 10
12.987975
 20
7.1618
 30
0.0
 40
0.09
  1
DIMFIXHIDE
  2
A6
 70
     1
  0
ATTRIB
  5
10FC
  8
DIM_ATT
 10
12.987975
 20
7.0268
 30
0.0
 40
0.09
  1
0
  2
A7
 70
     1
  0
ATTRIB
  5
10FD
  8
DIM_ATT
 10
12.987975
 20
6.8918
 30
0.0
 40
0.09
  1
0
  2
A8
 70
     1
  0
SEQEND
  5
10FE
  8
DIM_ATT
  0
INSERT
  5
10FF
  8
DIM_ATT
 66
     1
  2
ATT_BLK
 10
13.357975
 20
7.9768
 30
0.0
  0
ATTRIB
  5
1100
  8
DIM_ATT
 10
13.357975
 20
8.1118
 30
0.0
 40
0.09
  1
VER
  2
TYPE
 70
     1
  0
ATTRIB
  5
1101
  8
DIM_ATT
 10
13.357975
 20
7.9768
 30
0.0
 40
0.09
  1
0.09000
  2
A1
 70
     1
  0
ATTRIB
  5
1102
  8
DIM_ATT
 10
13.357975
 20
7.8418
 30
0.0
 40
0.09
  1
6.487400,7.441800
  2
A2
 70
     1
  0
ATTRIB
  5
1103
  8
DIM_ATT
 10
13.357975
 20
7.7068
 30
0.0
 40
0.09
  1
6.487400,7.351800
  2
A3
 70
     1
  0
ATTRIB
  5
1104
  8
DIM_ATT
 10
13.357975
 20
7.5718
 30
0.0
 40
0.09
  1
8.769500,1.000000
  2
A4
 70
     1
  0
ATTRIB
  5
1105
  8
DIM_ATT
 10
13.357975
 20
7.4368
 30
0.0
 40
0.09
  1

  2
A5
 70
     1
  0
ATTRIB
  5
1106
  8
DIM_ATT
 10
13.357975
 20
7.3018
 30
0.0
 40
0.09
  1
DIMFIXHIDE
  2
A6
 70
     1
  0
ATTRIB
  5
1107
  8
DIM_ATT
 10
13.357975
 20
7.1668
 30
0.0
 40
0.09
  1
0
  2
A7
 70
     1
  0
ATTRIB
  5
1108
  8
DIM_ATT
 10
13.357975
 20
7.0318
 30
0.0
 40
0.09
  1
0
  2
A8
 70
     1
  0
SEQEND
  5
1109
  8
DIM_ATT
  0
INSERT
  5
110A
  8
DIM_ATT
 66
     1
  2
ATT_BLK
 10
13.357975
 20
7.8868
 30
0.0
  0
ATTRIB
  5
110B
  8
DIM_ATT
 10
13.357975
 20
8.0218
 30
0.0
 40
0.09
  1
VER
  2
TYPE
 70
     1
  0
ATTRIB
  5
110C
  8
DIM_ATT
 10
13.357975
 20
7.8868
 30
0.0
 40
0.09
  1
0.09000
  2
A1
 70
     1
  0
ATTRIB
  5
110D
  8
DIM_ATT
 10
13.357975
 20
7.7518
 30
0.0
 40
0.09
  1
6.487400,7.351800
  2
A2
 70
     1
  0
ATTRIB
  5
110E
  8
DIM_ATT
 10
13.357975
 20
7.6168
 30
0.0
 40
0.09
  1
6.487400,7.261800
  2
A3
 70
     1
  0
ATTRIB
  5
110F
  8
DIM_ATT
 10
13.357975
 20
7.4818
 30
0.0
 40
0.09
  1
9.007100,1.000000
  2
A4
 70
     1
  0
ATTRIB
  5
1110
  8
DIM_ATT
 10
13.357975
 20
7.3468
 30
0.0
 40
0.09
  1

  2
A5
 70
     1
  0
ATTRIB
  5
1111
  8
DIM_ATT
 10
13.357975
 20
7.2118
 30
0.0
 40
0.09
  1
DIMFIXHIDE
  2
A6
 70
     1
  0
ATTRIB
  5
1112
  8
DIM_ATT
 10
13.357975
 20
7.0768
 30
0.0
 40
0.09
  1
0
  2
A7
 70
     1
  0
ATTRIB
  5
1113
  8
DIM_ATT
 10
13.357975
 20
6.9418
 30
0.0
 40
0.09
  1
0
  2
A8
 70
     1
  0
SEQEND
  5
1114
  8
DIM_ATT
  0
INSERT
  5
1115
  8
DIM_ATT
 66
     1
  2
ATT_BLK
 10
17.407375
 20
7.9768
 30
0.0
  0
ATTRIB
  5
1116
  8
DIM_ATT
 10
17.407375
 20
8.1118
 30
0.0
 40
0.09
  1
VER
  2
TYPE
 70
     1
  0
ATTRIB
  5
1117
  8
DIM_ATT
 10
17.407375
 20
7.9768
 30
0.0
 40
0.09
  1
0.18750
  2
A1
 70
     1
  0
ATTRIB
  5
1118
  8
DIM_ATT
 10
17.407375
 20
7.8418
 30
0.0
 40
0.09
  1
9.711900,7.539300
  2
A2
 70
     1
  0
ATTRIB
  5
1119
  8
DIM_ATT
 10
17.407375
 20
7.7068
 30
0.0
 40
0.09
  1
10.536800,7.351800
  2
A3
 70
     1
  0
ATTRIB
  5
111A
  8
DIM_ATT
 10
17.407375
 20
7.5718
 30
0.0
 40
0.09
  1
10.536800,1.000000
  2
A4
 70
     1
  0
ATTRIB
  5
111B
  8
DIM_ATT
 10
17.407375
 20
7.4368
 30
0.0
 40
0.09
  1

  2
A5
 70
     1
  0
ATTRIB
  5
111C
  8
DIM_ATT
 10
17.407375
 20
7.3018
 30
0.0
 40
0.09
  1
DIMFIX
  2
A6
 70
     1
  0
ATTRIB
  5
111D
  8
DIM_ATT
 10
17.407375
 20
7.1668
 30
0.0
 40
0.09
  1
0
  2
A7
 70
     1
  0
ATTRIB
  5
111E
  8
DIM_ATT
 10
17.407375
 20
7.0318
 30
0.0
 40
0.09
  1
0
  2
A8
 70
     1
  0
SEQEND
  5
111F
  8
DIM_ATT
  0
INSERT
  5
1120
  8
DIM_ATT
 66
     1
  2
ATT_BLK
 10
16.582475
 20
7.7893
 30
0.0
  0
ATTRIB
  5
1121
  8
DIM_ATT
 10
16.582475
 20
7.9243
 30
0.0
 40
0.09
  1
VER
  2
TYPE
 70
     1
  0
ATTRIB
  5
1122
  8
DIM_ATT
 10
16.582475
 20
7.7893
 30
0.0
 40
0.09
  1
0.18750
  2
A1
 70
     1
  0
ATTRIB
  5
1123
  8
DIM_ATT
 10
16.582475
 20
7.6543
 30
0.0
 40
0.09
  1
9.711900,7.164300
  2
A2
 70
     1
  0
ATTRIB
  5
1124
  8
DIM_ATT
 10
16.582475
 20
7.5193
 30
0.0
 40
0.09
  1
8.151200,7.351800
  2
A3
 70
     1
  0
ATTRIB
  5
1125
  8
DIM_ATT
 10
16.582475
 20
7.3843
 30
0.0
 40
0.09
  1
8.144900,1.000000
  2
A4
 70
     1
  0
ATTRIB
  5
1126
  8
DIM_ATT
 10
16.582475
 20
7.2493
 30
0.0
 40
0.09
  1

  2
A5
 70
     1
  0
ATTRIB
  5
1127
  8
DIM_ATT
 10
16.582475
 20
7.1143
 30
0.0
 40
0.09
  1
DIMFIX
  2
A6
 70
     1
  0
ATTRIB
  5
1128
  8
DIM_ATT
 10
16.582475
 20
6.9793
 30
0.0
 40
0.09
  1
0
  2
A7
 70
     1
  0
ATTRIB
  5
1129
  8
DIM_ATT
 10
16.582475
 20
6.8443
 30
0.0
 40
0.09
  1
0
  2
A8
 70
     1
  0
SEQEND
  5
112A
  8
DIM_ATT
  0
INSERT
  5
112B
  8
DIM_ATT
 66
     1
  2
ATT_BLK
 10
16.551175
 20
8.1537
 30
0.0
  0
ATTRIB
  5
112C
  8
DIM_ATT
 10
16.551175
 20
8.2887
 30
0.0
 40
0.09
  1
ALI
  2
TYPE
 70
     1
  0
ATTRIB
  5
112D
  8
DIM_ATT
 10
16.551175
 20
8.1537
 30
0.0
 40
0.09
  1
.309
  2
A1
 70
     1
  0
ATTRIB
  5
112E
  8
DIM_ATT
 10
16.551175
 20
8.0187
 30
0.0
 40
0.09
  1
9.680600,7.528700
  2
A2
 70
     1
  0
ATTRIB
  5
112F
  8
DIM_ATT
 10
16.551175
 20
7.8837
 30
0.0
 40
0.09
  1
9.888800,7.320500
  2
A3
 70
     1
  0
ATTRIB
  5
1130
  8
DIM_ATT
 10
16.551175
 20
7.7487
 30
0.0
 40
0.09
  1
10.807200,8.162400
  2
A4
 70
     1
  0
ATTRIB
  5
1131
  8
DIM_ATT
 10
16.551175
 20
7.6137
 30
0.0
 40
0.09
  1
0
  2
A5
 70
     1
  0
ATTRIB
  5
1132
  8
DIM_ATT
 10
16.551175
 20
7.4787
 30
0.0
 40
0.09
  1
DIMFIX
  2
A6
 70
     1
  0
ATTRIB
  5
1133
  8
DIM_ATT
 10
16.551175
 20
7.3437
 30
0.0
 40
0.09
  1
0
  2
A7
 70
     1
  0
ATTRIB
  5
1134
  8
DIM_ATT
 10
16.551175
 20
7.2087
 30
0.0
 40
0.09
  1
0
  2
A8
 70
     1
  0
SEQEND
  5
1135
  8
DIM_ATT
  0
INSERT
  5
1136
  8
DIM_ATT
 66
     1
  2
ATT_BLK
 10
16.613875
 20
8.1537
 30
0.0
  0
ATTRIB
  5
1137
  8
DIM_ATT
 10
16.613875
 20
8.2887
 30
0.0
 40
0.09
  1
ALI
  2
TYPE
 70
     1
  0
ATTRIB
  5
1138
  8
DIM_ATT
 10
16.613875
 20
8.1537
 30
0.0
 40
0.09
  1
.309
  2
A1
 70
     1
  0
ATTRIB
  5
1139
  8
DIM_ATT
 10
16.613875
 20
8.0187
 30
0.0
 40
0.09
  1
9.743300,7.528700
  2
A2
 70
     1
  0
ATTRIB
  5
113A
  8
DIM_ATT
 10
16.613875
 20
7.8837
 30
0.0
 40
0.09
  1
9.535000,7.320500
  2
A3
 70
     1
  0
ATTRIB
  5
113B
  8
DIM_ATT
 10
16.613875
 20
7.7487
 30
0.0
 40
0.09
  1
8.335017,8.553060
  2
A4
 70
     1
  0
ATTRIB
  5
113C
  8
DIM_ATT
 10
16.613875
 20
7.6137
 30
0.0
 40
0.09
  1
0
  2
A5
 70
     1
  0
ATTRIB
  5
113D
  8
DIM_ATT
 10
16.613875
 20
7.4787
 30
0.0
 40
0.09
  1
DIMFIX
  2
A6
 70
     1
  0
ATTRIB
  5
113E
  8
DIM_ATT
 10
16.613875
 20
7.3437
 30
0.0
 40
0.09
  1
0
  2
A7
 70
     1
  0
ATTRIB
  5
113F
  8
DIM_ATT
 10
16.613875
 20
7.2087
 30
0.0
 40
0.09
  1
0
  2
A8
 70
     1
  0
SEQEND
  5
1140
  8
DIM_ATT
  0
INSERT
  5
1141
  8
DIM_ATT
 66
     1
  2
ATT_BLK
 10
16.582475
 20
7.9768
 30
0.0
  0
ATTRIB
  5
1142
  8
DIM_ATT
 10
16.582475
 20
8.1118
 30
0.0
 40
0.09
  1
RAD
  2
TYPE
 70
     1
  0
ATTRIB
  5
1143
  8
DIM_ATT
 10
16.582475
 20
7.9768
 30
0.0
 40
0.09
  1
.09
  2
A1
 70
     1
  0
ATTRIB
  5
1144
  8
DIM_ATT
 10
16.582475
 20
7.8418
 30
0.0
 40
0.09
  1
DIMFIXHIDE 9.711900 7.351800 9.665025 7.428629
  2
A2
 70
     1
  0
ATTRIB
  5
1145
  8
DIM_ATT
 10
16.582475
 20
7.7068
 30
0.0
 40
0.09
  1
: : CIRCLE : 8 : OBJECT : 10 : 9.711900 : 20 : 7.351800 : 40 : 0.090008 : 
  2
A3
 70
     1
  0
ATTRIB
  5
1146
  8
DIM_ATT
 10
16.582475
 20
7.5718
 30
0.0
 40
0.09
  1
0
  2
A4
 70
     1
  0
ATTRIB
  5
1147
  8
DIM_ATT
 10
16.582475
 20
7.4368
 30
0.0
 40
0.09
  1
0
  2
A5
 70
     1
  0
ATTRIB
  5
1148
  8
DIM_ATT
 10
16.582475
 20
7.3018
 30
0.0
 40
0.09
  1
0
  2
A6
 70
     1
  0
ATTRIB
  5
1149
  8
DIM_ATT
 10
16.582475
 20
7.1668
 30
0.0
 40
0.09
  1
0
  2
A7
 70
     1
  0
ATTRIB
  5
114A
  8
DIM_ATT
 10
16.582475
 20
7.0318
 30
0.0
 40
0.09
  1
0
  2
A8
 70
     1
  0
SEQEND
  5
114B
  8
DIM_ATT
  0
INSERT
  5
114C
  8
DIM_ATT
 66
     1
  2
ATT_BLK
 10
16.582475
 20
7.9768
 30
0.0
  0
ATTRIB
  5
114D
  8
DIM_ATT
 10
16.582475
 20
8.1118
 30
0.0
 40
0.09
  1
RAD
  2
TYPE
 70
     1
  0
ATTRIB
  5
114E
  8
DIM_ATT
 10
16.582475
 20
7.9768
 30
0.0
 40
0.09
  1
0.18750
  2
A1
 70
     1
  0
ATTRIB
  5
114F
  8
DIM_ATT
 10
16.582475
 20
7.8418
 30
0.0
 40
0.09
  1
DIMFIXHIDE 9.711900 7.351800 9.807207 7.190329
  2
A2
 70
     1
  0
ATTRIB
  5
1150
  8
DIM_ATT
 10
16.582475
 20
7.7068
 30
0.0
 40
0.09
  1
: : CIRCLE : 8 : HIDOB : 10 : 9.711900 : 20 : 7.351800 : 40 : 0.187491 : 
  2
A3
 70
     1
  0
ATTRIB
  5
1151
  8
DIM_ATT
 10
16.582475
 20
7.5718
 30
0.0
 40
0.09
  1
0
  2
A4
 70
     1
  0
ATTRIB
  5
1152
  8
DIM_ATT
 10
16.582475
 20
7.4368
 30
0.0
 40
0.09
  1
0
  2
A5
 70
     1
  0
ATTRIB
  5
1153
  8
DIM_ATT
 10
16.582475
 20
7.3018
 30
0.0
 40
0.09
  1
0
  2
A6
 70
     1
  0
ATTRIB
  5
1154
  8
DIM_ATT
 10
16.582475
 20
7.1668
 30
0.0
 40
0.09
  1
0
  2
A7
 70
     1
  0
ATTRIB
  5
1155
  8
DIM_ATT
 10
16.582475
 20
7.0318
 30
0.0
 40
0.09
  1
0
  2
A8
 70
     1
  0
SEQEND
  5
1156
  8
DIM_ATT
  0
INSERT
  5
1157
  8
DIM_ATT
 66
     1
  2
ATT_BLK
 10
16.582475
 20
7.9768
 30
0.0
  0
ATTRIB
  5
1158
  8
DIM_ATT
 10
16.582475
 20
8.1118
 30
0.0
 40
0.09
  1
RAD
  2
TYPE
 70
     1
  0
ATTRIB
  5
1159
  8
DIM_ATT
 10
16.582475
 20
7.9768
 30
0.0
 40
0.09
  1
0.15650
  2
A1
 70
     1
  0
ATTRIB
  5
115A
  8
DIM_ATT
 10
16.582475
 20
7.8418
 30
0.0
 40
0.09
  1
DIMFIX 9.711900 7.351800 9.611019 7.232154
  2
A2
 70
     1
  0
ATTRIB
  5
115B
  8
DIM_ATT
 10
16.582475
 20
7.7068
 30
0.0
 40
0.09
  1
: : CIRCLE : 8 : OBJECT : 10 : 9.711900 : 20 : 7.351800 : 40 : 0.156500 : 
  2
A3
 70
     1
  0
ATTRIB
  5
115C
  8
DIM_ATT
 10
16.582475
 20
7.5718
 30
0.0
 40
0.09
  1
0
  2
A4
 70
     1
  0
ATTRIB
  5
115D
  8
DIM_ATT
 10
16.582475
 20
7.4368
 30
0.0
 40
0.09
  1
0
  2
A5
 70
     1
  0
ATTRIB
  5
115E
  8
DIM_ATT
 10
16.582475
 20
7.3018
 30
0.0
 40
0.09
  1
0
  2
A6
 70
     1
  0
ATTRIB
  5
115F
  8
DIM_ATT
 10
16.582475
 20
7.1668
 30
0.0
 40
0.09
  1
0
  2
A7
 70
     1
  0
ATTRIB
  5
1160
  8
DIM_ATT
 10
16.582475
 20
7.0318
 30
0.0
 40
0.09
  1
0
  2
A8
 70
     1
  0
SEQEND
  5
1161
  8
DIM_ATT
  0
INSERT
  5
1162
  8
DIM_ATT
 66
     1
  2
ATT_BLK
 10
21.309217
 20
14.989268
 30
0.0
  0
ATTRIB
  5
1163
  8
DIM_ATT
 10
21.309217
 20
15.124268
 30
0.0
 40
0.09
  1
HOR
  2
TYPE
 70
     1
  0
ATTRIB
  5
1164
  8
DIM_ATT
 10
21.309217
 20
14.989268
 30
0.0
 40
0.09
  1
.16
  2
A1
 70
     1
  0
ATTRIB
  5
1165
  8
DIM_ATT
 10
21.309217
 20
14.854268
 30
0.0
 40
0.09
  1
5.957400,7.519300
  2
A2
 70
     1
  0
ATTRIB
  5
1166
  8
DIM_ATT
 10
21.309217
 20
14.719268
 30
0.0
 40
0.09
  1
6.117400,7.488300
  2
A3
 70
     1
  0
ATTRIB
  5
1167
  8
DIM_ATT
 10
21.309217
 20
14.584268
 30
0.0
 40
0.09
  1
1.000000,8.817400
  2
A4
 70
     1
  0
ATTRIB
  5
1168
  8
DIM_ATT
 10
21.309217
 20
14.449268
 30
0.0
 40
0.09
  1

  2
A5
 70
     1
  0
ATTRIB
  5
1169
  8
DIM_ATT
 10
21.309217
 20
14.314268
 30
0.0
 40
0.09
  1
DIMFIX
  2
A6
 70
     1
  0
ATTRIB
  5
116A
  8
DIM_ATT
 10
21.309217
 20
14.179268
 30
0.0
 40
0.09
  1
0
  2
A7
 70
     1
  0
ATTRIB
  5
116B
  8
DIM_ATT
 10
21.309217
 20
14.044268
 30
0.0
 40
0.09
  1
0
  2
A8
 70
     1
  0
SEQEND
  5
116C
  8
DIM_ATT
  0
INSERT
  5
116D
  8
DIM_ATT
 66
     1
  2
ATT_BLK
 10
21.749217
 20
14.665268
 30
0.0
  0
ATTRIB
  5
116E
  8
DIM_ATT
 10
21.749217
 20
14.800268
 30
0.0
 40
0.09
  1
HOR
  2
TYPE
 70
     1
  0
ATTRIB
  5
116F
  8
DIM_ATT
 10
21.749217
 20
14.665268
 30
0.0
 40
0.09
  1
.09
  2
A1
 70
     1
  0
ATTRIB
  5
1170
  8
DIM_ATT
 10
21.749217
 20
14.530268
 30
0.0
 40
0.09
  1
6.487400,7.225300
  2
A2
 70
     1
  0
ATTRIB
  5
1171
  8
DIM_ATT
 10
21.749217
 20
14.395268
 30
0.0
 40
0.09
  1
6.397400,7.195300
  2
A3
 70
     1
  0
ATTRIB
  5
1172
  8
DIM_ATT
 10
21.749217
 20
14.260268
 30
0.0
 40
0.09
  1
1.000000,6.291800
  2
A4
 70
     1
  0
ATTRIB
  5
1173
  8
DIM_ATT
 10
21.749217
 20
14.125268
 30
0.0
 40
0.09
  1

  2
A5
 70
     1
  0
ATTRIB
  5
1174
  8
DIM_ATT
 10
21.749217
 20
13.990268
 30
0.0
 40
0.09
  1
DIMFIX
  2
A6
 70
     1
  0
ATTRIB
  5
1175
  8
DIM_ATT
 10
21.749217
 20
13.855268
 30
0.0
 40
0.09
  1
0
  2
A7
 70
     1
  0
ATTRIB
  5
1176
  8
DIM_ATT
 10
21.749217
 20
13.720268
 30
0.0
 40
0.09
  1
0
  2
A8
 70
     1
  0
SEQEND
  5
1177
  8
DIM_ATT
  0
INSERT
  5
1178
  8
DIM_ATT
 66
     1
  2
ATT_BLK
 10
21.309217
 20
14.654268
 30
0.0
  0
ATTRIB
  5
1179
  8
DIM_ATT
 10
21.309217
 20
14.789268
 30
0.0
 40
0.09
  1
HOR
  2
TYPE
 70
     1
  0
ATTRIB
  5
117A
  8
DIM_ATT
 10
21.309217
 20
14.654268
 30
0.0
 40
0.09
  1
.530
  2
A1
 70
     1
  0
ATTRIB
  5
117B
  8
DIM_ATT
 10
21.309217
 20
14.519268
 30
0.0
 40
0.09
  1
5.957400,7.184300
  2
A2
 70
     1
  0
ATTRIB
  5
117C
  8
DIM_ATT
 10
21.309217
 20
14.384268
 30
0.0
 40
0.09
  1
6.487400,7.225300
  2
A3
 70
     1
  0
ATTRIB
  5
117D
  8
DIM_ATT
 10
21.309217
 20
14.249268
 30
0.0
 40
0.09
  1
1.000000,5.040600
  2
A4
 70
     1
  0
ATTRIB
  5
117E
  8
DIM_ATT
 10
21.309217
 20
14.114268
 30
0.0
 40
0.09
  1

  2
A5
 70
     1
  0
ATTRIB
  5
117F
  8
DIM_ATT
 10
21.309217
 20
13.979268
 30
0.0
 40
0.09
  1
DIMFIX
  2
A6
 70
     1
  0
ATTRIB
  5
1180
  8
DIM_ATT
 10
21.309217
 20
13.844268
 30
0.0
 40
0.09
  1
0
  2
A7
 70
     1
  0
ATTRIB
  5
1181
  8
DIM_ATT
 10
21.309217
 20
13.709268
 30
0.0
 40
0.09
  1
0
  2
A8
 70
     1
  0
SEQEND
  5
1182
  8
DIM_ATT
  0
INSERT
  5
1183
  8
DIM_ATT
 66
     1
  2
ATT_BLK
 10
24.876217
 20
14.821768
 30
0.0
  0
ATTRIB
  5
1184
  8
DIM_ATT
 10
24.876217
 20
14.956768
 30
0.0
 40
0.09
  1
HOR
  2
TYPE
 70
     1
  0
ATTRIB
  5
1185
  8
DIM_ATT
 10
24.876217
 20
14.821768
 30
0.0
 40
0.09
  1
0.18750
  2
A1
 70
     1
  0
ATTRIB
  5
1186
  8
DIM_ATT
 10
24.876217
 20
14.686768
 30
0.0
 40
0.09
  1
9.524400,7.351800
  2
A2
 70
     1
  0
ATTRIB
  5
1187
  8
DIM_ATT
 10
24.876217
 20
14.551768
 30
0.0
 40
0.09
  1
9.711900,6.286400
  2
A3
 70
     1
  0
ATTRIB
  5
1188
  8
DIM_ATT
 10
24.876217
 20
14.416768
 30
0.0
 40
0.09
  1
1.000000,6.219900
  2
A4
 70
     1
  0
ATTRIB
  5
1189
  8
DIM_ATT
 10
24.876217
 20
14.281768
 30
0.0
 40
0.09
  1

  2
A5
 70
     1
  0
ATTRIB
  5
118A
  8
DIM_ATT
 10
24.876217
 20
14.146768
 30
0.0
 40
0.09
  1
DIMFIX
  2
A6
 70
     1
  0
ATTRIB
  5
118B
  8
DIM_ATT
 10
24.876217
 20
14.011768
 30
0.0
 40
0.09
  1
0
  2
A7
 70
     1
  0
ATTRIB
  5
118C
  8
DIM_ATT
 10
24.876217
 20
13.876768
 30
0.0
 40
0.09
  1
0
  2
A8
 70
     1
  0
SEQEND
  5
118D
  8
DIM_ATT
  0
INSERT
  5
118E
  8
DIM_ATT
 66
     1
  2
ATT_BLK
 10
25.063717
 20
13.895968
 30
0.0
  0
ATTRIB
  5
118F
  8
DIM_ATT
 10
25.063717
 20
14.030968
 30
0.0
 40
0.09
  1
HOR
  2
TYPE
 70
     1
  0
ATTRIB
  5
1190
  8
DIM_ATT
 10
25.063717
 20
13.895968
 30
0.0
 40
0.09
  1
0.18750
  2
A1
 70
     1
  0
ATTRIB
  5
1191
  8
DIM_ATT
 10
25.063717
 20
13.760968
 30
0.0
 40
0.09
  1
9.899400,7.351800
  2
A2
 70
     1
  0
ATTRIB
  5
1192
  8
DIM_ATT
 10
25.063717
 20
13.625968
 30
0.0
 40
0.09
  1
9.711900,6.426000
  2
A3
 70
     1
  0
ATTRIB
  5
1193
  8
DIM_ATT
 10
25.063717
 20
13.490968
 30
0.0
 40
0.09
  1
1.000000,6.426000
  2
A4
 70
     1
  0
ATTRIB
  5
1194
  8
DIM_ATT
 10
25.063717
 20
13.355968
 30
0.0
 40
0.09
  1

  2
A5
 70
     1
  0
ATTRIB
  5
1195
  8
DIM_ATT
 10
25.063717
 20
13.220968
 30
0.0
 40
0.09
  1
DIMFIX
  2
A6
 70
     1
  0
ATTRIB
  5
1196
  8
DIM_ATT
 10
25.063717
 20
13.085968
 30
0.0
 40
0.09
  1
0
  2
A7
 70
     1
  0
ATTRIB
  5
1197
  8
DIM_ATT
 10
25.063717
 20
12.950968
 30
0.0
 40
0.09
  1
0
  2
A8
 70
     1
  0
SEQEND
  5
1198
  8
DIM_ATT
  0
INSERT
  5
1199
  8
DIM_ATT
 66
     1
  2
ATT_BLK
 10
21.839217
 20
14.821768
 30
0.0
  0
ATTRIB
  5
119A
  8
DIM_ATT
 10
21.839217
 20
14.956768
 30
0.0
 40
0.09
  1
VER
  2
TYPE
 70
     1
  0
ATTRIB
  5
119B
  8
DIM_ATT
 10
21.839217
 20
14.821768
 30
0.0
 40
0.09
  1
0.15650
  2
A1
 70
     1
  0
ATTRIB
  5
119C
  8
DIM_ATT
 10
21.839217
 20
14.686768
 30
0.0
 40
0.09
  1
6.487400,7.351800
  2
A2
 70
     1
  0
ATTRIB
  5
119D
  8
DIM_ATT
 10
21.839217
 20
14.551768
 30
0.0
 40
0.09
  1
6.457400,7.508300
  2
A3
 70
     1
  0
ATTRIB
  5
119E
  8
DIM_ATT
 10
21.839217
 20
14.416768
 30
0.0
 40
0.09
  1
6.781800,1.000000
  2
A4
 70
     1
  0
ATTRIB
  5
119F
  8
DIM_ATT
 10
21.839217
 20
14.281768
 30
0.0
 40
0.09
  1
6.117400,1.000000
  2
A5
 70
     1
  0
ATTRIB
  5
11A0
  8
DIM_ATT
 10
21.839217
 20
14.146768
 30
0.0
 40
0.09
  1
DIMFIXHIDE
  2
A6
 70
     1
  0
ATTRIB
  5
11A1
  8
DIM_ATT
 10
21.839217
 20
14.011768
 30
0.0
 40
0.09
  1
0
  2
A7
 70
     1
  0
ATTRIB
  5
11A2
  8
DIM_ATT
 10
21.839217
 20
13.876768
 30
0.0
 40
0.09
  1
0
  2
A8
 70
     1
  0
SEQEND
  5
11A3
  8
DIM_ATT
  0
INSERT
  5
11A4
  8
DIM_ATT
 66
     1
  2
ATT_BLK
 10
21.809217
 20
14.665268
 30
0.0
  0
ATTRIB
  5
11A5
  8
DIM_ATT
 10
21.809217
 20
14.800268
 30
0.0
 40
0.09
  1
VER
  2
TYPE
 70
     1
  0
ATTRIB
  5
11A6
  8
DIM_ATT
 10
21.809217
 20
14.665268
 30
0.0
 40
0.09
  1
0.15650
  2
A1
 70
     1
  0
ATTRIB
  5
11A7
  8
DIM_ATT
 10
21.809217
 20
14.530268
 30
0.0
 40
0.09
  1
6.487400,7.351800
  2
A2
 70
     1
  0
ATTRIB
  5
11A8
  8
DIM_ATT
 10
21.809217
 20
14.395268
 30
0.0
 40
0.09
  1
6.457400,7.195300
  2
A3
 70
     1
  0
ATTRIB
  5
11A9
  8
DIM_ATT
 10
21.809217
 20
14.260268
 30
0.0
 40
0.09
  1
6.866900,1.000000
  2
A4
 70
     1
  0
ATTRIB
  5
11AA
  8
DIM_ATT
 10
21.809217
 20
14.125268
 30
0.0
 40
0.09
  1
6.367700,1.000000
  2
A5
 70
     1
  0
ATTRIB
  5
11AB
  8
DIM_ATT
 10
21.809217
 20
13.990268
 30
0.0
 40
0.09
  1
DIMFIXHIDE
  2
A6
 70
     1
  0
ATTRIB
  5
11AC
  8
DIM_ATT
 10
21.809217
 20
13.855268
 30
0.0
 40
0.09
  1
0
  2
A7
 70
     1
  0
ATTRIB
  5
11AD
  8
DIM_ATT
 10
21.809217
 20
13.720268
 30
0.0
 40
0.09
  1
0
  2
A8
 70
     1
  0
SEQEND
  5
11AE
  8
DIM_ATT
  0
INSERT
  5
11AF
  8
DIM_ATT
 66
     1
  2
ATT_BLK
 10
21.309217
 20
14.821768
 30
0.0
  0
ATTRIB
  5
11B0
  8
DIM_ATT
 10
21.309217
 20
14.956768
 30
0.0
 40
0.09
  1
VER
  2
TYPE
 70
     1
  0
ATTRIB
  5
11B1
  8
DIM_ATT
 10
21.309217
 20
14.821768
 30
0.0
 40
0.09
  1
0.18750
  2
A1
 70
     1
  0
ATTRIB
  5
11B2
  8
DIM_ATT
 10
21.309217
 20
14.686768
 30
0.0
 40
0.09
  1
5.957400,7.351800
  2
A2
 70
     1
  0
ATTRIB
  5
11B3
  8
DIM_ATT
 10
21.309217
 20
14.551768
 30
0.0
 40
0.09
  1
5.977400,7.539300
  2
A3
 70
     1
  0
ATTRIB
  5
11B4
  8
DIM_ATT
 10
21.309217
 20
14.416768
 30
0.0
 40
0.09
  1
5.567500,1.000000
  2
A4
 70
     1
  0
ATTRIB
  5
11B5
  8
DIM_ATT
 10
21.309217
 20
14.281768
 30
0.0
 40
0.09
  1
6.117400,1.000000
  2
A5
 70
     1
  0
ATTRIB
  5
11B6
  8
DIM_ATT
 10
21.309217
 20
14.146768
 30
0.0
 40
0.09
  1
DIMFIXHIDE
  2
A6
 70
     1
  0
ATTRIB
  5
11B7
  8
DIM_ATT
 10
21.309217
 20
14.011768
 30
0.0
 40
0.09
  1
0
  2
A7
 70
     1
  0
ATTRIB
  5
11B8
  8
DIM_ATT
 10
21.309217
 20
13.876768
 30
0.0
 40
0.09
  1
0
  2
A8
 70
     1
  0
SEQEND
  5
11B9
  8
DIM_ATT
  0
INSERT
  5
11BA
  8
DIM_ATT
 66
     1
  2
ATT_BLK
 10
21.329217
 20
14.634268
 30
0.0
  0
ATTRIB
  5
11BB
  8
DIM_ATT
 10
21.329217
 20
14.769268
 30
0.0
 40
0.09
  1
VER
  2
TYPE
 70
     1
  0
ATTRIB
  5
11BC
  8
DIM_ATT
 10
21.329217
 20
14.634268
 30
0.0
 40
0.09
  1
0.18750
  2
A1
 70
     1
  0
ATTRIB
  5
11BD
  8
DIM_ATT
 10
21.329217
 20
14.499268
 30
0.0
 40
0.09
  1
5.957400,7.351800
  2
A2
 70
     1
  0
ATTRIB
  5
11BE
  8
DIM_ATT
 10
21.329217
 20
14.364268
 30
0.0
 40
0.09
  1
5.977400,7.164300
  2
A3
 70
     1
  0
ATTRIB
  5
11BF
  8
DIM_ATT
 10
21.329217
 20
14.229268
 30
0.0
 40
0.09
  1
5.459000,1.000000
  2
A4
 70
     1
  0
ATTRIB
  5
11C0
  8
DIM_ATT
 10
21.329217
 20
14.094268
 30
0.0
 40
0.09
  1
6.117400,1.000000
  2
A5
 70
     1
  0
ATTRIB
  5
11C1
  8
DIM_ATT
 10
21.329217
 20
13.959268
 30
0.0
 40
0.09
  1
DIMFIXHIDE
  2
A6
 70
     1
  0
ATTRIB
  5
11C2
  8
DIM_ATT
 10
21.329217
 20
13.824268
 30
0.0
 40
0.09
  1
0
  2
A7
 70
     1
  0
ATTRIB
  5
11C3
  8
DIM_ATT
 10
21.329217
 20
13.689268
 30
0.0
 40
0.09
  1
0
  2
A8
 70
     1
  0
SEQEND
  5
11C4
  8
DIM_ATT
  0
INSERT
  5
11C5
  8
DIM_ATT
 66
     1
  2
ATT_BLK
 10
21.469217
 20
14.821768
 30
0.0
  0
ATTRIB
  5
11C6
  8
DIM_ATT
 10
21.469217
 20
14.956768
 30
0.0
 40
0.09
  1
VER
  2
TYPE
 70
     1
  0
ATTRIB
  5
11C7
  8
DIM_ATT
 10
21.469217
 20
14.821768
 30
0.0
 40
0.09
  1
0.14000
  2
A1
 70
     1
  0
ATTRIB
  5
11C8
  8
DIM_ATT
 10
21.469217
 20
14.686768
 30
0.0
 40
0.09
  1
6.117400,7.491800
  2
A2
 70
     1
  0
ATTRIB
  5
11C9
  8
DIM_ATT
 10
21.469217
 20
14.551768
 30
0.0
 40
0.09
  1
6.117400,7.351800
  2
A3
 70
     1
  0
ATTRIB
  5
11CA
  8
DIM_ATT
 10
21.469217
 20
14.416768
 30
0.0
 40
0.09
  1
3.628600,1.000000
  2
A4
 70
     1
  0
ATTRIB
  5
11CB
  8
DIM_ATT
 10
21.469217
 20
14.281768
 30
0.0
 40
0.09
  1
6.397400,1.000000
  2
A5
 70
     1
  0
ATTRIB
  5
11CC
  8
DIM_ATT
 10
21.469217
 20
14.146768
 30
0.0
 40
0.09
  1
DIMFIXHIDE
  2
A6
 70
     1
  0
ATTRIB
  5
11CD
  8
DIM_ATT
 10
21.469217
 20
14.011768
 30
0.0
 40
0.09
  1
0
  2
A7
 70
     1
  0
ATTRIB
  5
11CE
  8
DIM_ATT
 10
21.469217
 20
13.876768
 30
0.0
 40
0.09
  1
0
  2
A8
 70
     1
  0
SEQEND
  5
11CF
  8
DIM_ATT
  0
INSERT
  5
11D0
  8
DIM_ATT
 66
     1
  2
ATT_BLK
 10
21.469217
 20
14.681768
 30
0.0
  0
ATTRIB
  5
11D1
  8
DIM_ATT
 10
21.469217
 20
14.816768
 30
0.0
 40
0.09
  1
VER
  2
TYPE
 70
     1
  0
ATTRIB
  5
11D2
  8
DIM_ATT
 10
21.469217
 20
14.681768
 30
0.0
 40
0.09
  1
0.14000
  2
A1
 70
     1
  0
ATTRIB
  5
11D3
  8
DIM_ATT
 10
21.469217
 20
14.546768
 30
0.0
 40
0.09
  1
6.117400,7.351800
  2
A2
 70
     1
  0
ATTRIB
  5
11D4
  8
DIM_ATT
 10
21.469217
 20
14.411768
 30
0.0
 40
0.09
  1
6.117400,7.211800
  2
A3
 70
     1
  0
ATTRIB
  5
11D5
  8
DIM_ATT
 10
21.469217
 20
14.276768
 30
0.0
 40
0.09
  1
3.506000,1.000000
  2
A4
 70
     1
  0
ATTRIB
  5
11D6
  8
DIM_ATT
 10
21.469217
 20
14.141768
 30
0.0
 40
0.09
  1
6.397400,1.000000
  2
A5
 70
     1
  0
ATTRIB
  5
11D7
  8
DIM_ATT
 10
21.469217
 20
14.006768
 30
0.0
 40
0.09
  1
DIMFIXHIDE
  2
A6
 70
     1
  0
ATTRIB
  5
11D8
  8
DIM_ATT
 10
21.469217
 20
13.871768
 30
0.0
 40
0.09
  1
0
  2
A7
 70
     1
  0
ATTRIB
  5
11D9
  8
DIM_ATT
 10
21.469217
 20
13.736768
 30
0.0
 40
0.09
  1
0
  2
A8
 70
     1
  0
SEQEND
  5
11DA
  8
DIM_ATT
  0
INSERT
  5
11DB
  8
DIM_ATT
 66
     1
  2
ATT_BLK
 10
21.839217
 20
14.821768
 30
0.0
  0
ATTRIB
  5
11DC
  8
DIM_ATT
 10
21.839217
 20
14.956768
 30
0.0
 40
0.09
  1
VER
  2
TYPE
 70
     1
  0
ATTRIB
  5
11DD
  8
DIM_ATT
 10
21.839217
 20
14.821768
 30
0.0
 40
0.09
  1
0.04500
  2
A1
 70
     1
  0
ATTRIB
  5
11DE
  8
DIM_ATT
 10
21.839217
 20
14.686768
 30
0.0
 40
0.09
  1
6.487400,7.396800
  2
A2
 70
     1
  0
ATTRIB
  5
11DF
  8
DIM_ATT
 10
21.839217
 20
14.551768
 30
0.0
 40
0.09
  1
6.487400,7.351800
  2
A3
 70
     1
  0
ATTRIB
  5
11E0
  8
DIM_ATT
 10
21.839217
 20
14.416768
 30
0.0
 40
0.09
  1
8.769500,1.000000
  2
A4
 70
     1
  0
ATTRIB
  5
11E1
  8
DIM_ATT
 10
21.839217
 20
14.281768
 30
0.0
 40
0.09
  1

  2
A5
 70
     1
  0
ATTRIB
  5
11E2
  8
DIM_ATT
 10
21.839217
 20
14.146768
 30
0.0
 40
0.09
  1
DIMFIXHIDE
  2
A6
 70
     1
  0
ATTRIB
  5
11E3
  8
DIM_ATT
 10
21.839217
 20
14.011768
 30
0.0
 40
0.09
  1
0
  2
A7
 70
     1
  0
ATTRIB
  5
11E4
  8
DIM_ATT
 10
21.839217
 20
13.876768
 30
0.0
 40
0.09
  1
0
  2
A8
 70
     1
  0
SEQEND
  5
11E5
  8
DIM_ATT
  0
INSERT
  5
11E6
  8
DIM_ATT
 66
     1
  2
ATT_BLK
 10
21.839217
 20
14.776768
 30
0.0
  0
ATTRIB
  5
11E7
  8
DIM_ATT
 10
21.839217
 20
14.911768
 30
0.0
 40
0.09
  1
VER
  2
TYPE
 70
     1
  0
ATTRIB
  5
11E8
  8
DIM_ATT
 10
21.839217
 20
14.776768
 30
0.0
 40
0.09
  1
0.04500
  2
A1
 70
     1
  0
ATTRIB
  5
11E9
  8
DIM_ATT
 10
21.839217
 20
14.641768
 30
0.0
 40
0.09
  1
6.487400,7.351800
  2
A2
 70
     1
  0
ATTRIB
  5
11EA
  8
DIM_ATT
 10
21.839217
 20
14.506768
 30
0.0
 40
0.09
  1
6.487400,7.306800
  2
A3
 70
     1
  0
ATTRIB
  5
11EB
  8
DIM_ATT
 10
21.839217
 20
14.371768
 30
0.0
 40
0.09
  1
9.007100,1.000000
  2
A4
 70
     1
  0
ATTRIB
  5
11EC
  8
DIM_ATT
 10
21.839217
 20
14.236768
 30
0.0
 40
0.09
  1

  2
A5
 70
     1
  0
ATTRIB
  5
11ED
  8
DIM_ATT
 10
21.839217
 20
14.101768
 30
0.0
 40
0.09
  1
DIMFIXHIDE
  2
A6
 70
     1
  0
ATTRIB
  5
11EE
  8
DIM_ATT
 10
21.839217
 20
13.966768
 30
0.0
 40
0.09
  1
0
  2
A7
 70
     1
  0
ATTRIB
  5
11EF
  8
DIM_ATT
 10
21.839217
 20
13.831768
 30
0.0
 40
0.09
  1
0
  2
A8
 70
     1
  0
SEQEND
  5
11F0
  8
DIM_ATT
  0
INSERT
  5
11F1
  8
DIM_ATT
 66
     1
  2
ATT_BLK
 10
25.888617
 20
14.821768
 30
0.0
  0
ATTRIB
  5
11F2
  8
DIM_ATT
 10
25.888617
 20
14.956768
 30
0.0
 40
0.09
  1
VER
  2
TYPE
 70
     1
  0
ATTRIB
  5
11F3
  8
DIM_ATT
 10
25.888617
 20
14.821768
 30
0.0
 40
0.09
  1
0.18750
  2
A1
 70
     1
  0
ATTRIB
  5
11F4
  8
DIM_ATT
 10
25.888617
 20
14.686768
 30
0.0
 40
0.09
  1
9.711900,7.539300
  2
A2
 70
     1
  0
ATTRIB
  5
11F5
  8
DIM_ATT
 10
25.888617
 20
14.551768
 30
0.0
 40
0.09
  1
10.536800,7.351800
  2
A3
 70
     1
  0
ATTRIB
  5
11F6
  8
DIM_ATT
 10
25.888617
 20
14.416768
 30
0.0
 40
0.09
  1
10.536800,1.000000
  2
A4
 70
     1
  0
ATTRIB
  5
11F7
  8
DIM_ATT
 10
25.888617
 20
14.281768
 30
0.0
 40
0.09
  1

  2
A5
 70
     1
  0
ATTRIB
  5
11F8
  8
DIM_ATT
 10
25.888617
 20
14.146768
 30
0.0
 40
0.09
  1
DIMFIX
  2
A6
 70
     1
  0
ATTRIB
  5
11F9
  8
DIM_ATT
 10
25.888617
 20
14.011768
 30
0.0
 40
0.09
  1
0
  2
A7
 70
     1
  0
ATTRIB
  5
11FA
  8
DIM_ATT
 10
25.888617
 20
13.876768
 30
0.0
 40
0.09
  1
0
  2
A8
 70
     1
  0
SEQEND
  5
11FB
  8
DIM_ATT
  0
INSERT
  5
11FC
  8
DIM_ATT
 66
     1
  2
ATT_BLK
 10
25.063717
 20
14.634268
 30
0.0
  0
ATTRIB
  5
11FD
  8
DIM_ATT
 10
25.063717
 20
14.769268
 30
0.0
 40
0.09
  1
VER
  2
TYPE
 70
     1
  0
ATTRIB
  5
11FE
  8
DIM_ATT
 10
25.063717
 20
14.634268
 30
0.0
 40
0.09
  1
0.18750
  2
A1
 70
     1
  0
ATTRIB
  5
11FF
  8
DIM_ATT
 10
25.063717
 20
14.499268
 30
0.0
 40
0.09
  1
9.711900,7.164300
  2
A2
 70
     1
  0
ATTRIB
  5
1200
  8
DIM_ATT
 10
25.063717
 20
14.364268
 30
0.0
 40
0.09
  1
8.151200,7.351800
  2
A3
 70
     1
  0
ATTRIB
  5
1201
  8
DIM_ATT
 10
25.063717
 20
14.229268
 30
0.0
 40
0.09
  1
8.144900,1.000000
  2
A4
 70
     1
  0
ATTRIB
  5
1202
  8
DIM_ATT
 10
25.063717
 20
14.094268
 30
0.0
 40
0.09
  1

  2
A5
 70
     1
  0
ATTRIB
  5
1203
  8
DIM_ATT
 10
25.063717
 20
13.959268
 30
0.0
 40
0.09
  1
DIMFIX
  2
A6
 70
     1
  0
ATTRIB
  5
1204
  8
DIM_ATT
 10
25.063717
 20
13.824268
 30
0.0
 40
0.09
  1
0
  2
A7
 70
     1
  0
ATTRIB
  5
1205
  8
DIM_ATT
 10
25.063717
 20
13.689268
 30
0.0
 40
0.09
  1
0
  2
A8
 70
     1
  0
SEQEND
  5
1206
  8
DIM_ATT
  0
INSERT
  5
1207
  8
DIM_ATT
 66
     1
  2
ATT_BLK
 10
25.032417
 20
14.998668
 30
0.0
  0
ATTRIB
  5
1208
  8
DIM_ATT
 10
25.032417
 20
15.133668
 30
0.0
 40
0.09
  1
ALI
  2
TYPE
 70
     1
  0
ATTRIB
  5
1209
  8
DIM_ATT
 10
25.032417
 20
14.998668
 30
0.0
 40
0.09
  1
.309
  2
A1
 70
     1
  0
ATTRIB
  5
120A
  8
DIM_ATT
 10
25.032417
 20
14.863668
 30
0.0
 40
0.09
  1
9.680600,7.528700
  2
A2
 70
     1
  0
ATTRIB
  5
120B
  8
DIM_ATT
 10
25.032417
 20
14.728668
 30
0.0
 40
0.09
  1
9.888800,7.320500
  2
A3
 70
     1
  0
ATTRIB
  5
120C
  8
DIM_ATT
 10
25.032417
 20
14.593668
 30
0.0
 40
0.09
  1
10.807200,8.162400
  2
A4
 70
     1
  0
ATTRIB
  5
120D
  8
DIM_ATT
 10
25.032417
 20
14.458668
 30
0.0
 40
0.09
  1
0
  2
A5
 70
     1
  0
ATTRIB
  5
120E
  8
DIM_ATT
 10
25.032417
 20
14.323668
 30
0.0
 40
0.09
  1
DIMFIX
  2
A6
 70
     1
  0
ATTRIB
  5
120F
  8
DIM_ATT
 10
25.032417
 20
14.188668
 30
0.0
 40
0.09
  1
0
  2
A7
 70
     1
  0
ATTRIB
  5
1210
  8
DIM_ATT
 10
25.032417
 20
14.053668
 30
0.0
 40
0.09
  1
0
  2
A8
 70
     1
  0
SEQEND
  5
1211
  8
DIM_ATT
  0
INSERT
  5
1212
  8
DIM_ATT
 66
     1
  2
ATT_BLK
 10
25.095117
 20
14.998668
 30
0.0
  0
ATTRIB
  5
1213
  8
DIM_ATT
 10
25.095117
 20
15.133668
 30
0.0
 40
0.09
  1
ALI
  2
TYPE
 70
     1
  0
ATTRIB
  5
1214
  8
DIM_ATT
 10
25.095117
 20
14.998668
 30
0.0
 40
0.09
  1
.309
  2
A1
 70
     1
  0
ATTRIB
  5
1215
  8
DIM_ATT
 10
25.095117
 20
14.863668
 30
0.0
 40
0.09
  1
9.743300,7.528700
  2
A2
 70
     1
  0
ATTRIB
  5
1216
  8
DIM_ATT
 10
25.095117
 20
14.728668
 30
0.0
 40
0.09
  1
9.535000,7.320500
  2
A3
 70
     1
  0
ATTRIB
  5
1217
  8
DIM_ATT
 10
25.095117
 20
14.593668
 30
0.0
 40
0.09
  1
8.335017,8.553060
  2
A4
 70
     1
  0
ATTRIB
  5
1218
  8
DIM_ATT
 10
25.095117
 20
14.458668
 30
0.0
 40
0.09
  1
0
  2
A5
 70
     1
  0
ATTRIB
  5
1219
  8
DIM_ATT
 10
25.095117
 20
14.323668
 30
0.0
 40
0.09
  1
DIMFIX
  2
A6
 70
     1
  0
ATTRIB
  5
121A
  8
DIM_ATT
 10
25.095117
 20
14.188668
 30
0.0
 40
0.09
  1
0
  2
A7
 70
     1
  0
ATTRIB
  5
121B
  8
DIM_ATT
 10
25.095117
 20
14.053668
 30
0.0
 40
0.09
  1
0
  2
A8
 70
     1
  0
SEQEND
  5
121C
  8
DIM_ATT
  0
POLYLINE
  5
121D
  8
H
 66
     1
 10
0.0
 20
0.0
 30
0.0
  0
VERTEX
  5
1308
  8
H
 10
3.24
 20
0.625
 30
0.0
  0
VERTEX
  5
1309
  8
H
 10
3.24
 20
0.4685
 30
0.0
  0
SEQEND
  5
130A
  8
H
  0
POLYLINE
  5
121E
  8
H
 66
     1
 10
0.0
 20
0.0
 30
0.0
  0
VERTEX
  5
130B
  8
H
 10
3.24
 20
0.625
 30
0.0
  0
VERTEX
  5
130C
  8
H
 10
3.24
 20
0.4685
 30
0.0
  0
SEQEND
  5
130D
  8
H
  0
POLYLINE
  5
121F
  8
H
 66
     1
 10
0.0
 20
0.0
 30
0.0
  0
VERTEX
  5
130E
  8
H
 10
3.24
 20
0.625
 30
0.0
  0
VERTEX
  5
130F
  8
H
 10
3.24
 20
0.7815
 30
0.0
  0
SEQEND
  5
1310
  8
H
  0
POLYLINE
  5
1220
  8
H
 66
     1
 10
0.0
 20
0.0
 30
0.0
  0
VERTEX
  5
1311
  8
H
 10
3.24
 20
0.625
 30
0.0
  0
VERTEX
  5
1312
  8
H
 10
3.24
 20
0.7815
 30
0.0
  0
SEQEND
  5
1313
  8
H
  0
POLYLINE
  5
1221
  8
L
 66
     1
 10
0.0
 20
0.0
 30
0.0
 70
     1
  0
VERTEX
  5
1314
  8
L
 10
3.52
 20
0.8075
 30
0.0
  0
VERTEX
  5
1315
  8
L
 10
3.64
 20
0.8075
 30
0.0
  0
VERTEX
  5
1316
  8
L
 10
3.66
 20
0.7875
 30
0.0
  0
VERTEX
  5
1317
  8
L
 10
3.66
 20
0.625
 30
0.0
  0
VERTEX
  5
1318
  8
L
 10
3.66
 20
0.4625
 30
0.0
  0
VERTEX
  5
1319
  8
L
 10
3.64
 20
0.4425
 30
0.0
  0
VERTEX
  5
131A
  8
L
 10
3.52
 20
0.4425
 30
0.0
  0
VERTEX
  5
131B
  8
L
 10
3.5
 20
0.4625
 30
0.0
  0
VERTEX
  5
131C
  8
L
 10
3.5
 20
0.625
 30
0.0
  0
VERTEX
  5
131D
  8
L
 10
3.5
 20
0.7875
 30
0.0
  0
SEQEND
  5
131E
  8
L
  0
POLYLINE
  5
1222
  8
H
 66
     1
 10
0.0
 20
0.0
 30
0.0
  0
VERTEX
  5
131F
  8
H
 10
3.24
 20
0.4685
 30
0.0
  0
VERTEX
  5
1320
  8
H
 10
3.18
 20
0.4685
 30
0.0
  0
VERTEX
  5
1321
  8
H
 10
3.15
 20
0.4985
 30
0.0
  0
VERTEX
  5
1322
  8
H
 10
3.15
 20
0.625
 30
0.0
  0
VERTEX
  5
1323
  8
H
 10
3.15
 20
0.7515
 30
0.0
  0
VERTEX
  5
1324
  8
H
 10
3.18
 20
0.7815
 30
0.0
  0
VERTEX
  5
1325
  8
H
 10
3.24
 20
0.7815
 30
0.0
  0
SEQEND
  5
1326
  8
H
  0
INSERT
  5
1223
  8
DIM_ATT
 66
     1
  2
ATT_BLK
 10
25.063717
 20
14.821768
 30
0.0
  0
ATTRIB
  5
1224
  8
DIM_ATT
 10
25.063717
 20
14.956768
 30
0.0
 40
0.09
  1
RAD
  2
TYPE
 70
     1
  0
ATTRIB
  5
1225
  8
DIM_ATT
 10
25.063717
 20
14.821768
 30
0.0
 40
0.09
  1
.09
  2
A1
 70
     1
  0
ATTRIB
  5
1226
  8
DIM_ATT
 10
25.063717
 20
14.686768
 30
0.0
 40
0.09
  1
DIMFIXHIDE 9.711900 7.351800 9.688462 7.390215
  2
A2
 70
     1
  0
ATTRIB
  5
1227
  8
DIM_ATT
 10
25.063717
 20
14.551768
 30
0.0
 40
0.09
  1
: : CIRCLE : 8 : OBJECT : 10 : 9.711900 : 20 : 7.351800 : 40 : 0.045008 : 
  2
A3
 70
     1
  0
ATTRIB
  5
1228
  8
DIM_ATT
 10
25.063717
 20
14.416768
 30
0.0
 40
0.09
  1
0
  2
A4
 70
     1
  0
ATTRIB
  5
1229
  8
DIM_ATT
 10
25.063717
 20
14.281768
 30
0.0
 40
0.09
  1
0
  2
A5
 70
     1
  0
ATTRIB
  5
122A
  8
DIM_ATT
 10
25.063717
 20
14.146768
 30
0.0
 40
0.09
  1
0
  2
A6
 70
     1
  0
ATTRIB
  5
122B
  8
DIM_ATT
 10
25.063717
 20
14.011768
 30
0.0
 40
0.09
  1
0
  2
A7
 70
     1
  0
ATTRIB
  5
122C
  8
DIM_ATT
 10
25.063717
 20
13.876768
 30
0.0
 40
0.09
  1
0
  2
A8
 70
     1
  0
SEQEND
  5
122D
  8
DIM_ATT
  0
INSERT
  5
122E
  8
DIM_ATT
 66
     1
  2
ATT_BLK
 10
25.063717
 20
14.821768
 30
0.0
  0
ATTRIB
  5
122F
  8
DIM_ATT
 10
25.063717
 20
14.956768
 30
0.0
 40
0.09
  1
RAD
  2
TYPE
 70
     1
  0
ATTRIB
  5
1230
  8
DIM_ATT
 10
25.063717
 20
14.821768
 30
0.0
 40
0.09
  1
0.18750
  2
A1
 70
     1
  0
ATTRIB
  5
1231
  8
DIM_ATT
 10
25.063717
 20
14.686768
 30
0.0
 40
0.09
  1
DIMFIXHIDE 9.711900 7.351800 9.807207 7.190329
  2
A2
 70
     1
  0
ATTRIB
  5
1232
  8
DIM_ATT
 10
25.063717
 20
14.551768
 30
0.0
 40
0.09
  1
: : CIRCLE : 8 : HIDOB : 10 : 9.711900 : 20 : 7.351800 : 40 : 0.187491 : 
  2
A3
 70
     1
  0
ATTRIB
  5
1233
  8
DIM_ATT
 10
25.063717
 20
14.416768
 30
0.0
 40
0.09
  1
0
  2
A4
 70
     1
  0
ATTRIB
  5
1234
  8
DIM_ATT
 10
25.063717
 20
14.281768
 30
0.0
 40
0.09
  1
0
  2
A5
 70
     1
  0
ATTRIB
  5
1235
  8
DIM_ATT
 10
25.063717
 20
14.146768
 30
0.0
 40
0.09
  1
0
  2
A6
 70
     1
  0
ATTRIB
  5
1236
  8
DIM_ATT
 10
25.063717
 20
14.011768
 30
0.0
 40
0.09
  1
0
  2
A7
 70
     1
  0
ATTRIB
  5
1237
  8
DIM_ATT
 10
25.063717
 20
13.876768
 30
0.0
 40
0.09
  1
0
  2
A8
 70
     1
  0
SEQEND
  5
1238
  8
DIM_ATT
  0
INSERT
  5
1239
  8
DIM_ATT
 66
     1
  2
ATT_BLK
 10
25.063717
 20
14.821768
 30
0.0
  0
ATTRIB
  5
123A
  8
DIM_ATT
 10
25.063717
 20
14.956768
 30
0.0
 40
0.09
  1
RAD
  2
TYPE
 70
     1
  0
ATTRIB
  5
123B
  8
DIM_ATT
 10
25.063717
 20
14.821768
 30
0.0
 40
0.09
  1
0.15650
  2
A1
 70
     1
  0
ATTRIB
  5
123C
  8
DIM_ATT
 10
25.063717
 20
14.686768
 30
0.0
 40
0.09
  1
DIMFIX 9.711900 7.351800 9.611019 7.232154
  2
A2
 70
     1
  0
ATTRIB
  5
123D
  8
DIM_ATT
 10
25.063717
 20
14.551768
 30
0.0
 40
0.09
  1
: : CIRCLE : 8 : OBJECT : 10 : 9.711900 : 20 : 7.351800 : 40 : 0.156500 : 
  2
A3
 70
     1
  0
ATTRIB
  5
123E
  8
DIM_ATT
 10
25.063717
 20
14.416768
 30
0.0
 40
0.09
  1
0
  2
A4
 70
     1
  0
ATTRIB
  5
123F
  8
DIM_ATT
 10
25.063717
 20
14.281768
 30
0.0
 40
0.09
  1
0
  2
A5
 70
     1
  0
ATTRIB
  5
1240
  8
DIM_ATT
 10
25.063717
 20
14.146768
 30
0.0
 40
0.09
  1
0
  2
A6
 70
     1
  0
ATTRIB
  5
1241
  8
DIM_ATT
 10
25.063717
 20
14.011768
 30
0.0
 40
0.09
  1
0
  2
A7
 70
     1
  0
ATTRIB
  5
1242
  8
DIM_ATT
 10
25.063717
 20
13.876768
 30
0.0
 40
0.09
  1
0
  2
A8
 70
     1
  0
SEQEND
  5
1243
  8
DIM_ATT
  0
LINE
  5
1244
  8
L
 10
3.64
 20
0.4425
 30
0.0
 11
3.64
 21
0.8075
 31
0.0
  0
LINE
  5
1245
  8
L
 10
3.52
 20
0.4425
 30
0.0
 11
3.52
 21
0.8075
 31
0.0
  0
LINE
  5
1246
  8
H
 10
3.24
 20
0.4685
 30
0.0
 11
3.44
 21
0.4685
 31
0.0
  0
LINE
  5
1247
  8
H
 10
3.44
 20
0.7815
 30
0.0
 11
3.44
 21
0.4685
 31
0.0
  0
LINE
  5
1248
  8
H
 10
3.24
 20
0.7815
 30
0.0
 11
3.44
 21
0.7815
 31
0.0
  0
LINE
  5
1249
  8
H
 10
3.18
 20
0.4685
 30
0.0
 11
3.18
 21
0.7815
 31
0.0
  0
POLYLINE
  5
124A
  8
H
 66
     1
 10
0.0
 20
0.0
 30
0.0
  0
VERTEX
  5
1327
  8
H
 10
3.15
 20
0.594
 30
0.0
  0
VERTEX
  5
1328
  8
H
 10
3.66
 20
0.594
 30
0.0
  0
SEQEND
  5
1329
  8
H
  0
POLYLINE
  5
124B
  8
H
 66
     1
 10
0.0
 20
0.0
 30
0.0
  0
VERTEX
  5
132A
  8
H
 10
3.15
 20
0.656
 30
0.0
  0
VERTEX
  5
132B
  8
H
 10
3.66
 20
0.656
 30
0.0
  0
SEQEND
  5
132C
  8
H
  0
POLYLINE
  5
124C
  8
H
 66
     1
 10
0.0
 20
0.0
 30
0.0
  0
VERTEX
  5
132D
  8
H
 10
3.44
 20
0.775
 30
0.0
  0
VERTEX
  5
132E
  8
H
 10
3.5
 20
0.775
 30
0.0
  0
SEQEND
  5
132F
  8
H
  0
POLYLINE
  5
124D
  8
H
 66
     1
 10
0.0
 20
0.0
 30
0.0
  0
VERTEX
  5
1330
  8
H
 10
3.44
 20
0.475
 30
0.0
  0
VERTEX
  5
1331
  8
H
 10
3.5
 20
0.475
 30
0.0
  0
SEQEND
  5
1332
  8
H
  0
ENDSEC
  0
EOF
