  0
SECTION
  2
HEADER
  9
$ACADVER
  1
AC1009
  9
$INSBASE
 10
0.0
 20
0.0
 30
0.0
  9
$EXTMIN
 10
-4.0
 20
-1.937502
 30
0.0
  9
$EXTMAX
 10
4.72024
 20
3.028767
 30
0.0
  9
$LIMMIN
 10
0.0
 20
0.0
  9
$LIMMAX
 10
12.0
 20
9.0
  9
$ORTHOMODE
 70
     1
  9
$REGENMODE
 70
     1
  9
$FILLMODE
 70
     1
  9
$QTEXTMODE
 70
     0
  9
$MIRRTEXT
 70
     1
  9
$DRAGMODE
 70
     2
  9
$LTSCALE
 40
0.35
  9
$OSMODE
 70
   165
  9
$ATTMODE
 70
     1
  9
$TEXTSIZE
 40
0.151
  9
$TRACEWID
 40
0.05
  9
$TEXTSTYLE
  7
STANDARD
  9
$CLAYER
  8
L
  9
$CELTYPE
  6
BYLAYER
  9
$CECOLOR
 62
   256
  9
$DIMSCALE
 40
1.0
  9
$DIMASZ
 40
0.12
  9
$DIMEXO
 40
0.0625
  9
$DIMDLI
 40
0.38
  9
$DIMRND
 40
0.0
  9
$DIMDLE
 40
0.0
  9
$DIMEXE
 40
0.05
  9
$DIMTP
 40
0.0
  9
$DIMTM
 40
0.0
  9
$DIMTXT
 40
0.125
  9
$DIMCEN
 40
0.09
  9
$DIMTSZ
 40
0.0
  9
$DIMTOL
 70
     0
  9
$DIMLIM
 70
     0
  9
$DIMTIH
 70
     1
  9
$DIMTOH
 70
     1
  9
$DIMSE1
 70
     0
  9
$DIMSE2
 70
     0
  9
$DIMTAD
 70
     0
  9
$DIMZIN
 70
     0
  9
$DIMBLK
  1

  9
$DIMASO
 70
     1
  9
$DIMSHO
 70
     1
  9
$DIMPOST
  1

  9
$DIMAPOST
  1

  9
$DIMALT
 70
     0
  9
$DIMALTD
 70
     2
  9
$DIMALTF
 40
25.4
  9
$DIMLFAC
 40
1.0
  9
$DIMTOFL
 70
     0
  9
$DIMTVP
 40
0.0
  9
$DIMTIX
 70
     0
  9
$DIMSOXD
 70
     0
  9
$DIMSAH
 70
     0
  9
$DIMBLK1
  1

  9
$DIMBLK2
  1

  9
$DIMSTYLE
  2
5P
  9
$DIMCLRD
 70
     0
  9
$DIMCLRE
 70
     0
  9
$DIMCLRT
 70
     0
  9
$DIMTFAC
 40
1.0
  9
$DIMGAP
 40
0.09
  9
$LUNITS
 70
     2
  9
$LUPREC
 70
     3
  9
$SKETCHINC
 40
0.1
  9
$FILLETRAD
 40
0.06
  9
$AUNITS
 70
     1
  9
$AUPREC
 70
     0
  9
$MENU
  1
acad
  9
$ELEVATION
 40
0.0
  9
$PELEVATION
 40
0.0
  9
$THICKNESS
 40
0.0
  9
$LIMCHECK
 70
     0
  9
$BLIPMODE
 70
     0
  9
$CHAMFERA
 40
0.0
  9
$CHAMFERB
 40
0.0
  9
$SKPOLY
 70
     0
  9
$TDCREATE
 40
2449854.304017
  9
$TDUPDATE
 40
2450910.42358
  9
$TDINDWG
 40
0.031701
  9
$TDUSRTIMER
 40
0.031701
  9
$USRTIMER
 70
     1
  9
$ANGBASE
 50
0.0
  9
$ANGDIR
 70
     0
  9
$PDMODE
 70
     0
  9
$PDSIZE
 40
0.0
  9
$PLINEWID
 40
0.0
  9
$COORDS
 70
     1
  9
$SPLFRAME
 70
     0
  9
$SPLINETYPE
 70
     6
  9
$SPLINESEGS
 70
     8
  9
$ATTDIA
 70
     1
  9
$ATTREQ
 70
     1
  9
$HANDLING
 70
     1
  9
$HANDSEED
  5
8D3
  9
$SURFTAB1
 70
     6
  9
$SURFTAB2
 70
     6
  9
$SURFTYPE
 70
     6
  9
$SURFU
 70
     6
  9
$SURFV
 70
     6
  9
$UCSNAME
  2

  9
$UCSORG
 10
0.0
 20
0.0
 30
0.0
  9
$UCSXDIR
 10
1.0
 20
0.0
 30
0.0
  9
$UCSYDIR
 10
0.0
 20
1.0
 30
0.0
  9
$PUCSNAME
  2

  9
$PUCSORG
 10
0.0
 20
0.0
 30
0.0
  9
$PUCSXDIR
 10
1.0
 20
0.0
 30
0.0
  9
$PUCSYDIR
 10
0.0
 20
1.0
 30
0.0
  9
$USERI1
 70
     0
  9
$USERI2
 70
     0
  9
$USERI3
 70
     0
  9
$USERI4
 70
     0
  9
$USERI5
 70
     0
  9
$USERR1
 40
0.0
  9
$USERR2
 40
0.0
  9
$USERR3
 40
0.0
  9
$USERR4
 40
0.0
  9
$USERR5
 40
0.0
  9
$WORLDVIEW
 70
     1
  9
$SHADEDGE
 70
     3
  9
$SHADEDIF
 70
    70
  9
$TILEMODE
 70
     1
  9
$MAXACTVP
 70
    16
  9
$PLIMCHECK
 70
     0
  9
$PEXTMIN
 10
1.000000E+020
 20
1.000000E+020
 30
1.000000E+020
  9
$PEXTMAX
 10
-1.000000E+020
 20
-1.000000E+020
 30
-1.000000E+020
  9
$PLIMMIN
 10
0.0
 20
0.0
  9
$PLIMMAX
 10
12.0
 20
9.0
  9
$UNITMODE
 70
     0
  9
$VISRETAIN
 70
     1
  9
$PLINEGEN
 70
     0
  9
$PSLTSCALE
 70
     1
  0
ENDSEC
  0
SECTION
  2
TABLES
  0
TABLE
  2
VPORT
 70
     2
  0
VPORT
  2
*ACTIVE
 70
     0
 10
0.0
 20
0.0
 11
1.0
 21
1.0
 12
0.349349
 22
0.697754
 13
0.0
 23
0.0
 14
0.25
 24
0.25
 15
0.0
 25
0.0
 16
0.0
 26
0.0
 36
1.0
 17
0.0
 27
0.0
 37
0.0
 40
5.47998
 41
1.605903
 42
50.0
 43
0.0
 44
0.0
 50
0.0
 51
0.0
 71
     0
 72
 20000
 73
     1
 74
     0
 75
     0
 76
     0
 77
     0
 78
     0
  0
ENDTAB
  0
TABLE
  2
LTYPE
 70
     5
  0
LTYPE
  2
CONTINUOUS
 70
     0
  3
Solid line
 72
    65
 73
     0
 40
0.0
  0
LTYPE
  2
HIDDEN
 70
     0
  3
__ __ __ __ __ __ __ __ __ __ __ __ __ __ __ __
 72
    65
 73
     2
 40
0.375
 49
0.25
 49
-0.125
  0
LTYPE
  2
C50_BASE$0$HIDDEN
 70
     0
  3
__ __ __ __ __ __ __ __ __ __ __ __ __ __ __ __
 72
    65
 73
     2
 40
0.375
 49
0.25
 49
-0.125
  0
LTYPE
  2
CENTER
 70
     0
  3
Center ____ _ ____ _ ____ _ ____ _ ____ _ ____
 72
    65
 73
     4
 40
2.0
 49
1.25
 49
-0.25
 49
0.25
 49
-0.25
  0
LTYPE
  2
PHANTOM
 70
     0
  3
Phantom ______  __  __  ______  __  __  ______
 72
    65
 73
     6
 40
2.5
 49
1.25
 49
-0.25
 49
0.25
 49
-0.25
 49
0.25
 49
-0.25
  0
ENDTAB
  0
TABLE
  2
LAYER
 70
    17
  0
LAYER
  2
0
 70
     0
 62
     7
  6
CONTINUOUS
  0
LAYER
  2
D
 70
     0
 62
     7
  6
CONTINUOUS
  0
LAYER
  2
H
 70
     0
 62
     4
  6
HIDDEN
  0
LAYER
  2
L
 70
     0
 62
     5
  6
CONTINUOUS
  0
LAYER
  2
DEFPOINTS
 70
     0
 62
    -7
  6
CONTINUOUS
  0
LAYER
  2
C50_1$0$D
 70
     0
 62
     7
  6
CONTINUOUS
  0
LAYER
  2
C50_1$0$L
 70
     0
 62
     5
  6
CONTINUOUS
  0
LAYER
  2
C50_BASE$0$D
 70
     0
 62
     7
  6
CONTINUOUS
  0
LAYER
  2
C50_BASE$0$H
 70
     0
 62
     4
  6
C50_BASE$0$HIDDEN
  0
LAYER
  2
C50_BASE$0$L
 70
     0
 62
     5
  6
CONTINUOUS
  0
LAYER
  2
F
 70
     0
 62
    13
  6
CONTINUOUS
  0
LAYER
  2
C
 70
     0
 62
     1
  6
CENTER
  0
LAYER
  2
P
 70
     0
 62
     2
  6
PHANTOM
  0
LAYER
  2
S
 70
     0
 62
     6
  6
CONTINUOUS
  0
LAYER
  2
AM_TR
 70
     0
 62
     7
  6
CONTINUOUS
  0
LAYER
  2
AM_BM
 70
     0
 62
     7
  6
CONTINUOUS
  0
LAYER
  2
AM_BL
 70
     0
 62
     7
  6
CONTINUOUS
  0
ENDTAB
  0
TABLE
  2
STYLE
 70
     2
  0
STYLE
  2
STANDARD
 70
     0
 40
0.0
 41
1.0
 50
0.0
 71
     0
 42
0.151
  3
txt
  4

  0
STYLE
  2
C50_BASE$0$STANDARD
 70
     0
 40
0.0
 41
1.0
 50
0.0
 71
     0
 42
0.075
  3
txt
  4

  0
ENDTAB
  0
TABLE
  2
VIEW
 70
     0
  0
ENDTAB
  0
TABLE
  2
UCS
 70
     0
  0
ENDTAB
  0
TABLE
  2
APPID
 70
     3
  0
APPID
  2
ACAD
 70
     0
  0
APPID
  2
MCAD_NO_VIS
 70
     0
  0
APPID
  2
ACAD_TEMP_GRAPHIC
 70
     0
  0
ENDTAB
  0
TABLE
  2
DIMSTYLE
 70
     7
  0
DIMSTYLE
  2
PARLEC
 70
     0
  3

  4

  5

  6

  7

 40
1.0
 41
0.12
 42
0.0625
 43
0.38
 44
0.05
 45
0.0
 46
0.0
 47
0.0
 48
0.0
140
0.125
141
0.09
142
0.0
143
25.4
144
1.0
145
0.0
146
1.0
147
0.09
 71
     0
 72
     0
 73
     1
 74
     1
 75
     0
 76
     0
 77
     0
 78
     0
170
     0
171
     2
172
     0
173
     0
174
     0
175
     0
176
     0
177
     0
178
     0
  0
DIMSTYLE
  2
0P
 70
     0
  3

  4

  5

  6

  7

 40
1.0
 41
0.12
 42
0.0625
 43
0.38
 44
0.05
 45
0.0
 46
0.0
 47
0.0
 48
0.0
140
0.125
141
0.09
142
0.0
143
25.4
144
1.0
145
0.0
146
1.0
147
0.09
 71
     0
 72
     0
 73
     1
 74
     1
 75
     0
 76
     0
 77
     0
 78
     0
170
     0
171
     2
172
     0
173
     0
174
     0
175
     0
176
     0
177
     0
178
     0
  0
DIMSTYLE
  2
1P
 70
     0
  3

  4

  5

  6

  7

 40
1.0
 41
0.12
 42
0.0625
 43
0.38
 44
0.05
 45
0.0
 46
0.0
 47
0.0
 48
0.0
140
0.125
141
0.09
142
0.0
143
25.4
144
1.0
145
0.0
146
1.0
147
0.09
 71
     0
 72
     0
 73
     1
 74
     1
 75
     0
 76
     0
 77
     0
 78
     0
170
     0
171
     2
172
     0
173
     0
174
     0
175
     0
176
     0
177
     0
178
     0
  0
DIMSTYLE
  2
2P
 70
     0
  3

  4

  5

  6

  7

 40
1.0
 41
0.12
 42
0.0625
 43
0.38
 44
0.05
 45
0.0
 46
0.0
 47
0.0
 48
0.0
140
0.125
141
0.09
142
0.0
143
25.4
144
1.0
145
0.0
146
1.0
147
0.09
 71
     0
 72
     0
 73
     1
 74
     1
 75
     0
 76
     0
 77
     0
 78
     0
170
     0
171
     2
172
     0
173
     0
174
     0
175
     0
176
     0
177
     0
178
     0
  0
DIMSTYLE
  2
3P
 70
     0
  3

  4

  5

  6

  7

 40
1.0
 41
0.12
 42
0.0625
 43
0.38
 44
0.05
 45
0.0
 46
0.0
 47
0.0
 48
0.0
140
0.125
141
0.09
142
0.0
143
25.4
144
1.0
145
0.0
146
1.0
147
0.09
 71
     0
 72
     0
 73
     1
 74
     1
 75
     0
 76
     0
 77
     0
 78
     0
170
     0
171
     2
172
     0
173
     0
174
     0
175
     0
176
     0
177
     0
178
     0
  0
DIMSTYLE
  2
4P
 70
     0
  3

  4

  5

  6

  7

 40
1.0
 41
0.12
 42
0.0625
 43
0.38
 44
0.05
 45
0.0
 46
0.0
 47
0.0
 48
0.0
140
0.125
141
0.09
142
0.0
143
25.4
144
1.0
145
0.0
146
1.0
147
0.09
 71
     0
 72
     0
 73
     1
 74
     1
 75
     0
 76
     0
 77
     0
 78
     0
170
     0
171
     2
172
     0
173
     0
174
     0
175
     0
176
     0
177
     0
178
     0
  0
DIMSTYLE
  2
5P
 70
     0
  3

  4

  5

  6

  7

 40
1.0
 41
0.12
 42
0.0625
 43
0.38
 44
0.05
 45
0.0
 46
0.0
 47
0.0
 48
0.0
140
0.125
141
0.09
142
0.0
143
25.4
144
1.0
145
0.0
146
1.0
147
0.09
 71
     0
 72
     0
 73
     1
 74
     1
 75
     0
 76
     0
 77
     0
 78
     0
170
     0
171
     2
172
     0
173
     0
174
     0
175
     0
176
     0
177
     0
178
     0
  0
ENDTAB
  0
ENDSEC
  0
SECTION
  2
BLOCKS
  0
BLOCK
  8
0
  2
$MODEL_SPACE
 70
     0
 10
0.0
 20
0.0
 30
0.0
  3
$MODEL_SPACE
  1

  0
ENDBLK
  5
8A8
  8
0
  0
BLOCK
 67
     1
  8
0
  2
$PAPER_SPACE
 70
     0
 10
0.0
 20
0.0
 30
0.0
  3
$PAPER_SPACE
  1

  0
ENDBLK
  5
8A6
 67
     1
  8
0
  0
BLOCK
  8
0
  6
CONTINUOUS
 62
     7
  2
C50_1
 70
     0
 10
0.0
 20
0.0
 30
0.0
  3
C50_1
  1
C50_1
  0
LINE
  5
577
  8
C50_1$0$L
 10
0.72
 20
-1.9375
 30
0.0
 11
0.75
 21
-1.9075
 31
0.0
  0
LINE
  5
578
  8
C50_1$0$L
 10
0.78
 20
1.375
 30
0.0
 11
1.287974
 21
1.375
 31
0.0
  0
ARC
  5
579
  8
C50_1$0$L
 10
0.78
 20
1.405
 30
0.0
 40
0.03
 50
180.0
 51
270.0
  0
LINE
  5
57A
  8
C50_1$0$L
 10
0.75
 20
0.0
 30
0.0
 11
0.75
 21
1.907502
 31
0.0
  0
LINE
  5
57B
  8
C50_1$0$L
 10
0.72
 20
0.51
 30
0.0
 11
0.72
 21
1.937502
 31
0.0
  0
LINE
  5
57C
  8
C50_1$0$L
 10
0.72
 20
1.937502
 30
0.0
 11
0.75
 21
1.907502
 31
0.0
  0
LINE
  5
57D
  8
C50_1$0$L
 10
0.75
 20
0.0
 30
0.0
 11
0.75
 21
-1.907502
 31
0.0
  0
LINE
  5
57E
  8
C50_1$0$L
 10
0.72
 20
-0.51
 30
0.0
 11
0.72
 21
-1.937502
 31
0.0
  0
POINT
  5
57F
  8
DEFPOINTS
  6
BYBLOCK
 62
     0
 10
0.75
 20
-1.907502
 30
0.0
  0
LINE
  5
580
  8
C50_1$0$L
 10
0.72
 20
-1.937502
 30
0.0
 11
0.75
 21
-1.907502
 31
0.0
  0
LINE
  5
581
  8
C50_1$0$L
 10
0.78
 20
-1.375
 30
0.0
 11
1.287974
 21
-1.375
 31
0.0
  0
ARC
  5
582
  8
C50_1$0$L
 10
0.78
 20
-1.405
 30
0.0
 40
0.03
 50
90.0
 51
180.0
  0
INSERT
  5
583
  8
C50_1$0$D
  2
C50_BASE
 10
0.0
 20
0.0
 30
0.0
  0
LINE
  5
584
  8
C50_1$0$L
 10
0.695204
 20
0.51
 30
0.0
 11
0.75
 21
0.51
 31
0.0
  0
LINE
  5
585
  8
C50_1$0$L
 10
0.695204
 20
-0.51
 30
0.0
 11
0.75
 21
-0.51
 31
0.0
  0
ENDBLK
  5
225
  8
0
  6
CONTINUOUS
 62
     7
  0
BLOCK
  8
0
  2
C50R06
 70
     0
 10
0.0
 20
0.0
 30
0.0
  3
C50R06
  1

  0
POINT
  5
191
  8
DEFPOINTS
  6
BYBLOCK
 62
     0
 10
0.06
 20
-0.110494
 30
0.0
  0
LINE
  5
192
  8
L
 10
0.06
 20
-0.06
 30
0.0
 11
0.06
 21
-2.553341
 31
0.0
  0
LINE
  5
193
  8
L
 10
0.06
 20
-2.69
 30
0.0
 11
0.06
 21
-2.553341
 31
0.0
  0
ARC
  5
194
  8
L
 10
0.0
 20
-0.06
 30
0.0
 40
0.06
 50
0.0
 51
90.0
  0
ARC
  5
195
  8
L
 10
0.0
 20
-2.69
 30
0.0
 40
0.06
 50
270.0
 51
0.0
  0
ENDBLK
  5
196
  8
0
  0
BLOCK
  8
0
  2
*D2
 70
     1
 10
0.0
 20
0.0
 30
0.0
  3
*D2
  1
87BH_2
  0
LINE
  5
19F
  8
0
  6
BYBLOCK
 62
     0
 10
0.0
 20
1.4375
 30
0.0
 11
0.0
 21
2.808695
 31
0.0
  0
LINE
  5
1A0
  8
0
  6
BYBLOCK
 62
     0
 10
1.5
 20
0.908253
 30
0.0
 11
1.5
 21
2.808695
 31
0.0
  0
LINE
  5
1A1
  8
0
  6
BYBLOCK
 62
     0
 10
0.12
 20
2.758695
 30
0.0
 11
0.50375
 21
2.758695
 31
0.0
  0
LINE
  5
1A2
  8
0
  6
BYBLOCK
 62
     0
 10
1.38
 20
2.758695
 30
0.0
 11
0.99625
 21
2.758695
 31
0.0
  0
SOLID
  5
1A3
  8
0
  6
BYBLOCK
 62
     0
 10
0.12
 20
2.778695
 30
0.0
 11
0.12
 21
2.738695
 31
0.0
 12
0.0
 22
2.758695
 32
0.0
 13
0.0
 23
2.758695
 33
0.0
  0
SOLID
  5
1A4
  8
0
  6
BYBLOCK
 62
     0
 10
1.38
 20
2.778695
 30
0.0
 11
1.38
 21
2.738695
 31
0.0
 12
1.5
 22
2.758695
 32
0.0
 13
1.5
 23
2.758695
 33
0.0
  0
TEXT
  5
1A5
  8
0
  6
BYBLOCK
 62
     0
 10
0.59375
 20
2.696195
 30
0.0
 40
0.125
  1
1.50
 72
     1
 11
0.75
 21
2.758695
 31
0.0
 73
     2
  0
POINT
  5
1A6
  8
DEFPOINTS
  6
BYBLOCK
 62
     0
 10
0.0
 20
1.375
 30
0.0
  0
POINT
  5
1A7
  8
DEFPOINTS
  6
BYBLOCK
 62
     0
 10
1.5
 20
0.845753
 30
0.0
  0
POINT
  5
1A8
  8
DEFPOINTS
  6
BYBLOCK
 62
     0
 10
1.5
 20
2.758695
 30
0.0
  0
ENDBLK
  5
1A9
  8
0
  0
BLOCK
  8
0
  2
*D3
 70
     1
 10
0.0
 20
0.0
 30
0.0
  3
*D3
  1
87BH_2
  0
LINE
  5
1AB
  8
0
  6
BYBLOCK
 62
     0
 10
1.5
 20
1.506808
 30
0.0
 11
1.5
 21
2.343183
 31
0.0
  0
LINE
  5
1AC
  8
0
  6
BYBLOCK
 62
     0
 10
1.995197
 20
0.44
 30
0.0
 11
1.995197
 21
2.343183
 31
0.0
  0
LINE
  5
1AD
  8
0
  6
BYBLOCK
 62
     0
 10
1.38
 20
2.293183
 30
0.0
 11
1.26
 21
2.293183
 31
0.0
  0
LINE
  5
1AE
  8
0
  6
BYBLOCK
 62
     0
 10
2.115197
 20
2.293183
 30
0.0
 11
2.235197
 21
2.293183
 31
0.0
  0
SOLID
  5
1AF
  8
0
  6
BYBLOCK
 62
     0
 10
1.38
 20
2.313183
 30
0.0
 11
1.38
 21
2.273183
 31
0.0
 12
1.5
 22
2.293183
 32
0.0
 13
1.5
 23
2.293183
 33
0.0
  0
SOLID
  5
1B0
  8
0
  6
BYBLOCK
 62
     0
 10
2.115197
 20
2.313183
 30
0.0
 11
2.115197
 21
2.273183
 31
0.0
 12
1.995197
 22
2.293183
 32
0.0
 13
1.995197
 23
2.293183
 33
0.0
  0
TEXT
  5
1B1
  8
0
  6
BYBLOCK
 62
     0
 10
2.325197
 20
2.230683
 30
0.0
 40
0.125
  1
.49
 72
     1
 11
2.450197
 21
2.293183
 31
0.0
 73
     2
  0
POINT
  5
1B2
  8
DEFPOINTS
  6
BYBLOCK
 62
     0
 10
1.5
 20
1.444308
 30
0.0
  0
POINT
  5
1B3
  8
DEFPOINTS
  6
BYBLOCK
 62
     0
 10
1.995197
 20
0.3775
 30
0.0
  0
POINT
  5
1B4
  8
DEFPOINTS
  6
BYBLOCK
 62
     0
 10
1.995197
 20
2.293183
 30
0.0
  0
ENDBLK
  5
1B5
  8
0
  0
BLOCK
  8
0
  2
*D4
 70
     1
 10
0.0
 20
0.0
 30
0.0
  3
*D4
  1

  0
LINE
  5
1DE
  8
0
  6
BYBLOCK
 62
     0
 10
0.0
 20
2.121151
 30
0.0
 11
0.0
 21
2.106268
 31
0.0
  0
LINE
  5
1DF
  8
0
  6
BYBLOCK
 62
     0
 10
1.38
 20
1.3775
 30
0.0
 11
1.38
 21
2.206268
 31
0.0
  0
LINE
  5
1E0
  8
0
  6
BYBLOCK
 62
     0
 10
0.12
 20
2.156268
 30
0.0
 11
0.370833
 21
2.156268
 31
0.0
  0
LINE
  5
1E1
  8
0
  6
BYBLOCK
 62
     0
 10
1.26
 20
2.156268
 30
0.0
 11
1.009167
 21
2.156268
 31
0.0
  0
SOLID
  5
1E2
  8
0
  6
BYBLOCK
 62
     0
 10
0.12
 20
2.176268
 30
0.0
 11
0.12
 21
2.136268
 31
0.0
 12
0.0
 22
2.156268
 32
0.0
 13
0.0
 23
2.156268
 33
0.0
  0
SOLID
  5
1E3
  8
0
  6
BYBLOCK
 62
     0
 10
1.26
 20
2.176268
 30
0.0
 11
1.26
 21
2.136268
 31
0.0
 12
1.38
 22
2.156268
 32
0.0
 13
1.38
 23
2.156268
 33
0.0
  0
TEXT
  5
1E4
  8
0
  6
BYBLOCK
 62
     0
 10
0.460833
 20
2.093768
 30
0.0
 40
0.125
  1
1.375
 72
     1
 11
0.69
 21
2.156268
 31
0.0
 73
     2
  0
POINT
  5
1E5
  8
DEFPOINTS
  6
BYBLOCK
 62
     0
 10
0.0
 20
2.183651
 30
0.0
  0
POINT
  5
1E6
  8
DEFPOINTS
  6
BYBLOCK
 62
     0
 10
1.38
 20
1.315
 30
0.0
  0
POINT
  5
1E7
  8
DEFPOINTS
  6
BYBLOCK
 62
     0
 10
1.38
 20
2.156268
 30
0.0
  0
ENDBLK
  5
1E8
  8
0
  0
BLOCK
  8
0
  6
CONTINUOUS
 62
     7
  2
C50_BASE
 70
     0
 10
0.0
 20
0.0
 30
0.0
  3
C50_BASE
  1
C50_BASE
  0
LINE
  5
30A
  8
C50_BASE$0$L
 10
0.0
 20
0.0
 30
0.0
 11
0.0
 21
-1.375
 31
0.0
  0
LINE
  5
30B
  8
C50_BASE$0$L
 10
0.0
 20
-1.375
 30
0.0
 11
-3.897317
 21
-0.806641
 31
0.0
  0
LINE
  5
30C
  8
C50_BASE$0$L
 10
0.0
 20
-1.375
 30
0.0
 11
0.105
 21
-1.375
 31
0.0
  0
ARC
  5
30D
  8
C50_BASE$0$L
 10
-3.88241
 20
0.69
 30
0.0
 40
0.11759
 50
97.282949
 51
180.0
  0
LINE
  5
30E
  8
C50_BASE$0$H
 10
-4.0
 20
0.5625
 30
0.0
 11
-3.918594
 21
0.5155
 31
0.0
  0
LINE
  5
30F
  8
C50_BASE$0$H
 10
-4.0
 20
-0.5625
 30
0.0
 11
-3.918594
 21
-0.5155
 31
0.0
  0
ARC
  5
310
  8
C50_BASE$0$L
 10
-3.88241
 20
-0.69
 30
0.0
 40
0.11759
 50
180.0
 51
262.717051
  0
LINE
  5
311
  8
C50_BASE$0$L
 10
-4.0
 20
-0.69
 30
0.0
 11
-4.0
 21
0.69
 31
0.0
  0
LINE
  5
312
  8
C50_BASE$0$L
 10
0.0
 20
1.375
 30
0.0
 11
-3.897317
 21
0.806641
 31
0.0
  0
LINE
  5
313
  8
C50_BASE$0$H
 10
-3.75
 20
-0.5
 30
0.0
 11
-2.25
 21
-0.5
 31
0.0
  0
LINE
  5
314
  8
C50_BASE$0$H
 10
-3.75
 20
-0.4375
 30
0.0
 11
-2.25
 21
-0.4375
 31
0.0
  0
LINE
  5
315
  8
C50_BASE$0$H
 10
-3.75
 20
0.4375
 30
0.0
 11
-2.25
 21
0.4375
 31
0.0
  0
LINE
  5
316
  8
C50_BASE$0$H
 10
-3.75
 20
0.5
 30
0.0
 11
-2.25
 21
0.5
 31
0.0
  0
LINE
  5
317
  8
C50_BASE$0$H
 10
-3.918594
 20
0.5155
 30
0.0
 11
-3.918594
 21
-0.0025
 31
0.0
  0
LINE
  5
318
  8
C50_BASE$0$H
 10
-3.75
 20
0.0
 30
0.0
 11
-3.75
 21
0.5155
 31
0.0
  0
LINE
  5
319
  8
C50_BASE$0$H
 10
-3.75
 20
0.0
 30
0.0
 11
-3.75
 21
-0.5155
 31
0.0
  0
LINE
  5
31A
  8
C50_BASE$0$H
 10
-3.918594
 20
-0.5155
 30
0.0
 11
-3.918594
 21
0.0025
 31
0.0
  0
LINE
  5
31B
  8
C50_BASE$0$H
 10
-3.918594
 20
-0.5155
 30
0.0
 11
-3.75
 21
-0.5155
 31
0.0
  0
LINE
  5
31C
  8
C50_BASE$0$H
 10
-3.918594
 20
0.5155
 30
0.0
 11
-3.75
 21
0.5155
 31
0.0
  0
LINE
  5
31D
  8
C50_BASE$0$H
 10
-2.25
 20
0.5
 30
0.0
 11
-2.25
 21
-0.5
 31
0.0
  0
LINE
  5
31E
  8
C50_BASE$0$L
 10
0.0
 20
0.0
 30
0.0
 11
0.0
 21
1.375
 31
0.0
  0
CIRCLE
  5
31F
  8
C50_BASE$0$L
 10
0.44
 20
0.0
 30
0.0
 40
0.1875
  0
LINE
  5
320
  8
C50_BASE$0$L
 10
0.125
 20
0.51
 30
0.0
 11
0.695204
 21
0.51
 31
0.0
  0
LINE
  5
321
  8
C50_BASE$0$L
 10
0.0
 20
1.375
 30
0.0
 11
0.105
 21
1.375
 31
0.0
  0
POINT
  5
322
  8
DEFPOINTS
  6
BYBLOCK
 62
     0
 10
0.0
 20
1.375
 30
0.0
  0
POINT
  5
323
  8
DEFPOINTS
  6
BYBLOCK
 62
     0
 10
0.0
 20
-1.375
 30
0.0
  0
POINT
  5
324
  8
DEFPOINTS
  6
BYBLOCK
 62
     0
 10
0.0
 20
1.375
 30
0.0
  0
LINE
  5
325
  8
C50_BASE$0$L
 10
0.125
 20
-1.9075
 30
0.0
 11
0.125
 21
1.9075
 31
0.0
  0
LINE
  5
326
  8
C50_BASE$0$L
 10
0.5155
 20
0.51
 30
0.0
 11
0.5155
 21
1.827515
 31
0.0
  0
LINE
  5
327
  8
C50_BASE$0$L
 10
0.3645
 20
0.51
 30
0.0
 11
0.3645
 21
1.827515
 31
0.0
  0
LINE
  5
328
  8
C50_BASE$0$L
 10
0.579
 20
0.51
 30
0.0
 11
0.579
 21
1.9375
 31
0.0
  0
LINE
  5
329
  8
C50_BASE$0$L
 10
0.301
 20
0.51
 30
0.0
 11
0.301
 21
1.9375
 31
0.0
  0
LINE
  5
32A
  8
C50_BASE$0$L
 10
0.579
 20
1.9375
 30
0.0
 11
0.5155
 21
1.827515
 31
0.0
  0
LINE
  5
32B
  8
C50_BASE$0$L
 10
0.301
 20
1.9375
 30
0.0
 11
0.3645
 21
1.827515
 31
0.0
  0
LINE
  5
32C
  8
C50_BASE$0$L
 10
0.579
 20
1.9375
 30
0.0
 11
0.72
 21
1.9375
 31
0.0
  0
LINE
  5
32D
  8
C50_BASE$0$L
 10
0.301
 20
1.9375
 30
0.0
 11
0.155
 21
1.9375
 31
0.0
  0
LINE
  5
32E
  8
C50_BASE$0$L
 10
0.155
 20
0.51
 30
0.0
 11
0.155
 21
1.9375
 31
0.0
  0
LINE
  5
32F
  8
C50_BASE$0$L
 10
0.125
 20
1.9075
 30
0.0
 11
0.155
 21
1.9375
 31
0.0
  0
LINE
  5
330
  8
C50_BASE$0$L
 10
0.5155
 20
1.797
 30
0.0
 11
0.3645
 21
1.797
 31
0.0
  0
ARC
  5
331
  8
C50_BASE$0$L
 10
0.105
 20
1.395
 30
0.0
 40
0.02
 50
270.0
 51
0.0
  0
LINE
  5
332
  8
C50_BASE$0$L
 10
0.579
 20
-0.51
 30
0.0
 11
0.579
 21
-1.9375
 31
0.0
  0
LINE
  5
333
  8
C50_BASE$0$L
 10
0.5155
 20
-0.51
 30
0.0
 11
0.5155
 21
-1.827515
 31
0.0
  0
LINE
  5
334
  8
C50_BASE$0$L
 10
0.3645
 20
-0.51
 30
0.0
 11
0.3645
 21
-1.827515
 31
0.0
  0
LINE
  5
335
  8
C50_BASE$0$L
 10
0.301
 20
-0.51
 30
0.0
 11
0.301
 21
-1.9375
 31
0.0
  0
LINE
  5
336
  8
C50_BASE$0$L
 10
0.155
 20
-0.51
 30
0.0
 11
0.155
 21
-1.9375
 31
0.0
  0
LINE
  5
337
  8
C50_BASE$0$L
 10
0.579
 20
-1.9375
 30
0.0
 11
0.72
 21
-1.9375
 31
0.0
  0
LINE
  5
338
  8
C50_BASE$0$L
 10
0.301
 20
-1.9375
 30
0.0
 11
0.3645
 21
-1.827515
 31
0.0
  0
LINE
  5
339
  8
C50_BASE$0$L
 10
0.579
 20
-1.9375
 30
0.0
 11
0.5155
 21
-1.827515
 31
0.0
  0
LINE
  5
33A
  8
C50_BASE$0$L
 10
0.301
 20
-1.9375
 30
0.0
 11
0.155
 21
-1.9375
 31
0.0
  0
LINE
  5
33B
  8
C50_BASE$0$L
 10
0.125
 20
-1.9075
 30
0.0
 11
0.155
 21
-1.9375
 31
0.0
  0
LINE
  5
33C
  8
C50_BASE$0$L
 10
0.5155
 20
-1.797
 30
0.0
 11
0.3645
 21
-1.797
 31
0.0
  0
LINE
  5
33D
  8
C50_BASE$0$L
 10
0.125
 20
-0.51
 30
0.0
 11
0.695204
 21
-0.51
 31
0.0
  0
ARC
  5
33E
  8
C50_BASE$0$L
 10
0.105
 20
-1.395
 30
0.0
 40
0.02
 50
0.0
 51
90.0
  0
SOLID
  5
33F
  8
C50_BASE$0$D
 10
-0.371748
 20
1.44279
 30
0.0
 11
-0.408045
 21
1.425982
 31
0.0
 12
-0.339474
 22
1.325493
 32
0.0
 13
-0.339474
 23
1.325493
 33
0.0
  0
LINE
  5
340
  8
C50_BASE$0$D
 10
-0.389896
 20
1.434386
 30
0.0
 11
-1.092609
 21
2.951982
 31
0.0
  0
LINE
  5
341
  8
C50_BASE$0$D
 10
-1.092609
 20
2.951982
 30
0.0
 11
-1.225138
 21
2.951982
 31
0.0
  0
TEXT
  5
342
  8
C50_BASE$0$D
 10
-2.677478
 20
2.903767
 30
0.0
 40
0.125
  1
50 V-FLANGE
  7
C50_BASE$0$STANDARD
 72
     2
 11
-1.323312
 21
2.966267
 31
0.0
 73
     2
  0
TEXT
  5
343
  8
C50_BASE$0$D
 10
-3.030563
 20
2.905161
 30
0.0
 40
0.09
  1
CAT
  7
C50_BASE$0$STANDARD
 72
     2
 11
-2.790563
 21
2.950161
 31
0.0
 73
     2
  0
ENDBLK
  5
228
  8
0
  6
CONTINUOUS
 62
     7
  0
ENDSEC
  0
SECTION
  2
ENTITIES
  0
POINT
  5
1E9
  8
DEFPOINTS
  6
BYBLOCK
 62
     0
 10
0.0
 20
0.875
 30
0.0
  0
LINE
  5
1EB
  8
H
 10
-0.762877
 20
0.4375
 30
0.0
 11
-0.762877
 21
-0.4375
 31
0.0
  0
LINE
  5
1EC
  8
H
 10
-0.5
 20
0.0
 30
0.0
 11
-0.762877
 21
-0.4375
 31
0.0
  0
LINE
  5
1ED
  8
H
 10
-0.5
 20
0.0
 30
0.0
 11
-0.762877
 21
0.4375
 31
0.0
  0
LINE
  5
1EE
  8
H
 10
-2.25
 20
0.4375
 30
0.0
 11
-0.762877
 21
0.4375
 31
0.0
  0
LINE
  5
1EF
  8
H
 10
-2.25
 20
-0.4375
 30
0.0
 11
-0.762877
 21
-0.4375
 31
0.0
  0
LINE
  5
1F1
  8
L
 10
1.47
 20
0.875753
 30
0.0
 11
1.41
 21
0.875753
 31
0.0
  0
ARC
  5
1F2
  8
L
 10
1.41
 20
0.905753
 30
0.0
 40
0.03
 50
180.0
 51
270.0
  0
ARC
  5
1F3
  8
L
 10
1.41
 20
-0.905753
 30
0.0
 40
0.03
 50
90.0
 51
180.0
  0
LINE
  5
1F4
  8
L
 10
1.47
 20
-0.875753
 30
0.0
 11
1.41
 21
-0.875753
 31
0.0
  0
INSERT
  5
1F5
  8
0
  2
C50R06
 10
1.32
 20
1.375
 30
0.0
  0
LINE
  5
1F6
  8
L
 10
1.287974
 20
1.375
 30
0.0
 11
1.32
 21
1.375
 31
0.0
  0
LINE
  5
1F7
  8
L
 10
1.287974
 20
-1.375
 30
0.0
 11
1.32
 21
-1.375
 31
0.0
  0
DIMENSION
  5
1F8
  8
0
  2
*D2
 10
1.5
 20
2.758695
 30
0.0
 11
0.75
 21
2.758695
 31
0.0
  1
1.50
 13
0.0
 23
1.375
 33
0.0
 14
1.5
 24
0.845753
 34
0.0
  0
DIMENSION
  5
1F9
  8
0
  2
*D3
 10
1.995197
 20
2.293183
 30
0.0
 11
2.450197
 21
2.293183
 31
0.0
  1
.49
 13
1.5
 23
1.444308
 33
0.0
 14
1.995197
 24
0.3775
 34
0.0
  0
LINE
  5
1FA
  8
L
 10
-0.65712
 20
0.838417
 30
0.0
 11
-0.59462
 21
0.838417
 31
0.0
  0
LINE
  5
1FB
  8
L
 10
-0.65712
 20
1.113417
 30
0.0
 11
-0.59462
 21
1.113417
 31
0.0
  0
ARC
  5
1FC
  8
L
 10
-0.979673
 20
0.947917
 30
0.0
 40
0.1095
 50
0.018858
 51
278.071967
  0
CIRCLE
  5
1FD
  8
L
 10
-0.979673
 20
0.947917
 30
0.0
 40
0.05
  0
ARC
  5
1FE
  8
L
 10
-0.979673
 20
0.947917
 30
0.0
 40
0.1095
 50
0.018858
 51
278.071967
  0
LINE
  5
1FF
  8
L
 10
-1.262212
 20
0.956788
 30
0.0
 11
-1.262212
 21
0.838417
 31
0.0
  0
LINE
  5
200
  8
L
 10
-1.324712
 20
1.003839
 30
0.0
 11
-1.324712
 21
0.838417
 31
0.0
  0
LINE
  5
201
  8
L
 10
-1.324712
 20
0.838417
 30
0.0
 11
-1.262212
 21
0.838417
 31
0.0
  0
CIRCLE
  5
202
  8
L
 10
-1.215212
 20
1.003839
 30
0.0
 40
0.05
  0
ARC
  5
203
  8
L
 10
-1.215212
 20
1.003839
 30
0.0
 40
0.1095
 50
269.890544
 51
179.99999
  0
LINE
  5
204
  8
L
 10
-1.262212
 20
0.956788
 30
0.0
 11
-1.215422
 21
0.894339
 31
0.0
  0
LINE
  5
205
  8
L
 10
-0.65712
 20
1.113417
 30
0.0
 11
-0.65712
 21
0.838417
 31
0.0
  0
LINE
  5
206
  8
L
 10
-0.777638
 20
0.977879
 30
0.0
 11
-0.777363
 21
0.838417
 31
0.0
  0
LINE
  5
207
  8
L
 10
-0.840138
 20
0.977879
 30
0.0
 11
-0.839863
 21
0.838417
 31
0.0
  0
LINE
  5
208
  8
L
 10
-0.870173
 20
0.947953
 30
0.0
 11
-0.870137
 21
0.838417
 31
0.0
  0
LINE
  5
209
  8
L
 10
-0.932659
 20
0.905032
 30
0.0
 11
-0.964297
 21
0.839502
 31
0.0
  0
LINE
  5
20A
  8
L
 10
-0.932659
 20
0.905032
 30
0.0
 11
-0.932637
 21
0.838417
 31
0.0
  0
LINE
  5
20B
  8
L
 10
-0.870173
 20
0.947953
 30
0.0
 11
-0.870137
 21
0.838489
 31
0.0
  0
LINE
  5
20C
  8
L
 10
-0.839863
 20
0.838417
 30
0.0
 11
-0.777363
 21
0.838417
 31
0.0
  0
LINE
  5
20D
  8
L
 10
-0.932637
 20
0.838417
 30
0.0
 11
-0.870137
 21
0.838417
 31
0.0
  0
ARC
  5
20E
  8
L
 10
-0.760601
 20
0.977879
 30
0.0
 40
0.079538
 50
18.846034
 51
180.226252
  0
LINE
  5
20F
  8
L
 10
-0.685327
 20
1.003572
 30
0.0
 11
-0.727722
 21
0.979919
 31
0.0
  0
ARC
  5
210
  8
L
 10
-0.752638
 20
0.977879
 30
0.0
 40
0.025
 50
4.679095
 51
180.226252
  0
ARC
  5
211
  8
L
 10
-0.228333
 20
0.947917
 30
0.0
 40
0.1095
 50
30.701399
 51
270.0
  0
ARC
  5
212
  8
L
 10
-0.458414
 20
0.947917
 30
0.0
 40
0.05625
 50
235.5219
 51
332.233922
  0
LINE
  5
213
  8
L
 10
-0.59462
 20
1.113417
 30
0.0
 11
-0.59462
 21
0.838417
 31
0.0
  0
ARC
  5
214
  8
L
 10
-0.458414
 20
0.947917
 30
0.0
 40
0.1095
 50
14.507251
 51
328.258317
  0
ARC
  5
215
  8
L
 10
-0.458414
 20
0.947917
 30
0.0
 40
0.05625
 50
64.071476
 51
172.253555
  0
LINE
  5
216
  8
L
 10
-0.433819
 20
0.998504
 30
0.0
 11
-0.51415
 21
0.955499
 31
0.0
  0
LINE
  5
217
  8
L
 10
-0.352405
 20
0.975347
 30
0.0
 11
-0.490256
 21
0.901548
 31
0.0
  0
LINE
  5
218
  8
L
 10
-0.408641
 20
0.921712
 30
0.0
 11
-0.365292
 21
0.89031
 31
0.0
  0
LINE
  5
219
  8
L
 10
-0.091467
 20
0.891667
 30
0.0
 11
-0.119008
 21
0.838417
 31
0.0
  0
LINE
  5
21A
  8
L
 10
-0.228333
 20
0.838417
 30
0.0
 11
-0.119008
 21
0.838417
 31
0.0
  0
LINE
  5
21B
  8
L
 10
-0.228333
 20
0.891667
 30
0.0
 11
-0.091467
 21
0.891667
 31
0.0
  0
LINE
  5
21C
  8
L
 10
-0.13418
 20
1.003824
 30
0.0
 11
-0.183692
 21
0.982141
 31
0.0
  0
ARC
  5
21D
  8
L
 10
-0.228333
 20
0.947917
 30
0.0
 40
0.05625
 50
37.476042
 51
270.0
  0
TEXT
  5
21E
  8
0
 10
-1.22141
 20
0.645427
 30
0.0
 40
0.125
  1
C50-87BH1
  0
DIMENSION
  5
21F
  8
0
  2
*D4
 10
1.38
 20
2.156268
 30
0.0
 11
0.69
 21
2.156268
 31
0.0
  1
1.375
 13
0.0
 23
2.183651
 33
0.0
 14
1.38
 24
1.315
 34
0.0
  0
LINE
  5
2E0
  8
L
 10
1.995197
 20
0.3775
 30
0.0
 11
1.935197
 21
0.4375
 31
0.0
  0
LINE
  5
2E1
  8
L
 10
1.573388
 20
0.4375
 30
0.0
 11
1.573388
 21
-0.4375
 31
0.0
  0
LINE
  5
2E2
  8
H
 10
1.57351
 20
0.3975
 30
0.0
 11
1.975197
 21
0.3975
 31
0.0
  0
LINE
  5
2E3
  8
L
 10
1.573388
 20
0.4375
 30
0.0
 11
1.935197
 21
0.4375
 31
0.0
  0
LINE
  5
2E4
  8
L
 10
1.995197
 20
0.3775
 30
0.0
 11
1.995197
 21
-0.3775
 31
0.0
  0
LINE
  5
2E5
  8
L
 10
1.995197
 20
-0.3775
 30
0.0
 11
1.935197
 21
-0.4375
 31
0.0
  0
LINE
  5
2E6
  8
H
 10
1.57351
 20
-0.3975
 30
0.0
 11
1.975197
 21
-0.3975
 31
0.0
  0
LINE
  5
2E7
  8
L
 10
1.615197
 20
-0.4375
 30
0.0
 11
1.935197
 21
-0.4375
 31
0.0
  0
LINE
  5
2E8
  8
L
 10
1.5
 20
0.845753
 30
0.0
 11
1.5
 21
-0.844247
 31
0.0
  0
LINE
  5
2E9
  8
L
 10
1.47
 20
0.875753
 30
0.0
 11
1.5
 21
0.845753
 31
0.0
  0
LINE
  5
2EA
  8
L
 10
1.47
 20
-0.874247
 30
0.0
 11
1.5
 21
-0.844247
 31
0.0
  0
SOLID
  5
2EB
  8
D
 10
1.871338
 20
0.512044
 30
0.0
 11
1.841965
 21
0.539195
 31
0.0
 12
1.775197
 22
0.4375
 32
0.0
 13
1.775197
 23
0.4375
 33
0.0
  0
LINE
  5
2EC
  8
D
 10
1.856652
 20
0.52562
 30
0.0
 11
1.967787
 21
0.645848
 31
0.0
  0
LINE
  5
2ED
  8
D
 10
2.872594
 20
1.624685
 30
0.0
 11
3.026073
 21
1.624685
 31
0.0
  0
TEXT
  5
2EE
  8
D
 10
3.116073
 20
1.562185
 30
0.0
 40
0.125
  1
.875-20 UNF-2A
 50
0.0
 11
3.116073
 21
1.624685
 31
0.0
 73
     2
  0
LINE
  5
2EF
  8
D
  6
BYBLOCK
 62
     0
 10
1.545867
 20
0.875753
 30
0.0
 11
1.969681
 21
0.875753
 31
0.0
  0
LINE
  5
2F0
  8
D
  6
BYBLOCK
 62
     0
 10
1.5325
 20
-0.874247
 30
0.0
 11
2.546872
 21
-0.874247
 31
0.0
  0
LINE
  5
2F1
  8
D
  6
BYBLOCK
 62
     0
 10
3.864372
 20
0.755753
 30
0.0
 11
3.864372
 21
0.153253
 31
0.0
  0
LINE
  5
2F2
  8
D
  6
BYBLOCK
 62
     0
 10
3.864372
 20
-0.754247
 30
0.0
 11
3.864372
 21
-0.151747
 31
0.0
  0
SOLID
  5
2F3
  8
D
  6
BYBLOCK
 62
     0
 10
3.844372
 20
0.755753
 30
0.0
 11
3.884372
 21
0.755753
 31
0.0
 12
3.864372
 22
0.875753
 32
0.0
 13
3.864372
 23
0.875753
 33
0.0
  0
SOLID
  5
2F4
  8
D
  6
BYBLOCK
 62
     0
 10
3.844372
 20
-0.754247
 30
0.0
 11
3.884372
 21
-0.754247
 31
0.0
 12
3.864372
 22
-0.874247
 32
0.0
 13
3.864372
 23
-0.874247
 33
0.0
  0
TEXT
  5
2F5
  8
D
  6
BYBLOCK
 62
     0
 10
3.697705
 20
-0.061747
 30
0.0
 40
0.125
  1
1.75
 72
     4
 11
3.864372
 21
0.000753
 31
0.0
  0
POINT
  5
2F6
  8
DEFPOINTS
  6
BYBLOCK
 62
     0
 10
1.47
 20
0.875753
 30
0.0
  0
POINT
  5
2F7
  8
DEFPOINTS
  6
BYBLOCK
 62
     0
 10
1.47
 20
-0.874247
 30
0.0
  0
POINT
  5
2F8
  8
D
  6
BYBLOCK
 62
     0
 10
3.864372
 20
-0.874247
 30
0.0
  0
LINE
  5
2F9
  8
D
  6
BYBLOCK
 62
     0
 10
2.209154
 20
0.875753
 30
0.0
 11
3.914372
 21
0.875753
 31
0.0
  0
LINE
  5
2FA
  8
D
  6
BYBLOCK
 62
     0
 10
2.010435
 20
0.875753
 30
0.0
 11
2.13321
 21
0.875753
 31
0.0
  0
LINE
  5
2FB
  8
D
 10
2.029268
 20
0.712359
 30
0.0
 11
2.872594
 21
1.624685
 31
0.0
  0
LINE
  5
2FC
  8
L
 10
1.5
 20
-0.554845
 30
0.0
 11
1.5
 21
-0.525888
 31
0.0
  0
LINE
  5
2FD
  8
L
 10
1.573388
 20
-0.4375
 30
0.0
 11
1.62763
 21
-0.4375
 31
0.0
  0
LINE
  5
2FE
  8
D
  6
BYBLOCK
 62
     0
 10
2.590213
 20
-0.874247
 30
0.0
 11
3.914372
 21
-0.874247
 31
0.0
  0
LINE
  5
2FF
  8
L
 10
1.47
 20
0.875753
 30
0.0
 11
1.47
 21
-0.874247
 31
0.0
  0
LINE
  5
300
  8
L
 10
1.935197
 20
0.4375
 30
0.0
 11
1.935197
 21
-0.4375
 31
0.0
  0
LINE
  5
301
  8
L
 10
1.538388
 20
0.4025
 30
0.0
 11
1.538388
 21
-0.4025
 31
0.0
  0
LINE
  5
302
  8
L
 10
1.538388
 20
-0.4025
 30
0.0
 11
1.573388
 21
-0.4375
 31
0.0
  0
LINE
  5
303
  8
L
 10
1.5
 20
-0.4025
 30
0.0
 11
1.538388
 21
-0.4025
 31
0.0
  0
LINE
  5
304
  8
L
 10
1.538388
 20
0.4025
 30
0.0
 11
1.573388
 21
0.4375
 31
0.0
  0
LINE
  5
305
  8
L
 10
1.5
 20
0.4025
 30
0.0
 11
1.538388
 21
0.4025
 31
0.0
  0
POINT
  5
306
  8
DEFPOINTS
  6
BYBLOCK
 62
     0
 10
1.47
 20
0.875753
 30
0.0
  0
POINT
  5
307
  8
DEFPOINTS
  6
BYBLOCK
 62
     0
 10
1.975197
 20
0.3975
 30
0.0
  0
LINE
  5
308
  8
0
 10
2.546872
 20
-0.874247
 30
0.0
 11
2.733425
 21
-0.874247
 31
0.0
  0
LINE
  5
7B2
  8
C50_1$0$L
 10
0.72
 20
-1.9375
 30
0.0
 11
0.75
 21
-1.9075
 31
0.0
  0
LINE
  5
7B3
  8
C50_1$0$L
 10
0.78
 20
1.375
 30
0.0
 11
1.287974
 21
1.375
 31
0.0
  0
ARC
  5
7B4
  8
C50_1$0$L
 10
0.78
 20
1.405
 30
0.0
 40
0.03
 50
180.0
 51
270.0
  0
LINE
  5
7B5
  8
C50_1$0$L
 10
0.75
 20
0.0
 30
0.0
 11
0.75
 21
1.907502
 31
0.0
  0
LINE
  5
7B6
  8
C50_1$0$L
 10
0.72
 20
0.51
 30
0.0
 11
0.72
 21
1.937502
 31
0.0
  0
LINE
  5
7B7
  8
C50_1$0$L
 10
0.72
 20
1.937502
 30
0.0
 11
0.75
 21
1.907502
 31
0.0
  0
LINE
  5
7B8
  8
C50_1$0$L
 10
0.75
 20
0.0
 30
0.0
 11
0.75
 21
-1.907502
 31
0.0
  0
LINE
  5
7B9
  8
C50_1$0$L
 10
0.72
 20
-0.51
 30
0.0
 11
0.72
 21
-1.937502
 31
0.0
  0
POINT
  5
7BA
  8
DEFPOINTS
  6
BYBLOCK
 62
     0
 10
0.75
 20
-1.907502
 30
0.0
  0
LINE
  5
7BB
  8
C50_1$0$L
 10
0.72
 20
-1.937502
 30
0.0
 11
0.75
 21
-1.907502
 31
0.0
  0
LINE
  5
7BC
  8
C50_1$0$L
 10
0.78
 20
-1.375
 30
0.0
 11
1.287974
 21
-1.375
 31
0.0
  0
ARC
  5
7BD
  8
C50_1$0$L
 10
0.78
 20
-1.405
 30
0.0
 40
0.03
 50
90.0
 51
180.0
  0
LINE
  5
7BF
  8
C50_1$0$L
 10
0.695204
 20
0.51
 30
0.0
 11
0.75
 21
0.51
 31
0.0
  0
LINE
  5
7C0
  8
C50_1$0$L
 10
0.695204
 20
-0.51
 30
0.0
 11
0.75
 21
-0.51
 31
0.0
  0
LINE
  5
7C1
  8
C50_BASE$0$L
 10
0.0
 20
0.0
 30
0.0
 11
0.0
 21
-1.375
 31
0.0
  0
LINE
  5
7C2
  8
C50_BASE$0$L
 10
0.0
 20
-1.375
 30
0.0
 11
-3.897317
 21
-0.806641
 31
0.0
  0
LINE
  5
7C3
  8
C50_BASE$0$L
 10
0.0
 20
-1.375
 30
0.0
 11
0.105
 21
-1.375
 31
0.0
  0
ARC
  5
7C4
  8
C50_BASE$0$L
 10
-3.88241
 20
0.69
 30
0.0
 40
0.11759
 50
97.282949
 51
180.0
  0
LINE
  5
7C5
  8
C50_BASE$0$H
 10
-4.0
 20
0.5625
 30
0.0
 11
-3.918594
 21
0.5155
 31
0.0
  0
LINE
  5
7C6
  8
C50_BASE$0$H
 10
-4.0
 20
-0.5625
 30
0.0
 11
-3.918594
 21
-0.5155
 31
0.0
  0
ARC
  5
7C7
  8
C50_BASE$0$L
 10
-3.88241
 20
-0.69
 30
0.0
 40
0.11759
 50
180.0
 51
262.717051
  0
LINE
  5
7C8
  8
C50_BASE$0$L
 10
-4.0
 20
-0.69
 30
0.0
 11
-4.0
 21
0.69
 31
0.0
  0
LINE
  5
7C9
  8
C50_BASE$0$L
 10
0.0
 20
1.375
 30
0.0
 11
-3.897317
 21
0.806641
 31
0.0
  0
LINE
  5
7CA
  8
C50_BASE$0$H
 10
-3.75
 20
-0.5
 30
0.0
 11
-2.25
 21
-0.5
 31
0.0
  0
LINE
  5
7CB
  8
C50_BASE$0$H
 10
-3.75
 20
-0.4375
 30
0.0
 11
-2.25
 21
-0.4375
 31
0.0
  0
LINE
  5
7CC
  8
C50_BASE$0$H
 10
-3.75
 20
0.4375
 30
0.0
 11
-2.25
 21
0.4375
 31
0.0
  0
LINE
  5
7CD
  8
C50_BASE$0$H
 10
-3.75
 20
0.5
 30
0.0
 11
-2.25
 21
0.5
 31
0.0
  0
LINE
  5
7CE
  8
C50_BASE$0$H
 10
-3.918594
 20
0.5155
 30
0.0
 11
-3.918594
 21
-0.0025
 31
0.0
  0
LINE
  5
7CF
  8
C50_BASE$0$H
 10
-3.75
 20
0.0
 30
0.0
 11
-3.75
 21
0.5155
 31
0.0
  0
LINE
  5
7D0
  8
C50_BASE$0$H
 10
-3.75
 20
0.0
 30
0.0
 11
-3.75
 21
-0.5155
 31
0.0
  0
LINE
  5
7D1
  8
C50_BASE$0$H
 10
-3.918594
 20
-0.5155
 30
0.0
 11
-3.918594
 21
0.0025
 31
0.0
  0
LINE
  5
7D2
  8
C50_BASE$0$H
 10
-3.918594
 20
-0.5155
 30
0.0
 11
-3.75
 21
-0.5155
 31
0.0
  0
LINE
  5
7D3
  8
C50_BASE$0$H
 10
-3.918594
 20
0.5155
 30
0.0
 11
-3.75
 21
0.5155
 31
0.0
  0
LINE
  5
7D4
  8
C50_BASE$0$H
 10
-2.25
 20
0.5
 30
0.0
 11
-2.25
 21
-0.5
 31
0.0
  0
LINE
  5
7D5
  8
C50_BASE$0$L
 10
0.0
 20
0.0
 30
0.0
 11
0.0
 21
1.375
 31
0.0
  0
CIRCLE
  5
7D6
  8
C50_BASE$0$L
 10
0.44
 20
0.0
 30
0.0
 40
0.1875
  0
LINE
  5
7D7
  8
C50_BASE$0$L
 10
0.125
 20
0.51
 30
0.0
 11
0.695204
 21
0.51
 31
0.0
  0
LINE
  5
7D8
  8
C50_BASE$0$L
 10
0.0
 20
1.375
 30
0.0
 11
0.105
 21
1.375
 31
0.0
  0
POINT
  5
7D9
  8
DEFPOINTS
  6
BYBLOCK
 62
     0
 10
0.0
 20
1.375
 30
0.0
  0
POINT
  5
7DA
  8
DEFPOINTS
  6
BYBLOCK
 62
     0
 10
0.0
 20
-1.375
 30
0.0
  0
POINT
  5
7DB
  8
DEFPOINTS
  6
BYBLOCK
 62
     0
 10
0.0
 20
1.375
 30
0.0
  0
LINE
  5
7DC
  8
C50_BASE$0$L
 10
0.125
 20
-1.9075
 30
0.0
 11
0.125
 21
1.9075
 31
0.0
  0
LINE
  5
7DD
  8
C50_BASE$0$L
 10
0.5155
 20
0.51
 30
0.0
 11
0.5155
 21
1.827515
 31
0.0
  0
LINE
  5
7DE
  8
C50_BASE$0$L
 10
0.3645
 20
0.51
 30
0.0
 11
0.3645
 21
1.827515
 31
0.0
  0
LINE
  5
7DF
  8
C50_BASE$0$L
 10
0.579
 20
0.51
 30
0.0
 11
0.579
 21
1.9375
 31
0.0
  0
LINE
  5
7E0
  8
C50_BASE$0$L
 10
0.301
 20
0.51
 30
0.0
 11
0.301
 21
1.9375
 31
0.0
  0
LINE
  5
7E1
  8
C50_BASE$0$L
 10
0.579
 20
1.9375
 30
0.0
 11
0.5155
 21
1.827515
 31
0.0
  0
LINE
  5
7E2
  8
C50_BASE$0$L
 10
0.301
 20
1.9375
 30
0.0
 11
0.3645
 21
1.827515
 31
0.0
  0
LINE
  5
7E3
  8
C50_BASE$0$L
 10
0.579
 20
1.9375
 30
0.0
 11
0.72
 21
1.9375
 31
0.0
  0
LINE
  5
7E4
  8
C50_BASE$0$L
 10
0.301
 20
1.9375
 30
0.0
 11
0.155
 21
1.9375
 31
0.0
  0
LINE
  5
7E5
  8
C50_BASE$0$L
 10
0.155
 20
0.51
 30
0.0
 11
0.155
 21
1.9375
 31
0.0
  0
LINE
  5
7E6
  8
C50_BASE$0$L
 10
0.125
 20
1.9075
 30
0.0
 11
0.155
 21
1.9375
 31
0.0
  0
LINE
  5
7E7
  8
C50_BASE$0$L
 10
0.5155
 20
1.797
 30
0.0
 11
0.3645
 21
1.797
 31
0.0
  0
ARC
  5
7E8
  8
C50_BASE$0$L
 10
0.105
 20
1.395
 30
0.0
 40
0.02
 50
270.0
 51
0.0
  0
LINE
  5
7E9
  8
C50_BASE$0$L
 10
0.579
 20
-0.51
 30
0.0
 11
0.579
 21
-1.9375
 31
0.0
  0
LINE
  5
7EA
  8
C50_BASE$0$L
 10
0.5155
 20
-0.51
 30
0.0
 11
0.5155
 21
-1.827515
 31
0.0
  0
LINE
  5
7EB
  8
C50_BASE$0$L
 10
0.3645
 20
-0.51
 30
0.0
 11
0.3645
 21
-1.827515
 31
0.0
  0
LINE
  5
7EC
  8
C50_BASE$0$L
 10
0.301
 20
-0.51
 30
0.0
 11
0.301
 21
-1.9375
 31
0.0
  0
LINE
  5
7ED
  8
C50_BASE$0$L
 10
0.155
 20
-0.51
 30
0.0
 11
0.155
 21
-1.9375
 31
0.0
  0
LINE
  5
7EE
  8
C50_BASE$0$L
 10
0.579
 20
-1.9375
 30
0.0
 11
0.72
 21
-1.9375
 31
0.0
  0
LINE
  5
7EF
  8
C50_BASE$0$L
 10
0.301
 20
-1.9375
 30
0.0
 11
0.3645
 21
-1.827515
 31
0.0
  0
LINE
  5
7F0
  8
C50_BASE$0$L
 10
0.579
 20
-1.9375
 30
0.0
 11
0.5155
 21
-1.827515
 31
0.0
  0
LINE
  5
7F1
  8
C50_BASE$0$L
 10
0.301
 20
-1.9375
 30
0.0
 11
0.155
 21
-1.9375
 31
0.0
  0
LINE
  5
7F2
  8
C50_BASE$0$L
 10
0.125
 20
-1.9075
 30
0.0
 11
0.155
 21
-1.9375
 31
0.0
  0
LINE
  5
7F3
  8
C50_BASE$0$L
 10
0.5155
 20
-1.797
 30
0.0
 11
0.3645
 21
-1.797
 31
0.0
  0
LINE
  5
7F4
  8
C50_BASE$0$L
 10
0.125
 20
-0.51
 30
0.0
 11
0.695204
 21
-0.51
 31
0.0
  0
ARC
  5
7F5
  8
C50_BASE$0$L
 10
0.105
 20
-1.395
 30
0.0
 40
0.02
 50
0.0
 51
90.0
  0
SOLID
  5
7F6
  8
C50_BASE$0$D
 10
-0.371748
 20
1.44279
 30
0.0
 11
-0.408045
 21
1.425982
 31
0.0
 12
-0.339474
 22
1.325493
 32
0.0
 13
-0.339474
 23
1.325493
 33
0.0
  0
LINE
  5
7F7
  8
C50_BASE$0$D
 10
-0.389896
 20
1.434386
 30
0.0
 11
-1.092609
 21
2.951982
 31
0.0
  0
LINE
  5
7F8
  8
C50_BASE$0$D
 10
-1.092609
 20
2.951982
 30
0.0
 11
-1.225138
 21
2.951982
 31
0.0
  0
TEXT
  5
7F9
  8
C50_BASE$0$D
 10
-2.677478
 20
2.903767
 30
0.0
 40
0.125
  1
50 V-FLANGE
  7
C50_BASE$0$STANDARD
 72
     2
 11
-1.323312
 21
2.966267
 31
0.0
 73
     2
  0
TEXT
  5
7FA
  8
C50_BASE$0$D
 10
-3.030563
 20
2.905161
 30
0.0
 40
0.09
  1
CAT
  7
C50_BASE$0$STANDARD
 72
     2
 11
-2.790563
 21
2.950161
 31
0.0
 73
     2
  0
ENDSEC
  0
EOF
