  0
SECTION
  2
HEADER
  9
$ACADVER
  1
AC1015
  9
$ACADMAINTVER
 70
     6
  9
$DWGCODEPAGE
  3
ANSI_1252
  9
$INSBASE
 10
0.0
 20
0.0
 30
0.0
  9
$EXTMIN
 10
0.0
 20
0.0
 30
0.0
  9
$EXTMAX
 10
33.0
 20
25.5
 30
0.0
  9
$LIMMIN
 10
0.0
 20
0.0
  9
$LIMMAX
 10
33.0
 20
25.5
  9
$ORTHOMODE
 70
     0
  9
$REGENMODE
 70
     1
  9
$FILLMODE
 70
     1
  9
$QTEXTMODE
 70
     0
  9
$MIRRTEXT
 70
     1
  9
$LTSCALE
 40
3.0
  9
$ATTMODE
 70
     1
  9
$TEXTSIZE
 40
0.375
  9
$TRACEWID
 40
0.05
  9
$TEXTSTYLE
  7
Standard
  9
$CLAYER
  8
0
  9
$CELTYPE
  6
ByLayer
  9
$CECOLOR
 62
   256
  9
$CELTSCALE
 40
1.0
  9
$DISPSILH
 70
     0
  9
$DIMSCALE
 40
1.0
  9
$DIMASZ
 40
0.39
  9
$DIMEXO
 40
0.15
  9
$DIMDLI
 40
0.38
  9
$DIMRND
 40
0.0
  9
$DIMDLE
 40
0.0
  9
$DIMEXE
 40
0.375
  9
$DIMTP
 40
0.0
  9
$DIMTM
 40
0.0
  9
$DIMTXT
 40
0.375
  9
$DIMCEN
 40
0.09
  9
$DIMTSZ
 40
0.0
  9
$DIMTOL
 70
     0
  9
$DIMLIM
 70
     0
  9
$DIMTIH
 70
     1
  9
$DIMTOH
 70
     1
  9
$DIMSE1
 70
     0
  9
$DIMSE2
 70
     0
  9
$DIMTAD
 70
     0
  9
$DIMZIN
 70
     1
  9
$DIMBLK
  1

  9
$DIMASO
 70
     1
  9
$DIMSHO
 70
     1
  9
$DIMPOST
  1

  9
$DIMAPOST
  1

  9
$DIMALT
 70
     0
  9
$DIMALTD
 70
     2
  9
$DIMALTF
 40
25.4
  9
$DIMLFAC
 40
1.0
  9
$DIMTOFL
 70
     0
  9
$DIMTVP
 40
0.0
  9
$DIMTIX
 70
     0
  9
$DIMSOXD
 70
     0
  9
$DIMSAH
 70
     0
  9
$DIMBLK1
  1

  9
$DIMBLK2
  1

  9
$DIMSTYLE
  2
Standard
  9
$DIMCLRD
 70
     0
  9
$DIMCLRE
 70
     0
  9
$DIMCLRT
 70
     0
  9
$DIMTFAC
 40
1.0
  9
$DIMGAP
 40
0.18
  9
$DIMJUST
 70
     0
  9
$DIMSD1
 70
     0
  9
$DIMSD2
 70
     0
  9
$DIMTOLJ
 70
     1
  9
$DIMTZIN
 70
     1
  9
$DIMALTZ
 70
     0
  9
$DIMALTTZ
 70
     0
  9
$DIMUPT
 70
     0
  9
$DIMDEC
 70
     0
  9
$DIMTDEC
 70
     0
  9
$DIMALTU
 70
     2
  9
$DIMALTTD
 70
     2
  9
$DIMTXSTY
  7
Standard
  9
$DIMAUNIT
 70
     0
  9
$DIMADEC
 70
     0
  9
$DIMALTRND
 40
0.0
  9
$DIMAZIN
 70
     0
  9
$DIMDSEP
 70
    46
  9
$DIMATFIT
 70
     3
  9
$DIMFRAC
 70
     0
  9
$DIMLDRBLK
  1

  9
$DIMLUNIT
 70
     2
  9
$DIMLWD
 70
    -2
  9
$DIMLWE
 70
    -2
  9
$DIMTMOVE
 70
     0
  9
$LUNITS
 70
     2
  9
$LUPREC
 70
     6
  9
$SKETCHINC
 40
0.1
  9
$FILLETRAD
 40
0.0
  9
$AUNITS
 70
     0
  9
$AUPREC
 70
     2
  9
$MENU
  1
.
  9
$ELEVATION
 40
0.0
  9
$PELEVATION
 40
0.0
  9
$THICKNESS
 40
0.0
  9
$LIMCHECK
 70
     0
  9
$CHAMFERA
 40
0.0
  9
$CHAMFERB
 40
0.0
  9
$CHAMFERC
 40
0.0
  9
$CHAMFERD
 40
0.0
  9
$SKPOLY
 70
     0
  9
$TDCREATE
 40
2460865.38856044
  9
$TDUCREATE
 40
2460865.680227107
  9
$TDUPDATE
 40
2460865.388561181
  9
$TDUUPDATE
 40
2460865.680227848
  9
$TDINDWG
 40
0.0000000116
  9
$TDUSRTIMER
 40
0.0000000116
  9
$USRTIMER
 70
     1
  9
$ANGBASE
 50
0.0
  9
$ANGDIR
 70
     0
  9
$PDMODE
 70
     0
  9
$PDSIZE
 40
-1.0
  9
$PLINEWID
 40
0.0
  9
$SPLFRAME
 70
     0
  9
$SPLINETYPE
 70
     6
  9
$SPLINESEGS
 70
     8
  9
$HANDSEED
  5
32E
  9
$SURFTAB1
 70
     6
  9
$SURFTAB2
 70
     6
  9
$SURFTYPE
 70
     6
  9
$SURFU
 70
     6
  9
$SURFV
 70
     6
  9
$UCSBASE
  2

  9
$UCSNAME
  2

  9
$UCSORG
 10
0.0
 20
0.0
 30
0.0
  9
$UCSXDIR
 10
1.0
 20
0.0
 30
0.0
  9
$UCSYDIR
 10
0.0
 20
1.0
 30
0.0
  9
$UCSORTHOREF
  2

  9
$UCSORTHOVIEW
 70
     0
  9
$UCSORGTOP
 10
0.0
 20
0.0
 30
0.0
  9
$UCSORGBOTTOM
 10
0.0
 20
0.0
 30
0.0
  9
$UCSORGLEFT
 10
0.0
 20
0.0
 30
0.0
  9
$UCSORGRIGHT
 10
0.0
 20
0.0
 30
0.0
  9
$UCSORGFRONT
 10
0.0
 20
0.0
 30
0.0
  9
$UCSORGBACK
 10
0.0
 20
0.0
 30
0.0
  9
$PUCSBASE
  2

  9
$PUCSNAME
  2

  9
$PUCSORG
 10
0.0
 20
0.0
 30
0.0
  9
$PUCSXDIR
 10
1.0
 20
0.0
 30
0.0
  9
$PUCSYDIR
 10
0.0
 20
1.0
 30
0.0
  9
$PUCSORTHOREF
  2

  9
$PUCSORTHOVIEW
 70
     0
  9
$PUCSORGTOP
 10
0.0
 20
0.0
 30
0.0
  9
$PUCSORGBOTTOM
 10
0.0
 20
0.0
 30
0.0
  9
$PUCSORGLEFT
 10
0.0
 20
0.0
 30
0.0
  9
$PUCSORGRIGHT
 10
0.0
 20
0.0
 30
0.0
  9
$PUCSORGFRONT
 10
0.0
 20
0.0
 30
0.0
  9
$PUCSORGBACK
 10
0.0
 20
0.0
 30
0.0
  9
$USERI1
 70
     0
  9
$USERI2
 70
     0
  9
$USERI3
 70
     0
  9
$USERI4
 70
     0
  9
$USERI5
 70
     0
  9
$USERR1
 40
0.0
  9
$USERR2
 40
0.0
  9
$USERR3
 40
0.0
  9
$USERR4
 40
0.0
  9
$USERR5
 40
0.0
  9
$WORLDVIEW
 70
     1
  9
$SHADEDGE
 70
     3
  9
$SHADEDIF
 70
    70
  9
$TILEMODE
 70
     1
  9
$MAXACTVP
 70
    64
  9
$PINSBASE
 10
0.0
 20
0.0
 30
0.0
  9
$PLIMCHECK
 70
     0
  9
$PEXTMIN
 10
1.0000000000E+20
 20
1.0000000000E+20
 30
1.0000000000E+20
  9
$PEXTMAX
 10
-1.0000000000E+20
 20
-1.0000000000E+20
 30
-1.0000000000E+20
  9
$PLIMMIN
 10
0.0
 20
0.0
  9
$PLIMMAX
 10
12.0
 20
9.0
  9
$UNITMODE
 70
     0
  9
$VISRETAIN
 70
     1
  9
$PLINEGEN
 70
     0
  9
$PSLTSCALE
 70
     1
  9
$TREEDEPTH
 70
  3020
  9
$CMLSTYLE
  2
Standard
  9
$CMLJUST
 70
     0
  9
$CMLSCALE
 40
1.0
  9
$PROXYGRAPHICS
 70
     1
  9
$MEASUREMENT
 70
     0
  9
$CELWEIGHT
370
    -1
  9
$ENDCAPS
280
     0
  9
$JOINSTYLE
280
     0
  9
$LWDISPLAY
290
     1
  9
$INSUNITS
 70
     1
  9
$HYPERLINKBASE
  1

  9
$STYLESHEET
  1

  9
$XEDIT
290
     1
  9
$CEPSNTYPE
380
     0
  9
$PSTYLEMODE
290
     1
  9
$FINGERPRINTGUID
  2
{da225631-31d1-405a-86e5-f2fa2a32019c}
  9
$VERSIONGUID
  2
{FAEB1C32-E019-11D5-929B-00C0DF256EC4}
  9
$EXTNAMES
290
     1
  9
$PSVPSCALE
 40
0.0
  9
$OLESTARTUP
290
     0
  0
ENDSEC
  0
SECTION
  2
CLASSES
  0
CLASS
  1
ACDBDICTIONARYWDFLT
  2
AcDbDictionaryWithDefault
  3
ObjectDBX Classes
 90
        0
280
     0
281
     0
  0
CLASS
  1
VISUALSTYLE
  2
AcDbVisualStyle
  3
ObjectDBX Classes
 90
     4095
280
     0
281
     0
  0
CLASS
  1
MATERIAL
  2
AcDbMaterial
  3
ObjectDBX Classes
 90
     1153
280
     0
281
     0
  0
CLASS
  1
SCALE
  2
AcDbScale
  3
ObjectDBX Classes
 90
     1153
280
     0
281
     0
  0
CLASS
  1
TABLESTYLE
  2
AcDbTableStyle
  3
ObjectDBX Classes
 90
     4095
280
     0
281
     0
  0
CLASS
  1
MLEADERSTYLE
  2
AcDbMLeaderStyle
  3
ACDB_MLEADERSTYLE_CLASS
 90
     4095
280
     0
281
     0
  0
CLASS
  1
SUN
  2
AcDbSun
  3
SCENEOE
 90
     1153
280
     0
281
     0
  0
CLASS
  1
ACDBPLACEHOLDER
  2
AcDbPlaceHolder
  3
ObjectDBX Classes
 90
        0
280
     0
281
     0
  0
CLASS
  1
LAYOUT
  2
AcDbLayout
  3
ObjectDBX Classes
 90
        0
280
     0
281
     0
  0
ENDSEC
  0
SECTION
  2
TABLES
  0
TABLE
  2
VPORT
  5
8
330
0
100
AcDbSymbolTable
 70
     1
  0
VPORT
  5
29
330
8
100
AcDbSymbolTableRecord
100
AcDbViewportTableRecord
  2
*Active
 70
     0
 10
0.0
 20
0.0
 11
1.0
 21
1.0
 12
16.5
 22
12.75
 13
0.0
 23
0.0
 14
0.5
 24
0.5
 15
0.5
 25
0.5
 16
0.0
 26
0.0
 36
1.0
 17
0.0
 27
0.0
 37
0.0
 40
25.5
 41
1.2941176471
 42
50.0
 43
0.0
 44
0.0
 50
0.0
 51
0.0
 71
     0
 72
  2000
 73
     1
 74
     3
 75
     0
 76
     0
 77
     0
 78
     0
281
     0
 65
     1
110
0.0
120
0.0
130
0.0
111
1.0
121
0.0
131
0.0
112
0.0
122
1.0
132
0.0
 79
     0
146
0.0
  0
ENDTAB
  0
TABLE
  2
LTYPE
  5
5
330
0
100
AcDbSymbolTable
 70
     6
  0
LTYPE
  5
14
330
5
100
AcDbSymbolTableRecord
100
AcDbLinetypeTableRecord
  2
ByBlock
 70
     0
  3

 72
    65
 73
     0
 40
0.0
  0
LTYPE
  5
15
330
5
100
AcDbSymbolTableRecord
100
AcDbLinetypeTableRecord
  2
ByLayer
 70
     0
  3

 72
    65
 73
     0
 40
0.0
  0
LTYPE
  5
16
330
5
100
AcDbSymbolTableRecord
100
AcDbLinetypeTableRecord
  2
Continuous
 70
     0
  3
Solid line
 72
    65
 73
     0
 40
0.0
  0
LTYPE
  5
5E
330
5
100
AcDbSymbolTableRecord
100
AcDbLinetypeTableRecord
  2
HIDDEN
 70
     0
  3
Hidden __ __ __ __ __ __ __ __ __ __ __ __ __ __
 72
    65
 73
     2
 40
0.075
 49
0.05
 74
     0
 49
-0.025
 74
     0
  0
LTYPE
  5
5F
330
5
100
AcDbSymbolTableRecord
100
AcDbLinetypeTableRecord
  2
PHANTOM
 70
     0
  3
Phantom ______  __  __  ______  __  __  ______
 72
    65
 73
     6
 40
0.5
 49
0.25
 74
     0
 49
-0.05
 74
     0
 49
0.05
 74
     0
 49
-0.05
 74
     0
 49
0.05
 74
     0
 49
-0.05
 74
     0
  0
LTYPE
  5
60
330
5
100
AcDbSymbolTableRecord
100
AcDbLinetypeTableRecord
  2
CENTER
 70
     0
  3
Center ____ _ ____ _ ____ _ ____ _ ____ _ ____
 72
    65
 73
     4
 40
0.4
 49
0.25
 74
     0
 49
-0.05
 74
     0
 49
0.05
 74
     0
 49
-0.05
 74
     0
  0
LTYPE
  5
61
330
5
100
AcDbSymbolTableRecord
100
AcDbLinetypeTableRecord
  2
CENTERX2
 70
     0
  3
Center (2x) ________  __  ________  __  _____
 72
    65
 73
     4
 40
0.8
 49
0.5
 74
     0
 49
-0.1
 74
     0
 49
0.1
 74
     0
 49
-0.1
 74
     0
  0
LTYPE
  5
62
330
5
100
AcDbSymbolTableRecord
100
AcDbLinetypeTableRecord
  2
DOT2
 70
     0
  3
Dot (.5x) ........................................
 72
    65
 73
     2
 40
0.025
 49
0.0
 74
     0
 49
-0.025
 74
     0
  0
ENDTAB
  0
TABLE
  2
LAYER
  5
2
330
0
100
AcDbSymbolTable
 70
    11
  0
LAYER
  5
10
330
2
100
AcDbSymbolTableRecord
100
AcDbLayerTableRecord
  2
0
 70
     0
 62
     7
  6
Continuous
370
    -3
390
F
  0
LAYER
  5
63
330
2
100
AcDbSymbolTableRecord
100
AcDbLayerTableRecord
  2
SLD-0
 70
     0
 62
     7
  6
Continuous
370
    -3
390
F
  0
LAYER
  5
64
330
2
100
AcDbSymbolTableRecord
100
AcDbLayerTableRecord
  2
DIM
 70
     0
 62
     7
  6
Continuous
370
    -3
390
F
  0
LAYER
  5
65
330
2
100
AcDbSymbolTableRecord
100
AcDbLayerTableRecord
  2
CEN
 70
     0
 62
     1
  6
CENTER
370
    -3
390
F
  0
LAYER
  5
66
330
2
100
AcDbSymbolTableRecord
100
AcDbLayerTableRecord
  2
HAT
 70
     0
 62
     4
  6
Continuous
370
    -3
390
F
  0
LAYER
  5
67
330
2
100
AcDbSymbolTableRecord
100
AcDbLayerTableRecord
  2
OBJ
 70
     0
 62
     5
  6
Continuous
370
    -3
390
F
  0
LAYER
  5
68
330
2
100
AcDbSymbolTableRecord
100
AcDbLayerTableRecord
  2
SLD-DEFPOINTS
 70
     0
 62
     7
  6
Continuous
370
    -3
390
F
  0
LAYER
  5
69
330
2
100
AcDbSymbolTableRecord
100
AcDbLayerTableRecord
  2
HID
 70
     0
 62
     4
  6
HIDDEN
370
    -3
390
F
  0
LAYER
  5
6A
330
2
100
AcDbSymbolTableRecord
100
AcDbLayerTableRecord
  2
NOTE
 70
     0
 62
     7
  6
Continuous
370
    -3
390
F
  0
LAYER
  5
6B
330
2
100
AcDbSymbolTableRecord
100
AcDbLayerTableRecord
  2
TITLE
 70
     0
 62
     7
  6
Continuous
370
    -3
390
F
  0
LAYER
  5
6C
330
2
100
AcDbSymbolTableRecord
100
AcDbLayerTableRecord
  2
THICK_TITLE
 70
     0
 62
     7
  6
Continuous
370
   100
390
F
  0
ENDTAB
  0
TABLE
  2
STYLE
  5
3
330
0
100
AcDbSymbolTable
 70
     3
  0
STYLE
  5
11
330
3
100
AcDbSymbolTableRecord
100
AcDbTextStyleTableRecord
  2
Standard
 70
     0
 40
0.0
 41
1.0
 50
0.0
 71
     0
 42
0.375
  3
txt
  4

  0
STYLE
  5
73
330
3
100
AcDbSymbolTableRecord
100
AcDbTextStyleTableRecord
  2
SLDTEXTSTYLE0
 70
     0
 40
0.0
 41
0.75
 50
0.0
 71
     0
 42
0.375
  3
TXT
  4

  0
STYLE
  5
84
330
3
100
AcDbSymbolTableRecord
100
AcDbTextStyleTableRecord
  2
SLDTEXTSTYLE1
 70
     0
 40
0.0
 41
0.7
 50
0.0
 71
     0
 42
0.375
  3
TXT
  4

  0
ENDTAB
  0
TABLE
  2
VIEW
  5
6
330
0
100
AcDbSymbolTable
 70
     0
  0
ENDTAB
  0
TABLE
  2
UCS
  5
7
330
0
100
AcDbSymbolTable
 70
     0
  0
ENDTAB
  0
TABLE
  2
APPID
  5
9
330
0
100
AcDbSymbolTable
 70
     1
  0
APPID
  5
12
330
9
100
AcDbSymbolTableRecord
100
AcDbRegAppTableRecord
  2
ACAD
 70
     0
  0
ENDTAB
  0
TABLE
  2
DIMSTYLE
  5
A
330
0
100
AcDbSymbolTable
 70
     4
100
AcDbDimStyleTable
  0
DIMSTYLE
105
27
330
A
100
AcDbSymbolTableRecord
100
AcDbDimStyleTableRecord
  2
Standard
 70
     0
178
     0
340
11
  0
DIMSTYLE
105
178
102
{ACAD_REACTORS
330
177
330
1B6
330
2D8
330
2F8
102
}
330
A
100
AcDbSymbolTableRecord
100
AcDbDimStyleTableRecord
  2
SLDDIMSTYLE0
 70
     0
 41
0.39
 44
0.0
 45
0.000000001
 78
    12
 79
     3
140
0.375
147
0.09375
148
0.000000001
170
     1
172
     1
173
     1
178
     0
271
     6
272
     0
276
     2
277
     5
284
    12
289
     0
340
73
  0
DIMSTYLE
105
18D
102
{ACAD_REACTORS
330
18C
330
1A1
330
2B6
102
}
330
A
100
AcDbSymbolTableRecord
100
AcDbDimStyleTableRecord
  2
SLDDIMSTYLE1
 70
     0
 41
0.39
 44
0.0
 45
0.000000001
 78
    12
 79
     3
140
0.375
147
0.09375
148
0.000000001
170
     1
173
     1
178
     0
271
     6
272
     0
276
     2
277
     5
284
    12
340
73
  0
DIMSTYLE
105
319
102
{ACAD_REACTORS
330
318
102
}
330
A
100
AcDbSymbolTableRecord
100
AcDbDimStyleTableRecord
  2
SLDDIMSTYLE2
 70
     0
 41
0.39
 44
0.0
 45
0.000000001
 78
    12
 79
     3
140
0.375
147
0.09375
148
0.000000001
170
     1
172
     1
173
     1
178
     0
271
     0
272
     0
276
     2
277
     5
284
    12
289
     0
340
73
  0
ENDTAB
  0
TABLE
  2
BLOCK_RECORD
  5
1
330
0
100
AcDbSymbolTable
 70
    17
  0
BLOCK_RECORD
  5
1F
330
1
100
AcDbSymbolTableRecord
100
AcDbBlockTableRecord
  2
*Model_Space
340
22
  0
BLOCK_RECORD
  5
1B
330
1
100
AcDbSymbolTableRecord
100
AcDbBlockTableRecord
  2
*Paper_Space
340
1E
  0
BLOCK_RECORD
  5
23
330
1
100
AcDbSymbolTableRecord
100
AcDbBlockTableRecord
  2
*Paper_Space0
340
26
  0
BLOCK_RECORD
  5
6D
330
1
100
AcDbSymbolTableRecord
100
AcDbBlockTableRecord
  2
Block1
340
0
102
{BLKREFS
331
2B5
102
}
  0
BLOCK_RECORD
  5
70
330
1
100
AcDbSymbolTableRecord
100
AcDbBlockTableRecord
  2
SW_NOTE_0
340
0
102
{BLKREFS
331
75
102
}
  0
BLOCK_RECORD
  5
76
330
1
100
AcDbSymbolTableRecord
100
AcDbBlockTableRecord
  2
Block2
340
0
102
{BLKREFS
331
2D7
102
}
  0
BLOCK_RECORD
  5
79
330
1
100
AcDbSymbolTableRecord
100
AcDbBlockTableRecord
  2
SW_NOTE_0_1
340
0
102
{BLKREFS
331
7D
102
}
  0
BLOCK_RECORD
  5
7E
330
1
100
AcDbSymbolTableRecord
100
AcDbBlockTableRecord
  2
Block3
340
0
102
{BLKREFS
331
2F7
102
}
  0
BLOCK_RECORD
  5
81
330
1
100
AcDbSymbolTableRecord
100
AcDbBlockTableRecord
  2
SW_NOTE_0_2
340
0
102
{BLKREFS
331
86
102
}
  0
BLOCK_RECORD
  5
87
330
1
100
AcDbSymbolTableRecord
100
AcDbBlockTableRecord
  2
Block4
340
0
102
{BLKREFS
331
317
102
}
  0
BLOCK_RECORD
  5
8A
330
1
100
AcDbSymbolTableRecord
100
AcDbBlockTableRecord
  2
SW_NOTE_0_3
340
0
102
{BLKREFS
331
8E
102
}
  0
BLOCK_RECORD
  5
179
330
1
100
AcDbSymbolTableRecord
100
AcDbBlockTableRecord
  2
_D
340
0
  0
BLOCK_RECORD
  5
18E
330
1
100
AcDbSymbolTableRecord
100
AcDbBlockTableRecord
  2
_D_1
340
0
  0
BLOCK_RECORD
  5
1A2
330
1
100
AcDbSymbolTableRecord
100
AcDbBlockTableRecord
  2
_D_2
340
0
  0
BLOCK_RECORD
  5
1B7
330
1
100
AcDbSymbolTableRecord
100
AcDbBlockTableRecord
  2
_D_3
340
0
  0
BLOCK_RECORD
  5
2B7
330
1
100
AcDbSymbolTableRecord
100
AcDbBlockTableRecord
  2
_D_4
340
0
  0
BLOCK_RECORD
  5
2D9
330
1
100
AcDbSymbolTableRecord
100
AcDbBlockTableRecord
  2
_D_5
340
0
  0
BLOCK_RECORD
  5
2F9
330
1
100
AcDbSymbolTableRecord
100
AcDbBlockTableRecord
  2
_D_6
340
0
  0
BLOCK_RECORD
  5
31A
330
1
100
AcDbSymbolTableRecord
100
AcDbBlockTableRecord
  2
_D_7
340
0
  0
ENDTAB
  0
ENDSEC
  0
SECTION
  2
BLOCKS
  0
BLOCK
  5
20
330
1F
100
AcDbEntity
  8
0
100
AcDbBlockBegin
  2
*Model_Space
 70
     0
 10
0.0
 20
0.0
 30
0.0
  3
*Model_Space
  1

  0
ENDBLK
  5
21
330
1F
100
AcDbEntity
  8
0
100
AcDbBlockEnd
  0
BLOCK
  5
1C
330
1B
100
AcDbEntity
 67
     1
  8
0
100
AcDbBlockBegin
  2
*Paper_Space
 70
     0
 10
0.0
 20
0.0
 30
0.0
  3
*Paper_Space
  1

  0
ENDBLK
  5
1D
330
1B
100
AcDbEntity
 67
     1
  8
0
100
AcDbBlockEnd
  0
BLOCK
  5
24
330
23
100
AcDbEntity
  8
0
100
AcDbBlockBegin
  2
*Paper_Space0
 70
     0
 10
0.0
 20
0.0
 30
0.0
  3
*Paper_Space0
  1

  0
ENDBLK
  5
25
330
23
100
AcDbEntity
  8
0
100
AcDbBlockEnd
  0
BLOCK
  5
6E
330
6D
100
AcDbEntity
  8
0
100
AcDbBlockBegin
  2
Block1
 70
     0
 10
0.0
 20
0.0
 30
0.0
  3
Block1
  1

  0
INSERT
  5
75
330
6D
100
AcDbEntity
  8
0
  6
Continuous
 62
     7
370
     0
100
AcDbBlockReference
  2
SW_NOTE_0
 10
0.0012322298
 20
-0.0521462902
 30
0.0
  0
ENDBLK
  5
6F
330
6D
100
AcDbEntity
  8
0
100
AcDbBlockEnd
  0
BLOCK
  5
71
330
70
100
AcDbEntity
  8
0
100
AcDbBlockBegin
  2
SW_NOTE_0
 70
     0
 10
0.0
 20
0.0
 30
0.0
  3
SW_NOTE_0
  1

  0
MTEXT
  5
74
330
70
100
AcDbEntity
  8
0
  6
Continuous
 62
     0
370
     0
100
AcDbMText
 10
1.73828125
 20
0.8056673374
 30
0.0
 40
0.625
 41
0.0
 71
     2
 72
     1
  1
A/D CAP
  7
SLDTEXTSTYLE0
 73
     1
 44
1.0
  0
ENDBLK
  5
72
330
70
100
AcDbEntity
  8
0
100
AcDbBlockEnd
  0
BLOCK
  5
77
330
76
100
AcDbEntity
  8
0
100
AcDbBlockBegin
  2
Block2
 70
     0
 10
0.0
 20
0.0
 30
0.0
  3
Block2
  1

  0
INSERT
  5
7D
330
76
100
AcDbEntity
  8
0
  6
Continuous
 62
     7
370
     0
100
AcDbBlockReference
  2
SW_NOTE_0_1
 10
0.0118243127
 20
0.8525423419
 30
0.0
  0
ENDBLK
  5
78
330
76
100
AcDbEntity
  8
0
100
AcDbBlockEnd
  0
BLOCK
  5
7A
330
79
100
AcDbEntity
  8
0
100
AcDbBlockBegin
  2
SW_NOTE_0_1
 70
     0
 10
0.0
 20
0.0
 30
0.0
  3
SW_NOTE_0_1
  1

  0
MTEXT
  5
7C
330
79
100
AcDbEntity
  8
0
  6
Continuous
 62
     0
370
     0
100
AcDbMText
 10
1.611328125
 20
0.8056673374
 30
0.0
 40
0.625
 41
0.0
 71
     2
 72
     1
  1
B/E CAP
  7
SLDTEXTSTYLE0
 73
     1
 44
1.0
  0
ENDBLK
  5
7B
330
79
100
AcDbEntity
  8
0
100
AcDbBlockEnd
  0
BLOCK
  5
7F
330
7E
100
AcDbEntity
  8
0
100
AcDbBlockBegin
  2
Block3
 70
     0
 10
0.0
 20
0.0
 30
0.0
  3
Block3
  1

  0
INSERT
  5
86
330
7E
100
AcDbEntity
  8
0
  6
Continuous
 62
     7
370
     0
100
AcDbBlockReference
  2
SW_NOTE_0_2
 10
0.0339401496
 20
-0.0278239893
 30
0.0
  0
ENDBLK
  5
80
330
7E
100
AcDbEntity
  8
0
100
AcDbBlockEnd
  0
BLOCK
  5
82
330
81
100
AcDbEntity
  8
0
100
AcDbBlockBegin
  2
SW_NOTE_0_2
 70
     0
 10
0.0
 20
0.0
 30
0.0
  3
SW_NOTE_0_2
  1

  0
MTEXT
  5
85
330
81
100
AcDbEntity
  8
0
  6
Continuous
 62
     0
370
     0
100
AcDbMText
 10
1.30859375
 20
0.8056673374
 30
0.0
 40
0.625
 41
0.0
 71
     2
 72
     1
  1
C CAP
  7
SLDTEXTSTYLE1
 73
     1
 44
1.0
  0
ENDBLK
  5
83
330
81
100
AcDbEntity
  8
0
100
AcDbBlockEnd
  0
BLOCK
  5
88
330
87
100
AcDbEntity
  8
0
100
AcDbBlockBegin
  2
Block4
 70
     0
 10
0.0
 20
0.0
 30
0.0
  3
Block4
  1

  0
INSERT
  5
8E
330
87
100
AcDbEntity
  8
0
  6
Continuous
 62
     7
370
     0
100
AcDbBlockReference
  2
SW_NOTE_0_3
 10
0.0245587133
 20
-0.0099110009
 30
0.0
  0
ENDBLK
  5
89
330
87
100
AcDbEntity
  8
0
100
AcDbBlockEnd
  0
BLOCK
  5
8B
330
8A
100
AcDbEntity
  8
0
100
AcDbBlockBegin
  2
SW_NOTE_0_3
 70
     0
 10
0.0
 20
0.0
 30
0.0
  3
SW_NOTE_0_3
  1

  0
MTEXT
  5
8D
330
8A
100
AcDbEntity
  8
0
  6
Continuous
 62
     0
370
     0
100
AcDbMText
 10
1.171875
 20
0.8056673374
 30
0.0
 40
0.625
 41
0.0
 71
     2
 72
     1
  1
F CAP
  7
SLDTEXTSTYLE1
 73
     1
 44
1.0
  0
ENDBLK
  5
8C
330
8A
100
AcDbEntity
  8
0
100
AcDbBlockEnd
  0
BLOCK
  5
17A
330
179
100
AcDbEntity
  8
0
100
AcDbBlockBegin
  2
_D
 70
     0
 10
0.0
 20
0.0
 30
0.0
  3
_D
  1

  0
SOLID
  5
17C
330
179
100
AcDbEntity
  8
0
  6
Continuous
 62
     7
370
    18
100
AcDbTrace
 10
5.9721179644
 20
13.9562212231
 30
0.0
 11
6.0321179644
 21
14.3462212231
 31
0.0
 12
5.9121179644
 22
14.3462212231
 32
0.0
 13
5.9121179644
 23
14.3462212231
 33
0.0
  0
SOLID
  5
17D
330
179
100
AcDbEntity
  8
0
  6
Continuous
 62
     7
370
    18
100
AcDbTrace
 10
5.9721179644
 20
12.3262212231
 30
0.0
 11
5.9121179644
 21
11.9362212231
 31
0.0
 12
6.0321179644
 22
11.9362212231
 32
0.0
 13
6.0321179644
 23
11.9362212231
 33
0.0
  0
LINE
  5
17E
330
179
100
AcDbEntity
  8
0
  6
Continuous
 62
     7
370
     0
100
AcDbLine
 10
5.2262846703
 20
13.1383565812
 30
0.0
 11
5.112026859
 21
13.1383565812
 31
0.0
  0
LINE
  5
17F
330
179
100
AcDbEntity
  8
0
  6
Continuous
 62
     7
370
     0
100
AcDbLine
 10
5.112026859
 20
13.1383565812
 30
0.0
 11
5.112026859
 21
12.5430440633
 31
0.0
  0
LINE
  5
180
330
179
100
AcDbEntity
  8
0
  6
Continuous
 62
     7
370
     0
100
AcDbLine
 10
5.112026859
 20
12.5430440633
 30
0.0
 11
5.2262846703
 21
12.5430440633
 31
0.0
  0
LINE
  5
181
330
179
100
AcDbEntity
  8
0
  6
Continuous
 62
     7
370
     0
100
AcDbLine
 10
6.7179513685
 20
13.1383565812
 30
0.0
 11
6.8322091798
 21
13.1383565812
 31
0.0
  0
LINE
  5
182
330
179
100
AcDbEntity
  8
0
  6
Continuous
 62
     7
370
     0
100
AcDbLine
 10
6.8322091798
 20
13.1383565812
 30
0.0
 11
6.8322091798
 21
12.5430440633
 31
0.0
  0
LINE
  5
183
330
179
100
AcDbEntity
  8
0
  6
Continuous
 62
     7
370
     0
100
AcDbLine
 10
6.8322091798
 20
12.5430440633
 30
0.0
 11
6.7179513685
 21
12.5430440633
 31
0.0
  0
LINE
  5
184
330
179
100
AcDbEntity
  8
0
  6
Continuous
 62
     7
370
     0
100
AcDbLine
 10
7.6197420916
 20
13.9562212231
 30
0.0
 11
5.5971179644
 21
13.9562212231
 31
0.0
  0
LINE
  5
185
330
179
100
AcDbEntity
  8
0
  6
Continuous
 62
     7
370
     0
100
AcDbLine
 10
7.1247420916
 20
12.3262212231
 30
0.0
 11
5.5971179644
 21
12.3262212231
 31
0.0
  0
LINE
  5
186
330
179
100
AcDbEntity
  8
0
  6
Continuous
 62
     7
370
     0
100
AcDbLine
 10
5.9721179644
 20
13.9562212231
 30
0.0
 11
5.9721179644
 21
14.7062212231
 31
0.0
  0
LINE
  5
187
330
179
100
AcDbEntity
  8
0
  6
Continuous
 62
     7
370
     0
100
AcDbLine
 10
5.9721179644
 20
12.3262212231
 30
0.0
 11
5.9721179644
 21
11.5762212231
 31
0.0
  0
MTEXT
  5
188
330
179
100
AcDbEntity
  8
0
  6
Continuous
 62
     7
370
    18
100
AcDbMText
 10
4.9998523806
 20
13.7036580637
 30
0.0
 40
0.375
 41
0.0
 71
     1
 72
     1
  1

  7
SLDTEXTSTYLE0
 73
     1
 44
1.0
  0
MTEXT
  5
189
330
179
100
AcDbEntity
  8
0
  6
Continuous
 62
     7
370
    18
100
AcDbMText
 10
5.3005034254
 20
13.6979288693
 30
0.0
 40
0.375
 41
0.0
 71
     1
 72
     1
  1
1 5/8"
  7
SLDTEXTSTYLE0
 73
     1
 44
1.0
  0
MTEXT
  5
18A
330
179
100
AcDbEntity
  8
0
  6
Continuous
 62
     7
370
    18
100
AcDbMText
 10
5.2262846703
 20
13.026444507
 30
0.0
 40
0.375
 41
0.0
 71
     1
 72
     1
  1
41mm
  7
SLDTEXTSTYLE0
 73
     1
 44
1.0
  0
MTEXT
  5
18B
330
179
100
AcDbEntity
  8
0
  6
Continuous
 62
     7
370
    18
100
AcDbMText
 10
7.0870919086
 20
13.7036580637
 30
0.0
 40
0.375
 41
0.0
 71
     1
 72
     1
  1

  7
SLDTEXTSTYLE0
 73
     1
 44
1.0
  0
ENDBLK
  5
17B
330
179
100
AcDbEntity
  8
0
100
AcDbBlockEnd
  0
BLOCK
  5
18F
330
18E
100
AcDbEntity
  8
0
100
AcDbBlockBegin
  2
_D_1
 70
     0
 10
0.0
 20
0.0
 30
0.0
  3
_D_1
  1

  0
SOLID
  5
191
330
18E
100
AcDbEntity
  8
0
  6
Continuous
 62
     7
370
    18
100
AcDbTrace
 10
5.289776905
 20
16.4361864097
 30
0.0
 11
5.6079749565
 21
16.6695316475
 31
0.0
 12
5.5231221428
 22
16.7543844612
 32
0.0
 13
5.5231221428
 23
16.7543844612
 33
0.0
  0
SOLID
  5
192
330
18E
100
AcDbEntity
  8
0
  6
Continuous
 62
     7
370
    18
100
AcDbTrace
 10
10.3561969922
 20
21.5026064969
 30
0.0
 11
10.0379989407
 21
21.2692612591
 31
0.0
 12
10.1228517544
 22
21.1844084453
 32
0.0
 13
10.1228517544
 23
21.1844084453
 33
0.0
  0
LINE
  5
193
330
18E
100
AcDbEntity
  8
0
  6
Continuous
 62
     7
370
     0
100
AcDbLine
 10
6.938612015
 20
18.9665318114
 30
0.0
 11
6.8243542036
 21
18.9665318114
 31
0.0
  0
LINE
  5
194
330
18E
100
AcDbEntity
  8
0
  6
Continuous
 62
     7
370
     0
100
AcDbLine
 10
6.8243542036
 20
18.9665318114
 30
0.0
 11
6.8243542036
 21
18.3712192935
 31
0.0
  0
LINE
  5
195
330
18E
100
AcDbEntity
  8
0
  6
Continuous
 62
     7
370
     0
100
AcDbLine
 10
6.8243542036
 20
18.3712192935
 30
0.0
 11
6.938612015
 21
18.3712192935
 31
0.0
  0
LINE
  5
196
330
18E
100
AcDbEntity
  8
0
  6
Continuous
 62
     7
370
     0
100
AcDbLine
 10
8.7073619922
 20
18.9665318114
 30
0.0
 11
8.8216198036
 21
18.9665318114
 31
0.0
  0
LINE
  5
197
330
18E
100
AcDbEntity
  8
0
  6
Continuous
 62
     7
370
     0
100
AcDbLine
 10
8.8216198036
 20
18.9665318114
 30
0.0
 11
8.8216198036
 21
18.3712192935
 31
0.0
  0
LINE
  5
198
330
18E
100
AcDbEntity
  8
0
  6
Continuous
 62
     7
370
     0
100
AcDbLine
 10
8.8216198036
 20
18.3712192935
 30
0.0
 11
8.7073619922
 21
18.3712192935
 31
0.0
  0
LINE
  5
199
330
18E
100
AcDbEntity
  8
0
  6
Continuous
 62
     7
370
     0
100
AcDbLine
 10
7.6636760744
 20
14.0622872403
 30
0.0
 11
5.0246118621
 21
16.7013514526
 31
0.0
  0
LINE
  5
19A
330
18E
100
AcDbEntity
  8
0
  6
Continuous
 62
     7
370
     0
100
AcDbLine
 10
11.9452076345
 20
19.9135958546
 30
0.0
 11
10.0910319493
 21
21.7677715398
 31
0.0
  0
LINE
  5
19B
330
18E
100
AcDbEntity
  8
0
  6
Continuous
 62
     7
370
     0
100
AcDbLine
 10
5.289776905
 20
16.4361864097
 30
0.0
 11
7.1486380337
 21
18.2950475384
 31
0.0
  0
LINE
  5
19C
330
18E
100
AcDbEntity
  8
0
  6
Continuous
 62
     7
370
     0
100
AcDbLine
 10
10.3561969922
 20
21.5026064969
 30
0.0
 11
8.4973358635
 21
19.6437453681
 31
0.0
  0
MTEXT
  5
19D
330
18E
100
AcDbEntity
  8
0
  6
Continuous
 62
     7
370
    18
100
AcDbMText
 10
6.7121797253
 20
19.5318332939
 30
0.0
 40
0.375
 41
0.0
 71
     1
 72
     1
  1

  7
SLDTEXTSTYLE0
 73
     1
 44
1.0
  0
MTEXT
  5
19E
330
18E
100
AcDbEntity
  8
0
  6
Continuous
 62
     7
370
    18
100
AcDbMText
 10
7.0128307151
 20
19.5261040995
 30
0.0
 40
0.375
 41
0.0
 71
     1
 72
     1
  1
7 3/16"
  7
SLDTEXTSTYLE0
 73
     1
 44
1.0
  0
MTEXT
  5
19F
330
18E
100
AcDbEntity
  8
0
  6
Continuous
 62
     7
370
    18
100
AcDbMText
 10
6.938612015
 20
18.8546197371
 30
0.0
 40
0.375
 41
0.0
 71
     1
 72
     1
  1
182mm
  7
SLDTEXTSTYLE0
 73
     1
 44
1.0
  0
MTEXT
  5
1A0
330
18E
100
AcDbEntity
  8
0
  6
Continuous
 62
     7
370
    18
100
AcDbMText
 10
9.0765025324
 20
19.5318332939
 30
0.0
 40
0.375
 41
0.0
 71
     1
 72
     1
  1

  7
SLDTEXTSTYLE0
 73
     1
 44
1.0
  0
ENDBLK
  5
190
330
18E
100
AcDbEntity
  8
0
100
AcDbBlockEnd
  0
BLOCK
  5
1A3
330
1A2
100
AcDbEntity
  8
0
100
AcDbBlockBegin
  2
_D_2
 70
     0
 10
0.0
 20
0.0
 30
0.0
  3
_D_2
  1

  0
SOLID
  5
1A5
330
1A2
100
AcDbEntity
  8
0
  6
Continuous
 62
     7
370
    18
100
AcDbTrace
 10
9.6204686245
 20
12.1054946902
 30
0.0
 11
9.938666676
 21
12.338839928
 31
0.0
 12
9.8538138623
 22
12.4236927417
 32
0.0
 13
9.8538138623
 23
12.4236927417
 33
0.0
  0
SOLID
  5
1A6
330
1A2
100
AcDbEntity
  8
0
  6
Continuous
 62
     7
370
    18
100
AcDbTrace
 10
11.3316670349
 20
13.8166931007
 30
0.0
 11
11.0134689834
 21
13.5833478629
 31
0.0
 12
11.0983217972
 22
13.4984950491
 32
0.0
 13
11.0983217972
 23
13.4984950491
 33
0.0
  0
LINE
  5
1A7
330
1A2
100
AcDbEntity
  8
0
  6
Continuous
 62
     7
370
     0
100
AcDbLine
 10
13.1203551403
 20
14.4854592744
 30
0.0
 11
13.006097329
 21
14.4854592744
 31
0.0
  0
LINE
  5
1A8
330
1A2
100
AcDbEntity
  8
0
  6
Continuous
 62
     7
370
     0
100
AcDbLine
 10
13.006097329
 20
14.4854592744
 30
0.0
 11
13.006097329
 21
13.8901467565
 31
0.0
  0
LINE
  5
1A9
330
1A2
100
AcDbEntity
  8
0
  6
Continuous
 62
     7
370
     0
100
AcDbLine
 10
13.006097329
 20
13.8901467565
 30
0.0
 11
13.1203551403
 21
13.8901467565
 31
0.0
  0
LINE
  5
1AA
330
1A2
100
AcDbEntity
  8
0
  6
Continuous
 62
     7
370
     0
100
AcDbLine
 10
14.6120218384
 20
14.4854592744
 30
0.0
 11
14.7262796498
 21
14.4854592744
 31
0.0
  0
LINE
  5
1AB
330
1A2
100
AcDbEntity
  8
0
  6
Continuous
 62
     7
370
     0
100
AcDbLine
 10
14.7262796498
 20
14.4854592744
 30
0.0
 11
14.7262796498
 21
13.8901467565
 31
0.0
  0
LINE
  5
1AC
330
1A2
100
AcDbEntity
  8
0
  6
Continuous
 62
     7
370
     0
100
AcDbLine
 10
14.7262796498
 20
13.8901467565
 30
0.0
 11
14.6120218384
 21
13.8901467565
 31
0.0
  0
LINE
  5
1AD
330
1A2
100
AcDbEntity
  8
0
  6
Continuous
 62
     7
370
     0
100
AcDbLine
 10
7.8758081088
 20
13.8501552059
 30
0.0
 11
9.8856336674
 21
11.8403296473
 31
0.0
  0
LINE
  5
1AE
330
1A2
100
AcDbEntity
  8
0
  6
Continuous
 62
     7
370
     0
100
AcDbLine
 10
10.3718950463
 20
14.7764650893
 30
0.0
 11
11.5968320779
 21
13.5515280577
 31
0.0
  0
LINE
  5
1AF
330
1A2
100
AcDbEntity
  8
0
  6
Continuous
 62
     7
370
     0
100
AcDbLine
 10
9.6204686245
 20
12.1054946902
 30
0.0
 11
11.3316670349
 21
13.8166931007
 31
0.0
  0
LINE
  5
1B0
330
1A2
100
AcDbEntity
  8
0
  6
Continuous
 62
     7
370
     0
100
AcDbLine
 10
11.3316670349
 20
13.8166931007
 30
0.0
 11
12.0032978506
 21
14.4883239163
 31
0.0
  0
LINE
  5
1B1
330
1A2
100
AcDbEntity
  8
0
  6
Continuous
 62
     7
370
     0
100
AcDbLine
 10
12.0032978506
 20
14.4883239163
 30
0.0
 11
12.7532978506
 21
14.4883239163
 31
0.0
  0
MTEXT
  5
1B2
330
1A2
100
AcDbEntity
  8
0
  6
Continuous
 62
     7
370
    18
100
AcDbMText
 10
12.8939228506
 20
15.0507607569
 30
0.0
 40
0.375
 41
0.0
 71
     1
 72
     1
  1

  7
SLDTEXTSTYLE0
 73
     1
 44
1.0
  0
MTEXT
  5
1B3
330
1A2
100
AcDbEntity
  8
0
  6
Continuous
 62
     7
370
    18
100
AcDbMText
 10
13.0560322009
 20
15.0450315625
 30
0.0
 40
0.375
 41
0.0
 71
     1
 72
     1
  1
2 7/16"
  7
SLDTEXTSTYLE0
 73
     1
 44
1.0
  0
MTEXT
  5
1B4
330
1A2
100
AcDbEntity
  8
0
  6
Continuous
 62
     7
370
    18
100
AcDbMText
 10
13.1203551403
 20
14.3735472002
 30
0.0
 40
0.375
 41
0.0
 71
     1
 72
     1
  1
61mm
  7
SLDTEXTSTYLE0
 73
     1
 44
1.0
  0
MTEXT
  5
1B5
330
1A2
100
AcDbEntity
  8
0
  6
Continuous
 62
     7
370
    18
100
AcDbMText
 10
14.9811623786
 20
15.0507607569
 30
0.0
 40
0.375
 41
0.0
 71
     1
 72
     1
  1

  7
SLDTEXTSTYLE0
 73
     1
 44
1.0
  0
ENDBLK
  5
1A4
330
1A2
100
AcDbEntity
  8
0
100
AcDbBlockEnd
  0
BLOCK
  5
1B8
330
1B7
100
AcDbEntity
  8
0
100
AcDbBlockBegin
  2
_D_3
 70
     0
 10
0.0
 20
0.0
 30
0.0
  3
_D_3
  1

  0
SOLID
  5
1BA
330
1B7
100
AcDbEntity
  8
0
  6
Continuous
 62
     7
370
    18
100
AcDbTrace
 10
14.9451378948
 20
19.5618399721
 30
0.0
 11
15.1784831326
 21
19.2436419206
 31
0.0
 12
15.2633359463
 22
19.3284947343
 32
0.0
 13
15.2633359463
 23
19.3284947343
 33
0.0
  0
SOLID
  5
1BB
330
1B7
100
AcDbEntity
  8
0
  6
Continuous
 62
     7
370
    18
100
AcDbTrace
 10
13.3753608406
 20
21.1316170263
 30
0.0
 11
13.1420156028
 21
21.4498150779
 31
0.0
 12
13.057162789
 22
21.3649622641
 32
0.0
 13
13.057162789
 23
21.3649622641
 33
0.0
  0
LINE
  5
1BC
330
1B7
100
AcDbEntity
  8
0
  6
Continuous
 62
     7
370
     0
100
AcDbLine
 10
13.4144160461
 20
20.3467284442
 30
0.0
 11
13.3001582348
 21
20.3467284442
 31
0.0
  0
LINE
  5
1BD
330
1B7
100
AcDbEntity
  8
0
  6
Continuous
 62
     7
370
     0
100
AcDbLine
 10
13.3001582348
 20
20.3467284442
 30
0.0
 11
13.3001582348
 21
19.7514159263
 31
0.0
  0
LINE
  5
1BE
330
1B7
100
AcDbEntity
  8
0
  6
Continuous
 62
     7
370
     0
100
AcDbLine
 10
13.3001582348
 20
19.7514159263
 30
0.0
 11
13.4144160461
 21
19.7514159263
 31
0.0
  0
LINE
  5
1BF
330
1B7
100
AcDbEntity
  8
0
  6
Continuous
 62
     7
370
     0
100
AcDbLine
 10
14.9060827443
 20
20.3467284442
 30
0.0
 11
15.0203405556
 21
20.3467284442
 31
0.0
  0
LINE
  5
1C0
330
1B7
100
AcDbEntity
  8
0
  6
Continuous
 62
     7
370
     0
100
AcDbLine
 10
15.0203405556
 20
20.3467284442
 30
0.0
 11
15.0203405556
 21
19.7514159263
 31
0.0
  0
LINE
  5
1C1
330
1B7
100
AcDbEntity
  8
0
  6
Continuous
 62
     7
370
     0
100
AcDbLine
 10
15.0203405556
 20
19.7514159263
 30
0.0
 11
14.9060827443
 21
19.7514159263
 31
0.0
  0
LINE
  5
1C2
330
1B7
100
AcDbEntity
  8
0
  6
Continuous
 62
     7
370
     0
100
AcDbLine
 10
11.5386212353
 20
16.1553233126
 30
0.0
 11
15.2103029377
 21
19.827005015
 31
0.0
  0
LINE
  5
1C3
330
1B7
100
AcDbEntity
  8
0
  6
Continuous
 62
     7
370
     0
100
AcDbLine
 10
12.1573396688
 20
19.9135958546
 30
0.0
 11
13.6405258835
 21
21.3967820693
 31
0.0
  0
LINE
  5
1C4
330
1B7
100
AcDbEntity
  8
0
  6
Continuous
 62
     7
370
     0
100
AcDbLine
 10
14.9451378948
 20
19.5618399721
 30
0.0
 11
15.4754679807
 21
19.0315098862
 31
0.0
  0
LINE
  5
1C5
330
1B7
100
AcDbEntity
  8
0
  6
Continuous
 62
     7
370
     0
100
AcDbLine
 10
13.3753608406
 20
21.1316170263
 30
0.0
 11
12.8450307547
 21
21.6619471122
 31
0.0
  0
MTEXT
  5
1C6
330
1B7
100
AcDbEntity
  8
0
  6
Continuous
 62
     7
370
    18
100
AcDbMText
 10
13.2058613429
 20
20.9063007598
 30
0.0
 40
0.375
 41
0.0
 71
     1
 72
     1
  1
%%c
  7
SLDTEXTSTYLE0
 73
     1
 44
1.0
  0
MTEXT
  5
1C7
330
1B7
100
AcDbEntity
  8
0
  6
Continuous
 62
     7
370
    18
100
AcDbMText
 10
13.7714082046
 20
20.9063007598
 30
0.0
 40
0.375
 41
0.0
 71
     1
 72
     1
  1
2 1/4"
  7
SLDTEXTSTYLE0
 73
     1
 44
1.0
  0
MTEXT
  5
1C8
330
1B7
100
AcDbEntity
  8
0
  6
Continuous
 62
     7
370
    18
100
AcDbMText
 10
13.4144160461
 20
20.23481637
 30
0.0
 40
0.375
 41
0.0
 71
     1
 72
     1
  1
56mm
  7
SLDTEXTSTYLE0
 73
     1
 44
1.0
  0
ENDBLK
  5
1B9
330
1B7
100
AcDbEntity
  8
0
100
AcDbBlockEnd
  0
BLOCK
  5
2B8
330
2B7
100
AcDbEntity
  8
0
100
AcDbBlockBegin
  2
_D_4
 70
     0
 10
0.0
 20
0.0
 30
0.0
  3
_D_4
  1

  0
SOLID
  5
2BA
330
2B7
100
AcDbEntity
  8
0
  6
Continuous
 62
     7
370
    18
100
AcDbTrace
 10
4.7031416781
 20
2.6698607571
 30
0.0
 11
4.7631416781
 21
3.0598607571
 31
0.0
 12
4.6431416781
 22
3.0598607571
 32
0.0
 13
4.6431416781
 23
3.0598607571
 33
0.0
  0
SOLID
  5
2BB
330
2B7
100
AcDbEntity
  8
0
  6
Continuous
 62
     7
370
    18
100
AcDbTrace
 10
4.7031416781
 20
7.4148607571
 30
0.0
 11
4.6431416781
 21
7.0248607571
 31
0.0
 12
4.7631416781
 22
7.0248607571
 32
0.0
 13
4.7631416781
 23
7.0248607571
 33
0.0
  0
LINE
  5
2BC
330
2B7
100
AcDbEntity
  8
0
  6
Continuous
 62
     7
370
     0
100
AcDbLine
 10
3.8187667444
 20
5.0394961152
 30
0.0
 11
3.7045089331
 21
5.0394961152
 31
0.0
  0
LINE
  5
2BD
330
2B7
100
AcDbEntity
  8
0
  6
Continuous
 62
     7
370
     0
100
AcDbLine
 10
3.7045089331
 20
5.0394961152
 30
0.0
 11
3.7045089331
 21
4.4441835973
 31
0.0
  0
LINE
  5
2BE
330
2B7
100
AcDbEntity
  8
0
  6
Continuous
 62
     7
370
     0
100
AcDbLine
 10
3.7045089331
 20
4.4441835973
 30
0.0
 11
3.8187667444
 21
4.4441835973
 31
0.0
  0
LINE
  5
2BF
330
2B7
100
AcDbEntity
  8
0
  6
Continuous
 62
     7
370
     0
100
AcDbLine
 10
5.5875167217
 20
5.0394961152
 30
0.0
 11
5.701774533
 21
5.0394961152
 31
0.0
  0
LINE
  5
2C0
330
2B7
100
AcDbEntity
  8
0
  6
Continuous
 62
     7
370
     0
100
AcDbLine
 10
5.701774533
 20
5.0394961152
 30
0.0
 11
5.701774533
 21
4.4441835973
 31
0.0
  0
LINE
  5
2C1
330
2B7
100
AcDbEntity
  8
0
  6
Continuous
 62
     7
370
     0
100
AcDbLine
 10
5.701774533
 20
4.4441835973
 30
0.0
 11
5.5875167217
 21
4.4441835973
 31
0.0
  0
LINE
  5
2C2
330
2B7
100
AcDbEntity
  8
0
  6
Continuous
 62
     7
370
     0
100
AcDbLine
 10
6.3610455871
 20
2.6698607571
 30
0.0
 11
4.3281416781
 21
2.6698607571
 31
0.0
  0
LINE
  5
2C3
330
2B7
100
AcDbEntity
  8
0
  6
Continuous
 62
     7
370
     0
100
AcDbLine
 10
6.3610455871
 20
7.4148607571
 30
0.0
 11
4.3281416781
 21
7.4148607571
 31
0.0
  0
LINE
  5
2C4
330
2B7
100
AcDbEntity
  8
0
  6
Continuous
 62
     7
370
     0
100
AcDbLine
 10
4.7031416781
 20
2.6698607571
 30
0.0
 11
4.7031416781
 21
4.3680118422
 31
0.0
  0
LINE
  5
2C5
330
2B7
100
AcDbEntity
  8
0
  6
Continuous
 62
     7
370
     0
100
AcDbLine
 10
4.7031416781
 20
7.4148607571
 30
0.0
 11
4.7031416781
 21
5.716709672
 31
0.0
  0
MTEXT
  5
2C6
330
2B7
100
AcDbEntity
  8
0
  6
Continuous
 62
     7
370
    18
100
AcDbMText
 10
3.5923344547
 20
5.6047975977
 30
0.0
 40
0.375
 41
0.0
 71
     1
 72
     1
  1

  7
SLDTEXTSTYLE0
 73
     1
 44
1.0
  0
MTEXT
  5
2C7
330
2B7
100
AcDbEntity
  8
0
  6
Continuous
 62
     7
370
    18
100
AcDbMText
 10
4.0315271391
 20
5.5990684033
 30
0.0
 40
0.375
 41
0.0
 71
     1
 72
     1
  1
4 3/4"
  7
SLDTEXTSTYLE0
 73
     1
 44
1.0
  0
MTEXT
  5
2C8
330
2B7
100
AcDbEntity
  8
0
  6
Continuous
 62
     7
370
    18
100
AcDbMText
 10
3.8187667444
 20
4.9275840409
 30
0.0
 40
0.375
 41
0.0
 71
     1
 72
     1
  1
121mm
  7
SLDTEXTSTYLE0
 73
     1
 44
1.0
  0
MTEXT
  5
2C9
330
2B7
100
AcDbEntity
  8
0
  6
Continuous
 62
     7
370
    18
100
AcDbMText
 10
5.9566572619
 20
5.6047975977
 30
0.0
 40
0.375
 41
0.0
 71
     1
 72
     1
  1

  7
SLDTEXTSTYLE0
 73
     1
 44
1.0
  0
ENDBLK
  5
2B9
330
2B7
100
AcDbEntity
  8
0
100
AcDbBlockEnd
  0
BLOCK
  5
2DA
330
2D9
100
AcDbEntity
  8
0
100
AcDbBlockBegin
  2
_D_5
 70
     0
 10
0.0
 20
0.0
 30
0.0
  3
_D_5
  1

  0
SOLID
  5
2DC
330
2D9
100
AcDbEntity
  8
0
  6
Continuous
 62
     7
370
    18
100
AcDbTrace
 10
11.0162523547
 20
2.6698607571
 30
0.0
 11
10.9562523547
 21
2.2798607571
 31
0.0
 12
11.0762523547
 22
2.2798607571
 32
0.0
 13
11.0762523547
 23
2.2798607571
 33
0.0
  0
SOLID
  5
2DD
330
2D9
100
AcDbEntity
  8
0
  6
Continuous
 62
     7
370
    18
100
AcDbTrace
 10
11.0162523547
 20
5.2198607571
 30
0.0
 11
11.0762523547
 21
5.6098607571
 31
0.0
 12
10.9562523547
 22
5.6098607571
 32
0.0
 13
10.9562523547
 23
5.6098607571
 33
0.0
  0
LINE
  5
2DE
330
2D9
100
AcDbEntity
  8
0
  6
Continuous
 62
     7
370
     0
100
AcDbLine
 10
10.2704190606
 20
3.9419961152
 30
0.0
 11
10.1561612493
 21
3.9419961152
 31
0.0
  0
LINE
  5
2DF
330
2D9
100
AcDbEntity
  8
0
  6
Continuous
 62
     7
370
     0
100
AcDbLine
 10
10.1561612493
 20
3.9419961152
 30
0.0
 11
10.1561612493
 21
3.3466835973
 31
0.0
  0
LINE
  5
2E0
330
2D9
100
AcDbEntity
  8
0
  6
Continuous
 62
     7
370
     0
100
AcDbLine
 10
10.1561612493
 20
3.3466835973
 30
0.0
 11
10.2704190606
 21
3.3466835973
 31
0.0
  0
LINE
  5
2E1
330
2D9
100
AcDbEntity
  8
0
  6
Continuous
 62
     7
370
     0
100
AcDbLine
 10
11.7620857588
 20
3.9419961152
 30
0.0
 11
11.8763435701
 21
3.9419961152
 31
0.0
  0
LINE
  5
2E2
330
2D9
100
AcDbEntity
  8
0
  6
Continuous
 62
     7
370
     0
100
AcDbLine
 10
11.8763435701
 20
3.9419961152
 30
0.0
 11
11.8763435701
 21
3.3466835973
 31
0.0
  0
LINE
  5
2E3
330
2D9
100
AcDbEntity
  8
0
  6
Continuous
 62
     7
370
     0
100
AcDbLine
 10
11.8763435701
 20
3.3466835973
 30
0.0
 11
11.7620857588
 21
3.3466835973
 31
0.0
  0
LINE
  5
2E4
330
2D9
100
AcDbEntity
  8
0
  6
Continuous
 62
     7
370
     0
100
AcDbLine
 10
12.2340429862
 20
2.6698607571
 30
0.0
 11
10.6412523547
 21
2.6698607571
 31
0.0
  0
LINE
  5
2E5
330
2D9
100
AcDbEntity
  8
0
  6
Continuous
 62
     7
370
     0
100
AcDbLine
 10
12.3390429862
 20
5.2198607571
 30
0.0
 11
10.6412523547
 21
5.2198607571
 31
0.0
  0
LINE
  5
2E6
330
2D9
100
AcDbEntity
  8
0
  6
Continuous
 62
     7
370
     0
100
AcDbLine
 10
11.0162523547
 20
2.6698607571
 30
0.0
 11
11.0162523547
 21
1.9198607571
 31
0.0
  0
LINE
  5
2E7
330
2D9
100
AcDbEntity
  8
0
  6
Continuous
 62
     7
370
     0
100
AcDbLine
 10
11.0162523547
 20
5.2198607571
 30
0.0
 11
11.0162523547
 21
5.9698607571
 31
0.0
  0
MTEXT
  5
2E8
330
2D9
100
AcDbEntity
  8
0
  6
Continuous
 62
     7
370
    18
100
AcDbMText
 10
10.0439867709
 20
4.5072975977
 30
0.0
 40
0.375
 41
0.0
 71
     1
 72
     1
  1

  7
SLDTEXTSTYLE0
 73
     1
 44
1.0
  0
MTEXT
  5
2E9
330
2D9
100
AcDbEntity
  8
0
  6
Continuous
 62
     7
370
    18
100
AcDbMText
 10
10.2060961212
 20
4.5015684033
 30
0.0
 40
0.375
 41
0.0
 71
     1
 72
     1
  1
2 9/16"
  7
SLDTEXTSTYLE0
 73
     1
 44
1.0
  0
MTEXT
  5
2EA
330
2D9
100
AcDbEntity
  8
0
  6
Continuous
 62
     7
370
    18
100
AcDbMText
 10
10.2704190606
 20
3.8300840409
 30
0.0
 40
0.375
 41
0.0
 71
     1
 72
     1
  1
65mm
  7
SLDTEXTSTYLE0
 73
     1
 44
1.0
  0
MTEXT
  5
2EB
330
2D9
100
AcDbEntity
  8
0
  6
Continuous
 62
     7
370
    18
100
AcDbMText
 10
12.1312262989
 20
4.5072975977
 30
0.0
 40
0.375
 41
0.0
 71
     1
 72
     1
  1

  7
SLDTEXTSTYLE0
 73
     1
 44
1.0
  0
ENDBLK
  5
2DB
330
2D9
100
AcDbEntity
  8
0
100
AcDbBlockEnd
  0
BLOCK
  5
2FA
330
2F9
100
AcDbEntity
  8
0
100
AcDbBlockBegin
  2
_D_6
 70
     0
 10
0.0
 20
0.0
 30
0.0
  3
_D_6
  1

  0
SOLID
  5
2FC
330
2F9
100
AcDbEntity
  8
0
  6
Continuous
 62
     7
370
    18
100
AcDbTrace
 10
17.1203844696
 20
2.6698607571
 30
0.0
 11
17.0603844696
 21
2.2798607571
 31
0.0
 12
17.1803844696
 22
2.2798607571
 32
0.0
 13
17.1803844696
 23
2.2798607571
 33
0.0
  0
SOLID
  5
2FD
330
2F9
100
AcDbEntity
  8
0
  6
Continuous
 62
     7
370
    18
100
AcDbTrace
 10
17.1203844696
 20
4.3198607571
 30
0.0
 11
17.1803844696
 21
4.7098607571
 31
0.0
 12
17.0603844696
 22
4.7098607571
 32
0.0
 13
17.0603844696
 23
4.7098607571
 33
0.0
  0
LINE
  5
2FE
330
2F9
100
AcDbEntity
  8
0
  6
Continuous
 62
     7
370
     0
100
AcDbLine
 10
16.3745511755
 20
3.4919961152
 30
0.0
 11
16.2602933642
 21
3.4919961152
 31
0.0
  0
LINE
  5
2FF
330
2F9
100
AcDbEntity
  8
0
  6
Continuous
 62
     7
370
     0
100
AcDbLine
 10
16.2602933642
 20
3.4919961152
 30
0.0
 11
16.2602933642
 21
2.8966835973
 31
0.0
  0
LINE
  5
300
330
2F9
100
AcDbEntity
  8
0
  6
Continuous
 62
     7
370
     0
100
AcDbLine
 10
16.2602933642
 20
2.8966835973
 30
0.0
 11
16.3745511755
 21
2.8966835973
 31
0.0
  0
LINE
  5
301
330
2F9
100
AcDbEntity
  8
0
  6
Continuous
 62
     7
370
     0
100
AcDbLine
 10
17.8662178736
 20
3.4919961152
 30
0.0
 11
17.980475685
 21
3.4919961152
 31
0.0
  0
LINE
  5
302
330
2F9
100
AcDbEntity
  8
0
  6
Continuous
 62
     7
370
     0
100
AcDbLine
 10
17.980475685
 20
3.4919961152
 30
0.0
 11
17.980475685
 21
2.8966835973
 31
0.0
  0
LINE
  5
303
330
2F9
100
AcDbEntity
  8
0
  6
Continuous
 62
     7
370
     0
100
AcDbLine
 10
17.980475685
 20
2.8966835973
 30
0.0
 11
17.8662178736
 21
2.8966835973
 31
0.0
  0
LINE
  5
304
330
2F9
100
AcDbEntity
  8
0
  6
Continuous
 62
     7
370
     0
100
AcDbLine
 10
18.262506382
 20
2.6698607571
 30
0.0
 11
16.7453844696
 21
2.6698607571
 31
0.0
  0
LINE
  5
305
330
2F9
100
AcDbEntity
  8
0
  6
Continuous
 62
     7
370
     0
100
AcDbLine
 10
18.482506382
 20
4.3198607571
 30
0.0
 11
16.7453844696
 21
4.3198607571
 31
0.0
  0
LINE
  5
306
330
2F9
100
AcDbEntity
  8
0
  6
Continuous
 62
     7
370
     0
100
AcDbLine
 10
17.1203844696
 20
2.6698607571
 30
0.0
 11
17.1203844696
 21
1.9198607571
 31
0.0
  0
LINE
  5
307
330
2F9
100
AcDbEntity
  8
0
  6
Continuous
 62
     7
370
     0
100
AcDbLine
 10
17.1203844696
 20
4.3198607571
 30
0.0
 11
17.1203844696
 21
5.0698607571
 31
0.0
  0
MTEXT
  5
308
330
2F9
100
AcDbEntity
  8
0
  6
Continuous
 62
     7
370
    18
100
AcDbMText
 10
16.1481188858
 20
4.0572975977
 30
0.0
 40
0.375
 41
0.0
 71
     1
 72
     1
  1

  7
SLDTEXTSTYLE0
 73
     1
 44
1.0
  0
MTEXT
  5
309
330
2F9
100
AcDbEntity
  8
0
  6
Continuous
 62
     7
370
    18
100
AcDbMText
 10
16.4487699306
 20
4.0515684033
 30
0.0
 40
0.375
 41
0.0
 71
     1
 72
     1
  1
1 5/8"
  7
SLDTEXTSTYLE0
 73
     1
 44
1.0
  0
MTEXT
  5
30A
330
2F9
100
AcDbEntity
  8
0
  6
Continuous
 62
     7
370
    18
100
AcDbMText
 10
16.3745511755
 20
3.3800840409
 30
0.0
 40
0.375
 41
0.0
 71
     1
 72
     1
  1
42mm
  7
SLDTEXTSTYLE0
 73
     1
 44
1.0
  0
MTEXT
  5
30B
330
2F9
100
AcDbEntity
  8
0
  6
Continuous
 62
     7
370
    18
100
AcDbMText
 10
18.2353584138
 20
4.0572975977
 30
0.0
 40
0.375
 41
0.0
 71
     1
 72
     1
  1

  7
SLDTEXTSTYLE0
 73
     1
 44
1.0
  0
ENDBLK
  5
2FB
330
2F9
100
AcDbEntity
  8
0
100
AcDbBlockEnd
  0
BLOCK
  5
31B
330
31A
100
AcDbEntity
  8
0
100
AcDbBlockBegin
  2
_D_7
 70
     0
 10
0.0
 20
0.0
 30
0.0
  3
_D_7
  1

  0
SOLID
  5
31D
330
31A
100
AcDbEntity
  8
0
  6
Continuous
 62
     7
370
    18
100
AcDbTrace
 10
22.8654166943
 20
2.6698607571
 30
0.0
 11
22.8054166943
 21
2.2798607571
 31
0.0
 12
22.9254166943
 22
2.2798607571
 32
0.0
 13
22.9254166943
 23
2.2798607571
 33
0.0
  0
SOLID
  5
31E
330
31A
100
AcDbEntity
  8
0
  6
Continuous
 62
     7
370
    18
100
AcDbTrace
 10
22.8654166943
 20
4.6698607571
 30
0.0
 11
22.9254166943
 21
5.0598607571
 31
0.0
 12
22.8054166943
 22
5.0598607571
 32
0.0
 13
22.8054166943
 23
5.0598607571
 33
0.0
  0
LINE
  5
31F
330
31A
100
AcDbEntity
  8
0
  6
Continuous
 62
     7
370
     0
100
AcDbLine
 10
22.1195834003
 20
3.6669961152
 30
0.0
 11
22.0053255889
 21
3.6669961152
 31
0.0
  0
LINE
  5
320
330
31A
100
AcDbEntity
  8
0
  6
Continuous
 62
     7
370
     0
100
AcDbLine
 10
22.0053255889
 20
3.6669961152
 30
0.0
 11
22.0053255889
 21
3.0716835973
 31
0.0
  0
LINE
  5
321
330
31A
100
AcDbEntity
  8
0
  6
Continuous
 62
     7
370
     0
100
AcDbLine
 10
22.0053255889
 20
3.0716835973
 30
0.0
 11
22.1195834003
 21
3.0716835973
 31
0.0
  0
LINE
  5
322
330
31A
100
AcDbEntity
  8
0
  6
Continuous
 62
     7
370
     0
100
AcDbLine
 10
23.6112500984
 20
3.6669961152
 30
0.0
 11
23.7255079097
 21
3.6669961152
 31
0.0
  0
LINE
  5
323
330
31A
100
AcDbEntity
  8
0
  6
Continuous
 62
     7
370
     0
100
AcDbLine
 10
23.7255079097
 20
3.6669961152
 30
0.0
 11
23.7255079097
 21
3.0716835973
 31
0.0
  0
LINE
  5
324
330
31A
100
AcDbEntity
  8
0
  6
Continuous
 62
     7
370
     0
100
AcDbLine
 10
23.7255079097
 20
3.0716835973
 30
0.0
 11
23.6112500984
 21
3.0716835973
 31
0.0
  0
LINE
  5
325
330
31A
100
AcDbEntity
  8
0
  6
Continuous
 62
     7
370
     0
100
AcDbLine
 10
24.2193168852
 20
2.6698607571
 30
0.0
 11
22.4904166943
 21
2.6698607571
 31
0.0
  0
LINE
  5
326
330
31A
100
AcDbEntity
  8
0
  6
Continuous
 62
     7
370
     0
100
AcDbLine
 10
24.4393168852
 20
4.6698607571
 30
0.0
 11
22.4904166943
 21
4.6698607571
 31
0.0
  0
LINE
  5
327
330
31A
100
AcDbEntity
  8
0
  6
Continuous
 62
     7
370
     0
100
AcDbLine
 10
22.8654166943
 20
2.6698607571
 30
0.0
 11
22.8654166943
 21
1.9198607571
 31
0.0
  0
LINE
  5
328
330
31A
100
AcDbEntity
  8
0
  6
Continuous
 62
     7
370
     0
100
AcDbLine
 10
22.8654166943
 20
4.6698607571
 30
0.0
 11
22.8654166943
 21
5.4198607571
 31
0.0
  0
MTEXT
  5
329
330
31A
100
AcDbEntity
  8
0
  6
Continuous
 62
     7
370
    18
100
AcDbMText
 10
21.8931511105
 20
4.2322975977
 30
0.0
 40
0.375
 41
0.0
 71
     1
 72
     1
  1

  7
SLDTEXTSTYLE0
 73
     1
 44
1.0
  0
MTEXT
  5
32A
330
31A
100
AcDbEntity
  8
0
  6
Continuous
 62
     7
370
    18
100
AcDbMText
 10
22.6495313045
 20
4.2265684033
 30
0.0
 40
0.375
 41
0.0
 71
     1
 72
     1
  1
2"
  7
SLDTEXTSTYLE0
 73
     1
 44
1.0
  0
MTEXT
  5
32B
330
31A
100
AcDbEntity
  8
0
  6
Continuous
 62
     7
370
    18
100
AcDbMText
 10
22.1195834003
 20
3.5550840409
 30
0.0
 40
0.375
 41
0.0
 71
     1
 72
     1
  1
51mm
  7
SLDTEXTSTYLE0
 73
     1
 44
1.0
  0
MTEXT
  5
32C
330
31A
100
AcDbEntity
  8
0
  6
Continuous
 62
     7
370
    18
100
AcDbMText
 10
23.9803906386
 20
4.2322975977
 30
0.0
 40
0.375
 41
0.0
 71
     1
 72
     1
  1

  7
SLDTEXTSTYLE0
 73
     1
 44
1.0
  0
ENDBLK
  5
31C
330
31A
100
AcDbEntity
  8
0
100
AcDbBlockEnd
  0
ENDSEC
  0
SECTION
  2
ENTITIES
  0
LINE
  5
8F
330
1F
100
AcDbEntity
  8
0
  6
Continuous
 62
     7
370
    25
100
AcDbLine
 10
11.5286909997
 20
16.145393077
 30
0.0
 11
12.0512736517
 21
16.6679757289
 31
0.0
  0
LINE
  5
90
330
1F
100
AcDbEntity
  8
0
  6
Continuous
 62
     7
370
    25
100
AcDbLine
 10
10.4906582449
 20
15.1073603222
 30
0.0
 11
11.4327099113
 21
16.0494119886
 31
0.0
  0
LINE
  5
91
330
1F
100
AcDbEntity
  8
0
  6
Continuous
 62
     7
370
    25
100
AcDbLine
 10
10.2658290292
 20
14.8825311064
 30
0.0
 11
10.3946771565
 21
15.0113792338
 31
0.0
  0
LINE
  5
92
330
1F
100
AcDbEntity
  8
0
  6
Continuous
 62
     7
370
    25
100
AcDbLine
 10
12.0512736517
 20
19.8075298374
 30
0.0
 11
8.6960519749
 21
16.4523081607
 31
0.0
  0
LINE
  5
93
330
1F
100
AcDbEntity
  8
0
  6
Continuous
 62
     7
370
    25
100
AcDbLine
 10
8.1303821625
 20
14.3521854081
 30
0.0
 11
8.1016519895
 21
14.3234552352
 31
0.0
  0
LINE
  5
94
330
1F
100
AcDbEntity
  8
0
  6
Continuous
 62
     7
370
    25
100
AcDbLine
 10
8.1348171923
 20
14.3477503782
 30
0.0
 11
8.1062829099
 21
14.3192160958
 31
0.0
  0
LINE
  5
95
330
1F
100
AcDbEntity
  8
0
  6
Continuous
 62
     7
370
    25
100
AcDbLine
 10
8.1493545248
 20
14.273899363
 30
0.0
 11
8.1790113661
 21
14.3035562044
 31
0.0
  0
LINE
  5
96
330
1F
100
AcDbEntity
  8
0
  6
Continuous
 62
     7
370
    25
100
AcDbLine
 10
8.2647420916
 20
12.3262212231
 30
0.0
 11
8.2647420916
 21
13.9562212231
 31
0.0
  0
LINE
  5
97
330
1F
100
AcDbEntity
  8
0
  6
Continuous
 62
     7
370
    25
100
AcDbLine
 10
7.2747420916
 20
13.9562212231
 30
0.0
 11
7.2747420916
 21
12.3262212231
 31
0.0
  0
ARC
  5
98
330
1F
100
AcDbEntity
  8
0
  6
Continuous
 62
     7
370
    25
100
AcDbCircle
 10
7.7697420916
 20
13.9562212231
 30
0.0
 40
0.4949999999999992
100
AcDbArc
 50
0.0
 51
40.9290451322
  0
ARC
  5
99
330
1F
100
AcDbEntity
  8
0
  6
Continuous
 62
     7
370
    25
100
AcDbCircle
 10
7.7697420916
 20
13.9562212231
 30
0.0
 40
0.4950000000000001
100
AcDbArc
 50
46.1636615738
 51
180.0
  0
LINE
  5
9A
330
1F
100
AcDbEntity
  8
0
  6
Continuous
 62
     7
370
    25
100
AcDbLine
 10
7.3137420916
 20
11.7562212231
 30
0.0
 11
7.3637420916
 21
11.7312212231
 31
0.0
  0
LINE
  5
9B
330
1F
100
AcDbEntity
  8
0
  6
Continuous
 62
     7
370
    25
100
AcDbLine
 10
8.1757420916
 20
11.7312212231
 30
0.0
 11
8.2257420916
 21
11.7562212231
 31
0.0
  0
LINE
  5
9C
330
1F
100
AcDbEntity
  8
0
  6
Continuous
 62
     7
370
    25
100
AcDbLine
 10
7.3137420916
 20
11.8062212231
 30
0.0
 11
7.3637420916
 21
11.7812212231
 31
0.0
  0
LINE
  5
9D
330
1F
100
AcDbEntity
  8
0
  6
Continuous
 62
     7
370
    25
100
AcDbLine
 10
8.1757420916
 20
11.7812212231
 30
0.0
 11
8.2257420916
 21
11.8062212231
 31
0.0
  0
LINE
  5
9E
330
1F
100
AcDbEntity
  8
0
  6
Continuous
 62
     7
370
    25
100
AcDbLine
 10
8.2257420916
 20
11.7562212231
 30
0.0
 11
8.1757420916
 21
11.7812212231
 31
0.0
  0
LINE
  5
9F
330
1F
100
AcDbEntity
  8
0
  6
Continuous
 62
     7
370
    25
100
AcDbLine
 10
7.3637420916
 20
11.7812212231
 30
0.0
 11
7.3137420916
 21
11.7562212231
 31
0.0
  0
LINE
  5
A0
330
1F
100
AcDbEntity
  8
0
  6
Continuous
 62
     7
370
    25
100
AcDbLine
 10
8.2257420916
 20
11.8062212231
 30
0.0
 11
8.1757420916
 21
11.8312212231
 31
0.0
  0
LINE
  5
A1
330
1F
100
AcDbEntity
  8
0
  6
Continuous
 62
     7
370
    25
100
AcDbLine
 10
7.3637420916
 20
11.8312212231
 30
0.0
 11
7.3137420916
 21
11.8062212231
 31
0.0
  0
LINE
  5
A2
330
1F
100
AcDbEntity
  8
0
  6
Continuous
 62
     7
370
    25
100
AcDbLine
 10
7.3137420916
 20
11.8562212231
 30
0.0
 11
7.3637420916
 21
11.8312212231
 31
0.0
  0
LINE
  5
A3
330
1F
100
AcDbEntity
  8
0
  6
Continuous
 62
     7
370
    25
100
AcDbLine
 10
8.1757420916
 20
11.8312212231
 30
0.0
 11
8.2257420916
 21
11.8562212231
 31
0.0
  0
LINE
  5
A4
330
1F
100
AcDbEntity
  8
0
  6
Continuous
 62
     7
370
    25
100
AcDbLine
 10
8.2257420916
 20
11.8562212231
 30
0.0
 11
8.1757420916
 21
11.8812212231
 31
0.0
  0
LINE
  5
A5
330
1F
100
AcDbEntity
  8
0
  6
Continuous
 62
     7
370
    25
100
AcDbLine
 10
7.3637420916
 20
11.8812212231
 30
0.0
 11
7.3137420916
 21
11.8562212231
 31
0.0
  0
LINE
  5
A6
330
1F
100
AcDbEntity
  8
0
  6
Continuous
 62
     7
370
    25
100
AcDbLine
 10
7.3137420916
 20
11.9062212231
 30
0.0
 11
7.3637420916
 21
11.8812212231
 31
0.0
  0
LINE
  5
A7
330
1F
100
AcDbEntity
  8
0
  6
Continuous
 62
     7
370
    25
100
AcDbLine
 10
8.1757420916
 20
11.8812212231
 30
0.0
 11
8.2257420916
 21
11.9062212231
 31
0.0
  0
LINE
  5
A8
330
1F
100
AcDbEntity
  8
0
  6
Continuous
 62
     7
370
    25
100
AcDbLine
 10
7.3137420916
 20
11.9562212231
 30
0.0
 11
7.3637420916
 21
11.9312212231
 31
0.0
  0
LINE
  5
A9
330
1F
100
AcDbEntity
  8
0
  6
Continuous
 62
     7
370
    25
100
AcDbLine
 10
8.1757420916
 20
11.9312212231
 30
0.0
 11
8.2257420916
 21
11.9562212231
 31
0.0
  0
LINE
  5
AA
330
1F
100
AcDbEntity
  8
0
  6
Continuous
 62
     7
370
    25
100
AcDbLine
 10
8.2257420916
 20
11.9062212231
 30
0.0
 11
8.1757420916
 21
11.9312212231
 31
0.0
  0
LINE
  5
AB
330
1F
100
AcDbEntity
  8
0
  6
Continuous
 62
     7
370
    25
100
AcDbLine
 10
7.3637420916
 20
11.9312212231
 30
0.0
 11
7.3137420916
 21
11.9062212231
 31
0.0
  0
LINE
  5
AC
330
1F
100
AcDbEntity
  8
0
  6
Continuous
 62
     7
370
    25
100
AcDbLine
 10
8.2257420916
 20
11.9562212231
 30
0.0
 11
8.1757420916
 21
11.9812212231
 31
0.0
  0
LINE
  5
AD
330
1F
100
AcDbEntity
  8
0
  6
Continuous
 62
     7
370
    25
100
AcDbLine
 10
7.3637420916
 20
11.9812212231
 30
0.0
 11
7.3137420916
 21
11.9562212231
 31
0.0
  0
LINE
  5
AE
330
1F
100
AcDbEntity
  8
0
  6
Continuous
 62
     7
370
    25
100
AcDbLine
 10
8.2257420916
 20
12.0062212231
 30
0.0
 11
8.1757420916
 21
12.0312212231
 31
0.0
  0
LINE
  5
AF
330
1F
100
AcDbEntity
  8
0
  6
Continuous
 62
     7
370
    25
100
AcDbLine
 10
7.3637420916
 20
12.0312212231
 30
0.0
 11
7.3137420916
 21
12.0062212231
 31
0.0
  0
LINE
  5
B0
330
1F
100
AcDbEntity
  8
0
  6
Continuous
 62
     7
370
    25
100
AcDbLine
 10
7.3137420916
 20
12.0062212231
 30
0.0
 11
7.3637420916
 21
11.9812212231
 31
0.0
  0
LINE
  5
B1
330
1F
100
AcDbEntity
  8
0
  6
Continuous
 62
     7
370
    25
100
AcDbLine
 10
8.1757420916
 20
11.9812212231
 30
0.0
 11
8.2257420916
 21
12.0062212231
 31
0.0
  0
LINE
  5
B2
330
1F
100
AcDbEntity
  8
0
  6
Continuous
 62
     7
370
    25
100
AcDbLine
 10
7.3137420916
 20
12.0562212231
 30
0.0
 11
7.3637420916
 21
12.0312212231
 31
0.0
  0
LINE
  5
B3
330
1F
100
AcDbEntity
  8
0
  6
Continuous
 62
     7
370
    25
100
AcDbLine
 10
8.1757420916
 20
12.0312212231
 30
0.0
 11
8.2257420916
 21
12.0562212231
 31
0.0
  0
LINE
  5
B4
330
1F
100
AcDbEntity
  8
0
  6
Continuous
 62
     7
370
    25
100
AcDbLine
 10
8.2257420916
 20
12.0562212231
 30
0.0
 11
8.1757420916
 21
12.0812212231
 31
0.0
  0
LINE
  5
B5
330
1F
100
AcDbEntity
  8
0
  6
Continuous
 62
     7
370
    25
100
AcDbLine
 10
7.3637420916
 20
12.0812212231
 30
0.0
 11
7.3137420916
 21
12.0562212231
 31
0.0
  0
LINE
  5
B6
330
1F
100
AcDbEntity
  8
0
  6
Continuous
 62
     7
370
    25
100
AcDbLine
 10
7.3137420916
 20
12.1062212231
 30
0.0
 11
7.3637420916
 21
12.0812212231
 31
0.0
  0
LINE
  5
B7
330
1F
100
AcDbEntity
  8
0
  6
Continuous
 62
     7
370
    25
100
AcDbLine
 10
8.1757420916
 20
12.0812212231
 30
0.0
 11
8.2257420916
 21
12.1062212231
 31
0.0
  0
LINE
  5
B8
330
1F
100
AcDbEntity
  8
0
  6
Continuous
 62
     7
370
    25
100
AcDbLine
 10
8.2257420916
 20
12.1062212231
 30
0.0
 11
8.1977420916
 21
12.1202212231
 31
0.0
  0
LINE
  5
B9
330
1F
100
AcDbEntity
  8
0
  6
Continuous
 62
     7
370
    25
100
AcDbLine
 10
7.3417420916
 20
12.1202212231
 30
0.0
 11
7.3137420916
 21
12.1062212231
 31
0.0
  0
LINE
  5
BA
330
1F
100
AcDbEntity
  8
0
  6
Continuous
 62
     7
370
    25
100
AcDbLine
 10
7.3637420916
 20
11.7312212231
 30
0.0
 11
7.3937420916
 21
11.7012212231
 31
0.0
  0
LINE
  5
BB
330
1F
100
AcDbEntity
  8
0
  6
Continuous
 62
     7
370
    25
100
AcDbLine
 10
8.1457420916
 20
11.7012212231
 30
0.0
 11
8.1757420916
 21
11.7312212231
 31
0.0
  0
ARC
  5
BC
330
1F
100
AcDbEntity
  8
0
  6
Continuous
 62
     7
370
    25
100
AcDbCircle
 10
8.6960519749
 20
16.4381660251
 30
0.0
 40
0.010000000000001
100
AcDbArc
 50
45.0
 51
135.0
  0
ARC
  5
BD
330
1F
100
AcDbEntity
  8
0
  6
Continuous
 62
     7
370
    25
100
AcDbCircle
 10
10.2516868935
 20
14.8825311064
 30
0.0
 40
0.0099999999999997
100
AcDbArc
 50
315.0
 51
45.0
  0
LINE
  5
BE
330
1F
100
AcDbEntity
  8
0
  6
Continuous
 62
     7
370
    25
100
AcDbLine
 10
8.9541459501
 20
13.5708480273
 30
0.0
 11
10.2587579614
 21
14.8754600386
 31
0.0
  0
LINE
  5
BF
330
1F
100
AcDbEntity
  8
0
  6
Continuous
 62
     7
370
    25
100
AcDbLine
 10
8.6889809071
 20
16.4452370929
 30
0.0
 11
7.3843688958
 21
15.1406250816
 31
0.0
  0
LINE
  5
C0
330
1F
100
AcDbEntity
  8
0
  6
Continuous
 62
     7
370
    25
100
AcDbLine
 10
7.3843688958
 20
15.1406250816
 30
0.0
 11
7.3843688958
 21
15.0981986747
 31
0.0
  0
LINE
  5
C1
330
1F
100
AcDbEntity
  8
0
  6
Continuous
 62
     7
370
    25
100
AcDbLine
 10
8.9117195432
 20
13.5708480273
 30
0.0
 11
8.9541459501
 21
13.5708480273
 31
0.0
  0
ARC
  5
C2
330
1F
100
AcDbEntity
  8
0
  6
Continuous
 62
     7
370
    25
100
AcDbCircle
 10
8.2052420916
 20
12.2912212231
 30
0.0
 40
0.0350000000000009
100
AcDbArc
 50
315.8385484645
 51
90.0
  0
ARC
  5
C3
330
1F
100
AcDbEntity
  8
0
  6
Continuous
 62
     7
370
    25
100
AcDbCircle
 10
7.3342420916
 20
12.2912212231
 30
0.0
 40
0.0350000000000004
100
AcDbArc
 50
90.0
 51
190.4284410435
  0
ARC
  5
C4
330
1F
100
AcDbEntity
  8
0
  6
Continuous
 62
     7
370
    25
100
AcDbCircle
 10
8.2091233574
 20
12.4187934755
 30
0.0
 40
0.3000000000000018
100
AcDbArc
 50
275.5921022903
 51
277.9142345778
  0
ARC
  5
C5
330
1F
100
AcDbEntity
  8
0
  6
Continuous
 62
     7
370
    25
100
AcDbCircle
 10
7.3303608257
 20
12.4187934755
 30
0.0
 40
0.3000000000000016
100
AcDbArc
 50
262.0857654223
 51
264.4078977097
  0
LINE
  5
C6
330
1F
100
AcDbEntity
  8
0
  6
Continuous
 62
     7
370
    25
100
AcDbLine
 10
7.6653715305
 20
12.2848859656
 30
0.0
 11
7.6629409362
 21
12.2848859656
 31
0.0
  0
LINE
  5
C7
330
1F
100
AcDbEntity
  8
0
  6
Continuous
 62
     7
370
    25
100
AcDbLine
 10
8.1943152556
 20
12.2848859656
 30
0.0
 11
8.1276026476
 21
12.2848859656
 31
0.0
  0
SPLINE
  5
C8
330
1F
100
AcDbEntity
  8
0
  6
Continuous
 62
     7
370
    25
100
AcDbSpline
210
0.0
220
0.0
230
1.0
 70
     8
 71
     3
 72
    10
 73
     6
 74
     0
 42
0.00000001
 43
0.00000001
 40
0.0
 40
0.0
 40
0.0
 40
0.0
 40
0.1352097660431921
 40
0.7517657667117101
 40
1.0
 40
1.0
 40
1.0
 40
1.0
 10
8.213753765878115
 20
12.27475446681541
 30
0.0
 10
8.212913364388463
 20
12.27515198937601
 30
0.0
 10
8.208240735415702
 20
12.2773622132474
 30
0.0
 10
8.201777483687843
 20
12.28073299101284
 30
0.0
 10
8.196033380019232
 20
12.28397968383147
 30
0.0
 10
8.194384560323867
 20
12.28491163272602
 30
0.0
  0
SPLINE
  5
C9
330
1F
100
AcDbEntity
  8
0
  6
Continuous
 62
     7
370
    25
100
AcDbSpline
210
0.0
220
0.0
230
1.0
 70
     8
 71
     3
 72
    12
 73
     8
 74
     0
 42
0.00000001
 43
0.00000001
 40
0.0
 40
0.0
 40
0.0
 40
0.0
 40
0.149148097415595
 40
0.4159600615932132
 40
0.6849370793173949
 40
0.9588918987048752
 40
0.9999999999999999
 40
0.9999999999999999
 40
0.9999999999999999
 40
0.9999999999999999
 10
7.329918057232358
 20
12.26508769518369
 30
0.0
 10
7.328450152556224
 20
12.26582874358677
 30
0.0
 10
7.324356304025281
 20
12.26789545811232
 30
0.0
 10
7.31840422237975
 20
12.27201581685644
 30
0.0
 10
7.312024263384083
 20
12.27746496195499
 30
0.0
 10
7.307787758509
 20
12.28171348936576
 30
0.0
 10
7.305874071860415
 20
12.28432771055354
 30
0.0
 10
7.305624381974894
 20
12.2846688032761
 30
0.0
  0
LINE
  5
CA
330
1F
100
AcDbEntity
  8
0
  6
Continuous
 62
     7
370
    25
100
AcDbLine
 10
7.3050803801
 20
12.2848859656
 30
0.0
 11
7.2407983665
 21
12.2848859656
 31
0.0
  0
ARC
  5
CB
330
1F
100
AcDbEntity
  8
0
  6
Continuous
 62
     7
370
    25
100
AcDbCircle
 10
7.2897420916
 20
12.1266032662
 30
0.0
 40
0.0050000000000003
100
AcDbArc
 50
180.0
 51
262.0857654225
  0
LINE
  5
CC
330
1F
100
AcDbEntity
  8
0
  6
Continuous
 62
     7
370
    25
100
AcDbLine
 10
7.2847420916
 20
12.1276478036
 30
0.0
 11
7.2847420916
 21
12.1266032662
 31
0.0
  0
ARC
  5
CD
330
1F
100
AcDbEntity
  8
0
  6
Continuous
 62
     7
370
    25
100
AcDbCircle
 10
8.2497420916
 20
12.1266032662
 30
0.0
 40
0.0049999999999994
100
AcDbArc
 50
277.914234578
 51
342.0104041506
  0
LINE
  5
CE
330
1F
100
AcDbEntity
  8
0
  6
Continuous
 62
     7
370
    25
100
AcDbLine
 10
8.2986858167
 20
12.2848859656
 30
0.0
 11
8.2396639525
 21
12.2848859656
 31
0.0
  0
LINE
  5
CF
330
1F
100
AcDbEntity
  8
0
  6
Continuous
 62
     7
370
    25
100
AcDbLine
 10
12.0512736517
 20
19.8075298374
 30
0.0
 11
12.0512736517
 21
16.6679757289
 31
0.0
  0
LINE
  5
D0
330
1F
100
AcDbEntity
  8
0
  6
Continuous
 62
     7
370
    25
100
AcDbLine
 10
8.6960519749
 20
16.4523081607
 30
0.0
 11
10.2658290292
 21
14.8825311064
 31
0.0
  0
SPLINE
  5
D1
330
1F
100
AcDbEntity
  8
0
  6
Continuous
 62
     7
370
    25
100
AcDbSpline
210
0.0
220
0.0
230
1.0
 70
     8
 71
     3
 72
    26
 73
    22
 74
     0
 42
0.00000001
 43
0.00000001
 40
0.0
 40
0.0
 40
0.0
 40
0.0
 40
0.0366214964884615
 40
0.0894453430016944
 40
0.1437992306352699
 40
0.1966606285712203
 40
0.2510500574716323
 40
0.3039963223031547
 40
0.3584776806048284
 40
0.4114239354211618
 40
0.465910475021093
 40
0.5187714412319903
 40
0.5731678399642082
 40
0.625991469170294
 40
0.680343244807921
 40
0.7332356294019644
 40
0.7876577885963857
 40
0.840617794413513
 40
0.8951155732594223
 40
0.9480366217047745
 40
1.0
 40
1.0
 40
1.0
 40
1.0
 10
11.43270045802955
 20
16.04942144179725
 30
0.0
 10
11.43270049187686
 20
16.04942151911226
 30
0.0
 10
11.43270057454645
 20
16.04942170794854
 30
0.0
 10
11.43417373513867
 20
16.05108533749341
 30
0.0
 10
11.43686513118509
 20
16.05410685113712
 30
0.0
 10
11.44081509651237
 20
16.05850157919375
 30
0.0
 10
11.44579989384965
 20
16.06398096760913
 30
0.0
 10
11.45180804222579
 20
16.07048814629837
 30
0.0
 10
11.45858015194348
 20
16.0776988345317
 30
0.0
 10
11.4660640154099
 20
16.0855182866886
 30
0.0
 10
11.47392238022615
 20
16.09356567406824
 30
0.0
 10
11.48208117017166
 20
16.10174883916649
 30
0.0
 10
11.49016064120508
 20
16.10968524021745
 30
0.0
 10
11.4980757172889
 20
16.11730381944171
 30
0.0
 10
11.50545171580663
 20
16.12426810179272
 30
0.0
 10
11.51219809613275
 20
16.1305268963598
 30
0.0
 10
11.51798225634214
 20
16.13581034523303
 30
0.0
 10
11.52273009085704
 20
16.14009151189926
 30
0.0
 10
11.52615998617645
 20
16.14315360531812
 30
0.0
 10
11.52833351628967
 20
16.14508070521689
 30
0.0
 10
11.52857131477044
 20
16.14529084013671
 30
0.0
 10
11.52868912837536
 20
16.14539494825524
 30
0.0
  0
SPLINE
  5
D2
330
1F
100
AcDbEntity
  8
0
  6
Continuous
 62
     7
370
    25
100
AcDbSpline
210
0.0
220
0.0
230
1.0
 70
     8
 71
     3
 72
    26
 73
    22
 74
     0
 42
0.00000001
 43
0.00000001
 40
0.0
 40
0.0
 40
0.0
 40
0.0
 40
0.0366214964884616
 40
0.089445343001694
 40
0.1437992306352698
 40
0.1966606285712197
 40
0.2510500574716319
 40
0.3039963223031537
 40
0.358477680604828
 40
0.411423935421162
 40
0.4659104750210923
 40
0.5187714412319911
 40
0.5731678399642085
 40
0.6259914691702949
 40
0.6803432448079221
 40
0.7332356294019663
 40
0.787657788596385
 40
0.8406177944135113
 40
0.8951155732594216
 40
0.9480366217047745
 40
1.0
 40
1.0
 40
1.0
 40
1.0
 10
10.3946677032477
 20
15.0113886870154
 30
0.0
 10
10.39466773709501
 20
15.01138876433041
 30
0.0
 10
10.3946678197646
 20
15.01138895316669
 30
0.0
 10
10.39614098035681
 20
15.01305258271156
 30
0.0
 10
10.39883237640323
 20
15.01607409635527
 30
0.0
 10
10.40278234173052
 20
15.02046882441189
 30
0.0
 10
10.4077671390678
 20
15.02594821282728
 30
0.0
 10
10.41377528744394
 20
15.03245539151652
 30
0.0
 10
10.42054739716162
 20
15.03966607974984
 30
0.0
 10
10.42803126062805
 20
15.04748553190675
 30
0.0
 10
10.43588962544429
 20
15.05553291928639
 30
0.0
 10
10.4440484153898
 20
15.06371608438464
 30
0.0
 10
10.45212788642322
 20
15.0716524854356
 30
0.0
 10
10.46004296250704
 20
15.07927106465986
 30
0.0
 10
10.46741896102477
 20
15.08623534701087
 30
0.0
 10
10.4741653413509
 20
15.09249414157795
 30
0.0
 10
10.47994950156029
 20
15.09777759045118
 30
0.0
 10
10.48469733607519
 20
15.10205875711741
 30
0.0
 10
10.4881272313946
 20
15.10512085053626
 30
0.0
 10
10.49030076150781
 20
15.10704795043504
 30
0.0
 10
10.49053855998859
 20
15.10725808535486
 30
0.0
 10
10.49065637359351
 20
15.10736219347339
 30
0.0
  0
SPLINE
  5
D3
330
1F
100
AcDbEntity
  8
0
  6
Continuous
 62
     7
370
    25
100
AcDbSpline
210
0.0
220
0.0
230
1.0
 70
    11
 71
     3
 72
    44
 73
    40
 74
     0
 42
0.00000001
 43
0.00000001
 40
0.0
 40
0.0
 40
0.0
 40
0.0
 40
0.0268132602862635
 40
0.0536266644322138
 40
0.0804383625137276
 40
0.1072502668899088
 40
0.1340938280604563
 40
0.1609373368108803
 40
0.1878020595931746
 40
0.2146665517760555
 40
0.2414968427518498
 40
0.2683270849932135
 40
0.2951211887164649
 40
0.3219154992981812
 40
0.3487279238934997
 40
0.3755404890686868
 40
0.4023972479766801
 40
0.4292538607291191
 40
0.4561119243343711
 40
0.4829697810762903
 40
0.50978385607173
 40
0.5365979871666212
 40
0.5633915041607782
 40
0.5901852501849758
 40
0.6170136515915103
 40
0.6438420984067922
 40
0.6707064229963747
 40
0.6975705372492012
 40
0.7244158069054044
 40
0.7512609385190697
 40
0.7780620098939793
 40
0.8048632293856244
 40
0.8316638205822773
 40
0.8584646143373609
 40
0.8853091099274697
 40
0.9121535471252137
 40
0.9390180776821779
 40
0.9658823768778773
 40
1.0
 40
1.0
 40
1.0
 40
1.0
 10
9.307651361944576
 20
16.19426216426289
 30
0.0
 10
9.30483045572804
 20
16.19168254491432
 30
0.0
 10
9.299188628160113
 20
16.18652329237689
 30
0.0
 10
9.289433463296755
 20
16.18052825686608
 30
0.0
 10
9.279056380801293
 20
16.17608133520753
 30
0.0
 10
9.26826488245454
 20
16.17334270766821
 30
0.0
 10
9.257393056845336
 20
16.17242376493299
 30
0.0
 10
9.246744680472828
 20
16.17327680169116
 30
0.0
 10
9.236654576734528
 20
16.17594096773509
 30
0.0
 10
9.227392466395093
 20
16.18026261403597
 30
0.0
 10
9.219271499784824
 20
16.18617609537133
 30
0.0
 10
9.21247485533218
 20
16.19344556064082
 30
0.0
 10
9.20725059573745
 20
16.20191680304663
 30
0.0
 10
9.203671250962993
 20
16.21131119319669
 30
0.0
 10
9.2019012585306
 20
16.22140654580346
 30
0.0
 10
9.201907742373399
 20
16.23191118058988
 30
0.0
 10
9.2037581631803
 20
16.24254818757536
 30
0.0
 10
9.207320834299384
 20
16.25302793687646
 30
0.0
 10
9.21255417703644
 20
16.26304463551645
 30
0.0
 10
9.21923635993109
 20
16.27233866104377
 30
0.0
 10
9.227226576056342
 20
16.28061609677448
 30
0.0
 10
9.236245598888111
 20
16.28768663453955
 30
0.0
 10
9.246080443788767
 20
16.29329901532418
 30
0.0
 10
9.256436182986135
 20
16.29735283556703
 30
0.0
 10
9.267047192003647
 20
16.29965754189013
 30
0.0
 10
9.27762511514867
 20
16.30020738242985
 30
0.0
 10
9.28786945098574
 20
16.29889805208321
 30
0.0
 10
9.297515397679058
 20
16.29582909637787
 30
0.0
 10
9.30626264565192
 20
16.29100763476494
 30
0.0
 10
9.313903648205535
 20
16.28463954153808
 30
0.0
 10
9.320177121589547
 20
16.27684299035344
 30
0.0
 10
9.324963376521131
 20
16.2678988551342
 30
0.0
 10
9.328061431835351
 20
16.25801787380668
 30
0.0
 10
9.329446929966517
 20
16.24751423452304
 30
0.0
 10
9.328993587235647
 20
16.23667530589281
 30
0.0
 10
9.326782178483748
 20
16.22581340353223
 30
0.0
 10
9.322757383586326
 20
16.21528990237645
 30
0.0
 10
9.316715963305041
 20
16.20437457374466
 30
0.0
 10
9.310903350705804
 20
16.1978900614727
 30
0.0
 10
9.307651361944576
 20
16.19426216426289
 30
0.0
  0
SPLINE
  5
D4
330
1F
100
AcDbEntity
  8
0
  6
Continuous
 62
     7
370
    25
100
AcDbSpline
210
0.0
220
0.0
230
1.0
 70
     8
 71
     3
 72
    35
 73
    31
 74
     0
 42
0.00000001
 43
0.00000001
 40
0.0
 40
0.0
 40
0.0
 40
0.0
 40
0.0344017581291342
 40
0.0689195960971323
 40
0.1033273800902873
 40
0.137670536230222
 40
0.1721196382139254
 40
0.206470572531533
 40
0.2420297731922603
 40
0.2776963784131327
 40
0.3132540065900778
 40
0.3497281283755476
 40
0.3863227198242609
 40
0.4227868552066197
 40
0.457993048528437
 40
0.4933194625795423
 40
0.5285229602017874
 40
0.5623592738331484
 40
0.5963035472910557
 40
0.6301462140043969
 40
0.6644318552059478
 40
0.698820223392529
 40
0.7331119192758341
 40
0.7690050834214338
 40
0.8050082761632658
 40
0.8408976550089238
 40
0.877287097732634
 40
0.9137988476067638
 40
0.9501771391970902
 40
1.0
 40
1.0
 40
1.0
 40
1.0
 10
7.933742091576383
 20
13.95622122309491
 30
0.0
 10
7.933549548164697
 20
13.95027095884553
 30
0.0
 10
7.933163811653361
 20
13.93835035271837
 30
0.0
 10
7.930142193979934
 20
13.92071726448079
 30
0.0
 10
7.925405804523141
 20
13.90354753198715
 30
0.0
 10
7.918787084011393
 20
13.88707656136834
 30
0.0
 10
7.910494699780988
 20
13.87146102563768
 30
0.0
 10
7.900494727874277
 20
13.8566777409959
 30
0.0
 10
7.888795226200807
 20
13.84295793032743
 30
0.0
 10
7.875514515667842
 20
13.83046581380507
 30
0.0
 10
7.860800318920996
 20
13.81939657469823
 30
0.0
 10
7.844731261948398
 20
13.80998735941567
 30
0.0
 10
7.827510315955649
 20
13.80236702523714
 30
0.0
 10
7.809686087484931
 20
13.79678916785438
 30
0.0
 10
7.791502837490096
 20
13.79334833419933
 30
0.0
 10
7.773244333714386
 20
13.79193772001717
 30
0.0
 10
7.755169861774935
 20
13.7925332683367
 30
0.0
 10
7.737536250233369
 20
13.79511149226376
 30
0.0
 10
7.720538832425058
 20
13.79946579136756
 30
0.0
 10
7.704065403906872
 20
13.80559663013092
 30
0.0
 10
7.688341503881925
 20
13.8134998892081
 30
0.0
 10
7.673522130290768
 20
13.82304186373438
 30
0.0
 10
7.659608389493918
 20
13.83425198601479
 30
0.0
 10
7.646845978054825
 20
13.84713116360419
 30
0.0
 10
7.635412223011494
 20
13.86156449914398
 30
0.0
 10
7.625585028928403
 20
13.87727814521506
 30
0.0
 10
7.617566422868285
 20
13.89415516347038
 30
0.0
 10
7.61150095934375
 20
13.91196445756532
 30
0.0
 10
7.606788336790804
 20
13.93267396809932
 30
0.0
 10
7.606125310160065
 20
13.94759633708862
 30
0.0
 10
7.605742091576383
 20
13.95622122309491
 30
0.0
  0
LINE
  5
D5
330
1F
100
AcDbEntity
  8
0
  6
Continuous
 62
     7
370
    25
100
AcDbLine
 10
8.2647420916
 20
12.3262212231
 30
0.0
 11
7.2747420916
 21
12.3262212231
 31
0.0
  0
ARC
  5
D6
330
1F
100
AcDbEntity
  8
0
  6
Continuous
 62
     7
370
    25
100
AcDbCircle
 10
7.7697420916
 20
13.9562212231
 30
0.0
 40
0.1639999999999997
100
AcDbArc
 50
0.0
 51
180.0
  0
LINE
  5
D7
330
1F
100
AcDbEntity
  8
0
  6
Continuous
 62
     7
370
    25
100
AcDbLine
 10
7.3637420916
 20
11.7312212231
 30
0.0
 11
8.1757420916
 21
11.7312212231
 31
0.0
  0
LINE
  5
D8
330
1F
100
AcDbEntity
  8
0
  6
Continuous
 62
     7
370
    25
100
AcDbLine
 10
8.2257420916
 20
11.7562212231
 30
0.0
 11
7.3137420916
 21
11.7562212231
 31
0.0
  0
LINE
  5
D9
330
1F
100
AcDbEntity
  8
0
  6
Continuous
 62
     7
370
    25
100
AcDbLine
 10
8.1757420916
 20
11.7812212231
 30
0.0
 11
7.3637420916
 21
11.7812212231
 31
0.0
  0
LINE
  5
DA
330
1F
100
AcDbEntity
  8
0
  6
Continuous
 62
     7
370
    25
100
AcDbLine
 10
8.2257420916
 20
11.8062212231
 30
0.0
 11
7.3137420916
 21
11.8062212231
 31
0.0
  0
LINE
  5
DB
330
1F
100
AcDbEntity
  8
0
  6
Continuous
 62
     7
370
    25
100
AcDbLine
 10
8.1757420916
 20
11.8312212231
 30
0.0
 11
7.3637420916
 21
11.8312212231
 31
0.0
  0
LINE
  5
DC
330
1F
100
AcDbEntity
  8
0
  6
Continuous
 62
     7
370
    25
100
AcDbLine
 10
8.2257420916
 20
11.8562212231
 30
0.0
 11
7.3137420916
 21
11.8562212231
 31
0.0
  0
LINE
  5
DD
330
1F
100
AcDbEntity
  8
0
  6
Continuous
 62
     7
370
    25
100
AcDbLine
 10
8.1757420916
 20
11.8812212231
 30
0.0
 11
7.3637420916
 21
11.8812212231
 31
0.0
  0
LINE
  5
DE
330
1F
100
AcDbEntity
  8
0
  6
Continuous
 62
     7
370
    25
100
AcDbLine
 10
8.2257420916
 20
11.9062212231
 30
0.0
 11
7.3137420916
 21
11.9062212231
 31
0.0
  0
LINE
  5
DF
330
1F
100
AcDbEntity
  8
0
  6
Continuous
 62
     7
370
    25
100
AcDbLine
 10
8.1757420916
 20
11.9312212231
 30
0.0
 11
7.3637420916
 21
11.9312212231
 31
0.0
  0
LINE
  5
E0
330
1F
100
AcDbEntity
  8
0
  6
Continuous
 62
     7
370
    25
100
AcDbLine
 10
8.2257420916
 20
11.9562212231
 30
0.0
 11
7.3137420916
 21
11.9562212231
 31
0.0
  0
LINE
  5
E1
330
1F
100
AcDbEntity
  8
0
  6
Continuous
 62
     7
370
    25
100
AcDbLine
 10
8.1757420916
 20
11.9812212231
 30
0.0
 11
7.3637420916
 21
11.9812212231
 31
0.0
  0
LINE
  5
E2
330
1F
100
AcDbEntity
  8
0
  6
Continuous
 62
     7
370
    25
100
AcDbLine
 10
8.2257420916
 20
12.0062212231
 30
0.0
 11
7.3137420916
 21
12.0062212231
 31
0.0
  0
LINE
  5
E3
330
1F
100
AcDbEntity
  8
0
  6
Continuous
 62
     7
370
    25
100
AcDbLine
 10
8.1757420916
 20
12.0312212231
 30
0.0
 11
7.3637420916
 21
12.0312212231
 31
0.0
  0
LINE
  5
E4
330
1F
100
AcDbEntity
  8
0
  6
Continuous
 62
     7
370
    25
100
AcDbLine
 10
8.2257420916
 20
12.0562212231
 30
0.0
 11
7.3137420916
 21
12.0562212231
 31
0.0
  0
LINE
  5
E5
330
1F
100
AcDbEntity
  8
0
  6
Continuous
 62
     7
370
    25
100
AcDbLine
 10
8.1757420916
 20
12.0812212231
 30
0.0
 11
7.3637420916
 21
12.0812212231
 31
0.0
  0
LINE
  5
E6
330
1F
100
AcDbEntity
  8
0
  6
Continuous
 62
     7
370
    25
100
AcDbLine
 10
8.2257420916
 20
12.1062212231
 30
0.0
 11
7.3137420916
 21
12.1062212231
 31
0.0
  0
LINE
  5
E7
330
1F
100
AcDbEntity
  8
0
  6
Continuous
 62
     7
370
    25
100
AcDbLine
 10
8.1457420916
 20
11.7012212231
 30
0.0
 11
7.3937420916
 21
11.7012212231
 31
0.0
  0
LINE
  5
E8
330
1F
100
AcDbEntity
  8
0
  6
Continuous
 62
     7
370
    25
100
AcDbLine
 10
7.3843688958
 20
15.1406250816
 30
0.0
 11
8.9541459501
 21
13.5708480273
 31
0.0
  0
LINE
  5
E9
330
1F
100
AcDbEntity
  8
0
  6
Continuous
 62
     7
370
    25
100
AcDbLine
 10
8.9117195432
 20
13.5708480273
 30
0.0
 11
7.3843688958
 21
15.0981986747
 31
0.0
  0
LINE
  5
EA
330
1F
100
AcDbEntity
  8
0
  6
Continuous
 62
     7
370
    25
100
AcDbLine
 10
7.7980263628
 20
14.6845412077
 30
0.0
 11
7.4197242349
 21
14.3062390798
 31
0.0
  0
LINE
  5
EB
330
1F
100
AcDbEntity
  8
0
  6
Continuous
 62
     7
370
    25
100
AcDbLine
 10
8.2647420916
 20
13.7511855097
 30
0.0
 11
8.4980620762
 21
13.9845054943
 31
0.0
  0
SPLINE
  5
EC
330
1F
100
AcDbEntity
  8
0
  6
Continuous
 62
     7
370
    25
100
AcDbSpline
210
0.0
220
0.0
230
1.0
 70
    24
 71
     3
 72
    14
 73
    10
 74
     0
 42
0.00000001
 43
0.00000001
 40
0.0
 40
0.0
 40
0.0
 40
0.0
 40
0.216042693955066
 40
0.3279894836807339
 40
0.4398604634107428
 40
0.5934170775244939
 40
0.7521057412163794
 40
0.8754850582110917
 40
1.0
 40
1.0
 40
1.0
 40
1.0
 10
7.859709681765304
 20
13.94959902187935
 30
0.0
 10
7.857021792763209
 20
13.95516160312615
 30
0.0
 10
7.852941120976308
 20
13.96360654573295
 30
0.0
 10
7.847108275872889
 20
13.97567760773056
 30
0.0
 10
7.841994469263936
 20
13.98626062091285
 30
0.0
 10
7.836165294200613
 20
13.99832408777016
 30
0.0
 10
7.830314441362989
 20
14.01043241673966
 30
0.0
 10
7.825057762900466
 20
14.02131110295545
 30
0.0
 10
7.821997847646302
 20
14.02764359183282
 30
0.0
 10
7.820460881152521
 20
14.03082434110798
 30
0.0
  0
ARC
  5
ED
330
1F
100
AcDbEntity
  8
0
  6
Continuous
 62
     7
370
    25
100
AcDbCircle
 10
7.7697420916
 20
13.9562212231
 30
0.0
 40
0.090210979560902
100
AcDbArc
 50
355.7902488113
 51
55.7902488113
  0
SPLINE
  5
EE
330
1F
100
AcDbEntity
  8
0
  6
Continuous
 62
     7
370
    25
100
AcDbSpline
210
0.0
220
0.0
230
1.0
 70
    24
 71
     3
 72
    14
 73
    10
 74
     0
 42
0.00000001
 43
0.00000001
 40
0.0
 40
0.0
 40
0.0
 40
0.0
 40
0.2160426939548175
 40
0.3279894836803134
 40
0.4398604634101343
 40
0.5934170775237763
 40
0.7521057412155092
 40
0.8754850582106647
 40
1.0
 40
1.0
 40
1.0
 40
1.0
 10
7.8089908921892
 20
13.8749959038663
 30
0.0
 10
7.812464284358483
 20
13.88010497464806
 30
0.0
 10
7.817737483296009
 20
13.88786141138342
 30
0.0
 10
7.825274907084943
 20
13.89894833441806
 30
0.0
 10
7.831883162045002
 20
13.90866852744252
 30
0.0
 10
7.839415843269292
 20
13.91974847455923
 30
0.0
 10
7.846976537335459
 20
13.93086962623517
 30
0.0
 10
7.853769416726926
 20
13.94086138643113
 30
0.0
 10
7.857723555336829
 20
13.94667759521337
 30
0.0
 10
7.859709681765304
 20
13.94959902187935
 30
0.0
  0
ARC
  5
EF
330
1F
100
AcDbEntity
  8
0
  6
Continuous
 62
     7
370
    25
100
AcDbCircle
 10
7.7697420916
 20
13.9562212231
 30
0.0
 40
0.090210979560902
100
AcDbArc
 50
295.7902488113
 51
355.7902488113
  0
ARC
  5
F0
330
1F
100
AcDbEntity
  8
0
  6
Continuous
 62
     7
370
    25
100
AcDbCircle
 10
7.7697420916
 20
13.9562212231
 30
0.0
 40
0.0902109795608489
100
AcDbArc
 50
115.7902488113
 51
175.7902488113
  0
SPLINE
  5
F1
330
1F
100
AcDbEntity
  8
0
  6
Continuous
 62
     7
370
    25
100
AcDbSpline
210
0.0
220
0.0
230
1.0
 70
    24
 71
     3
 72
    14
 73
    10
 74
     0
 42
0.00000001
 43
0.00000001
 40
0.0
 40
0.0
 40
0.0
 40
0.0
 40
0.2160426939547363
 40
0.3279894836803646
 40
0.4398604634103923
 40
0.5934170775239456
 40
0.7521057412159702
 40
0.8754850582108247
 40
1.0
 40
1.0
 40
1.0
 40
1.0
 10
7.730493290963635
 20
14.03744654232352
 30
0.0
 10
7.727019898794392
 20
14.03233747154175
 30
0.0
 10
7.721746699856928
 20
14.02458103480639
 30
0.0
 10
7.714209276067918
 20
14.01349411177175
 30
0.0
 10
7.707601021107768
 20
14.00377391874734
 30
0.0
 10
7.70006833988365
 20
13.99269397163048
 30
0.0
 10
7.692507645817276
 20
13.98157281995473
 30
0.0
 10
7.685714766425979
 20
13.97158105975859
 30
0.0
 10
7.681760627816052
 20
13.96576485097641
 30
0.0
 10
7.679774501387566
 20
13.96284342431047
 30
0.0
  0
ARC
  5
F2
330
1F
100
AcDbEntity
  8
0
  6
Continuous
 62
     7
370
    25
100
AcDbCircle
 10
7.7697420916
 20
13.9562212231
 30
0.0
 40
0.0902109795608942
100
AcDbArc
 50
175.7902488113
 51
235.7902488113
  0
SPLINE
  5
F3
330
1F
100
AcDbEntity
  8
0
  6
Continuous
 62
     7
370
    25
100
AcDbSpline
210
0.0
220
0.0
230
1.0
 70
    24
 71
     3
 72
    14
 73
    10
 74
     0
 42
0.00000001
 43
0.00000001
 40
0.0
 40
0.0
 40
0.0
 40
0.0
 40
0.2160426939544924
 40
0.3279894836798931
 40
0.4398604634096548
 40
0.5934170775235807
 40
0.7521057412158118
 40
0.8754850582107593
 40
1.0
 40
1.0
 40
1.0
 40
1.0
 10
7.679774501387566
 20
13.96284342431047
 30
0.0
 10
7.682462390389667
 20
13.9572808430637
 30
0.0
 10
7.68654306217658
 20
13.94883590045695
 30
0.0
 10
7.692375907279886
 20
13.93676483845931
 30
0.0
 10
7.697489713888666
 20
13.92618182527696
 30
0.0
 10
7.703318888952349
 20
13.91411835841981
 30
0.0
 10
7.709169741789662
 20
13.90201002945015
 30
0.0
 10
7.714426420252451
 20
13.89113134323443
 30
0.0
 10
7.717486335506551
 20
13.88479885435704
 30
0.0
 10
7.719023302000302
 20
13.88161810508186
 30
0.0
  0
ARC
  5
F4
330
1F
100
AcDbEntity
  8
0
  6
Continuous
 62
     7
370
    25
100
AcDbCircle
 10
7.7697420916
 20
13.9562212231
 30
0.0
 40
0.0902109795608942
100
AcDbArc
 50
235.7902488113
 51
295.7902488113
  0
SPLINE
  5
F5
330
1F
100
AcDbEntity
  8
0
  6
Continuous
 62
     7
370
    25
100
AcDbSpline
210
0.0
220
0.0
230
1.0
 70
    24
 71
     3
 72
    13
 73
     9
 74
     0
 42
0.00000001
 43
0.00000001
 40
0.0
 40
0.0
 40
0.0
 40
0.0
 40
0.174989906692178
 40
0.3340396060993
 40
0.492802293919597
 40
0.6562338482292547
 40
0.819976324835447
 40
1.0
 40
1.0
 40
1.0
 40
1.0
 10
7.719023302000302
 20
13.88161810508186
 30
0.0
 10
7.72399393078342
 20
13.88125223439554
 30
0.0
 10
7.733482403073995
 20
13.88055382097129
 30
0.0
 10
7.748413566056249
 20
13.87945479002643
 30
0.0
 10
7.763469690171289
 20
13.87834656112747
 30
0.0
 10
7.778701739885826
 20
13.87722538295738
 30
0.0
 10
7.794106090220408
 20
13.87609152233827
 30
0.0
 10
7.803875067832326
 20
13.87537246189351
 30
0.0
 10
7.8089908921892
 20
13.8749959038663
 30
0.0
  0
SPLINE
  5
F6
330
1F
100
AcDbEntity
  8
0
  6
Continuous
 62
     7
370
    25
100
AcDbSpline
210
0.0
220
0.0
230
1.0
 70
    24
 71
     3
 72
    13
 73
     9
 74
     0
 42
0.00000001
 43
0.00000001
 40
0.0
 40
0.0
 40
0.0
 40
0.0
 40
0.1800236751648135
 40
0.3437661517707086
 40
0.507197706080047
 40
0.6659603939006151
 40
0.8250100933080132
 40
1.0
 40
1.0
 40
1.0
 40
1.0
 10
7.820460881152521
 20
14.03082434110798
 30
0.0
 10
7.815345056795639
 20
14.0312008991352
 30
0.0
 10
7.805576079183722
 20
14.03191995957998
 30
0.0
 10
7.790171728849157
 20
14.03305382019907
 30
0.0
 10
7.774939679134631
 20
14.03417499836915
 30
0.0
 10
7.759883555019583
 20
14.03528322726811
 30
0.0
 10
7.744952392037313
 20
14.03638225821297
 30
0.0
 10
7.735463919746744
 20
14.03708067163721
 30
0.0
 10
7.730493290963635
 20
14.03744654232352
 30
0.0
  0
ARC
  5
F7
330
1F
100
AcDbEntity
  8
0
  6
Continuous
 62
     7
370
    25
100
AcDbCircle
 10
7.7697420916
 20
13.9562212231
 30
0.0
 40
0.0902109795608924
100
AcDbArc
 50
55.7902488113
 51
115.7902488113
  0
CIRCLE
  5
F8
330
1F
100
AcDbEntity
  8
0
  6
Continuous
 62
     7
370
    25
100
AcDbCircle
 10
7.7697420916
 20
13.9562212231
 30
0.0
 40
0.1502264973081087
  0
CIRCLE
  5
F9
330
1F
100
AcDbEntity
  8
0
  6
Continuous
 62
     7
370
    25
100
AcDbCircle
 10
7.7697420916
 20
13.9562212231
 30
0.0
 40
0.1560000000000061
  0
LWPOLYLINE
  5
FA
330
1F
100
AcDbEntity
  8
0
  6
Continuous
 62
     7
370
    25
100
AcDbPolyline
 90
       48
 70
   128
 43
0.0
 10
9.2484259393
 20
16.2905127221
 10
9.240997286
 20
16.2867268839
 10
9.2340018323
 20
16.2820472546
 10
9.2275644121
 20
16.2765573424
 10
9.2217999014
 20
16.2703551148
 10
9.216811168
 20
16.2635512508
 10
9.2126872359
 20
16.2562671654
 10
9.2095016969
 20
16.2486328434
 10
9.2073113969
 20
16.2407845194
 10
9.2061554219
 20
16.2328622469
 10
9.2060544003
 20
16.225007399
 10
9.2070101348
 20
16.2173601458
 10
9.2090055704
 20
16.2100569526
 10
9.2120050984
 20
16.2032281451
 10
9.2159551921
 20
16.1969955835
 10
9.2207853622
 20
16.191470488
 10
9.226409414
 20
16.1867514541
 10
9.2327269863
 20
16.1829226931
 10
9.2396253417
 20
16.1800525292
 10
9.2469813791
 20
16.1781921807
 10
9.2546638296
 20
16.1773748455
 10
9.2625355999
 20
16.1776151089
 10
9.270456218
 20
16.1789086835
 10
9.2782843402
 20
16.1812324853
 10
9.2858802736
 20
16.1845450462
 10
9.2931084685
 20
16.1887872533
 10
9.2998399377
 20
16.1938834043
 10
9.3059545578
 20
16.1997425585
 10
9.3113432134
 20
16.2062601588
 10
9.3159097438
 20
16.2133198988
 10
9.3195726591
 20
16.2207957971
 10
9.3222665945
 20
16.2285544461
 10
9.3239434767
 20
16.2364573926
 10
9.3245733816
 20
16.2443636083
 10
9.3241450687
 20
16.2521320066
 10
9.3226661811
 20
16.2596239603
 10
9.3201631096
 20
16.2667057752
 10
9.3166805217
 20
16.2732510762
 10
9.3122805642
 20
16.2791430623
 10
9.3070417543
 20
16.2842765907
 10
9.3010575789
 20
16.2885600537
 10
9.2944348256
 20
16.2919170126
 10
9.2872916777
 20
16.2942875626
 10
9.2797556048
 20
16.2956294009
 10
9.2719610883
 20
16.2959185826
 10
9.2640472215
 20
16.2951499471
 10
9.2561552275
 20
16.2933372109
 10
9.2484259393
 20
16.2905127221
  0
LINE
  5
FB
330
1F
100
AcDbEntity
  8
0
  6
Continuous
 62
     7
370
    25
100
AcDbLine
 10
9.2362779456
 20
16.2022538863
 30
0.0
 11
9.277239434
 21
16.198374963
 31
0.0
  0
LINE
  5
FC
330
1F
100
AcDbEntity
  8
0
  6
Continuous
 62
     7
370
    25
100
AcDbLine
 10
9.3062344222
 20
16.232761669
 30
0.0
 11
9.277239434
 21
16.198374963
 31
0.0
  0
LINE
  5
FD
330
1F
100
AcDbEntity
  8
0
  6
Continuous
 62
     7
370
    25
100
AcDbLine
 10
9.294267922
 20
16.2710272985
 30
0.0
 11
9.3062344222
 21
16.232761669
 31
0.0
  0
LINE
  5
FE
330
1F
100
AcDbEntity
  8
0
  6
Continuous
 62
     7
370
    25
100
AcDbLine
 10
9.294267922
 20
16.2710272985
 30
0.0
 11
9.2533064336
 21
16.2749062219
 31
0.0
  0
LINE
  5
FF
330
1F
100
AcDbEntity
  8
0
  6
Continuous
 62
     7
370
    25
100
AcDbLine
 10
9.2243114454
 20
16.2405195158
 30
0.0
 11
9.2533064336
 21
16.2749062219
 31
0.0
  0
LINE
  5
100
330
1F
100
AcDbEntity
  8
0
  6
Continuous
 62
     7
370
    25
100
AcDbLine
 10
9.2243114454
 20
16.2405195158
 30
0.0
 11
9.2362779456
 21
16.2022538863
 31
0.0
  0
LINE
  5
101
330
1F
100
AcDbEntity
  8
0
  6
Continuous
 62
     7
370
    25
100
AcDbLine
 10
9.2561312505
 20
16.2086997107
 30
0.0
 11
9.2243114454
 21
16.2405195158
 31
0.0
  0
LINE
  5
102
330
1F
100
AcDbEntity
  8
0
  6
Continuous
 62
     7
370
    25
100
AcDbLine
 10
9.2561312505
 20
16.2086997107
 30
0.0
 11
9.2588143901
 21
16.2001197563
 31
0.0
  0
LINE
  5
103
330
1F
100
AcDbEntity
  8
0
  6
Continuous
 62
     7
370
    25
100
AcDbLine
 10
9.3035512826
 20
16.2413416234
 30
0.0
 11
9.2851262388
 21
16.2430864167
 31
0.0
  0
LINE
  5
104
330
1F
100
AcDbEntity
  8
0
  6
Continuous
 62
     7
370
    25
100
AcDbLine
 10
9.2851262388
 20
16.2430864167
 30
0.0
 11
9.2533064336
 21
16.2749062219
 31
0.0
  0
LINE
  5
105
330
1F
100
AcDbEntity
  8
0
  6
Continuous
 62
     7
370
    25
100
AcDbLine
 10
9.2561312505
 20
16.2086997107
 30
0.0
 11
9.2851262388
 21
16.2430864167
 31
0.0
  0
LINE
  5
106
330
1F
100
AcDbEntity
  8
0
  6
Continuous
 62
     7
370
    25
100
AcDbLine
 10
10.4056478863
 20
15.0223499636
 30
0.0
 11
10.3977751545
 21
15.0144772318
 31
0.0
  0
LINE
  5
107
330
1F
100
AcDbEntity
  8
0
  6
Continuous
 62
     7
370
    25
100
AcDbLine
 10
10.4874362944
 20
15.1041383717
 30
0.0
 11
10.4056478863
 21
15.0223499636
 31
0.0
  0
LINE
  5
108
330
1F
100
AcDbEntity
  8
0
  6
Continuous
 62
     7
370
    25
100
AcDbLine
 10
7.7847946959
 20
12.1202212231
 30
0.0
 11
7.301127111
 21
12.1202212231
 31
0.0
  0
LINE
  5
109
330
1F
100
AcDbEntity
  8
0
  6
Continuous
 62
     7
370
    25
100
AcDbLine
 10
8.2383570721
 20
12.1202212231
 30
0.0
 11
7.7847946959
 21
12.1202212231
 31
0.0
  0
SPLINE
  5
10A
330
1F
100
AcDbEntity
  8
0
  6
Continuous
 62
     7
370
    25
100
AcDbSpline
210
0.0
220
0.0
230
1.0
 70
     8
 71
     3
 72
    11
 73
     7
 74
     0
 42
0.00000001
 43
0.00000001
 40
0.0
 40
0.0
 40
0.0
 40
0.0
 40
0.2328672778474381
 40
0.4666746224409767
 40
0.77787330965875
 40
1.0
 40
1.0
 40
1.0
 40
1.0
 10
7.24204197562292
 20
12.14389166353349
 30
0.0
 10
7.247198160292403
 20
12.14143424612771
 30
0.0
 10
7.257531344740255
 20
12.13650949091683
 30
0.0
 10
7.275275546591329
 20
12.12996902566186
 30
0.0
 10
7.293105310432211
 20
12.1248446574085
 30
0.0
 10
7.305708484185828
 20
12.12258995798991
 30
0.0
 10
7.310957627375863
 20
12.12165088975758
 30
0.0
  0
LINE
  5
10B
330
1F
100
AcDbEntity
  8
0
  6
Continuous
 62
     7
370
    25
100
AcDbLine
 10
7.3691110546
 20
12.1438916635
 30
0.0
 11
7.2420419756
 21
12.1438916635
 31
0.0
  0
SPLINE
  5
10C
330
1F
100
AcDbEntity
  8
0
  6
Continuous
 62
     7
370
    25
100
AcDbSpline
210
0.0
220
0.0
230
1.0
 70
     8
 71
     3
 72
    11
 73
     7
 74
     0
 42
0.00000001
 43
0.00000001
 40
0.0
 40
0.0
 40
0.0
 40
0.0
 40
0.2659881467324277
 40
0.5333341092147678
 40
0.8096645163526226
 40
1.0
 40
1.0
 40
1.0
 40
1.0
 10
7.437753627413139
 20
12.12165088975758
 30
0.0
 10
7.431497955263588
 20
12.12279767840565
 30
0.0
 10
7.418954677022032
 20
12.12509710982614
 30
0.0
 10
7.400245289832458
 20
12.13062752131883
 30
0.0
 10
7.383588173863235
 20
12.13690826339935
 30
0.0
 10
7.373305124212344
 20
12.14186854928478
 30
0.0
 10
7.369111054606401
 20
12.14389166353348
 30
0.0
  0
LINE
  5
10D
330
1F
100
AcDbEntity
  8
0
  6
Continuous
 62
     7
370
    25
100
AcDbLine
 10
7.6645821149
 20
12.1216508898
 30
0.0
 11
7.4377536274
 21
12.1216508898
 31
0.0
  0
SPLINE
  5
10E
330
1F
100
AcDbEntity
  8
0
  6
Continuous
 62
     7
370
    25
100
AcDbSpline
210
0.0
220
0.0
230
1.0
 70
     8
 71
     3
 72
    11
 73
     7
 74
     0
 42
0.00000001
 43
0.00000001
 40
0.0
 40
0.0
 40
0.0
 40
0.0
 40
0.2659844447968904
 40
0.5333707766874424
 40
0.8060474732698951
 40
1.0
 40
1.0
 40
1.0
 40
1.0
 10
7.666924071290662
 20
12.14389166353348
 30
0.0
 10
7.666721021253332
 20
12.14110243251483
 30
0.0
 10
7.666313850991175
 20
12.13550926966686
 30
0.0
 10
7.665683692081917
 20
12.12903642397553
 30
0.0
 10
7.665104692253846
 20
12.12440337468858
 30
0.0
 10
7.664735548115631
 20
12.12245904318767
 30
0.0
 10
7.66458211486551
 20
12.12165088975757
 30
0.0
  0
LINE
  5
10F
330
1F
100
AcDbEntity
  8
0
  6
Continuous
 62
     7
370
    25
100
AcDbLine
 10
7.9076616328
 20
12.1438916635
 30
0.0
 11
7.6669240713
 21
12.1438916635
 31
0.0
  0
SPLINE
  5
110
330
1F
100
AcDbEntity
  8
0
  6
Continuous
 62
     7
370
    25
100
AcDbSpline
210
0.0
220
0.0
230
1.0
 70
     8
 71
     3
 72
    11
 73
     7
 74
     0
 42
0.00000001
 43
0.00000001
 40
0.0
 40
0.0
 40
0.0
 40
0.0
 40
0.2669700483321847
 40
0.5353131661689379
 40
0.8106190627890986
 40
1.0
 40
1.0
 40
1.0
 40
1.0
 10
7.904802317142956
 20
12.12165088975758
 30
0.0
 10
7.905066948718302
 20
12.12280246843254
 30
0.0
 10
7.905597572911359
 20
12.1251115485351
 30
0.0
 10
7.906378721486313
 20
12.13065773374233
 30
0.0
 10
7.907068149605656
 20
12.13693818259875
 30
0.0
 10
7.907489793712408
 20
12.14187832975585
 30
0.0
 10
7.907661632788303
 20
12.14389166353348
 30
0.0
  0
LINE
  5
111
330
1F
100
AcDbEntity
  8
0
  6
Continuous
 62
     7
370
    25
100
AcDbLine
 10
8.1233665791
 20
12.1216508898
 30
0.0
 11
7.9048023171
 21
12.1216508898
 31
0.0
  0
SPLINE
  5
112
330
1F
100
AcDbEntity
  8
0
  6
Continuous
 62
     7
370
    25
100
AcDbSpline
210
0.0
220
0.0
230
1.0
 70
     8
 71
     3
 72
    11
 73
     7
 74
     0
 42
0.00000001
 43
0.00000001
 40
0.0
 40
0.0
 40
0.0
 40
0.0
 40
0.2328672778469966
 40
0.4666746224400587
 40
0.7778733096586272
 40
1.0
 40
1.0
 40
1.0
 40
1.0
 10
8.194624187244143
 20
12.14389166353348
 30
0.0
 10
8.18929039638023
 20
12.14143424612771
 30
0.0
 10
8.178601282561383
 20
12.13650949091686
 30
0.0
 10
8.160250899426522
 20
12.12996902566185
 30
0.0
 10
8.141816562803834
 20
12.1248446574085
 30
0.0
 10
8.128791455108692
 20
12.12258995798991
 30
0.0
 10
8.123366579066042
 20
12.12165088975757
 30
0.0
  0
LINE
  5
113
330
1F
100
AcDbEntity
  8
0
  6
Continuous
 62
     7
370
    25
100
AcDbLine
 10
8.3082926698
 20
12.1438916635
 30
0.0
 11
8.1946241872
 21
12.1438916635
 31
0.0
  0
SPLINE
  5
114
330
1F
100
AcDbEntity
  8
0
  6
Continuous
 62
     7
370
    25
100
AcDbSpline
210
0.0
220
0.0
230
1.0
 70
     8
 71
     3
 72
    11
 73
     7
 74
     0
 42
0.00000001
 43
0.00000001
 40
0.0
 40
0.0
 40
0.0
 40
0.0
 40
0.2659881467325685
 40
0.533334109215045
 40
0.8096645163528647
 40
1.0
 40
1.0
 40
1.0
 40
1.0
 10
8.236790781306183
 20
12.12165088975757
 30
0.0
 10
8.243310116581984
 20
12.12279767840565
 30
0.0
 10
8.256382067023027
 20
12.12509710982615
 30
0.0
 10
8.275871789788813
 20
12.13062752131885
 30
0.0
 10
8.293219382483915
 20
12.13690826339933
 30
0.0
 10
8.303925888294533
 20
12.14186854928476
 30
0.0
 10
8.308292669758261
 20
12.14389166353346
 30
0.0
  0
SPLINE
  5
115
330
1F
100
AcDbEntity
  8
0
  6
Continuous
 62
     7
370
    25
100
AcDbSpline
210
0.0
220
0.0
230
1.0
 70
     8
 71
     3
 72
    11
 73
     7
 74
     0
 42
0.00000001
 43
0.00000001
 40
0.0
 40
0.0
 40
0.0
 40
0.0
 40
0.0337207600126409
 40
0.3856644681296255
 40
0.7494356178821988
 40
1.0
 40
1.0
 40
1.0
 40
1.0
 10
7.285071441363779
 20
12.12506192877084
 30
0.0
 10
7.284445135661319
 20
12.1251810962374
 30
0.0
 10
7.277282074818835
 20
12.12654401503253
 30
0.0
 10
7.263627761282567
 20
12.13071580294888
 30
0.0
 10
7.246262281491809
 20
12.13689379188497
 30
0.0
 10
7.235557565044203
 20
12.14186435683892
 30
0.0
 10
7.231191513394425
 20
12.14389166353348
 30
0.0
  0
SPLINE
  5
116
330
1F
100
AcDbEntity
  8
0
  6
Continuous
 62
     7
370
    25
100
AcDbSpline
210
0.0
220
0.0
230
1.0
 70
     8
 71
     3
 72
    11
 73
     7
 74
     0
 42
0.00000001
 43
0.00000001
 40
0.0
 40
0.0
 40
0.0
 40
0.0
 40
0.2419117138570848
 40
0.4852111676220396
 40
0.7416738302414331
 40
1.0
 40
1.0
 40
1.0
 40
1.0
 10
7.666389056735971
 20
12.28469806297822
 30
0.0
 10
7.675815983508973
 20
12.28139601826422
 30
0.0
 10
7.694723915141079
 20
12.27477298647435
 30
0.0
 10
7.724576817104164
 20
12.26680264313044
 30
0.0
 10
7.755606391239891
 20
12.26026227284566
 30
0.0
 10
7.776985702368425
 20
12.25757148651114
 30
0.0
 10
7.787714053895399
 20
12.25622122309493
 30
0.0
  0
SPLINE
  5
117
330
1F
100
AcDbEntity
  8
0
  6
Continuous
 62
     7
370
    25
100
AcDbSpline
210
0.0
220
0.0
230
1.0
 70
     8
 71
     3
 72
    13
 73
     9
 74
     0
 42
0.00000001
 43
0.00000001
 40
0.0
 40
0.0
 40
0.0
 40
0.0
 40
0.2142797061512427
 40
0.4285450239846236
 40
0.6429491528090978
 40
0.8576415051468071
 40
0.9549170214501317
 40
1.0
 40
1.0
 40
1.0
 40
1.0
 10
7.787714053895399
 20
12.25622122309493
 30
0.0
 10
7.787723018158902
 20
12.25618813625262
 30
0.0
 10
7.787740946083981
 20
12.25612196478969
 30
0.0
 10
7.78774197718883
 20
12.25560581131121
 30
0.0
 10
7.787723246411108
 20
12.25484623729893
 30
0.0
 10
7.787691949747174
 20
12.25406818034709
 30
0.0
 10
7.787665162927344
 20
12.2535142910569
 30
0.0
 10
7.787653477282205
 20
12.25329171110595
 30
0.0
 10
7.787649776599011
 20
12.25322122309492
 30
0.0
  0
SPLINE
  5
118
330
1F
100
AcDbEntity
  8
0
  6
Continuous
 62
     7
370
    25
100
AcDbSpline
210
0.0
220
0.0
230
1.0
 70
     8
 71
     3
 72
    11
 73
     7
 74
     0
 42
0.00000001
 43
0.00000001
 40
0.0
 40
0.0
 40
0.0
 40
0.0
 40
0.2519956718518385
 40
0.5058364467560377
 40
0.7521453372596575
 40
1.0
 40
1.0
 40
1.0
 40
1.0
 10
7.787649776599011
 20
12.25322122309492
 30
0.0
 10
7.776851950340457
 20
12.25456870446784
 30
0.0
 10
7.755177236536136
 20
12.25727353342279
 30
0.0
 10
7.723406409386028
 20
12.26392473542499
 30
0.0
 10
7.692339195258921
 20
12.2722035020458
 30
0.0
 10
7.672494413643312
 20
12.27920437660182
 30
0.0
 10
7.662540985021949
 20
12.28271576345053
 30
0.0
  0
SPLINE
  5
119
330
1F
100
AcDbEntity
  8
0
  6
Continuous
 62
     7
370
    25
100
AcDbSpline
210
0.0
220
0.0
230
1.0
 70
     8
 71
     3
 72
    14
 73
    10
 74
     0
 42
0.00000001
 43
0.00000001
 40
0.0
 40
0.0
 40
0.0
 40
0.0
 40
0.0123665218963842
 40
0.096975780811536
 40
0.3271475154410773
 40
0.5535950235598823
 40
0.707287539214195
 40
0.8534794040907964
 40
1.0
 40
1.0
 40
1.0
 40
1.0
 10
7.666389056735971
 20
12.28469806297822
 30
0.0
 10
7.666372663784732
 20
12.28470422199019
 30
0.0
 10
7.666244113553761
 20
12.28475251972502
 30
0.0
 10
7.665798261196679
 20
12.28488183454003
 30
0.0
 10
7.665009206222351
 20
12.28492387111894
 30
0.0
 10
7.66409199725518
 20
12.28464147367123
 30
0.0
 10
7.663366126256298
 20
12.28412143884786
 30
0.0
 10
7.662834593539344
 20
12.28349339409936
 30
0.0
 10
7.662638927775294
 20
12.28297516766505
 30
0.0
 10
7.662540985021949
 20
12.28271576345053
 30
0.0
  0
LINE
  5
11A
330
1F
100
AcDbEntity
  8
0
  6
Continuous
 62
     7
370
    25
100
AcDbLine
 10
7.662540985
 20
12.2827157635
 30
0.0
 11
7.662423145
 21
12.2818859656
 31
0.0
  0
LINE
  5
11B
330
1F
100
AcDbEntity
  8
0
  6
Continuous
 62
     7
370
    25
100
AcDbLine
 10
7.912294138
 20
12.2532212231
 30
0.0
 11
7.7876497766
 21
12.2532212231
 31
0.0
  0
LINE
  5
11C
330
1F
100
AcDbEntity
  8
0
  6
Continuous
 62
     7
370
    25
100
AcDbLine
 10
7.912294138
 20
12.1502157873
 30
0.0
 11
7.912294138
 21
12.2532212231
 31
0.0
  0
LINE
  5
11D
330
1F
100
AcDbEntity
  8
0
  6
Continuous
 62
     7
370
    25
100
AcDbLine
 10
7.9120271639
 20
12.1484733604
 30
0.0
 11
7.912294138
 21
12.1502157873
 31
0.0
  0
LINE
  5
11E
330
1F
100
AcDbEntity
  8
0
  6
Continuous
 62
     7
370
    25
100
AcDbLine
 10
7.6626940546
 20
12.1484733604
 30
0.0
 11
7.9120271639
 21
12.1484733604
 31
0.0
  0
LINE
  5
11F
330
1F
100
AcDbEntity
  8
0
  6
Continuous
 62
     7
370
    25
100
AcDbLine
 10
7.662423145
 20
12.1502157873
 30
0.0
 11
7.6626940546
 21
12.1484733604
 31
0.0
  0
LINE
  5
120
330
1F
100
AcDbEntity
  8
0
  6
Continuous
 62
     7
370
    25
100
AcDbLine
 10
7.662423145
 20
12.1502157873
 30
0.0
 11
7.662423145
 21
12.2818859656
 31
0.0
  0
SPLINE
  5
121
330
1F
100
AcDbEntity
  8
0
  6
Continuous
 62
     7
370
    25
100
AcDbSpline
210
0.0
220
0.0
230
1.0
 70
     8
 71
     3
 72
    12
 73
     8
 74
     0
 42
0.00000001
 43
0.00000001
 40
0.0
 40
0.0
 40
0.0
 40
0.0
 40
0.0130781908219482
 40
0.1682487970385567
 40
0.4796432328534375
 40
0.7389533742622018
 40
1.0
 40
1.0
 40
1.0
 40
1.0
 10
7.666924071290662
 20
12.14389166353348
 30
0.0
 10
7.666901454822573
 20
12.14390111631396
 30
0.0
 10
7.666610497640405
 20
12.14402272479685
 30
0.0
 10
7.665786045380704
 20
12.14444258739251
 30
0.0
 10
7.664599322943455
 20
12.14536912685429
 30
0.0
 10
7.663396641198487
 20
12.146797607326
 30
0.0
 10
7.6629287705916
 20
12.14791353472038
 30
0.0
 10
7.662694054621863
 20
12.14847336040011
 30
0.0
  0
SPLINE
  5
122
330
1F
100
AcDbEntity
  8
0
  6
Continuous
 62
     7
370
    25
100
AcDbSpline
210
0.0
220
0.0
230
1.0
 70
     8
 71
     3
 72
    12
 73
     8
 74
     0
 42
0.00000001
 43
0.00000001
 40
0.0
 40
0.0
 40
0.0
 40
0.0
 40
0.0130781908286064
 40
0.168248797045342
 40
0.4796432328610039
 40
0.7389533742636307
 40
1.0
 40
1.0
 40
1.0
 40
1.0
 10
7.907661632788303
 20
12.14389166353348
 30
0.0
 10
7.907685326629377
 20
12.14390111631396
 30
0.0
 10
7.907990144039543
 20
12.14402272479678
 30
0.0
 10
7.908852115095448
 20
12.14444258739258
 30
0.0
 10
7.91008528780968
 20
12.14536912685424
 30
0.0
 10
7.911323497618016
 20
12.14679760732602
 30
0.0
 10
7.911792087232365
 20
12.14791353472038
 30
0.0
 10
7.912027163905536
 20
12.1484733604001
 30
0.0
  0
SPLINE
  5
123
330
1F
100
AcDbEntity
  8
0
  6
Continuous
 62
     7
370
    25
100
AcDbSpline
210
0.0
220
0.0
230
1.0
 70
     8
 71
     3
 72
    12
 73
     8
 74
     0
 42
0.00000001
 43
0.00000001
 40
0.0
 40
0.0
 40
0.0
 40
0.0
 40
0.2217181155140682
 40
0.4435284651924352
 40
0.6625812968568364
 40
0.8762617802465953
 40
1.0
 40
1.0
 40
1.0
 40
1.0
 10
7.912195288567326
 20
12.25622122309491
 30
0.0
 10
7.912206620015541
 20
12.2561868203618
 30
0.0
 10
7.912229287625825
 20
12.25611800058413
 30
0.0
 10
7.912259403006511
 20
12.25557972527987
 30
0.0
 10
7.912281720883652
 20
12.25479150866203
 30
0.0
 10
7.912292722150685
 20
12.25395236717064
 30
0.0
 10
7.91229375813028
 20
12.25341740461539
 30
0.0
 10
7.912294138044818
 20
12.25322122309491
 30
0.0
  0
LINE
  5
124
330
1F
100
AcDbEntity
  8
0
  6
Continuous
 62
     7
370
    25
100
AcDbLine
 10
7.7877140539
 20
12.2562212231
 30
0.0
 11
7.9121952886
 21
12.2562212231
 31
0.0
  0
SPLINE
  5
125
330
1F
100
AcDbEntity
  8
0
  6
Continuous
 62
     7
370
    25
100
AcDbSpline
210
0.0
220
0.0
230
1.0
 70
     8
 71
     3
 72
    13
 73
     9
 74
     0
 42
0.00000001
 43
0.00000001
 40
0.0
 40
0.0
 40
0.0
 40
0.0
 40
0.0110833551309863
 40
0.1707198361054288
 40
0.4221210186932801
 40
0.6291731381182847
 40
0.8141387340453347
 40
1.0
 40
1.0
 40
1.0
 40
1.0
 10
7.66458211486551
 20
12.12165088975757
 30
0.0
 10
7.664558858485404
 20
12.12165430353344
 30
0.0
 10
7.664200634341806
 20
12.12170688682167
 30
0.0
 10
7.66331809717298
 20
12.12194068610479
 30
0.0
 10
7.662076028529101
 20
12.12263402578556
 30
0.0
 10
7.6609705523325
 20
12.12377156557321
 30
0.0
 10
7.660184293489579
 20
12.12509611436002
 30
0.0
 10
7.659987303973869
 20
12.12610007394616
 30
0.0
 10
7.659888571318463
 20
12.12660326618714
 30
0.0
  0
LINE
  5
126
330
1F
100
AcDbEntity
  8
0
  6
Continuous
 62
     7
370
    25
100
AcDbLine
 10
7.6598885713
 20
12.1266032662
 30
0.0
 11
7.6598591994
 21
12.1271469343
 31
0.0
  0
SPLINE
  5
127
330
1F
100
AcDbEntity
  8
0
  6
Continuous
 62
     7
370
    25
100
AcDbSpline
210
0.0
220
0.0
230
1.0
 70
     8
 71
     3
 72
    10
 73
     6
 74
     0
 42
0.00000001
 43
0.00000001
 40
0.0
 40
0.0
 40
0.0
 40
0.0
 40
0.4172342650932198
 40
0.7076960094652407
 40
0.9999999999999999
 40
0.9999999999999999
 40
0.9999999999999999
 40
0.9999999999999999
 10
7.659859199409873
 20
12.12714693427389
 30
0.0
 10
7.660225774856924
 20
12.12920859586523
 30
0.0
 10
7.66084754541306
 20
12.13270550348554
 30
0.0
 10
7.661701987229436
 20
12.14089596850535
 30
0.0
 10
7.662182252985621
 20
12.14710264086552
 30
0.0
 10
7.662423144974701
 20
12.15021578734986
 30
0.0
  0
SPLINE
  5
128
330
1F
100
AcDbEntity
  8
0
  6
Continuous
 62
     7
370
    25
100
AcDbSpline
210
0.0
220
0.0
230
1.0
 70
     8
 71
     3
 72
     9
 73
     5
 74
     0
 42
0.00000001
 43
0.00000001
 40
0.0
 40
0.0
 40
0.0
 40
0.0
 40
0.7268678013072436
 40
1.0
 40
1.0
 40
1.0
 40
1.0
 10
7.659859199409868
 20
12.28188596556889
 30
0.0
 10
7.659887247461095
 20
12.28221570071099
 30
0.0
 10
7.659925835016047
 20
12.28266933910507
 30
0.0
 10
7.660110041314511
 20
12.28307912901497
 30
0.0
 10
7.660160353985824
 20
12.28319105583406
 30
0.0
  0
SPLINE
  5
129
330
1F
100
AcDbEntity
  8
0
  6
Continuous
 62
     7
370
    25
100
AcDbSpline
210
0.0
220
0.0
230
1.0
 70
     8
 71
     3
 72
    11
 73
     7
 74
     0
 42
0.00000001
 43
0.00000001
 40
0.0
 40
0.0
 40
0.0
 40
0.0
 40
0.3106988680968368
 40
0.6258554267794912
 40
0.8120479220001761
 40
1.0
 40
1.0
 40
1.0
 40
1.0
 10
7.662945356834312
 20
12.28481198924652
 30
0.0
 10
7.662650105996736
 20
12.2848223837976
 30
0.0
 10
7.662055368268561
 20
12.28484332203352
 30
0.0
 10
7.66123286610708
 20
12.28443454774084
 30
0.0
 10
7.660567647126228
 20
12.28387595360811
 30
0.0
 10
7.660296543361668
 20
12.28342006975821
 30
0.0
 10
7.660160353985824
 20
12.28319105583406
 30
0.0
  0
LINE
  5
12A
330
1F
100
AcDbEntity
  8
0
  6
Continuous
 62
     7
370
    25
100
AcDbLine
 10
7.662423145
 20
12.2818859656
 30
0.0
 11
7.6598591994
 21
12.2818859656
 31
0.0
  0
LINE
  5
12B
330
1F
100
AcDbEntity
  8
0
  6
Continuous
 62
     7
370
    25
100
AcDbLine
 10
7.6598591994
 20
12.2818859656
 30
0.0
 11
7.6598591994
 21
12.2562212231
 31
0.0
  0
LINE
  5
12C
330
1F
100
AcDbEntity
  8
0
  6
Continuous
 62
     7
370
    25
100
AcDbLine
 10
7.6598591994
 20
12.1271469343
 30
0.0
 11
7.6598591994
 21
12.2562212231
 31
0.0
  0
LINE
  5
12D
330
1F
100
AcDbEntity
  8
0
  6
Continuous
 62
     7
370
    25
100
AcDbLine
 10
7.9097301925
 20
12.1271469343
 30
0.0
 11
7.9097013198
 21
12.1266032662
 31
0.0
  0
SPLINE
  5
12E
330
1F
100
AcDbEntity
  8
0
  6
Continuous
 62
     7
370
    25
100
AcDbSpline
210
0.0
220
0.0
230
1.0
 70
     8
 71
     3
 72
    13
 73
     9
 74
     0
 42
0.00000001
 43
0.00000001
 40
0.0
 40
0.0
 40
0.0
 40
0.0
 40
0.0110833551278664
 40
0.170719836110611
 40
0.4221210186993989
 40
0.6291731381186242
 40
0.8141387340444797
 40
0.9999999999999999
 40
0.9999999999999999
 40
0.9999999999999999
 40
0.9999999999999999
 10
7.904802317142956
 20
12.12165088975758
 30
0.0
 10
7.904826752635849
 20
12.12165430353346
 30
0.0
 10
7.905203138964158
 20
12.1217068868217
 30
0.0
 10
7.90612963600743
 20
12.12194068610477
 30
0.0
 10
7.907430768564771
 20
12.12263402578555
 30
0.0
 10
7.908584790080848
 20
12.12377156557323
 30
0.0
 10
7.909401621149764
 20
12.12509611436004
 30
0.0
 10
7.90960125953062
 20
12.12610007394617
 30
0.0
 10
7.909701319817542
 20
12.12660326618715
 30
0.0
  0
SPLINE
  5
12F
330
1F
100
AcDbEntity
  8
0
  6
Continuous
 62
     7
370
    25
100
AcDbSpline
210
0.0
220
0.0
230
1.0
 70
     8
 71
     3
 72
    11
 73
     7
 74
     0
 42
0.00000001
 43
0.00000001
 40
0.0
 40
0.0
 40
0.0
 40
0.0
 40
0.2565531990775228
 40
0.5143818070951317
 40
0.7566696092735097
 40
1.0
 40
1.0
 40
1.0
 40
1.0
 10
7.912294138044849
 20
12.15021578734985
 30
0.0
 10
7.912082995877494
 20
12.14745574734765
 30
0.0
 10
7.91165966188677
 20
12.1419219462916
 30
0.0
 10
7.911015443435355
 20
12.13556132480557
 30
0.0
 10
7.910371999579217
 20
12.13047105294083
 30
0.0
 10
7.909944434164172
 20
12.12825655861807
 30
0.0
 10
7.909730192480017
 20
12.1271469342739
 30
0.0
  0
SPLINE
  5
130
330
1F
100
AcDbEntity
  8
0
  6
Continuous
 62
     7
370
    25
100
AcDbSpline
210
0.0
220
0.0
230
1.0
 70
     8
 71
     3
 72
    13
 73
     9
 74
     0
 42
0.00000001
 43
0.00000001
 40
0.0
 40
0.0
 40
0.0
 40
0.0
 40
0.0110833551321538
 40
0.1707198361009777
 40
0.4221210186960929
 40
0.6291731381167638
 40
0.8141387340447815
 40
1.0
 40
1.0
 40
1.0
 40
1.0
 10
7.437753627413139
 20
12.12165088975758
 30
0.0
 10
7.437750622051856
 20
12.12165430353345
 30
0.0
 10
7.437704329681023
 20
12.12170688682167
 30
0.0
 10
7.437600458921943
 20
12.12194068610481
 30
0.0
 10
7.437490618196063
 20
12.12263402578553
 30
0.0
 10
7.437444996335805
 20
12.12377156557324
 30
0.0
 10
7.43746380534885
 20
12.12509611436002
 30
0.0
 10
7.437533454556429
 20
12.12610007394616
 30
0.0
 10
7.437568363273204
 20
12.12660326618714
 30
0.0
  0
LINE
  5
131
330
1F
100
AcDbEntity
  8
0
  6
Continuous
 62
     7
370
    25
100
AcDbLine
 10
7.4375683633
 20
12.1266032662
 30
0.0
 11
7.6598885713
 21
12.1266032662
 31
0.0
  0
LINE
  5
132
330
1F
100
AcDbEntity
  8
0
  6
Continuous
 62
     7
370
    25
100
AcDbLine
 10
7.4375903367
 20
12.1271469343
 30
0.0
 11
7.4375903367
 21
12.2562212231
 31
0.0
  0
LINE
  5
133
330
1F
100
AcDbEntity
  8
0
  6
Continuous
 62
     7
370
    25
100
AcDbLine
 10
7.4375903367
 20
12.1271469343
 30
0.0
 11
7.4375683633
 21
12.1266032662
 31
0.0
  0
LINE
  5
134
330
1F
100
AcDbEntity
  8
0
  6
Continuous
 62
     7
370
    25
100
AcDbLine
 10
7.6598591994
 20
12.2562212231
 30
0.0
 11
7.4375903367
 21
12.2562212231
 31
0.0
  0
SPLINE
  5
135
330
1F
100
AcDbEntity
  8
0
  6
Continuous
 62
     7
370
    25
100
AcDbSpline
210
0.0
220
0.0
230
1.0
 70
     8
 71
     3
 72
    13
 73
     9
 74
     0
 42
0.00000001
 43
0.00000001
 40
0.0
 40
0.0
 40
0.0
 40
0.0
 40
0.0110833551265361
 40
0.1707198361047182
 40
0.4221210186931815
 40
0.6291731381186845
 40
0.8141387340440738
 40
0.9999999999999999
 40
0.9999999999999999
 40
0.9999999999999999
 40
0.9999999999999999
 10
8.123366579066042
 20
12.12165088975757
 30
0.0
 10
8.123371501361847
 20
12.12165430353344
 30
0.0
 10
8.12344732077967
 20
12.12170688682169
 30
0.0
 10
8.123623521195531
 20
12.12194068610476
 30
0.0
 10
8.12383367720927
 20
12.12263402578557
 30
0.0
 10
8.12396645891822
 20
12.1237715655732
 30
0.0
 10
8.124007553818844
 20
12.12509611436004
 30
0.0
 10
8.123950268140408
 20
12.12610007394616
 30
0.0
 10
8.123921556119221
 20
12.12660326618715
 30
0.0
  0
LINE
  5
136
330
1F
100
AcDbEntity
  8
0
  6
Continuous
 62
     7
370
    25
100
AcDbLine
 10
7.9097013198
 20
12.1266032662
 30
0.0
 11
8.1239215561
 21
12.1266032662
 31
0.0
  0
LINE
  5
137
330
1F
100
AcDbEntity
  8
0
  6
Continuous
 62
     7
370
    25
100
AcDbLine
 10
8.1239009541
 20
12.1271469343
 30
0.0
 11
8.1239009541
 21
12.2562212231
 31
0.0
  0
LINE
  5
138
330
1F
100
AcDbEntity
  8
0
  6
Continuous
 62
     7
370
    25
100
AcDbLine
 10
8.1239215561
 20
12.1266032662
 30
0.0
 11
8.1239009541
 21
12.1271469343
 31
0.0
  0
LINE
  5
139
330
1F
100
AcDbEntity
  8
0
  6
Continuous
 62
     7
370
    25
100
AcDbLine
 10
8.1239009541
 20
12.2562212231
 30
0.0
 11
7.9122116626
 21
12.2562212231
 31
0.0
  0
LINE
  5
13A
330
1F
100
AcDbEntity
  8
0
  6
Continuous
 62
     7
370
    25
100
AcDbLine
 10
7.2379306752
 20
12.2827157635
 30
0.0
 11
7.2378915788
 21
12.2818859656
 31
0.0
  0
SPLINE
  5
13B
330
1F
100
AcDbEntity
  8
0
  6
Continuous
 62
     7
370
    25
100
AcDbSpline
210
0.0
220
0.0
230
1.0
 70
     8
 71
     3
 72
    11
 73
     7
 74
     0
 42
0.00000001
 43
0.00000001
 40
0.0
 40
0.0
 40
0.0
 40
0.0
 40
0.2519956718517875
 40
0.505836446755927
 40
0.7521453372595907
 40
0.9999999999999999
 40
0.9999999999999999
 40
0.9999999999999999
 40
0.9999999999999999
 10
7.291803570610062
 20
12.25322122309492
 30
0.0
 10
7.286261968708605
 20
12.25456870446784
 30
0.0
 10
7.275138189500137
 20
12.25727353342278
 30
0.0
 10
7.260869936645031
 20
12.26392473542499
 30
0.0
 10
7.248225965632205
 20
12.27220350204579
 30
0.0
 10
7.241369587741125
 20
12.27920437660182
 30
0.0
 10
7.237930675221862
 20
12.28271576345054
 30
0.0
  0
LINE
  5
13C
330
1F
100
AcDbEntity
  8
0
  6
Continuous
 62
     7
370
    25
100
AcDbLine
 10
7.3697815786
 20
12.2532212231
 30
0.0
 11
7.2918035706
 21
12.2532212231
 31
0.0
  0
LINE
  5
13D
330
1F
100
AcDbEntity
  8
0
  6
Continuous
 62
     7
370
    25
100
AcDbLine
 10
7.3697815786
 20
12.1502157873
 30
0.0
 11
7.3697815786
 21
12.2532212231
 31
0.0
  0
LINE
  5
13E
330
1F
100
AcDbEntity
  8
0
  6
Continuous
 62
     7
370
    25
100
AcDbLine
 10
7.3695875811
 20
12.1484733604
 30
0.0
 11
7.3697815786
 21
12.1502157873
 31
0.0
  0
LINE
  5
13F
330
1F
100
AcDbEntity
  8
0
  6
Continuous
 62
     7
370
    25
100
AcDbLine
 10
7.2379814937
 20
12.1484733604
 30
0.0
 11
7.3695875811
 21
12.1484733604
 31
0.0
  0
LINE
  5
140
330
1F
100
AcDbEntity
  8
0
  6
Continuous
 62
     7
370
    25
100
AcDbLine
 10
7.2378915788
 20
12.1502157873
 30
0.0
 11
7.2379814937
 21
12.1484733604
 31
0.0
  0
LINE
  5
141
330
1F
100
AcDbEntity
  8
0
  6
Continuous
 62
     7
370
    25
100
AcDbLine
 10
7.2378915788
 20
12.1502157873
 30
0.0
 11
7.2378915788
 21
12.2818859656
 31
0.0
  0
SPLINE
  5
142
330
1F
100
AcDbEntity
  8
0
  6
Continuous
 62
     7
370
    25
100
AcDbSpline
210
0.0
220
0.0
230
1.0
 70
     8
 71
     3
 72
    12
 73
     8
 74
     0
 42
0.00000001
 43
0.00000001
 40
0.0
 40
0.0
 40
0.0
 40
0.0
 40
0.0130781908305729
 40
0.1682487970405621
 40
0.4796432328578097
 40
0.7389533742614448
 40
0.9999999999999999
 40
0.9999999999999999
 40
0.9999999999999999
 40
0.9999999999999999
 10
7.24204197562292
 20
12.14389166353349
 30
0.0
 10
7.242015506922375
 20
12.14390111631397
 30
0.0
 10
7.241674991396658
 20
12.14402272479679
 30
0.0
 10
7.240733786523759
 20
12.14444258739261
 30
0.0
 10
7.239480900972088
 20
12.14536912685425
 30
0.0
 10
7.238366904208958
 20
12.14679760732603
 30
0.0
 10
7.238110249390115
 20
12.14791353472039
 30
0.0
 10
7.237981493738859
 20
12.14847336040012
 30
0.0
  0
SPLINE
  5
143
330
1F
100
AcDbEntity
  8
0
  6
Continuous
 62
     7
370
    25
100
AcDbSpline
210
0.0
220
0.0
230
1.0
 70
     8
 71
     3
 72
    12
 73
     8
 74
     0
 42
0.00000001
 43
0.00000001
 40
0.0
 40
0.0
 40
0.0
 40
0.0
 40
0.0130781908292717
 40
0.1682487970478584
 40
0.4796432328573835
 40
0.7389533742611909
 40
0.9999999999999999
 40
0.9999999999999999
 40
0.9999999999999999
 40
0.9999999999999999
 10
7.369111054606401
 20
12.14389166353348
 30
0.0
 10
7.369109029986371
 20
12.14390111631397
 30
0.0
 10
7.369082983579088
 20
12.1440227247968
 30
0.0
 10
7.369031927531121
 20
12.14444258739255
 30
0.0
 10
7.369056340985939
 20
12.14536912685429
 30
0.0
 10
7.369230725810053
 20
12.14679760732603
 30
0.0
 10
7.369468365014481
 20
12.14791353472039
 30
0.0
 10
7.369587581129993
 20
12.14847336040012
 30
0.0
  0
SPLINE
  5
144
330
1F
100
AcDbEntity
  8
0
  6
Continuous
 62
     7
370
    25
100
AcDbSpline
210
0.0
220
0.0
230
1.0
 70
     8
 71
     3
 72
    13
 73
     9
 74
     0
 42
0.00000001
 43
0.00000001
 40
0.0
 40
0.0
 40
0.0
 40
0.0
 40
0.2142797061457838
 40
0.4285450239803444
 40
0.6429491528082403
 40
0.8576415051484894
 40
0.9549170214504483
 40
1.0
 40
1.0
 40
1.0
 40
1.0
 10
7.294436974883935
 20
12.25622122309492
 30
0.0
 10
7.29414969108452
 20
12.25618813625261
 30
0.0
 10
7.293575142776032
 20
12.25612196478968
 30
0.0
 10
7.292798463006846
 20
12.25560581131121
 30
0.0
 10
7.292196629842238
 20
12.25484623729893
 30
0.0
 10
7.291904356603347
 20
12.2540681803471
 30
0.0
 10
7.291817163450545
 20
12.25351429105689
 30
0.0
 10
7.291806839927811
 20
12.25329171110594
 30
0.0
 10
7.291803570610062
 20
12.25322122309492
 30
0.0
  0
SPLINE
  5
145
330
1F
100
AcDbEntity
  8
0
  6
Continuous
 62
     7
370
    25
100
AcDbSpline
210
0.0
220
0.0
230
1.0
 70
     8
 71
     3
 72
    12
 73
     8
 74
     0
 42
0.00000001
 43
0.00000001
 40
0.0
 40
0.0
 40
0.0
 40
0.0
 40
0.2217181155153148
 40
0.4435284651933079
 40
0.6625812968570773
 40
0.8762617802486785
 40
1.0
 40
1.0
 40
1.0
 40
1.0
 10
7.372395854217781
 20
12.25622122309493
 30
0.0
 10
7.372096171009949
 20
12.25618682036181
 30
0.0
 10
7.371496679926847
 20
12.25611800058414
 30
0.0
 10
7.370700217398681
 20
12.25557972527989
 30
0.0
 10
7.370109975721838
 20
12.25479150866203
 30
0.0
 10
7.369819024826706
 20
12.25395236717066
 30
0.0
 10
7.369791626238426
 20
12.2534174046154
 30
0.0
 10
7.369781578625457
 20
12.25322122309492
 30
0.0
  0
LINE
  5
146
330
1F
100
AcDbEntity
  8
0
  6
Continuous
 62
     7
370
    25
100
AcDbLine
 10
7.2944369749
 20
12.2562212231
 30
0.0
 11
7.3723958542
 21
12.2562212231
 31
0.0
  0
SPLINE
  5
147
330
1F
100
AcDbEntity
  8
0
  6
Continuous
 62
     7
370
    25
100
AcDbSpline
210
0.0
220
0.0
230
1.0
 70
     8
 71
     3
 72
    11
 73
     7
 74
     0
 42
0.00000001
 43
0.00000001
 40
0.0
 40
0.0
 40
0.0
 40
0.0
 40
0.2575297854244984
 40
0.516349629304387
 40
0.7576598734530203
 40
1.0
 40
1.0
 40
1.0
 40
1.0
 10
7.369781578625466
 20
12.15021578734986
 30
0.0
 10
7.375387115237122
 20
12.14744574109054
 30
0.0
 10
7.386626268590624
 20
12.14189177242318
 30
0.0
 10
7.403688705949952
 20
12.13553120931127
 30
0.0
 10
7.420685157981882
 20
12.13045604976798
 30
0.0
 10
7.43194728332406
 20
12.1282515375306
 30
0.0
 10
7.437590336748555
 20
12.1271469342739
 30
0.0
  0
LINE
  5
148
330
1F
100
AcDbEntity
  8
0
  6
Continuous
 62
     7
370
    25
100
AcDbLine
 10
7.4375903367
 20
12.2562212231
 30
0.0
 11
7.3723958542
 21
12.2562212231
 31
0.0
  0
LINE
  5
149
330
1F
100
AcDbEntity
  8
0
  6
Continuous
 62
     7
370
    25
100
AcDbLine
 10
8.1942736578
 20
12.1502157873
 30
0.0
 11
8.1944546525
 21
12.1484733604
 31
0.0
  0
SPLINE
  5
14A
330
1F
100
AcDbEntity
  8
0
  6
Continuous
 62
     7
370
    25
100
AcDbSpline
210
0.0
220
0.0
230
1.0
 70
     8
 71
     3
 72
    12
 73
     8
 74
     0
 42
0.00000001
 43
0.00000001
 40
0.0
 40
0.0
 40
0.0
 40
0.0
 40
0.0130781908268765
 40
0.1682487970430981
 40
0.479643232854344
 40
0.7389533742631467
 40
1.0
 40
1.0
 40
1.0
 40
1.0
 10
8.194624187244143
 20
12.14389166353348
 30
0.0
 10
8.194628039476582
 20
12.14390111631396
 30
0.0
 10
8.194677597820116
 20
12.1440227247968
 30
0.0
 10
8.194794350433332
 20
12.14444258739254
 30
0.0
 10
8.194860513547729
 20
12.14536912685428
 30
0.0
 10
8.194771828565937
 20
12.14679760732599
 30
0.0
 10
8.194560612777824
 20
12.14791353472037
 30
0.0
 10
8.194454652459306
 20
12.1484733604001
 30
0.0
  0
SPLINE
  5
14B
330
1F
100
AcDbEntity
  8
0
  6
Continuous
 62
     7
370
    25
100
AcDbSpline
210
0.0
220
0.0
230
1.0
 70
     8
 71
     3
 72
    11
 73
     7
 74
     0
 42
0.00000001
 43
0.00000001
 40
0.0
 40
0.0
 40
0.0
 40
0.0
 40
0.2413129272726367
 40
0.4836503712705003
 40
0.7411830816095093
 40
1.0
 40
1.0
 40
1.0
 40
1.0
 10
8.123900954105626
 20
12.1271469342739
 30
0.0
 10
8.129732600140514
 20
12.12824639432371
 30
0.0
 10
8.141420651011925
 20
12.13044998228436
 30
0.0
 10
8.159029890793347
 20
12.13551381087488
 30
0.0
 10
8.176762226312862
 20
12.14187964610234
 30
0.0
 10
8.188426843648486
 20
12.14743247014278
 30
0.0
 10
8.194273657793465
 20
12.15021578734985
 30
0.0
  0
LINE
  5
14C
330
1F
100
AcDbEntity
  8
0
  6
Continuous
 62
     7
370
    25
100
AcDbLine
 10
8.1943524014
 20
12.2827157635
 30
0.0
 11
8.1942736578
 21
12.2818859656
 31
0.0
  0
LINE
  5
14D
330
1F
100
AcDbEntity
  8
0
  6
Continuous
 62
     7
370
    25
100
AcDbLine
 10
8.1942736578
 20
12.2818859656
 30
0.0
 11
8.1239009541
 21
12.2818859656
 31
0.0
  0
SPLINE
  5
14E
330
1F
100
AcDbEntity
  8
0
  6
Continuous
 62
     7
370
    25
100
AcDbSpline
210
0.0
220
0.0
230
1.0
 70
     8
 71
     3
 72
     9
 73
     5
 74
     0
 42
0.00000001
 43
0.00000001
 40
0.0
 40
0.0
 40
0.0
 40
0.0
 40
0.7268678013208258
 40
1.0
 40
1.0
 40
1.0
 40
1.0
 10
8.123900954105585
 20
12.2818859655689
 30
0.0
 10
8.123920637109244
 20
12.28221570071099
 30
0.0
 10
8.123947716316252
 20
12.28266933910506
 30
0.0
 10
8.124076842141747
 20
12.28307912901496
 30
0.0
 10
8.12411211056237
 20
12.28319105583405
 30
0.0
  0
SPLINE
  5
14F
330
1F
100
AcDbEntity
  8
0
  6
Continuous
 62
     7
370
    25
100
AcDbSpline
210
0.0
220
0.0
230
1.0
 70
     8
 71
     3
 72
    11
 73
     7
 74
     0
 42
0.00000001
 43
0.00000001
 40
0.0
 40
0.0
 40
0.0
 40
0.0
 40
0.187952078002636
 40
0.3741445732342988
 40
0.689301131910465
 40
1.0
 40
1.0
 40
1.0
 40
1.0
 10
8.12411211056237
 20
12.28319105583405
 30
0.0
 10
8.124226595909166
 20
12.28342006975821
 30
0.0
 10
8.124454494805917
 20
12.28387595360813
 30
0.0
 10
8.125224540024364
 20
12.28443454774082
 30
0.0
 10
8.126283105132398
 20
12.28484332203353
 30
0.0
 10
8.127166288515294
 20
12.2848223837976
 30
0.0
 10
8.127604734945006
 20
12.28481198924652
 30
0.0
  0
SPLINE
  5
150
330
1F
100
AcDbEntity
  8
0
  6
Continuous
 62
     7
370
    25
100
AcDbSpline
210
0.0
220
0.0
230
1.0
 70
     8
 71
     3
 72
    12
 73
     8
 74
     0
 42
0.00000001
 43
0.00000001
 40
0.0
 40
0.0
 40
0.0
 40
0.0
 40
0.1931359835651039
 40
0.3858386506340249
 40
0.5884282933541167
 40
0.886919859920491
 40
0.9999999999999999
 40
0.9999999999999999
 40
0.9999999999999999
 40
0.9999999999999999
 10
8.19435240137645
 20
12.28271576345052
 30
0.0
 10
8.194398014149057
 20
12.28297500814636
 30
0.0
 10
8.194489137358254
 20
12.28349291590119
 30
0.0
 10
8.19454068138748
 20
12.28412338741009
 30
0.0
 10
8.194522167772448
 20
12.28463219394905
 30
0.0
 10
8.194444397205661
 20
12.28489578670314
 30
0.0
 10
8.194342429866072
 20
12.28485588251101
 30
0.0
 10
8.19431441413793
 20
12.28484491875534
 30
0.0
  0
LINE
  5
151
330
1F
100
AcDbEntity
  8
0
  6
Continuous
 62
     7
370
    25
100
AcDbLine
 10
8.1239009541
 20
12.2818859656
 30
0.0
 11
8.1239009541
 21
12.2562212231
 31
0.0
  0
LINE
  5
152
330
1F
100
AcDbEntity
  8
0
  6
Continuous
 62
     7
370
    25
100
AcDbLine
 10
8.1942736578
 20
12.1502157873
 30
0.0
 11
8.1942736578
 21
12.2818859656
 31
0.0
  0
SPLINE
  5
153
330
1F
100
AcDbEntity
  8
0
  6
Continuous
 62
     7
370
    25
100
AcDbSpline
210
0.0
220
0.0
230
1.0
 70
     8
 71
     3
 72
    11
 73
     7
 74
     0
 42
0.00000001
 43
0.00000001
 40
0.0
 40
0.0
 40
0.0
 40
0.0
 40
0.2519956718518508
 40
0.5058364467561431
 40
0.7521453372596838
 40
1.0
 40
1.0
 40
1.0
 40
1.0
 10
8.265588297565339
 20
12.25322122309491
 30
0.0
 10
8.260332073208277
 20
12.25456870446783
 30
0.0
 10
8.249781138612487
 20
12.25727353342277
 30
0.0
 10
8.232278564317282
 20
12.263924735425
 30
0.0
 10
8.213855321203152
 20
12.27220350204578
 30
0.0
 10
8.200866917478576
 20
12.27920437660181
 30
0.0
 10
8.19435240137645
 20
12.28271576345052
 30
0.0
  0
LINE
  5
154
330
1F
100
AcDbEntity
  8
0
  6
Continuous
 62
     7
370
    25
100
AcDbLine
 10
8.312254651
 20
12.2532212231
 30
0.0
 11
8.2655882976
 21
12.2532212231
 31
0.0
  0
LINE
  5
155
330
1F
100
AcDbEntity
  8
0
  6
Continuous
 62
     7
370
    25
100
AcDbLine
 10
8.312254651
 20
12.1502157873
 30
0.0
 11
8.312254651
 21
12.2532212231
 31
0.0
  0
LINE
  5
156
330
1F
100
AcDbEntity
  8
0
  6
Continuous
 62
     7
370
    25
100
AcDbLine
 10
8.3121816744
 20
12.1484733604
 30
0.0
 11
8.312254651
 21
12.1502157873
 31
0.0
  0
LINE
  5
157
330
1F
100
AcDbEntity
  8
0
  6
Continuous
 62
     7
370
    25
100
AcDbLine
 10
8.1944546525
 20
12.1484733604
 30
0.0
 11
8.3121816744
 21
12.1484733604
 31
0.0
  0
SPLINE
  5
158
330
1F
100
AcDbEntity
  8
0
  6
Continuous
 62
     7
370
    25
100
AcDbSpline
210
0.0
220
0.0
230
1.0
 70
     8
 71
     3
 72
    10
 73
     6
 74
     0
 42
0.00000001
 43
0.00000001
 40
0.0
 40
0.0
 40
0.0
 40
0.0
 40
0.3209381431932753
 40
0.6592399743966516
 40
1.0
 40
1.0
 40
1.0
 40
1.0
 10
8.212333726999715
 20
12.27514210356209
 30
0.0
 10
8.218221196563082
 20
12.2723787340944
 30
0.0
 10
8.230314664935511
 20
12.26670248882481
 30
0.0
 10
8.247363133986031
 20
12.26028807493965
 30
0.0
 10
8.257787966026287
 20
12.2575801079773
 30
0.0
 10
8.263019250919323
 20
12.2562212230949
 30
0.0
  0
SPLINE
  5
159
330
1F
100
AcDbEntity
  8
0
  6
Continuous
 62
     7
370
    25
100
AcDbSpline
210
0.0
220
0.0
230
1.0
 70
     8
 71
     3
 72
    13
 73
     9
 74
     0
 42
0.00000001
 43
0.00000001
 40
0.0
 40
0.0
 40
0.0
 40
0.0
 40
0.0450838408431456
 40
0.1423612177183524
 40
0.3570576764388277
 40
0.5714659061395498
 40
0.7857353221861706
 40
1.0
 40
1.0
 40
1.0
 40
1.0
 10
8.265588297565339
 20
12.25322122309491
 30
0.0
 10
8.265588728930798
 20
12.25329171110584
 30
0.0
 10
8.265590091053248
 20
12.25351429105648
 30
0.0
 10
8.265529684718675
 20
12.25406818035314
 30
0.0
 10
8.265268708158137
 20
12.25484623724618
 30
0.0
 10
8.264685605711456
 20
12.2556058115027
 30
0.0
 10
8.263907918194075
 20
12.25612194872224
 30
0.0
 10
8.263315471160709
 20
12.25618813188128
 30
0.0
 10
8.263019250919323
 20
12.2562212230949
 30
0.0
  0
SPLINE
  5
15A
330
1F
100
AcDbEntity
  8
0
  6
Continuous
 62
     7
370
    25
100
AcDbSpline
210
0.0
220
0.0
230
1.0
 70
     8
 71
     3
 72
    12
 73
     8
 74
     0
 42
0.00000001
 43
0.00000001
 40
0.0
 40
0.0
 40
0.0
 40
0.0
 40
0.2610466257349969
 40
0.5203567671401822
 40
0.8317512029511721
 40
0.9869218091754013
 40
1.0
 40
1.0
 40
1.0
 40
1.0
 10
8.31218167435189
 20
12.1484733604001
 30
0.0
 10
8.312065813794227
 20
12.14791353472037
 30
0.0
 10
8.311834863384297
 20
12.14679760732599
 30
0.0
 10
8.310771038400008
 20
12.14536912685428
 30
0.0
 10
8.309562279140811
 20
12.1444425873925
 30
0.0
 10
8.308649252036702
 20
12.14402272479681
 30
0.0
 10
8.30831838821935
 20
12.14390111631395
 30
0.0
 10
8.308292669758261
 20
12.14389166353346
 30
0.0
  0
SPLINE
  5
15B
330
1F
100
AcDbEntity
  8
0
  6
Continuous
 62
     7
370
    25
100
AcDbSpline
210
0.0
220
0.0
230
1.0
 70
     8
 71
     3
 72
    11
 73
     7
 74
     0
 42
0.00000001
 43
0.00000001
 40
0.0
 40
0.0
 40
0.0
 40
0.0
 40
0.2419117138571186
 40
0.4852111676220892
 40
0.7416738302413936
 40
1.0
 40
1.0
 40
1.0
 40
1.0
 10
7.242063077375196
 20
12.28469806297823
 30
0.0
 10
7.245338873841199
 20
12.28139601826422
 30
0.0
 10
7.251909258560557
 20
12.27477298647434
 30
0.0
 10
7.264057943158295
 20
12.26680264313043
 30
0.0
 10
7.277971495260785
 20
12.26026227284565
 30
0.0
 10
7.288935252277943
 20
12.25757148651113
 30
0.0
 10
7.294436974883935
 20
12.25622122309492
 30
0.0
  0
SPLINE
  5
15C
330
1F
100
AcDbEntity
  8
0
  6
Continuous
 62
     7
370
    25
100
AcDbSpline
210
0.0
220
0.0
230
1.0
 70
     8
 71
     3
 72
    14
 73
    10
 74
     0
 42
0.00000001
 43
0.00000001
 40
0.0
 40
0.0
 40
0.0
 40
0.0
 40
0.0123665218871437
 40
0.0969757808039946
 40
0.3271475154371232
 40
0.5535950235607714
 40
0.7072875392127247
 40
0.8534794040890387
 40
1.0
 40
1.0
 40
1.0
 40
1.0
 10
7.242063077375196
 20
12.28469806297823
 30
0.0
 10
7.242041754454785
 20
12.2847042219902
 30
0.0
 10
7.24187454439566
 20
12.28475251972506
 30
0.0
 10
7.241304326581623
 20
12.28488183454
 30
0.0
 10
7.240342819395726
 20
12.28492387111896
 30
0.0
 10
7.239309874873829
 20
12.28464147367125
 30
0.0
 10
7.238567966104585
 20
12.28412143884787
 30
0.0
 10
7.23808744231436
 20
12.28349339409937
 30
0.0
 10
7.237982970028598
 20
12.28297516766506
 30
0.0
 10
7.237930675221862
 20
12.28271576345054
 30
0.0
  0
SPLINE
  5
15D
330
1F
100
AcDbEntity
  8
0
  6
Continuous
 62
     7
370
    25
100
AcDbSpline
210
0.0
220
0.0
230
1.0
 70
     8
 71
     3
 72
     9
 73
     5
 74
     0
 42
0.00000001
 43
0.00000001
 40
0.0
 40
0.0
 40
0.0
 40
0.0
 40
0.5820988169660193
 40
1.0
 40
1.0
 40
1.0
 40
1.0
 10
7.355177507007727
 20
12.25622122309491
 30
0.0
 10
7.349613890256982
 20
12.25752817188956
 30
0.0
 10
7.340056034118837
 20
12.25977340715985
 30
0.0
 10
7.33227165608009
 20
12.26379555584941
 30
0.0
 10
7.329018555288514
 20
12.26547641654511
 30
0.0
  0
LINE
  5
15E
330
1F
100
AcDbEntity
  8
0
  6
Continuous
 62
     7
370
    25
100
AcDbLine
 10
7.3045305739
 20
12.284698063
 30
0.0
 11
7.2420630774
 21
12.284698063
 31
0.0
  0
SPLINE
  5
15F
330
1F
100
AcDbEntity
  8
0
  6
Continuous
 62
     7
370
    25
100
AcDbSpline
210
0.0
220
0.0
230
1.0
 70
     8
 71
     3
 72
    12
 73
     8
 74
     0
 42
0.00000001
 43
0.00000001
 40
0.0
 40
0.0
 40
0.0
 40
0.0
 40
0.2217181155122833
 40
0.4435284651931661
 40
0.6625812968590316
 40
0.8762617802494704
 40
1.0
 40
1.0
 40
1.0
 40
1.0
 10
8.309541525925841
 20
12.25622122309491
 30
0.0
 10
8.309852540581893
 20
12.25618682036179
 30
0.0
 10
8.310474699275295
 20
12.25611800058412
 30
0.0
 10
8.3113012771842
 20
12.25557972527987
 30
0.0
 10
8.31191383673815
 20
12.25479150866202
 30
0.0
 10
8.312215788900302
 20
12.25395236717064
 30
0.0
 10
8.312244223468195
 20
12.25341740461539
 30
0.0
 10
8.312254650995706
 20
12.25322122309491
 30
0.0
  0
LINE
  5
160
330
1F
100
AcDbEntity
  8
0
  6
Continuous
 62
     7
370
    25
100
AcDbLine
 10
8.2630192509
 20
12.2562212231
 30
0.0
 11
8.3095415259
 21
12.2562212231
 31
0.0
  0
SPLINE
  5
161
330
1F
100
AcDbEntity
  8
0
  6
Continuous
 62
     7
370
    25
100
AcDbSpline
210
0.0
220
0.0
230
1.0
 70
     8
 71
     3
 72
    10
 73
     6
 74
     0
 42
0.00000001
 43
0.00000001
 40
0.0
 40
0.0
 40
0.0
 40
0.0
 40
0.0416190951459687
 40
0.5346278049930345
 40
1.0
 40
1.0
 40
1.0
 40
1.0
 10
7.304530573913163
 20
12.28469806297822
 30
0.0
 10
7.304539001235707
 20
12.28470296506754
 30
0.0
 10
7.304647256375277
 20
12.28476593600058
 30
0.0
 10
7.304851220664565
 20
12.28488021540661
 30
0.0
 10
7.305007047036512
 20
12.2848342898532
 30
0.0
 10
7.305082713465576
 20
12.28481198924652
 30
0.0
  0
LINE
  5
162
330
1F
100
AcDbEntity
  8
0
  6
Continuous
 62
     7
370
    25
100
AcDbLine
 10
7.3054860509
 20
12.2847603688
 30
0.0
 11
7.3055657769
 21
12.2846291668
 31
0.0
  0
SPLINE
  5
163
330
1F
100
AcDbEntity
  8
0
  6
Continuous
 62
     7
370
    25
100
AcDbSpline
210
0.0
220
0.0
230
1.0
 70
     8
 71
     3
 72
    12
 73
     8
 74
     0
 42
0.00000001
 43
0.00000001
 40
0.0
 40
0.0
 40
0.0
 40
0.0
 40
0.0130781908268967
 40
0.1682487970429488
 40
0.4796432328532037
 40
0.7389533742626347
 40
1.0
 40
1.0
 40
1.0
 40
1.0
 10
7.231191513394425
 20
12.14389166353348
 30
0.0
 10
7.231165794933327
 20
12.14390111631396
 30
0.0
 10
7.23083493111595
 20
12.1440227247968
 30
0.0
 10
7.229921904011936
 20
12.14444258739255
 30
0.0
 10
7.22871314475274
 20
12.1453691268543
 30
0.0
 10
7.22764931976837
 20
12.146797607326
 30
0.0
 10
7.227418369358478
 20
12.14791353472038
 30
0.0
 10
7.227302508800835
 20
12.14847336040011
 30
0.0
  0
LINE
  5
164
330
1F
100
AcDbEntity
  8
0
  6
Continuous
 62
     7
370
    25
100
AcDbLine
 10
7.2273025088
 20
12.1484733604
 30
0.0
 11
7.2272295322
 21
12.1502157873
 31
0.0
  0
SPLINE
  5
165
330
1F
100
AcDbEntity
  8
0
  6
Continuous
 62
     7
370
    25
100
AcDbSpline
210
0.0
220
0.0
230
1.0
 70
     8
 71
     3
 72
    12
 73
     8
 74
     0
 42
0.00000001
 43
0.00000001
 40
0.0
 40
0.0
 40
0.0
 40
0.0
 40
0.2217181155072797
 40
0.4435284651944821
 40
0.6625812968590926
 40
0.8762617802470741
 40
0.9999999999999999
 40
0.9999999999999999
 40
0.9999999999999999
 40
0.9999999999999999
 10
7.229942657226817
 20
12.25622122309492
 30
0.0
 10
7.229631642570776
 20
12.2561868203618
 30
0.0
 10
7.229009483877373
 20
12.25611800058412
 30
0.0
 10
7.228182905968484
 20
12.25557972527989
 30
0.0
 10
7.227570346414541
 20
12.25479150866204
 30
0.0
 10
7.22726839425246
 20
12.25395236717064
 30
0.0
 10
7.22723995968452
 20
12.2534174046154
 30
0.0
 10
7.227229532156992
 20
12.25322122309492
 30
0.0
  0
LINE
  5
166
330
1F
100
AcDbEntity
  8
0
  6
Continuous
 62
     7
370
    25
100
AcDbLine
 10
7.2272295322
 20
12.1502157873
 30
0.0
 11
7.2272295322
 21
12.2532212231
 31
0.0
  0
LINE
  5
167
330
1F
100
AcDbEntity
  8
0
  6
Continuous
 62
     7
370
    25
100
AcDbLine
 10
7.2378915788
 20
12.2562212231
 30
0.0
 11
7.2299426572
 21
12.2562212231
 31
0.0
  0
LINE
  5
168
330
1F
100
AcDbEntity
  8
0
  6
Continuous
 62
     7
370
    25
100
AcDbLine
 10
8.2337838463
 20
12.2709636754
 30
0.0
 11
8.2337838463
 21
12.2656949003
 31
0.0
  0
SPLINE
  5
169
330
1F
100
AcDbEntity
  8
0
  6
Continuous
 62
     7
370
    25
100
AcDbSpline
210
0.0
220
0.0
230
1.0
 70
     8
 71
     3
 72
    12
 73
     8
 74
     0
 42
0.00000001
 43
0.00000001
 40
0.0
 40
0.0
 40
0.0
 40
0.0
 40
0.1130801401032239
 40
0.4115717066710042
 40
0.614161349369544
 40
0.8068640164453909
 40
1.0
 40
1.0
 40
1.0
 40
1.0
 10
8.298686757365498
 20
12.28484491875533
 30
0.0
 10
8.298837826461732
 20
12.28485588251101
 30
0.0
 10
8.299387664529721
 20
12.28489578670314
 30
0.0
 10
8.300173845382218
 20
12.2846321939491
 30
0.0
 10
8.30091631424746
 20
12.28412338741004
 30
0.0
 10
8.301396716984586
 20
12.28349291590123
 30
0.0
 10
8.301501205166907
 20
12.28297500814636
 30
0.0
 10
8.301553507930848
 20
12.28271576345052
 30
0.0
  0
LINE
  5
16A
330
1F
100
AcDbEntity
  8
0
  6
Continuous
 62
     7
370
    25
100
AcDbLine
 10
8.3015535079
 20
12.2827157635
 30
0.0
 11
8.3015926044
 21
12.2818859656
 31
0.0
  0
LINE
  5
16B
330
1F
100
AcDbEntity
  8
0
  6
Continuous
 62
     7
370
    25
100
AcDbLine
 10
8.3015926044
 20
12.2562212231
 30
0.0
 11
8.3015926044
 21
12.2818859656
 31
0.0
  0
LINE
  5
16C
330
1F
100
AcDbEntity
  8
0
  6
Continuous
 62
     7
370
    25
100
AcDbLine
 10
7.6057420916
 20
13.9562212231
 30
0.0
 11
7.2747420916
 21
13.9562212231
 31
0.0
  0
LINE
  5
16D
330
1F
100
AcDbEntity
  8
0
  6
Continuous
 62
     7
370
    25
100
AcDbLine
 10
8.2647420916
 20
13.9562212231
 30
0.0
 11
7.9337420916
 21
13.9562212231
 31
0.0
  0
LINE
  5
16E
330
1F
100
AcDbEntity
  8
0
  6
Continuous
 62
     7
370
    25
100
AcDbLine
 10
10.2587579614
 20
14.8754600386
 30
0.0
 11
8.6889809071
 21
16.4452370929
 31
0.0
  0
LINE
  5
16F
330
1F
100
AcDbEntity
  8
0
  6
Continuous
 62
     7
370
    25
100
AcDbLine
 10
7.3109576274
 20
12.1216508898
 30
0.0
 11
7.2890536385
 21
12.1216508898
 31
0.0
  0
LINE
  5
170
330
1F
100
AcDbEntity
  8
0
  6
Continuous
 62
     7
370
    25
100
AcDbLine
 10
8.2504305447
 20
12.1216508898
 30
0.0
 11
8.2367907813
 21
12.1216508898
 31
0.0
  0
SPLINE
  5
171
330
1F
100
AcDbEntity
  8
0
  6
Continuous
 62
     7
370
    25
100
AcDbSpline
210
0.0
220
0.0
230
1.0
 70
     8
 71
     3
 72
    10
 73
     6
 74
     0
 42
0.00000001
 43
0.00000001
 40
0.0
 40
0.0
 40
0.0
 40
0.0
 40
0.1358208229429422
 40
0.5665264785491152
 40
1.0
 40
1.0
 40
1.0
 40
1.0
 10
7.329018555288514
 20
12.26547641654511
 30
0.0
 10
7.327639870636647
 20
12.26609617302786
 30
0.0
 10
7.321889196005701
 20
12.26868125865846
 30
0.0
 10
7.313558738158641
 20
12.2749869370134
 30
0.0
 10
7.307546380956315
 20
12.28145411644764
 30
0.0
 10
7.304530573913163
 20
12.28469806297822
 30
0.0
  0
LINE
  5
172
330
1F
100
AcDbEntity
  8
0
  6
Continuous
 62
     7
370
    25
100
AcDbLine
 10
7.2847420916
 20
12.1266032662
 30
0.0
 11
7.2879294166
 21
12.1266032662
 31
0.0
  0
SPLINE
  5
173
330
1F
100
AcDbEntity
  8
0
  6
Continuous
 62
     7
370
    25
100
AcDbSpline
210
0.0
220
0.0
230
1.0
 70
     8
 71
     3
 72
     9
 73
     5
 74
     0
 42
0.00000001
 43
0.00000001
 40
0.0
 40
0.0
 40
0.0
 40
0.0
 40
0.7961052142381658
 40
1.0
 40
1.0
 40
1.0
 40
1.0
 10
7.22722953215703
 20
12.15021578734986
 30
0.0
 10
7.233020240716757
 20
12.14735789217894
 30
0.0
 10
7.240294038772795
 20
12.14376804611362
 30
0.0
 10
7.247853055483531
 20
12.14107255516845
 30
0.0
 10
7.249394299576336
 20
12.14052295861966
 30
0.0
  0
LINE
  5
174
330
1F
100
AcDbEntity
  8
0
  6
Continuous
 62
     7
370
    25
100
AcDbLine
 10
8.3015926044
 20
12.2818859656
 30
0.0
 11
8.2389741678
 21
12.2818859656
 31
0.0
  0
LINE
  5
175
330
1F
100
AcDbEntity
  8
0
  6
Continuous
 62
     7
370
    18
100
AcDbLine
 10
12.0512736517
 20
19.8075298374
 30
0.0
 11
12.9613895801
 21
18.897413909
 31
0.0
  0
POINT
  5
176
330
1F
100
AcDbEntity
  8
0
  6
Continuous
 62
     7
370
     0
100
AcDbPoint
 10
7.7697420916
 20
13.9562212231
 30
0.0
  0
DIMENSION
  5
177
330
1F
100
AcDbEntity
  8
0
  6
Continuous
 62
     7
370
    18
100
AcDbDimension
  2
_D
 10
5.9721179644
 20
12.3262212231
 30
0.0
 11
5.9721179644
 21
13.1412212231
 31
0.0
 70
   160
  1
<>
 71
     2
 42
-1.0
  3
SLDDIMSTYLE0
100
AcDbAlignedDimension
 13
7.7697420916
 23
13.9562212231
 33
0.0
 14
7.2747420916
 24
12.3262212231
 34
0.0
 50
90.0
100
AcDbRotatedDimension
  0
DIMENSION
  5
18C
330
1F
100
AcDbEntity
  8
0
  6
Continuous
 62
     7
370
    18
100
AcDbDimension
  2
_D_1
 10
10.3561969922
 20
21.5026064969
 30
0.0
 11
7.8229869486
 21
18.9693964533
 31
0.0
 70
   160
  1
<>
 71
     2
 42
-1.0
  3
SLDDIMSTYLE1
100
AcDbAlignedDimension
 13
7.7697420916
 23
13.9562212231
 33
0.0
 14
12.0512736517
 24
19.8075298374
 34
0.0
 50
45.0
100
AcDbRotatedDimension
  0
DIMENSION
  5
1A1
330
1F
100
AcDbEntity
  8
0
  6
Continuous
 62
     7
370
    18
100
AcDbDimension
  2
_D_2
 10
11.3316670349
 20
13.8166931007
 30
0.0
 11
12.0032978506
 21
14.4883239163
 31
0.0
 70
   160
  1
<>
 71
     2
 42
-1.0
  3
SLDDIMSTYLE1
100
AcDbAlignedDimension
 13
7.7697420916
 23
13.9562212231
 33
0.0
 14
10.2658290292
 24
14.8825311064
 34
0.0
 50
45.0
100
AcDbRotatedDimension
  0
DIMENSION
  5
1B6
330
1F
100
AcDbEntity
  8
0
  6
Continuous
 62
     7
370
    18
100
AcDbDimension
  2
_D_3
 10
13.3753608406
 20
21.1316170263
 30
0.0
 11
14.1602493677
 21
20.3467284992
 31
0.0
 70
   160
  1
%%c<>
 71
     2
 42
-1.0
  3
SLDDIMSTYLE0
100
AcDbAlignedDimension
 13
11.4325552181
 23
16.0492572954
 33
0.0
 14
12.0512736517
 24
19.8075298374
 34
0.0
 50
-45.0
100
AcDbRotatedDimension
  0
LINE
  5
1C9
330
1F
100
AcDbEntity
  8
0
  6
Continuous
 62
     7
370
    25
100
AcDbLine
 10
25.539615697
 20
16.4136176752
 30
0.0
 11
23.2689600946
 21
19.6248096236
 31
0.0
  0
LINE
  5
1CA
330
1F
100
AcDbEntity
  8
0
  6
Continuous
 62
     7
370
    25
100
AcDbLine
 10
22.3626488897
 20
17.0613744284
 30
0.0
 11
23.7269932873
 21
15.1319000776
 31
0.0
  0
LINE
  5
1CB
330
1F
100
AcDbEntity
  8
0
  6
Continuous
 62
     7
370
    25
100
AcDbLine
 10
26.1818980937
 20
12.4315604659
 30
0.0
 11
26.1818980937
 21
13.4960604659
 31
0.0
  0
LINE
  5
1CC
330
1F
100
AcDbEntity
  8
0
  6
Continuous
 62
     7
370
    25
100
AcDbLine
 10
25.1918980937
 20
13.6902961885
 30
0.0
 11
25.1918980937
 21
12.4315604659
 31
0.0
  0
LINE
  5
1CD
330
1F
100
AcDbEntity
  8
0
  6
Continuous
 62
     7
370
    25
100
AcDbLine
 10
26.1428980937
 20
12.3615604659
 30
0.0
 11
26.1367459802
 21
12.3646365227
 31
0.0
  0
LINE
  5
1CE
330
1F
100
AcDbEntity
  8
0
  6
Continuous
 62
     7
370
    25
100
AcDbLine
 10
25.2370502072
 20
12.3646365227
 30
0.0
 11
25.2308980937
 21
12.3615604659
 31
0.0
  0
LINE
  5
1CF
330
1F
100
AcDbEntity
  8
0
  6
Continuous
 62
     7
370
    25
100
AcDbLine
 10
26.1428980937
 20
12.2115604659
 30
0.0
 11
26.1148980937
 21
12.2255604659
 31
0.0
  0
LINE
  5
1D0
330
1F
100
AcDbEntity
  8
0
  6
Continuous
 62
     7
370
    25
100
AcDbLine
 10
25.2588980937
 20
12.2255604659
 30
0.0
 11
25.2308980937
 21
12.2115604659
 31
0.0
  0
LINE
  5
1D1
330
1F
100
AcDbEntity
  8
0
  6
Continuous
 62
     7
370
    25
100
AcDbLine
 10
25.2308980937
 20
12.2115604659
 30
0.0
 11
25.2808980937
 21
12.1865604659
 31
0.0
  0
LINE
  5
1D2
330
1F
100
AcDbEntity
  8
0
  6
Continuous
 62
     7
370
    25
100
AcDbLine
 10
26.0928980937
 20
12.1865604659
 30
0.0
 11
26.1428980937
 21
12.2115604659
 31
0.0
  0
LINE
  5
1D3
330
1F
100
AcDbEntity
  8
0
  6
Continuous
 62
     7
370
    25
100
AcDbLine
 10
26.1428980937
 20
12.0615604659
 30
0.0
 11
26.0928980937
 21
12.0865604659
 31
0.0
  0
LINE
  5
1D4
330
1F
100
AcDbEntity
  8
0
  6
Continuous
 62
     7
370
    25
100
AcDbLine
 10
25.2808980937
 20
12.0865604659
 30
0.0
 11
25.2308980937
 21
12.0615604659
 31
0.0
  0
LINE
  5
1D5
330
1F
100
AcDbEntity
  8
0
  6
Continuous
 62
     7
370
    25
100
AcDbLine
 10
25.2308980937
 20
12.0615604659
 30
0.0
 11
25.2808980937
 21
12.0365604659
 31
0.0
  0
LINE
  5
1D6
330
1F
100
AcDbEntity
  8
0
  6
Continuous
 62
     7
370
    25
100
AcDbLine
 10
26.0928980937
 20
12.0365604659
 30
0.0
 11
26.1428980937
 21
12.0615604659
 31
0.0
  0
LINE
  5
1D7
330
1F
100
AcDbEntity
  8
0
  6
Continuous
 62
     7
370
    25
100
AcDbLine
 10
25.2308980937
 20
12.1115604659
 30
0.0
 11
25.2808980937
 21
12.0865604659
 31
0.0
  0
LINE
  5
1D8
330
1F
100
AcDbEntity
  8
0
  6
Continuous
 62
     7
370
    25
100
AcDbLine
 10
26.0928980937
 20
12.0865604659
 30
0.0
 11
26.1428980937
 21
12.1115604659
 31
0.0
  0
LINE
  5
1D9
330
1F
100
AcDbEntity
  8
0
  6
Continuous
 62
     7
370
    25
100
AcDbLine
 10
26.1428980937
 20
12.1615604659
 30
0.0
 11
26.0928980937
 21
12.1865604659
 31
0.0
  0
LINE
  5
1DA
330
1F
100
AcDbEntity
  8
0
  6
Continuous
 62
     7
370
    25
100
AcDbLine
 10
25.2808980937
 20
12.1865604659
 30
0.0
 11
25.2308980937
 21
12.1615604659
 31
0.0
  0
LINE
  5
1DB
330
1F
100
AcDbEntity
  8
0
  6
Continuous
 62
     7
370
    25
100
AcDbLine
 10
26.1428980937
 20
12.1115604659
 30
0.0
 11
26.0928980937
 21
12.1365604659
 31
0.0
  0
LINE
  5
1DC
330
1F
100
AcDbEntity
  8
0
  6
Continuous
 62
     7
370
    25
100
AcDbLine
 10
25.2808980937
 20
12.1365604659
 30
0.0
 11
25.2308980937
 21
12.1115604659
 31
0.0
  0
LINE
  5
1DD
330
1F
100
AcDbEntity
  8
0
  6
Continuous
 62
     7
370
    25
100
AcDbLine
 10
25.2308980937
 20
12.1615604659
 30
0.0
 11
25.2808980937
 21
12.1365604659
 31
0.0
  0
LINE
  5
1DE
330
1F
100
AcDbEntity
  8
0
  6
Continuous
 62
     7
370
    25
100
AcDbLine
 10
26.0928980937
 20
12.1365604659
 30
0.0
 11
26.1428980937
 21
12.1615604659
 31
0.0
  0
LINE
  5
1DF
330
1F
100
AcDbEntity
  8
0
  6
Continuous
 62
     7
370
    25
100
AcDbLine
 10
26.1428980937
 20
12.0115604659
 30
0.0
 11
26.0928980937
 21
12.0365604659
 31
0.0
  0
LINE
  5
1E0
330
1F
100
AcDbEntity
  8
0
  6
Continuous
 62
     7
370
    25
100
AcDbLine
 10
25.2808980937
 20
12.0365604659
 30
0.0
 11
25.2308980937
 21
12.0115604659
 31
0.0
  0
LINE
  5
1E1
330
1F
100
AcDbEntity
  8
0
  6
Continuous
 62
     7
370
    25
100
AcDbLine
 10
26.1428980937
 20
11.9115604659
 30
0.0
 11
26.0928980937
 21
11.9365604659
 31
0.0
  0
LINE
  5
1E2
330
1F
100
AcDbEntity
  8
0
  6
Continuous
 62
     7
370
    25
100
AcDbLine
 10
25.2808980937
 20
11.9365604659
 30
0.0
 11
25.2308980937
 21
11.9115604659
 31
0.0
  0
LINE
  5
1E3
330
1F
100
AcDbEntity
  8
0
  6
Continuous
 62
     7
370
    25
100
AcDbLine
 10
25.2308980937
 20
11.9615604659
 30
0.0
 11
25.2808980937
 21
11.9365604659
 31
0.0
  0
LINE
  5
1E4
330
1F
100
AcDbEntity
  8
0
  6
Continuous
 62
     7
370
    25
100
AcDbLine
 10
26.0928980937
 20
11.9365604659
 30
0.0
 11
26.1428980937
 21
11.9615604659
 31
0.0
  0
LINE
  5
1E5
330
1F
100
AcDbEntity
  8
0
  6
Continuous
 62
     7
370
    25
100
AcDbLine
 10
25.2308980937
 20
12.0115604659
 30
0.0
 11
25.2808980937
 21
11.9865604659
 31
0.0
  0
LINE
  5
1E6
330
1F
100
AcDbEntity
  8
0
  6
Continuous
 62
     7
370
    25
100
AcDbLine
 10
26.0928980937
 20
11.9865604659
 30
0.0
 11
26.1428980937
 21
12.0115604659
 31
0.0
  0
LINE
  5
1E7
330
1F
100
AcDbEntity
  8
0
  6
Continuous
 62
     7
370
    25
100
AcDbLine
 10
25.2308980937
 20
11.9115604659
 30
0.0
 11
25.2808980937
 21
11.8865604659
 31
0.0
  0
LINE
  5
1E8
330
1F
100
AcDbEntity
  8
0
  6
Continuous
 62
     7
370
    25
100
AcDbLine
 10
26.0928980937
 20
11.8865604659
 30
0.0
 11
26.1428980937
 21
11.9115604659
 31
0.0
  0
LINE
  5
1E9
330
1F
100
AcDbEntity
  8
0
  6
Continuous
 62
     7
370
    25
100
AcDbLine
 10
26.1428980937
 20
11.9615604659
 30
0.0
 11
26.0928980937
 21
11.9865604659
 31
0.0
  0
LINE
  5
1EA
330
1F
100
AcDbEntity
  8
0
  6
Continuous
 62
     7
370
    25
100
AcDbLine
 10
25.2808980937
 20
11.9865604659
 30
0.0
 11
25.2308980937
 21
11.9615604659
 31
0.0
  0
LINE
  5
1EB
330
1F
100
AcDbEntity
  8
0
  6
Continuous
 62
     7
370
    25
100
AcDbLine
 10
26.1428980937
 20
11.8615604659
 30
0.0
 11
26.0928980937
 21
11.8865604659
 31
0.0
  0
LINE
  5
1EC
330
1F
100
AcDbEntity
  8
0
  6
Continuous
 62
     7
370
    25
100
AcDbLine
 10
25.2808980937
 20
11.8865604659
 30
0.0
 11
25.2308980937
 21
11.8615604659
 31
0.0
  0
LINE
  5
1ED
330
1F
100
AcDbEntity
  8
0
  6
Continuous
 62
     7
370
    25
100
AcDbLine
 10
25.2308980937
 20
11.8615604659
 30
0.0
 11
25.2808980937
 21
11.8365604659
 31
0.0
  0
LINE
  5
1EE
330
1F
100
AcDbEntity
  8
0
  6
Continuous
 62
     7
370
    25
100
AcDbLine
 10
26.0928980937
 20
11.8365604659
 30
0.0
 11
26.1428980937
 21
11.8615604659
 31
0.0
  0
LINE
  5
1EF
330
1F
100
AcDbEntity
  8
0
  6
Continuous
 62
     7
370
    25
100
AcDbLine
 10
25.2808980937
 20
11.8365604659
 30
0.0
 11
25.3108980937
 21
11.8065604659
 31
0.0
  0
LINE
  5
1F0
330
1F
100
AcDbEntity
  8
0
  6
Continuous
 62
     7
370
    25
100
AcDbLine
 10
26.0628980937
 20
11.8065604659
 30
0.0
 11
26.0928980937
 21
11.8365604659
 31
0.0
  0
LINE
  5
1F1
330
1F
100
AcDbEntity
  8
0
  6
Continuous
 62
     7
370
    25
100
AcDbLine
 10
26.467115697
 20
15.1019345961
 30
0.0
 11
25.544615697
 21
16.4065466074
 31
0.0
  0
LINE
  5
1F2
330
1F
100
AcDbEntity
  8
0
  6
Continuous
 62
     7
370
    25
100
AcDbLine
 10
23.7319932873
 20
15.1248290098
 30
0.0
 11
24.6544932873
 21
13.8202169985
 31
0.0
  0
LINE
  5
1F3
330
1F
100
AcDbEntity
  8
0
  6
Continuous
 62
     7
370
    25
100
AcDbLine
 10
25.0058044922
 20
13.6761872702
 30
0.0
 11
25.0358044922
 21
13.6761872702
 31
0.0
  0
LINE
  5
1F4
330
1F
100
AcDbEntity
  8
0
  6
Continuous
 62
     7
370
    25
100
AcDbLine
 10
26.4758044922
 20
14.6944210351
 30
0.0
 11
26.4858044922
 21
14.7227053063
 31
0.0
  0
ARC
  5
1F5
330
1F
100
AcDbEntity
  8
0
  6
Continuous
 62
     7
370
    25
100
AcDbCircle
 10
25.8433044922
 20
14.0615604659
 30
0.0
 40
0.4950000000000013
100
AcDbArc
 50
270.0
 51
33.3321302685
  0
LINE
  5
1F6
330
1F
100
AcDbEntity
  8
0
  6
Continuous
 62
     7
370
    25
100
AcDbLine
 10
25.776129348
 20
13.5665604659
 30
0.0
 11
25.8433044922
 21
13.5665604659
 31
0.0
  0
LINE
  5
1F7
330
1F
100
AcDbEntity
  8
0
  6
Continuous
 62
     7
370
    25
100
AcDbLine
 10
25.4942007818
 20
16.2860202468
 30
0.0
 11
25.495960385
 21
16.2913220765
 31
0.0
  0
LINE
  5
1F8
330
1F
100
AcDbEntity
  8
0
  6
Continuous
 62
     7
370
    25
100
AcDbLine
 10
25.4516449744
 20
16.3994143467
 30
0.0
 11
25.4466700574
 21
16.4019551739
 31
0.0
  0
LINE
  5
1F9
330
1F
100
AcDbEntity
  8
0
  6
Continuous
 62
     7
370
    25
100
AcDbLine
 10
23.8989378255
 20
15.1839274895
 30
0.0
 11
23.9004711588
 21
15.1795905679
 31
0.0
  0
LINE
  5
1FA
330
1F
100
AcDbEntity
  8
0
  6
Continuous
 62
     7
370
    25
100
AcDbLine
 10
23.9850044922
 20
15.1198164746
 30
0.0
 11
23.9896044922
 21
15.1198164746
 31
0.0
  0
ARC
  5
1FB
330
1F
100
AcDbEntity
  8
0
  6
Continuous
 62
     7
370
    25
100
AcDbCircle
 10
26.1223980937
 20
12.3965604659
 30
0.0
 40
0.0350000000000012
100
AcDbArc
 50
294.2010415327
 51
90.0
  0
ARC
  5
1FC
330
1F
100
AcDbEntity
  8
0
  6
Continuous
 62
     7
370
    25
100
AcDbCircle
 10
25.2513980937
 20
12.3965604659
 30
0.0
 40
0.0350000000000025
100
AcDbArc
 50
90.0
 51
245.7989584673
  0
ARC
  5
1FD
330
1F
100
AcDbEntity
  8
0
  6
Continuous
 62
     7
370
    25
100
AcDbCircle
 10
26.1262793595
 20
12.5241327183
 30
0.0
 40
0.3
100
AcDbArc
 50
275.5921022903
 51
277.9142345778
  0
ARC
  5
1FE
330
1F
100
AcDbEntity
  8
0
  6
Continuous
 62
     7
370
    25
100
AcDbCircle
 10
25.2475168278
 20
12.5241327183
 30
0.0
 40
0.3000000000000004
100
AcDbArc
 50
262.0857654223
 51
264.4078977097
  0
SPLINE
  5
1FF
330
1F
100
AcDbEntity
  8
0
  6
Continuous
 62
     7
370
    25
100
AcDbSpline
210
0.0
220
0.0
230
1.0
 70
     8
 71
     3
 72
    13
 73
     9
 74
     0
 42
0.00000001
 43
0.00000001
 40
0.0
 40
0.0
 40
0.0
 40
0.0
 40
0.0731117493991006
 40
0.2970222632555139
 40
0.5230345710173376
 40
0.7508627848869935
 40
0.9782483206644738
 40
1.0
 40
1.0
 40
1.0
 40
1.0
 10
25.44098763139528
 20
12.25296053581514
 30
0.0
 10
25.44142980441631
 20
12.25206672205207
 30
0.0
 10
25.44322616727916
 20
12.24843553296115
 30
0.0
 10
25.44655366939987
 20
12.24310754358511
 30
0.0
 10
25.45099161539639
 20
12.23695847222883
 30
0.0
 10
25.45570684458533
 20
12.23206512033689
 30
0.0
 10
25.45910776756563
 20
12.22907214337536
 30
0.0
 10
25.46103721578045
 20
12.22810506090568
 30
0.0
 10
25.46120567210217
 20
12.22802062684086
 30
0.0
  0
LINE
  5
200
330
1F
100
AcDbEntity
  8
0
  6
Continuous
 62
     7
370
    25
100
AcDbLine
 10
25.4608272176
 20
12.3902252084
 30
0.0
 11
25.443600564
 21
12.3902252084
 31
0.0
  0
LINE
  5
201
330
1F
100
AcDbEntity
  8
0
  6
Continuous
 62
     7
370
    25
100
AcDbLine
 10
26.0023686021
 20
12.3902252084
 30
0.0
 11
25.947171582
 21
12.3902252084
 31
0.0
  0
LINE
  5
202
330
1F
100
AcDbEntity
  8
0
  6
Continuous
 62
     7
370
    25
100
AcDbLine
 10
26.1657730153
 20
12.2478761897
 30
0.0
 11
26.1693602489
 21
12.2500650598
 31
0.0
  0
ARC
  5
203
330
1F
100
AcDbEntity
  8
0
  6
Continuous
 62
     7
370
    25
100
AcDbCircle
 10
26.1668980937
 20
12.231942509
 30
0.0
 40
0.0049999999999997
100
AcDbArc
 50
277.9142345778
 51
0.0
  0
LINE
  5
204
330
1F
100
AcDbEntity
  8
0
  6
Continuous
 62
     7
370
    25
100
AcDbLine
 10
26.1718980937
 20
12.231942509
 30
0.0
 11
26.1718980937
 21
12.2526805485
 31
0.0
  0
LINE
  5
205
330
1F
100
AcDbEntity
  8
0
  6
Continuous
 62
     7
370
    25
100
AcDbLine
 10
25.2025354827
 20
12.3877179858
 30
0.0
 11
25.2024133579
 21
12.3890061328
 31
0.0
  0
SPLINE
  5
206
330
1F
100
AcDbEntity
  8
0
  6
Continuous
 62
     7
370
    25
100
AcDbSpline
210
0.0
220
0.0
230
1.0
 70
     8
 71
     3
 72
    14
 73
    10
 74
     0
 42
0.00000001
 43
0.00000001
 40
0.0
 40
0.0
 40
0.0
 40
0.0
 40
0.0913694988395696
 40
0.2562263493380295
 40
0.4264707908661989
 40
0.6013200372059274
 40
0.7770262699200257
 40
0.9513482849740634
 40
0.9999999999999999
 40
0.9999999999999999
 40
0.9999999999999999
 40
0.9999999999999999
 10
25.22042952180698
 20
12.36176564120878
 30
0.0
 10
25.21944302652309
 20
12.36214554982822
 30
0.0
 10
25.21667661006641
 20
12.36321092284523
 30
0.0
 10
25.21300878712083
 20
12.36575594130016
 30
0.0
 10
25.20928331853347
 20
12.36939597610745
 30
0.0
 10
25.20628629631826
 20
12.37392052310254
 30
0.0
 10
25.20408865848015
 20
12.37938172593303
 30
0.0
 10
25.20284427166309
 20
12.38400667817876
 30
0.0
 10
25.20259079092969
 20
12.38705324144582
 30
0.0
 10
25.20253548274428
 20
12.38771798579855
 30
0.0
  0
LINE
  5
207
330
1F
100
AcDbEntity
  8
0
  6
Continuous
 62
     7
370
    25
100
AcDbLine
 10
25.2005537293
 20
12.3902252084
 30
0.0
 11
25.1281300556
 21
12.3902252084
 31
0.0
  0
LWPOLYLINE
  5
208
330
1F
100
AcDbEntity
  8
0
  6
Continuous
 62
     7
370
    25
100
AcDbPolyline
 90
        3
 70
   128
 43
0.0
 10
25.2052375491
 20
12.2272263038
 10
25.2053384954
 20
12.2271919666
 10
25.2062096405
 20
12.2269901326
  0
LINE
  5
209
330
1F
100
AcDbEntity
  8
0
  6
Continuous
 62
     7
370
    25
100
AcDbLine
 10
26.2456661317
 20
12.3902252084
 30
0.0
 11
26.1732424581
 21
12.3902252084
 31
0.0
  0
LINE
  5
20A
330
1F
100
AcDbEntity
  8
0
  6
Continuous
 62
     7
370
    25
100
AcDbLine
 10
26.1534121886
 20
12.3617497845
 30
0.0
 11
26.1533967678
 21
12.3617445133
 31
0.0
  0
SPLINE
  5
20B
330
1F
100
AcDbEntity
  8
0
  6
Continuous
 62
     7
370
    25
100
AcDbSpline
210
0.0
220
0.0
230
1.0
 70
     8
 71
     3
 72
    14
 73
    10
 74
     0
 42
0.00000001
 43
0.00000001
 40
0.0
 40
0.0
 40
0.0
 40
0.0
 40
0.0670042741605954
 40
0.2457243545488741
 40
0.4244068407525569
 40
0.6041884383390617
 40
0.785671287174679
 40
0.9654629379246925
 40
1.0
 40
1.0
 40
1.0
 40
1.0
 10
26.17108311554581
 20
12.38650307832798
 30
0.0
 10
26.17098493060872
 20
12.38564188147181
 30
0.0
 10
26.1706248576045
 20
12.38248361964043
 30
0.0
 10
26.16919813040918
 20
12.37787691678592
 30
0.0
 10
26.16681474648531
 20
12.37269326414963
 30
0.0
 10
26.16362558932291
 20
12.36834585276082
 30
0.0
 10
26.15954891925267
 20
12.36483740394986
 30
0.0
 10
26.15614099177195
 20
12.36264590000445
 30
0.0
 10
26.15379088605857
 20
12.36187414545803
 30
0.0
 10
26.15341218856239
 20
12.36174978445047
 30
0.0
  0
LINE
  5
20C
330
1F
100
AcDbEntity
  8
0
  6
Continuous
 62
     7
370
    25
100
AcDbLine
 10
26.1714042583
 20
12.3889877972
 30
0.0
 11
26.1710831155
 21
12.3865030783
 31
0.0
  0
ELLIPSE
  5
20D
330
1F
100
AcDbEntity
  8
0
  6
Continuous
 62
     7
370
    25
100
AcDbEllipse
 10
22.8158044922
 20
18.343092026
 30
0.0
 11
-3.552713678800501E-15
 21
1.569777054234134
 31
0.0
210
0.0
220
0.0
230
1.0
 40
0.5
 41
0.0
 42
6.283185307179586
  0
LWPOLYLINE
  5
20E
330
1F
100
AcDbEntity
  8
0
  6
Continuous
 62
     7
370
    25
100
AcDbPolyline
 90
       76
 70
   128
 43
0.0
 10
24.0783044922
 20
14.9878703493
 10
24.1052767297
 20
14.9883229888
 10
24.132857987
 20
14.9896803855
 10
24.161016452
 20
14.9919409736
 10
24.1897196472
 20
14.9951021459
 10
24.2189344669
 20
14.9991602562
 10
24.2486272149
 20
15.0041106241
 10
24.2787636442
 20
15.0099475398
 10
24.3093089959
 20
15.0166642711
 10
24.3402280392
 20
15.0242530711
 10
24.3714851128
 20
15.032705187
 10
24.403044165
 20
15.0420108701
 10
24.4348687962
 20
15.0521593874
 10
24.4669223003
 20
15.0631390339
 10
24.4991677072
 20
15.0749371456
 10
24.5315678255
 20
15.087540115
 10
24.5640852854
 20
15.1009334057
 10
24.5966825818
 20
15.1151015704
 10
24.6293221174
 20
15.1300282675
 10
24.6619662462
 20
15.1456962808
 10
24.6945773169
 20
15.1620875391
 10
24.7271177164
 20
15.179183137
 10
24.7595499131
 20
15.1969633566
 10
24.7918365002
 20
15.2154076905
 10
24.8239402387
 20
15.2344948652
 10
24.8558241007
 20
15.2542028658
 10
24.8874513118
 20
15.2745089616
 10
24.9187853936
 20
15.2953897316
 10
24.9497902058
 20
15.3168210923
 10
24.9804299879
 20
15.3387783251
 10
25.0106694005
 20
15.3612361048
 10
25.0404735658
 20
15.384168529
 10
25.0698081082
 20
15.4075491477
 10
25.0986391936
 20
15.4313509941
 10
25.1269335686
 20
15.4555466154
 10
25.154658599
 20
15.4801081047
 10
25.181782307
 20
15.5050071333
 10
25.2082734086
 20
15.5302149828
 10
25.2341013493
 20
15.555702579
 10
25.2592363395
 20
15.5814405248
 10
25.283649389
 20
15.6073991345
 10
25.30731234
 20
15.6335484677
 10
25.3301979
 20
15.6598583641
 10
25.3522796733
 20
15.6862984784
 10
25.3735321908
 20
15.7128383149
 10
25.3939309404
 20
15.7394472629
 10
25.4134523944
 20
15.7660946321
 10
25.432074037
 20
15.7927496876
 10
25.4497743903
 20
15.8193816861
 10
25.466533039
 20
15.8459599105
 10
25.4823306538
 20
15.8724537058
 10
25.4971490141
 20
15.8988325146
 10
25.5109710285
 20
15.9250659119
 10
25.5237807549
 20
15.9511236404
 10
25.5355634189
 20
15.9769756456
 10
25.5463054303
 20
16.00259211
 10
25.5559943996
 20
16.0279434882
 10
25.5646191517
 20
16.05300054
 10
25.5721697388
 20
16.0777343652
 10
25.5786374522
 20
16.102116436
 10
25.5840148322
 20
16.1261186306
 10
25.5882956765
 20
16.149713265
 10
25.5914750477
 20
16.1728731258
 10
25.5935492788
 20
16.1955715004
 10
25.5945159774
 20
16.2177822091
 10
25.5943740285
 20
16.2394796343
 10
25.5931235958
 20
16.2606387505
 10
25.5907661215
 20
16.281235153
 10
25.5873043247
 20
16.3012450863
 10
25.5827421983
 20
16.3206454712
 10
25.577085004
 20
16.3394139316
 10
25.5703392669
 20
16.3575288202
 10
25.5625127674
 20
16.3749692436
 10
25.5536145324
 20
16.3917150861
 10
25.543654825
 20
16.4077470335
 10
25.539615697
 20
16.4136176752
  0
ARC
  5
20F
330
1F
100
AcDbEntity
  8
0
  6
Continuous
 62
     7
370
    25
100
AcDbCircle
 10
24.0418890505
 20
15.3995139081
 30
0.0
 40
0.4132511390312382
100
AcDbArc
 50
220.3595114665
 51
275.0554266543
  0
SPLINE
  5
210
330
1F
100
AcDbEntity
  8
0
  6
Continuous
 62
     7
370
    25
100
AcDbSpline
210
0.0
220
0.0
230
1.0
 70
    11
 71
     3
 72
    44
 73
    40
 74
     0
 42
0.00000001
 43
0.00000001
 40
0.0
 40
0.0
 40
0.0
 40
0.0
 40
0.0268132602862641
 40
0.0536266644322132
 40
0.0804383625137263
 40
0.1072502668899069
 40
0.1340938280604559
 40
0.1609373368108824
 40
0.1878020595931766
 40
0.2146665517760576
 40
0.2414968427518523
 40
0.2683270849932159
 40
0.2951211887164674
 40
0.3219154992981848
 40
0.3487279238935028
 40
0.3755404890686905
 40
0.4023972479766825
 40
0.42925386072912
 40
0.4561119243343719
 40
0.48296978107629
 40
0.5097838560717308
 40
0.5365979871666203
 40
0.563391504160777
 40
0.5901852501849743
 40
0.6170136515915113
 40
0.6438420984067942
 40
0.6707064229963747
 40
0.6975705372492003
 40
0.7244158069054037
 40
0.7512609385190698
 40
0.7780620098939791
 40
0.804863229385624
 40
0.8316638205822774
 40
0.8584646143373608
 40
0.8853091099274695
 40
0.9121535471252136
 40
0.9390180776821777
 40
0.9658823768778754
 40
1.0
 40
1.0
 40
1.0
 40
1.0
 10
23.26843017368198
 20
16.20415400440635
 30
0.0
 10
23.27019914422801
 20
16.20144529087008
 30
0.0
 10
23.27373709481104
 20
16.19602784926466
 30
0.0
 10
23.27711842374613
 20
16.18802715911234
 30
0.0
 10
23.27891135387028
 20
16.18042736799289
 30
0.0
 10
23.27901546520589
 20
16.17342968922442
 30
0.0
 10
23.27740518966898
 20
16.16728274113623
 30
0.0
 10
23.2741965531909
 20
16.16214255522564
 30
0.0
 10
23.26943184702835
 20
16.15822543076241
 30
0.0
 10
23.26331699034484
 20
16.1556088558563
 30
0.0
 10
23.25598597449619
 20
16.15443816125774
 30
0.0
 10
23.2476995340944
 20
16.1546884379119
 30
0.0
 10
23.23865731775019
 20
16.15641109354701
 30
0.0
 10
23.22913273550699
 20
16.15948613088611
 30
0.0
 10
23.21936758868345
 20
16.16387055434453
 30
0.0
 10
23.20962245295061
 20
16.169374395385
 30
0.0
 10
23.20016671160861
 20
16.1758660273914
 30
0.0
 10
23.19123702277408
 20
16.18310790835713
 30
0.0
 10
23.1831050964652
 20
16.19089823361902
 30
0.0
 10
23.17596114292112
 20
16.19898218781237
 30
0.0
 10
23.17004511364156
 20
16.20712588228268
 30
0.0
 10
23.1654723645677
 20
16.215099847257
 30
0.0
 10
23.16242940449222
 20
16.22267408915148
 30
0.0
 10
23.16094653005668
 20
16.22967278716608
 30
0.0
 10
23.16114422121481
 20
16.23588742014295
 30
0.0
 10
23.16296704289146
 20
16.24119978524814
 30
0.0
 10
23.16644858332858
 20
16.24543631416714
 30
0.0
 10
23.17143998206105
 20
16.24853802808039
 30
0.0
 10
23.17787069145437
 20
16.25038367350104
 30
0.0
 10
23.18550361160358
 20
16.25098010194706
 30
0.0
 10
23.19417161938009
 20
16.25026623682931
 30
0.0
 10
23.20358495352602
 20
16.24831104402306
 30
0.0
 10
23.21350135267745
 20
16.24511088056638
 30
0.0
 10
23.22361959607927
 20
16.24078530111997
 30
0.0
 10
23.23364079377725
 20
16.23539083724822
 30
0.0
 10
23.24328866303888
 20
16.22909610386956
 30
0.0
 10
23.2522103484385
 20
16.2220227642233
 30
0.0
 10
23.2610404250255
 20
16.21370629468264
 30
0.0
 10
23.26577904997299
 20
16.20758095495687
 30
0.0
 10
23.26843017368198
 20
16.20415400440635
 30
0.0
  0
SPLINE
  5
211
330
1F
100
AcDbEntity
  8
0
  6
Continuous
 62
     7
370
    25
100
AcDbSpline
210
0.0
220
0.0
230
1.0
 70
    11
 71
     3
 72
    44
 73
    40
 74
     0
 42
0.00000001
 43
0.00000001
 40
0.0
 40
0.0
 40
0.0
 40
0.0
 40
0.0268132602862638
 40
0.0536266644322139
 40
0.0804383625137263
 40
0.1072502668899066
 40
0.134093828060456
 40
0.1609373368108821
 40
0.1878020595931759
 40
0.2146665517760563
 40
0.241496842751851
 40
0.2683270849932146
 40
0.2951211887164658
 40
0.3219154992981828
 40
0.348727923893501
 40
0.3755404890686885
 40
0.4023972479766803
 40
0.4292538607291173
 40
0.4561119243343688
 40
0.4829697810762876
 40
0.5097838560717275
 40
0.5365979871666183
 40
0.5633915041607762
 40
0.5901852501849739
 40
0.6170136515915101
 40
0.6438420984067932
 40
0.6707064229963734
 40
0.6975705372491989
 40
0.7244158069054031
 40
0.7512609385190693
 40
0.7780620098939786
 40
0.8048632293856229
 40
0.8316638205822766
 40
0.8584646143373601
 40
0.8853091099274695
 40
0.9121535471252126
 40
0.9390180776821765
 40
0.9658823768778753
 40
1.0
 40
1.0
 40
1.0
 40
1.0
 10
24.00243017368198
 20
15.16612124962449
 30
0.0
 10
24.00419914422801
 20
15.16341253608823
 30
0.0
 10
24.00773709481104
 20
15.15799509448281
 30
0.0
 10
24.01111842374613
 20
15.14999440433049
 30
0.0
 10
24.01291135387029
 20
15.14239461321104
 30
0.0
 10
24.01301546520589
 20
15.13539693444258
 30
0.0
 10
24.01140518966898
 20
15.12924998635438
 30
0.0
 10
24.0081965531909
 20
15.12410980044378
 30
0.0
 10
24.00343184702835
 20
15.12019267598056
 30
0.0
 10
23.99731699034484
 20
15.11757610107446
 30
0.0
 10
23.98998597449619
 20
15.11640540647589
 30
0.0
 10
23.9816995340944
 20
15.11665568313005
 30
0.0
 10
23.9726573177502
 20
15.11837833876516
 30
0.0
 10
23.96313273550699
 20
15.12145337610426
 30
0.0
 10
23.95336758868346
 20
15.12583779956268
 30
0.0
 10
23.94362245295061
 20
15.13134164060315
 30
0.0
 10
23.93416671160861
 20
15.13783327260955
 30
0.0
 10
23.92523702277408
 20
15.14507515357528
 30
0.0
 10
23.9171050964652
 20
15.15286547883717
 30
0.0
 10
23.90996114292113
 20
15.16094943303052
 30
0.0
 10
23.90404511364155
 20
15.16909312750083
 30
0.0
 10
23.8994723645677
 20
15.17706709247515
 30
0.0
 10
23.89642940449222
 20
15.18464133436963
 30
0.0
 10
23.89494653005669
 20
15.19164003238423
 30
0.0
 10
23.89514422121481
 20
15.1978546653611
 30
0.0
 10
23.89696704289146
 20
15.20316703046629
 30
0.0
 10
23.90044858332858
 20
15.20740355938529
 30
0.0
 10
23.90543998206104
 20
15.21050527329854
 30
0.0
 10
23.91187069145437
 20
15.21235091871919
 30
0.0
 10
23.91950361160358
 20
15.21294734716521
 30
0.0
 10
23.92817161938009
 20
15.21223348204746
 30
0.0
 10
23.93758495352602
 20
15.21027828924122
 30
0.0
 10
23.94750135267745
 20
15.20707812578453
 30
0.0
 10
23.95761959607927
 20
15.20275254633813
 30
0.0
 10
23.96764079377725
 20
15.19735808246637
 30
0.0
 10
23.97728866303888
 20
15.19106334908771
 30
0.0
 10
23.9862103484385
 20
15.18399000944145
 30
0.0
 10
23.99504042502549
 20
15.17567353990079
 30
0.0
 10
23.999779049973
 20
15.16954820017502
 30
0.0
 10
24.00243017368198
 20
15.16612124962449
 30
0.0
  0
LINE
  5
212
330
1F
100
AcDbEntity
  8
0
  6
Continuous
 62
     7
370
    25
100
AcDbLine
 10
25.4691432197
 20
16.3828840583
 30
0.0
 11
25.4709630751
 21
16.380115016
 31
0.0
  0
LWPOLYLINE
  5
213
330
1F
100
AcDbEntity
  8
0
  6
Continuous
 62
     7
370
    25
100
AcDbPolyline
 90
       37
 70
   128
 43
0.0
 10
25.4804448251
 20
16.3643900385
 10
25.4853505053
 20
16.3545668977
 10
25.489879439
 20
16.3440635589
 10
25.4937097686
 20
16.3334855427
 10
25.4967127414
 20
16.3231325672
 10
25.498767305
 20
16.3132849764
 10
25.4998058568
 20
16.3042137892
 10
25.4997687802
 20
16.2961932392
 10
25.4986683094
 20
16.2894212326
 10
25.4965248016
 20
16.2841156556
 10
25.4934235746
 20
16.2803995568
 10
25.4894529973
 20
16.2784062995
 10
25.484761189
 20
16.2781796948
 10
25.4794872897
 20
16.2797650138
 10
25.473819307
 20
16.283104837
 10
25.4679360793
 20
16.2881389356
 10
25.4620226969
 20
16.2947085792
 10
25.456268443
 20
16.3026379879
 10
25.4508238032
 20
16.3116937156
 10
25.445846388
 20
16.3216219233
 10
25.4414492075
 20
16.3321311897
 10
25.4377406624
 20
16.3429363536
 10
25.4347964589
 20
16.353706962
 10
25.4326832352
 20
16.3641393658
 10
25.4314309546
 20
16.3739207402
 10
25.43106813
 20
16.3827478685
 10
25.4315810469
 20
16.3903869824
 10
25.4329593187
 20
16.3965908924
 10
25.4351579002
 20
16.4012207926
 10
25.4381366956
 20
16.4041275772
 10
25.4418208509
 20
16.4052625026
 10
25.446146077
 20
16.4045759126
 10
25.4510019686
 20
16.4021193939
 10
25.4562867783
 20
16.397944105
 10
25.4618618904
 20
16.3922002364
 10
25.4691432197
 20
16.3828840583
 10
25.4691432197
 20
16.3828840583
  0
ELLIPSE
  5
214
330
1F
100
AcDbEntity
  8
0
  6
Continuous
 62
     7
370
    25
100
AcDbEllipse
 10
22.8158044922
 20
18.343092026
 30
0.0
 11
0.0
 21
1.438962299714621
 31
0.0
210
0.0
220
0.0
230
1.0
 40
0.5
 41
0.0
 42
6.283185307179586
  0
LINE
  5
215
330
1F
100
AcDbEntity
  8
0
  6
Continuous
 62
     7
370
    25
100
AcDbLine
 10
25.4105619571
 20
13.4960604659
 30
0.0
 11
25.4105619571
 21
13.7482366061
 31
0.0
  0
LINE
  5
216
330
1F
100
AcDbEntity
  8
0
  6
Continuous
 62
     7
370
    25
100
AcDbLine
 10
26.1818980937
 20
13.4960604659
 30
0.0
 11
25.4105619571
 21
13.4960604659
 31
0.0
  0
LINE
  5
217
330
1F
100
AcDbEntity
  8
0
  6
Continuous
 62
     7
370
    25
100
AcDbLine
 10
26.0975845186
 20
13.6368644945
 30
0.0
 11
26.0975845186
 21
13.4960604659
 31
0.0
  0
LINE
  5
218
330
1F
100
AcDbEntity
  8
0
  6
Continuous
 62
     7
370
    25
100
AcDbLine
 10
26.1818980937
 20
12.4315604659
 30
0.0
 11
25.1918980937
 21
12.4315604659
 31
0.0
  0
LINE
  5
219
330
1F
100
AcDbEntity
  8
0
  6
Continuous
 62
     7
370
    25
100
AcDbLine
 10
26.1428980937
 20
12.2115604659
 30
0.0
 11
25.2308980937
 21
12.2115604659
 31
0.0
  0
LINE
  5
21A
330
1F
100
AcDbEntity
  8
0
  6
Continuous
 62
     7
370
    25
100
AcDbLine
 10
26.0928980937
 20
12.1865604659
 30
0.0
 11
25.2808980937
 21
12.1865604659
 31
0.0
  0
LINE
  5
21B
330
1F
100
AcDbEntity
  8
0
  6
Continuous
 62
     7
370
    25
100
AcDbLine
 10
26.1428980937
 20
12.0615604659
 30
0.0
 11
25.2308980937
 21
12.0615604659
 31
0.0
  0
LINE
  5
21C
330
1F
100
AcDbEntity
  8
0
  6
Continuous
 62
     7
370
    25
100
AcDbLine
 10
26.0928980937
 20
12.0865604659
 30
0.0
 11
25.2808980937
 21
12.0865604659
 31
0.0
  0
LINE
  5
21D
330
1F
100
AcDbEntity
  8
0
  6
Continuous
 62
     7
370
    25
100
AcDbLine
 10
26.0928980937
 20
12.0365604659
 30
0.0
 11
25.2808980937
 21
12.0365604659
 31
0.0
  0
LINE
  5
21E
330
1F
100
AcDbEntity
  8
0
  6
Continuous
 62
     7
370
    25
100
AcDbLine
 10
26.1428980937
 20
12.1115604659
 30
0.0
 11
25.2308980937
 21
12.1115604659
 31
0.0
  0
LINE
  5
21F
330
1F
100
AcDbEntity
  8
0
  6
Continuous
 62
     7
370
    25
100
AcDbLine
 10
26.1428980937
 20
12.1615604659
 30
0.0
 11
25.2308980937
 21
12.1615604659
 31
0.0
  0
LINE
  5
220
330
1F
100
AcDbEntity
  8
0
  6
Continuous
 62
     7
370
    25
100
AcDbLine
 10
26.0928980937
 20
12.1365604659
 30
0.0
 11
25.2808980937
 21
12.1365604659
 31
0.0
  0
LINE
  5
221
330
1F
100
AcDbEntity
  8
0
  6
Continuous
 62
     7
370
    25
100
AcDbLine
 10
26.1428980937
 20
12.0115604659
 30
0.0
 11
25.2308980937
 21
12.0115604659
 31
0.0
  0
LINE
  5
222
330
1F
100
AcDbEntity
  8
0
  6
Continuous
 62
     7
370
    25
100
AcDbLine
 10
26.1428980937
 20
11.9115604659
 30
0.0
 11
25.2308980937
 21
11.9115604659
 31
0.0
  0
LINE
  5
223
330
1F
100
AcDbEntity
  8
0
  6
Continuous
 62
     7
370
    25
100
AcDbLine
 10
26.0928980937
 20
11.9365604659
 30
0.0
 11
25.2808980937
 21
11.9365604659
 31
0.0
  0
LINE
  5
224
330
1F
100
AcDbEntity
  8
0
  6
Continuous
 62
     7
370
    25
100
AcDbLine
 10
26.1428980937
 20
11.9615604659
 30
0.0
 11
25.2308980937
 21
11.9615604659
 31
0.0
  0
LINE
  5
225
330
1F
100
AcDbEntity
  8
0
  6
Continuous
 62
     7
370
    25
100
AcDbLine
 10
26.0928980937
 20
11.9865604659
 30
0.0
 11
25.2808980937
 21
11.9865604659
 31
0.0
  0
LINE
  5
226
330
1F
100
AcDbEntity
  8
0
  6
Continuous
 62
     7
370
    25
100
AcDbLine
 10
26.0928980937
 20
11.8865604659
 30
0.0
 11
25.2808980937
 21
11.8865604659
 31
0.0
  0
LINE
  5
227
330
1F
100
AcDbEntity
  8
0
  6
Continuous
 62
     7
370
    25
100
AcDbLine
 10
26.1428980937
 20
11.8615604659
 30
0.0
 11
25.2308980937
 21
11.8615604659
 31
0.0
  0
LINE
  5
228
330
1F
100
AcDbEntity
  8
0
  6
Continuous
 62
     7
370
    25
100
AcDbLine
 10
25.2808980937
 20
11.8365604659
 30
0.0
 11
26.0928980937
 21
11.8365604659
 31
0.0
  0
LINE
  5
229
330
1F
100
AcDbEntity
  8
0
  6
Continuous
 62
     7
370
    25
100
AcDbLine
 10
26.0628980937
 20
11.8065604659
 30
0.0
 11
25.3108980937
 21
11.8065604659
 31
0.0
  0
ARC
  5
22A
330
1F
100
AcDbEntity
  8
0
  6
Continuous
 62
     7
370
    25
100
AcDbCircle
 10
25.316574603
 20
16.2453479214
 30
0.0
 40
0.2792620275322031
100
AcDbArc
 50
26.8844937782
 51
36.1443338111
  0
ARC
  5
22B
330
1F
100
AcDbEntity
  8
0
  6
Continuous
 62
     7
370
    25
100
AcDbCircle
 10
23.9599477492
 20
15.2860714372
 30
0.0
 40
0.2792165074978592
100
AcDbArc
 50
214.384899293
 51
223.0830193283
  0
LWPOLYLINE
  5
22C
330
1F
100
AcDbEntity
  8
0
  6
Continuous
 62
     7
370
    25
100
AcDbPolyline
 90
       76
 70
   128
 43
0.0
 10
25.0058044922
 20
13.6761872702
 10
25.0327767297
 20
13.6766399097
 10
25.060357987
 20
13.6779973064
 10
25.088516452
 20
13.6802578945
 10
25.1172196472
 20
13.6834190668
 10
25.1464344669
 20
13.6874771771
 10
25.1761272149
 20
13.692427545
 10
25.2062636442
 20
13.6982644607
 10
25.2368089959
 20
13.704981192
 10
25.2677280392
 20
13.712569992
 10
25.2989851128
 20
13.7210221079
 10
25.330544165
 20
13.730327791
 10
25.3623687962
 20
13.7404763083
 10
25.3944223003
 20
13.7514559548
 10
25.4266677072
 20
13.7632540665
 10
25.4590678255
 20
13.7758570358
 10
25.4915852854
 20
13.7892503266
 10
25.5241825818
 20
13.8034184913
 10
25.5568221174
 20
13.8183451884
 10
25.5894662462
 20
13.8340132017
 10
25.6220773169
 20
13.85040446
 10
25.6546177164
 20
13.8675000579
 10
25.6870499131
 20
13.8852802775
 10
25.7193365002
 20
13.9037246114
 10
25.7514402387
 20
13.9228117861
 10
25.7833241007
 20
13.9425197867
 10
25.8149513118
 20
13.9628258825
 10
25.8462853936
 20
13.9837066525
 10
25.8772902058
 20
14.0051380132
 10
25.9079299879
 20
14.027095246
 10
25.9381694005
 20
14.0495530257
 10
25.9679735658
 20
14.0724854499
 10
25.9973081082
 20
14.0958660686
 10
26.0261391936
 20
14.119667915
 10
26.0544335686
 20
14.1438635363
 10
26.082158599
 20
14.1684250256
 10
26.109282307
 20
14.1933240542
 10
26.1357734086
 20
14.2185319037
 10
26.1616013493
 20
14.2440194999
 10
26.1867363395
 20
14.2697574457
 10
26.211149389
 20
14.2957160554
 10
26.23481234
 20
14.3218653886
 10
26.2576979
 20
14.348175285
 10
26.2797796733
 20
14.3746153993
 10
26.3010321908
 20
14.4011552358
 10
26.3214309404
 20
14.4277641838
 10
26.3409523944
 20
14.4544115529
 10
26.359574037
 20
14.4810666085
 10
26.3772743903
 20
14.507698607
 10
26.394033039
 20
14.5342768314
 10
26.4098306538
 20
14.5607706267
 10
26.4246490141
 20
14.5871494355
 10
26.4384710285
 20
14.6133828328
 10
26.4512807549
 20
14.6394405613
 10
26.4630634189
 20
14.6652925665
 10
26.4738054303
 20
14.6909090309
 10
26.4834943996
 20
14.7162604091
 10
26.4921191517
 20
14.7413174609
 10
26.4996697388
 20
14.7660512861
 10
26.5061374522
 20
14.7904333569
 10
26.5115148322
 20
14.8144355515
 10
26.5157956765
 20
14.8380301859
 10
26.5189750477
 20
14.8611900467
 10
26.5210492788
 20
14.8838884213
 10
26.5220159774
 20
14.90609913
 10
26.5218740285
 20
14.9277965552
 10
26.5206235958
 20
14.9489556714
 10
26.5182661215
 20
14.9695520739
 10
26.5148043247
 20
14.9895620072
 10
26.5102421983
 20
15.0089623921
 10
26.504585004
 20
15.0277308525
 10
26.4978392669
 20
15.0458457411
 10
26.4900127674
 20
15.0632861645
 10
26.4811145324
 20
15.080032007
 10
26.471154825
 20
15.0960639544
 10
26.467115697
 20
15.1019345961
  0
ARC
  5
22D
330
1F
100
AcDbEntity
  8
0
  6
Continuous
 62
     7
370
    25
100
AcDbCircle
 10
24.9693890505
 20
14.087830829
 30
0.0
 40
0.4132511390312716
100
AcDbArc
 50
220.3595114665
 51
275.0554266543
  0
LWPOLYLINE
  5
22E
330
1F
100
AcDbEntity
  8
0
  6
Continuous
 62
     7
370
    25
100
AcDbPolyline
 90
       57
 70
   128
 43
0.0
 10
26.4758044922
 20
14.6944210351
 10
26.4727199638
 20
14.6858580265
 10
26.4630310936
 20
14.6607572999
 10
26.4522848986
 20
14.6353933288
 10
26.4404941854
 20
14.6097963401
 10
26.4276730051
 20
14.5839968381
 10
26.4138366371
 20
14.5580255687
 10
26.3990015703
 20
14.5319134822
 10
26.3831854839
 20
14.5056916969
 10
26.3664072264
 20
14.4793914618
 10
26.3486867927
 20
14.4530441194
 10
26.3300453005
 20
14.4266810683
 10
26.3105049653
 20
14.4003337259
 10
26.2900890736
 20
14.3740334908
 10
26.2688219556
 20
14.3478117055
 10
26.2467289555
 20
14.321699619
 10
26.223836402
 20
14.2957283495
 10
26.2001715767
 20
14.2699288476
 10
26.1757626814
 20
14.2443318589
 10
26.1506388045
 20
14.2189678878
 10
26.1248298867
 20
14.1938671612
 10
26.0983666849
 20
14.169059592
 10
26.071280736
 20
14.1445747438
 10
26.0436043186
 20
14.1204417957
 10
26.0153704153
 20
14.0966895074
 10
25.986612673
 20
14.073346185
 10
25.9573653629
 20
14.0504396471
 10
25.9276633394
 20
14.0279971919
 10
25.8975419991
 20
14.0060455645
 10
25.8670372381
 20
13.984610925
 10
25.8361854096
 20
13.9637188176
 10
25.8050232802
 20
13.9433941397
 10
25.7735879864
 20
13.9236611126
 10
25.7419169904
 20
13.9045432526
 10
25.7100480349
 20
13.8860633428
 10
25.6780190988
 20
13.868243406
 10
25.6458683517
 20
13.8511046785
 10
25.6136341081
 20
13.8346675851
 10
25.5813547823
 20
13.8189517139
 10
25.5490688421
 20
13.803975794
 10
25.5168147633
 20
13.7897576724
 10
25.4846309836
 20
13.7763142931
 10
25.4525558571
 20
13.7636616768
 10
25.4206276084
 20
13.751814902
 10
25.3888842869
 20
13.7407880866
 10
25.3573637217
 20
13.7305943715
 10
25.3261034765
 20
13.7212459048
 10
25.2951408048
 20
13.7127538271
 10
25.2645126053
 20
13.7051282588
 10
25.2342553781
 20
13.6983782871
 10
25.2044051816
 20
13.6925119564
 10
25.1749975886
 20
13.6875362575
 10
25.1460676447
 20
13.6834571202
 10
25.1176498264
 20
13.6802794055
 10
25.0897779997
 20
13.6780069005
 10
25.0624853799
 20
13.6766423133
 10
25.0358044922
 20
13.6761872702
  0
LINE
  5
22F
330
1F
100
AcDbEntity
  8
0
  6
Continuous
 62
     7
370
    25
100
AcDbLine
 10
25.528629348
 20
13.7115426092
 30
0.0
 11
25.5958044922
 21
13.7115426092
 31
0.0
  0
LINE
  5
230
330
1F
100
AcDbEntity
  8
0
  6
Continuous
 62
     7
370
    25
100
AcDbLine
 10
25.528629348
 20
13.7115426092
 30
0.0
 11
25.4832305108
 21
13.7757462604
 31
0.0
  0
ARC
  5
231
330
1F
100
AcDbEntity
  8
0
  6
Continuous
 62
     7
370
    25
100
AcDbCircle
 10
25.7904218738
 20
13.8747048695
 30
0.0
 40
0.3084756874674257
100
AcDbArc
 50
211.933234744
 51
267.3443784463
  0
LWPOLYLINE
  5
232
330
1F
100
AcDbEntity
  8
0
  6
Continuous
 62
     7
370
    25
100
AcDbPolyline
 90
       45
 70
   128
 43
0.0
 10
25.4876700366
 20
16.3485195087
 10
25.4841363275
 20
16.3568414928
 10
25.480224008
 20
16.3648609364
 10
25.4760127216
 20
16.3724145867
 10
25.471588198
 20
16.3793486733
 10
25.4670405076
 20
16.3855220381
 10
25.4624622284
 20
16.3908090092
 10
25.457946561
 20
16.3951019592
 10
25.4535854312
 20
16.3983134959
 10
25.4494676191
 20
16.4003782417
 10
25.4456769515
 20
16.4012541643
 10
25.4422905955
 20
16.4009234326
 10
25.4393774875
 20
16.3993927792
 10
25.4369969299
 20
16.3966933638
 10
25.4351973841
 20
16.3928801388
 10
25.4340154836
 20
16.3880307303
 10
25.4334752885
 20
16.3822438585
 10
25.4335877957
 20
16.3756373272
 10
25.4343507147
 20
16.3683456265
 10
25.4357485149
 20
16.3605171943
 10
25.4377527409
 20
16.3523113949
 10
25.4403225925
 20
16.3438952747
 10
25.443405755
 20
16.3354401618
 10
25.4469394641
 20
16.3271181777
 10
25.4508517836
 20
16.3190987341
 10
25.45506307
 20
16.3115450837
 10
25.4594875936
 20
16.3046109972
 10
25.464035284
 20
16.2984376324
 10
25.4686135631
 20
16.2931506612
 10
25.4731292306
 20
16.2888577113
 10
25.4774903604
 20
16.2856461746
 10
25.4816081725
 20
16.2835814288
 10
25.4853988401
 20
16.2827055061
 10
25.4887851961
 20
16.2830362379
 10
25.4916983041
 20
16.2845668913
 10
25.4940788617
 20
16.2872663067
 10
25.4958784075
 20
16.2910795317
 10
25.497060308
 20
16.2959289401
 10
25.497600503
 20
16.301715812
 10
25.4974879959
 20
16.3083223433
 10
25.4967250768
 20
16.315614044
 10
25.4953272767
 20
16.3234424762
 10
25.4933230507
 20
16.3316482756
 10
25.4907531991
 20
16.3400643957
 10
25.4876700366
 20
16.3485195087
  0
LINE
  5
233
330
1F
100
AcDbEntity
  8
0
  6
Continuous
 62
     7
370
    25
100
AcDbLine
 10
25.4433772237
 20
16.3759159344
 30
0.0
 11
25.4498173311
 21
16.3373346741
 31
0.0
  0
LINE
  5
234
330
1F
100
AcDbEntity
  8
0
  6
Continuous
 62
     7
370
    25
100
AcDbLine
 10
25.4719780032
 20
16.3033985749
 30
0.0
 11
25.4498173311
 21
16.3373346741
 31
0.0
  0
LINE
  5
235
330
1F
100
AcDbEntity
  8
0
  6
Continuous
 62
     7
370
    25
100
AcDbLine
 10
25.4876985679
 20
16.308043736
 30
0.0
 11
25.4719780032
 21
16.3033985749
 31
0.0
  0
LINE
  5
236
330
1F
100
AcDbEntity
  8
0
  6
Continuous
 62
     7
370
    25
100
AcDbLine
 10
25.4876985679
 20
16.308043736
 30
0.0
 11
25.4812584604
 21
16.3466249964
 31
0.0
  0
LINE
  5
237
330
1F
100
AcDbEntity
  8
0
  6
Continuous
 62
     7
370
    25
100
AcDbLine
 10
25.4590977883
 20
16.3805610956
 30
0.0
 11
25.4812584604
 21
16.3466249964
 31
0.0
  0
LINE
  5
238
330
1F
100
AcDbEntity
  8
0
  6
Continuous
 62
     7
370
    25
100
AcDbLine
 10
25.4590977883
 20
16.3805610956
 30
0.0
 11
25.4433772237
 21
16.3759159344
 31
0.0
  0
LINE
  5
239
330
1F
100
AcDbEntity
  8
0
  6
Continuous
 62
     7
370
    25
100
AcDbLine
 10
25.4436584277
 20
16.3742313034
 30
0.0
 11
25.4590977883
 21
16.3805610956
 31
0.0
  0
LINE
  5
23A
330
1F
100
AcDbEntity
  8
0
  6
Continuous
 62
     7
370
    25
100
AcDbLine
 10
25.4516716329
 20
16.3344950595
 30
0.0
 11
25.4812584604
 21
16.3466249964
 31
0.0
  0
LWPOLYLINE
  5
23B
330
1F
100
AcDbEntity
  8
0
  6
Continuous
 62
     7
370
    25
100
AcDbPolyline
 90
       45
 70
   128
 43
0.0
 10
23.954062481
 20
15.1276892064
 10
23.9618679611
 20
15.1244541236
 10
23.9694991137
 20
15.1220372528
 10
23.9768005906
 20
15.1204877945
 10
23.9836237546
 20
15.1198372912
 10
23.9898297058
 20
15.1200989853
 10
23.9952921091
 20
15.1212675493
 10
23.9998997655
 20
15.1233191948
 10
24.0035588766
 20
15.1262121561
 10
24.0061949533
 20
15.129887541
 10
24.0077543327
 20
15.134270529
 10
24.0082052704
 20
15.1392718954
 10
24.0075385866
 20
15.1447898266
 10
24.005767853
 20
15.1507119935
 10
24.0029291167
 20
15.1569178378
 10
23.9990801661
 20
15.1632810265
 10
23.9942993549
 20
15.1696720234
 10
23.9886840064
 20
15.1759607262
 10
23.982348433
 20
15.1820191151
 10
23.9754216088
 20
15.1877238587
 10
23.9680445439
 20
15.192958825
 10
23.960367414
 20
15.197617445
 10
23.9525465034
 20
15.2016048828
 10
23.9447410232
 20
15.2048399655
 10
23.9371098706
 20
15.2072568363
 10
23.9298083938
 20
15.2088062946
 10
23.9229852298
 20
15.2094567979
 10
23.9167792785
 20
15.2091951039
 10
23.9113168753
 20
15.2080265398
 10
23.9067092188
 20
15.2059748943
 10
23.9030501078
 20
15.203081933
 10
23.9004140311
 20
15.1994065482
 10
23.8988546516
 20
15.1950235601
 10
23.8984037139
 20
15.1900221937
 10
23.8990703977
 20
15.1845042626
 10
23.9008411313
 20
15.1785820957
 10
23.9036798676
 20
15.1723762513
 10
23.9075288182
 20
15.1660130626
 10
23.9123096295
 20
15.1596220657
 10
23.9179249779
 20
15.1533333629
 10
23.9242605513
 20
15.147274974
 10
23.9311873755
 20
15.1415702304
 10
23.9385644405
 20
15.1363352642
 10
23.9462415704
 20
15.1316766441
 10
23.954062481
 20
15.1276892064
  0
LINE
  5
23C
330
1F
100
AcDbEntity
  8
0
  6
Continuous
 62
     7
370
    25
100
AcDbLine
 10
23.9868070628
 20
15.1621633896
 30
0.0
 11
23.9527660891
 21
15.1908983725
 31
0.0
  0
LINE
  5
23D
330
1F
100
AcDbEntity
  8
0
  6
Continuous
 62
     7
370
    25
100
AcDbLine
 10
23.9192635185
 20
15.1933820274
 30
0.0
 11
23.9527660891
 21
15.1908983725
 31
0.0
  0
LINE
  5
23E
330
1F
100
AcDbEntity
  8
0
  6
Continuous
 62
     7
370
    25
100
AcDbLine
 10
23.9198019216
 20
15.1671306995
 30
0.0
 11
23.9192635185
 21
15.1933820274
 31
0.0
  0
LINE
  5
23F
330
1F
100
AcDbEntity
  8
0
  6
Continuous
 62
     7
370
    25
100
AcDbLine
 10
23.9198019216
 20
15.1671306995
 30
0.0
 11
23.9538428952
 21
15.1383957166
 31
0.0
  0
LINE
  5
240
330
1F
100
AcDbEntity
  8
0
  6
Continuous
 62
     7
370
    25
100
AcDbLine
 10
23.9873454658
 20
15.1359120617
 30
0.0
 11
23.9538428952
 21
15.1383957166
 31
0.0
  0
LINE
  5
241
330
1F
100
AcDbEntity
  8
0
  6
Continuous
 62
     7
370
    25
100
AcDbLine
 10
23.9873454658
 20
15.1359120617
 30
0.0
 11
23.9868070628
 21
15.1621633896
 31
0.0
  0
LINE
  5
242
330
1F
100
AcDbEntity
  8
0
  6
Continuous
 62
     7
370
    25
100
AcDbLine
 10
23.9374130146
 20
15.192036546
 30
0.0
 11
23.9198019216
 21
15.1671306995
 31
0.0
  0
LINE
  5
243
330
1F
100
AcDbEntity
  8
0
  6
Continuous
 62
     7
370
    25
100
AcDbLine
 10
23.9766887143
 20
15.1707045839
 30
0.0
 11
23.9538428952
 21
15.1383957166
 31
0.0
  0
LINE
  5
244
330
1F
100
AcDbEntity
  8
0
  6
Continuous
 62
     7
370
    25
100
AcDbLine
 10
26.1555130742
 20
12.2255604659
 30
0.0
 11
25.2182831131
 21
12.2255604659
 31
0.0
  0
SPLINE
  5
245
330
1F
100
AcDbEntity
  8
0
  6
Continuous
 62
     7
370
    25
100
AcDbSpline
210
0.0
220
0.0
230
1.0
 70
     8
 71
     3
 72
    10
 73
     6
 74
     0
 42
0.00000001
 43
0.00000001
 40
0.0
 40
0.0
 40
0.0
 40
0.0
 40
0.4665495905504312
 40
0.7778212346571389
 40
1.0
 40
1.0
 40
1.0
 40
1.0
 10
25.12905313138199
 20
12.24923090634941
 30
0.0
 10
25.14077335305707
 20
12.24452958134526
 30
0.0
 10
25.16031304932606
 20
12.23669163551204
 30
0.0
 10
25.18653685356906
 20
12.2302075645374
 30
0.0
 10
25.20071384021042
 20
12.22793615885883
 30
0.0
 10
25.20661846664329
 20
12.2269901325735
 30
0.0
  0
LINE
  5
246
330
1F
100
AcDbEntity
  8
0
  6
Continuous
 62
     7
370
    25
100
AcDbLine
 10
25.1988338088
 20
12.2492309063
 30
0.0
 11
25.1290531314
 21
12.2492309063
 31
0.0
  0
SPLINE
  5
247
330
1F
100
AcDbEntity
  8
0
  6
Continuous
 62
     7
370
    25
100
AcDbSpline
210
0.0
220
0.0
230
1.0
 70
     8
 71
     3
 72
    11
 73
     7
 74
     0
 42
0.00000001
 43
0.00000001
 40
0.0
 40
0.0
 40
0.0
 40
0.0
 40
0.2659881467325675
 40
0.533334109215045
 40
0.809664516352864
 40
1.0
 40
1.0
 40
1.0
 40
1.0
 10
25.27624918125612
 20
12.2269901325735
 30
0.0
 10
25.26919308763358
 20
12.22813692122158
 30
0.0
 10
25.25504488045614
 20
12.23043635264208
 30
0.0
 10
25.23394406065419
 20
12.23596676413478
 30
0.0
 10
25.21515910704667
 20
12.24224750621526
 30
0.0
 10
25.20356330199775
 20
12.24720779210069
 30
0.0
 10
25.19883380878677
 20
12.24923090634939
 30
0.0
  0
LINE
  5
248
330
1F
100
AcDbEntity
  8
0
  6
Continuous
 62
     7
370
    25
100
AcDbLine
 10
25.4639236997
 20
12.2269901326
 30
0.0
 11
25.2762491813
 21
12.2269901326
 31
0.0
  0
SPLINE
  5
249
330
1F
100
AcDbEntity
  8
0
  6
Continuous
 62
     7
370
    25
100
AcDbSpline
210
0.0
220
0.0
230
1.0
 70
     8
 71
     3
 72
    10
 73
     6
 74
     0
 42
0.00000001
 43
0.00000001
 40
0.0
 40
0.0
 40
0.0
 40
0.0
 40
0.4665495905502812
 40
0.777821234656759
 40
1.0
 40
1.0
 40
1.0
 40
1.0
 10
25.44523987143047
 20
12.2492309063494
 30
0.0
 10
25.44805929465934
 20
12.24452958134526
 30
0.0
 10
25.45275977516843
 20
12.23669163551205
 30
0.0
 10
25.45907852059684
 20
12.23020756453739
 30
0.0
 10
25.46249906450324
 20
12.22793615885882
 30
0.0
 10
25.4639236996867
 20
12.2269901325735
 30
0.0
  0
LINE
  5
24A
330
1F
100
AcDbEntity
  8
0
  6
Continuous
 62
     7
370
    25
100
AcDbLine
 10
25.6797769405
 20
12.2492309063
 30
0.0
 11
25.4452398714
 21
12.2492309063
 31
0.0
  0
SPLINE
  5
24B
330
1F
100
AcDbEntity
  8
0
  6
Continuous
 62
     7
370
    25
100
AcDbSpline
210
0.0
220
0.0
230
1.0
 70
     8
 71
     3
 72
    11
 73
     7
 74
     0
 42
0.00000001
 43
0.00000001
 40
0.0
 40
0.0
 40
0.0
 40
0.0
 40
0.2659881467325464
 40
0.5333341092149646
 40
0.8096645163524663
 40
1.0
 40
1.0
 40
1.0
 40
1.0
 10
25.69795673471677
 20
12.2269901325735
 30
0.0
 10
25.69630245402079
 20
12.22813692122159
 30
0.0
 10
25.6929854478601
 20
12.23043635264211
 30
0.0
 10
25.68803112997227
 20
12.23596676413476
 30
0.0
 10
25.68361678131985
 20
12.24224750621528
 30
0.0
 10
25.68088935512778
 20
12.24720779210069
 30
0.0
 10
25.67977694045675
 20
12.2492309063494
 30
0.0
  0
LINE
  5
24C
330
1F
100
AcDbEntity
  8
0
  6
Continuous
 62
     7
370
    25
100
AcDbLine
 10
25.9442033267
 20
12.2269901326
 30
0.0
 11
25.6979567347
 21
12.2269901326
 31
0.0
  0
SPLINE
  5
24D
330
1F
100
AcDbEntity
  8
0
  6
Continuous
 62
     7
370
    25
100
AcDbSpline
210
0.0
220
0.0
230
1.0
 70
     8
 71
     3
 72
    10
 73
     6
 74
     0
 42
0.00000001
 43
0.00000001
 40
0.0
 40
0.0
 40
0.0
 40
0.0
 40
0.4686381556237776
 40
0.7785358969778194
 40
1.0
 40
1.0
 40
1.0
 40
1.0
 10
26.00308483370804
 20
12.24923090634941
 30
0.0
 10
25.99414361269784
 20
12.24451019027713
 30
0.0
 10
25.97928980398483
 20
12.23666779230419
 30
0.0
 10
25.95938330725978
 20
12.23019441746087
 30
0.0
 10
25.94866892833303
 20
12.22793275959222
 30
0.0
 10
25.94420332670286
 20
12.22699013257351
 30
0.0
  0
LINE
  5
24E
330
1F
100
AcDbEntity
  8
0
  6
Continuous
 62
     7
370
    25
100
AcDbLine
 10
26.1678412253
 20
12.2492309063
 30
0.0
 11
26.0030848337
 21
12.2492309063
 31
0.0
  0
SPLINE
  5
24F
330
1F
100
AcDbEntity
  8
0
  6
Continuous
 62
     7
370
    25
100
AcDbSpline
210
0.0
220
0.0
230
1.0
 70
     8
 71
     3
 72
    11
 73
     7
 74
     0
 42
0.00000001
 43
0.00000001
 40
0.0
 40
0.0
 40
0.0
 40
0.0
 40
0.2800420106458442
 40
0.5615138816224472
 40
0.8523837795515652
 40
1.0
 40
1.0
 40
1.0
 40
1.0
 10
26.10860564712016
 20
12.22699013257349
 30
0.0
 10
26.11400828145329
 20
12.22813611697501
 30
0.0
 10
26.12484113531115
 20
12.23043393703454
 30
0.0
 10
26.140984154589
 20
12.23597913130025
 30
0.0
 10
26.15438658879923
 20
12.2417843146488
 30
0.0
 10
26.16230747543313
 20
12.24619219611234
 30
0.0
 10
26.16497403954655
 20
12.24767610808711
 30
0.0
  0
SPLINE
  5
250
330
1F
100
AcDbEntity
  8
0
  6
Continuous
 62
     7
370
    25
100
AcDbSpline
210
0.0
220
0.0
230
1.0
 70
     8
 71
     3
 72
    10
 73
     6
 74
     0
 42
0.00000001
 43
0.00000001
 40
0.0
 40
0.0
 40
0.0
 40
0.0
 40
0.4727162370161531
 40
0.7881021322607024
 40
1.0
 40
1.0
 40
1.0
 40
1.0
 10
26.24474305593705
 20
12.24923090634939
 30
0.0
 10
26.23302257868632
 20
12.24453119668591
 30
0.0
 10
26.21348245632723
 20
12.23669594391317
 30
0.0
 10
26.187602908557
 20
12.2302827846822
 30
0.0
 10
26.17377346504738
 20
12.22806151774295
 30
0.0
 10
26.1682158700721
 20
12.22716886418305
 30
0.0
  0
LINE
  5
251
330
1F
100
AcDbEntity
  8
0
  6
Continuous
 62
     7
370
    25
100
AcDbLine
 10
25.4404323994
 20
12.3880550063
 30
0.0
 11
25.4403244991
 21
12.3872252084
 31
0.0
  0
SPLINE
  5
252
330
1F
100
AcDbEntity
  8
0
  6
Continuous
 62
     7
370
    25
100
AcDbSpline
210
0.0
220
0.0
230
1.0
 70
     8
 71
     3
 72
    11
 73
     7
 74
     0
 42
0.00000001
 43
0.00000001
 40
0.0
 40
0.0
 40
0.0
 40
0.0
 40
0.2519956718519352
 40
0.5058364467563465
 40
0.7521453372597557
 40
1.0
 40
1.0
 40
1.0
 40
1.0
 10
25.55868367221864
 20
12.35856046591083
 30
0.0
 10
25.5482111292166
 20
12.35990794728375
 30
0.0
 10
25.52718936363736
 20
12.36261277623869
 30
0.0
 10
25.49698440338262
 20
12.36926397824096
 30
0.0
 10
25.46783937117514
 20
12.37754274486167
 30
0.0
 10
25.44958708808845
 20
12.38454361941773
 30
0.0
 10
25.44043239944539
 20
12.38805500626645
 30
0.0
  0
LINE
  5
253
330
1F
100
AcDbEntity
  8
0
  6
Continuous
 62
     7
370
    25
100
AcDbLine
 10
25.683759757
 20
12.3585604659
 30
0.0
 11
25.5586836722
 21
12.3585604659
 31
0.0
  0
LINE
  5
254
330
1F
100
AcDbEntity
  8
0
  6
Continuous
 62
     7
370
    25
100
AcDbLine
 10
25.683759757
 20
12.2555550302
 30
0.0
 11
25.683759757
 21
12.3585604659
 31
0.0
  0
LINE
  5
255
330
1F
100
AcDbEntity
  8
0
  6
Continuous
 62
     7
370
    25
100
AcDbLine
 10
25.6834837957
 20
12.2538126032
 30
0.0
 11
25.683759757
 21
12.2555550302
 31
0.0
  0
LINE
  5
256
330
1F
100
AcDbEntity
  8
0
  6
Continuous
 62
     7
370
    25
100
AcDbLine
 10
25.4405725678
 20
12.2538126032
 30
0.0
 11
25.6834837957
 21
12.2538126032
 31
0.0
  0
LINE
  5
257
330
1F
100
AcDbEntity
  8
0
  6
Continuous
 62
     7
370
    25
100
AcDbLine
 10
25.4403244991
 20
12.2555550302
 30
0.0
 11
25.4405725678
 21
12.2538126032
 31
0.0
  0
LINE
  5
258
330
1F
100
AcDbEntity
  8
0
  6
Continuous
 62
     7
370
    25
100
AcDbLine
 10
25.4403244991
 20
12.2555550302
 30
0.0
 11
25.4403244991
 21
12.3872252084
 31
0.0
  0
SPLINE
  5
259
330
1F
100
AcDbEntity
  8
0
  6
Continuous
 62
     7
370
    25
100
AcDbSpline
210
0.0
220
0.0
230
1.0
 70
     8
 71
     3
 72
    12
 73
     8
 74
     0
 42
0.00000001
 43
0.00000001
 40
0.0
 40
0.0
 40
0.0
 40
0.0
 40
0.2610466257357801
 40
0.5203567671408494
 40
0.8317512029542723
 40
0.9869218091763624
 40
1.0
 40
1.0
 40
1.0
 40
1.0
 10
25.68348379568544
 20
12.25381260321603
 30
0.0
 10
25.68325622763722
 20
12.2532527775363
 30
0.0
 10
25.68280260532531
 20
12.25213685014193
 30
0.0
 10
25.6817394948649
 20
12.2507083696702
 30
0.0
 10
25.68072531739202
 20
12.24978183020843
 30
0.0
 10
25.68003677950511
 20
12.24936196761276
 30
0.0
 10
25.67979568132206
 20
12.24924035912988
 30
0.0
 10
25.67977694045675
 20
12.2492309063494
 30
0.0
  0
SPLINE
  5
25A
330
1F
100
AcDbEntity
  8
0
  6
Continuous
 62
     7
370
    25
100
AcDbSpline
210
0.0
220
0.0
230
1.0
 70
     8
 71
     3
 72
    12
 73
     8
 74
     0
 42
0.00000001
 43
0.00000001
 40
0.0
 40
0.0
 40
0.0
 40
0.0
 40
0.2610466257356327
 40
0.5203567671423389
 40
0.8317512029564713
 40
0.9869218091746902
 40
1.0
 40
1.0
 40
1.0
 40
1.0
 10
25.44057256779568
 20
12.25381260321604
 30
0.0
 10
25.44080269230206
 20
12.2532527775363
 30
0.0
 10
25.44126141052468
 20
12.25213685014192
 30
0.0
 10
25.44257632344869
 20
12.2507083696702
 30
0.0
 10
25.44391971374612
 20
12.24978183020844
 30
0.0
 10
25.4448741632653
 20
12.24936196761275
 30
0.0
 10
25.44521349476571
 20
12.24924035912989
 30
0.0
 10
25.44523987143047
 20
12.2492309063494
 30
0.0
  0
SPLINE
  5
25B
330
1F
100
AcDbEntity
  8
0
  6
Continuous
 62
     7
370
    25
100
AcDbSpline
210
0.0
220
0.0
230
1.0
 70
     8
 71
     3
 72
    13
 73
     9
 74
     0
 42
0.00000001
 43
0.00000001
 40
0.0
 40
0.0
 40
0.0
 40
0.0
 40
0.2142797061627607
 40
0.4285450239923941
 40
0.6429491527990224
 40
0.8576415051274476
 40
0.9549170214530495
 40
1.0
 40
1.0
 40
1.0
 40
1.0
 10
25.55952316963819
 20
12.36156046591083
 30
0.0
 10
25.55944463172598
 20
12.36152737906854
 30
0.0
 10
25.5592875611752
 20
12.36146120760565
 30
0.0
 10
25.55905628572513
 20
12.36094505412723
 30
0.0
 10
25.55886112915793
 20
12.36018548011493
 30
0.0
 10
25.55874822719978
 20
12.35940742316309
 30
0.0
 10
25.55870029743894
 20
12.35885353387285
 30
0.0
 10
25.55868767087719
 20
12.35863095392186
 30
0.0
 10
25.55868367221864
 20
12.35856046591083
 30
0.0
  0
SPLINE
  5
25C
330
1F
100
AcDbEntity
  8
0
  6
Continuous
 62
     7
370
    25
100
AcDbSpline
210
0.0
220
0.0
230
1.0
 70
     8
 71
     3
 72
    12
 73
     8
 74
     0
 42
0.00000001
 43
0.00000001
 40
0.0
 40
0.0
 40
0.0
 40
0.0
 40
0.2217181155132399
 40
0.4435284651911631
 40
0.6625812968574113
 40
0.8762617802487415
 40
1.0
 40
1.0
 40
1.0
 40
1.0
 10
25.68446034515358
 20
12.36156046591084
 30
0.0
 10
25.68438003437112
 20
12.36152606317773
 30
0.0
 10
25.68421937939713
 20
12.36145724340006
 30
0.0
 10
25.68400593891334
 20
12.36091896809579
 30
0.0
 10
25.68384776264713
 20
12.36013075147796
 30
0.0
 10
25.68376979199857
 20
12.35929160998658
 30
0.0
 10
25.68376244957165
 20
12.35875664743132
 30
0.0
 10
25.68375975695614
 20
12.35856046591084
 30
0.0
  0
LINE
  5
25D
330
1F
100
AcDbEntity
  8
0
  6
Continuous
 62
     7
370
    25
100
AcDbLine
 10
25.5595231696
 20
12.3615604659
 30
0.0
 11
25.6844603452
 21
12.3615604659
 31
0.0
  0
SPLINE
  5
25E
330
1F
100
AcDbEntity
  8
0
  6
Continuous
 62
     7
370
    25
100
AcDbSpline
210
0.0
220
0.0
230
1.0
 70
     8
 71
     3
 72
    11
 73
     7
 74
     0
 42
0.00000001
 43
0.00000001
 40
0.0
 40
0.0
 40
0.0
 40
0.0
 40
0.2419117138570712
 40
0.4852111676221461
 40
0.7416738302413394
 40
0.9999999999999999
 40
0.9999999999999999
 40
0.9999999999999999
 40
0.9999999999999999
 10
25.44480934031368
 20
12.39003730579414
 30
0.0
 10
25.4534853933802
 20
12.38673526108012
 30
0.0
 10
25.47088727017086
 20
12.38011222929021
 30
0.0
 10
25.49889280009779
 20
12.37214188594643
 30
0.0
 10
25.52838652446905
 20
12.36560151566154
 30
0.0
 10
25.54911927078297
 20
12.36291072932704
 30
0.0
 10
25.55952316963819
 20
12.36156046591083
 30
0.0
  0
SPLINE
  5
25F
330
1F
100
AcDbEntity
  8
0
  6
Continuous
 62
     7
370
    25
100
AcDbSpline
210
0.0
220
0.0
230
1.0
 70
     8
 71
     3
 72
    14
 73
    10
 74
     0
 42
0.00000001
 43
0.00000001
 40
0.0
 40
0.0
 40
0.0
 40
0.0
 40
0.0123665218966586
 40
0.0969757808173049
 40
0.3271475154398963
 40
0.5535950235707249
 40
0.7072875392076203
 40
0.853479404094293
 40
1.0
 40
1.0
 40
1.0
 40
1.0
 10
25.44480934031368
 20
12.39003730579414
 30
0.0
 10
25.44478958298923
 20
12.39004346480611
 30
0.0
 10
25.44463465001929
 20
12.39009176254094
 30
0.0
 10
25.44410019865876
 20
12.39022107735592
 30
0.0
 10
25.44316858338371
 20
12.39026311393484
 30
0.0
 10
25.44211098115718
 20
12.38998071648721
 30
0.0
 10
25.44129658423343
 20
12.38946068166371
 30
0.0
 10
25.44071898097257
 20
12.38883263691533
 30
0.0
 10
25.44052799811561
 20
12.38831441048098
 30
0.0
 10
25.44043239944539
 20
12.38805500626645
 30
0.0
  0
LINE
  5
260
330
1F
100
AcDbEntity
  8
0
  6
Continuous
 62
     7
370
    25
100
AcDbLine
 10
25.4615497295
 20
12.3900373058
 30
0.0
 11
25.4448093403
 21
12.3900373058
 31
0.0
  0
SPLINE
  5
261
330
1F
100
AcDbEntity
  8
0
  6
Continuous
 62
     7
370
    25
100
AcDbSpline
210
0.0
220
0.0
230
1.0
 70
     8
 71
     3
 72
    11
 73
     7
 74
     0
 42
0.00000001
 43
0.00000001
 40
0.0
 40
0.0
 40
0.0
 40
0.0
 40
0.2591980952717177
 40
0.5206242105090063
 40
0.7595444126799847
 40
1.0
 40
1.0
 40
1.0
 40
1.0
 10
25.57580075721837
 20
12.36156046591085
 30
0.0
 10
25.56534274264725
 20
12.36292011705117
 30
0.0
 10
25.5443368183025
 20
12.3656511066472
 30
0.0
 10
25.5148583986207
 20
12.37224860915338
 30
0.0
 10
25.48706159483805
 20
12.38024295307043
 30
0.0
 10
25.47007182335513
 20
12.38676555783695
 30
0.0
 10
25.46154972947822
 20
12.39003730579413
 30
0.0
  0
LINE
  5
262
330
1F
100
AcDbEntity
  8
0
  6
Continuous
 62
     7
370
    25
100
AcDbLine
 10
25.7019013859
 20
12.231942509
 30
0.0
 11
25.9432537582
 21
12.231942509
 31
0.0
  0
SPLINE
  5
263
330
1F
100
AcDbEntity
  8
0
  6
Continuous
 62
     7
370
    25
100
AcDbSpline
210
0.0
220
0.0
230
1.0
 70
     8
 71
     3
 72
    13
 73
     9
 74
     0
 42
0.00000001
 43
0.00000001
 40
0.0
 40
0.0
 40
0.0
 40
0.0
 40
0.185861265954231
 40
0.3708268618779403
 40
0.5778789813011668
 40
0.8292801638910278
 40
0.9889166448617287
 40
1.0
 40
1.0
 40
1.0
 40
1.0
 10
25.9432537582287
 20
12.23194250900306
 30
0.0
 10
25.9433067085882
 20
12.23143931676208
 30
0.0
 10
25.9434123541381
 20
12.23043535717595
 30
0.0
 10
25.94361378042341
 20
12.22911080838913
 30
0.0
 10
25.94383574555961
 20
12.22797326860147
 30
0.0
 10
25.94403535665338
 20
12.22727992892074
 30
0.0
 10
25.94415524334236
 20
12.22704612963756
 30
0.0
 10
25.94420039537389
 20
12.22699354634938
 30
0.0
 10
25.94420332670286
 20
12.22699013257351
 30
0.0
  0
SPLINE
  5
264
330
1F
100
AcDbEntity
  8
0
  6
Continuous
 62
     7
370
    25
100
AcDbSpline
210
0.0
220
0.0
230
1.0
 70
     8
 71
     3
 72
    13
 73
     9
 74
     0
 42
0.00000001
 43
0.00000001
 40
0.0
 40
0.0
 40
0.0
 40
0.0
 40
0.1858612659556527
 40
0.3708268618809407
 40
0.5778789813046219
 40
0.8292801638997104
 40
0.9889166448705267
 40
1.0
 40
1.0
 40
1.0
 40
1.0
 10
25.70190138588927
 20
12.23194250900307
 30
0.0
 10
25.7018092542407
 20
12.23143931676208
 30
0.0
 10
25.70162543492826
 20
12.23043535717596
 30
0.0
 10
25.70095287392008
 20
12.22911080838913
 30
0.0
 10
25.70002425377819
 20
12.22797326860147
 30
0.0
 10
25.69899471032729
 20
12.22727992892073
 30
0.0
 10
25.69826927131759
 20
12.22704612963759
 30
0.0
 10
25.69797578803544
 20
12.22699354634937
 30
0.0
 10
25.69795673471677
 20
12.2269901325735
 30
0.0
  0
LINE
  5
265
330
1F
100
AcDbEntity
  8
0
  6
Continuous
 62
     7
370
    25
100
AcDbLine
 10
25.7019315273
 20
12.2324861771
 30
0.0
 11
25.7019315273
 21
12.3615604659
 31
0.0
  0
LINE
  5
266
330
1F
100
AcDbEntity
  8
0
  6
Continuous
 62
     7
370
    25
100
AcDbLine
 10
25.9432281587
 20
12.2324861771
 30
0.0
 11
25.9432281587
 21
12.3615604659
 31
0.0
  0
LINE
  5
267
330
1F
100
AcDbEntity
  8
0
  6
Continuous
 62
     7
370
    25
100
AcDbLine
 10
25.9432537582
 20
12.231942509
 30
0.0
 11
25.9432281587
 21
12.2324861771
 31
0.0
  0
LINE
  5
268
330
1F
100
AcDbEntity
  8
0
  6
Continuous
 62
     7
370
    25
100
AcDbLine
 10
25.7019315273
 20
12.2324861771
 30
0.0
 11
25.7019013859
 21
12.231942509
 31
0.0
  0
LINE
  5
269
330
1F
100
AcDbEntity
  8
0
  6
Continuous
 62
     7
370
    25
100
AcDbLine
 10
25.9432281587
 20
12.3615604659
 30
0.0
 11
25.7019315273
 21
12.3615604659
 31
0.0
  0
SPLINE
  5
26A
330
1F
100
AcDbEntity
  8
0
  6
Continuous
 62
     7
370
    25
100
AcDbSpline
210
0.0
220
0.0
230
1.0
 70
     8
 71
     3
 72
    11
 73
     7
 74
     0
 42
0.00000001
 43
0.00000001
 40
0.0
 40
0.0
 40
0.0
 40
0.0
 40
0.2575297854246293
 40
0.5163496293046189
 40
0.7576598734532645
 40
1.0
 40
1.0
 40
1.0
 40
1.0
 10
25.68375975695611
 20
12.25555503016578
 30
0.0
 10
25.68526196001459
 20
12.25278498390646
 30
0.0
 10
25.68827389120191
 20
12.24723101523913
 30
0.0
 10
25.69284637861257
 20
12.2408704521272
 30
0.0
 10
25.69740118290591
 20
12.23579529258394
 30
0.0
 10
25.70041927025529
 20
12.23359078034654
 30
0.0
 10
25.70193152727916
 20
12.23248617708982
 30
0.0
  0
LINE
  5
26B
330
1F
100
AcDbEntity
  8
0
  6
Continuous
 62
     7
370
    25
100
AcDbLine
 10
25.7019315273
 20
12.3615604659
 30
0.0
 11
25.6844603452
 21
12.3615604659
 31
0.0
  0
SPLINE
  5
26C
330
1F
100
AcDbEntity
  8
0
  6
Continuous
 62
     7
370
    25
100
AcDbSpline
210
0.0
220
0.0
230
1.0
 70
     8
 71
     3
 72
    10
 73
     6
 74
     0
 42
0.00000001
 43
0.00000001
 40
0.0
 40
0.0
 40
0.0
 40
0.0
 40
0.0416190951253609
 40
0.534627805013249
 40
0.9999999999999999
 40
0.9999999999999999
 40
0.9999999999999999
 40
0.9999999999999999
 10
25.46154972947822
 20
12.39003730579413
 30
0.0
 10
25.46154077580734
 20
12.39004220788345
 30
0.0
 10
25.46142575933726
 20
12.39010517881652
 30
0.0
 10
25.46120657663057
 20
12.39021945822252
 30
0.0
 10
25.46095411512448
 20
12.39017353266911
 30
0.0
 10
25.46083152444613
 20
12.39015123206244
 30
0.0
  0
SPLINE
  5
26D
330
1F
100
AcDbEntity
  8
0
  6
Continuous
 62
     7
370
    25
100
AcDbSpline
210
0.0
220
0.0
230
1.0
 70
     8
 71
     3
 72
    10
 73
     6
 74
     0
 42
0.00000001
 43
0.00000001
 40
0.0
 40
0.0
 40
0.0
 40
0.0
 40
0.5568556515868268
 40
0.9712304890652651
 40
1.0
 40
1.0
 40
1.0
 40
1.0
 10
25.46118970198178
 20
12.22798775377242
 30
0.0
 10
25.46167372445127
 20
12.22771502278652
 30
0.0
 10
25.4625179241616
 20
12.2272393435902
 30
0.0
 10
25.46347418589825
 20
12.22704634231216
 30
0.0
 10
25.46389629576202
 20
12.22699355931475
 30
0.0
 10
25.4639236996867
 20
12.2269901325735
 30
0.0
  0
SPLINE
  5
26E
330
1F
100
AcDbEntity
  8
0
  6
Continuous
 62
     7
370
    25
100
AcDbSpline
210
0.0
220
0.0
230
1.0
 70
     8
 71
     3
 72
    11
 73
     7
 74
     0
 42
0.00000001
 43
0.00000001
 40
0.0
 40
0.0
 40
0.0
 40
0.0
 40
0.2419117138571477
 40
0.4852111676222847
 40
0.7416738302414452
 40
0.9999999999999999
 40
0.9999999999999999
 40
0.9999999999999999
 40
0.9999999999999999
 10
26.00247087300241
 20
12.39003730579414
 30
0.0
 10
26.01031056697447
 20
12.38673526108012
 30
0.0
 10
26.02603492775608
 20
12.38011222929019
 30
0.0
 10
26.04941215392711
 20
12.37214188594642
 30
0.0
 10
26.07266077909047
 20
12.36560151566153
 30
0.0
 10
26.08755443206738
 20
12.36291072932703
 30
0.0
 10
26.0950282156564
 20
12.36156046591083
 30
0.0
  0
SPLINE
  5
26F
330
1F
100
AcDbEntity
  8
0
  6
Continuous
 62
     7
370
    25
100
AcDbSpline
210
0.0
220
0.0
230
1.0
 70
     8
 71
     3
 72
    10
 73
     6
 74
     0
 42
0.00000001
 43
0.00000001
 40
0.0
 40
0.0
 40
0.0
 40
0.0
 40
0.3969572999970859
 40
0.6975354737392073
 40
1.0
 40
1.0
 40
1.0
 40
1.0
 10
26.08090247735985
 20
12.36156046591084
 30
0.0
 10
26.0708215717848
 20
12.3640156541621
 30
0.0
 10
26.05310735102083
 20
12.368329923984
 30
0.0
 10
26.02636607532061
 20
12.37757458227464
 30
0.0
 10
26.00984125459207
 20
12.38455425399662
 30
0.0
 10
26.00155299892928
 20
12.38805500626646
 30
0.0
  0
SPLINE
  5
270
330
1F
100
AcDbEntity
  8
0
  6
Continuous
 62
     7
370
    25
100
AcDbSpline
210
0.0
220
0.0
230
1.0
 70
     8
 71
     3
 72
    14
 73
    10
 74
     0
 42
0.00000001
 43
0.00000001
 40
0.0
 40
0.0
 40
0.0
 40
0.0
 40
0.0123665219050949
 40
0.0969757808063628
 40
0.3271475154407893
 40
0.5535950235585176
 40
0.7072875392141358
 40
0.8534794040881778
 40
1.0
 40
1.0
 40
1.0
 40
1.0
 10
26.00247087300241
 20
12.39003730579414
 30
0.0
 10
26.00246999913271
 20
12.39004346480611
 30
0.0
 10
26.00246314642211
 20
12.39009176254091
 30
0.0
 10
26.00243144363031
 20
12.39022107735599
 30
0.0
 10
26.00233643449238
 20
12.39026311393485
 30
0.0
 10
26.00215681648965
 20
12.38998071648715
 30
0.0
 10
26.00195297856306
 20
12.3894606816638
 30
0.0
 10
26.00175247688327
 20
12.38883263691527
 30
0.0
 10
26.00161954134508
 20
12.38831441048098
 30
0.0
 10
26.00155299892928
 20
12.38805500626646
 30
0.0
  0
LINE
  5
271
330
1F
100
AcDbEntity
  8
0
  6
Continuous
 62
     7
370
    25
100
AcDbLine
 10
26.0015529989
 20
12.3880550063
 30
0.0
 11
26.0014534876
 21
12.3872252084
 31
0.0
  0
LINE
  5
272
330
1F
100
AcDbEntity
  8
0
  6
Continuous
 62
     7
370
    25
100
AcDbLine
 10
26.172460633
 20
12.2555550302
 30
0.0
 11
26.172460633
 21
12.3615604659
 31
0.0
  0
LINE
  5
273
330
1F
100
AcDbEntity
  8
0
  6
Continuous
 62
     7
370
    25
100
AcDbLine
 10
26.1723212603
 20
12.2538126032
 30
0.0
 11
26.172460633
 21
12.2555550302
 31
0.0
  0
LINE
  5
274
330
1F
100
AcDbEntity
  8
0
  6
Continuous
 62
     7
370
    25
100
AcDbLine
 10
26.0016822327
 20
12.2538126032
 30
0.0
 11
26.1723212603
 21
12.2538126032
 31
0.0
  0
LINE
  5
275
330
1F
100
AcDbEntity
  8
0
  6
Continuous
 62
     7
370
    25
100
AcDbLine
 10
26.0014534876
 20
12.2555550302
 30
0.0
 11
26.0016822327
 21
12.2538126032
 31
0.0
  0
LINE
  5
276
330
1F
100
AcDbEntity
  8
0
  6
Continuous
 62
     7
370
    25
100
AcDbLine
 10
26.0014534876
 20
12.2555550302
 30
0.0
 11
26.0014534876
 21
12.3872252084
 31
0.0
  0
LINE
  5
277
330
1F
100
AcDbEntity
  8
0
  6
Continuous
 62
     7
370
    25
100
AcDbLine
 10
26.172460633
 20
12.3615604659
 30
0.0
 11
26.0809024774
 21
12.3615604659
 31
0.0
  0
SPLINE
  5
278
330
1F
100
AcDbEntity
  8
0
  6
Continuous
 62
     7
370
    25
100
AcDbSpline
210
0.0
220
0.0
230
1.0
 70
     8
 71
     3
 72
    12
 73
     8
 74
     0
 42
0.00000001
 43
0.00000001
 40
0.0
 40
0.0
 40
0.0
 40
0.0
 40
0.2610466257368472
 40
0.5203567671391606
 40
0.8317512029521118
 40
0.9869218091677815
 40
1.0
 40
1.0
 40
1.0
 40
1.0
 10
26.17232126032428
 20
12.25381260321605
 30
0.0
 10
26.17215640591535
 20
12.25325277753632
 30
0.0
 10
26.17182779371039
 20
12.25213685014196
 30
0.0
 10
26.17058913473344
 20
12.25070836967019
 30
0.0
 10
26.16923364279502
 20
12.24978183020854
 30
0.0
 10
26.1682305519174
 20
12.24936196761269
 30
0.0
 10
26.16786930547062
 20
12.24924035912989
 30
0.0
 10
26.16784122532948
 20
12.24923090634941
 30
0.0
  0
SPLINE
  5
279
330
1F
100
AcDbEntity
  8
0
  6
Continuous
 62
     7
370
    25
100
AcDbSpline
210
0.0
220
0.0
230
1.0
 70
     8
 71
     3
 72
    12
 73
     8
 74
     0
 42
0.00000001
 43
0.00000001
 40
0.0
 40
0.0
 40
0.0
 40
0.0
 40
0.2610466257347387
 40
0.5203567671394006
 40
0.8317512029580375
 40
0.9869218091721782
 40
1.0
 40
1.0
 40
1.0
 40
1.0
 10
26.0016822327385
 20
12.25381260321604
 30
0.0
 10
26.00183889583672
 20
12.25325277753631
 30
0.0
 10
26.00215117990895
 20
12.25213685014194
 30
0.0
 10
26.00258302254448
 20
12.25070836967019
 30
0.0
 10
26.00288366266438
 20
12.24978183020848
 30
0.0
 10
26.00303472911275
 20
12.24936196761274
 30
0.0
 10
26.00308121991912
 20
12.24924035912989
 30
0.0
 10
26.00308483370804
 20
12.24923090634941
 30
0.0
  0
SPLINE
  5
27A
330
1F
100
AcDbEntity
  8
0
  6
Continuous
 62
     7
370
    25
100
AcDbSpline
210
0.0
220
0.0
230
1.0
 70
     8
 71
     3
 72
    11
 73
     7
 74
     0
 42
0.00000001
 43
0.00000001
 40
0.0
 40
0.0
 40
0.0
 40
0.0
 40
0.2402805610208235
 40
0.4815724248196126
 40
0.7401363619489376
 40
1.0
 40
1.0
 40
1.0
 40
1.0
 10
25.94322815871075
 20
12.23248617708982
 30
0.0
 10
25.94803258274632
 20
12.23358041026312
 30
0.0
 10
25.95766165187635
 20
12.23577348206362
 30
0.0
 10
25.97221215542021
 20
12.24082132445333
 30
0.0
 10
25.98690584137136
 20
12.24718690240466
 30
0.0
 10
25.99659617425985
 20
12.25276099615035
 30
0.0
 10
26.00145348756433
 20
12.25555503016579
 30
0.0
  0
SPLINE
  5
27B
330
1F
100
AcDbEntity
  8
0
  6
Continuous
 62
     7
370
    25
100
AcDbSpline
210
0.0
220
0.0
230
1.0
 70
     8
 71
     3
 72
     9
 73
     5
 74
     0
 42
0.00000001
 43
0.00000001
 40
0.0
 40
0.0
 40
0.0
 40
0.0
 40
0.7268678013162928
 40
1.0
 40
1.0
 40
1.0
 40
1.0
 10
25.94322815871079
 20
12.38722520838481
 30
0.0
 10
25.94325261221422
 20
12.38755494352691
 30
0.0
 10
25.94328625451256
 20
12.38800858192098
 30
0.0
 10
25.94344673692396
 20
12.38841837183088
 30
0.0
 10
25.94349056983784
 20
12.38853029864997
 30
0.0
  0
SPLINE
  5
27C
330
1F
100
AcDbEntity
  8
0
  6
Continuous
 62
     7
370
    25
100
AcDbSpline
210
0.0
220
0.0
230
1.0
 70
     8
 71
     3
 72
    11
 73
     7
 74
     0
 42
0.00000001
 43
0.00000001
 40
0.0
 40
0.0
 40
0.0
 40
0.0
 40
0.3106988680835803
 40
0.6258554267686749
 40
0.81204792199391
 40
1.0
 40
1.0
 40
1.0
 40
1.0
 10
25.94717460745266
 20
12.39015123206244
 30
0.0
 10
25.94672837922219
 20
12.39016162661352
 30
0.0
 10
25.94582952058992
 20
12.39018256484945
 30
0.0
 10
25.94471939404391
 20
12.38977379055676
 30
0.0
 10
25.94389184841527
 20
12.38921519642404
 30
0.0
 10
25.94362474808338
 20
12.38875931257413
 30
0.0
 10
25.94349056983784
 20
12.38853029864997
 30
0.0
  0
LINE
  5
27D
330
1F
100
AcDbEntity
  8
0
  6
Continuous
 62
     7
370
    25
100
AcDbLine
 10
26.0014534876
 20
12.3872252084
 30
0.0
 11
25.9432281587
 21
12.3872252084
 31
0.0
  0
LINE
  5
27E
330
1F
100
AcDbEntity
  8
0
  6
Continuous
 62
     7
370
    25
100
AcDbLine
 10
25.9432281587
 20
12.3872252084
 30
0.0
 11
25.9432281587
 21
12.3615604659
 31
0.0
  0
SPLINE
  5
27F
330
1F
100
AcDbEntity
  8
0
  6
Continuous
 62
     7
370
    25
100
AcDbSpline
210
0.0
220
0.0
230
1.0
 70
     8
 71
     3
 72
    13
 73
     9
 74
     0
 42
0.00000001
 43
0.00000001
 40
0.0
 40
0.0
 40
0.0
 40
0.0
 40
0.1858612659538555
 40
0.370826861881474
 40
0.5778789812982865
 40
0.8292801638916693
 40
0.9889166448653789
 40
1.0
 40
1.0
 40
1.0
 40
1.0
 10
25.27457843741269
 20
12.23194250900307
 30
0.0
 10
25.27456940566471
 20
12.23143931676208
 30
0.0
 10
25.27455138569296
 20
12.23043535717593
 30
0.0
 10
25.27477452386544
 20
12.22911080838917
 30
0.0
 10
25.27517029756702
 20
12.22797326860143
 30
0.0
 10
25.27568166348996
 20
12.22727992892075
 30
0.0
 10
25.27607440777625
 20
12.22704612963757
 30
0.0
 10
25.27623852645664
 20
12.22699354634937
 30
0.0
 10
25.27624918125612
 20
12.2269901325735
 30
0.0
  0
LINE
  5
280
330
1F
100
AcDbEntity
  8
0
  6
Continuous
 62
     7
370
    25
100
AcDbLine
 10
25.2745943168
 20
12.2324861771
 30
0.0
 11
25.2745943168
 21
12.3615604659
 31
0.0
  0
LINE
  5
281
330
1F
100
AcDbEntity
  8
0
  6
Continuous
 62
     7
370
    25
100
AcDbLine
 10
25.2745943168
 20
12.2324861771
 30
0.0
 11
25.2745784374
 21
12.231942509
 31
0.0
  0
LINE
  5
282
330
1F
100
AcDbEntity
  8
0
  6
Continuous
 62
     7
370
    25
100
AcDbLine
 10
25.4403244991
 20
12.3615604659
 30
0.0
 11
25.2745943168
 21
12.3615604659
 31
0.0
  0
LINE
  5
283
330
1F
100
AcDbEntity
  8
0
  6
Continuous
 62
     7
370
    25
100
AcDbLine
 10
25.198060629
 20
12.2538126032
 30
0.0
 11
25.1981972176
 21
12.2555550302
 31
0.0
  0
SPLINE
  5
284
330
1F
100
AcDbEntity
  8
0
  6
Continuous
 62
     7
370
    25
100
AcDbSpline
210
0.0
220
0.0
230
1.0
 70
     8
 71
     3
 72
    11
 73
     7
 74
     0
 42
0.00000001
 43
0.00000001
 40
0.0
 40
0.0
 40
0.0
 40
0.0
 40
0.2575297854246545
 40
0.5163496293046864
 40
0.7576598734532892
 40
1.0
 40
1.0
 40
1.0
 40
1.0
 10
25.19819721762287
 20
12.25555503016577
 30
0.0
 10
25.20451272535835
 20
12.25278498390645
 30
0.0
 10
25.21717537745783
 20
12.24723101523912
 30
0.0
 10
25.23639886355634
 20
12.2408704521272
 30
0.0
 10
25.2555480069336
 20
12.23579529258393
 30
0.0
 10
25.26823654054664
 20
12.23359078034654
 30
0.0
 10
25.27459431679946
 20
12.23248617708982
 30
0.0
  0
SPLINE
  5
285
330
1F
100
AcDbEntity
  8
0
  6
Continuous
 62
     7
370
    25
100
AcDbSpline
210
0.0
220
0.0
230
1.0
 70
     8
 71
     3
 72
    12
 73
     8
 74
     0
 42
0.00000001
 43
0.00000001
 40
0.0
 40
0.0
 40
0.0
 40
0.0
 40
0.2610466257349965
 40
0.5203567671401822
 40
0.8317512029511708
 40
0.9869218091754108
 40
1.0
 40
1.0
 40
1.0
 40
1.0
 10
25.19806062902071
 20
12.25381260321603
 30
0.0
 10
25.19799791538142
 20
12.25325277753629
 30
0.0
 10
25.19787290527449
 20
12.25213685014192
 30
0.0
 10
25.19804845379101
 20
12.25070836967021
 30
0.0
 10
25.19838976825645
 20
12.24978183020842
 30
0.0
 10
25.19870432124742
 20
12.24936196761275
 30
0.0
 10
25.19882446951097
 20
12.24924035912987
 30
0.0
 10
25.19883380878677
 20
12.24923090634939
 30
0.0
  0
SPLINE
  5
286
330
1F
100
AcDbEntity
  8
0
  6
Continuous
 62
     7
370
    25
100
AcDbSpline
210
0.0
220
0.0
230
1.0
 70
     8
 71
     3
 72
    12
 73
     8
 74
     0
 42
0.00000001
 43
0.00000001
 40
0.0
 40
0.0
 40
0.0
 40
0.0
 40
0.221718115512276
 40
0.4435284651931607
 40
0.6625812968590342
 40
0.8762617802494709
 40
1.0
 40
1.0
 40
1.0
 40
1.0
 10
25.20114260516913
 20
12.36156046591083
 30
0.0
 10
25.20080496548388
 20
12.36152606317772
 30
0.0
 10
25.20012954565613
 20
12.36145724340004
 30
0.0
 10
25.19923220689875
 20
12.3609189680958
 30
0.0
 10
25.19856720796389
 20
12.36013075147795
 30
0.0
 10
25.19823940658534
 20
12.35929160998657
 30
0.0
 10
25.19820853781965
 20
12.35875664743131
 30
0.0
 10
25.19819721762288
 20
12.35856046591083
 30
0.0
  0
LINE
  5
287
330
1F
100
AcDbEntity
  8
0
  6
Continuous
 62
     7
370
    25
100
AcDbLine
 10
25.1981972176
 20
12.2555550302
 30
0.0
 11
25.1981972176
 21
12.3585604659
 31
0.0
  0
LINE
  5
288
330
1F
100
AcDbEntity
  8
0
  6
Continuous
 62
     7
370
    25
100
AcDbLine
 10
25.2745943168
 20
12.3615604659
 30
0.0
 11
25.2011426052
 21
12.3615604659
 31
0.0
  0
LINE
  5
289
330
1F
100
AcDbEntity
  8
0
  6
Continuous
 62
     7
370
    25
100
AcDbLine
 10
25.1981972176
 20
12.3585604659
 30
0.0
 11
25.1484750766
 21
12.3585604659
 31
0.0
  0
SPLINE
  5
28A
330
1F
100
AcDbEntity
  8
0
  6
Continuous
 62
     7
370
    25
100
AcDbSpline
210
0.0
220
0.0
230
1.0
 70
     8
 71
     3
 72
    13
 73
     9
 74
     0
 42
0.00000001
 43
0.00000001
 40
0.0
 40
0.0
 40
0.0
 40
0.0
 40
0.0450838408431448
 40
0.1423612177183486
 40
0.3570576764388284
 40
0.5714659061395532
 40
0.7857353221861739
 40
1.0
 40
1.0
 40
1.0
 40
1.0
 10
25.14847507664444
 20
12.35856046591084
 30
0.0
 10
25.14847761711396
 20
12.35863095392176
 30
0.0
 10
25.14848563915304
 20
12.35885353387241
 30
0.0
 10
25.14857488501176
 20
12.35940742316907
 30
0.0
 10
25.14889152015866
 20
12.36018548006211
 30
0.0
 10
25.14955718005648
 20
12.36094505431863
 30
0.0
 10
25.15042373586526
 20
12.36146119153816
 30
0.0
 10
25.15106988795842
 20
12.3615273746972
 30
0.0
 10
25.1513929604328
 20
12.36156046591083
 30
0.0
  0
LINE
  5
28B
330
1F
100
AcDbEntity
  8
0
  6
Continuous
 62
     7
370
    25
100
AcDbLine
 10
25.1513929604
 20
12.3615604659
 30
0.0
 11
25.2011426052
 21
12.3615604659
 31
0.0
  0
LINE
  5
28C
330
1F
100
AcDbEntity
  8
0
  6
Continuous
 62
     7
370
    25
100
AcDbLine
 10
25.1257774942
 20
12.3880550063
 30
0.0
 11
25.1257691052
 21
12.3872252084
 31
0.0
  0
SPLINE
  5
28D
330
1F
100
AcDbEntity
  8
0
  6
Continuous
 62
     7
370
    25
100
AcDbSpline
210
0.0
220
0.0
230
1.0
 70
     8
 71
     3
 72
    11
 73
     7
 74
     0
 42
0.00000001
 43
0.00000001
 40
0.0
 40
0.0
 40
0.0
 40
0.0
 40
0.2519956718518513
 40
0.5058364467561436
 40
0.7521453372596837
 40
1.0
 40
1.0
 40
1.0
 40
1.0
 10
25.14847507664444
 20
12.35856046591084
 30
0.0
 10
25.14552124491727
 20
12.35990794728376
 30
0.0
 10
25.1395919536155
 20
12.3626127762387
 30
0.0
 10
25.13317276688128
 20
12.36926397824093
 30
0.0
 10
25.12835495041111
 20
12.37754274486171
 30
0.0
 10
25.12663843603956
 20
12.38454361941774
 30
0.0
 10
25.12577749417557
 20
12.38805500626644
 30
0.0
  0
LINE
  5
28E
330
1F
100
AcDbEntity
  8
0
  6
Continuous
 62
     7
370
    25
100
AcDbLine
 10
25.1257884287
 20
12.2538126032
 30
0.0
 11
25.198060629
 21
12.2538126032
 31
0.0
  0
LINE
  5
28F
330
1F
100
AcDbEntity
  8
0
  6
Continuous
 62
     7
370
    25
100
AcDbLine
 10
25.1257691052
 20
12.2555550302
 30
0.0
 11
25.1257884287
 21
12.2538126032
 31
0.0
  0
LINE
  5
290
330
1F
100
AcDbEntity
  8
0
  6
Continuous
 62
     7
370
    25
100
AcDbLine
 10
25.1257691052
 20
12.2555550302
 30
0.0
 11
25.1257691052
 21
12.3872252084
 31
0.0
  0
SPLINE
  5
291
330
1F
100
AcDbEntity
  8
0
  6
Continuous
 62
     7
370
    25
100
AcDbSpline
210
0.0
220
0.0
230
1.0
 70
     8
 71
     3
 72
    12
 73
     8
 74
     0
 42
0.00000001
 43
0.00000001
 40
0.0
 40
0.0
 40
0.0
 40
0.0
 40
0.0130781908268871
 40
0.1682487970430994
 40
0.4796432328543368
 40
0.7389533742631452
 40
1.0
 40
1.0
 40
1.0
 40
1.0
 10
25.12905313138199
 20
12.24923090634941
 30
0.0
 10
25.12903036850613
 20
12.24924035912989
 30
0.0
 10
25.12873752781192
 20
12.24936196761272
 30
0.0
 10
25.12793414474138
 20
12.24978183020847
 30
0.0
 10
25.1268913945637
 20
12.25070836967021
 30
0.0
 10
25.12600832427521
 20
12.25213685014192
 30
0.0
 10
25.12586189012483
 20
12.2532527775363
 30
0.0
 10
25.1257884287167
 20
12.25381260321603
 30
0.0
  0
SPLINE
  5
292
330
1F
100
AcDbEntity
  8
0
  6
Continuous
 62
     7
370
    25
100
AcDbSpline
210
0.0
220
0.0
230
1.0
 70
     8
 71
     3
 72
    11
 73
     7
 74
     0
 42
0.00000001
 43
0.00000001
 40
0.0
 40
0.0
 40
0.0
 40
0.0
 40
0.2419117087060663
 40
0.4852111572905043
 40
0.7416738144490804
 40
1.0
 40
1.0
 40
1.0
 40
1.0
 10
25.12923656097077
 20
12.39003730579414
 30
0.0
 10
25.13007292053955
 20
12.38673526107853
 30
0.0
 10
25.13175043749998
 20
12.38011222928542
 30
0.0
 10
25.13637873395994
 20
12.37214188596625
 30
0.0
 10
25.14262386262828
 20
12.36560151539867
 30
0.0
 10
25.14846288210841
 20
12.36291072927612
 30
0.0
 10
25.1513929604328
 20
12.36156046591083
 30
0.0
  0
LINE
  5
293
330
1F
100
AcDbEntity
  8
0
  6
Continuous
 62
     7
370
    25
100
AcDbLine
 10
25.1996158993
 20
12.3900373058
 30
0.0
 11
25.129236561
 21
12.3900373058
 31
0.0
  0
SPLINE
  5
294
330
1F
100
AcDbEntity
  8
0
  6
Continuous
 62
     7
370
    25
100
AcDbSpline
210
0.0
220
0.0
230
1.0
 70
     8
 71
     3
 72
    11
 73
     7
 74
     0
 42
0.00000001
 43
0.00000001
 40
0.0
 40
0.0
 40
0.0
 40
0.0
 40
0.2591980952717172
 40
0.5206242105089931
 40
0.7595444126799462
 40
1.0
 40
1.0
 40
1.0
 40
1.0
 10
25.21982669227878
 20
12.36156046591084
 30
0.0
 10
25.21690708272654
 20
12.36292011705117
 30
0.0
 10
25.21104276718619
 20
12.36565110664723
 30
0.0
 10
25.20521759019621
 20
12.37224860915336
 30
0.0
 10
25.20123050587037
 20
12.38024295307046
 30
0.0
 10
25.20015524945132
 20
12.38676555783697
 30
0.0
 10
25.1996158992809
 20
12.39003730579414
 30
0.0
  0
SPLINE
  5
295
330
1F
100
AcDbEntity
  8
0
  6
Continuous
 62
     7
370
    25
100
AcDbSpline
210
0.0
220
0.0
230
1.0
 70
     8
 71
     3
 72
    14
 73
    10
 74
     0
 42
0.00000001
 43
0.00000001
 40
0.0
 40
0.0
 40
0.0
 40
0.0
 40
0.1465205959107165
 40
0.2927124607891931
 40
0.4464049764393473
 40
0.6728524845645315
 40
0.9030242191897182
 40
0.9876334780990348
 40
0.9999999999999999
 40
0.9999999999999999
 40
0.9999999999999999
 40
0.9999999999999999
 10
25.12577749417557
 20
12.38805500626644
 30
0.0
 10
25.12580655043006
 20
12.38831441048097
 30
0.0
 10
25.12586459774895
 20
12.38883263691528
 30
0.0
 10
25.12624169932977
 20
12.38946068166376
 30
0.0
 10
25.12685225832718
 20
12.38998071648717
 30
0.0
 10
25.12773024255075
 20
12.39026311393484
 30
0.0
 10
25.12856684868811
 20
12.39022107735596
 30
0.0
 10
25.12906959725665
 20
12.39009176254092
 30
0.0
 10
25.129217677516
 20
12.39004346480611
 30
0.0
 10
25.12923656097077
 20
12.39003730579414
 30
0.0
  0
SPLINE
  5
296
330
1F
100
AcDbEntity
  8
0
  6
Continuous
 62
     7
370
    25
100
AcDbSpline
210
0.0
220
0.0
230
1.0
 70
     8
 71
     3
 72
    13
 73
     9
 74
     0
 42
0.00000001
 43
0.00000001
 40
0.0
 40
0.0
 40
0.0
 40
0.0
 40
0.1350985904005712
 40
0.2689324054680956
 40
0.4954646539279586
 40
0.8496587834379747
 40
0.988296408573452
 40
1.0
 40
1.0
 40
1.0
 40
1.0
 10
25.20217658166781
 20
12.38853029864998
 30
0.0
 10
25.20216000955745
 20
12.38875899811453
 30
0.0
 10
25.20212702048264
 20
12.38921425598916
 30
0.0
 10
25.20181272627974
 20
12.38977858402527
 30
0.0
 10
25.20117819481233
 20
12.3902337859972
 30
0.0
 10
25.20038404333251
 20
12.39026182224014
 30
0.0
 10
25.19980428765293
 20
12.39010559645904
 30
0.0
 10
25.19962950552082
 20
12.39004223804745
 30
0.0
 10
25.1996158992809
 20
12.39003730579414
 30
0.0
  0
SPLINE
  5
297
330
1F
100
AcDbEntity
  8
0
  6
Continuous
 62
     7
370
    25
100
AcDbSpline
210
0.0
220
0.0
230
1.0
 70
     8
 71
     3
 72
    11
 73
     7
 74
     0
 42
0.00000001
 43
0.00000001
 40
0.0
 40
0.0
 40
0.0
 40
0.0
 40
0.2413129272733361
 40
0.4836503712718632
 40
0.7411830816102206
 40
0.9999999999999999
 40
0.9999999999999999
 40
0.9999999999999999
 40
0.9999999999999999
 10
26.17162998290786
 20
12.23248617708982
 30
0.0
 10
26.17796085861881
 20
12.23358563713965
 30
0.0
 10
26.19064948836888
 20
12.23578922510034
 30
0.0
 10
26.20976620220125
 20
12.24085305369078
 30
0.0
 10
26.22901654962744
 20
12.24721888891835
 30
0.0
 10
26.24167973976716
 20
12.25277171295873
 30
0.0
 10
26.24802708208446
 20
12.25555503016578
 30
0.0
  0
LINE
  5
298
330
1F
100
AcDbEntity
  8
0
  6
Continuous
 62
     7
370
    25
100
AcDbLine
 10
26.2480270821
 20
12.2555550302
 30
0.0
 11
26.2480077586
 21
12.2538126032
 31
0.0
  0
SPLINE
  5
299
330
1F
100
AcDbEntity
  8
0
  6
Continuous
 62
     7
370
    25
100
AcDbSpline
210
0.0
220
0.0
230
1.0
 70
     8
 71
     3
 72
    12
 73
     8
 74
     0
 42
0.00000001
 43
0.00000001
 40
0.0
 40
0.0
 40
0.0
 40
0.0
 40
0.2610466257347913
 40
0.5203567671417041
 40
0.8317512029530578
 40
0.9869218091718891
 40
0.9999999999999999
 40
0.9999999999999999
 40
0.9999999999999999
 40
0.9999999999999999
 10
26.2480077586023
 20
12.25381260321604
 30
0.0
 10
26.24793429719416
 20
12.2532527775363
 30
0.0
 10
26.24778786304379
 20
12.25213685014192
 30
0.0
 10
26.24690479275538
 20
12.25070836967022
 30
0.0
 10
26.24586204257765
 20
12.24978183020847
 30
0.0
 10
26.24505865950711
 20
12.24936196761272
 30
0.0
 10
26.24476581881292
 20
12.24924035912988
 30
0.0
 10
26.24474305593705
 20
12.24923090634939
 30
0.0
  0
SPLINE
  5
29A
330
1F
100
AcDbEntity
  8
0
  6
Continuous
 62
     7
370
    25
100
AcDbSpline
210
0.0
220
0.0
230
1.0
 70
     8
 71
     3
 72
     9
 73
     5
 74
     0
 42
0.00000001
 43
0.00000001
 40
0.0
 40
0.0
 40
0.0
 40
0.0
 40
0.7268678013261773
 40
1.0
 40
1.0
 40
1.0
 40
1.0
 10
26.17162998290783
 20
12.38722520838482
 30
0.0
 10
26.17162903530783
 20
12.38755494352691
 30
0.0
 10
26.17162773163198
 20
12.38800858192097
 30
0.0
 10
26.17162134896353
 20
12.38841837183088
 30
0.0
 10
26.17161960565126
 20
12.38853029864997
 30
0.0
  0
SPLINE
  5
29B
330
1F
100
AcDbEntity
  8
0
  6
Continuous
 62
     7
370
    25
100
AcDbSpline
210
0.0
220
0.0
230
1.0
 70
     8
 71
     3
 72
    11
 73
     7
 74
     0
 42
0.00000001
 43
0.00000001
 40
0.0
 40
0.0
 40
0.0
 40
0.0
 40
0.3106988681015929
 40
0.6258554267771836
 40
0.8120479219909157
 40
1.0
 40
1.0
 40
1.0
 40
1.0
 10
26.17324117666615
 20
12.39015123206244
 30
0.0
 10
26.1729932245165
 20
12.39016162661352
 30
0.0
 10
26.17249376277277
 20
12.39018256484945
 30
0.0
 10
26.17198465701347
 20
12.38977379055678
 30
0.0
 10
26.17166893219715
 20
12.38921519642401
 30
0.0
 10
26.1716360993037
 20
12.38875931257413
 30
0.0
 10
26.17161960565126
 20
12.38853029864997
 30
0.0
  0
SPLINE
  5
29C
330
1F
100
AcDbEntity
  8
0
  6
Continuous
 62
     7
370
    25
100
AcDbSpline
210
0.0
220
0.0
230
1.0
 70
     8
 71
     3
 72
    12
 73
     8
 74
     0
 42
0.00000001
 43
0.00000001
 40
0.0
 40
0.0
 40
0.0
 40
0.0
 40
0.1130801400946763
 40
0.4115717066439926
 40
0.6141613493686203
 40
0.8068640164405929
 40
0.9999999999999999
 40
0.9999999999999999
 40
0.9999999999999999
 40
0.9999999999999999
 10
26.24566664829975
 20
12.39018416157125
 30
0.0
 10
26.24579836843852
 20
12.39019512532693
 30
0.0
 10
26.24627778314627
 20
12.39023502951906
 30
0.0
 10
26.24694293951856
 20
12.38997143676496
 30
0.0
 10
26.24755469575949
 20
12.38946263022602
 30
0.0
 10
26.24793153858106
 20
12.38883215871713
 30
0.0
 10
26.24798961987989
 20
12.38831425096229
 30
0.0
 10
26.24801869314343
 20
12.38805500626645
 30
0.0
  0
LINE
  5
29D
330
1F
100
AcDbEntity
  8
0
  6
Continuous
 62
     7
370
    25
100
AcDbLine
 10
26.2480186931
 20
12.3880550063
 30
0.0
 11
26.2480270821
 21
12.3872252084
 31
0.0
  0
LINE
  5
29E
330
1F
100
AcDbEntity
  8
0
  6
Continuous
 62
     7
370
    25
100
AcDbLine
 10
26.2480270821
 20
12.3872252084
 30
0.0
 11
26.1716299829
 21
12.3872252084
 31
0.0
  0
LINE
  5
29F
330
1F
100
AcDbEntity
  8
0
  6
Continuous
 62
     7
370
    25
100
AcDbLine
 10
26.1716299829
 20
12.3872252084
 30
0.0
 11
26.1716299829
 21
12.3615604659
 31
0.0
  0
LINE
  5
2A0
330
1F
100
AcDbEntity
  8
0
  6
Continuous
 62
     7
370
    25
100
AcDbLine
 10
26.2480270821
 20
12.2555550302
 30
0.0
 11
26.2480270821
 21
12.3872252084
 31
0.0
  0
SPLINE
  5
2A1
330
1F
100
AcDbEntity
  8
0
  6
Continuous
 62
     7
370
    25
100
AcDbSpline
210
0.0
220
0.0
230
1.0
 70
     8
 71
     3
 72
    11
 73
     7
 74
     0
 42
0.00000001
 43
0.00000001
 40
0.0
 40
0.0
 40
0.0
 40
0.0
 40
0.2994648304645163
 40
0.601033119892657
 40
0.8001673771684981
 40
1.0
 40
1.0
 40
1.0
 40
1.0
 10
26.17161960565126
 20
12.38853029864997
 30
0.0
 10
26.17110278089392
 20
12.38499634711588
 30
0.0
 10
26.17006550117108
 20
12.37790362135977
 30
0.0
 10
26.16644263177966
 20
12.37048645727384
 30
0.0
 10
26.16212423453885
 20
12.36506813165039
 30
0.0
 10
26.15888040767427
 20
12.36273105145961
 30
0.0
 10
26.15725565518808
 20
12.36156046591085
 30
0.0
  0
LWPOLYLINE
  5
2A2
330
1F
100
AcDbEntity
  8
0
  6
Continuous
 62
     7
370
    25
100
AcDbPolyline
 90
       90
 70
   128
 43
0.0
 10
25.5656539742
 20
16.3716283508
 10
25.5715605774
 20
16.359263548
 10
25.5788477464
 20
16.3414833284
 10
25.5850501063
 20
16.3230389945
 10
25.5901605035
 20
16.3039518198
 10
25.5941730437
 20
16.2842438191
 10
25.5970830988
 20
16.2639377234
 10
25.5988873124
 20
16.2430569534
 10
25.5995836036
 20
16.2216255927
 10
25.5991711693
 20
16.1996683599
 10
25.5976504853
 20
16.1772105801
 10
25.5950233053
 20
16.1542781559
 10
25.5912926596
 20
16.1308975372
 10
25.5864628511
 20
16.1070956909
 10
25.5805394503
 20
16.0829000696
 10
25.5735292893
 20
16.0583385802
 10
25.5654404535
 20
16.0334395517
 10
25.5562822723
 20
16.0082317021
 10
25.5460653088
 20
15.9827441059
 10
25.534801347
 20
15.9570061601
 10
25.5225033787
 20
15.9310475505
 10
25.509185588
 20
15.9048982173
 10
25.4948633357
 20
15.8785883208
 10
25.4795531406
 20
15.8521482065
 10
25.4632726615
 20
15.82560837
 10
25.446040676
 20
15.798999422
 10
25.4278770591
 20
15.7723520529
 10
25.4088027606
 20
15.7456969973
 10
25.3888397805
 20
15.7190649989
 10
25.3680111438
 20
15.6924867745
 10
25.3463408739
 20
15.6659929791
 10
25.323853965
 20
15.6396141703
 10
25.3005763532
 20
15.6133807731
 10
25.2765348866
 20
15.5873230446
 10
25.2517572942
 20
15.5614710394
 10
25.2262721542
 20
15.5358545749
 10
25.2001088607
 20
15.5105031968
 10
25.1732975902
 20
15.4854461449
 10
25.1458692663
 20
15.4607123198
 10
25.1178555245
 20
15.4363302489
 10
25.0892886754
 20
15.4123280544
 10
25.0602016677
 20
15.3887334199
 10
25.0306280498
 20
15.3655735592
 10
25.0006019316
 20
15.3428751845
 10
24.9701579447
 20
15.3206644758
 10
24.9393312028
 20
15.2989670506
 10
24.908157261
 20
15.2778079345
 10
24.8766720749
 20
15.2572115319
 10
24.8449119591
 20
15.2372015986
 10
24.8129135452
 20
15.2178012137
 10
24.7807137397
 20
15.1990327533
 10
24.7483496815
 20
15.1809178647
 10
24.7158586987
 20
15.1634774414
 10
24.683278266
 20
15.1467315988
 10
24.6506459612
 20
15.1306996514
 10
24.6179994219
 20
15.1154000903
 10
24.5853763023
 20
15.1008505616
 10
24.5528142292
 20
15.0870678467
 10
24.5203507593
 20
15.0740678422
 10
24.4880233356
 20
15.0618655423
 10
24.4558692441
 20
15.0504750209
 10
24.4239255707
 20
15.0399094156
 10
24.3922291588
 20
15.0301809127
 10
24.3608165668
 20
15.0213007328
 10
24.3297240253
 20
15.0132791183
 10
24.2989873961
 20
15.0061253212
 10
24.2686421303
 20
14.9998475925
 10
24.2387232278
 20
14.9944531729
 10
24.2092651966
 20
14.9899482843
 10
24.1803020132
 20
14.9863381225
 10
24.1518670832
 20
14.9836268514
 10
24.1239932031
 20
14.9818175981
 10
24.0967125223
 20
14.9809124495
 10
24.0700565058
 20
14.9809124495
 10
24.0440558985
 20
14.9818175981
 10
24.0187406889
 20
14.9836268514
 10
23.9941400753
 20
14.9863381225
 10
23.9702824316
 20
14.9899482843
 10
23.947195275
 20
14.9944531729
 10
23.9249052339
 20
14.9998475925
 10
23.9034380172
 20
15.0061253212
 10
23.8828183849
 20
15.0132791183
 10
23.8630701194
 20
15.0213007328
 10
23.8442159981
 20
15.0301809127
 10
23.826277767
 20
15.0399094156
 10
23.8092761159
 20
15.0504750209
 10
23.7932306543
 20
15.0618655423
 10
23.7781598886
 20
15.0740678422
 10
23.7640812013
 20
15.0870678467
 10
23.7560178557
 20
15.0953505505
  0
LINE
  5
2A3
330
1F
100
AcDbEntity
  8
0
  6
Continuous
 62
     7
370
    25
100
AcDbLine
 10
25.5958044922
 20
13.7115426092
 30
0.0
 11
25.5349195212
 21
13.7976469609
 31
0.0
  0
LWPOLYLINE
  5
2A4
330
1F
100
AcDbEntity
  8
0
  6
Continuous
 62
     7
370
    25
100
AcDbPolyline
 90
       49
 70
   128
 43
0.0
 10
25.5958044922
 20
13.7115426092
 10
25.6141511383
 20
13.7120067014
 10
25.633105458
 20
13.7133977474
 10
25.6526171877
 20
13.7157120583
 10
25.6726345859
 20
13.718943497
 10
25.6931045699
 20
13.7230834943
 10
25.7139728572
 20
13.7281210717
 10
25.7351841087
 20
13.7340428704
 10
25.7566820761
 20
13.740833187
 10
25.7784097505
 20
13.7484740146
 10
25.8003095141
 20
13.7569450911
 10
25.8223232926
 20
13.7662239529
 10
25.8443927095
 20
13.7762859941
 10
25.8664592407
 20
13.7871045318
 10
25.8884643696
 20
13.7986508774
 10
25.9103497427
 20
13.8108944119
 10
25.9320573238
 20
13.8238026677
 10
25.9535295484
 20
13.8373414145
 10
25.9747094759
 20
13.8514747499
 10
25.995540941
 20
13.8661651948
 10
26.0159687024
 20
13.8813737929
 10
26.0359385894
 20
13.8970602136
 10
26.0553976454
 20
13.9131828595
 10
26.0742942685
 20
13.929698976
 10
26.0925783482
 20
13.9465647656
 10
26.1102013984
 20
13.963735503
 10
26.1271166861
 20
13.9811656547
 10
26.1432793548
 20
13.998808999
 10
26.1586465441
 20
14.0166187488
 10
26.173177503
 20
14.0345476761
 10
26.1868336979
 20
14.0525482364
 10
26.1995789152
 20
14.0705726955
 10
26.2113793567
 20
14.0885732558
 10
26.2222037299
 20
14.106502183
 10
26.2320233304
 20
14.1243119329
 10
26.2408121184
 20
14.1419552771
 10
26.2485467877
 20
14.1593854288
 10
26.2552068272
 20
14.1765561663
 10
26.2607745758
 20
14.1934219558
 10
26.2652352688
 20
14.2099380724
 10
26.2685770772
 20
14.2260607182
 10
26.2707911392
 20
14.2417471389
 10
26.2718715834
 20
14.256955737
 10
26.2718155447
 20
14.2716461819
 10
26.2706231718
 20
14.2857795173
 10
26.2682976266
 20
14.2993182641
 10
26.2648450759
 20
14.3122265199
 10
26.2602746754
 20
14.3244700544
 10
26.2562915641
 20
14.3328688572
  0
ARC
  5
2A5
330
1F
100
AcDbEntity
  8
0
  6
Continuous
 62
     7
370
    25
100
AcDbCircle
 10
25.857597018
 20
13.8747048695
 30
0.0
 40
0.3084756874674374
100
AcDbArc
 50
211.933234744
 51
267.3443784463
  0
LINE
  5
2A6
330
1F
100
AcDbEntity
  8
0
  6
Continuous
 62
     7
370
    25
100
AcDbLine
 10
25.2066184666
 20
12.2269901326
 30
0.0
 11
25.2062096405
 21
12.2269901326
 31
0.0
  0
LINE
  5
2A7
330
1F
100
AcDbEntity
  8
0
  6
Continuous
 62
     7
370
    25
100
AcDbLine
 10
26.1649740395
 20
12.2476761081
 30
0.0
 11
26.1678412253
 21
12.2492309063
 31
0.0
  0
LINE
  5
2A8
330
1F
100
AcDbEntity
  8
0
  6
Continuous
 62
     7
370
    25
100
AcDbLine
 10
26.1675865468
 20
12.2269901326
 30
0.0
 11
26.1086056471
 21
12.2269901326
 31
0.0
  0
LINE
  5
2A9
330
1F
100
AcDbEntity
  8
0
  6
Continuous
 62
     7
370
    25
100
AcDbLine
 10
25.2745784374
 20
12.231942509
 30
0.0
 11
25.4560136555
 21
12.231942509
 31
0.0
  0
LINE
  5
2AA
330
1F
100
AcDbEntity
  8
0
  6
Continuous
 62
     7
370
    25
100
AcDbLine
 10
26.1287898571
 20
12.231942509
 30
0.0
 11
26.1718980937
 21
12.231942509
 31
0.0
  0
LINE
  5
2AB
330
1F
100
AcDbEntity
  8
0
  6
Continuous
 62
     7
370
    25
100
AcDbLine
 10
8.7310455871
 20
4.4558172832
 30
0.0
 11
8.7310455871
 21
5.1948607571
 31
0.0
  0
LINE
  5
2AC
330
1F
100
AcDbEntity
  8
0
  6
Continuous
 62
     7
370
    25
100
AcDbLine
 10
8.7310455871
 20
2.9878172832
 30
0.0
 11
8.7310455871
 21
4.3200795262
 31
0.0
  0
LINE
  5
2AD
330
1F
100
AcDbEntity
  8
0
  6
Continuous
 62
     7
370
    25
100
AcDbLine
 10
8.7310455871
 20
2.6698607571
 30
0.0
 11
8.7310455871
 21
2.8520795262
 31
0.0
  0
LINE
  5
2AE
330
1F
100
AcDbEntity
  8
0
  6
Continuous
 62
     7
370
    25
100
AcDbLine
 10
6.5110455871
 20
7.4148607571
 30
0.0
 11
6.5110455871
 21
2.6698607571
 31
0.0
  0
LINE
  5
2AF
330
1F
100
AcDbEntity
  8
0
  6
Continuous
 62
     7
370
    25
100
AcDbLine
 10
6.5110455871
 20
7.4148607571
 30
0.0
 11
8.7310455871
 21
5.1948607571
 31
0.0
  0
LINE
  5
2B0
330
1F
100
AcDbEntity
  8
0
  6
Continuous
 62
     7
370
    25
100
AcDbLine
 10
6.5110455871
 20
2.6698607571
 30
0.0
 11
8.7310455871
 21
2.6698607571
 31
0.0
  0
SPLINE
  5
2B1
330
1F
100
AcDbEntity
  8
0
  6
Continuous
 62
     7
370
    25
100
AcDbSpline
210
0.0
220
0.0
230
1.0
 70
     8
 71
     3
 72
    26
 73
    22
 74
     0
 42
0.00000001
 43
0.00000001
 40
0.0
 40
0.0
 40
0.0
 40
0.0
 40
0.0366214964884406
 40
0.0894453430016757
 40
0.1437992306352533
 40
0.1966606285712058
 40
0.2510500574716202
 40
0.3039963223031458
 40
0.3584776806048213
 40
0.4114239354211582
 40
0.4659104750210914
 40
0.5187714412319918
 40
0.5731678399642102
 40
0.6259914691702997
 40
0.6803432448079293
 40
0.7332356294019756
 40
0.787657788596398
 40
0.8406177944135276
 40
0.8951155732594405
 40
0.9480366217047945
 40
1.0
 40
1.0
 40
1.0
 40
1.0
 10
8.73103221820615
 20
4.320079526237494
 30
0.0
 10
8.731032187469847
 20
4.320079604841119
 30
0.0
 10
8.731032112398665
 20
4.320079796824762
 30
0.0
 10
8.73089743051063
 20
4.322297842401854
 30
0.0
 10
8.730664002119
 20
4.326337479584048
 30
0.0
 10
8.730349507377062
 20
4.332238068862737
 30
0.0
 10
8.729999778671816
 20
4.339637365568044
 30
0.0
 10
8.729646910953406
 20
4.348487038204746
 30
0.0
 10
8.729336789110919
 20
4.35837436945586
 30
0.0
 10
8.729099492072185
 20
4.369195447707758
 30
0.0
 10
8.728965832935815
 20
4.380442512945342
 30
0.0
 10
8.728948597100022
 20
4.391998020174629
 30
0.0
 10
8.729049762854801
 20
4.403322951932108
 30
0.0
 10
8.729259417794797
 20
4.414306904937064
 30
0.0
 10
8.729550545088207
 20
4.424447014783472
 30
0.0
 10
8.729895320284838
 20
4.433643062140977
 30
0.0
 10
8.730249376666057
 20
4.441469043574815
 30
0.0
 10
8.730579360666407
 20
4.447853511537337
 30
0.0
 10
8.730839435884427
 20
4.452444040797551
 30
0.0
 10
8.731013688360141
 20
4.455343624086164
 30
0.0
 10
8.73103324945169
 20
4.45566036083124
 30
0.0
 10
8.731042940694058
 20
4.455817283186787
 30
0.0
  0
SPLINE
  5
2B2
330
1F
100
AcDbEntity
  8
0
  6
Continuous
 62
     7
370
    25
100
AcDbSpline
210
0.0
220
0.0
230
1.0
 70
     8
 71
     3
 72
    26
 73
    22
 74
     0
 42
0.00000001
 43
0.00000001
 40
0.0
 40
0.0
 40
0.0
 40
0.0
 40
0.0366214964884405
 40
0.0894453430016753
 40
0.1437992306352538
 40
0.1966606285712061
 40
0.2510500574716211
 40
0.3039963223031446
 40
0.358477680604821
 40
0.4114239354211583
 40
0.4659104750210921
 40
0.5187714412319918
 40
0.5731678399642114
 40
0.6259914691703005
 40
0.6803432448079306
 40
0.7332356294019777
 40
0.7876577885963988
 40
0.8406177944135275
 40
0.8951155732594402
 40
0.948036621704795
 40
1.0
 40
1.0
 40
1.0
 40
1.0
 10
8.73103221820615
 20
2.852079526237493
 30
0.0
 10
8.731032187469848
 20
2.85207960484112
 30
0.0
 10
8.731032112398665
 20
2.852079796824763
 30
0.0
 10
8.730897430510629
 20
2.854297842401852
 30
0.0
 10
8.730664002119
 20
2.858337479584049
 30
0.0
 10
8.730349507377062
 20
2.864238068862736
 30
0.0
 10
8.729999778671816
 20
2.871637365568044
 30
0.0
 10
8.729646910953406
 20
2.880487038204746
 30
0.0
 10
8.729336789110919
 20
2.89037436945586
 30
0.0
 10
8.729099492072185
 20
2.901195447707758
 30
0.0
 10
8.728965832935815
 20
2.912442512945342
 30
0.0
 10
8.728948597100022
 20
2.923998020174629
 30
0.0
 10
8.729049762854803
 20
2.935322951932107
 30
0.0
 10
8.729259417794797
 20
2.946306904937064
 30
0.0
 10
8.729550545088207
 20
2.956447014783472
 30
0.0
 10
8.729895320284838
 20
2.965643062140976
 30
0.0
 10
8.730249376666057
 20
2.973469043574815
 30
0.0
 10
8.730579360666407
 20
2.979853511537335
 30
0.0
 10
8.730839435884425
 20
2.984444040797551
 30
0.0
 10
8.731013688360141
 20
2.987343624086163
 30
0.0
 10
8.73103324945169
 20
2.98766036083124
 30
0.0
 10
8.731042940694058
 20
2.987817283186787
 30
0.0
  0
SPLINE
  5
2B3
330
1F
100
AcDbEntity
  8
0
  6
Continuous
 62
     7
370
    25
100
AcDbSpline
210
0.0
220
0.0
230
1.0
 70
    11
 71
     3
 72
    56
 73
    52
 74
     0
 42
0.00000001
 43
0.00000001
 40
0.0
 40
0.0
 40
0.0
 40
0.0
 40
0.0312500000000003
 40
0.0312500000000003
 40
0.0625000000000006
 40
0.0625000000000006
 40
0.0937500000000009
 40
0.0937500000000009
 40
0.1250000000000012
 40
0.1250000000000012
 40
0.1875000000000013
 40
0.1875000000000013
 40
0.2500000000000014
 40
0.2500000000000014
 40
0.2812500000000014
 40
0.2812500000000014
 40
0.3125000000000014
 40
0.3125000000000014
 40
0.3437500000000014
 40
0.3437500000000014
 40
0.3750000000000014
 40
0.3750000000000014
 40
0.4062500000000014
 40
0.4062500000000014
 40
0.4375000000000014
 40
0.4375000000000014
 40
0.4687500000000015
 40
0.4687500000000015
 40
0.5000000000000014
 40
0.5000000000000014
 40
0.5625000000000016
 40
0.5625000000000016
 40
0.6250000000000016
 40
0.6250000000000016
 40
0.6562500000000014
 40
0.6562500000000014
 40
0.6875000000000014
 40
0.6875000000000014
 40
0.7187500000000013
 40
0.7187500000000013
 40
0.7500000000000013
 40
0.7500000000000013
 40
0.8125000000000009
 40
0.8125000000000009
 40
0.8437500000000008
 40
0.8437500000000008
 40
0.8750000000000006
 40
0.8750000000000006
 40
0.9375000000000003
 40
0.9375000000000003
 40
1.0
 40
1.0
 40
1.0
 40
1.0
 10
7.125977734962708
 20
2.919860757088876
 30
0.0
 10
7.125977734962708
 20
2.915367221330898
 30
0.0
 10
7.125582134926709
 20
2.910948986314815
 30
0.0
 10
7.124033781351048
 20
2.902256894078631
 30
0.0
 10
7.122862196532169
 20
2.897937938836236
 30
0.0
 10
7.119809267168242
 20
2.889703507514436
 30
0.0
 10
7.11794307215882
 20
2.885798187494882
 30
0.0
 10
7.113543727441293
 20
2.878407202424755
 30
0.0
 10
7.110987889631064
 20
2.874908598110249
 30
0.0
 10
7.102635807009745
 20
2.865501721289765
 30
0.0
 10
7.095931066352456
 20
2.860435755900609
 30
0.0
 10
7.081567675478267
 20
2.853652421697411
 30
0.0
 10
7.073760389223482
 20
2.851865529115967
 30
0.0
 10
7.062235603974732
 20
2.851858385770869
 30
0.0
 10
7.058347219307495
 20
2.852299881418204
 30
0.0
 10
7.050845885653668
 20
2.854034768782103
 30
0.0
 10
7.047212707227156
 20
2.855318420860978
 30
0.0
 10
7.040178249225931
 20
2.858723042136276
 30
0.0
 10
7.036788674074249
 20
2.860851668283833
 30
0.0
 10
7.030532849897468
 20
2.865772649947823
 30
0.0
 10
7.02762596998669
 20
2.868581994557004
 30
0.0
 10
7.02226375768957
 20
2.874926505743876
 30
0.0
 10
7.019891644480565
 20
2.878364684718041
 30
0.0
 10
7.015751098653324
 20
2.885726881666638
 30
0.0
 10
7.013965190049863
 20
2.889700387795589
 30
0.0
 10
7.011104253679175
 20
2.897938673141855
 30
0.0
 10
7.010028091296362
 20
2.902177252439725
 30
0.0
 10
7.008572338085282
 20
2.910890833159466
 30
0.0
 10
7.008199613762503
 20
2.91539821641858
 30
0.0
 10
7.008195623585801
 20
2.928712650786933
 30
0.0
 10
7.009679789281251
 20
2.937660078055612
 30
0.0
 10
7.01535058743909
 20
2.954031249525856
 30
0.0
 10
7.019597676114673
 20
2.961621998087988
 30
0.0
 10
7.027530065120974
 20
2.971035157954006
 30
0.0
 10
7.030486927775875
 20
2.973908619683241
 30
0.0
 10
7.036762037430492
 20
2.978852966605849
 30
0.0
 10
7.04008501505728
 20
2.980944332958364
 30
0.0
 10
7.047110198431909
 20
2.984362246753315
 30
0.0
 10
7.050815251211697
 20
2.985676201936283
 30
0.0
 10
7.058291151143714
 20
2.987412084009361
 30
0.0
 10
7.062101211165821
 20
2.987856250793962
 30
0.0
 10
7.073758241479804
 20
2.987869668334147
 30
0.0
 10
7.081460394992055
 20
2.986110857147015
 30
0.0
 10
7.092317029217052
 20
2.980996946413367
 30
0.0
 10
7.095758268223173
 20
2.978910818762663
 30
0.0
 10
7.102284280621022
 20
2.97398612923319
 30
0.0
 10
7.105386593478009
 20
2.971117242577322
 30
0.0
 10
7.113748679218317
 20
2.96171212093994
 30
0.0
 10
7.118275599278903
 20
2.954134607269385
 30
0.0
 10
7.124355403775269
 20
2.937775973035966
 30
0.0
 10
7.125977734962708
 20
2.928847828604831
 30
0.0
 10
7.125977734962708
 20
2.919860757088876
 30
0.0
  0
SPLINE
  5
2B4
330
1F
100
AcDbEntity
  8
0
  6
Continuous
 62
     7
370
    25
100
AcDbSpline
210
0.0
220
0.0
230
1.0
 70
     8
 71
     3
 72
    23
 73
    19
 74
     0
 42
0.00000001
 43
0.00000001
 40
0.0
 40
0.0
 40
0.0
 40
0.0
 40
0.0516953948828884
 40
0.1193706089095853
 40
0.1870462314604039
 40
0.2548501503359266
 40
0.3226536454433854
 40
0.3904615329234514
 40
0.4582688187467726
 40
0.5259489851103669
 40
0.593629313656409
 40
0.6612496350326904
 40
0.7288706210382564
 40
0.7965921275889611
 40
0.8643137669395141
 40
0.932139707629554
 40
0.9999650378533094
 40
1.0
 40
1.0
 40
1.0
 40
1.0
 10
7.085024944371618
 20
2.984177235164305
 30
0.0
 10
7.082667831628056
 20
2.983216273914012
 30
0.0
 10
7.077224987364948
 20
2.980997303929436
 30
0.0
 10
7.06955723536039
 20
2.975417613812108
 30
0.0
 10
7.062130596949093
 20
2.968034848186281
 30
0.0
 10
7.055932483473495
 20
2.959195400941162
 30
0.0
 10
7.051048894628596
 20
2.949270662499393
 30
0.0
 10
7.047672471604925
 20
2.938486900189585
 30
0.0
 10
7.045827779690201
 20
2.927190799128173
 30
0.0
 10
7.045622503499396
 20
2.915688688107718
 30
0.0
 10
7.04699334246746
 20
2.904313113435252
 30
0.0
 10
7.049967694742645
 20
2.893392750261665
 30
0.0
 10
7.054407702637759
 20
2.883200607856441
 30
0.0
 10
7.060267606399555
 20
2.874079786296942
 30
0.0
 10
7.067328382999486
 20
2.866158893812321
 30
0.0
 10
7.075534001482524
 20
2.860019958879315
 30
0.0
 10
7.081398062833616
 20
2.856457403046145
 30
0.0
 10
7.084581462253586
 20
2.85552967938263
 30
0.0
 10
7.084583102365551
 20
2.855529201412234
 30
0.0
  0
INSERT
  5
2B5
330
1F
100
AcDbEntity
  8
0
  6
Continuous
 62
     7
100
AcDbBlockReference
  2
Block1
 10
6.687219657
 20
1.8669023948
 30
0.0
 41
0.5
 42
0.5
 43
0.5
  0
DIMENSION
  5
2B6
330
1F
100
AcDbEntity
  8
0
  6
Continuous
 62
     7
370
    18
100
AcDbDimension
  2
_D_4
 10
4.7031416781
 20
7.4148607571
 30
0.0
 11
4.7031416781
 21
5.0423607571
 31
0.0
 70
   160
  1
<>
 71
     2
 42
-1.0
  3
SLDDIMSTYLE1
100
AcDbAlignedDimension
 13
6.5110455871
 23
2.6698607571
 33
0.0
 14
6.5110455871
 24
7.4148607571
 34
0.0
 50
90.0
100
AcDbRotatedDimension
  0
LINE
  5
2CA
330
1F
100
AcDbEntity
  8
0
  6
Continuous
 62
     7
370
    25
100
AcDbLine
 10
14.6040429862
 20
4.4708607571
 30
0.0
 11
14.6040429862
 21
5.1898607571
 31
0.0
  0
LINE
  5
2CB
330
1F
100
AcDbEntity
  8
0
  6
Continuous
 62
     7
370
    25
100
AcDbLine
 10
14.6040429862
 20
2.9878400498
 30
0.0
 11
14.6040429862
 21
4.3348607571
 31
0.0
  0
LINE
  5
2CC
330
1F
100
AcDbEntity
  8
0
  6
Continuous
 62
     7
370
    25
100
AcDbLine
 10
14.6040429862
 20
2.6698607571
 30
0.0
 11
14.6040429862
 21
2.8519173476
 31
0.0
  0
LINE
  5
2CD
330
1F
100
AcDbEntity
  8
0
  6
Continuous
 62
     7
370
    25
100
AcDbLine
 10
12.3840429862
 20
5.1898607571
 30
0.0
 11
12.3840429862
 21
2.6698607571
 31
0.0
  0
ARC
  5
2CE
330
1F
100
AcDbEntity
  8
0
  6
Continuous
 62
     7
370
    25
100
AcDbCircle
 10
12.4140429862
 20
5.1898607571
 30
0.0
 40
0.0300000000000002
100
AcDbArc
 50
90.0
 51
180.0
  0
ARC
  5
2CF
330
1F
100
AcDbEntity
  8
0
  6
Continuous
 62
     7
370
    25
100
AcDbCircle
 10
14.5740429862
 20
5.1898607571
 30
0.0
 40
0.0300000000000011
100
AcDbArc
 50
0.0
 51
90.0
  0
SPLINE
  5
2D0
330
1F
100
AcDbEntity
  8
0
  6
Continuous
 62
     7
370
    25
100
AcDbSpline
210
0.0
220
0.0
230
1.0
 70
     8
 71
     3
 72
    34
 73
    30
 74
     0
 42
0.00000001
 43
0.00000001
 40
0.0
 40
0.0
 40
0.0
 40
0.0
 40
0.0625000000000013
 40
0.0625000000000013
 40
0.1250000000000026
 40
0.1250000000000026
 40
0.1875000000000039
 40
0.1875000000000039
 40
0.2500000000000053
 40
0.2500000000000053
 40
0.3125000000000066
 40
0.3125000000000066
 40
0.3750000000000079
 40
0.3750000000000079
 40
0.4375000000000092
 40
0.4375000000000092
 40
0.5000000000000105
 40
0.5000000000000105
 40
0.6250000000000093
 40
0.6250000000000093
 40
0.750000000000008
 40
0.750000000000008
 40
0.812500000000006
 40
0.812500000000006
 40
0.875000000000004
 40
0.875000000000004
 40
0.937500000000002
 40
0.937500000000002
 40
1.0
 40
1.0
 40
1.0
 40
1.0
 10
14.6040429861553
 20
4.334860757088875
 30
0.0
 10
14.6040429861553
 20
4.334860757088876
 30
0.0
 10
14.60401552909204
 20
4.335304852606173
 30
0.0
 10
14.60391098765381
 20
4.337044840265309
 30
0.0
 10
14.60383448854923
 20
4.338331098107053
 30
0.0
 10
14.60364142081407
 20
4.34174133055586
 30
0.0
 10
14.60352464995496
 20
4.343872509818707
 30
0.0
 10
14.60327364677161
 20
4.348798668157451
 30
0.0
 10
14.60313834185334
 20
4.351610677990529
 30
0.0
 10
14.60286304780598
 20
4.357960960924243
 30
0.0
 10
14.60272751740596
 20
4.361400641828802
 30
0.0
 10
14.60247647962435
 20
4.36876734472109
 30
0.0
 10
14.6023597649343
 20
4.372743450813973
 30
0.0
 10
14.60216644221549
 20
4.380984654031795
 30
0.0
 10
14.6020899339362
 20
4.38522469702947
 30
0.0
 10
14.60198547758965
 20
4.393941314639369
 30
0.0
 10
14.6019580359997
 20
4.398449567566741
 30
0.0
 10
14.60195836510175
 20
4.411765283531443
 30
0.0
 10
14.60207175906845
 20
4.420712974225571
 30
0.0
 10
14.60245630086603
 20
4.437080872245119
 30
0.0
 10
14.60272897221619
 20
4.444668280190854
 30
0.0
 10
14.60313679852836
 20
4.454074993090567
 30
0.0
 10
14.60327475935807
 20
4.45694593743419
 30
0.0
 10
14.60352649324881
 20
4.461883909859155
 30
0.0
 10
14.6036409735564
 20
4.463972074935852
 30
0.0
 10
14.6038340650064
 20
4.467383142521482
 30
0.0
 10
14.60391195899074
 20
4.468692971492528
 30
0.0
 10
14.60401578132797
 20
4.470420727588695
 30
0.0
 10
14.6040429861553
 20
4.470860757088875
 30
0.0
 10
14.6040429861553
 20
4.470860757088875
 30
0.0
  0
SPLINE
  5
2D1
330
1F
100
AcDbEntity
  8
0
  6
Continuous
 62
     7
370
    25
100
AcDbSpline
210
0.0
220
0.0
230
1.0
 70
     8
 71
     3
 72
    45
 73
    41
 74
     0
 42
0.00000001
 43
0.00000001
 40
0.0
 40
0.0
 40
0.0
 40
0.0
 40
0.0094289094173972
 40
0.0366438128279961
 40
0.0630541983982909
 40
0.0894646038911424
 40
0.1166412925856633
 40
0.1438180124421541
 40
0.1702471250658865
 40
0.1966762613254043
 40
0.2238706913251654
 40
0.2510651314997815
 40
0.2775367390964848
 40
0.304008337171326
 40
0.3312488626646343
 40
0.3584893611680545
 40
0.3849610404740813
 40
0.4114326916498205
 40
0.4386758957910059
 40
0.4659190777322934
 40
0.4923480841110636
 40
0.5187770877739227
 40
0.5459751278979122
 40
0.5731731853201764
 40
0.5995834343361778
 40
0.6259937100464047
 40
0.6531693107228247
 40
0.6803449408455837
 40
0.7067895569217725
 40
0.7332341874849174
 40
0.7604450162698321
 40
0.7876558408805397
 40
0.8141343516346058
 40
0.8406128419935032
 40
0.8678616249117813
 40
0.8951103762937639
 40
0.9215694560744008
 40
0.9480285123619486
 40
0.9752587923886601
 40
1.0
 40
1.0
 40
1.0
 40
1.0
 10
14.60403950337666
 20
2.851917347559842
 30
0.0
 10
14.60404043096827
 20
2.851902124496645
 30
0.0
 10
14.60404403589137
 20
2.851842962715177
 30
0.0
 10
14.60401950321219
 20
2.85224450036993
 30
0.0
 10
14.60396694700615
 20
2.853109870377871
 30
0.0
 10
14.6038859065826
 20
2.854468869287307
 30
0.0
 10
14.603779209914
 20
2.856299878194508
 30
0.0
 10
14.60365015121968
 20
2.858589936151272
 30
0.0
 10
14.60350389652249
 20
2.861292126322928
 30
0.0
 10
14.60334376996402
 20
2.864400082557128
 30
0.0
 10
14.60317220682774
 20
2.867934902755744
 30
0.0
 10
14.60299564352052
 20
2.871844758525263
 30
0.0
 10
14.60282083103196
 20
2.876060413593596
 30
0.0
 10
14.60265085685366
 20
2.880582554049566
 30
0.0
 10
14.60248926707778
 20
2.88543087387864
 30
0.0
 10
14.60234230657841
 20
2.89052778312738
 30
0.0
 10
14.60221557182149
 20
2.895784979989836
 30
0.0
 10
14.60211048689449
 20
2.901209926766594
 30
0.0
 10
14.60203004978555
 20
2.906822059142164
 30
0.0
 10
14.60197747447384
 20
2.912525585476388
 30
0.0
 10
14.60195464875975
 20
2.918223497565936
 30
0.0
 10
14.60196063237178
 20
2.923929579072876
 30
0.0
 10
14.60199661511074
 20
2.929661736102148
 30
0.0
 10
14.60206128684529
 20
2.935321840014327
 30
0.0
 10
14.60215204944441
 20
2.940816239262032
 30
0.0
 10
14.60226609145218
 20
2.946163868371031
 30
0.0
 10
14.60240233565395
 20
2.951374599545068
 30
0.0
 10
14.60255568857389
 20
2.956360899434503
 30
0.0
 10
14.60272025620427
 20
2.961042486139455
 30
0.0
 10
14.60289259201507
 20
2.965440746473321
 30
0.0
 10
14.60306971418928
 20
2.96955472460029
 30
0.0
 10
14.60324492205759
 20
2.973312860498921
 30
0.0
 10
14.60341152097359
 20
2.976656764257923
 30
0.0
 10
14.60356685950315
 20
2.979607988008238
 30
0.0
 10
14.60370741942348
 20
2.9821587408848
 30
0.0
 10
14.60382765359764
 20
2.984258802903254
 30
0.0
 10
14.6039232741054
 20
2.985883146478644
 30
0.0
 10
14.6039927551362
 20
2.987037629898376
 30
0.0
 10
14.604035691676
 20
2.98774260164966
 30
0.0
 10
14.60403977363084
 20
2.987808621060093
 30
0.0
 10
14.60404171685965
 20
2.987840049830254
 30
0.0
  0
SPLINE
  5
2D2
330
1F
100
AcDbEntity
  8
0
  6
Continuous
 62
     7
370
    25
100
AcDbSpline
210
0.0
220
0.0
230
1.0
 70
    11
 71
     3
 72
    56
 73
    52
 74
     0
 42
0.00000001
 43
0.00000001
 40
0.0
 40
0.0
 40
0.0
 40
0.0
 40
0.0312500000000003
 40
0.0312500000000003
 40
0.0625000000000007
 40
0.0625000000000007
 40
0.093750000000001
 40
0.093750000000001
 40
0.1250000000000013
 40
0.1250000000000013
 40
0.1875000000000019
 40
0.1875000000000019
 40
0.2500000000000026
 40
0.2500000000000026
 40
0.2812500000000025
 40
0.2812500000000025
 40
0.3125000000000024
 40
0.3125000000000024
 40
0.3437500000000023
 40
0.3437500000000023
 40
0.3750000000000021
 40
0.3750000000000021
 40
0.406250000000002
 40
0.406250000000002
 40
0.4375000000000019
 40
0.4375000000000019
 40
0.4687500000000018
 40
0.4687500000000018
 40
0.5000000000000017
 40
0.5000000000000017
 40
0.5625000000000014
 40
0.5625000000000014
 40
0.6250000000000012
 40
0.6250000000000012
 40
0.6562500000000009
 40
0.6562500000000009
 40
0.6875000000000008
 40
0.6875000000000008
 40
0.7187500000000007
 40
0.7187500000000007
 40
0.7500000000000004
 40
0.7500000000000004
 40
0.8125000000000001
 40
0.8125000000000001
 40
0.84375
 40
0.84375
 40
0.8749999999999999
 40
0.8749999999999999
 40
0.9375
 40
0.9375
 40
1.0
 40
1.0
 40
1.0
 40
1.0
 10
12.99897513400931
 20
2.919860757088875
 30
0.0
 10
12.99897513400931
 20
2.915367221330898
 30
0.0
 10
12.99857953397331
 20
2.910948986314814
 30
0.0
 10
12.99703118039765
 20
2.90225689407863
 30
0.0
 10
12.99585959557877
 20
2.897937938836235
 30
0.0
 10
12.99280666621484
 20
2.889703507514435
 30
0.0
 10
12.99094047120542
 20
2.885798187494881
 30
0.0
 10
12.98654112648789
 20
2.878407202424754
 30
0.0
 10
12.98398528867766
 20
2.874908598110248
 30
0.0
 10
12.97563320605634
 20
2.865501721289764
 30
0.0
 10
12.96892846539906
 20
2.860435755900607
 30
0.0
 10
12.95456507452487
 20
2.853652421697409
 30
0.0
 10
12.94675778827008
 20
2.851865529115964
 30
0.0
 10
12.93523300302133
 20
2.851858385770866
 30
0.0
 10
12.93134461835409
 20
2.852299881418201
 30
0.0
 10
12.92384328470027
 20
2.8540347687821
 30
0.0
 10
12.92021010627376
 20
2.855318420860975
 30
0.0
 10
12.91317564827253
 20
2.858723042136272
 30
0.0
 10
12.90978607312085
 20
2.860851668283829
 30
0.0
 10
12.90353024894407
 20
2.86577264994782
 30
0.0
 10
12.90062336903329
 20
2.868581994557
 30
0.0
 10
12.89526115673617
 20
2.874926505743872
 30
0.0
 10
12.89288904352716
 20
2.878364684718037
 30
0.0
 10
12.88874849769992
 20
2.885726881666634
 30
0.0
 10
12.88696258909646
 20
2.889700387795585
 30
0.0
 10
12.88410165272578
 20
2.897938673141851
 30
0.0
 10
12.88302549034296
 20
2.902177252439721
 30
0.0
 10
12.88156973713188
 20
2.91089083315946
 30
0.0
 10
12.8811970128091
 20
2.915398216418575
 30
0.0
 10
12.8811930226324
 20
2.928712650786928
 30
0.0
 10
12.88267718832785
 20
2.937660078055607
 30
0.0
 10
12.88834798648569
 20
2.954031249525851
 30
0.0
 10
12.89259507516127
 20
2.961621998087984
 30
0.0
 10
12.90052746416757
 20
2.971035157954003
 30
0.0
 10
12.90348432682247
 20
2.973908619683238
 30
0.0
 10
12.90975943647709
 20
2.978852966605845
 30
0.0
 10
12.91308241410388
 20
2.98094433295836
 30
0.0
 10
12.92010759747851
 20
2.984362246753312
 30
0.0
 10
12.92381265025829
 20
2.985676201936281
 30
0.0
 10
12.93128855019031
 20
2.987412084009358
 30
0.0
 10
12.93509861021242
 20
2.987856250793959
 30
0.0
 10
12.9467556405264
 20
2.987869668334145
 30
0.0
 10
12.95445779403865
 20
2.986110857147014
 30
0.0
 10
12.96531442826365
 20
2.980996946413365
 30
0.0
 10
12.96875566726977
 20
2.978910818762661
 30
0.0
 10
12.97528167966762
 20
2.973986129233188
 30
0.0
 10
12.97838399252461
 20
2.971117242577321
 30
0.0
 10
12.98674607826491
 20
2.961712120939938
 30
0.0
 10
12.9912729983255
 20
2.954134607269384
 30
0.0
 10
12.99735280282187
 20
2.937775973035964
 30
0.0
 10
12.99897513400931
 20
2.928847828604831
 30
0.0
 10
12.99897513400931
 20
2.919860757088875
 30
0.0
  0
LINE
  5
2D3
330
1F
100
AcDbEntity
  8
0
  6
Continuous
 62
     7
370
    25
100
AcDbLine
 10
12.3840429862
 20
2.6698607571
 30
0.0
 11
14.6040429862
 21
2.6698607571
 31
0.0
  0
LINE
  5
2D4
330
1F
100
AcDbEntity
  8
0
  6
Continuous
 62
     7
370
    25
100
AcDbLine
 10
12.4140429862
 20
5.2198607571
 30
0.0
 11
14.5740429862
 21
5.2198607571
 31
0.0
  0
SPLINE
  5
2D5
330
1F
100
AcDbEntity
  8
0
  6
Continuous
 62
     7
370
    25
100
AcDbSpline
210
0.0
220
0.0
230
1.0
 70
     8
 71
     3
 72
    31
 73
    27
 74
     0
 42
0.00000001
 43
0.00000001
 40
0.0
 40
0.0
 40
0.0
 40
0.0
 40
0.0065021782205192
 40
0.0514566712780997
 40
0.0964460754582081
 40
0.1415785428132804
 40
0.1865682288602994
 40
0.2316431324063072
 40
0.2768616382937669
 40
0.3219362494546266
 40
0.3670137229793897
 40
0.4122352954009632
 40
0.4573123538029582
 40
0.5023049528050602
 40
0.5474413237530601
 40
0.5924340346554522
 40
0.6373869316801152
 40
0.6824829621427939
 40
0.7274363177378175
 40
0.7724564849775527
 40
0.8176198319596135
 40
0.8626400908264852
 40
0.907729603980354
 40
0.9529629537114098
 40
0.9980520456645823
 40
1.0
 40
1.0
 40
1.0
 40
1.0
 10
12.95796083006404
 20
2.984281053262386
 30
0.0
 10
12.95765798920015
 20
2.984180563339518
 30
0.0
 10
12.95526137959421
 20
2.98338531031008
 30
0.0
 10
12.95100838484016
 20
2.98112479024097
 30
0.0
 10
12.94531711593443
 20
2.977460291347688
 30
0.0
 10
12.94005317589445
 20
2.97300162271201
 30
0.0
 10
12.93524467696995
 20
2.967898841550734
 30
0.0
 10
12.93097525144335
 20
2.962166667388899
 30
0.0
 10
12.92727446446726
 20
2.955905131240331
 30
0.0
 10
12.92418589945872
 20
2.94919094122669
 30
0.0
 10
12.92176777120363
 20
2.942096130402003
 30
0.0
 10
12.92002480324557
 20
2.934724073155556
 30
0.0
 10
12.91897661253802
 20
2.927168676450229
 30
0.0
 10
12.91865851069606
 20
2.919523235709851
 30
0.0
 10
12.91904768205577
 20
2.911888455408207
 30
0.0
 10
12.9201394186898
 20
2.904353918363477
 30
0.0
 10
12.92194485511753
 20
2.897022315191105
 30
0.0
 10
12.92441851991972
 20
2.889979069403489
 30
0.0
 10
12.92753571356097
 20
2.883302933315285
 30
0.0
 10
12.93128382564447
 20
2.877095851455035
 30
0.0
 10
12.93559866021809
 20
2.871418109095863
 30
0.0
 10
12.94043601179887
 20
2.866346810708618
 30
0.0
 10
12.94574814766935
 20
2.861938899030415
 30
0.0
 10
12.95149120172721
 20
2.858348771285644
 30
0.0
 10
12.95556239215325
 20
2.856182387801408
 30
0.0
 10
12.95775716118903
 20
2.855471043410615
 30
0.0
 10
12.95784805358547
 20
2.855441584367172
 30
0.0
  0
LINE
  5
2D6
330
1F
100
AcDbEntity
  8
0
  6
Continuous
 62
     7
370
    25
100
AcDbLine
 10
14.6040429862
 20
5.1898607571
 30
0.0
 11
12.3840429862
 21
5.1898607571
 31
0.0
  0
INSERT
  5
2D7
330
1F
100
AcDbEntity
  8
0
  6
Continuous
 62
     7
100
AcDbBlockReference
  2
Block2
 10
12.6819038951
 20
1.3538429867
 30
0.0
 41
0.5
 42
0.5
 43
0.5
  0
DIMENSION
  5
2D8
330
1F
100
AcDbEntity
  8
0
  6
Continuous
 62
     7
370
    18
100
AcDbDimension
  2
_D_5
 10
11.0162523547
 20
5.2198607571
 30
0.0
 11
11.0162523547
 21
3.9448607571
 31
0.0
 70
   160
  1
<>
 71
     2
 42
-1.0
  3
SLDDIMSTYLE0
100
AcDbAlignedDimension
 13
12.3840429862
 23
2.6698607571
 33
0.0
 14
12.4890429862
 24
5.2198607571
 34
0.0
 50
90.0
100
AcDbRotatedDimension
  0
LINE
  5
2EC
330
1F
100
AcDbEntity
  8
0
  6
Continuous
 62
     7
370
    25
100
AcDbLine
 10
20.632506382
 20
2.9878041666
 30
0.0
 11
20.632506382
 21
4.2898607571
 31
0.0
  0
LINE
  5
2ED
330
1F
100
AcDbEntity
  8
0
  6
Continuous
 62
     7
370
    25
100
AcDbLine
 10
20.632506382
 20
2.6698607571
 30
0.0
 11
20.632506382
 21
2.8518814643
 31
0.0
  0
LINE
  5
2EE
330
1F
100
AcDbEntity
  8
0
  6
Continuous
 62
     7
370
    25
100
AcDbLine
 10
18.412506382
 20
4.2898607571
 30
0.0
 11
18.412506382
 21
2.6698607571
 31
0.0
  0
ARC
  5
2EF
330
1F
100
AcDbEntity
  8
0
  6
Continuous
 62
     7
370
    25
100
AcDbCircle
 10
18.442506382
 20
4.2898607571
 30
0.0
 40
0.0300000000000011
100
AcDbArc
 50
90.0
 51
180.0
  0
ARC
  5
2F0
330
1F
100
AcDbEntity
  8
0
  6
Continuous
 62
     7
370
    25
100
AcDbCircle
 10
20.602506382
 20
4.2898607571
 30
0.0
 40
0.0300000000000011
100
AcDbArc
 50
0.0
 51
90.0
  0
SPLINE
  5
2F1
330
1F
100
AcDbEntity
  8
0
  6
Continuous
 62
     7
370
    25
100
AcDbSpline
210
0.0
220
0.0
230
1.0
 70
     8
 71
     3
 72
    45
 73
    41
 74
     0
 42
0.00000001
 43
0.00000001
 40
0.0
 40
0.0
 40
0.0
 40
0.0
 40
0.0094289094173972
 40
0.0366438128279961
 40
0.0630541983982909
 40
0.0894646038911423
 40
0.1166412925856632
 40
0.1438180124421541
 40
0.1702471250658863
 40
0.1966762613254043
 40
0.2238706913251654
 40
0.2510651314997814
 40
0.2775367390964847
 40
0.304008337171326
 40
0.3312488626646344
 40
0.3584893611680545
 40
0.384961040474081
 40
0.4114326916498202
 40
0.4386758957910053
 40
0.4659190777322931
 40
0.4923480841110635
 40
0.5187770877739225
 40
0.5459751278979119
 40
0.5731731853201762
 40
0.5995834343361774
 40
0.6259937100464045
 40
0.6531693107228246
 40
0.6803449408455835
 40
0.7067895569217721
 40
0.7332341874849171
 40
0.7604450162698319
 40
0.7876558408805393
 40
0.8141343516346055
 40
0.8406128419935027
 40
0.8678616249117812
 40
0.8951103762937639
 40
0.9215694560744007
 40
0.9480285123619485
 40
0.9752587923886601
 40
1.0
 40
1.0
 40
1.0
 40
1.0
 10
20.63250289917424
 20
2.987804166617909
 30
0.0
 10
20.63250382676586
 20
2.987819389681105
 30
0.0
 10
20.63250743168896
 20
2.987878551462573
 30
0.0
 10
20.63248289900978
 20
2.98747701380782
 30
0.0
 10
20.63243034280374
 20
2.98661164379988
 30
0.0
 10
20.63234930238019
 20
2.985252644890443
 30
0.0
 10
20.63224260571159
 20
2.983421635983243
 30
0.0
 10
20.63211354701727
 20
2.981131578026479
 30
0.0
 10
20.63196729232008
 20
2.978429387854823
 30
0.0
 10
20.63180716576161
 20
2.975321431620623
 30
0.0
 10
20.63163560262533
 20
2.971786611422006
 30
0.0
 10
20.63145903931811
 20
2.967876755652487
 30
0.0
 10
20.63128422682955
 20
2.963661100584154
 30
0.0
 10
20.63111425265125
 20
2.959138960128184
 30
0.0
 10
20.63095266287537
 20
2.95429064029911
 30
0.0
 10
20.63080570237599
 20
2.949193731050371
 30
0.0
 10
20.63067896761908
 20
2.943936534187915
 30
0.0
 10
20.63057388269208
 20
2.938511587411157
 30
0.0
 10
20.63049344558314
 20
2.932899455035586
 30
0.0
 10
20.63044087027143
 20
2.927195928701363
 30
0.0
 10
20.63041804455733
 20
2.921498016611814
 30
0.0
 10
20.63042402816937
 20
2.915791935104874
 30
0.0
 10
20.63046001090833
 20
2.910059778075603
 30
0.0
 10
20.63052468264288
 20
2.904399674163424
 30
0.0
 10
20.630615445242
 20
2.898905274915718
 30
0.0
 10
20.63072948724977
 20
2.89355764580672
 30
0.0
 10
20.63086573145154
 20
2.888346914632683
 30
0.0
 10
20.63101908437148
 20
2.883360614743248
 30
0.0
 10
20.63118365200186
 20
2.878679028038295
 30
0.0
 10
20.63135598781266
 20
2.87428076770443
 30
0.0
 10
20.63153310998687
 20
2.87016678957746
 30
0.0
 10
20.63170831785518
 20
2.866408653678829
 30
0.0
 10
20.63187491677118
 20
2.863064749919827
 30
0.0
 10
20.63203025530074
 20
2.860113526169513
 30
0.0
 10
20.63217081522106
 20
2.85756277329295
 30
0.0
 10
20.63229104939522
 20
2.855462711274496
 30
0.0
 10
20.63238666990299
 20
2.853838367699106
 30
0.0
 10
20.63245615093378
 20
2.852683884279374
 30
0.0
 10
20.63249908747358
 20
2.85197891252809
 30
0.0
 10
20.63250316942843
 20
2.851912893117657
 30
0.0
 10
20.63250511265724
 20
2.851881464347496
 30
0.0
  0
SPLINE
  5
2F2
330
1F
100
AcDbEntity
  8
0
  6
Continuous
 62
     7
370
    25
100
AcDbSpline
210
0.0
220
0.0
230
1.0
 70
    11
 71
     3
 72
    56
 73
    52
 74
     0
 42
0.00000001
 43
0.00000001
 40
0.0
 40
0.0
 40
0.0
 40
0.0
 40
0.0312500000000002
 40
0.0312500000000002
 40
0.0625000000000005
 40
0.0625000000000005
 40
0.0937500000000007
 40
0.0937500000000007
 40
0.1250000000000009
 40
0.1250000000000009
 40
0.1875000000000006
 40
0.1875000000000006
 40
0.2500000000000003
 40
0.2500000000000003
 40
0.2812500000000002
 40
0.2812500000000002
 40
0.3125
 40
0.3125
 40
0.3437499999999999
 40
0.3437499999999999
 40
0.3749999999999997
 40
0.3749999999999997
 40
0.4062499999999994
 40
0.4062499999999994
 40
0.4374999999999991
 40
0.4374999999999991
 40
0.4687499999999988
 40
0.4687499999999988
 40
0.4999999999999984
 40
0.4999999999999984
 40
0.5624999999999978
 40
0.5624999999999978
 40
0.6249999999999971
 40
0.6249999999999971
 40
0.6562499999999973
 40
0.6562499999999973
 40
0.6874999999999974
 40
0.6874999999999974
 40
0.7187499999999976
 40
0.7187499999999976
 40
0.7499999999999977
 40
0.7499999999999977
 40
0.8124999999999978
 40
0.8124999999999978
 40
0.843749999999998
 40
0.843749999999998
 40
0.8749999999999982
 40
0.8749999999999982
 40
0.9374999999999992
 40
0.9374999999999992
 40
1.0
 40
1.0
 40
1.0
 40
1.0
 10
19.02743852980688
 20
2.919860757088875
 30
0.0
 10
19.02743852980688
 20
2.924354292846853
 30
0.0
 10
19.02704292977088
 20
2.928772527862936
 30
0.0
 10
19.02549457619522
 20
2.937464620099119
 30
0.0
 10
19.02432299137634
 20
2.941783575341515
 30
0.0
 10
19.02127006201242
 20
2.950018006663314
 30
0.0
 10
19.01940386700299
 20
2.953923326682868
 30
0.0
 10
19.01500452228547
 20
2.961314311752996
 30
0.0
 10
19.01244868447524
 20
2.964812916067502
 30
0.0
 10
19.00409660185392
 20
2.974219792887987
 30
0.0
 10
18.99739186119663
 20
2.979285758277143
 30
0.0
 10
18.98302847032244
 20
2.98606909248034
 30
0.0
 10
18.97522118406766
 20
2.987855985061785
 30
0.0
 10
18.96369639881891
 20
2.987863128406883
 30
0.0
 10
18.95980801415167
 20
2.987421632759548
 30
0.0
 10
18.95230668049784
 20
2.985686745395649
 30
0.0
 10
18.94867350207133
 20
2.984403093316775
 30
0.0
 10
18.9416390440701
 20
2.980998472041477
 30
0.0
 10
18.93824946891842
 20
2.978869845893921
 30
0.0
 10
18.93199364474164
 20
2.97394886422993
 30
0.0
 10
18.92908676483086
 20
2.97113951962075
 30
0.0
 10
18.92372455253374
 20
2.964795008433878
 30
0.0
 10
18.92135243932474
 20
2.961356829459713
 30
0.0
 10
18.9172118934975
 20
2.953994632511116
 30
0.0
 10
18.91542598489404
 20
2.950021126382165
 30
0.0
 10
18.91256504852335
 20
2.941782841035899
 30
0.0
 10
18.91148888614054
 20
2.937544261738029
 30
0.0
 10
18.91003313292946
 20
2.928830681018289
 30
0.0
 10
18.90966040860668
 20
2.924323297759174
 30
0.0
 10
18.90965641842997
 20
2.911008863390822
 30
0.0
 10
18.91114058412542
 20
2.902061436122143
 30
0.0
 10
18.91681138228326
 20
2.885690264651899
 30
0.0
 10
18.92105847095885
 20
2.878099516089766
 30
0.0
 10
18.92899085996515
 20
2.868686356223747
 30
0.0
 10
18.93194772262005
 20
2.865812894494512
 30
0.0
 10
18.93822283227466
 20
2.860868547571904
 30
0.0
 10
18.94154580990145
 20
2.85877718121939
 30
0.0
 10
18.94857099327608
 20
2.855359267424438
 30
0.0
 10
18.95227604605587
 20
2.854045312241469
 30
0.0
 10
18.95975194598789
 20
2.852309430168392
 30
0.0
 10
18.96356200600999
 20
2.851865263383791
 30
0.0
 10
18.97521903632398
 20
2.851851845843605
 30
0.0
 10
18.98292118983623
 20
2.853610657030737
 30
0.0
 10
18.99377782406123
 20
2.858724567764384
 30
0.0
 10
18.99721906306734
 20
2.860810695415089
 30
0.0
 10
19.00374507546519
 20
2.865735384944561
 30
0.0
 10
19.00684738832218
 20
2.868604271600429
 30
0.0
 10
19.01520947406249
 20
2.878009393237812
 30
0.0
 10
19.01973639412308
 20
2.885586906908366
 30
0.0
 10
19.02581619861944
 20
2.901945541141785
 30
0.0
 10
19.02743852980688
 20
2.91087368557292
 30
0.0
 10
19.02743852980688
 20
2.919860757088875
 30
0.0
  0
LINE
  5
2F3
330
1F
100
AcDbEntity
  8
0
  6
Continuous
 62
     7
370
    25
100
AcDbLine
 10
20.632506382
 20
2.6698607571
 30
0.0
 11
18.412506382
 21
2.6698607571
 31
0.0
  0
LINE
  5
2F4
330
1F
100
AcDbEntity
  8
0
  6
Continuous
 62
     7
370
    25
100
AcDbLine
 10
20.602506382
 20
4.3198607571
 30
0.0
 11
18.442506382
 21
4.3198607571
 31
0.0
  0
SPLINE
  5
2F5
330
1F
100
AcDbEntity
  8
0
  6
Continuous
 62
     7
370
    25
100
AcDbSpline
210
0.0
220
0.0
230
1.0
 70
     8
 71
     3
 72
    31
 73
    27
 74
     0
 42
0.00000001
 43
0.00000001
 40
0.0
 40
0.0
 40
0.0
 40
0.0
 40
0.0060897437148611
 40
0.0510442911396997
 40
0.0960337497292878
 40
0.1411662716668567
 40
0.1861560121236955
 40
0.231230970182584
 40
0.2764495307565946
 40
0.3215241964299813
 40
0.3666017244707332
 40
0.4118233515825666
 40
0.4569004645000486
 40
0.5018931179154932
 40
0.5470295434507114
 40
0.5920223087665817
 40
0.6369752601565725
 40
0.6820713451576823
 40
0.7270247551185887
 40
0.7720449768050075
 40
0.8172083784069107
 40
0.8622286917205766
 40
0.9073182594049944
 40
0.9525516638405536
 40
0.9976408103237658
 40
1.0
 40
1.0
 40
1.0
 40
1.0
 10
18.98636672621202
 20
2.984261514561696
 30
0.0
 10
18.98608312981683
 20
2.98416728652517
 30
0.0
 10
18.98370602206973
 20
2.983377466205107
 30
0.0
 10
18.97947201971412
 20
2.981124020061379
 30
0.0
 10
18.97378044741733
 20
2.977460498536079
 30
0.0
 10
18.96851658888625
 20
2.97300156732119
 30
0.0
 10
18.96370806815727
 20
2.967898856402581
 30
0.0
 10
18.95943864848174
 20
2.962166663391627
 30
0.0
 10
18.95573785993309
 20
2.95590513230903
 30
0.0
 10
18.95264929534506
 20
2.949190940940718
 30
0.0
 10
18.95023116697735
 20
2.942096130478945
 30
0.0
 10
18.94848819904949
 20
2.934724073134862
 30
0.0
 10
18.94744000833404
 20
2.92716867645621
 30
0.0
 10
18.94712190649354
 20
2.919523235706546
 30
0.0
 10
18.9475110778553
 20
2.911888455415446
 30
0.0
 10
18.94860281447968
 20
2.904353918337932
 30
0.0
 10
18.95040825094395
 20
2.897022315286119
 30
0.0
 10
18.95288191560938
 20
2.889979069048195
 30
0.0
 10
18.9559991097601
 20
2.883302934637259
 30
0.0
 10
18.95974721993878
 20
2.877095846506078
 30
0.0
 10
18.96406206163803
 20
2.871418127605414
 30
0.0
 10
18.96889938667618
 20
2.866346741836373
 30
0.0
 10
18.97421162178928
 20
2.861939156877809
 30
0.0
 10
18.97995430459205
 20
2.858347806912857
 30
0.0
 10
18.98404458559869
 20
2.856174882670963
 30
0.0
 10
18.9862588738803
 20
2.855458408744406
 30
0.0
 10
18.98636897101914
 20
2.855422784778896
 30
0.0
  0
LINE
  5
2F6
330
1F
100
AcDbEntity
  8
0
  6
Continuous
 62
     7
370
    25
100
AcDbLine
 10
20.632506382
 20
4.2898607571
 30
0.0
 11
18.412506382
 21
4.2898607571
 31
0.0
  0
INSERT
  5
2F7
330
1F
100
AcDbEntity
  8
0
  6
Continuous
 62
     7
100
AcDbBlockReference
  2
Block3
 10
18.7771988706
 20
1.8380158163
 30
0.0
 41
0.5
 42
0.5
 43
0.5
  0
DIMENSION
  5
2F8
330
1F
100
AcDbEntity
  8
0
  6
Continuous
 62
     7
370
    18
100
AcDbDimension
  2
_D_6
 10
17.1203844696
 20
4.3198607571
 30
0.0
 11
17.1203844696
 21
3.4948607571
 31
0.0
 70
   160
  1
<>
 71
     2
 42
-1.0
  3
SLDDIMSTYLE0
100
AcDbAlignedDimension
 13
18.412506382
 23
2.6698607571
 33
0.0
 14
18.632506382
 24
4.3198607571
 34
0.0
 50
90.0
100
AcDbRotatedDimension
  0
ARC
  5
30C
330
1F
100
AcDbEntity
  8
0
  6
Continuous
 62
     7
370
    25
100
AcDbCircle
 10
24.3993168852
 20
4.6398607571
 30
0.0
 40
0.0300000000000011
100
AcDbArc
 50
90.0
 51
180.0
  0
ARC
  5
30D
330
1F
100
AcDbEntity
  8
0
  6
Continuous
 62
     7
370
    25
100
AcDbCircle
 10
26.5593168852
 20
4.6398607571
 30
0.0
 40
0.0300000000000002
100
AcDbArc
 50
0.0
 51
90.0
  0
LINE
  5
30E
330
1F
100
AcDbEntity
  8
0
  6
Continuous
 62
     7
370
    25
100
AcDbLine
 10
26.5893168852
 20
2.9878400498
 30
0.0
 11
26.5893168852
 21
4.6398607571
 31
0.0
  0
LINE
  5
30F
330
1F
100
AcDbEntity
  8
0
  6
Continuous
 62
     7
370
    25
100
AcDbLine
 10
26.5893168852
 20
2.6698607571
 30
0.0
 11
26.5893168852
 21
2.8519173476
 31
0.0
  0
LINE
  5
310
330
1F
100
AcDbEntity
  8
0
  6
Continuous
 62
     7
370
    25
100
AcDbLine
 10
24.3693168852
 20
4.6398607571
 30
0.0
 11
24.3693168852
 21
2.6698607571
 31
0.0
  0
LINE
  5
311
330
1F
100
AcDbEntity
  8
0
  6
Continuous
 62
     7
370
    25
100
AcDbLine
 10
26.5593168852
 20
4.6698607571
 30
0.0
 11
24.3993168852
 21
4.6698607571
 31
0.0
  0
SPLINE
  5
312
330
1F
100
AcDbEntity
  8
0
  6
Continuous
 62
     7
370
    25
100
AcDbSpline
210
0.0
220
0.0
230
1.0
 70
     8
 71
     3
 72
    45
 73
    41
 74
     0
 42
0.00000001
 43
0.00000001
 40
0.0
 40
0.0
 40
0.0
 40
0.0
 40
0.009428909417397
 40
0.036643812827996
 40
0.0630541983982908
 40
0.0894646038911422
 40
0.116641292585663
 40
0.1438180124421539
 40
0.1702471250658862
 40
0.1966762613254041
 40
0.2238706913251651
 40
0.2510651314997813
 40
0.2775367390964846
 40
0.3040083371713256
 40
0.331248862664634
 40
0.3584893611680543
 40
0.3849610404740811
 40
0.4114326916498202
 40
0.4386758957910054
 40
0.4659190777322931
 40
0.4923480841110632
 40
0.5187770877739224
 40
0.545975127897912
 40
0.5731731853201761
 40
0.5995834343361774
 40
0.6259937100464045
 40
0.6531693107228245
 40
0.6803449408455835
 40
0.7067895569217721
 40
0.7332341874849171
 40
0.7604450162698317
 40
0.7876558408805393
 40
0.8141343516346052
 40
0.8406128419935026
 40
0.8678616249117811
 40
0.8951103762937639
 40
0.9215694560744004
 40
0.9480285123619483
 40
0.9752587923886598
 40
1.0
 40
1.0
 40
1.0
 40
1.0
 10
26.58931340240993
 20
2.851917347559841
 30
0.0
 10
26.58931433000154
 20
2.851902124496645
 30
0.0
 10
26.58931793492464
 20
2.851842962715177
 30
0.0
 10
26.58929340224547
 20
2.85224450036993
 30
0.0
 10
26.58924084603942
 20
2.853109870377871
 30
0.0
 10
26.58915980561587
 20
2.854468869287307
 30
0.0
 10
26.58905310894728
 20
2.856299878194507
 30
0.0
 10
26.58892405025296
 20
2.858589936151271
 30
0.0
 10
26.58877779555576
 20
2.861292126322927
 30
0.0
 10
26.58861766899729
 20
2.864400082557127
 30
0.0
 10
26.58844610586102
 20
2.867934902755744
 30
0.0
 10
26.58826954255379
 20
2.871844758525263
 30
0.0
 10
26.58809473006523
 20
2.876060413593596
 30
0.0
 10
26.58792475588693
 20
2.880582554049566
 30
0.0
 10
26.58776316611106
 20
2.88543087387864
 30
0.0
 10
26.58761620561168
 20
2.890527783127379
 30
0.0
 10
26.58748947085476
 20
2.895784979989835
 30
0.0
 10
26.58738438592777
 20
2.901209926766594
 30
0.0
 10
26.58730394881883
 20
2.906822059142164
 30
0.0
 10
26.58725137350712
 20
2.912525585476388
 30
0.0
 10
26.58722854779302
 20
2.918223497565936
 30
0.0
 10
26.58723453140506
 20
2.923929579072876
 30
0.0
 10
26.58727051414402
 20
2.929661736102148
 30
0.0
 10
26.58733518587857
 20
2.935321840014327
 30
0.0
 10
26.58742594847768
 20
2.940816239262032
 30
0.0
 10
26.58753999048545
 20
2.946163868371031
 30
0.0
 10
26.58767623468723
 20
2.951374599545068
 30
0.0
 10
26.58782958760717
 20
2.956360899434503
 30
0.0
 10
26.58799415523755
 20
2.961042486139455
 30
0.0
 10
26.58816649104834
 20
2.96544074647332
 30
0.0
 10
26.58834361322256
 20
2.96955472460029
 30
0.0
 10
26.58851882109087
 20
2.973312860498921
 30
0.0
 10
26.58868542000686
 20
2.976656764257923
 30
0.0
 10
26.58884075853642
 20
2.979607988008238
 30
0.0
 10
26.58898131845675
 20
2.9821587408848
 30
0.0
 10
26.58910155263091
 20
2.984258802903254
 30
0.0
 10
26.58919717313868
 20
2.985883146478644
 30
0.0
 10
26.58926665416947
 20
2.987037629898376
 30
0.0
 10
26.58930959070927
 20
2.98774260164966
 30
0.0
 10
26.58931367266412
 20
2.987808621060093
 30
0.0
 10
26.58931561589293
 20
2.987840049830254
 30
0.0
  0
SPLINE
  5
313
330
1F
100
AcDbEntity
  8
0
  6
Continuous
 62
     7
370
    25
100
AcDbSpline
210
0.0
220
0.0
230
1.0
 70
    11
 71
     3
 72
    56
 73
    52
 74
     0
 42
0.00000001
 43
0.00000001
 40
0.0
 40
0.0
 40
0.0
 40
0.0
 40
0.0312500000000003
 40
0.0312500000000003
 40
0.0625000000000005
 40
0.0625000000000005
 40
0.0937500000000008
 40
0.0937500000000008
 40
0.125000000000001
 40
0.125000000000001
 40
0.1875000000000009
 40
0.1875000000000009
 40
0.2500000000000008
 40
0.2500000000000008
 40
0.2812500000000006
 40
0.2812500000000006
 40
0.3125000000000002
 40
0.3125000000000002
 40
0.3437499999999999
 40
0.3437499999999999
 40
0.3749999999999996
 40
0.3749999999999996
 40
0.4062499999999993
 40
0.4062499999999993
 40
0.4374999999999991
 40
0.4374999999999991
 40
0.4687499999999987
 40
0.4687499999999987
 40
0.4999999999999984
 40
0.4999999999999984
 40
0.5624999999999981
 40
0.5624999999999981
 40
0.6249999999999977
 40
0.6249999999999977
 40
0.6562499999999976
 40
0.6562499999999976
 40
0.6874999999999973
 40
0.6874999999999973
 40
0.7187499999999971
 40
0.7187499999999971
 40
0.7499999999999969
 40
0.7499999999999969
 40
0.8124999999999976
 40
0.8124999999999976
 40
0.8437499999999978
 40
0.8437499999999978
 40
0.8749999999999983
 40
0.8749999999999983
 40
0.9374999999999991
 40
0.9374999999999991
 40
1.0
 40
1.0
 40
1.0
 40
1.0
 10
24.98424903304257
 20
2.919860757088875
 30
0.0
 10
24.98424903304257
 20
2.915367221330897
 30
0.0
 10
24.98385343300657
 20
2.910948986314814
 30
0.0
 10
24.9823050794309
 20
2.90225689407863
 30
0.0
 10
24.98113349461203
 20
2.897937938836235
 30
0.0
 10
24.9780805652481
 20
2.889703507514435
 30
0.0
 10
24.97621437023868
 20
2.885798187494881
 30
0.0
 10
24.97181502552115
 20
2.878407202424754
 30
0.0
 10
24.96925918771092
 20
2.874908598110248
 30
0.0
 10
24.9609071050896
 20
2.865501721289764
 30
0.0
 10
24.95420236443232
 20
2.860435755900607
 30
0.0
 10
24.93983897355812
 20
2.853652421697409
 30
0.0
 10
24.93203168730334
 20
2.851865529115965
 30
0.0
 10
24.92050690205459
 20
2.851858385770867
 30
0.0
 10
24.91661851738736
 20
2.852299881418201
 30
0.0
 10
24.90911718373353
 20
2.854034768782101
 30
0.0
 10
24.90548400530702
 20
2.855318420860975
 30
0.0
 10
24.89844954730579
 20
2.858723042136273
 30
0.0
 10
24.89505997215411
 20
2.86085166828383
 30
0.0
 10
24.88880414797733
 20
2.86577264994782
 30
0.0
 10
24.88589726806655
 20
2.868581994557
 30
0.0
 10
24.88053505576943
 20
2.874926505743872
 30
0.0
 10
24.87816294256043
 20
2.878364684718037
 30
0.0
 10
24.87402239673318
 20
2.885726881666634
 30
0.0
 10
24.87223648812972
 20
2.889700387795585
 30
0.0
 10
24.86937555175903
 20
2.897938673141851
 30
0.0
 10
24.86829938937622
 20
2.902177252439721
 30
0.0
 10
24.86684363616514
 20
2.91089083315946
 30
0.0
 10
24.86647091184236
 20
2.915398216418575
 30
0.0
 10
24.86646692166566
 20
2.928712650786928
 30
0.0
 10
24.86795108736111
 20
2.937660078055607
 30
0.0
 10
24.87362188551895
 20
2.954031249525852
 30
0.0
 10
24.87786897419453
 20
2.961621998087984
 30
0.0
 10
24.88580136320083
 20
2.971035157954003
 30
0.0
 10
24.88875822585573
 20
2.973908619683238
 30
0.0
 10
24.89503333551035
 20
2.978852966605846
 30
0.0
 10
24.89835631313714
 20
2.98094433295836
 30
0.0
 10
24.90538149651177
 20
2.984362246753312
 30
0.0
 10
24.90908654929155
 20
2.985676201936281
 30
0.0
 10
24.91656244922357
 20
2.987412084009359
 30
0.0
 10
24.92037250924568
 20
2.98785625079396
 30
0.0
 10
24.93202953955966
 20
2.987869668334145
 30
0.0
 10
24.93973169307191
 20
2.986110857147014
 30
0.0
 10
24.95058832729691
 20
2.980996946413366
 30
0.0
 10
24.95402956630303
 20
2.978910818762661
 30
0.0
 10
24.96055557870088
 20
2.973986129233188
 30
0.0
 10
24.96365789155787
 20
2.971117242577321
 30
0.0
 10
24.97201997729817
 20
2.961712120939938
 30
0.0
 10
24.97654689735876
 20
2.954134607269384
 30
0.0
 10
24.98262670185513
 20
2.937775973035965
 30
0.0
 10
24.98424903304257
 20
2.92884782860483
 30
0.0
 10
24.98424903304257
 20
2.919860757088875
 30
0.0
  0
LINE
  5
314
330
1F
100
AcDbEntity
  8
0
  6
Continuous
 62
     7
370
    25
100
AcDbLine
 10
24.3693168852
 20
2.6698607571
 30
0.0
 11
26.5893168852
 21
2.6698607571
 31
0.0
  0
SPLINE
  5
315
330
1F
100
AcDbEntity
  8
0
  6
Continuous
 62
     7
370
    25
100
AcDbSpline
210
0.0
220
0.0
230
1.0
 70
     8
 71
     3
 72
    31
 73
    27
 74
     0
 42
0.00000001
 43
0.00000001
 40
0.0
 40
0.0
 40
0.0
 40
0.0
 40
0.0060897437148608
 40
0.0510442911396998
 40
0.0960337497292876
 40
0.1411662716668571
 40
0.1861560121236958
 40
0.2312309701825843
 40
0.2764495307565948
 40
0.3215241964299814
 40
0.3666017244707336
 40
0.4118233515825665
 40
0.4569004645000483
 40
0.5018931179154932
 40
0.5470295434507114
 40
0.5920223087665817
 40
0.6369752601565728
 40
0.6820713451576822
 40
0.7270247551185886
 40
0.7720449768050078
 40
0.8172083784069104
 40
0.8622286917205763
 40
0.9073182594049947
 40
0.9525516638405536
 40
0.9976408103237662
 40
1.0
 40
1.0
 40
1.0
 40
1.0
 10
24.94317722944771
 20
2.855459999616055
 30
0.0
 10
24.94289363305251
 20
2.855554227652581
 30
0.0
 10
24.94051652530542
 20
2.856344047972643
 30
0.0
 10
24.93628252294981
 20
2.858597494116371
 30
0.0
 10
24.93059095065301
 20
2.862261015641672
 30
0.0
 10
24.92532709212193
 20
2.866719946856559
 30
0.0
 10
24.92051857139296
 20
2.87182265777517
 30
0.0
 10
24.91624915171743
 20
2.877554850786123
 30
0.0
 10
24.91254836316878
 20
2.883816381868721
 30
0.0
 10
24.90945979858074
 20
2.890530573237033
 30
0.0
 10
24.90704167021303
 20
2.897625383698805
 30
0.0
 10
24.90529870228518
 20
2.904997441042888
 30
0.0
 10
24.90425051156973
 20
2.91255283772154
 30
0.0
 10
24.90393240972922
 20
2.920198278471204
 30
0.0
 10
24.90432158109098
 20
2.927833058762304
 30
0.0
 10
24.90541331771537
 20
2.935367595839819
 30
0.0
 10
24.90721875417964
 20
2.942699198891631
 30
0.0
 10
24.90969241884507
 20
2.949742445129555
 30
0.0
 10
24.91280961299578
 20
2.956418579540492
 30
0.0
 10
24.91655772317446
 20
2.962625667671673
 30
0.0
 10
24.92087256487372
 20
2.968303386572336
 30
0.0
 10
24.92570988991187
 20
2.973374772341377
 30
0.0
 10
24.93102212502496
 20
2.977782357299942
 30
0.0
 10
24.93676480782774
 20
2.981373707264893
 30
0.0
 10
24.94085508883437
 20
2.983546631506789
 30
0.0
 10
24.94306937711598
 20
2.984263105433345
 30
0.0
 10
24.94317947425483
 20
2.984298729398854
 30
0.0
  0
LINE
  5
316
330
1F
100
AcDbEntity
  8
0
  6
Continuous
 62
     7
370
    25
100
AcDbLine
 10
26.5893168852
 20
4.6398607571
 30
0.0
 11
24.3693168852
 21
4.6398607571
 31
0.0
  0
INSERT
  5
317
330
1F
100
AcDbEntity
  8
0
  6
Continuous
 62
     7
100
AcDbBlockReference
  2
Block4
 10
24.8928447305
 20
1.8599825216
 30
0.0
 41
0.5
 42
0.5
 43
0.5
  0
DIMENSION
  5
318
330
1F
100
AcDbEntity
  8
0
  6
Continuous
 62
     7
370
    18
100
AcDbDimension
  2
_D_7
 10
22.8654166943
 20
4.6698607571
 30
0.0
 11
22.8654166943
 21
3.6698607571
 31
0.0
 70
   160
  1
<>
 71
     2
 42
-1.0
  3
SLDDIMSTYLE2
100
AcDbAlignedDimension
 13
24.3693168852
 23
2.6698607571
 33
0.0
 14
24.5893168852
 24
4.6698607571
 34
0.0
 50
90.0
100
AcDbRotatedDimension
  0
ENDSEC
  0
SECTION
  2
OBJECTS
  0
DICTIONARY
  5
C
330
0
100
AcDbDictionary
281
     1
  3
ACAD_GROUP
350
D
  3
ACAD_LAYOUT
350
1A
  3
ACAD_MLINESTYLE
350
17
  3
ACAD_PLOTSETTINGS
350
19
  3
ACAD_PLOTSTYLENAME
350
E
  3
ACAD_SCALELIST
350
47
  3
DWGPROPS
350
32D
  0
DICTIONARY
  5
D
102
{ACAD_REACTORS
330
C
102
}
330
C
100
AcDbDictionary
281
     1
  0
DICTIONARY
  5
1A
102
{ACAD_REACTORS
330
C
102
}
330
C
100
AcDbDictionary
281
     1
  3
Layout1
350
1E
  3
Layout2
350
26
  3
Model
350
22
  0
DICTIONARY
  5
17
102
{ACAD_REACTORS
330
C
102
}
330
C
100
AcDbDictionary
281
     1
  3
Standard
350
18
  0
DICTIONARY
  5
19
102
{ACAD_REACTORS
330
C
102
}
330
C
100
AcDbDictionary
281
     1
  0
ACDBDICTIONARYWDFLT
  5
E
102
{ACAD_REACTORS
330
C
102
}
330
C
100
AcDbDictionary
281
     1
  3
Normal
350
F
100
AcDbDictionaryWithDefault
340
F
  0
DICTIONARY
  5
47
102
{ACAD_REACTORS
330
C
102
}
330
C
100
AcDbDictionary
281
     1
  3
A0
350
48
  3
A1
350
49
  3
A2
350
4A
  3
A3
350
4B
  3
A4
350
4C
  3
A5
350
4D
  3
A6
350
4E
  3
A7
350
4F
  3
A8
350
50
  3
A9
350
51
  3
B1
350
52
  3
B2
350
53
  3
B3
350
54
  3
B4
350
55
  3
B5
350
56
  3
B6
350
57
  3
B7
350
58
  0
XRECORD
  5
32D
102
{ACAD_REACTORS
330
C
102
}
330
C
100
AcDbXrecord
280
     1
  1
DWGPROPS COOKIE
  2

  3

  4

  6

  7

  8
shawnd
  9

300
=
301
=
302
=
303
=
304
=
305
=
306
=
307
=
308
=
309
=
 40
0.0
 41
2460865.680227107
 42
2460865.680227848
  1

 90
        0
  0
LAYOUT
  5
1E
102
{ACAD_REACTORS
330
1A
102
}
330
1A
100
AcDbPlotSettings
  1

  2
none_device
  4

  6

 40
0.0
 41
0.0
 42
0.0
 43
0.0
 44
0.0
 45
0.0
 46
0.0
 47
0.0
 48
0.0
 49
0.0
140
0.0
141
0.0
142
1.0
143
1.0
 70
   688
 72
     0
 73
     0
 74
     5
  7

 75
    16
147
1.0
148
0.0
149
0.0
100
AcDbLayout
  1
Layout1
 70
     1
 71
     1
 10
0.0
 20
0.0
 11
12.0
 21
9.0
 12
0.0
 22
0.0
 32
0.0
 14
1.0000000000E+20
 24
1.0000000000E+20
 34
1.0000000000E+20
 15
-1.0000000000E+20
 25
-1.0000000000E+20
 35
-1.0000000000E+20
146
0.0
 13
0.0
 23
0.0
 33
0.0
 16
1.0
 26
0.0
 36
0.0
 17
0.0
 27
1.0
 37
0.0
 76
     0
330
1B
  0
LAYOUT
  5
26
102
{ACAD_REACTORS
330
1A
102
}
330
1A
100
AcDbPlotSettings
  1

  2
none_device
  4

  6

 40
0.0
 41
0.0
 42
0.0
 43
0.0
 44
0.0
 45
0.0
 46
0.0
 47
0.0
 48
0.0
 49
0.0
140
0.0
141
0.0
142
1.0
143
1.0
 70
   688
 72
     0
 73
     0
 74
     5
  7

 75
    16
147
1.0
148
0.0
149
0.0
100
AcDbLayout
  1
Layout2
 70
     1
 71
     2
 10
0.0
 20
0.0
 11
0.0
 21
0.0
 12
0.0
 22
0.0
 32
0.0
 14
0.0
 24
0.0
 34
0.0
 15
0.0
 25
0.0
 35
0.0
146
0.0
 13
0.0
 23
0.0
 33
0.0
 16
1.0
 26
0.0
 36
0.0
 17
0.0
 27
1.0
 37
0.0
 76
     0
330
23
  0
LAYOUT
  5
22
102
{ACAD_REACTORS
330
1A
102
}
330
1A
100
AcDbPlotSettings
  1

  2
none_device
  4
Letter_(8.50_x_11.00_Inches)
  6

 40
6.35
 41
6.35
 42
6.35000508
 43
6.35000508
 44
215.9
 45
279.4
 46
0.0
 47
0.0
 48
0.0
 49
0.0
140
0.0
141
0.0
142
1.0
143
1.0
 70
  1712
 72
     0
 73
     0
 74
     0
  7

 75
     0
147
1.0
148
0.0
149
0.0
100
AcDbLayout
  1
Model
 70
     1
 71
     0
 10
0.0
 20
0.0
 11
33.0
 21
25.5
 12
0.0
 22
0.0
 32
0.0
 14
0.0
 24
0.0
 34
0.0
 15
33.0
 25
25.5
 35
0.0
146
0.0
 13
0.0
 23
0.0
 33
0.0
 16
1.0
 26
0.0
 36
0.0
 17
0.0
 27
1.0
 37
0.0
 76
     0
330
1F
331
29
  0
MLINESTYLE
  5
18
102
{ACAD_REACTORS
330
17
102
}
330
17
100
AcDbMlineStyle
  2
Standard
 70
     0
  3

 62
   256
 51
90.0
 52
90.0
 71
     2
 49
0.5
 62
   256
  6
BYLAYER
 49
-0.5
 62
   256
  6
BYLAYER
  0
ACDBPLACEHOLDER
  5
F
102
{ACAD_REACTORS
330
E
102
}
330
E
  0
SCALE
  5
48
102
{ACAD_REACTORS
330
47
102
}
330
47
100
AcDbScale
 70
     0
300
1:1
140
1.0
141
1.0
290
     1
  0
SCALE
  5
49
102
{ACAD_REACTORS
330
47
102
}
330
47
100
AcDbScale
 70
     0
300
1/128" = 1'-0"
140
0.0078125
141
12.0
290
     0
  0
SCALE
  5
4A
102
{ACAD_REACTORS
330
47
102
}
330
47
100
AcDbScale
 70
     0
300
1/64" = 1'-0"
140
0.015625
141
12.0
290
     0
  0
SCALE
  5
4B
102
{ACAD_REACTORS
330
47
102
}
330
47
100
AcDbScale
 70
     0
300
1/32" = 1'-0"
140
0.03125
141
12.0
290
     0
  0
SCALE
  5
4C
102
{ACAD_REACTORS
330
47
102
}
330
47
100
AcDbScale
 70
     0
300
1/16" = 1'-0"
140
0.0625
141
12.0
290
     0
  0
SCALE
  5
4D
102
{ACAD_REACTORS
330
47
102
}
330
47
100
AcDbScale
 70
     0
300
3/32" = 1'-0"
140
0.09375
141
12.0
290
     0
  0
SCALE
  5
4E
102
{ACAD_REACTORS
330
47
102
}
330
47
100
AcDbScale
 70
     0
300
1/8" = 1'-0"
140
0.125
141
12.0
290
     0
  0
SCALE
  5
4F
102
{ACAD_REACTORS
330
47
102
}
330
47
100
AcDbScale
 70
     0
300
3/16" = 1'-0"
140
0.1875
141
12.0
290
     0
  0
SCALE
  5
50
102
{ACAD_REACTORS
330
47
102
}
330
47
100
AcDbScale
 70
     0
300
1/4" = 1'-0"
140
0.25
141
12.0
290
     0
  0
SCALE
  5
51
102
{ACAD_REACTORS
330
47
102
}
330
47
100
AcDbScale
 70
     0
300
3/8" = 1'-0"
140
0.375
141
12.0
290
     0
  0
SCALE
  5
52
102
{ACAD_REACTORS
330
47
102
}
330
47
100
AcDbScale
 70
     0
300
1/2" = 1'-0"
140
0.5
141
12.0
290
     0
  0
SCALE
  5
53
102
{ACAD_REACTORS
330
47
102
}
330
47
100
AcDbScale
 70
     0
300
3/4" = 1'-0"
140
0.75
141
12.0
290
     0
  0
SCALE
  5
54
102
{ACAD_REACTORS
330
47
102
}
330
47
100
AcDbScale
 70
     0
300
1" = 1'-0"
140
1.0
141
12.0
290
     0
  0
SCALE
  5
55
102
{ACAD_REACTORS
330
47
102
}
330
47
100
AcDbScale
 70
     0
300
1-1/2" = 1'-0"
140
1.5
141
12.0
290
     0
  0
SCALE
  5
56
102
{ACAD_REACTORS
330
47
102
}
330
47
100
AcDbScale
 70
     0
300
3" = 1'-0"
140
3.0
141
12.0
290
     0
  0
SCALE
  5
57
102
{ACAD_REACTORS
330
47
102
}
330
47
100
AcDbScale
 70
     0
300
6" = 1'-0"
140
6.0
141
12.0
290
     0
  0
SCALE
  5
58
102
{ACAD_REACTORS
330
47
102
}
330
47
100
AcDbScale
 70
     0
300
1'-0" = 1'-0"
140
12.0
141
12.0
290
     0
  0
ENDSEC
  0
EOF
