  0
SECTION
  2
HEADER
  9
$ACADVER
  1
AC1015
  9
$ACADMAINTVER
 70
     6
  9
$DWGCODEPAGE
  3
ANSI_1252
  9
$INSBASE
 10
0.0
 20
0.0
 30
0.0
  9
$EXTMIN
 10
0.0
 20
0.0
 30
0.0
  9
$EXTMAX
 10
33.0
 20
25.5
 30
0.0
  9
$LIMMIN
 10
0.0
 20
0.0
  9
$LIMMAX
 10
33.0
 20
25.5
  9
$ORTHOMODE
 70
     0
  9
$REGENMODE
 70
     1
  9
$FILLMODE
 70
     1
  9
$QTEXTMODE
 70
     0
  9
$MIRRTEXT
 70
     1
  9
$LTSCALE
 40
3.0
  9
$ATTMODE
 70
     1
  9
$TEXTSIZE
 40
0.375
  9
$TRACEWID
 40
0.05
  9
$TEXTSTYLE
  7
Standard
  9
$CLAYER
  8
0
  9
$CELTYPE
  6
ByLayer
  9
$CECOLOR
 62
   256
  9
$CELTSCALE
 40
1.0
  9
$DISPSILH
 70
     0
  9
$DIMSCALE
 40
1.0
  9
$DIMASZ
 40
0.39
  9
$DIMEXO
 40
0.15
  9
$DIMDLI
 40
0.38
  9
$DIMRND
 40
0.0
  9
$DIMDLE
 40
0.0
  9
$DIMEXE
 40
0.375
  9
$DIMTP
 40
0.0
  9
$DIMTM
 40
0.0
  9
$DIMTXT
 40
0.375
  9
$DIMCEN
 40
0.09
  9
$DIMTSZ
 40
0.0
  9
$DIMTOL
 70
     0
  9
$DIMLIM
 70
     0
  9
$DIMTIH
 70
     1
  9
$DIMTOH
 70
     1
  9
$DIMSE1
 70
     0
  9
$DIMSE2
 70
     0
  9
$DIMTAD
 70
     0
  9
$DIMZIN
 70
     1
  9
$DIMBLK
  1

  9
$DIMASO
 70
     1
  9
$DIMSHO
 70
     1
  9
$DIMPOST
  1

  9
$DIMAPOST
  1

  9
$DIMALT
 70
     0
  9
$DIMALTD
 70
     2
  9
$DIMALTF
 40
25.4
  9
$DIMLFAC
 40
1.0
  9
$DIMTOFL
 70
     0
  9
$DIMTVP
 40
0.0
  9
$DIMTIX
 70
     0
  9
$DIMSOXD
 70
     0
  9
$DIMSAH
 70
     0
  9
$DIMBLK1
  1

  9
$DIMBLK2
  1

  9
$DIMSTYLE
  2
Standard
  9
$DIMCLRD
 70
     0
  9
$DIMCLRE
 70
     0
  9
$DIMCLRT
 70
     0
  9
$DIMTFAC
 40
1.0
  9
$DIMGAP
 40
0.18
  9
$DIMJUST
 70
     0
  9
$DIMSD1
 70
     0
  9
$DIMSD2
 70
     0
  9
$DIMTOLJ
 70
     1
  9
$DIMTZIN
 70
     1
  9
$DIMALTZ
 70
     0
  9
$DIMALTTZ
 70
     0
  9
$DIMUPT
 70
     0
  9
$DIMDEC
 70
     0
  9
$DIMTDEC
 70
     0
  9
$DIMALTU
 70
     2
  9
$DIMALTTD
 70
     2
  9
$DIMTXSTY
  7
Standard
  9
$DIMAUNIT
 70
     0
  9
$DIMADEC
 70
     0
  9
$DIMALTRND
 40
0.0
  9
$DIMAZIN
 70
     0
  9
$DIMDSEP
 70
    46
  9
$DIMATFIT
 70
     3
  9
$DIMFRAC
 70
     0
  9
$DIMLDRBLK
  1

  9
$DIMLUNIT
 70
     2
  9
$DIMLWD
 70
    -2
  9
$DIMLWE
 70
    -2
  9
$DIMTMOVE
 70
     0
  9
$LUNITS
 70
     2
  9
$LUPREC
 70
     6
  9
$SKETCHINC
 40
0.1
  9
$FILLETRAD
 40
0.0
  9
$AUNITS
 70
     0
  9
$AUPREC
 70
     2
  9
$MENU
  1
.
  9
$ELEVATION
 40
0.0
  9
$PELEVATION
 40
0.0
  9
$THICKNESS
 40
0.0
  9
$LIMCHECK
 70
     0
  9
$CHAMFERA
 40
0.0
  9
$CHAMFERB
 40
0.0
  9
$CHAMFERC
 40
0.0
  9
$CHAMFERD
 40
0.0
  9
$SKPOLY
 70
     0
  9
$TDCREATE
 40
2460475.556550463
  9
$TDUCREATE
 40
2460475.84821713
  9
$TDUPDATE
 40
2460475.556550961
  9
$TDUUPDATE
 40
2460475.848217628
  9
$TDINDWG
 40
0.0000000116
  9
$TDUSRTIMER
 40
0.0000000116
  9
$USRTIMER
 70
     1
  9
$ANGBASE
 50
0.0
  9
$ANGDIR
 70
     0
  9
$PDMODE
 70
     0
  9
$PDSIZE
 40
-1.0
  9
$PLINEWID
 40
0.0
  9
$SPLFRAME
 70
     0
  9
$SPLINETYPE
 70
     6
  9
$SPLINESEGS
 70
     8
  9
$HANDSEED
  5
16D
  9
$SURFTAB1
 70
     6
  9
$SURFTAB2
 70
     6
  9
$SURFTYPE
 70
     6
  9
$SURFU
 70
     6
  9
$SURFV
 70
     6
  9
$UCSBASE
  2

  9
$UCSNAME
  2

  9
$UCSORG
 10
0.0
 20
0.0
 30
0.0
  9
$UCSXDIR
 10
1.0
 20
0.0
 30
0.0
  9
$UCSYDIR
 10
0.0
 20
1.0
 30
0.0
  9
$UCSORTHOREF
  2

  9
$UCSORTHOVIEW
 70
     0
  9
$UCSORGTOP
 10
0.0
 20
0.0
 30
0.0
  9
$UCSORGBOTTOM
 10
0.0
 20
0.0
 30
0.0
  9
$UCSORGLEFT
 10
0.0
 20
0.0
 30
0.0
  9
$UCSORGRIGHT
 10
0.0
 20
0.0
 30
0.0
  9
$UCSORGFRONT
 10
0.0
 20
0.0
 30
0.0
  9
$UCSORGBACK
 10
0.0
 20
0.0
 30
0.0
  9
$PUCSBASE
  2

  9
$PUCSNAME
  2

  9
$PUCSORG
 10
0.0
 20
0.0
 30
0.0
  9
$PUCSXDIR
 10
1.0
 20
0.0
 30
0.0
  9
$PUCSYDIR
 10
0.0
 20
1.0
 30
0.0
  9
$PUCSORTHOREF
  2

  9
$PUCSORTHOVIEW
 70
     0
  9
$PUCSORGTOP
 10
0.0
 20
0.0
 30
0.0
  9
$PUCSORGBOTTOM
 10
0.0
 20
0.0
 30
0.0
  9
$PUCSORGLEFT
 10
0.0
 20
0.0
 30
0.0
  9
$PUCSORGRIGHT
 10
0.0
 20
0.0
 30
0.0
  9
$PUCSORGFRONT
 10
0.0
 20
0.0
 30
0.0
  9
$PUCSORGBACK
 10
0.0
 20
0.0
 30
0.0
  9
$USERI1
 70
     0
  9
$USERI2
 70
     0
  9
$USERI3
 70
     0
  9
$USERI4
 70
     0
  9
$USERI5
 70
     0
  9
$USERR1
 40
0.0
  9
$USERR2
 40
0.0
  9
$USERR3
 40
0.0
  9
$USERR4
 40
0.0
  9
$USERR5
 40
0.0
  9
$WORLDVIEW
 70
     1
  9
$SHADEDGE
 70
     3
  9
$SHADEDIF
 70
    70
  9
$TILEMODE
 70
     1
  9
$MAXACTVP
 70
    64
  9
$PINSBASE
 10
0.0
 20
0.0
 30
0.0
  9
$PLIMCHECK
 70
     0
  9
$PEXTMIN
 10
1.0000000000E+20
 20
1.0000000000E+20
 30
1.0000000000E+20
  9
$PEXTMAX
 10
-1.0000000000E+20
 20
-1.0000000000E+20
 30
-1.0000000000E+20
  9
$PLIMMIN
 10
0.0
 20
0.0
  9
$PLIMMAX
 10
12.0
 20
9.0
  9
$UNITMODE
 70
     0
  9
$VISRETAIN
 70
     1
  9
$PLINEGEN
 70
     0
  9
$PSLTSCALE
 70
     1
  9
$TREEDEPTH
 70
  3020
  9
$CMLSTYLE
  2
Standard
  9
$CMLJUST
 70
     0
  9
$CMLSCALE
 40
1.0
  9
$PROXYGRAPHICS
 70
     1
  9
$MEASUREMENT
 70
     0
  9
$CELWEIGHT
370
    -1
  9
$ENDCAPS
280
     0
  9
$JOINSTYLE
280
     0
  9
$LWDISPLAY
290
     1
  9
$INSUNITS
 70
     1
  9
$HYPERLINKBASE
  1

  9
$STYLESHEET
  1

  9
$XEDIT
290
     1
  9
$CEPSNTYPE
380
     0
  9
$PSTYLEMODE
290
     1
  9
$FINGERPRINTGUID
  2
{fd335abe-68f8-4e99-b254-11a8a9ea7110}
  9
$VERSIONGUID
  2
{FAEB1C32-E019-11D5-929B-00C0DF256EC4}
  9
$EXTNAMES
290
     1
  9
$PSVPSCALE
 40
0.0
  9
$OLESTARTUP
290
     0
  0
ENDSEC
  0
SECTION
  2
CLASSES
  0
CLASS
  1
ACDBDICTIONARYWDFLT
  2
AcDbDictionaryWithDefault
  3
ObjectDBX Classes
 90
        0
280
     0
281
     0
  0
CLASS
  1
VISUALSTYLE
  2
AcDbVisualStyle
  3
ObjectDBX Classes
 90
     4095
280
     0
281
     0
  0
CLASS
  1
MATERIAL
  2
AcDbMaterial
  3
ObjectDBX Classes
 90
     1153
280
     0
281
     0
  0
CLASS
  1
SCALE
  2
AcDbScale
  3
ObjectDBX Classes
 90
     1153
280
     0
281
     0
  0
CLASS
  1
TABLESTYLE
  2
AcDbTableStyle
  3
ObjectDBX Classes
 90
     4095
280
     0
281
     0
  0
CLASS
  1
MLEADERSTYLE
  2
AcDbMLeaderStyle
  3
ACDB_MLEADERSTYLE_CLASS
 90
     4095
280
     0
281
     0
  0
CLASS
  1
SUN
  2
AcDbSun
  3
SCENEOE
 90
     1153
280
     0
281
     0
  0
CLASS
  1
ACDBPLACEHOLDER
  2
AcDbPlaceHolder
  3
ObjectDBX Classes
 90
        0
280
     0
281
     0
  0
CLASS
  1
LAYOUT
  2
AcDbLayout
  3
ObjectDBX Classes
 90
        0
280
     0
281
     0
  0
ENDSEC
  0
SECTION
  2
TABLES
  0
TABLE
  2
VPORT
  5
8
330
0
100
AcDbSymbolTable
 70
     1
  0
VPORT
  5
29
330
8
100
AcDbSymbolTableRecord
100
AcDbViewportTableRecord
  2
*Active
 70
     0
 10
0.0
 20
0.0
 11
1.0
 21
1.0
 12
16.5
 22
12.75
 13
0.0
 23
0.0
 14
0.5
 24
0.5
 15
0.5
 25
0.5
 16
0.0
 26
0.0
 36
1.0
 17
0.0
 27
0.0
 37
0.0
 40
25.5
 41
1.2941176471
 42
50.0
 43
0.0
 44
0.0
 50
0.0
 51
0.0
 71
     0
 72
  2000
 73
     1
 74
     3
 75
     0
 76
     0
 77
     0
 78
     0
281
     0
 65
     1
110
0.0
120
0.0
130
0.0
111
1.0
121
0.0
131
0.0
112
0.0
122
1.0
132
0.0
 79
     0
146
0.0
  0
ENDTAB
  0
TABLE
  2
LTYPE
  5
5
330
0
100
AcDbSymbolTable
 70
     6
  0
LTYPE
  5
14
330
5
100
AcDbSymbolTableRecord
100
AcDbLinetypeTableRecord
  2
ByBlock
 70
     0
  3

 72
    65
 73
     0
 40
0.0
  0
LTYPE
  5
15
330
5
100
AcDbSymbolTableRecord
100
AcDbLinetypeTableRecord
  2
ByLayer
 70
     0
  3

 72
    65
 73
     0
 40
0.0
  0
LTYPE
  5
16
330
5
100
AcDbSymbolTableRecord
100
AcDbLinetypeTableRecord
  2
Continuous
 70
     0
  3
Solid line
 72
    65
 73
     0
 40
0.0
  0
LTYPE
  5
5E
330
5
100
AcDbSymbolTableRecord
100
AcDbLinetypeTableRecord
  2
HIDDEN
 70
     0
  3
Hidden __ __ __ __ __ __ __ __ __ __ __ __ __ __
 72
    65
 73
     2
 40
0.075
 49
0.05
 74
     0
 49
-0.025
 74
     0
  0
LTYPE
  5
5F
330
5
100
AcDbSymbolTableRecord
100
AcDbLinetypeTableRecord
  2
PHANTOM
 70
     0
  3
Phantom ______  __  __  ______  __  __  ______
 72
    65
 73
     6
 40
0.5
 49
0.25
 74
     0
 49
-0.05
 74
     0
 49
0.05
 74
     0
 49
-0.05
 74
     0
 49
0.05
 74
     0
 49
-0.05
 74
     0
  0
LTYPE
  5
60
330
5
100
AcDbSymbolTableRecord
100
AcDbLinetypeTableRecord
  2
CENTER
 70
     0
  3
Center ____ _ ____ _ ____ _ ____ _ ____ _ ____
 72
    65
 73
     4
 40
0.4
 49
0.25
 74
     0
 49
-0.05
 74
     0
 49
0.05
 74
     0
 49
-0.05
 74
     0
  0
LTYPE
  5
61
330
5
100
AcDbSymbolTableRecord
100
AcDbLinetypeTableRecord
  2
CENTERX2
 70
     0
  3
Center (2x) ________  __  ________  __  _____
 72
    65
 73
     4
 40
0.8
 49
0.5
 74
     0
 49
-0.1
 74
     0
 49
0.1
 74
     0
 49
-0.1
 74
     0
  0
LTYPE
  5
62
330
5
100
AcDbSymbolTableRecord
100
AcDbLinetypeTableRecord
  2
DOT2
 70
     0
  3
Dot (.5x) ........................................
 72
    65
 73
     2
 40
0.025
 49
0.0
 74
     0
 49
-0.025
 74
     0
  0
ENDTAB
  0
TABLE
  2
LAYER
  5
2
330
0
100
AcDbSymbolTable
 70
    11
  0
LAYER
  5
10
330
2
100
AcDbSymbolTableRecord
100
AcDbLayerTableRecord
  2
0
 70
     0
 62
     7
  6
Continuous
370
    -3
390
F
  0
LAYER
  5
63
330
2
100
AcDbSymbolTableRecord
100
AcDbLayerTableRecord
  2
SLD-0
 70
     0
 62
     7
  6
Continuous
370
    -3
390
F
  0
LAYER
  5
64
330
2
100
AcDbSymbolTableRecord
100
AcDbLayerTableRecord
  2
DIM
 70
     0
 62
     7
  6
Continuous
370
    -3
390
F
  0
LAYER
  5
65
330
2
100
AcDbSymbolTableRecord
100
AcDbLayerTableRecord
  2
CEN
 70
     0
 62
     1
  6
CENTER
370
    -3
390
F
  0
LAYER
  5
66
330
2
100
AcDbSymbolTableRecord
100
AcDbLayerTableRecord
  2
HAT
 70
     0
 62
     4
  6
Continuous
370
    -3
390
F
  0
LAYER
  5
67
330
2
100
AcDbSymbolTableRecord
100
AcDbLayerTableRecord
  2
OBJ
 70
     0
 62
     5
  6
Continuous
370
    -3
390
F
  0
LAYER
  5
68
330
2
100
AcDbSymbolTableRecord
100
AcDbLayerTableRecord
  2
SLD-DEFPOINTS
 70
     0
 62
     7
  6
Continuous
370
    -3
390
F
  0
LAYER
  5
69
330
2
100
AcDbSymbolTableRecord
100
AcDbLayerTableRecord
  2
HID
 70
     0
 62
     4
  6
HIDDEN
370
    -3
390
F
  0
LAYER
  5
6A
330
2
100
AcDbSymbolTableRecord
100
AcDbLayerTableRecord
  2
NOTE
 70
     0
 62
     7
  6
Continuous
370
    -3
390
F
  0
LAYER
  5
6B
330
2
100
AcDbSymbolTableRecord
100
AcDbLayerTableRecord
  2
TITLE
 70
     0
 62
     7
  6
Continuous
370
    -3
390
F
  0
LAYER
  5
6C
330
2
100
AcDbSymbolTableRecord
100
AcDbLayerTableRecord
  2
THICK_TITLE
 70
     0
 62
     7
  6
Continuous
370
   100
390
F
  0
ENDTAB
  0
TABLE
  2
STYLE
  5
3
330
0
100
AcDbSymbolTable
 70
     2
  0
STYLE
  5
11
330
3
100
AcDbSymbolTableRecord
100
AcDbTextStyleTableRecord
  2
Standard
 70
     0
 40
0.0
 41
1.0
 50
0.0
 71
     0
 42
0.375
  3
txt
  4

  0
STYLE
  5
C4
330
3
100
AcDbSymbolTableRecord
100
AcDbTextStyleTableRecord
  2
SLDTEXTSTYLE0
 70
     0
 40
0.0
 41
0.75
 50
0.0
 71
     0
 42
0.375
  3
TXT
  4

  0
ENDTAB
  0
TABLE
  2
VIEW
  5
6
330
0
100
AcDbSymbolTable
 70
     0
  0
ENDTAB
  0
TABLE
  2
UCS
  5
7
330
0
100
AcDbSymbolTable
 70
     0
  0
ENDTAB
  0
TABLE
  2
APPID
  5
9
330
0
100
AcDbSymbolTable
 70
     1
  0
APPID
  5
12
330
9
100
AcDbSymbolTableRecord
100
AcDbRegAppTableRecord
  2
ACAD
 70
     0
  0
ENDTAB
  0
TABLE
  2
DIMSTYLE
  5
A
330
0
100
AcDbSymbolTable
 70
     4
100
AcDbDimStyleTable
  0
DIMSTYLE
105
27
330
A
100
AcDbSymbolTableRecord
100
AcDbDimStyleTableRecord
  2
Standard
 70
     0
178
     0
340
11
  0
DIMSTYLE
105
C5
102
{ACAD_REACTORS
330
C3
330
134
102
}
330
A
100
AcDbSymbolTableRecord
100
AcDbDimStyleTableRecord
  2
SLDDIMSTYLE0
 70
     0
 41
0.39
 44
0.0
 45
0.000000001
 78
    12
 79
     3
140
0.375
147
0.09375
148
0.000000001
170
     1
173
     1
178
     0
271
     6
272
     0
276
     2
277
     5
284
    12
340
C4
  0
DIMSTYLE
105
DA
102
{ACAD_REACTORS
330
D9
330
ED
330
147
102
}
330
A
100
AcDbSymbolTableRecord
100
AcDbDimStyleTableRecord
  2
SLDDIMSTYLE1
 70
     0
 41
0.39
 44
0.0
 45
0.000000001
 78
    12
 79
     3
140
0.375
147
0.09375
148
0.000000001
170
     1
172
     1
173
     1
178
     0
271
     6
272
     0
276
     2
277
     5
284
    12
289
     0
340
C4
  0
DIMSTYLE
105
15B
102
{ACAD_REACTORS
330
15A
102
}
330
A
100
AcDbSymbolTableRecord
100
AcDbDimStyleTableRecord
  2
SLDDIMSTYLE2
 70
     0
 41
0.39
 44
0.0
 45
0.000000001
 78
    12
 79
     3
140
0.375
141
0.0
147
0.09375
148
0.000000001
170
     1
173
     1
178
     0
271
     0
272
     0
276
     2
277
     5
284
    12
340
C4
  0
ENDTAB
  0
TABLE
  2
BLOCK_RECORD
  5
1
330
0
100
AcDbSymbolTable
 70
     7
  0
BLOCK_RECORD
  5
1F
330
1
100
AcDbSymbolTableRecord
100
AcDbBlockTableRecord
  2
*Model_Space
340
22
  0
BLOCK_RECORD
  5
1B
330
1
100
AcDbSymbolTableRecord
100
AcDbBlockTableRecord
  2
*Paper_Space
340
1E
  0
BLOCK_RECORD
  5
23
330
1
100
AcDbSymbolTableRecord
100
AcDbBlockTableRecord
  2
*Paper_Space0
340
26
  0
BLOCK_RECORD
  5
C6
330
1
100
AcDbSymbolTableRecord
100
AcDbBlockTableRecord
  2
_D
340
0
  0
BLOCK_RECORD
  5
DB
330
1
100
AcDbSymbolTableRecord
100
AcDbBlockTableRecord
  2
_D_1
340
0
  0
BLOCK_RECORD
  5
EE
330
1
100
AcDbSymbolTableRecord
100
AcDbBlockTableRecord
  2
_D_2
340
0
  0
BLOCK_RECORD
  5
135
330
1
100
AcDbSymbolTableRecord
100
AcDbBlockTableRecord
  2
_D_3
340
0
  0
BLOCK_RECORD
  5
148
330
1
100
AcDbSymbolTableRecord
100
AcDbBlockTableRecord
  2
_D_4
340
0
  0
BLOCK_RECORD
  5
15C
330
1
100
AcDbSymbolTableRecord
100
AcDbBlockTableRecord
  2
_D_5
340
0
  0
ENDTAB
  0
ENDSEC
  0
SECTION
  2
BLOCKS
  0
BLOCK
  5
20
330
1F
100
AcDbEntity
  8
0
100
AcDbBlockBegin
  2
*Model_Space
 70
     0
 10
0.0
 20
0.0
 30
0.0
  3
*Model_Space
  1

  0
ENDBLK
  5
21
330
1F
100
AcDbEntity
  8
0
100
AcDbBlockEnd
  0
BLOCK
  5
1C
330
1B
100
AcDbEntity
 67
     1
  8
0
100
AcDbBlockBegin
  2
*Paper_Space
 70
     0
 10
0.0
 20
0.0
 30
0.0
  3
*Paper_Space
  1

  0
ENDBLK
  5
1D
330
1B
100
AcDbEntity
 67
     1
  8
0
100
AcDbBlockEnd
  0
BLOCK
  5
24
330
23
100
AcDbEntity
  8
0
100
AcDbBlockBegin
  2
*Paper_Space0
 70
     0
 10
0.0
 20
0.0
 30
0.0
  3
*Paper_Space0
  1

  0
ENDBLK
  5
25
330
23
100
AcDbEntity
  8
0
100
AcDbBlockEnd
  0
BLOCK
  5
C7
330
C6
100
AcDbEntity
  8
0
100
AcDbBlockBegin
  2
_D
 70
     0
 10
0.0
 20
0.0
 30
0.0
  3
_D
  1

  0
SOLID
  5
C9
330
C6
100
AcDbEntity
  8
0
  6
Continuous
 62
     7
370
    18
100
AcDbTrace
 10
16.9648586366
 20
10.0352812187
 30
0.0
 11
16.9048586366
 21
9.6452812187
 31
0.0
 12
17.0248586366
 22
9.6452812187
 32
0.0
 13
17.0248586366
 23
9.6452812187
 33
0.0
  0
SOLID
  5
CA
330
C6
100
AcDbEntity
  8
0
  6
Continuous
 62
     7
370
    18
100
AcDbTrace
 10
16.9648586366
 20
6.2827812187
 30
0.0
 11
17.0248586366
 21
6.6727812187
 31
0.0
 12
16.9048586366
 22
6.6727812187
 32
0.0
 13
16.9048586366
 23
6.6727812187
 33
0.0
  0
LINE
  5
CB
330
C6
100
AcDbEntity
  8
0
  6
Continuous
 62
     7
370
     0
100
AcDbLine
 10
16.2190253426
 20
8.1561665768
 30
0.0
 11
16.1047675312
 21
8.1561665768
 31
0.0
  0
LINE
  5
CC
330
C6
100
AcDbEntity
  8
0
  6
Continuous
 62
     7
370
     0
100
AcDbLine
 10
16.1047675312
 20
8.1561665768
 30
0.0
 11
16.1047675312
 21
7.5608540589
 31
0.0
  0
LINE
  5
CD
330
C6
100
AcDbEntity
  8
0
  6
Continuous
 62
     7
370
     0
100
AcDbLine
 10
16.1047675312
 20
7.5608540589
 30
0.0
 11
16.2190253426
 21
7.5608540589
 31
0.0
  0
LINE
  5
CE
330
C6
100
AcDbEntity
  8
0
  6
Continuous
 62
     7
370
     0
100
AcDbLine
 10
17.7106920407
 20
8.1561665768
 30
0.0
 11
17.824949852
 21
8.1561665768
 31
0.0
  0
LINE
  5
CF
330
C6
100
AcDbEntity
  8
0
  6
Continuous
 62
     7
370
     0
100
AcDbLine
 10
17.824949852
 20
8.1561665768
 30
0.0
 11
17.824949852
 21
7.5608540589
 31
0.0
  0
LINE
  5
D0
330
C6
100
AcDbEntity
  8
0
  6
Continuous
 62
     7
370
     0
100
AcDbLine
 10
17.824949852
 20
7.5608540589
 30
0.0
 11
17.7106920407
 21
7.5608540589
 31
0.0
  0
LINE
  5
D1
330
C6
100
AcDbEntity
  8
0
  6
Continuous
 62
     7
370
     0
100
AcDbLine
 10
15.9337562744
 20
10.0352812187
 30
0.0
 11
17.3398586366
 21
10.0352812187
 31
0.0
  0
LINE
  5
D2
330
C6
100
AcDbEntity
  8
0
  6
Continuous
 62
     7
370
     0
100
AcDbLine
 10
13.2400062744
 20
6.2827812187
 30
0.0
 11
17.3398586366
 21
6.2827812187
 31
0.0
  0
LINE
  5
D3
330
C6
100
AcDbEntity
  8
0
  6
Continuous
 62
     7
370
     0
100
AcDbLine
 10
16.9648586366
 20
10.0352812187
 30
0.0
 11
16.9648586366
 21
8.8333801336
 31
0.0
  0
LINE
  5
D4
330
C6
100
AcDbEntity
  8
0
  6
Continuous
 62
     7
370
     0
100
AcDbLine
 10
16.9648586366
 20
6.2827812187
 30
0.0
 11
16.9648586366
 21
7.4846823039
 31
0.0
  0
MTEXT
  5
D5
330
C6
100
AcDbEntity
  8
0
  6
Continuous
 62
     7
370
    18
100
AcDbMText
 10
15.9925930528
 20
8.7214680594
 30
0.0
 40
0.375
 41
0.0
 71
     1
 72
     1
  1

  7
SLDTEXTSTYLE0
 73
     1
 44
1.0
  0
MTEXT
  5
D6
330
C6
100
AcDbEntity
  8
0
  6
Continuous
 62
     7
370
    18
100
AcDbMText
 10
16.2932440977
 20
8.7157388649
 30
0.0
 40
0.375
 41
0.0
 71
     1
 72
     1
  1
3 3/4"
  7
SLDTEXTSTYLE0
 73
     1
 44
1.0
  0
MTEXT
  5
D7
330
C6
100
AcDbEntity
  8
0
  6
Continuous
 62
     7
370
    18
100
AcDbMText
 10
16.2190253426
 20
8.0442545026
 30
0.0
 40
0.375
 41
0.0
 71
     1
 72
     1
  1
95mm
  7
SLDTEXTSTYLE0
 73
     1
 44
1.0
  0
MTEXT
  5
D8
330
C6
100
AcDbEntity
  8
0
  6
Continuous
 62
     7
370
    18
100
AcDbMText
 10
18.0798325809
 20
8.7214680594
 30
0.0
 40
0.375
 41
0.0
 71
     1
 72
     1
  1

  7
SLDTEXTSTYLE0
 73
     1
 44
1.0
  0
ENDBLK
  5
C8
330
C6
100
AcDbEntity
  8
0
100
AcDbBlockEnd
  0
BLOCK
  5
DC
330
DB
100
AcDbEntity
  8
0
100
AcDbBlockBegin
  2
_D_1
 70
     0
 10
0.0
 20
0.0
 30
0.0
  3
_D_1
  1

  0
SOLID
  5
DE
330
DB
100
AcDbEntity
  8
0
  6
Continuous
 62
     7
370
    18
100
AcDbTrace
 10
11.6987562744
 20
2.6971788565
 30
0.0
 11
11.3087562744
 21
2.7571788565
 31
0.0
 12
11.3087562744
 22
2.6371788565
 32
0.0
 13
11.3087562744
 23
2.6371788565
 33
0.0
  0
SOLID
  5
DF
330
DB
100
AcDbEntity
  8
0
  6
Continuous
 62
     7
370
    18
100
AcDbTrace
 10
13.9187562744
 20
2.6971788565
 30
0.0
 11
14.3087562744
 21
2.6371788565
 31
0.0
 12
14.3087562744
 22
2.7571788565
 32
0.0
 13
14.3087562744
 23
2.7571788565
 33
0.0
  0
LINE
  5
E0
330
DB
100
AcDbEntity
  8
0
  6
Continuous
 62
     7
370
     0
100
AcDbLine
 10
12.0629229529
 20
2.6971788015
 30
0.0
 11
11.9486651415
 21
2.6971788015
 31
0.0
  0
LINE
  5
E1
330
DB
100
AcDbEntity
  8
0
  6
Continuous
 62
     7
370
     0
100
AcDbLine
 10
11.9486651415
 20
2.6971788015
 30
0.0
 11
11.9486651415
 21
2.1018662836
 31
0.0
  0
LINE
  5
E2
330
DB
100
AcDbEntity
  8
0
  6
Continuous
 62
     7
370
     0
100
AcDbLine
 10
11.9486651415
 20
2.1018662836
 30
0.0
 11
12.0629229529
 21
2.1018662836
 31
0.0
  0
LINE
  5
E3
330
DB
100
AcDbEntity
  8
0
  6
Continuous
 62
     7
370
     0
100
AcDbLine
 10
13.554589651
 20
2.6971788015
 30
0.0
 11
13.6688474623
 21
2.6971788015
 31
0.0
  0
LINE
  5
E4
330
DB
100
AcDbEntity
  8
0
  6
Continuous
 62
     7
370
     0
100
AcDbLine
 10
13.6688474623
 20
2.6971788015
 30
0.0
 11
13.6688474623
 21
2.1018662836
 31
0.0
  0
LINE
  5
E5
330
DB
100
AcDbEntity
  8
0
  6
Continuous
 62
     7
370
     0
100
AcDbLine
 10
13.6688474623
 20
2.1018662836
 30
0.0
 11
13.554589651
 21
2.1018662836
 31
0.0
  0
LINE
  5
E6
330
DB
100
AcDbEntity
  8
0
  6
Continuous
 62
     7
370
     0
100
AcDbLine
 10
11.6987562744
 20
6.5702812187
 30
0.0
 11
11.6987562744
 21
2.3221788565
 31
0.0
  0
LINE
  5
E7
330
DB
100
AcDbEntity
  8
0
  6
Continuous
 62
     7
370
     0
100
AcDbLine
 10
13.9187562744
 20
6.5702812187
 30
0.0
 11
13.9187562744
 21
2.3221788565
 31
0.0
  0
LINE
  5
E8
330
DB
100
AcDbEntity
  8
0
  6
Continuous
 62
     7
370
     0
100
AcDbLine
 10
11.6987562744
 20
2.6971788565
 30
0.0
 11
10.9487562744
 21
2.6971788565
 31
0.0
  0
LINE
  5
E9
330
DB
100
AcDbEntity
  8
0
  6
Continuous
 62
     7
370
     0
100
AcDbLine
 10
13.9187562744
 20
2.6971788565
 30
0.0
 11
14.6687562744
 21
2.6971788565
 31
0.0
  0
MTEXT
  5
EA
330
DB
100
AcDbEntity
  8
0
  6
Continuous
 62
     7
370
    18
100
AcDbMText
 10
11.8543682496
 20
3.2567511171
 30
0.0
 40
0.375
 41
0.0
 71
     1
 72
     1
  1
%%c
  7
SLDTEXTSTYLE0
 73
     1
 44
1.0
  0
MTEXT
  5
EB
330
DB
100
AcDbEntity
  8
0
  6
Continuous
 62
     7
370
    18
100
AcDbMText
 10
12.4199151114
 20
3.2567511171
 30
0.0
 40
0.375
 41
0.0
 71
     1
 72
     1
  1
2 1/4"
  7
SLDTEXTSTYLE0
 73
     1
 44
1.0
  0
MTEXT
  5
EC
330
DB
100
AcDbEntity
  8
0
  6
Continuous
 62
     7
370
    18
100
AcDbMText
 10
12.0629229529
 20
2.5852667273
 30
0.0
 40
0.375
 41
0.0
 71
     1
 72
     1
  1
56mm
  7
SLDTEXTSTYLE0
 73
     1
 44
1.0
  0
ENDBLK
  5
DD
330
DB
100
AcDbEntity
  8
0
100
AcDbBlockEnd
  0
BLOCK
  5
EF
330
EE
100
AcDbEntity
  8
0
100
AcDbBlockBegin
  2
_D_2
 70
     0
 10
0.0
 20
0.0
 30
0.0
  3
_D_2
  1

  0
SOLID
  5
F1
330
EE
100
AcDbEntity
  8
0
  6
Continuous
 62
     7
370
    18
100
AcDbTrace
 10
16.9648586366
 20
10.0352812187
 30
0.0
 11
16.9048586366
 21
9.6452812187
 31
0.0
 12
17.0248586366
 22
9.6452812187
 32
0.0
 13
17.0248586366
 23
9.6452812187
 33
0.0
  0
SOLID
  5
F2
330
EE
100
AcDbEntity
  8
0
  6
Continuous
 62
     7
370
    18
100
AcDbTrace
 10
16.9648586366
 20
10.5102812187
 30
0.0
 11
17.0248586366
 21
10.9002812187
 31
0.0
 12
16.9048586366
 22
10.9002812187
 32
0.0
 13
16.9048586366
 23
10.9002812187
 33
0.0
  0
LINE
  5
F3
330
EE
100
AcDbEntity
  8
0
  6
Continuous
 62
     7
370
     0
100
AcDbLine
 10
18.3100408231
 20
11.9317654917
 30
0.0
 11
18.1957830117
 21
11.9317654917
 31
0.0
  0
LINE
  5
F4
330
EE
100
AcDbEntity
  8
0
  6
Continuous
 62
     7
370
     0
100
AcDbLine
 10
18.1957830117
 20
11.9317654917
 30
0.0
 11
18.1957830117
 21
11.3364529738
 31
0.0
  0
LINE
  5
F5
330
EE
100
AcDbEntity
  8
0
  6
Continuous
 62
     7
370
     0
100
AcDbLine
 10
18.1957830117
 20
11.3364529738
 30
0.0
 11
18.3100408231
 21
11.3364529738
 31
0.0
  0
LINE
  5
F6
330
EE
100
AcDbEntity
  8
0
  6
Continuous
 62
     7
370
     0
100
AcDbLine
 10
19.8017075212
 20
11.9317654917
 30
0.0
 11
19.9159653325
 21
11.9317654917
 31
0.0
  0
LINE
  5
F7
330
EE
100
AcDbEntity
  8
0
  6
Continuous
 62
     7
370
     0
100
AcDbLine
 10
19.9159653325
 20
11.9317654917
 30
0.0
 11
19.9159653325
 21
11.3364529738
 31
0.0
  0
LINE
  5
F8
330
EE
100
AcDbEntity
  8
0
  6
Continuous
 62
     7
370
     0
100
AcDbLine
 10
19.9159653325
 20
11.3364529738
 30
0.0
 11
19.8017075212
 21
11.3364529738
 31
0.0
  0
LINE
  5
F9
330
EE
100
AcDbEntity
  8
0
  6
Continuous
 62
     7
370
     0
100
AcDbLine
 10
15.9337562744
 20
10.0352812187
 30
0.0
 11
17.3398586366
 21
10.0352812187
 31
0.0
  0
LINE
  5
FA
330
EE
100
AcDbEntity
  8
0
  6
Continuous
 62
     7
370
     0
100
AcDbLine
 10
15.9337562744
 20
10.5102812187
 30
0.0
 11
17.3398586366
 21
10.5102812187
 31
0.0
  0
LINE
  5
FB
330
EE
100
AcDbEntity
  8
0
  6
Continuous
 62
     7
370
     0
100
AcDbLine
 10
17.7148586366
 20
11.9346301336
 30
0.0
 11
16.9648586366
 21
11.9346301336
 31
0.0
  0
LINE
  5
FC
330
EE
100
AcDbEntity
  8
0
  6
Continuous
 62
     7
370
     0
100
AcDbLine
 10
16.9648586366
 20
11.9346301336
 30
0.0
 11
16.9648586366
 21
10.5102812187
 31
0.0
  0
LINE
  5
FD
330
EE
100
AcDbEntity
  8
0
  6
Continuous
 62
     7
370
     0
100
AcDbLine
 10
16.9648586366
 20
10.0352812187
 30
0.0
 11
16.9648586366
 21
9.2852812187
 31
0.0
  0
MTEXT
  5
FE
330
EE
100
AcDbEntity
  8
0
  6
Continuous
 62
     7
370
    18
100
AcDbMText
 10
18.0836085333
 20
12.4970669742
 30
0.0
 40
0.375
 41
0.0
 71
     1
 72
     1
  1

  7
SLDTEXTSTYLE0
 73
     1
 44
1.0
  0
MTEXT
  5
FF
330
EE
100
AcDbEntity
  8
0
  6
Continuous
 62
     7
370
    18
100
AcDbMText
 10
18.5920720375
 20
12.4913377798
 30
0.0
 40
0.375
 41
0.0
 71
     1
 72
     1
  1
1/2"
  7
SLDTEXTSTYLE0
 73
     1
 44
1.0
  0
MTEXT
  5
100
330
EE
100
AcDbEntity
  8
0
  6
Continuous
 62
     7
370
    18
100
AcDbMText
 10
18.3100408231
 20
11.8198534175
 30
0.0
 40
0.375
 41
0.0
 71
     1
 72
     1
  1
12mm
  7
SLDTEXTSTYLE0
 73
     1
 44
1.0
  0
MTEXT
  5
101
330
EE
100
AcDbEntity
  8
0
  6
Continuous
 62
     7
370
    18
100
AcDbMText
 10
20.1708480614
 20
12.4970669742
 30
0.0
 40
0.375
 41
0.0
 71
     1
 72
     1
  1

  7
SLDTEXTSTYLE0
 73
     1
 44
1.0
  0
ENDBLK
  5
F0
330
EE
100
AcDbEntity
  8
0
100
AcDbBlockEnd
  0
BLOCK
  5
136
330
135
100
AcDbEntity
  8
0
100
AcDbBlockBegin
  2
_D_3
 70
     0
 10
0.0
 20
0.0
 30
0.0
  3
_D_3
  1

  0
SOLID
  5
138
330
135
100
AcDbEntity
  8
0
  6
Continuous
 62
     7
370
    18
100
AcDbTrace
 10
7.9439924949
 20
19.582802106
 30
0.0
 11
7.8839924949
 21
19.192802106
 31
0.0
 12
8.0039924949
 22
19.192802106
 32
0.0
 13
8.0039924949
 23
19.192802106
 33
0.0
  0
SOLID
  5
139
330
135
100
AcDbEntity
  8
0
  6
Continuous
 62
     7
370
    18
100
AcDbTrace
 10
7.9439924949
 20
13.632802106
 30
0.0
 11
8.0039924949
 21
14.022802106
 31
0.0
 12
7.8839924949
 22
14.022802106
 32
0.0
 13
7.8839924949
 23
14.022802106
 33
0.0
  0
LINE
  5
13A
330
135
100
AcDbEntity
  8
0
  6
Continuous
 62
     7
370
     0
100
AcDbLine
 10
7.0596175338
 20
16.607802051
 30
0.0
 11
6.9453597224
 21
16.607802051
 31
0.0
  0
LINE
  5
13B
330
135
100
AcDbEntity
  8
0
  6
Continuous
 62
     7
370
     0
100
AcDbLine
 10
6.9453597224
 20
16.607802051
 30
0.0
 11
6.9453597224
 21
16.0124895331
 31
0.0
  0
LINE
  5
13C
330
135
100
AcDbEntity
  8
0
  6
Continuous
 62
     7
370
     0
100
AcDbLine
 10
6.9453597224
 20
16.0124895331
 30
0.0
 11
7.0596175338
 21
16.0124895331
 31
0.0
  0
LINE
  5
13D
330
135
100
AcDbEntity
  8
0
  6
Continuous
 62
     7
370
     0
100
AcDbLine
 10
8.828367511
 20
16.607802051
 30
0.0
 11
8.9426253224
 21
16.607802051
 31
0.0
  0
LINE
  5
13E
330
135
100
AcDbEntity
  8
0
  6
Continuous
 62
     7
370
     0
100
AcDbLine
 10
8.9426253224
 20
16.607802051
 30
0.0
 11
8.9426253224
 21
16.0124895331
 31
0.0
  0
LINE
  5
13F
330
135
100
AcDbEntity
  8
0
  6
Continuous
 62
     7
370
     0
100
AcDbLine
 10
8.9426253224
 20
16.0124895331
 30
0.0
 11
8.828367511
 21
16.0124895331
 31
0.0
  0
LINE
  5
140
330
135
100
AcDbEntity
  8
0
  6
Continuous
 62
     7
370
     0
100
AcDbLine
 10
12.6587562744
 20
19.582802106
 30
0.0
 11
7.5689924949
 21
19.582802106
 31
0.0
  0
LINE
  5
141
330
135
100
AcDbEntity
  8
0
  6
Continuous
 62
     7
370
     0
100
AcDbLine
 10
12.6587562744
 20
13.632802106
 30
0.0
 11
7.5689924949
 21
13.632802106
 31
0.0
  0
LINE
  5
142
330
135
100
AcDbEntity
  8
0
  6
Continuous
 62
     7
370
     0
100
AcDbLine
 10
7.9439924949
 20
19.582802106
 30
0.0
 11
7.9439924949
 21
17.2792864889
 31
0.0
  0
LINE
  5
143
330
135
100
AcDbEntity
  8
0
  6
Continuous
 62
     7
370
     0
100
AcDbLine
 10
7.9439924949
 20
13.632802106
 30
0.0
 11
7.9439924949
 21
15.936317723
 31
0.0
  0
MTEXT
  5
144
330
135
100
AcDbEntity
  8
0
  6
Continuous
 62
     7
370
    18
100
AcDbMText
 10
6.712521191
 20
17.1673743666
 30
0.0
 40
0.375
 41
0.0
 71
     1
 72
     1
  1
%%c
  7
SLDTEXTSTYLE0
 73
     1
 44
1.0
  0
MTEXT
  5
145
330
135
100
AcDbEntity
  8
0
  6
Continuous
 62
     7
370
    18
100
AcDbMText
 10
7.2780680527
 20
17.1673743666
 30
0.0
 40
0.375
 41
0.0
 71
     1
 72
     1
  1
5 15/16"
  7
SLDTEXTSTYLE0
 73
     1
 44
1.0
  0
MTEXT
  5
146
330
135
100
AcDbEntity
  8
0
  6
Continuous
 62
     7
370
    18
100
AcDbMText
 10
7.0596175338
 20
16.4958899767
 30
0.0
 40
0.375
 41
0.0
 71
     1
 72
     1
  1
151mm
  7
SLDTEXTSTYLE0
 73
     1
 44
1.0
  0
ENDBLK
  5
137
330
135
100
AcDbEntity
  8
0
100
AcDbBlockEnd
  0
BLOCK
  5
149
330
148
100
AcDbEntity
  8
0
100
AcDbBlockBegin
  2
_D_4
 70
     0
 10
0.0
 20
0.0
 30
0.0
  3
_D_4
  1

  0
SOLID
  5
14B
330
148
100
AcDbEntity
  8
0
  6
Continuous
 62
     7
370
    18
100
AcDbTrace
 10
10.4337562744
 20
20.7639044682
 30
0.0
 11
10.0437562744
 21
20.8239044682
 31
0.0
 12
10.0437562744
 22
20.7039044682
 32
0.0
 13
10.0437562744
 23
20.7039044682
 33
0.0
  0
SOLID
  5
14C
330
148
100
AcDbEntity
  8
0
  6
Continuous
 62
     7
370
    18
100
AcDbTrace
 10
15.1837562744
 20
20.7639044682
 30
0.0
 11
15.5737562744
 21
20.7039044682
 31
0.0
 12
15.5737562744
 22
20.8239044682
 32
0.0
 13
15.5737562744
 23
20.8239044682
 33
0.0
  0
LINE
  5
14D
330
148
100
AcDbEntity
  8
0
  6
Continuous
 62
     7
370
     0
100
AcDbLine
 10
11.3655271592
 20
20.7610398263
 30
0.0
 11
11.2512693479
 21
20.7610398263
 31
0.0
  0
LINE
  5
14E
330
148
100
AcDbEntity
  8
0
  6
Continuous
 62
     7
370
     0
100
AcDbLine
 10
11.2512693479
 20
20.7610398263
 30
0.0
 11
11.2512693479
 21
20.1657273084
 31
0.0
  0
LINE
  5
14F
330
148
100
AcDbEntity
  8
0
  6
Continuous
 62
     7
370
     0
100
AcDbLine
 10
11.2512693479
 20
20.1657273084
 30
0.0
 11
11.3655271592
 21
20.1657273084
 31
0.0
  0
LINE
  5
150
330
148
100
AcDbEntity
  8
0
  6
Continuous
 62
     7
370
     0
100
AcDbLine
 10
13.1342771365
 20
20.7610398263
 30
0.0
 11
13.2485349478
 21
20.7610398263
 31
0.0
  0
LINE
  5
151
330
148
100
AcDbEntity
  8
0
  6
Continuous
 62
     7
370
     0
100
AcDbLine
 10
13.2485349478
 20
20.7610398263
 30
0.0
 11
13.2485349478
 21
20.1657273084
 31
0.0
  0
LINE
  5
152
330
148
100
AcDbEntity
  8
0
  6
Continuous
 62
     7
370
     0
100
AcDbLine
 10
13.2485349478
 20
20.1657273084
 30
0.0
 11
13.1342771365
 21
20.1657273084
 31
0.0
  0
LINE
  5
153
330
148
100
AcDbEntity
  8
0
  6
Continuous
 62
     7
370
     0
100
AcDbLine
 10
10.4337562744
 20
16.757802106
 30
0.0
 11
10.4337562744
 21
21.1389044682
 31
0.0
  0
LINE
  5
154
330
148
100
AcDbEntity
  8
0
  6
Continuous
 62
     7
370
     0
100
AcDbLine
 10
15.1837562744
 20
16.757802106
 30
0.0
 11
15.1837562744
 21
21.1389044682
 31
0.0
  0
LINE
  5
155
330
148
100
AcDbEntity
  8
0
  6
Continuous
 62
     7
370
     0
100
AcDbLine
 10
10.4337562744
 20
20.7639044682
 30
0.0
 11
9.6837562744
 21
20.7639044682
 31
0.0
  0
LINE
  5
156
330
148
100
AcDbEntity
  8
0
  6
Continuous
 62
     7
370
     0
100
AcDbLine
 10
15.1837562744
 20
20.7639044682
 30
0.0
 11
15.9337562744
 21
20.7639044682
 31
0.0
  0
MTEXT
  5
157
330
148
100
AcDbEntity
  8
0
  6
Continuous
 62
     7
370
    18
100
AcDbMText
 10
11.5782875539
 20
21.3206121144
 30
0.0
 40
0.375
 41
0.0
 71
     1
 72
     1
  1
4 3/4"
  7
SLDTEXTSTYLE0
 73
     1
 44
1.0
  0
MTEXT
  5
158
330
148
100
AcDbEntity
  8
0
  6
Continuous
 62
     7
370
    18
100
AcDbMText
 10
11.3655271592
 20
20.649127752
 30
0.0
 40
0.375
 41
0.0
 71
     1
 72
     1
  1
121mm
  7
SLDTEXTSTYLE0
 73
     1
 44
1.0
  0
MTEXT
  5
159
330
148
100
AcDbEntity
  8
0
  6
Continuous
 62
     7
370
    18
100
AcDbMText
 10
13.3627927042
 20
21.3263413088
 30
0.0
 40
0.375
 41
0.0
 71
     1
 72
     1
  1
O.C.
  7
SLDTEXTSTYLE0
 73
     1
 44
1.0
  0
ENDBLK
  5
14A
330
148
100
AcDbEntity
  8
0
100
AcDbBlockEnd
  0
BLOCK
  5
15D
330
15C
100
AcDbEntity
  8
0
100
AcDbBlockBegin
  2
_D_5
 70
     0
 10
0.0
 20
0.0
 30
0.0
  3
_D_5
  1

  0
SOLID
  5
15F
330
15C
100
AcDbEntity
  8
0
  6
Continuous
 62
     7
370
    18
100
AcDbTrace
 10
13.6729539645
 20
16.0707093742
 30
0.0
 11
13.9725230409
 21
15.8138857607
 31
0.0
 12
14.0358656726
 22
15.9158058814
 32
0.0
 13
14.0358656726
 23
15.9158058814
 33
0.0
  0
LINE
  5
160
330
15C
100
AcDbEntity
  8
0
  6
Continuous
 62
     7
370
     0
100
AcDbLine
 10
16.8640859239
 20
14.7692810435
 30
0.0
 11
16.7498281126
 21
14.7692810435
 31
0.0
  0
LINE
  5
161
330
15C
100
AcDbEntity
  8
0
  6
Continuous
 62
     7
370
     0
100
AcDbLine
 10
16.7498281126
 20
14.7692810435
 30
0.0
 11
16.7498281126
 21
14.1739685256
 31
0.0
  0
LINE
  5
162
330
15C
100
AcDbEntity
  8
0
  6
Continuous
 62
     7
370
     0
100
AcDbLine
 10
16.7498281126
 20
14.1739685256
 30
0.0
 11
16.8640859239
 21
14.1739685256
 31
0.0
  0
LINE
  5
163
330
15C
100
AcDbEntity
  8
0
  6
Continuous
 62
     7
370
     0
100
AcDbLine
 10
18.3557526221
 20
14.7692810435
 30
0.0
 11
18.4700104334
 21
14.7692810435
 31
0.0
  0
LINE
  5
164
330
15C
100
AcDbEntity
  8
0
  6
Continuous
 62
     7
370
     0
100
AcDbLine
 10
18.4700104334
 20
14.7692810435
 30
0.0
 11
18.4700104334
 21
14.1739685256
 31
0.0
  0
LINE
  5
165
330
15C
100
AcDbEntity
  8
0
  6
Continuous
 62
     7
370
     0
100
AcDbLine
 10
18.4700104334
 20
14.1739685256
 30
0.0
 11
18.3557526221
 21
14.1739685256
 31
0.0
  0
LINE
  5
166
330
15C
100
AcDbEntity
  8
0
  6
Continuous
 62
     7
370
     0
100
AcDbLine
 10
13.6729539645
 20
16.0707093742
 30
0.0
 11
15.7669895811
 21
14.7692810985
 31
0.0
  0
LINE
  5
167
330
15C
100
AcDbEntity
  8
0
  6
Continuous
 62
     7
370
     0
100
AcDbLine
 10
15.7669895811
 20
14.7692810985
 30
0.0
 11
16.5169895811
 21
14.7692810985
 31
0.0
  0
MTEXT
  5
168
330
15C
100
AcDbEntity
  8
0
  6
Continuous
 62
     7
370
    18
100
AcDbMText
 10
16.5169895811
 20
15.3288533591
 30
0.0
 40
0.375
 41
0.0
 71
     1
 72
     1
  1
%%c
  7
SLDTEXTSTYLE0
 73
     1
 44
1.0
  0
MTEXT
  5
169
330
15C
100
AcDbEntity
  8
0
  6
Continuous
 62
     7
370
    18
100
AcDbMText
 10
17.0825364429
 20
15.3288533591
 30
0.0
 40
0.375
 41
0.0
 71
     1
 72
     1
  1
2 1/16"
  7
SLDTEXTSTYLE0
 73
     1
 44
1.0
  0
MTEXT
  5
16A
330
15C
100
AcDbEntity
  8
0
  6
Continuous
 62
     7
370
    18
100
AcDbMText
 10
16.8640859239
 20
14.6573689693
 30
0.0
 40
0.375
 41
0.0
 71
     1
 72
     1
  1
52mm
  7
SLDTEXTSTYLE0
 73
     1
 44
1.0
  0
ENDBLK
  5
15E
330
15C
100
AcDbEntity
  8
0
100
AcDbBlockEnd
  0
ENDSEC
  0
SECTION
  2
ENTITIES
  0
LINE
  5
6D
330
1F
100
AcDbEntity
  8
0
  6
Continuous
 62
     7
370
    25
100
AcDbLine
 10
12.9537562744
 20
3.8782812187
 30
0.0
 11
12.9537562744
 21
6.2827812187
 31
0.0
  0
LINE
  5
6E
330
1F
100
AcDbEntity
  8
0
  6
Continuous
 62
     7
370
    25
100
AcDbLine
 10
12.6737562744
 20
6.2827812187
 30
0.0
 11
12.6737562744
 21
3.8782812187
 31
0.0
  0
LINE
  5
6F
330
1F
100
AcDbEntity
  8
0
  6
Continuous
 62
     7
370
    25
100
AcDbLine
 10
13.3037562744
 20
6.5452812187
 30
0.0
 11
13.3037562744
 21
6.6702812187
 31
0.0
  0
LINE
  5
70
330
1F
100
AcDbEntity
  8
0
  6
Continuous
 62
     7
370
    25
100
AcDbLine
 10
12.3137562744
 20
6.6702812187
 30
0.0
 11
12.3137562744
 21
6.5452812187
 31
0.0
  0
LINE
  5
71
330
1F
100
AcDbEntity
  8
0
  6
Continuous
 62
     7
370
    25
100
AcDbLine
 10
12.4650062744
 20
6.5452812187
 30
0.0
 11
12.4650062744
 21
6.5322812187
 31
0.0
  0
LINE
  5
72
330
1F
100
AcDbEntity
  8
0
  6
Continuous
 62
     7
370
    25
100
AcDbLine
 10
13.1525062744
 20
6.5322812187
 30
0.0
 11
13.1525062744
 21
6.5452812187
 31
0.0
  0
LINE
  5
73
330
1F
100
AcDbEntity
  8
0
  6
Continuous
 62
     7
370
    25
100
AcDbLine
 10
11.6987562744
 20
6.7202812187
 30
0.0
 11
11.7287562744
 21
6.6902812187
 31
0.0
  0
LINE
  5
74
330
1F
100
AcDbEntity
  8
0
  6
Continuous
 62
     7
370
    25
100
AcDbLine
 10
13.8887562744
 20
6.6902812187
 30
0.0
 11
13.9187562744
 21
6.7202812187
 31
0.0
  0
LINE
  5
75
330
1F
100
AcDbEntity
  8
0
  6
Continuous
 62
     7
370
    25
100
AcDbLine
 10
13.9187562744
 20
6.7202812187
 30
0.0
 11
13.9187562744
 21
8.6402812187
 31
0.0
  0
LINE
  5
76
330
1F
100
AcDbEntity
  8
0
  6
Continuous
 62
     7
370
    25
100
AcDbLine
 10
11.6987562744
 20
8.6402812187
 30
0.0
 11
11.6987562744
 21
6.7202812187
 31
0.0
  0
ARC
  5
77
330
1F
100
AcDbEntity
  8
0
  6
Continuous
 62
     7
370
    25
100
AcDbCircle
 10
11.7087562744
 20
8.6402812187
 30
0.0
 40
0.0099999999999998
100
AcDbArc
 50
90.0
 51
180.0
  0
ARC
  5
78
330
1F
100
AcDbEntity
  8
0
  6
Continuous
 62
     7
370
    25
100
AcDbCircle
 10
13.9087562744
 20
8.6402812187
 30
0.0
 40
0.0099999999999998
100
AcDbArc
 50
0.0
 51
90.0
  0
LINE
  5
79
330
1F
100
AcDbEntity
  8
0
  6
Continuous
 62
     7
370
    25
100
AcDbLine
 10
13.9187562744
 20
8.985025547
 30
0.0
 11
13.9187562744
 21
9.7243098592
 31
0.0
  0
LINE
  5
7A
330
1F
100
AcDbEntity
  8
0
  6
Continuous
 62
     7
370
    25
100
AcDbLine
 10
13.9187562744
 20
8.6502812187
 30
0.0
 11
13.9187562744
 21
8.8161633747
 31
0.0
  0
LINE
  5
7B
330
1F
100
AcDbEntity
  8
0
  6
Continuous
 62
     7
370
    25
100
AcDbLine
 10
11.6987562744
 20
9.7243098592
 30
0.0
 11
11.6987562744
 21
8.6502812187
 31
0.0
  0
ARC
  5
7C
330
1F
100
AcDbEntity
  8
0
  6
Continuous
 62
     7
370
    25
100
AcDbCircle
 10
13.9587562744
 20
9.7690312187
 30
0.0
 40
0.0599999999999996
100
AcDbArc
 50
131.8103148958
 51
228.1896851042
  0
ARC
  5
7D
330
1F
100
AcDbEntity
  8
0
  6
Continuous
 62
     7
370
    25
100
AcDbCircle
 10
11.6587562744
 20
9.7690312187
 30
0.0
 40
0.0599999999999996
100
AcDbArc
 50
311.8103148958
 51
48.1896851042
  0
LINE
  5
7E
330
1F
100
AcDbEntity
  8
0
  6
Continuous
 62
     7
370
    25
100
AcDbLine
 10
13.9187562744
 20
9.8137525783
 30
0.0
 11
13.9187562744
 21
10.0352812187
 31
0.0
  0
LINE
  5
7F
330
1F
100
AcDbEntity
  8
0
  6
Continuous
 62
     7
370
    25
100
AcDbLine
 10
11.6987562744
 20
10.0352812187
 30
0.0
 11
11.6987562744
 21
9.8137525783
 31
0.0
  0
LINE
  5
80
330
1F
100
AcDbEntity
  8
0
  6
Continuous
 62
     7
370
    25
100
AcDbLine
 10
15.7837562744
 20
10.0352812187
 30
0.0
 11
15.7837562744
 21
10.5102812187
 31
0.0
  0
LINE
  5
81
330
1F
100
AcDbEntity
  8
0
  6
Continuous
 62
     7
370
    25
100
AcDbLine
 10
9.8337562744
 20
10.5102812187
 30
0.0
 11
9.8337562744
 21
10.0352812187
 31
0.0
  0
ARC
  5
82
330
1F
100
AcDbEntity
  8
0
  6
Continuous
 62
     7
370
    25
100
AcDbCircle
 10
13.2442562744
 20
6.6552812187
 30
0.0
 40
0.0350000000000019
100
AcDbArc
 50
25.3769335252
 51
90.0
  0
ARC
  5
83
330
1F
100
AcDbEntity
  8
0
  6
Continuous
 62
     7
370
    25
100
AcDbCircle
 10
12.3732562744
 20
6.6552812187
 30
0.0
 40
0.0349999999999993
100
AcDbArc
 50
90.0
 51
154.6230664748
  0
LINE
  5
84
330
1F
100
AcDbEntity
  8
0
  6
Continuous
 62
     7
370
    25
100
AcDbLine
 10
12.8183727903
 20
6.2827812187
 30
0.0
 11
12.8183727903
 21
3.8782812187
 31
0.0
  0
LINE
  5
85
330
1F
100
AcDbEntity
  8
0
  6
Continuous
 62
     7
370
    25
100
AcDbLine
 10
12.8183727903
 20
3.8782812187
 30
0.0
 11
12.9537562744
 21
3.8782812187
 31
0.0
  0
LINE
  5
86
330
1F
100
AcDbEntity
  8
0
  6
Continuous
 62
     7
370
    25
100
AcDbLine
 10
12.8091397586
 20
6.2827812187
 30
0.0
 11
12.8091397586
 21
3.8782812187
 31
0.0
  0
LINE
  5
87
330
1F
100
AcDbEntity
  8
0
  6
Continuous
 62
     7
370
    25
100
AcDbLine
 10
12.6737562744
 20
3.8782812187
 30
0.0
 11
12.8091397586
 21
3.8782812187
 31
0.0
  0
LINE
  5
88
330
1F
100
AcDbEntity
  8
0
  6
Continuous
 62
     7
370
    25
100
AcDbLine
 10
12.8091397586
 20
3.8782812187
 30
0.0
 11
12.8183727903
 21
3.8782812187
 31
0.0
  0
LINE
  5
89
330
1F
100
AcDbEntity
  8
0
  6
Continuous
 62
     7
370
    25
100
AcDbLine
 10
12.3137562744
 20
6.6702812187
 30
0.0
 11
13.3037562744
 21
6.6702812187
 31
0.0
  0
LINE
  5
8A
330
1F
100
AcDbEntity
  8
0
  6
Continuous
 62
     7
370
    25
100
AcDbLine
 10
12.3137562744
 20
6.5452812187
 30
0.0
 11
13.3037562744
 21
6.5452812187
 31
0.0
  0
LINE
  5
8B
330
1F
100
AcDbEntity
  8
0
  6
Continuous
 62
     7
370
    25
100
AcDbLine
 10
12.4650062744
 20
6.5322812187
 30
0.0
 11
13.1525062744
 21
6.5322812187
 31
0.0
  0
LINE
  5
8C
330
1F
100
AcDbEntity
  8
0
  6
Continuous
 62
     7
370
    25
100
AcDbLine
 10
13.0900062744
 20
6.3427812187
 30
0.0
 11
12.5275062744
 21
6.3427812187
 31
0.0
  0
LINE
  5
8D
330
1F
100
AcDbEntity
  8
0
  6
Continuous
 62
     7
370
    25
100
AcDbLine
 10
13.0900062744
 20
6.3427812187
 30
0.0
 11
13.0900062744
 21
6.3227812187
 31
0.0
  0
LINE
  5
8E
330
1F
100
AcDbEntity
  8
0
  6
Continuous
 62
     7
370
    25
100
AcDbLine
 10
12.5275062744
 20
6.3227812187
 30
0.0
 11
13.0900062744
 21
6.3227812187
 31
0.0
  0
SPLINE
  5
8F
330
1F
100
AcDbEntity
  8
0
  6
Continuous
 62
     7
370
    25
100
AcDbSpline
210
0.0
220
0.0
230
1.0
 70
    24
 71
     3
 72
     9
 73
     5
 74
     0
 42
0.00000001
 43
0.00000001
 40
0.0
 40
0.0
 40
0.0
 40
0.0
 40
0.933211704428381
 40
1.0
 40
1.0
 40
1.0
 40
1.0
 10
12.5275062744347
 20
6.322781218743283
 30
0.0
 10
12.52750627443472
 20
6.328491331983706
 30
0.0
 10
12.52750627443475
 20
6.334610107834163
 30
0.0
 10
12.52750627443475
 20
6.342269650915997
 30
0.0
 10
12.52750627443475
 20
6.34278121874329
 30
0.0
  0
LINE
  5
90
330
1F
100
AcDbEntity
  8
0
  6
Continuous
 62
     7
370
    25
100
AcDbLine
 10
12.5275062744
 20
6.3627812187
 30
0.0
 11
13.0900062744
 21
6.3627812187
 31
0.0
  0
SPLINE
  5
91
330
1F
100
AcDbEntity
  8
0
  6
Continuous
 62
     7
370
    25
100
AcDbSpline
210
0.0
220
0.0
230
1.0
 70
    24
 71
     3
 72
     9
 73
     5
 74
     0
 42
0.00000001
 43
0.00000001
 40
0.0
 40
0.0
 40
0.0
 40
0.0
 40
0.9332117044283061
 40
1.0
 40
1.0
 40
1.0
 40
1.0
 10
13.0900062744347
 20
6.36278121874328
 30
0.0
 10
13.09000627443466
 20
6.357071105502832
 30
0.0
 10
13.09000627443462
 20
6.350952329652344
 30
0.0
 10
13.09000627443469
 20
6.343292786570571
 30
0.0
 10
13.09000627443469
 20
6.342781218743282
 30
0.0
  0
LINE
  5
92
330
1F
100
AcDbEntity
  8
0
  6
Continuous
 62
     7
370
    25
100
AcDbLine
 10
12.5275062744
 20
6.3427812187
 30
0.0
 11
12.5275062744
 21
6.3627812187
 31
0.0
  0
LINE
  5
93
330
1F
100
AcDbEntity
  8
0
  6
Continuous
 62
     7
370
    25
100
AcDbLine
 10
13.0900062744
 20
6.4227812187
 30
0.0
 11
12.5275062744
 21
6.4227812187
 31
0.0
  0
LINE
  5
94
330
1F
100
AcDbEntity
  8
0
  6
Continuous
 62
     7
370
    25
100
AcDbLine
 10
13.0900062744
 20
6.4227812187
 30
0.0
 11
13.0900062744
 21
6.4027812187
 31
0.0
  0
LINE
  5
95
330
1F
100
AcDbEntity
  8
0
  6
Continuous
 62
     7
370
    25
100
AcDbLine
 10
12.5275062744
 20
6.4027812187
 30
0.0
 11
13.0900062744
 21
6.4027812187
 31
0.0
  0
SPLINE
  5
96
330
1F
100
AcDbEntity
  8
0
  6
Continuous
 62
     7
370
    25
100
AcDbSpline
210
0.0
220
0.0
230
1.0
 70
    24
 71
     3
 72
     9
 73
     5
 74
     0
 42
0.00000001
 43
0.00000001
 40
0.0
 40
0.0
 40
0.0
 40
0.0
 40
0.933211704428381
 40
1.0
 40
1.0
 40
1.0
 40
1.0
 10
12.5275062744347
 20
6.402781218743285
 30
0.0
 10
12.52750627443472
 20
6.408491331983708
 30
0.0
 10
12.52750627443475
 20
6.414610107834166
 30
0.0
 10
12.52750627443475
 20
6.422269650915999
 30
0.0
 10
12.52750627443475
 20
6.422781218743292
 30
0.0
  0
SPLINE
  5
97
330
1F
100
AcDbEntity
  8
0
  6
Continuous
 62
     7
370
    25
100
AcDbSpline
210
0.0
220
0.0
230
1.0
 70
    24
 71
     3
 72
     9
 73
     5
 74
     0
 42
0.00000001
 43
0.00000001
 40
0.0
 40
0.0
 40
0.0
 40
0.0
 40
0.9332117044283081
 40
0.9999999999999999
 40
0.9999999999999999
 40
0.9999999999999999
 40
0.9999999999999999
 10
13.0900062744347
 20
6.402781218743285
 30
0.0
 10
13.09000627443466
 20
6.397071105502834
 30
0.0
 10
13.09000627443462
 20
6.390952329652343
 30
0.0
 10
13.09000627443469
 20
6.383292786570568
 30
0.0
 10
13.09000627443469
 20
6.382781218743278
 30
0.0
  0
LINE
  5
98
330
1F
100
AcDbEntity
  8
0
  6
Continuous
 62
     7
370
    25
100
AcDbLine
 10
13.0900062744
 20
6.3827812187
 30
0.0
 11
12.5275062744
 21
6.3827812187
 31
0.0
  0
LINE
  5
99
330
1F
100
AcDbEntity
  8
0
  6
Continuous
 62
     7
370
    25
100
AcDbLine
 10
12.5275062744
 20
6.3827812187
 30
0.0
 11
12.5275062744
 21
6.4027812187
 31
0.0
  0
LINE
  5
9A
330
1F
100
AcDbEntity
  8
0
  6
Continuous
 62
     7
370
    25
100
AcDbLine
 10
12.5275062744
 20
6.4427812187
 30
0.0
 11
13.0900062744
 21
6.4427812187
 31
0.0
  0
SPLINE
  5
9B
330
1F
100
AcDbEntity
  8
0
  6
Continuous
 62
     7
370
    25
100
AcDbSpline
210
0.0
220
0.0
230
1.0
 70
    24
 71
     3
 72
     9
 73
     5
 74
     0
 42
0.00000001
 43
0.00000001
 40
0.0
 40
0.0
 40
0.0
 40
0.0
 40
0.9332117044283418
 40
0.9999999999999999
 40
0.9999999999999999
 40
0.9999999999999999
 40
0.9999999999999999
 10
13.0900062744347
 20
6.442781218743281
 30
0.0
 10
13.09000627443466
 20
6.437071105502815
 30
0.0
 10
13.09000627443462
 20
6.43095232965231
 30
0.0
 10
13.09000627443469
 20
6.42329278657057
 30
0.0
 10
13.09000627443469
 20
6.422781218743283
 30
0.0
  0
LINE
  5
9C
330
1F
100
AcDbEntity
  8
0
  6
Continuous
 62
     7
370
    25
100
AcDbLine
 10
12.5275062744
 20
6.4227812187
 30
0.0
 11
12.5275062744
 21
6.4427812187
 31
0.0
  0
SPLINE
  5
9D
330
1F
100
AcDbEntity
  8
0
  6
Continuous
 62
     7
370
    25
100
AcDbSpline
210
0.0
220
0.0
230
1.0
 70
    24
 71
     3
 72
     9
 73
     5
 74
     0
 42
0.00000001
 43
0.00000001
 40
0.0
 40
0.0
 40
0.0
 40
0.0
 40
0.9332117044283081
 40
0.9999999999999999
 40
0.9999999999999999
 40
0.9999999999999999
 40
0.9999999999999999
 10
13.0900062744347
 20
6.322781218743284
 30
0.0
 10
13.09000627443466
 20
6.317071105502833
 30
0.0
 10
13.09000627443462
 20
6.310952329652345
 30
0.0
 10
13.09000627443469
 20
6.303292786570566
 30
0.0
 10
13.09000627443469
 20
6.302781218743277
 30
0.0
  0
LINE
  5
9E
330
1F
100
AcDbEntity
  8
0
  6
Continuous
 62
     7
370
    25
100
AcDbLine
 10
13.0900062744
 20
6.3027812187
 30
0.0
 11
12.5275062744
 21
6.3027812187
 31
0.0
  0
LINE
  5
9F
330
1F
100
AcDbEntity
  8
0
  6
Continuous
 62
     7
370
    25
100
AcDbLine
 10
12.5275062744
 20
6.3027812187
 30
0.0
 11
12.5275062744
 21
6.3227812187
 31
0.0
  0
LINE
  5
A0
330
1F
100
AcDbEntity
  8
0
  6
Continuous
 62
     7
370
    25
100
AcDbLine
 10
13.0900062744
 20
6.3827812187
 30
0.0
 11
13.0900062744
 21
6.3627812187
 31
0.0
  0
SPLINE
  5
A1
330
1F
100
AcDbEntity
  8
0
  6
Continuous
 62
     7
370
    25
100
AcDbSpline
210
0.0
220
0.0
230
1.0
 70
    24
 71
     3
 72
     9
 73
     5
 74
     0
 42
0.00000001
 43
0.00000001
 40
0.0
 40
0.0
 40
0.0
 40
0.0
 40
0.9332117044284167
 40
1.0
 40
1.0
 40
1.0
 40
1.0
 10
12.5275062744347
 20
6.36278121874328
 30
0.0
 10
12.52750627443472
 20
6.368491331983724
 30
0.0
 10
12.52750627443475
 20
6.374610107834208
 30
0.0
 10
12.52750627443475
 20
6.382269650915998
 30
0.0
 10
12.52750627443475
 20
6.382781218743287
 30
0.0
  0
LINE
  5
A2
330
1F
100
AcDbEntity
  8
0
  6
Continuous
 62
     7
370
    25
100
AcDbLine
 10
13.0900062744
 20
6.3027812187
 30
0.0
 11
13.0900062744
 21
6.2827812187
 31
0.0
  0
LINE
  5
A3
330
1F
100
AcDbEntity
  8
0
  6
Continuous
 62
     7
370
    25
100
AcDbLine
 10
12.5275062744
 20
6.2827812187
 30
0.0
 11
13.0900062744
 21
6.2827812187
 31
0.0
  0
SPLINE
  5
A4
330
1F
100
AcDbEntity
  8
0
  6
Continuous
 62
     7
370
    25
100
AcDbSpline
210
0.0
220
0.0
230
1.0
 70
    24
 71
     3
 72
     9
 73
     5
 74
     0
 42
0.00000001
 43
0.00000001
 40
0.0
 40
0.0
 40
0.0
 40
0.0
 40
0.9332117044284147
 40
1.0
 40
1.0
 40
1.0
 40
1.0
 10
12.5275062744347
 20
6.282781218743287
 30
0.0
 10
12.52750627443472
 20
6.288491331983729
 30
0.0
 10
12.52750627443475
 20
6.294610107834208
 30
0.0
 10
12.52750627443475
 20
6.302269650915996
 30
0.0
 10
12.52750627443475
 20
6.302781218743285
 30
0.0
  0
LINE
  5
A5
330
1F
100
AcDbEntity
  8
0
  6
Continuous
 62
     7
370
    25
100
AcDbLine
 10
13.0900062744
 20
6.4622812187
 30
0.0
 11
13.0900062744
 21
6.4427812187
 31
0.0
  0
SPLINE
  5
A6
330
1F
100
AcDbEntity
  8
0
  6
Continuous
 62
     7
370
    25
100
AcDbSpline
210
0.0
220
0.0
230
1.0
 70
    24
 71
     3
 72
     9
 73
     5
 74
     0
 42
0.00000001
 43
0.00000001
 40
0.0
 40
0.0
 40
0.0
 40
0.0
 40
0.9539537040202172
 40
1.0
 40
1.0
 40
1.0
 40
1.0
 10
12.5275062744347
 20
6.44278121874328
 30
0.0
 10
12.52750627443472
 20
6.448489983418164
 30
0.0
 10
12.52750627443475
 20
6.454474303884477
 30
0.0
 10
12.52750627443475
 20
6.461937563291648
 30
0.0
 10
12.52750627443475
 20
6.462281218743285
 30
0.0
  0
LINE
  5
A7
330
1F
100
AcDbEntity
  8
0
  6
Continuous
 62
     7
370
    25
100
AcDbLine
 10
12.5275062744
 20
6.4622812187
 30
0.0
 11
13.0900062744
 21
6.4622812187
 31
0.0
  0
LINE
  5
A8
330
1F
100
AcDbEntity
  8
0
  6
Continuous
 62
     7
370
    25
100
AcDbLine
 10
13.0900062744
 20
6.5322812187
 30
0.0
 11
13.0900062744
 21
6.4622812187
 31
0.0
  0
LINE
  5
A9
330
1F
100
AcDbEntity
  8
0
  6
Continuous
 62
     7
370
    25
100
AcDbLine
 10
12.5275062744
 20
6.4622812187
 30
0.0
 11
12.5275062744
 21
6.5322812187
 31
0.0
  0
LINE
  5
AA
330
1F
100
AcDbEntity
  8
0
  6
Continuous
 62
     7
370
    25
100
AcDbLine
 10
13.8887562744
 20
6.6902812187
 30
0.0
 11
11.7287562744
 21
6.6902812187
 31
0.0
  0
LINE
  5
AB
330
1F
100
AcDbEntity
  8
0
  6
Continuous
 62
     7
370
    25
100
AcDbLine
 10
11.6987562744
 20
6.7202812187
 30
0.0
 11
13.9187562744
 21
6.7202812187
 31
0.0
  0
LWPOLYLINE
  5
AC
330
1F
100
AcDbEntity
  8
0
  6
Continuous
 62
     7
370
    25
100
AcDbPolyline
 90
       19
 70
   128
 43
0.0
 10
12.2307064948
 20
8.8427384502
 10
12.2491406272
 20
8.8371056348
 10
12.2681314748
 20
8.8390927273
 10
12.285388461
 20
8.8484600548
 10
12.2988301387
 20
8.8640777796
 10
12.3068352432
 20
8.8840621734
 10
12.3084382407
 20
8.9060028234
 10
12.303445786
 20
8.9272533635
 10
12.2924600429
 20
8.9452506648
 10
12.2768060541
 20
8.9578239873
 10
12.2583719217
 20
8.9634568026
 10
12.2393810741
 20
8.9614697102
 10
12.2221240878
 20
8.9521023826
 10
12.2086824101
 20
8.9364846579
 10
12.2006773057
 20
8.9165002641
 10
12.1990743082
 20
8.8945596141
 10
12.2040667629
 20
8.873309074
 10
12.215052506
 20
8.8553117727
 10
12.2307064948
 20
8.8427384502
  0
LINE
  5
AD
330
1F
100
AcDbEntity
  8
0
  6
Continuous
 62
     7
370
    25
100
AcDbLine
 10
12.2925971347
 20
8.9043453017
 30
0.0
 11
12.2701286423
 21
8.9411541204
 31
0.0
  0
LINE
  5
AE
330
1F
100
AcDbEntity
  8
0
  6
Continuous
 62
     7
370
    25
100
AcDbLine
 10
12.2312877821
 20
8.9370900375
 30
0.0
 11
12.2701286423
 21
8.9411541204
 31
0.0
  0
LINE
  5
AF
330
1F
100
AcDbEntity
  8
0
  6
Continuous
 62
     7
370
    25
100
AcDbLine
 10
12.2149154142
 20
8.8962171358
 30
0.0
 11
12.2312877821
 21
8.9370900375
 31
0.0
  0
LINE
  5
B0
330
1F
100
AcDbEntity
  8
0
  6
Continuous
 62
     7
370
    25
100
AcDbLine
 10
12.2149154142
 20
8.8962171358
 30
0.0
 11
12.2373839065
 21
8.8594083171
 31
0.0
  0
LINE
  5
B1
330
1F
100
AcDbEntity
  8
0
  6
Continuous
 62
     7
370
    25
100
AcDbLine
 10
12.2762247668
 20
8.8634724
 30
0.0
 11
12.2373839065
 21
8.8594083171
 31
0.0
  0
LINE
  5
B2
330
1F
100
AcDbEntity
  8
0
  6
Continuous
 62
     7
370
    25
100
AcDbLine
 10
12.2762247668
 20
8.8634724
 30
0.0
 11
12.2925971347
 21
8.9043453017
 31
0.0
  0
LINE
  5
B3
330
1F
100
AcDbEntity
  8
0
  6
Continuous
 62
     7
370
    25
100
AcDbLine
 10
12.2726094016
 20
8.9370900375
 30
0.0
 11
12.2312877821
 21
8.9370900375
 31
0.0
  0
LINE
  5
B4
330
1F
100
AcDbEntity
  8
0
  6
Continuous
 62
     7
370
    25
100
AcDbLine
 10
12.2599154142
 20
8.8962171358
 30
0.0
 11
12.2149154142
 21
8.8962171358
 31
0.0
  0
LINE
  5
B5
330
1F
100
AcDbEntity
  8
0
  6
Continuous
 62
     7
370
    25
100
AcDbLine
 10
12.2599154142
 20
8.8962171358
 30
0.0
 11
12.2776822072
 21
8.8671108365
 31
0.0
  0
LINE
  5
B6
330
1F
100
AcDbEntity
  8
0
  6
Continuous
 62
     7
370
    25
100
AcDbLine
 10
12.2599154142
 20
8.8962171358
 30
0.0
 11
12.2748303417
 21
8.933451601
 31
0.0
  0
LINE
  5
B7
330
1F
100
AcDbEntity
  8
0
  6
Continuous
 62
     7
370
    25
100
AcDbLine
 10
13.9187562744
 20
8.8456897329
 30
0.0
 11
13.9187562744
 21
8.8368812187
 31
0.0
  0
LINE
  5
B8
330
1F
100
AcDbEntity
  8
0
  6
Continuous
 62
     7
370
    25
100
AcDbLine
 10
13.9187562744
 20
8.9636812187
 30
0.0
 11
13.9187562744
 21
8.8456897329
 31
0.0
  0
LINE
  5
B9
330
1F
100
AcDbEntity
  8
0
  6
Continuous
 62
     7
370
    25
100
AcDbLine
 10
13.9187562744
 20
9.7243098592
 30
0.0
 11
11.6987562744
 21
9.7243098592
 31
0.0
  0
LINE
  5
BA
330
1F
100
AcDbEntity
  8
0
  6
Continuous
 62
     7
370
    25
100
AcDbLine
 10
13.9187562744
 20
8.6502812187
 30
0.0
 11
11.6987562744
 21
8.6502812187
 31
0.0
  0
SPLINE
  5
BB
330
1F
100
AcDbEntity
  8
0
  6
Continuous
 62
     7
370
    25
100
AcDbSpline
210
0.0
220
0.0
230
1.0
 70
     8
 71
     3
 72
    14
 73
    10
 74
     0
 42
0.00000001
 43
0.00000001
 40
0.0
 40
0.0
 40
0.0
 40
0.0
 40
0.1266278399636448
 40
0.2730927097761419
 40
0.4229603444530321
 40
0.5739951284065126
 40
0.7233306569946549
 40
0.8683558906122706
 40
0.9999999999999999
 40
0.9999999999999999
 40
0.9999999999999999
 40
0.9999999999999999
 10
13.91718712863685
 20
8.841292525079865
 30
0.0
 10
13.91689092098503
 20
8.847823825629039
 30
0.0
 10
13.91625210293117
 20
8.861909595123716
 30
0.0
 10
13.9156592743544
 20
8.889069513734736
 30
0.0
 10
13.91574463987426
 20
8.918568738752334
 30
0.0
 10
13.91653017458037
 20
8.946423299029865
 30
0.0
 10
13.91763122371866
 20
8.968490335188077
 30
0.0
 10
13.91857428238983
 20
8.982786391807704
 30
0.0
 10
13.91868555912806
 20
8.984303622260844
 30
0.0
 10
13.91873850654516
 20
8.985025547030572
 30
0.0
  0
SPLINE
  5
BC
330
1F
100
AcDbEntity
  8
0
  6
Continuous
 62
     7
370
    25
100
AcDbSpline
210
0.0
220
0.0
230
1.0
 70
     8
 71
     3
 72
    10
 73
     6
 74
     0
 42
0.00000001
 43
0.00000001
 40
0.0
 40
0.0
 40
0.0
 40
0.0
 40
0.2976018616927024
 40
0.6986085202915071
 40
1.0
 40
1.0
 40
1.0
 40
1.0
 10
13.91869422240855
 20
8.816163374746468
 30
0.0
 10
13.91868439178741
 20
8.816304190191008
 30
0.0
 10
13.91866131479574
 20
8.816634748840022
 30
0.0
 10
13.91798655471918
 20
8.826270428141791
 30
0.0
 10
13.91742715922249
 20
8.83678208589696
 30
0.0
 10
13.91718712863685
 20
8.841292525079865
 30
0.0
  0
SPLINE
  5
BD
330
1F
100
AcDbEntity
  8
0
  6
Continuous
 62
     7
370
    25
100
AcDbSpline
210
0.0
220
0.0
230
1.0
 70
    11
 71
     3
 72
    26
 73
    22
 74
     0
 42
0.00000001
 43
0.00000001
 40
0.0
 40
0.0
 40
0.0
 40
0.0
 40
0.0482348833488315
 40
0.0994990305378813
 40
0.1523411430840847
 40
0.2070350353661374
 40
0.2630546283428964
 40
0.3194545974421518
 40
0.3751634711989061
 40
0.4292222739348201
 40
0.4813028957315956
 40
0.532113352996571
 40
0.5830308239825991
 40
0.6352948420635304
 40
0.6894264904060934
 40
0.7451153215671364
 40
0.8015082362440549
 40
0.8575530814745058
 40
0.9122146062197349
 40
0.9648968041165018
 40
1.0
 40
1.0
 40
1.0
 40
1.0
 10
12.24278748563716
 20
8.81631006776657
 30
0.0
 10
12.23576702890563
 20
8.81844388444727
 30
0.0
 10
12.22128521428885
 20
8.822845526502453
 30
0.0
 10
12.20317629328225
 20
8.839549198178993
 30
0.0
 10
12.18989439703653
 20
8.86261222434761
 30
0.0
 10
12.18339045217504
 20
8.89055257870676
 30
0.0
 10
12.18474549736264
 20
8.920137221437829
 30
0.0
 10
12.19419867985419
 20
8.947716021553708
 30
0.0
 10
12.21077603552342
 20
8.969592640937982
 30
0.0
 10
12.23235005877784
 20
8.983014250935568
 30
0.0
 10
12.25613236482266
 20
8.986789846479613
 30
0.0
 10
12.27946333055362
 20
8.981183764720518
 30
0.0
 10
12.30017421649601
 20
8.967151824717808
 30
0.0
 10
12.31630195726224
 20
8.945912821345669
 30
0.0
 10
12.32586313756102
 20
8.91922681592559
 30
0.0
 10
12.32719465475538
 20
8.88978636930078
 30
0.0
 10
12.31965034082878
 20
8.861160060651105
 30
0.0
 10
12.30407069326688
 20
8.837079303432343
 30
0.0
 10
12.28280994316766
 20
8.82088245648378
 30
0.0
 10
12.26124244015315
 20
8.814322999041908
 30
0.0
 10
12.24805915394394
 20
8.815742460449515
 30
0.0
 10
12.24278748563716
 20
8.81631006776657
 30
0.0
  0
LINE
  5
BE
330
1F
100
AcDbEntity
  8
0
  6
Continuous
 62
     7
370
    25
100
AcDbLine
 10
13.9187562744
 20
9.8137525783
 30
0.0
 11
11.6987562744
 21
9.8137525783
 31
0.0
  0
LINE
  5
BF
330
1F
100
AcDbEntity
  8
0
  6
Continuous
 62
     7
370
    25
100
AcDbLine
 10
9.8337562744
 20
10.0352812187
 30
0.0
 11
15.7837562744
 21
10.0352812187
 31
0.0
  0
LINE
  5
C0
330
1F
100
AcDbEntity
  8
0
  6
Continuous
 62
     7
370
    25
100
AcDbLine
 10
9.8337562744
 20
10.5102812187
 30
0.0
 11
15.7837562744
 21
10.5102812187
 31
0.0
  0
LINE
  5
C1
330
1F
100
AcDbEntity
  8
0
  6
Continuous
 62
     7
370
    25
100
AcDbLine
 10
12.8087562744
 20
8.6402812187
 30
0.0
 11
11.6987562744
 21
8.6402812187
 31
0.0
  0
LINE
  5
C2
330
1F
100
AcDbEntity
  8
0
  6
Continuous
 62
     7
370
    25
100
AcDbLine
 10
13.9187562744
 20
8.6402812187
 30
0.0
 11
12.8087562744
 21
8.6402812187
 31
0.0
  0
DIMENSION
  5
C3
330
1F
100
AcDbEntity
  8
0
  6
Continuous
 62
     7
370
    18
100
AcDbDimension
  2
_D
 10
16.9648586366
 20
6.2827812187
 30
0.0
 11
16.9648586366
 21
8.1590312187
 31
0.0
 70
   160
  1
<>
 71
     2
 42
-1.0
  3
SLDDIMSTYLE0
100
AcDbAlignedDimension
 13
15.7837562744
 23
10.0352812187
 33
0.0
 14
13.0900062744
 24
6.2827812187
 34
0.0
 50
90.0
100
AcDbRotatedDimension
  0
DIMENSION
  5
D9
330
1F
100
AcDbEntity
  8
0
  6
Continuous
 62
     7
370
    18
100
AcDbDimension
  2
_D_1
 10
13.9187562744
 20
2.6971788565
 30
0.0
 11
12.8087562744
 21
2.6971788565
 31
0.0
 70
   160
  1
%%c<>
 71
     2
 42
-1.0
  3
SLDDIMSTYLE1
100
AcDbAlignedDimension
 13
11.6987562744
 23
6.7202812187
 33
0.0
 14
13.9187562744
 24
6.7202812187
 34
0.0
100
AcDbRotatedDimension
  0
DIMENSION
  5
ED
330
1F
100
AcDbEntity
  8
0
  6
Continuous
 62
     7
370
    18
100
AcDbDimension
  2
_D_2
 10
16.9648586366
 20
10.5102812187
 30
0.0
 11
16.9648586366
 21
11.9346301336
 31
0.0
 70
   160
  1
<>
 71
     2
 42
-1.0
  3
SLDDIMSTYLE1
100
AcDbAlignedDimension
 13
15.7837562744
 23
10.0352812187
 33
0.0
 14
15.7837562744
 24
10.5102812187
 34
0.0
 50
90.0
100
AcDbRotatedDimension
  0
LINE
  5
102
330
1F
100
AcDbEntity
  8
0
  6
Continuous
 62
     7
370
    25
100
AcDbLine
 10
22.5560466139
 20
13.7782958295
 30
0.0
 11
22.5560466139
 21
15.4816301117
 31
0.0
  0
LINE
  5
103
330
1F
100
AcDbEntity
  8
0
  6
Continuous
 62
     7
370
    25
100
AcDbLine
 10
22.4160466139
 20
15.4856119689
 30
0.0
 11
22.4160466139
 21
13.7782958295
 31
0.0
  0
LINE
  5
104
330
1F
100
AcDbEntity
  8
0
  6
Continuous
 62
     7
370
    25
100
AcDbLine
 10
22.6550415633
 20
13.8354443973
 30
0.0
 11
22.6550415633
 21
15.4851575154
 31
0.0
  0
LINE
  5
105
330
1F
100
AcDbEntity
  8
0
  6
Continuous
 62
     7
370
    25
100
AcDbLine
 10
23.6490796225
 20
16.1295201211
 30
0.0
 11
23.6490796225
 21
17.2429420925
 31
0.0
  0
LINE
  5
106
330
1F
100
AcDbEntity
  8
0
  6
Continuous
 62
     7
370
    25
100
AcDbLine
 10
21.4290796225
 20
17.2429420925
 30
0.0
 11
21.4290796225
 21
16.1295201211
 31
0.0
  0
LINE
  5
107
330
1F
100
AcDbEntity
  8
0
  6
Continuous
 62
     7
370
    25
100
AcDbLine
 10
21.75406356
 20
15.6764872556
 30
0.0
 11
21.7752802104
 21
15.6642351627
 31
0.0
  0
LINE
  5
108
330
1F
100
AcDbEntity
  8
0
  6
Continuous
 62
     7
370
    25
100
AcDbLine
 10
23.3028790347
 20
15.6642351627
 30
0.0
 11
23.324095685
 21
15.6764872556
 31
0.0
  0
LINE
  5
109
330
1F
100
AcDbEntity
  8
0
  6
Continuous
 62
     7
370
    25
100
AcDbLine
 10
23.5215796225
 20
19.1139767885
 30
0.0
 11
23.5215796225
 21
19.21604439
 31
0.0
  0
LINE
  5
10A
330
1F
100
AcDbEntity
  8
0
  6
Continuous
 62
     7
370
    25
100
AcDbLine
 10
21.5565796225
 20
19.21604439
 30
0.0
 11
21.5565796225
 21
19.1139767885
 31
0.0
  0
LINE
  5
10B
330
1F
100
AcDbEntity
  8
0
  6
Continuous
 62
     7
370
    25
100
AcDbLine
 10
25.5140796225
 20
18.8363529125
 30
0.0
 11
25.5140796225
 21
19.2242097981
 31
0.0
  0
LINE
  5
10C
330
1F
100
AcDbEntity
  8
0
  6
Continuous
 62
     7
370
    25
100
AcDbLine
 10
19.5640796225
 20
19.2242097981
 30
0.0
 11
19.5640796225
 21
18.8363529125
 31
0.0
  0
LWPOLYLINE
  5
10D
330
1F
100
AcDbEntity
  8
0
  6
Continuous
 62
     7
370
    25
100
AcDbPolyline
 90
        9
 70
   128
 43
0.0
 10
22.4160466139
 20
13.7782958295
 10
22.4212703389
 20
13.7629782836
 10
22.4365491392
 20
13.7497215456
 10
22.4595129713
 20
13.7409012819
 10
22.4865964455
 20
13.7378869363
 10
22.5135945522
 20
13.7411465193
 10
22.5363155362
 20
13.7501739446
 10
22.5512317127
 20
13.7635676042
 10
22.5560466139
 20
13.7782958295
  0
LINE
  5
10E
330
1F
100
AcDbEntity
  8
0
  6
Continuous
 62
     7
370
    25
100
AcDbLine
 10
22.5564861278
 20
15.4816341499
 30
0.0
 11
22.5564861278
 21
13.7985494925
 31
0.0
  0
LWPOLYLINE
  5
10F
330
1F
100
AcDbEntity
  8
0
  6
Continuous
 62
     7
370
    25
100
AcDbPolyline
 90
        7
 70
   128
 43
0.0
 10
22.5564861278
 20
13.7985494925
 10
22.5833922043
 20
13.7950454765
 10
22.6105543621
 20
13.7978138408
 10
22.633755375
 20
13.8064247662
 10
22.6493930286
 20
13.819541311
 10
22.6550394039
 20
13.8351269863
 10
22.6550415633
 20
13.8354443973
  0
LINE
  5
110
330
1F
100
AcDbEntity
  8
0
  6
Continuous
 62
     7
370
    25
100
AcDbLine
 10
22.5560466139
 20
13.7982957666
 30
0.0
 11
22.5564861278
 21
13.7985494925
 31
0.0
  0
LWPOLYLINE
  5
111
330
1F
100
AcDbEntity
  8
0
  6
Continuous
 62
     7
370
    25
100
AcDbPolyline
 90
        9
 70
   128
 43
0.0
 10
23.3239681496
 20
15.676413619
 10
23.3971212257
 20
15.7230076543
 10
23.4620108922
 20
15.7735166268
 10
23.5180122259
 20
15.8274541076
 10
23.5645859036
 20
15.8843006492
 10
23.6012833952
 20
15.9435087884
 10
23.6277512838
 20
16.0045083184
 10
23.6437346691
 20
16.0667117804
 10
23.6490796225
 20
16.1295201211
  0
LWPOLYLINE
  5
112
330
1F
100
AcDbEntity
  8
0
  6
Continuous
 62
     7
370
    25
100
AcDbPolyline
 90
       25
 70
   128
 43
0.0
 10
21.4290796225
 20
16.1295201211
 10
21.4344245759
 20
16.0667117804
 10
21.4504079613
 20
16.0045083184
 10
21.4768758498
 20
15.9435087884
 10
21.5135733414
 20
15.8843006492
 10
21.5601470191
 20
15.8274541076
 10
21.6161483529
 20
15.7735166268
 10
21.6810380193
 20
15.7230076543
 10
21.7541910954
 20
15.676413619
 10
21.8349030771
 20
15.6341832471
 10
21.9223966639
 20
15.59672324
 10
22.0158292446
 20
15.5643943582
 10
22.1143010126
 20
15.5375079463
 10
22.2168636308
 20
15.5163229354
 10
22.3225293651
 20
15.5010433485
 10
22.4302805967
 20
15.4918163366
 10
22.5390796225
 20
15.4887307607
 10
22.6478786483
 20
15.4918163366
 10
22.7556298799
 20
15.5010433485
 10
22.8612956143
 20
15.5163229354
 10
22.9638582324
 20
15.5375079463
 10
23.0623300004
 20
15.5643943582
 10
23.1557625812
 20
15.59672324
 10
23.2432561679
 20
15.6341832471
 10
23.3239681496
 20
15.676413619
  0
ARC
  5
113
330
1F
100
AcDbEntity
  8
0
  6
Continuous
 62
     7
370
    25
100
AcDbCircle
 10
22.5390866588
 20
17.1369698655
 30
0.0
 40
1.659020131089427
100
AcDbArc
 50
242.5873279818
 51
297.4072970872
  0
LWPOLYLINE
  5
114
330
1F
100
AcDbEntity
  8
0
  6
Continuous
 62
     7
370
    25
100
AcDbPolyline
 90
        3
 70
   128
 43
0.0
 10
23.5176469571
 20
19.0632798112
 10
23.5202331404
 20
19.0842926099
 10
23.5215796225
 20
19.1139767885
  0
LWPOLYLINE
  5
115
330
1F
100
AcDbEntity
  8
0
  6
Continuous
 62
     7
370
    25
100
AcDbPolyline
 90
        3
 70
   128
 43
0.0
 10
21.5565796225
 20
19.1139767885
 10
21.5579261046
 20
19.0842926099
 10
21.5605122879
 20
19.0632798112
  0
LWPOLYLINE
  5
116
330
1F
100
AcDbEntity
  8
0
  6
Continuous
 62
     7
370
    25
100
AcDbPolyline
 90
       61
 70
   128
 43
0.0
 10
23.233812035
 20
18.8149839051
 10
23.3026255296
 20
18.8591031925
 10
23.3630734555
 20
18.9071332025
 10
23.4144935325
 20
18.958547708
 10
23.4563223915
 20
19.0127834011
 10
23.4881017468
 20
19.0692460641
 10
23.5094834171
 20
19.1273170802
 10
23.5202331404
 20
19.1863602114
 10
23.5202331404
 20
19.2457285686
 10
23.5094834171
 20
19.3047716998
 10
23.4881017468
 20
19.3628427159
 10
23.4563223915
 20
19.4193053789
 10
23.4144935325
 20
19.473541072
 10
23.3630734555
 20
19.5249555775
 10
23.3026255296
 20
19.5729855875
 10
23.233812035
 20
19.6171048749
 10
23.1573869067
 20
19.6568300598
 10
23.0741874744
 20
19.6917259046
 10
22.9851252885
 20
19.7214100832
 10
22.8911761329
 20
19.7455573696
 10
22.7933693343
 20
19.7639032009
 10
22.6927764844
 20
19.7762465764
 10
22.5904996995
 20
19.7824522596
 10
22.4876595455
 20
19.7824522596
 10
22.3853827606
 20
19.7762465764
 10
22.2847899107
 20
19.7639032009
 10
22.1869831121
 20
19.7455573696
 10
22.0930339565
 20
19.7214100832
 10
22.0039717706
 20
19.6917259046
 10
21.9207723383
 20
19.6568300598
 10
21.84434721
 20
19.6171048749
 10
21.7755337154
 20
19.5729855875
 10
21.7150857895
 20
19.5249555775
 10
21.6636657125
 20
19.473541072
 10
21.6218368535
 20
19.4193053789
 10
21.5900574982
 20
19.3628427159
 10
21.5686758279
 20
19.3047716998
 10
21.5579261046
 20
19.2457285686
 10
21.5579261046
 20
19.1863602114
 10
21.5686758279
 20
19.1273170802
 10
21.5900574982
 20
19.0692460641
 10
21.6218368535
 20
19.0127834011
 10
21.6636657125
 20
18.958547708
 10
21.7150857895
 20
18.9071332025
 10
21.7755337154
 20
18.8591031925
 10
21.84434721
 20
18.8149839051
 10
21.9207723383
 20
18.7752587202
 10
22.0039717706
 20
18.7403628754
 10
22.0930339565
 20
18.7106786968
 10
22.1869831121
 20
18.6865314104
 10
22.2847899107
 20
18.6681855791
 10
22.3853827606
 20
18.6558422036
 10
22.4876595455
 20
18.6496365205
 10
22.5904996995
 20
18.6496365205
 10
22.6927764844
 20
18.6558422036
 10
22.7933693343
 20
18.6681855791
 10
22.8911761329
 20
18.6865314104
 10
22.9851252885
 20
18.7106786968
 10
23.0741874744
 20
18.7403628754
 10
23.1573869067
 20
18.7752587202
 10
23.233812035
 20
18.8149839051
  0
ARC
  5
117
330
1F
100
AcDbEntity
  8
0
  6
Continuous
 62
     7
370
    25
100
AcDbCircle
 10
22.5390796225
 20
18.8852971559
 30
0.0
 40
1.821488508801953
100
AcDbArc
 50
252.4732445506
 51
287.5267554494
  0
LWPOLYLINE
  5
118
330
1F
100
AcDbEntity
  8
0
  6
Continuous
 62
     7
370
    25
100
AcDbPolyline
 90
      106
 70
   128
 43
0.0
 10
24.6427222965
 20
18.0098027318
 10
24.7647636195
 20
18.08460295
 10
24.8788375713
 20
18.1634826649
 10
24.984535797
 20
18.2461595077
 10
25.0814799242
 20
18.3323375167
 10
25.1693229182
 20
18.421708197
 10
25.2477503238
 20
18.5139516248
 10
25.3164813913
 20
18.6087375924
 10
25.3752700814
 20
18.7057267909
 10
25.4239059456
 20
18.8045720239
 10
25.4622148804
 20
18.9049194512
 10
25.4900597496
 20
19.0064098552
 10
25.5073408758
 20
19.1086799264
 10
25.5139963971
 20
19.2113635645
 10
25.5100024884
 20
19.3140931888
 10
25.4953734469
 20
19.416501054
 10
25.4701616408
 20
19.5182205663
 10
25.4344573219
 20
19.6188875964
 10
25.3883883021
 20
19.7181417824
 10
25.3321194969
 20
19.8156278201
 10
25.2658523337
 20
19.9109967347
 10
25.189824032
 20
20.0039071304
 10
25.1043067532
 20
20.094026412
 10
25.0096066271
 20
20.1810319759
 10
24.9060626554
 20
20.2646123647
 10
24.7940454989
 20
20.3444683823
 10
24.6739561497
 20
20.4203141649
 10
24.5462244967
 20
20.4918782044
 10
24.4113077859
 20
20.5589043199
 10
24.2696889842
 20
20.6211525755
 10
24.1218750501
 20
20.6784001385
 10
23.9683951193
 20
20.7304420774
 10
23.8097986098
 20
20.7770920958
 10
23.6466532563
 20
20.8181831985
 10
23.4795430765
 20
20.8535682901
 10
23.3090662817
 20
20.8831207013
 10
23.1358331345
 20
20.9067346419
 10
22.9604637645
 20
20.9243255803
 10
22.7835859488
 20
20.9358305454
 10
22.6058328638
 20
20.9412083525
 10
22.4278408195
 20
20.9404397503
 10
22.2502469813
 20
20.9335274904
 10
22.073687089
 20
20.9204963168
 10
21.8987931812
 20
20.9013928776
 10
21.7261913326
 20
20.8762855583
 10
21.5564994132
 20
20.8452642366
 10
21.3903248759
 20
20.8084399607
 10
21.2282625824
 20
20.765944552
 10
21.0708926738
 20
20.717930133
 10
20.9187784933
 20
20.6645685829
 10
20.7724645704
 20
20.6060509221
 10
20.6324746709
 20
20.5425866288
 10
20.4993099223
 20
20.4744028886
 10
20.3734470198
 20
20.4017437816
 10
20.2553365199
 20
20.3248694085
 10
20.1454012277
 20
20.2440549597
 10
20.0440346829
 20
20.1595897299
 10
19.9515997514
 20
20.0717760827
 10
19.8684273263
 20
19.9809283682
 10
19.7948151433
 20
19.8873717976
 10
19.7310267148
 20
19.7914412791
 10
19.677290387
 20
19.6934802192
 10
19.633798522
 20
19.5938392929
 10
19.6007068092
 20
19.492875189
 10
19.5781337085
 20
19.3909493327
 10
19.5661600258
 20
19.2884265922
 10
19.5648286236
 20
19.1856739722
 10
19.574144268
 20
19.0830593005
 10
19.5940736115
 20
18.9809499109
 10
19.6245453122
 20
18.8797113285
 10
19.6654502893
 20
18.7797059613
 10
19.7166421136
 20
18.6812918025
 10
19.7779375317
 20
18.5848211491
 10
19.8491171218
 20
18.4906393412
 10
19.9299260795
 20
18.3990835252
 10
20.0200751298
 20
18.310481447
 10
20.1192415624
 20
18.2251502792
 10
20.2270703872
 20
18.1433954852
 10
20.343175605
 20
18.0655097259
 10
20.4671415893
 20
17.9917718122
 10
20.598524574
 20
17.9224457065
 10
20.7368542421
 20
17.8577795785
 10
20.8816354093
 20
17.798004916
 10
21.0323497967
 20
17.7433356969
 10
21.1884578858
 20
17.6939676227
 10
21.3494008502
 20
17.6500774183
 10
21.5146025558
 20
17.6118221993
 10
21.6834716234
 20
17.5793389094
 10
21.8554035456
 20
17.5527438304
 10
22.0297828507
 20
17.5321321658
 10
22.2059853061
 20
17.5175777
 10
22.3833801527
 20
17.5091325341
 10
22.561332363
 20
17.5068268997
 10
22.7392049142
 20
17.5106690504
 10
22.9163610688
 20
17.5206452322
 10
23.0921666538
 20
17.536719733
 10
23.2659923308
 20
17.5588350103
 10
23.4372158489
 20
17.5869118971
 10
23.6052242724
 20
17.6208498855
 10
23.7694161748
 20
17.6605274862
 10
23.9292037916
 20
17.7058026637
 10
24.0840151247
 20
17.7565133448
 10
24.2332959897
 20
17.8124779982
 10
24.3765119998
 20
17.873496285
 10
24.5131504788
 20
17.9393497757
 10
24.6427222965
 20
18.0098027318
  0
LWPOLYLINE
  5
119
330
1F
100
AcDbEntity
  8
0
  6
Continuous
 62
     7
370
    25
100
AcDbPolyline
 90
       62
 70
   128
 43
0.0
 10
23.2585607724
 20
18.8088621712
 10
23.328725202
 20
18.8537700225
 10
23.3905191921
 20
18.9026046275
 10
23.4432877109
 20
18.9548483273
 10
23.4864713991
 20
19.0099473258
 10
23.5196124987
 20
19.0673175597
 10
23.5423597059
 20
19.1263508904
 10
23.5544718947
 20
19.1864215499
 10
23.5558206727
 20
19.2468927742
 10
23.5463917427
 20
19.3071235533
 10
23.5262850537
 20
19.3664754259
 10
23.4957137414
 20
19.4243192476
 10
23.4550018696
 20
19.4800418593
 10
23.404580994
 20
19.5330525875
 10
23.3449855886
 20
19.5827895053
 10
23.2768473795
 20
19.6287253889
 10
23.2008886486
 20
19.6703733068
 10
23.1179145774
 20
19.7072917804
 10
23.0288047117
 20
19.7390894648
 10
22.9345036382
 20
19.7654292967
 10
22.8360109718
 20
19.7860320672
 10
22.7343707592
 20
19.800679382
 10
22.630660412
 20
19.8092159757
 10
22.5259792856
 20
19.8115513584
 10
22.421437026
 20
19.8076607745
 10
22.3181418073
 20
19.7975854651
 10
22.2171885843
 20
19.7814322309
 10
22.1196474864
 20
19.7593723004
 10
22.0265524736
 20
19.7316395142
 10
21.9388903759
 20
19.6985278468
 10
21.8575904337
 20
19.66038829
 10
21.7835144463
 20
19.6176251328
 10
21.7174476378
 20
19.5706916751
 10
21.6600903327
 20
19.5200854233
 10
21.6120505328
 20
19.4663428163
 10
21.5738374718
 20
19.4100335391
 10
21.5458562177
 20
19.351754484
 10
21.5284033788
 20
19.2921234235
 10
21.5216639596
 20
19.2317724616
 10
21.5257093994
 20
19.1713413337
 10
21.5404968158
 20
19.1114706246
 10
21.5658694583
 20
19.0527949788
 10
21.6015583706
 20
18.9959363728
 10
21.6471852414
 20
18.9414975218
 10
21.7022664146
 20
18.8900554913
 10
21.7662180159
 20
18.8421555796
 10
21.8383621425
 20
18.7983055376
 10
21.9179340488
 20
18.7589701868
 10
22.0040902526
 20
18.7245664916
 10
22.0959174769
 20
18.6954591397
 10
22.1924423301
 20
18.6719566763
 10
22.2926416249
 20
18.6543082334
 10
22.3954532237
 20
18.6427008889
 10
22.4997872981
 20
18.6372576834
 10
22.604537881
 20
18.6380363164
 10
22.70859459
 20
18.6450285342
 10
22.8108543981
 20
18.6581602174
 10
22.9102333261
 20
18.677292167
 10
23.0056779324
 20
18.7022215795
 10
23.0961764806
 20
18.732684197
 10
23.1807696635
 20
18.7683571082
 10
23.2585607724
 20
18.8088621712
  0
LWPOLYLINE
  5
11A
330
1F
100
AcDbEntity
  8
0
  6
Continuous
 62
     7
370
    25
100
AcDbPolyline
 90
       31
 70
   128
 43
0.0
 10
24.3952349231
 20
20.0916434169
 10
24.4281258698
 20
20.1150910753
 10
24.4518533345
 20
20.1419740775
 10
24.465380313
 20
20.1711175073
 10
24.4681156115
 20
20.201247657
 10
24.4599396844
 20
20.2310476945
 10
24.4412098589
 20
20.2592152151
 10
24.4127447182
 20
20.2845191631
 10
24.3757883256
 20
20.3058536344
 10
24.3319558528
 20
20.3222862104
 10
24.2831629891
 20
20.3330987085
 10
24.2315422169
 20
20.3378185707
 10
24.1793496116
 20
20.3362395165
 10
24.1288662404
 20
20.328430558
 10
24.0822984691
 20
20.3147329843
 10
24.0416815325
 20
20.2957454449
 10
24.0087905858
 20
20.2722977865
 10
23.9850631212
 20
20.2454147843
 10
23.9715361427
 20
20.2162713545
 10
23.9688008441
 20
20.1861412048
 10
23.9769767713
 20
20.1563411673
 10
23.9957065968
 20
20.1281736467
 10
24.0241717375
 20
20.1028696987
 10
24.0611281301
 20
20.0815352274
 10
24.1049606029
 20
20.0651026515
 10
24.1537534666
 20
20.0542901533
 10
24.2053742388
 20
20.0495702911
 10
24.2575668441
 20
20.0511493453
 10
24.3080502152
 20
20.0589583038
 10
24.3546179866
 20
20.0726558776
 10
24.3952349231
 20
20.0916434169
  0
LWPOLYLINE
  5
11B
330
1F
100
AcDbEntity
  8
0
  6
Continuous
 62
     7
370
    25
100
AcDbPolyline
 90
       31
 70
   128
 43
0.0
 10
24.0416815325
 20
18.1526741514
 10
24.0822984691
 20
18.133686612
 10
24.1288662404
 20
18.1199890382
 10
24.1793496116
 20
18.1121800797
 10
24.2315422169
 20
18.1106010255
 10
24.2831629891
 20
18.1153208878
 10
24.3319558528
 20
18.1261333859
 10
24.3757883256
 20
18.1425659618
 10
24.4127447182
 20
18.1639004332
 10
24.4412098589
 20
18.1892043811
 10
24.4599396844
 20
18.2173719017
 10
24.4681156115
 20
18.2471719392
 10
24.465380313
 20
18.2773020889
 10
24.4518533345
 20
18.3064455188
 10
24.4281258698
 20
18.3333285209
 10
24.3952349231
 20
18.3567761793
 10
24.3546179866
 20
18.3757637187
 10
24.3080502152
 20
18.3894612924
 10
24.2575668441
 20
18.3972702509
 10
24.2053742388
 20
18.3988493052
 10
24.1537534666
 20
18.3941294429
 10
24.1049606029
 20
18.3833169448
 10
24.0611281301
 20
18.3668843688
 10
24.0241717375
 20
18.3455498975
 10
23.9957065968
 20
18.3202459496
 10
23.9769767713
 20
18.2920784289
 10
23.9688008441
 20
18.2622783914
 10
23.9715361427
 20
18.2321482417
 10
23.9850631212
 20
18.2030048119
 10
24.0087905858
 20
18.1761218097
 10
24.0416815325
 20
18.1526741514
  0
LWPOLYLINE
  5
11C
330
1F
100
AcDbEntity
  8
0
  6
Continuous
 62
     7
370
    25
100
AcDbPolyline
 90
       31
 70
   128
 43
0.0
 10
20.6829243219
 20
18.3567761793
 10
20.6500333752
 20
18.3333285209
 10
20.6263059106
 20
18.3064455188
 10
20.612778932
 20
18.2773020889
 10
20.6100436335
 20
18.2471719392
 10
20.6182195606
 20
18.2173719017
 10
20.6369493861
 20
18.1892043811
 10
20.6654145268
 20
18.1639004332
 10
20.7023709194
 20
18.1425659618
 10
20.7462033923
 20
18.1261333859
 10
20.7949962559
 20
18.1153208878
 10
20.8466170281
 20
18.1106010255
 10
20.8988096335
 20
18.1121800797
 10
20.9492930046
 20
18.1199890382
 10
20.9958607759
 20
18.133686612
 10
21.0364777125
 20
18.1526741514
 10
21.0693686592
 20
18.1761218097
 10
21.0930961238
 20
18.2030048119
 10
21.1066231023
 20
18.2321482417
 10
21.1093584009
 20
18.2622783914
 10
21.1011824738
 20
18.2920784289
 10
21.0824526482
 20
18.3202459496
 10
21.0539875076
 20
18.3455498975
 10
21.017031115
 20
18.3668843688
 10
20.9731986421
 20
18.3833169448
 10
20.9244057785
 20
18.3941294429
 10
20.8727850063
 20
18.3988493052
 10
20.8205924009
 20
18.3972702509
 10
20.7701090298
 20
18.3894612924
 10
20.7235412584
 20
18.3757637187
 10
20.6829243219
 20
18.3567761793
  0
LWPOLYLINE
  5
11D
330
1F
100
AcDbEntity
  8
0
  6
Continuous
 62
     7
370
    25
100
AcDbPolyline
 90
       31
 70
   128
 43
0.0
 10
21.0364777125
 20
20.2957454449
 10
20.9958607759
 20
20.3147329843
 10
20.9492930046
 20
20.328430558
 10
20.8988096335
 20
20.3362395165
 10
20.8466170281
 20
20.3378185707
 10
20.7949962559
 20
20.3330987085
 10
20.7462033923
 20
20.3222862104
 10
20.7023709194
 20
20.3058536344
 10
20.6654145268
 20
20.2845191631
 10
20.6369493861
 20
20.2592152151
 10
20.6182195606
 20
20.2310476945
 10
20.6100436335
 20
20.201247657
 10
20.612778932
 20
20.1711175073
 10
20.6263059106
 20
20.1419740775
 10
20.6500333752
 20
20.1150910753
 10
20.6829243219
 20
20.0916434169
 10
20.7235412584
 20
20.0726558776
 10
20.7701090298
 20
20.0589583038
 10
20.8205924009
 20
20.0511493453
 10
20.8727850063
 20
20.0495702911
 10
20.9244057785
 20
20.0542901533
 10
20.9731986421
 20
20.0651026515
 10
21.017031115
 20
20.0815352274
 10
21.0539875076
 20
20.1028696987
 10
21.0824526482
 20
20.1281736467
 10
21.1011824738
 20
20.1563411673
 10
21.1093584009
 20
20.1861412048
 10
21.1066231023
 20
20.2162713545
 10
21.0930961238
 20
20.2454147843
 10
21.0693686592
 20
20.2722977865
 10
21.0364777125
 20
20.2957454449
  0
LWPOLYLINE
  5
11E
330
1F
100
AcDbEntity
  8
0
  6
Continuous
 62
     7
370
    25
100
AcDbPolyline
 90
       15
 70
   128
 43
0.0
 10
24.6427222965
 20
17.6219458461
 10
24.7647636195
 20
17.6967460643
 10
24.8788375713
 20
17.7756257793
 10
24.984535797
 20
17.8583026221
 10
25.0814799242
 20
17.9444806311
 10
25.1693229182
 20
18.0338513114
 10
25.2477503238
 20
18.1260947391
 10
25.3164813913
 20
18.2208807068
 10
25.3752700814
 20
18.3178699052
 10
25.4239059456
 20
18.4167151382
 10
25.4622148804
 20
18.5170625656
 10
25.4900597496
 20
18.6185529695
 10
25.5073408758
 20
18.7208230407
 10
25.5139963971
 20
18.8235066789
 10
25.5140796225
 20
18.8363529125
  0
LWPOLYLINE
  5
11F
330
1F
100
AcDbEntity
  8
0
  6
Continuous
 62
     7
370
    25
100
AcDbPolyline
 90
       41
 70
   128
 43
0.0
 10
19.5640796225
 20
18.8363529125
 10
19.5648286236
 20
18.7978170865
 10
19.574144268
 20
18.6952024148
 10
19.5940736115
 20
18.5930930252
 10
19.6245453122
 20
18.4918544429
 10
19.6654502893
 20
18.3918490757
 10
19.7166421136
 20
18.2934349168
 10
19.7779375317
 20
18.1969642635
 10
19.8491171218
 20
18.1027824556
 10
19.9299260795
 20
18.0112266395
 10
20.0200751298
 20
17.9226245614
 10
20.1192415624
 20
17.8372933936
 10
20.2270703872
 20
17.7555385995
 10
20.343175605
 20
17.6776528403
 10
20.4671415893
 20
17.6039149265
 10
20.598524574
 20
17.5345888209
 10
20.7368542421
 20
17.4699226929
 10
20.8816354093
 20
17.4101480304
 10
21.0323497967
 20
17.3554788112
 10
21.1884578858
 20
17.306110737
 10
21.3494008502
 20
17.2622205326
 10
21.5146025558
 20
17.2239653136
 10
21.6834716234
 20
17.1914820238
 10
21.8554035456
 20
17.1648869448
 10
22.0297828507
 20
17.1442752802
 10
22.2059853061
 20
17.1297208143
 10
22.3833801527
 20
17.1212756484
 10
22.561332363
 20
17.118970014
 10
22.7392049142
 20
17.1228121647
 10
22.9163610688
 20
17.1327883465
 10
23.0921666538
 20
17.1488628473
 10
23.2659923308
 20
17.1709781246
 10
23.4372158489
 20
17.1990550114
 10
23.6052242724
 20
17.2329929998
 10
23.7694161748
 20
17.2726706005
 10
23.9292037916
 20
17.3179457781
 10
24.0840151247
 20
17.3686564591
 10
24.2332959897
 20
17.4246211125
 10
24.3765119998
 20
17.4856393994
 10
24.5131504788
 20
17.5514928901
 10
24.6427222965
 20
17.6219458461
  0
LWPOLYLINE
  5
120
330
1F
100
AcDbEntity
  8
0
  6
Continuous
 62
     7
370
    25
100
AcDbPolyline
 90
       14
 70
   128
 43
0.0
 10
24.3493881906
 20
18.131778678
 10
24.3509348304
 20
18.1391808773
 10
24.3482379888
 20
18.1609485338
 10
24.3350271628
 20
18.1813958309
 10
24.312372615
 20
18.1988662502
 10
24.282109682
 20
18.2119444423
 10
24.2466900868
 20
18.2195708898
 10
24.2089833142
 20
18.2211277433
 10
24.1720441428
 20
18.2164888758
 10
24.1388651645
 20
18.2060301008
 10
24.1121343429
 20
18.1905987259
 10
24.0940172501
 20
18.1714449094
 10
24.0859816252
 20
18.1501203797
 10
24.087528265
 20
18.131778678
  0
ARC
  5
121
330
1F
100
AcDbEntity
  8
0
  6
Continuous
 62
     7
370
    25
100
AcDbCircle
 10
20.7866522529
 20
18.1435981802
 30
0.0
 40
0.059075661484729
100
AcDbArc
 50
110.6832697031
 51
191.5412846963
  0
LWPOLYLINE
  5
122
330
1F
100
AcDbEntity
  8
0
  6
Continuous
 62
     7
370
    25
100
AcDbPolyline
 90
       10
 70
   128
 43
0.0
 10
20.99063098
 20
18.131778678
 10
20.9921776198
 20
18.1501203797
 10
20.9841419949
 20
18.1714449094
 10
20.9660249021
 20
18.1905987259
 10
20.9392940805
 20
18.2060301008
 10
20.9061151022
 20
18.2164888758
 10
20.8691759308
 20
18.2211277433
 10
20.8314691583
 20
18.2195708898
 10
20.796049563
 20
18.2119444423
 10
20.76578663
 20
18.1988662502
  0
ARC
  5
123
330
1F
100
AcDbEntity
  8
0
  6
Continuous
 62
     7
370
    25
100
AcDbCircle
 10
23.1792868237
 20
19.1063322408
 30
0.0
 40
0.3780495187541105
100
AcDbArc
 50
9.5560741019
 51
27.2257772556
  0
ARC
  5
124
330
1F
100
AcDbEntity
  8
0
  6
Continuous
 62
     7
370
    25
100
AcDbCircle
 10
21.895775536
 20
19.1073618928
 30
0.0
 40
0.3748250067267382
100
AcDbArc
 50
152.6976029052
 51
170.5205457373
  0
LWPOLYLINE
  5
125
330
1F
100
AcDbEntity
  8
0
  6
Continuous
 62
     7
370
    25
100
AcDbPolyline
 90
       14
 70
   128
 43
0.0
 10
24.3493881906
 20
20.0707479436
 10
24.3509348304
 20
20.0890896453
 10
24.3428992056
 20
20.110414175
 10
24.3247821127
 20
20.1295679915
 10
24.2980512911
 20
20.1449993663
 10
24.2648723128
 20
20.1554581414
 10
24.2279331414
 20
20.1600970089
 10
24.1902263689
 20
20.1585401554
 10
24.1548067737
 20
20.1509137079
 10
24.1245438407
 20
20.1378355158
 10
24.1018892928
 20
20.1203650964
 10
24.0886784668
 20
20.0999177993
 10
24.0859816252
 20
20.0781501429
 10
24.087528265
 20
20.0707479436
  0
LWPOLYLINE
  5
126
330
1F
100
AcDbEntity
  8
0
  6
Continuous
 62
     7
370
    25
100
AcDbPolyline
 90
       10
 70
   128
 43
0.0
 10
20.9536154043
 20
20.1378355158
 10
20.9233524714
 20
20.1509137079
 10
20.8879328761
 20
20.1585401554
 10
20.8502261036
 20
20.1600970089
 10
20.8132869322
 20
20.1554581414
 10
20.7801079539
 20
20.1449993663
 10
20.7533771323
 20
20.1295679915
 10
20.7352600395
 20
20.110414175
 10
20.7272244146
 20
20.0890896453
 10
20.7287710544
 20
20.0707479436
  0
ARC
  5
127
330
1F
100
AcDbEntity
  8
0
  6
Continuous
 62
     7
370
    25
100
AcDbCircle
 10
20.9327497814
 20
20.0825674458
 30
0.0
 40
0.059075661484737
100
AcDbArc
 50
348.4587153038
 51
69.3167302969
  0
ARC
  5
128
330
1F
100
AcDbEntity
  8
0
  6
Continuous
 62
     7
370
    25
100
AcDbCircle
 10
22.5390796225
 20
18.8649982921
 30
0.0
 40
1.809484075556123
100
AcDbArc
 50
251.1723876296
 51
288.8276123704
  0
CIRCLE
  5
129
330
1F
100
AcDbEntity
  8
0
  6
Continuous
 62
     7
370
    25
100
AcDbCircle
 10
12.8087562744
 20
16.607802106
 30
0.0
 40
0.9825000000000088
  0
CIRCLE
  5
12A
330
1F
100
AcDbEntity
  8
0
  6
Continuous
 62
     7
370
    25
100
AcDbCircle
 10
12.8087562744
 20
16.607802106
 30
0.0
 40
2.974999999999998
  0
CIRCLE
  5
12B
330
1F
100
AcDbEntity
  8
0
  6
Continuous
 62
     7
370
    25
100
AcDbCircle
 10
12.8087562744
 20
16.607802106
 30
0.0
 40
1.017499999999998
  0
CIRCLE
  5
12C
330
1F
100
AcDbEntity
  8
0
  6
Continuous
 62
     7
370
    25
100
AcDbCircle
 10
10.4337562744
 20
16.607802106
 30
0.0
 40
0.2500000000000036
  0
CIRCLE
  5
12D
330
1F
100
AcDbEntity
  8
0
  6
Continuous
 62
     7
370
    25
100
AcDbCircle
 10
12.8087562744
 20
18.982802106
 30
0.0
 40
0.2499999999999982
  0
CIRCLE
  5
12E
330
1F
100
AcDbEntity
  8
0
  6
Continuous
 62
     7
370
    25
100
AcDbCircle
 10
15.1837562744
 20
16.607802106
 30
0.0
 40
0.25
  0
CIRCLE
  5
12F
330
1F
100
AcDbEntity
  8
0
  6
Continuous
 62
     7
370
    25
100
AcDbCircle
 10
12.8087562744
 20
14.232802106
 30
0.0
 40
0.25
  0
CIRCLE
  5
130
330
1F
100
AcDbEntity
  8
0
  6
Continuous
 62
     7
370
    25
100
AcDbCircle
 10
12.8087562744
 20
18.982802106
 30
0.0
 40
0.132814999999999
  0
CIRCLE
  5
131
330
1F
100
AcDbEntity
  8
0
  6
Continuous
 62
     7
370
    25
100
AcDbCircle
 10
10.4337562744
 20
16.607802106
 30
0.0
 40
0.1328150000000008
  0
CIRCLE
  5
132
330
1F
100
AcDbEntity
  8
0
  6
Continuous
 62
     7
370
    25
100
AcDbCircle
 10
15.1837562744
 20
16.607802106
 30
0.0
 40
0.1328150000000008
  0
CIRCLE
  5
133
330
1F
100
AcDbEntity
  8
0
  6
Continuous
 62
     7
370
    25
100
AcDbCircle
 10
12.8087562744
 20
14.232802106
 30
0.0
 40
0.132814999999999
  0
DIMENSION
  5
134
330
1F
100
AcDbEntity
  8
0
  6
Continuous
 62
     7
370
    18
100
AcDbDimension
  2
_D_3
 10
7.9439924949
 20
13.632802106
 30
0.0
 11
7.9439924949
 21
16.607802106
 31
0.0
 70
   160
  1
%%c<>
 71
     2
 42
-1.0
  3
SLDDIMSTYLE0
100
AcDbAlignedDimension
 13
12.8087562744
 23
19.582802106
 33
0.0
 14
12.8087562744
 24
13.632802106
 34
0.0
 50
90.0
100
AcDbRotatedDimension
  0
DIMENSION
  5
147
330
1F
100
AcDbEntity
  8
0
  6
Continuous
 62
     7
370
    18
100
AcDbDimension
  2
_D_4
 10
15.1837562744
 20
20.7639044682
 30
0.0
 11
12.8087562744
 21
20.7639044682
 31
0.0
 70
   160
  1
<>O.C.
 71
     2
 42
-1.0
  3
SLDDIMSTYLE1
100
AcDbAlignedDimension
 13
10.4337562744
 23
16.607802106
 33
0.0
 14
15.1837562744
 24
16.607802106
 34
0.0
 50
0.0
100
AcDbRotatedDimension
  0
DIMENSION
  5
15A
330
1F
100
AcDbEntity
  8
0
  6
Continuous
 62
     7
370
    18
100
AcDbDimension
  2
_D_5
 10
11.9445585844
 20
17.1448948377
 30
0.0
 11
17.6099192455
 21
14.7692810985
 31
0.0
 70
   163
  1
<>
 71
     1
 42
-1.0
  3
SLDDIMSTYLE2
100
AcDbDiametricDimension
 15
13.6729539645
 25
16.0707093742
 35
0.0
 40
0.0
  0
MTEXT
  5
16B
330
1F
100
AcDbEntity
  8
0
  6
Continuous
 62
     7
370
     0
100
AcDbMText
 10
12.7510739165
 20
12.8488066806
 30
0.0
 40
0.375
 41
0.0
 71
     2
 72
     1
  1
FACEPLATE DETAIL
  7
SLDTEXTSTYLE0
 73
     1
 44
1.0
  0
ENDSEC
  0
SECTION
  2
OBJECTS
  0
DICTIONARY
  5
C
330
0
100
AcDbDictionary
281
     1
  3
ACAD_GROUP
350
D
  3
ACAD_LAYOUT
350
1A
  3
ACAD_MLINESTYLE
350
17
  3
ACAD_PLOTSETTINGS
350
19
  3
ACAD_PLOTSTYLENAME
350
E
  3
ACAD_SCALELIST
350
47
  3
DWGPROPS
350
16C
  0
DICTIONARY
  5
D
102
{ACAD_REACTORS
330
C
102
}
330
C
100
AcDbDictionary
281
     1
  0
DICTIONARY
  5
1A
102
{ACAD_REACTORS
330
C
102
}
330
C
100
AcDbDictionary
281
     1
  3
Layout1
350
1E
  3
Layout2
350
26
  3
Model
350
22
  0
DICTIONARY
  5
17
102
{ACAD_REACTORS
330
C
102
}
330
C
100
AcDbDictionary
281
     1
  3
Standard
350
18
  0
DICTIONARY
  5
19
102
{ACAD_REACTORS
330
C
102
}
330
C
100
AcDbDictionary
281
     1
  0
ACDBDICTIONARYWDFLT
  5
E
102
{ACAD_REACTORS
330
C
102
}
330
C
100
AcDbDictionary
281
     1
  3
Normal
350
F
100
AcDbDictionaryWithDefault
340
F
  0
DICTIONARY
  5
47
102
{ACAD_REACTORS
330
C
102
}
330
C
100
AcDbDictionary
281
     1
  3
A0
350
48
  3
A1
350
49
  3
A2
350
4A
  3
A3
350
4B
  3
A4
350
4C
  3
A5
350
4D
  3
A6
350
4E
  3
A7
350
4F
  3
A8
350
50
  3
A9
350
51
  3
B1
350
52
  3
B2
350
53
  3
B3
350
54
  3
B4
350
55
  3
B5
350
56
  3
B6
350
57
  3
B7
350
58
  0
XRECORD
  5
16C
102
{ACAD_REACTORS
330
C
102
}
330
C
100
AcDbXrecord
280
     1
  1
DWGPROPS COOKIE
  2

  3

  4

  6

  7

  8
shawnd
  9

300
=
301
=
302
=
303
=
304
=
305
=
306
=
307
=
308
=
309
=
 40
0.0
 41
2460475.84821713
 42
2460475.848217628
  1

 90
        0
  0
LAYOUT
  5
1E
102
{ACAD_REACTORS
330
1A
102
}
330
1A
100
AcDbPlotSettings
  1

  2
none_device
  4

  6

 40
0.0
 41
0.0
 42
0.0
 43
0.0
 44
0.0
 45
0.0
 46
0.0
 47
0.0
 48
0.0
 49
0.0
140
0.0
141
0.0
142
1.0
143
1.0
 70
   688
 72
     0
 73
     0
 74
     5
  7

 75
    16
147
1.0
148
0.0
149
0.0
100
AcDbLayout
  1
Layout1
 70
     1
 71
     1
 10
0.0
 20
0.0
 11
12.0
 21
9.0
 12
0.0
 22
0.0
 32
0.0
 14
1.0000000000E+20
 24
1.0000000000E+20
 34
1.0000000000E+20
 15
-1.0000000000E+20
 25
-1.0000000000E+20
 35
-1.0000000000E+20
146
0.0
 13
0.0
 23
0.0
 33
0.0
 16
1.0
 26
0.0
 36
0.0
 17
0.0
 27
1.0
 37
0.0
 76
     0
330
1B
  0
LAYOUT
  5
26
102
{ACAD_REACTORS
330
1A
102
}
330
1A
100
AcDbPlotSettings
  1

  2
none_device
  4

  6

 40
0.0
 41
0.0
 42
0.0
 43
0.0
 44
0.0
 45
0.0
 46
0.0
 47
0.0
 48
0.0
 49
0.0
140
0.0
141
0.0
142
1.0
143
1.0
 70
   688
 72
     0
 73
     0
 74
     5
  7

 75
    16
147
1.0
148
0.0
149
0.0
100
AcDbLayout
  1
Layout2
 70
     1
 71
     2
 10
0.0
 20
0.0
 11
0.0
 21
0.0
 12
0.0
 22
0.0
 32
0.0
 14
0.0
 24
0.0
 34
0.0
 15
0.0
 25
0.0
 35
0.0
146
0.0
 13
0.0
 23
0.0
 33
0.0
 16
1.0
 26
0.0
 36
0.0
 17
0.0
 27
1.0
 37
0.0
 76
     0
330
23
  0
LAYOUT
  5
22
102
{ACAD_REACTORS
330
1A
102
}
330
1A
100
AcDbPlotSettings
  1

  2
none_device
  4
Letter_(8.50_x_11.00_Inches)
  6

 40
6.35
 41
6.35
 42
6.35000508
 43
6.35000508
 44
215.9
 45
279.4
 46
0.0
 47
0.0
 48
0.0
 49
0.0
140
0.0
141
0.0
142
1.0
143
1.0
 70
  1712
 72
     0
 73
     0
 74
     0
  7

 75
     0
147
1.0
148
0.0
149
0.0
100
AcDbLayout
  1
Model
 70
     1
 71
     0
 10
0.0
 20
0.0
 11
33.0
 21
25.5
 12
0.0
 22
0.0
 32
0.0
 14
0.0
 24
0.0
 34
0.0
 15
33.0
 25
25.5
 35
0.0
146
0.0
 13
0.0
 23
0.0
 33
0.0
 16
1.0
 26
0.0
 36
0.0
 17
0.0
 27
1.0
 37
0.0
 76
     0
330
1F
331
29
  0
MLINESTYLE
  5
18
102
{ACAD_REACTORS
330
17
102
}
330
17
100
AcDbMlineStyle
  2
Standard
 70
     0
  3

 62
   256
 51
90.0
 52
90.0
 71
     2
 49
0.5
 62
   256
  6
BYLAYER
 49
-0.5
 62
   256
  6
BYLAYER
  0
ACDBPLACEHOLDER
  5
F
102
{ACAD_REACTORS
330
E
102
}
330
E
  0
SCALE
  5
48
102
{ACAD_REACTORS
330
47
102
}
330
47
100
AcDbScale
 70
     0
300
1:1
140
1.0
141
1.0
290
     1
  0
SCALE
  5
49
102
{ACAD_REACTORS
330
47
102
}
330
47
100
AcDbScale
 70
     0
300
1/128" = 1'-0"
140
0.0078125
141
12.0
290
     0
  0
SCALE
  5
4A
102
{ACAD_REACTORS
330
47
102
}
330
47
100
AcDbScale
 70
     0
300
1/64" = 1'-0"
140
0.015625
141
12.0
290
     0
  0
SCALE
  5
4B
102
{ACAD_REACTORS
330
47
102
}
330
47
100
AcDbScale
 70
     0
300
1/32" = 1'-0"
140
0.03125
141
12.0
290
     0
  0
SCALE
  5
4C
102
{ACAD_REACTORS
330
47
102
}
330
47
100
AcDbScale
 70
     0
300
1/16" = 1'-0"
140
0.0625
141
12.0
290
     0
  0
SCALE
  5
4D
102
{ACAD_REACTORS
330
47
102
}
330
47
100
AcDbScale
 70
     0
300
3/32" = 1'-0"
140
0.09375
141
12.0
290
     0
  0
SCALE
  5
4E
102
{ACAD_REACTORS
330
47
102
}
330
47
100
AcDbScale
 70
     0
300
1/8" = 1'-0"
140
0.125
141
12.0
290
     0
  0
SCALE
  5
4F
102
{ACAD_REACTORS
330
47
102
}
330
47
100
AcDbScale
 70
     0
300
3/16" = 1'-0"
140
0.1875
141
12.0
290
     0
  0
SCALE
  5
50
102
{ACAD_REACTORS
330
47
102
}
330
47
100
AcDbScale
 70
     0
300
1/4" = 1'-0"
140
0.25
141
12.0
290
     0
  0
SCALE
  5
51
102
{ACAD_REACTORS
330
47
102
}
330
47
100
AcDbScale
 70
     0
300
3/8" = 1'-0"
140
0.375
141
12.0
290
     0
  0
SCALE
  5
52
102
{ACAD_REACTORS
330
47
102
}
330
47
100
AcDbScale
 70
     0
300
1/2" = 1'-0"
140
0.5
141
12.0
290
     0
  0
SCALE
  5
53
102
{ACAD_REACTORS
330
47
102
}
330
47
100
AcDbScale
 70
     0
300
3/4" = 1'-0"
140
0.75
141
12.0
290
     0
  0
SCALE
  5
54
102
{ACAD_REACTORS
330
47
102
}
330
47
100
AcDbScale
 70
     0
300
1" = 1'-0"
140
1.0
141
12.0
290
     0
  0
SCALE
  5
55
102
{ACAD_REACTORS
330
47
102
}
330
47
100
AcDbScale
 70
     0
300
1-1/2" = 1'-0"
140
1.5
141
12.0
290
     0
  0
SCALE
  5
56
102
{ACAD_REACTORS
330
47
102
}
330
47
100
AcDbScale
 70
     0
300
3" = 1'-0"
140
3.0
141
12.0
290
     0
  0
SCALE
  5
57
102
{ACAD_REACTORS
330
47
102
}
330
47
100
AcDbScale
 70
     0
300
6" = 1'-0"
140
6.0
141
12.0
290
     0
  0
SCALE
  5
58
102
{ACAD_REACTORS
330
47
102
}
330
47
100
AcDbScale
 70
     0
300
1'-0" = 1'-0"
140
12.0
141
12.0
290
     0
  0
ENDSEC
  0
EOF
