  0
SECTION
  2
HEADER
  9
$ACADVER
  1
AC1015
  9
$ACADMAINTVER
 70
     6
  9
$DWGCODEPAGE
  3
ANSI_1252
  9
$INSBASE
 10
0.0
 20
0.0
 30
0.0
  9
$EXTMIN
 10
0.0
 20
0.0
 30
0.0
  9
$EXTMAX
 10
44.0
 20
34.0
 30
0.0
  9
$LIMMIN
 10
0.0
 20
0.0
  9
$LIMMAX
 10
44.0
 20
34.0
  9
$ORTHOMODE
 70
     0
  9
$REGENMODE
 70
     1
  9
$FILLMODE
 70
     1
  9
$QTEXTMODE
 70
     0
  9
$MIRRTEXT
 70
     1
  9
$LTSCALE
 40
4.0
  9
$ATTMODE
 70
     1
  9
$TEXTSIZE
 40
0.5
  9
$TRACEWID
 40
0.05
  9
$TEXTSTYLE
  7
Standard
  9
$CLAYER
  8
0
  9
$CELTYPE
  6
ByLayer
  9
$CECOLOR
 62
   256
  9
$CELTSCALE
 40
1.0
  9
$DISPSILH
 70
     0
  9
$DIMSCALE
 40
1.0
  9
$DIMASZ
 40
0.52
  9
$DIMEXO
 40
0.2
  9
$DIMDLI
 40
0.38
  9
$DIMRND
 40
0.0
  9
$DIMDLE
 40
0.0
  9
$DIMEXE
 40
0.5
  9
$DIMTP
 40
0.0
  9
$DIMTM
 40
0.0
  9
$DIMTXT
 40
0.5
  9
$DIMCEN
 40
0.09
  9
$DIMTSZ
 40
0.0
  9
$DIMTOL
 70
     0
  9
$DIMLIM
 70
     0
  9
$DIMTIH
 70
     1
  9
$DIMTOH
 70
     1
  9
$DIMSE1
 70
     0
  9
$DIMSE2
 70
     0
  9
$DIMTAD
 70
     0
  9
$DIMZIN
 70
     1
  9
$DIMBLK
  1

  9
$DIMASO
 70
     1
  9
$DIMSHO
 70
     1
  9
$DIMPOST
  1

  9
$DIMAPOST
  1

  9
$DIMALT
 70
     0
  9
$DIMALTD
 70
     2
  9
$DIMALTF
 40
25.4
  9
$DIMLFAC
 40
1.0
  9
$DIMTOFL
 70
     0
  9
$DIMTVP
 40
0.0
  9
$DIMTIX
 70
     0
  9
$DIMSOXD
 70
     0
  9
$DIMSAH
 70
     0
  9
$DIMBLK1
  1

  9
$DIMBLK2
  1

  9
$DIMSTYLE
  2
Standard
  9
$DIMCLRD
 70
     0
  9
$DIMCLRE
 70
     0
  9
$DIMCLRT
 70
     0
  9
$DIMTFAC
 40
1.0
  9
$DIMGAP
 40
0.24
  9
$DIMJUST
 70
     0
  9
$DIMSD1
 70
     0
  9
$DIMSD2
 70
     0
  9
$DIMTOLJ
 70
     1
  9
$DIMTZIN
 70
     1
  9
$DIMALTZ
 70
     0
  9
$DIMALTTZ
 70
     0
  9
$DIMUPT
 70
     0
  9
$DIMDEC
 70
     0
  9
$DIMTDEC
 70
     0
  9
$DIMALTU
 70
     2
  9
$DIMALTTD
 70
     2
  9
$DIMTXSTY
  7
Standard
  9
$DIMAUNIT
 70
     0
  9
$DIMADEC
 70
     0
  9
$DIMALTRND
 40
0.0
  9
$DIMAZIN
 70
     0
  9
$DIMDSEP
 70
    46
  9
$DIMATFIT
 70
     3
  9
$DIMFRAC
 70
     0
  9
$DIMLDRBLK
  1

  9
$DIMLUNIT
 70
     2
  9
$DIMLWD
 70
    -2
  9
$DIMLWE
 70
    -2
  9
$DIMTMOVE
 70
     0
  9
$LUNITS
 70
     2
  9
$LUPREC
 70
     6
  9
$SKETCHINC
 40
0.1
  9
$FILLETRAD
 40
0.0
  9
$AUNITS
 70
     0
  9
$AUPREC
 70
     2
  9
$MENU
  1
.
  9
$ELEVATION
 40
0.0
  9
$PELEVATION
 40
0.0
  9
$THICKNESS
 40
0.0
  9
$LIMCHECK
 70
     0
  9
$CHAMFERA
 40
0.0
  9
$CHAMFERB
 40
0.0
  9
$CHAMFERC
 40
0.0
  9
$CHAMFERD
 40
0.0
  9
$SKPOLY
 70
     0
  9
$TDCREATE
 40
2460504.296845579
  9
$TDUCREATE
 40
2460504.588512246
  9
$TDUPDATE
 40
2460504.296846181
  9
$TDUUPDATE
 40
2460504.588512847
  9
$TDINDWG
 40
0.0000000116
  9
$TDUSRTIMER
 40
0.0000000116
  9
$USRTIMER
 70
     1
  9
$ANGBASE
 50
0.0
  9
$ANGDIR
 70
     0
  9
$PDMODE
 70
     0
  9
$PDSIZE
 40
-1.0
  9
$PLINEWID
 40
0.0
  9
$SPLFRAME
 70
     0
  9
$SPLINETYPE
 70
     6
  9
$SPLINESEGS
 70
     8
  9
$HANDSEED
  5
1C2
  9
$SURFTAB1
 70
     6
  9
$SURFTAB2
 70
     6
  9
$SURFTYPE
 70
     6
  9
$SURFU
 70
     6
  9
$SURFV
 70
     6
  9
$UCSBASE
  2

  9
$UCSNAME
  2

  9
$UCSORG
 10
0.0
 20
0.0
 30
0.0
  9
$UCSXDIR
 10
1.0
 20
0.0
 30
0.0
  9
$UCSYDIR
 10
0.0
 20
1.0
 30
0.0
  9
$UCSORTHOREF
  2

  9
$UCSORTHOVIEW
 70
     0
  9
$UCSORGTOP
 10
0.0
 20
0.0
 30
0.0
  9
$UCSORGBOTTOM
 10
0.0
 20
0.0
 30
0.0
  9
$UCSORGLEFT
 10
0.0
 20
0.0
 30
0.0
  9
$UCSORGRIGHT
 10
0.0
 20
0.0
 30
0.0
  9
$UCSORGFRONT
 10
0.0
 20
0.0
 30
0.0
  9
$UCSORGBACK
 10
0.0
 20
0.0
 30
0.0
  9
$PUCSBASE
  2

  9
$PUCSNAME
  2

  9
$PUCSORG
 10
0.0
 20
0.0
 30
0.0
  9
$PUCSXDIR
 10
1.0
 20
0.0
 30
0.0
  9
$PUCSYDIR
 10
0.0
 20
1.0
 30
0.0
  9
$PUCSORTHOREF
  2

  9
$PUCSORTHOVIEW
 70
     0
  9
$PUCSORGTOP
 10
0.0
 20
0.0
 30
0.0
  9
$PUCSORGBOTTOM
 10
0.0
 20
0.0
 30
0.0
  9
$PUCSORGLEFT
 10
0.0
 20
0.0
 30
0.0
  9
$PUCSORGRIGHT
 10
0.0
 20
0.0
 30
0.0
  9
$PUCSORGFRONT
 10
0.0
 20
0.0
 30
0.0
  9
$PUCSORGBACK
 10
0.0
 20
0.0
 30
0.0
  9
$USERI1
 70
     0
  9
$USERI2
 70
     0
  9
$USERI3
 70
     0
  9
$USERI4
 70
     0
  9
$USERI5
 70
     0
  9
$USERR1
 40
0.0
  9
$USERR2
 40
0.0
  9
$USERR3
 40
0.0
  9
$USERR4
 40
0.0
  9
$USERR5
 40
0.0
  9
$WORLDVIEW
 70
     1
  9
$SHADEDGE
 70
     3
  9
$SHADEDIF
 70
    70
  9
$TILEMODE
 70
     1
  9
$MAXACTVP
 70
    64
  9
$PINSBASE
 10
0.0
 20
0.0
 30
0.0
  9
$PLIMCHECK
 70
     0
  9
$PEXTMIN
 10
1.0000000000E+20
 20
1.0000000000E+20
 30
1.0000000000E+20
  9
$PEXTMAX
 10
-1.0000000000E+20
 20
-1.0000000000E+20
 30
-1.0000000000E+20
  9
$PLIMMIN
 10
0.0
 20
0.0
  9
$PLIMMAX
 10
12.0
 20
9.0
  9
$UNITMODE
 70
     0
  9
$VISRETAIN
 70
     1
  9
$PLINEGEN
 70
     0
  9
$PSLTSCALE
 70
     1
  9
$TREEDEPTH
 70
  3020
  9
$CMLSTYLE
  2
Standard
  9
$CMLJUST
 70
     0
  9
$CMLSCALE
 40
1.0
  9
$PROXYGRAPHICS
 70
     1
  9
$MEASUREMENT
 70
     0
  9
$CELWEIGHT
370
    -1
  9
$ENDCAPS
280
     0
  9
$JOINSTYLE
280
     0
  9
$LWDISPLAY
290
     1
  9
$INSUNITS
 70
     1
  9
$HYPERLINKBASE
  1

  9
$STYLESHEET
  1

  9
$XEDIT
290
     1
  9
$CEPSNTYPE
380
     0
  9
$PSTYLEMODE
290
     1
  9
$FINGERPRINTGUID
  2
{e040aaeb-1410-4d28-93b5-a8d05edfa8d2}
  9
$VERSIONGUID
  2
{FAEB1C32-E019-11D5-929B-00C0DF256EC4}
  9
$EXTNAMES
290
     1
  9
$PSVPSCALE
 40
0.0
  9
$OLESTARTUP
290
     0
  0
ENDSEC
  0
SECTION
  2
CLASSES
  0
CLASS
  1
ACDBDICTIONARYWDFLT
  2
AcDbDictionaryWithDefault
  3
ObjectDBX Classes
 90
        0
280
     0
281
     0
  0
CLASS
  1
VISUALSTYLE
  2
AcDbVisualStyle
  3
ObjectDBX Classes
 90
     4095
280
     0
281
     0
  0
CLASS
  1
MATERIAL
  2
AcDbMaterial
  3
ObjectDBX Classes
 90
     1153
280
     0
281
     0
  0
CLASS
  1
SCALE
  2
AcDbScale
  3
ObjectDBX Classes
 90
     1153
280
     0
281
     0
  0
CLASS
  1
TABLESTYLE
  2
AcDbTableStyle
  3
ObjectDBX Classes
 90
     4095
280
     0
281
     0
  0
CLASS
  1
MLEADERSTYLE
  2
AcDbMLeaderStyle
  3
ACDB_MLEADERSTYLE_CLASS
 90
     4095
280
     0
281
     0
  0
CLASS
  1
SUN
  2
AcDbSun
  3
SCENEOE
 90
     1153
280
     0
281
     0
  0
CLASS
  1
ACDBPLACEHOLDER
  2
AcDbPlaceHolder
  3
ObjectDBX Classes
 90
        0
280
     0
281
     0
  0
CLASS
  1
LAYOUT
  2
AcDbLayout
  3
ObjectDBX Classes
 90
        0
280
     0
281
     0
  0
ENDSEC
  0
SECTION
  2
TABLES
  0
TABLE
  2
VPORT
  5
8
330
0
100
AcDbSymbolTable
 70
     1
  0
VPORT
  5
29
330
8
100
AcDbSymbolTableRecord
100
AcDbViewportTableRecord
  2
*Active
 70
     0
 10
0.0
 20
0.0
 11
1.0
 21
1.0
 12
22.0
 22
17.0
 13
0.0
 23
0.0
 14
0.5
 24
0.5
 15
0.5
 25
0.5
 16
0.0
 26
0.0
 36
1.0
 17
0.0
 27
0.0
 37
0.0
 40
34.0
 41
1.2941176471
 42
50.0
 43
0.0
 44
0.0
 50
0.0
 51
0.0
 71
     0
 72
  2000
 73
     1
 74
     3
 75
     0
 76
     0
 77
     0
 78
     0
281
     0
 65
     1
110
0.0
120
0.0
130
0.0
111
1.0
121
0.0
131
0.0
112
0.0
122
1.0
132
0.0
 79
     0
146
0.0
  0
ENDTAB
  0
TABLE
  2
LTYPE
  5
5
330
0
100
AcDbSymbolTable
 70
     6
  0
LTYPE
  5
14
330
5
100
AcDbSymbolTableRecord
100
AcDbLinetypeTableRecord
  2
ByBlock
 70
     0
  3

 72
    65
 73
     0
 40
0.0
  0
LTYPE
  5
15
330
5
100
AcDbSymbolTableRecord
100
AcDbLinetypeTableRecord
  2
ByLayer
 70
     0
  3

 72
    65
 73
     0
 40
0.0
  0
LTYPE
  5
16
330
5
100
AcDbSymbolTableRecord
100
AcDbLinetypeTableRecord
  2
Continuous
 70
     0
  3
Solid line
 72
    65
 73
     0
 40
0.0
  0
LTYPE
  5
5E
330
5
100
AcDbSymbolTableRecord
100
AcDbLinetypeTableRecord
  2
HIDDEN
 70
     0
  3
Hidden __ __ __ __ __ __ __ __ __ __ __ __ __ __
 72
    65
 73
     2
 40
0.075
 49
0.05
 74
     0
 49
-0.025
 74
     0
  0
LTYPE
  5
5F
330
5
100
AcDbSymbolTableRecord
100
AcDbLinetypeTableRecord
  2
PHANTOM
 70
     0
  3
Phantom ______  __  __  ______  __  __  ______
 72
    65
 73
     6
 40
0.5
 49
0.25
 74
     0
 49
-0.05
 74
     0
 49
0.05
 74
     0
 49
-0.05
 74
     0
 49
0.05
 74
     0
 49
-0.05
 74
     0
  0
LTYPE
  5
60
330
5
100
AcDbSymbolTableRecord
100
AcDbLinetypeTableRecord
  2
CENTER
 70
     0
  3
Center ____ _ ____ _ ____ _ ____ _ ____ _ ____
 72
    65
 73
     4
 40
0.4
 49
0.25
 74
     0
 49
-0.05
 74
     0
 49
0.05
 74
     0
 49
-0.05
 74
     0
  0
LTYPE
  5
61
330
5
100
AcDbSymbolTableRecord
100
AcDbLinetypeTableRecord
  2
CENTERX2
 70
     0
  3
Center (2x) ________  __  ________  __  _____
 72
    65
 73
     4
 40
0.8
 49
0.5
 74
     0
 49
-0.1
 74
     0
 49
0.1
 74
     0
 49
-0.1
 74
     0
  0
LTYPE
  5
62
330
5
100
AcDbSymbolTableRecord
100
AcDbLinetypeTableRecord
  2
DOT2
 70
     0
  3
Dot (.5x) ........................................
 72
    65
 73
     2
 40
0.025
 49
0.0
 74
     0
 49
-0.025
 74
     0
  0
ENDTAB
  0
TABLE
  2
LAYER
  5
2
330
0
100
AcDbSymbolTable
 70
    11
  0
LAYER
  5
10
330
2
100
AcDbSymbolTableRecord
100
AcDbLayerTableRecord
  2
0
 70
     0
 62
     7
  6
Continuous
370
    -3
390
F
  0
LAYER
  5
63
330
2
100
AcDbSymbolTableRecord
100
AcDbLayerTableRecord
  2
SLD-0
 70
     0
 62
     7
  6
Continuous
370
    -3
390
F
  0
LAYER
  5
64
330
2
100
AcDbSymbolTableRecord
100
AcDbLayerTableRecord
  2
DIM
 70
     0
 62
     7
  6
Continuous
370
    -3
390
F
  0
LAYER
  5
65
330
2
100
AcDbSymbolTableRecord
100
AcDbLayerTableRecord
  2
CEN
 70
     0
 62
     1
  6
CENTER
370
    -3
390
F
  0
LAYER
  5
66
330
2
100
AcDbSymbolTableRecord
100
AcDbLayerTableRecord
  2
HAT
 70
     0
 62
     4
  6
Continuous
370
    -3
390
F
  0
LAYER
  5
67
330
2
100
AcDbSymbolTableRecord
100
AcDbLayerTableRecord
  2
OBJ
 70
     0
 62
     5
  6
Continuous
370
    -3
390
F
  0
LAYER
  5
68
330
2
100
AcDbSymbolTableRecord
100
AcDbLayerTableRecord
  2
SLD-DEFPOINTS
 70
     0
 62
     7
  6
Continuous
370
    -3
390
F
  0
LAYER
  5
69
330
2
100
AcDbSymbolTableRecord
100
AcDbLayerTableRecord
  2
HID
 70
     0
 62
     4
  6
HIDDEN
370
    -3
390
F
  0
LAYER
  5
6A
330
2
100
AcDbSymbolTableRecord
100
AcDbLayerTableRecord
  2
NOTE
 70
     0
 62
     7
  6
Continuous
370
    -3
390
F
  0
LAYER
  5
6B
330
2
100
AcDbSymbolTableRecord
100
AcDbLayerTableRecord
  2
TITLE
 70
     0
 62
     7
  6
Continuous
370
    -3
390
F
  0
LAYER
  5
6C
330
2
100
AcDbSymbolTableRecord
100
AcDbLayerTableRecord
  2
THICK_TITLE
 70
     0
 62
     7
  6
Continuous
370
   100
390
F
  0
ENDTAB
  0
TABLE
  2
STYLE
  5
3
330
0
100
AcDbSymbolTable
 70
     2
  0
STYLE
  5
11
330
3
100
AcDbSymbolTableRecord
100
AcDbTextStyleTableRecord
  2
Standard
 70
     0
 40
0.0
 41
1.0
 50
0.0
 71
     0
 42
0.5
  3
txt
  4

  0
STYLE
  5
C7
330
3
100
AcDbSymbolTableRecord
100
AcDbTextStyleTableRecord
  2
SLDTEXTSTYLE0
 70
     0
 40
0.0
 41
0.75
 50
0.0
 71
     0
 42
0.5
  3
TXT
  4

  0
ENDTAB
  0
TABLE
  2
VIEW
  5
6
330
0
100
AcDbSymbolTable
 70
     0
  0
ENDTAB
  0
TABLE
  2
UCS
  5
7
330
0
100
AcDbSymbolTable
 70
     0
  0
ENDTAB
  0
TABLE
  2
APPID
  5
9
330
0
100
AcDbSymbolTable
 70
     1
  0
APPID
  5
12
330
9
100
AcDbSymbolTableRecord
100
AcDbRegAppTableRecord
  2
ACAD
 70
     0
  0
ENDTAB
  0
TABLE
  2
DIMSTYLE
  5
A
330
0
100
AcDbSymbolTable
 70
     4
100
AcDbDimStyleTable
  0
DIMSTYLE
105
27
330
A
100
AcDbSymbolTableRecord
100
AcDbDimStyleTableRecord
  2
Standard
 70
     0
178
     0
340
11
  0
DIMSTYLE
105
C8
102
{ACAD_REACTORS
330
C6
330
DC
102
}
330
A
100
AcDbSymbolTableRecord
100
AcDbDimStyleTableRecord
  2
SLDDIMSTYLE0
 70
     0
 41
0.52
 44
0.0
 45
0.000000001
 78
    12
 79
     3
140
0.5
147
0.125
148
0.000000001
170
     1
172
     1
173
     1
178
     0
271
     6
272
     0
276
     2
277
     5
284
    12
289
     0
340
C7
  0
DIMSTYLE
105
F1
102
{ACAD_REACTORS
330
F0
330
195
102
}
330
A
100
AcDbSymbolTableRecord
100
AcDbDimStyleTableRecord
  2
SLDDIMSTYLE1
 70
     0
 41
0.52
 44
0.0
 45
0.000000001
 78
    12
 79
     3
140
0.5
147
0.125
148
0.000000001
170
     1
173
     1
178
     0
271
     0
272
     0
276
     2
277
     5
284
    12
340
C7
  0
DIMSTYLE
105
106
102
{ACAD_REACTORS
330
105
330
11A
330
182
102
}
330
A
100
AcDbSymbolTableRecord
100
AcDbDimStyleTableRecord
  2
SLDDIMSTYLE2
 70
     0
 41
0.52
 44
0.0
 45
0.000000001
 78
    12
 79
     3
140
0.5
147
0.125
148
0.000000001
170
     1
173
     1
178
     0
271
     6
272
     0
276
     2
277
     5
284
    12
340
C7
  0
ENDTAB
  0
TABLE
  2
BLOCK_RECORD
  5
1
330
0
100
AcDbSymbolTable
 70
    10
  0
BLOCK_RECORD
  5
1F
330
1
100
AcDbSymbolTableRecord
100
AcDbBlockTableRecord
  2
*Model_Space
340
22
  0
BLOCK_RECORD
  5
1B
330
1
100
AcDbSymbolTableRecord
100
AcDbBlockTableRecord
  2
*Paper_Space
340
1E
  0
BLOCK_RECORD
  5
23
330
1
100
AcDbSymbolTableRecord
100
AcDbBlockTableRecord
  2
*Paper_Space0
340
26
  0
BLOCK_RECORD
  5
C9
330
1
100
AcDbSymbolTableRecord
100
AcDbBlockTableRecord
  2
_D
340
0
  0
BLOCK_RECORD
  5
DD
330
1
100
AcDbSymbolTableRecord
100
AcDbBlockTableRecord
  2
_D_1
340
0
  0
BLOCK_RECORD
  5
F2
330
1
100
AcDbSymbolTableRecord
100
AcDbBlockTableRecord
  2
_D_2
340
0
  0
BLOCK_RECORD
  5
107
330
1
100
AcDbSymbolTableRecord
100
AcDbBlockTableRecord
  2
_D_3
340
0
  0
BLOCK_RECORD
  5
11B
330
1
100
AcDbSymbolTableRecord
100
AcDbBlockTableRecord
  2
_D_4
340
0
  0
BLOCK_RECORD
  5
183
330
1
100
AcDbSymbolTableRecord
100
AcDbBlockTableRecord
  2
_D_5
340
0
  0
BLOCK_RECORD
  5
196
330
1
100
AcDbSymbolTableRecord
100
AcDbBlockTableRecord
  2
_D_6
340
0
  0
BLOCK_RECORD
  5
1A9
330
1
100
AcDbSymbolTableRecord
100
AcDbBlockTableRecord
  2
SW_CENTERMARKSYMBOL_0
340
0
102
{BLKREFS
331
1B4
102
}
  0
BLOCK_RECORD
  5
1B5
330
1
100
AcDbSymbolTableRecord
100
AcDbBlockTableRecord
  2
SW_CENTERMARKSYMBOL_1
340
0
102
{BLKREFS
331
1C0
102
}
  0
ENDTAB
  0
ENDSEC
  0
SECTION
  2
BLOCKS
  0
BLOCK
  5
20
330
1F
100
AcDbEntity
  8
0
100
AcDbBlockBegin
  2
*Model_Space
 70
     0
 10
0.0
 20
0.0
 30
0.0
  3
*Model_Space
  1

  0
ENDBLK
  5
21
330
1F
100
AcDbEntity
  8
0
100
AcDbBlockEnd
  0
BLOCK
  5
1C
330
1B
100
AcDbEntity
 67
     1
  8
0
100
AcDbBlockBegin
  2
*Paper_Space
 70
     0
 10
0.0
 20
0.0
 30
0.0
  3
*Paper_Space
  1

  0
ENDBLK
  5
1D
330
1B
100
AcDbEntity
 67
     1
  8
0
100
AcDbBlockEnd
  0
BLOCK
  5
24
330
23
100
AcDbEntity
  8
0
100
AcDbBlockBegin
  2
*Paper_Space0
 70
     0
 10
0.0
 20
0.0
 30
0.0
  3
*Paper_Space0
  1

  0
ENDBLK
  5
25
330
23
100
AcDbEntity
  8
0
100
AcDbBlockEnd
  0
BLOCK
  5
CA
330
C9
100
AcDbEntity
  8
0
100
AcDbBlockBegin
  2
_D
 70
     0
 10
0.0
 20
0.0
 30
0.0
  3
_D
  1

  0
SOLID
  5
CC
330
C9
100
AcDbEntity
  8
0
  6
Continuous
 62
     7
370
    18
100
AcDbTrace
 10
8.4816534026
 20
15.983965696
 30
0.0
 11
7.9616534026
 21
16.063965696
 31
0.0
 12
7.9616534026
 22
15.903965696
 32
0.0
 13
7.9616534026
 23
15.903965696
 33
0.0
  0
SOLID
  5
CD
330
C9
100
AcDbEntity
  8
0
  6
Continuous
 62
     7
370
    18
100
AcDbTrace
 10
8.7716534026
 20
15.983965696
 30
0.0
 11
9.2916534026
 21
15.903965696
 31
0.0
 12
9.2916534026
 22
16.063965696
 32
0.0
 13
9.2916534026
 23
16.063965696
 33
0.0
  0
LINE
  5
CE
330
C9
100
AcDbEntity
  8
0
  6
Continuous
 62
     7
370
     0
100
AcDbLine
 10
5.3210063016
 20
15.9801461735
 30
0.0
 11
5.1686625531
 21
15.9801461735
 31
0.0
  0
LINE
  5
CF
330
C9
100
AcDbEntity
  8
0
  6
Continuous
 62
     7
370
     0
100
AcDbLine
 10
5.1686625531
 20
15.9801461735
 30
0.0
 11
5.1686625531
 21
15.1863961496
 31
0.0
  0
LINE
  5
D0
330
C9
100
AcDbEntity
  8
0
  6
Continuous
 62
     7
370
     0
100
AcDbLine
 10
5.1686625531
 20
15.1863961496
 30
0.0
 11
5.3210063016
 21
15.1863961496
 31
0.0
  0
LINE
  5
D1
330
C9
100
AcDbEntity
  8
0
  6
Continuous
 62
     7
370
     0
100
AcDbLine
 10
6.9404507136
 20
15.9801461735
 30
0.0
 11
7.0927944621
 21
15.9801461735
 31
0.0
  0
LINE
  5
D2
330
C9
100
AcDbEntity
  8
0
  6
Continuous
 62
     7
370
     0
100
AcDbLine
 10
7.0927944621
 20
15.9801461735
 30
0.0
 11
7.0927944621
 21
15.1863961496
 31
0.0
  0
LINE
  5
D3
330
C9
100
AcDbEntity
  8
0
  6
Continuous
 62
     7
370
     0
100
AcDbLine
 10
7.0927944621
 20
15.1863961496
 30
0.0
 11
6.9404507136
 21
15.1863961496
 31
0.0
  0
LINE
  5
D4
330
C9
100
AcDbEntity
  8
0
  6
Continuous
 62
     7
370
     0
100
AcDbLine
 10
8.4816534026
 20
19.0288482354
 30
0.0
 11
8.4816534026
 21
15.483965696
 31
0.0
  0
LINE
  5
D5
330
C9
100
AcDbEntity
  8
0
  6
Continuous
 62
     7
370
     0
100
AcDbLine
 10
8.7716534026
 20
17.0438482354
 30
0.0
 11
8.7716534026
 21
15.483965696
 31
0.0
  0
LINE
  5
D6
330
C9
100
AcDbEntity
  8
0
  6
Continuous
 62
     7
370
     0
100
AcDbLine
 10
8.4816534026
 20
15.983965696
 30
0.0
 11
7.5312492762
 21
15.983965696
 31
0.0
  0
LINE
  5
D7
330
C9
100
AcDbEntity
  8
0
  6
Continuous
 62
     7
370
     0
100
AcDbLine
 10
8.7716534026
 20
15.983965696
 30
0.0
 11
9.7716534026
 21
15.983965696
 31
0.0
  0
MTEXT
  5
D8
330
C9
100
AcDbEntity
  8
0
  6
Continuous
 62
     7
370
    18
100
AcDbMText
 10
5.0190965819
 20
16.7338814836
 30
0.0
 40
0.5
 41
0.0
 71
     1
 72
     1
  1

  7
SLDTEXTSTYLE0
 73
     1
 44
1.0
  0
MTEXT
  5
D9
330
C9
100
AcDbEntity
  8
0
  6
Continuous
 62
     7
370
    18
100
AcDbMText
 10
5.3276034754
 20
16.7262425576
 30
0.0
 40
0.5
 41
0.0
 71
     1
 72
     1
  1
5/16"
  7
SLDTEXTSTYLE0
 73
     1
 44
1.0
  0
MTEXT
  5
DA
330
C9
100
AcDbEntity
  8
0
  6
Continuous
 62
     7
370
    18
100
AcDbMText
 10
5.3210063016
 20
15.8309300745
 30
0.0
 40
0.5
 41
0.0
 71
     1
 72
     1
  1
7mm
  7
SLDTEXTSTYLE0
 73
     1
 44
1.0
  0
MTEXT
  5
DB
330
C9
100
AcDbEntity
  8
0
  6
Continuous
 62
     7
370
    18
100
AcDbMText
 10
7.4326381005
 20
16.7338814836
 30
0.0
 40
0.5
 41
0.0
 71
     1
 72
     1
  1

  7
SLDTEXTSTYLE0
 73
     1
 44
1.0
  0
ENDBLK
  5
CB
330
C9
100
AcDbEntity
  8
0
100
AcDbBlockEnd
  0
BLOCK
  5
DE
330
DD
100
AcDbEntity
  8
0
100
AcDbBlockBegin
  2
_D_1
 70
     0
 10
0.0
 20
0.0
 30
0.0
  3
_D_1
  1

  0
SOLID
  5
E0
330
DD
100
AcDbEntity
  8
0
  6
Continuous
 62
     7
370
    18
100
AcDbTrace
 10
8.7716534026
 20
23.156606193
 30
0.0
 11
8.2516534026
 21
23.236606193
 31
0.0
 12
8.2516534026
 22
23.076606193
 32
0.0
 13
8.2516534026
 23
23.076606193
 33
0.0
  0
SOLID
  5
E1
330
DD
100
AcDbEntity
  8
0
  6
Continuous
 62
     7
370
    18
100
AcDbTrace
 10
9.1466534026
 20
23.156606193
 30
0.0
 11
9.6666534026
 21
23.076606193
 31
0.0
 12
9.6666534026
 22
23.236606193
 32
0.0
 13
9.6666534026
 23
23.236606193
 33
0.0
  0
LINE
  5
E2
330
DD
100
AcDbEntity
  8
0
  6
Continuous
 62
     7
370
     0
100
AcDbLine
 10
5.1362841155
 20
23.1527866705
 30
0.0
 11
4.9839403671
 21
23.1527866705
 31
0.0
  0
LINE
  5
E3
330
DD
100
AcDbEntity
  8
0
  6
Continuous
 62
     7
370
     0
100
AcDbLine
 10
4.9839403671
 20
23.1527866705
 30
0.0
 11
4.9839403671
 21
22.3590366466
 31
0.0
  0
LINE
  5
E4
330
DD
100
AcDbEntity
  8
0
  6
Continuous
 62
     7
370
     0
100
AcDbLine
 10
4.9839403671
 20
22.3590366466
 30
0.0
 11
5.1362841155
 21
22.3590366466
 31
0.0
  0
LINE
  5
E5
330
DD
100
AcDbEntity
  8
0
  6
Continuous
 62
     7
370
     0
100
AcDbLine
 10
7.1251730463
 20
23.1527866705
 30
0.0
 11
7.2775167948
 21
23.1527866705
 31
0.0
  0
LINE
  5
E6
330
DD
100
AcDbEntity
  8
0
  6
Continuous
 62
     7
370
     0
100
AcDbLine
 10
7.2775167948
 20
23.1527866705
 30
0.0
 11
7.2775167948
 21
22.3590366466
 31
0.0
  0
LINE
  5
E7
330
DD
100
AcDbEntity
  8
0
  6
Continuous
 62
     7
370
     0
100
AcDbLine
 10
7.2775167948
 20
22.3590366466
 30
0.0
 11
7.1251730463
 21
22.3590366466
 31
0.0
  0
LINE
  5
E8
330
DD
100
AcDbEntity
  8
0
  6
Continuous
 62
     7
370
     0
100
AcDbLine
 10
8.7716534026
 20
22.4138482354
 30
0.0
 11
8.7716534026
 21
23.656606193
 31
0.0
  0
LINE
  5
E9
330
DD
100
AcDbEntity
  8
0
  6
Continuous
 62
     7
370
     0
100
AcDbLine
 10
9.1466534026
 20
22.3638482354
 30
0.0
 11
9.1466534026
 21
23.656606193
 31
0.0
  0
LINE
  5
EA
330
DD
100
AcDbEntity
  8
0
  6
Continuous
 62
     7
370
     0
100
AcDbLine
 10
8.7716534026
 20
23.156606193
 30
0.0
 11
7.7159714623
 21
23.156606193
 31
0.0
  0
LINE
  5
EB
330
DD
100
AcDbEntity
  8
0
  6
Continuous
 62
     7
370
     0
100
AcDbLine
 10
9.1466534026
 20
23.156606193
 30
0.0
 11
10.1466534026
 21
23.156606193
 31
0.0
  0
MTEXT
  5
EC
330
DD
100
AcDbEntity
  8
0
  6
Continuous
 62
     7
370
    18
100
AcDbMText
 10
4.8343743959
 20
23.9065219806
 30
0.0
 40
0.5
 41
0.0
 71
     1
 72
     1
  1

  7
SLDTEXTSTYLE0
 73
     1
 44
1.0
  0
MTEXT
  5
ED
330
DD
100
AcDbEntity
  8
0
  6
Continuous
 62
     7
370
    18
100
AcDbMText
 10
5.5123257348
 20
23.8988830546
 30
0.0
 40
0.5
 41
0.0
 71
     1
 72
     1
  1
3/8"
  7
SLDTEXTSTYLE0
 73
     1
 44
1.0
  0
MTEXT
  5
EE
330
DD
100
AcDbEntity
  8
0
  6
Continuous
 62
     7
370
    18
100
AcDbMText
 10
5.1362841155
 20
23.0035705715
 30
0.0
 40
0.5
 41
0.0
 71
     1
 72
     1
  1
10mm
  7
SLDTEXTSTYLE0
 73
     1
 44
1.0
  0
MTEXT
  5
EF
330
DD
100
AcDbEntity
  8
0
  6
Continuous
 62
     7
370
    18
100
AcDbMText
 10
7.6173604332
 20
23.9065219806
 30
0.0
 40
0.5
 41
0.0
 71
     1
 72
     1
  1

  7
SLDTEXTSTYLE0
 73
     1
 44
1.0
  0
ENDBLK
  5
DF
330
DD
100
AcDbEntity
  8
0
100
AcDbBlockEnd
  0
BLOCK
  5
F3
330
F2
100
AcDbEntity
  8
0
100
AcDbBlockBegin
  2
_D_2
 70
     0
 10
0.0
 20
0.0
 30
0.0
  3
_D_2
  1

  0
SOLID
  5
F5
330
F2
100
AcDbEntity
  8
0
  6
Continuous
 62
     7
370
    18
100
AcDbTrace
 10
8.7716534026
 20
10.9020450858
 30
0.0
 11
9.2916534026
 21
10.8220450858
 31
0.0
 12
9.2916534026
 22
10.9820450858
 32
0.0
 13
9.2916534026
 23
10.9820450858
 33
0.0
  0
SOLID
  5
F6
330
F2
100
AcDbEntity
  8
0
  6
Continuous
 62
     7
370
    18
100
AcDbTrace
 10
15.7616534026
 20
10.9020450858
 30
0.0
 11
15.2416534026
 21
10.9820450858
 31
0.0
 12
15.2416534026
 22
10.8220450858
 32
0.0
 13
15.2416534026
 23
10.8220450858
 33
0.0
  0
LINE
  5
F7
330
F2
100
AcDbEntity
  8
0
  6
Continuous
 62
     7
370
     0
100
AcDbLine
 10
11.0874868245
 20
10.8982255633
 30
0.0
 11
10.935143076
 21
10.8982255633
 31
0.0
  0
LINE
  5
F8
330
F2
100
AcDbEntity
  8
0
  6
Continuous
 62
     7
370
     0
100
AcDbLine
 10
10.935143076
 20
10.8982255633
 30
0.0
 11
10.935143076
 21
10.1044755394
 31
0.0
  0
LINE
  5
F9
330
F2
100
AcDbEntity
  8
0
  6
Continuous
 62
     7
370
     0
100
AcDbLine
 10
10.935143076
 20
10.1044755394
 30
0.0
 11
11.0874868245
 21
10.1044755394
 31
0.0
  0
LINE
  5
FA
330
F2
100
AcDbEntity
  8
0
  6
Continuous
 62
     7
370
     0
100
AcDbLine
 10
13.4458201275
 20
10.8982255633
 30
0.0
 11
13.5981638759
 21
10.8982255633
 31
0.0
  0
LINE
  5
FB
330
F2
100
AcDbEntity
  8
0
  6
Continuous
 62
     7
370
     0
100
AcDbLine
 10
13.5981638759
 20
10.8982255633
 30
0.0
 11
13.5981638759
 21
10.1044755394
 31
0.0
  0
LINE
  5
FC
330
F2
100
AcDbEntity
  8
0
  6
Continuous
 62
     7
370
     0
100
AcDbLine
 10
13.5981638759
 20
10.1044755394
 30
0.0
 11
13.4458201275
 21
10.1044755394
 31
0.0
  0
LINE
  5
FD
330
F2
100
AcDbEntity
  8
0
  6
Continuous
 62
     7
370
     0
100
AcDbLine
 10
8.7716534026
 20
17.0438482354
 30
0.0
 11
8.7716534026
 21
10.4020450858
 31
0.0
  0
LINE
  5
FE
330
F2
100
AcDbEntity
  8
0
  6
Continuous
 62
     7
370
     0
100
AcDbLine
 10
15.7616534026
 20
18.0868482354
 30
0.0
 11
15.7616534026
 21
10.4020450858
 31
0.0
  0
LINE
  5
FF
330
F2
100
AcDbEntity
  8
0
  6
Continuous
 62
     7
370
     0
100
AcDbLine
 10
8.7716534026
 20
10.9020450858
 30
0.0
 11
10.4966882619
 21
10.9020450858
 31
0.0
  0
LINE
  5
100
330
F2
100
AcDbEntity
  8
0
  6
Continuous
 62
     7
370
     0
100
AcDbLine
 10
15.7616534026
 20
10.9020450858
 30
0.0
 11
14.0366185434
 21
10.9020450858
 31
0.0
  0
MTEXT
  5
101
330
F2
100
AcDbEntity
  8
0
  6
Continuous
 62
     7
370
    18
100
AcDbMText
 10
10.7855771048
 20
11.6519608733
 30
0.0
 40
0.5
 41
0.0
 71
     1
 72
     1
  1

  7
SLDTEXTSTYLE0
 73
     1
 44
1.0
  0
MTEXT
  5
102
330
F2
100
AcDbEntity
  8
0
  6
Continuous
 62
     7
370
    18
100
AcDbMText
 10
11.9788062162
 20
11.6443219474
 30
0.0
 40
0.5
 41
0.0
 71
     1
 72
     1
  1
7"
  7
SLDTEXTSTYLE0
 73
     1
 44
1.0
  0
MTEXT
  5
103
330
F2
100
AcDbEntity
  8
0
  6
Continuous
 62
     7
370
    18
100
AcDbMText
 10
11.0874868245
 20
10.7490094643
 30
0.0
 40
0.5
 41
0.0
 71
     1
 72
     1
  1
178mm
  7
SLDTEXTSTYLE0
 73
     1
 44
1.0
  0
MTEXT
  5
104
330
F2
100
AcDbEntity
  8
0
  6
Continuous
 62
     7
370
    18
100
AcDbMText
 10
13.9380075144
 20
11.6519608733
 30
0.0
 40
0.5
 41
0.0
 71
     1
 72
     1
  1

  7
SLDTEXTSTYLE0
 73
     1
 44
1.0
  0
ENDBLK
  5
F4
330
F2
100
AcDbEntity
  8
0
100
AcDbBlockEnd
  0
BLOCK
  5
108
330
107
100
AcDbEntity
  8
0
100
AcDbBlockBegin
  2
_D_3
 70
     0
 10
0.0
 20
0.0
 30
0.0
  3
_D_3
  1

  0
SOLID
  5
10A
330
107
100
AcDbEntity
  8
0
  6
Continuous
 62
     7
370
    18
100
AcDbTrace
 10
17.3364565522
 20
12.4768482354
 30
0.0
 11
17.4164565522
 21
12.9968482354
 31
0.0
 12
17.2564565522
 22
12.9968482354
 32
0.0
 13
17.2564565522
 23
12.9968482354
 33
0.0
  0
SOLID
  5
10B
330
107
100
AcDbEntity
  8
0
  6
Continuous
 62
     7
370
    18
100
AcDbTrace
 10
17.3364565522
 20
26.9808482354
 30
0.0
 11
17.2564565522
 21
26.4608482354
 31
0.0
 12
17.4164565522
 22
26.4608482354
 32
0.0
 13
17.4164565522
 23
26.4608482354
 33
0.0
  0
LINE
  5
10C
330
107
100
AcDbEntity
  8
0
  6
Continuous
 62
     7
370
     0
100
AcDbLine
 10
16.1572899741
 20
19.7250287129
 30
0.0
 11
16.0049462256
 21
19.7250287129
 31
0.0
  0
LINE
  5
10D
330
107
100
AcDbEntity
  8
0
  6
Continuous
 62
     7
370
     0
100
AcDbLine
 10
16.0049462256
 20
19.7250287129
 30
0.0
 11
16.0049462256
 21
18.931278689
 31
0.0
  0
LINE
  5
10E
330
107
100
AcDbEntity
  8
0
  6
Continuous
 62
     7
370
     0
100
AcDbLine
 10
16.0049462256
 20
18.931278689
 30
0.0
 11
16.1572899741
 21
18.931278689
 31
0.0
  0
LINE
  5
10F
330
107
100
AcDbEntity
  8
0
  6
Continuous
 62
     7
370
     0
100
AcDbLine
 10
18.5156232771
 20
19.7250287129
 30
0.0
 11
18.6679670255
 21
19.7250287129
 31
0.0
  0
LINE
  5
110
330
107
100
AcDbEntity
  8
0
  6
Continuous
 62
     7
370
     0
100
AcDbLine
 10
18.6679670255
 20
19.7250287129
 30
0.0
 11
18.6679670255
 21
18.931278689
 31
0.0
  0
LINE
  5
111
330
107
100
AcDbEntity
  8
0
  6
Continuous
 62
     7
370
     0
100
AcDbLine
 10
18.6679670255
 20
18.931278689
 30
0.0
 11
18.5156232771
 21
18.931278689
 31
0.0
  0
LINE
  5
112
330
107
100
AcDbEntity
  8
0
  6
Continuous
 62
     7
370
     0
100
AcDbLine
 10
15.9616534026
 20
12.4768482354
 30
0.0
 11
17.8364565522
 21
12.4768482354
 31
0.0
  0
LINE
  5
113
330
107
100
AcDbEntity
  8
0
  6
Continuous
 62
     7
370
     0
100
AcDbLine
 10
15.9616534026
 20
26.9808482354
 30
0.0
 11
17.8364565522
 21
26.9808482354
 31
0.0
  0
LINE
  5
114
330
107
100
AcDbEntity
  8
0
  6
Continuous
 62
     7
370
     0
100
AcDbLine
 10
17.3364565522
 20
12.4768482354
 30
0.0
 11
17.3364565522
 21
18.8297163489
 31
0.0
  0
LINE
  5
115
330
107
100
AcDbEntity
  8
0
  6
Continuous
 62
     7
370
     0
100
AcDbLine
 10
17.3364565522
 20
26.9808482354
 30
0.0
 11
17.3364565522
 21
20.6279801219
 31
0.0
  0
MTEXT
  5
116
330
107
100
AcDbEntity
  8
0
  6
Continuous
 62
     7
370
    18
100
AcDbMText
 10
15.8553802544
 20
20.4787640229
 30
0.0
 40
0.5
 41
0.0
 71
     1
 72
     1
  1

  7
SLDTEXTSTYLE0
 73
     1
 44
1.0
  0
MTEXT
  5
117
330
107
100
AcDbEntity
  8
0
  6
Continuous
 62
     7
370
    18
100
AcDbMText
 10
16.2562482409
 20
20.471125097
 30
0.0
 40
0.5
 41
0.0
 71
     1
 72
     1
  1
14 1/2"
  7
SLDTEXTSTYLE0
 73
     1
 44
1.0
  0
MTEXT
  5
118
330
107
100
AcDbEntity
  8
0
  6
Continuous
 62
     7
370
    18
100
AcDbMText
 10
16.1572899741
 20
19.5758126139
 30
0.0
 40
0.5
 41
0.0
 71
     1
 72
     1
  1
368mm
  7
SLDTEXTSTYLE0
 73
     1
 44
1.0
  0
MTEXT
  5
119
330
107
100
AcDbEntity
  8
0
  6
Continuous
 62
     7
370
    18
100
AcDbMText
 10
19.007810664
 20
20.4787640229
 30
0.0
 40
0.5
 41
0.0
 71
     1
 72
     1
  1

  7
SLDTEXTSTYLE0
 73
     1
 44
1.0
  0
ENDBLK
  5
109
330
107
100
AcDbEntity
  8
0
100
AcDbBlockEnd
  0
BLOCK
  5
11C
330
11B
100
AcDbEntity
  8
0
100
AcDbBlockBegin
  2
_D_4
 70
     0
 10
0.0
 20
0.0
 30
0.0
  3
_D_4
  1

  0
SOLID
  5
11E
330
11B
100
AcDbEntity
  8
0
  6
Continuous
 62
     7
370
    18
100
AcDbTrace
 10
10.2916534026
 20
29.5005332748
 30
0.0
 11
10.8116534026
 21
29.4205332748
 31
0.0
 12
10.8116534026
 22
29.5805332748
 32
0.0
 13
10.8116534026
 23
29.5805332748
 33
0.0
  0
SOLID
  5
11F
330
11B
100
AcDbEntity
  8
0
  6
Continuous
 62
     7
370
    18
100
AcDbTrace
 10
15.7616534026
 20
29.5005332748
 30
0.0
 11
15.2416534026
 21
29.5805332748
 31
0.0
 12
15.2416534026
 22
29.4205332748
 32
0.0
 13
15.2416534026
 23
29.4205332748
 33
0.0
  0
LINE
  5
120
330
11B
100
AcDbEntity
  8
0
  6
Continuous
 62
     7
370
     0
100
AcDbLine
 10
11.8474867878
 20
29.5005332015
 30
0.0
 11
11.6951430394
 21
29.5005332015
 31
0.0
  0
LINE
  5
121
330
11B
100
AcDbEntity
  8
0
  6
Continuous
 62
     7
370
     0
100
AcDbLine
 10
11.6951430394
 20
29.5005332015
 30
0.0
 11
11.6951430394
 21
28.7067831776
 31
0.0
  0
LINE
  5
122
330
11B
100
AcDbEntity
  8
0
  6
Continuous
 62
     7
370
     0
100
AcDbLine
 10
11.6951430394
 20
28.7067831776
 30
0.0
 11
11.8474867878
 21
28.7067831776
 31
0.0
  0
LINE
  5
123
330
11B
100
AcDbEntity
  8
0
  6
Continuous
 62
     7
370
     0
100
AcDbLine
 10
14.2058200908
 20
29.5005332015
 30
0.0
 11
14.3581638392
 21
29.5005332015
 31
0.0
  0
LINE
  5
124
330
11B
100
AcDbEntity
  8
0
  6
Continuous
 62
     7
370
     0
100
AcDbLine
 10
14.3581638392
 20
29.5005332015
 30
0.0
 11
14.3581638392
 21
28.7067831776
 31
0.0
  0
LINE
  5
125
330
11B
100
AcDbEntity
  8
0
  6
Continuous
 62
     7
370
     0
100
AcDbLine
 10
14.3581638392
 20
28.7067831776
 30
0.0
 11
14.2058200908
 21
28.7067831776
 31
0.0
  0
LINE
  5
126
330
11B
100
AcDbEntity
  8
0
  6
Continuous
 62
     7
370
     0
100
AcDbLine
 10
10.2916534026
 20
27.1808482354
 30
0.0
 11
10.2916534026
 21
30.0005332748
 31
0.0
  0
LINE
  5
127
330
11B
100
AcDbEntity
  8
0
  6
Continuous
 62
     7
370
     0
100
AcDbLine
 10
15.7616534026
 20
27.1808482354
 30
0.0
 11
15.7616534026
 21
30.0005332748
 31
0.0
  0
LINE
  5
128
330
11B
100
AcDbEntity
  8
0
  6
Continuous
 62
     7
370
     0
100
AcDbLine
 10
10.2916534026
 20
29.5005332748
 30
0.0
 11
11.4414104479
 21
29.5005332748
 31
0.0
  0
LINE
  5
129
330
11B
100
AcDbEntity
  8
0
  6
Continuous
 62
     7
370
     0
100
AcDbLine
 10
15.7616534026
 20
29.5005332748
 30
0.0
 11
14.6118963573
 21
29.5005332748
 31
0.0
  0
MTEXT
  5
12A
330
11B
100
AcDbEntity
  8
0
  6
Continuous
 62
     7
370
    18
100
AcDbMText
 10
11.7541360362
 20
30.2466296223
 30
0.0
 40
0.5
 41
0.0
 71
     1
 72
     1
  1
%%c
  7
SLDTEXTSTYLE0
 73
     1
 44
1.0
  0
MTEXT
  5
12B
330
11B
100
AcDbEntity
  8
0
  6
Continuous
 62
     7
370
    18
100
AcDbMText
 10
12.5081985185
 20
30.2466296223
 30
0.0
 40
0.5
 41
0.0
 71
     1
 72
     1
  1
5 1/2"
  7
SLDTEXTSTYLE0
 73
     1
 44
1.0
  0
MTEXT
  5
12C
330
11B
100
AcDbEntity
  8
0
  6
Continuous
 62
     7
370
    18
100
AcDbMText
 10
11.8474867878
 20
29.3513171025
 30
0.0
 40
0.5
 41
0.0
 71
     1
 72
     1
  1
139mm
  7
SLDTEXTSTYLE0
 73
     1
 44
1.0
  0
ENDBLK
  5
11D
330
11B
100
AcDbEntity
  8
0
100
AcDbBlockEnd
  0
BLOCK
  5
184
330
183
100
AcDbEntity
  8
0
100
AcDbBlockBegin
  2
_D_5
 70
     0
 10
0.0
 20
0.0
 30
0.0
  3
_D_5
  1

  0
SOLID
  5
186
330
183
100
AcDbEntity
  8
0
  6
Continuous
 62
     7
370
    18
100
AcDbTrace
 10
20.0016675395
 20
20.901856278
 30
0.0
 11
20.5216675395
 21
20.821856278
 31
0.0
 12
20.5216675395
 22
20.981856278
 32
0.0
 13
20.5216675395
 23
20.981856278
 33
0.0
  0
SOLID
  5
187
330
183
100
AcDbEntity
  8
0
  6
Continuous
 62
     7
370
    18
100
AcDbTrace
 10
23.5016675395
 20
20.901856278
 30
0.0
 11
22.9816675395
 21
20.981856278
 31
0.0
 12
22.9816675395
 22
20.821856278
 32
0.0
 13
22.9816675395
 23
20.821856278
 33
0.0
  0
LINE
  5
188
330
183
100
AcDbEntity
  8
0
  6
Continuous
 62
     7
370
     0
100
AcDbLine
 10
24.3285651522
 20
20.8980367555
 30
0.0
 11
24.1762214038
 21
20.8980367555
 31
0.0
  0
LINE
  5
189
330
183
100
AcDbEntity
  8
0
  6
Continuous
 62
     7
370
     0
100
AcDbLine
 10
24.1762214038
 20
20.8980367555
 30
0.0
 11
24.1762214038
 21
20.1042867316
 31
0.0
  0
LINE
  5
18A
330
183
100
AcDbEntity
  8
0
  6
Continuous
 62
     7
370
     0
100
AcDbLine
 10
24.1762214038
 20
20.1042867316
 30
0.0
 11
24.3285651522
 21
20.1042867316
 31
0.0
  0
LINE
  5
18B
330
183
100
AcDbEntity
  8
0
  6
Continuous
 62
     7
370
     0
100
AcDbLine
 10
26.3174540831
 20
20.8980367555
 30
0.0
 11
26.4697978315
 21
20.8980367555
 31
0.0
  0
LINE
  5
18C
330
183
100
AcDbEntity
  8
0
  6
Continuous
 62
     7
370
     0
100
AcDbLine
 10
26.4697978315
 20
20.8980367555
 30
0.0
 11
26.4697978315
 21
20.1042867316
 31
0.0
  0
LINE
  5
18D
330
183
100
AcDbEntity
  8
0
  6
Continuous
 62
     7
370
     0
100
AcDbLine
 10
26.4697978315
 20
20.1042867316
 30
0.0
 11
26.3174540831
 21
20.1042867316
 31
0.0
  0
LINE
  5
18E
330
183
100
AcDbEntity
  8
0
  6
Continuous
 62
     7
370
     0
100
AcDbLine
 10
20.0016675395
 20
17.2590531284
 30
0.0
 11
20.0016675395
 21
21.401856278
 31
0.0
  0
LINE
  5
18F
330
183
100
AcDbEntity
  8
0
  6
Continuous
 62
     7
370
     0
100
AcDbLine
 10
23.5016675395
 20
17.2590531284
 30
0.0
 11
23.5016675395
 21
21.401856278
 31
0.0
  0
LINE
  5
190
330
183
100
AcDbEntity
  8
0
  6
Continuous
 62
     7
370
     0
100
AcDbLine
 10
20.0016675395
 20
20.901856278
 30
0.0
 11
23.5016675395
 21
20.901856278
 31
0.0
  0
LINE
  5
191
330
183
100
AcDbEntity
  8
0
  6
Continuous
 62
     7
370
     0
100
AcDbLine
 10
23.5016675395
 20
20.901856278
 30
0.0
 11
23.9224888123
 21
20.901856278
 31
0.0
  0
MTEXT
  5
192
330
183
100
AcDbEntity
  8
0
  6
Continuous
 62
     7
370
    18
100
AcDbMText
 10
24.4275234924
 20
21.6441331396
 30
0.0
 40
0.5
 41
0.0
 71
     1
 72
     1
  1
3 1/2"
  7
SLDTEXTSTYLE0
 73
     1
 44
1.0
  0
MTEXT
  5
193
330
183
100
AcDbEntity
  8
0
  6
Continuous
 62
     7
370
    18
100
AcDbMText
 10
24.3285651522
 20
20.7488206565
 30
0.0
 40
0.5
 41
0.0
 71
     1
 72
     1
  1
89mm
  7
SLDTEXTSTYLE0
 73
     1
 44
1.0
  0
MTEXT
  5
194
330
183
100
AcDbEntity
  8
0
  6
Continuous
 62
     7
370
    18
100
AcDbMText
 10
26.6221415066
 20
21.6517720656
 30
0.0
 40
0.5
 41
0.0
 71
     1
 72
     1
  1
O.C.
  7
SLDTEXTSTYLE0
 73
     1
 44
1.0
  0
ENDBLK
  5
185
330
183
100
AcDbEntity
  8
0
100
AcDbBlockEnd
  0
BLOCK
  5
197
330
196
100
AcDbEntity
  8
0
100
AcDbBlockBegin
  2
_D_6
 70
     0
 10
0.0
 20
0.0
 30
0.0
  3
_D_6
  1

  0
SOLID
  5
199
330
196
100
AcDbEntity
  8
0
  6
Continuous
 62
     7
370
    18
100
AcDbTrace
 10
26.0681484531
 20
19.3270531284
 30
0.0
 11
25.9881484531
 21
18.8070531284
 31
0.0
 12
26.1481484531
 22
18.8070531284
 32
0.0
 13
26.1481484531
 23
18.8070531284
 33
0.0
  0
SOLID
  5
19A
330
196
100
AcDbEntity
  8
0
  6
Continuous
 62
     7
370
    18
100
AcDbTrace
 10
26.0681484531
 20
14.3570531284
 30
0.0
 11
26.1481484531
 21
14.8770531284
 31
0.0
 12
25.9881484531
 22
14.8770531284
 32
0.0
 13
25.9881484531
 23
14.8770531284
 33
0.0
  0
LINE
  5
19B
330
196
100
AcDbEntity
  8
0
  6
Continuous
 62
     7
370
     0
100
AcDbLine
 10
24.8889818382
 20
16.8420530551
 30
0.0
 11
24.7366380898
 21
16.8420530551
 31
0.0
  0
LINE
  5
19C
330
196
100
AcDbEntity
  8
0
  6
Continuous
 62
     7
370
     0
100
AcDbLine
 10
24.7366380898
 20
16.8420530551
 30
0.0
 11
24.7366380898
 21
16.0483030312
 31
0.0
  0
LINE
  5
19D
330
196
100
AcDbEntity
  8
0
  6
Continuous
 62
     7
370
     0
100
AcDbLine
 10
24.7366380898
 20
16.0483030312
 30
0.0
 11
24.8889818382
 21
16.0483030312
 31
0.0
  0
LINE
  5
19E
330
196
100
AcDbEntity
  8
0
  6
Continuous
 62
     7
370
     0
100
AcDbLine
 10
27.2473151412
 20
16.8420530551
 30
0.0
 11
27.3996588897
 21
16.8420530551
 31
0.0
  0
LINE
  5
19F
330
196
100
AcDbEntity
  8
0
  6
Continuous
 62
     7
370
     0
100
AcDbLine
 10
27.3996588897
 20
16.8420530551
 30
0.0
 11
27.3996588897
 21
16.0483030312
 31
0.0
  0
LINE
  5
1A0
330
196
100
AcDbEntity
  8
0
  6
Continuous
 62
     7
370
     0
100
AcDbLine
 10
27.3996588897
 20
16.0483030312
 30
0.0
 11
27.2473151412
 21
16.0483030312
 31
0.0
  0
LINE
  5
1A1
330
196
100
AcDbEntity
  8
0
  6
Continuous
 62
     7
370
     0
100
AcDbLine
 10
21.9516675395
 20
19.3270531284
 30
0.0
 11
26.5681484531
 21
19.3270531284
 31
0.0
  0
LINE
  5
1A2
330
196
100
AcDbEntity
  8
0
  6
Continuous
 62
     7
370
     0
100
AcDbLine
 10
21.9516675395
 20
14.3570531284
 30
0.0
 11
26.5681484531
 21
14.3570531284
 31
0.0
  0
LINE
  5
1A3
330
196
100
AcDbEntity
  8
0
  6
Continuous
 62
     7
370
     0
100
AcDbLine
 10
26.0681484531
 20
19.3270531284
 30
0.0
 11
26.0681484531
 21
17.737365639
 31
0.0
  0
LINE
  5
1A4
330
196
100
AcDbEntity
  8
0
  6
Continuous
 62
     7
370
     0
100
AcDbLine
 10
26.0681484531
 20
14.3570531284
 30
0.0
 11
26.0681484531
 21
15.9467406178
 31
0.0
  0
MTEXT
  5
1A5
330
196
100
AcDbEntity
  8
0
  6
Continuous
 62
     7
370
    18
100
AcDbMText
 10
25.4032700071
 20
17.5881494759
 30
0.0
 40
0.5
 41
0.0
 71
     1
 72
     1
  1
%%c
  7
SLDTEXTSTYLE0
 73
     1
 44
1.0
  0
MTEXT
  5
1A6
330
196
100
AcDbEntity
  8
0
  6
Continuous
 62
     7
370
    18
100
AcDbMText
 10
26.1573324895
 20
17.5881494759
 30
0.0
 40
0.5
 41
0.0
 71
     1
 72
     1
  1
5"
  7
SLDTEXTSTYLE0
 73
     1
 44
1.0
  0
MTEXT
  5
1A7
330
196
100
AcDbEntity
  8
0
  6
Continuous
 62
     7
370
    18
100
AcDbMText
 10
24.8889818382
 20
16.6928369561
 30
0.0
 40
0.5
 41
0.0
 71
     1
 72
     1
  1
126mm
  7
SLDTEXTSTYLE0
 73
     1
 44
1.0
  0
ENDBLK
  5
198
330
196
100
AcDbEntity
  8
0
100
AcDbBlockEnd
  0
BLOCK
  5
1AA
330
1A9
100
AcDbEntity
  8
0
100
AcDbBlockBegin
  2
SW_CENTERMARKSYMBOL_0
 70
     0
 10
0.0
 20
0.0
 30
0.0
  3
SW_CENTERMARKSYMBOL_0
  1

  0
LINE
  5
1AC
330
1A9
100
AcDbEntity
  8
0
  6
Continuous
 62
     0
370
    18
100
AcDbLine
 10
0.0
 20
0.0
 30
0.0
 11
0.0
 21
0.1
 31
0.0
  0
LINE
  5
1AD
330
1A9
100
AcDbEntity
  8
0
  6
Continuous
 62
     0
370
    18
100
AcDbLine
 10
0.0
 20
0.0
 30
0.0
 11
-0.1
 21
0.0
 31
0.0
  0
LINE
  5
1AE
330
1A9
100
AcDbEntity
  8
0
  6
Continuous
 62
     0
370
    18
100
AcDbLine
 10
0.0
 20
0.0
 30
0.0
 11
0.0
 21
-0.1
 31
0.0
  0
LINE
  5
1AF
330
1A9
100
AcDbEntity
  8
0
  6
Continuous
 62
     0
370
    18
100
AcDbLine
 10
0.0
 20
0.0
 30
0.0
 11
0.1
 21
0.0
 31
0.0
  0
LINE
  5
1B0
330
1A9
100
AcDbEntity
  8
0
  6
Continuous
 62
     0
370
    18
100
AcDbLine
 10
0.0
 20
0.2
 30
0.0
 11
0.0
 21
0.217
 31
0.0
  0
LINE
  5
1B1
330
1A9
100
AcDbEntity
  8
0
  6
Continuous
 62
     0
370
    18
100
AcDbLine
 10
-0.2
 20
0.0
 30
0.0
 11
-0.217
 21
0.0
 31
0.0
  0
LINE
  5
1B2
330
1A9
100
AcDbEntity
  8
0
  6
Continuous
 62
     0
370
    18
100
AcDbLine
 10
0.0
 20
-0.2
 30
0.0
 11
0.0
 21
-0.217
 31
0.0
  0
LINE
  5
1B3
330
1A9
100
AcDbEntity
  8
0
  6
Continuous
 62
     0
370
    18
100
AcDbLine
 10
0.2
 20
0.0
 30
0.0
 11
0.217
 21
0.0
 31
0.0
  0
ENDBLK
  5
1AB
330
1A9
100
AcDbEntity
  8
0
100
AcDbBlockEnd
  0
BLOCK
  5
1B6
330
1B5
100
AcDbEntity
  8
0
100
AcDbBlockBegin
  2
SW_CENTERMARKSYMBOL_1
 70
     0
 10
0.0
 20
0.0
 30
0.0
  3
SW_CENTERMARKSYMBOL_1
  1

  0
LINE
  5
1B8
330
1B5
100
AcDbEntity
  8
0
  6
Continuous
 62
     0
370
    18
100
AcDbLine
 10
0.0
 20
0.0
 30
0.0
 11
0.0
 21
0.1
 31
0.0
  0
LINE
  5
1B9
330
1B5
100
AcDbEntity
  8
0
  6
Continuous
 62
     0
370
    18
100
AcDbLine
 10
0.0
 20
0.0
 30
0.0
 11
-0.1
 21
0.0
 31
0.0
  0
LINE
  5
1BA
330
1B5
100
AcDbEntity
  8
0
  6
Continuous
 62
     0
370
    18
100
AcDbLine
 10
0.0
 20
0.0
 30
0.0
 11
0.0
 21
-0.1
 31
0.0
  0
LINE
  5
1BB
330
1B5
100
AcDbEntity
  8
0
  6
Continuous
 62
     0
370
    18
100
AcDbLine
 10
0.0
 20
0.0
 30
0.0
 11
0.1
 21
0.0
 31
0.0
  0
LINE
  5
1BC
330
1B5
100
AcDbEntity
  8
0
  6
Continuous
 62
     0
370
    18
100
AcDbLine
 10
0.0
 20
0.2
 30
0.0
 11
0.0
 21
0.217
 31
0.0
  0
LINE
  5
1BD
330
1B5
100
AcDbEntity
  8
0
  6
Continuous
 62
     0
370
    18
100
AcDbLine
 10
-0.2
 20
0.0
 30
0.0
 11
-0.217
 21
0.0
 31
0.0
  0
LINE
  5
1BE
330
1B5
100
AcDbEntity
  8
0
  6
Continuous
 62
     0
370
    18
100
AcDbLine
 10
0.0
 20
-0.2
 30
0.0
 11
0.0
 21
-0.217
 31
0.0
  0
LINE
  5
1BF
330
1B5
100
AcDbEntity
  8
0
  6
Continuous
 62
     0
370
    18
100
AcDbLine
 10
0.2
 20
0.0
 30
0.0
 11
0.217
 21
0.0
 31
0.0
  0
ENDBLK
  5
1B7
330
1B5
100
AcDbEntity
  8
0
100
AcDbBlockEnd
  0
ENDSEC
  0
SECTION
  2
ENTITIES
  0
LINE
  5
6D
330
1F
100
AcDbEntity
  8
0
  6
Continuous
 62
     7
370
    25
100
AcDbLine
 10
10.2916534026
 20
18.2868482354
 30
0.0
 11
10.2916534026
 21
12.4768482354
 31
0.0
  0
LINE
  5
6E
330
1F
100
AcDbEntity
  8
0
  6
Continuous
 62
     7
370
    25
100
AcDbLine
 10
15.7616534026
 20
18.1740368575
 30
0.0
 11
15.7616534026
 21
18.2868482354
 31
0.0
  0
LINE
  5
6F
330
1F
100
AcDbEntity
  8
0
  6
Continuous
 62
     7
370
    25
100
AcDbLine
 10
15.7616534026
 20
12.4768482354
 30
0.0
 11
15.7616534026
 21
18.0248373167
 31
0.0
  0
LINE
  5
70
330
1F
100
AcDbEntity
  8
0
  6
Continuous
 62
     7
370
    25
100
AcDbLine
 10
15.7616534026
 20
21.4328591542
 30
0.0
 11
15.7616534026
 21
26.9808482354
 31
0.0
  0
LINE
  5
71
330
1F
100
AcDbEntity
  8
0
  6
Continuous
 62
     7
370
    25
100
AcDbLine
 10
15.7616534026
 20
21.1708482354
 30
0.0
 11
15.7616534026
 21
21.2836596134
 31
0.0
  0
LINE
  5
72
330
1F
100
AcDbEntity
  8
0
  6
Continuous
 62
     7
370
    25
100
AcDbLine
 10
10.2916534026
 20
26.9808482354
 30
0.0
 11
10.2916534026
 21
21.1708482354
 31
0.0
  0
LINE
  5
73
330
1F
100
AcDbEntity
  8
0
  6
Continuous
 62
     7
370
    25
100
AcDbLine
 10
9.0966534026
 20
17.2438482354
 30
0.0
 11
9.1466534026
 21
17.2938482354
 31
0.0
  0
LINE
  5
74
330
1F
100
AcDbEntity
  8
0
  6
Continuous
 62
     7
370
    25
100
AcDbLine
 10
9.1466534026
 20
22.1638482354
 30
0.0
 11
9.0966534026
 21
22.2138482354
 31
0.0
  0
LINE
  5
75
330
1F
100
AcDbEntity
  8
0
  6
Continuous
 62
     7
370
    25
100
AcDbLine
 10
8.7716534026
 20
17.2438482354
 30
0.0
 11
9.0966534026
 21
17.2438482354
 31
0.0
  0
LINE
  5
76
330
1F
100
AcDbEntity
  8
0
  6
Continuous
 62
     7
370
    25
100
AcDbLine
 10
9.0966534026
 20
22.2138482354
 30
0.0
 11
8.7716534026
 21
22.2138482354
 31
0.0
  0
LINE
  5
77
330
1F
100
AcDbEntity
  8
0
  6
Continuous
 62
     7
370
    25
100
AcDbLine
 10
9.1566534026
 20
19.0738482354
 30
0.0
 11
10.2937606691
 21
19.0738482354
 31
0.0
  0
LINE
  5
78
330
1F
100
AcDbEntity
  8
0
  6
Continuous
 62
     7
370
    25
100
AcDbLine
 10
10.2937621138
 20
20.3838482354
 30
0.0
 11
9.1566534026
 21
20.3838482354
 31
0.0
  0
ARC
  5
79
330
1F
100
AcDbEntity
  8
0
  6
Continuous
 62
     7
370
    25
100
AcDbCircle
 10
9.1566534026
 20
20.3738482354
 30
0.0
 40
0.009999999999998
100
AcDbArc
 50
90.0
 51
180.0
  0
ARC
  5
7A
330
1F
100
AcDbEntity
  8
0
  6
Continuous
 62
     7
370
    25
100
AcDbCircle
 10
9.1566534026
 20
19.0838482354
 30
0.0
 40
0.0100000000000016
100
AcDbArc
 50
180.0
 51
270.0
  0
LINE
  5
7B
330
1F
100
AcDbEntity
  8
0
  6
Continuous
 62
     7
370
    25
100
AcDbLine
 10
10.2916534026
 20
19.0656397735
 30
0.0
 11
10.2916534026
 21
18.2868482354
 31
0.0
  0
LINE
  5
7C
330
1F
100
AcDbEntity
  8
0
  6
Continuous
 62
     7
370
    25
100
AcDbLine
 10
10.2916534026
 20
21.1708482354
 30
0.0
 11
10.2916534026
 21
20.3922121399
 31
0.0
  0
LINE
  5
7D
330
1F
100
AcDbEntity
  8
0
  6
Continuous
 62
     7
370
    25
100
AcDbLine
 10
15.7616534026
 20
18.2868482354
 30
0.0
 11
15.7616534026
 21
21.1708482354
 31
0.0
  0
LWPOLYLINE
  5
7E
330
1F
100
AcDbEntity
  8
0
  6
Continuous
 62
     7
370
    25
100
AcDbPolyline
 90
       39
 70
   128
 43
0.0
 10
11.6128307282
 20
21.324311396
 10
11.6183142255
 20
21.3159716442
 10
11.6249117092
 20
21.3087878153
 10
11.632443217
 20
21.3029558655
 10
11.6407033091
 20
21.2986348751
 10
11.6494666716
 20
21.2959427096
 10
11.6584942629
 20
21.2949528041
 10
11.6675398338
 20
21.2956921607
 10
11.6763566447
 20
21.2981406117
 10
11.684704196
 20
21.3022313698
 10
11.6923547883
 20
21.3078528496
 10
11.6990997333
 20
21.3148517119
 10
11.7047550466
 20
21.3230370461
 10
11.7091664659
 20
21.3321855774
 10
11.7122136592
 20
21.3420477578
 10
11.713813507
 20
21.3523545727
 10
11.7139223696
 20
21.3628248792
 10
11.7125372776
 20
21.3731730745
 10
11.7096960127
 20
21.3831168868
 10
11.7054760771
 20
21.3923850749
 10
11.6999925797
 20
21.4007248267
 10
11.693395096
 20
21.4079086555
 10
11.6858635882
 20
21.4137406054
 10
11.6776034962
 20
21.4180615957
 10
11.6688401337
 20
21.4207537613
 10
11.6598125424
 20
21.4217436667
 10
11.6507669715
 20
21.4210043101
 10
11.6419501606
 20
21.4185558591
 10
11.6336026093
 20
21.4144651011
 10
11.625952017
 20
21.4088436212
 10
11.619207072
 20
21.4018447589
 10
11.6135517587
 20
21.3936594248
 10
11.6091403394
 20
21.3845108935
 10
11.6060931461
 20
21.3746487131
 10
11.6044932983
 20
21.3643418981
 10
11.6043844356
 20
21.3538715917
 10
11.6057695276
 20
21.3435233964
 10
11.6086107926
 20
21.3335795841
 10
11.6128307282
 20
21.324311396
  0
ARC
  5
7F
330
1F
100
AcDbEntity
  8
0
  6
Continuous
 62
     7
370
    25
100
AcDbCircle
 10
11.664903745
 20
21.3745915553
 30
0.0
 40
0.0580862015245903
100
AcDbArc
 50
88.3196049062
 51
126.8597437918
  0
ARC
  5
80
330
1F
100
AcDbEntity
  8
0
  6
Continuous
 62
     7
370
    25
100
AcDbCircle
 10
11.6735886301
 20
21.359431801
 30
0.0
 40
0.0754558071848822
100
AcDbArc
 50
125.230861157
 51
266.1579670186
  0
LINE
  5
81
330
1F
100
AcDbEntity
  8
0
  6
Continuous
 62
     7
370
    25
100
AcDbLine
 10
11.6937374069
 20
21.3375332841
 30
0.0
 11
11.6920566182
 21
21.3825247641
 31
0.0
  0
LINE
  5
82
330
1F
100
AcDbEntity
  8
0
  6
Continuous
 62
     7
370
    25
100
AcDbLine
 10
11.657472614
 20
21.4033397153
 30
0.0
 11
11.6920566182
 21
21.3825247641
 31
0.0
  0
LINE
  5
83
330
1F
100
AcDbEntity
  8
0
  6
Continuous
 62
     7
370
    25
100
AcDbLine
 10
11.6245693984
 20
21.3791631867
 30
0.0
 11
11.657472614
 21
21.4033397153
 31
0.0
  0
LINE
  5
84
330
1F
100
AcDbEntity
  8
0
  6
Continuous
 62
     7
370
    25
100
AcDbLine
 10
11.6245693984
 20
21.3791631867
 30
0.0
 11
11.626250187
 21
21.3341717068
 31
0.0
  0
LINE
  5
85
330
1F
100
AcDbEntity
  8
0
  6
Continuous
 62
     7
370
    25
100
AcDbLine
 10
11.6608341913
 20
21.3133567555
 30
0.0
 11
11.626250187
 21
21.3341717068
 31
0.0
  0
LINE
  5
86
330
1F
100
AcDbEntity
  8
0
  6
Continuous
 62
     7
370
    25
100
AcDbLine
 10
11.6608341913
 20
21.3133567555
 30
0.0
 11
11.6937374069
 21
21.3375332841
 31
0.0
  0
LINE
  5
87
330
1F
100
AcDbEntity
  8
0
  6
Continuous
 62
     7
370
    25
100
AcDbLine
 10
11.671250187
 20
21.3341717068
 30
0.0
 11
11.626250187
 21
21.3341717068
 31
0.0
  0
LINE
  5
88
330
1F
100
AcDbEntity
  8
0
  6
Continuous
 62
     7
370
    25
100
AcDbLine
 10
11.6810968786
 20
21.3282453137
 30
0.0
 11
11.671250187
 21
21.3341717068
 31
0.0
  0
LINE
  5
89
330
1F
100
AcDbEntity
  8
0
  6
Continuous
 62
     7
370
    25
100
AcDbLine
 10
11.6695693984
 20
21.3791631867
 30
0.0
 11
11.6822099267
 21
21.3884511572
 31
0.0
  0
LINE
  5
8A
330
1F
100
AcDbEntity
  8
0
  6
Continuous
 62
     7
370
    25
100
AcDbLine
 10
11.6695693984
 20
21.3791631867
 30
0.0
 11
11.6245693984
 21
21.3791631867
 31
0.0
  0
LINE
  5
8B
330
1F
100
AcDbEntity
  8
0
  6
Continuous
 62
     7
370
    25
100
AcDbLine
 10
11.6695693984
 20
21.3791631867
 30
0.0
 11
11.671250187
 21
21.3341717068
 31
0.0
  0
LINE
  5
8C
330
1F
100
AcDbEntity
  8
0
  6
Continuous
 62
     7
370
    25
100
AcDbLine
 10
15.7616534026
 20
21.3340629283
 30
0.0
 11
15.7616534026
 21
21.2949482354
 31
0.0
  0
LINE
  5
8D
330
1F
100
AcDbEntity
  8
0
  6
Continuous
 62
     7
370
    25
100
AcDbLine
 10
15.7616534026
 20
21.4217482354
 30
0.0
 11
15.7616534026
 21
21.3340629283
 31
0.0
  0
LINE
  5
8E
330
1F
100
AcDbEntity
  8
0
  6
Continuous
 62
     7
370
    25
100
AcDbLine
 10
15.7616534026
 20
18.049025351
 30
0.0
 11
15.7616534026
 21
18.0359482354
 31
0.0
  0
LINE
  5
8F
330
1F
100
AcDbEntity
  8
0
  6
Continuous
 62
     7
370
    25
100
AcDbLine
 10
15.7616534026
 20
18.1627482354
 30
0.0
 11
15.7616534026
 21
18.049025351
 31
0.0
  0
LWPOLYLINE
  5
90
330
1F
100
AcDbEntity
  8
0
  6
Continuous
 62
     7
370
    25
100
AcDbPolyline
 90
       39
 70
   128
 43
0.0
 10
11.6255305594
 20
18.0492260592
 10
11.6331337014
 20
18.0435193881
 10
11.641446593
 20
18.0393355824
 10
11.6502424802
 20
18.0367887655
 10
11.6592814341
 20
18.0359484078
 10
11.6683168957
 20
18.0368374321
 10
11.6771024011
 20
18.0394315883
 10
11.6853983045
 20
18.0436601143
 10
11.6929783155
 20
18.0494076671
 10
11.699635671
 20
18.0565174685
 10
11.7051887758
 20
18.0647955815
 10
11.7094861556
 20
18.0740162009
 10
11.7124105891
 20
18.0839278121
 10
11.7138823054
 20
18.0942600522
 10
11.7138611599
 20
18.1047310848
 10
11.7123477293
 20
18.1150552872
 10
11.7093832963
 20
18.1249510422
 10
11.7050487226
 20
18.1341484194
 10
11.6994622443
 20
18.1423965383
 10
11.6927762458
 20
18.1494704117
 10
11.6851731039
 20
18.1551770828
 10
11.6768602123
 20
18.1593608884
 10
11.6680643251
 20
18.1619077054
 10
11.6590253711
 20
18.1627480631
 10
11.6499899096
 20
18.1618590387
 10
11.6412044042
 20
18.1592648826
 10
11.6329085007
 20
18.1550363565
 10
11.6253284898
 20
18.1492888037
 10
11.6186711343
 20
18.1421790024
 10
11.6131180295
 20
18.1339008893
 10
11.6088206497
 20
18.12468027
 10
11.6058962162
 20
18.1147686588
 10
11.6044244999
 20
18.1044364186
 10
11.6044456454
 20
18.0939653861
 10
11.6059590759
 20
18.0836411836
 10
11.608923509
 20
18.0737454286
 10
11.6132580827
 20
18.0645480514
 10
11.618844561
 20
18.0562999326
 10
11.6255305594
 20
18.0492260592
  0
ARC
  5
91
330
1F
100
AcDbEntity
  8
0
  6
Continuous
 62
     7
370
    25
100
AcDbCircle
 10
11.6661016993
 20
18.1117597996
 30
0.0
 40
0.0619644496829739
100
AcDbArc
 50
92.1076643058
 51
147.6987508422
  0
ARC
  5
92
330
1F
100
AcDbEntity
  8
0
  6
Continuous
 62
     7
370
    25
100
AcDbCircle
 10
11.6725112757
 20
18.0994499422
 30
0.0
 40
0.0742887954190466
100
AcDbArc
 50
142.3075624016
 51
267.6782702105
  0
LINE
  5
93
330
1F
100
AcDbEntity
  8
0
  6
Continuous
 62
     7
370
    25
100
AcDbLine
 10
11.69779615
 20
18.0932667802
 30
0.0
 11
11.6830358678
 21
18.1349502552
 31
0.0
  0
LINE
  5
94
330
1F
100
AcDbEntity
  8
0
  6
Continuous
 62
     7
370
    25
100
AcDbLine
 10
11.6443931204
 20
18.1410317105
 30
0.0
 11
11.6830358678
 21
18.1349502552
 31
0.0
  0
LINE
  5
95
330
1F
100
AcDbEntity
  8
0
  6
Continuous
 62
     7
370
    25
100
AcDbLine
 10
11.6205106552
 20
18.1054296907
 30
0.0
 11
11.6443931204
 21
18.1410317105
 31
0.0
  0
LINE
  5
96
330
1F
100
AcDbEntity
  8
0
  6
Continuous
 62
     7
370
    25
100
AcDbLine
 10
11.6205106552
 20
18.1054296907
 30
0.0
 11
11.6352709375
 21
18.0637462157
 31
0.0
  0
LINE
  5
97
330
1F
100
AcDbEntity
  8
0
  6
Continuous
 62
     7
370
    25
100
AcDbLine
 10
11.6739136849
 20
18.0576647604
 30
0.0
 11
11.6352709375
 21
18.0637462157
 31
0.0
  0
LINE
  5
98
330
1F
100
AcDbEntity
  8
0
  6
Continuous
 62
     7
370
    25
100
AcDbLine
 10
11.6739136849
 20
18.0576647604
 30
0.0
 11
11.69779615
 21
18.0932667802
 31
0.0
  0
LINE
  5
99
330
1F
100
AcDbEntity
  8
0
  6
Continuous
 62
     7
370
    25
100
AcDbLine
 10
11.6779932327
 20
18.0637462157
 30
0.0
 11
11.6352709375
 21
18.0637462157
 31
0.0
  0
LINE
  5
9A
330
1F
100
AcDbEntity
  8
0
  6
Continuous
 62
     7
370
    25
100
AcDbLine
 10
11.6655106552
 20
18.1054296907
 30
0.0
 11
11.6205106552
 21
18.1054296907
 31
0.0
  0
LINE
  5
9B
330
1F
100
AcDbEntity
  8
0
  6
Continuous
 62
     7
370
    25
100
AcDbLine
 10
11.6655106552
 20
18.1054296907
 30
0.0
 11
11.6794840049
 21
18.0659685365
 31
0.0
  0
LINE
  5
9C
330
1F
100
AcDbEntity
  8
0
  6
Continuous
 62
     7
370
    25
100
AcDbLine
 10
11.6655106552
 20
18.1054296907
 30
0.0
 11
11.6838228003
 21
18.1327279343
 31
0.0
  0
LINE
  5
9D
330
1F
100
AcDbEntity
  8
0
  6
Continuous
 62
     7
370
    25
100
AcDbLine
 10
13.0266534026
 20
12.4768482354
 30
0.0
 11
15.7616534026
 21
12.4768482354
 31
0.0
  0
LINE
  5
9E
330
1F
100
AcDbEntity
  8
0
  6
Continuous
 62
     7
370
    25
100
AcDbLine
 10
10.2916534026
 20
12.4768482354
 30
0.0
 11
13.0266534026
 21
12.4768482354
 31
0.0
  0
SPLINE
  5
9F
330
1F
100
AcDbEntity
  8
0
  6
Continuous
 62
     7
370
    25
100
AcDbSpline
210
0.0
220
0.0
230
1.0
 70
     8
 71
     3
 72
    26
 73
    22
 74
     0
 42
0.00000001
 43
0.00000001
 40
0.0
 40
0.0
 40
0.0
 40
0.0
 40
0.036859638508162
 40
0.0897671806013723
 40
0.1442086709567858
 40
0.197123773129869
 40
0.251572427652504
 40
0.3045044349554104
 40
0.3589714113426565
 40
0.4119032915436314
 40
0.4663711619161272
 40
0.5192860646750381
 40
0.5737359864270275
 40
0.6266435664747685
 40
0.6810847194676706
 40
0.7340060564142386
 40
0.7884613015971017
 40
0.8413960049822824
 40
0.8958662097825901
 40
0.9487930289391803
 40
1.0
 40
1.0
 40
1.0
 40
1.0
 10
15.76164688476387
 20
18.02483731668313
 30
0.0
 10
15.76164682200997
 20
18.02483913656368
 30
0.0
 10
15.76164666918045
 20
18.02484356866214
 30
0.0
 10
15.76158023634128
 20
18.02729627322037
 30
0.0
 10
15.76146531885967
 20
18.03175640385974
 30
0.0
 10
15.76131070968865
 20
18.03826583609187
 30
0.0
 10
15.76113907001417
 20
18.04642098477433
 30
0.0
 10
15.76096620513553
 20
18.05616611066979
 30
0.0
 10
15.76081458952538
 20
18.06704339242965
 30
0.0
 10
15.76069882550782
 20
18.07894186772184
 30
0.0
 10
15.7606338637917
 20
18.09130869915665
 30
0.0
 10
15.76062595873785
 20
18.10401619993723
 30
0.0
 10
15.76067610554326
 20
18.11647506963031
 30
0.0
 10
15.76077945242277
 20
18.12855835830934
 30
0.0
 10
15.76092267627381
 20
18.13970757878124
 30
0.0
 10
15.7610920082145
 20
18.14980968439819
 30
0.0
 10
15.76126554095347
 20
18.15839337852463
 30
0.0
 10
15.76142696029759
 20
18.16538522840796
 30
0.0
 10
15.76155383171691
 20
18.17040053647267
 30
0.0
 10
15.76163824355889
 20
18.17354731118476
 30
0.0
 10
15.76164728784908
 20
18.17387548203513
 30
0.0
 10
15.76165173530753
 20
18.17403685746575
 30
0.0
  0
SPLINE
  5
A0
330
1F
100
AcDbEntity
  8
0
  6
Continuous
 62
     7
370
    25
100
AcDbSpline
210
0.0
220
0.0
230
1.0
 70
    11
 71
     3
 72
    44
 73
    40
 74
     0
 42
0.00000001
 43
0.00000001
 40
0.0
 40
0.0
 40
0.0
 40
0.0
 40
0.0268407075036843
 40
0.0536814436170354
 40
0.0805218400162562
 40
0.1073622775571269
 40
0.1342090195495988
 40
0.1610557510294643
 40
0.1879066918424954
 40
0.2147575868473402
 40
0.2416016629617928
 40
0.2684457294808394
 40
0.2952825965407609
 40
0.3221195051029119
 40
0.3489600629385008
 40
0.3758006486318307
 40
0.4026500400925896
 40
0.4294994022401723
 40
0.4563489875144429
 40
0.4831985319786702
 40
0.510039359732227
 40
0.5368801989114956
 40
0.5637169903472794
 40
0.5905538275121974
 40
0.6173976012520273
 40
0.6442413836810991
 40
0.6710922612288527
 40
0.6979430968125158
 40
0.72479011315744
 40
0.7516371023785164
 40
0.778475323324382
 40
0.805313574260992
 40
0.8321517896324734
 40
0.8589900452760344
 40
0.8858370504679451
 40
0.9126840433798509
 40
0.9395349242133364
 40
0.9663857592583985
 40
1.0
 40
1.0
 40
1.0
 40
1.0
 10
11.72439964309714
 20
18.09934823542215
 30
0.0
 10
11.72421543929568
 20
18.09514690613897
 30
0.0
 10
11.72384703149642
 20
18.0867442430944
 30
0.0
 10
11.72097336863055
 20
18.07449081928228
 30
0.0
 10
11.71643598819697
 20
18.06295763337078
 30
0.0
 10
11.71026593048351
 20
18.05243516760767
 30
0.0
 10
11.7026273778802
 20
18.04327064349619
 30
0.0
 10
11.69378609412533
 20
18.03566380955891
 30
0.0
 10
11.68395880512663
 20
18.02990153518284
 30
0.0
 10
11.67346357381916
 20
18.02607038293371
 30
0.0
 10
11.66258254162799
 20
18.02436254430574
 30
0.0
 10
11.65163595424643
 20
18.02473921627579
 30
0.0
 10
11.64093792210118
 20
18.0272763605446
 30
0.0
 10
11.63077149811555
 20
18.03181563966667
 30
0.0
 10
11.62144815096468
 20
18.03831018011859
 30
0.0
 10
11.61318518092232
 20
18.04650177978292
 30
0.0
 10
11.6062598832442
 20
18.05622497928632
 30
0.0
 10
11.60080431326878
 20
18.06714849246956
 30
0.0
 10
11.59703216971812
 20
18.07900540599294
 30
0.0
 10
11.59497677838892
 20
18.09142704029307
 30
0.0
 10
11.59476566866339
 20
18.10407691132681
 30
0.0
 10
11.59633016592681
 20
18.11659327297415
 30
0.0
 10
11.59970040108007
 20
18.1286093444011
 30
0.0
 10
11.60471487975979
 20
18.13981252089708
 30
0.0
 10
11.61130371501288
 20
18.14984478996077
 30
0.0
 10
11.61922872186343
 20
18.15847520709195
 30
0.0
 10
11.62832407299542
 20
18.16539364994702
 30
0.0
 10
11.63829592691319
 20
18.17047604089841
 30
0.0
 10
11.64889754750602
 20
18.1734973830488
 30
0.0
 10
11.65980986737176
 20
18.17445695029024
 30
0.0
 10
11.67073220874402
 20
18.17324105254267
 30
0.0
 10
11.68135820195083
 20
18.1699722292959
 30
0.0
 10
11.69136576960521
 20
18.16465883924409
 30
0.0
 10
11.70049770920843
 20
18.15753039891985
 30
0.0
 10
11.70844250766244
 20
18.14871628510183
 30
0.0
 10
11.71503283801597
 20
18.13852844516302
 30
0.0
 10
11.71996347075974
 20
18.1272039363916
 30
0.0
 10
11.72362086887314
 20
18.11409065635761
 30
0.0
 10
11.72412138954243
 20
18.10461565556002
 30
0.0
 10
11.72439964309714
 20
18.09934823542215
 30
0.0
  0
LINE
  5
A1
330
1F
100
AcDbEntity
  8
0
  6
Continuous
 62
     7
370
    25
100
AcDbLine
 10
13.0266534026
 20
18.2868482354
 30
0.0
 11
15.7616534026
 21
18.2868482354
 31
0.0
  0
LINE
  5
A2
330
1F
100
AcDbEntity
  8
0
  6
Continuous
 62
     7
370
    25
100
AcDbLine
 10
10.2916534026
 20
18.2868482354
 30
0.0
 11
13.0266534026
 21
18.2868482354
 31
0.0
  0
LINE
  5
A3
330
1F
100
AcDbEntity
  8
0
  6
Continuous
 62
     7
370
    25
100
AcDbLine
 10
15.7616534026
 20
21.1708482354
 30
0.0
 11
10.2916534026
 21
21.1708482354
 31
0.0
  0
LINE
  5
A4
330
1F
100
AcDbEntity
  8
0
  6
Continuous
 62
     7
370
    25
100
AcDbLine
 10
15.7616534026
 20
26.9808482354
 30
0.0
 11
10.2916534026
 21
26.9808482354
 31
0.0
  0
SPLINE
  5
A5
330
1F
100
AcDbEntity
  8
0
  6
Continuous
 62
     7
370
    25
100
AcDbSpline
210
0.0
220
0.0
230
1.0
 70
     8
 71
     3
 72
    17
 73
    13
 74
     0
 42
0.00000001
 43
0.00000001
 40
0.0
 40
0.0
 40
0.0
 40
0.0
 40
0.1058211910947598
 40
0.2147119031332272
 40
0.3205328939303329
 40
0.4294213384997008
 40
0.5352670673468353
 40
0.6441813243452825
 40
0.7500423319016293
 40
0.8589747864215298
 40
0.9648087201747335
 40
1.0
 40
1.0
 40
1.0
 40
1.0
 10
15.76063171957476
 20
21.35834823542213
 30
0.0
 10
15.76063721311987
 20
21.36249009610264
 30
0.0
 10
15.76064835955956
 20
21.37089395907208
 30
0.0
 10
15.76073566296443
 20
21.3830901875927
 30
0.0
 10
15.76086559486944
 20
21.3946922062707
 30
0.0
 10
15.76102660258692
 20
21.40516271719665
 30
0.0
 10
15.76120186629192
 20
21.41439769809621
 30
0.0
 10
15.76136882244373
 20
21.42195596910923
 30
0.0
 10
15.76151263956721
 20
21.42781044673555
 30
0.0
 10
15.76160962397226
 20
21.43149643353886
 30
0.0
 10
15.7616560557675
 20
21.43319566833575
 30
0.0
 10
15.76164871625733
 20
21.43292635765759
 30
0.0
 10
15.76164688476387
 20
21.43285915416117
 30
0.0
  0
SPLINE
  5
A6
330
1F
100
AcDbEntity
  8
0
  6
Continuous
 62
     7
370
    25
100
AcDbSpline
210
0.0
220
0.0
230
1.0
 70
     8
 71
     3
 72
    17
 73
    13
 74
     0
 42
0.00000001
 43
0.00000001
 40
0.0
 40
0.0
 40
0.0
 40
0.0
 40
0.0065116234339939
 40
0.1123347886731804
 40
0.2212269124590897
 40
0.32705105463357
 40
0.4359421690186407
 40
0.5418003731779242
 40
0.6507275374967066
 40
0.7565997595270393
 40
0.8655438077133887
 40
1.0
 40
1.0
 40
1.0
 40
1.0
 10
15.76165173530753
 20
21.28365961337855
 30
0.0
 10
15.76165228651127
 20
21.28363931995016
 30
0.0
 10
15.76166179556163
 20
21.28328922937566
 30
0.0
 10
15.76162642929028
 20
21.28458146521454
 30
0.0
 10
15.76154460177823
 20
21.28765065555888
 30
0.0
 10
15.76141012057123
 20
21.29300512340305
 30
0.0
 10
15.76124840404968
 20
21.30009328346937
 30
0.0
 10
15.76107295833989
 20
21.30892465737161
 30
0.0
 10
15.76090653512135
 20
21.31906947179678
 30
0.0
 10
15.76076663553793
 20
21.33042983615659
 30
0.0
 10
15.76065644354947
 20
21.34354722313291
 30
0.0
 10
15.76064051733817
 20
21.35308145263942
 30
0.0
 10
15.76063171957476
 20
21.35834823542213
 30
0.0
  0
SPLINE
  5
A7
330
1F
100
AcDbEntity
  8
0
  6
Continuous
 62
     7
370
    25
100
AcDbSpline
210
0.0
220
0.0
230
1.0
 70
    11
 71
     3
 72
    44
 73
    40
 74
     0
 42
0.00000001
 43
0.00000001
 40
0.0
 40
0.0
 40
0.0
 40
0.0
 40
0.0268407075036883
 40
0.0536814436170611
 40
0.0805218400162987
 40
0.1073622775571859
 40
0.1342090195496325
 40
0.1610557510294767
 40
0.1879066918425195
 40
0.2147575868473731
 40
0.2416016629618374
 40
0.2684457294808967
 40
0.2952825965407945
 40
0.3221195051029225
 40
0.3489600629385077
 40
0.3758006486318385
 40
0.402650040092611
 40
0.4294994022402083
 40
0.4563489875144729
 40
0.4831985319786928
 40
0.5100393597322491
 40
0.5368801989115163
 40
0.5637169903472941
 40
0.5905538275122073
 40
0.617397601252047
 40
0.6442413836811278
 40
0.6710922612288728
 40
0.6979430968125282
 40
0.7247901131574486
 40
0.7516371023785241
 40
0.7784753233244001
 40
0.8053135742610149
 40
0.8321517896325004
 40
0.8589900452760634
 40
0.885837050467988
 40
0.9126840433799098
 40
0.9395349242133754
 40
0.9663857592584164
 40
1.0
 40
1.0
 40
1.0
 40
1.0
 10
11.59492884523133
 20
21.35834823542213
 30
0.0
 10
11.5951071873673
 20
21.36254956470531
 30
0.0
 10
11.59546387182932
 20
21.37095222774989
 30
0.0
 10
11.59825040588054
 20
21.38320565156202
 30
0.0
 10
11.60265747357957
 20
21.39473883747352
 30
0.0
 10
11.60866614331212
 20
21.40526130323664
 30
0.0
 10
11.61613023286604
 20
21.4144258273481
 30
0.0
 10
11.62480346646043
 20
21.42203266128537
 30
0.0
 10
11.63448939206793
 20
21.42779493566145
 30
0.0
 10
11.64488335425137
 20
21.4316260879106
 30
0.0
 10
11.65571816836439
 20
21.43333392653857
 30
0.0
 10
11.66667462301452
 20
21.43295725456851
 30
0.0
 10
11.67744178176939
 20
21.43042011029971
 30
0.0
 10
11.68772481733423
 20
21.42588083117764
 30
0.0
 10
11.69720233038393
 20
21.41938629072572
 30
0.0
 10
11.70563762442115
 20
21.41119469106138
 30
0.0
 10
11.71273467015118
 20
21.40147149155797
 30
0.0
 10
11.71834281332008
 20
21.39054797837473
 30
0.0
 10
11.72222899738097
 20
21.37869106485135
 30
0.0
 10
11.72435027555382
 20
21.36626943055122
 30
0.0
 10
11.72456768770252
 20
21.35361955951748
 30
0.0
 10
11.72295353854735
 20
21.34110319787015
 30
0.0
 10
11.71947917769545
 20
21.32908712644319
 30
0.0
 10
11.7143213183591
 20
21.31788394994722
 30
0.0
 10
11.70756355186768
 20
21.30785168088352
 30
0.0
 10
11.69946420614847
 20
21.29922126375234
 30
0.0
 10
11.69020908649208
 20
21.29230282089728
 30
0.0
 10
11.68010833351794
 20
21.28722042994589
 30
0.0
 10
11.66942616169384
 20
21.2841990877955
 30
0.0
 10
11.65848689556522
 20
21.28323952055408
 30
0.0
 10
11.64759849532412
 20
21.28445541830163
 30
0.0
 10
11.63705924644623
 20
21.28772424154838
 30
0.0
 10
11.627185179038
 20
21.2930376316002
 30
0.0
 10
11.61821570001726
 20
21.30016607192443
 30
0.0
 10
11.61044548787436
 20
21.30898018574247
 30
0.0
 10
11.60402245064259
 20
21.31916802568129
 30
0.0
 10
11.59923018759934
 20
21.3304925344527
 30
0.0
 10
11.59568318178881
 20
21.34360581448668
 30
0.0
 10
11.59519836728547
 20
21.35308081528427
 30
0.0
 10
11.59492884523133
 20
21.35834823542213
 30
0.0
  0
SPLINE
  5
A8
330
1F
100
AcDbEntity
  8
0
  6
Continuous
 62
     7
370
    25
100
AcDbSpline
210
0.0
220
0.0
230
1.0
 70
     8
 71
     3
 72
    12
 73
     8
 74
     0
 42
0.00000001
 43
0.00000001
 40
0.0
 40
0.0
 40
0.0
 40
0.0
 40
0.0700658257673848
 40
0.300432355251921
 40
0.5308348191771886
 40
0.7653947321356094
 40
1.0
 40
1.0
 40
1.0
 40
1.0
 10
8.771653402634403
 20
19.97884823542212
 30
0.0
 10
8.77160311392421
 20
19.98477547158062
 30
0.0
 10
8.771387483044533
 20
20.01019062225824
 30
0.0
 10
8.768004734622325
 20
20.05505874703721
 30
0.0
 10
8.758780920852043
 20
20.1133708673202
 30
0.0
 10
8.745188992031798
 20
20.17142250873793
 30
0.0
 10
8.733060190777694
 20
20.20970509291566
 30
0.0
 10
8.726995203895878
 20
20.22884823542211
 30
0.0
  0
SPLINE
  5
A9
330
1F
100
AcDbEntity
  8
0
  6
Continuous
 62
     7
370
    25
100
AcDbSpline
210
0.0
220
0.0
230
1.0
 70
     8
 71
     3
 72
    11
 73
     7
 74
     0
 42
0.00000001
 43
0.00000001
 40
0.0
 40
0.0
 40
0.0
 40
0.0
 40
0.2477111816679812
 40
0.4953654927331131
 40
0.7477052806358059
 40
1.0
 40
1.0
 40
1.0
 40
1.0
 10
8.726995203895902
 20
19.72884823542212
 30
0.0
 10
8.733388097229472
 20
19.7490645663999
 30
0.0
 10
8.746172416188559
 20
19.7894925870029
 30
0.0
 10
8.760232465002332
 20
19.85160528089287
 30
0.0
 10
8.769789448786181
 20
19.91479938819797
 30
0.0
 10
8.771032121679065
 20
19.95749989086429
 30
0.0
 10
8.771653402634403
 20
19.97884823542212
 30
0.0
  0
LINE
  5
AA
330
1F
100
AcDbEntity
  8
0
  6
Continuous
 62
     7
370
    25
100
AcDbLine
 10
8.7269952039
 20
19.7288482354
 30
0.0
 11
8.5263116014
 21
19.7288482354
 31
0.0
  0
SPLINE
  5
AB
330
1F
100
AcDbEntity
  8
0
  6
Continuous
 62
     7
370
    25
100
AcDbSpline
210
0.0
220
0.0
230
1.0
 70
     8
 71
     3
 72
    12
 73
     8
 74
     0
 42
0.00000001
 43
0.00000001
 40
0.0
 40
0.0
 40
0.0
 40
0.0
 40
0.070065825767379
 40
0.3004323552519231
 40
0.5308348191772005
 40
0.7653947321356173
 40
1.0
 40
1.0
 40
1.0
 40
1.0
 10
8.481653402634421
 20
19.97884823542211
 30
0.0
 10
8.481703691344613
 20
19.97292099926362
 30
0.0
 10
8.481919322224284
 20
19.94750584858601
 30
0.0
 10
8.485302070646505
 20
19.90263772380703
 30
0.0
 10
8.494525884416799
 20
19.84432560352403
 30
0.0
 10
8.508117813237021
 20
19.78627396210632
 30
0.0
 10
8.520246614491116
 20
19.7479913779286
 30
0.0
 10
8.526311601372923
 20
19.72884823542215
 30
0.0
  0
SPLINE
  5
AC
330
1F
100
AcDbEntity
  8
0
  6
Continuous
 62
     7
370
    25
100
AcDbSpline
210
0.0
220
0.0
230
1.0
 70
     8
 71
     3
 72
    11
 73
     7
 74
     0
 42
0.00000001
 43
0.00000001
 40
0.0
 40
0.0
 40
0.0
 40
0.0
 40
0.2477111816679828
 40
0.4953654927331155
 40
0.7477052806358078
 40
1.0
 40
1.0
 40
1.0
 40
1.0
 10
8.526311601372923
 20
20.22884823542212
 30
0.0
 10
8.51991870803935
 20
20.20863190444434
 30
0.0
 10
8.507134389080264
 20
20.16820388384133
 30
0.0
 10
8.493074340266496
 20
20.10609118995135
 30
0.0
 10
8.483517356482643
 20
20.04289708264625
 30
0.0
 10
8.48227468358976
 20
20.00019657997995
 30
0.0
 10
8.481653402634421
 20
19.97884823542211
 30
0.0
  0
LINE
  5
AD
330
1F
100
AcDbEntity
  8
0
  6
Continuous
 62
     7
370
    25
100
AcDbLine
 10
8.7269952039
 20
20.2288482354
 30
0.0
 11
8.5263116014
 21
20.2288482354
 31
0.0
  0
SPLINE
  5
AE
330
1F
100
AcDbEntity
  8
0
  6
Continuous
 62
     7
370
    25
100
AcDbSpline
210
0.0
220
0.0
230
1.0
 70
     8
 71
     3
 72
    11
 73
     7
 74
     0
 42
0.00000001
 43
0.00000001
 40
0.0
 40
0.0
 40
0.0
 40
0.0
 40
0.2477111816679889
 40
0.4953654927331314
 40
0.7477052806358184
 40
0.9999999999999999
 40
0.9999999999999999
 40
0.9999999999999999
 40
0.9999999999999999
 10
8.526311601372923
 20
19.72884823542215
 30
0.0
 10
8.519918708039356
 20
19.70863190444436
 30
0.0
 10
8.507134389080278
 20
19.66820388384136
 30
0.0
 10
8.493074340266531
 20
19.60609118995137
 30
0.0
 10
8.483517356482652
 20
19.54289708264629
 30
0.0
 10
8.482274683589754
 20
19.50019657997999
 30
0.0
 10
8.48165340263441
 20
19.47884823542216
 30
0.0
  0
LINE
  5
AF
330
1F
100
AcDbEntity
  8
0
  6
Continuous
 62
     7
370
    25
100
AcDbLine
 10
8.4816534026
 20
19.4788482354
 30
0.0
 11
8.4816534026
 21
19.9788482354
 31
0.0
  0
SPLINE
  5
B0
330
1F
100
AcDbEntity
  8
0
  6
Continuous
 62
     7
370
    25
100
AcDbSpline
210
0.0
220
0.0
230
1.0
 70
     8
 71
     3
 72
    12
 73
     8
 74
     0
 42
0.00000001
 43
0.00000001
 40
0.0
 40
0.0
 40
0.0
 40
0.0
 40
0.0700658257672401
 40
0.3004323552518184
 40
0.5308348191771303
 40
0.7653947321355822
 40
1.0
 40
1.0
 40
1.0
 40
1.0
 10
8.77165340263441
 20
19.47884823542214
 30
0.0
 10
8.77160311392421
 20
19.48477547158062
 30
0.0
 10
8.771387483044503
 20
19.51019062225823
 30
0.0
 10
8.768004734622318
 20
19.5550587470372
 30
0.0
 10
8.758780920852015
 20
19.6133708673202
 30
0.0
 10
8.745188992031801
 20
19.67142250873793
 30
0.0
 10
8.733060190777708
 20
19.70970509291566
 30
0.0
 10
8.726995203895902
 20
19.72884823542212
 30
0.0
  0
SPLINE
  5
B1
330
1F
100
AcDbEntity
  8
0
  6
Continuous
 62
     7
370
    25
100
AcDbSpline
210
0.0
220
0.0
230
1.0
 70
     8
 71
     3
 72
    11
 73
     7
 74
     0
 42
0.00000001
 43
0.00000001
 40
0.0
 40
0.0
 40
0.0
 40
0.0
 40
0.2477111816679865
 40
0.4953654927331276
 40
0.7477052806358158
 40
1.0
 40
1.0
 40
1.0
 40
1.0
 10
8.726995203895918
 20
19.22884823542214
 30
0.0
 10
8.733388097229485
 20
19.24906456639993
 30
0.0
 10
8.74617241618856
 20
19.28949258700293
 30
0.0
 10
8.760232465002302
 20
19.35160528089292
 30
0.0
 10
8.769789448786174
 20
19.414799388198
 30
0.0
 10
8.771032121679067
 20
19.45749989086431
 30
0.0
 10
8.77165340263441
 20
19.47884823542214
 30
0.0
  0
LINE
  5
B2
330
1F
100
AcDbEntity
  8
0
  6
Continuous
 62
     7
370
    25
100
AcDbLine
 10
8.7269952039
 20
19.2288482354
 30
0.0
 11
8.5263116014
 21
19.2288482354
 31
0.0
  0
SPLINE
  5
B3
330
1F
100
AcDbEntity
  8
0
  6
Continuous
 62
     7
370
    25
100
AcDbSpline
210
0.0
220
0.0
230
1.0
 70
     8
 71
     3
 72
    12
 73
     8
 74
     0
 42
0.00000001
 43
0.00000001
 40
0.0
 40
0.0
 40
0.0
 40
0.0
 40
0.0700658257676376
 40
0.3004323552521195
 40
0.5308348191773382
 40
0.7653947321356863
 40
1.0
 40
1.0
 40
1.0
 40
1.0
 10
8.48165340263441
 20
19.47884823542216
 30
0.0
 10
8.481703691344604
 20
19.47292099926364
 30
0.0
 10
8.481919322224295
 20
19.44750584858601
 30
0.0
 10
8.48530207064652
 20
19.40263772380701
 30
0.0
 10
8.49452588441683
 20
19.34432560352403
 30
0.0
 10
8.508117813237044
 20
19.28627396210631
 30
0.0
 10
8.520246614491136
 20
19.24799137792859
 30
0.0
 10
8.526311601372939
 20
19.22884823542214
 30
0.0
  0
SPLINE
  5
B4
330
1F
100
AcDbEntity
  8
0
  6
Continuous
 62
     7
370
    25
100
AcDbSpline
210
0.0
220
0.0
230
1.0
 70
    24
 71
     3
 72
    12
 73
     8
 74
     0
 42
0.00000001
 43
0.00000001
 40
0.0
 40
0.0
 40
0.0
 40
0.0
 40
0.2571672098781969
 40
0.4417507913190711
 40
0.6263150979094807
 40
0.8131629646470595
 40
0.9999999999999999
 40
0.9999999999999999
 40
0.9999999999999999
 40
0.9999999999999999
 10
8.52631160137294
 20
19.22884823542214
 30
0.0
 10
8.519684034091146
 20
19.22884823542214
 30
0.0
 10
8.50829948357773
 20
19.22884823542214
 30
0.0
 10
8.4961220981561
 20
19.22884823542215
 30
0.0
 10
8.48794907929797
 20
19.22884823542216
 30
0.0
 10
8.482671615651588
 20
19.22884823542214
 30
0.0
 10
8.481992800414911
 20
19.22884823542213
 30
0.0
 10
8.48165340263442
 20
19.22884823542213
 30
0.0
  0
LINE
  5
B5
330
1F
100
AcDbEntity
  8
0
  6
Continuous
 62
     7
370
    25
100
AcDbLine
 10
8.4816534026
 20
19.2288482354
 30
0.0
 11
8.4816534026
 21
19.4788482354
 31
0.0
  0
SPLINE
  5
B6
330
1F
100
AcDbEntity
  8
0
  6
Continuous
 62
     7
370
    25
100
AcDbSpline
210
0.0
220
0.0
230
1.0
 70
    24
 71
     3
 72
    12
 73
     8
 74
     0
 42
0.00000001
 43
0.00000001
 40
0.0
 40
0.0
 40
0.0
 40
0.0
 40
0.1844594158385608
 40
0.3689290155221907
 40
0.5558708255781105
 40
0.7428329130534359
 40
1.0
 40
1.0
 40
1.0
 40
1.0
 10
8.771653402634419
 20
19.22884823542214
 30
0.0
 10
8.771322661435502
 20
19.22884823542214
 30
0.0
 10
8.77066116077773
 20
19.22884823542215
 30
0.0
 10
8.765471914774318
 20
19.22884823542216
 30
0.0
 10
8.757319040672929
 20
19.22884823542214
 30
0.0
 10
8.74506787435441
 20
19.22884823542213
 30
0.0
 10
8.733622497197162
 20
19.22884823542214
 30
0.0
 10
8.726995203895918
 20
19.22884823542214
 30
0.0
  0
SPLINE
  5
B7
330
1F
100
AcDbEntity
  8
0
  6
Continuous
 62
     7
370
    25
100
AcDbSpline
210
0.0
220
0.0
230
1.0
 70
    24
 71
     3
 72
    12
 73
     8
 74
     0
 42
0.00000001
 43
0.00000001
 40
0.0
 40
0.0
 40
0.0
 40
0.0
 40
0.2571672098781166
 40
0.4417507913190081
 40
0.6263150979094338
 40
0.813162964647035
 40
1.0
 40
1.0
 40
1.0
 40
1.0
 10
8.726995203895878
 20
20.22884823542211
 30
0.0
 10
8.73362277117768
 20
20.22884823542213
 30
0.0
 10
8.74500732169111
 20
20.22884823542216
 30
0.0
 10
8.75718470711274
 20
20.22884823542213
 30
0.0
 10
8.76535772597088
 20
20.2288482354221
 30
0.0
 10
8.770635189617245
 20
20.22884823542213
 30
0.0
 10
8.771314004853913
 20
20.22884823542214
 30
0.0
 10
8.771653402634403
 20
20.22884823542214
 30
0.0
  0
SPLINE
  5
B8
330
1F
100
AcDbEntity
  8
0
  6
Continuous
 62
     7
370
    25
100
AcDbSpline
210
0.0
220
0.0
230
1.0
 70
    24
 71
     3
 72
    12
 73
     8
 74
     0
 42
0.00000001
 43
0.00000001
 40
0.0
 40
0.0
 40
0.0
 40
0.0
 40
0.1844594158385604
 40
0.3689290155221896
 40
0.5558708255781125
 40
0.7428329130534427
 40
1.0
 40
1.0
 40
1.0
 40
1.0
 10
8.481653402634393
 20
20.22884823542216
 30
0.0
 10
8.481984143833312
 20
20.22884823542215
 30
0.0
 10
8.482645644491084
 20
20.22884823542214
 30
0.0
 10
8.487834890494494
 20
20.2288482354221
 30
0.0
 10
8.495987764595892
 20
20.22884823542213
 30
0.0
 10
8.50823893091442
 20
20.22884823542214
 30
0.0
 10
8.519684308071673
 20
20.22884823542213
 30
0.0
 10
8.526311601372923
 20
20.22884823542212
 30
0.0
  0
LINE
  5
B9
330
1F
100
AcDbEntity
  8
0
  6
Continuous
 62
     7
370
    25
100
AcDbLine
 10
8.4816534026
 20
19.9788482354
 30
0.0
 11
8.4816534026
 21
20.2288482354
 31
0.0
  0
LINE
  5
BA
330
1F
100
AcDbEntity
  8
0
  6
Continuous
 62
     7
370
    25
100
AcDbLine
 10
9.0966534026
 20
19.7288482354
 30
0.0
 11
9.0966534026
 21
22.2138482354
 31
0.0
  0
LINE
  5
BB
330
1F
100
AcDbEntity
  8
0
  6
Continuous
 62
     7
370
    25
100
AcDbLine
 10
9.0966534026
 20
17.2438482354
 30
0.0
 11
9.0966534026
 21
19.7288482354
 31
0.0
  0
LINE
  5
BC
330
1F
100
AcDbEntity
  8
0
  6
Continuous
 62
     7
370
    25
100
AcDbLine
 10
9.1466534026
 20
19.7288482354
 30
0.0
 11
9.1466534026
 21
17.2938482354
 31
0.0
  0
LINE
  5
BD
330
1F
100
AcDbEntity
  8
0
  6
Continuous
 62
     7
370
    25
100
AcDbLine
 10
9.1466534026
 20
22.1638482354
 30
0.0
 11
9.1466534026
 21
19.7288482354
 31
0.0
  0
LINE
  5
BE
330
1F
100
AcDbEntity
  8
0
  6
Continuous
 62
     7
370
    25
100
AcDbLine
 10
8.7716534026
 20
19.7288482354
 30
0.0
 11
8.7716534026
 21
22.2138482354
 31
0.0
  0
LINE
  5
BF
330
1F
100
AcDbEntity
  8
0
  6
Continuous
 62
     7
370
    25
100
AcDbLine
 10
8.7716534026
 20
17.2438482354
 30
0.0
 11
8.7716534026
 21
19.7288482354
 31
0.0
  0
SPLINE
  5
C0
330
1F
100
AcDbEntity
  8
0
  6
Continuous
 62
     7
370
    25
100
AcDbSpline
210
0.0
220
0.0
230
1.0
 70
     8
 71
     3
 72
    25
 73
    21
 74
     0
 42
0.00000001
 43
0.00000001
 40
0.0
 40
0.0
 40
0.0
 40
0.0
 40
0.0369232689115348
 40
0.0934049153846102
 40
0.1498874083382394
 40
0.2079523888168153
 40
0.2660183495232551
 40
0.3235668461495535
 40
0.3811159344194597
 40
0.4402604430917
 40
0.4994049711666754
 40
0.5582589970666644
 40
0.617112421952184
 40
0.6776989254109844
 40
0.7382843378644423
 40
0.7966785562473385
 40
0.8550718747478743
 40
0.9152518307421758
 40
0.9754312680363509
 40
1.0
 40
1.0
 40
1.0
 40
1.0
 10
10.37165340263441
 20
19.63208014925733
 30
0.0
 10
10.37118875631718
 20
19.62055776538411
 30
0.0
 10
10.370013338993
 20
19.59140955282238
 30
0.0
 10
10.3672345290693
 20
19.54539077087104
 30
0.0
 10
10.36321745918546
 20
19.49410261164664
 30
0.0
 10
10.35831816203658
 20
19.44398778269734
 30
0.0
 10
10.3527035090235
 20
19.39555251278388
 30
0.0
 10
10.34656565162115
 20
19.34957246288685
 30
0.0
 10
10.3400258963339
 20
19.30588667765515
 30
0.0
 10
10.33322755207415
 20
19.26474421280837
 30
0.0
 10
10.32636810642648
 20
19.22654627801565
 30
0.0
 10
10.31970030208261
 20
19.19193404312566
 30
0.0
 10
10.31333700603906
 20
19.1607837883649
 30
0.0
 10
10.3074677875028
 20
19.13343318565014
 30
0.0
 10
10.30233174135452
 20
19.11046585100951
 30
0.0
 10
10.29812360171291
 20
19.09221617718577
 30
0.0
 10
10.29484750571738
 20
19.07835751547519
 30
0.0
 10
10.2926841739658
 20
19.06933908520398
 30
0.0
 10
10.2916485149355
 20
19.06507974239926
 30
0.0
 10
10.29175442470467
 20
19.06551390776466
 30
0.0
 10
10.29178512824379
 20
19.06563977352181
 30
0.0
  0
SPLINE
  5
C1
330
1F
100
AcDbEntity
  8
0
  6
Continuous
 62
     7
370
    25
100
AcDbSpline
210
0.0
220
0.0
230
1.0
 70
     8
 71
     3
 72
    12
 73
     8
 74
     0
 42
0.00000001
 43
0.00000001
 40
0.0
 40
0.0
 40
0.0
 40
0.0
 40
0.043445490501675
 40
0.2800873694592236
 40
0.5167285906463689
 40
0.7583638775673011
 40
1.0
 40
1.0
 40
1.0
 40
1.0
 10
10.3716534026344
 20
19.82561632158697
 30
0.0
 10
10.37175204208937
 20
19.82283365491866
 30
0.0
 10
10.37238795769639
 20
19.80489416849074
 30
0.0
 10
10.37320345684422
 20
19.77157232150238
 30
0.0
 10
10.37354334888688
 20
19.72528040629803
 30
0.0
 10
10.37311397687406
 20
19.67863973317493
 30
0.0
 10
10.37214026127543
 20
19.64760002845103
 30
0.0
 10
10.37165340263441
 20
19.63208014925733
 30
0.0
  0
SPLINE
  5
C2
330
1F
100
AcDbEntity
  8
0
  6
Continuous
 62
     7
370
    25
100
AcDbSpline
210
0.0
220
0.0
230
1.0
 70
     8
 71
     3
 72
    25
 73
    21
 74
     0
 42
0.00000001
 43
0.00000001
 40
0.0
 40
0.0
 40
0.0
 40
0.0
 40
0.0117975997203689
 40
0.0713205111612835
 40
0.1279255491175151
 40
0.1845311686643198
 40
0.2427544423714041
 40
0.3009786670471407
 40
0.3581040430071948
 40
0.4152302181297143
 40
0.4739342433760003
 40
0.5326387119505053
 40
0.5911987649665058
 40
0.6497586244309229
 40
0.7100035652872656
 40
0.7702476349672086
 40
0.8268868013677678
 40
0.8835250468410247
 40
0.9417629505573261
 40
1.0
 40
1.0
 40
1.0
 40
1.0
 10
10.29174781396686
 20
20.39221213989611
 30
0.0
 10
10.29171906304812
 20
20.39233105573444
 30
0.0
 10
10.29154525394546
 20
20.39304994250596
 30
0.0
 10
10.29234266178531
 20
20.38975610064688
 30
0.0
 10
10.29414260566386
 20
20.3822931633309
 30
0.0
 10
10.29701155199614
 20
20.37020866845965
 30
0.0
 10
10.30083520999724
 20
20.35378024669804
 30
0.0
 10
10.30552373528159
 20
20.33303933608181
 30
0.0
 10
10.31090324508475
 20
20.30838426074361
 30
0.0
 10
10.31686320754263
 20
20.27984586347406
 30
0.0
 10
10.3233080209639
 20
20.2473066917969
 30
0.0
 10
10.33006235698245
 20
20.21093846481285
 30
0.0
 10
10.33688778472578
 20
20.17125428716815
 30
0.0
 10
10.34366263953826
 20
20.12814184948295
 30
0.0
 10
10.3501953984518
 20
20.08171869379194
 30
0.0
 10
10.35616512443622
 20
20.03322286230424
 30
0.0
 10
10.36137067444556
 20
19.98357578539912
 30
0.0
 10
10.36574824637114
 20
19.9327621569981
 30
0.0
 10
10.36934005666831
 20
19.88007589315365
 30
0.0
 10
10.37088229108283
 20
19.84376942334717
 30
0.0
 10
10.3716534026344
 20
19.82561632158697
 30
0.0
  0
LINE
  5
C3
330
1F
100
AcDbEntity
  8
0
  6
Continuous
 62
     7
370
    25
100
AcDbLine
 10
15.7616534026
 20
18.2868482354
 30
0.0
 11
10.2916534026
 21
18.2868482354
 31
0.0
  0
LINE
  5
C4
330
1F
100
AcDbEntity
  8
0
  6
Continuous
 62
     7
370
    25
100
AcDbLine
 10
10.3666534026
 20
19.540293288
 30
0.0
 11
10.3666534026
 21
19.9169506327
 31
0.0
  0
LINE
  5
C5
330
1F
100
AcDbEntity
  8
0
  6
Continuous
 62
     7
370
    25
100
AcDbLine
 10
9.1566534026
 20
20.3838482354
 30
0.0
 11
9.1566534026
 21
19.0738482354
 31
0.0
  0
DIMENSION
  5
C6
330
1F
100
AcDbEntity
  8
0
  6
Continuous
 62
     7
370
    18
100
AcDbDimension
  2
_D
 10
8.7716534026
 20
15.983965696
 30
0.0
 11
6.1307285076
 21
15.983965696
 31
0.0
 70
   160
  1
<>
 71
     2
 42
-1.0
  3
SLDDIMSTYLE0
100
AcDbAlignedDimension
 13
8.4816534026
 23
19.2288482354
 33
0.0
 14
8.7716534026
 24
17.2438482354
 34
0.0
100
AcDbRotatedDimension
  0
DIMENSION
  5
DC
330
1F
100
AcDbEntity
  8
0
  6
Continuous
 62
     7
370
    18
100
AcDbDimension
  2
_D_1
 10
9.1466534026
 20
23.156606193
 30
0.0
 11
6.1307285076
 21
23.156606193
 31
0.0
 70
   160
  1
<>
 71
     2
 42
-1.0
  3
SLDDIMSTYLE0
100
AcDbAlignedDimension
 13
8.7716534026
 23
22.2138482354
 33
0.0
 14
9.1466534026
 24
22.1638482354
 34
0.0
100
AcDbRotatedDimension
  0
DIMENSION
  5
F0
330
1F
100
AcDbEntity
  8
0
  6
Continuous
 62
     7
370
    18
100
AcDbDimension
  2
_D_2
 10
15.7616534026
 20
10.9020450858
 30
0.0
 11
12.2666534026
 21
10.9020450858
 31
0.0
 70
   160
  1
<>
 71
     2
 42
-1.0
  3
SLDDIMSTYLE1
100
AcDbAlignedDimension
 13
8.7716534026
 23
17.2438482354
 33
0.0
 14
15.7616534026
 24
18.2868482354
 34
0.0
100
AcDbRotatedDimension
  0
DIMENSION
  5
105
330
1F
100
AcDbEntity
  8
0
  6
Continuous
 62
     7
370
    18
100
AcDbDimension
  2
_D_3
 10
17.3364565522
 20
26.9808482354
 30
0.0
 11
17.3364565522
 21
19.7288482354
 31
0.0
 70
   160
  1
<>
 71
     2
 42
-1.0
  3
SLDDIMSTYLE2
100
AcDbAlignedDimension
 13
15.7616534026
 23
12.4768482354
 33
0.0
 14
15.7616534026
 24
26.9808482354
 34
0.0
 50
90.0
100
AcDbRotatedDimension
  0
DIMENSION
  5
11A
330
1F
100
AcDbEntity
  8
0
  6
Continuous
 62
     7
370
    18
100
AcDbDimension
  2
_D_4
 10
15.7616534026
 20
29.5005332748
 30
0.0
 11
13.0266534026
 21
29.5005332748
 31
0.0
 70
   160
  1
%%c<>
 71
     2
 42
-1.0
  3
SLDDIMSTYLE2
100
AcDbAlignedDimension
 13
10.2916534026
 23
26.9808482354
 33
0.0
 14
15.7616534026
 24
26.9808482354
 34
0.0
100
AcDbRotatedDimension
  0
LINE
  5
12D
330
1F
100
AcDbEntity
  8
0
  6
Continuous
 62
     7
370
    25
100
AcDbLine
 10
35.1936196069
 20
20.8131531929
 30
0.0
 11
35.2030783927
 21
20.8204234492
 31
0.0
  0
LINE
  5
12E
330
1F
100
AcDbEntity
  8
0
  6
Continuous
 62
     7
370
    25
100
AcDbLine
 10
35.2220032524
 20
20.9427689214
 30
0.0
 11
35.2155137377
 21
20.952082797
 31
0.0
  0
LINE
  5
12F
330
1F
100
AcDbEntity
  8
0
  6
Continuous
 62
     7
370
    25
100
AcDbLine
 10
35.1937358313
 20
18.1521360199
 30
0.0
 11
35.2030783927
 21
18.1593169433
 31
0.0
  0
LINE
  5
130
330
1F
100
AcDbEntity
  8
0
  6
Continuous
 62
     7
370
    25
100
AcDbLine
 10
35.2220032524
 20
18.2816624155
 30
0.0
 11
35.2153413124
 21
18.2912237592
 31
0.0
  0
LINE
  5
131
330
1F
100
AcDbEntity
  8
0
  6
Continuous
 62
     7
370
    25
100
AcDbLine
 10
30.589103049
 20
20.2090571712
 30
0.0
 11
30.589103049
 21
20.2001257964
 31
0.0
  0
LINE
  5
132
330
1F
100
AcDbEntity
  8
0
  6
Continuous
 62
     7
370
    25
100
AcDbLine
 10
30.6339263327
 20
20.1224811787
 30
0.0
 11
30.6416607112
 21
20.1180147655
 31
0.0
  0
LINE
  5
133
330
1F
100
AcDbEntity
  8
0
  6
Continuous
 62
     7
370
    25
100
AcDbLine
 10
30.589103049
 20
17.5479506653
 30
0.0
 11
30.589103049
 21
17.5390192904
 31
0.0
  0
LINE
  5
134
330
1F
100
AcDbEntity
  8
0
  6
Continuous
 62
     7
370
    25
100
AcDbLine
 10
30.6339263327
 20
17.4613746728
 30
0.0
 11
30.6416607112
 21
17.4569082595
 31
0.0
  0
LINE
  5
135
330
1F
100
AcDbEntity
  8
0
  6
Continuous
 62
     7
370
    25
100
AcDbLine
 10
29.8328706655
 20
18.7826786484
 30
0.0
 11
29.8328706655
 21
14.0385765314
 31
0.0
  0
LINE
  5
136
330
1F
100
AcDbEntity
  8
0
  6
Continuous
 62
     7
370
    25
100
AcDbLine
 10
35.3028706655
 20
14.0385765314
 30
0.0
 11
35.3028706655
 21
18.7826786484
 31
0.0
  0
LINE
  5
137
330
1F
100
AcDbEntity
  8
0
  6
Continuous
 62
     7
370
    25
100
AcDbLine
 10
35.3028706655
 20
21.1375823499
 30
0.0
 11
35.3028706655
 21
25.881684467
 31
0.0
  0
LINE
  5
138
330
1F
100
AcDbEntity
  8
0
  6
Continuous
 62
     7
370
    25
100
AcDbLine
 10
29.8328706655
 20
25.881684467
 30
0.0
 11
29.8328706655
 21
21.1375823499
 31
0.0
  0
LINE
  5
139
330
1F
100
AcDbEntity
  8
0
  6
Continuous
 62
     7
370
    25
100
AcDbLine
 10
35.3111651348
 20
19.5558469346
 30
0.0
 11
35.3465147276
 21
19.5354334146
 31
0.0
  0
LINE
  5
13A
330
1F
100
AcDbEntity
  8
0
  6
Continuous
 62
     7
370
    25
100
AcDbLine
 10
36.5891993409
 20
19.4122410159
 30
0.0
 11
36.8190090447
 21
19.5449073341
 31
0.0
  0
LINE
  5
13B
330
1F
100
AcDbEntity
  8
0
  6
Continuous
 62
     7
370
    25
100
AcDbLine
 10
35.3028706655
 20
20.7827040257
 30
0.0
 11
35.6318472936
 21
20.9726181907
 31
0.0
  0
SPLINE
  5
13C
330
1F
100
AcDbEntity
  8
0
  6
Continuous
 62
     7
370
    25
100
AcDbSpline
210
0.0
220
0.0
230
1.0
 70
     8
 71
     3
 72
    47
 73
    43
 74
     0
 42
0.00000001
 43
0.00000001
 40
0.0
 40
0.0
 40
0.0
 40
0.0
 40
0.0031702171366893
 40
0.0293688975482215
 40
0.0556231418311473
 40
0.0819394681343196
 40
0.1083171210414762
 40
0.1347498610115465
 40
0.1612282351751032
 40
0.1877416728207945
 40
0.2142800305763733
 40
0.2408345008491712
 40
0.2673979850204308
 40
0.2802264481565494
 40
0.2942249324585163
 40
0.3207896971776447
 40
0.3473521739053723
 40
0.3739098849039926
 40
0.4004621735824588
 40
0.4270088623587044
 40
0.4535501099177175
 40
0.4800863054831422
 40
0.5066179925676241
 40
0.5331458153777899
 40
0.5596704821211276
 40
0.5861927406267067
 40
0.6127133627316339
 40
0.6392331347238954
 40
0.6657528517603628
 40
0.6922731576664061
 40
0.7187947471002177
 40
0.7453184261321756
 40
0.7718449988434094
 40
0.7983752609980197
 40
0.8249099893170351
 40
0.8514499240694848
 40
0.8779957420246052
 40
0.9045480158810512
 40
0.9311071551460812
 40
0.9576733221665223
 40
0.9842463158593835
 40
1.0
 40
1.0
 40
1.0
 40
1.0
 10
35.68412096401563
 20
21.01422209492918
 30
0.0
 10
35.68477799768399
 20
21.01486322156813
 30
0.0
 10
35.69086475882995
 20
21.02080261996353
 30
0.0
 10
35.70115414831443
 20
21.03371771056998
 30
0.0
 10
35.71484093772788
 20
21.05302063704477
 30
0.0
 10
35.72701186356709
 20
21.07415165315604
 30
0.0
 10
35.73778808262849
 20
21.09681863658859
 30
0.0
 10
35.74708509525519
 20
21.12100667023505
 30
0.0
 10
35.75488001805078
 20
21.14661637385165
 30
0.0
 10
35.76114100116625
 20
21.17356231263437
 30
0.0
 10
35.76584686379798
 20
21.20174840200048
 30
0.0
 10
35.76898193831123
 20
21.23107499784529
 30
0.0
 10
35.77026907394674
 20
21.25620641093062
 30
0.0
 10
35.77052484371708
 20
21.2770103110048
 30
0.0
 10
35.77024573397638
 20
21.29811214663949
 30
0.0
 10
35.7688788224739
 20
21.32517656578366
 30
0.0
 10
35.76568424426407
 20
21.35802141096846
 30
0.0
 10
35.76093120450987
 20
21.3914712247903
 30
0.0
 10
35.75463810098098
 20
21.4254127197159
 30
0.0
 10
35.74682814976136
 20
21.45973255291788
 30
0.0
 10
35.7375293425881
 20
21.49431612898599
 30
0.0
 10
35.72677435921496
 20
21.52904814937048
 30
0.0
 10
35.71460047594363
 20
21.56381285674762
 30
0.0
 10
35.7010494628374
 20
21.59849439029993
 30
0.0
 10
35.68616746601735
 20
21.63297713367116
 30
0.0
 10
35.67000487281823
 20
21.66714608056302
 30
0.0
 10
35.65261615891335
 20
21.70088720511814
 30
0.0
 10
35.6340597173365
 20
21.73408783495529
 30
0.0
 10
35.61439770865152
 20
21.766636958479
 30
0.0
 10
35.59369585462932
 20
21.79842561819957
 30
0.0
 10
35.57202319268373
 20
21.8293473229825
 30
0.0
 10
35.54945179035008
 20
21.85929845193796
 30
0.0
 10
35.52605650117737
 20
21.8881785798535
 30
0.0
 10
35.50191473459849
 20
21.91589069005543
 30
0.0
 10
35.47710619155099
 20
21.94234170194452
 30
0.0
 10
35.45171258854735
 20
21.96744189593639
 30
0.0
 10
35.42581740909608
 20
21.99110835107081
 30
0.0
 10
35.39950555930941
 20
22.01325328806886
 30
0.0
 10
35.37286341592449
 20
22.03382864452873
 30
0.0
 10
35.34597748030328
 20
22.05266058498204
 30
0.0
 10
35.32261015680016
 20
22.06770429080031
 30
0.0
 10
35.30822479381933
 20
22.07571033515953
 30
0.0
 10
35.30287066549536
 20
22.0786901271136
 30
0.0
  0
LINE
  5
13D
330
1F
100
AcDbEntity
  8
0
  6
Continuous
 62
     7
370
    25
100
AcDbLine
 10
29.8328706655
 20
21.1375823499
 30
0.0
 11
29.8328706655
 21
18.7826786484
 31
0.0
  0
LINE
  5
13E
330
1F
100
AcDbEntity
  8
0
  6
Continuous
 62
     7
370
    25
100
AcDbLine
 10
35.3028706655
 20
18.7826786484
 30
0.0
 11
35.3028706655
 21
21.1375823499
 31
0.0
  0
LWPOLYLINE
  5
13F
330
1F
100
AcDbEntity
  8
0
  6
Continuous
 62
     7
370
    25
100
AcDbPolyline
 90
       32
 70
   128
 43
0.0
 10
35.1974300222
 20
20.8211996962
 10
35.1998789608
 20
20.8194028784
 10
35.2027290651
 20
20.8201703928
 10
35.2058636514
 20
20.8234708172
 10
35.2091543894
 20
20.8291690319
 10
35.2124665559
 20
20.8370317513
 10
35.2156645504
 20
20.8467370747
 10
35.2186174467
 20
20.8578876651
 10
35.2212043528
 20
20.8700270159
 10
35.2233193605
 20
20.8826581408
 10
35.2248758811
 20
20.8952639199
 10
35.2258101906
 20
20.9073282712
 10
35.226084038
 20
20.9183572788
 10
35.2256862122
 20
20.9278994138
 10
35.2246330001
 20
20.93556402
 10
35.2229675204
 20
20.9410373076
 10
35.220757958
 20
20.9440951995
 10
35.2180947726
 20
20.9446125053
 10
35.2150869954
 20
20.9425680465
 10
35.2118577651
 20
20.9380455233
 10
35.2085392868
 20
20.9312300885
 10
35.2052674194
 20
20.9224007667
 10
35.2021761135
 20
20.9119190314
 10
35.1993919276
 20
20.9002140061
 10
35.1970288464
 20
20.8877648959
 10
35.195183615
 20
20.8750813688
 10
35.1939317772
 20
20.86268269
 10
35.1933245834
 20
20.8510764627
 10
35.1933868923
 20
20.8407378474
 10
35.1941161529
 20
20.832090108
 10
35.1954825091
 20
20.8254872842
 10
35.1974300222
 20
20.8211996962
  0
LINE
  5
140
330
1F
100
AcDbEntity
  8
0
  6
Continuous
 62
     7
370
    25
100
AcDbLine
 10
35.2207451187
 20
20.8943497146
 30
0.0
 11
35.2183774554
 21
20.9252535291
 31
0.0
  0
LINE
  5
141
330
1F
100
AcDbEntity
  8
0
  6
Continuous
 62
     7
370
    25
100
AcDbLine
 10
35.2073101371
 20
20.9129428629
 30
0.0
 11
35.2183774554
 21
20.9252535291
 31
0.0
  0
LINE
  5
142
330
1F
100
AcDbEntity
  8
0
  6
Continuous
 62
     7
370
    25
100
AcDbLine
 10
35.1986104821
 20
20.8697283822
 30
0.0
 11
35.2073101371
 21
20.9129428629
 31
0.0
  0
LINE
  5
143
330
1F
100
AcDbEntity
  8
0
  6
Continuous
 62
     7
370
    25
100
AcDbLine
 10
35.1986104821
 20
20.8697283822
 30
0.0
 11
35.2009781454
 21
20.8388245677
 31
0.0
  0
LINE
  5
144
330
1F
100
AcDbEntity
  8
0
  6
Continuous
 62
     7
370
    25
100
AcDbLine
 10
35.2120454637
 20
20.8511352338
 30
0.0
 11
35.2009781454
 21
20.8388245677
 31
0.0
  0
LINE
  5
145
330
1F
100
AcDbEntity
  8
0
  6
Continuous
 62
     7
370
    25
100
AcDbLine
 10
35.2120454637
 20
20.8511352338
 30
0.0
 11
35.2207451187
 21
20.8943497146
 31
0.0
  0
LINE
  5
146
330
1F
100
AcDbEntity
  8
0
  6
Continuous
 62
     7
370
    25
100
AcDbLine
 10
35.1998909341
 20
20.8530153424
 30
0.0
 11
35.2120454637
 21
20.8511352338
 31
0.0
  0
LINE
  5
147
330
1F
100
AcDbEntity
  8
0
  6
Continuous
 62
     7
370
    25
100
AcDbLine
 10
35.2040858549
 20
20.8969266324
 30
0.0
 11
35.2207451187
 21
20.8943497146
 31
0.0
  0
LWPOLYLINE
  5
148
330
1F
100
AcDbEntity
  8
0
  6
Continuous
 62
     7
370
    25
100
AcDbPolyline
 90
       32
 70
   128
 43
0.0
 10
35.198880529
 20
18.1586876076
 10
35.2015888567
 20
18.1584635525
 10
35.2046283467
 20
18.1607969852
 10
35.2078745619
 20
18.1655923747
 10
35.2111946019
 20
18.1726533971
 10
35.2144525439
 20
18.1816909734
 10
35.2175150073
 20
18.1923351042
 10
35.2202566146
 20
18.2041500174
 10
35.2225651239
 20
18.2166520092
 10
35.2243460247
 20
18.2293292466
 10
35.2255264067
 20
18.2416627219
 10
35.2260579449
 20
18.2531475011
 10
35.225918878
 20
18.2633133962
 10
35.2251148995
 20
18.2717442142
 10
35.2236789244
 20
18.2780947964
 10
35.2216697416
 20
18.2821051491
 10
35.2191696073
 20
18.2836110882
 10
35.2162808773
 20
18.2825509602
 10
35.2131218166
 20
18.278968167
 10
35.2098217575
 20
18.2730093885
 10
35.2065158047
 20
18.2649185778
 10
35.2033393044
 20
18.2550269736
 10
35.2004223029
 20
18.2437395394
 10
35.1978842225
 20
18.2315183841
 10
35.1958289726
 20
18.2188638432
 10
35.1943406954
 20
18.206293995
 10
35.193480321
 20
18.1943234508
 10
35.1932830733
 20
18.1834422858
 10
35.1937570277
 20
18.1740959764
 10
35.1948827804
 20
18.1666671615
 10
35.1966142429
 20
18.1614599777
 10
35.198880529
 20
18.1586876076
  0
LINE
  5
149
330
1F
100
AcDbEntity
  8
0
  6
Continuous
 62
     7
370
    25
100
AcDbLine
 10
35.2211133616
 20
18.2384606371
 30
0.0
 11
35.2173471535
 21
18.2651454152
 31
0.0
  0
LINE
  5
14A
330
1F
100
AcDbEntity
  8
0
  6
Continuous
 62
     7
370
    25
100
AcDbLine
 10
35.2059115923
 20
18.2476173205
 30
0.0
 11
35.2173471535
 21
18.2651454152
 31
0.0
  0
LINE
  5
14B
330
1F
100
AcDbEntity
  8
0
  6
Continuous
 62
     7
370
    25
100
AcDbLine
 10
35.1982422392
 20
18.2034044478
 30
0.0
 11
35.2059115923
 21
18.2476173205
 31
0.0
  0
LINE
  5
14C
330
1F
100
AcDbEntity
  8
0
  6
Continuous
 62
     7
370
    25
100
AcDbLine
 10
35.1982422392
 20
18.2034044478
 30
0.0
 11
35.2020084473
 21
18.1767196697
 31
0.0
  0
LINE
  5
14D
330
1F
100
AcDbEntity
  8
0
  6
Continuous
 62
     7
370
    25
100
AcDbLine
 10
35.2134440085
 20
18.1942477644
 30
0.0
 11
35.2020084473
 21
18.1767196697
 31
0.0
  0
LINE
  5
14E
330
1F
100
AcDbEntity
  8
0
  6
Continuous
 62
     7
370
    25
100
AcDbLine
 10
35.2134440085
 20
18.1942477644
 30
0.0
 11
35.2211133616
 21
18.2384606371
 31
0.0
  0
LINE
  5
14F
330
1F
100
AcDbEntity
  8
0
  6
Continuous
 62
     7
370
    25
100
AcDbLine
 10
35.1992241432
 20
18.1964473468
 30
0.0
 11
35.2134440085
 21
18.1942477644
 31
0.0
  0
LINE
  5
150
330
1F
100
AcDbEntity
  8
0
  6
Continuous
 62
     7
370
    25
100
AcDbLine
 10
35.2047619771
 20
18.240989931
 30
0.0
 11
35.2211133616
 21
18.2384606371
 31
0.0
  0
LWPOLYLINE
  5
151
330
1F
100
AcDbEntity
  8
0
  6
Continuous
 62
     7
370
    25
100
AcDbPolyline
 90
       32
 70
   128
 43
0.0
 10
30.5925223653
 20
20.1783219227
 10
30.5968268157
 20
20.1666168036
 10
30.6026504231
 20
20.1552240107
 10
30.6097547681
 20
20.1446099663
 10
30.6178489982
 20
20.1352092107
 10
30.6266017345
 20
20.1274066118
 10
30.635654639
 20
20.1215216091
 10
30.6446370847
 20
20.1177951352
 10
30.6531813293
 20
20.1163797524
 10
30.6609375704
 20
20.1173334065
 10
30.6675882666
 20
20.1206170551
 10
30.6728611375
 20
20.1260962649
 10
30.6765403112
 20
20.1335467166
 10
30.6784751619
 20
20.1426633878
 10
30.6785864767
 20
20.153073041
 10
30.6768696982
 20
20.1643495035
 10
30.6733951115
 20
20.1760311159
 10
30.6683049668
 20
20.1876396315
 10
30.661807655
 20
20.1986997962
 10
30.6541691769
 20
20.2087588058
 10
30.6457022526
 20
20.217404843
 10
30.6367535192
 20
20.2242839382
 10
30.6276893387
 20
20.2291144604
 10
30.6188807997
 20
20.2316986474
 10
30.610688525
 20
20.2319307023
 10
30.6034479071
 20
20.2298011248
 10
30.5974553778
 20
20.2253971
 10
30.5929562721
 20
20.2188989292
 10
30.5901347837
 20
20.2105726483
 10
30.5891064248
 20
20.2007591361
 10
30.5899132964
 20
20.1898601592
 10
30.5925223653
 20
20.1783219227
  0
ARC
  5
152
330
1F
100
AcDbEntity
  8
0
  6
Continuous
 62
     7
370
    25
100
AcDbCircle
 10
30.6640027002
 20
20.1518432855
 30
0.0
 40
0.0405405135623798
100
AcDbArc
 50
236.5572999226
 51
289.487775668
  0
ARC
  5
153
330
1F
100
AcDbEntity
  8
0
  6
Continuous
 62
     7
370
    25
100
AcDbCircle
 10
30.6289829799
 20
20.2121352072
 30
0.0
 40
0.0399985398812576
100
AcDbArc
 50
135.349513065
 51
184.4134860776
  0
LINE
  5
154
330
1F
100
AcDbEntity
  8
0
  6
Continuous
 62
     7
370
    25
100
AcDbLine
 10
30.6592043295
 20
20.1372836369
 30
0.0
 11
30.663348229
 21
20.1713502699
 31
0.0
  0
LINE
  5
155
330
1F
100
AcDbEntity
  8
0
  6
Continuous
 62
     7
370
    25
100
AcDbLine
 10
30.6380775185
 20
20.2083122923
 30
0.0
 11
30.663348229
 21
20.1713502699
 31
0.0
  0
LINE
  5
156
330
1F
100
AcDbEntity
  8
0
  6
Continuous
 62
     7
370
    25
100
AcDbLine
 10
30.6086629084
 20
20.2112076816
 30
0.0
 11
30.6380775185
 21
20.2083122923
 31
0.0
  0
LINE
  5
157
330
1F
100
AcDbEntity
  8
0
  6
Continuous
 62
     7
370
    25
100
AcDbLine
 10
30.6086629084
 20
20.2112076816
 30
0.0
 11
30.6045190089
 21
20.1771410485
 31
0.0
  0
LINE
  5
158
330
1F
100
AcDbEntity
  8
0
  6
Continuous
 62
     7
370
    25
100
AcDbLine
 10
30.6297897194
 20
20.1401790262
 30
0.0
 11
30.6045190089
 21
20.1771410485
 31
0.0
  0
LINE
  5
159
330
1F
100
AcDbEntity
  8
0
  6
Continuous
 62
     7
370
    25
100
AcDbLine
 10
30.6297897194
 20
20.1401790262
 30
0.0
 11
30.6592043295
 21
20.1372836369
 31
0.0
  0
LINE
  5
15A
330
1F
100
AcDbEntity
  8
0
  6
Continuous
 62
     7
370
    25
100
AcDbLine
 10
30.6618046774
 20
20.158660868
 30
0.0
 11
30.6297897194
 21
20.1401790262
 31
0.0
  0
LINE
  5
15B
330
1F
100
AcDbEntity
  8
0
  6
Continuous
 62
     7
370
    25
100
AcDbLine
 10
30.6438612099
 20
20.1998528178
 30
0.0
 11
30.6045190089
 21
20.1771410485
 31
0.0
  0
LWPOLYLINE
  5
15C
330
1F
100
AcDbEntity
  8
0
  6
Continuous
 62
     7
370
    25
100
AcDbPolyline
 90
       32
 70
   128
 43
0.0
 10
30.6066648886
 20
17.4877903673
 10
30.6143860178
 20
17.4778355095
 10
30.622907428
 20
17.469325987
 10
30.6318802518
 20
17.4626101807
 10
30.6409371407
 20
17.4579630364
 10
30.6497073046
 20
17.4555748089
 10
30.657831692
 20
17.4555432724
 10
30.6649776894
 20
17.457869718
 10
30.6708527389
 20
17.4624589008
 10
30.6752163153
 20
17.469122939
 10
30.6778897733
 20
17.4775890063
 10
30.6787636612
 20
17.4875105008
 10
30.6778022018
 20
17.4984812353
 10
30.6750447576
 20
17.5100520667
 10
30.6706042184
 20
17.5217492837
 10
30.6646623807
 20
17.5330940011
 10
30.6574625038
 20
17.5436217646
 10
30.6492993516
 20
17.5529015664
 10
30.6405071245
 20
17.5605534904
 10
30.6314457773
 20
17.5662642658
 10
30.6224862826
 20
17.5698000929
 10
30.6139954433
 20
17.5710162145
 10
30.6063208752
 20
17.5698628423
 10
30.599776776
 20
17.5663871957
 10
30.5946310621
 20
17.560731568
 10
30.5910943994
 20
17.5531275012
 10
30.5893115794
 20
17.5438863068
 10
30.5893555909
 20
17.5333863202
 10
30.5912246322
 20
17.5220574123
 10
30.5948421844
 20
17.5103633899
 10
30.6000601445
 20
17.4987830075
 10
30.6066648886
 20
17.4877903673
  0
LINE
  5
15D
330
1F
100
AcDbEntity
  8
0
  6
Continuous
 62
     7
370
    25
100
AcDbLine
 10
30.5999455466
 20
17.5786138466
 30
0.0
 11
30.6029720708
 21
17.5810274345
 31
0.0
  0
ARC
  5
15E
330
1F
100
AcDbEntity
  8
0
  6
Continuous
 62
     7
370
    25
100
AcDbCircle
 10
30.6638505381
 20
17.4888064129
 30
0.0
 40
0.0388571822387691
100
AcDbArc
 50
235.1757442362
 51
289.4778375561
  0
ARC
  5
15F
330
1F
100
AcDbEntity
  8
0
  6
Continuous
 62
     7
370
    25
100
AcDbCircle
 10
30.6310969643
 20
17.550350165
 30
0.0
 40
0.0420624121902128
100
AcDbArc
 50
137.7825417669
 51
183.2702803855
  0
LINE
  5
160
330
1F
100
AcDbEntity
  8
0
  6
Continuous
 62
     7
370
    25
100
AcDbLine
 10
30.665507171
 20
17.4901354275
 30
0.0
 11
30.6533027276
 21
17.5311445163
 31
0.0
  0
LINE
  5
161
330
1F
100
AcDbEntity
  8
0
  6
Continuous
 62
     7
370
    25
100
AcDbLine
 10
30.6217291755
 20
17.5541482421
 30
0.0
 11
30.6533027276
 21
17.5311445163
 31
0.0
  0
LINE
  5
162
330
1F
100
AcDbEntity
  8
0
  6
Continuous
 62
     7
370
    25
100
AcDbLine
 10
30.6023600669
 20
17.5361428791
 30
0.0
 11
30.6217291755
 21
17.5541482421
 31
0.0
  0
LINE
  5
163
330
1F
100
AcDbEntity
  8
0
  6
Continuous
 62
     7
370
    25
100
AcDbLine
 10
30.6023600669
 20
17.5361428791
 30
0.0
 11
30.6145645103
 21
17.4951337903
 31
0.0
  0
LINE
  5
164
330
1F
100
AcDbEntity
  8
0
  6
Continuous
 62
     7
370
    25
100
AcDbLine
 10
30.6461380624
 20
17.4721300645
 30
0.0
 11
30.6145645103
 21
17.4951337903
 31
0.0
  0
LINE
  5
165
330
1F
100
AcDbEntity
  8
0
  6
Continuous
 62
     7
370
    25
100
AcDbLine
 10
30.6461380624
 20
17.4721300645
 30
0.0
 11
30.665507171
 21
17.4901354275
 31
0.0
  0
LINE
  5
166
330
1F
100
AcDbEntity
  8
0
  6
Continuous
 62
     7
370
    25
100
AcDbLine
 10
30.6269546945
 20
17.5503410554
 30
0.0
 11
30.6023600669
 21
17.5361428791
 31
0.0
  0
LINE
  5
167
330
1F
100
AcDbEntity
  8
0
  6
Continuous
 62
     7
370
    25
100
AcDbLine
 10
30.6567688233
 20
17.5194978215
 30
0.0
 11
30.6145645103
 21
17.4951337903
 31
0.0
  0
LWPOLYLINE
  5
168
330
1F
100
AcDbEntity
  8
0
  6
Continuous
 62
     7
370
    25
100
AcDbPolyline
 90
      107
 70
   128
 43
0.0
 10
29.8328706655
 20
18.7826786484
 10
29.8335592429
 20
18.747251595
 10
29.8366188879
 20
18.7000463548
 10
29.8421233732
 20
18.6529150817
 10
29.8500677714
 20
18.6058999645
 10
29.8604449713
 20
18.5590430882
 10
29.8732456839
 20
18.512386396
 10
29.8884584508
 20
18.465971652
 10
29.9060696545
 20
18.4198404037
 10
29.9260635306
 20
18.3740339447
 10
29.9484221819
 20
18.328593278
 10
29.9731255943
 20
18.2835590793
 10
30.000151655
 20
18.2389716602
 10
30.0294761719
 20
18.1948709325
 10
30.0610728957
 20
18.1512963723
 10
30.094913543
 20
18.1082869847
 10
30.1309678218
 20
18.065881269
 10
30.1692034588
 20
18.0241171841
 10
30.2095862277
 20
17.9830321143
 10
30.2520799806
 20
17.9426628366
 10
30.2966466798
 20
17.9030454867
 10
30.3432464321
 20
17.8642155277
 10
30.3918375243
 20
17.8262077175
 10
30.4423764609
 20
17.7890560784
 10
30.4948180027
 20
17.752793866
 10
30.5491152074
 20
17.71745354
 10
30.6052194716
 20
17.6830667348
 10
30.6630805744
 20
17.6496642311
 10
30.7226467224
 20
17.6172759288
 10
30.7838645956
 20
17.5859308197
 10
30.846679396
 20
17.555656962
 10
30.9110348956
 20
17.5264814549
 10
30.9768734876
 20
17.4984304145
 10
31.0441362376
 20
17.4715289501
 10
31.1127629362
 20
17.4458011423
 10
31.1826921534
 20
17.4212700209
 10
31.2538612929
 20
17.3979575446
 10
31.3262066487
 20
17.3758845813
 10
31.399663462
 20
17.3550708891
 10
31.474165979
 20
17.3355350992
 10
31.5496475098
 20
17.3172946989
 10
31.6260404882
 20
17.3003660156
 10
31.7032765322
 20
17.2847642028
 10
31.781286505
 20
17.2705032264
 10
31.8600005771
 20
17.2575958518
 10
31.9393482889
 20
17.2460536328
 10
32.0192586133
 20
17.2358869013
 10
32.0996600198
 20
17.2271047579
 10
32.1804805383
 20
17.2197150638
 10
32.2616478234
 20
17.2137244338
 10
32.3430892193
 20
17.2091382303
 10
32.4247318252
 20
17.2059605586
 10
32.5065025596
 20
17.2041942632
 10
32.5883282269
 20
17.203840925
 10
32.6701355818
 20
17.2049008604
 10
32.7518513958
 20
17.2073731207
 10
32.8334025222
 20
17.2112554927
 10
32.9147159615
 20
17.2165445013
 10
32.9957189274
 20
17.223235412
 10
33.0763389111
 20
17.2313222356
 10
33.1565037468
 20
17.2407977334
 10
33.2361416763
 20
17.2516534233
 10
33.3151814127
 20
17.2638795882
 10
33.3935522047
 20
17.277465284
 10
33.4711838999
 20
17.2923983495
 10
33.5480070075
 20
17.3086654178
 10
33.6239527603
 20
17.3262519275
 10
33.6989531766
 20
17.3451421364
 10
33.7729411208
 20
17.3653191352
 10
33.8458503638
 20
17.3867648627
 10
33.9176156419
 20
17.4094601221
 10
33.9881727154
 20
17.433384598
 10
34.0574584263
 20
17.4585168749
 10
34.1254107543
 20
17.4848344559
 10
34.191968873
 20
17.5123137832
 10
34.2570732039
 20
17.5409302591
 10
34.3206654697
 20
17.570658268
 10
34.3826887468
 20
17.6014711993
 10
34.443087516
 20
17.6333414712
 10
34.501807712
 20
17.6662405555
 10
34.5587967725
 20
17.7001390032
 10
34.6140036845
 20
17.7350064704
 10
34.6673790304
 20
17.7708117461
 10
34.7188750319
 20
17.8075227798
 10
34.7684455932
 20
17.84510671
 10
34.8160463418
 20
17.8835298941
 10
34.8616346688
 20
17.9227579381
 10
34.9051697664
 20
17.9627557276
 10
34.9466126647
 20
18.0034874591
 10
34.9859262667
 20
18.0449166723
 10
35.0230753815
 20
18.0870062824
 10
35.0580267556
 20
18.1297186134
 10
35.0907491027
 20
18.1730154322
 10
35.121213132
 20
18.216857982
 10
35.1493915739
 20
18.261207018
 10
35.175259205
 20
18.3060228418
 10
35.1987928702
 20
18.351265337
 10
35.2199715037
 20
18.3968940056
 10
35.2387761478
 20
18.4428680036
 10
35.2551899698
 20
18.4891461783
 10
35.269198277
 20
18.5356871042
 10
35.2807885302
 20
18.582449121
 10
35.2899503545
 20
18.6293903704
 10
35.2966755487
 20
18.6764688336
 10
35.3009580931
 20
18.7236423689
 10
35.302794154
 20
18.7708687496
 10
35.3028706655
 20
18.7826786484
  0
LWPOLYLINE
  5
169
330
1F
100
AcDbEntity
  8
0
  6
Continuous
 62
     7
370
    25
100
AcDbPolyline
 90
      107
 70
   128
 43
0.0
 10
29.8328706655
 20
14.0385765314
 10
29.8335592429
 20
14.003149478
 10
29.8366188879
 20
13.9559442377
 10
29.8421233732
 20
13.9088129646
 10
29.8500677714
 20
13.8617978475
 10
29.8604449713
 20
13.8149409712
 10
29.8732456839
 20
13.768284279
 10
29.8884584508
 20
13.721869535
 10
29.9060696545
 20
13.6757382866
 10
29.9260635306
 20
13.6299318276
 10
29.9484221819
 20
13.584491161
 10
29.9731255943
 20
13.5394569623
 10
30.000151655
 20
13.4948695431
 10
30.0294761719
 20
13.4507688154
 10
30.0610728957
 20
13.4071942552
 10
30.094913543
 20
13.3641848676
 10
30.1309678218
 20
13.321779152
 10
30.1692034588
 20
13.280015067
 10
30.2095862277
 20
13.2389299973
 10
30.2520799806
 20
13.1985607195
 10
30.2966466798
 20
13.1589433697
 10
30.3432464321
 20
13.1201134106
 10
30.3918375243
 20
13.0821056005
 10
30.4423764609
 20
13.0449539613
 10
30.4948180027
 20
13.008691749
 10
30.5491152074
 20
12.973351423
 10
30.6052194716
 20
12.9389646177
 10
30.6630805744
 20
12.905562114
 10
30.7226467224
 20
12.8731738117
 10
30.7838645956
 20
12.8418287026
 10
30.846679396
 20
12.811554845
 10
30.9110348956
 20
12.7823793379
 10
30.9768734876
 20
12.7543282974
 10
31.0441362376
 20
12.7274268331
 10
31.1127629362
 20
12.7016990252
 10
31.1826921534
 20
12.6771679038
 10
31.2538612929
 20
12.6538554276
 10
31.3262066487
 20
12.6317824642
 10
31.399663462
 20
12.6109687721
 10
31.474165979
 20
12.5914329822
 10
31.5496475098
 20
12.5731925818
 10
31.6260404882
 20
12.5562638985
 10
31.7032765322
 20
12.5406620858
 10
31.781286505
 20
12.5264011093
 10
31.8600005771
 20
12.5134937347
 10
31.9393482889
 20
12.5019515157
 10
32.0192586133
 20
12.4917847842
 10
32.0996600198
 20
12.4830026408
 10
32.1804805383
 20
12.4756129468
 10
32.2616478234
 20
12.4696223168
 10
32.3430892193
 20
12.4650361133
 10
32.4247318252
 20
12.4618584416
 10
32.5065025596
 20
12.4600921461
 10
32.5883282269
 20
12.459738808
 10
32.6701355818
 20
12.4607987434
 10
32.7518513958
 20
12.4632710036
 10
32.8334025222
 20
12.4671533756
 10
32.9147159615
 20
12.4724423842
 10
32.9957189274
 20
12.4791332949
 10
33.0763389111
 20
12.4872201186
 10
33.1565037468
 20
12.4966956163
 10
33.2361416763
 20
12.5075513063
 10
33.3151814127
 20
12.5197774712
 10
33.3935522047
 20
12.5333631669
 10
33.4711838999
 20
12.5482962325
 10
33.5480070075
 20
12.5645633007
 10
33.6239527603
 20
12.5821498105
 10
33.6989531766
 20
12.6010400194
 10
33.7729411208
 20
12.6212170182
 10
33.8458503638
 20
12.6426627457
 10
33.9176156419
 20
12.665358005
 10
33.9881727154
 20
12.689282481
 10
34.0574584263
 20
12.7144147578
 10
34.1254107543
 20
12.7407323388
 10
34.191968873
 20
12.7682116661
 10
34.2570732039
 20
12.796828142
 10
34.3206654697
 20
12.8265561509
 10
34.3826887468
 20
12.8573690822
 10
34.443087516
 20
12.8892393541
 10
34.501807712
 20
12.9221384385
 10
34.5587967725
 20
12.9560368861
 10
34.6140036845
 20
12.9909043534
 10
34.6673790304
 20
13.0267096291
 10
34.7188750319
 20
13.0634206627
 10
34.7684455932
 20
13.101004593
 10
34.8160463418
 20
13.139427777
 10
34.8616346688
 20
13.178655821
 10
34.9051697664
 20
13.2186536105
 10
34.9466126647
 20
13.2593853421
 10
34.9859262667
 20
13.3008145552
 10
35.0230753815
 20
13.3429041653
 10
35.0580267556
 20
13.3856164964
 10
35.0907491027
 20
13.4289133151
 10
35.121213132
 20
13.472755865
 10
35.1493915739
 20
13.517104901
 10
35.175259205
 20
13.5619207247
 10
35.1987928702
 20
13.6071632199
 10
35.2199715037
 20
13.6527918885
 10
35.2387761478
 20
13.6987658866
 10
35.2551899698
 20
13.7450440612
 10
35.269198277
 20
13.7915849872
 10
35.2807885302
 20
13.838347004
 10
35.2899503545
 20
13.8852882534
 10
35.2966755487
 20
13.9323667165
 10
35.3009580931
 20
13.9795402518
 10
35.302794154
 20
14.0267666326
 10
35.3028706655
 20
14.0385765314
  0
SPLINE
  5
16A
330
1F
100
AcDbEntity
  8
0
  6
Continuous
 62
     7
370
    25
100
AcDbSpline
210
0.0
220
0.0
230
1.0
 70
    11
 71
     3
 72
    26
 73
    22
 74
     0
 42
0.00000001
 43
0.00000001
 40
0.0
 40
0.0
 40
0.0
 40
0.0
 40
0.0536750643289905
 40
0.1073496429989158
 40
0.1610368245232879
 40
0.2147322126651555
 40
0.2684139093946568
 40
0.3220813954451962
 40
0.3757563163972832
 40
0.4294487206345843
 40
0.4831413779985646
 40
0.5368166456412129
 40
0.5904840298559627
 40
0.6441653367015285
 40
0.6978606434325801
 40
0.7515481785370248
 40
0.8052183088844915
 40
0.8588885589374563
 40
0.9125762604136137
 40
0.9662715254958925
 40
1.0
 40
1.0
 40
1.0
 40
1.0
 10
30.68751228986353
 20
17.48304295528473
 30
0.0
 10
30.68691168381865
 20
17.47650870346758
 30
0.0
 10
30.68571047716325
 20
17.46344025895606
 30
0.0
 10
30.6763744984432
 20
17.45030013456984
 30
0.0
 10
30.66270689017568
 20
17.44400836563226
 30
0.0
 10
30.64577214027279
 20
17.44562971825493
 30
0.0
 10
30.62769085158632
 20
17.4549343494837
 30
0.0
 10
30.6104718854556
 20
17.47089597699334
 30
0.0
 10
30.59601771582046
 20
17.49168473037851
 30
0.0
 10
30.58587356554319
 20
17.51491845440809
 30
0.0
 10
30.58110796346869
 20
17.53793054964212
 30
0.0
 10
30.58221445810852
 20
17.55809674348896
 30
0.0
 10
30.58907580412041
 20
17.5731522494061
 30
0.0
 10
30.60098011060441
 20
17.58143908568045
 30
0.0
 10
30.61667200503483
 20
17.58206922059519
 30
0.0
 10
30.63445321428998
 20
17.57500816922019
 30
0.0
 10
30.65233369079359
 20
17.56107604744185
 30
0.0
 10
30.66830192826178
 20
17.5418078377605
 30
0.0
 10
30.68037452009878
 20
17.51940233576187
 30
0.0
 10
30.68664753276994
 20
17.49895208183552
 30
0.0
 10
30.68727154364356
 20
17.48747201647258
 30
0.0
 10
30.68751228986353
 20
17.48304295528473
 30
0.0
  0
SPLINE
  5
16B
330
1F
100
AcDbEntity
  8
0
  6
Continuous
 62
     7
370
    25
100
AcDbSpline
210
0.0
220
0.0
230
1.0
 70
    11
 71
     3
 72
    26
 73
    22
 74
     0
 42
0.00000001
 43
0.00000001
 40
0.0
 40
0.0
 40
0.0
 40
0.0
 40
0.0536750643289458
 40
0.1073496429989188
 40
0.1610368245232615
 40
0.2147322126651589
 40
0.2684139093946654
 40
0.3220813954451701
 40
0.3757563163972533
 40
0.4294487206345589
 40
0.4831413779985648
 40
0.5368166456411854
 40
0.5904840298559328
 40
0.644165336701511
 40
0.6978606434325673
 40
0.751548178537004
 40
0.8052183088844875
 40
0.8588885589374315
 40
0.9125762604136222
 40
0.9662715254958636
 40
1.0
 40
1.0
 40
1.0
 40
1.0
 10
35.22803765396378
 20
18.26276707423407
 30
0.0
 10
35.22784627521097
 20
18.25544092343245
 30
0.0
 10
35.22746351943697
 20
18.24078868811716
 30
0.0
 10
35.22444184582497
 20
18.2152922503762
 30
0.0
 10
35.21987843766254
 20
18.19077144037732
 30
0.0
 10
35.21399540812146
 20
18.16957748590993
 30
0.0
 10
35.207423960297
 20
18.15423205180315
 30
0.0
 10
35.20088083496023
 20
18.14643416251734
 30
0.0
 10
35.19516726177257
 20
18.14705735829664
 30
0.0
 10
35.19103410982111
 20
18.15601532707296
 30
0.0
 10
35.18905668021051
 20
18.17228512124339
 30
0.0
 10
35.1895178569483
 20
18.19401881660743
 30
0.0
 10
35.19234994869785
 20
18.21876670998181
 30
0.0
 10
35.19715191469431
 20
18.24375800857718
 30
0.0
 10
35.20326950845251
 20
18.26619526857711
 30
0.0
 10
35.2099170744292
 20
18.28356034552527
 30
0.0
 10
35.21630566169448
 20
18.29389465791219
 30
0.0
 10
35.22176616729444
 20
18.29605286945009
 30
0.0
 10
35.22574566814087
 20
18.28969772085718
 30
0.0
 10
35.22776126219607
 20
18.27753517556941
 30
0.0
 10
35.22796070718439
 20
18.26687847684526
 30
0.0
 10
35.22803765396378
 20
18.26276707423407
 30
0.0
  0
LWPOLYLINE
  5
16C
330
1F
100
AcDbEntity
  8
0
  6
Continuous
 62
     7
370
    25
100
AcDbPolyline
 90
      211
 70
   128
 43
0.0
 10
34.501807712
 20
24.7652463741
 10
34.443087516
 20
24.7323472897
 10
34.3826887468
 20
24.7004770178
 10
34.3206654697
 20
24.6696640865
 10
34.2570732039
 20
24.6399360776
 10
34.191968873
 20
24.6113196017
 10
34.1254107543
 20
24.5838402744
 10
34.0574584263
 20
24.5575226934
 10
33.9881727154
 20
24.5323904166
 10
33.9176156419
 20
24.5084659406
 10
33.8458503638
 20
24.4857706812
 10
33.7729411208
 20
24.4643249538
 10
33.6989531766
 20
24.444147955
 10
33.6239527603
 20
24.4252577461
 10
33.5480070075
 20
24.4076712363
 10
33.4711838999
 20
24.3914041681
 10
33.3935522047
 20
24.3764711025
 10
33.3151814127
 20
24.3628854068
 10
33.2361416763
 20
24.3506592419
 10
33.1565037468
 20
24.3398035519
 10
33.0763389111
 20
24.3303280542
 10
32.9957189274
 20
24.3222412305
 10
32.9147159615
 20
24.3155503198
 10
32.8334025222
 20
24.3102613112
 10
32.7518513958
 20
24.3063789392
 10
32.6701355818
 20
24.303906679
 10
32.5883282269
 20
24.3028467435
 10
32.5065025596
 20
24.3032000817
 10
32.4247318252
 20
24.3049663772
 10
32.3430892193
 20
24.3081440489
 10
32.2616478234
 20
24.3127302524
 10
32.1804805383
 20
24.3187208824
 10
32.0996600198
 20
24.3261105764
 10
32.0192586133
 20
24.3348927198
 10
31.9393482889
 20
24.3450594513
 10
31.8600005771
 20
24.3566016703
 10
31.781286505
 20
24.3695090449
 10
31.7032765322
 20
24.3837700214
 10
31.6260404882
 20
24.3993718341
 10
31.5496475098
 20
24.4163005174
 10
31.474165979
 20
24.4345409178
 10
31.399663462
 20
24.4540767076
 10
31.3262066487
 20
24.4748903998
 10
31.2538612929
 20
24.4969633632
 10
31.1826921534
 20
24.5202758394
 10
31.1127629362
 20
24.5448069608
 10
31.0441362376
 20
24.5705347686
 10
30.9768734876
 20
24.597436233
 10
30.9110348956
 20
24.6254872735
 10
30.846679396
 20
24.6546627806
 10
30.7838645956
 20
24.6849366382
 10
30.7226467224
 20
24.7162817473
 10
30.6630805744
 20
24.7486700496
 10
30.6052194716
 20
24.7820725533
 10
30.5491152074
 20
24.8164593586
 10
30.4948180027
 20
24.8517996846
 10
30.4423764609
 20
24.8880618969
 10
30.3918375243
 20
24.9252135361
 10
30.3432464321
 20
24.9632213462
 10
30.2966466798
 20
25.0020513053
 10
30.2520799806
 20
25.0416686551
 10
30.2095862277
 20
25.0820379329
 10
30.1692034588
 20
25.1231230026
 10
30.1309678218
 20
25.1648870875
 10
30.094913543
 20
25.2072928032
 10
30.0610728957
 20
25.2503021908
 10
30.0294761719
 20
25.293876751
 10
30.000151655
 20
25.3379774787
 10
29.9731255943
 20
25.3825648979
 10
29.9484221819
 20
25.4275990966
 10
29.9260635306
 20
25.4730397632
 10
29.9060696545
 20
25.5188462222
 10
29.8884584508
 20
25.5649774706
 10
29.8732456839
 20
25.6113922146
 10
29.8604449713
 20
25.6580489068
 10
29.8500677714
 20
25.704905783
 10
29.8421233732
 20
25.7519209002
 10
29.8366188879
 20
25.7990521733
 10
29.8335592429
 20
25.8462574136
 10
29.832947177
 20
25.8934943658
 10
29.8347832379
 20
25.9407207466
 10
29.8390657822
 20
25.9878942819
 10
29.8457909765
 20
26.034972745
 10
29.8549528008
 20
26.0819139944
 10
29.866543054
 20
26.1286760112
 10
29.8805513612
 20
26.1752169371
 10
29.8969651832
 20
26.2214951118
 10
29.9157698273
 20
26.2674691098
 10
29.9369484608
 20
26.3130977784
 10
29.960482126
 20
26.3583402737
 10
29.9863497571
 20
26.4031560974
 10
30.014528199
 20
26.4475051334
 10
30.0449922283
 20
26.4913476833
 10
30.0777145754
 20
26.534644502
 10
30.1126659495
 20
26.577356833
 10
30.1498150643
 20
26.6194464431
 10
30.1891286663
 20
26.6608756563
 10
30.2305715646
 20
26.7016073879
 10
30.2741066622
 20
26.7416051773
 10
30.3196949891
 20
26.7808332213
 10
30.3672957378
 20
26.8192564054
 10
30.4168662991
 20
26.8568403356
 10
30.4683623006
 20
26.8935513693
 10
30.5217376464
 20
26.929356645
 10
30.5769445584
 20
26.9642241122
 10
30.633933619
 20
26.9981225599
 10
30.692653815
 20
27.0310216442
 10
30.7530525842
 20
27.0628919162
 10
30.8150758612
 20
27.0937048474
 10
30.8786681271
 20
27.1234328563
 10
30.943772458
 20
27.1520493322
 10
31.0103305767
 20
27.1795286595
 10
31.0782829047
 20
27.2058462405
 10
31.1475686156
 20
27.2309785174
 10
31.2181256891
 20
27.2549029933
 10
31.2898909672
 20
27.2775982527
 10
31.3628002102
 20
27.2990439802
 10
31.4367881544
 20
27.319220979
 10
31.5117885707
 20
27.3381111879
 10
31.5877343235
 20
27.3556976976
 10
31.664557431
 20
27.3719647659
 10
31.7421891263
 20
27.3868978315
 10
31.8205599183
 20
27.4004835272
 10
31.8995996547
 20
27.4127096921
 10
31.9792375841
 20
27.4235653821
 10
32.0594024199
 20
27.4330408798
 10
32.1400224036
 20
27.4411277034
 10
32.2210253695
 20
27.4478186142
 10
32.3023388088
 20
27.4531076227
 10
32.3838899351
 20
27.4569899948
 10
32.4656057491
 20
27.459462255
 10
32.5474131041
 20
27.4605221904
 10
32.6292387713
 20
27.4601688522
 10
32.7110095058
 20
27.4584025568
 10
32.7926521116
 20
27.4552248851
 10
32.8740935076
 20
27.4506386816
 10
32.9552607927
 20
27.4446480516
 10
33.0360813112
 20
27.4372583575
 10
33.1164827177
 20
27.4284762141
 10
33.1963930421
 20
27.4183094826
 10
33.2757407539
 20
27.4067672637
 10
33.354454826
 20
27.393859889
 10
33.4324647988
 20
27.3795989126
 10
33.5097008428
 20
27.3639970998
 10
33.5860938212
 20
27.3470684166
 10
33.661575352
 20
27.3288280162
 10
33.736077869
 20
27.3092922263
 10
33.8095346823
 20
27.2884785342
 10
33.8818800381
 20
27.2664055708
 10
33.9530491776
 20
27.2430930945
 10
34.0229783948
 20
27.2185619731
 10
34.0916050934
 20
27.1928341653
 10
34.1588678434
 20
27.1659327009
 10
34.2247064354
 20
27.1378816605
 10
34.289061935
 20
27.1087061534
 10
34.3518767353
 20
27.0784322957
 10
34.4130946086
 20
27.0470871867
 10
34.4726607566
 20
27.0146988843
 10
34.5305218594
 20
26.9812963807
 10
34.5866261236
 20
26.9469095754
 10
34.6409233283
 20
26.9115692494
 10
34.6933648701
 20
26.875307037
 10
34.7439038067
 20
26.8381553979
 10
34.7924948989
 20
26.8001475877
 10
34.8390946512
 20
26.7613176287
 10
34.8836613504
 20
26.7217002788
 10
34.9261551033
 20
26.6813310011
 10
34.9665378722
 20
26.6402459314
 10
35.0047735092
 20
26.5984818464
 10
35.040827788
 20
26.5560761307
 10
35.0746684353
 20
26.5130667432
 10
35.1062651591
 20
26.4694921829
 10
35.135589676
 20
26.4253914552
 10
35.1626157367
 20
26.3808040361
 10
35.1873191491
 20
26.3357698374
 10
35.2096778004
 20
26.2903291707
 10
35.2296716765
 20
26.2445227118
 10
35.2472828802
 20
26.1983914634
 10
35.2624956471
 20
26.1519767194
 10
35.2752963596
 20
26.1053200272
 10
35.2856735596
 20
26.0584631509
 10
35.2936179578
 20
26.0114480337
 10
35.299122443
 20
25.9643167606
 10
35.3021820881
 20
25.9171115204
 10
35.302794154
 20
25.8698745682
 10
35.3009580931
 20
25.8226481874
 10
35.2966755487
 20
25.7754746521
 10
35.2899503545
 20
25.7283961889
 10
35.2807885302
 20
25.6814549396
 10
35.269198277
 20
25.6346929228
 10
35.2551899698
 20
25.5881519968
 10
35.2387761478
 20
25.5418738222
 10
35.2199715037
 20
25.4958998241
 10
35.1987928702
 20
25.4502711555
 10
35.175259205
 20
25.4050286603
 10
35.1493915739
 20
25.3602128366
 10
35.121213132
 20
25.3158638006
 10
35.0907491027
 20
25.2720212507
 10
35.0580267556
 20
25.228724432
 10
35.0230753815
 20
25.1860121009
 10
34.9859262667
 20
25.1439224908
 10
34.9466126647
 20
25.1024932776
 10
34.9051697664
 20
25.0617615461
 10
34.8616346688
 20
25.0217637566
 10
34.8160463418
 20
24.9825357126
 10
34.7684455932
 20
24.9441125285
 10
34.7188750319
 20
24.9065285983
 10
34.6673790304
 20
24.8698175647
 10
34.6140036845
 20
24.8340122889
 10
34.5587967725
 20
24.7991448217
 10
34.501807712
 20
24.7652463741
  0
LWPOLYLINE
  5
16D
330
1F
100
AcDbEntity
  8
0
  6
Continuous
 62
     7
370
    25
100
AcDbPolyline
 90
      192
 70
   128
 43
0.0
 10
34.1800741266
 20
24.9509792195
 10
34.1261759749
 20
24.9208715635
 10
34.0705916337
 20
24.8918035707
 10
34.0133812488
 20
24.8638066946
 10
33.9546067258
 20
24.8369112296
 10
33.8943316626
 20
24.8111462785
 10
33.8326212808
 20
24.7865397205
 10
33.769542355
 20
24.7631181817
 10
33.7051631409
 20
24.7409070056
 10
33.639553301
 20
24.7199302264
 10
33.5727838296
 20
24.7002105421
 10
33.5049269756
 20
24.6817692908
 10
33.4360561646
 20
24.6646264272
 10
33.3662459194
 20
24.648800501
 10
33.2955717793
 20
24.6343086369
 10
33.2241102185
 20
24.621166516
 10
33.1519385629
 20
24.6093883591
 10
33.0791349073
 20
24.5989869107
 10
33.0057780299
 20
24.589973426
 10
32.9319473077
 20
24.5823576582
 10
32.8577226305
 20
24.5761478481
 10
32.7831843142
 20
24.571350715
 10
32.7084130144
 20
24.5679714498
 10
32.6334896384
 20
24.5660137091
 10
32.5584952583
 20
24.5654796112
 10
32.4835110231
 20
24.5663697342
 10
32.4086180706
 20
24.5686831148
 10
32.3338974399
 20
24.5724172498
 10
32.2594299837
 20
24.5775680986
 10
32.1852962808
 20
24.5841300876
 10
32.1115765487
 20
24.5920961165
 10
32.0383505571
 20
24.6014575653
 10
31.9656975413
 20
24.6122043043
 10
31.8936961166
 20
24.624324705
 10
31.8224241935
 20
24.6378056522
 10
31.7519588928
 20
24.6526325587
 10
31.6823764627
 20
24.6687893806
 10
31.6137521959
 20
24.6862586354
 10
31.5461603485
 20
24.7050214201
 10
31.4796740593
 20
24.7250574321
 10
31.4143652709
 20
24.7463449912
 10
31.3503046517
 20
24.7688610627
 10
31.2875615195
 20
24.7925812828
 10
31.2262037666
 20
24.8174799847
 10
31.1662977862
 20
24.8435302263
 10
31.1079084004
 20
24.8707038196
 10
31.0510987904
 20
24.8989713608
 10
30.995930428
 20
24.9283022627
 10
30.9424630091
 20
24.9586647873
 10
30.8907543889
 20
24.9900260803
 10
30.8408605195
 20
25.0223522067
 10
30.7928353895
 20
25.0556081875
 10
30.7467309651
 20
25.0897580375
 10
30.7025971345
 20
25.1247648044
 10
30.6604816534
 20
25.1605906084
 10
30.6204300935
 20
25.1971966838
 10
30.5824857932
 20
25.2345434202
 10
30.5466898108
 20
25.2725904062
 10
30.51308088
 20
25.3112964722
 10
30.4816953677
 20
25.3506197358
 10
30.4525672353
 20
25.3905176466
 10
30.4257280012
 20
25.4309470325
 10
30.4012067073
 20
25.471864146
 10
30.3790298873
 20
25.5132247124
 10
30.3592215379
 20
25.5549839765
 10
30.3418030932
 20
25.5970967522
 10
30.3267934009
 20
25.6395174707
 10
30.3142087027
 20
25.6822002299
 10
30.3040626159
 20
25.7250988443
 10
30.2963661193
 20
25.7681668946
 10
30.291127541
 20
25.8113577785
 10
30.2883525496
 20
25.8546247605
 10
30.2880441477
 20
25.897921023
 10
30.290202669
 20
25.9411997163
 10
30.2948257779
 20
25.9844140103
 10
30.301908472
 20
26.0275171441
 10
30.3114430871
 20
26.0704624772
 10
30.3234193063
 20
26.1132035401
 10
30.3378241704
 20
26.155694084
 10
30.3546420926
 20
26.1978881313
 10
30.3738548746
 20
26.2397400254
 10
30.3954417269
 20
26.2812044796
 10
30.4193792912
 20
26.3222366267
 10
30.4456416655
 20
26.3627920672
 10
30.474200432
 20
26.4028269175
 10
30.5050246884
 20
26.4422978571
 10
30.5380810807
 20
26.4811621758
 10
30.5733338397
 20
26.51937782
 10
30.6107448197
 20
26.5569034378
 10
30.6502735394
 20
26.593698424
 10
30.6918772261
 20
26.6297229638
 10
30.735510862
 20
26.6649380766
 10
30.7811272325
 20
26.699305657
 10
30.8286769778
 20
26.7327885172
 10
30.8781086457
 20
26.7653504264
 10
30.929368748
 20
26.7969561506
 10
30.982401818
 20
26.8275714901
 10
31.0371504701
 20
26.8571633173
 10
31.0935554629
 20
26.8856996118
 10
31.1515557624
 20
26.9131494955
 10
31.2110886083
 20
26.9394832656
 10
31.2720895823
 20
26.9646724275
 10
31.3344926772
 20
26.9886897246
 10
31.3982303688
 20
27.0115091688
 10
31.4632336886
 20
27.0331060678
 10
31.5294322988
 20
27.0534570524
 10
31.596754568
 20
27.0725401015
 10
31.6651276492
 20
27.0903345659
 10
31.7344775581
 20
27.1068211909
 10
31.8047292535
 20
27.1219821369
 10
31.8758067184
 20
27.1358009986
 10
31.9476330423
 20
27.1482628232
 10
32.0201305045
 20
27.1593541262
 10
32.0932206577
 20
27.169062906
 10
32.1668244137
 20
27.177378657
 10
32.2408621283
 20
27.1842923812
 10
32.3152536878
 20
27.1897965974
 10
32.3899185956
 20
27.1938853496
 10
32.4647760593
 20
27.1965542136
 10
32.5397450781
 20
27.1978003014
 10
32.6147445308
 20
27.1976222648
 10
32.6896932628
 20
27.1960202963
 10
32.7645101747
 20
27.1929961294
 10
32.8391143096
 20
27.1885530365
 10
32.9134249409
 20
27.1826958253
 10
32.9873616597
 20
27.1754308336
 10
33.0608444614
 20
27.1667659228
 10
33.1337938328
 20
27.1567104686
 10
33.2061308379
 20
27.1452753519
 10
33.2777772032
 20
27.1324729463
 10
33.3486554026
 20
27.1183171046
 10
33.4186887412
 20
27.1028231446
 10
33.4878014384
 20
27.0860078316
 10
33.5559187095
 20
27.0678893611
 10
33.6229668473
 20
27.0484873383
 10
33.6888733011
 20
27.0278227575
 10
33.7535667558
 20
27.0059179792
 10
33.8169772088
 20
26.9827967058
 10
33.8790360459
 20
26.9584839561
 10
33.9396761152
 20
26.933006038
 10
33.9988318002
 20
26.9063905203
 10
34.0564390904
 20
26.8786662029
 10
34.1124356511
 20
26.8498630852
 10
34.1667608902
 20
26.8200123341
 10
34.2193560242
 20
26.7891462502
 10
34.2701641416
 20
26.7572982325
 10
34.3191302649
 20
26.7245027427
 10
34.3662014093
 20
26.6907952678
 10
34.4113266407
 20
26.6562122814
 10
34.4544571307
 20
26.6207912046
 10
34.4955462092
 20
26.5845703654
 10
34.5345494152
 20
26.5475889571
 10
34.5714245445
 20
26.5098869961
 10
34.6061316959
 20
26.4715052783
 10
34.6386333139
 20
26.4324853354
 10
34.6688942296
 20
26.3928693894
 10
34.6968816986
 20
26.3527003075
 10
34.7225654368
 20
26.3120215553
 10
34.7459176525
 20
26.2708771498
 10
34.7669130772
 20
26.2293116122
 10
34.7855289924
 20
26.1873699189
 10
34.8017452544
 20
26.1450974537
 10
34.8155443162
 20
26.1025399582
 10
34.8269112463
 20
26.0597434825
 10
34.8358337449
 20
26.0167543351
 10
34.8423021573
 20
25.9736190331
 10
34.8463094842
 20
25.9303842519
 10
34.8478513895
 20
25.8870967743
 10
34.8469262046
 20
25.8438034402
 10
34.8435349308
 20
25.8005510959
 10
34.8376812375
 20
25.7573865433
 10
34.8293714589
 20
25.7143564893
 10
34.8186145866
 20
25.6715074952
 10
34.8054222605
 20
25.6288859265
 10
34.7898087553
 20
25.5865379026
 10
34.771790966
 20
25.5445092468
 10
34.7513883891
 20
25.5028454369
 10
34.7286231013
 20
25.4615915559
 10
34.7035197364
 20
25.4207922433
 10
34.6761054577
 20
25.3804916465
 10
34.6464099294
 20
25.3407333736
 10
34.614465284
 20
25.3015604456
 10
34.5803060877
 20
25.2630152502
 10
34.5439693031
 20
25.2251394959
 10
34.5054942488
 20
25.1879741667
 10
34.4649225576
 20
25.1515594779
 10
34.4222981305
 20
25.1159348328
 10
34.3776670902
 20
25.0811387794
 10
34.3310777303
 20
25.0472089695
 10
34.2825804636
 20
25.0141821174
 10
34.2322277674
 20
24.9820939602
 10
34.1800741266
 20
24.9509792195
  0
LWPOLYLINE
  5
16E
330
1F
100
AcDbEntity
  8
0
  6
Continuous
 62
     7
370
    25
100
AcDbPolyline
 90
       80
 70
   128
 43
0.0
 10
34.501807712
 20
20.021144257
 10
34.443087516
 20
19.9882451727
 10
34.3826887468
 20
19.9563749007
 10
34.3206654697
 20
19.9255619695
 10
34.2570732039
 20
19.8958339606
 10
34.191968873
 20
19.8672174847
 10
34.1254107543
 20
19.8397381574
 10
34.0574584263
 20
19.8134205764
 10
33.9881727154
 20
19.7882882995
 10
33.9176156419
 20
19.7643638236
 10
33.8458503638
 20
19.7416685642
 10
33.7729411208
 20
19.7202228367
 10
33.6989531766
 20
19.7000458379
 10
33.6239527603
 20
19.681155629
 10
33.5480070075
 20
19.6635691193
 10
33.4711838999
 20
19.647302051
 10
33.3935522047
 20
19.6323689854
 10
33.3151814127
 20
19.6187832897
 10
33.2361416763
 20
19.6065571248
 10
33.1565037468
 20
19.5957014348
 10
33.0763389111
 20
19.5862259371
 10
32.9957189274
 20
19.5781391135
 10
32.9147159615
 20
19.5714482027
 10
32.8334025222
 20
19.5661591942
 10
32.7518513958
 20
19.5622768221
 10
32.6701355818
 20
19.5598045619
 10
32.5883282269
 20
19.5587446265
 10
32.5065025596
 20
19.5590979647
 10
32.4247318252
 20
19.5608642601
 10
32.3430892193
 20
19.5640419318
 10
32.2616478234
 20
19.5686281353
 10
32.1804805383
 20
19.5746187653
 10
32.0996600198
 20
19.5820084594
 10
32.0192586133
 20
19.5907906028
 10
31.9393482889
 20
19.6009573343
 10
31.8600005771
 20
19.6124995532
 10
31.781286505
 20
19.6254069279
 10
31.7032765322
 20
19.6396679043
 10
31.6260404882
 20
19.655269717
 10
31.5496475098
 20
19.6721984003
 10
31.474165979
 20
19.6904388007
 10
31.399663462
 20
19.7099745906
 10
31.3262066487
 20
19.7307882827
 10
31.2538612929
 20
19.7528612461
 10
31.1826921534
 20
19.7761737224
 10
31.1127629362
 20
19.8007048438
 10
31.0441362376
 20
19.8264326516
 10
30.9768734876
 20
19.853334116
 10
30.9110348956
 20
19.8813851564
 10
30.846679396
 20
19.9105606635
 10
30.7838645956
 20
19.9408345212
 10
30.7226467224
 20
19.9721796302
 10
30.6630805744
 20
20.0045679326
 10
30.6052194716
 20
20.0379704362
 10
30.5491152074
 20
20.0723572415
 10
30.4948180027
 20
20.1076975675
 10
30.4423764609
 20
20.1439597799
 10
30.3918375243
 20
20.181111419
 10
30.3432464321
 20
20.2191192292
 10
30.2966466798
 20
20.2579491882
 10
30.2520799806
 20
20.2975665381
 10
30.2095862277
 20
20.3379358158
 10
30.1692034588
 20
20.3790208855
 10
30.1309678218
 20
20.4207849705
 10
30.094913543
 20
20.4631906862
 10
30.0610728957
 20
20.5062000737
 10
30.0294761719
 20
20.549774634
 10
30.000151655
 20
20.5938753617
 10
29.9731255943
 20
20.6384627808
 10
29.9484221819
 20
20.6834969795
 10
29.9260635306
 20
20.7289376462
 10
29.9060696545
 20
20.7747441051
 10
29.8884584508
 20
20.8208753535
 10
29.8732456839
 20
20.8672900975
 10
29.8604449713
 20
20.9139467897
 10
29.8500677714
 20
20.960803666
 10
29.8421233732
 20
21.0078187832
 10
29.8366188879
 20
21.0549500563
 10
29.8335592429
 20
21.1021552965
 10
29.8328706655
 20
21.1375823499
  0
LWPOLYLINE
  5
16F
330
1F
100
AcDbEntity
  8
0
  6
Continuous
 62
     7
370
    25
100
AcDbPolyline
 90
       28
 70
   128
 43
0.0
 10
35.3028706655
 20
21.1375823499
 10
35.302794154
 20
21.1257724511
 10
35.3009580931
 20
21.0785460703
 10
35.2966755487
 20
21.031372535
 10
35.2899503545
 20
20.9842940719
 10
35.2807885302
 20
20.9373528225
 10
35.269198277
 20
20.8905908057
 10
35.2551899698
 20
20.8440498798
 10
35.2387761478
 20
20.7977717051
 10
35.2199715037
 20
20.751797707
 10
35.1987928702
 20
20.7061690385
 10
35.175259205
 20
20.6609265432
 10
35.1493915739
 20
20.6161107195
 10
35.121213132
 20
20.5717616835
 10
35.0907491027
 20
20.5279191336
 10
35.0580267556
 20
20.4846223149
 10
35.0230753815
 20
20.4419099839
 10
34.9859262667
 20
20.3998203738
 10
34.9466126647
 20
20.3583911606
 10
34.9051697664
 20
20.317659429
 10
34.8616346688
 20
20.2776616396
 10
34.8160463418
 20
20.2384335956
 10
34.7684455932
 20
20.2000104115
 10
34.7188750319
 20
20.1624264813
 10
34.6673790304
 20
20.1257154476
 10
34.6140036845
 20
20.0899101719
 10
34.5587967725
 20
20.0550427046
 10
34.501807712
 20
20.021144257
  0
SPLINE
  5
170
330
1F
100
AcDbEntity
  8
0
  6
Continuous
 62
     7
370
    25
100
AcDbSpline
210
0.0
220
0.0
230
1.0
 70
    11
 71
     3
 72
    26
 73
    22
 74
     0
 42
0.00000001
 43
0.00000001
 40
0.0
 40
0.0
 40
0.0
 40
0.0
 40
0.0536750643289905
 40
0.1073496429989158
 40
0.1610368245232879
 40
0.2147322126651555
 40
0.2684139093946568
 40
0.3220813954451962
 40
0.3757563163972832
 40
0.4294487206345843
 40
0.4831413779985647
 40
0.5368166456412129
 40
0.5904840298559628
 40
0.6441653367015286
 40
0.6978606434325801
 40
0.7515481785370248
 40
0.8052183088844915
 40
0.8588885589374563
 40
0.9125762604136138
 40
0.9662715254958923
 40
0.9999999999999999
 40
0.9999999999999999
 40
0.9999999999999999
 40
0.9999999999999999
 10
30.58179982607615
 20
20.20517596757912
 30
0.0
 10
30.58236757128673
 20
20.21169124924041
 30
0.0
 10
30.58350305657088
 20
20.22472175361188
 30
0.0
 10
30.59238231454468
 20
20.23759821872345
 30
0.0
 10
30.60554268171908
 20
20.2435971636109
 30
0.0
 10
30.62211310151256
 20
20.24176548769292
 30
0.0
 10
30.6401403927438
 20
20.23242968439677
 30
0.0
 10
30.65763711782363
 20
20.21662840371537
 30
0.0
 10
30.67257970258925
 20
20.19612160638343
 30
0.0
 10
30.68320898326608
 20
20.17316794217227
 30
0.0
 10
30.68824374394261
 20
20.15031122889179
 30
0.0
 10
30.687072387937
 20
20.13010759137551
 30
0.0
 10
30.67984077010211
 20
20.11483833208481
 30
0.0
 10
30.66742298282768
 20
20.10625506965975
 30
0.0
 10
30.65129927454799
 20
20.10537565391593
 30
0.0
 10
30.6333573405858
 20
20.11234392089252
 30
0.0
 10
30.61565713750854
 20
20.1263801123047
 30
0.0
 10
30.60013262255168
 20
20.14590447753942
 30
0.0
 10
30.58856737663493
 20
20.16860286410359
 30
0.0
 10
30.58261824353989
 20
20.18924008972943
 30
0.0
 10
30.58202767145864
 20
20.20073945889631
 30
0.0
 10
30.58179982607615
 20
20.20517596757912
 30
0.0
  0
SPLINE
  5
171
330
1F
100
AcDbEntity
  8
0
  6
Continuous
 62
     7
370
    25
100
AcDbSpline
210
0.0
220
0.0
230
1.0
 70
    11
 71
     3
 72
    26
 73
    22
 74
     0
 42
0.00000001
 43
0.00000001
 40
0.0
 40
0.0
 40
0.0
 40
0.0
 40
0.0536750643289197
 40
0.1073496429988594
 40
0.1610368245232483
 40
0.2147322126651254
 40
0.2684139093946074
 40
0.3220813954451585
 40
0.3757563163972445
 40
0.4294487206345224
 40
0.4831413779985415
 40
0.5368166456411642
 40
0.5904840298559224
 40
0.6441653367014818
 40
0.6978606434325545
 40
0.7515481785369958
 40
0.8052183088844644
 40
0.8588885589374027
 40
0.9125762604135635
 40
0.9662715254958457
 40
1.0
 40
1.0
 40
1.0
 40
1.0
 10
35.18934420672094
 20
20.84050982217944
 30
0.0
 10
35.18958047420819
 20
20.84782902942211
 30
0.0
 10
35.19005300704489
 20
20.86246737768231
 30
0.0
 10
35.19369857279873
 20
20.88786730943078
 30
0.0
 10
35.19895488518019
 20
20.9122809383885
 30
0.0
 10
35.20533559890608
 20
20.93339790918677
 30
0.0
 10
35.21198080862608
 20
20.94873193352502
 30
0.0
 10
35.21814450818231
 20
20.95658851382336
 30
0.0
 10
35.22319089389416
 20
20.95606852112231
 30
0.0
 10
35.22666134539563
 20
20.94721306135413
 30
0.0
 10
35.22827109751824
 20
20.93100014092597
 30
0.0
 10
35.22789852305375
 20
20.90925274022771
 30
0.0
 10
35.22557223202079
 20
20.88442660768845
 30
0.0
 10
35.22147169382841
 20
20.85932680959158
 30
0.0
 10
35.215943968758
 20
20.83679830647553
 30
0.0
 10
35.20951595681412
 20
20.81939926808046
 30
0.0
 10
35.20288111146888
 20
20.80910304782332
 30
0.0
 10
35.19681446964618
 20
20.80703859572528
 30
0.0
 10
35.1921419213842
 20
20.81350094750953
 30
0.0
 10
35.18968389960022
 20
20.82573192918911
 30
0.0
 10
35.18943877637206
 20
20.83639569359589
 30
0.0
 10
35.18934420672094
 20
20.84050982217944
 30
0.0
  0
LWPOLYLINE
  5
172
330
1F
100
AcDbEntity
  8
0
  6
Continuous
 62
     7
370
    25
100
AcDbPolyline
 90
       96
 70
   128
 43
0.0
 10
30.2889677772
 20
25.8408574264
 10
30.290202669
 20
25.8595456352
 10
30.2948257779
 20
25.9027599291
 10
30.301908472
 20
25.9458630629
 10
30.3114430871
 20
25.9888083961
 10
30.3234193063
 20
26.0315494589
 10
30.3378241704
 20
26.0740400028
 10
30.3546420926
 20
26.1162340502
 10
30.3738548746
 20
26.1580859442
 10
30.3954417269
 20
26.1995503984
 10
30.4193792912
 20
26.2405825455
 10
30.4456416655
 20
26.281137986
 10
30.474200432
 20
26.3211728363
 10
30.5050246884
 20
26.3606437759
 10
30.5380810807
 20
26.3995080946
 10
30.5733338397
 20
26.4377237389
 10
30.6107448197
 20
26.4752493566
 10
30.6502735394
 20
26.5120443428
 10
30.6918772261
 20
26.5480688827
 10
30.735510862
 20
26.5832839954
 10
30.7811272325
 20
26.6176515758
 10
30.8286769778
 20
26.651134436
 10
30.8781086457
 20
26.6836963452
 10
30.929368748
 20
26.7153020694
 10
30.982401818
 20
26.745917409
 10
31.0371504701
 20
26.7755092362
 10
31.0935554629
 20
26.8040455307
 10
31.1515557624
 20
26.8314954143
 10
31.2110886083
 20
26.8578291845
 10
31.2720895823
 20
26.8830183463
 10
31.3344926772
 20
26.9070356434
 10
31.3982303688
 20
26.9298550876
 10
31.4632336886
 20
26.9514519866
 10
31.5294322988
 20
26.9718029712
 10
31.596754568
 20
26.9908860203
 10
31.6651276492
 20
27.0086804847
 10
31.7344775581
 20
27.0251671097
 10
31.8047292535
 20
27.0403280557
 10
31.8758067184
 20
27.0541469174
 10
31.9476330423
 20
27.066608742
 10
32.0201305045
 20
27.077700045
 10
32.0932206577
 20
27.0874088248
 10
32.1668244137
 20
27.0957245758
 10
32.2408621283
 20
27.1026383
 10
32.3152536878
 20
27.1081425162
 10
32.3899185956
 20
27.1122312684
 10
32.4647760593
 20
27.1149001324
 10
32.5397450781
 20
27.1161462202
 10
32.6147445308
 20
27.1159681836
 10
32.6896932628
 20
27.1143662151
 10
32.7645101747
 20
27.1113420483
 10
32.8391143096
 20
27.1068989554
 10
32.9134249409
 20
27.1010417441
 10
32.9873616597
 20
27.0937767525
 10
33.0608444614
 20
27.0851118416
 10
33.1337938328
 20
27.0750563874
 10
33.2061308379
 20
27.0636212708
 10
33.2777772032
 20
27.0508188651
 10
33.3486554026
 20
27.0366630234
 10
33.4186887412
 20
27.0211690634
 10
33.4878014384
 20
27.0043537505
 10
33.5559187095
 20
26.9862352799
 10
33.6229668473
 20
26.9668332571
 10
33.6888733011
 20
26.9461686763
 10
33.7535667558
 20
26.924263898
 10
33.8169772088
 20
26.9011426246
 10
33.8790360459
 20
26.8768298749
 10
33.9396761152
 20
26.8513519568
 10
33.9988318002
 20
26.8247364392
 10
34.0564390904
 20
26.7970121217
 10
34.1124356511
 20
26.768209004
 10
34.1667608902
 20
26.7383582529
 10
34.2193560242
 20
26.707492169
 10
34.2701641416
 20
26.6756441513
 10
34.3191302649
 20
26.6428486616
 10
34.3662014093
 20
26.6091411866
 10
34.4113266407
 20
26.5745582002
 10
34.4544571307
 20
26.5391371234
 10
34.4955462092
 20
26.5029162842
 10
34.5345494152
 20
26.4659348759
 10
34.5714245445
 20
26.4282329149
 10
34.6061316959
 20
26.3898511971
 10
34.6386333139
 20
26.3508312542
 10
34.6688942296
 20
26.3112153082
 10
34.6968816986
 20
26.2710462263
 10
34.7225654368
 20
26.2303674741
 10
34.7459176525
 20
26.1892230687
 10
34.7669130772
 20
26.147657531
 10
34.7855289924
 20
26.1057158377
 10
34.8017452544
 20
26.0634433725
 10
34.8155443162
 20
26.020885877
 10
34.8269112463
 20
25.9780894013
 10
34.8358337449
 20
25.9351002539
 10
34.8423021573
 20
25.891964952
 10
34.8463094842
 20
25.8487301707
 10
34.8467735538
 20
25.8408574264
  0
LWPOLYLINE
  5
173
330
1F
100
AcDbEntity
  8
0
  6
Continuous
 62
     7
370
    25
100
AcDbPolyline
 90
      103
 70
   128
 43
0.0
 10
35.3028706655
 20
23.618202191
 10
35.3468003156
 20
23.5934763564
 10
35.401994056
 20
23.560612448
 10
35.4571333269
 20
23.5257784917
 10
35.5121637124
 20
23.4890088644
 10
35.5670309043
 20
23.4503398533
 10
35.6216807551
 20
23.4098096201
 10
35.6760593321
 20
23.3674581632
 10
35.7301129702
 20
23.3233272783
 10
35.783788325
 20
23.2774605174
 10
35.8370324254
 20
23.2299031454
 10
35.8897927259
 20
23.1807020957
 10
35.9420171585
 20
23.1299059237
 10
35.9936541839
 20
23.0775647592
 10
36.0446528426
 20
23.0237302565
 10
36.0949628051
 20
22.9684555439
 10
36.1445344215
 20
22.9117951708
 10
36.1933187708
 20
22.8538050541
 10
36.2412677085
 20
22.7945424231
 10
36.2883339148
 20
22.7340657629
 10
36.3344709412
 20
22.6724347565
 10
36.3796332559
 20
22.6097102264
 10
36.4237762892
 20
22.5459540742
 10
36.4668564773
 20
22.4812292193
 10
36.5088313051
 20
22.4155995376
 10
36.5496593487
 20
22.3491297974
 10
36.5893003156
 20
22.2818855965
 10
36.627715085
 20
22.2139332967
 10
36.6648657461
 20
22.1453399588
 10
36.7007156359
 20
22.076173276
 10
36.7352293746
 20
22.0065015077
 10
36.7683729016
 20
21.9363934113
 10
36.800113508
 20
21.8659181751
 10
36.8304198697
 20
21.7951453497
 10
36.8592620781
 20
21.7241447793
 10
36.8866116693
 20
21.6529865329
 10
36.9124416526
 20
21.5817408351
 10
36.9367265369
 20
21.5104779967
 10
36.959442356
 20
21.4392683457
 10
36.9805666921
 20
21.3681821573
 10
37.000078698
 20
21.297289585
 10
37.0179591178
 20
21.2266605913
 10
37.0341903056
 20
21.1563648784
 10
37.0487562432
 20
21.0864718197
 10
37.0616425558
 20
21.0170503912
 10
37.0728365261
 20
20.9481691035
 10
37.082327107
 20
20.879895934
 10
37.0901049326
 20
20.8122982603
 10
37.096162327
 20
20.745442793
 10
37.1004933122
 20
20.6793955103
 10
37.1030936142
 20
20.6142215931
 10
37.1039606668
 20
20.54998536
 10
37.1030936142
 20
20.4867502045
 10
37.1004933122
 20
20.424578532
 10
37.096162327
 20
20.3635316985
 10
37.0901049326
 20
20.3036699498
 10
37.082327107
 20
20.2450523623
 10
37.0728365261
 20
20.1877367845
 10
37.0616425558
 20
20.1317797798
 10
37.0487562432
 20
20.0772365711
 10
37.0341903056
 20
20.024160986
 10
37.0179591178
 20
19.9726054036
 10
37.000078698
 20
19.9226207031
 10
36.9805666921
 20
19.8742562133
 10
36.959442356
 20
19.8275596643
 10
36.9367265369
 20
19.7825771397
 10
36.9124416526
 20
19.739353032
 10
36.8866116693
 20
19.6979299981
 10
36.8592620781
 20
19.6583489175
 10
36.8304198697
 20
19.6206488521
 10
36.800113508
 20
19.5848670071
 10
36.7683729016
 20
19.5510386951
 10
36.7352293746
 20
19.5191973003
 10
36.7007156359
 20
19.4893742466
 10
36.6648657461
 20
19.4615989655
 10
36.627715085
 20
19.4358988679
 10
36.5893003156
 20
19.4122993168
 10
36.5496593487
 20
19.3908236021
 10
36.5088313051
 20
19.3714929176
 10
36.4668564773
 20
19.3543263405
 10
36.4237762892
 20
19.339340812
 10
36.3796332559
 20
19.3265511212
 10
36.3344709412
 20
19.3159698898
 10
36.2883339148
 20
19.3076075602
 10
36.2412677085
 20
19.3014723851
 10
36.1933187708
 20
19.2975704192
 10
36.1445344215
 20
19.2959055132
 10
36.0949628051
 20
19.2964793102
 10
36.0446528426
 20
19.2992912439
 10
35.9936541839
 20
19.3043385393
 10
35.9420171585
 20
19.3116162152
 10
35.8897927259
 20
19.3211170896
 10
35.8370324254
 20
19.3328317862
 10
35.783788325
 20
19.346748744
 10
35.7301129702
 20
19.3628542286
 10
35.6760593321
 20
19.381132346
 10
35.6216807551
 20
19.4015650577
 10
35.5670309043
 20
19.4241321991
 10
35.5121637124
 20
19.4488114993
 10
35.4571333269
 20
19.4755786028
 10
35.401994056
 20
19.5044070935
 10
35.3468003156
 20
19.5352685214
 10
35.3465147276
 20
19.5354334146
  0
LWPOLYLINE
  5
174
330
1F
100
AcDbEntity
  8
0
  6
Continuous
 62
     7
370
    25
100
AcDbPolyline
 90
      101
 70
   128
 43
0.0
 10
35.3028706655
 20
19.5606598571
 10
35.3387630726
 20
19.540165227
 10
35.3933717577
 20
19.5106420784
 10
35.4478979494
 20
19.4831663109
 10
35.5022867446
 20
19.4577655901
 10
35.5564833783
 20
19.4344654925
 10
35.6104332792
 20
19.4132894794
 10
35.6640821241
 20
19.3942588731
 10
35.7173758933
 20
19.3773928358
 10
35.7702609245
 20
19.3627083503
 10
35.822683967
 20
19.3502202026
 10
35.8745922351
 20
19.3399409671
 10
35.9259334616
 20
19.3318809942
 10
35.9766559504
 20
19.3260483997
 10
36.026708628
 20
19.3224490563
 10
36.0760410958
 20
19.3210865884
 10
36.1246036802
 20
19.3219623679
 10
36.1723474826
 20
19.3250755129
 10
36.2192244292
 20
19.3304228887
 10
36.2651873188
 20
19.337999111
 10
36.3101898708
 20
19.3477965512
 10
36.3541867712
 20
19.3598053441
 10
36.3971337191
 20
19.3740133978
 10
36.4389874705
 20
19.390406406
 10
36.4797058821
 20
19.4089678625
 10
36.5192479541
 20
19.4296790773
 10
36.5575738708
 20
19.452519196
 10
36.5946450414
 20
19.4774652205
 10
36.6304241382
 20
19.5044920324
 10
36.6648751349
 20
19.5335724179
 10
36.6979633421
 20
19.5646770956
 10
36.7296554428
 20
19.5977747456
 10
36.7599195258
 20
19.6328320414
 10
36.7887251178
 20
19.6698136834
 10
36.8160432138
 20
19.708682434
 10
36.841846307
 20
19.7493991559
 10
36.8661084158
 20
19.7919228507
 10
36.8888051102
 20
19.8362107006
 10
36.9099135367
 20
19.8822181115
 10
36.9294124409
 20
19.9298987579
 10
36.947282189
 20
19.9792046295
 10
36.9635047876
 20
20.0300860793
 10
36.9780639021
 20
20.082491874
 10
36.9909448726
 20
20.1363692456
 10
37.0021347291
 20
20.1916639439
 10
37.0116222043
 20
20.248320292
 10
37.0193977451
 20
20.3062812417
 10
37.0254535223
 20
20.3654884313
 10
37.0297834381
 20
20.4258822441
 10
37.0323831328
 20
20.4874018687
 10
37.0332499887
 20
20.54998536
 10
37.0323831328
 20
20.6135697017
 10
37.0297834381
 20
20.6780908699
 10
37.0254535223
 20
20.7434838971
 10
37.0193977451
 20
20.8096829382
 10
37.0116222043
 20
20.8766213363
 10
37.0021347291
 20
20.9442316901
 10
36.9909448726
 20
21.0124459217
 10
36.9780639021
 20
21.0811953452
 10
36.9635047876
 20
21.1504107358
 10
36.947282189
 20
21.2200223993
 10
36.9294124409
 20
21.2899602428
 10
36.9099135367
 20
21.3601538448
 10
36.8888051102
 20
21.4305325262
 10
36.8661084158
 20
21.5010254217
 10
36.841846307
 20
21.571561551
 10
36.8160432138
 20
21.6420698901
 10
36.7887251178
 20
21.7124794431
 10
36.7599195258
 20
21.7827193136
 10
36.7296554428
 20
21.8527187759
 10
36.6979633421
 20
21.9224073466
 10
36.6648751349
 20
21.9917148551
 10
36.6304241382
 20
22.0605715147
 10
36.5946450414
 20
22.1289079925
 10
36.5575738708
 20
22.1966554796
 10
36.5192479541
 20
22.2637457598
 10
36.4797058821
 20
22.3301112791
 10
36.4389874705
 20
22.3956852129
 10
36.3971337191
 20
22.4604015339
 10
36.3541867712
 20
22.5241950782
 10
36.3101898708
 20
22.5870016111
 10
36.2651873188
 20
22.6487578918
 10
36.2192244292
 20
22.7094017369
 10
36.1723474826
 20
22.7688720832
 10
36.1246036802
 20
22.8271090492
 10
36.0760410958
 20
22.884053995
 10
36.026708628
 20
22.9396495821
 10
35.9766559504
 20
22.9938398303
 10
35.9259334616
 20
23.0465701746
 10
35.8745922351
 20
23.0977875202
 10
35.822683967
 20
23.1474402954
 10
35.7702609245
 20
23.1954785041
 10
35.7173758933
 20
23.2418537759
 10
35.6640821241
 20
23.2865194149
 10
35.6104332792
 20
23.3294304465
 10
35.5564833783
 20
23.3705436629
 10
35.5022867446
 20
23.4098176667
 10
35.4478979494
 20
23.4472129123
 10
35.3933717577
 20
23.4826917457
 10
35.3387630726
 20
23.5162184429
 10
35.3028706655
 20
23.5371643039
  0
LWPOLYLINE
  5
175
330
1F
100
AcDbEntity
  8
0
  6
Continuous
 62
     7
370
    25
100
AcDbPolyline
 90
       82
 70
   128
 43
0.0
 10
35.3028706655
 20
23.8593956602
 10
35.3563794307
 20
23.8372789969
 10
35.4112466226
 20
23.8125996967
 10
35.4662770081
 20
23.7858325932
 10
35.521416279
 20
23.7570041025
 10
35.5766100194
 20
23.7261426746
 10
35.6318037599
 20
23.6932787662
 10
35.6869430308
 20
23.6584448099
 10
35.7419734163
 20
23.6216751826
 10
35.7968406082
 20
23.5830061715
 10
35.851490459
 20
23.5424759383
 10
35.905869036
 20
23.5001244813
 10
35.9599226741
 20
23.4559935965
 10
36.0135980289
 20
23.4101268356
 10
36.0668421293
 20
23.3625694636
 10
36.1196024298
 20
23.3133684138
 10
36.1718268624
 20
23.2625722419
 10
36.2234638877
 20
23.2102310773
 10
36.2744625464
 20
23.1563965747
 10
36.324772509
 20
23.1011218621
 10
36.3743441254
 20
23.044461489
 10
36.4231284746
 20
22.9864713723
 10
36.4710774123
 20
22.9272087413
 10
36.5181436187
 20
22.866732081
 10
36.5642806451
 20
22.8051010747
 10
36.6094429598
 20
22.7423765446
 10
36.6535859931
 20
22.6786203923
 10
36.6966661812
 20
22.6138955375
 10
36.738641009
 20
22.5482658557
 10
36.7794690525
 20
22.4817961156
 10
36.8191100194
 20
22.4145519146
 10
36.8575247889
 20
22.3465996149
 10
36.89467545
 20
22.2780062769
 10
36.9305253398
 20
22.2088395942
 10
36.9650390785
 20
22.1391678258
 10
36.9981826054
 20
22.0690597294
 10
37.0299232118
 20
21.9985844933
 10
37.0602295736
 20
21.9278116679
 10
37.0890717819
 20
21.8568110975
 10
37.1164213732
 20
21.7856528511
 10
37.1422513565
 20
21.7144071532
 10
37.1665362408
 20
21.6431443149
 10
37.1892520599
 20
21.5719346639
 10
37.210376396
 20
21.5008484755
 10
37.2298884019
 20
21.4299559032
 10
37.2477688217
 20
21.3593269095
 10
37.2640000095
 20
21.2890311966
 10
37.2785659471
 20
21.2191381379
 10
37.2914522596
 20
21.1497167094
 10
37.30264623
 20
21.0808354216
 10
37.3121368109
 20
21.0125622522
 10
37.3199146365
 20
20.9449645785
 10
37.3259720309
 20
20.8781091111
 10
37.3303030161
 20
20.8120618285
 10
37.3329033181
 20
20.7468879112
 10
37.3337703707
 20
20.6826516781
 10
37.3329033181
 20
20.6194165226
 10
37.3303030161
 20
20.5572448502
 10
37.3259720309
 20
20.4961980167
 10
37.3199146365
 20
20.436336268
 10
37.3121368109
 20
20.3777186805
 10
37.30264623
 20
20.3204031026
 10
37.2914522596
 20
20.264446098
 10
37.2785659471
 20
20.2099028893
 10
37.2640000095
 20
20.1568273041
 10
37.2477688217
 20
20.1052717217
 10
37.2298884019
 20
20.0552870212
 10
37.210376396
 20
20.0069225315
 10
37.1892520599
 20
19.9602259824
 10
37.1665362408
 20
19.9152434579
 10
37.1422513565
 20
19.8720193502
 10
37.1164213732
 20
19.8305963163
 10
37.0890717819
 20
19.7910152357
 10
37.0602295736
 20
19.7533151703
 10
37.0299232118
 20
19.7175333253
 10
36.9981826054
 20
19.6837050133
 10
36.9650390785
 20
19.6518636185
 10
36.9305253398
 20
19.6220405647
 10
36.89467545
 20
19.5942652836
 10
36.8575247889
 20
19.5685651861
 10
36.8191100194
 20
19.544965635
 10
36.8190090447
 20
19.5449073341
  0
LWPOLYLINE
  5
176
330
1F
100
AcDbEntity
  8
0
  6
Continuous
 62
     7
370
    25
100
AcDbPolyline
 90
       44
 70
   128
 43
0.0
 10
36.631613337
 20
20.7818452637
 10
36.6307316979
 20
20.7962642707
 10
36.6281055713
 20
20.8113938804
 10
36.6237909285
 20
20.8269116315
 10
36.6178797285
 20
20.84248679
 10
36.6104979585
 20
20.8577873984
 10
36.6018029479
 20
20.8724873509
 10
36.5919800159
 20
20.8862733435
 10
36.5812385212
 20
20.8988515516
 10
36.5698074
 20
20.9099538927
 10
36.557930287
 20
20.9193437396
 10
36.5458603221
 20
20.926820964
 10
36.5338547556
 20
20.9322262018
 10
36.5221694655
 20
20.9354442499
 10
36.5110535033
 20
20.936406521
 10
36.5007437865
 20
20.9350925061
 10
36.4914600489
 20
20.9315302111
 10
36.4834001571
 20
20.9257955601
 10
36.4767358937
 20
20.9180107773
 10
36.471609296
 20
20.9083417817
 10
36.4681296286
 20
20.8969946513
 10
36.4663710543
 20
20.8842112305
 10
36.4663710543
 20
20.8702639756
 10
36.4681296286
 20
20.8554501481
 10
36.471609296
 20
20.8400854792
 10
36.4767358937
 20
20.8244974399
 10
36.4834001571
 20
20.8090182624
 10
36.4914600489
 20
20.7939778584
 10
36.5007437865
 20
20.7796967881
 10
36.5110535033
 20
20.7664794275
 10
36.5221694655
 20
20.7546074819
 10
36.5338547556
 20
20.7443339811
 10
36.5458603221
 20
20.735877887
 10
36.557930287
 20
20.7294194266
 10
36.5698074
 20
20.7250962506
 10
36.5812385212
 20
20.7230005002
 10
36.5919800159
 20
20.7231768425
 10
36.6018029479
 20
20.7256215191
 10
36.6104979585
 20
20.7302824261
 10
36.6178797285
 20
20.7370602243
 10
36.6237909285
 20
20.7458104566
 10
36.6281055713
 20
20.7563466271
 10
36.6307316979
 20
20.7684441755
 10
36.631613337
 20
20.7818452637
  0
ARC
  5
177
330
1F
100
AcDbEntity
  8
0
  6
Continuous
 62
     7
370
    25
100
AcDbCircle
 10
35.5188783739
 20
21.1672630184
 30
0.0
 40
0.2250524067122332
100
AcDbArc
 50
300.1302324966
 51
316.7125542192
  0
LWPOLYLINE
  5
178
330
1F
100
AcDbEntity
  8
0
  6
Continuous
 62
     7
370
    25
100
AcDbPolyline
 90
       80
 70
   128
 43
0.0
 10
30.633933619
 20
20.021144257
 10
30.692653815
 20
19.9882451727
 10
30.7530525842
 20
19.9563749007
 10
30.8150758612
 20
19.9255619695
 10
30.8786681271
 20
19.8958339606
 10
30.943772458
 20
19.8672174847
 10
31.0103305767
 20
19.8397381574
 10
31.0782829047
 20
19.8134205764
 10
31.1475686156
 20
19.7882882995
 10
31.2181256891
 20
19.7643638236
 10
31.2898909672
 20
19.7416685642
 10
31.3628002102
 20
19.7202228367
 10
31.4367881544
 20
19.7000458379
 10
31.5117885707
 20
19.681155629
 10
31.5877343235
 20
19.6635691193
 10
31.664557431
 20
19.647302051
 10
31.7421891263
 20
19.6323689854
 10
31.8205599183
 20
19.6187832897
 10
31.8995996547
 20
19.6065571248
 10
31.9792375841
 20
19.5957014348
 10
32.0594024199
 20
19.5862259371
 10
32.1400224036
 20
19.5781391135
 10
32.2210253695
 20
19.5714482027
 10
32.3023388088
 20
19.5661591942
 10
32.3838899351
 20
19.5622768221
 10
32.4656057491
 20
19.5598045619
 10
32.5474131041
 20
19.5587446265
 10
32.6292387713
 20
19.5590979647
 10
32.7110095058
 20
19.5608642601
 10
32.7926521116
 20
19.5640419318
 10
32.8740935076
 20
19.5686281353
 10
32.9552607927
 20
19.5746187653
 10
33.0360813112
 20
19.5820084594
 10
33.1164827177
 20
19.5907906028
 10
33.1963930421
 20
19.6009573343
 10
33.2757407539
 20
19.6124995532
 10
33.354454826
 20
19.6254069279
 10
33.4324647988
 20
19.6396679043
 10
33.5097008428
 20
19.655269717
 10
33.5860938212
 20
19.6721984003
 10
33.661575352
 20
19.6904388007
 10
33.736077869
 20
19.7099745906
 10
33.8095346823
 20
19.7307882827
 10
33.8818800381
 20
19.7528612461
 10
33.9530491776
 20
19.7761737224
 10
34.0229783948
 20
19.8007048438
 10
34.0916050934
 20
19.8264326516
 10
34.1588678434
 20
19.853334116
 10
34.2247064354
 20
19.8813851564
 10
34.289061935
 20
19.9105606635
 10
34.3518767353
 20
19.9408345212
 10
34.4130946086
 20
19.9721796302
 10
34.4726607566
 20
20.0045679326
 10
34.5305218594
 20
20.0379704362
 10
34.5866261236
 20
20.0723572415
 10
34.6409233283
 20
20.1076975675
 10
34.6933648701
 20
20.1439597799
 10
34.7439038067
 20
20.181111419
 10
34.7924948989
 20
20.2191192292
 10
34.8390946512
 20
20.2579491882
 10
34.8836613504
 20
20.2975665381
 10
34.9261551033
 20
20.3379358158
 10
34.9665378722
 20
20.3790208855
 10
35.0047735092
 20
20.4207849705
 10
35.040827788
 20
20.4631906862
 10
35.0746684353
 20
20.5062000737
 10
35.1062651591
 20
20.549774634
 10
35.135589676
 20
20.5938753617
 10
35.1626157367
 20
20.6384627808
 10
35.1873191491
 20
20.6834969795
 10
35.2096778004
 20
20.7289376462
 10
35.2296716765
 20
20.7747441051
 10
35.2472828802
 20
20.8208753535
 10
35.2624956471
 20
20.8672900975
 10
35.2752963596
 20
20.9139467897
 10
35.2856735596
 20
20.960803666
 10
35.2936179578
 20
21.0078187832
 10
35.299122443
 20
21.0549500563
 10
35.3021820881
 20
21.1021552965
 10
35.3028706655
 20
21.1375823499
  0
LWPOLYLINE
  5
179
330
1F
100
AcDbEntity
  8
0
  6
Continuous
 62
     7
370
    25
100
AcDbPolyline
 90
       28
 70
   128
 43
0.0
 10
29.8328706655
 20
21.1375823499
 10
29.832947177
 20
21.1257724511
 10
29.8347832379
 20
21.0785460703
 10
29.8390657822
 20
21.031372535
 10
29.8457909765
 20
20.9842940719
 10
29.8549528008
 20
20.9373528225
 10
29.866543054
 20
20.8905908057
 10
29.8805513612
 20
20.8440498798
 10
29.8969651832
 20
20.7977717051
 10
29.9157698273
 20
20.751797707
 10
29.9369484608
 20
20.7061690385
 10
29.960482126
 20
20.6609265432
 10
29.9863497571
 20
20.6161107195
 10
30.014528199
 20
20.5717616835
 10
30.0449922283
 20
20.5279191336
 10
30.0777145754
 20
20.4846223149
 10
30.1126659495
 20
20.4419099839
 10
30.1498150643
 20
20.3998203738
 10
30.1891286663
 20
20.3583911606
 10
30.2305715646
 20
20.317659429
 10
30.2741066622
 20
20.2776616396
 10
30.3196949891
 20
20.2384335956
 10
30.3672957378
 20
20.2000104115
 10
30.4168662991
 20
20.1624264813
 10
30.4683623006
 20
20.1257154476
 10
30.5217376464
 20
20.0899101719
 10
30.5769445584
 20
20.0550427046
 10
30.633933619
 20
20.021144257
  0
LWPOLYLINE
  5
17A
330
1F
100
AcDbEntity
  8
0
  6
Continuous
 62
     7
370
    25
100
AcDbPolyline
 90
      107
 70
   128
 43
0.0
 10
35.3028706655
 20
18.7826786484
 10
35.3021820881
 20
18.747251595
 10
35.299122443
 20
18.7000463548
 10
35.2936179578
 20
18.6529150817
 10
35.2856735596
 20
18.6058999645
 10
35.2752963596
 20
18.5590430882
 10
35.2624956471
 20
18.512386396
 10
35.2472828802
 20
18.465971652
 10
35.2296716765
 20
18.4198404037
 10
35.2096778004
 20
18.3740339447
 10
35.1873191491
 20
18.328593278
 10
35.1626157367
 20
18.2835590793
 10
35.135589676
 20
18.2389716602
 10
35.1062651591
 20
18.1948709325
 10
35.0746684353
 20
18.1512963723
 10
35.040827788
 20
18.1082869847
 10
35.0047735092
 20
18.065881269
 10
34.9665378722
 20
18.0241171841
 10
34.9261551033
 20
17.9830321143
 10
34.8836613504
 20
17.9426628366
 10
34.8390946512
 20
17.9030454867
 10
34.7924948989
 20
17.8642155277
 10
34.7439038067
 20
17.8262077175
 10
34.6933648701
 20
17.7890560784
 10
34.6409233283
 20
17.752793866
 10
34.5866261236
 20
17.71745354
 10
34.5305218594
 20
17.6830667348
 10
34.4726607566
 20
17.6496642311
 10
34.4130946086
 20
17.6172759288
 10
34.3518767353
 20
17.5859308197
 10
34.289061935
 20
17.555656962
 10
34.2247064354
 20
17.5264814549
 10
34.1588678434
 20
17.4984304145
 10
34.0916050934
 20
17.4715289501
 10
34.0229783948
 20
17.4458011423
 10
33.9530491776
 20
17.4212700209
 10
33.8818800381
 20
17.3979575446
 10
33.8095346823
 20
17.3758845813
 10
33.736077869
 20
17.3550708891
 10
33.661575352
 20
17.3355350992
 10
33.5860938212
 20
17.3172946989
 10
33.5097008428
 20
17.3003660156
 10
33.4324647988
 20
17.2847642028
 10
33.354454826
 20
17.2705032264
 10
33.2757407539
 20
17.2575958518
 10
33.1963930421
 20
17.2460536328
 10
33.1164827177
 20
17.2358869013
 10
33.0360813112
 20
17.2271047579
 10
32.9552607927
 20
17.2197150638
 10
32.8740935076
 20
17.2137244338
 10
32.7926521116
 20
17.2091382303
 10
32.7110095058
 20
17.2059605586
 10
32.6292387713
 20
17.2041942632
 10
32.5474131041
 20
17.203840925
 10
32.4656057491
 20
17.2049008604
 10
32.3838899351
 20
17.2073731207
 10
32.3023388088
 20
17.2112554927
 10
32.2210253695
 20
17.2165445013
 10
32.1400224036
 20
17.223235412
 10
32.0594024199
 20
17.2313222356
 10
31.9792375841
 20
17.2407977334
 10
31.8995996547
 20
17.2516534233
 10
31.8205599183
 20
17.2638795882
 10
31.7421891263
 20
17.277465284
 10
31.664557431
 20
17.2923983495
 10
31.5877343235
 20
17.3086654178
 10
31.5117885707
 20
17.3262519275
 10
31.4367881544
 20
17.3451421364
 10
31.3628002102
 20
17.3653191352
 10
31.2898909672
 20
17.3867648627
 10
31.2181256891
 20
17.4094601221
 10
31.1475686156
 20
17.433384598
 10
31.0782829047
 20
17.4585168749
 10
31.0103305767
 20
17.4848344559
 10
30.943772458
 20
17.5123137832
 10
30.8786681271
 20
17.5409302591
 10
30.8150758612
 20
17.570658268
 10
30.7530525842
 20
17.6014711993
 10
30.692653815
 20
17.6333414712
 10
30.633933619
 20
17.6662405555
 10
30.5769445584
 20
17.7001390032
 10
30.5217376464
 20
17.7350064704
 10
30.4683623006
 20
17.7708117461
 10
30.4168662991
 20
17.8075227798
 10
30.3672957378
 20
17.84510671
 10
30.3196949891
 20
17.8835298941
 10
30.2741066622
 20
17.9227579381
 10
30.2305715646
 20
17.9627557276
 10
30.1891286663
 20
18.0034874591
 10
30.1498150643
 20
18.0449166723
 10
30.1126659495
 20
18.0870062824
 10
30.0777145754
 20
18.1297186134
 10
30.0449922283
 20
18.1730154322
 10
30.014528199
 20
18.216857982
 10
29.9863497571
 20
18.261207018
 10
29.960482126
 20
18.3060228418
 10
29.9369484608
 20
18.351265337
 10
29.9157698273
 20
18.3968940056
 10
29.8969651832
 20
18.4428680036
 10
29.8805513612
 20
18.4891461783
 10
29.866543054
 20
18.5356871042
 10
29.8549528008
 20
18.582449121
 10
29.8457909765
 20
18.6293903704
 10
29.8390657822
 20
18.6764688336
 10
29.8347832379
 20
18.7236423689
 10
29.832947177
 20
18.7708687496
 10
29.8328706655
 20
18.7826786484
  0
ARC
  5
17B
330
1F
100
AcDbEntity
  8
0
  6
Continuous
 62
     7
370
    25
100
AcDbCircle
 10
34.7657909135
 20
21.228862809
 30
0.0
 40
1.002688221390757
100
AcDbArc
 50
2.4946855291
 51
57.6126862428
  0
ARC
  5
17C
330
1F
100
AcDbEntity
  8
0
  6
Continuous
 62
     7
370
    25
100
AcDbCircle
 10
35.3944277202
 20
21.2508084473
 30
0.0
 40
0.373731535376654
100
AcDbArc
 50
320.473745579
 51
3.3283478556
  0
CIRCLE
  5
17D
330
1F
100
AcDbEntity
  8
0
  6
Continuous
 62
     7
370
    25
100
AcDbCircle
 10
21.7516675395
 20
16.8420531284
 30
0.0
 40
2.484999999999999
  0
CIRCLE
  5
17E
330
1F
100
AcDbEntity
  8
0
  6
Continuous
 62
     7
370
    25
100
AcDbCircle
 10
21.7516675395
 20
16.8420531284
 30
0.0
 40
2.434999999999999
  0
CIRCLE
  5
17F
330
1F
100
AcDbEntity
  8
0
  6
Continuous
 62
     7
370
    25
100
AcDbCircle
 10
23.5016675395
 20
16.8420531284
 30
0.0
 40
0.1169999999999973
  0
CIRCLE
  5
180
330
1F
100
AcDbEntity
  8
0
  6
Continuous
 62
     7
370
    25
100
AcDbCircle
 10
20.0016675395
 20
16.8420531284
 30
0.0
 40
0.1169999999999973
  0
CIRCLE
  5
181
330
1F
100
AcDbEntity
  8
0
  6
Continuous
 62
     7
370
    25
100
AcDbCircle
 10
21.7516675395
 20
16.8420531284
 30
0.0
 40
0.4139999999999979
  0
DIMENSION
  5
182
330
1F
100
AcDbEntity
  8
0
  6
Continuous
 62
     7
370
    18
100
AcDbDimension
  2
_D_5
 10
23.5016675395
 20
20.901856278
 30
0.0
 11
26.0681484531
 21
20.901856278
 31
0.0
 70
   160
  1
<>O.C.
 71
     2
 42
-1.0
  3
SLDDIMSTYLE2
100
AcDbAlignedDimension
 13
20.0016675395
 23
17.0590531284
 33
0.0
 14
23.5016675395
 24
17.0590531284
 34
0.0
100
AcDbRotatedDimension
  0
DIMENSION
  5
195
330
1F
100
AcDbEntity
  8
0
  6
Continuous
 62
     7
370
    18
100
AcDbDimension
  2
_D_6
 10
26.0681484531
 20
14.3570531284
 30
0.0
 11
26.0681484531
 21
16.8420531284
 31
0.0
 70
   160
  1
%%c<>
 71
     2
 42
-1.0
  3
SLDDIMSTYLE1
100
AcDbAlignedDimension
 13
21.7516675395
 23
19.3270531284
 33
0.0
 14
21.7516675395
 24
14.3570531284
 34
0.0
 50
90.0
100
AcDbRotatedDimension
  0
MTEXT
  5
1A8
330
1F
100
AcDbEntity
  8
0
  6
Continuous
 62
     7
370
     0
100
AcDbMText
 10
21.6981955584
 20
13.6080592279
 30
0.0
 40
0.5
 41
0.0
 71
     2
 72
     1
  1
CANOPY DETAIL
  7
SLDTEXTSTYLE0
 73
     1
 44
1.0
  0
INSERT
  5
1B4
330
1F
100
AcDbEntity
  8
0
  6
Continuous
 62
     7
370
     0
100
AcDbBlockReference
  2
SW_CENTERMARKSYMBOL_0
 10
20.0016675395
 20
16.8420531284
 30
0.0
  0
INSERT
  5
1C0
330
1F
100
AcDbEntity
  8
0
  6
Continuous
 62
     7
370
     0
100
AcDbBlockReference
  2
SW_CENTERMARKSYMBOL_1
 10
23.5016675395
 20
16.8420531284
 30
0.0
  0
ENDSEC
  0
SECTION
  2
OBJECTS
  0
DICTIONARY
  5
C
330
0
100
AcDbDictionary
281
     1
  3
ACAD_GROUP
350
D
  3
ACAD_LAYOUT
350
1A
  3
ACAD_MLINESTYLE
350
17
  3
ACAD_PLOTSETTINGS
350
19
  3
ACAD_PLOTSTYLENAME
350
E
  3
ACAD_SCALELIST
350
47
  3
DWGPROPS
350
1C1
  0
DICTIONARY
  5
D
102
{ACAD_REACTORS
330
C
102
}
330
C
100
AcDbDictionary
281
     1
  0
DICTIONARY
  5
1A
102
{ACAD_REACTORS
330
C
102
}
330
C
100
AcDbDictionary
281
     1
  3
Layout1
350
1E
  3
Layout2
350
26
  3
Model
350
22
  0
DICTIONARY
  5
17
102
{ACAD_REACTORS
330
C
102
}
330
C
100
AcDbDictionary
281
     1
  3
Standard
350
18
  0
DICTIONARY
  5
19
102
{ACAD_REACTORS
330
C
102
}
330
C
100
AcDbDictionary
281
     1
  0
ACDBDICTIONARYWDFLT
  5
E
102
{ACAD_REACTORS
330
C
102
}
330
C
100
AcDbDictionary
281
     1
  3
Normal
350
F
100
AcDbDictionaryWithDefault
340
F
  0
DICTIONARY
  5
47
102
{ACAD_REACTORS
330
C
102
}
330
C
100
AcDbDictionary
281
     1
  3
A0
350
48
  3
A1
350
49
  3
A2
350
4A
  3
A3
350
4B
  3
A4
350
4C
  3
A5
350
4D
  3
A6
350
4E
  3
A7
350
4F
  3
A8
350
50
  3
A9
350
51
  3
B1
350
52
  3
B2
350
53
  3
B3
350
54
  3
B4
350
55
  3
B5
350
56
  3
B6
350
57
  3
B7
350
58
  0
XRECORD
  5
1C1
102
{ACAD_REACTORS
330
C
102
}
330
C
100
AcDbXrecord
280
     1
  1
DWGPROPS COOKIE
  2

  3

  4

  6

  7

  8
shawnd
  9

300
=
301
=
302
=
303
=
304
=
305
=
306
=
307
=
308
=
309
=
 40
0.0
 41
2460504.588512246
 42
2460504.588512847
  1

 90
        0
  0
LAYOUT
  5
1E
102
{ACAD_REACTORS
330
1A
102
}
330
1A
100
AcDbPlotSettings
  1

  2
none_device
  4

  6

 40
0.0
 41
0.0
 42
0.0
 43
0.0
 44
0.0
 45
0.0
 46
0.0
 47
0.0
 48
0.0
 49
0.0
140
0.0
141
0.0
142
1.0
143
1.0
 70
   688
 72
     0
 73
     0
 74
     5
  7

 75
    16
147
1.0
148
0.0
149
0.0
100
AcDbLayout
  1
Layout1
 70
     1
 71
     1
 10
0.0
 20
0.0
 11
12.0
 21
9.0
 12
0.0
 22
0.0
 32
0.0
 14
1.0000000000E+20
 24
1.0000000000E+20
 34
1.0000000000E+20
 15
-1.0000000000E+20
 25
-1.0000000000E+20
 35
-1.0000000000E+20
146
0.0
 13
0.0
 23
0.0
 33
0.0
 16
1.0
 26
0.0
 36
0.0
 17
0.0
 27
1.0
 37
0.0
 76
     0
330
1B
  0
LAYOUT
  5
26
102
{ACAD_REACTORS
330
1A
102
}
330
1A
100
AcDbPlotSettings
  1

  2
none_device
  4

  6

 40
0.0
 41
0.0
 42
0.0
 43
0.0
 44
0.0
 45
0.0
 46
0.0
 47
0.0
 48
0.0
 49
0.0
140
0.0
141
0.0
142
1.0
143
1.0
 70
   688
 72
     0
 73
     0
 74
     5
  7

 75
    16
147
1.0
148
0.0
149
0.0
100
AcDbLayout
  1
Layout2
 70
     1
 71
     2
 10
0.0
 20
0.0
 11
0.0
 21
0.0
 12
0.0
 22
0.0
 32
0.0
 14
0.0
 24
0.0
 34
0.0
 15
0.0
 25
0.0
 35
0.0
146
0.0
 13
0.0
 23
0.0
 33
0.0
 16
1.0
 26
0.0
 36
0.0
 17
0.0
 27
1.0
 37
0.0
 76
     0
330
23
  0
LAYOUT
  5
22
102
{ACAD_REACTORS
330
1A
102
}
330
1A
100
AcDbPlotSettings
  1

  2
none_device
  4
Letter_(8.50_x_11.00_Inches)
  6

 40
6.35
 41
6.35
 42
6.35000508
 43
6.35000508
 44
215.9
 45
279.4
 46
0.0
 47
0.0
 48
0.0
 49
0.0
140
0.0
141
0.0
142
1.0
143
1.0
 70
  1712
 72
     0
 73
     0
 74
     0
  7

 75
     0
147
1.0
148
0.0
149
0.0
100
AcDbLayout
  1
Model
 70
     1
 71
     0
 10
0.0
 20
0.0
 11
44.0
 21
34.0
 12
0.0
 22
0.0
 32
0.0
 14
0.0
 24
0.0
 34
0.0
 15
44.0
 25
34.0
 35
0.0
146
0.0
 13
0.0
 23
0.0
 33
0.0
 16
1.0
 26
0.0
 36
0.0
 17
0.0
 27
1.0
 37
0.0
 76
     0
330
1F
331
29
  0
MLINESTYLE
  5
18
102
{ACAD_REACTORS
330
17
102
}
330
17
100
AcDbMlineStyle
  2
Standard
 70
     0
  3

 62
   256
 51
90.0
 52
90.0
 71
     2
 49
0.5
 62
   256
  6
BYLAYER
 49
-0.5
 62
   256
  6
BYLAYER
  0
ACDBPLACEHOLDER
  5
F
102
{ACAD_REACTORS
330
E
102
}
330
E
  0
SCALE
  5
48
102
{ACAD_REACTORS
330
47
102
}
330
47
100
AcDbScale
 70
     0
300
1:1
140
1.0
141
1.0
290
     1
  0
SCALE
  5
49
102
{ACAD_REACTORS
330
47
102
}
330
47
100
AcDbScale
 70
     0
300
1/128" = 1'-0"
140
0.0078125
141
12.0
290
     0
  0
SCALE
  5
4A
102
{ACAD_REACTORS
330
47
102
}
330
47
100
AcDbScale
 70
     0
300
1/64" = 1'-0"
140
0.015625
141
12.0
290
     0
  0
SCALE
  5
4B
102
{ACAD_REACTORS
330
47
102
}
330
47
100
AcDbScale
 70
     0
300
1/32" = 1'-0"
140
0.03125
141
12.0
290
     0
  0
SCALE
  5
4C
102
{ACAD_REACTORS
330
47
102
}
330
47
100
AcDbScale
 70
     0
300
1/16" = 1'-0"
140
0.0625
141
12.0
290
     0
  0
SCALE
  5
4D
102
{ACAD_REACTORS
330
47
102
}
330
47
100
AcDbScale
 70
     0
300
3/32" = 1'-0"
140
0.09375
141
12.0
290
     0
  0
SCALE
  5
4E
102
{ACAD_REACTORS
330
47
102
}
330
47
100
AcDbScale
 70
     0
300
1/8" = 1'-0"
140
0.125
141
12.0
290
     0
  0
SCALE
  5
4F
102
{ACAD_REACTORS
330
47
102
}
330
47
100
AcDbScale
 70
     0
300
3/16" = 1'-0"
140
0.1875
141
12.0
290
     0
  0
SCALE
  5
50
102
{ACAD_REACTORS
330
47
102
}
330
47
100
AcDbScale
 70
     0
300
1/4" = 1'-0"
140
0.25
141
12.0
290
     0
  0
SCALE
  5
51
102
{ACAD_REACTORS
330
47
102
}
330
47
100
AcDbScale
 70
     0
300
3/8" = 1'-0"
140
0.375
141
12.0
290
     0
  0
SCALE
  5
52
102
{ACAD_REACTORS
330
47
102
}
330
47
100
AcDbScale
 70
     0
300
1/2" = 1'-0"
140
0.5
141
12.0
290
     0
  0
SCALE
  5
53
102
{ACAD_REACTORS
330
47
102
}
330
47
100
AcDbScale
 70
     0
300
3/4" = 1'-0"
140
0.75
141
12.0
290
     0
  0
SCALE
  5
54
102
{ACAD_REACTORS
330
47
102
}
330
47
100
AcDbScale
 70
     0
300
1" = 1'-0"
140
1.0
141
12.0
290
     0
  0
SCALE
  5
55
102
{ACAD_REACTORS
330
47
102
}
330
47
100
AcDbScale
 70
     0
300
1-1/2" = 1'-0"
140
1.5
141
12.0
290
     0
  0
SCALE
  5
56
102
{ACAD_REACTORS
330
47
102
}
330
47
100
AcDbScale
 70
     0
300
3" = 1'-0"
140
3.0
141
12.0
290
     0
  0
SCALE
  5
57
102
{ACAD_REACTORS
330
47
102
}
330
47
100
AcDbScale
 70
     0
300
6" = 1'-0"
140
6.0
141
12.0
290
     0
  0
SCALE
  5
58
102
{ACAD_REACTORS
330
47
102
}
330
47
100
AcDbScale
 70
     0
300
1'-0" = 1'-0"
140
12.0
141
12.0
290
     0
  0
ENDSEC
  0
EOF
