  0
SECTION
  2
HEADER
  9
$ACADVER
  1
AC1015
  9
$ACADMAINTVER
 70
     6
  9
$DWGCODEPAGE
  3
ANSI_1252
  9
$INSBASE
 10
0.0
 20
0.0
 30
0.0
  9
$EXTMIN
 10
0.0
 20
0.0
 30
0.0
  9
$EXTMAX
 10
44.0
 20
34.0
 30
0.0
  9
$LIMMIN
 10
0.0
 20
0.0
  9
$LIMMAX
 10
44.0
 20
34.0
  9
$ORTHOMODE
 70
     0
  9
$REGENMODE
 70
     1
  9
$FILLMODE
 70
     1
  9
$QTEXTMODE
 70
     0
  9
$MIRRTEXT
 70
     1
  9
$LTSCALE
 40
4.0
  9
$ATTMODE
 70
     1
  9
$TEXTSIZE
 40
0.5
  9
$TRACEWID
 40
0.05
  9
$TEXTSTYLE
  7
Standard
  9
$CLAYER
  8
0
  9
$CELTYPE
  6
ByLayer
  9
$CECOLOR
 62
   256
  9
$CELTSCALE
 40
1.0
  9
$DISPSILH
 70
     0
  9
$DIMSCALE
 40
1.0
  9
$DIMASZ
 40
0.52
  9
$DIMEXO
 40
0.2
  9
$DIMDLI
 40
0.38
  9
$DIMRND
 40
0.0
  9
$DIMDLE
 40
0.0
  9
$DIMEXE
 40
0.5
  9
$DIMTP
 40
0.0
  9
$DIMTM
 40
0.0
  9
$DIMTXT
 40
0.5
  9
$DIMCEN
 40
0.09
  9
$DIMTSZ
 40
0.0
  9
$DIMTOL
 70
     0
  9
$DIMLIM
 70
     0
  9
$DIMTIH
 70
     1
  9
$DIMTOH
 70
     1
  9
$DIMSE1
 70
     0
  9
$DIMSE2
 70
     0
  9
$DIMTAD
 70
     0
  9
$DIMZIN
 70
     1
  9
$DIMBLK
  1

  9
$DIMASO
 70
     1
  9
$DIMSHO
 70
     1
  9
$DIMPOST
  1

  9
$DIMAPOST
  1

  9
$DIMALT
 70
     0
  9
$DIMALTD
 70
     2
  9
$DIMALTF
 40
25.4
  9
$DIMLFAC
 40
1.0
  9
$DIMTOFL
 70
     0
  9
$DIMTVP
 40
0.0
  9
$DIMTIX
 70
     0
  9
$DIMSOXD
 70
     0
  9
$DIMSAH
 70
     0
  9
$DIMBLK1
  1

  9
$DIMBLK2
  1

  9
$DIMSTYLE
  2
Standard
  9
$DIMCLRD
 70
     0
  9
$DIMCLRE
 70
     0
  9
$DIMCLRT
 70
     0
  9
$DIMTFAC
 40
1.0
  9
$DIMGAP
 40
0.24
  9
$DIMJUST
 70
     0
  9
$DIMSD1
 70
     0
  9
$DIMSD2
 70
     0
  9
$DIMTOLJ
 70
     1
  9
$DIMTZIN
 70
     1
  9
$DIMALTZ
 70
     0
  9
$DIMALTTZ
 70
     0
  9
$DIMUPT
 70
     0
  9
$DIMDEC
 70
     0
  9
$DIMTDEC
 70
     0
  9
$DIMALTU
 70
     2
  9
$DIMALTTD
 70
     2
  9
$DIMTXSTY
  7
Standard
  9
$DIMAUNIT
 70
     0
  9
$DIMADEC
 70
     0
  9
$DIMALTRND
 40
0.0
  9
$DIMAZIN
 70
     0
  9
$DIMDSEP
 70
    46
  9
$DIMATFIT
 70
     3
  9
$DIMFRAC
 70
     0
  9
$DIMLDRBLK
  1

  9
$DIMLUNIT
 70
     2
  9
$DIMLWD
 70
    -2
  9
$DIMLWE
 70
    -2
  9
$DIMTMOVE
 70
     0
  9
$LUNITS
 70
     2
  9
$LUPREC
 70
     6
  9
$SKETCHINC
 40
0.1
  9
$FILLETRAD
 40
0.0
  9
$AUNITS
 70
     0
  9
$AUPREC
 70
     2
  9
$MENU
  1
.
  9
$ELEVATION
 40
0.0
  9
$PELEVATION
 40
0.0
  9
$THICKNESS
 40
0.0
  9
$LIMCHECK
 70
     0
  9
$CHAMFERA
 40
0.0
  9
$CHAMFERB
 40
0.0
  9
$CHAMFERC
 40
0.0
  9
$CHAMFERD
 40
0.0
  9
$SKPOLY
 70
     0
  9
$TDCREATE
 40
2460566.340771007
  9
$TDUCREATE
 40
2460566.632437674
  9
$TDUPDATE
 40
2460566.340776007
  9
$TDUUPDATE
 40
2460566.632442674
  9
$TDINDWG
 40
0.0000000116
  9
$TDUSRTIMER
 40
0.0000000116
  9
$USRTIMER
 70
     1
  9
$ANGBASE
 50
0.0
  9
$ANGDIR
 70
     0
  9
$PDMODE
 70
     0
  9
$PDSIZE
 40
-1.0
  9
$PLINEWID
 40
0.0
  9
$SPLFRAME
 70
     0
  9
$SPLINETYPE
 70
     6
  9
$SPLINESEGS
 70
     8
  9
$HANDSEED
  5
547
  9
$SURFTAB1
 70
     6
  9
$SURFTAB2
 70
     6
  9
$SURFTYPE
 70
     6
  9
$SURFU
 70
     6
  9
$SURFV
 70
     6
  9
$UCSBASE
  2

  9
$UCSNAME
  2

  9
$UCSORG
 10
0.0
 20
0.0
 30
0.0
  9
$UCSXDIR
 10
1.0
 20
0.0
 30
0.0
  9
$UCSYDIR
 10
0.0
 20
1.0
 30
0.0
  9
$UCSORTHOREF
  2

  9
$UCSORTHOVIEW
 70
     0
  9
$UCSORGTOP
 10
0.0
 20
0.0
 30
0.0
  9
$UCSORGBOTTOM
 10
0.0
 20
0.0
 30
0.0
  9
$UCSORGLEFT
 10
0.0
 20
0.0
 30
0.0
  9
$UCSORGRIGHT
 10
0.0
 20
0.0
 30
0.0
  9
$UCSORGFRONT
 10
0.0
 20
0.0
 30
0.0
  9
$UCSORGBACK
 10
0.0
 20
0.0
 30
0.0
  9
$PUCSBASE
  2

  9
$PUCSNAME
  2

  9
$PUCSORG
 10
0.0
 20
0.0
 30
0.0
  9
$PUCSXDIR
 10
1.0
 20
0.0
 30
0.0
  9
$PUCSYDIR
 10
0.0
 20
1.0
 30
0.0
  9
$PUCSORTHOREF
  2

  9
$PUCSORTHOVIEW
 70
     0
  9
$PUCSORGTOP
 10
0.0
 20
0.0
 30
0.0
  9
$PUCSORGBOTTOM
 10
0.0
 20
0.0
 30
0.0
  9
$PUCSORGLEFT
 10
0.0
 20
0.0
 30
0.0
  9
$PUCSORGRIGHT
 10
0.0
 20
0.0
 30
0.0
  9
$PUCSORGFRONT
 10
0.0
 20
0.0
 30
0.0
  9
$PUCSORGBACK
 10
0.0
 20
0.0
 30
0.0
  9
$USERI1
 70
     0
  9
$USERI2
 70
     0
  9
$USERI3
 70
     0
  9
$USERI4
 70
     0
  9
$USERI5
 70
     0
  9
$USERR1
 40
0.0
  9
$USERR2
 40
0.0
  9
$USERR3
 40
0.0
  9
$USERR4
 40
0.0
  9
$USERR5
 40
0.0
  9
$WORLDVIEW
 70
     1
  9
$SHADEDGE
 70
     3
  9
$SHADEDIF
 70
    70
  9
$TILEMODE
 70
     1
  9
$MAXACTVP
 70
    64
  9
$PINSBASE
 10
0.0
 20
0.0
 30
0.0
  9
$PLIMCHECK
 70
     0
  9
$PEXTMIN
 10
1.0000000000E+20
 20
1.0000000000E+20
 30
1.0000000000E+20
  9
$PEXTMAX
 10
-1.0000000000E+20
 20
-1.0000000000E+20
 30
-1.0000000000E+20
  9
$PLIMMIN
 10
0.0
 20
0.0
  9
$PLIMMAX
 10
12.0
 20
9.0
  9
$UNITMODE
 70
     0
  9
$VISRETAIN
 70
     1
  9
$PLINEGEN
 70
     0
  9
$PSLTSCALE
 70
     1
  9
$TREEDEPTH
 70
  3020
  9
$CMLSTYLE
  2
Standard
  9
$CMLJUST
 70
     0
  9
$CMLSCALE
 40
1.0
  9
$PROXYGRAPHICS
 70
     1
  9
$MEASUREMENT
 70
     0
  9
$CELWEIGHT
370
    -1
  9
$ENDCAPS
280
     0
  9
$JOINSTYLE
280
     0
  9
$LWDISPLAY
290
     1
  9
$INSUNITS
 70
     1
  9
$HYPERLINKBASE
  1

  9
$STYLESHEET
  1

  9
$XEDIT
290
     1
  9
$CEPSNTYPE
380
     0
  9
$PSTYLEMODE
290
     1
  9
$FINGERPRINTGUID
  2
{c90d3eaa-db4b-4c3b-afd8-a3fb31898a2e}
  9
$VERSIONGUID
  2
{FAEB1C32-E019-11D5-929B-00C0DF256EC4}
  9
$EXTNAMES
290
     1
  9
$PSVPSCALE
 40
0.0
  9
$OLESTARTUP
290
     0
  0
ENDSEC
  0
SECTION
  2
CLASSES
  0
CLASS
  1
ACDBDICTIONARYWDFLT
  2
AcDbDictionaryWithDefault
  3
ObjectDBX Classes
 90
        0
280
     0
281
     0
  0
CLASS
  1
VISUALSTYLE
  2
AcDbVisualStyle
  3
ObjectDBX Classes
 90
     4095
280
     0
281
     0
  0
CLASS
  1
MATERIAL
  2
AcDbMaterial
  3
ObjectDBX Classes
 90
     1153
280
     0
281
     0
  0
CLASS
  1
SCALE
  2
AcDbScale
  3
ObjectDBX Classes
 90
     1153
280
     0
281
     0
  0
CLASS
  1
TABLESTYLE
  2
AcDbTableStyle
  3
ObjectDBX Classes
 90
     4095
280
     0
281
     0
  0
CLASS
  1
MLEADERSTYLE
  2
AcDbMLeaderStyle
  3
ACDB_MLEADERSTYLE_CLASS
 90
     4095
280
     0
281
     0
  0
CLASS
  1
SUN
  2
AcDbSun
  3
SCENEOE
 90
     1153
280
     0
281
     0
  0
CLASS
  1
ACDBPLACEHOLDER
  2
AcDbPlaceHolder
  3
ObjectDBX Classes
 90
        0
280
     0
281
     0
  0
CLASS
  1
LAYOUT
  2
AcDbLayout
  3
ObjectDBX Classes
 90
        0
280
     0
281
     0
  0
ENDSEC
  0
SECTION
  2
TABLES
  0
TABLE
  2
VPORT
  5
8
330
0
100
AcDbSymbolTable
 70
     1
  0
VPORT
  5
29
330
8
100
AcDbSymbolTableRecord
100
AcDbViewportTableRecord
  2
*Active
 70
     0
 10
0.0
 20
0.0
 11
1.0
 21
1.0
 12
22.0
 22
17.0
 13
0.0
 23
0.0
 14
0.5
 24
0.5
 15
0.5
 25
0.5
 16
0.0
 26
0.0
 36
1.0
 17
0.0
 27
0.0
 37
0.0
 40
34.0
 41
1.2941176471
 42
50.0
 43
0.0
 44
0.0
 50
0.0
 51
0.0
 71
     0
 72
  2000
 73
     1
 74
     3
 75
     0
 76
     0
 77
     0
 78
     0
281
     0
 65
     1
110
0.0
120
0.0
130
0.0
111
1.0
121
0.0
131
0.0
112
0.0
122
1.0
132
0.0
 79
     0
146
0.0
  0
ENDTAB
  0
TABLE
  2
LTYPE
  5
5
330
0
100
AcDbSymbolTable
 70
     6
  0
LTYPE
  5
14
330
5
100
AcDbSymbolTableRecord
100
AcDbLinetypeTableRecord
  2
ByBlock
 70
     0
  3

 72
    65
 73
     0
 40
0.0
  0
LTYPE
  5
15
330
5
100
AcDbSymbolTableRecord
100
AcDbLinetypeTableRecord
  2
ByLayer
 70
     0
  3

 72
    65
 73
     0
 40
0.0
  0
LTYPE
  5
16
330
5
100
AcDbSymbolTableRecord
100
AcDbLinetypeTableRecord
  2
Continuous
 70
     0
  3
Solid line
 72
    65
 73
     0
 40
0.0
  0
LTYPE
  5
5E
330
5
100
AcDbSymbolTableRecord
100
AcDbLinetypeTableRecord
  2
HIDDEN
 70
     0
  3
Hidden __ __ __ __ __ __ __ __ __ __ __ __ __ __
 72
    65
 73
     2
 40
0.075
 49
0.05
 74
     0
 49
-0.025
 74
     0
  0
LTYPE
  5
5F
330
5
100
AcDbSymbolTableRecord
100
AcDbLinetypeTableRecord
  2
PHANTOM
 70
     0
  3
Phantom ______  __  __  ______  __  __  ______
 72
    65
 73
     6
 40
0.5
 49
0.25
 74
     0
 49
-0.05
 74
     0
 49
0.05
 74
     0
 49
-0.05
 74
     0
 49
0.05
 74
     0
 49
-0.05
 74
     0
  0
LTYPE
  5
60
330
5
100
AcDbSymbolTableRecord
100
AcDbLinetypeTableRecord
  2
CENTER
 70
     0
  3
Center ____ _ ____ _ ____ _ ____ _ ____ _ ____
 72
    65
 73
     4
 40
0.4
 49
0.25
 74
     0
 49
-0.05
 74
     0
 49
0.05
 74
     0
 49
-0.05
 74
     0
  0
LTYPE
  5
61
330
5
100
AcDbSymbolTableRecord
100
AcDbLinetypeTableRecord
  2
CENTERX2
 70
     0
  3
Center (2x) ________  __  ________  __  _____
 72
    65
 73
     4
 40
0.8
 49
0.5
 74
     0
 49
-0.1
 74
     0
 49
0.1
 74
     0
 49
-0.1
 74
     0
  0
LTYPE
  5
62
330
5
100
AcDbSymbolTableRecord
100
AcDbLinetypeTableRecord
  2
DOT2
 70
     0
  3
Dot (.5x) ........................................
 72
    65
 73
     2
 40
0.025
 49
0.0
 74
     0
 49
-0.025
 74
     0
  0
ENDTAB
  0
TABLE
  2
LAYER
  5
2
330
0
100
AcDbSymbolTable
 70
    12
  0
LAYER
  5
10
330
2
100
AcDbSymbolTableRecord
100
AcDbLayerTableRecord
  2
0
 70
     0
 62
     7
  6
Continuous
370
    -3
390
F
  0
LAYER
  5
63
330
2
100
AcDbSymbolTableRecord
100
AcDbLayerTableRecord
  2
SLD-0
 70
     0
 62
     7
  6
Continuous
370
    -3
390
F
  0
LAYER
  5
64
330
2
100
AcDbSymbolTableRecord
100
AcDbLayerTableRecord
  2
DIM
 70
     0
 62
     7
  6
Continuous
370
    -3
390
F
  0
LAYER
  5
65
330
2
100
AcDbSymbolTableRecord
100
AcDbLayerTableRecord
  2
CEN
 70
     0
 62
     1
  6
CENTER
370
    -3
390
F
  0
LAYER
  5
66
330
2
100
AcDbSymbolTableRecord
100
AcDbLayerTableRecord
  2
HAT
 70
     0
 62
     4
  6
Continuous
370
    -3
390
F
  0
LAYER
  5
67
330
2
100
AcDbSymbolTableRecord
100
AcDbLayerTableRecord
  2
OBJ
 70
     0
 62
     5
  6
Continuous
370
    -3
390
F
  0
LAYER
  5
68
330
2
100
AcDbSymbolTableRecord
100
AcDbLayerTableRecord
  2
SLD-DEFPOINTS
 70
     0
 62
     7
  6
Continuous
370
    -3
390
F
  0
LAYER
  5
69
330
2
100
AcDbSymbolTableRecord
100
AcDbLayerTableRecord
  2
HID
 70
     0
 62
     4
  6
HIDDEN
370
    -3
390
F
  0
LAYER
  5
6A
330
2
100
AcDbSymbolTableRecord
100
AcDbLayerTableRecord
  2
NOTE
 70
     0
 62
     7
  6
Continuous
370
    -3
390
F
  0
LAYER
  5
6B
330
2
100
AcDbSymbolTableRecord
100
AcDbLayerTableRecord
  2
VP
 70
     0
 62
    -5
  6
Continuous
290
     0
370
    -3
390
F
  0
LAYER
  5
6C
330
2
100
AcDbSymbolTableRecord
100
AcDbLayerTableRecord
  2
TITLE
 70
     0
 62
     7
  6
Continuous
370
    -3
390
F
  0
LAYER
  5
6D
330
2
100
AcDbSymbolTableRecord
100
AcDbLayerTableRecord
  2
THICK_TITLE
 70
     0
 62
     7
  6
Continuous
370
   100
390
F
  0
ENDTAB
  0
TABLE
  2
STYLE
  5
3
330
0
100
AcDbSymbolTable
 70
     2
  0
STYLE
  5
11
330
3
100
AcDbSymbolTableRecord
100
AcDbTextStyleTableRecord
  2
Standard
 70
     0
 40
0.0
 41
1.0
 50
0.0
 71
     0
 42
0.5
  3
txt
  4

  0
STYLE
  5
132
330
3
100
AcDbSymbolTableRecord
100
AcDbTextStyleTableRecord
  2
SLDTEXTSTYLE0
 70
     0
 40
0.0
 41
0.75
 50
0.0
 71
     0
 42
0.5
  3
TXT
  4

  0
ENDTAB
  0
TABLE
  2
VIEW
  5
6
330
0
100
AcDbSymbolTable
 70
     0
  0
ENDTAB
  0
TABLE
  2
UCS
  5
7
330
0
100
AcDbSymbolTable
 70
     0
  0
ENDTAB
  0
TABLE
  2
APPID
  5
9
330
0
100
AcDbSymbolTable
 70
     1
  0
APPID
  5
12
330
9
100
AcDbSymbolTableRecord
100
AcDbRegAppTableRecord
  2
ACAD
 70
     0
  0
ENDTAB
  0
TABLE
  2
DIMSTYLE
  5
A
330
0
100
AcDbSymbolTable
 70
     4
100
AcDbDimStyleTable
  0
DIMSTYLE
105
27
330
A
100
AcDbSymbolTableRecord
100
AcDbDimStyleTableRecord
  2
Standard
 70
     0
178
     0
340
11
  0
DIMSTYLE
105
133
102
{ACAD_REACTORS
330
131
330
15C
102
}
330
A
100
AcDbSymbolTableRecord
100
AcDbDimStyleTableRecord
  2
SLDDIMSTYLE0
 70
     0
 41
0.52
 44
0.0
 45
0.000000001
 78
    12
 79
     3
140
0.5
147
0.125
148
0.000000001
170
     1
173
     1
178
     0
271
     6
272
     0
276
     2
277
     5
284
    12
340
132
  0
DIMSTYLE
105
147
102
{ACAD_REACTORS
330
146
102
}
330
A
100
AcDbSymbolTableRecord
100
AcDbDimStyleTableRecord
  2
SLDDIMSTYLE1
 70
     0
 41
0.52
 44
0.0
 45
0.000000001
 78
    12
 79
     3
140
0.5
147
0.125
148
0.000000001
170
     1
172
     1
173
     1
178
     0
271
     6
272
     0
276
     2
277
     5
284
    12
289
     0
340
132
  0
DIMSTYLE
105
51E
102
{ACAD_REACTORS
330
51D
330
532
102
}
330
A
100
AcDbSymbolTableRecord
100
AcDbDimStyleTableRecord
  2
SLDDIMSTYLE2
 70
     0
 41
0.52
 44
0.0
 45
0.000000001
 78
    12
 79
     3
140
0.5
147
0.125
148
0.000000001
170
     1
173
     1
178
     0
271
     0
272
     0
276
     2
277
     5
284
    12
340
132
  0
ENDTAB
  0
TABLE
  2
BLOCK_RECORD
  5
1
330
0
100
AcDbSymbolTable
 70
     6
  0
BLOCK_RECORD
  5
1F
330
1
100
AcDbSymbolTableRecord
100
AcDbBlockTableRecord
  2
*Model_Space
340
22
  0
BLOCK_RECORD
  5
1B
330
1
100
AcDbSymbolTableRecord
100
AcDbBlockTableRecord
  2
*Paper_Space
340
1E
  0
BLOCK_RECORD
  5
23
330
1
100
AcDbSymbolTableRecord
100
AcDbBlockTableRecord
  2
*Paper_Space0
340
26
  0
BLOCK_RECORD
  5
134
330
1
100
AcDbSymbolTableRecord
100
AcDbBlockTableRecord
  2
_D
340
0
  0
BLOCK_RECORD
  5
148
330
1
100
AcDbSymbolTableRecord
100
AcDbBlockTableRecord
  2
_D_1
340
0
  0
BLOCK_RECORD
  5
15D
330
1
100
AcDbSymbolTableRecord
100
AcDbBlockTableRecord
  2
_D_2
340
0
  0
BLOCK_RECORD
  5
51F
330
1
100
AcDbSymbolTableRecord
100
AcDbBlockTableRecord
  2
_D_3
340
0
  0
BLOCK_RECORD
  5
533
330
1
100
AcDbSymbolTableRecord
100
AcDbBlockTableRecord
  2
_D_4
340
0
  0
ENDTAB
  0
ENDSEC
  0
SECTION
  2
BLOCKS
  0
BLOCK
  5
20
330
1F
100
AcDbEntity
  8
0
100
AcDbBlockBegin
  2
*Model_Space
 70
     0
 10
0.0
 20
0.0
 30
0.0
  3
*Model_Space
  1

  0
ENDBLK
  5
21
330
1F
100
AcDbEntity
  8
0
100
AcDbBlockEnd
  0
BLOCK
  5
1C
330
1B
100
AcDbEntity
 67
     1
  8
0
100
AcDbBlockBegin
  2
*Paper_Space
 70
     0
 10
0.0
 20
0.0
 30
0.0
  3
*Paper_Space
  1

  0
ENDBLK
  5
1D
330
1B
100
AcDbEntity
 67
     1
  8
0
100
AcDbBlockEnd
  0
BLOCK
  5
24
330
23
100
AcDbEntity
  8
0
100
AcDbBlockBegin
  2
*Paper_Space0
 70
     0
 10
0.0
 20
0.0
 30
0.0
  3
*Paper_Space0
  1

  0
ENDBLK
  5
25
330
23
100
AcDbEntity
  8
0
100
AcDbBlockEnd
  0
BLOCK
  5
135
330
134
100
AcDbEntity
  8
0
100
AcDbBlockBegin
  2
_D
 70
     0
 10
0.0
 20
0.0
 30
0.0
  3
_D
  1

  0
SOLID
  5
137
330
134
100
AcDbEntity
  8
0
  6
Continuous
 62
     7
370
    18
100
AcDbTrace
 10
15.994082929
 20
3.0726100027
 30
0.0
 11
15.474082929
 21
3.1526100027
 31
0.0
 12
15.474082929
 22
2.9926100027
 32
0.0
 13
15.474082929
 23
2.9926100027
 33
0.0
  0
SOLID
  5
138
330
134
100
AcDbEntity
  8
0
  6
Continuous
 62
     7
370
    18
100
AcDbTrace
 10
9.369082929
 20
3.0726100027
 30
0.0
 11
9.889082929
 21
2.9926100027
 31
0.0
 12
9.889082929
 22
3.1526100027
 32
0.0
 13
9.889082929
 23
3.1526100027
 33
0.0
  0
LINE
  5
139
330
134
100
AcDbEntity
  8
0
  6
Continuous
 62
     7
370
     0
100
AcDbLine
 10
11.5024163141
 20
3.0726099294
 30
0.0
 11
11.3500725657
 21
3.0726099294
 31
0.0
  0
LINE
  5
13A
330
134
100
AcDbEntity
  8
0
  6
Continuous
 62
     7
370
     0
100
AcDbLine
 10
11.3500725657
 20
3.0726099294
 30
0.0
 11
11.3500725657
 21
2.2788599055
 31
0.0
  0
LINE
  5
13B
330
134
100
AcDbEntity
  8
0
  6
Continuous
 62
     7
370
     0
100
AcDbLine
 10
11.3500725657
 20
2.2788599055
 30
0.0
 11
11.5024163141
 21
2.2788599055
 31
0.0
  0
LINE
  5
13C
330
134
100
AcDbEntity
  8
0
  6
Continuous
 62
     7
370
     0
100
AcDbLine
 10
13.8607496171
 20
3.0726099294
 30
0.0
 11
14.0130933656
 21
3.0726099294
 31
0.0
  0
LINE
  5
13D
330
134
100
AcDbEntity
  8
0
  6
Continuous
 62
     7
370
     0
100
AcDbLine
 10
14.0130933656
 20
3.0726099294
 30
0.0
 11
14.0130933656
 21
2.2788599055
 31
0.0
  0
LINE
  5
13E
330
134
100
AcDbEntity
  8
0
  6
Continuous
 62
     7
370
     0
100
AcDbLine
 10
14.0130933656
 20
2.2788599055
 30
0.0
 11
13.8607496171
 21
2.2788599055
 31
0.0
  0
LINE
  5
13F
330
134
100
AcDbEntity
  8
0
  6
Continuous
 62
     7
370
     0
100
AcDbLine
 10
15.994082929
 20
4.4474131523
 30
0.0
 11
15.994082929
 21
2.5726100027
 31
0.0
  0
LINE
  5
140
330
134
100
AcDbEntity
  8
0
  6
Continuous
 62
     7
370
     0
100
AcDbLine
 10
9.369082929
 20
4.4474131523
 30
0.0
 11
9.369082929
 21
2.5726100027
 31
0.0
  0
LINE
  5
141
330
134
100
AcDbEntity
  8
0
  6
Continuous
 62
     7
370
     0
100
AcDbLine
 10
15.994082929
 20
3.0726100027
 30
0.0
 11
14.2668391382
 21
3.0726100027
 31
0.0
  0
LINE
  5
142
330
134
100
AcDbEntity
  8
0
  6
Continuous
 62
     7
370
     0
100
AcDbLine
 10
9.369082929
 20
3.0726100027
 30
0.0
 11
11.0963267197
 21
3.0726100027
 31
0.0
  0
MTEXT
  5
143
330
134
100
AcDbEntity
  8
0
  6
Continuous
 62
     7
370
    18
100
AcDbMText
 10
11.4090655625
 20
3.8187063502
 30
0.0
 40
0.5
 41
0.0
 71
     1
 72
     1
  1
%%c
  7
SLDTEXTSTYLE0
 73
     1
 44
1.0
  0
MTEXT
  5
144
330
134
100
AcDbEntity
  8
0
  6
Continuous
 62
     7
370
    18
100
AcDbMText
 10
12.1631280449
 20
3.8187063502
 30
0.0
 40
0.5
 41
0.0
 71
     1
 72
     1
  1
6 5/8"
  7
SLDTEXTSTYLE0
 73
     1
 44
1.0
  0
MTEXT
  5
145
330
134
100
AcDbEntity
  8
0
  6
Continuous
 62
     7
370
    18
100
AcDbMText
 10
11.5024163141
 20
2.9233938304
 30
0.0
 40
0.5
 41
0.0
 71
     1
 72
     1
  1
168mm
  7
SLDTEXTSTYLE0
 73
     1
 44
1.0
  0
ENDBLK
  5
136
330
134
100
AcDbEntity
  8
0
100
AcDbBlockEnd
  0
BLOCK
  5
149
330
148
100
AcDbEntity
  8
0
100
AcDbBlockBegin
  2
_D_1
 70
     0
 10
0.0
 20
0.0
 30
0.0
  3
_D_1
  1

  0
SOLID
  5
14B
330
148
100
AcDbEntity
  8
0
  6
Continuous
 62
     7
370
    18
100
AcDbTrace
 10
7.254311133
 20
17.4624131523
 30
0.0
 11
7.334311133
 21
17.9824131523
 31
0.0
 12
7.174311133
 22
17.9824131523
 32
0.0
 13
7.174311133
 23
17.9824131523
 33
0.0
  0
SOLID
  5
14C
330
148
100
AcDbEntity
  8
0
  6
Continuous
 62
     7
370
    18
100
AcDbTrace
 10
7.254311133
 20
16.5224131523
 30
0.0
 11
7.174311133
 21
16.0024131523
 31
0.0
 12
7.334311133
 22
16.0024131523
 32
0.0
 13
7.334311133
 23
16.0024131523
 33
0.0
  0
LINE
  5
14D
330
148
100
AcDbEntity
  8
0
  6
Continuous
 62
     7
370
     0
100
AcDbLine
 10
3.4718063366
 20
19.0333967794
 30
0.0
 11
3.3194625881
 21
19.0333967794
 31
0.0
  0
LINE
  5
14E
330
148
100
AcDbEntity
  8
0
  6
Continuous
 62
     7
370
     0
100
AcDbLine
 10
3.3194625881
 20
19.0333967794
 30
0.0
 11
3.3194625881
 21
18.2396467555
 31
0.0
  0
LINE
  5
14F
330
148
100
AcDbEntity
  8
0
  6
Continuous
 62
     7
370
     0
100
AcDbLine
 10
3.3194625881
 20
18.2396467555
 30
0.0
 11
3.4718063366
 21
18.2396467555
 31
0.0
  0
LINE
  5
150
330
148
100
AcDbEntity
  8
0
  6
Continuous
 62
     7
370
     0
100
AcDbLine
 10
5.4606952674
 20
19.0333967794
 30
0.0
 11
5.6130390159
 21
19.0333967794
 31
0.0
  0
LINE
  5
151
330
148
100
AcDbEntity
  8
0
  6
Continuous
 62
     7
370
     0
100
AcDbLine
 10
5.6130390159
 20
19.0333967794
 30
0.0
 11
5.6130390159
 21
18.2396467555
 31
0.0
  0
LINE
  5
152
330
148
100
AcDbEntity
  8
0
  6
Continuous
 62
     7
370
     0
100
AcDbLine
 10
5.6130390159
 20
18.2396467555
 30
0.0
 11
5.4606952674
 21
18.2396467555
 31
0.0
  0
LINE
  5
153
330
148
100
AcDbEntity
  8
0
  6
Continuous
 62
     7
370
     0
100
AcDbLine
 10
9.0144084523
 20
17.4624131523
 30
0.0
 11
6.754311133
 21
17.4624131523
 31
0.0
  0
LINE
  5
154
330
148
100
AcDbEntity
  8
0
  6
Continuous
 62
     7
370
     0
100
AcDbLine
 10
8.981582929
 20
16.5224131523
 30
0.0
 11
6.754311133
 21
16.5224131523
 31
0.0
  0
LINE
  5
155
330
148
100
AcDbEntity
  8
0
  6
Continuous
 62
     7
370
     0
100
AcDbLine
 10
6.254311133
 20
19.0372163019
 30
0.0
 11
7.254311133
 21
19.0372163019
 31
0.0
  0
LINE
  5
156
330
148
100
AcDbEntity
  8
0
  6
Continuous
 62
     7
370
     0
100
AcDbLine
 10
7.254311133
 20
19.0372163019
 30
0.0
 11
7.254311133
 21
17.4624131523
 31
0.0
  0
LINE
  5
157
330
148
100
AcDbEntity
  8
0
  6
Continuous
 62
     7
370
     0
100
AcDbLine
 10
7.254311133
 20
16.5224131523
 30
0.0
 11
7.254311133
 21
15.5224131523
 31
0.0
  0
MTEXT
  5
158
330
148
100
AcDbEntity
  8
0
  6
Continuous
 62
     7
370
    18
100
AcDbMText
 10
3.1698966169
 20
19.7871320894
 30
0.0
 40
0.5
 41
0.0
 71
     1
 72
     1
  1

  7
SLDTEXTSTYLE0
 73
     1
 44
1.0
  0
MTEXT
  5
159
330
148
100
AcDbEntity
  8
0
  6
Continuous
 62
     7
370
    18
100
AcDbMText
 10
3.4784035104
 20
19.7794931635
 30
0.0
 40
0.5
 41
0.0
 71
     1
 72
     1
  1
15/16"
  7
SLDTEXTSTYLE0
 73
     1
 44
1.0
  0
MTEXT
  5
15A
330
148
100
AcDbEntity
  8
0
  6
Continuous
 62
     7
370
    18
100
AcDbMText
 10
3.4718063366
 20
18.8841806804
 30
0.0
 40
0.5
 41
0.0
 71
     1
 72
     1
  1
24mm
  7
SLDTEXTSTYLE0
 73
     1
 44
1.0
  0
MTEXT
  5
15B
330
148
100
AcDbEntity
  8
0
  6
Continuous
 62
     7
370
    18
100
AcDbMText
 10
5.9528826543
 20
19.7871320894
 30
0.0
 40
0.5
 41
0.0
 71
     1
 72
     1
  1

  7
SLDTEXTSTYLE0
 73
     1
 44
1.0
  0
ENDBLK
  5
14A
330
148
100
AcDbEntity
  8
0
100
AcDbBlockEnd
  0
BLOCK
  5
15E
330
15D
100
AcDbEntity
  8
0
100
AcDbBlockBegin
  2
_D_2
 70
     0
 10
0.0
 20
0.0
 30
0.0
  3
_D_2
  1

  0
SOLID
  5
160
330
15D
100
AcDbEntity
  8
0
  6
Continuous
 62
     7
370
    18
100
AcDbTrace
 10
19.1139312484
 20
17.4624131523
 30
0.0
 11
19.0339312484
 21
16.9424131523
 31
0.0
 12
19.1939312484
 22
16.9424131523
 32
0.0
 13
19.1939312484
 23
16.9424131523
 33
0.0
  0
SOLID
  5
161
330
15D
100
AcDbEntity
  8
0
  6
Continuous
 62
     7
370
    18
100
AcDbTrace
 10
19.1139312484
 20
4.6474131523
 30
0.0
 11
19.1939312484
 21
5.1674131523
 31
0.0
 12
19.0339312484
 22
5.1674131523
 32
0.0
 13
19.0339312484
 23
5.1674131523
 33
0.0
  0
LINE
  5
162
330
15D
100
AcDbEntity
  8
0
  6
Continuous
 62
     7
370
     0
100
AcDbLine
 10
17.9347646702
 20
11.0510936298
 30
0.0
 11
17.7824209218
 21
11.0510936298
 31
0.0
  0
LINE
  5
163
330
15D
100
AcDbEntity
  8
0
  6
Continuous
 62
     7
370
     0
100
AcDbLine
 10
17.7824209218
 20
11.0510936298
 30
0.0
 11
17.7824209218
 21
10.2573436059
 31
0.0
  0
LINE
  5
164
330
15D
100
AcDbEntity
  8
0
  6
Continuous
 62
     7
370
     0
100
AcDbLine
 10
17.7824209218
 20
10.2573436059
 30
0.0
 11
17.9347646702
 21
10.2573436059
 31
0.0
  0
LINE
  5
165
330
15D
100
AcDbEntity
  8
0
  6
Continuous
 62
     7
370
     0
100
AcDbLine
 10
20.2930979732
 20
11.0510936298
 30
0.0
 11
20.4454417217
 21
11.0510936298
 31
0.0
  0
LINE
  5
166
330
15D
100
AcDbEntity
  8
0
  6
Continuous
 62
     7
370
     0
100
AcDbLine
 10
20.4454417217
 20
11.0510936298
 30
0.0
 11
20.4454417217
 21
10.2573436059
 31
0.0
  0
LINE
  5
167
330
15D
100
AcDbEntity
  8
0
  6
Continuous
 62
     7
370
     0
100
AcDbLine
 10
20.4454417217
 20
10.2573436059
 30
0.0
 11
20.2930979732
 21
10.2573436059
 31
0.0
  0
LINE
  5
168
330
15D
100
AcDbEntity
  8
0
  6
Continuous
 62
     7
370
     0
100
AcDbLine
 10
16.3487574056
 20
17.4624131523
 30
0.0
 11
19.6139312484
 21
17.4624131523
 31
0.0
  0
LINE
  5
169
330
15D
100
AcDbEntity
  8
0
  6
Continuous
 62
     7
370
     0
100
AcDbLine
 10
16.194082929
 20
4.6474131523
 30
0.0
 11
19.6139312484
 21
4.6474131523
 31
0.0
  0
LINE
  5
16A
330
15D
100
AcDbEntity
  8
0
  6
Continuous
 62
     7
370
     0
100
AcDbLine
 10
19.1139312484
 20
17.4624131523
 30
0.0
 11
19.1139312484
 21
11.9540450388
 31
0.0
  0
LINE
  5
16B
330
15D
100
AcDbEntity
  8
0
  6
Continuous
 62
     7
370
     0
100
AcDbLine
 10
19.1139312484
 20
4.6474131523
 30
0.0
 11
19.1139312484
 21
10.1557812658
 31
0.0
  0
MTEXT
  5
16C
330
15D
100
AcDbEntity
  8
0
  6
Continuous
 62
     7
370
    18
100
AcDbMText
 10
17.6328549506
 20
11.8048289398
 30
0.0
 40
0.5
 41
0.0
 71
     1
 72
     1
  1

  7
SLDTEXTSTYLE0
 73
     1
 44
1.0
  0
MTEXT
  5
16D
330
15D
100
AcDbEntity
  8
0
  6
Continuous
 62
     7
370
    18
100
AcDbMText
 10
17.6642785649
 20
11.7971900139
 30
0.0
 40
0.5
 41
0.0
 71
     1
 72
     1
  1
12 13/16"
  7
SLDTEXTSTYLE0
 73
     1
 44
1.0
  0
MTEXT
  5
16E
330
15D
100
AcDbEntity
  8
0
  6
Continuous
 62
     7
370
    18
100
AcDbMText
 10
17.9347646702
 20
10.9018775308
 30
0.0
 40
0.5
 41
0.0
 71
     1
 72
     1
  1
326mm
  7
SLDTEXTSTYLE0
 73
     1
 44
1.0
  0
MTEXT
  5
16F
330
15D
100
AcDbEntity
  8
0
  6
Continuous
 62
     7
370
    18
100
AcDbMText
 10
20.7852853601
 20
11.8048289398
 30
0.0
 40
0.5
 41
0.0
 71
     1
 72
     1
  1

  7
SLDTEXTSTYLE0
 73
     1
 44
1.0
  0
ENDBLK
  5
15F
330
15D
100
AcDbEntity
  8
0
100
AcDbBlockEnd
  0
BLOCK
  5
520
330
51F
100
AcDbEntity
  8
0
100
AcDbBlockBegin
  2
_D_3
 70
     0
 10
0.0
 20
0.0
 30
0.0
  3
_D_3
  1

  0
SOLID
  5
522
330
51F
100
AcDbEntity
  8
0
  6
Continuous
 62
     7
370
    18
100
AcDbTrace
 10
16.181582929
 20
31.0242432178
 30
0.0
 11
15.661582929
 21
31.1042432178
 31
0.0
 12
15.661582929
 22
30.9442432178
 32
0.0
 13
15.661582929
 23
30.9442432178
 33
0.0
  0
SOLID
  5
523
330
51F
100
AcDbEntity
  8
0
  6
Continuous
 62
     7
370
    18
100
AcDbTrace
 10
9.181582929
 20
31.0242432178
 30
0.0
 11
9.701582929
 21
30.9442432178
 31
0.0
 12
9.701582929
 22
31.1042432178
 32
0.0
 13
9.701582929
 23
31.1042432178
 33
0.0
  0
LINE
  5
524
330
51F
100
AcDbEntity
  8
0
  6
Continuous
 62
     7
370
     0
100
AcDbLine
 10
11.5024163508
 20
31.0204236953
 30
0.0
 11
11.3500726023
 21
31.0204236953
 31
0.0
  0
LINE
  5
525
330
51F
100
AcDbEntity
  8
0
  6
Continuous
 62
     7
370
     0
100
AcDbLine
 10
11.3500726023
 20
31.0204236953
 30
0.0
 11
11.3500726023
 21
30.2266736714
 31
0.0
  0
LINE
  5
526
330
51F
100
AcDbEntity
  8
0
  6
Continuous
 62
     7
370
     0
100
AcDbLine
 10
11.3500726023
 20
30.2266736714
 30
0.0
 11
11.5024163508
 21
30.2266736714
 31
0.0
  0
LINE
  5
527
330
51F
100
AcDbEntity
  8
0
  6
Continuous
 62
     7
370
     0
100
AcDbLine
 10
13.8607496538
 20
31.0204236953
 30
0.0
 11
14.0130934022
 21
31.0204236953
 31
0.0
  0
LINE
  5
528
330
51F
100
AcDbEntity
  8
0
  6
Continuous
 62
     7
370
     0
100
AcDbLine
 10
14.0130934022
 20
31.0204236953
 30
0.0
 11
14.0130934022
 21
30.2266736714
 31
0.0
  0
LINE
  5
529
330
51F
100
AcDbEntity
  8
0
  6
Continuous
 62
     7
370
     0
100
AcDbLine
 10
14.0130934022
 20
30.2266736714
 30
0.0
 11
13.8607496538
 21
30.2266736714
 31
0.0
  0
LINE
  5
52A
330
51F
100
AcDbEntity
  8
0
  6
Continuous
 62
     7
370
     0
100
AcDbLine
 10
16.181582929
 20
29.6494400682
 30
0.0
 11
16.181582929
 21
31.5242432178
 31
0.0
  0
LINE
  5
52B
330
51F
100
AcDbEntity
  8
0
  6
Continuous
 62
     7
370
     0
100
AcDbLine
 10
9.181582929
 20
29.6494400682
 30
0.0
 11
9.181582929
 21
31.5242432178
 31
0.0
  0
LINE
  5
52C
330
51F
100
AcDbEntity
  8
0
  6
Continuous
 62
     7
370
     0
100
AcDbLine
 10
16.181582929
 20
31.0242432178
 30
0.0
 11
14.4515613243
 21
31.0242432178
 31
0.0
  0
LINE
  5
52D
330
51F
100
AcDbEntity
  8
0
  6
Continuous
 62
     7
370
     0
100
AcDbLine
 10
9.181582929
 20
31.0242432178
 30
0.0
 11
10.9116045336
 21
31.0242432178
 31
0.0
  0
MTEXT
  5
52E
330
51F
100
AcDbEntity
  8
0
  6
Continuous
 62
     7
370
    18
100
AcDbMText
 10
11.2005066312
 20
31.7741590053
 30
0.0
 40
0.5
 41
0.0
 71
     1
 72
     1
  1

  7
SLDTEXTSTYLE0
 73
     1
 44
1.0
  0
MTEXT
  5
52F
330
51F
100
AcDbEntity
  8
0
  6
Continuous
 62
     7
370
    18
100
AcDbMText
 10
12.3937357425
 20
31.7665200794
 30
0.0
 40
0.5
 41
0.0
 71
     1
 72
     1
  1
7"
  7
SLDTEXTSTYLE0
 73
     1
 44
1.0
  0
MTEXT
  5
530
330
51F
100
AcDbEntity
  8
0
  6
Continuous
 62
     7
370
    18
100
AcDbMText
 10
11.5024163508
 20
30.8712075963
 30
0.0
 40
0.5
 41
0.0
 71
     1
 72
     1
  1
178mm
  7
SLDTEXTSTYLE0
 73
     1
 44
1.0
  0
MTEXT
  5
531
330
51F
100
AcDbEntity
  8
0
  6
Continuous
 62
     7
370
    18
100
AcDbMText
 10
14.3529370407
 20
31.7741590053
 30
0.0
 40
0.5
 41
0.0
 71
     1
 72
     1
  1

  7
SLDTEXTSTYLE0
 73
     1
 44
1.0
  0
ENDBLK
  5
521
330
51F
100
AcDbEntity
  8
0
100
AcDbBlockEnd
  0
BLOCK
  5
534
330
533
100
AcDbEntity
  8
0
100
AcDbBlockBegin
  2
_D_4
 70
     0
 10
0.0
 20
0.0
 30
0.0
  3
_D_4
  1

  0
SOLID
  5
536
330
533
100
AcDbEntity
  8
0
  6
Continuous
 62
     7
370
    18
100
AcDbTrace
 10
6.9103851545
 20
29.4494400682
 30
0.0
 11
6.8303851545
 21
28.9294400682
 31
0.0
 12
6.9903851545
 22
28.9294400682
 32
0.0
 13
6.9903851545
 23
28.9294400682
 33
0.0
  0
SOLID
  5
537
330
533
100
AcDbEntity
  8
0
  6
Continuous
 62
     7
370
    18
100
AcDbTrace
 10
6.9103851545
 20
22.4494400682
 30
0.0
 11
6.9903851545
 21
22.9694400682
 31
0.0
 12
6.8303851545
 22
22.9694400682
 32
0.0
 13
6.8303851545
 23
22.9694400682
 33
0.0
  0
LINE
  5
538
330
533
100
AcDbEntity
  8
0
  6
Continuous
 62
     7
370
     0
100
AcDbLine
 10
5.7312185763
 20
25.9456205457
 30
0.0
 11
5.5788748279
 21
25.9456205457
 31
0.0
  0
LINE
  5
539
330
533
100
AcDbEntity
  8
0
  6
Continuous
 62
     7
370
     0
100
AcDbLine
 10
5.5788748279
 20
25.9456205457
 30
0.0
 11
5.5788748279
 21
25.1518705218
 31
0.0
  0
LINE
  5
53A
330
533
100
AcDbEntity
  8
0
  6
Continuous
 62
     7
370
     0
100
AcDbLine
 10
5.5788748279
 20
25.1518705218
 30
0.0
 11
5.7312185763
 21
25.1518705218
 31
0.0
  0
LINE
  5
53B
330
533
100
AcDbEntity
  8
0
  6
Continuous
 62
     7
370
     0
100
AcDbLine
 10
8.0895518793
 20
25.9456205457
 30
0.0
 11
8.2418956278
 21
25.9456205457
 31
0.0
  0
LINE
  5
53C
330
533
100
AcDbEntity
  8
0
  6
Continuous
 62
     7
370
     0
100
AcDbLine
 10
8.2418956278
 20
25.9456205457
 30
0.0
 11
8.2418956278
 21
25.1518705218
 31
0.0
  0
LINE
  5
53D
330
533
100
AcDbEntity
  8
0
  6
Continuous
 62
     7
370
     0
100
AcDbLine
 10
8.2418956278
 20
25.1518705218
 30
0.0
 11
8.0895518793
 21
25.1518705218
 31
0.0
  0
LINE
  5
53E
330
533
100
AcDbEntity
  8
0
  6
Continuous
 62
     7
370
     0
100
AcDbLine
 10
8.981582929
 20
29.4494400682
 30
0.0
 11
6.4103851545
 21
29.4494400682
 31
0.0
  0
LINE
  5
53F
330
533
100
AcDbEntity
  8
0
  6
Continuous
 62
     7
370
     0
100
AcDbLine
 10
8.981582929
 20
22.4494400682
 30
0.0
 11
6.4103851545
 21
22.4494400682
 31
0.0
  0
LINE
  5
540
330
533
100
AcDbEntity
  8
0
  6
Continuous
 62
     7
370
     0
100
AcDbLine
 10
6.9103851545
 20
29.4494400682
 30
0.0
 11
6.9103851545
 21
26.8485719547
 31
0.0
  0
LINE
  5
541
330
533
100
AcDbEntity
  8
0
  6
Continuous
 62
     7
370
     0
100
AcDbLine
 10
6.9103851545
 20
22.4494400682
 30
0.0
 11
6.9103851545
 21
25.0503081818
 31
0.0
  0
MTEXT
  5
542
330
533
100
AcDbEntity
  8
0
  6
Continuous
 62
     7
370
    18
100
AcDbMText
 10
5.4293088567
 20
26.6993558557
 30
0.0
 40
0.5
 41
0.0
 71
     1
 72
     1
  1

  7
SLDTEXTSTYLE0
 73
     1
 44
1.0
  0
MTEXT
  5
543
330
533
100
AcDbEntity
  8
0
  6
Continuous
 62
     7
370
    18
100
AcDbMText
 10
6.6225379681
 20
26.6917169298
 30
0.0
 40
0.5
 41
0.0
 71
     1
 72
     1
  1
7"
  7
SLDTEXTSTYLE0
 73
     1
 44
1.0
  0
MTEXT
  5
544
330
533
100
AcDbEntity
  8
0
  6
Continuous
 62
     7
370
    18
100
AcDbMText
 10
5.7312185763
 20
25.7964044467
 30
0.0
 40
0.5
 41
0.0
 71
     1
 72
     1
  1
178mm
  7
SLDTEXTSTYLE0
 73
     1
 44
1.0
  0
MTEXT
  5
545
330
533
100
AcDbEntity
  8
0
  6
Continuous
 62
     7
370
    18
100
AcDbMText
 10
8.5817392662
 20
26.6993558557
 30
0.0
 40
0.5
 41
0.0
 71
     1
 72
     1
  1

  7
SLDTEXTSTYLE0
 73
     1
 44
1.0
  0
ENDBLK
  5
535
330
533
100
AcDbEntity
  8
0
100
AcDbBlockEnd
  0
ENDSEC
  0
SECTION
  2
ENTITIES
  0
LINE
  5
6E
330
1F
100
AcDbEntity
  8
0
  6
Continuous
 62
     7
370
    25
100
AcDbLine
 10
10.1799928068
 20
16.394169388
 30
0.0
 11
10.181582929
 21
16.3985382126
 31
0.0
  0
LINE
  5
6F
330
1F
100
AcDbEntity
  8
0
  6
Continuous
 62
     7
370
    25
100
AcDbLine
 10
10.1732407667
 20
16.4197033423
 30
0.0
 11
10.1623825754
 21
16.426165367
 31
0.0
  0
LINE
  5
70
330
1F
100
AcDbEntity
  8
0
  6
Continuous
 62
     7
370
    25
100
AcDbLine
 10
9.9505382735
 20
16.4360414884
 30
0.0
 11
9.9399576738
 21
16.4310129815
 31
0.0
  0
LINE
  5
71
330
1F
100
AcDbEntity
  8
0
  6
Continuous
 62
     7
370
    25
100
AcDbLine
 10
9.9400444623
 20
16.3976879516
 30
0.0
 11
9.9568066845
 21
16.3877122668
 31
0.0
  0
LINE
  5
72
330
1F
100
AcDbEntity
  8
0
  6
Continuous
 62
     7
370
    25
100
AcDbLine
 10
10.1562967974
 20
16.3784120942
 30
0.0
 11
10.1685546495
 21
16.3842377275
 31
0.0
  0
LINE
  5
73
330
1F
100
AcDbEntity
  8
0
  6
Continuous
 62
     7
370
    25
100
AcDbLine
 10
9.940043795
 20
16.4976883487
 30
0.0
 11
9.9568066845
 21
16.4877122668
 31
0.0
  0
LINE
  5
74
330
1F
100
AcDbEntity
  8
0
  6
Continuous
 62
     7
370
    25
100
AcDbLine
 10
10.1562967974
 20
16.4784120942
 30
0.0
 11
10.1732479384
 21
16.4864682471
 31
0.0
  0
LINE
  5
75
330
1F
100
AcDbEntity
  8
0
  6
Continuous
 62
     7
370
    25
100
AcDbLine
 10
10.173213866
 20
16.4697193517
 30
0.0
 11
10.1623825754
 21
16.476165367
 31
0.0
  0
LINE
  5
76
330
1F
100
AcDbEntity
  8
0
  6
Continuous
 62
     7
370
    25
100
AcDbLine
 10
9.9505382735
 20
16.4860414884
 30
0.0
 11
9.9399467363
 21
16.4810077833
 31
0.0
  0
LINE
  5
77
330
1F
100
AcDbEntity
  8
0
  6
Continuous
 62
     7
370
    25
100
AcDbLine
 10
10.181582929
 20
16.4951023251
 30
0.0
 11
10.181582929
 21
16.5097610471
 31
0.0
  0
LINE
  5
78
330
1F
100
AcDbEntity
  8
0
  6
Continuous
 62
     7
370
    25
100
AcDbLine
 10
9.931582929
 20
16.5223537866
 30
0.0
 11
9.931582929
 21
16.5076931539
 31
0.0
  0
LINE
  5
79
330
1F
100
AcDbEntity
  8
0
  6
Continuous
 62
     7
370
    25
100
AcDbLine
 10
10.173213866
 20
16.5197193517
 30
0.0
 11
10.1686874515
 21
16.5224131523
 31
0.0
  0
LINE
  5
7A
330
1F
100
AcDbEntity
  8
0
  6
Continuous
 62
     7
370
    25
100
AcDbLine
 10
10.181582929
 20
16.4451023251
 30
0.0
 11
10.181582929
 21
16.4597610471
 31
0.0
  0
LINE
  5
7B
330
1F
100
AcDbEntity
  8
0
  6
Continuous
 62
     7
370
    25
100
AcDbLine
 10
9.931582929
 20
16.4723537866
 30
0.0
 11
9.931582929
 21
16.4576931539
 31
0.0
  0
LINE
  5
7C
330
1F
100
AcDbEntity
  8
0
  6
Continuous
 62
     7
370
    25
100
AcDbLine
 10
9.940043795
 20
16.4476883487
 30
0.0
 11
9.9568066845
 21
16.4377122668
 31
0.0
  0
LINE
  5
7D
330
1F
100
AcDbEntity
  8
0
  6
Continuous
 62
     7
370
    25
100
AcDbLine
 10
10.1562967974
 20
16.4284120942
 30
0.0
 11
10.1732479384
 21
16.4364682471
 31
0.0
  0
LINE
  5
7E
330
1F
100
AcDbEntity
  8
0
  6
Continuous
 62
     7
370
    25
100
AcDbLine
 10
9.9508038471
 20
16.3457291742
 30
0.0
 11
9.9538306315
 21
16.3374131523
 31
0.0
  0
LINE
  5
7F
330
1F
100
AcDbEntity
  8
0
  6
Continuous
 62
     7
370
    25
100
AcDbLine
 10
9.9396137948
 20
16.3764735901
 30
0.0
 11
9.9508038471
 21
16.3457291742
 31
0.0
  0
LINE
  5
80
330
1F
100
AcDbEntity
  8
0
  6
Continuous
 62
     7
370
    25
100
AcDbLine
 10
10.1593352264
 20
16.3374131523
 30
0.0
 11
10.1701812552
 21
16.3672123716
 31
0.0
  0
LINE
  5
81
330
1F
100
AcDbEntity
  8
0
  6
Continuous
 62
     7
370
    25
100
AcDbLine
 10
10.1653632405
 20
16.3743914867
 30
0.0
 11
10.1623825754
 21
16.376165367
 31
0.0
  0
LINE
  5
82
330
1F
100
AcDbEntity
  8
0
  6
Continuous
 62
     7
370
    25
100
AcDbLine
 10
9.9505382735
 20
16.3860414884
 30
0.0
 11
9.9448352439
 21
16.3833310821
 31
0.0
  0
LINE
  5
83
330
1F
100
AcDbEntity
  8
0
  6
Continuous
 62
     7
370
    25
100
AcDbLine
 10
9.9507832825
 20
16.4912969681
 30
0.0
 11
9.950375063
 21
16.482540599
 31
0.0
  0
LINE
  5
84
330
1F
100
AcDbEntity
  8
0
  6
Continuous
 62
     7
370
    25
100
AcDbLine
 10
10.1622193649
 20
16.4726644776
 30
0.0
 11
10.1626275844
 21
16.4814208467
 31
0.0
  0
LINE
  5
85
330
1F
100
AcDbEntity
  8
0
  6
Continuous
 62
     7
370
    25
100
AcDbLine
 10
9.9507832825
 20
16.4412969681
 30
0.0
 11
9.950375063
 21
16.432540599
 31
0.0
  0
LINE
  5
86
330
1F
100
AcDbEntity
  8
0
  6
Continuous
 62
     7
370
    25
100
AcDbLine
 10
10.1622193649
 20
16.4226644776
 30
0.0
 11
10.1626275844
 21
16.4314208467
 31
0.0
  0
LINE
  5
87
330
1F
100
AcDbEntity
  8
0
  6
Continuous
 62
     7
370
    25
100
AcDbLine
 10
9.9507832825
 20
16.3912969681
 30
0.0
 11
9.950375063
 21
16.382540599
 31
0.0
  0
LINE
  5
88
330
1F
100
AcDbEntity
  8
0
  6
Continuous
 62
     7
370
    25
100
AcDbLine
 10
10.1622193649
 20
16.3726644776
 30
0.0
 11
10.1626275844
 21
16.3814208467
 31
0.0
  0
LINE
  5
89
330
1F
100
AcDbEntity
  8
0
  6
Continuous
 62
     7
370
    25
100
AcDbLine
 10
10.181582929
 20
16.3985382126
 30
0.0
 11
10.181582929
 21
16.4097603746
 31
0.0
  0
LINE
  5
8A
330
1F
100
AcDbEntity
  8
0
  6
Continuous
 62
     7
370
    25
100
AcDbLine
 10
9.931582929
 20
16.4223521528
 30
0.0
 11
9.931582929
 21
16.4076937372
 31
0.0
  0
LINE
  5
8B
330
1F
100
AcDbEntity
  8
0
  6
Continuous
 62
     7
370
    25
100
AcDbLine
 10
15.4299928068
 20
16.394169388
 30
0.0
 11
15.431582929
 21
16.3985382126
 31
0.0
  0
LINE
  5
8C
330
1F
100
AcDbEntity
  8
0
  6
Continuous
 62
     7
370
    25
100
AcDbLine
 10
15.4232407667
 20
16.4197033423
 30
0.0
 11
15.4123825754
 21
16.426165367
 31
0.0
  0
LINE
  5
8D
330
1F
100
AcDbEntity
  8
0
  6
Continuous
 62
     7
370
    25
100
AcDbLine
 10
15.2005382735
 20
16.4360414884
 30
0.0
 11
15.1899576738
 21
16.4310129815
 31
0.0
  0
LINE
  5
8E
330
1F
100
AcDbEntity
  8
0
  6
Continuous
 62
     7
370
    25
100
AcDbLine
 10
15.1900444623
 20
16.3976879516
 30
0.0
 11
15.2068066845
 21
16.3877122668
 31
0.0
  0
LINE
  5
8F
330
1F
100
AcDbEntity
  8
0
  6
Continuous
 62
     7
370
    25
100
AcDbLine
 10
15.4062967974
 20
16.3784120942
 30
0.0
 11
15.4185546495
 21
16.3842377275
 31
0.0
  0
LINE
  5
90
330
1F
100
AcDbEntity
  8
0
  6
Continuous
 62
     7
370
    25
100
AcDbLine
 10
15.423213866
 20
16.4697193517
 30
0.0
 11
15.4123825754
 21
16.476165367
 31
0.0
  0
LINE
  5
91
330
1F
100
AcDbEntity
  8
0
  6
Continuous
 62
     7
370
    25
100
AcDbLine
 10
15.2005382735
 20
16.4860414884
 30
0.0
 11
15.1899467363
 21
16.4810077833
 31
0.0
  0
LINE
  5
92
330
1F
100
AcDbEntity
  8
0
  6
Continuous
 62
     7
370
    25
100
AcDbLine
 10
15.423213866
 20
16.5197193517
 30
0.0
 11
15.4186874515
 21
16.5224131523
 31
0.0
  0
LINE
  5
93
330
1F
100
AcDbEntity
  8
0
  6
Continuous
 62
     7
370
    25
100
AcDbLine
 10
15.431582929
 20
16.4451023251
 30
0.0
 11
15.431582929
 21
16.4597610471
 31
0.0
  0
LINE
  5
94
330
1F
100
AcDbEntity
  8
0
  6
Continuous
 62
     7
370
    25
100
AcDbLine
 10
15.181582929
 20
16.4723537866
 30
0.0
 11
15.181582929
 21
16.4576931539
 31
0.0
  0
LINE
  5
95
330
1F
100
AcDbEntity
  8
0
  6
Continuous
 62
     7
370
    25
100
AcDbLine
 10
15.190043795
 20
16.4976883487
 30
0.0
 11
15.2068066845
 21
16.4877122668
 31
0.0
  0
LINE
  5
96
330
1F
100
AcDbEntity
  8
0
  6
Continuous
 62
     7
370
    25
100
AcDbLine
 10
15.4062967974
 20
16.4784120942
 30
0.0
 11
15.4232479384
 21
16.4864682471
 31
0.0
  0
LINE
  5
97
330
1F
100
AcDbEntity
  8
0
  6
Continuous
 62
     7
370
    25
100
AcDbLine
 10
15.431582929
 20
16.4951023251
 30
0.0
 11
15.431582929
 21
16.5097610471
 31
0.0
  0
LINE
  5
98
330
1F
100
AcDbEntity
  8
0
  6
Continuous
 62
     7
370
    25
100
AcDbLine
 10
15.181582929
 20
16.5223537866
 30
0.0
 11
15.181582929
 21
16.5076931539
 31
0.0
  0
LINE
  5
99
330
1F
100
AcDbEntity
  8
0
  6
Continuous
 62
     7
370
    25
100
AcDbLine
 10
15.190043795
 20
16.4476883487
 30
0.0
 11
15.2068066845
 21
16.4377122668
 31
0.0
  0
LINE
  5
9A
330
1F
100
AcDbEntity
  8
0
  6
Continuous
 62
     7
370
    25
100
AcDbLine
 10
15.4062967974
 20
16.4284120942
 30
0.0
 11
15.4232479384
 21
16.4364682471
 31
0.0
  0
LINE
  5
9B
330
1F
100
AcDbEntity
  8
0
  6
Continuous
 62
     7
370
    25
100
AcDbLine
 10
15.2008038471
 20
16.3457291742
 30
0.0
 11
15.2038306315
 21
16.3374131523
 31
0.0
  0
LINE
  5
9C
330
1F
100
AcDbEntity
  8
0
  6
Continuous
 62
     7
370
    25
100
AcDbLine
 10
15.1896137948
 20
16.3764735901
 30
0.0
 11
15.2008038471
 21
16.3457291742
 31
0.0
  0
LINE
  5
9D
330
1F
100
AcDbEntity
  8
0
  6
Continuous
 62
     7
370
    25
100
AcDbLine
 10
15.4093352264
 20
16.3374131523
 30
0.0
 11
15.4201812552
 21
16.3672123716
 31
0.0
  0
LINE
  5
9E
330
1F
100
AcDbEntity
  8
0
  6
Continuous
 62
     7
370
    25
100
AcDbLine
 10
15.4153632405
 20
16.3743914867
 30
0.0
 11
15.4123825754
 21
16.376165367
 31
0.0
  0
LINE
  5
9F
330
1F
100
AcDbEntity
  8
0
  6
Continuous
 62
     7
370
    25
100
AcDbLine
 10
15.2005382735
 20
16.3860414884
 30
0.0
 11
15.1948352439
 21
16.3833310821
 31
0.0
  0
LINE
  5
A0
330
1F
100
AcDbEntity
  8
0
  6
Continuous
 62
     7
370
    25
100
AcDbLine
 10
15.2007832825
 20
16.4912969681
 30
0.0
 11
15.200375063
 21
16.482540599
 31
0.0
  0
LINE
  5
A1
330
1F
100
AcDbEntity
  8
0
  6
Continuous
 62
     7
370
    25
100
AcDbLine
 10
15.4122193649
 20
16.4726644776
 30
0.0
 11
15.4126275844
 21
16.4814208467
 31
0.0
  0
LINE
  5
A2
330
1F
100
AcDbEntity
  8
0
  6
Continuous
 62
     7
370
    25
100
AcDbLine
 10
15.2007832825
 20
16.4412969681
 30
0.0
 11
15.200375063
 21
16.432540599
 31
0.0
  0
LINE
  5
A3
330
1F
100
AcDbEntity
  8
0
  6
Continuous
 62
     7
370
    25
100
AcDbLine
 10
15.4122193649
 20
16.4226644776
 30
0.0
 11
15.4126275844
 21
16.4314208467
 31
0.0
  0
LINE
  5
A4
330
1F
100
AcDbEntity
  8
0
  6
Continuous
 62
     7
370
    25
100
AcDbLine
 10
15.2007832825
 20
16.3912969681
 30
0.0
 11
15.200375063
 21
16.382540599
 31
0.0
  0
LINE
  5
A5
330
1F
100
AcDbEntity
  8
0
  6
Continuous
 62
     7
370
    25
100
AcDbLine
 10
15.4122193649
 20
16.3726644776
 30
0.0
 11
15.4126275844
 21
16.3814208467
 31
0.0
  0
LINE
  5
A6
330
1F
100
AcDbEntity
  8
0
  6
Continuous
 62
     7
370
    25
100
AcDbLine
 10
15.431582929
 20
16.3985382126
 30
0.0
 11
15.431582929
 21
16.4097603746
 31
0.0
  0
LINE
  5
A7
330
1F
100
AcDbEntity
  8
0
  6
Continuous
 62
     7
370
    25
100
AcDbLine
 10
15.181582929
 20
16.4223521528
 30
0.0
 11
15.181582929
 21
16.4076937372
 31
0.0
  0
ARC
  5
A8
330
1F
100
AcDbEntity
  8
0
  6
Continuous
 62
     7
370
    25
100
AcDbCircle
 10
15.1046610914
 20
15.8974131523
 30
0.0
 40
0.1804759332985928
100
AcDbArc
 50
315.3260403576
 51
44.6739596424
  0
LINE
  5
A9
330
1F
100
AcDbEntity
  8
0
  6
Continuous
 62
     7
370
    25
100
AcDbLine
 10
15.1688310318
 20
16.0534131523
 30
0.0
 11
15.1582244301
 21
16.0534131523
 31
0.0
  0
LINE
  5
AA
330
1F
100
AcDbEntity
  8
0
  6
Continuous
 62
     7
370
    25
100
AcDbLine
 10
15.1582244301
 20
15.7414131523
 30
0.0
 11
15.1688310318
 21
15.7414131523
 31
0.0
  0
ARC
  5
AB
330
1F
100
AcDbEntity
  8
0
  6
Continuous
 62
     7
370
    25
100
AcDbCircle
 10
10.2585047665
 20
15.8974131523
 30
0.0
 40
0.180475933298599
100
AcDbArc
 50
135.3260403576
 51
146.5391312062
  0
ARC
  5
AC
330
1F
100
AcDbEntity
  8
0
  6
Continuous
 62
     7
370
    25
100
AcDbCircle
 10
10.2585047665
 20
15.8974131523
 30
0.0
 40
0.180475933298599
100
AcDbArc
 50
146.5391312062
 51
224.6739596424
  0
LINE
  5
AD
330
1F
100
AcDbEntity
  8
0
  6
Continuous
 62
     7
370
    25
100
AcDbLine
 10
10.1943348261
 20
15.7414131523
 30
0.0
 11
10.2049414278
 21
15.7414131523
 31
0.0
  0
LINE
  5
AE
330
1F
100
AcDbEntity
  8
0
  6
Continuous
 62
     7
370
    25
100
AcDbLine
 10
10.2049414278
 20
16.0534131523
 30
0.0
 11
10.1943348261
 21
16.0534131523
 31
0.0
  0
LINE
  5
AF
330
1F
100
AcDbEntity
  8
0
  6
Continuous
 62
     7
370
    25
100
AcDbLine
 10
15.994082929
 20
4.6474131523
 30
0.0
 11
15.994082929
 21
16.5224131523
 31
0.0
  0
LINE
  5
B0
330
1F
100
AcDbEntity
  8
0
  6
Continuous
 62
     7
370
    25
100
AcDbLine
 10
9.369082929
 20
16.5224131523
 30
0.0
 11
9.369082929
 21
4.6474131523
 31
0.0
  0
LINE
  5
B1
330
1F
100
AcDbEntity
  8
0
  6
Continuous
 62
     7
370
    25
100
AcDbLine
 10
9.9799368407
 20
16.3985382126
 30
0.0
 11
9.9386564712
 21
16.3985382126
 31
0.0
  0
SPLINE
  5
B2
330
1F
100
AcDbEntity
  8
0
  6
Continuous
 62
     7
370
    25
100
AcDbSpline
210
0.0
220
0.0
230
1.0
 70
     8
 71
     3
 72
    17
 73
    13
 74
     0
 42
0.00000001
 43
0.00000001
 40
0.0
 40
0.0
 40
0.0
 40
0.0
 40
0.1000940226256732
 40
0.2001799780023069
 40
0.3002718300328076
 40
0.400357678067275
 40
0.4988866718001327
 40
0.5974156295191766
 40
0.6952573266898127
 40
0.7931044213550082
 40
0.8965476115929375
 40
1.0
 40
1.0
 40
1.0
 40
1.0
 10
9.979936840689511
 20
16.39853821264483
 30
0.0
 10
9.986142230602914
 20
16.39753404749234
 30
0.0
 10
9.998552510295704
 20
16.39552579811976
 30
0.0
 10
10.01936142385041
 20
16.39313743714826
 30
0.0
 10
10.04109022160536
 20
16.39134605152736
 30
0.0
 10
10.06316598739353
 20
16.39023950624888
 30
0.0
 10
10.08488911329998
 20
16.38987407124744
 30
0.0
 10
10.10562535630378
 20
16.39022043030464
 30
0.0
 10
10.12487250508884
 20
16.39128614528801
 30
0.0
 10
10.14242863839354
 20
16.39303386255857
 30
0.0
 10
10.15793042562522
 20
16.3954289771081
 30
0.0
 10
10.16575400494174
 20
16.39750177008182
 30
0.0
 10
10.16966596851045
 20
16.39853821264483
 30
0.0
  0
LINE
  5
B3
330
1F
100
AcDbEntity
  8
0
  6
Continuous
 62
     7
370
    25
100
AcDbLine
 10
10.181582929
 20
16.3985382126
 30
0.0
 11
10.1696659685
 21
16.3985382126
 31
0.0
  0
SPLINE
  5
B4
330
1F
100
AcDbEntity
  8
0
  6
Continuous
 62
     7
370
    25
100
AcDbSpline
210
0.0
220
0.0
230
1.0
 70
     8
 71
     3
 72
    24
 73
    20
 74
     0
 42
0.00000001
 43
0.00000001
 40
0.0
 40
0.0
 40
0.0
 40
0.0
 40
0.0169135872076494
 40
0.0870459295576517
 40
0.1548743669970459
 40
0.2248487852065711
 40
0.2897106609072681
 40
0.3566069737632188
 40
0.4189592163639502
 40
0.4832013618737437
 40
0.544222359131209
 40
0.6070156719520842
 40
0.6680567298761396
 40
0.7308005622913633
 40
0.7931293978342645
 40
0.8571446418010124
 40
0.9217711086989786
 40
0.988123776716081
 40
1.0
 40
1.0
 40
1.0
 40
1.0
 10
10.1796718513182
 20
16.39428620630699
 30
0.0
 10
10.17960906827586
 20
16.39381502891986
 30
0.0
 10
10.17928595478051
 20
16.39139011023491
 30
0.0
 10
10.17490237942726
 20
16.3875425803446
 30
0.0
 10
10.16635836142283
 20
16.38287591475604
 30
0.0
 10
10.15418682854089
 20
16.37908172844834
 30
0.0
 10
10.13901014092242
 20
16.37608959296838
 30
0.0
 10
10.12180781166731
 20
16.37402035807922
 30
0.0
 10
10.10265809536386
 20
16.37279503749941
 30
0.0
 10
10.08269685223081
 20
16.37242685359913
 30
0.0
 10
10.06191772080324
 20
16.37287906972757
 30
0.0
 10
10.04130950775236
 20
16.37411253569314
 30
0.0
 10
10.0209295322672
 20
16.37612771531602
 30
0.0
 10
10.00155714546374
 20
16.37886640724449
 30
0.0
 10
9.983389016784345
 20
16.38234040325047
 30
0.0
 10
9.967012087298894
 20
16.38648311006494
 30
0.0
 10
9.95282593010082
 20
16.39129231411018
 30
0.0
 10
9.94431760365755
 20
16.39515150967391
 30
0.0
 10
9.940618970930618
 20
16.39737263436258
 30
0.0
 10
9.94005746753488
 20
16.39770983168579
 30
0.0
  0
SPLINE
  5
B5
330
1F
100
AcDbEntity
  8
0
  6
Continuous
 62
     7
370
    25
100
AcDbSpline
210
0.0
220
0.0
230
1.0
 70
     8
 71
     3
 72
    15
 73
    11
 74
     0
 42
0.00000001
 43
0.00000001
 40
0.0
 40
0.0
 40
0.0
 40
0.0
 40
0.1324371753618917
 40
0.2687047247501125
 40
0.4014770024457385
 40
0.5380165655807768
 40
0.6721732720219193
 40
0.8102571289308715
 40
0.9436782265203267
 40
1.0
 40
1.0
 40
1.0
 40
1.0
 10
9.979936840689511
 20
16.39853821264483
 30
0.0
 10
9.974591777329136
 20
16.39987165138625
 30
0.0
 10
9.963747059634903
 20
16.40257709484656
 30
0.0
 10
9.95088473837522
 20
16.40704899758696
 30
0.0
 10
9.94082996141186
 20
16.41170000756512
 30
0.0
 10
9.93424472138251
 20
16.41636430881232
 30
0.0
 10
9.931116275672665
 20
16.4209924332445
 30
0.0
 10
9.931946336262468
 20
16.4253339097038
 30
0.0
 10
9.93496044732931
 20
16.42865841213456
 30
0.0
 10
9.938893506312374
 20
16.43030510513671
 30
0.0
 10
9.940060964440724
 20
16.43079389646644
 30
0.0
  0
SPLINE
  5
B6
330
1F
100
AcDbEntity
  8
0
  6
Continuous
 62
     7
370
    25
100
AcDbSpline
210
0.0
220
0.0
230
1.0
 70
     8
 71
     3
 72
    13
 73
     9
 74
     0
 42
0.00000001
 43
0.00000001
 40
0.0
 40
0.0
 40
0.0
 40
0.0
 40
0.0392396433571306
 40
0.2493103080476436
 40
0.4653592664644431
 40
0.6773291197868024
 40
0.8955064524308796
 40
1.0
 40
1.0
 40
1.0
 40
1.0
 10
10.17316885535531
 20
16.41957955955208
 30
0.0
 10
10.17371529874525
 20
16.41930684665829
 30
0.0
 10
10.17718714400741
 20
16.41757415671153
 30
0.0
 10
10.18036225830375
 20
16.41415893895854
 30
0.0
 10
10.18225161031728
 20
16.40950108239427
 30
0.0
 10
10.18009325875579
 20
16.40486783069083
 30
0.0
 10
10.17545088892707
 20
16.40121603703883
 30
0.0
 10
10.17108108366851
 20
16.3991932657169
 30
0.0
 10
10.16966596851045
 20
16.39853821264483
 30
0.0
  0
LWPOLYLINE
  5
B7
330
1F
100
AcDbEntity
  8
0
  6
Continuous
 62
     7
370
    25
100
AcDbPolyline
 90
       12
 70
   128
 43
0.0
 10
10.0805343441
 20
16.4068069337
 10
10.0937863569
 20
16.4069848429
 10
10.10639692
 20
16.4075155267
 10
10.1181502633
 20
16.4083899048
 10
10.1288452838
 20
16.4095930164
 10
10.1382989867
 20
16.4111042759
 10
10.1463496166
 20
16.4128978252
 10
10.1528594248
 20
16.4149429763
 10
10.1577170269
 20
16.417204736
 10
10.1608393078
 20
16.4196444049
 10
10.1621728446
 20
16.4222202398
 10
10.1622193649
 20
16.4226644776
  0
ARC
  5
B8
330
1F
100
AcDbEntity
  8
0
  6
Continuous
 62
     7
370
    25
100
AcDbCircle
 10
10.0514313374
 20
16.6016413459
 30
0.0
 40
0.1969960233304923
100
AcDbArc
 50
239.1370442898
 51
278.4956301559
  0
ARC
  5
B9
330
1F
100
AcDbEntity
  8
0
  6
Continuous
 62
     7
370
    25
100
AcDbCircle
 10
10.0933212431
 20
16.5778857001
 30
0.0
 40
0.2091784880930123
100
AcDbArc
 50
266.652173722
 51
287.521360353
  0
ARC
  5
BA
330
1F
100
AcDbEntity
  8
0
  6
Continuous
 62
     7
370
    25
100
AcDbCircle
 10
10.063973809
 20
16.6784537462
 30
0.0
 40
0.3098635190361167
100
AcDbArc
 50
249.766145582
 51
273.169427864
  0
SPLINE
  5
BB
330
1F
100
AcDbEntity
  8
0
  6
Continuous
 62
     7
370
    25
100
AcDbSpline
210
0.0
220
0.0
230
1.0
 70
     8
 71
     3
 72
    10
 73
     6
 74
     0
 42
0.00000001
 43
0.00000001
 40
0.0
 40
0.0
 40
0.0
 40
0.0
 40
0.0768824120363257
 40
0.5330584079754598
 40
1.0
 40
1.0
 40
1.0
 40
1.0
 10
9.931817882628536
 20
16.40769373715338
 30
0.0
 10
9.931742842276009
 20
16.40746136393538
 30
0.0
 10
9.931222555648775
 20
16.40585022174613
 30
0.0
 10
9.933180767843158
 20
16.40274118840138
 30
0.0
 10
9.936817100832796
 20
16.39995005483058
 30
0.0
 10
9.938656471176781
 20
16.39853821264483
 30
0.0
  0
ARC
  5
BC
330
1F
100
AcDbEntity
  8
0
  6
Continuous
 62
     7
370
    25
100
AcDbCircle
 10
10.0853828865
 20
16.8610651668
 30
0.0
 40
0.3420277187026057
100
AcDbArc
 50
269.2834882406
 51
278.056511234
  0
ARC
  5
BD
330
1F
100
AcDbEntity
  8
0
  6
Continuous
 62
     7
370
    25
100
AcDbCircle
 10
10.0810866321
 20
17.0582089487
 30
0.0
 40
0.539144756965035
100
AcDbArc
 50
263.6105273585
 51
270.0020342386
  0
ARC
  5
BE
330
1F
100
AcDbEntity
  8
0
  6
Continuous
 62
     7
370
    25
100
AcDbCircle
 10
10.0933212431
 20
16.6778857001
 30
0.0
 40
0.209178488092984
100
AcDbArc
 50
266.652173722
 51
287.521360353
  0
ARC
  5
BF
330
1F
100
AcDbEntity
  8
0
  6
Continuous
 62
     7
370
    25
100
AcDbCircle
 10
10.063973809
 20
16.7784537462
 30
0.0
 40
0.3098635190360887
100
AcDbArc
 50
249.766145582
 51
273.169427864
  0
SPLINE
  5
C0
330
1F
100
AcDbEntity
  8
0
  6
Continuous
 62
     7
370
    25
100
AcDbSpline
210
0.0
220
0.0
230
1.0
 70
     8
 71
     3
 72
    19
 73
    15
 74
     0
 42
0.00000001
 43
0.00000001
 40
0.0
 40
0.0
 40
0.0
 40
0.0
 40
0.0837313043131587
 40
0.1698918010903021
 40
0.253524503594704
 40
0.3396291450589251
 40
0.4224916382768327
 40
0.5077536064897576
 40
0.5907248948273437
 40
0.6760517921296787
 40
0.7599689450791004
 40
0.8462374407502432
 40
0.9316649925408
 40
0.9999999999999999
 40
0.9999999999999999
 40
0.9999999999999999
 40
0.9999999999999999
 10
10.00918044821657
 20
16.48036058570484
 30
0.0
 10
10.0156353702287
 20
16.47962675129978
 30
0.0
 10
10.02873248289801
 20
16.47813779266239
 30
0.0
 10
10.04947057002618
 20
16.47668332468685
 30
0.0
 10
10.07053070977966
 20
16.47583211591748
 30
0.0
 10
10.09098466382153
 20
16.47567106718385
 30
0.0
 10
10.11058963993173
 20
16.47617964380643
 30
0.0
 10
10.12846558680621
 20
16.4773334384834
 30
0.0
 10
10.1444988946538
 20
16.4791281413216
 30
0.0
 10
10.15801203220775
 20
16.48150133789999
 30
0.0
 10
10.16889281342912
 20
16.4844461555301
 30
0.0
 10
10.17655093345986
 20
16.48788082203017
 30
0.0
 10
10.18099747786776
 20
16.49145872901136
 30
0.0
 10
10.18118760514516
 20
16.49398126301077
 30
0.0
 10
10.18127210132539
 20
16.49510232512437
 30
0.0
  0
SPLINE
  5
C1
330
1F
100
AcDbEntity
  8
0
  6
Continuous
 62
     7
370
    25
100
AcDbSpline
210
0.0
220
0.0
230
1.0
 70
     8
 71
     3
 72
    14
 73
    10
 74
     0
 42
0.00000001
 43
0.00000001
 40
0.0
 40
0.0
 40
0.0
 40
0.0
 40
0.0822629314974606
 40
0.2298573817315795
 40
0.374650961522159
 40
0.5236923411460362
 40
0.667533773077483
 40
0.8156854364695862
 40
0.9999999999999999
 40
0.9999999999999999
 40
0.9999999999999999
 40
0.9999999999999999
 10
9.932017317885398
 20
16.50769315385159
 30
0.0
 10
9.931961200172282
 20
16.50682051221246
 30
0.0
 10
9.931804397218988
 20
16.50438219499341
 30
0.0
 10
9.935584614325617
 20
16.50036541473061
 30
0.0
 10
9.942999652311808
 20
16.49577116314846
 30
0.0
 10
9.95390061708479
 20
16.49144903174203
 30
0.0
 10
9.96798017684369
 20
16.48746395274012
 30
0.0
 10
9.98600384793131
 20
16.48359277667829
 30
0.0
 10
10.00091430318058
 20
16.48151337597786
 30
0.0
 10
10.00918044821657
 20
16.48036058570484
 30
0.0
  0
LWPOLYLINE
  5
C2
330
1F
100
AcDbEntity
  8
0
  6
Continuous
 62
     7
370
    25
100
AcDbPolyline
 90
       12
 70
   128
 43
0.0
 10
10.0805343441
 20
16.4568069337
 10
10.0937863569
 20
16.4569848429
 10
10.10639692
 20
16.4575155267
 10
10.1181502633
 20
16.4583899048
 10
10.1288452838
 20
16.4595930164
 10
10.1382989867
 20
16.4611042759
 10
10.1463496166
 20
16.4628978252
 10
10.1528594248
 20
16.4649429763
 10
10.1577170269
 20
16.467204736
 10
10.1608393078
 20
16.4696444049
 10
10.1621728446
 20
16.4722202398
 10
10.1622193649
 20
16.4726644776
  0
ARC
  5
C3
330
1F
100
AcDbEntity
  8
0
  6
Continuous
 62
     7
370
    25
100
AcDbCircle
 10
10.0514313374
 20
16.6516413459
 30
0.0
 40
0.1969960233303996
100
AcDbArc
 50
239.1370442898
 51
278.4956301559
  0
SPLINE
  5
C4
330
1F
100
AcDbEntity
  8
0
  6
Continuous
 62
     7
370
    25
100
AcDbSpline
210
0.0
220
0.0
230
1.0
 70
     8
 71
     3
 72
    17
 73
    13
 74
     0
 42
0.00000001
 43
0.00000001
 40
0.0
 40
0.0
 40
0.0
 40
0.0
 40
0.0891702461221898
 40
0.1800904251854622
 40
0.2878019682914229
 40
0.3985102366266794
 40
0.5085011849018227
 40
0.6216161504775557
 40
0.7326985011768185
 40
0.8470342338457939
 40
0.9574787215489482
 40
1.0
 40
1.0
 40
1.0
 40
1.0
 10
10.00857526707371
 20
16.44309635668827
 30
0.0
 10
10.00334904596606
 20
16.44395443166782
 30
0.0
 10
9.992794041103798
 20
16.44568742102949
 30
0.0
 10
9.977574869494969
 20
16.44897160775594
 30
0.0
 10
9.963076949577824
 20
16.45283464118329
 30
0.0
 10
9.950379465109819
 20
16.45723906629219
 30
0.0
 10
9.940534508210353
 20
16.46187214992583
 30
0.0
 10
9.934066274876393
 20
16.46653497062099
 30
0.0
 10
9.931072562544713
 20
16.47115881539597
 30
0.0
 10
9.932049959256492
 20
16.47548794142116
 30
0.0
 10
9.935094527147035
 20
16.47875511646121
 30
0.0
 10
9.938969283460017
 20
16.48035187764825
 30
0.0
 10
9.940046384541235
 20
16.48079574380708
 30
0.0
  0
SPLINE
  5
C5
330
1F
100
AcDbEntity
  8
0
  6
Continuous
 62
     7
370
    25
100
AcDbSpline
210
0.0
220
0.0
230
1.0
 70
     8
 71
     3
 72
    22
 73
    18
 74
     0
 42
0.00000001
 43
0.00000001
 40
0.0
 40
0.0
 40
0.0
 40
0.0
 40
0.0164010247073337
 40
0.0896977369639547
 40
0.1650812518239783
 40
0.2390239633468612
 40
0.3151333618136304
 40
0.3886184161462526
 40
0.4643241051362957
 40
0.5362313020056122
 40
0.6103399320888937
 40
0.6802921641172116
 40
0.7523474526345982
 40
0.8210848416265984
 40
0.8918088402861416
 40
0.945457750550924
 40
0.9999999999999999
 40
0.9999999999999999
 40
0.9999999999999999
 40
0.9999999999999999
 10
10.17313135348028
 20
16.46957771876739
 30
0.0
 10
10.17377991391761
 20
16.46925048657255
 30
0.0
 10
10.17732691201996
 20
16.46746084306783
 30
0.0
 10
10.18050024789338
 20
16.46398756703158
 30
0.0
 10
10.18223195132204
 20
16.4593300876339
 30
0.0
 10
10.17997431681303
 20
16.45469764232255
 30
0.0
 10
10.1741475709868
 20
16.45035138079585
 30
0.0
 10
10.16471186976232
 20
16.44636816279693
 30
0.0
 10
10.15221118997553
 20
16.44299241787832
 30
0.0
 10
10.13679457103434
 20
16.4402771605942
 30
0.0
 10
10.1194001862913
 20
16.43838808277026
 30
0.0
 10
10.10016388961214
 20
16.43733089332135
 30
0.0
 10
10.08017109346225
 20
16.43714695918036
 30
0.0
 10
10.05947744065619
 20
16.437810178842
 30
0.0
 10
10.0405602982182
 20
16.43916847320487
 30
0.0
 10
10.02339682315026
 20
16.44096230946903
 30
0.0
 10
10.01354290717238
 20
16.44238110260267
 30
0.0
 10
10.00857526707371
 20
16.44309635668827
 30
0.0
  0
SPLINE
  5
C6
330
1F
100
AcDbEntity
  8
0
  6
Continuous
 62
     7
370
    25
100
AcDbSpline
210
0.0
220
0.0
230
1.0
 70
     8
 71
     3
 72
    15
 73
    11
 74
     0
 42
0.00000001
 43
0.00000001
 40
0.0
 40
0.0
 40
0.0
 40
0.0
 40
0.1164413487880071
 40
0.2351678157719344
 40
0.3758209809780685
 40
0.5203873654789926
 40
0.6640170505880802
 40
0.8117261770348007
 40
0.9567810502067411
 40
1.0
 40
1.0
 40
1.0
 40
1.0
 10
10.00857526707371
 20
16.49309635668827
 30
0.0
 10
10.00334899588145
 20
16.49395443516755
 30
0.0
 10
9.992793889867068
 20
16.49568743159735
 30
0.0
 10
9.977575536029732
 20
16.49897156118097
 30
0.0
 10
9.963073895370872
 20
16.50283485459994
 30
0.0
 10
9.950391121459635
 20
16.5072382517897
 30
0.0
 10
9.940490857900055
 20
16.51187520004762
 30
0.0
 10
9.934233080565807
 20
16.51652331485809
 30
0.0
 10
9.93136201681492
 20
16.52007919043141
 30
0.0
 10
9.931863894599466
 20
16.52192912691376
 30
0.0
 10
9.931979102494177
 20
16.52235378664973
 30
0.0
  0
SPLINE
  5
C7
330
1F
100
AcDbEntity
  8
0
  6
Continuous
 62
     7
370
    25
100
AcDbSpline
210
0.0
220
0.0
230
1.0
 70
     8
 71
     3
 72
    22
 73
    18
 74
     0
 42
0.00000001
 43
0.00000001
 40
0.0
 40
0.0
 40
0.0
 40
0.0
 40
0.0164010247073337
 40
0.0896977369639546
 40
0.1650812518239773
 40
0.2390239633468604
 40
0.3151333618136296
 40
0.3886184161462517
 40
0.4643241051362947
 40
0.5362313020056123
 40
0.6103399320888938
 40
0.6802921641172115
 40
0.7523474526345981
 40
0.8210848416265982
 40
0.8918088402861413
 40
0.9454577505509236
 40
0.9999999999999999
 40
0.9999999999999999
 40
0.9999999999999999
 40
0.9999999999999999
 10
10.17313135348028
 20
16.51957771876738
 30
0.0
 10
10.17377991391761
 20
16.51925048657255
 30
0.0
 10
10.17732691201996
 20
16.51746084306783
 30
0.0
 10
10.18050024789338
 20
16.51398756703158
 30
0.0
 10
10.18223195132204
 20
16.50933008763391
 30
0.0
 10
10.17997431681303
 20
16.50469764232255
 30
0.0
 10
10.1741475709868
 20
16.50035138079585
 30
0.0
 10
10.16471186976232
 20
16.49636816279692
 30
0.0
 10
10.15221118997553
 20
16.49299241787832
 30
0.0
 10
10.13679457103434
 20
16.4902771605942
 30
0.0
 10
10.1194001862913
 20
16.48838808277026
 30
0.0
 10
10.10016388961214
 20
16.48733089332135
 30
0.0
 10
10.08017109346225
 20
16.48714695918036
 30
0.0
 10
10.05947744065619
 20
16.487810178842
 30
0.0
 10
10.0405602982182
 20
16.48916847320487
 30
0.0
 10
10.02339682315026
 20
16.49096230946903
 30
0.0
 10
10.01354290717238
 20
16.49238110260267
 30
0.0
 10
10.00857526707371
 20
16.49309635668827
 30
0.0
  0
LWPOLYLINE
  5
C8
330
1F
100
AcDbEntity
  8
0
  6
Continuous
 62
     7
370
    25
100
AcDbPolyline
 90
       12
 70
   128
 43
0.0
 10
10.0805343441
 20
16.5068069337
 10
10.0937863569
 20
16.5069848429
 10
10.10639692
 20
16.5075155267
 10
10.1181502633
 20
16.5083899048
 10
10.1288452838
 20
16.5095930164
 10
10.1382989867
 20
16.5111042759
 10
10.1463496166
 20
16.5128978252
 10
10.1528594248
 20
16.5149429763
 10
10.1577170269
 20
16.517204736
 10
10.1608393078
 20
16.5196444049
 10
10.1621728446
 20
16.5222202398
 10
10.1621994073
 20
16.5224131523
  0
ARC
  5
C9
330
1F
100
AcDbEntity
  8
0
  6
Continuous
 62
     7
370
    25
100
AcDbCircle
 10
10.0693906212
 20
16.8767496462
 30
0.0
 40
0.370110514708984
100
AcDbArc
 50
253.2120456328
 51
271.7253895007
  0
SPLINE
  5
CA
330
1F
100
AcDbEntity
  8
0
  6
Continuous
 62
     7
370
    25
100
AcDbSpline
210
0.0
220
0.0
230
1.0
 70
     8
 71
     3
 72
    19
 73
    15
 74
     0
 42
0.00000001
 43
0.00000001
 40
0.0
 40
0.0
 40
0.0
 40
0.0
 40
0.0837313043131588
 40
0.1698918010903024
 40
0.2535245035947044
 40
0.3396291450589257
 40
0.4224916382768334
 40
0.5077536064897585
 40
0.590724894827332
 40
0.6760517921296629
 40
0.7599689450790893
 40
0.8462374407502319
 40
0.9316649925407957
 40
1.0
 40
1.0
 40
1.0
 40
1.0
 10
10.00918044821657
 20
16.43036058570484
 30
0.0
 10
10.0156353702287
 20
16.42962675129978
 30
0.0
 10
10.02873248289801
 20
16.42813779266239
 30
0.0
 10
10.04947057002618
 20
16.42668332468685
 30
0.0
 10
10.07053070977966
 20
16.42583211591748
 30
0.0
 10
10.09098466382153
 20
16.42567106718385
 30
0.0
 10
10.11058963993173
 20
16.42617964380644
 30
0.0
 10
10.12846558680621
 20
16.4273334384834
 30
0.0
 10
10.1444988946538
 20
16.4291281413216
 30
0.0
 10
10.15801203220773
 20
16.43150133789999
 30
0.0
 10
10.16889281342913
 20
16.4344461555301
 30
0.0
 10
10.17655093345987
 20
16.43788082203017
 30
0.0
 10
10.18099747786776
 20
16.44145872901136
 30
0.0
 10
10.18118760514516
 20
16.44398126301077
 30
0.0
 10
10.18127210132539
 20
16.44510232512437
 30
0.0
  0
SPLINE
  5
CB
330
1F
100
AcDbEntity
  8
0
  6
Continuous
 62
     7
370
    25
100
AcDbSpline
210
0.0
220
0.0
230
1.0
 70
     8
 71
     3
 72
    14
 73
    10
 74
     0
 42
0.00000001
 43
0.00000001
 40
0.0
 40
0.0
 40
0.0
 40
0.0
 40
0.0822629314974605
 40
0.2298573817315786
 40
0.3746509615221592
 40
0.5236923411460346
 40
0.6675337730774833
 40
0.8156854364695865
 40
1.0
 40
1.0
 40
1.0
 40
1.0
 10
9.932017317885398
 20
16.45769315385159
 30
0.0
 10
9.931961200172282
 20
16.45682051221246
 30
0.0
 10
9.931804397218988
 20
16.45438219499341
 30
0.0
 10
9.935584614325617
 20
16.45036541473061
 30
0.0
 10
9.942999652311808
 20
16.44577116314846
 30
0.0
 10
9.95390061708479
 20
16.44144903174203
 30
0.0
 10
9.96798017684369
 20
16.43746395274012
 30
0.0
 10
9.986003847931311
 20
16.4335927766783
 30
0.0
 10
10.00091430318058
 20
16.43151337597786
 30
0.0
 10
10.00918044821657
 20
16.43036058570484
 30
0.0
  0
ARC
  5
CC
330
1F
100
AcDbEntity
  8
0
  6
Continuous
 62
     7
370
    25
100
AcDbCircle
 10
10.0933212431
 20
16.6278857001
 30
0.0
 40
0.2091784880930123
100
AcDbArc
 50
266.652173722
 51
287.521360353
  0
ARC
  5
CD
330
1F
100
AcDbEntity
  8
0
  6
Continuous
 62
     7
370
    25
100
AcDbCircle
 10
10.063973809
 20
16.7284537462
 30
0.0
 40
0.3098635190361167
100
AcDbArc
 50
249.766145582
 51
273.169427864
  0
LINE
  5
CE
330
1F
100
AcDbEntity
  8
0
  6
Continuous
 62
     7
370
    25
100
AcDbLine
 10
10.1593352264
 20
16.3374131523
 30
0.0
 11
9.9538306315
 21
16.3374131523
 31
0.0
  0
SPLINE
  5
CF
330
1F
100
AcDbEntity
  8
0
  6
Continuous
 62
     7
370
    25
100
AcDbSpline
210
0.0
220
0.0
230
1.0
 70
     8
 71
     3
 72
    23
 73
    19
 74
     0
 42
0.00000001
 43
0.00000001
 40
0.0
 40
0.0
 40
0.0
 40
0.0
 40
0.0658748243236161
 40
0.1336616329360323
 40
0.1994286604215528
 40
0.2671606575109206
 40
0.3319437438029553
 40
0.3986369048382969
 40
0.4629094201298952
 40
0.5290339808591853
 40
0.5935546433043415
 40
0.6599001990720371
 40
0.7252712375672059
 40
0.7924824507026224
 40
0.858850806870537
 40
0.9271047745052342
 40
0.9941485680683196
 40
0.9999999999999999
 40
0.9999999999999999
 40
0.9999999999999999
 40
0.9999999999999999
 10
9.983634784249322
 20
16.36032659564168
 30
0.0
 10
9.988861464569414
 20
16.35943482915554
 30
0.0
 10
9.999466527028266
 20
16.35762541310081
 30
0.0
 10
10.0174497868595
 20
16.35543098341108
 30
0.0
 10
10.03656378724698
 20
16.35369978963298
 30
0.0
 10
10.05599990853887
 20
16.35256634281716
 30
0.0
 10
10.0754960548365
 20
16.35203837341805
 30
0.0
 10
10.09410057542125
 20
16.35213806606682
 30
0.0
 10
10.11171916551663
 20
16.3528539131265
 30
0.0
 10
10.1275734337388
 20
16.35413987105519
 30
0.0
 10
10.14155495672784
 20
16.35597247346221
 30
0.0
 10
10.1530824560392
 20
16.35826267449637
 30
0.0
 10
10.16201696287606
 20
16.36097436500273
 30
0.0
 10
10.16793239831719
 20
16.36398860708618
 30
0.0
 10
10.1708113492029
 20
16.36726060629242
 30
0.0
 10
10.17004712270099
 20
16.370634997181
 30
0.0
 10
10.16809362428996
 20
16.37303925942507
 30
0.0
 10
10.16553442956704
 20
16.37423603196169
 30
0.0
 10
10.16532899836603
 20
16.37433209906332
 30
0.0
  0
SPLINE
  5
D0
330
1F
100
AcDbEntity
  8
0
  6
Continuous
 62
     7
370
    25
100
AcDbSpline
210
0.0
220
0.0
230
1.0
 70
     8
 71
     3
 72
    14
 73
    10
 74
     0
 42
0.00000001
 43
0.00000001
 40
0.0
 40
0.0
 40
0.0
 40
0.0
 40
0.1165041489224431
 40
0.2570090647611378
 40
0.3952786085733891
 40
0.5374986125562089
 40
0.6767796592885267
 40
0.8201032297444736
 40
1.0
 40
1.0
 40
1.0
 40
1.0
 10
9.944878624658253
 20
16.38324234020802
 30
0.0
 10
9.94337765361838
 20
16.3824501987398
 30
0.0
 10
9.940066499751678
 20
16.38070272845836
 30
0.0
 10
9.938853397994967
 20
16.37770227594541
 30
0.0
 10
9.940563545665979
 20
16.37437091111767
 30
0.0
 10
9.945614191575403
 20
16.37095679265659
 30
0.0
 10
9.953924515970073
 20
16.36752313087529
 30
0.0
 10
9.96601176809065
 20
16.36387372579386
 30
0.0
 10
9.977333420968293
 20
16.36159492312278
 30
0.0
 10
9.983634784249322
 20
16.36032659564168
 30
0.0
  0
LWPOLYLINE
  5
D1
330
1F
100
AcDbEntity
  8
0
  6
Continuous
 62
     7
370
    25
100
AcDbPolyline
 90
       12
 70
   128
 43
0.0
 10
10.0805343441
 20
16.3568069337
 10
10.0937863569
 20
16.3569848429
 10
10.10639692
 20
16.3575155267
 10
10.1181502633
 20
16.3583899048
 10
10.1288452838
 20
16.3595930164
 10
10.1382989867
 20
16.3611042759
 10
10.1463496166
 20
16.3628978252
 10
10.1528594248
 20
16.3649429763
 10
10.1577170269
 20
16.367204736
 10
10.1608393078
 20
16.3696444049
 10
10.1621728446
 20
16.3722202398
 10
10.1622193649
 20
16.3726644776
  0
ARC
  5
D2
330
1F
100
AcDbEntity
  8
0
  6
Continuous
 62
     7
370
    25
100
AcDbCircle
 10
10.0514313374
 20
16.5516413459
 30
0.0
 40
0.196996023330451
100
AcDbArc
 50
239.1370442898
 51
278.4956301559
  0
LINE
  5
D3
330
1F
100
AcDbEntity
  8
0
  6
Continuous
 62
     7
370
    25
100
AcDbLine
 10
15.2299368407
 20
16.3985382126
 30
0.0
 11
15.1886564712
 21
16.3985382126
 31
0.0
  0
SPLINE
  5
D4
330
1F
100
AcDbEntity
  8
0
  6
Continuous
 62
     7
370
    25
100
AcDbSpline
210
0.0
220
0.0
230
1.0
 70
     8
 71
     3
 72
    17
 73
    13
 74
     0
 42
0.00000001
 43
0.00000001
 40
0.0
 40
0.0
 40
0.0
 40
0.0
 40
0.1000940226256732
 40
0.2001799780023067
 40
0.3002718300328074
 40
0.4003576780672747
 40
0.4988866718001325
 40
0.5974156295191764
 40
0.6952573266898112
 40
0.7931044213550084
 40
0.8965476115929376
 40
0.9999999999999999
 40
0.9999999999999999
 40
0.9999999999999999
 40
0.9999999999999999
 10
15.22993684068951
 20
16.39853821264483
 30
0.0
 10
15.23614223060291
 20
16.39753404749234
 30
0.0
 10
15.2485525102957
 20
16.39552579811976
 30
0.0
 10
15.26936142385041
 20
16.39313743714826
 30
0.0
 10
15.29109022160536
 20
16.39134605152736
 30
0.0
 10
15.31316598739353
 20
16.39023950624888
 30
0.0
 10
15.33488911329998
 20
16.38987407124744
 30
0.0
 10
15.35562535630378
 20
16.39022043030465
 30
0.0
 10
15.37487250508884
 20
16.39128614528801
 30
0.0
 10
15.39242863839353
 20
16.39303386255857
 30
0.0
 10
15.40793042562522
 20
16.3954289771081
 30
0.0
 10
15.41575400494174
 20
16.39750177008182
 30
0.0
 10
15.41966596851045
 20
16.39853821264483
 30
0.0
  0
LINE
  5
D5
330
1F
100
AcDbEntity
  8
0
  6
Continuous
 62
     7
370
    25
100
AcDbLine
 10
15.431582929
 20
16.3985382126
 30
0.0
 11
15.4196659685
 21
16.3985382126
 31
0.0
  0
SPLINE
  5
D6
330
1F
100
AcDbEntity
  8
0
  6
Continuous
 62
     7
370
    25
100
AcDbSpline
210
0.0
220
0.0
230
1.0
 70
     8
 71
     3
 72
    24
 73
    20
 74
     0
 42
0.00000001
 43
0.00000001
 40
0.0
 40
0.0
 40
0.0
 40
0.0
 40
0.0169135872076494
 40
0.0870459295576517
 40
0.1548743669970459
 40
0.2248487852065711
 40
0.2897106609072681
 40
0.3566069737632188
 40
0.4189592163639502
 40
0.4832013618737437
 40
0.544222359131209
 40
0.6070156719520842
 40
0.6680567298761396
 40
0.7308005622913633
 40
0.7931293978342645
 40
0.8571446418010124
 40
0.9217711086989786
 40
0.988123776716081
 40
1.0
 40
1.0
 40
1.0
 40
1.0
 10
15.4296718513182
 20
16.39428620630699
 30
0.0
 10
15.42960906827586
 20
16.39381502891986
 30
0.0
 10
15.42928595478051
 20
16.39139011023491
 30
0.0
 10
15.42490237942725
 20
16.3875425803446
 30
0.0
 10
15.41635836142283
 20
16.38287591475604
 30
0.0
 10
15.40418682854088
 20
16.37908172844834
 30
0.0
 10
15.38901014092242
 20
16.37608959296838
 30
0.0
 10
15.37180781166731
 20
16.37402035807922
 30
0.0
 10
15.35265809536386
 20
16.37279503749941
 30
0.0
 10
15.33269685223081
 20
16.37242685359913
 30
0.0
 10
15.31191772080324
 20
16.37287906972757
 30
0.0
 10
15.29130950775236
 20
16.37411253569314
 30
0.0
 10
15.2709295322672
 20
16.37612771531602
 30
0.0
 10
15.25155714546374
 20
16.37886640724449
 30
0.0
 10
15.23338901678434
 20
16.38234040325047
 30
0.0
 10
15.21701208729889
 20
16.38648311006494
 30
0.0
 10
15.20282593010082
 20
16.39129231411018
 30
0.0
 10
15.19431760365755
 20
16.39515150967391
 30
0.0
 10
15.19061897093061
 20
16.39737263436258
 30
0.0
 10
15.19005746753488
 20
16.39770983168579
 30
0.0
  0
SPLINE
  5
D7
330
1F
100
AcDbEntity
  8
0
  6
Continuous
 62
     7
370
    25
100
AcDbSpline
210
0.0
220
0.0
230
1.0
 70
     8
 71
     3
 72
    15
 73
    11
 74
     0
 42
0.00000001
 43
0.00000001
 40
0.0
 40
0.0
 40
0.0
 40
0.0
 40
0.1324371753618917
 40
0.2687047247501125
 40
0.4014770024457385
 40
0.5380165655807768
 40
0.6721732720219193
 40
0.8102571289308715
 40
0.9436782265203267
 40
1.0
 40
1.0
 40
1.0
 40
1.0
 10
15.22993684068951
 20
16.39853821264483
 30
0.0
 10
15.22459177732913
 20
16.39987165138625
 30
0.0
 10
15.2137470596349
 20
16.40257709484656
 30
0.0
 10
15.20088473837522
 20
16.40704899758696
 30
0.0
 10
15.19082996141186
 20
16.41170000756512
 30
0.0
 10
15.18424472138251
 20
16.41636430881232
 30
0.0
 10
15.18111627567266
 20
16.4209924332445
 30
0.0
 10
15.18194633626247
 20
16.4253339097038
 30
0.0
 10
15.18496044732931
 20
16.42865841213456
 30
0.0
 10
15.18889350631237
 20
16.43030510513671
 30
0.0
 10
15.19006096444073
 20
16.43079389646644
 30
0.0
  0
SPLINE
  5
D8
330
1F
100
AcDbEntity
  8
0
  6
Continuous
 62
     7
370
    25
100
AcDbSpline
210
0.0
220
0.0
230
1.0
 70
     8
 71
     3
 72
    13
 73
     9
 74
     0
 42
0.00000001
 43
0.00000001
 40
0.0
 40
0.0
 40
0.0
 40
0.0
 40
0.0392396433571306
 40
0.2493103080476436
 40
0.4653592664644431
 40
0.6773291197868024
 40
0.8955064524308796
 40
1.0
 40
1.0
 40
1.0
 40
1.0
 10
15.42316885535531
 20
16.41957955955208
 30
0.0
 10
15.42371529874525
 20
16.41930684665829
 30
0.0
 10
15.42718714400741
 20
16.41757415671153
 30
0.0
 10
15.43036225830375
 20
16.41415893895854
 30
0.0
 10
15.43225161031728
 20
16.40950108239427
 30
0.0
 10
15.43009325875579
 20
16.40486783069083
 30
0.0
 10
15.42545088892707
 20
16.40121603703883
 30
0.0
 10
15.42108108366851
 20
16.3991932657169
 30
0.0
 10
15.41966596851045
 20
16.39853821264483
 30
0.0
  0
LWPOLYLINE
  5
D9
330
1F
100
AcDbEntity
  8
0
  6
Continuous
 62
     7
370
    25
100
AcDbPolyline
 90
       12
 70
   128
 43
0.0
 10
15.3305343441
 20
16.4068069337
 10
15.3437863569
 20
16.4069848429
 10
15.35639692
 20
16.4075155267
 10
15.3681502633
 20
16.4083899048
 10
15.3788452838
 20
16.4095930164
 10
15.3882989867
 20
16.4111042759
 10
15.3963496166
 20
16.4128978252
 10
15.4028594248
 20
16.4149429763
 10
15.4077170269
 20
16.417204736
 10
15.4108393078
 20
16.4196444049
 10
15.4121728446
 20
16.4222202398
 10
15.4122193649
 20
16.4226644776
  0
ARC
  5
DA
330
1F
100
AcDbEntity
  8
0
  6
Continuous
 62
     7
370
    25
100
AcDbCircle
 10
15.3014313374
 20
16.6016413459
 30
0.0
 40
0.1969960233304923
100
AcDbArc
 50
239.1370442898
 51
278.4956301559
  0
ARC
  5
DB
330
1F
100
AcDbEntity
  8
0
  6
Continuous
 62
     7
370
    25
100
AcDbCircle
 10
15.3433212431
 20
16.5778857001
 30
0.0
 40
0.2091784880929984
100
AcDbArc
 50
266.652173722
 51
287.521360353
  0
ARC
  5
DC
330
1F
100
AcDbEntity
  8
0
  6
Continuous
 62
     7
370
    25
100
AcDbCircle
 10
15.313973809
 20
16.6784537462
 30
0.0
 40
0.3098635190361203
100
AcDbArc
 50
249.766145582
 51
273.169427864
  0
SPLINE
  5
DD
330
1F
100
AcDbEntity
  8
0
  6
Continuous
 62
     7
370
    25
100
AcDbSpline
210
0.0
220
0.0
230
1.0
 70
     8
 71
     3
 72
    10
 73
     6
 74
     0
 42
0.00000001
 43
0.00000001
 40
0.0
 40
0.0
 40
0.0
 40
0.0
 40
0.0768824120363257
 40
0.5330584079754598
 40
1.0
 40
1.0
 40
1.0
 40
1.0
 10
15.18181788262853
 20
16.40769373715338
 30
0.0
 10
15.18174284227601
 20
16.40746136393538
 30
0.0
 10
15.18122255564877
 20
16.40585022174613
 30
0.0
 10
15.18318076784316
 20
16.40274118840138
 30
0.0
 10
15.1868171008328
 20
16.39995005483058
 30
0.0
 10
15.18865647117678
 20
16.39853821264483
 30
0.0
  0
LWPOLYLINE
  5
DE
330
1F
100
AcDbEntity
  8
0
  6
Continuous
 62
     7
370
    25
100
AcDbPolyline
 90
       12
 70
   128
 43
0.0
 10
15.3305343441
 20
16.4568069337
 10
15.3437863569
 20
16.4569848429
 10
15.35639692
 20
16.4575155267
 10
15.3681502633
 20
16.4583899048
 10
15.3788452838
 20
16.4595930164
 10
15.3882989867
 20
16.4611042759
 10
15.3963496166
 20
16.4628978252
 10
15.4028594248
 20
16.4649429763
 10
15.4077170269
 20
16.467204736
 10
15.4108393078
 20
16.4696444049
 10
15.4121728446
 20
16.4722202398
 10
15.4122193649
 20
16.4726644776
  0
ARC
  5
DF
330
1F
100
AcDbEntity
  8
0
  6
Continuous
 62
     7
370
    25
100
AcDbCircle
 10
15.3014313374
 20
16.6516413459
 30
0.0
 40
0.1969960233304033
100
AcDbArc
 50
239.1370442898
 51
278.4956301559
  0
SPLINE
  5
E0
330
1F
100
AcDbEntity
  8
0
  6
Continuous
 62
     7
370
    25
100
AcDbSpline
210
0.0
220
0.0
230
1.0
 70
     8
 71
     3
 72
    17
 73
    13
 74
     0
 42
0.00000001
 43
0.00000001
 40
0.0
 40
0.0
 40
0.0
 40
0.0
 40
0.0891702461221898
 40
0.1800904251854622
 40
0.2878019682914229
 40
0.3985102366266794
 40
0.5085011849018227
 40
0.6216161504775557
 40
0.7326985011768185
 40
0.8470342338457939
 40
0.9574787215489482
 40
1.0
 40
1.0
 40
1.0
 40
1.0
 10
15.25857526707371
 20
16.44309635668827
 30
0.0
 10
15.25334904596606
 20
16.44395443166782
 30
0.0
 10
15.2427940411038
 20
16.44568742102949
 30
0.0
 10
15.22757486949497
 20
16.44897160775594
 30
0.0
 10
15.21307694957783
 20
16.45283464118329
 30
0.0
 10
15.20037946510982
 20
16.45723906629219
 30
0.0
 10
15.19053450821035
 20
16.46187214992583
 30
0.0
 10
15.1840662748764
 20
16.46653497062099
 30
0.0
 10
15.18107256254471
 20
16.47115881539597
 30
0.0
 10
15.18204995925649
 20
16.47548794142116
 30
0.0
 10
15.18509452714703
 20
16.47875511646121
 30
0.0
 10
15.18896928346002
 20
16.48035187764825
 30
0.0
 10
15.19004638454124
 20
16.48079574380708
 30
0.0
  0
SPLINE
  5
E1
330
1F
100
AcDbEntity
  8
0
  6
Continuous
 62
     7
370
    25
100
AcDbSpline
210
0.0
220
0.0
230
1.0
 70
     8
 71
     3
 72
    22
 73
    18
 74
     0
 42
0.00000001
 43
0.00000001
 40
0.0
 40
0.0
 40
0.0
 40
0.0
 40
0.0164010247073338
 40
0.0896977369639547
 40
0.1650812518239784
 40
0.2390239633468613
 40
0.3151333618136306
 40
0.3886184161462528
 40
0.464324105136296
 40
0.5362313020056124
 40
0.610339932088894
 40
0.680292164117211
 40
0.7523474526345982
 40
0.8210848416265984
 40
0.8918088402861416
 40
0.9454577505509241
 40
1.0
 40
1.0
 40
1.0
 40
1.0
 10
15.42313135348028
 20
16.46957771876739
 30
0.0
 10
15.42377991391761
 20
16.46925048657255
 30
0.0
 10
15.42732691201996
 20
16.46746084306783
 30
0.0
 10
15.43050024789338
 20
16.46398756703158
 30
0.0
 10
15.43223195132203
 20
16.4593300876339
 30
0.0
 10
15.42997431681303
 20
16.45469764232255
 30
0.0
 10
15.4241475709868
 20
16.45035138079585
 30
0.0
 10
15.41471186976232
 20
16.44636816279692
 30
0.0
 10
15.40221118997553
 20
16.44299241787832
 30
0.0
 10
15.38679457103434
 20
16.4402771605942
 30
0.0
 10
15.3694001862913
 20
16.43838808277026
 30
0.0
 10
15.35016388961214
 20
16.43733089332135
 30
0.0
 10
15.33017109346225
 20
16.43714695918036
 30
0.0
 10
15.30947744065619
 20
16.437810178842
 30
0.0
 10
15.2905602982182
 20
16.43916847320487
 30
0.0
 10
15.27339682315026
 20
16.44096230946903
 30
0.0
 10
15.26354290717238
 20
16.44238110260267
 30
0.0
 10
15.25857526707371
 20
16.44309635668827
 30
0.0
  0
ARC
  5
E2
330
1F
100
AcDbEntity
  8
0
  6
Continuous
 62
     7
370
    25
100
AcDbCircle
 10
15.3353828865
 20
16.8610651668
 30
0.0
 40
0.3420277187023998
100
AcDbArc
 50
269.2834882406
 51
278.056511234
  0
ARC
  5
E3
330
1F
100
AcDbEntity
  8
0
  6
Continuous
 62
     7
370
    25
100
AcDbCircle
 10
15.3310866321
 20
17.0582089487
 30
0.0
 40
0.5391447569647295
100
AcDbArc
 50
263.6105273585
 51
270.0020342386
  0
LWPOLYLINE
  5
E4
330
1F
100
AcDbEntity
  8
0
  6
Continuous
 62
     7
370
    25
100
AcDbPolyline
 90
       12
 70
   128
 43
0.0
 10
15.3305343441
 20
16.5068069337
 10
15.3437863569
 20
16.5069848429
 10
15.35639692
 20
16.5075155267
 10
15.3681502633
 20
16.5083899048
 10
15.3788452838
 20
16.5095930164
 10
15.3882989867
 20
16.5111042759
 10
15.3963496166
 20
16.5128978252
 10
15.4028594248
 20
16.5149429763
 10
15.4077170269
 20
16.517204736
 10
15.4108393078
 20
16.5196444049
 10
15.4121728446
 20
16.5222202398
 10
15.4121994073
 20
16.5224131523
  0
ARC
  5
E5
330
1F
100
AcDbEntity
  8
0
  6
Continuous
 62
     7
370
    25
100
AcDbCircle
 10
15.3193906212
 20
16.8767496462
 30
0.0
 40
0.3701105147089345
100
AcDbArc
 50
253.2120456328
 51
271.7253895007
  0
SPLINE
  5
E6
330
1F
100
AcDbEntity
  8
0
  6
Continuous
 62
     7
370
    25
100
AcDbSpline
210
0.0
220
0.0
230
1.0
 70
     8
 71
     3
 72
    15
 73
    11
 74
     0
 42
0.00000001
 43
0.00000001
 40
0.0
 40
0.0
 40
0.0
 40
0.0
 40
0.1164413487880071
 40
0.2351678157719344
 40
0.3758209809780685
 40
0.5203873654789926
 40
0.6640170505880802
 40
0.8117261770348007
 40
0.9567810502067411
 40
1.0
 40
1.0
 40
1.0
 40
1.0
 10
15.25857526707371
 20
16.49309635668827
 30
0.0
 10
15.25334899588145
 20
16.49395443516755
 30
0.0
 10
15.24279388986707
 20
16.49568743159735
 30
0.0
 10
15.22757553602973
 20
16.49897156118097
 30
0.0
 10
15.21307389537087
 20
16.50283485459994
 30
0.0
 10
15.20039112145964
 20
16.5072382517897
 30
0.0
 10
15.19049085790006
 20
16.51187520004762
 30
0.0
 10
15.18423308056581
 20
16.51652331485809
 30
0.0
 10
15.18136201681492
 20
16.52007919043141
 30
0.0
 10
15.18186389459946
 20
16.52192912691376
 30
0.0
 10
15.18197910249418
 20
16.52235378664973
 30
0.0
  0
SPLINE
  5
E7
330
1F
100
AcDbEntity
  8
0
  6
Continuous
 62
     7
370
    25
100
AcDbSpline
210
0.0
220
0.0
230
1.0
 70
     8
 71
     3
 72
    22
 73
    18
 74
     0
 42
0.00000001
 43
0.00000001
 40
0.0
 40
0.0
 40
0.0
 40
0.0
 40
0.0164010247073337
 40
0.0896977369639546
 40
0.1650812518239773
 40
0.2390239633468605
 40
0.3151333618136297
 40
0.3886184161462519
 40
0.4643241051362949
 40
0.5362313020056126
 40
0.610339932088894
 40
0.680292164117211
 40
0.752347452634598
 40
0.8210848416265982
 40
0.8918088402861413
 40
0.9454577505509236
 40
1.0
 40
1.0
 40
1.0
 40
1.0
 10
15.42313135348028
 20
16.51957771876738
 30
0.0
 10
15.42377991391761
 20
16.51925048657255
 30
0.0
 10
15.42732691201996
 20
16.51746084306783
 30
0.0
 10
15.43050024789338
 20
16.51398756703158
 30
0.0
 10
15.43223195132203
 20
16.50933008763391
 30
0.0
 10
15.42997431681303
 20
16.50469764232255
 30
0.0
 10
15.4241475709868
 20
16.50035138079585
 30
0.0
 10
15.41471186976232
 20
16.49636816279692
 30
0.0
 10
15.40221118997554
 20
16.49299241787832
 30
0.0
 10
15.38679457103434
 20
16.4902771605942
 30
0.0
 10
15.3694001862913
 20
16.48838808277026
 30
0.0
 10
15.35016388961214
 20
16.48733089332135
 30
0.0
 10
15.33017109346225
 20
16.48714695918036
 30
0.0
 10
15.30947744065619
 20
16.487810178842
 30
0.0
 10
15.2905602982182
 20
16.48916847320487
 30
0.0
 10
15.27339682315026
 20
16.49096230946903
 30
0.0
 10
15.26354290717238
 20
16.49238110260267
 30
0.0
 10
15.25857526707371
 20
16.49309635668827
 30
0.0
  0
SPLINE
  5
E8
330
1F
100
AcDbEntity
  8
0
  6
Continuous
 62
     7
370
    25
100
AcDbSpline
210
0.0
220
0.0
230
1.0
 70
     8
 71
     3
 72
    19
 73
    15
 74
     0
 42
0.00000001
 43
0.00000001
 40
0.0
 40
0.0
 40
0.0
 40
0.0
 40
0.0837313043131588
 40
0.1698918010903024
 40
0.2535245035947044
 40
0.3396291450589257
 40
0.4224916382768334
 40
0.5077536064897585
 40
0.590724894827332
 40
0.6760517921296629
 40
0.7599689450790893
 40
0.8462374407502319
 40
0.9316649925407957
 40
1.0
 40
1.0
 40
1.0
 40
1.0
 10
15.25918044821657
 20
16.43036058570484
 30
0.0
 10
15.2656353702287
 20
16.42962675129978
 30
0.0
 10
15.27873248289801
 20
16.42813779266239
 30
0.0
 10
15.29947057002618
 20
16.42668332468685
 30
0.0
 10
15.32053070977965
 20
16.42583211591748
 30
0.0
 10
15.34098466382153
 20
16.42567106718385
 30
0.0
 10
15.36058963993173
 20
16.42617964380644
 30
0.0
 10
15.37846558680621
 20
16.4273334384834
 30
0.0
 10
15.3944988946538
 20
16.4291281413216
 30
0.0
 10
15.40801203220773
 20
16.43150133789999
 30
0.0
 10
15.41889281342913
 20
16.4344461555301
 30
0.0
 10
15.42655093345987
 20
16.43788082203017
 30
0.0
 10
15.43099747786776
 20
16.44145872901136
 30
0.0
 10
15.43118760514516
 20
16.44398126301077
 30
0.0
 10
15.43127210132539
 20
16.44510232512437
 30
0.0
  0
SPLINE
  5
E9
330
1F
100
AcDbEntity
  8
0
  6
Continuous
 62
     7
370
    25
100
AcDbSpline
210
0.0
220
0.0
230
1.0
 70
     8
 71
     3
 72
    14
 73
    10
 74
     0
 42
0.00000001
 43
0.00000001
 40
0.0
 40
0.0
 40
0.0
 40
0.0
 40
0.0822629314974605
 40
0.2298573817315786
 40
0.3746509615221592
 40
0.5236923411460346
 40
0.6675337730774833
 40
0.8156854364695865
 40
1.0
 40
1.0
 40
1.0
 40
1.0
 10
15.1820173178854
 20
16.45769315385159
 30
0.0
 10
15.18196120017228
 20
16.45682051221246
 30
0.0
 10
15.18180439721899
 20
16.45438219499341
 30
0.0
 10
15.18558461432562
 20
16.45036541473061
 30
0.0
 10
15.19299965231181
 20
16.44577116314846
 30
0.0
 10
15.20390061708479
 20
16.44144903174203
 30
0.0
 10
15.21798017684369
 20
16.43746395274012
 30
0.0
 10
15.23600384793131
 20
16.4335927766783
 30
0.0
 10
15.25091430318058
 20
16.43151337597786
 30
0.0
 10
15.25918044821657
 20
16.43036058570484
 30
0.0
  0
ARC
  5
EA
330
1F
100
AcDbEntity
  8
0
  6
Continuous
 62
     7
370
    25
100
AcDbCircle
 10
15.3433212431
 20
16.6778857001
 30
0.0
 40
0.2091784880929733
100
AcDbArc
 50
266.652173722
 51
287.521360353
  0
ARC
  5
EB
330
1F
100
AcDbEntity
  8
0
  6
Continuous
 62
     7
370
    25
100
AcDbCircle
 10
15.313973809
 20
16.7784537462
 30
0.0
 40
0.3098635190360992
100
AcDbArc
 50
249.766145582
 51
273.169427864
  0
SPLINE
  5
EC
330
1F
100
AcDbEntity
  8
0
  6
Continuous
 62
     7
370
    25
100
AcDbSpline
210
0.0
220
0.0
230
1.0
 70
     8
 71
     3
 72
    19
 73
    15
 74
     0
 42
0.00000001
 43
0.00000001
 40
0.0
 40
0.0
 40
0.0
 40
0.0
 40
0.0837313043131587
 40
0.1698918010903021
 40
0.253524503594704
 40
0.3396291450589251
 40
0.4224916382768327
 40
0.5077536064897576
 40
0.5907248948273437
 40
0.6760517921296787
 40
0.7599689450791004
 40
0.8462374407502432
 40
0.9316649925408
 40
0.9999999999999999
 40
0.9999999999999999
 40
0.9999999999999999
 40
0.9999999999999999
 10
15.25918044821657
 20
16.48036058570484
 30
0.0
 10
15.2656353702287
 20
16.47962675129978
 30
0.0
 10
15.27873248289801
 20
16.47813779266239
 30
0.0
 10
15.29947057002618
 20
16.47668332468685
 30
0.0
 10
15.32053070977965
 20
16.47583211591748
 30
0.0
 10
15.34098466382153
 20
16.47567106718385
 30
0.0
 10
15.36058963993173
 20
16.47617964380643
 30
0.0
 10
15.37846558680621
 20
16.4773334384834
 30
0.0
 10
15.3944988946538
 20
16.4791281413216
 30
0.0
 10
15.40801203220774
 20
16.48150133789999
 30
0.0
 10
15.41889281342913
 20
16.4844461555301
 30
0.0
 10
15.42655093345986
 20
16.48788082203017
 30
0.0
 10
15.43099747786776
 20
16.49145872901136
 30
0.0
 10
15.43118760514516
 20
16.49398126301077
 30
0.0
 10
15.43127210132539
 20
16.49510232512437
 30
0.0
  0
SPLINE
  5
ED
330
1F
100
AcDbEntity
  8
0
  6
Continuous
 62
     7
370
    25
100
AcDbSpline
210
0.0
220
0.0
230
1.0
 70
     8
 71
     3
 72
    14
 73
    10
 74
     0
 42
0.00000001
 43
0.00000001
 40
0.0
 40
0.0
 40
0.0
 40
0.0
 40
0.0822629314974606
 40
0.2298573817315795
 40
0.374650961522159
 40
0.5236923411460362
 40
0.667533773077483
 40
0.8156854364695862
 40
0.9999999999999999
 40
0.9999999999999999
 40
0.9999999999999999
 40
0.9999999999999999
 10
15.1820173178854
 20
16.50769315385159
 30
0.0
 10
15.18196120017228
 20
16.50682051221246
 30
0.0
 10
15.18180439721899
 20
16.50438219499341
 30
0.0
 10
15.18558461432562
 20
16.50036541473061
 30
0.0
 10
15.19299965231181
 20
16.49577116314846
 30
0.0
 10
15.20390061708479
 20
16.49144903174203
 30
0.0
 10
15.21798017684369
 20
16.48746395274012
 30
0.0
 10
15.23600384793131
 20
16.48359277667829
 30
0.0
 10
15.25091430318058
 20
16.48151337597786
 30
0.0
 10
15.25918044821657
 20
16.48036058570484
 30
0.0
  0
ARC
  5
EE
330
1F
100
AcDbEntity
  8
0
  6
Continuous
 62
     7
370
    25
100
AcDbCircle
 10
15.3433212431
 20
16.6278857001
 30
0.0
 40
0.2091784880929945
100
AcDbArc
 50
266.652173722
 51
287.521360353
  0
ARC
  5
EF
330
1F
100
AcDbEntity
  8
0
  6
Continuous
 62
     7
370
    25
100
AcDbCircle
 10
15.313973809
 20
16.7284537462
 30
0.0
 40
0.3098635190361203
100
AcDbArc
 50
249.766145582
 51
273.169427864
  0
LINE
  5
F0
330
1F
100
AcDbEntity
  8
0
  6
Continuous
 62
     7
370
    25
100
AcDbLine
 10
15.4093352264
 20
16.3374131523
 30
0.0
 11
15.2038306315
 21
16.3374131523
 31
0.0
  0
SPLINE
  5
F1
330
1F
100
AcDbEntity
  8
0
  6
Continuous
 62
     7
370
    25
100
AcDbSpline
210
0.0
220
0.0
230
1.0
 70
     8
 71
     3
 72
    23
 73
    19
 74
     0
 42
0.00000001
 43
0.00000001
 40
0.0
 40
0.0
 40
0.0
 40
0.0
 40
0.0658748243236161
 40
0.1336616329360323
 40
0.1994286604215528
 40
0.2671606575109206
 40
0.3319437438029553
 40
0.3986369048382969
 40
0.4629094201298952
 40
0.5290339808591853
 40
0.5935546433043415
 40
0.6599001990720371
 40
0.7252712375672059
 40
0.7924824507026224
 40
0.858850806870537
 40
0.9271047745052342
 40
0.9941485680683196
 40
0.9999999999999999
 40
0.9999999999999999
 40
0.9999999999999999
 40
0.9999999999999999
 10
15.23363478424932
 20
16.36032659564168
 30
0.0
 10
15.23886146456941
 20
16.35943482915554
 30
0.0
 10
15.24946652702827
 20
16.35762541310081
 30
0.0
 10
15.2674497868595
 20
16.35543098341108
 30
0.0
 10
15.28656378724697
 20
16.35369978963298
 30
0.0
 10
15.30599990853887
 20
16.35256634281716
 30
0.0
 10
15.3254960548365
 20
16.35203837341805
 30
0.0
 10
15.34410057542124
 20
16.35213806606682
 30
0.0
 10
15.36171916551663
 20
16.3528539131265
 30
0.0
 10
15.3775734337388
 20
16.35413987105519
 30
0.0
 10
15.39155495672784
 20
16.35597247346221
 30
0.0
 10
15.4030824560392
 20
16.35826267449637
 30
0.0
 10
15.41201696287606
 20
16.36097436500273
 30
0.0
 10
15.41793239831719
 20
16.36398860708618
 30
0.0
 10
15.4208113492029
 20
16.36726060629242
 30
0.0
 10
15.42004712270099
 20
16.370634997181
 30
0.0
 10
15.41809362428998
 20
16.37303925942507
 30
0.0
 10
15.41553442956704
 20
16.37423603196169
 30
0.0
 10
15.41532899836603
 20
16.37433209906332
 30
0.0
  0
SPLINE
  5
F2
330
1F
100
AcDbEntity
  8
0
  6
Continuous
 62
     7
370
    25
100
AcDbSpline
210
0.0
220
0.0
230
1.0
 70
     8
 71
     3
 72
    14
 73
    10
 74
     0
 42
0.00000001
 43
0.00000001
 40
0.0
 40
0.0
 40
0.0
 40
0.0
 40
0.1165041489224431
 40
0.2570090647611378
 40
0.3952786085733891
 40
0.5374986125562089
 40
0.6767796592885267
 40
0.8201032297444736
 40
1.0
 40
1.0
 40
1.0
 40
1.0
 10
15.19487862465825
 20
16.38324234020802
 30
0.0
 10
15.19337765361838
 20
16.3824501987398
 30
0.0
 10
15.19006649975168
 20
16.38070272845836
 30
0.0
 10
15.18885339799496
 20
16.37770227594541
 30
0.0
 10
15.19056354566598
 20
16.37437091111767
 30
0.0
 10
15.1956141915754
 20
16.37095679265659
 30
0.0
 10
15.20392451597007
 20
16.36752313087529
 30
0.0
 10
15.21601176809065
 20
16.36387372579386
 30
0.0
 10
15.22733342096829
 20
16.36159492312278
 30
0.0
 10
15.23363478424932
 20
16.36032659564168
 30
0.0
  0
LWPOLYLINE
  5
F3
330
1F
100
AcDbEntity
  8
0
  6
Continuous
 62
     7
370
    25
100
AcDbPolyline
 90
       12
 70
   128
 43
0.0
 10
15.3305343441
 20
16.3568069337
 10
15.3437863569
 20
16.3569848429
 10
15.35639692
 20
16.3575155267
 10
15.3681502633
 20
16.3583899048
 10
15.3788452838
 20
16.3595930164
 10
15.3882989867
 20
16.3611042759
 10
15.3963496166
 20
16.3628978252
 10
15.4028594248
 20
16.3649429763
 10
15.4077170269
 20
16.367204736
 10
15.4108393078
 20
16.3696444049
 10
15.4121728446
 20
16.3722202398
 10
15.4122193649
 20
16.3726644776
  0
ARC
  5
F4
330
1F
100
AcDbEntity
  8
0
  6
Continuous
 62
     7
370
    25
100
AcDbCircle
 10
15.3014313374
 20
16.5516413459
 30
0.0
 40
0.1969960233304545
100
AcDbArc
 50
239.1370442898
 51
278.4956301559
  0
LWPOLYLINE
  5
F5
330
1F
100
AcDbEntity
  8
0
  6
Continuous
 62
     7
370
    25
100
AcDbPolyline
 90
       42
 70
   128
 43
0.0
 10
15.257846748
 20
15.8410201908
 10
15.2634872042
 20
15.84990694
 10
15.2681023268
 20
15.8599071945
 10
15.2715839412
 20
15.8707865569
 10
15.2738504413
 20
15.8822900241
 10
15.2748487022
 20
15.8941479647
 10
15.2745553257
 20
15.9060824384
 10
15.2729771881
 20
15.9178137115
 10
15.2701512797
 20
15.9290668127
 10
15.2661438374
 20
15.9395779789
 10
15.2610487923
 20
15.9491008374
 10
15.2549855678
 20
15.9574121803
 10
15.2480962808
 20
15.9643171969
 10
15.2405424104
 20
15.9696540393
 10
15.2325010129
 20
15.9732976166
 10
15.2241605718
 20
15.9751625264
 10
15.2157165801
 20
15.9752050567
 10
15.2073669576
 20
15.9734242108
 10
15.1993074125
 20
15.96986173
 10
15.1917268537
 20
15.964601116
 10
15.184802963
 20
15.9577656731
 10
15.1786980307
 20
15.9495156182
 10
15.173555151
 20
15.9400443257
 10
15.1694948689
 20
15.9295737946
 10
15.1666123538
 20
15.9183494453
 10
15.1649751694
 20
15.9066343671
 10
15.16462169
 20
15.8947031514
 10
15.1655602009
 20
15.8828354558
 10
15.167768704
 20
15.8713094491
 10
15.1711954341
 20
15.860395291
 10
15.1757600713
 20
15.8503488003
 10
15.1813556246
 20
15.8414054581
 10
15.1878509389
 20
15.8337748887
 10
15.1950937695
 20
15.8276359463
 10
15.2029143506
 20
15.8231325225
 10
15.2111293744
 20
15.8203701737
 10
15.2195462877
 20
15.819413647
 10
15.2279678053
 20
15.8202853626
 10
15.2361965338
 20
15.8229648882
 10
15.2440395988
 20
15.827389418
 10
15.2513131657
 20
15.8334552449
 10
15.257846748
 20
15.8410201908
  0
LWPOLYLINE
  5
F6
330
1F
100
AcDbEntity
  8
0
  6
Continuous
 62
     7
370
    25
100
AcDbPolyline
 90
       42
 70
   128
 43
0.0
 10
15.2330009722
 20
16.0243006517
 10
15.2252879584
 20
16.031432669
 10
15.2147109868
 20
16.0392794959
 10
15.2035961147
 20
16.0454630696
 10
15.1920736537
 20
16.0499108934
 10
15.1802786943
 20
16.0525708207
 10
15.1683495214
 20
16.0534116661
 10
15.1564259939
 20
16.0524235715
 10
15.1446479041
 20
16.0496181216
 10
15.1331533393
 20
16.0450282075
 10
15.1220770629
 20
16.0387076419
 10
15.111548934
 20
16.0307305275
 10
15.1016923853
 20
16.0211903889
 10
15.0926229758
 20
16.0101990753
 10
15.0844470362
 20
15.9978854499
 10
15.0772604217
 20
15.9843938786
 10
15.071147389
 20
15.9698825379
 10
15.0661796076
 20
15.9545215599
 10
15.0624153203
 20
15.938491038
 10
15.0598986599
 20
15.9219789155
 10
15.058659132
 20
15.9051787818
 10
15.0587112689
 20
15.8882876033
 10
15.0600544593
 20
15.8715034134
 10
15.0626729556
 20
15.8550229916
 10
15.0665360583
 20
15.8390395556
 10
15.071598476
 20
15.8237404967
 10
15.0778008565
 20
15.8093051823
 10
15.0850704826
 20
15.7959028534
 10
15.0933221245
 20
15.7836906398
 10
15.1024590394
 20
15.7728117187
 10
15.1123741051
 20
15.7633936356
 10
15.1229510768
 20
15.7555468087
 10
15.1340659489
 20
15.749363235
 10
15.1455884099
 20
15.7449154112
 10
15.1573833693
 20
15.742255484
 10
15.1693125421
 20
15.7414146385
 10
15.1812360697
 20
15.7424027331
 10
15.1930141595
 20
15.745208183
 10
15.2045087243
 20
15.7497980971
 10
15.2155850007
 20
15.7561186627
 10
15.2261131296
 20
15.7640957771
 10
15.2330009722
 20
15.7705256529
  0
LWPOLYLINE
  5
F7
330
1F
100
AcDbEntity
  8
0
  6
Continuous
 62
     7
370
    25
100
AcDbPolyline
 90
       31
 70
   128
 43
0.0
 10
15.1582244301
 20
16.0534131523
 10
15.1577429197
 20
16.0534116661
 10
15.1458193922
 20
16.0524235715
 10
15.1340413023
 20
16.0496181216
 10
15.1225467376
 20
16.0450282075
 10
15.1114704611
 20
16.0387076419
 10
15.1009423322
 20
16.0307305275
 10
15.0910857836
 20
16.0211903889
 10
15.0820163741
 20
16.0101990753
 10
15.0738404345
 20
15.9978854499
 10
15.06665382
 20
15.9843938786
 10
15.0605407872
 20
15.9698825379
 10
15.0555730059
 20
15.9545215599
 10
15.0518087186
 20
15.938491038
 10
15.0492920582
 20
15.9219789155
 10
15.0480525303
 20
15.9051787818
 10
15.0481046672
 20
15.8882876033
 10
15.0494478576
 20
15.8715034134
 10
15.0520663539
 20
15.8550229916
 10
15.0559294565
 20
15.8390395556
 10
15.0609918742
 20
15.8237404967
 10
15.0671942548
 20
15.8093051823
 10
15.0744638809
 20
15.7959028534
 10
15.0827155228
 20
15.7836906398
 10
15.0918524376
 20
15.7728117187
 10
15.1017675034
 20
15.7633936356
 10
15.112344475
 20
15.7555468087
 10
15.1234593472
 20
15.749363235
 10
15.1349818081
 20
15.7449154112
 10
15.1467767676
 20
15.742255484
 10
15.1582244301
 20
15.7414131523
  0
LINE
  5
F8
330
1F
100
AcDbEntity
  8
0
  6
Continuous
 62
     7
370
    25
100
AcDbLine
 10
15.2474875794
 20
15.9349068703
 30
0.0
 11
15.2565752691
 21
15.8821796371
 31
0.0
  0
LINE
  5
F9
330
1F
100
AcDbEntity
  8
0
  6
Continuous
 62
     7
370
    25
100
AcDbLine
 10
15.2106550303
 20
15.9501403855
 30
0.0
 11
15.2474875794
 21
15.9349068703
 31
0.0
  0
LINE
  5
FA
330
1F
100
AcDbEntity
  8
0
  6
Continuous
 62
     7
370
    25
100
AcDbLine
 10
15.1829101709
 20
15.9126466675
 30
0.0
 11
15.2106550303
 21
15.9501403855
 31
0.0
  0
LINE
  5
FB
330
1F
100
AcDbEntity
  8
0
  6
Continuous
 62
     7
370
    25
100
AcDbLine
 10
15.1919978606
 20
15.8599194343
 30
0.0
 11
15.1829101709
 21
15.9126466675
 31
0.0
  0
LINE
  5
FC
330
1F
100
AcDbEntity
  8
0
  6
Continuous
 62
     7
370
    25
100
AcDbLine
 10
15.2288304098
 20
15.8446859191
 30
0.0
 11
15.1919978606
 21
15.8599194343
 31
0.0
  0
LINE
  5
FD
330
1F
100
AcDbEntity
  8
0
  6
Continuous
 62
     7
370
    25
100
AcDbLine
 10
15.2565752691
 20
15.8821796371
 30
0.0
 11
15.2288304098
 21
15.8446859191
 31
0.0
  0
LWPOLYLINE
  5
FE
330
1F
100
AcDbEntity
  8
0
  6
Continuous
 62
     7
370
    25
100
AcDbPolyline
 90
        3
 70
   128
 43
0.0
 10
15.1996464965
 20
15.8567560472
 10
15.2026006087
 20
15.8594852326
 10
15.2059332868
 20
15.8634327781
  0
ARC
  5
FF
330
1F
100
AcDbEntity
  8
0
  6
Continuous
 62
     7
370
    25
100
AcDbCircle
 10
15.1662677482
 20
15.9016566481
 30
0.0
 40
0.0494757462581607
100
AcDbArc
 50
8.0010671526
 51
45.5516586215
  0
ARC
  5
100
330
1F
100
AcDbEntity
  8
0
  6
Continuous
 62
     7
370
    25
100
AcDbCircle
 10
15.1560304148
 20
15.8972721891
 30
0.0
 40
0.0602942980413374
100
AcDbArc
 50
325.858589146
 51
10.7739196605
  0
LINE
  5
101
330
1F
100
AcDbEntity
  8
0
  6
Continuous
 62
     7
370
    25
100
AcDbLine
 10
15.2107180268
 20
15.9349068703
 30
0.0
 11
15.2474875794
 21
15.9349068703
 31
0.0
  0
LINE
  5
102
330
1F
100
AcDbEntity
  8
0
  6
Continuous
 62
     7
370
    25
100
AcDbLine
 10
15.2020387282
 20
15.9384965276
 30
0.0
 11
15.2107180268
 21
15.9349068703
 31
0.0
  0
LINE
  5
103
330
1F
100
AcDbEntity
  8
0
  6
Continuous
 62
     7
370
    25
100
AcDbLine
 10
15.2198057165
 20
15.8821796371
 30
0.0
 11
15.2565752691
 21
15.8821796371
 31
0.0
  0
LINE
  5
104
330
1F
100
AcDbEntity
  8
0
  6
Continuous
 62
     7
370
    25
100
AcDbLine
 10
15.2059332868
 20
15.8634327781
 30
0.0
 11
15.2006771592
 21
15.856329777
 31
0.0
  0
LINE
  5
105
330
1F
100
AcDbEntity
  8
0
  6
Continuous
 62
     7
370
    25
100
AcDbLine
 10
15.2198057165
 20
15.8821796371
 30
0.0
 11
15.2059332868
 21
15.8634327781
 31
0.0
  0
LINE
  5
106
330
1F
100
AcDbEntity
  8
0
  6
Continuous
 62
     7
370
    25
100
AcDbLine
 10
15.2152618716
 20
15.9085432537
 30
0.0
 11
15.2198057165
 21
15.8821796371
 31
0.0
  0
LINE
  5
107
330
1F
100
AcDbEntity
  8
0
  6
Continuous
 62
     7
370
    25
100
AcDbLine
 10
15.2107180268
 20
15.9349068703
 30
0.0
 11
15.2152618716
 21
15.9085432537
 31
0.0
  0
LWPOLYLINE
  5
108
330
1F
100
AcDbEntity
  8
0
  6
Continuous
 62
     7
370
    25
100
AcDbPolyline
 90
       42
 70
   128
 43
0.0
 10
10.1031289335
 20
15.9506743406
 10
10.0978521867
 20
15.9413514821
 10
10.0936435845
 20
15.9309987463
 10
10.0906017728
 20
15.9198587927
 10
10.0887980491
 20
15.9081927323
 10
10.0882746912
 20
15.8962740077
 10
10.0890439661
 20
15.8843819837
 10
10.0910878428
 20
15.8727953992
 10
10.0943584144
 20
15.861785834
 10
10.0987790215
 20
15.8516113429
 10
10.1042460489
 20
15.8425104074
 10
10.110631354
 20
15.8346963458
 10
10.1177852708
 20
15.8283523129
 10
10.1255401174
 20
15.8236270075
 10
10.1337141269
 20
15.8206311869
 10
10.1421157074
 20
15.8194350704
 10
10.1505479329
 20
15.8200666941
 10
10.1588131593
 20
15.8225112533
 10
10.1667176566
 20
15.8267114494
 10
10.1740761502
 20
15.8325688335
 10
10.1807161631
 20
15.8399461136
 10
10.1864820591
 20
15.8486703723
 10
10.1912386905
 20
15.8585371204
 10
10.1948745659
 20
15.8693150898
 10
10.1973044634
 20
15.8807516539
 10
10.1984714283
 20
15.8925787495
 10
10.1983481079
 20
15.9045191594
 10
10.1969373928
 20
15.9162930104
 10
10.1942723489
 20
15.9276243336
 10
10.1904154426
 20
15.9382475324
 10
10.1854570765
 20
15.9479136078
 10
10.1795134705
 20
15.9563959954
 10
10.1727239377
 20
15.9634958751
 10
10.165247619
 20
15.9690468319
 10
10.157259753
 20
15.9729187558
 10
10.1489475684
 20
15.9750208925
 10
10.1405058958
 20
15.9753039695
 10
10.132132601
 20
15.9737613517
 10
10.1240239467
 20
15.9704291969
 10
10.1163699931
 20
15.9653856078
 10
10.1093501422
 20
15.958748802
 10
10.1031289335
 20
15.9506743406
  0
LWPOLYLINE
  5
109
330
1F
100
AcDbEntity
  8
0
  6
Continuous
 62
     7
370
    25
100
AcDbPolyline
 90
       43
 70
   128
 43
0.0
 10
10.1301648857
 20
15.7705256529
 10
10.1330421468
 20
15.7677118997
 10
10.1433173272
 20
15.7591003561
 10
10.1541906411
 20
15.7521104035
 10
10.1655346089
 20
15.7468239927
 10
10.177216233
 20
15.7433031022
 10
10.1890985568
 20
15.7415890111
 10
10.2010422712
 20
15.7417018157
 10
10.2129073468
 20
15.7436401932
 10
10.2245546767
 20
15.7473814181
 10
10.2358477064
 20
15.7528816279
 10
10.2466540356
 20
15.7600763377
 10
10.2568469699
 20
15.7688811961
 10
10.2663070064
 20
15.7791929741
 10
10.274923235
 20
15.7908907757
 10
10.2825946381
 20
15.8038374547
 10
10.2892312756
 20
15.8178812232
 10
10.2947553391
 20
15.8328574309
 10
10.2991020638
 20
15.8485904953
 10
10.3022204884
 20
15.8648959608
 10
10.3040740523
 20
15.8815826607
 10
10.3046410241
 20
15.8984549585
 10
10.3039147566
 20
15.9153150422
 10
10.3019037646
 20
15.9319652425
 10
10.2986316252
 20
15.9482103512
 10
10.2941367011
 20
15.9638599092
 10
10.2884716913
 20
15.9787304397
 10
10.2817030128
 20
15.9926475993
 10
10.2739100223
 20
16.0054482222
 10
10.2651840853
 20
16.0169822326
 10
10.2556275055
 20
16.0271144049
 10
10.2453523251
 20
16.0357259485
 10
10.2344790111
 20
16.0427159011
 10
10.2231350433
 20
16.0480023119
 10
10.2114534193
 20
16.0515232024
 10
10.1995710954
 20
16.0532372935
 10
10.1876273811
 20
16.053124489
 10
10.1757623054
 20
16.0511861114
 10
10.1641149756
 20
16.0474448865
 10
10.1528219458
 20
16.0419446767
 10
10.1420156167
 20
16.0347499669
 10
10.1318226824
 20
16.0259451085
 10
10.1301648857
 20
16.0243006517
  0
LWPOLYLINE
  5
10A
330
1F
100
AcDbEntity
  8
0
  6
Continuous
 62
     7
370
    25
100
AcDbPolyline
 90
       31
 70
   128
 43
0.0
 10
10.2049414278
 20
15.7414131523
 10
10.2116488729
 20
15.7417018157
 10
10.2235139486
 20
15.7436401932
 10
10.2351612784
 20
15.7473814181
 10
10.2464543082
 20
15.7528816279
 10
10.2572606373
 20
15.7600763377
 10
10.2674535716
 20
15.7688811961
 10
10.2769136082
 20
15.7791929741
 10
10.2855298367
 20
15.7908907757
 10
10.2932012398
 20
15.8038374547
 10
10.2998378773
 20
15.8178812232
 10
10.3053619408
 20
15.8328574309
 10
10.3097086655
 20
15.8485904953
 10
10.3128270901
 20
15.8648959608
 10
10.3146806541
 20
15.8815826607
 10
10.3152476259
 20
15.8984549585
 10
10.3145213584
 20
15.9153150422
 10
10.3125103664
 20
15.9319652425
 10
10.3092382269
 20
15.9482103512
 10
10.3047433028
 20
15.9638599092
 10
10.299078293
 20
15.9787304397
 10
10.2923096146
 20
15.9926475993
 10
10.284516624
 20
16.0054482222
 10
10.275790687
 20
16.0169822326
 10
10.2662341072
 20
16.0271144049
 10
10.2559589268
 20
16.0357259485
 10
10.2450856129
 20
16.0427159011
 10
10.233741645
 20
16.0480023119
 10
10.222060021
 20
16.0515232024
 10
10.2101776972
 20
16.0532372935
 10
10.2049414278
 20
16.0534131523
  0
LINE
  5
10B
330
1F
100
AcDbEntity
  8
0
  6
Continuous
 62
     7
370
    25
100
AcDbLine
 10
10.1172190844
 20
15.8577643378
 30
0.0
 11
10.10604127
 21
15.9096820252
 31
0.0
  0
LINE
  5
10C
330
1F
100
AcDbEntity
  8
0
  6
Continuous
 62
     7
370
    25
100
AcDbLine
 10
10.1546009523
 20
15.8454954649
 30
0.0
 11
10.1172190844
 21
15.8577643378
 31
0.0
  0
LINE
  5
10D
330
1F
100
AcDbEntity
  8
0
  6
Continuous
 62
     7
370
    25
100
AcDbLine
 10
10.1808050058
 20
15.8851442794
 30
0.0
 11
10.1546009523
 21
15.8454954649
 31
0.0
  0
LINE
  5
10E
330
1F
100
AcDbEntity
  8
0
  6
Continuous
 62
     7
370
    25
100
AcDbLine
 10
10.1696271914
 20
15.9370619668
 30
0.0
 11
10.1808050058
 21
15.8851442794
 31
0.0
  0
LINE
  5
10F
330
1F
100
AcDbEntity
  8
0
  6
Continuous
 62
     7
370
    25
100
AcDbLine
 10
10.1322453235
 20
15.9493308397
 30
0.0
 11
10.1696271914
 21
15.9370619668
 31
0.0
  0
LINE
  5
110
330
1F
100
AcDbEntity
  8
0
  6
Continuous
 62
     7
370
    25
100
AcDbLine
 10
10.10604127
 20
15.9096820252
 30
0.0
 11
10.1322453235
 21
15.9493308397
 31
0.0
  0
LINE
  5
111
330
1F
100
AcDbEntity
  8
0
  6
Continuous
 62
     7
370
    25
100
AcDbLine
 10
10.153988637
 20
15.8577643378
 30
0.0
 11
10.1172190844
 21
15.8577643378
 31
0.0
  0
LINE
  5
112
330
1F
100
AcDbEntity
  8
0
  6
Continuous
 62
     7
370
    25
100
AcDbLine
 10
10.1611550272
 20
15.8554123009
 30
0.0
 11
10.153988637
 21
15.8577643378
 31
0.0
  0
ARC
  5
113
330
1F
100
AcDbEntity
  8
0
  6
Continuous
 62
     7
370
    25
100
AcDbCircle
 10
10.1873031996
 20
15.9092583854
 30
0.0
 40
0.0373542165841702
100
AcDbArc
 50
127.7986943222
 51
147.1763454533
  0
ARC
  5
114
330
1F
100
AcDbEntity
  8
0
  6
Continuous
 62
     7
370
    25
100
AcDbCircle
 10
10.1954681395
 20
15.8923039151
 30
0.0
 40
0.0478441655796554
100
AcDbArc
 50
190.3317583927
 51
226.5667794602
  0
ARC
  5
115
330
1F
100
AcDbEntity
  8
0
  6
Continuous
 62
     7
370
    25
100
AcDbCircle
 10
10.2084130976
 20
15.8973829565
 30
0.0
 40
0.0615483043390443
100
AcDbArc
 50
148.538668567
 51
192.8227600952
  0
LINE
  5
116
330
1F
100
AcDbEntity
  8
0
  6
Continuous
 62
     7
370
    25
100
AcDbLine
 10
10.1428108226
 20
15.9096820252
 30
0.0
 11
10.10604127
 21
15.9096820252
 31
0.0
  0
LINE
  5
117
330
1F
100
AcDbEntity
  8
0
  6
Continuous
 62
     7
370
    25
100
AcDbLine
 10
10.1559128494
 20
15.9295064324
 30
0.0
 11
10.1624608012
 21
15.9394140037
 31
0.0
  0
LINE
  5
118
330
1F
100
AcDbEntity
  8
0
  6
Continuous
 62
     7
370
    25
100
AcDbLine
 10
10.1428108226
 20
15.9096820252
 30
0.0
 11
10.1559128494
 21
15.9295064324
 31
0.0
  0
LINE
  5
119
330
1F
100
AcDbEntity
  8
0
  6
Continuous
 62
     7
370
    25
100
AcDbLine
 10
10.1483997298
 20
15.8837231815
 30
0.0
 11
10.1428108226
 21
15.9096820252
 31
0.0
  0
LINE
  5
11A
330
1F
100
AcDbEntity
  8
0
  6
Continuous
 62
     7
370
    25
100
AcDbLine
 10
10.153988637
 20
15.8577643378
 30
0.0
 11
10.1483997298
 21
15.8837231815
 31
0.0
  0
LINE
  5
11B
330
1F
100
AcDbEntity
  8
0
  6
Continuous
 62
     7
370
    25
100
AcDbLine
 10
9.2144084523
 20
17.4624131523
 30
0.0
 11
9.181582929
 21
16.5224131523
 31
0.0
  0
LINE
  5
11C
330
1F
100
AcDbEntity
  8
0
  6
Continuous
 62
     7
370
    25
100
AcDbLine
 10
9.2144084523
 20
17.4624131523
 30
0.0
 11
16.1487574056
 21
17.4624131523
 31
0.0
  0
LINE
  5
11D
330
1F
100
AcDbEntity
  8
0
  6
Continuous
 62
     7
370
    25
100
AcDbLine
 10
16.1487574056
 20
17.4624131523
 30
0.0
 11
16.181582929
 21
16.5224131523
 31
0.0
  0
LINE
  5
11E
330
1F
100
AcDbEntity
  8
0
  6
Continuous
 62
     7
370
    25
100
AcDbLine
 10
9.181582929
 20
16.5224131523
 30
0.0
 11
16.181582929
 21
16.5224131523
 31
0.0
  0
LINE
  5
11F
330
1F
100
AcDbEntity
  8
0
  6
Continuous
 62
     7
370
    25
100
AcDbLine
 10
10.4701064708
 20
15.5224131523
 30
0.0
 11
10.4701064708
 21
16.5224131523
 31
0.0
  0
LINE
  5
120
330
1F
100
AcDbEntity
  8
0
  6
Continuous
 62
     7
370
    25
100
AcDbLine
 10
10.4701064708
 20
15.5224131523
 30
0.0
 11
9.9397763849
 21
15.5224131523
 31
0.0
  0
LINE
  5
121
330
1F
100
AcDbEntity
  8
0
  6
Continuous
 62
     7
370
    25
100
AcDbLine
 10
9.9397763849
 20
15.5224131523
 30
0.0
 11
9.9397763849
 21
16.3760268774
 31
0.0
  0
LINE
  5
122
330
1F
100
AcDbEntity
  8
0
  6
Continuous
 62
     7
370
    25
100
AcDbLine
 10
9.9397763849
 20
16.3785332885
 30
0.0
 11
9.9397763849
 21
16.3978760302
 31
0.0
  0
LINE
  5
123
330
1F
100
AcDbEntity
  8
0
  6
Continuous
 62
     7
370
    25
100
AcDbLine
 10
9.9397763849
 20
16.4306657042
 30
0.0
 11
9.9397763849
 21
16.4481263891
 31
0.0
  0
LINE
  5
124
330
1F
100
AcDbEntity
  8
0
  6
Continuous
 62
     7
370
    25
100
AcDbLine
 10
9.9397763849
 20
16.4806766431
 30
0.0
 11
9.9397763849
 21
16.4981263891
 31
0.0
  0
LINE
  5
125
330
1F
100
AcDbEntity
  8
0
  6
Continuous
 62
     7
370
    25
100
AcDbLine
 10
10.6044567592
 20
15.5224131523
 30
0.0
 11
10.6044567592
 21
16.5224131523
 31
0.0
  0
LINE
  5
126
330
1F
100
AcDbEntity
  8
0
  6
Continuous
 62
     7
370
    25
100
AcDbLine
 10
10.6044567592
 20
15.5224131523
 30
0.0
 11
10.4701064708
 21
15.5224131523
 31
0.0
  0
LINE
  5
127
330
1F
100
AcDbEntity
  8
0
  6
Continuous
 62
     7
370
    25
100
AcDbLine
 10
14.8930593871
 20
15.5224131523
 30
0.0
 11
14.8930593871
 21
16.5224131523
 31
0.0
  0
LINE
  5
128
330
1F
100
AcDbEntity
  8
0
  6
Continuous
 62
     7
370
    25
100
AcDbLine
 10
14.8930593871
 20
15.5224131523
 30
0.0
 11
14.7587090987
 21
15.5224131523
 31
0.0
  0
LINE
  5
129
330
1F
100
AcDbEntity
  8
0
  6
Continuous
 62
     7
370
    25
100
AcDbLine
 10
14.7587090987
 20
15.5224131523
 30
0.0
 11
14.7587090987
 21
16.5224131523
 31
0.0
  0
LINE
  5
12A
330
1F
100
AcDbEntity
  8
0
  6
Continuous
 62
     7
370
    25
100
AcDbLine
 10
15.423389473
 20
15.5224131523
 30
0.0
 11
15.423389473
 21
16.3870473617
 31
0.0
  0
LINE
  5
12B
330
1F
100
AcDbEntity
  8
0
  6
Continuous
 62
     7
370
    25
100
AcDbLine
 10
15.423389473
 20
16.4194660967
 30
0.0
 11
15.423389473
 21
16.4367644677
 31
0.0
  0
LINE
  5
12C
330
1F
100
AcDbEntity
  8
0
  6
Continuous
 62
     7
370
    25
100
AcDbLine
 10
15.423389473
 20
16.4694428264
 30
0.0
 11
15.423389473
 21
16.4867644677
 31
0.0
  0
LINE
  5
12D
330
1F
100
AcDbEntity
  8
0
  6
Continuous
 62
     7
370
    25
100
AcDbLine
 10
15.423389473
 20
16.5194428264
 30
0.0
 11
15.423389473
 21
16.5224131523
 31
0.0
  0
LINE
  5
12E
330
1F
100
AcDbEntity
  8
0
  6
Continuous
 62
     7
370
    25
100
AcDbLine
 10
15.423389473
 20
15.5224131523
 30
0.0
 11
14.8930593871
 21
15.5224131523
 31
0.0
  0
LINE
  5
12F
330
1F
100
AcDbEntity
  8
0
  6
Continuous
 62
     7
370
    25
100
AcDbLine
 10
12.681582929
 20
4.6474131523
 30
0.0
 11
15.994082929
 21
4.6474131523
 31
0.0
  0
LINE
  5
130
330
1F
100
AcDbEntity
  8
0
  6
Continuous
 62
     7
370
    25
100
AcDbLine
 10
9.369082929
 20
4.6474131523
 30
0.0
 11
12.681582929
 21
4.6474131523
 31
0.0
  0
DIMENSION
  5
131
330
1F
100
AcDbEntity
  8
0
  6
Continuous
 62
     7
370
    18
100
AcDbDimension
  2
_D
 10
9.369082929
 20
3.0726100027
 30
0.0
 11
12.681582929
 21
3.0726100027
 31
0.0
 70
   160
  1
%%c<>
 71
     2
 42
-1.0
  3
SLDDIMSTYLE0
100
AcDbAlignedDimension
 13
15.994082929
 23
4.6474131523
 33
0.0
 14
9.369082929
 24
4.6474131523
 34
0.0
 50
0.0
100
AcDbRotatedDimension
  0
DIMENSION
  5
146
330
1F
100
AcDbEntity
  8
0
  6
Continuous
 62
     7
370
    18
100
AcDbDimension
  2
_D_1
 10
7.254311133
 20
16.5224131523
 30
0.0
 11
7.254311133
 21
19.0372163019
 31
0.0
 70
   160
  1
<>
 71
     2
 42
-1.0
  3
SLDDIMSTYLE1
100
AcDbAlignedDimension
 13
9.2144084523
 23
17.4624131523
 33
0.0
 14
9.181582929
 24
16.5224131523
 34
0.0
 50
90.0
100
AcDbRotatedDimension
  0
DIMENSION
  5
15C
330
1F
100
AcDbEntity
  8
0
  6
Continuous
 62
     7
370
    18
100
AcDbDimension
  2
_D_2
 10
19.1139312484
 20
4.6474131523
 30
0.0
 11
19.1139312484
 21
11.0549131523
 31
0.0
 70
   160
  1
<>
 71
     2
 42
-1.0
  3
SLDDIMSTYLE0
100
AcDbAlignedDimension
 13
16.1487574056
 23
17.4624131523
 33
0.0
 14
15.994082929
 24
4.6474131523
 34
0.0
 50
90.0
100
AcDbRotatedDimension
  0
LINE
  5
170
330
1F
100
AcDbEntity
  8
0
  6
Continuous
 62
     7
370
    25
100
AcDbLine
 10
32.2612259589
 20
29.7648249394
 30
0.0
 11
32.2612259589
 21
29.7933397834
 31
0.0
  0
LINE
  5
171
330
1F
100
AcDbEntity
  8
0
  6
Continuous
 62
     7
370
    25
100
AcDbLine
 10
35.9735365601
 20
31.907896233
 30
0.0
 11
35.9735365601
 21
31.936411077
 31
0.0
  0
LINE
  5
172
330
1F
100
AcDbEntity
  8
0
  6
Continuous
 62
     7
370
    25
100
AcDbLine
 10
35.5985365601
 20
31.936411077
 30
0.0
 11
35.5985365601
 21
31.907896233
 31
0.0
  0
LINE
  5
173
330
1F
100
AcDbEntity
  8
0
  6
Continuous
 62
     7
370
    25
100
AcDbLine
 10
39.3108471613
 20
29.7933397834
 30
0.0
 11
39.3108471613
 21
29.7648249394
 31
0.0
  0
LINE
  5
174
330
1F
100
AcDbEntity
  8
0
  6
Continuous
 62
     7
370
    25
100
AcDbLine
 10
39.0985365601
 20
19.6402863841
 30
0.0
 11
39.0985365601
 21
28.3036848214
 31
0.0
  0
LINE
  5
175
330
1F
100
AcDbEntity
  8
0
  6
Continuous
 62
     7
370
    25
100
AcDbLine
 10
32.4735365601
 20
28.3036848214
 30
0.0
 11
32.4735365601
 21
19.6402863841
 31
0.0
  0
LWPOLYLINE
  5
176
330
1F
100
AcDbEntity
  8
0
  6
Continuous
 62
     7
370
    25
100
AcDbPolyline
 90
       20
 70
   128
 43
0.0
 10
32.2411555756
 20
29.764030461
 10
32.2433605956
 20
29.7678892679
 10
32.2485719701
 20
29.7804007583
 10
32.2510259186
 20
29.7931906522
 10
32.2506837408
 20
29.8060572453
 10
32.2475508331
 20
29.8187976237
 10
32.2416766033
 20
29.8312108642
 10
32.2331536914
 20
29.8431012024
 10
32.222116509
 20
29.8542811207
 10
32.208739119
 20
29.864574305
 10
32.1932324908
 20
29.8738184257
 10
32.1758411732
 20
29.8818676974
 10
32.1568394377
 20
29.8885951784
 10
32.1365269529
 20
29.8938947723
 10
32.115224059
 20
29.8976829013
 10
32.0932667152
 20
29.8998998242
 10
32.0710012021
 20
29.9005105791
 10
32.04877866
 20
29.8995055338
 10
32.0269495516
 20
29.8969005385
 10
32.0147889293
 20
29.8947091443
  0
LWPOLYLINE
  5
177
330
1F
100
AcDbEntity
  8
0
  6
Continuous
 62
     7
370
    25
100
AcDbPolyline
 90
       21
 70
   128
 43
0.0
 10
32.0129932243
 20
29.8957457828
 10
32.0190906027
 20
29.896884068
 10
32.0411088243
 20
29.899930879
 10
32.0636026771
 20
29.9014233518
 10
32.0862441502
 20
29.9013397229
 10
32.1087030799
 20
29.8996812116
 10
32.1306519644
 20
29.8964720028
 10
32.1517707395
 20
29.891758894
 10
32.171751446
 20
29.885610613
 10
32.1903027202
 20
29.8781168155
 10
32.2071540427
 20
29.869386778
 10
32.2220596832
 20
29.859547804
 10
32.2348022841
 20
29.8487433681
 10
32.2451960294
 20
29.8371310231
 10
32.253089355
 20
29.8248801032
 10
32.2583671583
 20
29.8121692544
 10
32.2609524772
 20
29.7991838296
 10
32.2608076119
 20
29.7861131854
 10
32.2579346748
 20
29.7731479213
 10
32.2523755598
 20
29.7604770999
 10
32.2517414332
 20
29.7593496393
  0
ARC
  5
178
330
1F
100
AcDbEntity
  8
0
  6
Continuous
 62
     7
370
    25
100
AcDbCircle
 10
32.0745733655
 20
29.6874301106
 30
0.0
 40
0.1731181148929815
100
AcDbArc
 50
71.2148212585
 51
90.201136754
  0
ARC
  5
179
330
1F
100
AcDbEntity
  8
0
  6
Continuous
 62
     7
370
    25
100
AcDbCircle
 10
32.1176003568
 20
29.7872810979
 30
0.0
 40
0.0652966336875109
100
AcDbArc
 50
9.6194997591
 51
78.7661908985
  0
SPLINE
  5
17A
330
1F
100
AcDbEntity
  8
0
  6
Continuous
 62
     7
370
    25
100
AcDbSpline
210
0.0
220
0.0
230
1.0
 70
     8
 71
     3
 72
    10
 73
     6
 74
     0
 42
0.00000001
 43
0.00000001
 40
0.0
 40
0.0
 40
0.0
 40
0.0
 40
0.1387780795862075
 40
0.4751282092721694
 40
1.0
 40
1.0
 40
1.0
 40
1.0
 10
32.15462695818308
 20
29.81398236858562
 30
0.0
 10
32.15344930386856
 20
29.81523033939368
 30
0.0
 10
32.14941742226831
 20
29.81950296037982
 30
0.0
 10
32.14105975964955
 20
29.83171542492897
 30
0.0
 10
32.13438744384654
 20
29.84390048570856
 30
0.0
 10
32.1303210002728
 20
29.8513266722929
 30
0.0
  0
LINE
  5
17B
330
1F
100
AcDbEntity
  8
0
  6
Continuous
 62
     7
370
    25
100
AcDbLine
 10
32.1303210003
 20
29.8280138994
 30
0.0
 11
32.1303210003
 21
29.8513266723
 31
0.0
  0
SPLINE
  5
17C
330
1F
100
AcDbEntity
  8
0
  6
Continuous
 62
     7
370
    25
100
AcDbSpline
210
0.0
220
0.0
230
1.0
 70
     8
 71
     3
 72
     9
 73
     5
 74
     0
 42
0.00000001
 43
0.00000001
 40
0.0
 40
0.0
 40
0.0
 40
0.0
 40
0.8517650145513277
 40
1.0
 40
1.0
 40
1.0
 40
1.0
 10
32.1303210002728
 20
29.8513266722929
 30
0.0
 10
32.12299941908801
 20
29.84836907496372
 30
0.0
 10
32.11440364318772
 20
29.84489675891567
 30
0.0
 10
32.1049951791063
 20
29.8436274612226
 30
0.0
 10
32.1036005155701
 20
29.84343930689753
 30
0.0
  0
LWPOLYLINE
  5
17D
330
1F
100
AcDbEntity
  8
0
  6
Continuous
 62
     7
370
    25
100
AcDbPolyline
 90
       35
 70
   128
 43
0.0
 10
35.9373471057
 20
31.8875545435
 10
35.9477845827
 20
31.8989247882
 10
35.9556711968
 20
31.9109605614
 10
35.9608825713
 20
31.9234720518
 10
35.9633365198
 20
31.9362619457
 10
35.962994342
 20
31.9491285388
 10
35.9598614343
 20
31.9618689173
 10
35.9539872045
 20
31.9742821577
 10
35.9454642927
 20
31.986172496
 10
35.9344271103
 20
31.9973524142
 10
35.9210497203
 20
32.0076455985
 10
35.9055430921
 20
32.0168897192
 10
35.8881517745
 20
32.024938991
 10
35.8691500389
 20
32.031666472
 10
35.8488375542
 20
32.0369660658
 10
35.8275346602
 20
32.0407541948
 10
35.8055773165
 20
32.0429711178
 10
35.7833118033
 20
32.0435818726
 10
35.7610892612
 20
32.0425768273
 10
35.7392601529
 20
32.039971832
 10
35.7181687364
 20
32.0358079691
 10
35.6981476361
 20
32.0301509052
 10
35.6795125967
 20
32.0230898555
 10
35.6625575037
 20
32.014736177
 10
35.6475497493
 20
32.0052216122
 10
35.6347260145
 20
31.9946962116
 10
35.6242885375
 20
31.9833259669
 10
35.6164019234
 20
31.9712901936
 10
35.6111905489
 20
31.9587787032
 10
35.6087366004
 20
31.9459888094
 10
35.6090787782
 20
31.9331222163
 10
35.6122116859
 20
31.9203818378
 10
35.6180859157
 20
31.9079685973
 10
35.6266088275
 20
31.8960782591
 10
35.6363137762
 20
31.8860879103
  0
ARC
  5
17E
330
1F
100
AcDbEntity
  8
0
  6
Continuous
 62
     7
370
    25
100
AcDbCircle
 10
35.7860365601
 20
32.1252782762
 30
0.0
 40
0.2868904552283439
100
AcDbArc
 50
250.5906492535
 51
289.4093507465
  0
LINE
  5
17F
330
1F
100
AcDbEntity
  8
0
  6
Continuous
 62
     7
370
    25
100
AcDbLine
 10
35.935759344
 20
31.8860879103
 30
0.0
 11
35.9373471057
 21
31.8875545435
 31
0.0
  0
ARC
  5
180
330
1F
100
AcDbEntity
  8
0
  6
Continuous
 62
     7
370
    25
100
AcDbCircle
 10
35.7860365601
 20
32.1451528161
 30
0.0
 40
0.3170235059378803
100
AcDbArc
 50
259.2966239944
 51
280.7033760056
  0
LWPOLYLINE
  5
181
330
1F
100
AcDbEntity
  8
0
  6
Continuous
 62
     7
370
    25
100
AcDbPolyline
 90
       34
 70
   128
 43
0.0
 10
35.6080210858
 20
31.9024209328
 10
35.606673164
 20
31.9048707572
 10
35.6013953607
 20
31.9175816059
 10
35.5988100418
 20
31.9305670308
 10
35.5989549071
 20
31.943637675
 10
35.6018278442
 20
31.9566029391
 10
35.6073869592
 20
31.9692737604
 10
35.6155511877
 20
31.9814653698
 10
35.6262014768
 20
31.9929999862
 10
35.6391825213
 20
32.0037094088
 10
35.6543050284
 20
32.0134374702
 10
35.6713484778
 20
32.0220423133
 10
35.6900643378
 20
32.0293984602
 10
35.7101796888
 20
32.0353986417
 10
35.7314012039
 20
32.0399553615
 10
35.7534194255
 20
32.0430021725
 10
35.7759132783
 20
32.0444946454
 10
35.7985547514
 20
32.0444110164
 10
35.8210136811
 20
32.0427525051
 10
35.8429625656
 20
32.0395432963
 10
35.8640813408
 20
32.0348301876
 10
35.8840620473
 20
32.0286819065
 10
35.9026133214
 20
32.021188109
 10
35.9194646439
 20
32.0124580715
 10
35.9343702845
 20
32.0026190976
 10
35.9471128853
 20
31.9918146616
 10
35.9575066306
 20
31.9802023166
 10
35.9653999562
 20
31.9679513967
 10
35.9706777595
 20
31.955240548
 10
35.9732630784
 20
31.9422551231
 10
35.9731182131
 20
31.9291844789
 10
35.970245276
 20
31.9162192148
 10
35.964686161
 20
31.9035483935
 10
35.9640520344
 20
31.9024209328
  0
ARC
  5
182
330
1F
100
AcDbEntity
  8
0
  6
Continuous
 62
     7
370
    25
100
AcDbCircle
 10
35.7859313425
 20
31.8260201415
 30
0.0
 40
0.1776682613412359
100
AcDbArc
 50
71.3893451003
 51
106.8549259022
  0
ARC
  5
183
330
1F
100
AcDbEntity
  8
0
  6
Continuous
 62
     7
370
    25
100
AcDbCircle
 10
35.7457644787
 20
31.9273018022
 30
0.0
 40
0.0696845234502714
100
AcDbArc
 50
99.3722051003
 51
167.1635435162
  0
ARC
  5
184
330
1F
100
AcDbEntity
  8
0
  6
Continuous
 62
     7
370
    25
100
AcDbCircle
 10
35.7416625712
 20
31.9510570587
 30
0.0
 40
0.0643749470456691
100
AcDbArc
 50
187.3841243135
 51
259.0564510436
  0
ARC
  5
185
330
1F
100
AcDbEntity
  8
0
  6
Continuous
 62
     7
370
    25
100
AcDbCircle
 10
35.7861417777
 20
32.0562306136
 30
0.0
 40
0.177668261341286
100
AcDbArc
 50
251.3893451003
 51
286.8549259022
  0
ARC
  5
186
330
1F
100
AcDbEntity
  8
0
  6
Continuous
 62
     7
370
    25
100
AcDbCircle
 10
35.8263086415
 20
31.9549489528
 30
0.0
 40
0.0696845234502714
100
AcDbArc
 50
279.3722051003
 51
347.1635435162
  0
ARC
  5
187
330
1F
100
AcDbEntity
  8
0
  6
Continuous
 62
     7
370
    25
100
AcDbCircle
 10
35.830410549
 20
31.9311936963
 30
0.0
 40
0.064374947045693
100
AcDbArc
 50
7.3841243135
 51
79.0564510436
  0
SPLINE
  5
188
330
1F
100
AcDbEntity
  8
0
  6
Continuous
 62
     7
370
    25
100
AcDbSpline
210
0.0
220
0.0
230
1.0
 70
     8
 71
     3
 72
    11
 73
     7
 74
     0
 42
0.00000001
 43
0.00000001
 40
0.0
 40
0.0
 40
0.0
 40
0.0
 40
0.2885875802099818
 40
0.5870416868828406
 40
0.7921593486227536
 40
1.0
 40
1.0
 40
1.0
 40
1.0
 10
35.67782149773544
 20
31.94278353798924
 30
0.0
 10
35.68135667760977
 20
31.93624414606018
 30
0.0
 10
35.68854790169279
 20
31.92294178680262
 30
0.0
 10
35.69910715450028
 20
31.90805880354377
 30
0.0
 10
35.70874471572677
 20
31.89799562554689
 30
0.0
 10
35.71415872119221
 20
31.89446633532528
 30
0.0
 10
35.71688357352415
 20
31.89269005439024
 30
0.0
  0
SPLINE
  5
189
330
1F
100
AcDbEntity
  8
0
  6
Continuous
 62
     7
370
    25
100
AcDbSpline
210
0.0
220
0.0
230
1.0
 70
     8
 71
     3
 72
    11
 73
     7
 74
     0
 42
0.00000001
 43
0.00000001
 40
0.0
 40
0.0
 40
0.0
 40
0.0
 40
0.1737573745418697
 40
0.435267774853316
 40
0.7054439778685817
 40
1.0
 40
1.0
 40
1.0
 40
1.0
 10
35.8593335042713
 20
31.89582362990886
 30
0.0
 10
35.86141420495596
 20
31.89731430779899
 30
0.0
 10
35.86662642665035
 20
31.90104850354161
 30
0.0
 10
35.87517300882398
 20
31.91063864444489
 30
0.0
 10
35.8848360340771
 20
31.92374996591541
 30
0.0
 10
35.89102404631295
 20
31.93407948950695
 30
0.0
 10
35.89425162247724
 20
31.93946721707792
 30
0.0
  0
ARC
  5
18A
330
1F
100
AcDbEntity
  8
0
  6
Continuous
 62
     7
370
    25
100
AcDbCircle
 10
35.7849502205
 20
31.7457534989
 30
0.0
 40
0.1474492632601547
100
AcDbArc
 50
88.6111387657
 51
108.8331570095
  0
ARC
  5
18B
330
1F
100
AcDbEntity
  8
0
  6
Continuous
 62
     7
370
    25
100
AcDbCircle
 10
35.7872001843
 20
31.7455198628
 30
0.0
 40
0.1476455173277323
100
AcDbArc
 50
71.2244966826
 51
89.4862417652
  0
SPLINE
  5
18C
330
1F
100
AcDbEntity
  8
0
  6
Continuous
 62
     7
370
    25
100
AcDbSpline
210
0.0
220
0.0
230
1.0
 70
     8
 71
     3
 72
    12
 73
     8
 74
     0
 42
0.00000001
 43
0.00000001
 40
0.0
 40
0.0
 40
0.0
 40
0.0
 40
0.2161843460219364
 40
0.4397598229072851
 40
0.5934158725838163
 40
0.7522072604284041
 40
1.0
 40
1.0
 40
1.0
 40
1.0
 10
35.89425162247724
 20
31.93946721707792
 30
0.0
 10
35.89071721435983
 20
31.94045483715342
 30
0.0
 10
35.88352756017629
 20
31.94246384306663
 30
0.0
 10
35.87295749790444
 20
31.95000923528283
 30
0.0
 10
35.86329359911723
 20
31.96064040434096
 30
0.0
 10
35.85336813607513
 20
31.97463993266945
 30
0.0
 10
35.84669720260997
 20
31.98691619589986
 30
0.0
 10
35.84263160150218
 20
31.99439796582751
 30
0.0
  0
LINE
  5
18D
330
1F
100
AcDbEntity
  8
0
  6
Continuous
 62
     7
370
    25
100
AcDbLine
 10
35.8457585462
 20
31.8890028683
 30
0.0
 11
35.8426316015
 21
31.8923303643
 31
0.0
  0
LINE
  5
18E
330
1F
100
AcDbEntity
  8
0
  6
Continuous
 62
     7
370
    25
100
AcDbLine
 10
35.8426316015
 20
31.8923303643
 30
0.0
 11
35.8426316015
 21
31.9943979658
 31
0.0
  0
LINE
  5
18F
330
1F
100
AcDbEntity
  8
0
  6
Continuous
 62
     7
370
    25
100
AcDbLine
 10
35.7344165391
 20
31.8939885248
 30
0.0
 11
35.7283241572
 21
31.8882538006
 31
0.0
  0
SPLINE
  5
190
330
1F
100
AcDbEntity
  8
0
  6
Continuous
 62
     7
370
    25
100
AcDbSpline
210
0.0
220
0.0
230
1.0
 70
     8
 71
     3
 72
    13
 73
     9
 74
     0
 42
0.00000001
 43
0.00000001
 40
0.0
 40
0.0
 40
0.0
 40
0.0
 40
0.1804907613308863
 40
0.3435163841106766
 40
0.5062359219914617
 40
0.6751144035508772
 40
0.8443638239381072
 40
1.0
 40
1.0
 40
1.0
 40
1.0
 10
35.73441653913129
 20
31.99605612628316
 30
0.0
 10
35.73119001164955
 20
31.99067219602743
 30
0.0
 10
35.72504917072458
 20
31.98042531003662
 30
0.0
 10
35.71537767012457
 20
31.96725047597055
 30
0.0
 10
35.70562634203556
 20
31.95656348322462
 30
0.0
 10
35.69576799878647
 20
31.94910344341447
 30
0.0
 10
35.68639293131508
 20
31.9445608716107
 30
0.0
 10
35.68059769898587
 20
31.94335919849882
 30
0.0
 10
35.67782149773544
 20
31.94278353798924
 30
0.0
  0
LINE
  5
191
330
1F
100
AcDbEntity
  8
0
  6
Continuous
 62
     7
370
    25
100
AcDbLine
 10
35.7344165391
 20
31.8939885248
 30
0.0
 11
35.7344165391
 21
31.9960561263
 31
0.0
  0
SPLINE
  5
192
330
1F
100
AcDbEntity
  8
0
  6
Continuous
 62
     7
370
    25
100
AcDbSpline
210
0.0
220
0.0
230
1.0
 70
     8
 71
     3
 72
    12
 73
     8
 74
     0
 42
0.00000001
 43
0.00000001
 40
0.0
 40
0.0
 40
0.0
 40
0.0
 40
0.2161843460219426
 40
0.4397598229072828
 40
0.5934158725838279
 40
0.7522072604284131
 40
1.0
 40
1.0
 40
1.0
 40
1.0
 10
35.84263160150218
 20
31.99439796582751
 30
0.0
 10
35.83522214703773
 20
31.99173802697249
 30
0.0
 10
35.82014991612419
 20
31.98632720856055
 30
0.0
 10
35.79799107297755
 20
31.98296414771893
 30
0.0
 10
35.77773189077945
 20
31.98362203719136
 30
0.0
 10
35.75692437110251
 20
31.98737834794104
 30
0.0
 10
35.74293957475086
 20
31.99277011392963
 30
0.0
 10
35.73441653913129
 20
31.99605612628316
 30
0.0
  0
LINE
  5
193
330
1F
100
AcDbEntity
  8
0
  6
Continuous
 62
     7
370
    25
100
AcDbLine
 10
35.8426316015
 20
31.8923303643
 30
0.0
 11
35.7885240703
 21
31.8931594446
 31
0.0
  0
LINE
  5
194
330
1F
100
AcDbEntity
  8
0
  6
Continuous
 62
     7
370
    25
100
AcDbLine
 10
35.7885240703
 20
31.8931594446
 30
0.0
 11
35.7344165391
 21
31.8939885248
 31
0.0
  0
LWPOLYLINE
  5
195
330
1F
100
AcDbEntity
  8
0
  6
Continuous
 62
     7
370
    25
100
AcDbPolyline
 90
       20
 70
   128
 43
0.0
 10
39.5572841909
 20
29.8947091443
 10
39.5398452615
 20
29.8976829013
 10
39.5178879177
 20
29.8998998242
 10
39.4956224045
 20
29.9005105791
 10
39.4733998624
 20
29.8995055338
 10
39.4515707541
 20
29.8969005385
 10
39.4304793377
 20
29.8927366756
 10
39.4104582374
 20
29.8870796116
 10
39.3918231979
 20
29.8800185619
 10
39.3748681049
 20
29.8716648835
 10
39.3598603505
 20
29.8621503187
 10
39.3470366158
 20
29.851624918
 10
39.3365991387
 20
29.8402546733
 10
39.3287125246
 20
29.8282189001
 10
39.3235011501
 20
29.8157074097
 10
39.3210472016
 20
29.8029175158
 10
39.3213893794
 20
29.7900509227
 10
39.3245222871
 20
29.7773105442
 10
39.330396517
 20
29.7648973038
 10
39.3309175447
 20
29.764030461
  0
LWPOLYLINE
  5
196
330
1F
100
AcDbEntity
  8
0
  6
Continuous
 62
     7
370
    25
100
AcDbPolyline
 90
       21
 70
   128
 43
0.0
 10
39.320331687
 20
29.7593496393
 10
39.3189837653
 20
29.7617994636
 10
39.3137059619
 20
29.7745103124
 10
39.311120643
 20
29.7874957373
 10
39.3112655083
 20
29.8005663815
 10
39.3141384455
 20
29.8135316456
 10
39.3196975604
 20
29.8262024669
 10
39.3278617889
 20
29.8383940763
 10
39.338512078
 20
29.8499286926
 10
39.3514931225
 20
29.8606381152
 10
39.3666156296
 20
29.8703661766
 10
39.3836590791
 20
29.8789710198
 10
39.402374939
 20
29.8863271667
 10
39.4224902901
 20
29.8923273481
 10
39.4437118051
 20
29.896884068
 10
39.4657300267
 20
29.899930879
 10
39.4882238796
 20
29.9014233518
 10
39.5108653527
 20
29.9013397229
 10
39.5333242823
 20
29.8996812116
 10
39.5552731668
 20
29.8964720028
 10
39.5590798959
 20
29.8957457828
  0
ARC
  5
197
330
1F
100
AcDbEntity
  8
0
  6
Continuous
 62
     7
370
    25
100
AcDbCircle
 10
39.4975458925
 20
29.686036107
 30
0.0
 40
0.1745119554968796
100
AcDbArc
 50
89.8156177766
 51
106.9301107393
  0
ARC
  5
198
330
1F
100
AcDbEntity
  8
0
  6
Continuous
 62
     7
370
    25
100
AcDbCircle
 10
39.45807508
 20
29.7842305087
 30
0.0
 40
0.0696845234502597
100
AcDbArc
 50
99.3722051003
 51
167.1635435162
  0
LINE
  5
199
330
1F
100
AcDbEntity
  8
0
  6
Continuous
 62
     7
370
    25
100
AcDbLine
 10
39.390132099
 20
29.7997122445
 30
0.0
 11
39.3900942512
 21
29.7981924466
 31
0.0
  0
SPLINE
  5
19A
330
1F
100
AcDbEntity
  8
0
  6
Continuous
 62
     7
370
    25
100
AcDbSpline
210
0.0
220
0.0
230
1.0
 70
     8
 71
     3
 72
    10
 73
     6
 74
     0
 42
0.00000001
 43
0.00000001
 40
0.0
 40
0.0
 40
0.0
 40
0.0
 40
0.3607487379584448
 40
0.6865897241620683
 40
1.0
 40
1.0
 40
1.0
 40
1.0
 10
39.44672714036065
 20
29.85298483274854
 30
0.0
 10
39.44350058382589
 20
29.84761571094357
 30
0.0
 10
39.43735968760618
 20
29.83739700891862
 30
0.0
 10
39.42780153793969
 20
29.82418273880097
 30
0.0
 10
39.42149879710358
 20
29.81771098640673
 30
0.0
 10
39.41840870739821
 20
29.81453803419925
 30
0.0
  0
LINE
  5
19B
330
1F
100
AcDbEntity
  8
0
  6
Continuous
 62
     7
370
    25
100
AcDbLine
 10
39.3947654192
 20
29.8008890544
 30
0.0
 11
39.390132099
 21
29.7997122445
 31
0.0
  0
LINE
  5
19C
330
1F
100
AcDbEntity
  8
0
  6
Continuous
 62
     7
370
    25
100
AcDbLine
 10
39.4467271404
 20
29.8308859176
 30
0.0
 11
39.4467271404
 21
29.8529848327
 31
0.0
  0
LINE
  5
19D
330
1F
100
AcDbEntity
  8
0
  6
Continuous
 62
     7
370
    25
100
AcDbLine
 10
39.4707849077
 20
29.8447741711
 30
0.0
 11
39.4467271404
 21
29.8529848327
 31
0.0
  0
ARC
  5
19E
330
1F
100
AcDbEntity
  8
0
  6
Continuous
 62
     7
370
    25
100
AcDbCircle
 10
35.7860365601
 20
27.4579531059
 30
0.0
 40
0.2995401523641983
100
AcDbArc
 50
78.6525394822
 51
101.3474605178
  0
ARC
  5
19F
330
1F
100
AcDbEntity
  8
0
  6
Continuous
 62
     7
370
    25
100
AcDbCircle
 10
35.7860365601
 20
27.4418870144
 30
0.0
 40
0.3166659432155595
100
AcDbArc
 50
78.9428505128
 51
101.0571494872
  0
ARC
  5
1A0
330
1F
100
AcDbEntity
  8
0
  6
Continuous
 62
     7
370
    25
100
AcDbCircle
 10
34.9717877235
 20
29.0595359962
 30
0.0
 40
0.1531076134563686
100
AcDbArc
 50
311.7206069355
 51
319.6194221775
  0
ARC
  5
1A1
330
1F
100
AcDbEntity
  8
0
  6
Continuous
 62
     7
370
    25
100
AcDbCircle
 10
35.0196671145
 20
28.9465577148
 30
0.0
 40
0.0701200549750228
100
AcDbArc
 50
1.5701261258
 51
11.3383040538
  0
LINE
  5
1A2
330
1F
100
AcDbEntity
  8
0
  6
Continuous
 62
     7
370
    25
100
AcDbLine
 10
30.8827113921
 20
30.1042568885
 30
0.0
 11
30.8362890918
 21
29.3367085253
 31
0.0
  0
LINE
  5
1A3
330
1F
100
AcDbEntity
  8
0
  6
Continuous
 62
     7
370
    25
100
AcDbLine
 10
30.8827113921
 20
30.1042568885
 30
0.0
 11
35.7860365601
 21
27.2736275206
 31
0.0
  0
LINE
  5
1A4
330
1F
100
AcDbEntity
  8
0
  6
Continuous
 62
     7
370
    25
100
AcDbLine
 10
35.7860365601
 20
27.2736275206
 30
0.0
 11
35.7860365601
 21
26.4792801339
 31
0.0
  0
LINE
  5
1A5
330
1F
100
AcDbEntity
  8
0
  6
Continuous
 62
     7
370
    25
100
AcDbLine
 10
30.8362890918
 20
29.3367085253
 30
0.0
 11
35.7860365601
 21
26.4792801339
 31
0.0
  0
LINE
  5
1A6
330
1F
100
AcDbEntity
  8
0
  6
Continuous
 62
     7
370
    25
100
AcDbLine
 10
35.7860365601
 20
27.2736275206
 30
0.0
 11
40.6893617281
 21
30.1042568885
 31
0.0
  0
LINE
  5
1A7
330
1F
100
AcDbEntity
  8
0
  6
Continuous
 62
     7
370
    25
100
AcDbLine
 10
40.6893617281
 20
30.1042568885
 30
0.0
 11
40.7357840284
 21
29.3367085253
 31
0.0
  0
LINE
  5
1A8
330
1F
100
AcDbEntity
  8
0
  6
Continuous
 62
     7
370
    25
100
AcDbLine
 10
35.7860365601
 20
26.4792801339
 30
0.0
 11
40.7357840284
 21
29.3367085253
 31
0.0
  0
LINE
  5
1A9
330
1F
100
AcDbEntity
  8
0
  6
Continuous
 62
     7
370
    25
100
AcDbLine
 10
40.6893617281
 20
30.1042568885
 30
0.0
 11
35.7860365601
 21
32.9348862563
 31
0.0
  0
LINE
  5
1AA
330
1F
100
AcDbEntity
  8
0
  6
Continuous
 62
     7
370
    25
100
AcDbLine
 10
35.7860365601
 20
32.9348862563
 30
0.0
 11
30.8827113921
 21
30.1042568885
 31
0.0
  0
LINE
  5
1AB
330
1F
100
AcDbEntity
  8
0
  6
Continuous
 62
     7
370
    25
100
AcDbLine
 10
31.168629279
 20
30.1042568885
 30
0.0
 11
35.7860365601
 21
27.4386844034
 31
0.0
  0
LINE
  5
1AC
330
1F
100
AcDbEntity
  8
0
  6
Continuous
 62
     7
370
    25
100
AcDbLine
 10
35.7860365601
 20
27.4386844034
 30
0.0
 11
40.4034438413
 21
30.1042568885
 31
0.0
  0
LINE
  5
1AD
330
1F
100
AcDbEntity
  8
0
  6
Continuous
 62
     7
370
    25
100
AcDbLine
 10
40.4034438413
 20
30.1042568885
 30
0.0
 11
35.7860365601
 21
32.7698293736
 31
0.0
  0
LINE
  5
1AE
330
1F
100
AcDbEntity
  8
0
  6
Continuous
 62
     7
370
    25
100
AcDbLine
 10
35.7860365601
 20
32.7698293736
 30
0.0
 11
31.168629279
 21
30.1042568885
 31
0.0
  0
LINE
  5
1AF
330
1F
100
AcDbEntity
  8
0
  6
Continuous
 62
     7
370
    25
100
AcDbLine
 10
36.1610365601
 20
26.4982175018
 30
0.0
 11
36.1610365601
 21
26.6957630259
 31
0.0
  0
LINE
  5
1B0
330
1F
100
AcDbEntity
  8
0
  6
Continuous
 62
     7
370
    25
100
AcDbLine
 10
36.1610365601
 20
26.4982175018
 30
0.0
 11
35.8188405979
 21
26.4982175018
 31
0.0
  0
LINE
  5
1B1
330
1F
100
AcDbEntity
  8
0
  6
Continuous
 62
     7
370
    25
100
AcDbLine
 10
35.7532325223
 20
26.4982175018
 30
0.0
 11
35.4110365601
 21
26.4982175018
 31
0.0
  0
LINE
  5
1B2
330
1F
100
AcDbEntity
  8
0
  6
Continuous
 62
     7
370
    25
100
AcDbLine
 10
35.4110365601
 20
26.4982175018
 30
0.0
 11
35.4110365601
 21
26.6957630259
 31
0.0
  0
LINE
  5
1B3
330
1F
100
AcDbEntity
  8
0
  6
Continuous
 62
     7
370
    25
100
AcDbLine
 10
35.7860365601
 20
32.7181139128
 30
0.0
 11
35.7860365601
 21
32.7698293736
 31
0.0
  0
LINE
  5
1B4
330
1F
100
AcDbEntity
  8
0
  6
Continuous
 62
     7
370
    25
100
AcDbLine
 10
32.4735365601
 20
28.3036848214
 30
0.0
 11
32.4735365601
 21
28.3915456802
 31
0.0
  0
LINE
  5
1B5
330
1F
100
AcDbEntity
  8
0
  6
Continuous
 62
     7
370
    25
100
AcDbLine
 10
32.4735365601
 20
28.3036848214
 30
0.0
 11
32.2835365601
 21
28.3036848214
 31
0.0
  0
LINE
  5
1B6
330
1F
100
AcDbEntity
  8
0
  6
Continuous
 62
     7
370
    25
100
AcDbLine
 10
32.2835365601
 20
28.3036848214
 30
0.0
 11
32.2835365601
 21
28.5012303455
 31
0.0
  0
LINE
  5
1B7
330
1F
100
AcDbEntity
  8
0
  6
Continuous
 62
     7
370
    25
100
AcDbLine
 10
39.2885365601
 20
28.3036848214
 30
0.0
 11
39.2885365601
 21
28.5012303455
 31
0.0
  0
LINE
  5
1B8
330
1F
100
AcDbEntity
  8
0
  6
Continuous
 62
     7
370
    25
100
AcDbLine
 10
39.2885365601
 20
28.3036848214
 30
0.0
 11
39.0985365601
 21
28.3036848214
 31
0.0
  0
LINE
  5
1B9
330
1F
100
AcDbEntity
  8
0
  6
Continuous
 62
     7
370
    25
100
AcDbLine
 10
39.0985365601
 20
28.3036848214
 30
0.0
 11
39.0985365601
 21
28.3915456802
 31
0.0
  0
LINE
  5
1BA
330
1F
100
AcDbEntity
  8
0
  6
Continuous
 62
     7
370
    25
100
AcDbLine
 10
31.2582127912
 20
30.1042568885
 30
0.0
 11
35.7860365601
 21
27.4903998642
 31
0.0
  0
LINE
  5
1BB
330
1F
100
AcDbEntity
  8
0
  6
Continuous
 62
     7
370
    25
100
AcDbLine
 10
35.7860365601
 20
27.4903998642
 30
0.0
 11
35.7860365601
 21
27.4386844034
 31
0.0
  0
LINE
  5
1BC
330
1F
100
AcDbEntity
  8
0
  6
Continuous
 62
     7
370
    25
100
AcDbLine
 10
31.2582127912
 20
30.1042568885
 30
0.0
 11
31.2523588039
 21
30.0559208626
 31
0.0
  0
LINE
  5
1BD
330
1F
100
AcDbEntity
  8
0
  6
Continuous
 62
     7
370
    25
100
AcDbLine
 10
35.7860365601
 20
27.4903998642
 30
0.0
 11
40.3138603291
 21
30.1042568885
 31
0.0
  0
LINE
  5
1BE
330
1F
100
AcDbEntity
  8
0
  6
Continuous
 62
     7
370
    25
100
AcDbLine
 10
40.3138603291
 20
30.1042568885
 30
0.0
 11
40.3197143163
 21
30.0559208626
 31
0.0
  0
LINE
  5
1BF
330
1F
100
AcDbEntity
  8
0
  6
Continuous
 62
     7
370
    25
100
AcDbLine
 10
36.4047549936
 20
28.0747927768
 30
0.0
 11
35.7860365601
 21
28.4319713257
 31
0.0
  0
LINE
  5
1C0
330
1F
100
AcDbEntity
  8
0
  6
Continuous
 62
     7
370
    25
100
AcDbLine
 10
35.7860365601
 20
28.4319713257
 30
0.0
 11
35.1673181266
 21
28.0747927768
 31
0.0
  0
LINE
  5
1C1
330
1F
100
AcDbEntity
  8
0
  6
Continuous
 62
     7
370
    25
100
AcDbLine
 10
35.1673181266
 20
28.0747927768
 30
0.0
 11
35.7860365601
 21
27.7176142278
 31
0.0
  0
LINE
  5
1C2
330
1F
100
AcDbEntity
  8
0
  6
Continuous
 62
     7
370
    25
100
AcDbLine
 10
35.7860365601
 20
27.7176142278
 30
0.0
 11
36.4047549936
 21
28.0747927768
 31
0.0
  0
LINE
  5
1C3
330
1F
100
AcDbEntity
  8
0
  6
Continuous
 62
     7
370
    25
100
AcDbLine
 10
35.6976482125
 20
28.4829968327
 30
0.0
 11
35.0789297789
 21
28.8401753816
 31
0.0
  0
LINE
  5
1C4
330
1F
100
AcDbEntity
  8
0
  6
Continuous
 62
     7
370
    25
100
AcDbLine
 10
35.0789297789
 20
28.8401753816
 30
0.0
 11
34.4602113454
 21
28.4829968327
 31
0.0
  0
LINE
  5
1C5
330
1F
100
AcDbEntity
  8
0
  6
Continuous
 62
     7
370
    25
100
AcDbLine
 10
34.4602113454
 20
28.4829968327
 30
0.0
 11
35.0789297789
 21
28.1258182838
 31
0.0
  0
LINE
  5
1C6
330
1F
100
AcDbEntity
  8
0
  6
Continuous
 62
     7
370
    25
100
AcDbLine
 10
35.0789297789
 20
28.1258182838
 30
0.0
 11
35.6976482125
 21
28.4829968327
 31
0.0
  0
LINE
  5
1C7
330
1F
100
AcDbEntity
  8
0
  6
Continuous
 62
     7
370
    25
100
AcDbLine
 10
34.9905414313
 20
28.8912008886
 30
0.0
 11
34.3718229977
 21
29.2483794375
 31
0.0
  0
LINE
  5
1C8
330
1F
100
AcDbEntity
  8
0
  6
Continuous
 62
     7
370
    25
100
AcDbLine
 10
34.3718229977
 20
29.2483794375
 30
0.0
 11
33.7531045642
 21
28.8912008886
 31
0.0
  0
LINE
  5
1C9
330
1F
100
AcDbEntity
  8
0
  6
Continuous
 62
     7
370
    25
100
AcDbLine
 10
33.7531045642
 20
28.8912008886
 30
0.0
 11
34.3718229977
 21
28.5340223397
 31
0.0
  0
LINE
  5
1CA
330
1F
100
AcDbEntity
  8
0
  6
Continuous
 62
     7
370
    25
100
AcDbLine
 10
34.3718229977
 20
28.5340223397
 30
0.0
 11
34.9905414313
 21
28.8912008886
 31
0.0
  0
LINE
  5
1CB
330
1F
100
AcDbEntity
  8
0
  6
Continuous
 62
     7
370
    25
100
AcDbLine
 10
34.2834346501
 20
29.2994049445
 30
0.0
 11
33.6647162165
 21
29.6565834934
 31
0.0
  0
LINE
  5
1CC
330
1F
100
AcDbEntity
  8
0
  6
Continuous
 62
     7
370
    25
100
AcDbLine
 10
33.6647162165
 20
29.6565834934
 30
0.0
 11
33.045997783
 21
29.2994049445
 31
0.0
  0
LINE
  5
1CD
330
1F
100
AcDbEntity
  8
0
  6
Continuous
 62
     7
370
    25
100
AcDbLine
 10
33.045997783
 20
29.2994049445
 30
0.0
 11
33.6647162165
 21
28.9422263956
 31
0.0
  0
LINE
  5
1CE
330
1F
100
AcDbEntity
  8
0
  6
Continuous
 62
     7
370
    25
100
AcDbLine
 10
33.6647162165
 20
28.9422263956
 30
0.0
 11
34.2834346501
 21
29.2994049445
 31
0.0
  0
LINE
  5
1CF
330
1F
100
AcDbEntity
  8
0
  6
Continuous
 62
     7
370
    25
100
AcDbLine
 10
33.5763278689
 20
29.7076090004
 30
0.0
 11
32.9576094354
 21
30.0647875493
 31
0.0
  0
LINE
  5
1D0
330
1F
100
AcDbEntity
  8
0
  6
Continuous
 62
     7
370
    25
100
AcDbLine
 10
32.9576094354
 20
30.0647875493
 30
0.0
 11
32.3388910018
 21
29.7076090004
 31
0.0
  0
LINE
  5
1D1
330
1F
100
AcDbEntity
  8
0
  6
Continuous
 62
     7
370
    25
100
AcDbLine
 10
32.3388910018
 20
29.7076090004
 30
0.0
 11
32.9576094354
 21
29.3504304515
 31
0.0
  0
LINE
  5
1D2
330
1F
100
AcDbEntity
  8
0
  6
Continuous
 62
     7
370
    25
100
AcDbLine
 10
32.9576094354
 20
29.3504304515
 30
0.0
 11
33.5763278689
 21
29.7076090004
 31
0.0
  0
LINE
  5
1D3
330
1F
100
AcDbEntity
  8
0
  6
Continuous
 62
     7
370
    25
100
AcDbLine
 10
32.8692210877
 20
30.1158130563
 30
0.0
 11
32.2505026542
 21
30.4729916052
 31
0.0
  0
LINE
  5
1D4
330
1F
100
AcDbEntity
  8
0
  6
Continuous
 62
     7
370
    25
100
AcDbLine
 10
32.2505026542
 20
30.4729916052
 30
0.0
 11
31.6317842206
 21
30.1158130563
 31
0.0
  0
LINE
  5
1D5
330
1F
100
AcDbEntity
  8
0
  6
Continuous
 62
     7
370
    25
100
AcDbLine
 10
31.6317842206
 20
30.1158130563
 30
0.0
 11
32.2505026542
 21
29.7586345074
 31
0.0
  0
LINE
  5
1D6
330
1F
100
AcDbEntity
  8
0
  6
Continuous
 62
     7
370
    25
100
AcDbLine
 10
32.2505026542
 20
29.7586345074
 30
0.0
 11
32.8692210877
 21
30.1158130563
 31
0.0
  0
LINE
  5
1D7
330
1F
100
AcDbEntity
  8
0
  6
Continuous
 62
     7
370
    25
100
AcDbLine
 10
37.1118617748
 20
28.4829968327
 30
0.0
 11
36.4931433413
 21
28.8401753816
 31
0.0
  0
LINE
  5
1D8
330
1F
100
AcDbEntity
  8
0
  6
Continuous
 62
     7
370
    25
100
AcDbLine
 10
36.4931433413
 20
28.8401753816
 30
0.0
 11
35.8744249078
 21
28.4829968327
 31
0.0
  0
LINE
  5
1D9
330
1F
100
AcDbEntity
  8
0
  6
Continuous
 62
     7
370
    25
100
AcDbLine
 10
35.8744249078
 20
28.4829968327
 30
0.0
 11
36.4931433413
 21
28.1258182838
 31
0.0
  0
LINE
  5
1DA
330
1F
100
AcDbEntity
  8
0
  6
Continuous
 62
     7
370
    25
100
AcDbLine
 10
36.4931433413
 20
28.1258182838
 30
0.0
 11
37.1118617748
 21
28.4829968327
 31
0.0
  0
LINE
  5
1DB
330
1F
100
AcDbEntity
  8
0
  6
Continuous
 62
     7
370
    25
100
AcDbLine
 10
33.5763278689
 20
30.5240171122
 30
0.0
 11
32.9576094354
 21
30.8811956612
 31
0.0
  0
LINE
  5
1DC
330
1F
100
AcDbEntity
  8
0
  6
Continuous
 62
     7
370
    25
100
AcDbLine
 10
32.9576094354
 20
30.8811956612
 30
0.0
 11
32.3388910018
 21
30.5240171122
 31
0.0
  0
LINE
  5
1DD
330
1F
100
AcDbEntity
  8
0
  6
Continuous
 62
     7
370
    25
100
AcDbLine
 10
32.3388910018
 20
30.5240171122
 30
0.0
 11
32.9576094354
 21
30.1668385633
 31
0.0
  0
LINE
  5
1DE
330
1F
100
AcDbEntity
  8
0
  6
Continuous
 62
     7
370
    25
100
AcDbLine
 10
32.9576094354
 20
30.1668385633
 30
0.0
 11
33.5763278689
 21
30.5240171122
 31
0.0
  0
LINE
  5
1DF
330
1F
100
AcDbEntity
  8
0
  6
Continuous
 62
     7
370
    25
100
AcDbLine
 10
37.818968556
 20
28.8912008886
 30
0.0
 11
37.2002501225
 21
29.2483794375
 31
0.0
  0
LINE
  5
1E0
330
1F
100
AcDbEntity
  8
0
  6
Continuous
 62
     7
370
    25
100
AcDbLine
 10
37.2002501225
 20
29.2483794375
 30
0.0
 11
36.5815316889
 21
28.8912008886
 31
0.0
  0
LINE
  5
1E1
330
1F
100
AcDbEntity
  8
0
  6
Continuous
 62
     7
370
    25
100
AcDbLine
 10
36.5815316889
 20
28.8912008886
 30
0.0
 11
37.2002501225
 21
28.5340223397
 31
0.0
  0
LINE
  5
1E2
330
1F
100
AcDbEntity
  8
0
  6
Continuous
 62
     7
370
    25
100
AcDbLine
 10
37.2002501225
 20
28.5340223397
 30
0.0
 11
37.818968556
 21
28.8912008886
 31
0.0
  0
LINE
  5
1E3
330
1F
100
AcDbEntity
  8
0
  6
Continuous
 62
     7
370
    25
100
AcDbLine
 10
34.2834346501
 20
30.9322211681
 30
0.0
 11
33.6647162165
 21
31.2893997171
 31
0.0
  0
LINE
  5
1E4
330
1F
100
AcDbEntity
  8
0
  6
Continuous
 62
     7
370
    25
100
AcDbLine
 10
33.6647162165
 20
31.2893997171
 30
0.0
 11
33.045997783
 21
30.9322211681
 31
0.0
  0
LINE
  5
1E5
330
1F
100
AcDbEntity
  8
0
  6
Continuous
 62
     7
370
    25
100
AcDbLine
 10
33.045997783
 20
30.9322211681
 30
0.0
 11
33.6647162165
 21
30.5750426192
 31
0.0
  0
LINE
  5
1E6
330
1F
100
AcDbEntity
  8
0
  6
Continuous
 62
     7
370
    25
100
AcDbLine
 10
33.6647162165
 20
30.5750426192
 30
0.0
 11
34.2834346501
 21
30.9322211681
 31
0.0
  0
LINE
  5
1E7
330
1F
100
AcDbEntity
  8
0
  6
Continuous
 62
     7
370
    25
100
AcDbLine
 10
38.5260753372
 20
29.2994049445
 30
0.0
 11
37.9073569037
 21
29.6565834934
 31
0.0
  0
LINE
  5
1E8
330
1F
100
AcDbEntity
  8
0
  6
Continuous
 62
     7
370
    25
100
AcDbLine
 10
37.9073569037
 20
29.6565834934
 30
0.0
 11
37.2886384701
 21
29.2994049445
 31
0.0
  0
LINE
  5
1E9
330
1F
100
AcDbEntity
  8
0
  6
Continuous
 62
     7
370
    25
100
AcDbLine
 10
37.2886384701
 20
29.2994049445
 30
0.0
 11
37.9073569037
 21
28.9422263956
 31
0.0
  0
LINE
  5
1EA
330
1F
100
AcDbEntity
  8
0
  6
Continuous
 62
     7
370
    25
100
AcDbLine
 10
37.9073569037
 20
28.9422263956
 30
0.0
 11
38.5260753372
 21
29.2994049445
 31
0.0
  0
LINE
  5
1EB
330
1F
100
AcDbEntity
  8
0
  6
Continuous
 62
     7
370
    25
100
AcDbLine
 10
34.9905414313
 20
31.3404252241
 30
0.0
 11
34.3718229977
 21
31.697603773
 31
0.0
  0
LINE
  5
1EC
330
1F
100
AcDbEntity
  8
0
  6
Continuous
 62
     7
370
    25
100
AcDbLine
 10
34.3718229977
 20
31.697603773
 30
0.0
 11
33.7531045642
 21
31.3404252241
 31
0.0
  0
LINE
  5
1ED
330
1F
100
AcDbEntity
  8
0
  6
Continuous
 62
     7
370
    25
100
AcDbLine
 10
33.7531045642
 20
31.3404252241
 30
0.0
 11
34.3718229977
 21
30.9832466751
 31
0.0
  0
LINE
  5
1EE
330
1F
100
AcDbEntity
  8
0
  6
Continuous
 62
     7
370
    25
100
AcDbLine
 10
34.3718229977
 20
30.9832466751
 30
0.0
 11
34.9905414313
 21
31.3404252241
 31
0.0
  0
LINE
  5
1EF
330
1F
100
AcDbEntity
  8
0
  6
Continuous
 62
     7
370
    25
100
AcDbLine
 10
39.2331821184
 20
29.7076090004
 30
0.0
 11
38.6144636849
 21
30.0647875493
 31
0.0
  0
LINE
  5
1F0
330
1F
100
AcDbEntity
  8
0
  6
Continuous
 62
     7
370
    25
100
AcDbLine
 10
38.6144636849
 20
30.0647875493
 30
0.0
 11
37.9957452513
 21
29.7076090004
 31
0.0
  0
LINE
  5
1F1
330
1F
100
AcDbEntity
  8
0
  6
Continuous
 62
     7
370
    25
100
AcDbLine
 10
37.9957452513
 20
29.7076090004
 30
0.0
 11
38.6144636849
 21
29.3504304515
 31
0.0
  0
LINE
  5
1F2
330
1F
100
AcDbEntity
  8
0
  6
Continuous
 62
     7
370
    25
100
AcDbLine
 10
38.6144636849
 20
29.3504304515
 30
0.0
 11
39.2331821184
 21
29.7076090004
 31
0.0
  0
LINE
  5
1F3
330
1F
100
AcDbEntity
  8
0
  6
Continuous
 62
     7
370
    25
100
AcDbLine
 10
35.6976482125
 20
31.74862928
 30
0.0
 11
35.0789297789
 21
32.1058078289
 31
0.0
  0
LINE
  5
1F4
330
1F
100
AcDbEntity
  8
0
  6
Continuous
 62
     7
370
    25
100
AcDbLine
 10
35.0789297789
 20
32.1058078289
 30
0.0
 11
34.4602113454
 21
31.74862928
 31
0.0
  0
LINE
  5
1F5
330
1F
100
AcDbEntity
  8
0
  6
Continuous
 62
     7
370
    25
100
AcDbLine
 10
34.4602113454
 20
31.74862928
 30
0.0
 11
35.0789297789
 21
31.391450731
 31
0.0
  0
LINE
  5
1F6
330
1F
100
AcDbEntity
  8
0
  6
Continuous
 62
     7
370
    25
100
AcDbLine
 10
35.0789297789
 20
31.391450731
 30
0.0
 11
35.6976482125
 21
31.74862928
 31
0.0
  0
LINE
  5
1F7
330
1F
100
AcDbEntity
  8
0
  6
Continuous
 62
     7
370
    25
100
AcDbLine
 10
39.9402888996
 20
30.1158130563
 30
0.0
 11
39.321570466
 21
30.4729916052
 31
0.0
  0
LINE
  5
1F8
330
1F
100
AcDbEntity
  8
0
  6
Continuous
 62
     7
370
    25
100
AcDbLine
 10
39.321570466
 20
30.4729916052
 30
0.0
 11
38.7028520325
 21
30.1158130563
 31
0.0
  0
LINE
  5
1F9
330
1F
100
AcDbEntity
  8
0
  6
Continuous
 62
     7
370
    25
100
AcDbLine
 10
38.7028520325
 20
30.1158130563
 30
0.0
 11
39.321570466
 21
29.7586345074
 31
0.0
  0
LINE
  5
1FA
330
1F
100
AcDbEntity
  8
0
  6
Continuous
 62
     7
370
    25
100
AcDbLine
 10
39.321570466
 20
29.7586345074
 30
0.0
 11
39.9402888996
 21
30.1158130563
 31
0.0
  0
LINE
  5
1FB
330
1F
100
AcDbEntity
  8
0
  6
Continuous
 62
     7
370
    25
100
AcDbLine
 10
39.2331821184
 20
30.5240171122
 30
0.0
 11
38.6144636849
 21
30.8811956612
 31
0.0
  0
LINE
  5
1FC
330
1F
100
AcDbEntity
  8
0
  6
Continuous
 62
     7
370
    25
100
AcDbLine
 10
38.6144636849
 20
30.8811956612
 30
0.0
 11
37.9957452513
 21
30.5240171122
 31
0.0
  0
LINE
  5
1FD
330
1F
100
AcDbEntity
  8
0
  6
Continuous
 62
     7
370
    25
100
AcDbLine
 10
37.9957452513
 20
30.5240171122
 30
0.0
 11
38.6144636849
 21
30.1668385633
 31
0.0
  0
LINE
  5
1FE
330
1F
100
AcDbEntity
  8
0
  6
Continuous
 62
     7
370
    25
100
AcDbLine
 10
38.6144636849
 20
30.1668385633
 30
0.0
 11
39.2331821184
 21
30.5240171122
 31
0.0
  0
LINE
  5
1FF
330
1F
100
AcDbEntity
  8
0
  6
Continuous
 62
     7
370
    25
100
AcDbLine
 10
38.5260753372
 20
30.9322211681
 30
0.0
 11
37.9073569037
 21
31.2893997171
 31
0.0
  0
LINE
  5
200
330
1F
100
AcDbEntity
  8
0
  6
Continuous
 62
     7
370
    25
100
AcDbLine
 10
37.9073569037
 20
31.2893997171
 30
0.0
 11
37.2886384701
 21
30.9322211681
 31
0.0
  0
LINE
  5
201
330
1F
100
AcDbEntity
  8
0
  6
Continuous
 62
     7
370
    25
100
AcDbLine
 10
37.2886384701
 20
30.9322211681
 30
0.0
 11
37.9073569037
 21
30.5750426192
 31
0.0
  0
LINE
  5
202
330
1F
100
AcDbEntity
  8
0
  6
Continuous
 62
     7
370
    25
100
AcDbLine
 10
37.9073569037
 20
30.5750426192
 30
0.0
 11
38.5260753372
 21
30.9322211681
 31
0.0
  0
LINE
  5
203
330
1F
100
AcDbEntity
  8
0
  6
Continuous
 62
     7
370
    25
100
AcDbLine
 10
37.818968556
 20
31.3404252241
 30
0.0
 11
37.2002501225
 21
31.697603773
 31
0.0
  0
LINE
  5
204
330
1F
100
AcDbEntity
  8
0
  6
Continuous
 62
     7
370
    25
100
AcDbLine
 10
37.2002501225
 20
31.697603773
 30
0.0
 11
36.5815316889
 21
31.3404252241
 31
0.0
  0
LINE
  5
205
330
1F
100
AcDbEntity
  8
0
  6
Continuous
 62
     7
370
    25
100
AcDbLine
 10
36.5815316889
 20
31.3404252241
 30
0.0
 11
37.2002501225
 21
30.9832466751
 31
0.0
  0
LINE
  5
206
330
1F
100
AcDbEntity
  8
0
  6
Continuous
 62
     7
370
    25
100
AcDbLine
 10
37.2002501225
 20
30.9832466751
 30
0.0
 11
37.818968556
 21
31.3404252241
 31
0.0
  0
LINE
  5
207
330
1F
100
AcDbEntity
  8
0
  6
Continuous
 62
     7
370
    25
100
AcDbLine
 10
36.4047549936
 20
28.8912008886
 30
0.0
 11
35.7860365601
 21
29.2483794375
 31
0.0
  0
LINE
  5
208
330
1F
100
AcDbEntity
  8
0
  6
Continuous
 62
     7
370
    25
100
AcDbLine
 10
35.7860365601
 20
29.2483794375
 30
0.0
 11
35.1673181266
 21
28.8912008886
 31
0.0
  0
LINE
  5
209
330
1F
100
AcDbEntity
  8
0
  6
Continuous
 62
     7
370
    25
100
AcDbLine
 10
35.1673181266
 20
28.8912008886
 30
0.0
 11
35.7860365601
 21
28.5340223397
 31
0.0
  0
LINE
  5
20A
330
1F
100
AcDbEntity
  8
0
  6
Continuous
 62
     7
370
    25
100
AcDbLine
 10
35.7860365601
 20
28.5340223397
 30
0.0
 11
36.4047549936
 21
28.8912008886
 31
0.0
  0
LINE
  5
20B
330
1F
100
AcDbEntity
  8
0
  6
Continuous
 62
     7
370
    25
100
AcDbLine
 10
35.6976482125
 20
29.2994049445
 30
0.0
 11
35.0789297789
 21
29.6565834934
 31
0.0
  0
LINE
  5
20C
330
1F
100
AcDbEntity
  8
0
  6
Continuous
 62
     7
370
    25
100
AcDbLine
 10
35.0789297789
 20
29.6565834934
 30
0.0
 11
34.4602113454
 21
29.2994049445
 31
0.0
  0
LINE
  5
20D
330
1F
100
AcDbEntity
  8
0
  6
Continuous
 62
     7
370
    25
100
AcDbLine
 10
34.4602113454
 20
29.2994049445
 30
0.0
 11
35.0789297789
 21
28.9422263956
 31
0.0
  0
LINE
  5
20E
330
1F
100
AcDbEntity
  8
0
  6
Continuous
 62
     7
370
    25
100
AcDbLine
 10
35.0789297789
 20
28.9422263956
 30
0.0
 11
35.6976482125
 21
29.2994049445
 31
0.0
  0
LINE
  5
20F
330
1F
100
AcDbEntity
  8
0
  6
Continuous
 62
     7
370
    25
100
AcDbLine
 10
34.9905414313
 20
29.7076090004
 30
0.0
 11
34.3718229977
 21
30.0647875493
 31
0.0
  0
LINE
  5
210
330
1F
100
AcDbEntity
  8
0
  6
Continuous
 62
     7
370
    25
100
AcDbLine
 10
34.3718229977
 20
30.0647875493
 30
0.0
 11
33.7531045642
 21
29.7076090004
 31
0.0
  0
LINE
  5
211
330
1F
100
AcDbEntity
  8
0
  6
Continuous
 62
     7
370
    25
100
AcDbLine
 10
33.7531045642
 20
29.7076090004
 30
0.0
 11
34.3718229977
 21
29.3504304515
 31
0.0
  0
LINE
  5
212
330
1F
100
AcDbEntity
  8
0
  6
Continuous
 62
     7
370
    25
100
AcDbLine
 10
34.3718229977
 20
29.3504304515
 30
0.0
 11
34.9905414313
 21
29.7076090004
 31
0.0
  0
LINE
  5
213
330
1F
100
AcDbEntity
  8
0
  6
Continuous
 62
     7
370
    25
100
AcDbLine
 10
34.2834346501
 20
30.1158130563
 30
0.0
 11
33.6647162165
 21
30.4729916052
 31
0.0
  0
LINE
  5
214
330
1F
100
AcDbEntity
  8
0
  6
Continuous
 62
     7
370
    25
100
AcDbLine
 10
33.6647162165
 20
30.4729916052
 30
0.0
 11
33.045997783
 21
30.1158130563
 31
0.0
  0
LINE
  5
215
330
1F
100
AcDbEntity
  8
0
  6
Continuous
 62
     7
370
    25
100
AcDbLine
 10
33.045997783
 20
30.1158130563
 30
0.0
 11
33.6647162165
 21
29.7586345074
 31
0.0
  0
LINE
  5
216
330
1F
100
AcDbEntity
  8
0
  6
Continuous
 62
     7
370
    25
100
AcDbLine
 10
33.6647162165
 20
29.7586345074
 30
0.0
 11
34.2834346501
 21
30.1158130563
 31
0.0
  0
LINE
  5
217
330
1F
100
AcDbEntity
  8
0
  6
Continuous
 62
     7
370
    25
100
AcDbLine
 10
37.1118617748
 20
29.2994049445
 30
0.0
 11
36.4931433413
 21
29.6565834934
 31
0.0
  0
LINE
  5
218
330
1F
100
AcDbEntity
  8
0
  6
Continuous
 62
     7
370
    25
100
AcDbLine
 10
36.4931433413
 20
29.6565834934
 30
0.0
 11
35.8744249078
 21
29.2994049445
 31
0.0
  0
LINE
  5
219
330
1F
100
AcDbEntity
  8
0
  6
Continuous
 62
     7
370
    25
100
AcDbLine
 10
35.8744249078
 20
29.2994049445
 30
0.0
 11
36.4931433413
 21
28.9422263956
 31
0.0
  0
LINE
  5
21A
330
1F
100
AcDbEntity
  8
0
  6
Continuous
 62
     7
370
    25
100
AcDbLine
 10
36.4931433413
 20
28.9422263956
 30
0.0
 11
37.1118617748
 21
29.2994049445
 31
0.0
  0
LINE
  5
21B
330
1F
100
AcDbEntity
  8
0
  6
Continuous
 62
     7
370
    25
100
AcDbLine
 10
36.4047549936
 20
29.7076090004
 30
0.0
 11
35.7860365601
 21
30.0647875493
 31
0.0
  0
LINE
  5
21C
330
1F
100
AcDbEntity
  8
0
  6
Continuous
 62
     7
370
    25
100
AcDbLine
 10
35.7860365601
 20
30.0647875493
 30
0.0
 11
35.1673181266
 21
29.7076090004
 31
0.0
  0
LINE
  5
21D
330
1F
100
AcDbEntity
  8
0
  6
Continuous
 62
     7
370
    25
100
AcDbLine
 10
35.1673181266
 20
29.7076090004
 30
0.0
 11
35.7860365601
 21
29.3504304515
 31
0.0
  0
LINE
  5
21E
330
1F
100
AcDbEntity
  8
0
  6
Continuous
 62
     7
370
    25
100
AcDbLine
 10
35.7860365601
 20
29.3504304515
 30
0.0
 11
36.4047549936
 21
29.7076090004
 31
0.0
  0
LINE
  5
21F
330
1F
100
AcDbEntity
  8
0
  6
Continuous
 62
     7
370
    25
100
AcDbLine
 10
35.6976482125
 20
30.1158130563
 30
0.0
 11
35.0789297789
 21
30.4729916052
 31
0.0
  0
LINE
  5
220
330
1F
100
AcDbEntity
  8
0
  6
Continuous
 62
     7
370
    25
100
AcDbLine
 10
35.0789297789
 20
30.4729916052
 30
0.0
 11
34.4602113454
 21
30.1158130563
 31
0.0
  0
LINE
  5
221
330
1F
100
AcDbEntity
  8
0
  6
Continuous
 62
     7
370
    25
100
AcDbLine
 10
34.4602113454
 20
30.1158130563
 30
0.0
 11
35.0789297789
 21
29.7586345074
 31
0.0
  0
LINE
  5
222
330
1F
100
AcDbEntity
  8
0
  6
Continuous
 62
     7
370
    25
100
AcDbLine
 10
35.0789297789
 20
29.7586345074
 30
0.0
 11
35.6976482125
 21
30.1158130563
 31
0.0
  0
LINE
  5
223
330
1F
100
AcDbEntity
  8
0
  6
Continuous
 62
     7
370
    25
100
AcDbLine
 10
34.9905414313
 20
30.5240171122
 30
0.0
 11
34.3718229977
 21
30.8811956612
 31
0.0
  0
LINE
  5
224
330
1F
100
AcDbEntity
  8
0
  6
Continuous
 62
     7
370
    25
100
AcDbLine
 10
34.3718229977
 20
30.8811956612
 30
0.0
 11
33.7531045642
 21
30.5240171122
 31
0.0
  0
LINE
  5
225
330
1F
100
AcDbEntity
  8
0
  6
Continuous
 62
     7
370
    25
100
AcDbLine
 10
33.7531045642
 20
30.5240171122
 30
0.0
 11
34.3718229977
 21
30.1668385633
 31
0.0
  0
LINE
  5
226
330
1F
100
AcDbEntity
  8
0
  6
Continuous
 62
     7
370
    25
100
AcDbLine
 10
34.3718229977
 20
30.1668385633
 30
0.0
 11
34.9905414313
 21
30.5240171122
 31
0.0
  0
LINE
  5
227
330
1F
100
AcDbEntity
  8
0
  6
Continuous
 62
     7
370
    25
100
AcDbLine
 10
37.818968556
 20
29.7076090004
 30
0.0
 11
37.2002501225
 21
30.0647875493
 31
0.0
  0
LINE
  5
228
330
1F
100
AcDbEntity
  8
0
  6
Continuous
 62
     7
370
    25
100
AcDbLine
 10
37.2002501225
 20
30.0647875493
 30
0.0
 11
36.5815316889
 21
29.7076090004
 31
0.0
  0
LINE
  5
229
330
1F
100
AcDbEntity
  8
0
  6
Continuous
 62
     7
370
    25
100
AcDbLine
 10
36.5815316889
 20
29.7076090004
 30
0.0
 11
37.2002501225
 21
29.3504304515
 31
0.0
  0
LINE
  5
22A
330
1F
100
AcDbEntity
  8
0
  6
Continuous
 62
     7
370
    25
100
AcDbLine
 10
37.2002501225
 20
29.3504304515
 30
0.0
 11
37.818968556
 21
29.7076090004
 31
0.0
  0
LINE
  5
22B
330
1F
100
AcDbEntity
  8
0
  6
Continuous
 62
     7
370
    25
100
AcDbLine
 10
37.1118617748
 20
30.1158130563
 30
0.0
 11
36.4931433413
 21
30.4729916052
 31
0.0
  0
LINE
  5
22C
330
1F
100
AcDbEntity
  8
0
  6
Continuous
 62
     7
370
    25
100
AcDbLine
 10
36.4931433413
 20
30.4729916052
 30
0.0
 11
35.8744249078
 21
30.1158130563
 31
0.0
  0
LINE
  5
22D
330
1F
100
AcDbEntity
  8
0
  6
Continuous
 62
     7
370
    25
100
AcDbLine
 10
35.8744249078
 20
30.1158130563
 30
0.0
 11
36.4931433413
 21
29.7586345074
 31
0.0
  0
LINE
  5
22E
330
1F
100
AcDbEntity
  8
0
  6
Continuous
 62
     7
370
    25
100
AcDbLine
 10
36.4931433413
 20
29.7586345074
 30
0.0
 11
37.1118617748
 21
30.1158130563
 31
0.0
  0
LINE
  5
22F
330
1F
100
AcDbEntity
  8
0
  6
Continuous
 62
     7
370
    25
100
AcDbLine
 10
36.4047549936
 20
30.5240171122
 30
0.0
 11
35.7860365601
 21
30.8811956612
 31
0.0
  0
LINE
  5
230
330
1F
100
AcDbEntity
  8
0
  6
Continuous
 62
     7
370
    25
100
AcDbLine
 10
35.7860365601
 20
30.8811956612
 30
0.0
 11
35.1673181266
 21
30.5240171122
 31
0.0
  0
LINE
  5
231
330
1F
100
AcDbEntity
  8
0
  6
Continuous
 62
     7
370
    25
100
AcDbLine
 10
35.1673181266
 20
30.5240171122
 30
0.0
 11
35.7860365601
 21
30.1668385633
 31
0.0
  0
LINE
  5
232
330
1F
100
AcDbEntity
  8
0
  6
Continuous
 62
     7
370
    25
100
AcDbLine
 10
35.7860365601
 20
30.1668385633
 30
0.0
 11
36.4047549936
 21
30.5240171122
 31
0.0
  0
LINE
  5
233
330
1F
100
AcDbEntity
  8
0
  6
Continuous
 62
     7
370
    25
100
AcDbLine
 10
35.6976482125
 20
30.9322211681
 30
0.0
 11
35.0789297789
 21
31.2893997171
 31
0.0
  0
LINE
  5
234
330
1F
100
AcDbEntity
  8
0
  6
Continuous
 62
     7
370
    25
100
AcDbLine
 10
35.0789297789
 20
31.2893997171
 30
0.0
 11
34.4602113454
 21
30.9322211681
 31
0.0
  0
LINE
  5
235
330
1F
100
AcDbEntity
  8
0
  6
Continuous
 62
     7
370
    25
100
AcDbLine
 10
34.4602113454
 20
30.9322211681
 30
0.0
 11
35.0789297789
 21
30.5750426192
 31
0.0
  0
LINE
  5
236
330
1F
100
AcDbEntity
  8
0
  6
Continuous
 62
     7
370
    25
100
AcDbLine
 10
35.0789297789
 20
30.5750426192
 30
0.0
 11
35.6976482125
 21
30.9322211681
 31
0.0
  0
LINE
  5
237
330
1F
100
AcDbEntity
  8
0
  6
Continuous
 62
     7
370
    25
100
AcDbLine
 10
38.5260753372
 20
30.1158130563
 30
0.0
 11
37.9073569037
 21
30.4729916052
 31
0.0
  0
LINE
  5
238
330
1F
100
AcDbEntity
  8
0
  6
Continuous
 62
     7
370
    25
100
AcDbLine
 10
37.9073569037
 20
30.4729916052
 30
0.0
 11
37.2886384701
 21
30.1158130563
 31
0.0
  0
LINE
  5
239
330
1F
100
AcDbEntity
  8
0
  6
Continuous
 62
     7
370
    25
100
AcDbLine
 10
37.2886384701
 20
30.1158130563
 30
0.0
 11
37.9073569037
 21
29.7586345074
 31
0.0
  0
LINE
  5
23A
330
1F
100
AcDbEntity
  8
0
  6
Continuous
 62
     7
370
    25
100
AcDbLine
 10
37.9073569037
 20
29.7586345074
 30
0.0
 11
38.5260753372
 21
30.1158130563
 31
0.0
  0
LINE
  5
23B
330
1F
100
AcDbEntity
  8
0
  6
Continuous
 62
     7
370
    25
100
AcDbLine
 10
37.818968556
 20
30.5240171122
 30
0.0
 11
37.2002501225
 21
30.8811956612
 31
0.0
  0
LINE
  5
23C
330
1F
100
AcDbEntity
  8
0
  6
Continuous
 62
     7
370
    25
100
AcDbLine
 10
37.2002501225
 20
30.8811956612
 30
0.0
 11
36.5815316889
 21
30.5240171122
 31
0.0
  0
LINE
  5
23D
330
1F
100
AcDbEntity
  8
0
  6
Continuous
 62
     7
370
    25
100
AcDbLine
 10
36.5815316889
 20
30.5240171122
 30
0.0
 11
37.2002501225
 21
30.1668385633
 31
0.0
  0
LINE
  5
23E
330
1F
100
AcDbEntity
  8
0
  6
Continuous
 62
     7
370
    25
100
AcDbLine
 10
37.2002501225
 20
30.1668385633
 30
0.0
 11
37.818968556
 21
30.5240171122
 31
0.0
  0
LINE
  5
23F
330
1F
100
AcDbEntity
  8
0
  6
Continuous
 62
     7
370
    25
100
AcDbLine
 10
37.1118617748
 20
30.9322211681
 30
0.0
 11
36.4931433413
 21
31.2893997171
 31
0.0
  0
LINE
  5
240
330
1F
100
AcDbEntity
  8
0
  6
Continuous
 62
     7
370
    25
100
AcDbLine
 10
36.4931433413
 20
31.2893997171
 30
0.0
 11
35.8744249078
 21
30.9322211681
 31
0.0
  0
LINE
  5
241
330
1F
100
AcDbEntity
  8
0
  6
Continuous
 62
     7
370
    25
100
AcDbLine
 10
35.8744249078
 20
30.9322211681
 30
0.0
 11
36.4931433413
 21
30.5750426192
 31
0.0
  0
LINE
  5
242
330
1F
100
AcDbEntity
  8
0
  6
Continuous
 62
     7
370
    25
100
AcDbLine
 10
36.4931433413
 20
30.5750426192
 30
0.0
 11
37.1118617748
 21
30.9322211681
 31
0.0
  0
LINE
  5
243
330
1F
100
AcDbEntity
  8
0
  6
Continuous
 62
     7
370
    25
100
AcDbLine
 10
35.7860365601
 20
32.7181139128
 30
0.0
 11
31.2582127912
 21
30.1042568885
 31
0.0
  0
LINE
  5
244
330
1F
100
AcDbEntity
  8
0
  6
Continuous
 62
     7
370
    25
100
AcDbLine
 10
40.3138603291
 20
30.1042568885
 30
0.0
 11
35.7860365601
 21
32.7181139128
 31
0.0
  0
LINE
  5
245
330
1F
100
AcDbEntity
  8
0
  6
Continuous
 62
     7
370
    25
100
AcDbLine
 10
36.4047549936
 20
32.1568333359
 30
0.0
 11
35.7860365601
 21
32.5140118848
 31
0.0
  0
LINE
  5
246
330
1F
100
AcDbEntity
  8
0
  6
Continuous
 62
     7
370
    25
100
AcDbLine
 10
35.7860365601
 20
32.5140118848
 30
0.0
 11
35.1673181266
 21
32.1568333359
 31
0.0
  0
LINE
  5
247
330
1F
100
AcDbEntity
  8
0
  6
Continuous
 62
     7
370
    25
100
AcDbLine
 10
35.1673181266
 20
32.1568333359
 30
0.0
 11
35.7860365601
 21
31.799654787
 31
0.0
  0
LINE
  5
248
330
1F
100
AcDbEntity
  8
0
  6
Continuous
 62
     7
370
    25
100
AcDbLine
 10
35.7860365601
 20
31.799654787
 30
0.0
 11
36.4047549936
 21
32.1568333359
 31
0.0
  0
LINE
  5
249
330
1F
100
AcDbEntity
  8
0
  6
Continuous
 62
     7
370
    25
100
AcDbLine
 10
36.4047549936
 20
31.3404252241
 30
0.0
 11
35.7860365601
 21
31.697603773
 31
0.0
  0
LINE
  5
24A
330
1F
100
AcDbEntity
  8
0
  6
Continuous
 62
     7
370
    25
100
AcDbLine
 10
35.7860365601
 20
31.697603773
 30
0.0
 11
35.1673181266
 21
31.3404252241
 31
0.0
  0
LINE
  5
24B
330
1F
100
AcDbEntity
  8
0
  6
Continuous
 62
     7
370
    25
100
AcDbLine
 10
35.1673181266
 20
31.3404252241
 30
0.0
 11
35.7860365601
 21
30.9832466751
 31
0.0
  0
LINE
  5
24C
330
1F
100
AcDbEntity
  8
0
  6
Continuous
 62
     7
370
    25
100
AcDbLine
 10
35.7860365601
 20
30.9832466751
 30
0.0
 11
36.4047549936
 21
31.3404252241
 31
0.0
  0
LINE
  5
24D
330
1F
100
AcDbEntity
  8
0
  6
Continuous
 62
     7
370
    25
100
AcDbLine
 10
37.1118617748
 20
31.74862928
 30
0.0
 11
36.4931433413
 21
32.1058078289
 31
0.0
  0
LINE
  5
24E
330
1F
100
AcDbEntity
  8
0
  6
Continuous
 62
     7
370
    25
100
AcDbLine
 10
36.4931433413
 20
32.1058078289
 30
0.0
 11
35.8744249078
 21
31.74862928
 31
0.0
  0
LINE
  5
24F
330
1F
100
AcDbEntity
  8
0
  6
Continuous
 62
     7
370
    25
100
AcDbLine
 10
35.8744249078
 20
31.74862928
 30
0.0
 11
36.4931433413
 21
31.391450731
 31
0.0
  0
LINE
  5
250
330
1F
100
AcDbEntity
  8
0
  6
Continuous
 62
     7
370
    25
100
AcDbLine
 10
36.4931433413
 20
31.391450731
 30
0.0
 11
37.1118617748
 21
31.74862928
 31
0.0
  0
LINE
  5
251
330
1F
100
AcDbEntity
  8
0
  6
Continuous
 62
     7
370
    25
100
AcDbLine
 10
35.7860365601
 20
27.8589818736
 30
0.0
 11
35.9084777993
 21
27.7882980507
 31
0.0
  0
LINE
  5
252
330
1F
100
AcDbEntity
  8
0
  6
Continuous
 62
     7
370
    25
100
AcDbLine
 10
35.6635953209
 20
27.7882980507
 30
0.0
 11
35.7860365601
 21
27.8589818736
 31
0.0
  0
LINE
  5
253
330
1F
100
AcDbEntity
  8
0
  6
Continuous
 62
     7
370
    25
100
AcDbLine
 10
35.7860365601
 20
27.8589818736
 30
0.0
 11
35.7860365601
 21
28.4319713257
 31
0.0
  0
LINE
  5
254
330
1F
100
AcDbEntity
  8
0
  6
Continuous
 62
     7
370
    25
100
AcDbLine
 10
35.0789297789
 20
28.152588039
 30
0.0
 11
35.0789297789
 21
28.8401753816
 31
0.0
  0
LINE
  5
255
330
1F
100
AcDbEntity
  8
0
  6
Continuous
 62
     7
370
    25
100
AcDbLine
 10
35.0789297789
 20
28.152588039
 30
0.0
 11
35.1021155793
 21
28.1392031614
 31
0.0
  0
LINE
  5
256
330
1F
100
AcDbEntity
  8
0
  6
Continuous
 62
     7
370
    25
100
AcDbLine
 10
36.4931433413
 20
28.152588039
 30
0.0
 11
36.4931433413
 21
28.8401753816
 31
0.0
  0
LINE
  5
257
330
1F
100
AcDbEntity
  8
0
  6
Continuous
 62
     7
370
    25
100
AcDbLine
 10
36.4699575409
 20
28.1392031614
 30
0.0
 11
36.4931433413
 21
28.152588039
 31
0.0
  0
LINE
  5
258
330
1F
100
AcDbEntity
  8
0
  6
Continuous
 62
     7
370
    25
100
AcDbLine
 10
36.4931433413
 20
28.152588039
 30
0.0
 11
36.5163291417
 21
28.1392031614
 31
0.0
  0
LINE
  5
259
330
1F
100
AcDbEntity
  8
0
  6
Continuous
 62
     7
370
    25
100
AcDbLine
 10
35.0557439786
 20
28.1392031614
 30
0.0
 11
35.0789297789
 21
28.152588039
 31
0.0
  0
LINE
  5
25A
330
1F
100
AcDbEntity
  8
0
  6
Continuous
 62
     7
370
    25
100
AcDbLine
 10
37.2002501225
 20
28.560792095
 30
0.0
 11
37.2002501225
 21
29.2483794375
 31
0.0
  0
LINE
  5
25B
330
1F
100
AcDbEntity
  8
0
  6
Continuous
 62
     7
370
    25
100
AcDbLine
 10
37.2002501225
 20
28.560792095
 30
0.0
 11
37.2234359228
 21
28.5474072173
 31
0.0
  0
LINE
  5
25C
330
1F
100
AcDbEntity
  8
0
  6
Continuous
 62
     7
370
    25
100
AcDbLine
 10
37.1770643221
 20
28.5474072173
 30
0.0
 11
37.2002501225
 21
28.560792095
 31
0.0
  0
LINE
  5
25D
330
1F
100
AcDbEntity
  8
0
  6
Continuous
 62
     7
370
    25
100
AcDbLine
 10
35.7860365601
 20
28.560792095
 30
0.0
 11
35.7860365601
 21
29.2483794375
 31
0.0
  0
LINE
  5
25E
330
1F
100
AcDbEntity
  8
0
  6
Continuous
 62
     7
370
    25
100
AcDbLine
 10
35.7860365601
 20
28.560792095
 30
0.0
 11
35.8092223605
 21
28.5474072173
 31
0.0
  0
LINE
  5
25F
330
1F
100
AcDbEntity
  8
0
  6
Continuous
 62
     7
370
    25
100
AcDbLine
 10
35.7628507597
 20
28.5474072173
 30
0.0
 11
35.7860365601
 21
28.560792095
 31
0.0
  0
LINE
  5
260
330
1F
100
AcDbEntity
  8
0
  6
Continuous
 62
     7
370
    25
100
AcDbLine
 10
34.3718229977
 20
28.560792095
 30
0.0
 11
34.3718229977
 21
29.2483794375
 31
0.0
  0
LINE
  5
261
330
1F
100
AcDbEntity
  8
0
  6
Continuous
 62
     7
370
    25
100
AcDbLine
 10
34.3718229977
 20
28.560792095
 30
0.0
 11
34.3950087981
 21
28.5474072173
 31
0.0
  0
LINE
  5
262
330
1F
100
AcDbEntity
  8
0
  6
Continuous
 62
     7
370
    25
100
AcDbLine
 10
34.3486371974
 20
28.5474072173
 30
0.0
 11
34.3718229977
 21
28.560792095
 31
0.0
  0
LINE
  5
263
330
1F
100
AcDbEntity
  8
0
  6
Continuous
 62
     7
370
    25
100
AcDbLine
 10
37.9073569037
 20
28.9689961509
 30
0.0
 11
37.9073569037
 21
29.6565834934
 31
0.0
  0
LINE
  5
264
330
1F
100
AcDbEntity
  8
0
  6
Continuous
 62
     7
370
    25
100
AcDbLine
 10
37.8841711033
 20
28.9556112732
 30
0.0
 11
37.9073569037
 21
28.9689961509
 31
0.0
  0
LINE
  5
265
330
1F
100
AcDbEntity
  8
0
  6
Continuous
 62
     7
370
    25
100
AcDbLine
 10
37.9073569037
 20
28.9689961509
 30
0.0
 11
37.930542704
 21
28.9556112732
 31
0.0
  0
LINE
  5
266
330
1F
100
AcDbEntity
  8
0
  6
Continuous
 62
     7
370
    25
100
AcDbLine
 10
36.4931433413
 20
28.9689961509
 30
0.0
 11
36.4931433413
 21
29.6565834934
 31
0.0
  0
LINE
  5
267
330
1F
100
AcDbEntity
  8
0
  6
Continuous
 62
     7
370
    25
100
AcDbLine
 10
36.4931433413
 20
28.9689961509
 30
0.0
 11
36.5163291417
 21
28.9556112732
 31
0.0
  0
LINE
  5
268
330
1F
100
AcDbEntity
  8
0
  6
Continuous
 62
     7
370
    25
100
AcDbLine
 10
36.4699575409
 20
28.9556112732
 30
0.0
 11
36.4931433413
 21
28.9689961509
 31
0.0
  0
LINE
  5
269
330
1F
100
AcDbEntity
  8
0
  6
Continuous
 62
     7
370
    25
100
AcDbLine
 10
35.0789297789
 20
28.9689961509
 30
0.0
 11
35.0789297789
 21
29.6565834934
 31
0.0
  0
LINE
  5
26A
330
1F
100
AcDbEntity
  8
0
  6
Continuous
 62
     7
370
    25
100
AcDbLine
 10
35.0789297789
 20
28.9689961509
 30
0.0
 11
35.1021155793
 21
28.9556112732
 31
0.0
  0
LINE
  5
26B
330
1F
100
AcDbEntity
  8
0
  6
Continuous
 62
     7
370
    25
100
AcDbLine
 10
33.6647162165
 20
28.9689961509
 30
0.0
 11
33.6647162165
 21
29.6565834934
 31
0.0
  0
LINE
  5
26C
330
1F
100
AcDbEntity
  8
0
  6
Continuous
 62
     7
370
    25
100
AcDbLine
 10
33.6647162165
 20
28.9689961509
 30
0.0
 11
33.6879020169
 21
28.9556112732
 31
0.0
  0
LINE
  5
26D
330
1F
100
AcDbEntity
  8
0
  6
Continuous
 62
     7
370
    25
100
AcDbLine
 10
35.0557439786
 20
28.9556112732
 30
0.0
 11
35.0789297789
 21
28.9689961509
 31
0.0
  0
LINE
  5
26E
330
1F
100
AcDbEntity
  8
0
  6
Continuous
 62
     7
370
    25
100
AcDbLine
 10
33.6415304162
 20
28.9556112732
 30
0.0
 11
33.6647162165
 21
28.9689961509
 31
0.0
  0
LINE
  5
26F
330
1F
100
AcDbEntity
  8
0
  6
Continuous
 62
     7
370
    25
100
AcDbLine
 10
37.2002501225
 20
29.3772002068
 30
0.0
 11
37.2002501225
 21
30.0647875493
 31
0.0
  0
LINE
  5
270
330
1F
100
AcDbEntity
  8
0
  6
Continuous
 62
     7
370
    25
100
AcDbLine
 10
37.2002501225
 20
29.3772002068
 30
0.0
 11
37.2234359228
 21
29.3638153291
 31
0.0
  0
LINE
  5
271
330
1F
100
AcDbEntity
  8
0
  6
Continuous
 62
     7
370
    25
100
AcDbLine
 10
38.6144636849
 20
29.3772002068
 30
0.0
 11
38.6144636849
 21
30.0647875493
 31
0.0
  0
LINE
  5
272
330
1F
100
AcDbEntity
  8
0
  6
Continuous
 62
     7
370
    25
100
AcDbLine
 10
38.5912778845
 20
29.3638153291
 30
0.0
 11
38.6144636849
 21
29.3772002068
 31
0.0
  0
LINE
  5
273
330
1F
100
AcDbEntity
  8
0
  6
Continuous
 62
     7
370
    25
100
AcDbLine
 10
38.6144636849
 20
29.3772002068
 30
0.0
 11
38.6376494852
 21
29.3638153291
 31
0.0
  0
LINE
  5
274
330
1F
100
AcDbEntity
  8
0
  6
Continuous
 62
     7
370
    25
100
AcDbLine
 10
35.7860365601
 20
29.3772002068
 30
0.0
 11
35.7860365601
 21
30.0647875493
 31
0.0
  0
LINE
  5
275
330
1F
100
AcDbEntity
  8
0
  6
Continuous
 62
     7
370
    25
100
AcDbLine
 10
35.7860365601
 20
29.3772002068
 30
0.0
 11
35.8092223605
 21
29.3638153291
 31
0.0
  0
LINE
  5
276
330
1F
100
AcDbEntity
  8
0
  6
Continuous
 62
     7
370
    25
100
AcDbLine
 10
37.1770643221
 20
29.3638153291
 30
0.0
 11
37.2002501225
 21
29.3772002068
 31
0.0
  0
LINE
  5
277
330
1F
100
AcDbEntity
  8
0
  6
Continuous
 62
     7
370
    25
100
AcDbLine
 10
32.9576094354
 20
29.3772002068
 30
0.0
 11
32.9576094354
 21
30.0647875493
 31
0.0
  0
LINE
  5
278
330
1F
100
AcDbEntity
  8
0
  6
Continuous
 62
     7
370
    25
100
AcDbLine
 10
32.9576094354
 20
29.3772002068
 30
0.0
 11
32.9807952357
 21
29.3638153291
 31
0.0
  0
LINE
  5
279
330
1F
100
AcDbEntity
  8
0
  6
Continuous
 62
     7
370
    25
100
AcDbLine
 10
35.7628507597
 20
29.3638153291
 30
0.0
 11
35.7860365601
 21
29.3772002068
 31
0.0
  0
LINE
  5
27A
330
1F
100
AcDbEntity
  8
0
  6
Continuous
 62
     7
370
    25
100
AcDbLine
 10
34.3718229977
 20
29.3772002068
 30
0.0
 11
34.3718229977
 21
30.0647875493
 31
0.0
  0
LINE
  5
27B
330
1F
100
AcDbEntity
  8
0
  6
Continuous
 62
     7
370
    25
100
AcDbLine
 10
34.3718229977
 20
29.3772002068
 30
0.0
 11
34.3950087981
 21
29.3638153291
 31
0.0
  0
LINE
  5
27C
330
1F
100
AcDbEntity
  8
0
  6
Continuous
 62
     7
370
    25
100
AcDbLine
 10
34.3486371974
 20
29.3638153291
 30
0.0
 11
34.3718229977
 21
29.3772002068
 31
0.0
  0
LINE
  5
27D
330
1F
100
AcDbEntity
  8
0
  6
Continuous
 62
     7
370
    25
100
AcDbLine
 10
32.934423635
 20
29.3638153291
 30
0.0
 11
32.9576094354
 21
29.3772002068
 31
0.0
  0
LINE
  5
27E
330
1F
100
AcDbEntity
  8
0
  6
Continuous
 62
     7
370
    25
100
AcDbLine
 10
39.321570466
 20
29.9000021531
 30
0.0
 11
39.3698187959
 21
29.8721489852
 31
0.0
  0
LINE
  5
27F
330
1F
100
AcDbEntity
  8
0
  6
Continuous
 62
     7
370
    25
100
AcDbLine
 10
39.1991292268
 20
29.8293183303
 30
0.0
 11
39.321570466
 21
29.9000021531
 31
0.0
  0
LINE
  5
280
330
1F
100
AcDbEntity
  8
0
  6
Continuous
 62
     7
370
    25
100
AcDbLine
 10
32.2505026542
 20
29.9000021531
 30
0.0
 11
32.3729438934
 21
29.8293183303
 31
0.0
  0
LINE
  5
281
330
1F
100
AcDbEntity
  8
0
  6
Continuous
 62
     7
370
    25
100
AcDbLine
 10
32.2022543243
 20
29.8721489852
 30
0.0
 11
32.2505026542
 21
29.9000021531
 31
0.0
  0
LINE
  5
282
330
1F
100
AcDbEntity
  8
0
  6
Continuous
 62
     7
370
    25
100
AcDbLine
 10
37.9073569037
 20
29.7854042627
 30
0.0
 11
37.9073569037
 21
30.4729916052
 31
0.0
  0
LINE
  5
283
330
1F
100
AcDbEntity
  8
0
  6
Continuous
 62
     7
370
    25
100
AcDbLine
 10
37.9073569037
 20
29.7854042627
 30
0.0
 11
37.930542704
 21
29.772019385
 31
0.0
  0
LINE
  5
284
330
1F
100
AcDbEntity
  8
0
  6
Continuous
 62
     7
370
    25
100
AcDbLine
 10
37.8841711033
 20
29.772019385
 30
0.0
 11
37.9073569037
 21
29.7854042627
 31
0.0
  0
LINE
  5
285
330
1F
100
AcDbEntity
  8
0
  6
Continuous
 62
     7
370
    25
100
AcDbLine
 10
36.4931433413
 20
29.7854042627
 30
0.0
 11
36.4931433413
 21
30.4729916052
 31
0.0
  0
LINE
  5
286
330
1F
100
AcDbEntity
  8
0
  6
Continuous
 62
     7
370
    25
100
AcDbLine
 10
36.4931433413
 20
29.7854042627
 30
0.0
 11
36.5163291417
 21
29.772019385
 31
0.0
  0
LINE
  5
287
330
1F
100
AcDbEntity
  8
0
  6
Continuous
 62
     7
370
    25
100
AcDbLine
 10
33.6647162165
 20
29.7854042627
 30
0.0
 11
33.6647162165
 21
30.4729916052
 31
0.0
  0
LINE
  5
288
330
1F
100
AcDbEntity
  8
0
  6
Continuous
 62
     7
370
    25
100
AcDbLine
 10
33.6415304162
 20
29.772019385
 30
0.0
 11
33.6647162165
 21
29.7854042627
 31
0.0
  0
LINE
  5
289
330
1F
100
AcDbEntity
  8
0
  6
Continuous
 62
     7
370
    25
100
AcDbLine
 10
36.4699575409
 20
29.772019385
 30
0.0
 11
36.4931433413
 21
29.7854042627
 31
0.0
  0
LINE
  5
28A
330
1F
100
AcDbEntity
  8
0
  6
Continuous
 62
     7
370
    25
100
AcDbLine
 10
35.0789297789
 20
29.7854042627
 30
0.0
 11
35.0789297789
 21
30.4729916052
 31
0.0
  0
LINE
  5
28B
330
1F
100
AcDbEntity
  8
0
  6
Continuous
 62
     7
370
    25
100
AcDbLine
 10
35.0789297789
 20
29.7854042627
 30
0.0
 11
35.1021155793
 21
29.772019385
 31
0.0
  0
LINE
  5
28C
330
1F
100
AcDbEntity
  8
0
  6
Continuous
 62
     7
370
    25
100
AcDbLine
 10
35.0557439786
 20
29.772019385
 30
0.0
 11
35.0789297789
 21
29.7854042627
 31
0.0
  0
LINE
  5
28D
330
1F
100
AcDbEntity
  8
0
  6
Continuous
 62
     7
370
    25
100
AcDbLine
 10
33.6647162165
 20
29.7854042627
 30
0.0
 11
33.6879020169
 21
29.772019385
 31
0.0
  0
LINE
  5
28E
330
1F
100
AcDbEntity
  8
0
  6
Continuous
 62
     7
370
    25
100
AcDbLine
 10
39.321570466
 20
29.9000021531
 30
0.0
 11
39.321570466
 21
30.4729916052
 31
0.0
  0
LINE
  5
28F
330
1F
100
AcDbEntity
  8
0
  6
Continuous
 62
     7
370
    25
100
AcDbLine
 10
32.2505026542
 20
29.9000021531
 30
0.0
 11
32.2505026542
 21
30.4729916052
 31
0.0
  0
LINE
  5
290
330
1F
100
AcDbEntity
  8
0
  6
Continuous
 62
     7
370
    25
100
AcDbLine
 10
38.6144636849
 20
30.1936083186
 30
0.0
 11
38.6144636849
 21
30.8811956612
 31
0.0
  0
LINE
  5
291
330
1F
100
AcDbEntity
  8
0
  6
Continuous
 62
     7
370
    25
100
AcDbLine
 10
38.6144636849
 20
30.1936083186
 30
0.0
 11
38.6376494852
 21
30.180223441
 31
0.0
  0
LINE
  5
292
330
1F
100
AcDbEntity
  8
0
  6
Continuous
 62
     7
370
    25
100
AcDbLine
 10
37.2002501225
 20
30.1936083186
 30
0.0
 11
37.2002501225
 21
30.8811956612
 31
0.0
  0
LINE
  5
293
330
1F
100
AcDbEntity
  8
0
  6
Continuous
 62
     7
370
    25
100
AcDbLine
 10
37.2002501225
 20
30.1936083186
 30
0.0
 11
37.2234359228
 21
30.180223441
 31
0.0
  0
LINE
  5
294
330
1F
100
AcDbEntity
  8
0
  6
Continuous
 62
     7
370
    25
100
AcDbLine
 10
38.5912778845
 20
30.180223441
 30
0.0
 11
38.6144636849
 21
30.1936083186
 31
0.0
  0
LINE
  5
295
330
1F
100
AcDbEntity
  8
0
  6
Continuous
 62
     7
370
    25
100
AcDbLine
 10
35.7860365601
 20
30.1936083186
 30
0.0
 11
35.7860365601
 21
30.8811956612
 31
0.0
  0
LINE
  5
296
330
1F
100
AcDbEntity
  8
0
  6
Continuous
 62
     7
370
    25
100
AcDbLine
 10
35.7860365601
 20
30.1936083186
 30
0.0
 11
35.8092223605
 21
30.180223441
 31
0.0
  0
LINE
  5
297
330
1F
100
AcDbEntity
  8
0
  6
Continuous
 62
     7
370
    25
100
AcDbLine
 10
37.1770643221
 20
30.180223441
 30
0.0
 11
37.2002501225
 21
30.1936083186
 31
0.0
  0
LINE
  5
298
330
1F
100
AcDbEntity
  8
0
  6
Continuous
 62
     7
370
    25
100
AcDbLine
 10
35.7628507597
 20
30.180223441
 30
0.0
 11
35.7860365601
 21
30.1936083186
 31
0.0
  0
LINE
  5
299
330
1F
100
AcDbEntity
  8
0
  6
Continuous
 62
     7
370
    25
100
AcDbLine
 10
34.3718229977
 20
30.1936083186
 30
0.0
 11
34.3718229977
 21
30.8811956612
 31
0.0
  0
LINE
  5
29A
330
1F
100
AcDbEntity
  8
0
  6
Continuous
 62
     7
370
    25
100
AcDbLine
 10
34.3718229977
 20
30.1936083186
 30
0.0
 11
34.3950087981
 21
30.180223441
 31
0.0
  0
LINE
  5
29B
330
1F
100
AcDbEntity
  8
0
  6
Continuous
 62
     7
370
    25
100
AcDbLine
 10
34.3486371974
 20
30.180223441
 30
0.0
 11
34.3718229977
 21
30.1936083186
 31
0.0
  0
LINE
  5
29C
330
1F
100
AcDbEntity
  8
0
  6
Continuous
 62
     7
370
    25
100
AcDbLine
 10
32.9576094354
 20
30.1936083186
 30
0.0
 11
32.9576094354
 21
30.8811956612
 31
0.0
  0
LINE
  5
29D
330
1F
100
AcDbEntity
  8
0
  6
Continuous
 62
     7
370
    25
100
AcDbLine
 10
32.9576094354
 20
30.1936083186
 30
0.0
 11
32.9807952357
 21
30.180223441
 31
0.0
  0
LINE
  5
29E
330
1F
100
AcDbEntity
  8
0
  6
Continuous
 62
     7
370
    25
100
AcDbLine
 10
32.934423635
 20
30.180223441
 30
0.0
 11
32.9576094354
 21
30.1936083186
 31
0.0
  0
LINE
  5
29F
330
1F
100
AcDbEntity
  8
0
  6
Continuous
 62
     7
370
    25
100
AcDbLine
 10
37.9073569037
 20
30.6018123745
 30
0.0
 11
37.9073569037
 21
31.2893997171
 31
0.0
  0
LINE
  5
2A0
330
1F
100
AcDbEntity
  8
0
  6
Continuous
 62
     7
370
    25
100
AcDbLine
 10
37.9073569037
 20
30.6018123745
 30
0.0
 11
37.930542704
 21
30.5884274969
 31
0.0
  0
LINE
  5
2A1
330
1F
100
AcDbEntity
  8
0
  6
Continuous
 62
     7
370
    25
100
AcDbLine
 10
36.4931433413
 20
30.6018123745
 30
0.0
 11
36.4931433413
 21
31.2893997171
 31
0.0
  0
LINE
  5
2A2
330
1F
100
AcDbEntity
  8
0
  6
Continuous
 62
     7
370
    25
100
AcDbLine
 10
36.4931433413
 20
30.6018123745
 30
0.0
 11
36.5163291417
 21
30.5884274969
 31
0.0
  0
LINE
  5
2A3
330
1F
100
AcDbEntity
  8
0
  6
Continuous
 62
     7
370
    25
100
AcDbLine
 10
36.4699575409
 20
30.5884274969
 30
0.0
 11
36.4931433413
 21
30.6018123745
 31
0.0
  0
LINE
  5
2A4
330
1F
100
AcDbEntity
  8
0
  6
Continuous
 62
     7
370
    25
100
AcDbLine
 10
37.8841711033
 20
30.5884274969
 30
0.0
 11
37.9073569037
 21
30.6018123745
 31
0.0
  0
LINE
  5
2A5
330
1F
100
AcDbEntity
  8
0
  6
Continuous
 62
     7
370
    25
100
AcDbLine
 10
35.0789297789
 20
30.6018123745
 30
0.0
 11
35.0789297789
 21
31.2893997171
 31
0.0
  0
LINE
  5
2A6
330
1F
100
AcDbEntity
  8
0
  6
Continuous
 62
     7
370
    25
100
AcDbLine
 10
35.0789297789
 20
30.6018123745
 30
0.0
 11
35.1021155793
 21
30.5884274969
 31
0.0
  0
LINE
  5
2A7
330
1F
100
AcDbEntity
  8
0
  6
Continuous
 62
     7
370
    25
100
AcDbLine
 10
35.0557439786
 20
30.5884274969
 30
0.0
 11
35.0789297789
 21
30.6018123745
 31
0.0
  0
LINE
  5
2A8
330
1F
100
AcDbEntity
  8
0
  6
Continuous
 62
     7
370
    25
100
AcDbLine
 10
33.6647162165
 20
30.6018123745
 30
0.0
 11
33.6647162165
 21
31.2893997171
 31
0.0
  0
LINE
  5
2A9
330
1F
100
AcDbEntity
  8
0
  6
Continuous
 62
     7
370
    25
100
AcDbLine
 10
33.6647162165
 20
30.6018123745
 30
0.0
 11
33.6879020169
 21
30.5884274969
 31
0.0
  0
LINE
  5
2AA
330
1F
100
AcDbEntity
  8
0
  6
Continuous
 62
     7
370
    25
100
AcDbLine
 10
33.6415304162
 20
30.5884274969
 30
0.0
 11
33.6647162165
 21
30.6018123745
 31
0.0
  0
LINE
  5
2AB
330
1F
100
AcDbEntity
  8
0
  6
Continuous
 62
     7
370
    25
100
AcDbLine
 10
37.2002501225
 20
31.0100164304
 30
0.0
 11
37.2002501225
 21
31.697603773
 31
0.0
  0
LINE
  5
2AC
330
1F
100
AcDbEntity
  8
0
  6
Continuous
 62
     7
370
    25
100
AcDbLine
 10
37.2002501225
 20
31.0100164304
 30
0.0
 11
37.2234359228
 21
30.9966315528
 31
0.0
  0
LINE
  5
2AD
330
1F
100
AcDbEntity
  8
0
  6
Continuous
 62
     7
370
    25
100
AcDbLine
 10
37.1770643221
 20
30.9966315528
 30
0.0
 11
37.2002501225
 21
31.0100164304
 31
0.0
  0
LINE
  5
2AE
330
1F
100
AcDbEntity
  8
0
  6
Continuous
 62
     7
370
    25
100
AcDbLine
 10
35.7860365601
 20
31.0100164304
 30
0.0
 11
35.7860365601
 21
31.697603773
 31
0.0
  0
LINE
  5
2AF
330
1F
100
AcDbEntity
  8
0
  6
Continuous
 62
     7
370
    25
100
AcDbLine
 10
35.7860365601
 20
31.0100164304
 30
0.0
 11
35.8092223605
 21
30.9966315528
 31
0.0
  0
LINE
  5
2B0
330
1F
100
AcDbEntity
  8
0
  6
Continuous
 62
     7
370
    25
100
AcDbLine
 10
35.7628507597
 20
30.9966315528
 30
0.0
 11
35.7860365601
 21
31.0100164304
 31
0.0
  0
LINE
  5
2B1
330
1F
100
AcDbEntity
  8
0
  6
Continuous
 62
     7
370
    25
100
AcDbLine
 10
34.3718229977
 20
31.0100164304
 30
0.0
 11
34.3718229977
 21
31.697603773
 31
0.0
  0
LINE
  5
2B2
330
1F
100
AcDbEntity
  8
0
  6
Continuous
 62
     7
370
    25
100
AcDbLine
 10
34.3718229977
 20
31.0100164304
 30
0.0
 11
34.3950087981
 21
30.9966315528
 31
0.0
  0
LINE
  5
2B3
330
1F
100
AcDbEntity
  8
0
  6
Continuous
 62
     7
370
    25
100
AcDbLine
 10
34.3486371974
 20
30.9966315528
 30
0.0
 11
34.3718229977
 21
31.0100164304
 31
0.0
  0
LINE
  5
2B4
330
1F
100
AcDbEntity
  8
0
  6
Continuous
 62
     7
370
    25
100
AcDbLine
 10
36.4931433413
 20
31.4182204863
 30
0.0
 11
36.4931433413
 21
32.1058078289
 31
0.0
  0
LINE
  5
2B5
330
1F
100
AcDbEntity
  8
0
  6
Continuous
 62
     7
370
    25
100
AcDbLine
 10
36.4931433413
 20
31.4182204863
 30
0.0
 11
36.5163291417
 21
31.4048356087
 31
0.0
  0
LINE
  5
2B6
330
1F
100
AcDbEntity
  8
0
  6
Continuous
 62
     7
370
    25
100
AcDbLine
 10
36.4699575409
 20
31.4048356087
 30
0.0
 11
36.4931433413
 21
31.4182204863
 31
0.0
  0
LINE
  5
2B7
330
1F
100
AcDbEntity
  8
0
  6
Continuous
 62
     7
370
    25
100
AcDbLine
 10
35.0789297789
 20
31.4182204863
 30
0.0
 11
35.0789297789
 21
32.1058078289
 31
0.0
  0
LINE
  5
2B8
330
1F
100
AcDbEntity
  8
0
  6
Continuous
 62
     7
370
    25
100
AcDbLine
 10
35.0789297789
 20
31.4182204863
 30
0.0
 11
35.1021155793
 21
31.4048356087
 31
0.0
  0
LINE
  5
2B9
330
1F
100
AcDbEntity
  8
0
  6
Continuous
 62
     7
370
    25
100
AcDbLine
 10
35.0557439786
 20
31.4048356087
 30
0.0
 11
35.0789297789
 21
31.4182204863
 31
0.0
  0
LINE
  5
2BA
330
1F
100
AcDbEntity
  8
0
  6
Continuous
 62
     7
370
    25
100
AcDbLine
 10
35.7860365601
 20
32.044652523
 30
0.0
 11
35.7860365601
 21
32.5140118848
 31
0.0
  0
LWPOLYLINE
  5
2BB
330
1F
100
AcDbEntity
  8
0
  6
Continuous
 62
     7
370
    25
100
AcDbPolyline
 90
       84
 70
   128
 43
0.0
 10
33.4437453474
 20
18.2881104489
 10
33.5119012146
 20
18.2498778524
 10
33.5819288758
 20
18.2127896724
 10
33.6537706924
 20
18.1768764356
 10
33.7273675332
 20
18.1421677013
 10
33.8026588219
 20
18.1086920375
 10
33.8795825879
 20
18.0764769975
 10
33.9580755169
 20
18.0455490967
 10
34.0380730029
 20
18.0159337913
 10
34.1195092016
 20
17.9876554569
 10
34.2023170846
 20
17.9607373691
 10
34.2864284944
 20
17.9352016833
 10
34.3717742007
 20
17.9110694176
 10
34.4582839572
 20
17.8883604347
 10
34.5458865595
 20
17.8670934259
 10
34.6345099036
 20
17.8472858957
 10
34.7240810456
 20
17.8289541471
 10
34.8145262612
 20
17.8121132688
 10
34.905771107
 20
17.796777122
 10
34.997740481
 20
17.7829583297
 10
35.0903586854
 20
17.7706682658
 10
35.1835494878
 20
17.759917046
 10
35.2772361849
 20
17.7507135194
 10
35.371341665
 20
17.7430652612
 10
35.465788472
 20
17.7369785667
 10
35.5604988686
 20
17.7324584455
 10
35.6553949007
 20
17.7295086181
 10
35.7503984611
 20
17.7281315125
 10
35.8454313546
 20
17.7283282621
 10
35.9404153614
 20
17.730098705
 10
36.0352723022
 20
17.733441384
 10
36.1299241022
 20
17.7383535477
 10
36.2242928555
 20
17.7448311532
 10
36.3183008891
 20
17.7528688687
 10
36.4118708269
 20
17.7624600787
 10
36.5049256534
 20
17.7735968887
 10
36.5973887771
 20
17.7862701324
 10
36.6891840935
 20
17.8004693786
 10
36.7802360479
 20
17.8161829402
 10
36.8704696971
 20
17.8333978837
 10
36.9598107718
 20
17.8521000399
 10
37.0481857372
 20
17.8722740153
 10
37.1355218536
 20
17.8939032053
 10
37.2217472366
 20
17.9169698072
 10
37.3067909156
 20
17.9414548355
 10
37.3905828932
 20
17.967338137
 10
37.4730542017
 20
17.9945984076
 10
37.5541369609
 20
18.0232132101
 10
37.6337644331
 20
18.0531589921
 10
37.7118710785
 20
18.084411106
 10
37.7883926094
 20
18.1169438287
 10
37.8632660422
 20
18.1507303832
 10
37.9364297503
 20
18.1857429606
 10
38.0078235142
 20
18.2219527426
 10
38.0773885711
 20
18.2593299258
 10
38.1450676633
 20
18.2978437458
 10
38.2108050858
 20
18.3374625026
 10
38.2745467313
 20
18.3781535869
 10
38.3362401354
 20
18.4198835066
 10
38.3958345195
 20
18.4626179148
 10
38.4532808328
 20
18.5063216375
 10
38.5085317924
 20
18.5509587033
 10
38.5615419223
 20
18.5964923722
 10
38.612267591
 20
18.6428851665
 10
38.6606670472
 20
18.6900989011
 10
38.7067004544
 20
18.7380947154
 10
38.7503299234
 20
18.7868331051
 10
38.7915195437
 20
18.8362739545
 10
38.8302354129
 20
18.88637657
 10
38.8664456649
 20
18.9370997131
 10
38.9001204957
 20
18.9884016347
 10
38.9312321882
 20
19.0402401091
 10
38.9597551351
 20
19.0925724693
 10
38.9856658597
 20
19.1453556415
 10
39.0089430354
 20
19.1985461809
 10
39.0295675033
 20
19.2521003076
 10
39.0475222878
 20
19.3059739423
 10
39.0627926107
 20
19.3601227426
 10
39.0753659033
 20
19.4145021399
 10
39.0852318168
 20
19.4690673755
 10
39.0923822307
 20
19.5237735379
 10
39.0968112596
 20
19.5785755997
 10
39.0985152583
 20
19.6334284543
 10
39.0985365601
 20
19.6402863841
  0
LWPOLYLINE
  5
2BC
330
1F
100
AcDbEntity
  8
0
  6
Continuous
 62
     7
370
    25
100
AcDbPolyline
 90
       29
 70
   128
 43
0.0
 10
32.4735365601
 20
19.6402863841
 10
32.473728275
 20
19.6197129475
 10
32.4761137503
 20
19.5648685595
 10
32.4812235548
 20
19.5100862462
 10
32.4890534828
 20
19.4554110981
 10
32.4995970895
 20
19.400888117
 10
32.5128456967
 20
19.3465621796
 10
32.5287883998
 20
19.2924780006
 10
32.5474120767
 20
19.2386800955
 10
32.5687013986
 20
19.1852127442
 10
32.5926388426
 20
19.1321199547
 10
32.6192047065
 20
19.0794454264
 10
32.6483771243
 20
19.0272325148
 10
32.6801320849
 20
18.9755241952
 10
32.7144434513
 20
18.9243630276
 10
32.7512829827
 20
18.8737911218
 10
32.7906203572
 20
18.8238501024
 10
32.8324231969
 20
18.7745810749
 10
32.8766570948
 20
18.7260245915
 10
32.923285643
 20
18.6782206182
 10
32.9722704624
 20
18.6312085014
 10
33.0235712346
 20
18.5850269357
 10
33.0771457351
 20
18.5397139323
 10
33.1329498677
 20
18.4953067874
 10
33.1909377012
 20
18.4518420516
 10
33.2510615071
 20
18.4093554998
 10
33.3132717986
 20
18.3678821019
 10
33.3775173718
 20
18.3274559936
 10
33.4437453474
 20
18.2881104489
  0
LINE
  5
2BD
330
1F
100
AcDbEntity
  8
0
  6
Continuous
 62
     7
370
    25
100
AcDbLine
 10
11.8220164586
 20
25.5891552788
 30
0.0
 11
12.5128396172
 21
25.5891552788
 31
0.0
  0
LINE
  5
2BE
330
1F
100
AcDbEntity
  8
0
  6
Continuous
 62
     7
370
    25
100
AcDbLine
 10
12.8220164586
 20
25.5891552788
 30
0.0
 11
13.5128396172
 21
25.5891552788
 31
0.0
  0
SPLINE
  5
2BF
330
1F
100
AcDbEntity
  8
0
  6
Continuous
 62
     7
370
    25
100
AcDbSpline
210
0.0
220
0.0
230
1.0
 70
    24
 71
     3
 72
    12
 73
     8
 74
     0
 42
0.00000001
 43
0.00000001
 40
0.0
 40
0.0
 40
0.0
 40
0.0
 40
0.2161843460219137
 40
0.4397598229072292
 40
0.5934158725838085
 40
0.752207260428435
 40
1.0
 40
1.0
 40
1.0
 40
1.0
 10
9.978032280944866
 20
23.24995150738794
 30
0.0
 10
9.985138363057208
 20
23.24784383317019
 30
0.0
 10
9.999593477263167
 20
23.24355642541937
 30
0.0
 10
10.02084504978714
 20
23.2372531783154
 30
0.0
 10
10.04027474099031
 20
23.23149030384247
 30
0.0
 10
10.06023031856861
 20
23.22557145071117
 30
0.0
 10
10.0736425220818
 20
23.22159337177808
 30
0.0
 10
10.08181659093527
 20
23.21916893115045
 30
0.0
  0
ARC
  5
2C0
330
1F
100
AcDbEntity
  8
0
  6
Continuous
 62
     7
370
    25
100
AcDbCircle
 10
10.056582929
 20
23.3244400682
 30
0.0
 40
0.1082531754730589
100
AcDbArc
 50
223.4795673044
 51
283.4795673044
  0
ARC
  5
2C1
330
1F
100
AcDbEntity
  8
0
  6
Continuous
 62
     7
370
    25
100
AcDbCircle
 10
10.056582929
 20
23.3244400682
 30
0.0
 40
0.1082531754730569
100
AcDbArc
 50
103.4795673044
 51
163.4795673044
  0
SPLINE
  5
2C2
330
1F
100
AcDbEntity
  8
0
  6
Continuous
 62
     7
370
    25
100
AcDbSpline
210
0.0
220
0.0
230
1.0
 70
    24
 71
     3
 72
    12
 73
     8
 74
     0
 42
0.00000001
 43
0.00000001
 40
0.0
 40
0.0
 40
0.0
 40
0.0
 40
0.216184346021944
 40
0.4397598229072839
 40
0.5934158725838288
 40
0.7522072604284104
 40
1.0
 40
1.0
 40
1.0
 40
1.0
 10
10.03134926697607
 20
23.42971120531978
 30
0.0
 10
10.02597092650443
 20
23.42461099479799
 30
0.0
 10
10.01503036537285
 20
23.41423620255643
 30
0.0
 10
9.998945806992493
 20
23.39898342443231
 30
0.0
 10
9.984240165698544
 20
23.38503825549912
 30
0.0
 10
9.969136499736415
 20
23.37071564493478
 30
0.0
 10
9.95898528056551
 20
23.36108937543817
 30
0.0
 10
9.952798618965275
 20
23.3552226444726
 30
0.0
  0
SPLINE
  5
2C3
330
1F
100
AcDbEntity
  8
0
  6
Continuous
 62
     7
370
    25
100
AcDbSpline
210
0.0
220
0.0
230
1.0
 70
    24
 71
     3
 72
    12
 73
     8
 74
     0
 42
0.00000001
 43
0.00000001
 40
0.0
 40
0.0
 40
0.0
 40
0.0
 40
0.2161843460219029
 40
0.4397598229072347
 40
0.5934158725837866
 40
0.7522072604284211
 40
1.0
 40
1.0
 40
1.0
 40
1.0
 10
10.08181659093527
 20
23.21916893115045
 30
0.0
 10
10.08719493140691
 20
23.22426914167224
 30
0.0
 10
10.09813549253847
 20
23.23464393391379
 30
0.0
 10
10.11422005091884
 20
23.24989671203792
 30
0.0
 10
10.12892569221279
 20
23.26384188097111
 30
0.0
 10
10.14402935817492
 20
23.27816449153545
 30
0.0
 10
10.15418057734583
 20
23.28779076103206
 30
0.0
 10
10.16036723894607
 20
23.29365749199762
 30
0.0
  0
ARC
  5
2C4
330
1F
100
AcDbEntity
  8
0
  6
Continuous
 62
     7
370
    25
100
AcDbCircle
 10
10.056582929
 20
23.3244400682
 30
0.0
 40
0.1082531754730533
100
AcDbArc
 50
283.4795673044
 51
343.4795673044
  0
SPLINE
  5
2C5
330
1F
100
AcDbEntity
  8
0
  6
Continuous
 62
     7
370
    25
100
AcDbSpline
210
0.0
220
0.0
230
1.0
 70
    24
 71
     3
 72
    12
 73
     8
 74
     0
 42
0.00000001
 43
0.00000001
 40
0.0
 40
0.0
 40
0.0
 40
0.0
 40
0.2161843460219361
 40
0.4397598229072859
 40
0.5934158725838163
 40
0.7522072604284039
 40
1.0
 40
1.0
 40
1.0
 40
1.0
 10
10.13513357696647
 20
23.39892862908229
 30
0.0
 10
10.12802749485413
 20
23.40103630330003
 30
0.0
 10
10.11357238064817
 20
23.40532371105085
 30
0.0
 10
10.09232080812421
 20
23.41162695815484
 30
0.0
 10
10.07289111692102
 20
23.41738983262775
 30
0.0
 10
10.05293553934273
 20
23.42330868575906
 30
0.0
 10
10.03952333582954
 20
23.42728676469214
 30
0.0
 10
10.03134926697607
 20
23.42971120531978
 30
0.0
  0
ARC
  5
2C6
330
1F
100
AcDbEntity
  8
0
  6
Continuous
 62
     7
370
    25
100
AcDbCircle
 10
10.056582929
 20
23.3244400682
 30
0.0
 40
0.1082531754730569
100
AcDbArc
 50
43.4795673044
 51
103.4795673044
  0
SPLINE
  5
2C7
330
1F
100
AcDbEntity
  8
0
  6
Continuous
 62
     7
370
    25
100
AcDbSpline
210
0.0
220
0.0
230
1.0
 70
    24
 71
     3
 72
    13
 73
     9
 74
     0
 42
0.00000001
 43
0.00000001
 40
0.0
 40
0.0
 40
0.0
 40
0.0
 40
0.1804907613308846
 40
0.3435163841106729
 40
0.5062359219914583
 40
0.6751144035508718
 40
0.8443638239381066
 40
1.0
 40
1.0
 40
1.0
 40
1.0
 10
9.952798618965275
 20
23.3552226444726
 30
0.0
 10
9.954237209729307
 20
23.34922105478453
 30
0.0
 10
9.956975186420358
 20
23.33779861757301
 30
0.0
 10
9.961287355312844
 20
23.31980888136348
 30
0.0
 10
9.965635116367194
 20
23.30167065987452
 30
0.0
 10
9.970030591572987
 20
23.28333338194333
 30
0.0
 10
9.974210591759833
 20
23.26589503419028
 30
0.0
 10
9.976794474200444
 20
23.25511545559259
 30
0.0
 10
9.978032280944866
 20
23.24995150738794
 30
0.0
  0
ARC
  5
2C8
330
1F
100
AcDbEntity
  8
0
  6
Continuous
 62
     7
370
    25
100
AcDbCircle
 10
10.056582929
 20
23.3244400682
 30
0.0
 40
0.1082531754730589
100
AcDbArc
 50
163.4795673044
 51
223.4795673044
  0
ARC
  5
2C9
330
1F
100
AcDbEntity
  8
0
  6
Continuous
 62
     7
370
    25
100
AcDbCircle
 10
10.056582929
 20
23.3244400682
 30
0.0
 40
0.108253175473055
100
AcDbArc
 50
343.4795673044
 51
43.4795673044
  0
SPLINE
  5
2CA
330
1F
100
AcDbEntity
  8
0
  6
Continuous
 62
     7
370
    25
100
AcDbSpline
210
0.0
220
0.0
230
1.0
 70
    24
 71
     3
 72
    13
 73
     9
 74
     0
 42
0.00000001
 43
0.00000001
 40
0.0
 40
0.0
 40
0.0
 40
0.0
 40
0.1556361760619014
 40
0.3248855964491365
 40
0.493764078008556
 40
0.6564836158892989
 40
0.8195092386690469
 40
1.0
 40
1.0
 40
1.0
 40
1.0
 10
10.16036723894607
 20
23.29365749199762
 30
0.0
 10
10.15912943220165
 20
23.29882144020227
 30
0.0
 10
10.15654554976103
 20
23.30960101879996
 30
0.0
 10
10.15236554957419
 20
23.32703936655301
 30
0.0
 10
10.14797007436839
 20
23.3453766444842
 30
0.0
 10
10.14362231331405
 20
23.36351486597317
 30
0.0
 10
10.13931014442156
 20
23.38150460218269
 30
0.0
 10
10.1365721677305
 20
23.39292703939422
 30
0.0
 10
10.13513357696647
 20
23.39892862908229
 30
0.0
  0
CIRCLE
  5
2CB
330
1F
100
AcDbEntity
  8
0
  6
Continuous
 62
     7
370
    25
100
AcDbCircle
 10
10.056582929
 20
23.3244400682
 30
0.0
 40
0.1774999999999988
  0
CIRCLE
  5
2CC
330
1F
100
AcDbEntity
  8
0
  6
Continuous
 62
     7
370
    25
100
AcDbCircle
 10
10.056582929
 20
23.3244400682
 30
0.0
 40
0.1875000000000009
  0
ARC
  5
2CD
330
1F
100
AcDbEntity
  8
0
  6
Continuous
 62
     7
370
    25
100
AcDbCircle
 10
10.056582929
 20
23.3244400682
 30
0.0
 40
0.0937500000000028
100
AcDbArc
 50
313.4795673044
 51
13.4795673044
  0
ARC
  5
2CE
330
1F
100
AcDbEntity
  8
0
  6
Continuous
 62
     7
370
    25
100
AcDbCircle
 10
10.056582929
 20
23.3244400682
 30
0.0
 40
0.0937500000000028
100
AcDbArc
 50
253.4795673044
 51
313.4795673044
  0
ARC
  5
2CF
330
1F
100
AcDbEntity
  8
0
  6
Continuous
 62
     7
370
    25
100
AcDbCircle
 10
10.056582929
 20
23.3244400682
 30
0.0
 40
0.0937500000000027
100
AcDbArc
 50
193.4795673044
 51
253.4795673044
  0
ARC
  5
2D0
330
1F
100
AcDbEntity
  8
0
  6
Continuous
 62
     7
370
    25
100
AcDbCircle
 10
10.056582929
 20
23.3244400682
 30
0.0
 40
0.0937500000000027
100
AcDbArc
 50
133.4795673044
 51
193.4795673044
  0
ARC
  5
2D1
330
1F
100
AcDbEntity
  8
0
  6
Continuous
 62
     7
370
    25
100
AcDbCircle
 10
10.056582929
 20
23.3244400682
 30
0.0
 40
0.0937500000000012
100
AcDbArc
 50
73.4795673044
 51
133.4795673044
  0
ARC
  5
2D2
330
1F
100
AcDbEntity
  8
0
  6
Continuous
 62
     7
370
    25
100
AcDbCircle
 10
10.056582929
 20
23.3244400682
 30
0.0
 40
0.0937500000000012
100
AcDbArc
 50
13.4795673044
 51
73.4795673044
  0
CIRCLE
  5
2D3
330
1F
100
AcDbEntity
  8
0
  6
Continuous
 62
     7
370
    25
100
AcDbCircle
 10
10.056582929
 20
23.3244400682
 30
0.0
 40
0.021581216351296
  0
SPLINE
  5
2D4
330
1F
100
AcDbEntity
  8
0
  6
Continuous
 62
     7
370
    25
100
AcDbSpline
210
0.0
220
0.0
230
1.0
 70
    24
 71
     3
 72
    12
 73
     8
 74
     0
 42
0.00000001
 43
0.00000001
 40
0.0
 40
0.0
 40
0.0
 40
0.0
 40
0.2161843460219001
 40
0.4397598229072339
 40
0.5934158725837876
 40
0.7522072604284208
 40
1.0
 40
1.0
 40
1.0
 40
1.0
 10
10.08181659093528
 20
28.46916893115045
 30
0.0
 10
10.08719493140691
 20
28.47426914167224
 30
0.0
 10
10.09813549253848
 20
28.4846439339138
 30
0.0
 10
10.11422005091884
 20
28.49989671203792
 30
0.0
 10
10.1289256922128
 20
28.51384188097111
 30
0.0
 10
10.14402935817492
 20
28.52816449153545
 30
0.0
 10
10.15418057734583
 20
28.53779076103206
 30
0.0
 10
10.16036723894607
 20
28.54365749199762
 30
0.0
  0
ARC
  5
2D5
330
1F
100
AcDbEntity
  8
0
  6
Continuous
 62
     7
370
    25
100
AcDbCircle
 10
10.056582929
 20
28.5744400682
 30
0.0
 40
0.1082531754730531
100
AcDbArc
 50
283.4795673044
 51
343.4795673044
  0
ARC
  5
2D6
330
1F
100
AcDbEntity
  8
0
  6
Continuous
 62
     7
370
    25
100
AcDbCircle
 10
10.056582929
 20
28.5744400682
 30
0.0
 40
0.10825317547306
100
AcDbArc
 50
103.4795673044
 51
163.4795673044
  0
SPLINE
  5
2D7
330
1F
100
AcDbEntity
  8
0
  6
Continuous
 62
     7
370
    25
100
AcDbSpline
210
0.0
220
0.0
230
1.0
 70
    24
 71
     3
 72
    12
 73
     8
 74
     0
 42
0.00000001
 43
0.00000001
 40
0.0
 40
0.0
 40
0.0
 40
0.0
 40
0.2161843460219471
 40
0.4397598229072838
 40
0.5934158725838287
 40
0.7522072604284135
 40
1.0
 40
1.0
 40
1.0
 40
1.0
 10
10.03134926697607
 20
28.67971120531979
 30
0.0
 10
10.02597092650443
 20
28.67461099479799
 30
0.0
 10
10.01503036537286
 20
28.66423620255643
 30
0.0
 10
9.998945806992495
 20
28.64898342443231
 30
0.0
 10
9.984240165698546
 20
28.63503825549912
 30
0.0
 10
9.969136499736418
 20
28.62071564493478
 30
0.0
 10
9.95898528056551
 20
28.61108937543817
 30
0.0
 10
9.952798618965277
 20
28.6052226444726
 30
0.0
  0
SPLINE
  5
2D8
330
1F
100
AcDbEntity
  8
0
  6
Continuous
 62
     7
370
    25
100
AcDbSpline
210
0.0
220
0.0
230
1.0
 70
    24
 71
     3
 72
    12
 73
     8
 74
     0
 42
0.00000001
 43
0.00000001
 40
0.0
 40
0.0
 40
0.0
 40
0.0
 40
0.2161843460219146
 40
0.4397598229072295
 40
0.5934158725838082
 40
0.7522072604284357
 40
1.0
 40
1.0
 40
1.0
 40
1.0
 10
9.978032280944868
 20
28.49995150738793
 30
0.0
 10
9.98513836305721
 20
28.49784383317019
 30
0.0
 10
9.999593477263168
 20
28.49355642541937
 30
0.0
 10
10.02084504978714
 20
28.4872531783154
 30
0.0
 10
10.04027474099031
 20
28.48149030384247
 30
0.0
 10
10.06023031856861
 20
28.47557145071117
 30
0.0
 10
10.07364252208181
 20
28.47159337177809
 30
0.0
 10
10.08181659093528
 20
28.46916893115045
 30
0.0
  0
ARC
  5
2D9
330
1F
100
AcDbEntity
  8
0
  6
Continuous
 62
     7
370
    25
100
AcDbCircle
 10
10.056582929
 20
28.5744400682
 30
0.0
 40
0.1082531754730613
100
AcDbArc
 50
223.4795673044
 51
283.4795673044
  0
ARC
  5
2DA
330
1F
100
AcDbEntity
  8
0
  6
Continuous
 62
     7
370
    25
100
AcDbCircle
 10
10.056582929
 20
28.5744400682
 30
0.0
 40
0.10825317547306
100
AcDbArc
 50
43.4795673044
 51
103.4795673044
  0
SPLINE
  5
2DB
330
1F
100
AcDbEntity
  8
0
  6
Continuous
 62
     7
370
    25
100
AcDbSpline
210
0.0
220
0.0
230
1.0
 70
    24
 71
     3
 72
    12
 73
     8
 74
     0
 42
0.00000001
 43
0.00000001
 40
0.0
 40
0.0
 40
0.0
 40
0.0
 40
0.2161843460219361
 40
0.4397598229072845
 40
0.5934158725838157
 40
0.7522072604284032
 40
1.0
 40
1.0
 40
1.0
 40
1.0
 10
10.13513357696647
 20
28.64892862908229
 30
0.0
 10
10.12802749485413
 20
28.65103630330003
 30
0.0
 10
10.11357238064817
 20
28.65532371105085
 30
0.0
 10
10.09232080812421
 20
28.66162695815484
 30
0.0
 10
10.07289111692103
 20
28.66738983262775
 30
0.0
 10
10.05293553934273
 20
28.67330868575906
 30
0.0
 10
10.03952333582954
 20
28.67728676469215
 30
0.0
 10
10.03134926697607
 20
28.67971120531979
 30
0.0
  0
SPLINE
  5
2DC
330
1F
100
AcDbEntity
  8
0
  6
Continuous
 62
     7
370
    25
100
AcDbSpline
210
0.0
220
0.0
230
1.0
 70
    24
 71
     3
 72
    13
 73
     9
 74
     0
 42
0.00000001
 43
0.00000001
 40
0.0
 40
0.0
 40
0.0
 40
0.0
 40
0.1804907613308863
 40
0.3435163841106743
 40
0.506235921991457
 40
0.6751144035508747
 40
0.8443638239381069
 40
1.0
 40
1.0
 40
1.0
 40
1.0
 10
9.952798618965277
 20
28.6052226444726
 30
0.0
 10
9.954237209729307
 20
28.59922105478453
 30
0.0
 10
9.95697518642036
 20
28.58779861757301
 30
0.0
 10
9.961287355312848
 20
28.56980888136349
 30
0.0
 10
9.965635116367196
 20
28.55167065987452
 30
0.0
 10
9.97003059157299
 20
28.53333338194333
 30
0.0
 10
9.974210591759835
 20
28.51589503419028
 30
0.0
 10
9.976794474200446
 20
28.50511545559259
 30
0.0
 10
9.978032280944868
 20
28.49995150738793
 30
0.0
  0
ARC
  5
2DD
330
1F
100
AcDbEntity
  8
0
  6
Continuous
 62
     7
370
    25
100
AcDbCircle
 10
10.056582929
 20
28.5744400682
 30
0.0
 40
0.1082531754730613
100
AcDbArc
 50
163.4795673044
 51
223.4795673044
  0
ARC
  5
2DE
330
1F
100
AcDbEntity
  8
0
  6
Continuous
 62
     7
370
    25
100
AcDbCircle
 10
10.056582929
 20
28.5744400682
 30
0.0
 40
0.1082531754730574
100
AcDbArc
 50
343.4795673044
 51
43.4795673044
  0
SPLINE
  5
2DF
330
1F
100
AcDbEntity
  8
0
  6
Continuous
 62
     7
370
    25
100
AcDbSpline
210
0.0
220
0.0
230
1.0
 70
    24
 71
     3
 72
    13
 73
     9
 74
     0
 42
0.00000001
 43
0.00000001
 40
0.0
 40
0.0
 40
0.0
 40
0.0
 40
0.155636176061901
 40
0.3248855964491335
 40
0.4937640780085526
 40
0.6564836158892997
 40
0.8195092386690472
 40
1.0
 40
1.0
 40
1.0
 40
1.0
 10
10.16036723894607
 20
28.54365749199762
 30
0.0
 10
10.15912943220165
 20
28.54882144020228
 30
0.0
 10
10.15654554976104
 20
28.55960101879997
 30
0.0
 10
10.15236554957419
 20
28.57703936655301
 30
0.0
 10
10.14797007436839
 20
28.5953766444842
 30
0.0
 10
10.14362231331405
 20
28.61351486597317
 30
0.0
 10
10.13931014442156
 20
28.63150460218269
 30
0.0
 10
10.13657216773051
 20
28.64292703939421
 30
0.0
 10
10.13513357696647
 20
28.64892862908229
 30
0.0
  0
CIRCLE
  5
2E0
330
1F
100
AcDbEntity
  8
0
  6
Continuous
 62
     7
370
    25
100
AcDbCircle
 10
10.056582929
 20
28.5744400682
 30
0.0
 40
0.1775000000000031
  0
CIRCLE
  5
2E1
330
1F
100
AcDbEntity
  8
0
  6
Continuous
 62
     7
370
    25
100
AcDbCircle
 10
10.056582929
 20
28.5744400682
 30
0.0
 40
0.1875000000000009
  0
ARC
  5
2E2
330
1F
100
AcDbEntity
  8
0
  6
Continuous
 62
     7
370
    25
100
AcDbCircle
 10
10.056582929
 20
28.5744400682
 30
0.0
 40
0.0937500000000028
100
AcDbArc
 50
313.4795673044
 51
13.4795673045
  0
ARC
  5
2E3
330
1F
100
AcDbEntity
  8
0
  6
Continuous
 62
     7
370
    25
100
AcDbCircle
 10
10.056582929
 20
28.5744400682
 30
0.0
 40
0.0937500000000028
100
AcDbArc
 50
253.4795673044
 51
313.4795673044
  0
ARC
  5
2E4
330
1F
100
AcDbEntity
  8
0
  6
Continuous
 62
     7
370
    25
100
AcDbCircle
 10
10.056582929
 20
28.5744400682
 30
0.0
 40
0.0937500000000001
100
AcDbArc
 50
193.4795673044
 51
253.4795673044
  0
ARC
  5
2E5
330
1F
100
AcDbEntity
  8
0
  6
Continuous
 62
     7
370
    25
100
AcDbCircle
 10
10.056582929
 20
28.5744400682
 30
0.0
 40
0.0937500000000001
100
AcDbArc
 50
133.4795673044
 51
193.4795673044
  0
ARC
  5
2E6
330
1F
100
AcDbEntity
  8
0
  6
Continuous
 62
     7
370
    25
100
AcDbCircle
 10
10.056582929
 20
28.5744400682
 30
0.0
 40
0.0937500000000012
100
AcDbArc
 50
73.4795673044
 51
133.4795673044
  0
ARC
  5
2E7
330
1F
100
AcDbEntity
  8
0
  6
Continuous
 62
     7
370
    25
100
AcDbCircle
 10
10.056582929
 20
28.5744400682
 30
0.0
 40
0.0937500000000012
100
AcDbArc
 50
13.4795673045
 51
73.4795673044
  0
CIRCLE
  5
2E8
330
1F
100
AcDbEntity
  8
0
  6
Continuous
 62
     7
370
    25
100
AcDbCircle
 10
10.056582929
 20
28.5744400682
 30
0.0
 40
0.0215812163512977
  0
SPLINE
  5
2E9
330
1F
100
AcDbEntity
  8
0
  6
Continuous
 62
     7
370
    25
100
AcDbSpline
210
0.0
220
0.0
230
1.0
 70
    24
 71
     3
 72
    12
 73
     8
 74
     0
 42
0.00000001
 43
0.00000001
 40
0.0
 40
0.0
 40
0.0
 40
0.0
 40
0.2161843460219471
 40
0.4397598229072838
 40
0.5934158725838287
 40
0.7522072604284135
 40
1.0
 40
1.0
 40
1.0
 40
1.0
 10
15.28134926697607
 20
28.67971120531978
 30
0.0
 10
15.27597092650443
 20
28.67461099479799
 30
0.0
 10
15.26503036537286
 20
28.66423620255643
 30
0.0
 10
15.2489458069925
 20
28.64898342443231
 30
0.0
 10
15.23424016569855
 20
28.63503825549912
 30
0.0
 10
15.21913649973642
 20
28.62071564493478
 30
0.0
 10
15.20898528056551
 20
28.61108937543817
 30
0.0
 10
15.20279861896528
 20
28.6052226444726
 30
0.0
  0
ARC
  5
2EA
330
1F
100
AcDbEntity
  8
0
  6
Continuous
 62
     7
370
    25
100
AcDbCircle
 10
15.306582929
 20
28.5744400682
 30
0.0
 40
0.1082531754730565
100
AcDbArc
 50
103.4795673044
 51
163.4795673044
  0
SPLINE
  5
2EB
330
1F
100
AcDbEntity
  8
0
  6
Continuous
 62
     7
370
    25
100
AcDbSpline
210
0.0
220
0.0
230
1.0
 70
    24
 71
     3
 72
    12
 73
     8
 74
     0
 42
0.00000001
 43
0.00000001
 40
0.0
 40
0.0
 40
0.0
 40
0.0
 40
0.2161843460219001
 40
0.4397598229072339
 40
0.5934158725837876
 40
0.7522072604284208
 40
1.0
 40
1.0
 40
1.0
 40
1.0
 10
15.33181659093527
 20
28.46916893115045
 30
0.0
 10
15.33719493140691
 20
28.47426914167224
 30
0.0
 10
15.34813549253848
 20
28.48464393391379
 30
0.0
 10
15.36422005091884
 20
28.49989671203792
 30
0.0
 10
15.37892569221279
 20
28.51384188097111
 30
0.0
 10
15.39402935817492
 20
28.52816449153545
 30
0.0
 10
15.40418057734583
 20
28.53779076103206
 30
0.0
 10
15.41036723894607
 20
28.54365749199762
 30
0.0
  0
ARC
  5
2EC
330
1F
100
AcDbEntity
  8
0
  6
Continuous
 62
     7
370
    25
100
AcDbCircle
 10
15.306582929
 20
28.5744400682
 30
0.0
 40
0.108253175473055
100
AcDbArc
 50
283.4795673044
 51
343.4795673044
  0
ARC
  5
2ED
330
1F
100
AcDbEntity
  8
0
  6
Continuous
 62
     7
370
    25
100
AcDbCircle
 10
15.306582929
 20
28.5744400682
 30
0.0
 40
0.1082531754730638
100
AcDbArc
 50
223.4795673044
 51
283.4795673044
  0
SPLINE
  5
2EE
330
1F
100
AcDbEntity
  8
0
  6
Continuous
 62
     7
370
    25
100
AcDbSpline
210
0.0
220
0.0
230
1.0
 70
    24
 71
     3
 72
    12
 73
     8
 74
     0
 42
0.00000001
 43
0.00000001
 40
0.0
 40
0.0
 40
0.0
 40
0.0
 40
0.2161843460219146
 40
0.4397598229072295
 40
0.5934158725838082
 40
0.7522072604284357
 40
1.0
 40
1.0
 40
1.0
 40
1.0
 10
15.22803228094487
 20
28.49995150738793
 30
0.0
 10
15.23513836305721
 20
28.49784383317019
 30
0.0
 10
15.24959347726317
 20
28.49355642541936
 30
0.0
 10
15.27084504978713
 20
28.4872531783154
 30
0.0
 10
15.29027474099031
 20
28.48149030384247
 30
0.0
 10
15.31023031856861
 20
28.47557145071116
 30
0.0
 10
15.32364252208181
 20
28.47159337177808
 30
0.0
 10
15.33181659093527
 20
28.46916893115045
 30
0.0
  0
SPLINE
  5
2EF
330
1F
100
AcDbEntity
  8
0
  6
Continuous
 62
     7
370
    25
100
AcDbSpline
210
0.0
220
0.0
230
1.0
 70
    24
 71
     3
 72
    12
 73
     8
 74
     0
 42
0.00000001
 43
0.00000001
 40
0.0
 40
0.0
 40
0.0
 40
0.0
 40
0.2161843460219361
 40
0.4397598229072845
 40
0.5934158725838157
 40
0.7522072604284032
 40
1.0
 40
1.0
 40
1.0
 40
1.0
 10
15.38513357696647
 20
28.64892862908229
 30
0.0
 10
15.37802749485413
 20
28.65103630330003
 30
0.0
 10
15.36357238064817
 20
28.65532371105085
 30
0.0
 10
15.34232080812421
 20
28.66162695815484
 30
0.0
 10
15.32289111692103
 20
28.66738983262774
 30
0.0
 10
15.30293553934274
 20
28.67330868575906
 30
0.0
 10
15.28952333582954
 20
28.67728676469215
 30
0.0
 10
15.28134926697607
 20
28.67971120531978
 30
0.0
  0
ARC
  5
2F0
330
1F
100
AcDbEntity
  8
0
  6
Continuous
 62
     7
370
    25
100
AcDbCircle
 10
15.306582929
 20
28.5744400682
 30
0.0
 40
0.1082531754730565
100
AcDbArc
 50
43.4795673044
 51
103.4795673044
  0
SPLINE
  5
2F1
330
1F
100
AcDbEntity
  8
0
  6
Continuous
 62
     7
370
    25
100
AcDbSpline
210
0.0
220
0.0
230
1.0
 70
    24
 71
     3
 72
    13
 73
     9
 74
     0
 42
0.00000001
 43
0.00000001
 40
0.0
 40
0.0
 40
0.0
 40
0.0
 40
0.155636176061901
 40
0.3248855964491335
 40
0.4937640780085526
 40
0.6564836158892997
 40
0.8195092386690472
 40
1.0
 40
1.0
 40
1.0
 40
1.0
 10
15.41036723894607
 20
28.54365749199762
 30
0.0
 10
15.40912943220165
 20
28.54882144020227
 30
0.0
 10
15.40654554976104
 20
28.55960101879996
 30
0.0
 10
15.40236554957419
 20
28.57703936655301
 30
0.0
 10
15.39797007436839
 20
28.5953766444842
 30
0.0
 10
15.39362231331405
 20
28.61351486597317
 30
0.0
 10
15.38931014442156
 20
28.63150460218269
 30
0.0
 10
15.38657216773051
 20
28.64292703939421
 30
0.0
 10
15.38513357696647
 20
28.64892862908229
 30
0.0
  0
ARC
  5
2F2
330
1F
100
AcDbEntity
  8
0
  6
Continuous
 62
     7
370
    25
100
AcDbCircle
 10
15.306582929
 20
28.5744400682
 30
0.0
 40
0.108253175473055
100
AcDbArc
 50
343.4795673044
 51
43.4795673044
  0
ARC
  5
2F3
330
1F
100
AcDbEntity
  8
0
  6
Continuous
 62
     7
370
    25
100
AcDbCircle
 10
15.306582929
 20
28.5744400682
 30
0.0
 40
0.1082531754730638
100
AcDbArc
 50
163.4795673044
 51
223.4795673044
  0
SPLINE
  5
2F4
330
1F
100
AcDbEntity
  8
0
  6
Continuous
 62
     7
370
    25
100
AcDbSpline
210
0.0
220
0.0
230
1.0
 70
    24
 71
     3
 72
    13
 73
     9
 74
     0
 42
0.00000001
 43
0.00000001
 40
0.0
 40
0.0
 40
0.0
 40
0.0
 40
0.1804907613308863
 40
0.3435163841106743
 40
0.506235921991457
 40
0.6751144035508747
 40
0.8443638239381069
 40
1.0
 40
1.0
 40
1.0
 40
1.0
 10
15.20279861896528
 20
28.6052226444726
 30
0.0
 10
15.20423720972931
 20
28.59922105478453
 30
0.0
 10
15.20697518642036
 20
28.58779861757301
 30
0.0
 10
15.21128735531285
 20
28.56980888136348
 30
0.0
 10
15.2156351163672
 20
28.55167065987451
 30
0.0
 10
15.22003059157299
 20
28.53333338194333
 30
0.0
 10
15.22421059175984
 20
28.51589503419027
 30
0.0
 10
15.22679447420045
 20
28.50511545559259
 30
0.0
 10
15.22803228094487
 20
28.49995150738793
 30
0.0
  0
CIRCLE
  5
2F5
330
1F
100
AcDbEntity
  8
0
  6
Continuous
 62
     7
370
    25
100
AcDbCircle
 10
15.306582929
 20
28.5744400682
 30
0.0
 40
0.1775000000000005
  0
CIRCLE
  5
2F6
330
1F
100
AcDbEntity
  8
0
  6
Continuous
 62
     7
370
    25
100
AcDbCircle
 10
15.306582929
 20
28.5744400682
 30
0.0
 40
0.1875000000000018
  0
ARC
  5
2F7
330
1F
100
AcDbEntity
  8
0
  6
Continuous
 62
     7
370
    25
100
AcDbCircle
 10
15.306582929
 20
28.5744400682
 30
0.0
 40
0.0937500000000007
100
AcDbArc
 50
73.4795673044
 51
133.4795673044
  0
ARC
  5
2F8
330
1F
100
AcDbEntity
  8
0
  6
Continuous
 62
     7
370
    25
100
AcDbCircle
 10
15.306582929
 20
28.5744400682
 30
0.0
 40
0.0937500000000016
100
AcDbArc
 50
313.4795673044
 51
13.4795673044
  0
ARC
  5
2F9
330
1F
100
AcDbEntity
  8
0
  6
Continuous
 62
     7
370
    25
100
AcDbCircle
 10
15.306582929
 20
28.5744400682
 30
0.0
 40
0.0937500000000043
100
AcDbArc
 50
253.4795673044
 51
313.4795673044
  0
ARC
  5
2FA
330
1F
100
AcDbEntity
  8
0
  6
Continuous
 62
     7
370
    25
100
AcDbCircle
 10
15.306582929
 20
28.5744400682
 30
0.0
 40
0.0937500000000043
100
AcDbArc
 50
193.4795673044
 51
253.4795673044
  0
ARC
  5
2FB
330
1F
100
AcDbEntity
  8
0
  6
Continuous
 62
     7
370
    25
100
AcDbCircle
 10
15.306582929
 20
28.5744400682
 30
0.0
 40
0.0937500000000009
100
AcDbArc
 50
133.4795673044
 51
193.4795673044
  0
ARC
  5
2FC
330
1F
100
AcDbEntity
  8
0
  6
Continuous
 62
     7
370
    25
100
AcDbCircle
 10
15.306582929
 20
28.5744400682
 30
0.0
 40
0.0937500000000007
100
AcDbArc
 50
13.4795673044
 51
73.4795673044
  0
CIRCLE
  5
2FD
330
1F
100
AcDbEntity
  8
0
  6
Continuous
 62
     7
370
    25
100
AcDbCircle
 10
15.306582929
 20
28.5744400682
 30
0.0
 40
0.021581216351296
  0
SPLINE
  5
2FE
330
1F
100
AcDbEntity
  8
0
  6
Continuous
 62
     7
370
    25
100
AcDbSpline
210
0.0
220
0.0
230
1.0
 70
    24
 71
     3
 72
    12
 73
     8
 74
     0
 42
0.00000001
 43
0.00000001
 40
0.0
 40
0.0
 40
0.0
 40
0.0
 40
0.2161843460219464
 40
0.4397598229072856
 40
0.5934158725838267
 40
0.752207260428411
 40
1.0
 40
1.0
 40
1.0
 40
1.0
 10
15.28134926697607
 20
23.42971120531978
 30
0.0
 10
15.27597092650443
 20
23.42461099479799
 30
0.0
 10
15.26503036537285
 20
23.41423620255643
 30
0.0
 10
15.24894580699249
 20
23.39898342443231
 30
0.0
 10
15.23424016569854
 20
23.38503825549912
 30
0.0
 10
15.21913649973641
 20
23.37071564493478
 30
0.0
 10
15.20898528056551
 20
23.36108937543817
 30
0.0
 10
15.20279861896528
 20
23.3552226444726
 30
0.0
  0
ARC
  5
2FF
330
1F
100
AcDbEntity
  8
0
  6
Continuous
 62
     7
370
    25
100
AcDbCircle
 10
15.306582929
 20
23.3244400682
 30
0.0
 40
0.1082531754730604
100
AcDbArc
 50
103.4795673044
 51
163.4795673044
  0
SPLINE
  5
300
330
1F
100
AcDbEntity
  8
0
  6
Continuous
 62
     7
370
    25
100
AcDbSpline
210
0.0
220
0.0
230
1.0
 70
    24
 71
     3
 72
    12
 73
     8
 74
     0
 42
0.00000001
 43
0.00000001
 40
0.0
 40
0.0
 40
0.0
 40
0.0
 40
0.2161843460219137
 40
0.4397598229072292
 40
0.5934158725838085
 40
0.752207260428435
 40
1.0
 40
1.0
 40
1.0
 40
1.0
 10
15.22803228094486
 20
23.24995150738793
 30
0.0
 10
15.23513836305721
 20
23.24784383317019
 30
0.0
 10
15.24959347726316
 20
23.24355642541936
 30
0.0
 10
15.27084504978713
 20
23.2372531783154
 30
0.0
 10
15.29027474099031
 20
23.23149030384247
 30
0.0
 10
15.31023031856861
 20
23.22557145071117
 30
0.0
 10
15.32364252208181
 20
23.22159337177808
 30
0.0
 10
15.33181659093527
 20
23.21916893115044
 30
0.0
  0
ARC
  5
301
330
1F
100
AcDbEntity
  8
0
  6
Continuous
 62
     7
370
    25
100
AcDbCircle
 10
15.306582929
 20
23.3244400682
 30
0.0
 40
0.1082531754730602
100
AcDbArc
 50
223.4795673044
 51
283.4795673044
  0
ARC
  5
302
330
1F
100
AcDbEntity
  8
0
  6
Continuous
 62
     7
370
    25
100
AcDbCircle
 10
15.306582929
 20
23.3244400682
 30
0.0
 40
0.1082531754730526
100
AcDbArc
 50
283.4795673044
 51
343.4795673044
  0
SPLINE
  5
303
330
1F
100
AcDbEntity
  8
0
  6
Continuous
 62
     7
370
    25
100
AcDbSpline
210
0.0
220
0.0
230
1.0
 70
    24
 71
     3
 72
    12
 73
     8
 74
     0
 42
0.00000001
 43
0.00000001
 40
0.0
 40
0.0
 40
0.0
 40
0.0
 40
0.2161843460219029
 40
0.4397598229072347
 40
0.5934158725837866
 40
0.7522072604284211
 40
1.0
 40
1.0
 40
1.0
 40
1.0
 10
15.33181659093527
 20
23.21916893115044
 30
0.0
 10
15.33719493140691
 20
23.22426914167224
 30
0.0
 10
15.34813549253847
 20
23.23464393391379
 30
0.0
 10
15.36422005091884
 20
23.24989671203792
 30
0.0
 10
15.37892569221279
 20
23.26384188097111
 30
0.0
 10
15.39402935817492
 20
23.27816449153545
 30
0.0
 10
15.40418057734583
 20
23.28779076103206
 30
0.0
 10
15.41036723894607
 20
23.29365749199762
 30
0.0
  0
ARC
  5
304
330
1F
100
AcDbEntity
  8
0
  6
Continuous
 62
     7
370
    25
100
AcDbCircle
 10
15.306582929
 20
23.3244400682
 30
0.0
 40
0.1082531754730604
100
AcDbArc
 50
43.4795673044
 51
103.4795673044
  0
SPLINE
  5
305
330
1F
100
AcDbEntity
  8
0
  6
Continuous
 62
     7
370
    25
100
AcDbSpline
210
0.0
220
0.0
230
1.0
 70
    24
 71
     3
 72
    12
 73
     8
 74
     0
 42
0.00000001
 43
0.00000001
 40
0.0
 40
0.0
 40
0.0
 40
0.0
 40
0.2161843460219371
 40
0.4397598229072854
 40
0.5934158725838156
 40
0.7522072604284029
 40
1.0
 40
1.0
 40
1.0
 40
1.0
 10
15.38513357696647
 20
23.39892862908229
 30
0.0
 10
15.37802749485413
 20
23.40103630330003
 30
0.0
 10
15.36357238064817
 20
23.40532371105085
 30
0.0
 10
15.3423208081242
 20
23.41162695815484
 30
0.0
 10
15.32289111692102
 20
23.41738983262775
 30
0.0
 10
15.30293553934273
 20
23.42330868575906
 30
0.0
 10
15.28952333582953
 20
23.42728676469214
 30
0.0
 10
15.28134926697607
 20
23.42971120531978
 30
0.0
  0
SPLINE
  5
306
330
1F
100
AcDbEntity
  8
0
  6
Continuous
 62
     7
370
    25
100
AcDbSpline
210
0.0
220
0.0
230
1.0
 70
    24
 71
     3
 72
    13
 73
     9
 74
     0
 42
0.00000001
 43
0.00000001
 40
0.0
 40
0.0
 40
0.0
 40
0.0
 40
0.1556361760619014
 40
0.3248855964491365
 40
0.493764078008556
 40
0.6564836158892989
 40
0.8195092386690469
 40
1.0
 40
1.0
 40
1.0
 40
1.0
 10
15.41036723894607
 20
23.29365749199762
 30
0.0
 10
15.40912943220165
 20
23.29882144020227
 30
0.0
 10
15.40654554976103
 20
23.30960101879996
 30
0.0
 10
15.40236554957419
 20
23.32703936655301
 30
0.0
 10
15.39797007436839
 20
23.3453766444842
 30
0.0
 10
15.39362231331404
 20
23.36351486597317
 30
0.0
 10
15.38931014442156
 20
23.38150460218269
 30
0.0
 10
15.3865721677305
 20
23.39292703939422
 30
0.0
 10
15.38513357696647
 20
23.39892862908229
 30
0.0
  0
ARC
  5
307
330
1F
100
AcDbEntity
  8
0
  6
Continuous
 62
     7
370
    25
100
AcDbCircle
 10
15.306582929
 20
23.3244400682
 30
0.0
 40
0.1082531754730561
100
AcDbArc
 50
343.4795673044
 51
43.4795673044
  0
SPLINE
  5
308
330
1F
100
AcDbEntity
  8
0
  6
Continuous
 62
     7
370
    25
100
AcDbSpline
210
0.0
220
0.0
230
1.0
 70
    24
 71
     3
 72
    13
 73
     9
 74
     0
 42
0.00000001
 43
0.00000001
 40
0.0
 40
0.0
 40
0.0
 40
0.0
 40
0.1804907613308846
 40
0.3435163841106729
 40
0.5062359219914583
 40
0.6751144035508718
 40
0.8443638239381066
 40
1.0
 40
1.0
 40
1.0
 40
1.0
 10
15.20279861896528
 20
23.3552226444726
 30
0.0
 10
15.2042372097293
 20
23.34922105478453
 30
0.0
 10
15.20697518642036
 20
23.33779861757301
 30
0.0
 10
15.21128735531284
 20
23.31980888136348
 30
0.0
 10
15.21563511636719
 20
23.30167065987452
 30
0.0
 10
15.22003059157299
 20
23.28333338194333
 30
0.0
 10
15.22421059175983
 20
23.26589503419028
 30
0.0
 10
15.22679447420044
 20
23.25511545559259
 30
0.0
 10
15.22803228094486
 20
23.24995150738793
 30
0.0
  0
ARC
  5
309
330
1F
100
AcDbEntity
  8
0
  6
Continuous
 62
     7
370
    25
100
AcDbCircle
 10
15.306582929
 20
23.3244400682
 30
0.0
 40
0.1082531754730602
100
AcDbArc
 50
163.4795673044
 51
223.4795673044
  0
CIRCLE
  5
30A
330
1F
100
AcDbEntity
  8
0
  6
Continuous
 62
     7
370
    25
100
AcDbCircle
 10
15.306582929
 20
23.3244400682
 30
0.0
 40
0.1774999999999996
  0
CIRCLE
  5
30B
330
1F
100
AcDbEntity
  8
0
  6
Continuous
 62
     7
370
    25
100
AcDbCircle
 10
15.306582929
 20
23.3244400682
 30
0.0
 40
0.1875000000000001
  0
ARC
  5
30C
330
1F
100
AcDbEntity
  8
0
  6
Continuous
 62
     7
370
    25
100
AcDbCircle
 10
15.306582929
 20
23.3244400682
 30
0.0
 40
0.0937500000000007
100
AcDbArc
 50
73.4795673044
 51
133.4795673044
  0
ARC
  5
30D
330
1F
100
AcDbEntity
  8
0
  6
Continuous
 62
     7
370
    25
100
AcDbCircle
 10
15.306582929
 20
23.3244400682
 30
0.0
 40
0.0937500000000007
100
AcDbArc
 50
13.4795673045
 51
73.4795673044
  0
ARC
  5
30E
330
1F
100
AcDbEntity
  8
0
  6
Continuous
 62
     7
370
    25
100
AcDbCircle
 10
15.306582929
 20
23.3244400682
 30
0.0
 40
0.093749999999999
100
AcDbArc
 50
313.4795673044
 51
13.4795673045
  0
ARC
  5
30F
330
1F
100
AcDbEntity
  8
0
  6
Continuous
 62
     7
370
    25
100
AcDbCircle
 10
15.306582929
 20
23.3244400682
 30
0.0
 40
0.093749999999999
100
AcDbArc
 50
253.4795673044
 51
313.4795673044
  0
ARC
  5
310
330
1F
100
AcDbEntity
  8
0
  6
Continuous
 62
     7
370
    25
100
AcDbCircle
 10
15.306582929
 20
23.3244400682
 30
0.0
 40
0.0937500000000018
100
AcDbArc
 50
193.4795673044
 51
253.4795673044
  0
ARC
  5
311
330
1F
100
AcDbEntity
  8
0
  6
Continuous
 62
     7
370
    25
100
AcDbCircle
 10
15.306582929
 20
23.3244400682
 30
0.0
 40
0.0937500000000018
100
AcDbArc
 50
133.4795673044
 51
193.4795673044
  0
CIRCLE
  5
312
330
1F
100
AcDbEntity
  8
0
  6
Continuous
 62
     7
370
    25
100
AcDbCircle
 10
15.306582929
 20
23.3244400682
 30
0.0
 40
0.021581216351296
  0
LINE
  5
313
330
1F
100
AcDbEntity
  8
0
  6
Continuous
 62
     7
370
    25
100
AcDbLine
 10
14.936582929
 20
27.1994552788
 30
0.0
 11
14.8220164586
 21
27.1994552788
 31
0.0
  0
LINE
  5
314
330
1F
100
AcDbEntity
  8
0
  6
Continuous
 62
     7
370
    25
100
AcDbLine
 10
14.936582929
 20
27.1994552788
 30
0.0
 11
14.936582929
 21
27.11818338
 31
0.0
  0
LINE
  5
315
330
1F
100
AcDbEntity
  8
0
  6
Continuous
 62
     7
370
    25
100
AcDbLine
 10
14.936582929
 20
26.8090065386
 30
0.0
 11
14.936582929
 21
26.6994552788
 31
0.0
  0
LINE
  5
316
330
1F
100
AcDbEntity
  8
0
  6
Continuous
 62
     7
370
    25
100
AcDbLine
 10
14.8220164586
 20
26.6994552788
 30
0.0
 11
14.936582929
 21
26.6994552788
 31
0.0
  0
LINE
  5
317
330
1F
100
AcDbEntity
  8
0
  6
Continuous
 62
     7
370
    25
100
AcDbLine
 10
14.126582929
 20
26.6994552788
 30
0.0
 11
14.5128396172
 21
26.6994552788
 31
0.0
  0
LINE
  5
318
330
1F
100
AcDbEntity
  8
0
  6
Continuous
 62
     7
370
    25
100
AcDbLine
 10
14.126582929
 20
26.6994552788
 30
0.0
 11
14.126582929
 21
26.8090065386
 31
0.0
  0
LINE
  5
319
330
1F
100
AcDbEntity
  8
0
  6
Continuous
 62
     7
370
    25
100
AcDbLine
 10
14.126582929
 20
27.11818338
 30
0.0
 11
14.126582929
 21
27.1994552788
 31
0.0
  0
LINE
  5
31A
330
1F
100
AcDbEntity
  8
0
  6
Continuous
 62
     7
370
    25
100
AcDbLine
 10
14.126582929
 20
27.1994552788
 30
0.0
 11
14.5128396172
 21
27.1994552788
 31
0.0
  0
LINE
  5
31B
330
1F
100
AcDbEntity
  8
0
  6
Continuous
 62
     7
370
    25
100
AcDbLine
 10
10.426582929
 20
26.6994552788
 30
0.0
 11
10.5128396172
 21
26.6994552788
 31
0.0
  0
LINE
  5
31C
330
1F
100
AcDbEntity
  8
0
  6
Continuous
 62
     7
370
    25
100
AcDbLine
 10
10.426582929
 20
26.6994552788
 30
0.0
 11
10.426582929
 21
26.8090065386
 31
0.0
  0
LINE
  5
31D
330
1F
100
AcDbEntity
  8
0
  6
Continuous
 62
     7
370
    25
100
AcDbLine
 10
10.426582929
 20
27.11818338
 30
0.0
 11
10.426582929
 21
27.1994552788
 31
0.0
  0
LINE
  5
31E
330
1F
100
AcDbEntity
  8
0
  6
Continuous
 62
     7
370
    25
100
AcDbLine
 10
10.5128396172
 20
27.1994552788
 30
0.0
 11
10.426582929
 21
27.1994552788
 31
0.0
  0
LINE
  5
31F
330
1F
100
AcDbEntity
  8
0
  6
Continuous
 62
     7
370
    25
100
AcDbLine
 10
11.236582929
 20
27.1994552788
 30
0.0
 11
11.236582929
 21
27.11818338
 31
0.0
  0
LINE
  5
320
330
1F
100
AcDbEntity
  8
0
  6
Continuous
 62
     7
370
    25
100
AcDbLine
 10
11.236582929
 20
26.8090065386
 30
0.0
 11
11.236582929
 21
26.6994552788
 31
0.0
  0
LINE
  5
321
330
1F
100
AcDbEntity
  8
0
  6
Continuous
 62
     7
370
    25
100
AcDbLine
 10
11.236582929
 20
26.6994552788
 30
0.0
 11
10.8220164586
 21
26.6994552788
 31
0.0
  0
LINE
  5
322
330
1F
100
AcDbEntity
  8
0
  6
Continuous
 62
     7
370
    25
100
AcDbLine
 10
11.236582929
 20
27.1994552788
 30
0.0
 11
10.8220164586
 21
27.1994552788
 31
0.0
  0
LINE
  5
323
330
1F
100
AcDbEntity
  8
0
  6
Continuous
 62
     7
370
    25
100
AcDbLine
 10
16.1487574056
 20
29.4166145449
 30
0.0
 11
9.2144084523
 21
29.4166145449
 31
0.0
  0
LINE
  5
324
330
1F
100
AcDbEntity
  8
0
  6
Continuous
 62
     7
370
    25
100
AcDbLine
 10
16.1487574056
 20
22.4822655916
 30
0.0
 11
16.1487574056
 21
29.4166145449
 31
0.0
  0
LINE
  5
325
330
1F
100
AcDbEntity
  8
0
  6
Continuous
 62
     7
370
    25
100
AcDbLine
 10
9.2144084523
 20
22.4822655916
 30
0.0
 11
16.1487574056
 21
22.4822655916
 31
0.0
  0
LINE
  5
326
330
1F
100
AcDbEntity
  8
0
  6
Continuous
 62
     7
370
    25
100
AcDbLine
 10
9.2144084523
 20
29.4166145449
 30
0.0
 11
9.2144084523
 21
22.4822655916
 31
0.0
  0
LINE
  5
327
330
1F
100
AcDbEntity
  8
0
  6
Continuous
 62
     7
370
    25
100
AcDbLine
 10
9.416582929
 20
22.6844400682
 30
0.0
 11
15.946582929
 21
22.6844400682
 31
0.0
  0
LINE
  5
328
330
1F
100
AcDbEntity
  8
0
  6
Continuous
 62
     7
370
    25
100
AcDbLine
 10
15.946582929
 20
22.6844400682
 30
0.0
 11
15.946582929
 21
29.2144400682
 31
0.0
  0
LINE
  5
329
330
1F
100
AcDbEntity
  8
0
  6
Continuous
 62
     7
370
    25
100
AcDbLine
 10
15.946582929
 20
29.2144400682
 30
0.0
 11
9.416582929
 21
29.2144400682
 31
0.0
  0
LINE
  5
32A
330
1F
100
AcDbEntity
  8
0
  6
Continuous
 62
     7
370
    25
100
AcDbLine
 10
9.416582929
 20
29.2144400682
 30
0.0
 11
9.416582929
 21
22.6844400682
 31
0.0
  0
LINE
  5
32B
330
1F
100
AcDbEntity
  8
0
  6
Continuous
 62
     7
370
    25
100
AcDbLine
 10
16.1487574056
 20
22.4822655916
 30
0.0
 11
16.181582929
 21
22.4494400682
 31
0.0
  0
LINE
  5
32C
330
1F
100
AcDbEntity
  8
0
  6
Continuous
 62
     7
370
    25
100
AcDbLine
 10
16.1487574056
 20
29.4166145449
 30
0.0
 11
16.181582929
 21
29.4494400682
 31
0.0
  0
LINE
  5
32D
330
1F
100
AcDbEntity
  8
0
  6
Continuous
 62
     7
370
    25
100
AcDbLine
 10
16.181582929
 20
22.4494400682
 30
0.0
 11
16.181582929
 21
29.4494400682
 31
0.0
  0
LINE
  5
32E
330
1F
100
AcDbEntity
  8
0
  6
Continuous
 62
     7
370
    25
100
AcDbLine
 10
9.2144084523
 20
29.4166145449
 30
0.0
 11
9.181582929
 21
29.4494400682
 31
0.0
  0
LINE
  5
32F
330
1F
100
AcDbEntity
  8
0
  6
Continuous
 62
     7
370
    25
100
AcDbLine
 10
16.181582929
 20
29.4494400682
 30
0.0
 11
9.181582929
 21
29.4494400682
 31
0.0
  0
LINE
  5
330
330
1F
100
AcDbEntity
  8
0
  6
Continuous
 62
     7
370
    25
100
AcDbLine
 10
9.2144084523
 20
22.4822655916
 30
0.0
 11
9.181582929
 21
22.4494400682
 31
0.0
  0
LINE
  5
331
330
1F
100
AcDbEntity
  8
0
  6
Continuous
 62
     7
370
    25
100
AcDbLine
 10
9.181582929
 20
29.4494400682
 30
0.0
 11
9.181582929
 21
22.4494400682
 31
0.0
  0
LINE
  5
332
330
1F
100
AcDbEntity
  8
0
  6
Continuous
 62
     7
370
    25
100
AcDbLine
 10
9.181582929
 20
22.4494400682
 30
0.0
 11
16.181582929
 21
22.4494400682
 31
0.0
  0
LINE
  5
333
330
1F
100
AcDbEntity
  8
0
  6
Continuous
 62
     7
370
    25
100
AcDbLine
 10
15.9315981395
 20
29.1994552788
 30
0.0
 11
15.946582929
 21
29.2144400682
 31
0.0
  0
LINE
  5
334
330
1F
100
AcDbEntity
  8
0
  6
Continuous
 62
     7
370
    25
100
AcDbLine
 10
15.9315981395
 20
22.6994248577
 30
0.0
 11
15.946582929
 21
22.6844400682
 31
0.0
  0
LINE
  5
335
330
1F
100
AcDbEntity
  8
0
  6
Continuous
 62
     7
370
    25
100
AcDbLine
 10
9.416582929
 20
29.2144400682
 30
0.0
 11
9.4315677184
 21
29.1994552788
 31
0.0
  0
LINE
  5
336
330
1F
100
AcDbEntity
  8
0
  6
Continuous
 62
     7
370
    25
100
AcDbLine
 10
9.416582929
 20
22.6844400682
 30
0.0
 11
9.4315677184
 21
22.6994248577
 31
0.0
  0
LWPOLYLINE
  5
337
330
1F
100
AcDbEntity
  8
0
  6
Continuous
 62
     7
370
    25
100
AcDbPolyline
 90
        3
 70
   128
 43
0.0
 10
15.5128396172
 20
26.7323141418
 10
15.4981159001
 20
26.7837351433
 10
15.4905065187
 20
26.8090065386
  0
ARC
  5
338
330
1F
100
AcDbEntity
  8
0
  6
Continuous
 62
     7
370
    25
100
AcDbCircle
 10
12.681582929
 20
25.9494400682
 30
0.0
 40
2.937500000000002
100
AcDbArc
 50
23.4450932214
 51
39.275055063
  0
ARC
  5
339
330
1F
100
AcDbEntity
  8
0
  6
Continuous
 62
     7
370
    25
100
AcDbCircle
 10
12.681582929
 20
25.9494400682
 30
0.0
 40
2.937500000000003
100
AcDbArc
 50
51.4346735089
 51
67.1554231184
  0
ARC
  5
33A
330
1F
100
AcDbEntity
  8
0
  6
Continuous
 62
     7
370
    25
100
AcDbCircle
 10
12.681582929
 20
25.9494400682
 30
0.0
 40
2.937500000000002
100
AcDbArc
 50
73.5617990166
 51
76.7725617316
  0
ARC
  5
33B
330
1F
100
AcDbEntity
  8
0
  6
Continuous
 62
     7
370
    25
100
AcDbCircle
 10
12.681582929
 20
25.9494400682
 30
0.0
 40
2.937500000000003
100
AcDbArc
 50
103.2274382684
 51
107.0147793915
  0
ARC
  5
33C
330
1F
100
AcDbEntity
  8
0
  6
Continuous
 62
     7
370
    25
100
AcDbCircle
 10
12.681582929
 20
25.9494400682
 30
0.0
 40
2.937500000000004
100
AcDbArc
 50
113.4450932214
 51
129.275055063
  0
ARC
  5
33D
330
1F
100
AcDbEntity
  8
0
  6
Continuous
 62
     7
370
    25
100
AcDbCircle
 10
12.681582929
 20
25.9494400682
 30
0.0
 40
2.937500000000003
100
AcDbArc
 50
140.724944937
 51
156.5549067786
  0
ARC
  5
33E
330
1F
100
AcDbEntity
  8
0
  6
Continuous
 62
     7
370
    25
100
AcDbCircle
 10
12.681582929
 20
25.9494400682
 30
0.0
 40
2.937500000000001
100
AcDbArc
 50
162.9852206085
 51
166.7725617316
  0
ARC
  5
33F
330
1F
100
AcDbEntity
  8
0
  6
Continuous
 62
     7
370
    25
100
AcDbCircle
 10
12.681582929
 20
25.9494400682
 30
0.0
 40
2.937500000000001
100
AcDbArc
 50
193.2274382684
 51
196.4382009834
  0
ARC
  5
340
330
1F
100
AcDbEntity
  8
0
  6
Continuous
 62
     7
370
    25
100
AcDbCircle
 10
12.681582929
 20
25.9494400682
 30
0.0
 40
2.937500000000002
100
AcDbArc
 50
202.8445768816
 51
218.5653264911
  0
ARC
  5
341
330
1F
100
AcDbEntity
  8
0
  6
Continuous
 62
     7
370
    25
100
AcDbCircle
 10
12.681582929
 20
25.9494400682
 30
0.0
 40
2.937499999999997
100
AcDbArc
 50
230.724944937
 51
246.5549067786
  0
LWPOLYLINE
  5
342
330
1F
100
AcDbEntity
  8
0
  6
Continuous
 62
     7
370
    25
100
AcDbPolyline
 90
        3
 70
   128
 43
0.0
 10
11.8220164586
 20
23.1405164785
 10
11.8472878539
 20
23.1329070971
 10
11.8987088554
 20
23.11818338
  0
LINE
  5
343
330
1F
100
AcDbEntity
  8
0
  6
Continuous
 62
     7
370
    25
100
AcDbLine
 10
13.4644570025
 20
23.11818338
 30
0.0
 11
13.5128396172
 21
23.132008868
 31
0.0
  0
ARC
  5
344
330
1F
100
AcDbEntity
  8
0
  6
Continuous
 62
     7
370
    25
100
AcDbCircle
 10
12.681582929
 20
25.9494400682
 30
0.0
 40
2.937500000000001
100
AcDbArc
 50
292.8445768816
 51
308.5653264911
  0
ARC
  5
345
330
1F
100
AcDbEntity
  8
0
  6
Continuous
 62
     7
370
    25
100
AcDbCircle
 10
12.681582929
 20
25.9494400682
 30
0.0
 40
2.9375
100
AcDbArc
 50
321.4346735089
 51
337.1554231184
  0
LINE
  5
346
330
1F
100
AcDbEntity
  8
0
  6
Continuous
 62
     7
370
    25
100
AcDbLine
 10
15.4990141292
 20
25.11818338
 30
0.0
 11
15.5128396172
 21
25.1665659947
 31
0.0
  0
LINE
  5
347
330
1F
100
AcDbEntity
  8
0
  6
Continuous
 62
     7
370
    25
100
AcDbLine
 10
9.4799280379
 20
29.1510949593
 30
0.0
 11
9.4799280379
 21
22.7477851772
 31
0.0
  0
LINE
  5
348
330
1F
100
AcDbEntity
  8
0
  6
Continuous
 62
     7
370
    25
100
AcDbLine
 10
9.4799280379
 20
22.7477851772
 30
0.0
 11
9.4315677184
 21
22.6994248577
 31
0.0
  0
LINE
  5
349
330
1F
100
AcDbEntity
  8
0
  6
Continuous
 62
     7
370
    25
100
AcDbLine
 10
9.4315677184
 20
29.1994552788
 30
0.0
 11
9.4315677184
 21
22.6994248577
 31
0.0
  0
LINE
  5
34A
330
1F
100
AcDbEntity
  8
0
  6
Continuous
 62
     7
370
    25
100
AcDbLine
 10
9.4799280379
 20
29.1510949593
 30
0.0
 11
9.4315677184
 21
29.1994552788
 31
0.0
  0
LINE
  5
34B
330
1F
100
AcDbEntity
  8
0
  6
Continuous
 62
     7
370
    25
100
AcDbLine
 10
15.88323782
 20
29.1510949593
 30
0.0
 11
9.4799280379
 21
29.1510949593
 31
0.0
  0
LINE
  5
34C
330
1F
100
AcDbEntity
  8
0
  6
Continuous
 62
     7
370
    25
100
AcDbLine
 10
15.9315981395
 20
29.1994552788
 30
0.0
 11
9.4315677184
 21
29.1994552788
 31
0.0
  0
LINE
  5
34D
330
1F
100
AcDbEntity
  8
0
  6
Continuous
 62
     7
370
    25
100
AcDbLine
 10
15.88323782
 20
29.1510949593
 30
0.0
 11
15.9315981395
 21
29.1994552788
 31
0.0
  0
LINE
  5
34E
330
1F
100
AcDbEntity
  8
0
  6
Continuous
 62
     7
370
    25
100
AcDbLine
 10
15.88323782
 20
22.7477851772
 30
0.0
 11
15.88323782
 21
29.1510949593
 31
0.0
  0
LINE
  5
34F
330
1F
100
AcDbEntity
  8
0
  6
Continuous
 62
     7
370
    25
100
AcDbLine
 10
15.9315981395
 20
22.6994248577
 30
0.0
 11
15.9315981395
 21
29.1994552788
 31
0.0
  0
LINE
  5
350
330
1F
100
AcDbEntity
  8
0
  6
Continuous
 62
     7
370
    25
100
AcDbLine
 10
15.88323782
 20
22.7477851772
 30
0.0
 11
15.9315981395
 21
22.6994248577
 31
0.0
  0
LINE
  5
351
330
1F
100
AcDbEntity
  8
0
  6
Continuous
 62
     7
370
    25
100
AcDbLine
 10
15.6049280379
 20
23.9010949593
 30
0.0
 11
14.7299280379
 21
23.9010949593
 31
0.0
  0
LINE
  5
352
330
1F
100
AcDbEntity
  8
0
  6
Continuous
 62
     7
370
    25
100
AcDbLine
 10
14.7299280379
 20
23.9010949593
 30
0.0
 11
14.7299280379
 21
23.0260949593
 31
0.0
  0
LINE
  5
353
330
1F
100
AcDbEntity
  8
0
  6
Continuous
 62
     7
370
    25
100
AcDbLine
 10
14.7299280379
 20
23.0260949593
 30
0.0
 11
15.6049280379
 21
23.0260949593
 31
0.0
  0
LINE
  5
354
330
1F
100
AcDbEntity
  8
0
  6
Continuous
 62
     7
370
    25
100
AcDbLine
 10
15.6049280379
 20
23.0260949593
 30
0.0
 11
15.6049280379
 21
23.9010949593
 31
0.0
  0
LINE
  5
355
330
1F
100
AcDbEntity
  8
0
  6
Continuous
 62
     7
370
    25
100
AcDbLine
 10
14.6049280379
 20
23.9010949593
 30
0.0
 11
13.7299280379
 21
23.9010949593
 31
0.0
  0
LINE
  5
356
330
1F
100
AcDbEntity
  8
0
  6
Continuous
 62
     7
370
    25
100
AcDbLine
 10
13.7299280379
 20
23.9010949593
 30
0.0
 11
13.7299280379
 21
23.0260949593
 31
0.0
  0
LINE
  5
357
330
1F
100
AcDbEntity
  8
0
  6
Continuous
 62
     7
370
    25
100
AcDbLine
 10
13.7299280379
 20
23.0260949593
 30
0.0
 11
14.6049280379
 21
23.0260949593
 31
0.0
  0
LINE
  5
358
330
1F
100
AcDbEntity
  8
0
  6
Continuous
 62
     7
370
    25
100
AcDbLine
 10
14.6049280379
 20
23.0260949593
 30
0.0
 11
14.6049280379
 21
23.9010949593
 31
0.0
  0
LINE
  5
359
330
1F
100
AcDbEntity
  8
0
  6
Continuous
 62
     7
370
    25
100
AcDbLine
 10
13.6049280379
 20
23.9010949593
 30
0.0
 11
12.7299280379
 21
23.9010949593
 31
0.0
  0
LINE
  5
35A
330
1F
100
AcDbEntity
  8
0
  6
Continuous
 62
     7
370
    25
100
AcDbLine
 10
12.7299280379
 20
23.9010949593
 30
0.0
 11
12.7299280379
 21
23.0260949593
 31
0.0
  0
LINE
  5
35B
330
1F
100
AcDbEntity
  8
0
  6
Continuous
 62
     7
370
    25
100
AcDbLine
 10
12.7299280379
 20
23.0260949593
 30
0.0
 11
13.6049280379
 21
23.0260949593
 31
0.0
  0
LINE
  5
35C
330
1F
100
AcDbEntity
  8
0
  6
Continuous
 62
     7
370
    25
100
AcDbLine
 10
13.6049280379
 20
23.0260949593
 30
0.0
 11
13.6049280379
 21
23.9010949593
 31
0.0
  0
LINE
  5
35D
330
1F
100
AcDbEntity
  8
0
  6
Continuous
 62
     7
370
    25
100
AcDbLine
 10
12.6049280379
 20
23.9010949593
 30
0.0
 11
11.7299280379
 21
23.9010949593
 31
0.0
  0
LINE
  5
35E
330
1F
100
AcDbEntity
  8
0
  6
Continuous
 62
     7
370
    25
100
AcDbLine
 10
11.7299280379
 20
23.9010949593
 30
0.0
 11
11.7299280379
 21
23.0260949593
 31
0.0
  0
LINE
  5
35F
330
1F
100
AcDbEntity
  8
0
  6
Continuous
 62
     7
370
    25
100
AcDbLine
 10
11.7299280379
 20
23.0260949593
 30
0.0
 11
12.6049280379
 21
23.0260949593
 31
0.0
  0
LINE
  5
360
330
1F
100
AcDbEntity
  8
0
  6
Continuous
 62
     7
370
    25
100
AcDbLine
 10
12.6049280379
 20
23.0260949593
 30
0.0
 11
12.6049280379
 21
23.9010949593
 31
0.0
  0
LINE
  5
361
330
1F
100
AcDbEntity
  8
0
  6
Continuous
 62
     7
370
    25
100
AcDbLine
 10
11.6049280379
 20
23.9010949593
 30
0.0
 11
10.7299280379
 21
23.9010949593
 31
0.0
  0
LINE
  5
362
330
1F
100
AcDbEntity
  8
0
  6
Continuous
 62
     7
370
    25
100
AcDbLine
 10
10.7299280379
 20
23.9010949593
 30
0.0
 11
10.7299280379
 21
23.0260949593
 31
0.0
  0
LINE
  5
363
330
1F
100
AcDbEntity
  8
0
  6
Continuous
 62
     7
370
    25
100
AcDbLine
 10
10.7299280379
 20
23.0260949593
 30
0.0
 11
11.6049280379
 21
23.0260949593
 31
0.0
  0
LINE
  5
364
330
1F
100
AcDbEntity
  8
0
  6
Continuous
 62
     7
370
    25
100
AcDbLine
 10
11.6049280379
 20
23.0260949593
 30
0.0
 11
11.6049280379
 21
23.9010949593
 31
0.0
  0
LINE
  5
365
330
1F
100
AcDbEntity
  8
0
  6
Continuous
 62
     7
370
    25
100
AcDbLine
 10
10.6049280379
 20
23.9010949593
 30
0.0
 11
9.7299280379
 21
23.9010949593
 31
0.0
  0
LINE
  5
366
330
1F
100
AcDbEntity
  8
0
  6
Continuous
 62
     7
370
    25
100
AcDbLine
 10
9.7299280379
 20
23.9010949593
 30
0.0
 11
9.7299280379
 21
23.0260949593
 31
0.0
  0
LINE
  5
367
330
1F
100
AcDbEntity
  8
0
  6
Continuous
 62
     7
370
    25
100
AcDbLine
 10
9.7299280379
 20
23.0260949593
 30
0.0
 11
10.6049280379
 21
23.0260949593
 31
0.0
  0
LINE
  5
368
330
1F
100
AcDbEntity
  8
0
  6
Continuous
 62
     7
370
    25
100
AcDbLine
 10
10.6049280379
 20
23.0260949593
 30
0.0
 11
10.6049280379
 21
23.9010949593
 31
0.0
  0
LINE
  5
369
330
1F
100
AcDbEntity
  8
0
  6
Continuous
 62
     7
370
    25
100
AcDbLine
 10
15.6049280379
 20
24.9010949593
 30
0.0
 11
14.7299280379
 21
24.9010949593
 31
0.0
  0
LINE
  5
36A
330
1F
100
AcDbEntity
  8
0
  6
Continuous
 62
     7
370
    25
100
AcDbLine
 10
14.7299280379
 20
24.9010949593
 30
0.0
 11
14.7299280379
 21
24.0260949593
 31
0.0
  0
LINE
  5
36B
330
1F
100
AcDbEntity
  8
0
  6
Continuous
 62
     7
370
    25
100
AcDbLine
 10
14.7299280379
 20
24.0260949593
 30
0.0
 11
15.6049280379
 21
24.0260949593
 31
0.0
  0
LINE
  5
36C
330
1F
100
AcDbEntity
  8
0
  6
Continuous
 62
     7
370
    25
100
AcDbLine
 10
15.6049280379
 20
24.0260949593
 30
0.0
 11
15.6049280379
 21
24.9010949593
 31
0.0
  0
LINE
  5
36D
330
1F
100
AcDbEntity
  8
0
  6
Continuous
 62
     7
370
    25
100
AcDbLine
 10
10.6049280379
 20
24.9010949593
 30
0.0
 11
9.7299280379
 21
24.9010949593
 31
0.0
  0
LINE
  5
36E
330
1F
100
AcDbEntity
  8
0
  6
Continuous
 62
     7
370
    25
100
AcDbLine
 10
9.7299280379
 20
24.9010949593
 30
0.0
 11
9.7299280379
 21
24.0260949593
 31
0.0
  0
LINE
  5
36F
330
1F
100
AcDbEntity
  8
0
  6
Continuous
 62
     7
370
    25
100
AcDbLine
 10
9.7299280379
 20
24.0260949593
 30
0.0
 11
10.6049280379
 21
24.0260949593
 31
0.0
  0
LINE
  5
370
330
1F
100
AcDbEntity
  8
0
  6
Continuous
 62
     7
370
    25
100
AcDbLine
 10
10.6049280379
 20
24.0260949593
 30
0.0
 11
10.6049280379
 21
24.9010949593
 31
0.0
  0
LINE
  5
371
330
1F
100
AcDbEntity
  8
0
  6
Continuous
 62
     7
370
    25
100
AcDbLine
 10
15.6049280379
 20
25.9010949593
 30
0.0
 11
14.7299280379
 21
25.9010949593
 31
0.0
  0
LINE
  5
372
330
1F
100
AcDbEntity
  8
0
  6
Continuous
 62
     7
370
    25
100
AcDbLine
 10
14.7299280379
 20
25.9010949593
 30
0.0
 11
14.7299280379
 21
25.0260949593
 31
0.0
  0
LINE
  5
373
330
1F
100
AcDbEntity
  8
0
  6
Continuous
 62
     7
370
    25
100
AcDbLine
 10
14.7299280379
 20
25.0260949593
 30
0.0
 11
15.6049280379
 21
25.0260949593
 31
0.0
  0
LINE
  5
374
330
1F
100
AcDbEntity
  8
0
  6
Continuous
 62
     7
370
    25
100
AcDbLine
 10
15.6049280379
 20
25.0260949593
 30
0.0
 11
15.6049280379
 21
25.9010949593
 31
0.0
  0
LINE
  5
375
330
1F
100
AcDbEntity
  8
0
  6
Continuous
 62
     7
370
    25
100
AcDbLine
 10
10.6049280379
 20
25.9010949593
 30
0.0
 11
9.7299280379
 21
25.9010949593
 31
0.0
  0
LINE
  5
376
330
1F
100
AcDbEntity
  8
0
  6
Continuous
 62
     7
370
    25
100
AcDbLine
 10
9.7299280379
 20
25.9010949593
 30
0.0
 11
9.7299280379
 21
25.0260949593
 31
0.0
  0
LINE
  5
377
330
1F
100
AcDbEntity
  8
0
  6
Continuous
 62
     7
370
    25
100
AcDbLine
 10
9.7299280379
 20
25.0260949593
 30
0.0
 11
10.6049280379
 21
25.0260949593
 31
0.0
  0
LINE
  5
378
330
1F
100
AcDbEntity
  8
0
  6
Continuous
 62
     7
370
    25
100
AcDbLine
 10
10.6049280379
 20
25.0260949593
 30
0.0
 11
10.6049280379
 21
25.9010949593
 31
0.0
  0
LINE
  5
379
330
1F
100
AcDbEntity
  8
0
  6
Continuous
 62
     7
370
    25
100
AcDbLine
 10
15.6049280379
 20
26.9010949593
 30
0.0
 11
14.7299280379
 21
26.9010949593
 31
0.0
  0
LINE
  5
37A
330
1F
100
AcDbEntity
  8
0
  6
Continuous
 62
     7
370
    25
100
AcDbLine
 10
14.7299280379
 20
26.9010949593
 30
0.0
 11
14.7299280379
 21
26.0260949593
 31
0.0
  0
LINE
  5
37B
330
1F
100
AcDbEntity
  8
0
  6
Continuous
 62
     7
370
    25
100
AcDbLine
 10
14.7299280379
 20
26.0260949593
 30
0.0
 11
15.6049280379
 21
26.0260949593
 31
0.0
  0
LINE
  5
37C
330
1F
100
AcDbEntity
  8
0
  6
Continuous
 62
     7
370
    25
100
AcDbLine
 10
15.6049280379
 20
26.0260949593
 30
0.0
 11
15.6049280379
 21
26.9010949593
 31
0.0
  0
LINE
  5
37D
330
1F
100
AcDbEntity
  8
0
  6
Continuous
 62
     7
370
    25
100
AcDbLine
 10
10.6049280379
 20
26.9010949593
 30
0.0
 11
9.7299280379
 21
26.9010949593
 31
0.0
  0
LINE
  5
37E
330
1F
100
AcDbEntity
  8
0
  6
Continuous
 62
     7
370
    25
100
AcDbLine
 10
9.7299280379
 20
26.9010949593
 30
0.0
 11
9.7299280379
 21
26.0260949593
 31
0.0
  0
LINE
  5
37F
330
1F
100
AcDbEntity
  8
0
  6
Continuous
 62
     7
370
    25
100
AcDbLine
 10
9.7299280379
 20
26.0260949593
 30
0.0
 11
10.6049280379
 21
26.0260949593
 31
0.0
  0
LINE
  5
380
330
1F
100
AcDbEntity
  8
0
  6
Continuous
 62
     7
370
    25
100
AcDbLine
 10
10.6049280379
 20
26.0260949593
 30
0.0
 11
10.6049280379
 21
26.9010949593
 31
0.0
  0
LINE
  5
381
330
1F
100
AcDbEntity
  8
0
  6
Continuous
 62
     7
370
    25
100
AcDbLine
 10
15.6049280379
 20
27.9010949593
 30
0.0
 11
14.7299280379
 21
27.9010949593
 31
0.0
  0
LINE
  5
382
330
1F
100
AcDbEntity
  8
0
  6
Continuous
 62
     7
370
    25
100
AcDbLine
 10
14.7299280379
 20
27.9010949593
 30
0.0
 11
14.7299280379
 21
27.0260949593
 31
0.0
  0
LINE
  5
383
330
1F
100
AcDbEntity
  8
0
  6
Continuous
 62
     7
370
    25
100
AcDbLine
 10
14.7299280379
 20
27.0260949593
 30
0.0
 11
15.6049280379
 21
27.0260949593
 31
0.0
  0
LINE
  5
384
330
1F
100
AcDbEntity
  8
0
  6
Continuous
 62
     7
370
    25
100
AcDbLine
 10
15.6049280379
 20
27.0260949593
 30
0.0
 11
15.6049280379
 21
27.9010949593
 31
0.0
  0
LINE
  5
385
330
1F
100
AcDbEntity
  8
0
  6
Continuous
 62
     7
370
    25
100
AcDbLine
 10
10.6049280379
 20
27.9010949593
 30
0.0
 11
9.7299280379
 21
27.9010949593
 31
0.0
  0
LINE
  5
386
330
1F
100
AcDbEntity
  8
0
  6
Continuous
 62
     7
370
    25
100
AcDbLine
 10
9.7299280379
 20
27.9010949593
 30
0.0
 11
9.7299280379
 21
27.0260949593
 31
0.0
  0
LINE
  5
387
330
1F
100
AcDbEntity
  8
0
  6
Continuous
 62
     7
370
    25
100
AcDbLine
 10
9.7299280379
 20
27.0260949593
 30
0.0
 11
10.6049280379
 21
27.0260949593
 31
0.0
  0
LINE
  5
388
330
1F
100
AcDbEntity
  8
0
  6
Continuous
 62
     7
370
    25
100
AcDbLine
 10
10.6049280379
 20
27.0260949593
 30
0.0
 11
10.6049280379
 21
27.9010949593
 31
0.0
  0
LINE
  5
389
330
1F
100
AcDbEntity
  8
0
  6
Continuous
 62
     7
370
    25
100
AcDbLine
 10
15.6049280379
 20
28.9010949593
 30
0.0
 11
14.7299280379
 21
28.9010949593
 31
0.0
  0
LINE
  5
38A
330
1F
100
AcDbEntity
  8
0
  6
Continuous
 62
     7
370
    25
100
AcDbLine
 10
14.7299280379
 20
28.9010949593
 30
0.0
 11
14.7299280379
 21
28.0260949593
 31
0.0
  0
LINE
  5
38B
330
1F
100
AcDbEntity
  8
0
  6
Continuous
 62
     7
370
    25
100
AcDbLine
 10
14.7299280379
 20
28.0260949593
 30
0.0
 11
15.6049280379
 21
28.0260949593
 31
0.0
  0
LINE
  5
38C
330
1F
100
AcDbEntity
  8
0
  6
Continuous
 62
     7
370
    25
100
AcDbLine
 10
15.6049280379
 20
28.0260949593
 30
0.0
 11
15.6049280379
 21
28.9010949593
 31
0.0
  0
LINE
  5
38D
330
1F
100
AcDbEntity
  8
0
  6
Continuous
 62
     7
370
    25
100
AcDbLine
 10
14.6049280379
 20
28.9010949593
 30
0.0
 11
13.7299280379
 21
28.9010949593
 31
0.0
  0
LINE
  5
38E
330
1F
100
AcDbEntity
  8
0
  6
Continuous
 62
     7
370
    25
100
AcDbLine
 10
13.7299280379
 20
28.9010949593
 30
0.0
 11
13.7299280379
 21
28.0260949593
 31
0.0
  0
LINE
  5
38F
330
1F
100
AcDbEntity
  8
0
  6
Continuous
 62
     7
370
    25
100
AcDbLine
 10
13.7299280379
 20
28.0260949593
 30
0.0
 11
14.6049280379
 21
28.0260949593
 31
0.0
  0
LINE
  5
390
330
1F
100
AcDbEntity
  8
0
  6
Continuous
 62
     7
370
    25
100
AcDbLine
 10
14.6049280379
 20
28.0260949593
 30
0.0
 11
14.6049280379
 21
28.9010949593
 31
0.0
  0
LINE
  5
391
330
1F
100
AcDbEntity
  8
0
  6
Continuous
 62
     7
370
    25
100
AcDbLine
 10
13.6049280379
 20
28.9010949593
 30
0.0
 11
12.7299280379
 21
28.9010949593
 31
0.0
  0
LINE
  5
392
330
1F
100
AcDbEntity
  8
0
  6
Continuous
 62
     7
370
    25
100
AcDbLine
 10
12.7299280379
 20
28.9010949593
 30
0.0
 11
12.7299280379
 21
28.0260949593
 31
0.0
  0
LINE
  5
393
330
1F
100
AcDbEntity
  8
0
  6
Continuous
 62
     7
370
    25
100
AcDbLine
 10
12.7299280379
 20
28.0260949593
 30
0.0
 11
13.6049280379
 21
28.0260949593
 31
0.0
  0
LINE
  5
394
330
1F
100
AcDbEntity
  8
0
  6
Continuous
 62
     7
370
    25
100
AcDbLine
 10
13.6049280379
 20
28.0260949593
 30
0.0
 11
13.6049280379
 21
28.9010949593
 31
0.0
  0
LINE
  5
395
330
1F
100
AcDbEntity
  8
0
  6
Continuous
 62
     7
370
    25
100
AcDbLine
 10
12.6049280379
 20
28.9010949593
 30
0.0
 11
11.7299280379
 21
28.9010949593
 31
0.0
  0
LINE
  5
396
330
1F
100
AcDbEntity
  8
0
  6
Continuous
 62
     7
370
    25
100
AcDbLine
 10
11.7299280379
 20
28.9010949593
 30
0.0
 11
11.7299280379
 21
28.0260949593
 31
0.0
  0
LINE
  5
397
330
1F
100
AcDbEntity
  8
0
  6
Continuous
 62
     7
370
    25
100
AcDbLine
 10
11.7299280379
 20
28.0260949593
 30
0.0
 11
12.6049280379
 21
28.0260949593
 31
0.0
  0
LINE
  5
398
330
1F
100
AcDbEntity
  8
0
  6
Continuous
 62
     7
370
    25
100
AcDbLine
 10
12.6049280379
 20
28.0260949593
 30
0.0
 11
12.6049280379
 21
28.9010949593
 31
0.0
  0
LINE
  5
399
330
1F
100
AcDbEntity
  8
0
  6
Continuous
 62
     7
370
    25
100
AcDbLine
 10
14.6049280379
 20
24.9010949593
 30
0.0
 11
13.7299280379
 21
24.9010949593
 31
0.0
  0
LINE
  5
39A
330
1F
100
AcDbEntity
  8
0
  6
Continuous
 62
     7
370
    25
100
AcDbLine
 10
13.7299280379
 20
24.9010949593
 30
0.0
 11
13.7299280379
 21
24.0260949593
 31
0.0
  0
LINE
  5
39B
330
1F
100
AcDbEntity
  8
0
  6
Continuous
 62
     7
370
    25
100
AcDbLine
 10
13.7299280379
 20
24.0260949593
 30
0.0
 11
14.6049280379
 21
24.0260949593
 31
0.0
  0
LINE
  5
39C
330
1F
100
AcDbEntity
  8
0
  6
Continuous
 62
     7
370
    25
100
AcDbLine
 10
14.6049280379
 20
24.0260949593
 30
0.0
 11
14.6049280379
 21
24.9010949593
 31
0.0
  0
LINE
  5
39D
330
1F
100
AcDbEntity
  8
0
  6
Continuous
 62
     7
370
    25
100
AcDbLine
 10
13.6049280379
 20
24.9010949593
 30
0.0
 11
12.7299280379
 21
24.9010949593
 31
0.0
  0
LINE
  5
39E
330
1F
100
AcDbEntity
  8
0
  6
Continuous
 62
     7
370
    25
100
AcDbLine
 10
12.7299280379
 20
24.9010949593
 30
0.0
 11
12.7299280379
 21
24.0260949593
 31
0.0
  0
LINE
  5
39F
330
1F
100
AcDbEntity
  8
0
  6
Continuous
 62
     7
370
    25
100
AcDbLine
 10
12.7299280379
 20
24.0260949593
 30
0.0
 11
13.6049280379
 21
24.0260949593
 31
0.0
  0
LINE
  5
3A0
330
1F
100
AcDbEntity
  8
0
  6
Continuous
 62
     7
370
    25
100
AcDbLine
 10
13.6049280379
 20
24.0260949593
 30
0.0
 11
13.6049280379
 21
24.9010949593
 31
0.0
  0
LINE
  5
3A1
330
1F
100
AcDbEntity
  8
0
  6
Continuous
 62
     7
370
    25
100
AcDbLine
 10
12.6049280379
 20
24.9010949593
 30
0.0
 11
11.7299280379
 21
24.9010949593
 31
0.0
  0
LINE
  5
3A2
330
1F
100
AcDbEntity
  8
0
  6
Continuous
 62
     7
370
    25
100
AcDbLine
 10
11.7299280379
 20
24.9010949593
 30
0.0
 11
11.7299280379
 21
24.0260949593
 31
0.0
  0
LINE
  5
3A3
330
1F
100
AcDbEntity
  8
0
  6
Continuous
 62
     7
370
    25
100
AcDbLine
 10
11.7299280379
 20
24.0260949593
 30
0.0
 11
12.6049280379
 21
24.0260949593
 31
0.0
  0
LINE
  5
3A4
330
1F
100
AcDbEntity
  8
0
  6
Continuous
 62
     7
370
    25
100
AcDbLine
 10
12.6049280379
 20
24.0260949593
 30
0.0
 11
12.6049280379
 21
24.9010949593
 31
0.0
  0
LINE
  5
3A5
330
1F
100
AcDbEntity
  8
0
  6
Continuous
 62
     7
370
    25
100
AcDbLine
 10
11.6049280379
 20
24.9010949593
 30
0.0
 11
10.7299280379
 21
24.9010949593
 31
0.0
  0
LINE
  5
3A6
330
1F
100
AcDbEntity
  8
0
  6
Continuous
 62
     7
370
    25
100
AcDbLine
 10
10.7299280379
 20
24.9010949593
 30
0.0
 11
10.7299280379
 21
24.0260949593
 31
0.0
  0
LINE
  5
3A7
330
1F
100
AcDbEntity
  8
0
  6
Continuous
 62
     7
370
    25
100
AcDbLine
 10
10.7299280379
 20
24.0260949593
 30
0.0
 11
11.6049280379
 21
24.0260949593
 31
0.0
  0
LINE
  5
3A8
330
1F
100
AcDbEntity
  8
0
  6
Continuous
 62
     7
370
    25
100
AcDbLine
 10
11.6049280379
 20
24.0260949593
 30
0.0
 11
11.6049280379
 21
24.9010949593
 31
0.0
  0
LINE
  5
3A9
330
1F
100
AcDbEntity
  8
0
  6
Continuous
 62
     7
370
    25
100
AcDbLine
 10
14.6049280379
 20
25.9010949593
 30
0.0
 11
13.7299280379
 21
25.9010949593
 31
0.0
  0
LINE
  5
3AA
330
1F
100
AcDbEntity
  8
0
  6
Continuous
 62
     7
370
    25
100
AcDbLine
 10
13.7299280379
 20
25.9010949593
 30
0.0
 11
13.7299280379
 21
25.0260949593
 31
0.0
  0
LINE
  5
3AB
330
1F
100
AcDbEntity
  8
0
  6
Continuous
 62
     7
370
    25
100
AcDbLine
 10
13.7299280379
 20
25.0260949593
 30
0.0
 11
14.6049280379
 21
25.0260949593
 31
0.0
  0
LINE
  5
3AC
330
1F
100
AcDbEntity
  8
0
  6
Continuous
 62
     7
370
    25
100
AcDbLine
 10
14.6049280379
 20
25.0260949593
 30
0.0
 11
14.6049280379
 21
25.9010949593
 31
0.0
  0
LINE
  5
3AD
330
1F
100
AcDbEntity
  8
0
  6
Continuous
 62
     7
370
    25
100
AcDbLine
 10
13.6049280379
 20
25.9010949593
 30
0.0
 11
12.7299280379
 21
25.9010949593
 31
0.0
  0
LINE
  5
3AE
330
1F
100
AcDbEntity
  8
0
  6
Continuous
 62
     7
370
    25
100
AcDbLine
 10
12.7299280379
 20
25.9010949593
 30
0.0
 11
12.7299280379
 21
25.0260949593
 31
0.0
  0
LINE
  5
3AF
330
1F
100
AcDbEntity
  8
0
  6
Continuous
 62
     7
370
    25
100
AcDbLine
 10
12.7299280379
 20
25.0260949593
 30
0.0
 11
13.6049280379
 21
25.0260949593
 31
0.0
  0
LINE
  5
3B0
330
1F
100
AcDbEntity
  8
0
  6
Continuous
 62
     7
370
    25
100
AcDbLine
 10
13.6049280379
 20
25.0260949593
 30
0.0
 11
13.6049280379
 21
25.9010949593
 31
0.0
  0
LINE
  5
3B1
330
1F
100
AcDbEntity
  8
0
  6
Continuous
 62
     7
370
    25
100
AcDbLine
 10
12.6049280379
 20
25.9010949593
 30
0.0
 11
11.7299280379
 21
25.9010949593
 31
0.0
  0
LINE
  5
3B2
330
1F
100
AcDbEntity
  8
0
  6
Continuous
 62
     7
370
    25
100
AcDbLine
 10
11.7299280379
 20
25.9010949593
 30
0.0
 11
11.7299280379
 21
25.0260949593
 31
0.0
  0
LINE
  5
3B3
330
1F
100
AcDbEntity
  8
0
  6
Continuous
 62
     7
370
    25
100
AcDbLine
 10
11.7299280379
 20
25.0260949593
 30
0.0
 11
12.6049280379
 21
25.0260949593
 31
0.0
  0
LINE
  5
3B4
330
1F
100
AcDbEntity
  8
0
  6
Continuous
 62
     7
370
    25
100
AcDbLine
 10
12.6049280379
 20
25.0260949593
 30
0.0
 11
12.6049280379
 21
25.9010949593
 31
0.0
  0
LINE
  5
3B5
330
1F
100
AcDbEntity
  8
0
  6
Continuous
 62
     7
370
    25
100
AcDbLine
 10
11.6049280379
 20
25.9010949593
 30
0.0
 11
10.7299280379
 21
25.9010949593
 31
0.0
  0
LINE
  5
3B6
330
1F
100
AcDbEntity
  8
0
  6
Continuous
 62
     7
370
    25
100
AcDbLine
 10
10.7299280379
 20
25.9010949593
 30
0.0
 11
10.7299280379
 21
25.0260949593
 31
0.0
  0
LINE
  5
3B7
330
1F
100
AcDbEntity
  8
0
  6
Continuous
 62
     7
370
    25
100
AcDbLine
 10
10.7299280379
 20
25.0260949593
 30
0.0
 11
11.6049280379
 21
25.0260949593
 31
0.0
  0
LINE
  5
3B8
330
1F
100
AcDbEntity
  8
0
  6
Continuous
 62
     7
370
    25
100
AcDbLine
 10
11.6049280379
 20
25.0260949593
 30
0.0
 11
11.6049280379
 21
25.9010949593
 31
0.0
  0
LINE
  5
3B9
330
1F
100
AcDbEntity
  8
0
  6
Continuous
 62
     7
370
    25
100
AcDbLine
 10
14.6049280379
 20
26.9010949593
 30
0.0
 11
13.7299280379
 21
26.9010949593
 31
0.0
  0
LINE
  5
3BA
330
1F
100
AcDbEntity
  8
0
  6
Continuous
 62
     7
370
    25
100
AcDbLine
 10
13.7299280379
 20
26.9010949593
 30
0.0
 11
13.7299280379
 21
26.0260949593
 31
0.0
  0
LINE
  5
3BB
330
1F
100
AcDbEntity
  8
0
  6
Continuous
 62
     7
370
    25
100
AcDbLine
 10
13.7299280379
 20
26.0260949593
 30
0.0
 11
14.6049280379
 21
26.0260949593
 31
0.0
  0
LINE
  5
3BC
330
1F
100
AcDbEntity
  8
0
  6
Continuous
 62
     7
370
    25
100
AcDbLine
 10
14.6049280379
 20
26.0260949593
 30
0.0
 11
14.6049280379
 21
26.9010949593
 31
0.0
  0
LINE
  5
3BD
330
1F
100
AcDbEntity
  8
0
  6
Continuous
 62
     7
370
    25
100
AcDbLine
 10
13.6049280379
 20
26.9010949593
 30
0.0
 11
12.7299280379
 21
26.9010949593
 31
0.0
  0
LINE
  5
3BE
330
1F
100
AcDbEntity
  8
0
  6
Continuous
 62
     7
370
    25
100
AcDbLine
 10
12.7299280379
 20
26.9010949593
 30
0.0
 11
12.7299280379
 21
26.0260949593
 31
0.0
  0
LINE
  5
3BF
330
1F
100
AcDbEntity
  8
0
  6
Continuous
 62
     7
370
    25
100
AcDbLine
 10
12.7299280379
 20
26.0260949593
 30
0.0
 11
13.6049280379
 21
26.0260949593
 31
0.0
  0
LINE
  5
3C0
330
1F
100
AcDbEntity
  8
0
  6
Continuous
 62
     7
370
    25
100
AcDbLine
 10
13.6049280379
 20
26.0260949593
 30
0.0
 11
13.6049280379
 21
26.9010949593
 31
0.0
  0
LINE
  5
3C1
330
1F
100
AcDbEntity
  8
0
  6
Continuous
 62
     7
370
    25
100
AcDbLine
 10
12.6049280379
 20
26.9010949593
 30
0.0
 11
11.7299280379
 21
26.9010949593
 31
0.0
  0
LINE
  5
3C2
330
1F
100
AcDbEntity
  8
0
  6
Continuous
 62
     7
370
    25
100
AcDbLine
 10
11.7299280379
 20
26.9010949593
 30
0.0
 11
11.7299280379
 21
26.0260949593
 31
0.0
  0
LINE
  5
3C3
330
1F
100
AcDbEntity
  8
0
  6
Continuous
 62
     7
370
    25
100
AcDbLine
 10
11.7299280379
 20
26.0260949593
 30
0.0
 11
12.6049280379
 21
26.0260949593
 31
0.0
  0
LINE
  5
3C4
330
1F
100
AcDbEntity
  8
0
  6
Continuous
 62
     7
370
    25
100
AcDbLine
 10
12.6049280379
 20
26.0260949593
 30
0.0
 11
12.6049280379
 21
26.9010949593
 31
0.0
  0
LINE
  5
3C5
330
1F
100
AcDbEntity
  8
0
  6
Continuous
 62
     7
370
    25
100
AcDbLine
 10
11.6049280379
 20
26.9010949593
 30
0.0
 11
10.7299280379
 21
26.9010949593
 31
0.0
  0
LINE
  5
3C6
330
1F
100
AcDbEntity
  8
0
  6
Continuous
 62
     7
370
    25
100
AcDbLine
 10
10.7299280379
 20
26.9010949593
 30
0.0
 11
10.7299280379
 21
26.0260949593
 31
0.0
  0
LINE
  5
3C7
330
1F
100
AcDbEntity
  8
0
  6
Continuous
 62
     7
370
    25
100
AcDbLine
 10
10.7299280379
 20
26.0260949593
 30
0.0
 11
11.6049280379
 21
26.0260949593
 31
0.0
  0
LINE
  5
3C8
330
1F
100
AcDbEntity
  8
0
  6
Continuous
 62
     7
370
    25
100
AcDbLine
 10
11.6049280379
 20
26.0260949593
 30
0.0
 11
11.6049280379
 21
26.9010949593
 31
0.0
  0
LINE
  5
3C9
330
1F
100
AcDbEntity
  8
0
  6
Continuous
 62
     7
370
    25
100
AcDbLine
 10
14.6049280379
 20
27.9010949593
 30
0.0
 11
13.7299280379
 21
27.9010949593
 31
0.0
  0
LINE
  5
3CA
330
1F
100
AcDbEntity
  8
0
  6
Continuous
 62
     7
370
    25
100
AcDbLine
 10
13.7299280379
 20
27.9010949593
 30
0.0
 11
13.7299280379
 21
27.0260949593
 31
0.0
  0
LINE
  5
3CB
330
1F
100
AcDbEntity
  8
0
  6
Continuous
 62
     7
370
    25
100
AcDbLine
 10
13.7299280379
 20
27.0260949593
 30
0.0
 11
14.6049280379
 21
27.0260949593
 31
0.0
  0
LINE
  5
3CC
330
1F
100
AcDbEntity
  8
0
  6
Continuous
 62
     7
370
    25
100
AcDbLine
 10
14.6049280379
 20
27.0260949593
 30
0.0
 11
14.6049280379
 21
27.9010949593
 31
0.0
  0
LINE
  5
3CD
330
1F
100
AcDbEntity
  8
0
  6
Continuous
 62
     7
370
    25
100
AcDbLine
 10
13.6049280379
 20
27.9010949593
 30
0.0
 11
12.7299280379
 21
27.9010949593
 31
0.0
  0
LINE
  5
3CE
330
1F
100
AcDbEntity
  8
0
  6
Continuous
 62
     7
370
    25
100
AcDbLine
 10
12.7299280379
 20
27.9010949593
 30
0.0
 11
12.7299280379
 21
27.0260949593
 31
0.0
  0
LINE
  5
3CF
330
1F
100
AcDbEntity
  8
0
  6
Continuous
 62
     7
370
    25
100
AcDbLine
 10
12.7299280379
 20
27.0260949593
 30
0.0
 11
13.6049280379
 21
27.0260949593
 31
0.0
  0
LINE
  5
3D0
330
1F
100
AcDbEntity
  8
0
  6
Continuous
 62
     7
370
    25
100
AcDbLine
 10
13.6049280379
 20
27.0260949593
 30
0.0
 11
13.6049280379
 21
27.9010949593
 31
0.0
  0
LINE
  5
3D1
330
1F
100
AcDbEntity
  8
0
  6
Continuous
 62
     7
370
    25
100
AcDbLine
 10
12.6049280379
 20
27.9010949593
 30
0.0
 11
11.7299280379
 21
27.9010949593
 31
0.0
  0
LINE
  5
3D2
330
1F
100
AcDbEntity
  8
0
  6
Continuous
 62
     7
370
    25
100
AcDbLine
 10
11.7299280379
 20
27.9010949593
 30
0.0
 11
11.7299280379
 21
27.0260949593
 31
0.0
  0
LINE
  5
3D3
330
1F
100
AcDbEntity
  8
0
  6
Continuous
 62
     7
370
    25
100
AcDbLine
 10
11.7299280379
 20
27.0260949593
 30
0.0
 11
12.6049280379
 21
27.0260949593
 31
0.0
  0
LINE
  5
3D4
330
1F
100
AcDbEntity
  8
0
  6
Continuous
 62
     7
370
    25
100
AcDbLine
 10
12.6049280379
 20
27.0260949593
 30
0.0
 11
12.6049280379
 21
27.9010949593
 31
0.0
  0
LINE
  5
3D5
330
1F
100
AcDbEntity
  8
0
  6
Continuous
 62
     7
370
    25
100
AcDbLine
 10
9.4799280379
 20
22.7477851772
 30
0.0
 11
15.88323782
 21
22.7477851772
 31
0.0
  0
LINE
  5
3D6
330
1F
100
AcDbEntity
  8
0
  6
Continuous
 62
     7
370
    25
100
AcDbLine
 10
10.6049280379
 20
28.9010949593
 30
0.0
 11
9.7299280379
 21
28.9010949593
 31
0.0
  0
LINE
  5
3D7
330
1F
100
AcDbEntity
  8
0
  6
Continuous
 62
     7
370
    25
100
AcDbLine
 10
9.7299280379
 20
28.9010949593
 30
0.0
 11
9.7299280379
 21
28.0260949593
 31
0.0
  0
LINE
  5
3D8
330
1F
100
AcDbEntity
  8
0
  6
Continuous
 62
     7
370
    25
100
AcDbLine
 10
9.7299280379
 20
28.0260949593
 30
0.0
 11
10.6049280379
 21
28.0260949593
 31
0.0
  0
LINE
  5
3D9
330
1F
100
AcDbEntity
  8
0
  6
Continuous
 62
     7
370
    25
100
AcDbLine
 10
10.6049280379
 20
28.0260949593
 30
0.0
 11
10.6049280379
 21
28.9010949593
 31
0.0
  0
LINE
  5
3DA
330
1F
100
AcDbEntity
  8
0
  6
Continuous
 62
     7
370
    25
100
AcDbLine
 10
11.6049280379
 20
27.9010949593
 30
0.0
 11
10.7299280379
 21
27.9010949593
 31
0.0
  0
LINE
  5
3DB
330
1F
100
AcDbEntity
  8
0
  6
Continuous
 62
     7
370
    25
100
AcDbLine
 10
10.7299280379
 20
27.9010949593
 30
0.0
 11
10.7299280379
 21
27.0260949593
 31
0.0
  0
LINE
  5
3DC
330
1F
100
AcDbEntity
  8
0
  6
Continuous
 62
     7
370
    25
100
AcDbLine
 10
10.7299280379
 20
27.0260949593
 30
0.0
 11
11.6049280379
 21
27.0260949593
 31
0.0
  0
LINE
  5
3DD
330
1F
100
AcDbEntity
  8
0
  6
Continuous
 62
     7
370
    25
100
AcDbLine
 10
11.6049280379
 20
27.0260949593
 30
0.0
 11
11.6049280379
 21
27.9010949593
 31
0.0
  0
LINE
  5
3DE
330
1F
100
AcDbEntity
  8
0
  6
Continuous
 62
     7
370
    25
100
AcDbLine
 10
11.6049280379
 20
28.9010949593
 30
0.0
 11
10.7299280379
 21
28.9010949593
 31
0.0
  0
LINE
  5
3DF
330
1F
100
AcDbEntity
  8
0
  6
Continuous
 62
     7
370
    25
100
AcDbLine
 10
10.7299280379
 20
28.9010949593
 30
0.0
 11
10.7299280379
 21
28.0260949593
 31
0.0
  0
LINE
  5
3E0
330
1F
100
AcDbEntity
  8
0
  6
Continuous
 62
     7
370
    25
100
AcDbLine
 10
10.7299280379
 20
28.0260949593
 30
0.0
 11
11.6049280379
 21
28.0260949593
 31
0.0
  0
LINE
  5
3E1
330
1F
100
AcDbEntity
  8
0
  6
Continuous
 62
     7
370
    25
100
AcDbLine
 10
11.6049280379
 20
28.0260949593
 30
0.0
 11
11.6049280379
 21
28.9010949593
 31
0.0
  0
LINE
  5
3E2
330
1F
100
AcDbEntity
  8
0
  6
Continuous
 62
     7
370
    25
100
AcDbLine
 10
12.5128396172
 20
28.8090065386
 30
0.0
 11
12.6049280379
 21
28.9010949593
 31
0.0
  0
LINE
  5
3E3
330
1F
100
AcDbEntity
  8
0
  6
Continuous
 62
     7
370
    25
100
AcDbLine
 10
12.5128396172
 20
28.11818338
 30
0.0
 11
12.6049280379
 21
28.0260949593
 31
0.0
  0
LINE
  5
3E4
330
1F
100
AcDbEntity
  8
0
  6
Continuous
 62
     7
370
    25
100
AcDbLine
 10
12.5128396172
 20
28.8090065386
 30
0.0
 11
12.5128396172
 21
28.11818338
 31
0.0
  0
LINE
  5
3E5
330
1F
100
AcDbEntity
  8
0
  6
Continuous
 62
     7
370
    25
100
AcDbLine
 10
10.5281876873
 20
28.8243546087
 30
0.0
 11
10.6049280379
 21
28.9010949593
 31
0.0
  0
LINE
  5
3E6
330
1F
100
AcDbEntity
  8
0
  6
Continuous
 62
     7
370
    25
100
AcDbLine
 10
10.5281876873
 20
28.1028353098
 30
0.0
 11
10.6049280379
 21
28.0260949593
 31
0.0
  0
LINE
  5
3E7
330
1F
100
AcDbEntity
  8
0
  6
Continuous
 62
     7
370
    25
100
AcDbLine
 10
10.5281876873
 20
28.8243546087
 30
0.0
 11
10.5281876873
 21
28.1028353098
 31
0.0
  0
LINE
  5
3E8
330
1F
100
AcDbEntity
  8
0
  6
Continuous
 62
     7
370
    25
100
AcDbLine
 10
10.8220164586
 20
28.8090065386
 30
0.0
 11
10.7299280379
 21
28.9010949593
 31
0.0
  0
LINE
  5
3E9
330
1F
100
AcDbEntity
  8
0
  6
Continuous
 62
     7
370
    25
100
AcDbLine
 10
11.5128396172
 20
28.8090065386
 30
0.0
 11
11.6049280379
 21
28.9010949593
 31
0.0
  0
LINE
  5
3EA
330
1F
100
AcDbEntity
  8
0
  6
Continuous
 62
     7
370
    25
100
AcDbLine
 10
10.8220164586
 20
28.8090065386
 30
0.0
 11
11.5128396172
 21
28.8090065386
 31
0.0
  0
LINE
  5
3EB
330
1F
100
AcDbEntity
  8
0
  6
Continuous
 62
     7
370
    25
100
AcDbLine
 10
11.8220164586
 20
28.8090065386
 30
0.0
 11
11.7299280379
 21
28.9010949593
 31
0.0
  0
LINE
  5
3EC
330
1F
100
AcDbEntity
  8
0
  6
Continuous
 62
     7
370
    25
100
AcDbLine
 10
11.8220164586
 20
28.8090065386
 30
0.0
 11
12.5128396172
 21
28.8090065386
 31
0.0
  0
LINE
  5
3ED
330
1F
100
AcDbEntity
  8
0
  6
Continuous
 62
     7
370
    25
100
AcDbLine
 10
13.8220164586
 20
28.8090065386
 30
0.0
 11
13.7299280379
 21
28.9010949593
 31
0.0
  0
LINE
  5
3EE
330
1F
100
AcDbEntity
  8
0
  6
Continuous
 62
     7
370
    25
100
AcDbLine
 10
14.5128396172
 20
28.8090065386
 30
0.0
 11
14.6049280379
 21
28.9010949593
 31
0.0
  0
LINE
  5
3EF
330
1F
100
AcDbEntity
  8
0
  6
Continuous
 62
     7
370
    25
100
AcDbLine
 10
13.8220164586
 20
28.8090065386
 30
0.0
 11
14.5128396172
 21
28.8090065386
 31
0.0
  0
LINE
  5
3F0
330
1F
100
AcDbEntity
  8
0
  6
Continuous
 62
     7
370
    25
100
AcDbLine
 10
14.8066683885
 20
28.1028353098
 30
0.0
 11
14.7299280379
 21
28.0260949593
 31
0.0
  0
LINE
  5
3F1
330
1F
100
AcDbEntity
  8
0
  6
Continuous
 62
     7
370
    25
100
AcDbLine
 10
14.8066683885
 20
28.8243546087
 30
0.0
 11
14.7299280379
 21
28.9010949593
 31
0.0
  0
LINE
  5
3F2
330
1F
100
AcDbEntity
  8
0
  6
Continuous
 62
     7
370
    25
100
AcDbLine
 10
14.8066683885
 20
28.1028353098
 30
0.0
 11
14.8066683885
 21
28.8243546087
 31
0.0
  0
LINE
  5
3F3
330
1F
100
AcDbEntity
  8
0
  6
Continuous
 62
     7
370
    25
100
AcDbLine
 10
9.8066683885
 20
28.1028353098
 30
0.0
 11
9.7299280379
 21
28.0260949593
 31
0.0
  0
LINE
  5
3F4
330
1F
100
AcDbEntity
  8
0
  6
Continuous
 62
     7
370
    25
100
AcDbLine
 10
9.8066683885
 20
28.8243546087
 30
0.0
 11
9.7299280379
 21
28.9010949593
 31
0.0
  0
LINE
  5
3F5
330
1F
100
AcDbEntity
  8
0
  6
Continuous
 62
     7
370
    25
100
AcDbLine
 10
9.8066683885
 20
28.1028353098
 30
0.0
 11
9.8066683885
 21
28.8243546087
 31
0.0
  0
LINE
  5
3F6
330
1F
100
AcDbEntity
  8
0
  6
Continuous
 62
     7
370
    25
100
AcDbLine
 10
12.8220164586
 20
28.8090065386
 30
0.0
 11
12.7299280379
 21
28.9010949593
 31
0.0
  0
LINE
  5
3F7
330
1F
100
AcDbEntity
  8
0
  6
Continuous
 62
     7
370
    25
100
AcDbLine
 10
13.5128396172
 20
28.8090065386
 30
0.0
 11
13.6049280379
 21
28.9010949593
 31
0.0
  0
LINE
  5
3F8
330
1F
100
AcDbEntity
  8
0
  6
Continuous
 62
     7
370
    25
100
AcDbLine
 10
12.8220164586
 20
28.8090065386
 30
0.0
 11
13.5128396172
 21
28.8090065386
 31
0.0
  0
LINE
  5
3F9
330
1F
100
AcDbEntity
  8
0
  6
Continuous
 62
     7
370
    25
100
AcDbLine
 10
9.8066683885
 20
28.8243546087
 30
0.0
 11
10.5281876873
 21
28.8243546087
 31
0.0
  0
LINE
  5
3FA
330
1F
100
AcDbEntity
  8
0
  6
Continuous
 62
     7
370
    25
100
AcDbLine
 10
15.5281876873
 20
28.8243546087
 30
0.0
 11
15.6049280379
 21
28.9010949593
 31
0.0
  0
LINE
  5
3FB
330
1F
100
AcDbEntity
  8
0
  6
Continuous
 62
     7
370
    25
100
AcDbLine
 10
14.8066683885
 20
28.8243546087
 30
0.0
 11
15.5281876873
 21
28.8243546087
 31
0.0
  0
LINE
  5
3FC
330
1F
100
AcDbEntity
  8
0
  6
Continuous
 62
     7
370
    25
100
AcDbLine
 10
11.8220164586
 20
28.11818338
 30
0.0
 11
11.7299280379
 21
28.0260949593
 31
0.0
  0
LINE
  5
3FD
330
1F
100
AcDbEntity
  8
0
  6
Continuous
 62
     7
370
    25
100
AcDbLine
 10
11.8220164586
 20
28.11818338
 30
0.0
 11
11.8220164586
 21
28.8090065386
 31
0.0
  0
LINE
  5
3FE
330
1F
100
AcDbEntity
  8
0
  6
Continuous
 62
     7
370
    25
100
AcDbLine
 10
14.5128396172
 20
28.11818338
 30
0.0
 11
14.6049280379
 21
28.0260949593
 31
0.0
  0
LINE
  5
3FF
330
1F
100
AcDbEntity
  8
0
  6
Continuous
 62
     7
370
    25
100
AcDbLine
 10
14.5128396172
 20
28.8090065386
 30
0.0
 11
14.5128396172
 21
28.11818338
 31
0.0
  0
LINE
  5
400
330
1F
100
AcDbEntity
  8
0
  6
Continuous
 62
     7
370
    25
100
AcDbLine
 10
13.5128396172
 20
28.11818338
 30
0.0
 11
13.6049280379
 21
28.0260949593
 31
0.0
  0
LINE
  5
401
330
1F
100
AcDbEntity
  8
0
  6
Continuous
 62
     7
370
    25
100
AcDbLine
 10
13.5128396172
 20
28.8090065386
 30
0.0
 11
13.5128396172
 21
28.11818338
 31
0.0
  0
LINE
  5
402
330
1F
100
AcDbEntity
  8
0
  6
Continuous
 62
     7
370
    25
100
AcDbLine
 10
11.5128396172
 20
28.11818338
 30
0.0
 11
11.6049280379
 21
28.0260949593
 31
0.0
  0
LINE
  5
403
330
1F
100
AcDbEntity
  8
0
  6
Continuous
 62
     7
370
    25
100
AcDbLine
 10
11.5128396172
 20
28.8090065386
 30
0.0
 11
11.5128396172
 21
28.11818338
 31
0.0
  0
LINE
  5
404
330
1F
100
AcDbEntity
  8
0
  6
Continuous
 62
     7
370
    25
100
AcDbLine
 10
13.8220164586
 20
28.11818338
 30
0.0
 11
13.7299280379
 21
28.0260949593
 31
0.0
  0
LINE
  5
405
330
1F
100
AcDbEntity
  8
0
  6
Continuous
 62
     7
370
    25
100
AcDbLine
 10
13.8220164586
 20
28.11818338
 30
0.0
 11
13.8220164586
 21
28.8090065386
 31
0.0
  0
LINE
  5
406
330
1F
100
AcDbEntity
  8
0
  6
Continuous
 62
     7
370
    25
100
AcDbLine
 10
12.8220164586
 20
28.11818338
 30
0.0
 11
12.7299280379
 21
28.0260949593
 31
0.0
  0
LINE
  5
407
330
1F
100
AcDbEntity
  8
0
  6
Continuous
 62
     7
370
    25
100
AcDbLine
 10
12.8220164586
 20
28.11818338
 30
0.0
 11
12.8220164586
 21
28.8090065386
 31
0.0
  0
LINE
  5
408
330
1F
100
AcDbEntity
  8
0
  6
Continuous
 62
     7
370
    25
100
AcDbLine
 10
10.8220164586
 20
28.11818338
 30
0.0
 11
10.7299280379
 21
28.0260949593
 31
0.0
  0
LINE
  5
409
330
1F
100
AcDbEntity
  8
0
  6
Continuous
 62
     7
370
    25
100
AcDbLine
 10
10.8220164586
 20
28.11818338
 30
0.0
 11
10.8220164586
 21
28.8090065386
 31
0.0
  0
LINE
  5
40A
330
1F
100
AcDbEntity
  8
0
  6
Continuous
 62
     7
370
    25
100
AcDbLine
 10
15.5281876873
 20
28.1028353098
 30
0.0
 11
15.6049280379
 21
28.0260949593
 31
0.0
  0
LINE
  5
40B
330
1F
100
AcDbEntity
  8
0
  6
Continuous
 62
     7
370
    25
100
AcDbLine
 10
15.5281876873
 20
28.8243546087
 30
0.0
 11
15.5281876873
 21
28.1028353098
 31
0.0
  0
LINE
  5
40C
330
1F
100
AcDbEntity
  8
0
  6
Continuous
 62
     7
370
    25
100
AcDbLine
 10
13.5128396172
 20
28.11818338
 30
0.0
 11
12.8220164586
 21
28.11818338
 31
0.0
  0
LINE
  5
40D
330
1F
100
AcDbEntity
  8
0
  6
Continuous
 62
     7
370
    25
100
AcDbLine
 10
12.5128396172
 20
28.11818338
 30
0.0
 11
11.8220164586
 21
28.11818338
 31
0.0
  0
LINE
  5
40E
330
1F
100
AcDbEntity
  8
0
  6
Continuous
 62
     7
370
    25
100
AcDbLine
 10
14.5128396172
 20
28.11818338
 30
0.0
 11
13.8220164586
 21
28.11818338
 31
0.0
  0
LINE
  5
40F
330
1F
100
AcDbEntity
  8
0
  6
Continuous
 62
     7
370
    25
100
AcDbLine
 10
15.5281876873
 20
28.1028353098
 30
0.0
 11
14.8066683885
 21
28.1028353098
 31
0.0
  0
LINE
  5
410
330
1F
100
AcDbEntity
  8
0
  6
Continuous
 62
     7
370
    25
100
AcDbLine
 10
11.5128396172
 20
28.11818338
 30
0.0
 11
10.8220164586
 21
28.11818338
 31
0.0
  0
LINE
  5
411
330
1F
100
AcDbEntity
  8
0
  6
Continuous
 62
     7
370
    25
100
AcDbLine
 10
10.5281876873
 20
28.1028353098
 30
0.0
 11
9.8066683885
 21
28.1028353098
 31
0.0
  0
LINE
  5
412
330
1F
100
AcDbEntity
  8
0
  6
Continuous
 62
     7
370
    25
100
AcDbLine
 10
10.8220164586
 20
27.8090065386
 30
0.0
 11
10.7299280379
 21
27.9010949593
 31
0.0
  0
LINE
  5
413
330
1F
100
AcDbEntity
  8
0
  6
Continuous
 62
     7
370
    25
100
AcDbLine
 10
11.5128396172
 20
27.8090065386
 30
0.0
 11
11.6049280379
 21
27.9010949593
 31
0.0
  0
LINE
  5
414
330
1F
100
AcDbEntity
  8
0
  6
Continuous
 62
     7
370
    25
100
AcDbLine
 10
10.8220164586
 20
27.8090065386
 30
0.0
 11
11.5128396172
 21
27.8090065386
 31
0.0
  0
LINE
  5
415
330
1F
100
AcDbEntity
  8
0
  6
Continuous
 62
     7
370
    25
100
AcDbLine
 10
14.8220164586
 20
27.8090065386
 30
0.0
 11
14.7299280379
 21
27.9010949593
 31
0.0
  0
LINE
  5
416
330
1F
100
AcDbEntity
  8
0
  6
Continuous
 62
     7
370
    25
100
AcDbLine
 10
15.5128396172
 20
27.8090065386
 30
0.0
 11
15.6049280379
 21
27.9010949593
 31
0.0
  0
LINE
  5
417
330
1F
100
AcDbEntity
  8
0
  6
Continuous
 62
     7
370
    25
100
AcDbLine
 10
14.8220164586
 20
27.8090065386
 30
0.0
 11
15.5128396172
 21
27.8090065386
 31
0.0
  0
LINE
  5
418
330
1F
100
AcDbEntity
  8
0
  6
Continuous
 62
     7
370
    25
100
AcDbLine
 10
11.8220164586
 20
27.8090065386
 30
0.0
 11
11.7299280379
 21
27.9010949593
 31
0.0
  0
LINE
  5
419
330
1F
100
AcDbEntity
  8
0
  6
Continuous
 62
     7
370
    25
100
AcDbLine
 10
12.5128396172
 20
27.8090065386
 30
0.0
 11
12.6049280379
 21
27.9010949593
 31
0.0
  0
LINE
  5
41A
330
1F
100
AcDbEntity
  8
0
  6
Continuous
 62
     7
370
    25
100
AcDbLine
 10
11.8220164586
 20
27.8090065386
 30
0.0
 11
12.5128396172
 21
27.8090065386
 31
0.0
  0
LINE
  5
41B
330
1F
100
AcDbEntity
  8
0
  6
Continuous
 62
     7
370
    25
100
AcDbLine
 10
11.8220164586
 20
27.11818338
 30
0.0
 11
11.7299280379
 21
27.0260949593
 31
0.0
  0
LINE
  5
41C
330
1F
100
AcDbEntity
  8
0
  6
Continuous
 62
     7
370
    25
100
AcDbLine
 10
11.8220164586
 20
27.11818338
 30
0.0
 11
11.8220164586
 21
27.8090065386
 31
0.0
  0
LINE
  5
41D
330
1F
100
AcDbEntity
  8
0
  6
Continuous
 62
     7
370
    25
100
AcDbLine
 10
9.8220164586
 20
27.8090065386
 30
0.0
 11
9.7299280379
 21
27.9010949593
 31
0.0
  0
LINE
  5
41E
330
1F
100
AcDbEntity
  8
0
  6
Continuous
 62
     7
370
    25
100
AcDbLine
 10
10.5128396172
 20
27.8090065386
 30
0.0
 11
10.6049280379
 21
27.9010949593
 31
0.0
  0
LINE
  5
41F
330
1F
100
AcDbEntity
  8
0
  6
Continuous
 62
     7
370
    25
100
AcDbLine
 10
9.8220164586
 20
27.8090065386
 30
0.0
 11
10.5128396172
 21
27.8090065386
 31
0.0
  0
LINE
  5
420
330
1F
100
AcDbEntity
  8
0
  6
Continuous
 62
     7
370
    25
100
AcDbLine
 10
9.8220164586
 20
27.11818338
 30
0.0
 11
9.7299280379
 21
27.0260949593
 31
0.0
  0
LINE
  5
421
330
1F
100
AcDbEntity
  8
0
  6
Continuous
 62
     7
370
    25
100
AcDbLine
 10
9.8220164586
 20
27.11818338
 30
0.0
 11
9.8220164586
 21
27.8090065386
 31
0.0
  0
LINE
  5
422
330
1F
100
AcDbEntity
  8
0
  6
Continuous
 62
     7
370
    25
100
AcDbLine
 10
13.5128396172
 20
27.8090065386
 30
0.0
 11
13.6049280379
 21
27.9010949593
 31
0.0
  0
LINE
  5
423
330
1F
100
AcDbEntity
  8
0
  6
Continuous
 62
     7
370
    25
100
AcDbLine
 10
13.5128396172
 20
27.11818338
 30
0.0
 11
13.6049280379
 21
27.0260949593
 31
0.0
  0
LINE
  5
424
330
1F
100
AcDbEntity
  8
0
  6
Continuous
 62
     7
370
    25
100
AcDbLine
 10
13.5128396172
 20
27.8090065386
 30
0.0
 11
13.5128396172
 21
27.11818338
 31
0.0
  0
LINE
  5
425
330
1F
100
AcDbEntity
  8
0
  6
Continuous
 62
     7
370
    25
100
AcDbLine
 10
10.5128396172
 20
27.11818338
 30
0.0
 11
10.6049280379
 21
27.0260949593
 31
0.0
  0
LINE
  5
426
330
1F
100
AcDbEntity
  8
0
  6
Continuous
 62
     7
370
    25
100
AcDbLine
 10
10.5128396172
 20
27.8090065386
 30
0.0
 11
10.5128396172
 21
27.11818338
 31
0.0
  0
LINE
  5
427
330
1F
100
AcDbEntity
  8
0
  6
Continuous
 62
     7
370
    25
100
AcDbLine
 10
12.5128396172
 20
27.11818338
 30
0.0
 11
12.6049280379
 21
27.0260949593
 31
0.0
  0
LINE
  5
428
330
1F
100
AcDbEntity
  8
0
  6
Continuous
 62
     7
370
    25
100
AcDbLine
 10
12.5128396172
 20
27.8090065386
 30
0.0
 11
12.5128396172
 21
27.11818338
 31
0.0
  0
LINE
  5
429
330
1F
100
AcDbEntity
  8
0
  6
Continuous
 62
     7
370
    25
100
AcDbLine
 10
10.8220164586
 20
27.11818338
 30
0.0
 11
10.7299280379
 21
27.0260949593
 31
0.0
  0
LINE
  5
42A
330
1F
100
AcDbEntity
  8
0
  6
Continuous
 62
     7
370
    25
100
AcDbLine
 10
10.8220164586
 20
27.11818338
 30
0.0
 11
10.8220164586
 21
27.8090065386
 31
0.0
  0
LINE
  5
42B
330
1F
100
AcDbEntity
  8
0
  6
Continuous
 62
     7
370
    25
100
AcDbLine
 10
12.8220164586
 20
27.8090065386
 30
0.0
 11
12.7299280379
 21
27.9010949593
 31
0.0
  0
LINE
  5
42C
330
1F
100
AcDbEntity
  8
0
  6
Continuous
 62
     7
370
    25
100
AcDbLine
 10
12.8220164586
 20
27.8090065386
 30
0.0
 11
13.5128396172
 21
27.8090065386
 31
0.0
  0
LINE
  5
42D
330
1F
100
AcDbEntity
  8
0
  6
Continuous
 62
     7
370
    25
100
AcDbLine
 10
12.8220164586
 20
27.11818338
 30
0.0
 11
12.7299280379
 21
27.0260949593
 31
0.0
  0
LINE
  5
42E
330
1F
100
AcDbEntity
  8
0
  6
Continuous
 62
     7
370
    25
100
AcDbLine
 10
12.8220164586
 20
27.11818338
 30
0.0
 11
12.8220164586
 21
27.8090065386
 31
0.0
  0
LINE
  5
42F
330
1F
100
AcDbEntity
  8
0
  6
Continuous
 62
     7
370
    25
100
AcDbLine
 10
15.5128396172
 20
27.11818338
 30
0.0
 11
15.6049280379
 21
27.0260949593
 31
0.0
  0
LINE
  5
430
330
1F
100
AcDbEntity
  8
0
  6
Continuous
 62
     7
370
    25
100
AcDbLine
 10
15.5128396172
 20
27.8090065386
 30
0.0
 11
15.5128396172
 21
27.11818338
 31
0.0
  0
LINE
  5
431
330
1F
100
AcDbEntity
  8
0
  6
Continuous
 62
     7
370
    25
100
AcDbLine
 10
13.8220164586
 20
27.11818338
 30
0.0
 11
13.7299280379
 21
27.0260949593
 31
0.0
  0
LINE
  5
432
330
1F
100
AcDbEntity
  8
0
  6
Continuous
 62
     7
370
    25
100
AcDbLine
 10
13.8220164586
 20
27.8090065386
 30
0.0
 11
13.7299280379
 21
27.9010949593
 31
0.0
  0
LINE
  5
433
330
1F
100
AcDbEntity
  8
0
  6
Continuous
 62
     7
370
    25
100
AcDbLine
 10
13.8220164586
 20
27.11818338
 30
0.0
 11
13.8220164586
 21
27.8090065386
 31
0.0
  0
LINE
  5
434
330
1F
100
AcDbEntity
  8
0
  6
Continuous
 62
     7
370
    25
100
AcDbLine
 10
14.5128396172
 20
27.8090065386
 30
0.0
 11
14.6049280379
 21
27.9010949593
 31
0.0
  0
LINE
  5
435
330
1F
100
AcDbEntity
  8
0
  6
Continuous
 62
     7
370
    25
100
AcDbLine
 10
14.5128396172
 20
27.11818338
 30
0.0
 11
14.6049280379
 21
27.0260949593
 31
0.0
  0
LINE
  5
436
330
1F
100
AcDbEntity
  8
0
  6
Continuous
 62
     7
370
    25
100
AcDbLine
 10
14.5128396172
 20
27.8090065386
 30
0.0
 11
14.5128396172
 21
27.11818338
 31
0.0
  0
LINE
  5
437
330
1F
100
AcDbEntity
  8
0
  6
Continuous
 62
     7
370
    25
100
AcDbLine
 10
14.8220164586
 20
27.11818338
 30
0.0
 11
14.7299280379
 21
27.0260949593
 31
0.0
  0
LINE
  5
438
330
1F
100
AcDbEntity
  8
0
  6
Continuous
 62
     7
370
    25
100
AcDbLine
 10
14.8220164586
 20
27.11818338
 30
0.0
 11
14.8220164586
 21
27.8090065386
 31
0.0
  0
LINE
  5
439
330
1F
100
AcDbEntity
  8
0
  6
Continuous
 62
     7
370
    25
100
AcDbLine
 10
13.8220164586
 20
27.8090065386
 30
0.0
 11
14.5128396172
 21
27.8090065386
 31
0.0
  0
LINE
  5
43A
330
1F
100
AcDbEntity
  8
0
  6
Continuous
 62
     7
370
    25
100
AcDbLine
 10
11.5128396172
 20
27.11818338
 30
0.0
 11
11.6049280379
 21
27.0260949593
 31
0.0
  0
LINE
  5
43B
330
1F
100
AcDbEntity
  8
0
  6
Continuous
 62
     7
370
    25
100
AcDbLine
 10
11.5128396172
 20
27.8090065386
 30
0.0
 11
11.5128396172
 21
27.11818338
 31
0.0
  0
LINE
  5
43C
330
1F
100
AcDbEntity
  8
0
  6
Continuous
 62
     7
370
    25
100
AcDbLine
 10
12.5128396172
 20
27.11818338
 30
0.0
 11
11.8220164586
 21
27.11818338
 31
0.0
  0
LINE
  5
43D
330
1F
100
AcDbEntity
  8
0
  6
Continuous
 62
     7
370
    25
100
AcDbLine
 10
13.5128396172
 20
27.11818338
 30
0.0
 11
12.8220164586
 21
27.11818338
 31
0.0
  0
LINE
  5
43E
330
1F
100
AcDbEntity
  8
0
  6
Continuous
 62
     7
370
    25
100
AcDbLine
 10
15.5128396172
 20
27.11818338
 30
0.0
 11
14.8220164586
 21
27.11818338
 31
0.0
  0
LINE
  5
43F
330
1F
100
AcDbEntity
  8
0
  6
Continuous
 62
     7
370
    25
100
AcDbLine
 10
10.5128396172
 20
27.11818338
 30
0.0
 11
9.8220164586
 21
27.11818338
 31
0.0
  0
LINE
  5
440
330
1F
100
AcDbEntity
  8
0
  6
Continuous
 62
     7
370
    25
100
AcDbLine
 10
11.5128396172
 20
27.11818338
 30
0.0
 11
10.8220164586
 21
27.11818338
 31
0.0
  0
LINE
  5
441
330
1F
100
AcDbEntity
  8
0
  6
Continuous
 62
     7
370
    25
100
AcDbLine
 10
14.5128396172
 20
27.11818338
 30
0.0
 11
13.8220164586
 21
27.11818338
 31
0.0
  0
LINE
  5
442
330
1F
100
AcDbEntity
  8
0
  6
Continuous
 62
     7
370
    25
100
AcDbLine
 10
13.8220164586
 20
26.11818338
 30
0.0
 11
13.7299280379
 21
26.0260949593
 31
0.0
  0
LINE
  5
443
330
1F
100
AcDbEntity
  8
0
  6
Continuous
 62
     7
370
    25
100
AcDbLine
 10
13.8220164586
 20
26.8090065386
 30
0.0
 11
13.7299280379
 21
26.9010949593
 31
0.0
  0
LINE
  5
444
330
1F
100
AcDbEntity
  8
0
  6
Continuous
 62
     7
370
    25
100
AcDbLine
 10
13.8220164586
 20
26.11818338
 30
0.0
 11
13.8220164586
 21
26.8090065386
 31
0.0
  0
LINE
  5
445
330
1F
100
AcDbEntity
  8
0
  6
Continuous
 62
     7
370
    25
100
AcDbLine
 10
12.8220164586
 20
26.8090065386
 30
0.0
 11
12.7299280379
 21
26.9010949593
 31
0.0
  0
LINE
  5
446
330
1F
100
AcDbEntity
  8
0
  6
Continuous
 62
     7
370
    25
100
AcDbLine
 10
13.5128396172
 20
26.8090065386
 30
0.0
 11
13.6049280379
 21
26.9010949593
 31
0.0
  0
LINE
  5
447
330
1F
100
AcDbEntity
  8
0
  6
Continuous
 62
     7
370
    25
100
AcDbLine
 10
12.8220164586
 20
26.8090065386
 30
0.0
 11
13.5128396172
 21
26.8090065386
 31
0.0
  0
LINE
  5
448
330
1F
100
AcDbEntity
  8
0
  6
Continuous
 62
     7
370
    25
100
AcDbLine
 10
14.5128396172
 20
26.8090065386
 30
0.0
 11
14.6049280379
 21
26.9010949593
 31
0.0
  0
LINE
  5
449
330
1F
100
AcDbEntity
  8
0
  6
Continuous
 62
     7
370
    25
100
AcDbLine
 10
14.5128396172
 20
26.11818338
 30
0.0
 11
14.6049280379
 21
26.0260949593
 31
0.0
  0
LINE
  5
44A
330
1F
100
AcDbEntity
  8
0
  6
Continuous
 62
     7
370
    25
100
AcDbLine
 10
14.5128396172
 20
26.8090065386
 30
0.0
 11
14.5128396172
 21
26.11818338
 31
0.0
  0
LINE
  5
44B
330
1F
100
AcDbEntity
  8
0
  6
Continuous
 62
     7
370
    25
100
AcDbLine
 10
11.5128396172
 20
26.8090065386
 30
0.0
 11
11.6049280379
 21
26.9010949593
 31
0.0
  0
LINE
  5
44C
330
1F
100
AcDbEntity
  8
0
  6
Continuous
 62
     7
370
    25
100
AcDbLine
 10
11.5128396172
 20
26.11818338
 30
0.0
 11
11.6049280379
 21
26.0260949593
 31
0.0
  0
LINE
  5
44D
330
1F
100
AcDbEntity
  8
0
  6
Continuous
 62
     7
370
    25
100
AcDbLine
 10
11.5128396172
 20
26.8090065386
 30
0.0
 11
11.5128396172
 21
26.11818338
 31
0.0
  0
LINE
  5
44E
330
1F
100
AcDbEntity
  8
0
  6
Continuous
 62
     7
370
    25
100
AcDbLine
 10
10.8220164586
 20
26.11818338
 30
0.0
 11
10.7299280379
 21
26.0260949593
 31
0.0
  0
LINE
  5
44F
330
1F
100
AcDbEntity
  8
0
  6
Continuous
 62
     7
370
    25
100
AcDbLine
 10
10.8220164586
 20
26.8090065386
 30
0.0
 11
10.7299280379
 21
26.9010949593
 31
0.0
  0
LINE
  5
450
330
1F
100
AcDbEntity
  8
0
  6
Continuous
 62
     7
370
    25
100
AcDbLine
 10
10.8220164586
 20
26.11818338
 30
0.0
 11
10.8220164586
 21
26.8090065386
 31
0.0
  0
LINE
  5
451
330
1F
100
AcDbEntity
  8
0
  6
Continuous
 62
     7
370
    25
100
AcDbLine
 10
9.8220164586
 20
26.11818338
 30
0.0
 11
9.7299280379
 21
26.0260949593
 31
0.0
  0
LINE
  5
452
330
1F
100
AcDbEntity
  8
0
  6
Continuous
 62
     7
370
    25
100
AcDbLine
 10
9.8220164586
 20
26.8090065386
 30
0.0
 11
9.7299280379
 21
26.9010949593
 31
0.0
  0
LINE
  5
453
330
1F
100
AcDbEntity
  8
0
  6
Continuous
 62
     7
370
    25
100
AcDbLine
 10
9.8220164586
 20
26.11818338
 30
0.0
 11
9.8220164586
 21
26.8090065386
 31
0.0
  0
LINE
  5
454
330
1F
100
AcDbEntity
  8
0
  6
Continuous
 62
     7
370
    25
100
AcDbLine
 10
13.8220164586
 20
26.8090065386
 30
0.0
 11
14.5128396172
 21
26.8090065386
 31
0.0
  0
LINE
  5
455
330
1F
100
AcDbEntity
  8
0
  6
Continuous
 62
     7
370
    25
100
AcDbLine
 10
10.8220164586
 20
26.8090065386
 30
0.0
 11
11.5128396172
 21
26.8090065386
 31
0.0
  0
LINE
  5
456
330
1F
100
AcDbEntity
  8
0
  6
Continuous
 62
     7
370
    25
100
AcDbLine
 10
15.5128396172
 20
26.8090065386
 30
0.0
 11
15.6049280379
 21
26.9010949593
 31
0.0
  0
LINE
  5
457
330
1F
100
AcDbEntity
  8
0
  6
Continuous
 62
     7
370
    25
100
AcDbLine
 10
15.5128396172
 20
26.11818338
 30
0.0
 11
15.6049280379
 21
26.0260949593
 31
0.0
  0
LINE
  5
458
330
1F
100
AcDbEntity
  8
0
  6
Continuous
 62
     7
370
    25
100
AcDbLine
 10
15.5128396172
 20
26.8090065386
 30
0.0
 11
15.5128396172
 21
26.11818338
 31
0.0
  0
LINE
  5
459
330
1F
100
AcDbEntity
  8
0
  6
Continuous
 62
     7
370
    25
100
AcDbLine
 10
10.5128396172
 20
26.8090065386
 30
0.0
 11
10.6049280379
 21
26.9010949593
 31
0.0
  0
LINE
  5
45A
330
1F
100
AcDbEntity
  8
0
  6
Continuous
 62
     7
370
    25
100
AcDbLine
 10
9.8220164586
 20
26.8090065386
 30
0.0
 11
10.5128396172
 21
26.8090065386
 31
0.0
  0
LINE
  5
45B
330
1F
100
AcDbEntity
  8
0
  6
Continuous
 62
     7
370
    25
100
AcDbLine
 10
11.8220164586
 20
26.8090065386
 30
0.0
 11
11.7299280379
 21
26.9010949593
 31
0.0
  0
LINE
  5
45C
330
1F
100
AcDbEntity
  8
0
  6
Continuous
 62
     7
370
    25
100
AcDbLine
 10
12.5128396172
 20
26.8090065386
 30
0.0
 11
12.6049280379
 21
26.9010949593
 31
0.0
  0
LINE
  5
45D
330
1F
100
AcDbEntity
  8
0
  6
Continuous
 62
     7
370
    25
100
AcDbLine
 10
11.8220164586
 20
26.8090065386
 30
0.0
 11
12.5128396172
 21
26.8090065386
 31
0.0
  0
LINE
  5
45E
330
1F
100
AcDbEntity
  8
0
  6
Continuous
 62
     7
370
    25
100
AcDbLine
 10
10.5128396172
 20
26.11818338
 30
0.0
 11
10.6049280379
 21
26.0260949593
 31
0.0
  0
LINE
  5
45F
330
1F
100
AcDbEntity
  8
0
  6
Continuous
 62
     7
370
    25
100
AcDbLine
 10
10.5128396172
 20
26.8090065386
 30
0.0
 11
10.5128396172
 21
26.11818338
 31
0.0
  0
LINE
  5
460
330
1F
100
AcDbEntity
  8
0
  6
Continuous
 62
     7
370
    25
100
AcDbLine
 10
11.8220164586
 20
26.11818338
 30
0.0
 11
11.7299280379
 21
26.0260949593
 31
0.0
  0
LINE
  5
461
330
1F
100
AcDbEntity
  8
0
  6
Continuous
 62
     7
370
    25
100
AcDbLine
 10
11.8220164586
 20
26.11818338
 30
0.0
 11
11.8220164586
 21
26.8090065386
 31
0.0
  0
LINE
  5
462
330
1F
100
AcDbEntity
  8
0
  6
Continuous
 62
     7
370
    25
100
AcDbLine
 10
14.8220164586
 20
26.11818338
 30
0.0
 11
14.7299280379
 21
26.0260949593
 31
0.0
  0
LINE
  5
463
330
1F
100
AcDbEntity
  8
0
  6
Continuous
 62
     7
370
    25
100
AcDbLine
 10
14.8220164586
 20
26.8090065386
 30
0.0
 11
14.7299280379
 21
26.9010949593
 31
0.0
  0
LINE
  5
464
330
1F
100
AcDbEntity
  8
0
  6
Continuous
 62
     7
370
    25
100
AcDbLine
 10
14.8220164586
 20
26.11818338
 30
0.0
 11
14.8220164586
 21
26.8090065386
 31
0.0
  0
LINE
  5
465
330
1F
100
AcDbEntity
  8
0
  6
Continuous
 62
     7
370
    25
100
AcDbLine
 10
12.5128396172
 20
26.11818338
 30
0.0
 11
12.6049280379
 21
26.0260949593
 31
0.0
  0
LINE
  5
466
330
1F
100
AcDbEntity
  8
0
  6
Continuous
 62
     7
370
    25
100
AcDbLine
 10
12.5128396172
 20
26.8090065386
 30
0.0
 11
12.5128396172
 21
26.11818338
 31
0.0
  0
LINE
  5
467
330
1F
100
AcDbEntity
  8
0
  6
Continuous
 62
     7
370
    25
100
AcDbLine
 10
13.5128396172
 20
26.11818338
 30
0.0
 11
13.6049280379
 21
26.0260949593
 31
0.0
  0
LINE
  5
468
330
1F
100
AcDbEntity
  8
0
  6
Continuous
 62
     7
370
    25
100
AcDbLine
 10
13.5128396172
 20
26.8090065386
 30
0.0
 11
13.5128396172
 21
26.11818338
 31
0.0
  0
LINE
  5
469
330
1F
100
AcDbEntity
  8
0
  6
Continuous
 62
     7
370
    25
100
AcDbLine
 10
14.8220164586
 20
26.8090065386
 30
0.0
 11
15.5128396172
 21
26.8090065386
 31
0.0
  0
LINE
  5
46A
330
1F
100
AcDbEntity
  8
0
  6
Continuous
 62
     7
370
    25
100
AcDbLine
 10
12.8220164586
 20
26.11818338
 30
0.0
 11
12.7299280379
 21
26.0260949593
 31
0.0
  0
LINE
  5
46B
330
1F
100
AcDbEntity
  8
0
  6
Continuous
 62
     7
370
    25
100
AcDbLine
 10
12.8220164586
 20
26.11818338
 30
0.0
 11
12.8220164586
 21
26.8090065386
 31
0.0
  0
LINE
  5
46C
330
1F
100
AcDbEntity
  8
0
  6
Continuous
 62
     7
370
    25
100
AcDbLine
 10
9.8220164586
 20
25.8090065386
 30
0.0
 11
9.7299280379
 21
25.9010949593
 31
0.0
  0
LINE
  5
46D
330
1F
100
AcDbEntity
  8
0
  6
Continuous
 62
     7
370
    25
100
AcDbLine
 10
10.5128396172
 20
25.8090065386
 30
0.0
 11
10.6049280379
 21
25.9010949593
 31
0.0
  0
LINE
  5
46E
330
1F
100
AcDbEntity
  8
0
  6
Continuous
 62
     7
370
    25
100
AcDbLine
 10
9.8220164586
 20
25.8090065386
 30
0.0
 11
10.5128396172
 21
25.8090065386
 31
0.0
  0
LINE
  5
46F
330
1F
100
AcDbEntity
  8
0
  6
Continuous
 62
     7
370
    25
100
AcDbLine
 10
9.8220164586
 20
25.11818338
 30
0.0
 11
9.7299280379
 21
25.0260949593
 31
0.0
  0
LINE
  5
470
330
1F
100
AcDbEntity
  8
0
  6
Continuous
 62
     7
370
    25
100
AcDbLine
 10
9.8220164586
 20
25.11818338
 30
0.0
 11
9.8220164586
 21
25.8090065386
 31
0.0
  0
LINE
  5
471
330
1F
100
AcDbEntity
  8
0
  6
Continuous
 62
     7
370
    25
100
AcDbLine
 10
15.5128396172
 20
26.11818338
 30
0.0
 11
14.8220164586
 21
26.11818338
 31
0.0
  0
LINE
  5
472
330
1F
100
AcDbEntity
  8
0
  6
Continuous
 62
     7
370
    25
100
AcDbLine
 10
11.8220164586
 20
25.11818338
 30
0.0
 11
11.7299280379
 21
25.0260949593
 31
0.0
  0
LINE
  5
473
330
1F
100
AcDbEntity
  8
0
  6
Continuous
 62
     7
370
    25
100
AcDbLine
 10
11.8220164586
 20
25.8090065386
 30
0.0
 11
11.7299280379
 21
25.9010949593
 31
0.0
  0
LINE
  5
474
330
1F
100
AcDbEntity
  8
0
  6
Continuous
 62
     7
370
    25
100
AcDbLine
 10
11.8220164586
 20
25.11818338
 30
0.0
 11
11.8220164586
 21
25.8090065386
 31
0.0
  0
LINE
  5
475
330
1F
100
AcDbEntity
  8
0
  6
Continuous
 62
     7
370
    25
100
AcDbLine
 10
11.5128396172
 20
26.11818338
 30
0.0
 11
10.8220164586
 21
26.11818338
 31
0.0
  0
LINE
  5
476
330
1F
100
AcDbEntity
  8
0
  6
Continuous
 62
     7
370
    25
100
AcDbLine
 10
10.8220164586
 20
25.11818338
 30
0.0
 11
10.7299280379
 21
25.0260949593
 31
0.0
  0
LINE
  5
477
330
1F
100
AcDbEntity
  8
0
  6
Continuous
 62
     7
370
    25
100
AcDbLine
 10
10.8220164586
 20
25.8090065386
 30
0.0
 11
10.7299280379
 21
25.9010949593
 31
0.0
  0
LINE
  5
478
330
1F
100
AcDbEntity
  8
0
  6
Continuous
 62
     7
370
    25
100
AcDbLine
 10
10.8220164586
 20
25.11818338
 30
0.0
 11
10.8220164586
 21
25.8090065386
 31
0.0
  0
LINE
  5
479
330
1F
100
AcDbEntity
  8
0
  6
Continuous
 62
     7
370
    25
100
AcDbLine
 10
13.5128396172
 20
26.11818338
 30
0.0
 11
12.8220164586
 21
26.11818338
 31
0.0
  0
LINE
  5
47A
330
1F
100
AcDbEntity
  8
0
  6
Continuous
 62
     7
370
    25
100
AcDbLine
 10
12.5128396172
 20
26.11818338
 30
0.0
 11
11.8220164586
 21
26.11818338
 31
0.0
  0
LINE
  5
47B
330
1F
100
AcDbEntity
  8
0
  6
Continuous
 62
     7
370
    25
100
AcDbLine
 10
11.5128396172
 20
25.8090065386
 30
0.0
 11
11.6049280379
 21
25.9010949593
 31
0.0
  0
LINE
  5
47C
330
1F
100
AcDbEntity
  8
0
  6
Continuous
 62
     7
370
    25
100
AcDbLine
 10
11.5128396172
 20
25.11818338
 30
0.0
 11
11.6049280379
 21
25.0260949593
 31
0.0
  0
LINE
  5
47D
330
1F
100
AcDbEntity
  8
0
  6
Continuous
 62
     7
370
    25
100
AcDbLine
 10
11.5128396172
 20
25.8090065386
 30
0.0
 11
11.5128396172
 21
25.11818338
 31
0.0
  0
LINE
  5
47E
330
1F
100
AcDbEntity
  8
0
  6
Continuous
 62
     7
370
    25
100
AcDbLine
 10
14.5128396172
 20
26.11818338
 30
0.0
 11
13.8220164586
 21
26.11818338
 31
0.0
  0
LINE
  5
47F
330
1F
100
AcDbEntity
  8
0
  6
Continuous
 62
     7
370
    25
100
AcDbLine
 10
13.5128396172
 20
25.8090065386
 30
0.0
 11
13.6049280379
 21
25.9010949593
 31
0.0
  0
LINE
  5
480
330
1F
100
AcDbEntity
  8
0
  6
Continuous
 62
     7
370
    25
100
AcDbLine
 10
13.5128396172
 20
25.11818338
 30
0.0
 11
13.6049280379
 21
25.0260949593
 31
0.0
  0
LINE
  5
481
330
1F
100
AcDbEntity
  8
0
  6
Continuous
 62
     7
370
    25
100
AcDbLine
 10
13.5128396172
 20
25.8090065386
 30
0.0
 11
13.5128396172
 21
25.11818338
 31
0.0
  0
LINE
  5
482
330
1F
100
AcDbEntity
  8
0
  6
Continuous
 62
     7
370
    25
100
AcDbLine
 10
10.8220164586
 20
25.8090065386
 30
0.0
 11
11.5128396172
 21
25.8090065386
 31
0.0
  0
LINE
  5
483
330
1F
100
AcDbEntity
  8
0
  6
Continuous
 62
     7
370
    25
100
AcDbLine
 10
13.8220164586
 20
25.11818338
 30
0.0
 11
13.7299280379
 21
25.0260949593
 31
0.0
  0
LINE
  5
484
330
1F
100
AcDbEntity
  8
0
  6
Continuous
 62
     7
370
    25
100
AcDbLine
 10
13.8220164586
 20
25.8090065386
 30
0.0
 11
13.7299280379
 21
25.9010949593
 31
0.0
  0
LINE
  5
485
330
1F
100
AcDbEntity
  8
0
  6
Continuous
 62
     7
370
    25
100
AcDbLine
 10
13.8220164586
 20
25.11818338
 30
0.0
 11
13.8220164586
 21
25.8090065386
 31
0.0
  0
LINE
  5
486
330
1F
100
AcDbEntity
  8
0
  6
Continuous
 62
     7
370
    25
100
AcDbLine
 10
14.5128396172
 20
25.8090065386
 30
0.0
 11
14.6049280379
 21
25.9010949593
 31
0.0
  0
LINE
  5
487
330
1F
100
AcDbEntity
  8
0
  6
Continuous
 62
     7
370
    25
100
AcDbLine
 10
14.5128396172
 20
25.11818338
 30
0.0
 11
14.6049280379
 21
25.0260949593
 31
0.0
  0
LINE
  5
488
330
1F
100
AcDbEntity
  8
0
  6
Continuous
 62
     7
370
    25
100
AcDbLine
 10
14.5128396172
 20
25.8090065386
 30
0.0
 11
14.5128396172
 21
25.11818338
 31
0.0
  0
LINE
  5
489
330
1F
100
AcDbEntity
  8
0
  6
Continuous
 62
     7
370
    25
100
AcDbLine
 10
12.8220164586
 20
25.11818338
 30
0.0
 11
12.7299280379
 21
25.0260949593
 31
0.0
  0
LINE
  5
48A
330
1F
100
AcDbEntity
  8
0
  6
Continuous
 62
     7
370
    25
100
AcDbLine
 10
12.8220164586
 20
25.8090065386
 30
0.0
 11
12.7299280379
 21
25.9010949593
 31
0.0
  0
LINE
  5
48B
330
1F
100
AcDbEntity
  8
0
  6
Continuous
 62
     7
370
    25
100
AcDbLine
 10
12.8220164586
 20
25.11818338
 30
0.0
 11
12.8220164586
 21
25.8090065386
 31
0.0
  0
LINE
  5
48C
330
1F
100
AcDbEntity
  8
0
  6
Continuous
 62
     7
370
    25
100
AcDbLine
 10
14.8220164586
 20
25.8090065386
 30
0.0
 11
14.7299280379
 21
25.9010949593
 31
0.0
  0
LINE
  5
48D
330
1F
100
AcDbEntity
  8
0
  6
Continuous
 62
     7
370
    25
100
AcDbLine
 10
15.5128396172
 20
25.8090065386
 30
0.0
 11
15.6049280379
 21
25.9010949593
 31
0.0
  0
LINE
  5
48E
330
1F
100
AcDbEntity
  8
0
  6
Continuous
 62
     7
370
    25
100
AcDbLine
 10
14.8220164586
 20
25.8090065386
 30
0.0
 11
15.5128396172
 21
25.8090065386
 31
0.0
  0
LINE
  5
48F
330
1F
100
AcDbEntity
  8
0
  6
Continuous
 62
     7
370
    25
100
AcDbLine
 10
14.8220164586
 20
25.11818338
 30
0.0
 11
14.7299280379
 21
25.0260949593
 31
0.0
  0
LINE
  5
490
330
1F
100
AcDbEntity
  8
0
  6
Continuous
 62
     7
370
    25
100
AcDbLine
 10
14.8220164586
 20
25.11818338
 30
0.0
 11
14.8220164586
 21
25.8090065386
 31
0.0
  0
LINE
  5
491
330
1F
100
AcDbEntity
  8
0
  6
Continuous
 62
     7
370
    25
100
AcDbLine
 10
13.8220164586
 20
25.8090065386
 30
0.0
 11
14.5128396172
 21
25.8090065386
 31
0.0
  0
LINE
  5
492
330
1F
100
AcDbEntity
  8
0
  6
Continuous
 62
     7
370
    25
100
AcDbLine
 10
15.5128396172
 20
25.11818338
 30
0.0
 11
15.6049280379
 21
25.0260949593
 31
0.0
  0
LINE
  5
493
330
1F
100
AcDbEntity
  8
0
  6
Continuous
 62
     7
370
    25
100
AcDbLine
 10
15.5128396172
 20
25.8090065386
 30
0.0
 11
15.5128396172
 21
25.11818338
 31
0.0
  0
LINE
  5
494
330
1F
100
AcDbEntity
  8
0
  6
Continuous
 62
     7
370
    25
100
AcDbLine
 10
12.5128396172
 20
25.8090065386
 30
0.0
 11
12.6049280379
 21
25.9010949593
 31
0.0
  0
LINE
  5
495
330
1F
100
AcDbEntity
  8
0
  6
Continuous
 62
     7
370
    25
100
AcDbLine
 10
12.5128396172
 20
25.11818338
 30
0.0
 11
12.6049280379
 21
25.0260949593
 31
0.0
  0
LINE
  5
496
330
1F
100
AcDbEntity
  8
0
  6
Continuous
 62
     7
370
    25
100
AcDbLine
 10
12.5128396172
 20
25.8090065386
 30
0.0
 11
12.5128396172
 21
25.11818338
 31
0.0
  0
LINE
  5
497
330
1F
100
AcDbEntity
  8
0
  6
Continuous
 62
     7
370
    25
100
AcDbLine
 10
10.5128396172
 20
25.11818338
 30
0.0
 11
10.6049280379
 21
25.0260949593
 31
0.0
  0
LINE
  5
498
330
1F
100
AcDbEntity
  8
0
  6
Continuous
 62
     7
370
    25
100
AcDbLine
 10
10.5128396172
 20
25.8090065386
 30
0.0
 11
10.5128396172
 21
25.11818338
 31
0.0
  0
LINE
  5
499
330
1F
100
AcDbEntity
  8
0
  6
Continuous
 62
     7
370
    25
100
AcDbLine
 10
10.5128396172
 20
26.11818338
 30
0.0
 11
9.8220164586
 21
26.11818338
 31
0.0
  0
LINE
  5
49A
330
1F
100
AcDbEntity
  8
0
  6
Continuous
 62
     7
370
    25
100
AcDbLine
 10
11.8220164586
 20
25.8090065386
 30
0.0
 11
12.5128396172
 21
25.8090065386
 31
0.0
  0
LINE
  5
49B
330
1F
100
AcDbEntity
  8
0
  6
Continuous
 62
     7
370
    25
100
AcDbLine
 10
12.8220164586
 20
25.8090065386
 30
0.0
 11
13.5128396172
 21
25.8090065386
 31
0.0
  0
LINE
  5
49C
330
1F
100
AcDbEntity
  8
0
  6
Continuous
 62
     7
370
    25
100
AcDbLine
 10
13.5128396172
 20
25.11818338
 30
0.0
 11
12.8220164586
 21
25.11818338
 31
0.0
  0
LINE
  5
49D
330
1F
100
AcDbEntity
  8
0
  6
Continuous
 62
     7
370
    25
100
AcDbLine
 10
10.5128396172
 20
25.11818338
 30
0.0
 11
9.8220164586
 21
25.11818338
 31
0.0
  0
LINE
  5
49E
330
1F
100
AcDbEntity
  8
0
  6
Continuous
 62
     7
370
    25
100
AcDbLine
 10
15.5128396172
 20
25.11818338
 30
0.0
 11
14.8220164586
 21
25.11818338
 31
0.0
  0
LINE
  5
49F
330
1F
100
AcDbEntity
  8
0
  6
Continuous
 62
     7
370
    25
100
AcDbLine
 10
11.5128396172
 20
25.11818338
 30
0.0
 11
10.8220164586
 21
25.11818338
 31
0.0
  0
LINE
  5
4A0
330
1F
100
AcDbEntity
  8
0
  6
Continuous
 62
     7
370
    25
100
AcDbLine
 10
14.5128396172
 20
25.11818338
 30
0.0
 11
13.8220164586
 21
25.11818338
 31
0.0
  0
LINE
  5
4A1
330
1F
100
AcDbEntity
  8
0
  6
Continuous
 62
     7
370
    25
100
AcDbLine
 10
12.5128396172
 20
25.11818338
 30
0.0
 11
11.8220164586
 21
25.11818338
 31
0.0
  0
LINE
  5
4A2
330
1F
100
AcDbEntity
  8
0
  6
Continuous
 62
     7
370
    25
100
AcDbLine
 10
12.8220164586
 20
24.11818338
 30
0.0
 11
12.7299280379
 21
24.0260949593
 31
0.0
  0
LINE
  5
4A3
330
1F
100
AcDbEntity
  8
0
  6
Continuous
 62
     7
370
    25
100
AcDbLine
 10
12.8220164586
 20
24.8090065386
 30
0.0
 11
12.7299280379
 21
24.9010949593
 31
0.0
  0
LINE
  5
4A4
330
1F
100
AcDbEntity
  8
0
  6
Continuous
 62
     7
370
    25
100
AcDbLine
 10
12.8220164586
 20
24.11818338
 30
0.0
 11
12.8220164586
 21
24.8090065386
 31
0.0
  0
LINE
  5
4A5
330
1F
100
AcDbEntity
  8
0
  6
Continuous
 62
     7
370
    25
100
AcDbLine
 10
12.5128396172
 20
24.8090065386
 30
0.0
 11
12.6049280379
 21
24.9010949593
 31
0.0
  0
LINE
  5
4A6
330
1F
100
AcDbEntity
  8
0
  6
Continuous
 62
     7
370
    25
100
AcDbLine
 10
12.5128396172
 20
24.11818338
 30
0.0
 11
12.6049280379
 21
24.0260949593
 31
0.0
  0
LINE
  5
4A7
330
1F
100
AcDbEntity
  8
0
  6
Continuous
 62
     7
370
    25
100
AcDbLine
 10
12.5128396172
 20
24.8090065386
 30
0.0
 11
12.5128396172
 21
24.11818338
 31
0.0
  0
LINE
  5
4A8
330
1F
100
AcDbEntity
  8
0
  6
Continuous
 62
     7
370
    25
100
AcDbLine
 10
14.5128396172
 20
24.8090065386
 30
0.0
 11
14.6049280379
 21
24.9010949593
 31
0.0
  0
LINE
  5
4A9
330
1F
100
AcDbEntity
  8
0
  6
Continuous
 62
     7
370
    25
100
AcDbLine
 10
14.5128396172
 20
24.11818338
 30
0.0
 11
14.6049280379
 21
24.0260949593
 31
0.0
  0
LINE
  5
4AA
330
1F
100
AcDbEntity
  8
0
  6
Continuous
 62
     7
370
    25
100
AcDbLine
 10
14.5128396172
 20
24.8090065386
 30
0.0
 11
14.5128396172
 21
24.11818338
 31
0.0
  0
LINE
  5
4AB
330
1F
100
AcDbEntity
  8
0
  6
Continuous
 62
     7
370
    25
100
AcDbLine
 10
11.8220164586
 20
24.11818338
 30
0.0
 11
11.7299280379
 21
24.0260949593
 31
0.0
  0
LINE
  5
4AC
330
1F
100
AcDbEntity
  8
0
  6
Continuous
 62
     7
370
    25
100
AcDbLine
 10
11.8220164586
 20
24.8090065386
 30
0.0
 11
11.7299280379
 21
24.9010949593
 31
0.0
  0
LINE
  5
4AD
330
1F
100
AcDbEntity
  8
0
  6
Continuous
 62
     7
370
    25
100
AcDbLine
 10
11.8220164586
 20
24.11818338
 30
0.0
 11
11.8220164586
 21
24.8090065386
 31
0.0
  0
LINE
  5
4AE
330
1F
100
AcDbEntity
  8
0
  6
Continuous
 62
     7
370
    25
100
AcDbLine
 10
13.8220164586
 20
24.11818338
 30
0.0
 11
13.7299280379
 21
24.0260949593
 31
0.0
  0
LINE
  5
4AF
330
1F
100
AcDbEntity
  8
0
  6
Continuous
 62
     7
370
    25
100
AcDbLine
 10
13.8220164586
 20
24.8090065386
 30
0.0
 11
13.7299280379
 21
24.9010949593
 31
0.0
  0
LINE
  5
4B0
330
1F
100
AcDbEntity
  8
0
  6
Continuous
 62
     7
370
    25
100
AcDbLine
 10
13.8220164586
 20
24.11818338
 30
0.0
 11
13.8220164586
 21
24.8090065386
 31
0.0
  0
LINE
  5
4B1
330
1F
100
AcDbEntity
  8
0
  6
Continuous
 62
     7
370
    25
100
AcDbLine
 10
13.5128396172
 20
24.8090065386
 30
0.0
 11
13.6049280379
 21
24.9010949593
 31
0.0
  0
LINE
  5
4B2
330
1F
100
AcDbEntity
  8
0
  6
Continuous
 62
     7
370
    25
100
AcDbLine
 10
12.8220164586
 20
24.8090065386
 30
0.0
 11
13.5128396172
 21
24.8090065386
 31
0.0
  0
LINE
  5
4B3
330
1F
100
AcDbEntity
  8
0
  6
Continuous
 62
     7
370
    25
100
AcDbLine
 10
14.8220164586
 20
24.8090065386
 30
0.0
 11
14.7299280379
 21
24.9010949593
 31
0.0
  0
LINE
  5
4B4
330
1F
100
AcDbEntity
  8
0
  6
Continuous
 62
     7
370
    25
100
AcDbLine
 10
15.5128396172
 20
24.8090065386
 30
0.0
 11
15.6049280379
 21
24.9010949593
 31
0.0
  0
LINE
  5
4B5
330
1F
100
AcDbEntity
  8
0
  6
Continuous
 62
     7
370
    25
100
AcDbLine
 10
14.8220164586
 20
24.8090065386
 30
0.0
 11
15.5128396172
 21
24.8090065386
 31
0.0
  0
LINE
  5
4B6
330
1F
100
AcDbEntity
  8
0
  6
Continuous
 62
     7
370
    25
100
AcDbLine
 10
14.8220164586
 20
24.11818338
 30
0.0
 11
14.7299280379
 21
24.0260949593
 31
0.0
  0
LINE
  5
4B7
330
1F
100
AcDbEntity
  8
0
  6
Continuous
 62
     7
370
    25
100
AcDbLine
 10
14.8220164586
 20
24.11818338
 30
0.0
 11
14.8220164586
 21
24.8090065386
 31
0.0
  0
LINE
  5
4B8
330
1F
100
AcDbEntity
  8
0
  6
Continuous
 62
     7
370
    25
100
AcDbLine
 10
13.5128396172
 20
24.11818338
 30
0.0
 11
13.6049280379
 21
24.0260949593
 31
0.0
  0
LINE
  5
4B9
330
1F
100
AcDbEntity
  8
0
  6
Continuous
 62
     7
370
    25
100
AcDbLine
 10
13.5128396172
 20
24.8090065386
 30
0.0
 11
13.5128396172
 21
24.11818338
 31
0.0
  0
LINE
  5
4BA
330
1F
100
AcDbEntity
  8
0
  6
Continuous
 62
     7
370
    25
100
AcDbLine
 10
15.5128396172
 20
24.11818338
 30
0.0
 11
15.6049280379
 21
24.0260949593
 31
0.0
  0
LINE
  5
4BB
330
1F
100
AcDbEntity
  8
0
  6
Continuous
 62
     7
370
    25
100
AcDbLine
 10
15.5128396172
 20
24.8090065386
 30
0.0
 11
15.5128396172
 21
24.11818338
 31
0.0
  0
LINE
  5
4BC
330
1F
100
AcDbEntity
  8
0
  6
Continuous
 62
     7
370
    25
100
AcDbLine
 10
13.8220164586
 20
24.8090065386
 30
0.0
 11
14.5128396172
 21
24.8090065386
 31
0.0
  0
LINE
  5
4BD
330
1F
100
AcDbEntity
  8
0
  6
Continuous
 62
     7
370
    25
100
AcDbLine
 10
10.5128396172
 20
24.8090065386
 30
0.0
 11
10.6049280379
 21
24.9010949593
 31
0.0
  0
LINE
  5
4BE
330
1F
100
AcDbEntity
  8
0
  6
Continuous
 62
     7
370
    25
100
AcDbLine
 10
10.5128396172
 20
24.11818338
 30
0.0
 11
10.6049280379
 21
24.0260949593
 31
0.0
  0
LINE
  5
4BF
330
1F
100
AcDbEntity
  8
0
  6
Continuous
 62
     7
370
    25
100
AcDbLine
 10
10.5128396172
 20
24.8090065386
 30
0.0
 11
10.5128396172
 21
24.11818338
 31
0.0
  0
LINE
  5
4C0
330
1F
100
AcDbEntity
  8
0
  6
Continuous
 62
     7
370
    25
100
AcDbLine
 10
10.8220164586
 20
24.11818338
 30
0.0
 11
10.7299280379
 21
24.0260949593
 31
0.0
  0
LINE
  5
4C1
330
1F
100
AcDbEntity
  8
0
  6
Continuous
 62
     7
370
    25
100
AcDbLine
 10
10.8220164586
 20
24.8090065386
 30
0.0
 11
10.7299280379
 21
24.9010949593
 31
0.0
  0
LINE
  5
4C2
330
1F
100
AcDbEntity
  8
0
  6
Continuous
 62
     7
370
    25
100
AcDbLine
 10
10.8220164586
 20
24.11818338
 30
0.0
 11
10.8220164586
 21
24.8090065386
 31
0.0
  0
LINE
  5
4C3
330
1F
100
AcDbEntity
  8
0
  6
Continuous
 62
     7
370
    25
100
AcDbLine
 10
9.8220164586
 20
24.11818338
 30
0.0
 11
9.7299280379
 21
24.0260949593
 31
0.0
  0
LINE
  5
4C4
330
1F
100
AcDbEntity
  8
0
  6
Continuous
 62
     7
370
    25
100
AcDbLine
 10
9.8220164586
 20
24.8090065386
 30
0.0
 11
9.7299280379
 21
24.9010949593
 31
0.0
  0
LINE
  5
4C5
330
1F
100
AcDbEntity
  8
0
  6
Continuous
 62
     7
370
    25
100
AcDbLine
 10
9.8220164586
 20
24.11818338
 30
0.0
 11
9.8220164586
 21
24.8090065386
 31
0.0
  0
LINE
  5
4C6
330
1F
100
AcDbEntity
  8
0
  6
Continuous
 62
     7
370
    25
100
AcDbLine
 10
11.8220164586
 20
24.8090065386
 30
0.0
 11
12.5128396172
 21
24.8090065386
 31
0.0
  0
LINE
  5
4C7
330
1F
100
AcDbEntity
  8
0
  6
Continuous
 62
     7
370
    25
100
AcDbLine
 10
9.8220164586
 20
24.8090065386
 30
0.0
 11
10.5128396172
 21
24.8090065386
 31
0.0
  0
LINE
  5
4C8
330
1F
100
AcDbEntity
  8
0
  6
Continuous
 62
     7
370
    25
100
AcDbLine
 10
11.5128396172
 20
24.8090065386
 30
0.0
 11
11.6049280379
 21
24.9010949593
 31
0.0
  0
LINE
  5
4C9
330
1F
100
AcDbEntity
  8
0
  6
Continuous
 62
     7
370
    25
100
AcDbLine
 10
10.8220164586
 20
24.8090065386
 30
0.0
 11
11.5128396172
 21
24.8090065386
 31
0.0
  0
LINE
  5
4CA
330
1F
100
AcDbEntity
  8
0
  6
Continuous
 62
     7
370
    25
100
AcDbLine
 10
11.5128396172
 20
24.11818338
 30
0.0
 11
11.6049280379
 21
24.0260949593
 31
0.0
  0
LINE
  5
4CB
330
1F
100
AcDbEntity
  8
0
  6
Continuous
 62
     7
370
    25
100
AcDbLine
 10
11.5128396172
 20
24.8090065386
 30
0.0
 11
11.5128396172
 21
24.11818338
 31
0.0
  0
LINE
  5
4CC
330
1F
100
AcDbEntity
  8
0
  6
Continuous
 62
     7
370
    25
100
AcDbLine
 10
13.5128396172
 20
24.11818338
 30
0.0
 11
12.8220164586
 21
24.11818338
 31
0.0
  0
LINE
  5
4CD
330
1F
100
AcDbEntity
  8
0
  6
Continuous
 62
     7
370
    25
100
AcDbLine
 10
14.5128396172
 20
24.11818338
 30
0.0
 11
13.8220164586
 21
24.11818338
 31
0.0
  0
LINE
  5
4CE
330
1F
100
AcDbEntity
  8
0
  6
Continuous
 62
     7
370
    25
100
AcDbLine
 10
15.5128396172
 20
24.11818338
 30
0.0
 11
14.8220164586
 21
24.11818338
 31
0.0
  0
LINE
  5
4CF
330
1F
100
AcDbEntity
  8
0
  6
Continuous
 62
     7
370
    25
100
AcDbLine
 10
11.5128396172
 20
24.11818338
 30
0.0
 11
10.8220164586
 21
24.11818338
 31
0.0
  0
LINE
  5
4D0
330
1F
100
AcDbEntity
  8
0
  6
Continuous
 62
     7
370
    25
100
AcDbLine
 10
10.5128396172
 20
24.11818338
 30
0.0
 11
9.8220164586
 21
24.11818338
 31
0.0
  0
LINE
  5
4D1
330
1F
100
AcDbEntity
  8
0
  6
Continuous
 62
     7
370
    25
100
AcDbLine
 10
12.5128396172
 20
24.11818338
 30
0.0
 11
11.8220164586
 21
24.11818338
 31
0.0
  0
LINE
  5
4D2
330
1F
100
AcDbEntity
  8
0
  6
Continuous
 62
     7
370
    25
100
AcDbLine
 10
12.5128396172
 20
23.8090065386
 30
0.0
 11
12.6049280379
 21
23.9010949593
 31
0.0
  0
LINE
  5
4D3
330
1F
100
AcDbEntity
  8
0
  6
Continuous
 62
     7
370
    25
100
AcDbLine
 10
12.5128396172
 20
23.11818338
 30
0.0
 11
12.6049280379
 21
23.0260949593
 31
0.0
  0
LINE
  5
4D4
330
1F
100
AcDbEntity
  8
0
  6
Continuous
 62
     7
370
    25
100
AcDbLine
 10
12.5128396172
 20
23.8090065386
 30
0.0
 11
12.5128396172
 21
23.11818338
 31
0.0
  0
LINE
  5
4D5
330
1F
100
AcDbEntity
  8
0
  6
Continuous
 62
     7
370
    25
100
AcDbLine
 10
11.5128396172
 20
23.8090065386
 30
0.0
 11
11.6049280379
 21
23.9010949593
 31
0.0
  0
LINE
  5
4D6
330
1F
100
AcDbEntity
  8
0
  6
Continuous
 62
     7
370
    25
100
AcDbLine
 10
11.5128396172
 20
23.11818338
 30
0.0
 11
11.6049280379
 21
23.0260949593
 31
0.0
  0
LINE
  5
4D7
330
1F
100
AcDbEntity
  8
0
  6
Continuous
 62
     7
370
    25
100
AcDbLine
 10
11.5128396172
 20
23.8090065386
 30
0.0
 11
11.5128396172
 21
23.11818338
 31
0.0
  0
LINE
  5
4D8
330
1F
100
AcDbEntity
  8
0
  6
Continuous
 62
     7
370
    25
100
AcDbLine
 10
9.8066683885
 20
23.1028353098
 30
0.0
 11
9.7299280379
 21
23.0260949593
 31
0.0
  0
LINE
  5
4D9
330
1F
100
AcDbEntity
  8
0
  6
Continuous
 62
     7
370
    25
100
AcDbLine
 10
9.8066683885
 20
23.8243546087
 30
0.0
 11
9.7299280379
 21
23.9010949593
 31
0.0
  0
LINE
  5
4DA
330
1F
100
AcDbEntity
  8
0
  6
Continuous
 62
     7
370
    25
100
AcDbLine
 10
9.8066683885
 20
23.1028353098
 30
0.0
 11
9.8066683885
 21
23.8243546087
 31
0.0
  0
LINE
  5
4DB
330
1F
100
AcDbEntity
  8
0
  6
Continuous
 62
     7
370
    25
100
AcDbLine
 10
12.8220164586
 20
23.8090065386
 30
0.0
 11
12.7299280379
 21
23.9010949593
 31
0.0
  0
LINE
  5
4DC
330
1F
100
AcDbEntity
  8
0
  6
Continuous
 62
     7
370
    25
100
AcDbLine
 10
13.5128396172
 20
23.8090065386
 30
0.0
 11
13.6049280379
 21
23.9010949593
 31
0.0
  0
LINE
  5
4DD
330
1F
100
AcDbEntity
  8
0
  6
Continuous
 62
     7
370
    25
100
AcDbLine
 10
12.8220164586
 20
23.8090065386
 30
0.0
 11
13.5128396172
 21
23.8090065386
 31
0.0
  0
LINE
  5
4DE
330
1F
100
AcDbEntity
  8
0
  6
Continuous
 62
     7
370
    25
100
AcDbLine
 10
13.8220164586
 20
23.8090065386
 30
0.0
 11
13.7299280379
 21
23.9010949593
 31
0.0
  0
LINE
  5
4DF
330
1F
100
AcDbEntity
  8
0
  6
Continuous
 62
     7
370
    25
100
AcDbLine
 10
14.5128396172
 20
23.8090065386
 30
0.0
 11
14.6049280379
 21
23.9010949593
 31
0.0
  0
LINE
  5
4E0
330
1F
100
AcDbEntity
  8
0
  6
Continuous
 62
     7
370
    25
100
AcDbLine
 10
13.8220164586
 20
23.8090065386
 30
0.0
 11
14.5128396172
 21
23.8090065386
 31
0.0
  0
LINE
  5
4E1
330
1F
100
AcDbEntity
  8
0
  6
Continuous
 62
     7
370
    25
100
AcDbLine
 10
10.8220164586
 20
23.8090065386
 30
0.0
 11
10.7299280379
 21
23.9010949593
 31
0.0
  0
LINE
  5
4E2
330
1F
100
AcDbEntity
  8
0
  6
Continuous
 62
     7
370
    25
100
AcDbLine
 10
10.8220164586
 20
23.8090065386
 30
0.0
 11
11.5128396172
 21
23.8090065386
 31
0.0
  0
LINE
  5
4E3
330
1F
100
AcDbEntity
  8
0
  6
Continuous
 62
     7
370
    25
100
AcDbLine
 10
10.8220164586
 20
23.11818338
 30
0.0
 11
10.7299280379
 21
23.0260949593
 31
0.0
  0
LINE
  5
4E4
330
1F
100
AcDbEntity
  8
0
  6
Continuous
 62
     7
370
    25
100
AcDbLine
 10
10.8220164586
 20
23.11818338
 30
0.0
 11
10.8220164586
 21
23.8090065386
 31
0.0
  0
LINE
  5
4E5
330
1F
100
AcDbEntity
  8
0
  6
Continuous
 62
     7
370
    25
100
AcDbLine
 10
12.8220164586
 20
23.11818338
 30
0.0
 11
12.7299280379
 21
23.0260949593
 31
0.0
  0
LINE
  5
4E6
330
1F
100
AcDbEntity
  8
0
  6
Continuous
 62
     7
370
    25
100
AcDbLine
 10
12.8220164586
 20
23.11818338
 30
0.0
 11
12.8220164586
 21
23.8090065386
 31
0.0
  0
LINE
  5
4E7
330
1F
100
AcDbEntity
  8
0
  6
Continuous
 62
     7
370
    25
100
AcDbLine
 10
10.5281876873
 20
23.8243546087
 30
0.0
 11
10.6049280379
 21
23.9010949593
 31
0.0
  0
LINE
  5
4E8
330
1F
100
AcDbEntity
  8
0
  6
Continuous
 62
     7
370
    25
100
AcDbLine
 10
9.8066683885
 20
23.8243546087
 30
0.0
 11
10.5281876873
 21
23.8243546087
 31
0.0
  0
LINE
  5
4E9
330
1F
100
AcDbEntity
  8
0
  6
Continuous
 62
     7
370
    25
100
AcDbLine
 10
13.5128396172
 20
23.11818338
 30
0.0
 11
13.6049280379
 21
23.0260949593
 31
0.0
  0
LINE
  5
4EA
330
1F
100
AcDbEntity
  8
0
  6
Continuous
 62
     7
370
    25
100
AcDbLine
 10
13.5128396172
 20
23.8090065386
 30
0.0
 11
13.5128396172
 21
23.11818338
 31
0.0
  0
LINE
  5
4EB
330
1F
100
AcDbEntity
  8
0
  6
Continuous
 62
     7
370
    25
100
AcDbLine
 10
11.8220164586
 20
23.11818338
 30
0.0
 11
11.7299280379
 21
23.0260949593
 31
0.0
  0
LINE
  5
4EC
330
1F
100
AcDbEntity
  8
0
  6
Continuous
 62
     7
370
    25
100
AcDbLine
 10
11.8220164586
 20
23.8090065386
 30
0.0
 11
11.7299280379
 21
23.9010949593
 31
0.0
  0
LINE
  5
4ED
330
1F
100
AcDbEntity
  8
0
  6
Continuous
 62
     7
370
    25
100
AcDbLine
 10
11.8220164586
 20
23.11818338
 30
0.0
 11
11.8220164586
 21
23.8090065386
 31
0.0
  0
LINE
  5
4EE
330
1F
100
AcDbEntity
  8
0
  6
Continuous
 62
     7
370
    25
100
AcDbLine
 10
14.8066683885
 20
23.1028353098
 30
0.0
 11
14.7299280379
 21
23.0260949593
 31
0.0
  0
LINE
  5
4EF
330
1F
100
AcDbEntity
  8
0
  6
Continuous
 62
     7
370
    25
100
AcDbLine
 10
14.8066683885
 20
23.8243546087
 30
0.0
 11
14.7299280379
 21
23.9010949593
 31
0.0
  0
LINE
  5
4F0
330
1F
100
AcDbEntity
  8
0
  6
Continuous
 62
     7
370
    25
100
AcDbLine
 10
14.8066683885
 20
23.1028353098
 30
0.0
 11
14.8066683885
 21
23.8243546087
 31
0.0
  0
LINE
  5
4F1
330
1F
100
AcDbEntity
  8
0
  6
Continuous
 62
     7
370
    25
100
AcDbLine
 10
13.8220164586
 20
23.11818338
 30
0.0
 11
13.7299280379
 21
23.0260949593
 31
0.0
  0
LINE
  5
4F2
330
1F
100
AcDbEntity
  8
0
  6
Continuous
 62
     7
370
    25
100
AcDbLine
 10
13.8220164586
 20
23.11818338
 30
0.0
 11
13.8220164586
 21
23.8090065386
 31
0.0
  0
LINE
  5
4F3
330
1F
100
AcDbEntity
  8
0
  6
Continuous
 62
     7
370
    25
100
AcDbLine
 10
15.5281876873
 20
23.8243546087
 30
0.0
 11
15.6049280379
 21
23.9010949593
 31
0.0
  0
LINE
  5
4F4
330
1F
100
AcDbEntity
  8
0
  6
Continuous
 62
     7
370
    25
100
AcDbLine
 10
15.5281876873
 20
23.1028353098
 30
0.0
 11
15.6049280379
 21
23.0260949593
 31
0.0
  0
LINE
  5
4F5
330
1F
100
AcDbEntity
  8
0
  6
Continuous
 62
     7
370
    25
100
AcDbLine
 10
15.5281876873
 20
23.8243546087
 30
0.0
 11
15.5281876873
 21
23.1028353098
 31
0.0
  0
LINE
  5
4F6
330
1F
100
AcDbEntity
  8
0
  6
Continuous
 62
     7
370
    25
100
AcDbLine
 10
14.5128396172
 20
23.11818338
 30
0.0
 11
14.6049280379
 21
23.0260949593
 31
0.0
  0
LINE
  5
4F7
330
1F
100
AcDbEntity
  8
0
  6
Continuous
 62
     7
370
    25
100
AcDbLine
 10
14.5128396172
 20
23.8090065386
 30
0.0
 11
14.5128396172
 21
23.11818338
 31
0.0
  0
LINE
  5
4F8
330
1F
100
AcDbEntity
  8
0
  6
Continuous
 62
     7
370
    25
100
AcDbLine
 10
11.8220164586
 20
23.8090065386
 30
0.0
 11
12.5128396172
 21
23.8090065386
 31
0.0
  0
LINE
  5
4F9
330
1F
100
AcDbEntity
  8
0
  6
Continuous
 62
     7
370
    25
100
AcDbLine
 10
10.5281876873
 20
23.1028353098
 30
0.0
 11
10.6049280379
 21
23.0260949593
 31
0.0
  0
LINE
  5
4FA
330
1F
100
AcDbEntity
  8
0
  6
Continuous
 62
     7
370
    25
100
AcDbLine
 10
10.5281876873
 20
23.8243546087
 30
0.0
 11
10.5281876873
 21
23.1028353098
 31
0.0
  0
LINE
  5
4FB
330
1F
100
AcDbEntity
  8
0
  6
Continuous
 62
     7
370
    25
100
AcDbLine
 10
14.8066683885
 20
23.8243546087
 30
0.0
 11
15.5281876873
 21
23.8243546087
 31
0.0
  0
LINE
  5
4FC
330
1F
100
AcDbEntity
  8
0
  6
Continuous
 62
     7
370
    25
100
AcDbLine
 10
13.5128396172
 20
23.11818338
 30
0.0
 11
12.8220164586
 21
23.11818338
 31
0.0
  0
LINE
  5
4FD
330
1F
100
AcDbEntity
  8
0
  6
Continuous
 62
     7
370
    25
100
AcDbLine
 10
15.5281876873
 20
23.1028353098
 30
0.0
 11
14.8066683885
 21
23.1028353098
 31
0.0
  0
LINE
  5
4FE
330
1F
100
AcDbEntity
  8
0
  6
Continuous
 62
     7
370
    25
100
AcDbLine
 10
14.5128396172
 20
23.11818338
 30
0.0
 11
13.8220164586
 21
23.11818338
 31
0.0
  0
LINE
  5
4FF
330
1F
100
AcDbEntity
  8
0
  6
Continuous
 62
     7
370
    25
100
AcDbLine
 10
11.5128396172
 20
23.11818338
 30
0.0
 11
10.8220164586
 21
23.11818338
 31
0.0
  0
LINE
  5
500
330
1F
100
AcDbEntity
  8
0
  6
Continuous
 62
     7
370
    25
100
AcDbLine
 10
10.5281876873
 20
23.1028353098
 30
0.0
 11
9.8066683885
 21
23.1028353098
 31
0.0
  0
LINE
  5
501
330
1F
100
AcDbEntity
  8
0
  6
Continuous
 62
     7
370
    25
100
AcDbLine
 10
12.5128396172
 20
23.11818338
 30
0.0
 11
11.8220164586
 21
23.11818338
 31
0.0
  0
LINE
  5
502
330
1F
100
AcDbEntity
  8
0
  6
Continuous
 62
     7
370
    25
100
AcDbLine
 10
9.4315677184
 20
22.6994248577
 30
0.0
 11
15.9315981395
 21
22.6994248577
 31
0.0
  0
LINE
  5
503
330
1F
100
AcDbEntity
  8
0
  6
Continuous
 62
     7
370
    25
100
AcDbLine
 10
10.440482929
 20
26.2569552788
 30
0.0
 11
10.488282929
 21
26.2569552788
 31
0.0
  0
LINE
  5
504
330
1F
100
AcDbEntity
  8
0
  6
Continuous
 62
     7
370
    25
100
AcDbLine
 10
10.488282929
 20
26.2569552788
 30
0.0
 11
10.488282929
 21
26.6994552788
 31
0.0
  0
LINE
  5
505
330
1F
100
AcDbEntity
  8
0
  6
Continuous
 62
     7
370
    25
100
AcDbLine
 10
10.440482929
 20
26.2569552788
 30
0.0
 11
10.440482929
 21
26.6994552788
 31
0.0
  0
LINE
  5
506
330
1F
100
AcDbEntity
  8
0
  6
Continuous
 62
     7
370
    25
100
AcDbLine
 10
10.488282929
 20
26.11818338
 30
0.0
 11
10.488282929
 21
26.2569552788
 31
0.0
  0
LINE
  5
507
330
1F
100
AcDbEntity
  8
0
  6
Continuous
 62
     7
370
    25
100
AcDbLine
 10
10.440482929
 20
26.11818338
 30
0.0
 11
10.440482929
 21
26.2569552788
 31
0.0
  0
ARC
  5
508
330
1F
100
AcDbEntity
  8
0
  6
Continuous
 62
     7
370
    25
100
AcDbCircle
 10
12.613282929
 20
26.9494552788
 30
0.0
 40
0.9375000000000049
100
AcDbArc
 50
16.3566877187
 51
66.4705041721
  0
ARC
  5
509
330
1F
100
AcDbEntity
  8
0
  6
Continuous
 62
     7
370
    25
100
AcDbCircle
 10
12.613282929
 20
26.9494552788
 30
0.0
 40
0.9374999999999969
100
AcDbArc
 50
297.539780698
 51
343.6433122813
  0
ARC
  5
50A
330
1F
100
AcDbEntity
  8
0
  6
Continuous
 62
     7
370
    25
100
AcDbCircle
 10
12.613282929
 20
26.9494552788
 30
0.0
 40
0.9374999999999997
100
AcDbArc
 50
212.4331712528
 51
242.460219302
  0
ARC
  5
50B
330
1F
100
AcDbEntity
  8
0
  6
Continuous
 62
     7
370
    25
100
AcDbCircle
 10
12.613282929
 20
26.9494552788
 30
0.0
 40
0.9375000000000063
100
AcDbArc
 50
113.5294958279
 51
147.5668287472
  0
LINE
  5
50C
330
1F
100
AcDbEntity
  8
0
  6
Continuous
 62
     7
370
    25
100
AcDbLine
 10
11.425482929
 20
25.6994552788
 30
0.0
 11
11.425482929
 21
25.8090065386
 31
0.0
  0
LINE
  5
50D
330
1F
100
AcDbEntity
  8
0
  6
Continuous
 62
     7
370
    25
100
AcDbLine
 10
11.425482929
 20
26.11818338
 30
0.0
 11
11.425482929
 21
26.8090065386
 31
0.0
  0
LINE
  5
50E
330
1F
100
AcDbEntity
  8
0
  6
Continuous
 62
     7
370
    25
100
AcDbLine
 10
11.425482929
 20
27.11818338
 30
0.0
 11
11.425482929
 21
27.8090065386
 31
0.0
  0
LINE
  5
50F
330
1F
100
AcDbEntity
  8
0
  6
Continuous
 62
     7
370
    25
100
AcDbLine
 10
11.425482929
 20
25.6994552788
 30
0.0
 11
11.5128396172
 21
25.6994552788
 31
0.0
  0
LINE
  5
510
330
1F
100
AcDbEntity
  8
0
  6
Continuous
 62
     7
370
    25
100
AcDbLine
 10
13.863582929
 20
26.6319552788
 30
0.0
 11
13.8220164586
 21
26.6319552788
 31
0.0
  0
LINE
  5
511
330
1F
100
AcDbEntity
  8
0
  6
Continuous
 62
     7
370
    25
100
AcDbLine
 10
11.425482929
 20
26.6319552788
 30
0.0
 11
11.362982929
 21
26.6319552788
 31
0.0
  0
LINE
  5
512
330
1F
100
AcDbEntity
  8
0
  6
Continuous
 62
     7
370
    25
100
AcDbLine
 10
10.5128396172
 20
26.6319552788
 30
0.0
 11
10.488282929
 21
26.6319552788
 31
0.0
  0
LINE
  5
513
330
1F
100
AcDbEntity
  8
0
  6
Continuous
 62
     7
370
    25
100
AcDbLine
 10
13.863582929
 20
26.6319552788
 30
0.0
 11
14.5128396172
 21
26.6319552788
 31
0.0
  0
LINE
  5
514
330
1F
100
AcDbEntity
  8
0
  6
Continuous
 62
     7
370
    25
100
AcDbLine
 10
10.8220164586
 20
26.6319552788
 30
0.0
 11
11.362982929
 21
26.6319552788
 31
0.0
  0
ARC
  5
515
330
1F
100
AcDbEntity
  8
0
  6
Continuous
 62
     7
370
    25
100
AcDbCircle
 10
12.613282929
 20
26.9494552788
 30
0.0
 40
0.8900000000000016
100
AcDbArc
 50
10.9283991526
 51
74.9695041731
  0
ARC
  5
516
330
1F
100
AcDbEntity
  8
0
  6
Continuous
 62
     7
370
    25
100
AcDbCircle
 10
12.613282929
 20
26.9494552788
 30
0.0
 40
0.8900000000000015
100
AcDbArc
 50
290.9306718987
 51
350.9203372251
  0
ARC
  5
517
330
1F
100
AcDbEntity
  8
0
  6
Continuous
 62
     7
370
    25
100
AcDbCircle
 10
12.613282929
 20
26.9494552788
 30
0.0
 40
0.8899999999999993
100
AcDbArc
 50
207.2442046611
 51
249.0693281013
  0
ARC
  5
518
330
1F
100
AcDbEntity
  8
0
  6
Continuous
 62
     7
370
    25
100
AcDbCircle
 10
12.613282929
 20
26.9494552788
 30
0.0
 40
0.8899999999999993
100
AcDbArc
 50
105.0304958269
 51
152.7557953389
  0
LINE
  5
519
330
1F
100
AcDbEntity
  8
0
  6
Continuous
 62
     7
370
    25
100
AcDbLine
 10
13.5128396172
 20
25.6994552788
 30
0.0
 11
12.8220164586
 21
25.6994552788
 31
0.0
  0
LINE
  5
51A
330
1F
100
AcDbEntity
  8
0
  6
Continuous
 62
     7
370
    25
100
AcDbLine
 10
12.5128396172
 20
25.6994552788
 30
0.0
 11
11.8220164586
 21
25.6994552788
 31
0.0
  0
LINE
  5
51B
330
1F
100
AcDbEntity
  8
0
  6
Continuous
 62
     7
370
    25
100
AcDbLine
 10
13.863582929
 20
26.11818338
 30
0.0
 11
13.863582929
 21
26.6319552788
 31
0.0
  0
LINE
  5
51C
330
1F
100
AcDbEntity
  8
0
  6
Continuous
 62
     7
370
    25
100
AcDbLine
 10
11.362982929
 20
26.6319552788
 30
0.0
 11
11.362982929
 21
26.11818338
 31
0.0
  0
DIMENSION
  5
51D
330
1F
100
AcDbEntity
  8
0
  6
Continuous
 62
     7
370
    18
100
AcDbDimension
  2
_D_3
 10
9.181582929
 20
31.0242432178
 30
0.0
 11
12.681582929
 21
31.0242432178
 31
0.0
 70
   160
  1
<>
 71
     2
 42
-1.0
  3
SLDDIMSTYLE2
100
AcDbAlignedDimension
 13
16.181582929
 23
29.4494400682
 33
0.0
 14
9.181582929
 24
29.4494400682
 34
0.0
100
AcDbRotatedDimension
  0
DIMENSION
  5
532
330
1F
100
AcDbEntity
  8
0
  6
Continuous
 62
     7
370
    18
100
AcDbDimension
  2
_D_4
 10
6.9103851545
 20
22.4494400682
 30
0.0
 11
6.9103851545
 21
25.9494400682
 31
0.0
 70
   160
  1
<>
 71
     2
 42
-1.0
  3
SLDDIMSTYLE2
100
AcDbAlignedDimension
 13
9.181582929
 23
29.4494400682
 33
0.0
 14
9.181582929
 24
22.4494400682
 34
0.0
 50
90.0
100
AcDbRotatedDimension
  0
ENDSEC
  0
SECTION
  2
OBJECTS
  0
DICTIONARY
  5
C
330
0
100
AcDbDictionary
281
     1
  3
ACAD_GROUP
350
D
  3
ACAD_LAYOUT
350
1A
  3
ACAD_MLINESTYLE
350
17
  3
ACAD_PLOTSETTINGS
350
19
  3
ACAD_PLOTSTYLENAME
350
E
  3
ACAD_SCALELIST
350
47
  3
DWGPROPS
350
546
  0
DICTIONARY
  5
D
102
{ACAD_REACTORS
330
C
102
}
330
C
100
AcDbDictionary
281
     1
  0
DICTIONARY
  5
1A
102
{ACAD_REACTORS
330
C
102
}
330
C
100
AcDbDictionary
281
     1
  3
Layout1
350
1E
  3
Layout2
350
26
  3
Model
350
22
  0
DICTIONARY
  5
17
102
{ACAD_REACTORS
330
C
102
}
330
C
100
AcDbDictionary
281
     1
  3
Standard
350
18
  0
DICTIONARY
  5
19
102
{ACAD_REACTORS
330
C
102
}
330
C
100
AcDbDictionary
281
     1
  0
ACDBDICTIONARYWDFLT
  5
E
102
{ACAD_REACTORS
330
C
102
}
330
C
100
AcDbDictionary
281
     1
  3
Normal
350
F
100
AcDbDictionaryWithDefault
340
F
  0
DICTIONARY
  5
47
102
{ACAD_REACTORS
330
C
102
}
330
C
100
AcDbDictionary
281
     1
  3
A0
350
48
  3
A1
350
49
  3
A2
350
4A
  3
A3
350
4B
  3
A4
350
4C
  3
A5
350
4D
  3
A6
350
4E
  3
A7
350
4F
  3
A8
350
50
  3
A9
350
51
  3
B1
350
52
  3
B2
350
53
  3
B3
350
54
  3
B4
350
55
  3
B5
350
56
  3
B6
350
57
  3
B7
350
58
  0
XRECORD
  5
546
102
{ACAD_REACTORS
330
C
102
}
330
C
100
AcDbXrecord
280
     1
  1
DWGPROPS COOKIE
  2

  3

  4

  6

  7

  8
gurisher.rai
  9

300
=
301
=
302
=
303
=
304
=
305
=
306
=
307
=
308
=
309
=
 40
0.0
 41
2460566.632437674
 42
2460566.632442674
  1

 90
        0
  0
LAYOUT
  5
1E
102
{ACAD_REACTORS
330
1A
102
}
330
1A
100
AcDbPlotSettings
  1

  2
none_device
  4

  6

 40
0.0
 41
0.0
 42
0.0
 43
0.0
 44
0.0
 45
0.0
 46
0.0
 47
0.0
 48
0.0
 49
0.0
140
0.0
141
0.0
142
1.0
143
1.0
 70
   688
 72
     0
 73
     0
 74
     5
  7

 75
    16
147
1.0
148
0.0
149
0.0
100
AcDbLayout
  1
Layout1
 70
     1
 71
     1
 10
0.0
 20
0.0
 11
12.0
 21
9.0
 12
0.0
 22
0.0
 32
0.0
 14
1.0000000000E+20
 24
1.0000000000E+20
 34
1.0000000000E+20
 15
-1.0000000000E+20
 25
-1.0000000000E+20
 35
-1.0000000000E+20
146
0.0
 13
0.0
 23
0.0
 33
0.0
 16
1.0
 26
0.0
 36
0.0
 17
0.0
 27
1.0
 37
0.0
 76
     0
330
1B
  0
LAYOUT
  5
26
102
{ACAD_REACTORS
330
1A
102
}
330
1A
100
AcDbPlotSettings
  1

  2
none_device
  4

  6

 40
0.0
 41
0.0
 42
0.0
 43
0.0
 44
0.0
 45
0.0
 46
0.0
 47
0.0
 48
0.0
 49
0.0
140
0.0
141
0.0
142
1.0
143
1.0
 70
   688
 72
     0
 73
     0
 74
     5
  7

 75
    16
147
1.0
148
0.0
149
0.0
100
AcDbLayout
  1
Layout2
 70
     1
 71
     2
 10
0.0
 20
0.0
 11
0.0
 21
0.0
 12
0.0
 22
0.0
 32
0.0
 14
0.0
 24
0.0
 34
0.0
 15
0.0
 25
0.0
 35
0.0
146
0.0
 13
0.0
 23
0.0
 33
0.0
 16
1.0
 26
0.0
 36
0.0
 17
0.0
 27
1.0
 37
0.0
 76
     0
330
23
  0
LAYOUT
  5
22
102
{ACAD_REACTORS
330
1A
102
}
330
1A
100
AcDbPlotSettings
  1

  2
none_device
  4
Letter_(8.50_x_11.00_Inches)
  6

 40
6.35
 41
6.35
 42
6.35000508
 43
6.35000508
 44
215.9
 45
279.4
 46
0.0
 47
0.0
 48
0.0
 49
0.0
140
0.0
141
0.0
142
1.0
143
1.0
 70
  1712
 72
     0
 73
     0
 74
     0
  7

 75
     0
147
1.0
148
0.0
149
0.0
100
AcDbLayout
  1
Model
 70
     1
 71
     0
 10
0.0
 20
0.0
 11
44.0
 21
34.0
 12
0.0
 22
0.0
 32
0.0
 14
0.0
 24
0.0
 34
0.0
 15
44.0
 25
34.0
 35
0.0
146
0.0
 13
0.0
 23
0.0
 33
0.0
 16
1.0
 26
0.0
 36
0.0
 17
0.0
 27
1.0
 37
0.0
 76
     0
330
1F
331
29
  0
MLINESTYLE
  5
18
102
{ACAD_REACTORS
330
17
102
}
330
17
100
AcDbMlineStyle
  2
Standard
 70
     0
  3

 62
   256
 51
90.0
 52
90.0
 71
     2
 49
0.5
 62
   256
  6
BYLAYER
 49
-0.5
 62
   256
  6
BYLAYER
  0
ACDBPLACEHOLDER
  5
F
102
{ACAD_REACTORS
330
E
102
}
330
E
  0
SCALE
  5
48
102
{ACAD_REACTORS
330
47
102
}
330
47
100
AcDbScale
 70
     0
300
1:1
140
1.0
141
1.0
290
     1
  0
SCALE
  5
49
102
{ACAD_REACTORS
330
47
102
}
330
47
100
AcDbScale
 70
     0
300
1/128" = 1'-0"
140
0.0078125
141
12.0
290
     0
  0
SCALE
  5
4A
102
{ACAD_REACTORS
330
47
102
}
330
47
100
AcDbScale
 70
     0
300
1/64" = 1'-0"
140
0.015625
141
12.0
290
     0
  0
SCALE
  5
4B
102
{ACAD_REACTORS
330
47
102
}
330
47
100
AcDbScale
 70
     0
300
1/32" = 1'-0"
140
0.03125
141
12.0
290
     0
  0
SCALE
  5
4C
102
{ACAD_REACTORS
330
47
102
}
330
47
100
AcDbScale
 70
     0
300
1/16" = 1'-0"
140
0.0625
141
12.0
290
     0
  0
SCALE
  5
4D
102
{ACAD_REACTORS
330
47
102
}
330
47
100
AcDbScale
 70
     0
300
3/32" = 1'-0"
140
0.09375
141
12.0
290
     0
  0
SCALE
  5
4E
102
{ACAD_REACTORS
330
47
102
}
330
47
100
AcDbScale
 70
     0
300
1/8" = 1'-0"
140
0.125
141
12.0
290
     0
  0
SCALE
  5
4F
102
{ACAD_REACTORS
330
47
102
}
330
47
100
AcDbScale
 70
     0
300
3/16" = 1'-0"
140
0.1875
141
12.0
290
     0
  0
SCALE
  5
50
102
{ACAD_REACTORS
330
47
102
}
330
47
100
AcDbScale
 70
     0
300
1/4" = 1'-0"
140
0.25
141
12.0
290
     0
  0
SCALE
  5
51
102
{ACAD_REACTORS
330
47
102
}
330
47
100
AcDbScale
 70
     0
300
3/8" = 1'-0"
140
0.375
141
12.0
290
     0
  0
SCALE
  5
52
102
{ACAD_REACTORS
330
47
102
}
330
47
100
AcDbScale
 70
     0
300
1/2" = 1'-0"
140
0.5
141
12.0
290
     0
  0
SCALE
  5
53
102
{ACAD_REACTORS
330
47
102
}
330
47
100
AcDbScale
 70
     0
300
3/4" = 1'-0"
140
0.75
141
12.0
290
     0
  0
SCALE
  5
54
102
{ACAD_REACTORS
330
47
102
}
330
47
100
AcDbScale
 70
     0
300
1" = 1'-0"
140
1.0
141
12.0
290
     0
  0
SCALE
  5
55
102
{ACAD_REACTORS
330
47
102
}
330
47
100
AcDbScale
 70
     0
300
1-1/2" = 1'-0"
140
1.5
141
12.0
290
     0
  0
SCALE
  5
56
102
{ACAD_REACTORS
330
47
102
}
330
47
100
AcDbScale
 70
     0
300
3" = 1'-0"
140
3.0
141
12.0
290
     0
  0
SCALE
  5
57
102
{ACAD_REACTORS
330
47
102
}
330
47
100
AcDbScale
 70
     0
300
6" = 1'-0"
140
6.0
141
12.0
290
     0
  0
SCALE
  5
58
102
{ACAD_REACTORS
330
47
102
}
330
47
100
AcDbScale
 70
     0
300
1'-0" = 1'-0"
140
12.0
141
12.0
290
     0
  0
ENDSEC
  0
EOF
