  0
SECTION
  2
HEADER
  9
$ACADVER
  1
AC1015
  9
$ACADMAINTVER
 70
     6
  9
$DWGCODEPAGE
  3
ANSI_1252
  9
$INSBASE
 10
0.0
 20
0.0
 30
0.0
  9
$EXTMIN
 10
0.0
 20
0.0
 30
0.0
  9
$EXTMAX
 10
22.0
 20
17.0
 30
0.0
  9
$LIMMIN
 10
0.0
 20
0.0
  9
$LIMMAX
 10
22.0
 20
17.0
  9
$ORTHOMODE
 70
     0
  9
$REGENMODE
 70
     1
  9
$FILLMODE
 70
     1
  9
$QTEXTMODE
 70
     0
  9
$MIRRTEXT
 70
     1
  9
$LTSCALE
 40
2.0
  9
$ATTMODE
 70
     1
  9
$TEXTSIZE
 40
0.25
  9
$TRACEWID
 40
0.05
  9
$TEXTSTYLE
  7
Standard
  9
$CLAYER
  8
0
  9
$CELTYPE
  6
ByLayer
  9
$CECOLOR
 62
   256
  9
$CELTSCALE
 40
1.0
  9
$DISPSILH
 70
     0
  9
$DIMSCALE
 40
1.0
  9
$DIMASZ
 40
0.26
  9
$DIMEXO
 40
0.1
  9
$DIMDLI
 40
0.38
  9
$DIMRND
 40
0.0
  9
$DIMDLE
 40
0.0
  9
$DIMEXE
 40
0.25
  9
$DIMTP
 40
0.0
  9
$DIMTM
 40
0.0
  9
$DIMTXT
 40
0.25
  9
$DIMCEN
 40
0.09
  9
$DIMTSZ
 40
0.0
  9
$DIMTOL
 70
     0
  9
$DIMLIM
 70
     0
  9
$DIMTIH
 70
     1
  9
$DIMTOH
 70
     1
  9
$DIMSE1
 70
     0
  9
$DIMSE2
 70
     0
  9
$DIMTAD
 70
     0
  9
$DIMZIN
 70
     1
  9
$DIMBLK
  1

  9
$DIMASO
 70
     1
  9
$DIMSHO
 70
     1
  9
$DIMPOST
  1

  9
$DIMAPOST
  1

  9
$DIMALT
 70
     0
  9
$DIMALTD
 70
     2
  9
$DIMALTF
 40
25.4
  9
$DIMLFAC
 40
1.0
  9
$DIMTOFL
 70
     0
  9
$DIMTVP
 40
0.0
  9
$DIMTIX
 70
     0
  9
$DIMSOXD
 70
     0
  9
$DIMSAH
 70
     0
  9
$DIMBLK1
  1

  9
$DIMBLK2
  1

  9
$DIMSTYLE
  2
Standard
  9
$DIMCLRD
 70
     0
  9
$DIMCLRE
 70
     0
  9
$DIMCLRT
 70
     0
  9
$DIMTFAC
 40
1.0
  9
$DIMGAP
 40
0.12
  9
$DIMJUST
 70
     0
  9
$DIMSD1
 70
     0
  9
$DIMSD2
 70
     0
  9
$DIMTOLJ
 70
     1
  9
$DIMTZIN
 70
     1
  9
$DIMALTZ
 70
     0
  9
$DIMALTTZ
 70
     0
  9
$DIMUPT
 70
     0
  9
$DIMDEC
 70
     0
  9
$DIMTDEC
 70
     0
  9
$DIMALTU
 70
     2
  9
$DIMALTTD
 70
     2
  9
$DIMTXSTY
  7
Standard
  9
$DIMAUNIT
 70
     0
  9
$DIMADEC
 70
     0
  9
$DIMALTRND
 40
0.0
  9
$DIMAZIN
 70
     0
  9
$DIMDSEP
 70
    46
  9
$DIMATFIT
 70
     3
  9
$DIMFRAC
 70
     0
  9
$DIMLDRBLK
  1

  9
$DIMLUNIT
 70
     2
  9
$DIMLWD
 70
    -2
  9
$DIMLWE
 70
    -2
  9
$DIMTMOVE
 70
     0
  9
$LUNITS
 70
     2
  9
$LUPREC
 70
     6
  9
$SKETCHINC
 40
0.1
  9
$FILLETRAD
 40
0.0
  9
$AUNITS
 70
     0
  9
$AUPREC
 70
     2
  9
$MENU
  1
.
  9
$ELEVATION
 40
0.0
  9
$PELEVATION
 40
0.0
  9
$THICKNESS
 40
0.0
  9
$LIMCHECK
 70
     0
  9
$CHAMFERA
 40
0.0
  9
$CHAMFERB
 40
0.0
  9
$CHAMFERC
 40
0.0
  9
$CHAMFERD
 40
0.0
  9
$SKPOLY
 70
     0
  9
$TDCREATE
 40
2460888.656286887
  9
$TDUCREATE
 40
2460888.947953554
  9
$TDUPDATE
 40
2460888.656287257
  9
$TDUUPDATE
 40
2460888.947953924
  9
$TDINDWG
 40
0.0000000116
  9
$TDUSRTIMER
 40
0.0000000116
  9
$USRTIMER
 70
     1
  9
$ANGBASE
 50
0.0
  9
$ANGDIR
 70
     0
  9
$PDMODE
 70
     0
  9
$PDSIZE
 40
-1.0
  9
$PLINEWID
 40
0.0
  9
$SPLFRAME
 70
     0
  9
$SPLINETYPE
 70
     6
  9
$SPLINESEGS
 70
     8
  9
$HANDSEED
  5
F8
  9
$SURFTAB1
 70
     6
  9
$SURFTAB2
 70
     6
  9
$SURFTYPE
 70
     6
  9
$SURFU
 70
     6
  9
$SURFV
 70
     6
  9
$UCSBASE
  2

  9
$UCSNAME
  2

  9
$UCSORG
 10
0.0
 20
0.0
 30
0.0
  9
$UCSXDIR
 10
1.0
 20
0.0
 30
0.0
  9
$UCSYDIR
 10
0.0
 20
1.0
 30
0.0
  9
$UCSORTHOREF
  2

  9
$UCSORTHOVIEW
 70
     0
  9
$UCSORGTOP
 10
0.0
 20
0.0
 30
0.0
  9
$UCSORGBOTTOM
 10
0.0
 20
0.0
 30
0.0
  9
$UCSORGLEFT
 10
0.0
 20
0.0
 30
0.0
  9
$UCSORGRIGHT
 10
0.0
 20
0.0
 30
0.0
  9
$UCSORGFRONT
 10
0.0
 20
0.0
 30
0.0
  9
$UCSORGBACK
 10
0.0
 20
0.0
 30
0.0
  9
$PUCSBASE
  2

  9
$PUCSNAME
  2

  9
$PUCSORG
 10
0.0
 20
0.0
 30
0.0
  9
$PUCSXDIR
 10
1.0
 20
0.0
 30
0.0
  9
$PUCSYDIR
 10
0.0
 20
1.0
 30
0.0
  9
$PUCSORTHOREF
  2

  9
$PUCSORTHOVIEW
 70
     0
  9
$PUCSORGTOP
 10
0.0
 20
0.0
 30
0.0
  9
$PUCSORGBOTTOM
 10
0.0
 20
0.0
 30
0.0
  9
$PUCSORGLEFT
 10
0.0
 20
0.0
 30
0.0
  9
$PUCSORGRIGHT
 10
0.0
 20
0.0
 30
0.0
  9
$PUCSORGFRONT
 10
0.0
 20
0.0
 30
0.0
  9
$PUCSORGBACK
 10
0.0
 20
0.0
 30
0.0
  9
$USERI1
 70
     0
  9
$USERI2
 70
     0
  9
$USERI3
 70
     0
  9
$USERI4
 70
     0
  9
$USERI5
 70
     0
  9
$USERR1
 40
0.0
  9
$USERR2
 40
0.0
  9
$USERR3
 40
0.0
  9
$USERR4
 40
0.0
  9
$USERR5
 40
0.0
  9
$WORLDVIEW
 70
     1
  9
$SHADEDGE
 70
     3
  9
$SHADEDIF
 70
    70
  9
$TILEMODE
 70
     1
  9
$MAXACTVP
 70
    64
  9
$PINSBASE
 10
0.0
 20
0.0
 30
0.0
  9
$PLIMCHECK
 70
     0
  9
$PEXTMIN
 10
1.0000000000E+20
 20
1.0000000000E+20
 30
1.0000000000E+20
  9
$PEXTMAX
 10
-1.0000000000E+20
 20
-1.0000000000E+20
 30
-1.0000000000E+20
  9
$PLIMMIN
 10
0.0
 20
0.0
  9
$PLIMMAX
 10
12.0
 20
9.0
  9
$UNITMODE
 70
     0
  9
$VISRETAIN
 70
     1
  9
$PLINEGEN
 70
     0
  9
$PSLTSCALE
 70
     1
  9
$TREEDEPTH
 70
  3020
  9
$CMLSTYLE
  2
Standard
  9
$CMLJUST
 70
     0
  9
$CMLSCALE
 40
1.0
  9
$PROXYGRAPHICS
 70
     1
  9
$MEASUREMENT
 70
     0
  9
$CELWEIGHT
370
    -1
  9
$ENDCAPS
280
     0
  9
$JOINSTYLE
280
     0
  9
$LWDISPLAY
290
     1
  9
$INSUNITS
 70
     1
  9
$HYPERLINKBASE
  1

  9
$STYLESHEET
  1

  9
$XEDIT
290
     1
  9
$CEPSNTYPE
380
     0
  9
$PSTYLEMODE
290
     1
  9
$FINGERPRINTGUID
  2
{2c28b640-6f42-4660-9497-1dab9f4faeb9}
  9
$VERSIONGUID
  2
{FAEB1C32-E019-11D5-929B-00C0DF256EC4}
  9
$EXTNAMES
290
     1
  9
$PSVPSCALE
 40
0.0
  9
$OLESTARTUP
290
     0
  0
ENDSEC
  0
SECTION
  2
CLASSES
  0
CLASS
  1
ACDBDICTIONARYWDFLT
  2
AcDbDictionaryWithDefault
  3
ObjectDBX Classes
 90
        0
280
     0
281
     0
  0
CLASS
  1
VISUALSTYLE
  2
AcDbVisualStyle
  3
ObjectDBX Classes
 90
     4095
280
     0
281
     0
  0
CLASS
  1
MATERIAL
  2
AcDbMaterial
  3
ObjectDBX Classes
 90
     1153
280
     0
281
     0
  0
CLASS
  1
SCALE
  2
AcDbScale
  3
ObjectDBX Classes
 90
     1153
280
     0
281
     0
  0
CLASS
  1
TABLESTYLE
  2
AcDbTableStyle
  3
ObjectDBX Classes
 90
     4095
280
     0
281
     0
  0
CLASS
  1
MLEADERSTYLE
  2
AcDbMLeaderStyle
  3
ACDB_MLEADERSTYLE_CLASS
 90
     4095
280
     0
281
     0
  0
CLASS
  1
SUN
  2
AcDbSun
  3
SCENEOE
 90
     1153
280
     0
281
     0
  0
CLASS
  1
ACDBPLACEHOLDER
  2
AcDbPlaceHolder
  3
ObjectDBX Classes
 90
        0
280
     0
281
     0
  0
CLASS
  1
LAYOUT
  2
AcDbLayout
  3
ObjectDBX Classes
 90
        0
280
     0
281
     0
  0
ENDSEC
  0
SECTION
  2
TABLES
  0
TABLE
  2
VPORT
  5
8
330
0
100
AcDbSymbolTable
 70
     1
  0
VPORT
  5
29
330
8
100
AcDbSymbolTableRecord
100
AcDbViewportTableRecord
  2
*Active
 70
     0
 10
0.0
 20
0.0
 11
1.0
 21
1.0
 12
11.0
 22
8.5
 13
0.0
 23
0.0
 14
0.5
 24
0.5
 15
0.5
 25
0.5
 16
0.0
 26
0.0
 36
1.0
 17
0.0
 27
0.0
 37
0.0
 40
17.0
 41
1.2941176471
 42
50.0
 43
0.0
 44
0.0
 50
0.0
 51
0.0
 71
     0
 72
  2000
 73
     1
 74
     3
 75
     0
 76
     0
 77
     0
 78
     0
281
     0
 65
     1
110
0.0
120
0.0
130
0.0
111
1.0
121
0.0
131
0.0
112
0.0
122
1.0
132
0.0
 79
     0
146
0.0
  0
ENDTAB
  0
TABLE
  2
LTYPE
  5
5
330
0
100
AcDbSymbolTable
 70
     6
  0
LTYPE
  5
14
330
5
100
AcDbSymbolTableRecord
100
AcDbLinetypeTableRecord
  2
ByBlock
 70
     0
  3

 72
    65
 73
     0
 40
0.0
  0
LTYPE
  5
15
330
5
100
AcDbSymbolTableRecord
100
AcDbLinetypeTableRecord
  2
ByLayer
 70
     0
  3

 72
    65
 73
     0
 40
0.0
  0
LTYPE
  5
16
330
5
100
AcDbSymbolTableRecord
100
AcDbLinetypeTableRecord
  2
Continuous
 70
     0
  3
Solid line
 72
    65
 73
     0
 40
0.0
  0
LTYPE
  5
5E
330
5
100
AcDbSymbolTableRecord
100
AcDbLinetypeTableRecord
  2
HIDDEN
 70
     0
  3
Hidden __ __ __ __ __ __ __ __ __ __ __ __ __ __
 72
    65
 73
     2
 40
0.075
 49
0.05
 74
     0
 49
-0.025
 74
     0
  0
LTYPE
  5
5F
330
5
100
AcDbSymbolTableRecord
100
AcDbLinetypeTableRecord
  2
PHANTOM
 70
     0
  3
Phantom ______  __  __  ______  __  __  ______
 72
    65
 73
     6
 40
0.5
 49
0.25
 74
     0
 49
-0.05
 74
     0
 49
0.05
 74
     0
 49
-0.05
 74
     0
 49
0.05
 74
     0
 49
-0.05
 74
     0
  0
LTYPE
  5
60
330
5
100
AcDbSymbolTableRecord
100
AcDbLinetypeTableRecord
  2
CENTER
 70
     0
  3
Center ____ _ ____ _ ____ _ ____ _ ____ _ ____
 72
    65
 73
     4
 40
0.4
 49
0.25
 74
     0
 49
-0.05
 74
     0
 49
0.05
 74
     0
 49
-0.05
 74
     0
  0
LTYPE
  5
61
330
5
100
AcDbSymbolTableRecord
100
AcDbLinetypeTableRecord
  2
CENTERX2
 70
     0
  3
Center (2x) ________  __  ________  __  _____
 72
    65
 73
     4
 40
0.8
 49
0.5
 74
     0
 49
-0.1
 74
     0
 49
0.1
 74
     0
 49
-0.1
 74
     0
  0
LTYPE
  5
62
330
5
100
AcDbSymbolTableRecord
100
AcDbLinetypeTableRecord
  2
DOT2
 70
     0
  3
Dot (.5x) ........................................
 72
    65
 73
     2
 40
0.025
 49
0.0
 74
     0
 49
-0.025
 74
     0
  0
ENDTAB
  0
TABLE
  2
LAYER
  5
2
330
0
100
AcDbSymbolTable
 70
    11
  0
LAYER
  5
10
330
2
100
AcDbSymbolTableRecord
100
AcDbLayerTableRecord
  2
0
 70
     0
 62
     7
  6
Continuous
370
    -3
390
F
  0
LAYER
  5
63
330
2
100
AcDbSymbolTableRecord
100
AcDbLayerTableRecord
  2
SLD-0
 70
     0
 62
     7
  6
Continuous
370
    -3
390
F
  0
LAYER
  5
64
330
2
100
AcDbSymbolTableRecord
100
AcDbLayerTableRecord
  2
DIM
 70
     0
 62
     7
  6
Continuous
370
    -3
390
F
  0
LAYER
  5
65
330
2
100
AcDbSymbolTableRecord
100
AcDbLayerTableRecord
  2
CEN
 70
     0
 62
     1
  6
CENTER
370
    -3
390
F
  0
LAYER
  5
66
330
2
100
AcDbSymbolTableRecord
100
AcDbLayerTableRecord
  2
HAT
 70
     0
 62
     4
  6
Continuous
370
    -3
390
F
  0
LAYER
  5
67
330
2
100
AcDbSymbolTableRecord
100
AcDbLayerTableRecord
  2
OBJ
 70
     0
 62
     5
  6
Continuous
370
    -3
390
F
  0
LAYER
  5
68
330
2
100
AcDbSymbolTableRecord
100
AcDbLayerTableRecord
  2
SLD-DEFPOINTS
 70
     0
 62
     7
  6
Continuous
370
    -3
390
F
  0
LAYER
  5
69
330
2
100
AcDbSymbolTableRecord
100
AcDbLayerTableRecord
  2
HID
 70
     0
 62
     4
  6
HIDDEN
370
    -3
390
F
  0
LAYER
  5
6A
330
2
100
AcDbSymbolTableRecord
100
AcDbLayerTableRecord
  2
NOTE
 70
     0
 62
     7
  6
Continuous
370
    -3
390
F
  0
LAYER
  5
6B
330
2
100
AcDbSymbolTableRecord
100
AcDbLayerTableRecord
  2
TITLE
 70
     0
 62
     7
  6
Continuous
370
    -3
390
F
  0
LAYER
  5
6C
330
2
100
AcDbSymbolTableRecord
100
AcDbLayerTableRecord
  2
THICK_TITLE
 70
     0
 62
     7
  6
Continuous
370
   100
390
F
  0
ENDTAB
  0
TABLE
  2
STYLE
  5
3
330
0
100
AcDbSymbolTable
 70
     2
  0
STYLE
  5
11
330
3
100
AcDbSymbolTableRecord
100
AcDbTextStyleTableRecord
  2
Standard
 70
     0
 40
0.0
 41
1.0
 50
0.0
 71
     0
 42
0.25
  3
txt
  4

  0
STYLE
  5
6D
330
3
100
AcDbSymbolTableRecord
100
AcDbTextStyleTableRecord
  2
SLDTEXTSTYLE0
 70
     0
 40
0.0
 41
0.75
 50
0.0
 71
     0
 42
0.25
  3
TXT
  4

  0
ENDTAB
  0
TABLE
  2
VIEW
  5
6
330
0
100
AcDbSymbolTable
 70
     0
  0
ENDTAB
  0
TABLE
  2
UCS
  5
7
330
0
100
AcDbSymbolTable
 70
     0
  0
ENDTAB
  0
TABLE
  2
APPID
  5
9
330
0
100
AcDbSymbolTable
 70
     1
  0
APPID
  5
12
330
9
100
AcDbSymbolTableRecord
100
AcDbRegAppTableRecord
  2
ACAD
 70
     0
  0
ENDTAB
  0
TABLE
  2
DIMSTYLE
  5
A
330
0
100
AcDbSymbolTable
 70
     6
100
AcDbDimStyleTable
  0
DIMSTYLE
105
27
330
A
100
AcDbSymbolTableRecord
100
AcDbDimStyleTableRecord
  2
Standard
 70
     0
178
     0
340
11
  0
DIMSTYLE
105
77
102
{ACAD_REACTORS
330
76
102
}
330
A
100
AcDbSymbolTableRecord
100
AcDbDimStyleTableRecord
  2
SLDDIMSTYLE0
 70
     0
 41
0.26
 44
0.0
 45
0.000000001
 78
    12
 79
     3
140
0.25
147
0.0625
148
0.000000001
170
     1
172
     1
173
     1
178
     0
271
     6
272
     0
276
     2
277
     5
284
    12
289
     0
340
6D
  0
DIMSTYLE
105
91
102
{ACAD_REACTORS
330
90
102
}
330
A
100
AcDbSymbolTableRecord
100
AcDbDimStyleTableRecord
  2
SLDDIMSTYLE1
 70
     0
 41
0.26
 44
0.0
 45
0.000000001
 78
    12
 79
     3
140
0.25
141
0.0
147
0.0625
148
0.000000001
170
     1
173
     1
178
     0
271
     0
272
     0
276
     2
277
     5
284
    12
340
6D
  0
DIMSTYLE
105
A5
102
{ACAD_REACTORS
330
A4
102
}
330
A
100
AcDbSymbolTableRecord
100
AcDbDimStyleTableRecord
  2
SLDDIMSTYLE2
 70
     0
 41
0.26
 44
0.0
 45
0.000000001
 78
    12
 79
     3
140
0.25
147
0.0625
148
0.000000001
170
     1
173
     1
178
     0
271
     0
272
     0
276
     2
277
     5
284
    12
340
6D
  0
DIMSTYLE
105
B9
102
{ACAD_REACTORS
330
B8
102
}
330
A
100
AcDbSymbolTableRecord
100
AcDbDimStyleTableRecord
  2
SLDDIMSTYLE3
 70
     0
 41
0.26
 44
0.0
 45
0.000000001
 78
    12
 79
     3
140
0.25
147
0.0625
148
0.000000001
170
     1
173
     1
178
     0
271
     6
272
     0
276
     2
277
     5
284
    12
340
6D
  0
DIMSTYLE
105
CF
330
A
100
AcDbSymbolTableRecord
100
AcDbDimStyleTableRecord
  2
SLDDIMSTYLE4
 70
     0
 41
0.26
 44
0.0
 45
0.000000001
146
0.26
147
0.0
173
     1
178
     0
271
     0
272
     0
276
     2
277
     5
340
11
  0
ENDTAB
  0
TABLE
  2
BLOCK_RECORD
  5
1
330
0
100
AcDbSymbolTable
 70
     7
  0
BLOCK_RECORD
  5
1F
330
1
100
AcDbSymbolTableRecord
100
AcDbBlockTableRecord
  2
*Model_Space
340
22
  0
BLOCK_RECORD
  5
1B
330
1
100
AcDbSymbolTableRecord
100
AcDbBlockTableRecord
  2
*Paper_Space
340
1E
  0
BLOCK_RECORD
  5
23
330
1
100
AcDbSymbolTableRecord
100
AcDbBlockTableRecord
  2
*Paper_Space0
340
26
  0
BLOCK_RECORD
  5
78
330
1
100
AcDbSymbolTableRecord
100
AcDbBlockTableRecord
  2
_D
340
0
  0
BLOCK_RECORD
  5
92
330
1
100
AcDbSymbolTableRecord
100
AcDbBlockTableRecord
  2
_D_1
340
0
  0
BLOCK_RECORD
  5
A6
330
1
100
AcDbSymbolTableRecord
100
AcDbBlockTableRecord
  2
_D_2
340
0
  0
BLOCK_RECORD
  5
BA
330
1
100
AcDbSymbolTableRecord
100
AcDbBlockTableRecord
  2
_D_3
340
0
  0
BLOCK_RECORD
  5
D1
330
1
100
AcDbSymbolTableRecord
100
AcDbBlockTableRecord
  2
SW_CENTERMARKSYMBOL_0
340
0
102
{BLKREFS
331
DC
102
}
  0
BLOCK_RECORD
  5
DD
330
1
100
AcDbSymbolTableRecord
100
AcDbBlockTableRecord
  2
SW_CENTERMARKSYMBOL_1
340
0
102
{BLKREFS
331
E8
102
}
  0
ENDTAB
  0
ENDSEC
  0
SECTION
  2
BLOCKS
  0
BLOCK
  5
20
330
1F
100
AcDbEntity
  8
0
100
AcDbBlockBegin
  2
*Model_Space
 70
     0
 10
0.0
 20
0.0
 30
0.0
  3
*Model_Space
  1

  0
ENDBLK
  5
21
330
1F
100
AcDbEntity
  8
0
100
AcDbBlockEnd
  0
BLOCK
  5
1C
330
1B
100
AcDbEntity
 67
     1
  8
0
100
AcDbBlockBegin
  2
*Paper_Space
 70
     0
 10
0.0
 20
0.0
 30
0.0
  3
*Paper_Space
  1

  0
ENDBLK
  5
1D
330
1B
100
AcDbEntity
 67
     1
  8
0
100
AcDbBlockEnd
  0
BLOCK
  5
24
330
23
100
AcDbEntity
  8
0
100
AcDbBlockBegin
  2
*Paper_Space0
 70
     0
 10
0.0
 20
0.0
 30
0.0
  3
*Paper_Space0
  1

  0
ENDBLK
  5
25
330
23
100
AcDbEntity
  8
0
100
AcDbBlockEnd
  0
BLOCK
  5
79
330
78
100
AcDbEntity
  8
0
100
AcDbBlockBegin
  2
_D
 70
     0
 10
0.0
 20
0.0
 30
0.0
  3
_D
  1

  0
SOLID
  5
7B
330
78
100
AcDbEntity
  8
SLD-0
100
AcDbTrace
 10
3.5500702516
 20
10.2503291859
 30
0.0
 11
3.2900702516
 21
10.2903291859
 31
0.0
 12
3.2900702516
 22
10.2103291859
 32
0.0
 13
3.2900702516
 23
10.2103291859
 33
0.0
  0
SOLID
  5
7C
330
78
100
AcDbEntity
  8
SLD-0
100
AcDbTrace
 10
3.9250702516
 20
10.2503291859
 30
0.0
 11
4.1850702516
 21
10.2103291859
 31
0.0
 12
4.1850702516
 22
10.2903291859
 32
0.0
 13
4.1850702516
 23
10.2903291859
 33
0.0
  0
LINE
  5
7D
330
78
100
AcDbEntity
  8
SLD-0
100
AcDbLine
 10
1.8109209997
 20
10.2484194246
 30
0.0
 11
1.7347491255
 21
10.2484194246
 31
0.0
  0
LINE
  5
7E
330
78
100
AcDbEntity
  8
SLD-0
100
AcDbLine
 10
1.7347491255
 20
10.2484194246
 30
0.0
 11
1.7347491255
 21
9.8515444127
 31
0.0
  0
LINE
  5
7F
330
78
100
AcDbEntity
  8
SLD-0
100
AcDbLine
 10
1.7347491255
 20
9.8515444127
 30
0.0
 11
1.8109209997
 21
9.8515444127
 31
0.0
  0
LINE
  5
80
330
78
100
AcDbEntity
  8
SLD-0
100
AcDbLine
 10
2.8053654651
 20
10.2484194246
 30
0.0
 11
2.8815373394
 21
10.2484194246
 31
0.0
  0
LINE
  5
81
330
78
100
AcDbEntity
  8
SLD-0
100
AcDbLine
 10
2.8815373394
 20
10.2484194246
 30
0.0
 11
2.8815373394
 21
9.8515444127
 31
0.0
  0
LINE
  5
82
330
78
100
AcDbEntity
  8
SLD-0
100
AcDbLine
 10
2.8815373394
 20
9.8515444127
 30
0.0
 11
2.8053654651
 21
9.8515444127
 31
0.0
  0
LINE
  5
83
330
78
100
AcDbEntity
  8
SLD-0
100
AcDbLine
 10
3.5500702516
 20
9.5629276111
 30
0.0
 11
3.5500702516
 21
10.5003291859
 31
0.0
  0
LINE
  5
84
330
78
100
AcDbEntity
  8
SLD-0
100
AcDbLine
 10
3.9250702516
 20
9.5129276111
 30
0.0
 11
3.9250702516
 21
10.5003291859
 31
0.0
  0
LINE
  5
85
330
78
100
AcDbEntity
  8
SLD-0
100
AcDbLine
 10
3.5500702516
 20
10.2503291859
 30
0.0
 11
3.1007646731
 21
10.2503291859
 31
0.0
  0
LINE
  5
86
330
78
100
AcDbEntity
  8
SLD-0
100
AcDbLine
 10
3.9250702516
 20
10.2503291859
 30
0.0
 11
4.4250702516
 21
10.2503291859
 31
0.0
  0
MTEXT
  5
87
330
78
100
AcDbEntity
  8
SLD-0
100
AcDbMText
 10
1.6599661399
 20
10.6252870796
 30
0.0
 40
0.25
 41
0.0
 71
     1
 72
     1
  1

  7
SLDTEXTSTYLE0
 73
     1
 44
1.0
  0
MTEXT
  5
88
330
78
100
AcDbEntity
  8
SLD-0
100
AcDbMText
 10
1.9989418093
 20
10.6214676167
 30
0.0
 40
0.25
 41
0.0
 71
     1
 72
     1
  1
3/8"
  7
SLDTEXTSTYLE0
 73
     1
 44
1.0
  0
MTEXT
  5
89
330
78
100
AcDbEntity
  8
SLD-0
100
AcDbMText
 10
1.8109209997
 20
10.1738113751
 30
0.0
 40
0.25
 41
0.0
 71
     1
 72
     1
  1
10mm
  7
SLDTEXTSTYLE0
 73
     1
 44
1.0
  0
MTEXT
  5
8A
330
78
100
AcDbEntity
  8
SLD-0
100
AcDbMText
 10
3.0514591586
 20
10.6252870796
 30
0.0
 40
0.25
 41
0.0
 71
     1
 72
     1
  1

  7
SLDTEXTSTYLE0
 73
     1
 44
1.0
  0
ENDBLK
  5
7A
330
78
100
AcDbEntity
  8
0
100
AcDbBlockEnd
  0
BLOCK
  5
93
330
92
100
AcDbEntity
  8
0
100
AcDbBlockBegin
  2
_D_1
 70
     0
 10
0.0
 20
0.0
 30
0.0
  3
_D_1
  1

  0
SOLID
  5
95
330
92
100
AcDbEntity
  8
SLD-0
100
AcDbTrace
 10
10.5631868505
 20
6.6313835857
 30
0.0
 11
10.6719520831
 21
6.3918629724
 31
0.0
 12
10.7389171122
 22
6.43563151
 32
0.0
 13
10.7389171122
 23
6.43563151
 33
0.0
  0
LINE
  5
96
330
92
100
AcDbEntity
  8
SLD-0
100
AcDbLine
 10
14.5399216216
 20
4.2794604254
 30
0.0
 11
14.4637497474
 21
4.2794604254
 31
0.0
  0
LINE
  5
97
330
92
100
AcDbEntity
  8
SLD-0
100
AcDbLine
 10
14.4637497474
 20
4.2794604254
 30
0.0
 11
14.4637497474
 21
3.8825854135
 31
0.0
  0
LINE
  5
98
330
92
100
AcDbEntity
  8
SLD-0
100
AcDbLine
 10
14.4637497474
 20
3.8825854135
 30
0.0
 11
14.5399216216
 21
3.8825854135
 31
0.0
  0
LINE
  5
99
330
92
100
AcDbEntity
  8
SLD-0
100
AcDbLine
 10
15.534366087
 20
4.2794604254
 30
0.0
 11
15.6105379613
 21
4.2794604254
 31
0.0
  0
LINE
  5
9A
330
92
100
AcDbEntity
  8
SLD-0
100
AcDbLine
 10
15.6105379613
 20
4.2794604254
 30
0.0
 11
15.6105379613
 21
3.8825854135
 31
0.0
  0
LINE
  5
9B
330
92
100
AcDbEntity
  8
SLD-0
100
AcDbLine
 10
15.6105379613
 20
3.8825854135
 30
0.0
 11
15.534366087
 21
3.8825854135
 31
0.0
  0
LINE
  5
9C
330
92
100
AcDbEntity
  8
SLD-0
100
AcDbLine
 10
10.5631868505
 20
6.6313835857
 30
0.0
 11
12.5226994137
 21
3.6333666779
 31
0.0
  0
LINE
  5
9D
330
92
100
AcDbEntity
  8
SLD-0
100
AcDbLine
 10
12.5226994137
 20
3.6333666779
 30
0.0
 11
13.2515794896
 21
3.6333666779
 31
0.0
  0
MTEXT
  5
9E
330
92
100
AcDbEntity
  8
SLD-0
100
AcDbMText
 10
13.0226994137
 20
4.2010329313
 30
0.0
 40
0.25
 41
0.0
 71
     1
 72
     1
  1
%%c
  7
SLDTEXTSTYLE0
 73
     1
 44
1.0
  0
MTEXT
  5
9F
330
92
100
AcDbEntity
  8
SLD-0
100
AcDbMText
 10
13.3997306549
 20
4.2048523759
 30
0.0
 40
0.25
 41
0.0
 71
     1
 72
     1
  1
13/16"
  7
SLDTEXTSTYLE0
 73
     1
 44
1.0
  0
MTEXT
  5
A0
330
92
100
AcDbEntity
  8
SLD-0
100
AcDbMText
 10
14.5399216216
 20
4.2048523759
 30
0.0
 40
0.25
 41
0.0
 71
     1
 72
     1
  1
21mm
  7
SLDTEXTSTYLE0
 73
     1
 44
1.0
  0
MTEXT
  5
A1
330
92
100
AcDbEntity
  8
SLD-0
100
AcDbMText
 10
15.7804599455
 20
4.2048523759
 30
0.0
 40
0.25
 41
0.0
 71
     1
 72
     1
  1
THRU
  7
SLDTEXTSTYLE0
 73
     1
 44
1.0
  0
MTEXT
  5
A2
330
92
100
AcDbEntity
  8
SLD-0
100
AcDbMText
 10
13.2515794896
 20
3.7571961206
 30
0.0
 40
0.25
 41
0.0
 71
     1
 72
     1
  1
FIXTURE MOUNTING
  7
SLDTEXTSTYLE0
 73
     1
 44
1.0
  0
MTEXT
  5
A3
330
92
100
AcDbEntity
  8
SLD-0
100
AcDbMText
 10
14.3711974857
 20
3.3603211087
 30
0.0
 40
0.25
 41
0.0
 71
     1
 72
     1
  1
HOLE
  7
SLDTEXTSTYLE0
 73
     1
 44
1.0
  0
ENDBLK
  5
94
330
92
100
AcDbEntity
  8
0
100
AcDbBlockEnd
  0
BLOCK
  5
A7
330
A6
100
AcDbEntity
  8
0
100
AcDbBlockBegin
  2
_D_2
 70
     0
 10
0.0
 20
0.0
 30
0.0
  3
_D_2
  1

  0
SOLID
  5
A9
330
A6
100
AcDbEntity
  8
SLD-0
100
AcDbTrace
 10
7.8516846684
 20
11.4145583746
 30
0.0
 11
8.1116846684
 21
11.3745583746
 31
0.0
 12
8.1116846684
 22
11.4545583746
 32
0.0
 13
8.1116846684
 23
11.4545583746
 33
0.0
  0
SOLID
  5
AA
330
A6
100
AcDbEntity
  8
SLD-0
100
AcDbTrace
 10
12.8216846684
 20
11.4145583746
 30
0.0
 11
12.5616846684
 21
11.4545583746
 31
0.0
 12
12.5616846684
 22
11.3745583746
 32
0.0
 13
12.5616846684
 23
11.3745583746
 33
0.0
  0
LINE
  5
AB
330
A6
100
AcDbEntity
  8
SLD-0
100
AcDbLine
 10
9.747101361
 20
11.4145583379
 30
0.0
 11
9.6709294868
 21
11.4145583379
 31
0.0
  0
LINE
  5
AC
330
A6
100
AcDbEntity
  8
SLD-0
100
AcDbLine
 10
9.6709294868
 20
11.4145583379
 30
0.0
 11
9.6709294868
 21
11.017683326
 31
0.0
  0
LINE
  5
AD
330
A6
100
AcDbEntity
  8
SLD-0
100
AcDbLine
 10
9.6709294868
 20
11.017683326
 30
0.0
 11
9.747101361
 21
11.017683326
 31
0.0
  0
LINE
  5
AE
330
A6
100
AcDbEntity
  8
SLD-0
100
AcDbLine
 10
10.9262680125
 20
11.4145583379
 30
0.0
 11
11.0024398867
 21
11.4145583379
 31
0.0
  0
LINE
  5
AF
330
A6
100
AcDbEntity
  8
SLD-0
100
AcDbLine
 10
11.0024398867
 20
11.4145583379
 30
0.0
 11
11.0024398867
 21
11.017683326
 31
0.0
  0
LINE
  5
B0
330
A6
100
AcDbEntity
  8
SLD-0
100
AcDbLine
 10
11.0024398867
 20
11.017683326
 30
0.0
 11
10.9262680125
 21
11.017683326
 31
0.0
  0
LINE
  5
B1
330
A6
100
AcDbEntity
  8
SLD-0
100
AcDbLine
 10
7.8516846684
 20
7.0779276111
 30
0.0
 11
7.8516846684
 21
11.6645583746
 31
0.0
  0
LINE
  5
B2
330
A6
100
AcDbEntity
  8
SLD-0
100
AcDbLine
 10
12.8216846684
 20
7.0779276111
 30
0.0
 11
12.8216846684
 21
11.6645583746
 31
0.0
  0
LINE
  5
B3
330
A6
100
AcDbEntity
  8
SLD-0
100
AcDbLine
 10
7.8516846684
 20
11.4145583746
 30
0.0
 11
9.5440631911
 21
11.4145583746
 31
0.0
  0
LINE
  5
B4
330
A6
100
AcDbEntity
  8
SLD-0
100
AcDbLine
 10
12.8216846684
 20
11.4145583746
 30
0.0
 11
11.1293061458
 21
11.4145583746
 31
0.0
  0
MTEXT
  5
B5
330
A6
100
AcDbEntity
  8
SLD-0
100
AcDbMText
 10
10.0042454455
 20
11.7876065483
 30
0.0
 40
0.25
 41
0.0
 71
     1
 72
     1
  1
%%c
  7
SLDTEXTSTYLE0
 73
     1
 44
1.0
  0
MTEXT
  5
B6
330
A6
100
AcDbEntity
  8
SLD-0
100
AcDbMText
 10
10.3812766866
 20
11.7876065483
 30
0.0
 40
0.25
 41
0.0
 71
     1
 72
     1
  1
5"
  7
SLDTEXTSTYLE0
 73
     1
 44
1.0
  0
MTEXT
  5
B7
330
A6
100
AcDbEntity
  8
SLD-0
100
AcDbMText
 10
9.747101361
 20
11.3399502884
 30
0.0
 40
0.25
 41
0.0
 71
     1
 72
     1
  1
126mm
  7
SLDTEXTSTYLE0
 73
     1
 44
1.0
  0
ENDBLK
  5
A8
330
A6
100
AcDbEntity
  8
0
100
AcDbBlockEnd
  0
BLOCK
  5
BB
330
BA
100
AcDbEntity
  8
0
100
AcDbBlockBegin
  2
_D_3
 70
     0
 10
0.0
 20
0.0
 30
0.0
  3
_D_3
  1

  0
SOLID
  5
BD
330
BA
100
AcDbEntity
  8
SLD-0
100
AcDbTrace
 10
8.5866846684
 20
10.2503291859
 30
0.0
 11
8.8466846684
 21
10.2103291859
 31
0.0
 12
8.8466846684
 22
10.2903291859
 32
0.0
 13
8.8466846684
 23
10.2903291859
 33
0.0
  0
SOLID
  5
BE
330
BA
100
AcDbEntity
  8
SLD-0
100
AcDbTrace
 10
12.0866846684
 20
10.2503291859
 30
0.0
 11
11.8266846684
 21
10.2903291859
 31
0.0
 12
11.8266846684
 22
10.2103291859
 32
0.0
 13
11.8266846684
 23
10.2103291859
 33
0.0
  0
LINE
  5
BF
330
BA
100
AcDbEntity
  8
SLD-0
100
AcDbLine
 10
9.8394624724
 20
10.2484194246
 30
0.0
 11
9.7632905982
 21
10.2484194246
 31
0.0
  0
LINE
  5
C0
330
BA
100
AcDbEntity
  8
SLD-0
100
AcDbLine
 10
9.7632905982
 20
10.2484194246
 30
0.0
 11
9.7632905982
 21
9.8515444127
 31
0.0
  0
LINE
  5
C1
330
BA
100
AcDbEntity
  8
SLD-0
100
AcDbLine
 10
9.7632905982
 20
9.8515444127
 30
0.0
 11
9.8394624724
 21
9.8515444127
 31
0.0
  0
LINE
  5
C2
330
BA
100
AcDbEntity
  8
SLD-0
100
AcDbLine
 10
10.8339069378
 20
10.2484194246
 30
0.0
 11
10.910078812
 21
10.2484194246
 31
0.0
  0
LINE
  5
C3
330
BA
100
AcDbEntity
  8
SLD-0
100
AcDbLine
 10
10.910078812
 20
10.2484194246
 30
0.0
 11
10.910078812
 21
9.8515444127
 31
0.0
  0
LINE
  5
C4
330
BA
100
AcDbEntity
  8
SLD-0
100
AcDbLine
 10
10.910078812
 20
9.8515444127
 30
0.0
 11
10.8339069378
 21
9.8515444127
 31
0.0
  0
LINE
  5
C5
330
BA
100
AcDbEntity
  8
SLD-0
100
AcDbLine
 10
8.5866846684
 20
7.2951176111
 30
0.0
 11
8.5866846684
 21
10.5003291859
 31
0.0
  0
LINE
  5
C6
330
BA
100
AcDbEntity
  8
SLD-0
100
AcDbLine
 10
12.0866846684
 20
7.2951176111
 30
0.0
 11
12.0866846684
 21
10.5003291859
 31
0.0
  0
LINE
  5
C7
330
BA
100
AcDbEntity
  8
SLD-0
100
AcDbLine
 10
8.5866846684
 20
10.2503291859
 30
0.0
 11
9.5440631911
 21
10.2503291859
 31
0.0
  0
LINE
  5
C8
330
BA
100
AcDbEntity
  8
SLD-0
100
AcDbLine
 10
12.0866846684
 20
10.2503291859
 30
0.0
 11
11.1293061458
 21
10.2503291859
 31
0.0
  0
MTEXT
  5
C9
330
BA
100
AcDbEntity
  8
SLD-0
100
AcDbMText
 10
9.6885076126
 20
10.6252870796
 30
0.0
 40
0.25
 41
0.0
 71
     1
 72
     1
  1

  7
SLDTEXTSTYLE0
 73
     1
 44
1.0
  0
MTEXT
  5
CA
330
BA
100
AcDbEntity
  8
SLD-0
100
AcDbMText
 10
9.8889416425
 20
10.6214676167
 30
0.0
 40
0.25
 41
0.0
 71
     1
 72
     1
  1
3 1/2"
  7
SLDTEXTSTYLE0
 73
     1
 44
1.0
  0
MTEXT
  5
CB
330
BA
100
AcDbEntity
  8
SLD-0
100
AcDbMText
 10
9.8394624724
 20
10.1738113751
 30
0.0
 40
0.25
 41
0.0
 71
     1
 72
     1
  1
89mm
  7
SLDTEXTSTYLE0
 73
     1
 44
1.0
  0
MTEXT
  5
CC
330
BA
100
AcDbEntity
  8
SLD-0
100
AcDbMText
 10
11.0800006313
 20
10.6252870796
 30
0.0
 40
0.25
 41
0.0
 71
     1
 72
     1
  1

  7
SLDTEXTSTYLE0
 73
     1
 44
1.0
  0
ENDBLK
  5
BC
330
BA
100
AcDbEntity
  8
0
100
AcDbBlockEnd
  0
BLOCK
  5
D2
330
D1
100
AcDbEntity
  8
0
100
AcDbBlockBegin
  2
SW_CENTERMARKSYMBOL_0
 70
     0
 10
0.0
 20
0.0
 30
0.0
  3
SW_CENTERMARKSYMBOL_0
  1

  0
LINE
  5
D4
330
D1
100
AcDbEntity
  8
SLD-0
 62
     0
100
AcDbLine
 10
0.0
 20
0.0
 30
0.0
 11
0.0
 21
0.1
 31
0.0
  0
LINE
  5
D5
330
D1
100
AcDbEntity
  8
SLD-0
 62
     0
100
AcDbLine
 10
0.0
 20
0.0
 30
0.0
 11
-0.1
 21
0.0
 31
0.0
  0
LINE
  5
D6
330
D1
100
AcDbEntity
  8
SLD-0
 62
     0
100
AcDbLine
 10
0.0
 20
0.0
 30
0.0
 11
0.0
 21
-0.1
 31
0.0
  0
LINE
  5
D7
330
D1
100
AcDbEntity
  8
SLD-0
 62
     0
100
AcDbLine
 10
0.0
 20
0.0
 30
0.0
 11
0.1
 21
0.0
 31
0.0
  0
LINE
  5
D8
330
D1
100
AcDbEntity
  8
SLD-0
 62
     0
100
AcDbLine
 10
0.0
 20
0.2
 30
0.0
 11
0.0
 21
0.21719
 31
0.0
  0
LINE
  5
D9
330
D1
100
AcDbEntity
  8
SLD-0
 62
     0
100
AcDbLine
 10
-0.2
 20
0.0
 30
0.0
 11
-0.21719
 21
0.0
 31
0.0
  0
LINE
  5
DA
330
D1
100
AcDbEntity
  8
SLD-0
 62
     0
100
AcDbLine
 10
0.0
 20
-0.2
 30
0.0
 11
0.0
 21
-0.21719
 31
0.0
  0
LINE
  5
DB
330
D1
100
AcDbEntity
  8
SLD-0
 62
     0
100
AcDbLine
 10
0.2
 20
0.0
 30
0.0
 11
2.1861884824
 21
0.0
 31
0.0
  0
ENDBLK
  5
D3
330
D1
100
AcDbEntity
  8
0
100
AcDbBlockEnd
  0
BLOCK
  5
DE
330
DD
100
AcDbEntity
  8
0
100
AcDbBlockBegin
  2
SW_CENTERMARKSYMBOL_1
 70
     0
 10
0.0
 20
0.0
 30
0.0
  3
SW_CENTERMARKSYMBOL_1
  1

  0
LINE
  5
E0
330
DD
100
AcDbEntity
  8
SLD-0
 62
     0
100
AcDbLine
 10
0.0
 20
0.0
 30
0.0
 11
0.0
 21
0.1
 31
0.0
  0
LINE
  5
E1
330
DD
100
AcDbEntity
  8
SLD-0
 62
     0
100
AcDbLine
 10
0.0
 20
0.0
 30
0.0
 11
-0.1
 21
0.0
 31
0.0
  0
LINE
  5
E2
330
DD
100
AcDbEntity
  8
SLD-0
 62
     0
100
AcDbLine
 10
0.0
 20
0.0
 30
0.0
 11
0.0
 21
-0.1
 31
0.0
  0
LINE
  5
E3
330
DD
100
AcDbEntity
  8
SLD-0
 62
     0
100
AcDbLine
 10
0.0
 20
0.0
 30
0.0
 11
0.1
 21
0.0
 31
0.0
  0
LINE
  5
E4
330
DD
100
AcDbEntity
  8
SLD-0
 62
     0
100
AcDbLine
 10
0.0
 20
0.2
 30
0.0
 11
0.0
 21
0.21719
 31
0.0
  0
LINE
  5
E5
330
DD
100
AcDbEntity
  8
SLD-0
 62
     0
100
AcDbLine
 10
-0.2
 20
0.0
 30
0.0
 11
-1.7023808561
 21
0.0
 31
0.0
  0
LINE
  5
E6
330
DD
100
AcDbEntity
  8
SLD-0
 62
     0
100
AcDbLine
 10
0.0
 20
-0.2
 30
0.0
 11
0.0
 21
-0.21719
 31
0.0
  0
LINE
  5
E7
330
DD
100
AcDbEntity
  8
SLD-0
 62
     0
100
AcDbLine
 10
0.2
 20
0.0
 30
0.0
 11
0.21719
 21
0.0
 31
0.0
  0
ENDBLK
  5
DF
330
DD
100
AcDbEntity
  8
0
100
AcDbBlockEnd
  0
ENDSEC
  0
SECTION
  2
ENTITIES
  0
MTEXT
  5
6E
330
1F
100
AcDbEntity
  8
SLD-0
100
AcDbMText
 10
17.5084710744
 20
1.6865019925
 30
0.0
 40
0.25
 41
0.0
 71
     1
 72
     1
  1
BC6
  7
SLDTEXTSTYLE0
 73
     1
 44
1.0
  0
LINE
  5
6F
330
1F
100
AcDbEntity
  8
0
  6
Continuous
 62
     7
370
    25
100
AcDbLine
 10
3.5500702516
 20
4.4929276111
 30
0.0
 11
3.8750702516
 21
4.4929276111
 31
0.0
  0
LINE
  5
70
330
1F
100
AcDbEntity
  8
0
  6
Continuous
 62
     7
370
    25
100
AcDbLine
 10
3.8750702516
 20
9.4629276111
 30
0.0
 11
3.5500702516
 21
9.4629276111
 31
0.0
  0
LINE
  5
71
330
1F
100
AcDbEntity
  8
0
  6
Continuous
 62
     7
370
    25
100
AcDbLine
 10
3.8750702516
 20
4.4929276111
 30
0.0
 11
3.9250702516
 21
4.5429276111
 31
0.0
  0
LINE
  5
72
330
1F
100
AcDbEntity
  8
0
  6
Continuous
 62
     7
370
    25
100
AcDbLine
 10
3.9250702516
 20
9.4129276111
 30
0.0
 11
3.8750702516
 21
9.4629276111
 31
0.0
  0
LINE
  5
73
330
1F
100
AcDbEntity
  8
0
  6
Continuous
 62
     7
370
    25
100
AcDbLine
 10
3.5500702516
 20
9.4629276111
 30
0.0
 11
3.5500702516
 21
4.4929276111
 31
0.0
  0
LINE
  5
74
330
1F
100
AcDbEntity
  8
0
  6
Continuous
 62
     7
370
    25
100
AcDbLine
 10
3.8750702516
 20
4.4929276111
 30
0.0
 11
3.8750702516
 21
9.4629276111
 31
0.0
  0
LINE
  5
75
330
1F
100
AcDbEntity
  8
0
  6
Continuous
 62
     7
370
    25
100
AcDbLine
 10
3.9250702516
 20
9.4129276111
 30
0.0
 11
3.9250702516
 21
4.5429276111
 31
0.0
  0
DIMENSION
  5
76
330
1F
100
AcDbEntity
  8
SLD-0
100
AcDbDimension
  2
_D
 10
3.9250702516
 20
10.2503291859
 30
0.0
 11
2.3081431958
 21
10.2503291859
 31
0.0
 70
   160
  1
<>
 71
     2
 42
-1.0
  3
SLDDIMSTYLE0
100
AcDbAlignedDimension
 13
3.5500702516
 23
9.4629276111
 33
0.0
 14
3.9250702516
 24
9.4129276111
 34
0.0
100
AcDbRotatedDimension
  0
CIRCLE
  5
8B
330
1F
100
AcDbEntity
  8
0
  6
Continuous
 62
     7
370
    25
100
AcDbCircle
 10
8.5866846684
 20
6.9779276111
 30
0.0
 40
0.117189999999999
  0
CIRCLE
  5
8C
330
1F
100
AcDbEntity
  8
0
  6
Continuous
 62
     7
370
    25
100
AcDbCircle
 10
12.0866846684
 20
6.9779276111
 30
0.0
 40
0.1171900000000008
  0
CIRCLE
  5
8D
330
1F
100
AcDbEntity
  8
0
  6
Continuous
 62
     7
370
    25
100
AcDbCircle
 10
10.3366846684
 20
6.9779276111
 30
0.0
 40
2.434999999999999
  0
CIRCLE
  5
8E
330
1F
100
AcDbEntity
  8
0
  6
Continuous
 62
     7
370
    25
100
AcDbCircle
 10
10.3366846684
 20
6.9779276111
 30
0.0
 40
0.4139999999999997
  0
CIRCLE
  5
8F
330
1F
100
AcDbEntity
  8
0
  6
Continuous
 62
     7
370
    25
100
AcDbCircle
 10
10.3366846684
 20
6.9779276111
 30
0.0
 40
2.484999999999999
  0
DIMENSION
  5
90
330
1F
100
AcDbEntity
  8
SLD-0
100
AcDbDimension
  2
_D_1
 10
10.1101824864
 20
7.3244716364
 30
0.0
 11
14.7961974861
 21
3.6841479258
 31
0.0
 70
   163
  1
<> THRU\PFIXTURE MOUNTING\PHOLE
 71
     1
 42
-1.0
  3
SLDDIMSTYLE1
100
AcDbDiametricDimension
 15
10.5631868505
 25
6.6313835857
 35
0.0
 40
0.0
  0
DIMENSION
  5
A4
330
1F
100
AcDbEntity
  8
SLD-0
100
AcDbDimension
  2
_D_2
 10
12.8216846684
 20
11.4145583746
 30
0.0
 11
10.3366846684
 21
11.4145583746
 31
0.0
 70
   160
  1
%%c<>
 71
     2
 42
-1.0
  3
SLDDIMSTYLE2
100
AcDbAlignedDimension
 13
7.8516846684
 23
6.9779276111
 33
0.0
 14
12.8216846684
 24
6.9779276111
 34
0.0
100
AcDbRotatedDimension
  0
DIMENSION
  5
B8
330
1F
100
AcDbEntity
  8
SLD-0
100
AcDbDimension
  2
_D_3
 10
12.0866846684
 20
10.2503291859
 30
0.0
 11
10.3366846684
 21
10.2503291859
 31
0.0
 70
   160
  1
<>
 71
     2
 42
-1.0
  3
SLDDIMSTYLE3
100
AcDbAlignedDimension
 13
8.5866846684
 23
7.1951176111
 33
0.0
 14
12.0866846684
 24
7.1951176111
 34
0.0
100
AcDbRotatedDimension
  0
MTEXT
  5
CD
330
1F
100
AcDbEntity
  8
SLD-0
100
AcDbMText
 10
16.264767107
 20
5.3000850627
 30
0.0
 40
0.25
 41
0.0
 71
     2
 72
     1
  1
2X #10-24 CLEARANCE HOLES
  7
SLDTEXTSTYLE0
 73
     1
 44
1.0
  0
MTEXT
  5
CE
330
1F
100
AcDbEntity
  8
SLD-0
100
AcDbMText
 10
16.2731870703
 20
4.9713449137
 30
0.0
 40
0.25
 41
0.0
 71
     2
 72
     1
  1
(HARDWARE INCLUDED)
  7
SLDTEXTSTYLE0
 73
     1
 44
1.0
  0
LEADER
  5
D0
330
1F
100
AcDbEntity
  8
SLD-0
100
AcDbLeader
  3
SLDDIMSTYLE4
 76
     3
 10
12.1653163211
 20
6.8910336568
 30
0.0
 10
13.3898280865
 20
5.1866802096
 30
0.0
 10
13.8898280865
 20
5.1866802096
 30
0.0
  0
INSERT
  5
DC
330
1F
100
AcDbEntity
  8
SLD-0
100
AcDbBlockReference
  2
SW_CENTERMARKSYMBOL_0
 10
8.5866846684
 20
6.9779276111
 30
0.0
  0
INSERT
  5
E8
330
1F
100
AcDbEntity
  8
SLD-0
100
AcDbBlockReference
  2
SW_CENTERMARKSYMBOL_1
 10
12.0866846684
 20
6.9779276111
 30
0.0
  0
LINE
  5
E9
330
1F
100
AcDbEntity
  8
0
  6
Continuous
 62
     7
370
    25
100
AcDbLine
 10
12.9667544061
 20
14.206562655
 30
0.0
 11
12.9667544061
 21
14.1657422494
 31
0.0
  0
LINE
  5
EA
330
1F
100
AcDbEntity
  8
0
  6
Continuous
 62
     7
370
    25
100
AcDbLine
 10
14.6882795765
 20
11.1836500718
 30
0.0
 11
14.7236291693
 21
11.1632365518
 31
0.0
  0
LINE
  5
EB
330
1F
100
AcDbEntity
  8
0
  6
Continuous
 62
     7
370
    25
100
AcDbLine
 10
13.7113254359
 20
15.4769733173
 30
0.0
 11
13.481515732
 21
15.3443069991
 31
0.0
  0
LINE
  5
EC
330
1F
100
AcDbEntity
  8
0
  6
Continuous
 62
     7
370
    25
100
AcDbLine
 10
15.9663137826
 20
11.0400441531
 30
0.0
 11
16.1961234865
 21
11.1727104712
 31
0.0
  0
LWPOLYLINE
  5
ED
330
1F
100
AcDbEntity
  8
0
  6
Continuous
 62
     7
370
    25
100
AcDbPolyline
 90
      123
 70
   128
 43
0.0
 10
16.4103644304
 20
12.1777884971
 10
16.4080814718
 20
12.2814604389
 10
16.4012386497
 20
12.3874933093
 10
16.3898541102
 20
12.4956059282
 10
16.3739580431
 20
12.6055116004
 10
16.3535926017
 20
12.7169188758
 10
16.3288117917
 20
12.8295323224
 10
16.2996813273
 20
12.9430533095
 10
16.2662784572
 20
13.0571807999
 10
16.2286917598
 20
13.171612148
 10
16.1870209083
 20
13.2860439023
 10
16.1413764063
 20
13.4001726106
 10
16.0918792949
 20
13.513695624
 10
16.0386608314
 20
13.6263118997
 10
15.9818621416
 20
13.7377227999
 10
15.9216338456
 20
13.8476328826
 10
15.8581356578
 20
13.9557506862
 10
15.7915359641
 20
14.0617895018
 10
15.7220113749
 20
14.1654681333
 10
15.6497462569
 20
14.2665116437
 10
15.5749322441
 20
14.3646520838
 10
15.49776773
 20
14.4596292029
 10
15.4184573409
 20
14.5511911385
 10
15.3372113937
 20
14.639095085
 10
15.2542453381
 20
14.7231079369
 10
15.1697791852
 20
14.8030069072
 10
15.0840369239
 20
14.8785801182
 10
14.9972459274
 20
14.9496271634
 10
14.9096363497
 20
15.0159596387
 10
14.8214405158
 20
15.0774016423
 10
14.732892305
 20
15.1337902411
 10
14.6442265315
 20
15.1849759026
 10
14.5556783207
 20
15.2308228918
 10
14.4674824868
 20
15.2712096306
 10
14.3798729091
 20
15.3060290206
 10
14.2930819126
 20
15.3351887271
 10
14.2073396513
 20
15.3586114238
 10
14.1228734984
 20
15.3762349978
 10
14.0399074428
 20
15.3880127148
 10
13.9586614956
 20
15.3939133422
 10
13.8793511065
 20
15.3939212327
 10
13.8021865924
 20
15.3880363653
 10
13.7273725796
 20
15.3762743456
 10
13.6551074616
 20
15.3586663645
 10
13.5855828724
 20
15.335259115
 10
13.5189831787
 20
15.3061146691
 10
13.4554849909
 20
15.2713103126
 10
13.3952566949
 20
15.2309383403
 10
13.3384580051
 20
15.1851058115
 10
13.2852395416
 20
15.1339342657
 10
13.2357424302
 20
15.0775594009
 10
13.1900979282
 20
15.0161307128
 10
13.1484270767
 20
14.9498110994
 10
13.1108403794
 20
14.8787764284
 10
13.0774375092
 20
14.803215071
 10
13.0483070448
 20
14.7233274022
 10
13.0235262348
 20
14.6393252699
 10
13.0031607934
 20
14.5514314326
 10
12.9872647263
 20
14.4598789688
 10
12.9758801868
 20
14.3649106594
 10
12.9690373647
 20
14.2667783432
 10
12.9667544061
 20
14.1657422494
 10
12.9690373647
 20
14.0620703077
 10
12.9758801868
 20
13.9560374373
 10
12.9872647263
 20
13.8479248184
 10
13.0031607934
 20
13.7380191461
 10
13.0235262348
 20
13.6266118707
 10
13.0483070448
 20
13.5139984241
 10
13.0774375092
 20
13.400477437
 10
13.1108403794
 20
13.2863499467
 10
13.1484270767
 20
13.1719185986
 10
13.1900979282
 20
13.0574868442
 10
13.2357424302
 20
12.9433581359
 10
13.2852395416
 20
12.8298351226
 10
13.3384580051
 20
12.7172188468
 10
13.3952566949
 20
12.6058079467
 10
13.4554849909
 20
12.4958978639
 10
13.5189831787
 20
12.3877800603
 10
13.5855828724
 20
12.2817412448
 10
13.6551074616
 20
12.1780626133
 10
13.7273725796
 20
12.0770191029
 10
13.8021865924
 20
11.9788786627
 10
13.8793511065
 20
11.8839015437
 10
13.9586614956
 20
11.792339608
 10
14.0399074428
 20
11.7044356615
 10
14.1228734984
 20
11.6204228096
 10
14.2073396513
 20
11.5405238393
 10
14.2930819126
 20
11.4649506283
 10
14.3798729091
 20
11.3939035832
 10
14.4674824868
 20
11.3275711079
 10
14.5556783207
 20
11.2661291043
 10
14.6442265315
 20
11.2097405055
 10
14.732892305
 20
11.1585548439
 10
14.8214405158
 20
11.1127078548
 10
14.9096363497
 20
11.072321116
 10
14.9972459274
 20
11.037501726
 10
15.0840369239
 20
11.0083420195
 10
15.1697791852
 20
10.9849193228
 10
15.2542453381
 20
10.9672957487
 10
15.3372113937
 20
10.9555180318
 10
15.4184573409
 20
10.9496174044
 10
15.49776773
 20
10.9496095139
 10
15.5749322441
 20
10.9554943813
 10
15.6497462569
 20
10.967256401
 10
15.7220113749
 20
10.9848643821
 10
15.7915359641
 20
11.0082716315
 10
15.8581356578
 20
11.0374160774
 10
15.9216338456
 20
11.072220434
 10
15.9818621416
 20
11.1125924063
 10
16.0386608314
 20
11.1584249351
 10
16.0918792949
 20
11.2095964808
 10
16.1413764063
 20
11.2659713457
 10
16.1870209083
 20
11.3274000338
 10
16.2286917598
 20
11.3937196471
 10
16.2662784572
 20
11.4647543181
 10
16.2996813273
 20
11.5403156756
 10
16.3288117917
 20
11.6202033443
 10
16.3535926017
 20
11.7042054766
 10
16.3739580431
 20
11.792099314
 10
16.3898541102
 20
11.8836517777
 10
16.4012386497
 20
11.9786200871
 10
16.4080814718
 20
12.0767524034
 10
16.4103644304
 20
12.1777884971
  0
LWPOLYLINE
  5
EE
330
1F
100
AcDbEntity
  8
0
  6
Continuous
 62
     7
370
    25
100
AcDbPolyline
 90
       32
 70
   128
 43
0.0
 10
16.4810751086
 20
12.1777884971
 10
16.4787829932
 20
12.075504456
 10
16.471912627
 20
11.9761336824
 10
16.4604819339
 20
11.8799354232
 10
16.4445207353
 20
11.7871606487
 10
16.4240706722
 20
11.6980513978
 10
16.3991850965
 20
11.6128401463
 10
16.3699289317
 20
11.5317492005
 10
16.3363785038
 20
11.4549901176
 10
16.2986213422
 20
11.3827631532
 10
16.2567559508
 20
11.3152567392
 10
16.2108915518
 20
11.2526469922
 10
16.1611478002
 20
11.1950972537
 10
16.1076544716
 20
11.1427576646
 10
16.0505511241
 20
11.0957647729
 10
15.9899867338
 20
11.0542411775
 10
15.9261193063
 20
11.0182952089
 10
15.8591154643
 20
10.988020646
 10
15.7891500134
 20
10.9634964716
 10
15.7164054853
 20
10.9447866665
 10
15.6410716622
 20
10.9319400425
 10
15.5633450814
 20
10.9249901149
 10
15.4834285228
 20
10.9239550153
 10
15.4015304795
 20
10.9288374442
 10
15.3178646141
 20
10.9396246639
 10
15.2326492014
 20
10.9562885316
 10
15.1461065586
 20
10.9787855734
 10
15.0584624656
 20
11.007057097
 10
14.9699455758
 20
11.0410293452
 10
14.8807868197
 20
11.0806136883
 10
14.7912188023
 20
11.1257068553
 10
14.7236291693
 20
11.1632365518
  0
LWPOLYLINE
  5
EF
330
1F
100
AcDbEntity
  8
0
  6
Continuous
 62
     7
370
    25
100
AcDbPolyline
 90
       64
 70
   128
 43
0.0
 10
12.9667544061
 20
14.206562655
 10
12.9673275284
 20
14.2580523261
 10
12.9719102639
 20
14.3589126305
 10
12.9810637791
 20
14.4567290511
 10
12.9947641935
 20
14.551246396
 10
13.0129757643
 20
14.6422180804
 10
13.0356509796
 20
14.7294067695
 10
13.0627306823
 20
14.8125849979
 10
13.0941442246
 20
14.8915357631
 10
13.1298096521
 20
14.9660530916
 10
13.1696339178
 20
15.0359425762
 10
13.2135131248
 20
15.1010218833
 10
13.2613327972
 20
15.1611212282
 10
13.3129681789
 20
15.2160838188
 10
13.3682845591
 20
15.2657662639
 10
13.4271376238
 20
15.3100389476
 10
13.4893738319
 20
15.3487863676
 10
13.5548308163
 20
15.3819074362
 10
13.6233378073
 20
15.4093157445
 10
13.6947160778
 20
15.4309397872
 10
13.7687794102
 20
15.4467231497
 10
13.8453345817
 20
15.4566246551
 10
13.9241818685
 20
15.4606184713
 10
14.0051155671
 20
15.458694179
 10
14.0879245308
 20
15.4508567984
 10
14.1723927203
 20
15.4371267765
 10
14.2582997678
 20
15.4175399332
 10
14.3454215517
 20
15.3921473684
 10
14.4335307812
 20
15.3610153283
 10
14.5223975893
 20
15.324225033
 10
14.6117901326
 20
15.2818724641
 10
14.7014751963
 20
15.2340681146
 10
14.7912188023
 20
15.1809367006
 10
14.8807868197
 20
15.1226168359
 10
14.9699455758
 20
15.0592606703
 10
15.0584624656
 20
14.991033493
 10
15.1461065586
 20
14.9181133007
 10
15.2326492014
 20
14.840690334
 10
15.3178646141
 20
14.7589665805
 10
15.4015304795
 20
14.6731552481
 10
15.4834285228
 20
14.5834802089
 10
15.5633450814
 20
14.4901754148
 10
15.6410716622
 20
14.3934842872
 10
15.7164054853
 20
14.2936590824
 10
15.7891500134
 20
14.190960233
 10
15.8591154643
 20
14.0856556683
 10
15.9261193063
 20
13.9780201162
 10
15.9899867338
 20
13.8683343853
 10
16.0505511241
 20
13.7568846334
 10
16.1076544716
 20
13.6439616199
 10
16.1611478002
 20
13.5298599483
 10
16.2108915518
 20
13.4148772967
 10
16.2567559508
 20
13.2993136418
 10
16.2986213422
 20
13.1834704758
 10
16.3363785038
 20
13.0676500205
 10
16.3699289317
 20
12.9521544381
 10
16.3991850965
 20
12.8372850435
 10
16.4240706722
 20
12.7233415177
 10
16.4445207353
 20
12.6106211265
 10
16.4604819339
 20
12.4994179444
 10
16.471912627
 20
12.3900220879
 10
16.4787829932
 20
12.2827189583
 10
16.4810751086
 20
12.1777884971
 10
16.4810751086
 20
12.1777884971
  0
LWPOLYLINE
  5
F0
330
1F
100
AcDbEntity
  8
0
  6
Continuous
 62
     7
370
    25
100
AcDbPolyline
 90
       48
 70
   128
 43
0.0
 10
16.7108848124
 20
12.3104548153
 10
16.7085926971
 20
12.4153852765
 10
16.7017223309
 20
12.5226884061
 10
16.6902916378
 20
12.6320842626
 10
16.6743304392
 20
12.7432874447
 10
16.6538803761
 20
12.8560078359
 10
16.6289948003
 20
12.9699513617
 10
16.5997386355
 20
13.0848207563
 10
16.5661882077
 20
13.2003163387
 10
16.528431046
 20
13.316136794
 10
16.4865656547
 20
13.4319799599
 10
16.4407012557
 20
13.5475436149
 10
16.3909575041
 20
13.6625262665
 10
16.3374641755
 20
13.7766279381
 10
16.280360828
 20
13.8895509515
 10
16.2197964377
 20
14.0010007035
 10
16.1559290102
 20
14.1106864343
 10
16.0889251682
 20
14.2183219865
 10
16.0189597173
 20
14.3236265511
 10
15.9462151892
 20
14.4263254006
 10
15.870881366
 20
14.5261506054
 10
15.7931547853
 20
14.6228417329
 10
15.7132382267
 20
14.7161465271
 10
15.6313401834
 20
14.8058215663
 10
15.547674318
 20
14.8916328986
 10
15.4624589053
 20
14.9733566521
 10
15.3759162625
 20
15.0507796189
 10
15.2882721695
 20
15.1236998112
 10
15.1997552797
 20
15.1919269885
 10
15.1105965236
 20
15.255283154
 10
15.0210285062
 20
15.3136030187
 10
14.9312849002
 20
15.3667344327
 10
14.8415998365
 20
15.4145387822
 10
14.7522072931
 20
15.4568913512
 10
14.6633404851
 20
15.4936816465
 10
14.5752312556
 20
15.5248136865
 10
14.4881094717
 20
15.5502062514
 10
14.4022024242
 20
15.5697930947
 10
14.3177342347
 20
15.5835231166
 10
14.234925271
 20
15.5913604972
 10
14.1539915724
 20
15.5932847894
 10
14.0751442856
 20
15.5892909732
 10
13.9985891141
 20
15.5793894679
 10
13.9245257817
 20
15.5636061054
 10
13.8531475112
 20
15.5419820627
 10
13.7846405202
 20
15.5145737544
 10
13.7191835358
 20
15.4814526857
 10
13.7113254359
 20
15.4769733173
  0
LWPOLYLINE
  5
F1
330
1F
100
AcDbEntity
  8
0
  6
Continuous
 62
     7
370
    25
100
AcDbPolyline
 90
       17
 70
   128
 43
0.0
 10
16.1961234865
 20
11.1727104712
 10
16.2197964377
 20
11.1869074957
 10
16.280360828
 20
11.228431091
 10
16.3374641755
 20
11.2754239828
 10
16.3909575041
 20
11.3277635719
 10
16.4407012557
 20
11.3853133103
 10
16.4865656547
 20
11.4479230574
 10
16.528431046
 20
11.5154294714
 10
16.5661882077
 20
11.5876564358
 10
16.5997386355
 20
11.6644155187
 10
16.6289948003
 20
11.7455064644
 10
16.6538803761
 20
11.830717716
 10
16.6743304392
 20
11.9198269669
 10
16.6902916378
 20
12.0126017414
 10
16.7017223309
 20
12.1088000006
 10
16.7085926971
 20
12.2081707742
 10
16.7108848124
 20
12.3104548153
  0
LWPOLYLINE
  5
F2
330
1F
100
AcDbEntity
  8
0
  6
Continuous
 62
     7
370
    25
100
AcDbPolyline
 90
       51
 70
   128
 43
0.0
 10
14.9813016257
 20
13.0027688941
 10
14.9789932659
 20
13.0464701178
 10
14.9721045909
 20
13.0921473224
 10
14.9607442391
 20
13.1390801513
 10
14.9450913701
 20
13.1865284457
 10
14.925392839
 20
13.2337439176
 10
14.9019593034
 20
13.2799819508
 10
14.8751603241
 20
13.3245133439
 10
14.845418537
 20
13.3666358103
 10
14.8132029879
 20
13.4056850536
 10
14.7790217353
 20
13.4410452437
 10
14.7434138379
 20
13.4721587294
 10
14.7069408535
 20
13.4985348324
 10
14.670177983
 20
13.5197575858
 10
14.6337049986
 20
13.5354922942
 10
14.5980971012
 20
13.5454908118
 10
14.5639158486
 20
13.5495954559
 10
14.5317002995
 20
13.5477414939
 10
14.5019585124
 20
13.5399581639
 10
14.4751595331
 20
13.5263682137
 10
14.4517259975
 20
13.5071859648
 10
14.4320274664
 20
13.4827139328
 10
14.4163745974
 20
13.4533380563
 10
14.4050142456
 20
13.4195216104
 10
14.3981255706
 20
13.3817979006
 10
14.3958172108
 20
13.3407618524
 10
14.3981255706
 20
13.2970606288
 10
14.4050142456
 20
13.2513834241
 10
14.4163745974
 20
13.2044505952
 10
14.4320274664
 20
13.1570023009
 10
14.4517259975
 20
13.109786829
 10
14.4751595331
 20
13.0635487958
 10
14.5019585124
 20
13.0190174026
 10
14.5317002995
 20
12.9768949362
 10
14.5639158486
 20
12.937845693
 10
14.5980971012
 20
12.9024855029
 10
14.6337049986
 20
12.8713720172
 10
14.670177983
 20
12.8449959142
 10
14.7069408535
 20
12.8237731607
 10
14.7434138379
 20
12.8080384524
 10
14.7790217353
 20
12.7980399348
 10
14.8132029879
 20
12.7939352907
 10
14.845418537
 20
12.7957892526
 10
14.8751603241
 20
12.8035725826
 10
14.9019593034
 20
12.8171625329
 10
14.925392839
 20
12.8363447818
 10
14.9450913701
 20
12.8608168137
 10
14.9607442391
 20
12.8901926902
 10
14.9721045909
 20
12.9240091361
 10
14.9789932659
 20
12.9617328459
 10
14.9813016257
 20
13.0027688941
  0
LWPOLYLINE
  5
F3
330
1F
100
AcDbEntity
  8
0
  6
Continuous
 62
     7
370
    25
100
AcDbPolyline
 90
       27
 70
   128
 43
0.0
 10
13.5339883949
 20
13.8382850378
 10
13.5315804641
 20
13.8625753226
 10
13.5244966118
 20
13.888234082
 10
13.5131485258
 20
13.9137701223
 10
13.4981957157
 20
13.9376993816
 10
13.4805071843
 20
13.9586311784
 10
13.4611109249
 20
13.9753490326
 10
13.4411341775
 20
13.9868813634
 10
13.421737918
 20
13.9925579536
 10
13.4040493867
 20
13.9920489005
 10
13.3890965765
 20
13.9853837883
 10
13.3777484906
 20
13.9729499692
 10
13.3706646383
 20
13.9554700515
 10
13.3682567075
 20
13.9339599044
 10
13.3706646383
 20
13.9096696197
 10
13.3777484906
 20
13.8840108602
 10
13.3890965765
 20
13.8584748199
 10
13.4040493867
 20
13.8345455606
 10
13.421737918
 20
13.8136137639
 10
13.4411341775
 20
13.7968959097
 10
13.4611109249
 20
13.7853635789
 10
13.4805071843
 20
13.7796869886
 10
13.4981957157
 20
13.7801960418
 10
13.5131485258
 20
13.7868611539
 10
13.5244966118
 20
13.7992949731
 10
13.5315804641
 20
13.8167748908
 10
13.5339883949
 20
13.8382850378
  0
LWPOLYLINE
  5
F4
330
1F
100
AcDbEntity
  8
0
  6
Continuous
 62
     7
370
    25
100
AcDbPolyline
 90
       27
 70
   128
 43
0.0
 10
16.008862129
 20
12.4095708421
 10
16.0064541982
 20
12.4338611269
 10
15.9993703459
 20
12.4595198863
 10
15.98802226
 20
12.4850559266
 10
15.9730694498
 20
12.5089851859
 10
15.9553809185
 20
12.5299169827
 10
15.935984659
 20
12.5466348369
 10
15.9160079116
 20
12.5581671677
 10
15.8966116522
 20
12.5638437579
 10
15.8789231208
 20
12.5633347048
 10
15.8639703107
 20
12.5566695926
 10
15.8526222247
 20
12.5442357735
 10
15.8455383725
 20
12.5267558558
 10
15.8431304416
 20
12.5052457087
 10
15.8455383725
 20
12.480955424
 10
15.8526222247
 20
12.4552966645
 10
15.8639703107
 20
12.4297606243
 10
15.8789231208
 20
12.405831365
 10
15.8966116522
 20
12.3848995682
 10
15.9160079116
 20
12.368181714
 10
15.935984659
 20
12.3566493832
 10
15.9553809185
 20
12.3509727929
 10
15.9730694498
 20
12.3514818461
 10
15.98802226
 20
12.3581469583
 10
15.9993703459
 20
12.3705807774
 10
16.0064541982
 20
12.3880606951
 10
16.008862129
 20
12.4095708421
  0
ARC
  5
F5
330
1F
100
AcDbEntity
  8
0
  6
Continuous
 62
     7
370
    25
100
AcDbCircle
 10
14.86532239
 20
13.4480501789
 30
0.0
 40
0.2927753314656532
100
AcDbArc
 50
160.2442545393
 51
181.0249904103
  0
LWPOLYLINE
  5
F6
330
1F
100
AcDbEntity
  8
0
  6
Continuous
 62
     7
370
    25
100
AcDbPolyline
 90
       17
 70
   128
 43
0.0
 10
14.9641163394
 20
12.8985702713
 10
14.9557984306
 20
12.9000909488
 10
14.9201905332
 20
12.9100894663
 10
14.8837175488
 20
12.9258241747
 10
14.8469546783
 20
12.9470469282
 10
14.8104816939
 20
12.9734230312
 10
14.7748737965
 20
13.0045365169
 10
14.7406925439
 20
13.039896707
 10
14.7084769948
 20
13.0789459502
 10
14.6787352077
 20
13.1210684166
 10
14.6519362284
 20
13.1655998097
 10
14.6285026928
 20
13.211837843
 10
14.6088041617
 20
13.2590533149
 10
14.5931512927
 20
13.3065016092
 10
14.5817909409
 20
13.3534344381
 10
14.5749022659
 20
13.3991116428
 10
14.5725939061
 20
13.4428128664
  0
ENDSEC
  0
SECTION
  2
OBJECTS
  0
DICTIONARY
  5
C
330
0
100
AcDbDictionary
281
     1
  3
ACAD_GROUP
350
D
  3
ACAD_LAYOUT
350
1A
  3
ACAD_MLINESTYLE
350
17
  3
ACAD_PLOTSETTINGS
350
19
  3
ACAD_PLOTSTYLENAME
350
E
  3
ACAD_SCALELIST
350
47
  3
DWGPROPS
350
F7
  0
DICTIONARY
  5
D
102
{ACAD_REACTORS
330
C
102
}
330
C
100
AcDbDictionary
281
     1
  0
DICTIONARY
  5
1A
102
{ACAD_REACTORS
330
C
102
}
330
C
100
AcDbDictionary
281
     1
  3
Layout1
350
1E
  3
Layout2
350
26
  3
Model
350
22
  0
DICTIONARY
  5
17
102
{ACAD_REACTORS
330
C
102
}
330
C
100
AcDbDictionary
281
     1
  3
Standard
350
18
  0
DICTIONARY
  5
19
102
{ACAD_REACTORS
330
C
102
}
330
C
100
AcDbDictionary
281
     1
  0
ACDBDICTIONARYWDFLT
  5
E
102
{ACAD_REACTORS
330
C
102
}
330
C
100
AcDbDictionary
281
     1
  3
Normal
350
F
100
AcDbDictionaryWithDefault
340
F
  0
DICTIONARY
  5
47
102
{ACAD_REACTORS
330
C
102
}
330
C
100
AcDbDictionary
281
     1
  3
A0
350
48
  3
A1
350
49
  3
A2
350
4A
  3
A3
350
4B
  3
A4
350
4C
  3
A5
350
4D
  3
A6
350
4E
  3
A7
350
4F
  3
A8
350
50
  3
A9
350
51
  3
B1
350
52
  3
B2
350
53
  3
B3
350
54
  3
B4
350
55
  3
B5
350
56
  3
B6
350
57
  3
B7
350
58
  0
XRECORD
  5
F7
102
{ACAD_REACTORS
330
C
102
}
330
C
100
AcDbXrecord
280
     1
  1
DWGPROPS COOKIE
  2

  3

  4

  6

  7

  8
shawnd
  9

300
=
301
=
302
=
303
=
304
=
305
=
306
=
307
=
308
=
309
=
 40
0.0
 41
2460888.947953554
 42
2460888.947953924
  1

 90
        0
  0
LAYOUT
  5
1E
102
{ACAD_REACTORS
330
1A
102
}
330
1A
100
AcDbPlotSettings
  1

  2
none_device
  4

  6

 40
0.0
 41
0.0
 42
0.0
 43
0.0
 44
0.0
 45
0.0
 46
0.0
 47
0.0
 48
0.0
 49
0.0
140
0.0
141
0.0
142
1.0
143
1.0
 70
   688
 72
     0
 73
     0
 74
     5
  7

 75
    16
147
1.0
148
0.0
149
0.0
100
AcDbLayout
  1
Layout1
 70
     1
 71
     1
 10
0.0
 20
0.0
 11
12.0
 21
9.0
 12
0.0
 22
0.0
 32
0.0
 14
1.0000000000E+20
 24
1.0000000000E+20
 34
1.0000000000E+20
 15
-1.0000000000E+20
 25
-1.0000000000E+20
 35
-1.0000000000E+20
146
0.0
 13
0.0
 23
0.0
 33
0.0
 16
1.0
 26
0.0
 36
0.0
 17
0.0
 27
1.0
 37
0.0
 76
     0
330
1B
  0
LAYOUT
  5
26
102
{ACAD_REACTORS
330
1A
102
}
330
1A
100
AcDbPlotSettings
  1

  2
none_device
  4

  6

 40
0.0
 41
0.0
 42
0.0
 43
0.0
 44
0.0
 45
0.0
 46
0.0
 47
0.0
 48
0.0
 49
0.0
140
0.0
141
0.0
142
1.0
143
1.0
 70
   688
 72
     0
 73
     0
 74
     5
  7

 75
    16
147
1.0
148
0.0
149
0.0
100
AcDbLayout
  1
Layout2
 70
     1
 71
     2
 10
0.0
 20
0.0
 11
0.0
 21
0.0
 12
0.0
 22
0.0
 32
0.0
 14
0.0
 24
0.0
 34
0.0
 15
0.0
 25
0.0
 35
0.0
146
0.0
 13
0.0
 23
0.0
 33
0.0
 16
1.0
 26
0.0
 36
0.0
 17
0.0
 27
1.0
 37
0.0
 76
     0
330
23
  0
LAYOUT
  5
22
102
{ACAD_REACTORS
330
1A
102
}
330
1A
100
AcDbPlotSettings
  1

  2
none_device
  4
Letter_(8.50_x_11.00_Inches)
  6

 40
6.35
 41
6.35
 42
6.35000508
 43
6.35000508
 44
215.9
 45
279.4
 46
0.0
 47
0.0
 48
0.0
 49
0.0
140
0.0
141
0.0
142
1.0
143
1.0
 70
  1712
 72
     0
 73
     0
 74
     0
  7

 75
     0
147
1.0
148
0.0
149
0.0
100
AcDbLayout
  1
Model
 70
     1
 71
     0
 10
0.0
 20
0.0
 11
22.0
 21
17.0
 12
0.0
 22
0.0
 32
0.0
 14
0.0
 24
0.0
 34
0.0
 15
22.0
 25
17.0
 35
0.0
146
0.0
 13
0.0
 23
0.0
 33
0.0
 16
1.0
 26
0.0
 36
0.0
 17
0.0
 27
1.0
 37
0.0
 76
     0
330
1F
331
29
  0
MLINESTYLE
  5
18
102
{ACAD_REACTORS
330
17
102
}
330
17
100
AcDbMlineStyle
  2
Standard
 70
     0
  3

 62
   256
 51
90.0
 52
90.0
 71
     2
 49
0.5
 62
   256
  6
BYLAYER
 49
-0.5
 62
   256
  6
BYLAYER
  0
ACDBPLACEHOLDER
  5
F
102
{ACAD_REACTORS
330
E
102
}
330
E
  0
SCALE
  5
48
102
{ACAD_REACTORS
330
47
102
}
330
47
100
AcDbScale
 70
     0
300
1:1
140
1.0
141
1.0
290
     1
  0
SCALE
  5
49
102
{ACAD_REACTORS
330
47
102
}
330
47
100
AcDbScale
 70
     0
300
1/128" = 1'-0"
140
0.0078125
141
12.0
290
     0
  0
SCALE
  5
4A
102
{ACAD_REACTORS
330
47
102
}
330
47
100
AcDbScale
 70
     0
300
1/64" = 1'-0"
140
0.015625
141
12.0
290
     0
  0
SCALE
  5
4B
102
{ACAD_REACTORS
330
47
102
}
330
47
100
AcDbScale
 70
     0
300
1/32" = 1'-0"
140
0.03125
141
12.0
290
     0
  0
SCALE
  5
4C
102
{ACAD_REACTORS
330
47
102
}
330
47
100
AcDbScale
 70
     0
300
1/16" = 1'-0"
140
0.0625
141
12.0
290
     0
  0
SCALE
  5
4D
102
{ACAD_REACTORS
330
47
102
}
330
47
100
AcDbScale
 70
     0
300
3/32" = 1'-0"
140
0.09375
141
12.0
290
     0
  0
SCALE
  5
4E
102
{ACAD_REACTORS
330
47
102
}
330
47
100
AcDbScale
 70
     0
300
1/8" = 1'-0"
140
0.125
141
12.0
290
     0
  0
SCALE
  5
4F
102
{ACAD_REACTORS
330
47
102
}
330
47
100
AcDbScale
 70
     0
300
3/16" = 1'-0"
140
0.1875
141
12.0
290
     0
  0
SCALE
  5
50
102
{ACAD_REACTORS
330
47
102
}
330
47
100
AcDbScale
 70
     0
300
1/4" = 1'-0"
140
0.25
141
12.0
290
     0
  0
SCALE
  5
51
102
{ACAD_REACTORS
330
47
102
}
330
47
100
AcDbScale
 70
     0
300
3/8" = 1'-0"
140
0.375
141
12.0
290
     0
  0
SCALE
  5
52
102
{ACAD_REACTORS
330
47
102
}
330
47
100
AcDbScale
 70
     0
300
1/2" = 1'-0"
140
0.5
141
12.0
290
     0
  0
SCALE
  5
53
102
{ACAD_REACTORS
330
47
102
}
330
47
100
AcDbScale
 70
     0
300
3/4" = 1'-0"
140
0.75
141
12.0
290
     0
  0
SCALE
  5
54
102
{ACAD_REACTORS
330
47
102
}
330
47
100
AcDbScale
 70
     0
300
1" = 1'-0"
140
1.0
141
12.0
290
     0
  0
SCALE
  5
55
102
{ACAD_REACTORS
330
47
102
}
330
47
100
AcDbScale
 70
     0
300
1-1/2" = 1'-0"
140
1.5
141
12.0
290
     0
  0
SCALE
  5
56
102
{ACAD_REACTORS
330
47
102
}
330
47
100
AcDbScale
 70
     0
300
3" = 1'-0"
140
3.0
141
12.0
290
     0
  0
SCALE
  5
57
102
{ACAD_REACTORS
330
47
102
}
330
47
100
AcDbScale
 70
     0
300
6" = 1'-0"
140
6.0
141
12.0
290
     0
  0
SCALE
  5
58
102
{ACAD_REACTORS
330
47
102
}
330
47
100
AcDbScale
 70
     0
300
1'-0" = 1'-0"
140
12.0
141
12.0
290
     0
  0
ENDSEC
  0
EOF
