  0
SECTION
  2
HEADER
  9
$ACADVER
  1
AC1015
  9
$ACADMAINTVER
 70
     6
  9
$DWGCODEPAGE
  3
ANSI_1252
  9
$INSBASE
 10
0.0
 20
0.0
 30
0.0
  9
$EXTMIN
 10
0.0
 20
0.0
 30
0.0
  9
$EXTMAX
 10
33.0
 20
25.5
 30
0.0
  9
$LIMMIN
 10
0.0
 20
0.0
  9
$LIMMAX
 10
33.0
 20
25.5
  9
$ORTHOMODE
 70
     0
  9
$REGENMODE
 70
     1
  9
$FILLMODE
 70
     1
  9
$QTEXTMODE
 70
     0
  9
$MIRRTEXT
 70
     1
  9
$LTSCALE
 40
3.0
  9
$ATTMODE
 70
     1
  9
$TEXTSIZE
 40
0.375
  9
$TRACEWID
 40
0.05
  9
$TEXTSTYLE
  7
Standard
  9
$CLAYER
  8
0
  9
$CELTYPE
  6
ByLayer
  9
$CECOLOR
 62
   256
  9
$CELTSCALE
 40
1.0
  9
$DISPSILH
 70
     0
  9
$DIMSCALE
 40
1.0
  9
$DIMASZ
 40
0.39
  9
$DIMEXO
 40
0.15
  9
$DIMDLI
 40
0.38
  9
$DIMRND
 40
0.0
  9
$DIMDLE
 40
0.0
  9
$DIMEXE
 40
0.375
  9
$DIMTP
 40
0.0
  9
$DIMTM
 40
0.0
  9
$DIMTXT
 40
0.375
  9
$DIMCEN
 40
0.09
  9
$DIMTSZ
 40
0.0
  9
$DIMTOL
 70
     0
  9
$DIMLIM
 70
     0
  9
$DIMTIH
 70
     1
  9
$DIMTOH
 70
     1
  9
$DIMSE1
 70
     0
  9
$DIMSE2
 70
     0
  9
$DIMTAD
 70
     0
  9
$DIMZIN
 70
     1
  9
$DIMBLK
  1

  9
$DIMASO
 70
     1
  9
$DIMSHO
 70
     1
  9
$DIMPOST
  1

  9
$DIMAPOST
  1

  9
$DIMALT
 70
     0
  9
$DIMALTD
 70
     2
  9
$DIMALTF
 40
25.4
  9
$DIMLFAC
 40
1.0
  9
$DIMTOFL
 70
     0
  9
$DIMTVP
 40
0.0
  9
$DIMTIX
 70
     0
  9
$DIMSOXD
 70
     0
  9
$DIMSAH
 70
     0
  9
$DIMBLK1
  1

  9
$DIMBLK2
  1

  9
$DIMSTYLE
  2
Standard
  9
$DIMCLRD
 70
     0
  9
$DIMCLRE
 70
     0
  9
$DIMCLRT
 70
     0
  9
$DIMTFAC
 40
1.0
  9
$DIMGAP
 40
0.18
  9
$DIMJUST
 70
     0
  9
$DIMSD1
 70
     0
  9
$DIMSD2
 70
     0
  9
$DIMTOLJ
 70
     1
  9
$DIMTZIN
 70
     1
  9
$DIMALTZ
 70
     0
  9
$DIMALTTZ
 70
     0
  9
$DIMUPT
 70
     0
  9
$DIMDEC
 70
     0
  9
$DIMTDEC
 70
     0
  9
$DIMALTU
 70
     2
  9
$DIMALTTD
 70
     2
  9
$DIMTXSTY
  7
Standard
  9
$DIMAUNIT
 70
     0
  9
$DIMADEC
 70
     0
  9
$DIMALTRND
 40
0.0
  9
$DIMAZIN
 70
     0
  9
$DIMDSEP
 70
    46
  9
$DIMATFIT
 70
     3
  9
$DIMFRAC
 70
     0
  9
$DIMLDRBLK
  1

  9
$DIMLUNIT
 70
     2
  9
$DIMLWD
 70
    -2
  9
$DIMLWE
 70
    -2
  9
$DIMTMOVE
 70
     0
  9
$LUNITS
 70
     2
  9
$LUPREC
 70
     6
  9
$SKETCHINC
 40
0.1
  9
$FILLETRAD
 40
0.0
  9
$AUNITS
 70
     0
  9
$AUPREC
 70
     2
  9
$MENU
  1
.
  9
$ELEVATION
 40
0.0
  9
$PELEVATION
 40
0.0
  9
$THICKNESS
 40
0.0
  9
$LIMCHECK
 70
     0
  9
$CHAMFERA
 40
0.0
  9
$CHAMFERB
 40
0.0
  9
$CHAMFERC
 40
0.0
  9
$CHAMFERD
 40
0.0
  9
$SKPOLY
 70
     0
  9
$TDCREATE
 40
2460766.605493322
  9
$TDUCREATE
 40
2460766.897159989
  9
$TDUPDATE
 40
2460766.605493831
  9
$TDUUPDATE
 40
2460766.897160498
  9
$TDINDWG
 40
0.0000000116
  9
$TDUSRTIMER
 40
0.0000000116
  9
$USRTIMER
 70
     1
  9
$ANGBASE
 50
0.0
  9
$ANGDIR
 70
     0
  9
$PDMODE
 70
     0
  9
$PDSIZE
 40
-1.0
  9
$PLINEWID
 40
0.0
  9
$SPLFRAME
 70
     0
  9
$SPLINETYPE
 70
     6
  9
$SPLINESEGS
 70
     8
  9
$HANDSEED
  5
1BD
  9
$SURFTAB1
 70
     6
  9
$SURFTAB2
 70
     6
  9
$SURFTYPE
 70
     6
  9
$SURFU
 70
     6
  9
$SURFV
 70
     6
  9
$UCSBASE
  2

  9
$UCSNAME
  2

  9
$UCSORG
 10
0.0
 20
0.0
 30
0.0
  9
$UCSXDIR
 10
1.0
 20
0.0
 30
0.0
  9
$UCSYDIR
 10
0.0
 20
1.0
 30
0.0
  9
$UCSORTHOREF
  2

  9
$UCSORTHOVIEW
 70
     0
  9
$UCSORGTOP
 10
0.0
 20
0.0
 30
0.0
  9
$UCSORGBOTTOM
 10
0.0
 20
0.0
 30
0.0
  9
$UCSORGLEFT
 10
0.0
 20
0.0
 30
0.0
  9
$UCSORGRIGHT
 10
0.0
 20
0.0
 30
0.0
  9
$UCSORGFRONT
 10
0.0
 20
0.0
 30
0.0
  9
$UCSORGBACK
 10
0.0
 20
0.0
 30
0.0
  9
$PUCSBASE
  2

  9
$PUCSNAME
  2

  9
$PUCSORG
 10
0.0
 20
0.0
 30
0.0
  9
$PUCSXDIR
 10
1.0
 20
0.0
 30
0.0
  9
$PUCSYDIR
 10
0.0
 20
1.0
 30
0.0
  9
$PUCSORTHOREF
  2

  9
$PUCSORTHOVIEW
 70
     0
  9
$PUCSORGTOP
 10
0.0
 20
0.0
 30
0.0
  9
$PUCSORGBOTTOM
 10
0.0
 20
0.0
 30
0.0
  9
$PUCSORGLEFT
 10
0.0
 20
0.0
 30
0.0
  9
$PUCSORGRIGHT
 10
0.0
 20
0.0
 30
0.0
  9
$PUCSORGFRONT
 10
0.0
 20
0.0
 30
0.0
  9
$PUCSORGBACK
 10
0.0
 20
0.0
 30
0.0
  9
$USERI1
 70
     0
  9
$USERI2
 70
     0
  9
$USERI3
 70
     0
  9
$USERI4
 70
     0
  9
$USERI5
 70
     0
  9
$USERR1
 40
0.0
  9
$USERR2
 40
0.0
  9
$USERR3
 40
0.0
  9
$USERR4
 40
0.0
  9
$USERR5
 40
0.0
  9
$WORLDVIEW
 70
     1
  9
$SHADEDGE
 70
     3
  9
$SHADEDIF
 70
    70
  9
$TILEMODE
 70
     1
  9
$MAXACTVP
 70
    64
  9
$PINSBASE
 10
0.0
 20
0.0
 30
0.0
  9
$PLIMCHECK
 70
     0
  9
$PEXTMIN
 10
1.0000000000E+20
 20
1.0000000000E+20
 30
1.0000000000E+20
  9
$PEXTMAX
 10
-1.0000000000E+20
 20
-1.0000000000E+20
 30
-1.0000000000E+20
  9
$PLIMMIN
 10
0.0
 20
0.0
  9
$PLIMMAX
 10
12.0
 20
9.0
  9
$UNITMODE
 70
     0
  9
$VISRETAIN
 70
     1
  9
$PLINEGEN
 70
     0
  9
$PSLTSCALE
 70
     1
  9
$TREEDEPTH
 70
  3020
  9
$CMLSTYLE
  2
Standard
  9
$CMLJUST
 70
     0
  9
$CMLSCALE
 40
1.0
  9
$PROXYGRAPHICS
 70
     1
  9
$MEASUREMENT
 70
     0
  9
$CELWEIGHT
370
    -1
  9
$ENDCAPS
280
     0
  9
$JOINSTYLE
280
     0
  9
$LWDISPLAY
290
     1
  9
$INSUNITS
 70
     1
  9
$HYPERLINKBASE
  1

  9
$STYLESHEET
  1

  9
$XEDIT
290
     1
  9
$CEPSNTYPE
380
     0
  9
$PSTYLEMODE
290
     1
  9
$FINGERPRINTGUID
  2
{961dcdc7-8766-4fbc-9f6e-c854d3bdd225}
  9
$VERSIONGUID
  2
{FAEB1C32-E019-11D5-929B-00C0DF256EC4}
  9
$EXTNAMES
290
     1
  9
$PSVPSCALE
 40
0.0
  9
$OLESTARTUP
290
     0
  0
ENDSEC
  0
SECTION
  2
CLASSES
  0
CLASS
  1
ACDBDICTIONARYWDFLT
  2
AcDbDictionaryWithDefault
  3
ObjectDBX Classes
 90
        0
280
     0
281
     0
  0
CLASS
  1
VISUALSTYLE
  2
AcDbVisualStyle
  3
ObjectDBX Classes
 90
     4095
280
     0
281
     0
  0
CLASS
  1
MATERIAL
  2
AcDbMaterial
  3
ObjectDBX Classes
 90
     1153
280
     0
281
     0
  0
CLASS
  1
SCALE
  2
AcDbScale
  3
ObjectDBX Classes
 90
     1153
280
     0
281
     0
  0
CLASS
  1
TABLESTYLE
  2
AcDbTableStyle
  3
ObjectDBX Classes
 90
     4095
280
     0
281
     0
  0
CLASS
  1
MLEADERSTYLE
  2
AcDbMLeaderStyle
  3
ACDB_MLEADERSTYLE_CLASS
 90
     4095
280
     0
281
     0
  0
CLASS
  1
SUN
  2
AcDbSun
  3
SCENEOE
 90
     1153
280
     0
281
     0
  0
CLASS
  1
ACDBPLACEHOLDER
  2
AcDbPlaceHolder
  3
ObjectDBX Classes
 90
        0
280
     0
281
     0
  0
CLASS
  1
LAYOUT
  2
AcDbLayout
  3
ObjectDBX Classes
 90
        0
280
     0
281
     0
  0
ENDSEC
  0
SECTION
  2
TABLES
  0
TABLE
  2
VPORT
  5
8
330
0
100
AcDbSymbolTable
 70
     1
  0
VPORT
  5
29
330
8
100
AcDbSymbolTableRecord
100
AcDbViewportTableRecord
  2
*Active
 70
     0
 10
0.0
 20
0.0
 11
1.0
 21
1.0
 12
16.5
 22
12.75
 13
0.0
 23
0.0
 14
0.5
 24
0.5
 15
0.5
 25
0.5
 16
0.0
 26
0.0
 36
1.0
 17
0.0
 27
0.0
 37
0.0
 40
25.5
 41
1.2941176471
 42
50.0
 43
0.0
 44
0.0
 50
0.0
 51
0.0
 71
     0
 72
  2000
 73
     1
 74
     3
 75
     0
 76
     0
 77
     0
 78
     0
281
     0
 65
     1
110
0.0
120
0.0
130
0.0
111
1.0
121
0.0
131
0.0
112
0.0
122
1.0
132
0.0
 79
     0
146
0.0
  0
ENDTAB
  0
TABLE
  2
LTYPE
  5
5
330
0
100
AcDbSymbolTable
 70
     6
  0
LTYPE
  5
14
330
5
100
AcDbSymbolTableRecord
100
AcDbLinetypeTableRecord
  2
ByBlock
 70
     0
  3

 72
    65
 73
     0
 40
0.0
  0
LTYPE
  5
15
330
5
100
AcDbSymbolTableRecord
100
AcDbLinetypeTableRecord
  2
ByLayer
 70
     0
  3

 72
    65
 73
     0
 40
0.0
  0
LTYPE
  5
16
330
5
100
AcDbSymbolTableRecord
100
AcDbLinetypeTableRecord
  2
Continuous
 70
     0
  3
Solid line
 72
    65
 73
     0
 40
0.0
  0
LTYPE
  5
5E
330
5
100
AcDbSymbolTableRecord
100
AcDbLinetypeTableRecord
  2
HIDDEN
 70
     0
  3
Hidden __ __ __ __ __ __ __ __ __ __ __ __ __ __
 72
    65
 73
     2
 40
0.075
 49
0.05
 74
     0
 49
-0.025
 74
     0
  0
LTYPE
  5
5F
330
5
100
AcDbSymbolTableRecord
100
AcDbLinetypeTableRecord
  2
PHANTOM
 70
     0
  3
Phantom ______  __  __  ______  __  __  ______
 72
    65
 73
     6
 40
0.5
 49
0.25
 74
     0
 49
-0.05
 74
     0
 49
0.05
 74
     0
 49
-0.05
 74
     0
 49
0.05
 74
     0
 49
-0.05
 74
     0
  0
LTYPE
  5
60
330
5
100
AcDbSymbolTableRecord
100
AcDbLinetypeTableRecord
  2
CENTER
 70
     0
  3
Center ____ _ ____ _ ____ _ ____ _ ____ _ ____
 72
    65
 73
     4
 40
0.4
 49
0.25
 74
     0
 49
-0.05
 74
     0
 49
0.05
 74
     0
 49
-0.05
 74
     0
  0
LTYPE
  5
61
330
5
100
AcDbSymbolTableRecord
100
AcDbLinetypeTableRecord
  2
CENTERX2
 70
     0
  3
Center (2x) ________  __  ________  __  _____
 72
    65
 73
     4
 40
0.8
 49
0.5
 74
     0
 49
-0.1
 74
     0
 49
0.1
 74
     0
 49
-0.1
 74
     0
  0
LTYPE
  5
62
330
5
100
AcDbSymbolTableRecord
100
AcDbLinetypeTableRecord
  2
DOT2
 70
     0
  3
Dot (.5x) ........................................
 72
    65
 73
     2
 40
0.025
 49
0.0
 74
     0
 49
-0.025
 74
     0
  0
ENDTAB
  0
TABLE
  2
LAYER
  5
2
330
0
100
AcDbSymbolTable
 70
    11
  0
LAYER
  5
10
330
2
100
AcDbSymbolTableRecord
100
AcDbLayerTableRecord
  2
0
 70
     0
 62
     7
  6
Continuous
370
    -3
390
F
  0
LAYER
  5
63
330
2
100
AcDbSymbolTableRecord
100
AcDbLayerTableRecord
  2
SLD-0
 70
     0
 62
     7
  6
Continuous
370
    -3
390
F
  0
LAYER
  5
64
330
2
100
AcDbSymbolTableRecord
100
AcDbLayerTableRecord
  2
DIM
 70
     0
 62
     7
  6
Continuous
370
    -3
390
F
  0
LAYER
  5
65
330
2
100
AcDbSymbolTableRecord
100
AcDbLayerTableRecord
  2
CEN
 70
     0
 62
     1
  6
CENTER
370
    -3
390
F
  0
LAYER
  5
66
330
2
100
AcDbSymbolTableRecord
100
AcDbLayerTableRecord
  2
HAT
 70
     0
 62
     4
  6
Continuous
370
    -3
390
F
  0
LAYER
  5
67
330
2
100
AcDbSymbolTableRecord
100
AcDbLayerTableRecord
  2
OBJ
 70
     0
 62
     5
  6
Continuous
370
    -3
390
F
  0
LAYER
  5
68
330
2
100
AcDbSymbolTableRecord
100
AcDbLayerTableRecord
  2
SLD-DEFPOINTS
 70
     0
 62
     7
  6
Continuous
370
    -3
390
F
  0
LAYER
  5
69
330
2
100
AcDbSymbolTableRecord
100
AcDbLayerTableRecord
  2
HID
 70
     0
 62
     4
  6
HIDDEN
370
    -3
390
F
  0
LAYER
  5
6A
330
2
100
AcDbSymbolTableRecord
100
AcDbLayerTableRecord
  2
NOTE
 70
     0
 62
     7
  6
Continuous
370
    -3
390
F
  0
LAYER
  5
6B
330
2
100
AcDbSymbolTableRecord
100
AcDbLayerTableRecord
  2
TITLE
 70
     0
 62
     7
  6
Continuous
370
    -3
390
F
  0
LAYER
  5
6C
330
2
100
AcDbSymbolTableRecord
100
AcDbLayerTableRecord
  2
THICK_TITLE
 70
     0
 62
     7
  6
Continuous
370
   100
390
F
  0
ENDTAB
  0
TABLE
  2
STYLE
  5
3
330
0
100
AcDbSymbolTable
 70
     2
  0
STYLE
  5
11
330
3
100
AcDbSymbolTableRecord
100
AcDbTextStyleTableRecord
  2
Standard
 70
     0
 40
0.0
 41
1.0
 50
0.0
 71
     0
 42
0.375
  3
txt
  4

  0
STYLE
  5
D3
330
3
100
AcDbSymbolTableRecord
100
AcDbTextStyleTableRecord
  2
SLDTEXTSTYLE0
 70
     0
 40
0.0
 41
0.75
 50
0.0
 71
     0
 42
0.375
  3
TXT
  4

  0
ENDTAB
  0
TABLE
  2
VIEW
  5
6
330
0
100
AcDbSymbolTable
 70
     0
  0
ENDTAB
  0
TABLE
  2
UCS
  5
7
330
0
100
AcDbSymbolTable
 70
     0
  0
ENDTAB
  0
TABLE
  2
APPID
  5
9
330
0
100
AcDbSymbolTable
 70
     1
  0
APPID
  5
12
330
9
100
AcDbSymbolTableRecord
100
AcDbRegAppTableRecord
  2
ACAD
 70
     0
  0
ENDTAB
  0
TABLE
  2
DIMSTYLE
  5
A
330
0
100
AcDbSymbolTable
 70
     4
100
AcDbDimStyleTable
  0
DIMSTYLE
105
27
330
A
100
AcDbSymbolTableRecord
100
AcDbDimStyleTableRecord
  2
Standard
 70
     0
178
     0
340
11
  0
DIMSTYLE
105
D4
102
{ACAD_REACTORS
330
D2
330
110
330
1A8
102
}
330
A
100
AcDbSymbolTableRecord
100
AcDbDimStyleTableRecord
  2
SLDDIMSTYLE0
 70
     0
 41
0.39
 44
0.0
 45
0.000000001
 78
    12
 79
     3
140
0.375
147
0.09375
148
0.000000001
170
     1
172
     1
173
     1
178
     0
271
     6
272
     0
276
     2
277
     5
284
    12
289
     0
340
D3
  0
DIMSTYLE
105
E9
102
{ACAD_REACTORS
330
E8
330
FD
102
}
330
A
100
AcDbSymbolTableRecord
100
AcDbDimStyleTableRecord
  2
SLDDIMSTYLE1
 70
     0
 41
0.39
 44
0.0
 45
0.000000001
 78
    12
 79
     3
140
0.375
147
0.09375
148
0.000000001
170
     1
172
     1
173
     1
178
     0
271
     0
272
     0
276
     2
277
     5
284
    12
289
     0
340
D3
  0
DIMSTYLE
105
125
102
{ACAD_REACTORS
330
124
330
195
102
}
330
A
100
AcDbSymbolTableRecord
100
AcDbDimStyleTableRecord
  2
SLDDIMSTYLE2
 70
     0
 41
0.39
 44
0.0
 45
0.000000001
 78
    12
 79
     3
140
0.375
147
0.09375
148
0.000000001
170
     1
173
     1
178
     0
271
     0
272
     0
276
     2
277
     5
284
    12
340
D3
  0
ENDTAB
  0
TABLE
  2
BLOCK_RECORD
  5
1
330
0
100
AcDbSymbolTable
 70
     8
  0
BLOCK_RECORD
  5
1F
330
1
100
AcDbSymbolTableRecord
100
AcDbBlockTableRecord
  2
*Model_Space
340
22
  0
BLOCK_RECORD
  5
1B
330
1
100
AcDbSymbolTableRecord
100
AcDbBlockTableRecord
  2
*Paper_Space
340
1E
  0
BLOCK_RECORD
  5
23
330
1
100
AcDbSymbolTableRecord
100
AcDbBlockTableRecord
  2
*Paper_Space0
340
26
  0
BLOCK_RECORD
  5
D5
330
1
100
AcDbSymbolTableRecord
100
AcDbBlockTableRecord
  2
_D
340
0
  0
BLOCK_RECORD
  5
EA
330
1
100
AcDbSymbolTableRecord
100
AcDbBlockTableRecord
  2
_D_1
340
0
  0
BLOCK_RECORD
  5
FE
330
1
100
AcDbSymbolTableRecord
100
AcDbBlockTableRecord
  2
_D_2
340
0
  0
BLOCK_RECORD
  5
111
330
1
100
AcDbSymbolTableRecord
100
AcDbBlockTableRecord
  2
_D_3
340
0
  0
BLOCK_RECORD
  5
126
330
1
100
AcDbSymbolTableRecord
100
AcDbBlockTableRecord
  2
_D_4
340
0
  0
BLOCK_RECORD
  5
196
330
1
100
AcDbSymbolTableRecord
100
AcDbBlockTableRecord
  2
_D_5
340
0
  0
BLOCK_RECORD
  5
1A9
330
1
100
AcDbSymbolTableRecord
100
AcDbBlockTableRecord
  2
_D_6
340
0
  0
ENDTAB
  0
ENDSEC
  0
SECTION
  2
BLOCKS
  0
BLOCK
  5
20
330
1F
100
AcDbEntity
  8
0
100
AcDbBlockBegin
  2
*Model_Space
 70
     0
 10
0.0
 20
0.0
 30
0.0
  3
*Model_Space
  1

  0
ENDBLK
  5
21
330
1F
100
AcDbEntity
  8
0
100
AcDbBlockEnd
  0
BLOCK
  5
1C
330
1B
100
AcDbEntity
 67
     1
  8
0
100
AcDbBlockBegin
  2
*Paper_Space
 70
     0
 10
0.0
 20
0.0
 30
0.0
  3
*Paper_Space
  1

  0
ENDBLK
  5
1D
330
1B
100
AcDbEntity
 67
     1
  8
0
100
AcDbBlockEnd
  0
BLOCK
  5
24
330
23
100
AcDbEntity
  8
0
100
AcDbBlockBegin
  2
*Paper_Space0
 70
     0
 10
0.0
 20
0.0
 30
0.0
  3
*Paper_Space0
  1

  0
ENDBLK
  5
25
330
23
100
AcDbEntity
  8
0
100
AcDbBlockEnd
  0
BLOCK
  5
D6
330
D5
100
AcDbEntity
  8
0
100
AcDbBlockBegin
  2
_D
 70
     0
 10
0.0
 20
0.0
 30
0.0
  3
_D
  1

  0
SOLID
  5
D8
330
D5
100
AcDbEntity
  8
0
  6
Continuous
 62
     7
370
    18
100
AcDbTrace
 10
5.3646325944
 20
20.6874118592
 30
0.0
 11
5.7546325944
 21
20.6274118592
 31
0.0
 12
5.7546325944
 22
20.7474118592
 32
0.0
 13
5.7546325944
 23
20.7474118592
 33
0.0
  0
SOLID
  5
D9
330
D5
100
AcDbEntity
  8
0
  6
Continuous
 62
     7
370
    18
100
AcDbTrace
 10
5.0746325944
 20
20.6874118592
 30
0.0
 11
4.6846325944
 21
20.7474118592
 31
0.0
 12
4.6846325944
 22
20.6274118592
 32
0.0
 13
4.6846325944
 23
20.6274118592
 33
0.0
  0
LINE
  5
DA
330
D5
100
AcDbEntity
  8
0
  6
Continuous
 62
     7
370
     0
100
AcDbLine
 10
2.2425771604
 20
20.6845472173
 30
0.0
 11
2.128319349
 21
20.6845472173
 31
0.0
  0
LINE
  5
DB
330
D5
100
AcDbEntity
  8
0
  6
Continuous
 62
     7
370
     0
100
AcDbLine
 10
2.128319349
 20
20.6845472173
 30
0.0
 11
2.128319349
 21
20.0892346994
 31
0.0
  0
LINE
  5
DC
330
D5
100
AcDbEntity
  8
0
  6
Continuous
 62
     7
370
     0
100
AcDbLine
 10
2.128319349
 20
20.0892346994
 30
0.0
 11
2.2425771604
 21
20.0892346994
 31
0.0
  0
LINE
  5
DD
330
D5
100
AcDbEntity
  8
0
  6
Continuous
 62
     7
370
     0
100
AcDbLine
 10
3.4571604694
 20
20.6845472173
 30
0.0
 11
3.5714182807
 21
20.6845472173
 31
0.0
  0
LINE
  5
DE
330
D5
100
AcDbEntity
  8
0
  6
Continuous
 62
     7
370
     0
100
AcDbLine
 10
3.5714182807
 20
20.6845472173
 30
0.0
 11
3.5714182807
 21
20.0892346994
 31
0.0
  0
LINE
  5
DF
330
D5
100
AcDbEntity
  8
0
  6
Continuous
 62
     7
370
     0
100
AcDbLine
 10
3.5714182807
 20
20.0892346994
 30
0.0
 11
3.4571604694
 21
20.0892346994
 31
0.0
  0
LINE
  5
E0
330
D5
100
AcDbEntity
  8
0
  6
Continuous
 62
     7
370
     0
100
AcDbLine
 10
5.3646325944
 20
19.1399723194
 30
0.0
 11
5.3646325944
 21
21.0624118592
 31
0.0
  0
LINE
  5
E1
330
D5
100
AcDbEntity
  8
0
  6
Continuous
 62
     7
370
     0
100
AcDbLine
 10
5.0746325944
 20
17.1549723194
 30
0.0
 11
5.0746325944
 21
21.0624118592
 31
0.0
  0
LINE
  5
E2
330
D5
100
AcDbEntity
  8
0
  6
Continuous
 62
     7
370
     0
100
AcDbLine
 10
5.3646325944
 20
20.6874118592
 30
0.0
 11
6.1146325944
 21
20.6874118592
 31
0.0
  0
LINE
  5
E3
330
D5
100
AcDbEntity
  8
0
  6
Continuous
 62
     7
370
     0
100
AcDbLine
 10
5.0746325944
 20
20.6874118592
 30
0.0
 11
3.9002593913
 21
20.6874118592
 31
0.0
  0
MTEXT
  5
E4
330
D5
100
AcDbEntity
  8
0
  6
Continuous
 62
     7
370
    18
100
AcDbMText
 10
2.0161448706
 20
21.2498486998
 30
0.0
 40
0.375
 41
0.0
 71
     1
 72
     1
  1

  7
SLDTEXTSTYLE0
 73
     1
 44
1.0
  0
MTEXT
  5
E5
330
D5
100
AcDbEntity
  8
0
  6
Continuous
 62
     7
370
    18
100
AcDbMText
 10
2.2475250407
 20
21.2441195054
 30
0.0
 40
0.375
 41
0.0
 71
     1
 72
     1
  1
5/16"
  7
SLDTEXTSTYLE0
 73
     1
 44
1.0
  0
MTEXT
  5
E6
330
D5
100
AcDbEntity
  8
0
  6
Continuous
 62
     7
370
    18
100
AcDbMText
 10
2.2425771604
 20
20.5726351431
 30
0.0
 40
0.375
 41
0.0
 71
     1
 72
     1
  1
7mm
  7
SLDTEXTSTYLE0
 73
     1
 44
1.0
  0
MTEXT
  5
E7
330
D5
100
AcDbEntity
  8
0
  6
Continuous
 62
     7
370
    18
100
AcDbMText
 10
3.8263010096
 20
21.2498486998
 30
0.0
 40
0.375
 41
0.0
 71
     1
 72
     1
  1

  7
SLDTEXTSTYLE0
 73
     1
 44
1.0
  0
ENDBLK
  5
D7
330
D5
100
AcDbEntity
  8
0
100
AcDbBlockEnd
  0
BLOCK
  5
EB
330
EA
100
AcDbEntity
  8
0
100
AcDbBlockBegin
  2
_D_1
 70
     0
 10
0.0
 20
0.0
 30
0.0
  3
_D_1
  1

  0
SOLID
  5
ED
330
EA
100
AcDbEntity
  8
0
  6
Continuous
 62
     7
370
    18
100
AcDbTrace
 10
5.3646325944
 20
8.1968857052
 30
0.0
 11
4.9746325944
 21
8.2568857052
 31
0.0
 12
4.9746325944
 22
8.1368857052
 32
0.0
 13
4.9746325944
 23
8.1368857052
 33
0.0
  0
SOLID
  5
EE
330
EA
100
AcDbEntity
  8
0
  6
Continuous
 62
     7
370
    18
100
AcDbTrace
 10
9.3646325944
 20
8.1968857052
 30
0.0
 11
9.7546325944
 21
8.1368857052
 31
0.0
 12
9.7546325944
 22
8.2568857052
 32
0.0
 13
9.7546325944
 23
8.2568857052
 33
0.0
  0
LINE
  5
EF
330
EA
100
AcDbEntity
  8
0
  6
Continuous
 62
     7
370
     0
100
AcDbLine
 10
6.4802576608
 20
8.1940210633
 30
0.0
 11
6.3659998494
 21
8.1940210633
 31
0.0
  0
LINE
  5
F0
330
EA
100
AcDbEntity
  8
0
  6
Continuous
 62
     7
370
     0
100
AcDbLine
 10
6.3659998494
 20
8.1940210633
 30
0.0
 11
6.3659998494
 21
7.5987085454
 31
0.0
  0
LINE
  5
F1
330
EA
100
AcDbEntity
  8
0
  6
Continuous
 62
     7
370
     0
100
AcDbLine
 10
6.3659998494
 20
7.5987085454
 30
0.0
 11
6.4802576608
 21
7.5987085454
 31
0.0
  0
LINE
  5
F2
330
EA
100
AcDbEntity
  8
0
  6
Continuous
 62
     7
370
     0
100
AcDbLine
 10
8.249007638
 20
8.1940210633
 30
0.0
 11
8.3632654494
 21
8.1940210633
 31
0.0
  0
LINE
  5
F3
330
EA
100
AcDbEntity
  8
0
  6
Continuous
 62
     7
370
     0
100
AcDbLine
 10
8.3632654494
 20
8.1940210633
 30
0.0
 11
8.3632654494
 21
7.5987085454
 31
0.0
  0
LINE
  5
F4
330
EA
100
AcDbEntity
  8
0
  6
Continuous
 62
     7
370
     0
100
AcDbLine
 10
8.3632654494
 20
7.5987085454
 30
0.0
 11
8.249007638
 21
7.5987085454
 31
0.0
  0
LINE
  5
F5
330
EA
100
AcDbEntity
  8
0
  6
Continuous
 62
     7
370
     0
100
AcDbLine
 10
5.3646325944
 20
13.8699723194
 30
0.0
 11
5.3646325944
 21
7.8218857052
 31
0.0
  0
LINE
  5
F6
330
EA
100
AcDbEntity
  8
0
  6
Continuous
 62
     7
370
     0
100
AcDbLine
 10
9.3646325944
 20
15.2669723194
 30
0.0
 11
9.3646325944
 21
7.8218857052
 31
0.0
  0
LINE
  5
F7
330
EA
100
AcDbEntity
  8
0
  6
Continuous
 62
     7
370
     0
100
AcDbLine
 10
5.3646325944
 20
8.1968857052
 30
0.0
 11
4.6146325944
 21
8.1968857052
 31
0.0
  0
LINE
  5
F8
330
EA
100
AcDbEntity
  8
0
  6
Continuous
 62
     7
370
     0
100
AcDbLine
 10
9.3646325944
 20
8.1968857052
 30
0.0
 11
10.1146325944
 21
8.1968857052
 31
0.0
  0
MTEXT
  5
F9
330
EA
100
AcDbEntity
  8
0
  6
Continuous
 62
     7
370
    18
100
AcDbMText
 10
6.2538253711
 20
8.7593225458
 30
0.0
 40
0.375
 41
0.0
 71
     1
 72
     1
  1

  7
SLDTEXTSTYLE0
 73
     1
 44
1.0
  0
MTEXT
  5
FA
330
EA
100
AcDbEntity
  8
0
  6
Continuous
 62
     7
370
    18
100
AcDbMText
 10
7.1487472046
 20
8.7535933514
 30
0.0
 40
0.375
 41
0.0
 71
     1
 72
     1
  1
4"
  7
SLDTEXTSTYLE0
 73
     1
 44
1.0
  0
MTEXT
  5
FB
330
EA
100
AcDbEntity
  8
0
  6
Continuous
 62
     7
370
    18
100
AcDbMText
 10
6.4802576608
 20
8.0821089891
 30
0.0
 40
0.375
 41
0.0
 71
     1
 72
     1
  1
102mm
  7
SLDTEXTSTYLE0
 73
     1
 44
1.0
  0
MTEXT
  5
FC
330
EA
100
AcDbEntity
  8
0
  6
Continuous
 62
     7
370
    18
100
AcDbMText
 10
8.6181481782
 20
8.7593225458
 30
0.0
 40
0.375
 41
0.0
 71
     1
 72
     1
  1

  7
SLDTEXTSTYLE0
 73
     1
 44
1.0
  0
ENDBLK
  5
EC
330
EA
100
AcDbEntity
  8
0
100
AcDbBlockEnd
  0
BLOCK
  5
FF
330
FE
100
AcDbEntity
  8
0
100
AcDbBlockBegin
  2
_D_2
 70
     0
 10
0.0
 20
0.0
 30
0.0
  3
_D_2
  1

  0
SOLID
  5
101
330
FE
100
AcDbEntity
  8
0
  6
Continuous
 62
     7
370
    18
100
AcDbTrace
 10
6.3946325944
 20
22.6860746816
 30
0.0
 11
6.0046325944
 21
22.7460746816
 31
0.0
 12
6.0046325944
 22
22.6260746816
 32
0.0
 13
6.0046325944
 23
22.6260746816
 33
0.0
  0
SOLID
  5
102
330
FE
100
AcDbEntity
  8
0
  6
Continuous
 62
     7
370
    18
100
AcDbTrace
 10
9.3646325944
 20
22.6860746816
 30
0.0
 11
9.7546325944
 21
22.6260746816
 31
0.0
 12
9.7546325944
 22
22.7460746816
 32
0.0
 13
9.7546325944
 23
22.7460746816
 33
0.0
  0
LINE
  5
103
330
FE
100
AcDbEntity
  8
0
  6
Continuous
 62
     7
370
     0
100
AcDbLine
 10
7.1337992728
 20
22.6860746266
 30
0.0
 11
7.0195414615
 21
22.6860746266
 31
0.0
  0
LINE
  5
104
330
FE
100
AcDbEntity
  8
0
  6
Continuous
 62
     7
370
     0
100
AcDbLine
 10
7.0195414615
 20
22.6860746266
 30
0.0
 11
7.0195414615
 21
22.0907621087
 31
0.0
  0
LINE
  5
105
330
FE
100
AcDbEntity
  8
0
  6
Continuous
 62
     7
370
     0
100
AcDbLine
 10
7.0195414615
 20
22.0907621087
 30
0.0
 11
7.1337992728
 21
22.0907621087
 31
0.0
  0
LINE
  5
106
330
FE
100
AcDbEntity
  8
0
  6
Continuous
 62
     7
370
     0
100
AcDbLine
 10
8.625465971
 20
22.6860746266
 30
0.0
 11
8.7397237823
 21
22.6860746266
 31
0.0
  0
LINE
  5
107
330
FE
100
AcDbEntity
  8
0
  6
Continuous
 62
     7
370
     0
100
AcDbLine
 10
8.7397237823
 20
22.6860746266
 30
0.0
 11
8.7397237823
 21
22.0907621087
 31
0.0
  0
LINE
  5
108
330
FE
100
AcDbEntity
  8
0
  6
Continuous
 62
     7
370
     0
100
AcDbLine
 10
8.7397237823
 20
22.0907621087
 30
0.0
 11
8.625465971
 21
22.0907621087
 31
0.0
  0
LINE
  5
109
330
FE
100
AcDbEntity
  8
0
  6
Continuous
 62
     7
370
     0
100
AcDbLine
 10
6.3946325944
 20
17.7419723194
 30
0.0
 11
6.3946325944
 21
23.0610746816
 31
0.0
  0
LINE
  5
10A
330
FE
100
AcDbEntity
  8
0
  6
Continuous
 62
     7
370
     0
100
AcDbLine
 10
9.3646325944
 20
17.7419723194
 30
0.0
 11
9.3646325944
 21
23.0610746816
 31
0.0
  0
LINE
  5
10B
330
FE
100
AcDbEntity
  8
0
  6
Continuous
 62
     7
370
     0
100
AcDbLine
 10
6.3946325944
 20
22.6860746816
 30
0.0
 11
5.6446325944
 21
22.6860746816
 31
0.0
  0
LINE
  5
10C
330
FE
100
AcDbEntity
  8
0
  6
Continuous
 62
     7
370
     0
100
AcDbLine
 10
9.3646325944
 20
22.6860746816
 30
0.0
 11
10.1146325944
 21
22.6860746816
 31
0.0
  0
MTEXT
  5
10D
330
FE
100
AcDbEntity
  8
0
  6
Continuous
 62
     7
370
    18
100
AcDbMText
 10
7.38097376
 20
23.2456469422
 30
0.0
 40
0.375
 41
0.0
 71
     1
 72
     1
  1
%%c
  7
SLDTEXTSTYLE0
 73
     1
 44
1.0
  0
MTEXT
  5
10E
330
FE
100
AcDbEntity
  8
0
  6
Continuous
 62
     7
370
    18
100
AcDbMText
 10
7.9465206217
 20
23.2456469422
 30
0.0
 40
0.375
 41
0.0
 71
     1
 72
     1
  1
3"
  7
SLDTEXTSTYLE0
 73
     1
 44
1.0
  0
MTEXT
  5
10F
330
FE
100
AcDbEntity
  8
0
  6
Continuous
 62
     7
370
    18
100
AcDbMText
 10
7.1337992728
 20
22.5741625523
 30
0.0
 40
0.375
 41
0.0
 71
     1
 72
     1
  1
75mm
  7
SLDTEXTSTYLE0
 73
     1
 44
1.0
  0
ENDBLK
  5
100
330
FE
100
AcDbEntity
  8
0
100
AcDbBlockEnd
  0
BLOCK
  5
112
330
111
100
AcDbEntity
  8
0
100
AcDbBlockBegin
  2
_D_3
 70
     0
 10
0.0
 20
0.0
 30
0.0
  3
_D_3
  1

  0
SOLID
  5
114
330
111
100
AcDbEntity
  8
0
  6
Continuous
 62
     7
370
    18
100
AcDbTrace
 10
5.3646325944
 20
9.5814225825
 30
0.0
 11
4.9746325944
 21
9.6414225825
 31
0.0
 12
4.9746325944
 22
9.5214225825
 32
0.0
 13
4.9746325944
 23
9.5214225825
 33
0.0
  0
SOLID
  5
115
330
111
100
AcDbEntity
  8
0
  6
Continuous
 62
     7
370
    18
100
AcDbTrace
 10
5.7396325944
 20
9.5814225825
 30
0.0
 11
6.1296325944
 21
9.5214225825
 31
0.0
 12
6.1296325944
 22
9.6414225825
 32
0.0
 13
6.1296325944
 23
9.6414225825
 33
0.0
  0
LINE
  5
116
330
111
100
AcDbEntity
  8
0
  6
Continuous
 62
     7
370
     0
100
AcDbLine
 10
2.8126969381
 20
9.5785579406
 30
0.0
 11
2.6984391268
 21
9.5785579406
 31
0.0
  0
LINE
  5
117
330
111
100
AcDbEntity
  8
0
  6
Continuous
 62
     7
370
     0
100
AcDbLine
 10
2.6984391268
 20
9.5785579406
 30
0.0
 11
2.6984391268
 21
8.9832454227
 31
0.0
  0
LINE
  5
118
330
111
100
AcDbEntity
  8
0
  6
Continuous
 62
     7
370
     0
100
AcDbLine
 10
2.6984391268
 20
8.9832454227
 30
0.0
 11
2.8126969381
 21
8.9832454227
 31
0.0
  0
LINE
  5
119
330
111
100
AcDbEntity
  8
0
  6
Continuous
 62
     7
370
     0
100
AcDbLine
 10
4.3043636363
 20
9.5785579406
 30
0.0
 11
4.4186214476
 21
9.5785579406
 31
0.0
  0
LINE
  5
11A
330
111
100
AcDbEntity
  8
0
  6
Continuous
 62
     7
370
     0
100
AcDbLine
 10
4.4186214476
 20
9.5785579406
 30
0.0
 11
4.4186214476
 21
8.9832454227
 31
0.0
  0
LINE
  5
11B
330
111
100
AcDbEntity
  8
0
  6
Continuous
 62
     7
370
     0
100
AcDbLine
 10
4.4186214476
 20
8.9832454227
 30
0.0
 11
4.3043636363
 21
8.9832454227
 31
0.0
  0
LINE
  5
11C
330
111
100
AcDbEntity
  8
0
  6
Continuous
 62
     7
370
     0
100
AcDbLine
 10
5.3646325944
 20
13.8699723194
 30
0.0
 11
5.3646325944
 21
9.2064225825
 31
0.0
  0
LINE
  5
11D
330
111
100
AcDbEntity
  8
0
  6
Continuous
 62
     7
370
     0
100
AcDbLine
 10
5.7396325944
 20
13.9199723194
 30
0.0
 11
5.7396325944
 21
9.2064225825
 31
0.0
  0
LINE
  5
11E
330
111
100
AcDbEntity
  8
0
  6
Continuous
 62
     7
370
     0
100
AcDbLine
 10
5.3646325944
 20
9.5814225825
 30
0.0
 11
4.7474624482
 21
9.5814225825
 31
0.0
  0
LINE
  5
11F
330
111
100
AcDbEntity
  8
0
  6
Continuous
 62
     7
370
     0
100
AcDbLine
 10
5.7396325944
 20
9.5814225825
 30
0.0
 11
6.4896325944
 21
9.5814225825
 31
0.0
  0
MTEXT
  5
120
330
111
100
AcDbEntity
  8
0
  6
Continuous
 62
     7
370
    18
100
AcDbMText
 10
2.5862646484
 20
10.1438594231
 30
0.0
 40
0.375
 41
0.0
 71
     1
 72
     1
  1

  7
SLDTEXTSTYLE0
 73
     1
 44
1.0
  0
MTEXT
  5
121
330
111
100
AcDbEntity
  8
0
  6
Continuous
 62
     7
370
    18
100
AcDbMText
 10
3.0947281526
 20
10.1381302287
 30
0.0
 40
0.375
 41
0.0
 71
     1
 72
     1
  1
3/8"
  7
SLDTEXTSTYLE0
 73
     1
 44
1.0
  0
MTEXT
  5
122
330
111
100
AcDbEntity
  8
0
  6
Continuous
 62
     7
370
    18
100
AcDbMText
 10
2.8126969381
 20
9.4666458663
 30
0.0
 40
0.375
 41
0.0
 71
     1
 72
     1
  1
10mm
  7
SLDTEXTSTYLE0
 73
     1
 44
1.0
  0
MTEXT
  5
123
330
111
100
AcDbEntity
  8
0
  6
Continuous
 62
     7
370
    18
100
AcDbMText
 10
4.6735041764
 20
10.1438594231
 30
0.0
 40
0.375
 41
0.0
 71
     1
 72
     1
  1

  7
SLDTEXTSTYLE0
 73
     1
 44
1.0
  0
ENDBLK
  5
113
330
111
100
AcDbEntity
  8
0
100
AcDbBlockEnd
  0
BLOCK
  5
127
330
126
100
AcDbEntity
  8
0
100
AcDbBlockBegin
  2
_D_4
 70
     0
 10
0.0
 20
0.0
 30
0.0
  3
_D_4
  1

  0
SOLID
  5
129
330
126
100
AcDbEntity
  8
0
  6
Continuous
 62
     7
370
    18
100
AcDbTrace
 10
11.093681504
 20
21.5049723194
 30
0.0
 11
11.033681504
 21
21.1149723194
 31
0.0
 12
11.153681504
 22
21.1149723194
 32
0.0
 13
11.153681504
 23
21.1149723194
 33
0.0
  0
SOLID
  5
12A
330
126
100
AcDbEntity
  8
0
  6
Continuous
 62
     7
370
    18
100
AcDbTrace
 10
11.093681504
 20
11.5039723194
 30
0.0
 11
11.153681504
 21
11.8939723194
 31
0.0
 12
11.033681504
 22
11.8939723194
 32
0.0
 13
11.033681504
 23
11.8939723194
 33
0.0
  0
LINE
  5
12B
330
126
100
AcDbEntity
  8
0
  6
Continuous
 62
     7
370
     0
100
AcDbLine
 10
10.2093065704
 20
16.5016076775
 30
0.0
 11
10.0950487591
 21
16.5016076775
 31
0.0
  0
LINE
  5
12C
330
126
100
AcDbEntity
  8
0
  6
Continuous
 62
     7
370
     0
100
AcDbLine
 10
10.0950487591
 20
16.5016076775
 30
0.0
 11
10.0950487591
 21
15.9062951596
 31
0.0
  0
LINE
  5
12D
330
126
100
AcDbEntity
  8
0
  6
Continuous
 62
     7
370
     0
100
AcDbLine
 10
10.0950487591
 20
15.9062951596
 30
0.0
 11
10.2093065704
 21
15.9062951596
 31
0.0
  0
LINE
  5
12E
330
126
100
AcDbEntity
  8
0
  6
Continuous
 62
     7
370
     0
100
AcDbLine
 10
11.9780565476
 20
16.5016076775
 30
0.0
 11
12.092314359
 21
16.5016076775
 31
0.0
  0
LINE
  5
12F
330
126
100
AcDbEntity
  8
0
  6
Continuous
 62
     7
370
     0
100
AcDbLine
 10
12.092314359
 20
16.5016076775
 30
0.0
 11
12.092314359
 21
15.9062951596
 31
0.0
  0
LINE
  5
130
330
126
100
AcDbEntity
  8
0
  6
Continuous
 62
     7
370
     0
100
AcDbLine
 10
12.092314359
 20
15.9062951596
 30
0.0
 11
11.9780565476
 21
15.9062951596
 31
0.0
  0
LINE
  5
131
330
126
100
AcDbEntity
  8
0
  6
Continuous
 62
     7
370
     0
100
AcDbLine
 10
9.4846325944
 20
21.5049723194
 30
0.0
 11
11.468681504
 21
21.5049723194
 31
0.0
  0
LINE
  5
132
330
126
100
AcDbEntity
  8
0
  6
Continuous
 62
     7
370
     0
100
AcDbLine
 10
9.4846325944
 20
11.5039723194
 30
0.0
 11
11.468681504
 21
11.5039723194
 31
0.0
  0
LINE
  5
133
330
126
100
AcDbEntity
  8
0
  6
Continuous
 62
     7
370
     0
100
AcDbLine
 10
11.093681504
 20
21.5049723194
 30
0.0
 11
11.093681504
 21
17.1788212342
 31
0.0
  0
LINE
  5
134
330
126
100
AcDbEntity
  8
0
  6
Continuous
 62
     7
370
     0
100
AcDbLine
 10
11.093681504
 20
11.5039723194
 30
0.0
 11
11.093681504
 21
15.8301234045
 31
0.0
  0
MTEXT
  5
135
330
126
100
AcDbEntity
  8
0
  6
Continuous
 62
     7
370
    18
100
AcDbMText
 10
9.9828742807
 20
17.06690916
 30
0.0
 40
0.375
 41
0.0
 71
     1
 72
     1
  1

  7
SLDTEXTSTYLE0
 73
     1
 44
1.0
  0
MTEXT
  5
136
330
126
100
AcDbEntity
  8
0
  6
Continuous
 62
     7
370
    18
100
AcDbMText
 10
10.7392544609
 20
17.0611799656
 30
0.0
 40
0.375
 41
0.0
 71
     1
 72
     1
  1
10"
  7
SLDTEXTSTYLE0
 73
     1
 44
1.0
  0
MTEXT
  5
137
330
126
100
AcDbEntity
  8
0
  6
Continuous
 62
     7
370
    18
100
AcDbMText
 10
10.2093065704
 20
16.3896956032
 30
0.0
 40
0.375
 41
0.0
 71
     1
 72
     1
  1
254mm
  7
SLDTEXTSTYLE0
 73
     1
 44
1.0
  0
MTEXT
  5
138
330
126
100
AcDbEntity
  8
0
  6
Continuous
 62
     7
370
    18
100
AcDbMText
 10
12.3471970878
 20
17.06690916
 30
0.0
 40
0.375
 41
0.0
 71
     1
 72
     1
  1

  7
SLDTEXTSTYLE0
 73
     1
 44
1.0
  0
ENDBLK
  5
128
330
126
100
AcDbEntity
  8
0
100
AcDbBlockEnd
  0
BLOCK
  5
197
330
196
100
AcDbEntity
  8
0
100
AcDbBlockBegin
  2
_D_5
 70
     0
 10
0.0
 20
0.0
 30
0.0
  3
_D_5
  1

  0
SOLID
  5
199
330
196
100
AcDbEntity
  8
0
  6
Continuous
 62
     7
370
    18
100
AcDbTrace
 10
20.9078931332
 20
18.3878930234
 30
0.0
 11
20.8478931332
 21
17.9978930234
 31
0.0
 12
20.9678931332
 22
17.9978930234
 32
0.0
 13
20.9678931332
 23
17.9978930234
 33
0.0
  0
SOLID
  5
19A
330
196
100
AcDbEntity
  8
0
  6
Continuous
 62
     7
370
    18
100
AcDbTrace
 10
20.9078931332
 20
13.4178930234
 30
0.0
 11
20.9678931332
 21
13.8078930234
 31
0.0
 12
20.8478931332
 22
13.8078930234
 32
0.0
 13
20.8478931332
 23
13.8078930234
 33
0.0
  0
LINE
  5
19B
330
196
100
AcDbEntity
  8
0
  6
Continuous
 62
     7
370
     0
100
AcDbLine
 10
20.0235181721
 20
15.9028929684
 30
0.0
 11
19.9092603607
 21
15.9028929684
 31
0.0
  0
LINE
  5
19C
330
196
100
AcDbEntity
  8
0
  6
Continuous
 62
     7
370
     0
100
AcDbLine
 10
19.9092603607
 20
15.9028929684
 30
0.0
 11
19.9092603607
 21
15.3075804505
 31
0.0
  0
LINE
  5
19D
330
196
100
AcDbEntity
  8
0
  6
Continuous
 62
     7
370
     0
100
AcDbLine
 10
19.9092603607
 20
15.3075804505
 30
0.0
 11
20.0235181721
 21
15.3075804505
 31
0.0
  0
LINE
  5
19E
330
196
100
AcDbEntity
  8
0
  6
Continuous
 62
     7
370
     0
100
AcDbLine
 10
21.7922681493
 20
15.9028929684
 30
0.0
 11
21.9065259606
 21
15.9028929684
 31
0.0
  0
LINE
  5
19F
330
196
100
AcDbEntity
  8
0
  6
Continuous
 62
     7
370
     0
100
AcDbLine
 10
21.9065259606
 20
15.9028929684
 30
0.0
 11
21.9065259606
 21
15.3075804505
 31
0.0
  0
LINE
  5
1A0
330
196
100
AcDbEntity
  8
0
  6
Continuous
 62
     7
370
     0
100
AcDbLine
 10
21.9065259606
 20
15.3075804505
 30
0.0
 11
21.7922681493
 21
15.3075804505
 31
0.0
  0
LINE
  5
1A1
330
196
100
AcDbEntity
  8
0
  6
Continuous
 62
     7
370
     0
100
AcDbLine
 10
16.3882455863
 20
18.3878930234
 30
0.0
 11
21.2828931332
 21
18.3878930234
 31
0.0
  0
LINE
  5
1A2
330
196
100
AcDbEntity
  8
0
  6
Continuous
 62
     7
370
     0
100
AcDbLine
 10
16.3882455863
 20
13.4178930234
 30
0.0
 11
21.2828931332
 21
13.4178930234
 31
0.0
  0
LINE
  5
1A3
330
196
100
AcDbEntity
  8
0
  6
Continuous
 62
     7
370
     0
100
AcDbLine
 10
20.9078931332
 20
18.3878930234
 30
0.0
 11
20.9078931332
 21
16.5743774063
 31
0.0
  0
LINE
  5
1A4
330
196
100
AcDbEntity
  8
0
  6
Continuous
 62
     7
370
     0
100
AcDbLine
 10
20.9078931332
 20
13.4178930234
 30
0.0
 11
20.9078931332
 21
15.2314086404
 31
0.0
  0
MTEXT
  5
1A5
330
196
100
AcDbEntity
  8
0
  6
Continuous
 62
     7
370
    18
100
AcDbMText
 10
20.4092342987
 20
16.462465284
 30
0.0
 40
0.375
 41
0.0
 71
     1
 72
     1
  1
%%c
  7
SLDTEXTSTYLE0
 73
     1
 44
1.0
  0
MTEXT
  5
1A6
330
196
100
AcDbEntity
  8
0
  6
Continuous
 62
     7
370
    18
100
AcDbMText
 10
20.9747811605
 20
16.462465284
 30
0.0
 40
0.375
 41
0.0
 71
     1
 72
     1
  1
5"
  7
SLDTEXTSTYLE0
 73
     1
 44
1.0
  0
MTEXT
  5
1A7
330
196
100
AcDbEntity
  8
0
  6
Continuous
 62
     7
370
    18
100
AcDbMText
 10
20.0235181721
 20
15.7909808941
 30
0.0
 40
0.375
 41
0.0
 71
     1
 72
     1
  1
126mm
  7
SLDTEXTSTYLE0
 73
     1
 44
1.0
  0
ENDBLK
  5
198
330
196
100
AcDbEntity
  8
0
100
AcDbBlockEnd
  0
BLOCK
  5
1AA
330
1A9
100
AcDbEntity
  8
0
100
AcDbBlockBegin
  2
_D_6
 70
     0
 10
0.0
 20
0.0
 30
0.0
  3
_D_6
  1

  0
SOLID
  5
1AC
330
1A9
100
AcDbEntity
  8
0
  6
Continuous
 62
     7
370
    18
100
AcDbTrace
 10
17.9882455863
 20
19.7580265179
 30
0.0
 11
18.3782455863
 21
19.6980265179
 31
0.0
 12
18.3782455863
 22
19.8180265179
 32
0.0
 13
18.3782455863
 23
19.8180265179
 33
0.0
  0
SOLID
  5
1AD
330
1A9
100
AcDbEntity
  8
0
  6
Continuous
 62
     7
370
    18
100
AcDbTrace
 10
14.4882455863
 20
19.7580265179
 30
0.0
 11
14.0982455863
 21
19.8180265179
 31
0.0
 12
14.0982455863
 22
19.6980265179
 32
0.0
 13
14.0982455863
 23
19.6980265179
 33
0.0
  0
LINE
  5
1AE
330
1A9
100
AcDbEntity
  8
0
  6
Continuous
 62
     7
370
     0
100
AcDbLine
 10
14.9335581107
 20
19.755161876
 30
0.0
 11
14.8193002993
 21
19.755161876
 31
0.0
  0
LINE
  5
1AF
330
1A9
100
AcDbEntity
  8
0
  6
Continuous
 62
     7
370
     0
100
AcDbLine
 10
14.8193002993
 20
19.755161876
 30
0.0
 11
14.8193002993
 21
19.1598493581
 31
0.0
  0
LINE
  5
1B0
330
1A9
100
AcDbEntity
  8
0
  6
Continuous
 62
     7
370
     0
100
AcDbLine
 10
14.8193002993
 20
19.1598493581
 30
0.0
 11
14.9335581107
 21
19.1598493581
 31
0.0
  0
LINE
  5
1B1
330
1A9
100
AcDbEntity
  8
0
  6
Continuous
 62
     7
370
     0
100
AcDbLine
 10
16.4252248088
 20
19.755161876
 30
0.0
 11
16.5394826202
 21
19.755161876
 31
0.0
  0
LINE
  5
1B2
330
1A9
100
AcDbEntity
  8
0
  6
Continuous
 62
     7
370
     0
100
AcDbLine
 10
16.5394826202
 20
19.755161876
 30
0.0
 11
16.5394826202
 21
19.1598493581
 31
0.0
  0
LINE
  5
1B3
330
1A9
100
AcDbEntity
  8
0
  6
Continuous
 62
     7
370
     0
100
AcDbLine
 10
16.5394826202
 20
19.1598493581
 30
0.0
 11
16.4252248088
 21
19.1598493581
 31
0.0
  0
LINE
  5
1B4
330
1A9
100
AcDbEntity
  8
0
  6
Continuous
 62
     7
370
     0
100
AcDbLine
 10
17.9882455863
 20
16.0528930234
 30
0.0
 11
17.9882455863
 21
20.1330265179
 31
0.0
  0
LINE
  5
1B5
330
1A9
100
AcDbEntity
  8
0
  6
Continuous
 62
     7
370
     0
100
AcDbLine
 10
14.4882455863
 20
16.0528930234
 30
0.0
 11
14.4882455863
 21
20.1330265179
 31
0.0
  0
LINE
  5
1B6
330
1A9
100
AcDbEntity
  8
0
  6
Continuous
 62
     7
370
     0
100
AcDbLine
 10
17.9882455863
 20
19.7580265179
 30
0.0
 11
18.7382455863
 21
19.7580265179
 31
0.0
  0
LINE
  5
1B7
330
1A9
100
AcDbEntity
  8
0
  6
Continuous
 62
     7
370
     0
100
AcDbLine
 10
14.4882455863
 20
19.7580265179
 30
0.0
 11
13.7382455863
 21
19.7580265179
 31
0.0
  0
MTEXT
  5
1B8
330
1A9
100
AcDbEntity
  8
0
  6
Continuous
 62
     7
370
    18
100
AcDbMText
 10
15.0077768658
 20
20.3147341641
 30
0.0
 40
0.375
 41
0.0
 71
     1
 72
     1
  1
3 1/2"
  7
SLDTEXTSTYLE0
 73
     1
 44
1.0
  0
MTEXT
  5
1B9
330
1A9
100
AcDbEntity
  8
0
  6
Continuous
 62
     7
370
    18
100
AcDbMText
 10
14.9335581107
 20
19.6432498018
 30
0.0
 40
0.375
 41
0.0
 71
     1
 72
     1
  1
89mm
  7
SLDTEXTSTYLE0
 73
     1
 44
1.0
  0
MTEXT
  5
1BA
330
1A9
100
AcDbEntity
  8
0
  6
Continuous
 62
     7
370
    18
100
AcDbMText
 10
16.6537403765
 20
20.3204633585
 30
0.0
 40
0.375
 41
0.0
 71
     1
 72
     1
  1
O.C.
  7
SLDTEXTSTYLE0
 73
     1
 44
1.0
  0
ENDBLK
  5
1AB
330
1A9
100
AcDbEntity
  8
0
100
AcDbBlockEnd
  0
ENDSEC
  0
SECTION
  2
ENTITIES
  0
ARC
  5
6D
330
1F
100
AcDbEntity
  8
0
  6
Continuous
 62
     7
370
    25
100
AcDbCircle
 10
9.3346325944
 20
11.5339723194
 30
0.0
 40
0.0299999999999994
100
AcDbArc
 50
270.0
 51
0.0
  0
ARC
  5
6E
330
1F
100
AcDbEntity
  8
0
  6
Continuous
 62
     7
370
    25
100
AcDbCircle
 10
6.4246325944
 20
11.5339723194
 30
0.0
 40
0.0299999999999994
100
AcDbArc
 50
180.0
 51
270.0
  0
LINE
  5
6F
330
1F
100
AcDbEntity
  8
0
  6
Continuous
 62
     7
370
    25
100
AcDbLine
 10
6.3946325944
 20
15.1002535279
 30
0.0
 11
6.3946325944
 21
11.5339723194
 31
0.0
  0
LINE
  5
70
330
1F
100
AcDbEntity
  8
0
  6
Continuous
 62
     7
370
    25
100
AcDbLine
 10
6.3946325944
 20
15.4169723194
 30
0.0
 11
6.3946325944
 21
15.2338376674
 31
0.0
  0
LINE
  5
71
330
1F
100
AcDbEntity
  8
0
  6
Continuous
 62
     7
370
    25
100
AcDbLine
 10
9.3646325944
 20
11.5339723194
 30
0.0
 11
9.3646325944
 21
15.4169723194
 31
0.0
  0
LINE
  5
72
330
1F
100
AcDbEntity
  8
0
  6
Continuous
 62
     7
370
    25
100
AcDbLine
 10
9.3646325944
 20
17.5919723194
 30
0.0
 11
9.3646325944
 21
21.4749723194
 31
0.0
  0
LINE
  5
73
330
1F
100
AcDbEntity
  8
0
  6
Continuous
 62
     7
370
    25
100
AcDbLine
 10
6.3946325944
 20
17.7763709586
 30
0.0
 11
6.3946325944
 21
17.5919723194
 31
0.0
  0
LINE
  5
74
330
1F
100
AcDbEntity
  8
0
  6
Continuous
 62
     7
370
    25
100
AcDbLine
 10
6.3946325944
 20
21.4749723194
 30
0.0
 11
6.3946325944
 21
17.9076759826
 31
0.0
  0
ARC
  5
75
330
1F
100
AcDbEntity
  8
0
  6
Continuous
 62
     7
370
    25
100
AcDbCircle
 10
6.4246325944
 20
21.4749723194
 30
0.0
 40
0.0300000000000011
100
AcDbArc
 50
90.0
 51
180.0
  0
ARC
  5
76
330
1F
100
AcDbEntity
  8
0
  6
Continuous
 62
     7
370
    25
100
AcDbCircle
 10
9.3346325944
 20
21.4749723194
 30
0.0
 40
0.0300000000000011
100
AcDbArc
 50
0.0
 51
90.0
  0
LINE
  5
77
330
1F
100
AcDbEntity
  8
0
  6
Continuous
 62
     7
370
    25
100
AcDbLine
 10
5.7496325944
 20
16.0099723194
 30
0.0
 11
6.3954673138
 21
16.0099723194
 31
0.0
  0
LINE
  5
78
330
1F
100
AcDbEntity
  8
0
  6
Continuous
 62
     7
370
    25
100
AcDbLine
 10
6.3954674204
 20
16.9999723194
 30
0.0
 11
5.7496325944
 21
16.9999723194
 31
0.0
  0
ARC
  5
79
330
1F
100
AcDbEntity
  8
0
  6
Continuous
 62
     7
370
    25
100
AcDbCircle
 10
5.7496325944
 20
16.9899723194
 30
0.0
 40
0.0099999999999989
100
AcDbArc
 50
90.0
 51
180.0
  0
ARC
  5
7A
330
1F
100
AcDbEntity
  8
0
  6
Continuous
 62
     7
370
    25
100
AcDbCircle
 10
5.7496325944
 20
16.0199723194
 30
0.0
 40
0.0100000000000016
100
AcDbArc
 50
180.0
 51
270.0
  0
LINE
  5
7B
330
1F
100
AcDbEntity
  8
0
  6
Continuous
 62
     7
370
    25
100
AcDbLine
 10
9.3646325944
 20
15.4169723194
 30
0.0
 11
9.3646325944
 21
17.5919723194
 31
0.0
  0
LINE
  5
7C
330
1F
100
AcDbEntity
  8
0
  6
Continuous
 62
     7
370
    25
100
AcDbLine
 10
6.3946325944
 20
16.0075702011
 30
0.0
 11
6.3946325944
 21
15.4169723194
 31
0.0
  0
LINE
  5
7D
330
1F
100
AcDbEntity
  8
0
  6
Continuous
 62
     7
370
    25
100
AcDbLine
 10
6.3946325944
 20
17.5919723194
 30
0.0
 11
6.3946325944
 21
17.0023863919
 31
0.0
  0
LINE
  5
7E
330
1F
100
AcDbEntity
  8
0
  6
Continuous
 62
     7
370
    25
100
AcDbLine
 10
5.3496325944
 20
14.5049723194
 30
0.0
 11
5.3646325944
 21
14.5049723194
 31
0.0
  0
LINE
  5
7F
330
1F
100
AcDbEntity
  8
0
  6
Continuous
 62
     7
370
    25
100
AcDbLine
 10
5.3646325944
 20
18.5049723194
 30
0.0
 11
5.3496325944
 21
18.5049723194
 31
0.0
  0
ARC
  5
80
330
1F
100
AcDbEntity
  8
0
  6
Continuous
 62
     7
370
    25
100
AcDbCircle
 10
5.3446325944
 20
17.6255302519
 30
0.0
 40
0.0049999999999999
100
AcDbArc
 50
311.8103148958
 51
0.0
  0
ARC
  5
81
330
1F
100
AcDbEntity
  8
0
  6
Continuous
 62
     7
370
    25
100
AcDbCircle
 10
5.3446325944
 20
17.4913661733
 30
0.0
 40
0.0049999999999999
100
AcDbArc
 50
360.0
 51
48.1896851042
  0
ARC
  5
82
330
1F
100
AcDbEntity
  8
0
  6
Continuous
 62
     7
370
    25
100
AcDbCircle
 10
5.4046325944
 20
17.5584482126
 30
0.0
 40
0.0850000000000017
100
AcDbArc
 50
131.8103148958
 51
228.1896851042
  0
ARC
  5
83
330
1F
100
AcDbEntity
  8
0
  6
Continuous
 62
     7
370
    25
100
AcDbCircle
 10
5.3446325944
 20
17.4383076455
 30
0.0
 40
0.0049999999999999
100
AcDbArc
 50
311.8103148958
 51
0.0
  0
ARC
  5
84
330
1F
100
AcDbEntity
  8
0
  6
Continuous
 62
     7
370
    25
100
AcDbCircle
 10
5.3446325944
 20
17.3041435669
 30
0.0
 40
0.0050000000000013
100
AcDbArc
 50
360.0
 51
48.1896851042
  0
ARC
  5
85
330
1F
100
AcDbEntity
  8
0
  6
Continuous
 62
     7
370
    25
100
AcDbCircle
 10
5.4046325944
 20
17.3712256062
 30
0.0
 40
0.0850000000000011
100
AcDbArc
 50
131.8103148958
 51
228.1896851042
  0
LINE
  5
86
330
1F
100
AcDbEntity
  8
0
  6
Continuous
 62
     7
370
    25
100
AcDbLine
 10
5.3646325944
 20
14.0199723194
 30
0.0
 11
5.6896325944
 21
14.0199723194
 31
0.0
  0
LINE
  5
87
330
1F
100
AcDbEntity
  8
0
  6
Continuous
 62
     7
370
    25
100
AcDbLine
 10
5.6896325944
 20
18.9899723194
 30
0.0
 11
5.3646325944
 21
18.9899723194
 31
0.0
  0
LINE
  5
88
330
1F
100
AcDbEntity
  8
0
  6
Continuous
 62
     7
370
    25
100
AcDbLine
 10
5.6896325944
 20
14.0199723194
 30
0.0
 11
5.7396325944
 21
14.0699723194
 31
0.0
  0
LINE
  5
89
330
1F
100
AcDbEntity
  8
0
  6
Continuous
 62
     7
370
    25
100
AcDbLine
 10
5.7396325944
 20
18.9399723194
 30
0.0
 11
5.6896325944
 21
18.9899723194
 31
0.0
  0
LINE
  5
8A
330
1F
100
AcDbEntity
  8
0
  6
Continuous
 62
     7
370
    25
100
AcDbLine
 10
9.1336777838
 20
11.5039723194
 30
0.0
 11
6.4246325944
 21
11.5039723194
 31
0.0
  0
LINE
  5
8B
330
1F
100
AcDbEntity
  8
0
  6
Continuous
 62
     7
370
    25
100
AcDbLine
 10
9.3346325944
 20
11.5039723194
 30
0.0
 11
9.1336777838
 21
11.5039723194
 31
0.0
  0
SPLINE
  5
8C
330
1F
100
AcDbEntity
  8
0
  6
Continuous
 62
     7
370
    25
100
AcDbSpline
210
0.0
220
0.0
230
1.0
 70
    11
 71
     3
 72
    44
 73
    40
 74
     0
 42
0.00000001
 43
0.00000001
 40
0.0
 40
0.0
 40
0.0
 40
0.0
 40
0.026828384317104
 40
0.0536568489742682
 40
0.080484360201914
 40
0.1073119868157085
 40
0.1341573061540505
 40
0.1610025960821484
 40
0.1878597184739341
 40
0.2147167121645624
 40
0.241554579158424
 40
0.268392419085124
 40
0.2952100576824627
 40
0.3220278123640573
 40
0.3488557554504155
 40
0.3756837768927038
 40
0.4025365051125281
 40
0.4293891513265173
 40
0.4562425066235437
 40
0.4830957469051963
 40
0.5099245215280209
 40
0.5367533278964673
 40
0.5635707021997263
 40
0.5903882046885668
 40
0.6172251299283779
 40
0.6440620800005923
 40
0.6709190048091717
 40
0.6977758119438912
 40
0.7246219843421821
 40
0.7514680801574009
 40
0.7782895607010056
 40
0.8051111247872252
 40
0.8319324759059593
 40
0.8587539401325738
 40
0.8855999010418365
 40
0.912445828307871
 40
0.9393028102145765
 40
0.9661596632562668
 40
1.0
 40
1.0
 40
1.0
 40
1.0
 10
8.669937115293505
 20
15.16697231936785
 30
0.0
 10
8.669775956660352
 20
15.16315180957445
 30
0.0
 10
8.669453638911436
 20
15.1555107785468
 30
0.0
 10
8.666934458332097
 20
15.14436827508933
 30
0.0
 10
8.662948348224846
 20
15.13388084536152
 30
0.0
 10
8.657508368532667
 20
15.12431082690589
 30
0.0
 10
8.65074194740562
 20
15.11597369813073
 30
0.0
 10
8.642866590359425
 20
15.10905088448826
 30
0.0
 10
8.63405605545168
 20
15.10380491109918
 30
0.0
 10
8.624585892413574
 20
15.10031601793065
 30
0.0
 10
8.614697131105158
 20
15.09875911788071
 30
0.0
 10
8.604683236682549
 20
15.09909803576709
 30
0.0
 10
8.594826123368877
 20
15.10140064399759
 30
0.0
 10
8.585397555633815
 20
15.10552214370569
 30
0.0
 10
8.576692135400974
 20
15.11142071050993
 30
0.0
 10
8.568930075068165
 20
15.11886388683472
 30
0.0
 10
8.562388224464256
 20
15.12770223804601
 30
0.0
 10
8.557210723677214
 20
15.13763593562286
 30
0.0
 10
8.553617905681634
 20
15.14842089556175
 30
0.0
 10
8.551652796319761
 20
15.15971945736347
 30
0.0
 10
8.551445202813778
 20
15.17122494952205
 30
0.0
 10
8.552926829654202
 20
15.1826069865054
 30
0.0
 10
8.556122902258712
 20
15.19353433126662
 30
0.0
 10
8.560867839357472
 20
15.20372478324378
 30
0.0
 10
8.567082559561603
 20
15.21285404967448
 30
0.0
 10
8.574527604239462
 20
15.22071298353567
 30
0.0
 10
8.583027627733232
 20
15.22701760993637
 30
0.0
 10
8.592294487467196
 20
15.23165326527577
 30
0.0
 10
8.602080212185813
 20
15.23441409544429
 30
0.0
 10
8.612084490098493
 20
15.23529921568263
 30
0.0
 10
8.622024225301343
 20
15.23420620710289
 30
0.0
 10
8.6316291784508
 20
15.23124766434693
 30
0.0
 10
8.640614555906124
 20
15.22643086505542
 30
0.0
 10
8.64876870922465
 20
15.21996285381901
 30
0.0
 10
8.655827278768797
 20
15.21195962046056
 30
0.0
 10
8.661660492619905
 20
15.2027023381222
 30
0.0
 10
8.66601345378873
 20
15.19240701683263
 30
0.0
 10
8.669247001842391
 20
15.18045040468597
 30
0.0
 10
8.669690084591156
 20
15.17179688970062
 30
0.0
 10
8.669937115293505
 20
15.16697231936785
 30
0.0
  0
SPLINE
  5
8D
330
1F
100
AcDbEntity
  8
0
  6
Continuous
 62
     7
370
    25
100
AcDbSpline
210
0.0
220
0.0
230
1.0
 70
     8
 71
     3
 72
    16
 73
    12
 74
     0
 42
0.00000001
 43
0.00000001
 40
0.0
 40
0.0
 40
0.0
 40
0.0
 40
0.1195382941173088
 40
0.2425454275289395
 40
0.3620830861573273
 40
0.4850830275322067
 40
0.604699149328697
 40
0.7277809553084428
 40
0.8474456201401178
 40
0.9705852330863715
 40
1.0
 40
1.0
 40
1.0
 40
1.0
 10
6.395681535649167
 20
15.16697231936785
 30
0.0
 10
6.395674655078879
 20
15.16320591801548
 30
0.0
 10
6.395660694273478
 20
15.15556381944781
 30
0.0
 10
6.39555198121354
 20
15.14447307672321
 30
0.0
 10
6.395392539750738
 20
15.13392381483993
 30
0.0
 10
6.395199390896535
 20
15.12439814191433
 30
0.0
 10
6.394997998266935
 20
15.11600767672098
 30
0.0
 10
6.394816884529023
 20
15.10908877521114
 30
0.0
 10
6.394688763980735
 20
15.10390760171351
 30
0.0
 10
6.394625923484711
 20
15.10096415425516
 30
0.0
 10
6.394638062471738
 20
15.1003683984912
 30
0.0
 10
6.394640403050058
 20
15.10025352786638
 30
0.0
  0
SPLINE
  5
8E
330
1F
100
AcDbEntity
  8
0
  6
Continuous
 62
     7
370
    25
100
AcDbSpline
210
0.0
220
0.0
230
1.0
 70
     8
 71
     3
 72
    15
 73
    11
 74
     0
 42
0.00000001
 43
0.00000001
 40
0.0
 40
0.0
 40
0.0
 40
0.0
 40
0.1191364877830964
 40
0.2386358791368401
 40
0.3615946459881196
 40
0.4812018181044352
 40
0.6042746075781836
 40
0.723926863605089
 40
0.8470538583921555
 40
1.0
 40
1.0
 40
1.0
 40
1.0
 10
6.394633871918638
 20
15.23383766743352
 30
0.0
 10
6.394641378471411
 20
15.23299864004287
 30
0.0
 10
6.394656414442789
 20
15.23131802948674
 30
0.0
 10
6.394776366147344
 20
15.22644520719586
 30
0.0
 10
6.394943837416394
 20
15.22003282566981
 30
0.0
 10
6.395143007465295
 20
15.21200896352149
 30
0.0
 10
6.395340936744609
 20
15.20279220384474
 30
0.0
 10
6.395512250138339
 20
15.19246403767769
 30
0.0
 10
6.395650144854179
 20
15.18050378186059
 30
0.0
 10
6.395670344774487
 20
15.17179631000112
 30
0.0
 10
6.395681535649167
 20
15.16697231936785
 30
0.0
  0
LINE
  5
8F
330
1F
100
AcDbEntity
  8
0
  6
Continuous
 62
     7
370
    25
100
AcDbLine
 10
9.1595343856
 20
15.4169723194
 30
0.0
 11
6.3946325944
 21
15.4169723194
 31
0.0
  0
LINE
  5
90
330
1F
100
AcDbEntity
  8
0
  6
Continuous
 62
     7
370
    25
100
AcDbLine
 10
9.3646325944
 20
15.4169723194
 30
0.0
 11
9.1595343856
 21
15.4169723194
 31
0.0
  0
SPLINE
  5
91
330
1F
100
AcDbEntity
  8
0
  6
Continuous
 62
     7
370
    25
100
AcDbSpline
210
0.0
220
0.0
230
1.0
 70
    11
 71
     3
 72
    44
 73
    40
 74
     0
 42
0.00000001
 43
0.00000001
 40
0.0
 40
0.0
 40
0.0
 40
0.0
 40
0.0268283843171039
 40
0.053656848974268
 40
0.0804843602019133
 40
0.1073119868157075
 40
0.1341573061540498
 40
0.1610025960821478
 40
0.1878597184739338
 40
0.2147167121645614
 40
0.2415545791584241
 40
0.2683924190851237
 40
0.2952100576824612
 40
0.3220278123640558
 40
0.3488557554504136
 40
0.3756837768927033
 40
0.4025365051125279
 40
0.4293891513265172
 40
0.456242506623544
 40
0.4830957469051972
 40
0.509924521528021
 40
0.5367533278964668
 40
0.563570702199726
 40
0.5903882046885667
 40
0.6172251299283776
 40
0.6440620800005926
 40
0.6709190048091722
 40
0.6977758119438906
 40
0.7246219843421831
 40
0.7514680801574024
 40
0.7782895607010064
 40
0.8051111247872248
 40
0.8319324759059596
 40
0.8587539401325757
 40
0.8855999010418384
 40
0.9124458283078736
 40
0.9393028102145776
 40
0.9661596632562668
 40
1.0
 40
1.0
 40
1.0
 40
1.0
 10
8.547325546594829
 20
17.84197231936785
 30
0.0
 10
8.54749578808757
 20
17.84579282916124
 30
0.0
 10
8.54783627158286
 20
17.8534338601889
 30
0.0
 10
8.550490675866127
 20
17.86457636364636
 30
0.0
 10
8.554679406858751
 20
17.87506379337418
 30
0.0
 10
8.560371264426829
 20
17.88463381182981
 30
0.0
 10
8.567411632028938
 20
17.89297094060498
 30
0.0
 10
8.575553433610143
 20
17.89989375424743
 30
0.0
 10
8.584592156142678
 20
17.90513972763652
 30
0.0
 10
8.59423158687269
 20
17.90862862080505
 30
0.0
 10
8.604207823189306
 20
17.91018552085499
 30
0.0
 10
8.614225344057406
 20
17.9098466029686
 30
0.0
 10
8.623997007149864
 20
17.9075439947381
 30
0.0
 10
8.633268194278648
 20
17.90342249503001
 30
0.0
 10
8.641758565190424
 20
17.89752392822576
 30
0.0
 10
8.649276461461968
 20
17.89008075190097
 30
0.0
 10
8.65557256921406
 20
17.88124240068968
 30
0.0
 10
8.660530406331567
 20
17.87130870311284
 30
0.0
 10
8.663958362188138
 20
17.86052374317395
 30
0.0
 10
8.665827859744223
 20
17.84922518137223
 30
0.0
 10
8.666026016337783
 20
17.83771968921365
 30
0.0
 10
8.664615778973596
 20
17.8263376522303
 30
0.0
 10
8.661569659532665
 20
17.81541030746908
 30
0.0
 10
8.657030766999096
 20
17.80521985549191
 30
0.0
 10
8.651057866989898
 20
17.79609058906122
 30
0.0
 10
8.643860739927858
 20
17.78823165520003
 30
0.0
 10
8.635585080058668
 20
17.78192702879933
 30
0.0
 10
8.626495045150062
 20
17.77729137345993
 30
0.0
 10
8.616812784570508
 20
17.77453054329141
 30
0.0
 10
8.606831224594343
 20
17.77364542305307
 30
0.0
 10
8.596823067476329
 20
17.77473843163281
 30
0.0
 10
8.587071153111072
 20
17.77769697438876
 30
0.0
 10
8.577869768980024
 20
17.78251377368028
 30
0.0
 10
8.56945749393334
 20
17.78898178491669
 30
0.0
 10
8.562124290784014
 20
17.79698501827514
 30
0.0
 10
8.556029255514959
 20
17.8062423006135
 30
0.0
 10
8.551460267368089
 20
17.81653762190307
 30
0.0
 10
8.548054017582512
 20
17.82849423404972
 30
0.0
 10
8.547586307632654
 20
17.83714774903508
 30
0.0
 10
8.547325546594829
 20
17.84197231936785
 30
0.0
  0
SPLINE
  5
92
330
1F
100
AcDbEntity
  8
0
  6
Continuous
 62
     7
370
    25
100
AcDbSpline
210
0.0
220
0.0
230
1.0
 70
     8
 71
     3
 72
    24
 73
    20
 74
     0
 42
0.00000001
 43
0.00000001
 40
0.0
 40
0.0
 40
0.0
 40
0.0
 40
0.0108405306424109
 40
0.0756978469939718
 40
0.1387536849085545
 40
0.2036348409604612
 40
0.2667472334128675
 40
0.3316896686624528
 40
0.394801823743525
 40
0.4597474570944196
 40
0.5228027982298526
 40
0.5876883755832011
 40
0.6507190471999983
 40
0.7155751094811358
 40
0.778651711642165
 40
0.8435548096470322
 40
0.9066762833681821
 40
0.9716295829024612
 40
1.0
 40
1.0
 40
1.0
 40
1.0
 10
6.394638460214394
 20
17.90767598264266
 30
0.0
 10
6.39463661177207
 20
17.90755511264015
 30
0.0
 10
6.394623704368469
 20
17.90671109501234
 30
0.0
 10
6.394680299190107
 20
17.90335915330586
 30
0.0
 10
6.394795246949851
 20
17.89759618292652
 30
0.0
 10
6.394958664096866
 20
17.89014571360294
 30
0.0
 10
6.395136719791716
 20
17.88129823759677
 30
0.0
 10
6.39530200960548
 20
17.87140373373972
 30
0.0
 10
6.395432109966652
 20
17.86058179914802
 30
0.0
 10
6.395506513082746
 20
17.8493328579095
 30
0.0
 10
6.39551586382903
 20
17.83777497793242
 30
0.0
 10
6.395458785056382
 20
17.82644501017426
 30
0.0
 10
6.395342496417307
 20
17.81545701116857
 30
0.0
 10
6.395185234919456
 20
17.80531380729811
 30
0.0
 10
6.395007769822923
 20
17.79612774580877
 30
0.0
 10
6.394837942156632
 20
17.78828634552485
 30
0.0
 10
6.394706273870834
 20
17.78200729510159
 30
0.0
 10
6.394633281837913
 20
17.77797823495927
 30
0.0
 10
6.394640424745484
 20
17.77674566111313
 30
0.0
 10
6.39464259618994
 20
17.77637095856826
 30
0.0
  0
LINE
  5
93
330
1F
100
AcDbEntity
  8
0
  6
Continuous
 62
     7
370
    25
100
AcDbLine
 10
6.3946325944
 20
17.5919723194
 30
0.0
 11
9.3646325944
 21
17.5919723194
 31
0.0
  0
LINE
  5
94
330
1F
100
AcDbEntity
  8
0
  6
Continuous
 62
     7
370
    25
100
AcDbLine
 10
6.4246325944
 20
21.5049723194
 30
0.0
 11
9.3346325944
 21
21.5049723194
 31
0.0
  0
LWPOLYLINE
  5
95
330
1F
100
AcDbEntity
  8
0
  6
Continuous
 62
     7
370
    25
100
AcDbPolyline
 90
       46
 70
   128
 43
0.0
 10
8.6397400901
 20
17.8933537472
 10
8.633191617
 20
17.8980228379
 10
8.6261404376
 20
17.9016009689
 10
8.6187237951
 20
17.9040184962
 10
8.6110860461
 20
17.9052283651
 10
8.6033758506
 20
17.9052070271
 10
8.5957432789
 20
17.9039548974
 10
8.5883368902
 20
17.9014963474
 10
8.5813008416
 20
17.8978792298
 10
8.5747720816
 20
17.8931739479
 10
8.5688776852
 20
17.8874720845
 10
8.56373238
 20
17.8808846199
 10
8.5594363137
 20
17.8735397716
 10
8.5560731042
 20
17.8655804988
 10
8.5537082125
 20
17.8571617196
 10
8.5523876687
 20
17.848447296
 10
8.5521371756
 20
17.8396068444
 10
8.5529616088
 20
17.8308124341
 10
8.5548449216
 20
17.8222352382
 10
8.5577504574
 20
17.8140422022
 10
8.5616216633
 20
17.8063927941
 10
8.5663831908
 20
17.799435901
 10
8.571942362
 20
17.7933069309
 10
8.5781909741
 20
17.7881251772
 10
8.5850074048
 20
17.783991497
 10
8.5922589802
 20
17.7809863474
 10
8.5998045566
 20
17.7791682205
 10
8.6074972679
 20
17.7785725039
 10
8.6151873842
 20
17.7792107925
 10
8.6227252262
 20
17.7810706629
 10
8.6299640784
 20
17.7841159148
 10
8.6367630447
 20
17.7882872758
 10
8.6429897909
 20
17.7935035551
 10
8.6485231206
 20
17.7996632237
 10
8.6532553338
 20
17.8066463908
 10
8.6570943233
 20
17.8143171369
 10
8.6599653676
 20
17.8225261597
 10
8.661812585
 20
17.8311136798
 10
8.6626000216
 20
17.839912551
 10
8.6623123508
 20
17.8487515133
 10
8.6609551719
 20
17.8574585262
 10
8.6585549006
 20
17.8658641178
 10
8.6551582557
 20
17.8738046827
 10
8.6508313489
 20
17.8811256668
 10
8.6456583985
 20
17.8876845755
 10
8.6397400901
 20
17.8933537472
  0
LINE
  5
96
330
1F
100
AcDbEntity
  8
0
  6
Continuous
 62
     7
370
    25
100
AcDbLine
 10
8.5683140352
 20
17.846571526
 30
0.0
 11
8.5843670167
 21
17.8054758472
 31
0.0
  0
LINE
  5
97
330
1F
100
AcDbEntity
  8
0
  6
Continuous
 62
     7
370
    25
100
AcDbLine
 10
8.6234169273
 20
17.8008766405
 30
0.0
 11
8.5843670167
 21
17.8054758472
 31
0.0
  0
LINE
  5
98
330
1F
100
AcDbEntity
  8
0
  6
Continuous
 62
     7
370
    25
100
AcDbLine
 10
8.6464138563
 20
17.8373731127
 30
0.0
 11
8.6234169273
 21
17.8008766405
 31
0.0
  0
LINE
  5
99
330
1F
100
AcDbEntity
  8
0
  6
Continuous
 62
     7
370
    25
100
AcDbLine
 10
8.6464138563
 20
17.8373731127
 30
0.0
 11
8.6303608748
 21
17.8784687915
 31
0.0
  0
LINE
  5
9A
330
1F
100
AcDbEntity
  8
0
  6
Continuous
 62
     7
370
    25
100
AcDbLine
 10
8.5913109642
 20
17.8830679982
 30
0.0
 11
8.6303608748
 21
17.8784687915
 31
0.0
  0
LINE
  5
9B
330
1F
100
AcDbEntity
  8
0
  6
Continuous
 62
     7
370
    25
100
AcDbLine
 10
8.5913109642
 20
17.8830679982
 30
0.0
 11
8.5683140352
 21
17.846571526
 31
0.0
  0
LINE
  5
9C
330
1F
100
AcDbEntity
  8
0
  6
Continuous
 62
     7
370
    25
100
AcDbLine
 10
8.5884129409
 20
17.8784687915
 30
0.0
 11
8.6303608748
 21
17.8784687915
 31
0.0
  0
LINE
  5
9D
330
1F
100
AcDbEntity
  8
0
  6
Continuous
 62
     7
370
    25
100
AcDbLine
 10
8.6023089259
 20
17.8373731127
 30
0.0
 11
8.6464138563
 21
17.8373731127
 31
0.0
  0
LINE
  5
9E
330
1F
100
AcDbEntity
  8
0
  6
Continuous
 62
     7
370
    25
100
AcDbLine
 10
8.6023089259
 20
17.8373731127
 30
0.0
 11
8.5870814016
 21
17.8763556187
 31
0.0
  0
LINE
  5
9F
330
1F
100
AcDbEntity
  8
0
  6
Continuous
 62
     7
370
    25
100
AcDbLine
 10
8.6023089259
 20
17.8373731127
 30
0.0
 11
8.5835415595
 21
17.80758902
 31
0.0
  0
ARC
  5
A0
330
1F
100
AcDbEntity
  8
0
  6
Continuous
 62
     7
370
    25
100
AcDbCircle
 10
8.6489464182
 20
17.8459736181
 30
0.0
 40
2.255055402912567
100
AcDbArc
 50
178.496659283
 51
180.6893028044
  0
ARC
  5
A1
330
1F
100
AcDbEntity
  8
0
  6
Continuous
 62
     7
370
    25
100
AcDbCircle
 10
7.3399242598
 20
17.8133162188
 30
0.0
 40
0.9458862091502396
100
AcDbArc
 50
179.6651241621
 51
182.0909869883
  0
ARC
  5
A2
330
1F
100
AcDbEntity
  8
0
  6
Continuous
 62
     7
370
    25
100
AcDbCircle
 10
9.263355215
 20
15.1711186068
 30
0.0
 40
2.8692885925625
100
AcDbArc
 50
178.8167428367
 51
180.5488490685
  0
ARC
  5
A3
330
1F
100
AcDbEntity
  8
0
  6
Continuous
 62
     7
370
    25
100
AcDbCircle
 10
7.4273984984
 20
15.1359864221
 30
0.0
 40
1.033228530644676
100
AcDbArc
 50
179.5759431668
 51
181.797640348
  0
LWPOLYLINE
  5
A4
330
1F
100
AcDbEntity
  8
0
  6
Continuous
 62
     7
370
    25
100
AcDbPolyline
 90
       46
 70
   128
 43
0.0
 10
8.66604111
 20
15.15718517
 10
8.6666958641
 20
15.1659982232
 10
8.6662770269
 20
15.1748302361
 10
8.6647927506
 20
15.1835093037
 10
8.662271925
 20
15.1918664976
 10
8.6587636151
 20
15.1997391546
 10
8.6543361061
 20
15.2069740425
 10
8.6490755744
 20
15.2134303424
 10
8.6430844104
 20
15.2189823896
 10
8.6364792252
 20
15.2235221201
 10
8.6293885812
 20
15.2269611729
 10
8.6219504897
 20
15.229232611
 10
8.6143097248
 20
15.2302922233
 10
8.6066150053
 20
15.2301193857
 10
8.5990161
 20
15.2287174623
 10
8.5916609131
 20
15.2261137399
 10
8.5846926049
 20
15.2223588971
 10
8.5782468056
 20
15.2175260175
 10
8.5724489753
 20
15.2117091676
 10
8.5674119622
 20
15.205021566
 10
8.563233806
 20
15.197593379
 10
8.5599958299
 20
15.1895691879
 10
8.5577610573
 20
15.1811051744
 10
8.5565729855
 20
15.1723660811
 10
8.556454739
 20
15.1635220043
 10
8.5574086193
 20
15.1547450839
 10
8.5594160603
 20
15.1462061528
 10
8.5624379893
 20
15.1380714115
 10
8.566415588
 20
15.1304991935
 10
8.5712714369
 20
15.1236368833
 10
8.5769110225
 20
15.1176180482
 10
8.5832245767
 20
15.1125598378
 10
8.5900892132
 20
15.1085607045
 10
8.5973713197
 20
15.1056984868
 10
8.6049291584
 20
15.1040288946
 10
8.6126156245
 20
15.1035844245
 10
8.6202811096
 20
15.1043737277
 10
8.6277764139
 20
15.1063814413
 10
8.6349556497
 20
15.1095684874
 10
8.6416790814
 20
15.1138728338
 10
8.6478158451
 20
15.1192107013
 10
8.6532464956
 20
15.1254781943
 10
8.6578653314
 20
15.1325533233
 10
8.6615824523
 20
15.1402983789
 10
8.6643255086
 20
15.1485626125
 10
8.66604111
 20
15.15718517
  0
LINE
  5
A5
330
1F
100
AcDbEntity
  8
0
  6
Continuous
 62
     7
370
    25
100
AcDbLine
 10
8.5974191187
 20
15.2089807512
 30
0.0
 11
8.5728236381
 21
15.1739241781
 31
0.0
  0
LINE
  5
A6
330
1F
100
AcDbEntity
  8
0
  6
Continuous
 62
     7
370
    25
100
AcDbLine
 10
8.5869422014
 20
15.1319157463
 30
0.0
 11
8.5728236381
 21
15.1739241781
 31
0.0
  0
LINE
  5
A7
330
1F
100
AcDbEntity
  8
0
  6
Continuous
 62
     7
370
    25
100
AcDbLine
 10
8.6256562451
 20
15.1249638876
 30
0.0
 11
8.5869422014
 21
15.1319157463
 31
0.0
  0
LINE
  5
A8
330
1F
100
AcDbEntity
  8
0
  6
Continuous
 62
     7
370
    25
100
AcDbLine
 10
8.6256562451
 20
15.1249638876
 30
0.0
 11
8.6502517256
 21
15.1600204607
 31
0.0
  0
LINE
  5
A9
330
1F
100
AcDbEntity
  8
0
  6
Continuous
 62
     7
370
    25
100
AcDbLine
 10
8.6361331624
 20
15.2020288925
 30
0.0
 11
8.6502517256
 21
15.1600204607
 31
0.0
  0
LINE
  5
AA
330
1F
100
AcDbEntity
  8
0
  6
Continuous
 62
     7
370
    25
100
AcDbLine
 10
8.6361331624
 20
15.2020288925
 30
0.0
 11
8.5974191187
 21
15.2089807512
 31
0.0
  0
LINE
  5
AB
330
1F
100
AcDbEntity
  8
0
  6
Continuous
 62
     7
370
    25
100
AcDbLine
 10
8.5925417365
 20
15.2020288925
 30
0.0
 11
8.6361331624
 21
15.2020288925
 31
0.0
  0
LINE
  5
AC
330
1F
100
AcDbEntity
  8
0
  6
Continuous
 62
     7
370
    25
100
AcDbLine
 10
8.5866939578
 20
15.132654371
 30
0.0
 11
8.6058938415
 21
15.1600204607
 31
0.0
  0
LINE
  5
AD
330
1F
100
AcDbEntity
  8
0
  6
Continuous
 62
     7
370
    25
100
AcDbLine
 10
8.6058938415
 20
15.1600204607
 30
0.0
 11
8.6502517256
 21
15.1600204607
 31
0.0
  0
LINE
  5
AE
330
1F
100
AcDbEntity
  8
0
  6
Continuous
 62
     7
370
    25
100
AcDbLine
 10
8.5920235218
 20
15.2012902677
 30
0.0
 11
8.6058938415
 21
15.1600204607
 31
0.0
  0
SPLINE
  5
AF
330
1F
100
AcDbEntity
  8
0
  6
Continuous
 62
     7
370
    25
100
AcDbSpline
210
0.0
220
0.0
230
1.0
 70
     8
 71
     3
 72
    26
 73
    22
 74
     0
 42
0.00000001
 43
0.00000001
 40
0.0
 40
0.0
 40
0.0
 40
0.0
 40
0.0508499067489185
 40
0.1017003972324603
 40
0.154083238910225
 40
0.2064677116596766
 40
0.2572978369672435
 40
0.308129558862707
 40
0.3603389717218595
 40
0.4125495987529926
 40
0.4652053582121381
 40
0.5178613764282192
 40
0.5719672850064438
 40
0.6260723307210702
 40
0.6800254183303169
 40
0.7339768622649703
 40
0.7896101324145627
 40
0.8452414054128524
 40
0.8972759987528749
 40
0.9493096248368633
 40
1.0
 40
1.0
 40
1.0
 40
1.0
 10
6.480447563749696
 20
16.50497231936785
 30
0.0
 10
6.480335824809065
 20
16.49162860191247
 30
0.0
 10
6.48011234564509
 20
16.46494101382169
 30
0.0
 10
6.478330890678377
 20
16.42480020294228
 30
0.0
 10
6.475489172189824
 20
16.38485779656578
 30
0.0
 10
6.471596192104145
 20
16.34581142469637
 30
0.0
 10
6.46684462778605
 20
16.30829966573264
 30
0.0
 10
6.461358622407551
 20
16.27217478420925
 30
0.0
 10
6.455210556833548
 20
16.23733050650276
 30
0.0
 10
6.448543303866346
 20
16.20391559065311
 30
0.0
 10
6.441582453225304
 20
16.17246762357771
 30
0.0
 10
6.434448188529112
 20
16.14290432370799
 30
0.0
 10
6.427349184841495
 20
16.11558732946434
 30
0.0
 10
6.420485875603597
 20
16.09077841529705
 30
0.0
 10
6.414116622887096
 20
16.06891543049706
 30
0.0
 10
6.40834223086086
 20
16.049926731403
 30
0.0
 10
6.403363382333207
 20
16.03410449299747
 30
0.0
 10
6.39941957691769
 20
16.02191980233365
 30
0.0
 10
6.396655649567067
 20
16.01352618600005
 30
0.0
 10
6.394936146493508
 20
16.00837880272567
 30
0.0
 10
6.394755426518931
 20
16.00783737500934
 30
0.0
 10
6.39466624810688
 20
16.0075702010896
 30
0.0
  0
SPLINE
  5
B0
330
1F
100
AcDbEntity
  8
0
  6
Continuous
 62
     7
370
    25
100
AcDbSpline
210
0.0
220
0.0
230
1.0
 70
     8
 71
     3
 72
    27
 73
    23
 74
     0
 42
0.00000001
 43
0.00000001
 40
0.0
 40
0.0
 40
0.0
 40
0.0
 40
0.0027747880900778
 40
0.0535647438300184
 40
0.1058814555253764
 40
0.1581991809279157
 40
0.2082388575659194
 40
0.2582798404700525
 40
0.3096732973339872
 40
0.3610681456955172
 40
0.4129865490136111
 40
0.4649058046004825
 40
0.5182195429986702
 40
0.5715331867309126
 40
0.6254335654739024
 40
0.6793326981296799
 40
0.7348549861652492
 40
0.7903750326652625
 40
0.841988183673688
 40
0.8935997759404587
 40
0.9468002525068868
 40
1.0
 40
1.0
 40
1.0
 40
1.0
 10
6.394662073950828
 20
17.00238639185702
 30
0.0
 10
6.394652936332919
 20
17.00241374581651
 30
0.0
 10
6.394476542984416
 20
17.00294178896279
 30
0.0
 10
6.395134224682194
 20
17.0009736362572
 30
0.0
 10
6.396752326924878
 20
16.99612663849402
 30
0.0
 10
6.399540579715456
 20
16.98765367786237
 30
0.0
 10
6.403216256930553
 20
16.97628628886137
 30
0.0
 10
6.407704768511621
 20
16.96205609852371
 30
0.0
 10
6.412979222639313
 20
16.94481557835366
 30
0.0
 10
6.418938819606056
 20
16.92455556723518
 30
0.0
 10
6.425404131072629
 20
16.9015143028876
 30
0.0
 10
6.432270928951501
 20
16.87560509812035
 30
0.0
 10
6.439356402330871
 20
16.84696556991605
 30
0.0
 10
6.446498593074392
 20
16.81560425780433
 30
0.0
 10
6.453438424267107
 20
16.78191188487526
 30
0.0
 10
6.460045363947445
 20
16.7457273832634
 30
0.0
 10
6.466071114813522
 20
16.70731321100076
 30
0.0
 10
6.47118526178099
 20
16.66784007845822
 30
0.0
 10
6.47522413245899
 20
16.62807762001385
 30
0.0
 10
6.478170022624369
 20
16.58799287731215
 30
0.0
 10
6.480080317895168
 20
16.54685493680785
 30
0.0
 10
6.480325149024062
 20
16.51893312807278
 30
0.0
 10
6.480447563749696
 20
16.50497231936785
 30
0.0
  0
LINE
  5
B1
330
1F
100
AcDbEntity
  8
0
  6
Continuous
 62
     7
370
    25
100
AcDbLine
 10
6.3946325944
 20
15.4169723194
 30
0.0
 11
9.3646325944
 21
15.4169723194
 31
0.0
  0
SPLINE
  5
B2
330
1F
100
AcDbEntity
  8
0
  6
Continuous
 62
     7
370
    25
100
AcDbSpline
210
0.0
220
0.0
230
1.0
 70
     8
 71
     3
 72
     9
 73
     5
 74
     0
 42
0.00000001
 43
0.00000001
 40
0.0
 40
0.0
 40
0.0
 40
0.0
 40
0.4714141857259613
 40
1.0
 40
1.0
 40
1.0
 40
1.0
 10
5.349632594400775
 20
16.39534516429342
 30
0.0
 10
5.345822637846433
 20
16.41274308519959
 30
0.0
 10
5.33774066519965
 20
16.44964889209502
 30
0.0
 10
5.326117981428289
 20
16.48584144782611
 30
0.0
 10
5.319974395662955
 20
16.50497231936789
 30
0.0
  0
SPLINE
  5
B3
330
1F
100
AcDbEntity
  8
0
  6
Continuous
 62
     7
370
    25
100
AcDbSpline
210
0.0
220
0.0
230
1.0
 70
     8
 71
     3
 72
    10
 73
     6
 74
     0
 42
0.00000001
 43
0.00000001
 40
0.0
 40
0.0
 40
0.0
 40
0.0
 40
0.3715752375992674
 40
0.7432556715532398
 40
0.9999999999999999
 40
0.9999999999999999
 40
0.9999999999999999
 40
0.9999999999999999
 10
5.319974395662946
 20
16.00497231936788
 30
0.0
 10
5.324288739247895
 20
16.0184323713735
 30
0.0
 10
5.332918647847997
 20
16.04535628604879
 30
0.0
 10
5.342854693382214
 20
16.08197526145805
 30
0.0
 10
5.347666656295522
 20
16.10523192969582
 30
0.0
 10
5.349632594400775
 20
16.11473349301074
 30
0.0
  0
LINE
  5
B4
330
1F
100
AcDbEntity
  8
0
  6
Continuous
 62
     7
370
    25
100
AcDbLine
 10
5.3199743957
 20
16.0049723194
 30
0.0
 11
5.1192907931
 21
16.0049723194
 31
0.0
  0
SPLINE
  5
B5
330
1F
100
AcDbEntity
  8
0
  6
Continuous
 62
     7
370
    25
100
AcDbSpline
210
0.0
220
0.0
230
1.0
 70
     8
 71
     3
 72
    14
 73
    10
 74
     0
 42
0.00000001
 43
0.00000001
 40
0.0
 40
0.0
 40
0.0
 40
0.0
 40
0.0700602147397558
 40
0.1849485877829365
 40
0.2998385263336443
 40
0.4153539479724233
 40
0.5308721758926939
 40
0.7650460655250395
 40
1.0
 40
1.0
 40
1.0
 40
1.0
 10
5.074632594401481
 20
16.25497231936784
 30
0.0
 10
5.074681041989091
 20
16.24904496342729
 30
0.0
 10
5.074808936443073
 20
16.23339762185741
 30
0.0
 10
5.076122622984788
 20
16.20804743075459
 30
0.0
 10
5.078839703367478
 20
16.17892428213621
 30
0.0
 10
5.082816998310144
 20
16.1498541252931
 30
0.0
 10
5.089751841098079
 20
16.11095321427548
 30
0.0
 10
5.101080763911755
 20
16.06242636676348
 30
0.0
 10
5.113214058496717
 20
16.02414488607985
 30
0.0
 10
5.119290793139999
 20
16.00497231936787
 30
0.0
  0
SPLINE
  5
B6
330
1F
100
AcDbEntity
  8
0
  6
Continuous
 62
     7
370
    25
100
AcDbSpline
210
0.0
220
0.0
230
1.0
 70
     8
 71
     3
 72
    14
 73
    10
 74
     0
 42
0.00000001
 43
0.00000001
 40
0.0
 40
0.0
 40
0.0
 40
0.0
 40
0.2472348553168394
 40
0.3712835141512786
 40
0.4953282561460969
 40
0.6210921166479897
 40
0.7468522018523288
 40
0.8734269151146856
 40
0.9999999999999999
 40
0.9999999999999999
 40
0.9999999999999999
 40
0.9999999999999999
 10
5.119290793139985
 20
16.50497231936788
 30
0.0
 10
5.112897993243735
 20
16.48479522465185
 30
0.0
 10
5.103297642970694
 20
16.45449438935121
 30
0.0
 10
5.093182181553233
 20
16.41350159099545
 30
0.0
 10
5.086643841135138
 20
16.38237838709427
 30
0.0
 10
5.081392883720569
 20
16.35092218226815
 30
0.0
 10
5.077545354009382
 20
16.31910156049301
 30
0.0
 10
5.075095203386429
 20
16.28710036698039
 30
0.0
 10
5.074786796735187
 20
16.26568162264656
 30
0.0
 10
5.074632594401481
 20
16.25497231936784
 30
0.0
  0
LINE
  5
B7
330
1F
100
AcDbEntity
  8
0
  6
Continuous
 62
     7
370
    25
100
AcDbLine
 10
5.3199743957
 20
16.5049723194
 30
0.0
 11
5.1192907931
 21
16.5049723194
 31
0.0
  0
SPLINE
  5
B8
330
1F
100
AcDbEntity
  8
0
  6
Continuous
 62
     7
370
    25
100
AcDbSpline
210
0.0
220
0.0
230
1.0
 70
     8
 71
     3
 72
    14
 73
    10
 74
     0
 42
0.00000001
 43
0.00000001
 40
0.0
 40
0.0
 40
0.0
 40
0.0
 40
0.0700602147399103
 40
0.1849485877830743
 40
0.2998385263337662
 40
0.4153539479725281
 40
0.5308721758927818
 40
0.7650460655250869
 40
1.0
 40
1.0
 40
1.0
 40
1.0
 10
5.074632594401472
 20
16.75497231936788
 30
0.0
 10
5.074681041989086
 20
16.74904496342731
 30
0.0
 10
5.074808936443077
 20
16.73339762185742
 30
0.0
 10
5.076122622984792
 20
16.70804743075458
 30
0.0
 10
5.078839703367491
 20
16.67892428213619
 30
0.0
 10
5.082816998310155
 20
16.64985412529308
 30
0.0
 10
5.08975184109809
 20
16.61095321427547
 30
0.0
 10
5.101080763911771
 20
16.56242636676347
 30
0.0
 10
5.113214058496713
 20
16.52414488607986
 30
0.0
 10
5.119290793139986
 20
16.50497231936788
 30
0.0
  0
LINE
  5
B9
330
1F
100
AcDbEntity
  8
0
  6
Continuous
 62
     7
370
    25
100
AcDbLine
 10
5.0746325944
 20
16.2549723194
 30
0.0
 11
5.0746325944
 21
16.7549723194
 31
0.0
  0
SPLINE
  5
BA
330
1F
100
AcDbEntity
  8
0
  6
Continuous
 62
     7
370
    25
100
AcDbSpline
210
0.0
220
0.0
230
1.0
 70
     8
 71
     3
 72
     9
 73
     5
 74
     0
 42
0.00000001
 43
0.00000001
 40
0.0
 40
0.0
 40
0.0
 40
0.0
 40
0.4714141857259944
 40
1.0
 40
1.0
 40
1.0
 40
1.0
 10
5.349632594400775
 20
16.89534516429337
 30
0.0
 10
5.345822637846433
 20
16.91274308519954
 30
0.0
 10
5.337740665199652
 20
16.94964889209498
 30
0.0
 10
5.326117981428291
 20
16.98584144782608
 30
0.0
 10
5.319974395662957
 20
17.00497231936786
 30
0.0
  0
SPLINE
  5
BB
330
1F
100
AcDbEntity
  8
0
  6
Continuous
 62
     7
370
    25
100
AcDbSpline
210
0.0
220
0.0
230
1.0
 70
     8
 71
     3
 72
    10
 73
     6
 74
     0
 42
0.00000001
 43
0.00000001
 40
0.0
 40
0.0
 40
0.0
 40
0.0
 40
0.37157523759913
 40
0.7432556715529661
 40
1.0
 40
1.0
 40
1.0
 40
1.0
 10
5.319974395662955
 20
16.50497231936789
 30
0.0
 10
5.324288739247903
 20
16.5184323713735
 30
0.0
 10
5.332918647848003
 20
16.54535628604879
 30
0.0
 10
5.342854693382211
 20
16.58197526145806
 30
0.0
 10
5.34766665629552
 20
16.60523192969584
 30
0.0
 10
5.349632594400775
 20
16.61473349301077
 30
0.0
  0
SPLINE
  5
BC
330
1F
100
AcDbEntity
  8
0
  6
Continuous
 62
     7
370
    25
100
AcDbSpline
210
0.0
220
0.0
230
1.0
 70
     8
 71
     3
 72
    14
 73
    10
 74
     0
 42
0.00000001
 43
0.00000001
 40
0.0
 40
0.0
 40
0.0
 40
0.0
 40
0.2472348553168441
 40
0.3712835141512855
 40
0.4953282561461062
 40
0.6210921166479991
 40
0.746852201852338
 40
0.873426915114691
 40
1.0
 40
1.0
 40
1.0
 40
1.0
 10
5.119290793139988
 20
17.00497231936786
 30
0.0
 10
5.112897993243738
 20
16.98479522465182
 30
0.0
 10
5.103297642970701
 20
16.95449438935118
 30
0.0
 10
5.093182181553241
 20
16.91350159099544
 30
0.0
 10
5.08664384113515
 20
16.88237838709426
 30
0.0
 10
5.08139288372058
 20
16.85092218226815
 30
0.0
 10
5.077545354009397
 20
16.81910156049301
 30
0.0
 10
5.07509520338643
 20
16.78710036698041
 30
0.0
 10
5.074786796735181
 20
16.76568162264659
 30
0.0
 10
5.074632594401472
 20
16.75497231936788
 30
0.0
  0
LINE
  5
BD
330
1F
100
AcDbEntity
  8
0
  6
Continuous
 62
     7
370
    25
100
AcDbLine
 10
5.3199743957
 20
17.0049723194
 30
0.0
 11
5.1192907931
 21
17.0049723194
 31
0.0
  0
SPLINE
  5
BE
330
1F
100
AcDbEntity
  8
0
  6
Continuous
 62
     7
370
    25
100
AcDbSpline
210
0.0
220
0.0
230
1.0
 70
    24
 71
     3
 72
    10
 73
     6
 74
     0
 42
0.00000001
 43
0.00000001
 40
0.0
 40
0.0
 40
0.0
 40
0.0
 40
0.1763206434066092
 40
0.5881419669662716
 40
1.0
 40
1.0
 40
1.0
 40
1.0
 10
5.349632594400775
 20
16.00497231936787
 30
0.0
 10
5.348365398470653
 20
16.00497231936787
 30
0.0
 10
5.344138490648208
 20
16.00497231936789
 30
0.0
 10
5.334290544860778
 20
16.00497231936788
 30
0.0
 10
5.324746587179559
 20
16.00497231936788
 30
0.0
 10
5.319974395662946
 20
16.00497231936788
 30
0.0
  0
SPLINE
  5
BF
330
1F
100
AcDbEntity
  8
0
  6
Continuous
 62
     7
370
    25
100
AcDbSpline
210
0.0
220
0.0
230
1.0
 70
    24
 71
     3
 72
    13
 73
     9
 74
     0
 42
0.00000001
 43
0.00000001
 40
0.0
 40
0.0
 40
0.0
 40
0.0
 40
0.1819644351489567
 40
0.3642286182445542
 40
0.5476537459883283
 40
0.7316013992202403
 40
0.8656674881993532
 40
1.0
 40
1.0
 40
1.0
 40
1.0
 10
5.119290793139999
 20
16.00497231936787
 30
0.0
 10
5.114534737854505
 20
16.00497231936787
 30
0.0
 10
5.105014792687682
 20
16.00497231936788
 30
0.0
 10
5.09334944550739
 20
16.00497231936787
 30
0.0
 10
5.084030167543479
 20
16.0049723193679
 30
0.0
 10
5.078252449861048
 20
16.00497231936781
 30
0.0
 10
5.075150733719853
 20
16.0049723193679
 30
0.0
 10
5.074805421764251
 20
16.00497231936786
 30
0.0
 10
5.074632594401455
 20
16.00497231936783
 30
0.0
  0
LINE
  5
C0
330
1F
100
AcDbEntity
  8
0
  6
Continuous
 62
     7
370
    25
100
AcDbLine
 10
5.0746325944
 20
16.0049723194
 30
0.0
 11
5.0746325944
 21
16.2549723194
 31
0.0
  0
SPLINE
  5
C1
330
1F
100
AcDbEntity
  8
0
  6
Continuous
 62
     7
370
    25
100
AcDbSpline
210
0.0
220
0.0
230
1.0
 70
    24
 71
     3
 72
    13
 73
     9
 74
     0
 42
0.00000001
 43
0.00000001
 40
0.0
 40
0.0
 40
0.0
 40
0.0
 40
0.1340638592314307
 40
0.2683985035910757
 40
0.4501242027757224
 40
0.6323947495924648
 40
0.8160265003060062
 40
1.0
 40
1.0
 40
1.0
 40
1.0
 10
5.074632594401483
 20
17.00497231936786
 30
0.0
 10
5.074804764335596
 20
17.00497231936785
 30
0.0
 10
5.075149451956439
 20
17.00497231936782
 30
0.0
 10
5.078234268691328
 20
17.00497231936793
 30
0.0
 10
5.083958931017377
 20
17.00497231936781
 30
0.0
 10
5.093202125168101
 20
17.00497231936785
 30
0.0
 10
5.104879648119593
 20
17.00497231936783
 30
0.0
 10
5.114484101831609
 20
17.00497231936785
 30
0.0
 10
5.119290793139988
 20
17.00497231936786
 30
0.0
  0
LINE
  5
C2
330
1F
100
AcDbEntity
  8
0
  6
Continuous
 62
     7
370
    25
100
AcDbLine
 10
5.0746325944
 20
16.7549723194
 30
0.0
 11
5.0746325944
 21
17.0049723194
 31
0.0
  0
SPLINE
  5
C3
330
1F
100
AcDbEntity
  8
0
  6
Continuous
 62
     7
370
    25
100
AcDbSpline
210
0.0
220
0.0
230
1.0
 70
    24
 71
     3
 72
    10
 73
     6
 74
     0
 42
0.00000001
 43
0.00000001
 40
0.0
 40
0.0
 40
0.0
 40
0.0
 40
0.4079248322503135
 40
0.8158143553377322
 40
1.0
 40
1.0
 40
1.0
 40
1.0
 10
5.319974395662957
 20
17.00497231936786
 30
0.0
 10
5.324705032477598
 20
17.00497231936786
 30
0.0
 10
5.33416589663236
 20
17.00497231936785
 30
0.0
 10
5.344035794176433
 20
17.00497231936783
 30
0.0
 10
5.348304625448996
 20
17.00497231936784
 30
0.0
 10
5.349632594400775
 20
17.00497231936785
 30
0.0
  0
LINE
  5
C4
330
1F
100
AcDbEntity
  8
0
  6
Continuous
 62
     7
370
    25
100
AcDbLine
 10
5.3496325944
 20
17.189012606
 30
0.0
 11
5.3496325944
 21
18.5049723194
 31
0.0
  0
LINE
  5
C5
330
1F
100
AcDbEntity
  8
0
  6
Continuous
 62
     7
370
    25
100
AcDbLine
 10
5.3496325944
 20
14.5049723194
 30
0.0
 11
5.3496325944
 21
17.189012606
 31
0.0
  0
LINE
  5
C6
330
1F
100
AcDbEntity
  8
0
  6
Continuous
 62
     7
370
    25
100
AcDbLine
 10
5.3646325944
 20
16.5049723194
 30
0.0
 11
5.3646325944
 21
18.9899723194
 31
0.0
  0
LINE
  5
C7
330
1F
100
AcDbEntity
  8
0
  6
Continuous
 62
     7
370
    25
100
AcDbLine
 10
5.3646325944
 20
14.0199723194
 30
0.0
 11
5.3646325944
 21
16.5049723194
 31
0.0
  0
LINE
  5
C8
330
1F
100
AcDbEntity
  8
0
  6
Continuous
 62
     7
370
    25
100
AcDbLine
 10
5.6896325944
 20
16.5049723194
 30
0.0
 11
5.6896325944
 21
18.9899723194
 31
0.0
  0
LINE
  5
C9
330
1F
100
AcDbEntity
  8
0
  6
Continuous
 62
     7
370
    25
100
AcDbLine
 10
5.6896325944
 20
14.0199723194
 30
0.0
 11
5.6896325944
 21
16.5049723194
 31
0.0
  0
LINE
  5
CA
330
1F
100
AcDbEntity
  8
0
  6
Continuous
 62
     7
370
    25
100
AcDbLine
 10
5.7396325944
 20
16.5049723194
 30
0.0
 11
5.7396325944
 21
14.0699723194
 31
0.0
  0
LINE
  5
CB
330
1F
100
AcDbEntity
  8
0
  6
Continuous
 62
     7
370
    25
100
AcDbLine
 10
5.7396325944
 20
18.9399723194
 30
0.0
 11
5.7396325944
 21
16.5049723194
 31
0.0
  0
LINE
  5
CC
330
1F
100
AcDbEntity
  8
0
  6
Continuous
 62
     7
370
    25
100
AcDbLine
 10
9.1595343856
 20
11.5339723194
 30
0.0
 11
9.3646325944
 21
11.5339723194
 31
0.0
  0
LINE
  5
CD
330
1F
100
AcDbEntity
  8
0
  6
Continuous
 62
     7
370
    25
100
AcDbLine
 10
6.3946325944
 20
11.5339723194
 30
0.0
 11
9.1595343856
 21
11.5339723194
 31
0.0
  0
LINE
  5
CE
330
1F
100
AcDbEntity
  8
0
  6
Continuous
 62
     7
370
    25
100
AcDbLine
 10
9.3646325944
 20
21.4749723194
 30
0.0
 11
6.3946325944
 21
21.4749723194
 31
0.0
  0
LINE
  5
CF
330
1F
100
AcDbEntity
  8
0
  6
Continuous
 62
     7
370
    25
100
AcDbLine
 10
5.7496325944
 20
16.9999723194
 30
0.0
 11
5.7496325944
 21
16.0099723194
 31
0.0
  0
LINE
  5
D0
330
1F
100
AcDbEntity
  8
0
  6
Continuous
 62
     7
370
    25
100
AcDbLine
 10
5.3479659277
 20
17.4950929532
 30
0.0
 11
5.3479659277
 21
17.621803472
 31
0.0
  0
LINE
  5
D1
330
1F
100
AcDbEntity
  8
0
  6
Continuous
 62
     7
370
    25
100
AcDbLine
 10
5.3479659277
 20
17.3078703468
 30
0.0
 11
5.3479659277
 21
17.4345808656
 31
0.0
  0
DIMENSION
  5
D2
330
1F
100
AcDbEntity
  8
0
  6
Continuous
 62
     7
370
    18
100
AcDbDimension
  2
_D
 10
5.0746325944
 20
20.6874118592
 30
0.0
 11
2.8498688149
 21
20.6874118592
 31
0.0
 70
   160
  1
<>
 71
     2
 42
-1.0
  3
SLDDIMSTYLE0
100
AcDbAlignedDimension
 13
5.3646325944
 23
18.9899723194
 33
0.0
 14
5.0746325944
 24
17.0049723194
 34
0.0
100
AcDbRotatedDimension
  0
DIMENSION
  5
E8
330
1F
100
AcDbEntity
  8
0
  6
Continuous
 62
     7
370
    18
100
AcDbDimension
  2
_D_1
 10
9.3646325944
 20
8.1968857052
 30
0.0
 11
7.3646325944
 21
8.1968857052
 31
0.0
 70
   160
  1
<>
 71
     2
 42
-1.0
  3
SLDDIMSTYLE1
100
AcDbAlignedDimension
 13
5.3646325944
 23
14.0199723194
 33
0.0
 14
9.3646325944
 24
15.4169723194
 34
0.0
100
AcDbRotatedDimension
  0
DIMENSION
  5
FD
330
1F
100
AcDbEntity
  8
0
  6
Continuous
 62
     7
370
    18
100
AcDbDimension
  2
_D_2
 10
9.3646325944
 20
22.6860746816
 30
0.0
 11
7.8796325944
 21
22.6860746816
 31
0.0
 70
   160
  1
%%c<>
 71
     2
 42
-1.0
  3
SLDDIMSTYLE1
100
AcDbAlignedDimension
 13
6.3946325944
 23
17.5919723194
 33
0.0
 14
9.3646325944
 24
17.5919723194
 34
0.0
 50
0.0
100
AcDbRotatedDimension
  0
DIMENSION
  5
110
330
1F
100
AcDbEntity
  8
0
  6
Continuous
 62
     7
370
    18
100
AcDbDimension
  2
_D_3
 10
5.7396325944
 20
9.5814225825
 30
0.0
 11
3.5585302322
 21
9.5814225825
 31
0.0
 70
   160
  1
<>
 71
     2
 42
-1.0
  3
SLDDIMSTYLE0
100
AcDbAlignedDimension
 13
5.3646325944
 23
14.0199723194
 33
0.0
 14
5.7396325944
 24
14.0699723194
 34
0.0
 50
0.0
100
AcDbRotatedDimension
  0
DIMENSION
  5
124
330
1F
100
AcDbEntity
  8
0
  6
Continuous
 62
     7
370
    18
100
AcDbDimension
  2
_D_4
 10
11.093681504
 20
11.5039723194
 30
0.0
 11
11.093681504
 21
16.5044723194
 31
0.0
 70
   160
  1
<>
 71
     2
 42
-1.0
  3
SLDDIMSTYLE2
100
AcDbAlignedDimension
 13
9.3346325944
 23
21.5049723194
 33
0.0
 14
9.3346325944
 24
11.5039723194
 34
0.0
 50
90.0
100
AcDbRotatedDimension
  0
LINE
  5
139
330
1F
100
AcDbEntity
  8
0
  6
CENTERX2
 62
     7
370
    18
100
AcDbLine
 10
9.6900568636
 20
16.5049723194
 30
0.0
 11
4.9996325944
 21
16.5049723194
 31
0.0
  0
SPLINE
  5
13A
330
1F
100
AcDbEntity
  8
0
  6
Continuous
 62
     7
370
    25
100
AcDbSpline
210
0.0
220
0.0
230
1.0
 70
     8
 71
     3
 72
   100
 73
    96
 74
     0
 42
0.00000001
 43
0.00000001
 40
0.0
 40
0.0
 40
0.0
 40
0.0
 40
0.0077895279487418
 40
0.0184700199129316
 40
0.0291578244494696
 40
0.0398566167809125
 40
0.0505695029003063
 40
0.0612988976715789
 40
0.0720464587867475
 40
0.082813077409533
 40
0.093598920358154
 40
0.1044035138787882
 40
0.1152258560509084
 40
0.1260645439104557
 40
0.1369179023404679
 40
0.1477841041892519
 40
0.1586612742759802
 40
0.1695475732703481
 40
0.180441260364589
 40
0.1913407358851427
 40
0.2022445664230288
 40
0.2131514957644615
 40
0.2240604450351867
 40
0.2349705052209562
 40
0.245880856301063
 40
0.2567907831457724
 40
0.2676998411052645
 40
0.2786076898026042
 40
0.2895140779536216
 40
0.3004188295070151
 40
0.3113218312849416
 40
0.3222230221619001
 40
0.3331223837307526
 40
0.3440199323513434
 40
0.3549157124493189
 40
0.3658097909222576
 40
0.3767022525109331
 40
0.3875931960011543
 40
0.3984827311329509
 40
0.4093709761068838
 40
0.4202580555905339
 40
0.4311440991408816
 40
0.4420292399700719
 40
0.4529136139923272
 40
0.4637973590988942
 40
0.4746806146155083
 40
0.4855635209033129
 40
0.4964462190691543
 40
0.507328850755346
 40
0.5182115491059635
 40
0.5290944179050439
 40
0.5399775995846473
 40
0.5508612366033037
 40
0.561745471266839
 40
0.5726304454896622
 40
0.5835163004646505
 40
0.59440317620978
 40
0.6052912109552021
 40
0.616180540328532
 40
0.6270712962892636
 40
0.6379636057546391
 40
0.6488575888495579
 40
0.6597533567017688
 40
0.6706510086910672
 40
0.6815506290476151
 40
0.6924522826805208
 40
0.7033560101043181
 40
0.7142618213197423
 40
0.7251696884983531
 40
0.7360795373219132
 40
0.7469912368417768
 40
0.7579045877578368
 40
0.7688193090798653
 40
0.7797350232376188
 40
0.7906512317500024
 40
0.8015670853510047
 40
0.8124817646467214
 40
0.8233942823299792
 40
0.8343034710807506
 40
0.8452079772967965
 40
0.8561062635964019
 40
0.866996623536179
 40
0.8778772121807288
 40
0.8887460958924983
 40
0.8996013237720004
 40
0.910441021406106
 40
0.9212635049316377
 40
0.932067410053251
 40
0.9428518269878394
 40
0.9536164290048876
 40
0.9643615800882765
 40
0.9750884069852307
 40
0.985798822957344
 40
0.9964954948595149
 40
1.0
 40
1.0
 40
1.0
 40
1.0
 10
26.75115901969337
 20
20.37120027813512
 30
0.0
 10
26.75061979907035
 20
20.37823229921295
 30
0.0
 10
26.74934123434727
 20
20.39490616830879
 30
0.0
 10
26.74542847573148
 20
20.4211438310109
 30
0.0
 10
26.73971924529918
 20
20.44988700682011
 30
0.0
 10
26.7323389458126
 20
20.47850000137813
 30
0.0
 10
26.72336474674067
 20
20.50695666131166
 30
0.0
 10
26.71278424175489
 20
20.53522704794625
 30
0.0
 10
26.70061093073019
 20
20.56328126079102
 30
0.0
 10
26.68685363551451
 20
20.59108840071211
 30
0.0
 10
26.6715250826288
 20
20.61861696897781
 30
0.0
 10
26.65463988346994
 20
20.64583498819923
 30
0.0
 10
26.63621525537178
 20
20.67271027156479
 30
0.0
 10
26.61627089302768
 20
20.69921068787484
 30
0.0
 10
26.59482896343025
 20
20.72530442740219
 30
0.0
 10
26.57191398223864
 20
20.7509602379873
 30
0.0
 10
26.54755266171372
 20
20.77614761969976
 30
0.0
 10
26.52177373207035
 20
20.80083697121192
 30
0.0
 10
26.49460775903063
 20
20.8249996884744
 30
0.0
 10
26.46608696970295
 20
20.84860822083207
 30
0.0
 10
26.43624509591465
 20
20.87163609252125
 30
0.0
 10
26.4051172393663
 20
20.89405789844707
 30
0.0
 10
26.37273975967091
 20
20.91584928279925
 30
0.0
 10
26.33915025414383
 20
20.93698686370493
 30
0.0
 10
26.30438753924421
 20
20.9574481826064
 30
0.0
 10
26.26849145459094
 20
20.97721176989702
 30
0.0
 10
26.23150273335982
 20
20.99625714472445
 30
0.0
 10
26.19346290672674
 20
21.01456479333966
 30
0.0
 10
26.15441443427223
 20
21.03211605626925
 30
0.0
 10
26.11440067717804
 20
21.04889311529059
 30
0.0
 10
26.07346587189573
 20
21.06487898593463
 30
0.0
 10
26.03165510306706
 20
21.08005751483207
 30
0.0
 10
25.98901427484406
 20
21.0944133811377
 30
0.0
 10
25.94559008006192
 20
21.10793210125512
 30
0.0
 10
25.90142996695027
 20
21.12060003612184
 30
0.0
 10
25.85658210324366
 20
21.13240440037935
 30
0.0
 10
25.81109533767827
 20
21.14333327282966
 30
0.0
 10
25.765019158951
 20
21.15337560765972
 30
0.0
 10
25.71840365227607
 20
21.16252124599304
 30
0.0
 10
25.67129945371232
 20
21.17076092739809
 30
0.0
 10
25.62375770245576
 20
21.17808630104714
 30
0.0
 10
25.575829991303
 20
21.18448993627368
 30
0.0
 10
25.52756831549383
 20
21.18996533232387
 30
0.0
 10
25.47902502014021
 20
21.19450692713717
 30
0.0
 10
25.43025274644349
 20
21.19811010502428
 30
0.0
 10
25.38130437689648
 20
21.20077120313833
 30
0.0
 10
25.33223297966008
 20
21.20248751665791
 30
0.0
 10
25.2830917522984
 20
21.2032573026198
 30
0.0
 10
25.23393397841578
 20
21.2030797824034
 30
0.0
 10
25.18481301512955
 20
21.20195514517383
 30
0.0
 10
25.13578217731824
 20
21.19988455112624
 30
0.0
 10
25.08689466616433
 20
21.19687012831962
 30
0.0
 10
25.03820346791457
 20
21.19291496295202
 30
0.0
 10
24.98976135526251
 20
21.18802309581226
 30
0.0
 10
24.94162083139249
 20
21.18219951597584
 30
0.0
 10
24.89383407474382
 20
21.1754501531039
 30
0.0
 10
24.84645288469375
 20
21.16778186839467
 30
0.0
 10
24.79952862835471
 20
21.15920244425585
 30
0.0
 10
24.75311218869118
 20
21.14972057278854
 30
0.0
 10
24.70725391417124
 20
21.13934584320101
 30
0.0
 10
24.66200357017617
 20
21.12808872830476
 30
0.0
 10
24.61741029239952
 20
21.11596057028552
 30
0.0
 10
24.57352254247121
 20
21.10297356599312
 30
0.0
 10
24.53038806604158
 20
21.08914075205296
 30
0.0
 10
24.48805385355056
 20
21.0744759901743
 30
0.0
 10
24.44656610388554
 20
21.05899395311337
 30
0.0
 10
24.40597019109114
 20
21.04271011184607
 30
0.0
 10
24.36631063422904
 20
21.02564072461188
 30
0.0
 10
24.3276310703862
 20
21.00780282860658
 30
0.0
 10
24.28997423068647
 20
20.98921423521935
 30
0.0
 10
24.25338191895875
 20
20.96989352981957
 30
0.0
 10
24.21789499244532
 20
20.94986007718554
 30
0.0
 10
24.18355334357512
 20
20.92913403370045
 30
0.0
 10
24.15039588961567
 20
20.90773637271148
 30
0.0
 10
24.11846076550541
 20
20.88568906291398
 30
0.0
 10
24.08778508393948
 20
20.86301500810305
 30
0.0
 10
24.05840488408245
 20
20.83973809483951
 30
0.0
 10
24.03035489902103
 20
20.81588308619844
 30
0.0
 10
24.00366866385964
 20
20.79147580265888
 30
0.0
 10
23.97837842424152
 20
20.76654317955188
 30
0.0
 10
23.95451501945369
 20
20.7411133170658
 30
0.0
 10
23.93210773786494
 20
20.71521551405643
 30
0.0
 10
23.91118414592886
 20
20.68888027502379
 30
0.0
 10
23.89176989228727
 20
20.66213927870446
 30
0.0
 10
23.87388850632709
 20
20.63502529674876
 30
0.0
 10
23.85756116746778
 20
20.60757205477714
 30
0.0
 10
23.84280660684692
 20
20.5798140277342
 30
0.0
 10
23.82964063478222
 20
20.55178618817662
 30
0.0
 10
23.8180772884811
 20
20.52352366267776
 30
0.0
 10
23.80812428274805
 20
20.49506153065053
 30
0.0
 10
23.79980008370228
 20
20.466434003954
 30
0.0
 10
23.79307095996382
 20
20.4376759666806
 30
0.0
 10
23.78808638697484
 20
20.40881594456323
 30
0.0
 10
23.78515027229717
 20
20.38637177579722
 30
0.0
 10
23.78442547921656
 20
20.37354469382479
 30
0.0
 10
23.78424661791027
 20
20.37037928193148
 30
0.0
  0
LINE
  5
13B
330
1F
100
AcDbEntity
  8
0
  6
Continuous
 62
     7
370
    25
100
AcDbLine
 10
26.7527232536
 20
17.1625641144
 30
0.0
 11
26.7527232536
 21
20.333192087
 31
0.0
  0
LINE
  5
13C
330
1F
100
AcDbEntity
  8
0
  6
Continuous
 62
     7
370
    25
100
AcDbLine
 10
23.7827232536
 20
20.333192087
 30
0.0
 11
23.7827232536
 21
17.1625641144
 31
0.0
  0
LINE
  5
13D
330
1F
100
AcDbEntity
  8
0
  6
Continuous
 62
     7
370
    25
100
AcDbLine
 10
23.7827232536
 20
15.3865878486
 30
0.0
 11
23.7827232536
 21
12.215959876
 31
0.0
  0
LINE
  5
13E
330
1F
100
AcDbEntity
  8
0
  6
Continuous
 62
     7
370
    25
100
AcDbLine
 10
26.7527232536
 20
12.215959876
 30
0.0
 11
26.7527232536
 21
15.3865878486
 31
0.0
  0
SPLINE
  5
13F
330
1F
100
AcDbEntity
  8
0
  6
Continuous
 62
     7
370
    25
100
AcDbSpline
210
0.0
220
0.0
230
1.0
 70
     8
 71
     3
 72
    14
 73
    10
 74
     0
 42
0.00000001
 43
0.00000001
 40
0.0
 40
0.0
 40
0.0
 40
0.0
 40
0.1091717232970761
 40
0.2631062210020986
 40
0.4171447960116178
 40
0.5713405835276417
 40
0.7257385645765162
 40
0.8803737911534155
 40
1.0
 40
1.0
 40
1.0
 40
1.0
 10
23.78428773646572
 20
12.17804582052754
 30
0.0
 10
23.78480416123104
 20
12.17120756726857
 30
0.0
 10
23.78604875611635
 20
12.15472722859766
 30
0.0
 10
23.78990394967552
 20
12.12868125818716
 30
0.0
 10
23.79557512053204
 20
12.09993564763148
 30
0.0
 10
23.802912659342
 20
12.07131830929183
 30
0.0
 10
23.81186993097622
 20
12.04286152006683
 30
0.0
 10
23.82153988376518
 20
12.01672268217458
 30
0.0
 10
23.82874307949439
 20
12.00017197944565
 30
0.0
 10
23.8318849393601
 20
11.99295296296909
 30
0.0
  0
SPLINE
  5
140
330
1F
100
AcDbEntity
  8
0
  6
Continuous
 62
     7
370
    25
100
AcDbSpline
210
0.0
220
0.0
230
1.0
 70
     8
 71
     3
 72
    94
 73
    90
 74
     0
 42
0.00000001
 43
0.00000001
 40
0.0
 40
0.0
 40
0.0
 40
0.0
 40
0.0062124959739359
 40
0.0177933024680039
 40
0.0293878383753607
 40
0.0410022722102464
 40
0.05263538091215
 40
0.0642855591919669
 40
0.0759509477770032
 40
0.087629558156493
 40
0.0993193784109631
 40
0.1110184567905091
 40
0.1227249626532427
 40
0.1344372265252986
 40
0.1461537623441531
 40
0.1578732755056063
 40
0.1695946603380823
 40
0.1813169902751693
 40
0.1930393715266931
 40
0.2047611473213168
 40
0.2164818738194963
 40
0.2282012144072892
 40
0.2399189237617622
 40
0.2516348334107163
 40
0.2633488389287577
 40
0.2750608887783004
 40
0.2867709747205853
 40
0.2984791236734952
 40
0.3101853908690457
 40
0.3218898541562793
 40
0.3335926092985421
 40
0.3452937661237849
 40
0.3569934453993994
 40
0.368691776317275
 40
0.3803888944888849
 40
0.3920849403636446
 40
0.4037800579959215
 40
0.4154743940968254
 40
0.4271680973161502
 40
0.4388613177077699
 40
0.4505542063381072
 40
0.4622469150025186
 40
0.4739395960184559
 40
0.4856323779173551
 40
0.4973253868816523
 40
0.5090187759701745
 40
0.5207126982198955
 40
0.5324073064382925
 40
0.5441027529219122
 40
0.5557991890673643
 40
0.5674967648392213
 40
0.5791956280541523
 40
0.5908959234339579
 40
0.6025977913722499
 40
0.6143013663499657
 40
0.6260067749239477
 40
0.6377141332002582
 40
0.6494235436899939
 40
0.6611350914306703
 40
0.6728488392411387
 40
0.6845648219640446
 40
0.6962830395387943
 40
0.7080034487426617
 40
0.7197259534426015
 40
0.7314503932210047
 40
0.7431765302832573
 40
0.7549040346341802
 40
0.7666324676365197
 40
0.7783611877666133
 40
0.7900892913250392
 40
0.801815847702989
 40
0.8135397416753587
 40
0.8252596619046428
 40
0.8369740965579799
 40
0.8486813393698271
 40
0.860379509947182
 40
0.8720665922027443
 40
0.8837404943286248
 40
0.895399132471865
 40
0.9070405380945229
 40
0.9186629859027304
 40
0.9302651354593452
 40
0.9418461756850455
 40
0.9534059581729022
 40
0.9649451034490057
 40
0.976465064718108
 40
0.9879681365627043
 40
0.9994574013052837
 40
1.0
 40
1.0
 40
1.0
 40
1.0
 10
23.8318849393601
 20
11.99295296296909
 30
0.0
 10
23.83418278352421
 20
11.98794403961267
 30
0.0
 10
23.84076407330017
 20
11.97359790744717
 30
0.0
 10
23.85284443280167
 20
11.95013693869281
 30
0.0
 10
23.86860757502507
 20
11.92268584571529
 30
0.0
 10
23.88594125796874
 20
11.89556375986182
 30
0.0
 10
23.90480315138838
 20
11.8687926177131
 30
0.0
 10
23.92518022650562
 20
11.8424057967834
 30
0.0
 10
23.94704764391501
 20
11.81643461854291
 30
0.0
 10
23.97038077279316
 20
11.7909102311795
 30
0.0
 10
23.99515215970434
 20
11.76586286415168
 30
0.0
 10
24.02133256724861
 20
11.7413218473171
 30
0.0
 10
24.04889092518178
 20
11.71731548449549
 30
0.0
 10
24.07779456197042
 20
11.693871019091
 30
0.0
 10
24.10800933891381
 20
11.67101461796861
 30
0.0
 10
24.13949978284472
 20
11.64877138222531
 30
0.0
 10
24.1722291904997
 20
11.62716537186147
 30
0.0
 10
24.20615958633221
 20
11.60621971718896
 30
0.0
 10
24.24125185435635
 20
11.58595658869834
 30
0.0
 10
24.27746587074981
 20
11.56639717918473
 30
0.0
 10
24.31476069522459
 20
11.54756167368401
 30
0.0
 10
24.35309452719267
 20
11.5294693389731
 30
0.0
 10
24.39242464549484
 20
11.51213859189224
 30
0.0
 10
24.43270743491878
 20
11.49558701072157
 30
0.0
 10
24.47389841263729
 20
11.47983134121273
 30
0.0
 10
24.51595225567524
 20
11.46488749799151
 30
0.0
 10
24.55882283016145
 20
11.45077056210724
 30
0.0
 10
24.60246322283912
 20
11.43749477549967
 30
0.0
 10
24.64682577509346
 20
11.42507353310667
 30
0.0
 10
24.69186211959494
 20
11.41351937326706
 30
0.0
 10
24.73752321954212
 20
11.40284396699405
 30
0.0
 10
24.78375941040818
 20
11.39305810661492
 30
0.0
 10
24.83052044404343
 20
11.38417169419694
 30
0.0
 10
24.87775553495278
 20
11.37619373011048
 30
0.0
 10
24.92541340854973
 20
11.36913230201934
 30
0.0
 10
24.97344235117965
 20
11.36299457453568
 30
0.0
 10
25.02179026170407
 20
11.35778677973204
 30
0.0
 10
25.07040470444019
 20
11.3535142086651
 30
0.0
 10
25.11923296325486
 20
11.35018120403475
 30
0.0
 10
25.16822209661867
 20
11.34779115407529
 30
0.0
 10
25.2173189934324
 20
11.34634648775454
 30
0.0
 10
25.26647042944152
 20
11.34584867133803
 30
0.0
 10
25.31562309022993
 20
11.34629820605095
 30
0.0
 10
25.36472362486173
 20
11.3476946237972
 30
0.0
 10
25.41371874139109
 20
11.35003648585995
 30
0.0
 10
25.46255529838964
 20
11.35332138852937
 30
0.0
 10
25.51118036516727
 20
11.35754597094698
 30
0.0
 10
25.55954124071733
 20
11.36270591932847
 30
0.0
 10
25.60758550948549
 20
11.36879597367299
 30
0.0
 10
25.65526109636125
 20
11.37580993585697
 30
0.0
 10
25.70251632069557
 20
11.38374067905777
 30
0.0
 10
25.74929994914613
 20
11.39258015843298
 30
0.0
 10
25.79556124714215
 20
11.40231942295725
 30
0.0
 10
25.84125002875133
 20
11.41294862828918
 30
0.0
 10
25.88631670472293
 20
11.42445705050538
 30
0.0
 10
25.93071232847399
 20
11.4368331004948
 30
0.0
 10
25.97438863978274
 20
11.45006433875417
 30
0.0
 10
26.01729810595592
 20
11.46413749026172
 30
0.0
 10
26.05939396024956
 20
11.4790384590318
 30
0.0
 10
26.10063023734926
 20
11.49475234186575
 30
0.0
 10
26.14096180576222
 20
11.51126344071454
 30
0.0
 10
26.180344397048
 20
11.52855527295912
 30
0.0
 10
26.21873463192526
 20
11.54661057879668
 30
0.0
 10
26.25609004345152
 20
11.56541132480455
 30
0.0
 10
26.29236909769205
 20
11.58493870264777
 30
0.0
 10
26.32753121258869
 20
11.60517312182278
 30
0.0
 10
26.36153677611585
 20
11.62609419530988
 30
0.0
 10
26.39434709396874
 20
11.64768067016573
 30
0.0
 10
26.42592432103142
 20
11.6699103142839
 30
0.0
 10
26.45623164591767
 20
11.69275994589404
 30
0.0
 10
26.48523339784284
 20
11.71620543039124
 30
0.0
 10
26.51289517968676
 20
11.74022170710298
 30
0.0
 10
26.53918381616878
 20
11.7647826411319
 30
0.0
 10
26.56406745231794
 20
11.78986096726469
 30
0.0
 10
26.58751567812366
 20
11.81542824362921
 30
0.0
 10
26.60949968112682
 20
11.84145482443209
 30
0.0
 10
26.62999242429246
 20
11.86790986282095
 30
0.0
 10
26.64896884804233
 20
11.89476135545425
 30
0.0
 10
26.66640606922584
 20
11.92197623994593
 30
0.0
 10
26.68228362289405
 20
11.94952055137855
 30
0.0
 10
26.69658349589595
 20
11.97735964551673
 30
0.0
 10
26.70929078645046
 20
12.00545846240811
 30
0.0
 10
26.72039177481719
 20
12.03378189189708
 30
0.0
 10
26.72988126865598
 20
12.06229493186615
 30
0.0
 10
26.73773499155017
 20
12.09096366845385
 30
0.0
 10
26.74401162731672
 20
12.11975309581533
 30
0.0
 10
26.74847172259068
 20
12.14863644047046
 30
0.0
 10
26.75087755328926
 20
12.16838441184504
 30
0.0
 10
26.75133565732265
 20
12.17850127142265
 30
0.0
 10
26.75135631635455
 20
12.17895750954654
 30
0.0
  0
LINE
  5
141
330
1F
100
AcDbEntity
  8
0
  6
Continuous
 62
     7
370
    25
100
AcDbLine
 10
26.7527232536
 20
16.5606952201
 30
0.0
 11
27.0213405838
 21
16.7157647041
 31
0.0
  0
SPLINE
  5
142
330
1F
100
AcDbEntity
  8
0
  6
Continuous
 62
     7
370
    25
100
AcDbSpline
210
0.0
220
0.0
230
1.0
 70
     8
 71
     3
 72
    48
 73
    44
 74
     0
 42
0.00000001
 43
0.00000001
 40
0.0
 40
0.0
 40
0.0
 40
0.0
 40
0.0208930764141072
 40
0.0454668576457099
 40
0.0701052060132361
 40
0.0948176073877766
 40
0.119604943994197
 40
0.1444611958864711
 40
0.1693759048036146
 40
0.1943366524782235
 40
0.2193310398626935
 40
0.2443479657765671
 40
0.2693782504881756
 40
0.2886116790316985
 40
0.3018117829975254
 40
0.3268471898456946
 40
0.3518789940280298
 40
0.3769049997315457
 40
0.401924367611327
 40
0.4269368487627802
 40
0.4519426112819606
 40
0.4769421108388713
 40
0.5019359967756287
 40
0.5269250457050653
 40
0.5519101157535233
 40
0.5768921159299479
 40
0.6018719863268336
 40
0.6268506858602493
 40
0.6518291850159471
 40
0.6768083151811845
 40
0.701788879360715
 40
0.7267718625071938
 40
0.7517582479243842
 40
0.776749010223636
 40
0.8017451034246257
 40
0.8267474416002861
 40
0.8517568687377325
 40
0.8767741134515346
 40
0.9017997228993222
 40
0.9268339687955977
 40
0.9518767170455643
 40
0.9769272517854616
 40
1.0
 40
1.0
 40
1.0
 40
1.0
 10
27.05048801668918
 20
16.73705977686872
 30
0.0
 10
27.0540269098022
 20
16.74033111343942
 30
0.0
 10
27.06172813800833
 20
16.74745009348926
 30
0.0
 10
27.07243718166853
 20
16.75999391938834
 30
0.0
 10
27.08281278829471
 20
16.77432100953882
 30
0.0
 10
27.09214519660916
 20
16.78990957325178
 30
0.0
 10
27.10043361455631
 20
16.80666700736352
 30
0.0
 10
27.10763856959848
 20
16.82455209156378
 30
0.0
 10
27.11373525574513
 20
16.8435017438362
 30
0.0
 10
27.11870043117889
 20
16.86345162255618
 30
0.0
 10
27.12251667729266
 20
16.8843319777532
 30
0.0
 10
27.12517146487843
 20
16.90606990143577
 30
0.0
 10
27.12654243109848
 20
16.92685012968223
 30
0.0
 10
27.12688652127369
 20
16.94455782151572
 30
0.0
 10
27.12665038077682
 20
16.9625840764904
 30
0.0
 10
27.12563828232739
 20
16.9828206369073
 30
0.0
 10
27.12327415738316
 20
17.00736465891244
 30
0.0
 10
27.1197576269297
 20
17.03235125908348
 30
0.0
 10
27.11510252652555
 20
17.05769810383353
 30
0.0
 10
27.10932611300966
 20
17.08332283400566
 30
0.0
 10
27.10244900743649
 20
17.1091422353098
 30
0.0
 10
27.09449513364888
 20
17.13507263117635
 30
0.0
 10
27.08549165618042
 20
17.16103002790748
 30
0.0
 10
27.07546891238223
 20
17.18693035351609
 30
0.0
 10
27.0644603345416
 20
17.21268969289853
 30
0.0
 10
27.05250235982264
 20
17.2382245395168
 30
0.0
 10
27.03963432692803
 20
17.26345205274604
 30
0.0
 10
27.02589835921204
 20
17.28829031894597
 30
0.0
 10
27.01133926293166
 20
17.31265856491596
 30
0.0
 10
26.99600439949689
 20
17.3364774116168
 30
0.0
 10
26.97994350039601
 20
17.35966919315574
 30
0.0
 10
26.96320846402201
 20
17.38215824863354
 30
0.0
 10
26.94585316401213
 20
17.40387115894312
 30
0.0
 10
26.92793330311489
 20
17.4247369190118
 30
0.0
 10
26.90950622603711
 20
17.44468712199334
 30
0.0
 10
26.89063072571238
 20
17.46365624151155
 30
0.0
 10
26.87136686574366
 20
17.48158146766583
 30
0.0
 10
26.85177575278904
 20
17.49840411991996
 30
0.0
 10
26.83191953047256
 20
17.51406507641783
 30
0.0
 10
26.811860612123
 20
17.52852244728591
 30
0.0
 10
26.79166386118944
 20
17.54168609818184
 30
0.0
 10
26.77192322615507
 20
17.55334637932731
 30
0.0
 10
26.75894545621415
 20
17.55990841135229
 30
0.0
 10
26.75272325357439
 20
17.56305458308857
 30
0.0
  0
LINE
  5
143
330
1F
100
AcDbEntity
  8
0
  6
Continuous
 62
     7
370
    25
100
AcDbLine
 10
26.7527232536
 20
15.3865878486
 30
0.0
 11
26.7527232536
 21
17.1625641144
 31
0.0
  0
LINE
  5
144
330
1F
100
AcDbEntity
  8
0
  6
Continuous
 62
     7
370
    25
100
AcDbLine
 10
23.7827232536
 20
17.1625641144
 30
0.0
 11
23.7827232536
 21
15.3865878486
 31
0.0
  0
LINE
  5
145
330
1F
100
AcDbEntity
  8
0
  6
Continuous
 62
     7
370
    25
100
AcDbLine
 10
27.7869679382
 20
16.4281628239
 30
0.0
 11
27.7869679382
 21
16.4126510698
 31
0.0
  0
LINE
  5
146
330
1F
100
AcDbEntity
  8
0
  6
Continuous
 62
     7
370
    25
100
AcDbLine
 10
27.8840025705
 20
16.244563944
 30
0.0
 11
27.8974354158
 21
16.2368068063
 31
0.0
  0
LINE
  5
147
330
1F
100
AcDbEntity
  8
0
  6
Continuous
 62
     7
370
    25
100
AcDbLine
 10
27.9755720238
 20
16.2290608054
 30
0.0
 11
28.0964872834
 21
16.298863699
 31
0.0
  0
LINE
  5
148
330
1F
100
AcDbEntity
  8
0
  6
Continuous
 62
     7
370
    25
100
AcDbLine
 10
27.9402499814
 20
16.5695039685
 30
0.0
 11
27.8193347218
 21
16.4997010749
 31
0.0
  0
LINE
  5
149
330
1F
100
AcDbEntity
  8
0
  6
Continuous
 62
     7
370
    25
100
AcDbLine
 10
28.7794983717
 20
16.7966636065
 30
0.0
 11
28.7794983717
 21
16.8112010998
 31
0.0
  0
LINE
  5
14A
330
1F
100
AcDbEntity
  8
0
  6
Continuous
 62
     7
370
    25
100
AcDbLine
 10
26.7806519236
 20
15.1604256301
 30
0.0
 11
26.8160015164
 21
15.1400121101
 31
0.0
  0
LINE
  5
14B
330
1F
100
AcDbEntity
  8
0
  6
Continuous
 62
     7
370
    25
100
AcDbLine
 10
28.0586861297
 20
15.0168197114
 30
0.0
 11
28.2884958336
 21
15.1494860295
 31
0.0
  0
LWPOLYLINE
  5
14C
330
1F
100
AcDbEntity
  8
0
  6
Continuous
 62
     7
370
    25
100
AcDbPolyline
 90
      179
 70
   128
 43
0.0
 10
24.8750798515
 20
19.5488968626
 10
24.9247684795
 20
19.5414012363
 10
24.9748843865
 20
19.5349226021
 10
25.0253651343
 20
19.5294690315
 10
25.0761478301
 20
19.5250473189
 10
25.127169205
 20
19.5216629734
 10
25.1783656927
 20
19.5193202114
 10
25.2296735089
 20
19.5180219515
 10
25.2810287303
 20
19.5177698115
 10
25.3323673747
 20
19.5185641052
 10
25.3836254806
 20
19.5204038433
 10
25.4347391868
 20
19.5232867335
 10
25.4856448119
 20
19.5272091842
 10
25.5362789339
 20
19.5321663085
 10
25.5865784689
 20
19.5381519304
 10
25.6364807501
 20
19.5451585925
 10
25.6859236053
 20
19.5531775656
 10
25.7348454349
 20
19.5621988588
 10
25.7831852885
 20
19.5722112328
 10
25.8308829406
 20
19.5832022135
 10
25.8778789659
 20
19.5951581074
 10
25.9241148131
 20
19.608064019
 10
25.9695328781
 20
19.6219038691
 10
26.0140765758
 20
19.6366604149
 10
26.0576904102
 20
19.6523152718
 10
26.1003200438
 20
19.6688489356
 10
26.1419123655
 20
19.6862408076
 10
26.1824155565
 20
19.7044692195
 10
26.2217791547
 20
19.723511461
 10
26.2599541181
 20
19.7433438079
 10
26.2968928854
 20
19.7639415516
 10
26.3325494355
 20
19.7852790298
 10
26.3668793448
 20
19.8073296587
 10
26.3998398424
 20
19.830065966
 10
26.4313898638
 20
19.853459625
 10
26.4614901014
 20
19.8774814901
 10
26.4901030543
 20
19.9021016331
 10
26.5171930741
 20
19.9272893804
 10
26.5427264101
 20
19.9530133512
 10
26.5666712509
 20
19.9792414966
 10
26.5889977643
 20
20.0059411396
 10
26.6096781341
 20
20.0330790158
 10
26.6286865953
 20
20.0606213147
 10
26.6459994657
 20
20.0885337221
 10
26.6615951755
 20
20.1167814627
 10
26.6754542944
 20
20.1453293431
 10
26.6875595558
 20
20.1741417964
 10
26.697895878
 20
20.2031829258
 10
26.7064503831
 20
20.2324165496
 10
26.7132124134
 20
20.2618062465
 10
26.7181735442
 20
20.2913154005
 10
26.7213275946
 20
20.3209072469
 10
26.722670635
 20
20.3505449179
 10
26.7222009921
 20
20.3801914886
 10
26.719919251
 20
20.4098100233
 10
26.7158282546
 20
20.4393636207
 10
26.7099330997
 20
20.4688154609
 10
26.7022411309
 20
20.4981288505
 10
26.6927619314
 20
20.5272672687
 10
26.6815073112
 20
20.5561944126
 10
26.6684912922
 20
20.5848742426
 10
26.6537300905
 20
20.6132710273
 10
26.637242097
 20
20.6413493877
 10
26.6190478535
 20
20.6690743417
 10
26.5991700278
 20
20.6964113475
 10
26.5776333853
 20
20.7233263466
 10
26.5544647578
 20
20.7497858062
 10
26.5296930106
 20
20.7757567612
 10
26.5033490063
 20
20.801206855
 10
26.4754655662
 20
20.8261043798
 10
26.4460774295
 20
20.8504183166
 10
26.4152212103
 20
20.8741183732
 10
26.3829353515
 20
20.8971750222
 10
26.3492600772
 20
20.9195595379
 10
26.3142373428
 20
20.941244032
 10
26.2779107822
 20
20.9622014884
 10
26.2403256537
 20
20.9824057967
 10
26.2015287837
 20
21.0018317847
 10
26.1615685083
 20
21.0204552502
 10
26.120494613
 20
21.0382529907
 10
26.0783582708
 20
21.0552028322
 10
26.0352119782
 20
21.0712836576
 10
25.9911094904
 20
21.086475432
 10
25.9461057533
 20
21.1007592284
 10
25.9002568361
 20
21.114117251
 10
25.8536198609
 20
21.1265328573
 10
25.8062529314
 20
21.137990579
 10
25.758215061
 20
21.1484761413
 10
25.7095660989
 20
21.1579764804
 10
25.6603666557
 20
21.1664797601
 10
25.6106780276
 20
21.1739753864
 10
25.5605621206
 20
21.1804540206
 10
25.5100813729
 20
21.1859075912
 10
25.4592986771
 20
21.1903293038
 10
25.4082773022
 20
21.1937136493
 10
25.3570808144
 20
21.1960564113
 10
25.3057729983
 20
21.1973546712
 10
25.2544177769
 20
21.1976068112
 10
25.2030791324
 20
21.1968125175
 10
25.1518210265
 20
21.1949727794
 10
25.1007073204
 20
21.1920898892
 10
25.0498016953
 20
21.1881674385
 10
24.9991675733
 20
21.1832103142
 10
24.9488680382
 20
21.1772246923
 10
24.8989657571
 20
21.1702180301
 10
24.8495229019
 20
21.1621990571
 10
24.8006010722
 20
21.1531777639
 10
24.7522612186
 20
21.1431653899
 10
24.7045635665
 20
21.1321744092
 10
24.6575675413
 20
21.1202185153
 10
24.6113316941
 20
21.1073126037
 10
24.565913629
 20
21.0934727536
 10
24.5213699313
 20
21.0787162078
 10
24.477756097
 20
21.0630613509
 10
24.4351264633
 20
21.0465276871
 10
24.3935341416
 20
21.0291358151
 10
24.3530309507
 20
21.0109074032
 10
24.3136673524
 20
20.9918651617
 10
24.275492389
 20
20.9720328148
 10
24.2385536217
 20
20.9514350711
 10
24.2028970716
 20
20.9300975929
 10
24.1685671624
 20
20.908046964
 10
24.1356066647
 20
20.8853106567
 10
24.1040566434
 20
20.8619169977
 10
24.0739564057
 20
20.8378951326
 10
24.0453434529
 20
20.8132749896
 10
24.0182534331
 20
20.7880872423
 10
23.9927200971
 20
20.7623632715
 10
23.9687752563
 20
20.7361351261
 10
23.9464487429
 20
20.7094354831
 10
23.925768373
 20
20.6822976069
 10
23.9067599118
 20
20.654755308
 10
23.8894470415
 20
20.6268429006
 10
23.8738513317
 20
20.59859516
 10
23.8599922127
 20
20.5700472796
 10
23.8478869513
 20
20.5412348263
 10
23.8375506292
 20
20.5121936969
 10
23.828996124
 20
20.4829600731
 10
23.8222340937
 20
20.4535703762
 10
23.8172729629
 20
20.4240612222
 10
23.8141189126
 20
20.3944693758
 10
23.8127758722
 20
20.3648317048
 10
23.8132455151
 20
20.3351851341
 10
23.8155272561
 20
20.3055665994
 10
23.8196182525
 20
20.276013002
 10
23.8255134075
 20
20.2465611618
 10
23.8332053763
 20
20.2172477722
 10
23.8426845757
 20
20.188109354
 10
23.8539391959
 20
20.1591822101
 10
23.866955215
 20
20.1305023801
 10
23.8817164166
 20
20.1021055954
 10
23.8982044102
 20
20.074027235
 10
23.9163986537
 20
20.046302281
 10
23.9362764793
 20
20.0189652752
 10
23.9578131219
 20
19.9920502761
 10
23.9809817494
 20
19.9655908165
 10
24.0057534965
 20
19.9396198615
 10
24.0320975008
 20
19.9141697677
 10
24.059980941
 20
19.8892722429
 10
24.0893690776
 20
19.8649583061
 10
24.1202252969
 20
19.8412582495
 10
24.1525111557
 20
19.8182016005
 10
24.1861864299
 20
19.7958170848
 10
24.2212091643
 20
19.7741325907
 10
24.257535725
 20
19.7531751343
 10
24.2951208535
 20
19.732970826
 10
24.3339177235
 20
19.713544838
 10
24.3738779989
 20
19.6949213725
 10
24.4149518942
 20
19.677123632
 10
24.4570882364
 20
19.6601737905
 10
24.5002345289
 20
19.6440929651
 10
24.5443370168
 20
19.6289011907
 10
24.5893407538
 20
19.6146173943
 10
24.635189671
 20
19.6012593717
 10
24.6818266463
 20
19.5888437654
 10
24.7291935757
 20
19.5773860437
 10
24.7772314461
 20
19.5669004814
 10
24.8258804082
 20
19.5574001423
 10
24.8750798515
 20
19.5488968626
  0
ARC
  5
14D
330
1F
100
AcDbEntity
  8
0
  6
Continuous
 62
     7
370
    25
100
AcDbCircle
 10
24.2782700301
 20
20.3331918661
 30
0.0
 40
0.4955462101833978
100
AcDbArc
 50
175.8627131607
 51
184.2471019913
  0
ARC
  5
14E
330
1F
100
AcDbEntity
  8
0
  6
Continuous
 62
     7
370
    25
100
AcDbCircle
 10
26.2571845492
 20
20.3331923927
 30
0.0
 40
0.4955381478169902
100
AcDbArc
 50
355.9303197258
 51
4.2284606424
  0
LWPOLYLINE
  5
14F
330
1F
100
AcDbEntity
  8
0
  6
Continuous
 62
     7
370
    25
100
AcDbPolyline
 90
       54
 70
   128
 43
0.0
 10
24.8669841112
 20
16.3370965533
 10
24.9171312545
 20
16.3295256941
 10
24.9677055401
 20
16.3229697638
 10
25.018645351
 20
16.31743675
 10
25.069888625
 20
16.3129333936
 10
25.1213729301
 20
16.3094651814
 10
25.1730355404
 20
16.3070363389
 10
25.2248135132
 20
16.3056498251
 10
25.2766437648
 20
16.3053073295
 10
25.3284631482
 20
16.3060092691
 10
25.3802085294
 20
16.3077547889
 10
25.4318168646
 20
16.3105417622
 10
25.4832252771
 20
16.3143667935
 10
25.5343711335
 20
16.3192252226
 10
25.5851921205
 20
16.3251111302
 10
25.6356263206
 20
16.3320173452
 10
25.6856122875
 20
16.3399354536
 10
25.735089121
 20
16.3488558082
 10
25.7839965412
 20
16.3587675411
 10
25.8322749619
 20
16.3696585763
 10
25.8798655633
 20
16.3815156448
 10
25.9267103635
 20
16.3943243005
 10
25.9727522896
 20
16.4080689381
 10
26.0179352463
 20
16.4227328119
 10
26.0622041853
 20
16.4382980561
 10
26.1055051716
 20
16.4547457069
 10
26.1477854497
 20
16.4720557255
 10
26.1889935076
 20
16.4902070221
 10
26.2290791396
 20
16.5091774823
 10
26.2679935076
 20
16.5289439935
 10
26.3056892003
 20
16.5494824732
 10
26.3421202914
 20
16.5707678984
 10
26.3772423952
 20
16.5927743362
 10
26.4110127208
 20
16.615474975
 10
26.4433901244
 20
16.6388421577
 10
26.4743351589
 20
16.6628474149
 10
26.5038101227
 20
16.6874614999
 10
26.5317791051
 20
16.7126544243
 10
26.5582080301
 20
16.7383954943
 10
26.5830646982
 20
16.7646533485
 10
26.6063188254
 20
16.7913959956
 10
26.62794208
 20
16.8185908539
 10
26.6479081176
 20
16.8462047907
 10
26.6661926125
 20
16.8742041625
 10
26.6827732879
 20
16.9025548565
 10
26.6976299428
 20
16.9312223318
 10
26.7107444766
 20
16.9601716614
 10
26.7221009114
 20
16.989367575
 10
26.731685411
 20
17.0187745019
 10
26.7394862983
 20
17.0483566144
 10
26.745494069
 20
17.078077871
 10
26.7497014035
 20
17.1079020612
 10
26.752103176
 20
17.1377928486
 10
26.7527232536
 20
17.1625641144
  0
LWPOLYLINE
  5
150
330
1F
100
AcDbEntity
  8
0
  6
Continuous
 62
     7
370
    25
100
AcDbPolyline
 90
       39
 70
   128
 43
0.0
 10
23.7827232536
 20
17.1625641144
 10
23.7827500469
 20
17.1574144129
 10
23.7839659738
 20
17.1274997196
 10
23.7869896304
 20
17.0976277469
 10
23.7918173329
 20
17.0678348891
 10
23.7984431993
 20
17.0381574444
 10
23.8068591572
 20
17.0086315699
 10
23.8170549529
 20
16.9792932386
 10
23.8290181645
 20
16.9501781946
 10
23.8427342167
 20
16.9213219101
 10
23.8581863984
 20
16.8927595421
 10
23.8753558838
 20
16.8645258894
 10
23.8942217542
 20
16.8366553504
 10
23.9147610247
 20
16.809181881
 10
23.9369486713
 20
16.7821389534
 10
23.9607576617
 20
16.7555595153
 10
23.9861589883
 20
16.7294759496
 10
24.0131217036
 20
16.7039200351
 10
24.0416129576
 20
16.6789229078
 10
24.0715980382
 20
16.6545150227
 10
24.103040413
 20
16.6307261173
 10
24.1359017746
 20
16.6075851745
 10
24.1701420862
 20
16.585120388
 10
24.2057196314
 20
16.5633591278
 10
24.2425910645
 20
16.5423279066
 10
24.2807114632
 20
16.5220523477
 10
24.3200343837
 20
16.5025571536
 10
24.3605119172
 20
16.4838660764
 10
24.4020947479
 20
16.4660018882
 10
24.4447322136
 20
16.4489863538
 10
24.4883723671
 20
16.432840204
 10
24.5329620396
 20
16.4175831103
 10
24.5784469055
 20
16.4032336613
 10
24.6247715484
 20
16.3898093394
 10
24.671879529
 20
16.3773265002
 10
24.7197134533
 20
16.365800352
 10
24.7682150432
 20
16.3552449378
 10
24.8173252069
 20
16.3456731177
 10
24.8669841112
 20
16.3370965533
  0
SPLINE
  5
151
330
1F
100
AcDbEntity
  8
0
  6
Continuous
 62
     7
370
    25
100
AcDbSpline
210
0.0
220
0.0
230
1.0
 70
    11
 71
     3
 72
    44
 73
    40
 74
     0
 42
0.00000001
 43
0.00000001
 40
0.0
 40
0.0
 40
0.0
 40
0.0
 40
0.026828384317104
 40
0.0536568489742681
 40
0.0804843602019138
 40
0.1073119868157078
 40
0.1341573061540504
 40
0.1610025960821484
 40
0.187859718473934
 40
0.2147167121645633
 40
0.2415545791584241
 40
0.2683924190851233
 40
0.2952100576824614
 40
0.3220278123640577
 40
0.348855755450415
 40
0.3756837768927048
 40
0.402536505112529
 40
0.4293891513265177
 40
0.4562425066235443
 40
0.4830957469051974
 40
0.5099245215280213
 40
0.5367533278964669
 40
0.563570702199727
 40
0.5903882046885677
 40
0.6172251299283781
 40
0.6440620800005923
 40
0.6709190048091719
 40
0.6977758119438915
 40
0.7246219843421827
 40
0.7514680801574009
 40
0.7782895607010055
 40
0.8051111247872255
 40
0.8319324759059601
 40
0.8587539401325751
 40
0.8855999010418375
 40
0.9124458283078728
 40
0.9393028102145776
 40
0.9661596632562669
 40
1.0
 40
1.0
 40
1.0
 40
1.0
 10
25.56936030324453
 20
16.52729835036139
 30
0.0
 10
25.56954686234812
 20
16.53044016969862
 30
0.0
 10
25.56991998111394
 20
16.53672381778156
 30
0.0
 10
25.57283074336625
 20
16.54617270304437
 30
0.0
 10
25.5774272702297
 20
16.55529635091442
 30
0.0
 10
25.58368035242659
 20
16.56388721256875
 30
0.0
 10
25.59142627970057
 20
16.57167984597116
 30
0.0
 10
25.60039924881616
 20
16.57850454086024
 30
0.0
 10
25.61038114392662
 20
16.58413317120535
 30
0.0
 10
25.62104882953875
 20
16.58846472621795
 30
0.0
 10
25.63211576653395
 20
16.59132766972752
 30
0.0
 10
25.64325396273644
 20
16.59270404224666
 30
0.0
 10
25.654145702055
 20
16.5924943762264
 30
0.0
 10
25.66450266973802
 20
16.590763659045
 30
0.0
 10
25.67400882074737
 20
16.58749042347675
 30
0.0
 10
25.68244240128202
 20
16.58281420742123
 30
0.0
 10
25.6895178535699
 20
16.57679789227829
 30
0.0
 10
25.69509728934028
 20
16.56964903421473
 30
0.0
 10
25.69895895703366
 20
16.56151656280287
 30
0.0
 10
25.70106671093732
 20
16.55266205705788
 30
0.0
 10
25.7012899105459
 20
16.5433062473284
 30
0.0
 10
25.69970016884911
 20
16.53373279340568
 30
0.0
 10
25.69626760370812
 20
16.52420909515469
 30
0.0
 10
25.69115814407554
 20
16.51500386924339
 30
0.0
 10
25.68444327866321
 20
16.50640485916879
 30
0.0
 10
25.67636525250264
 20
16.49863684234208
 30
0.0
 10
25.66709503991346
 20
16.49197508797599
 30
0.0
 10
25.65693363110349
 20
16.48657250150758
 30
0.0
 10
25.64613585917958
 20
16.4826507036006
 30
0.0
 10
25.63502968559407
 20
16.48026363603656
 30
0.0
 10
25.62392149258167
 20
16.47954676468046
 30
0.0
 10
25.61312198295478
 20
16.48044668493166
 30
0.0
 10
25.60295552833694
 20
16.4829999033416
 30
0.0
 10
25.59367928147604
 20
16.4870592440839
 30
0.0
 10
25.5856079343972
 20
16.49256123743692
 30
0.0
 10
25.57890953269088
 20
16.49928348417716
 30
0.0
 10
25.57389422043046
 20
16.50707569293011
 30
0.0
 10
25.57015875174403
 20
16.51638834308563
 30
0.0
 10
25.5696461131984
 20
16.52339304065378
 30
0.0
 10
25.56936030324453
 20
16.52729835036139
 30
0.0
  0
LWPOLYLINE
  5
152
330
1F
100
AcDbEntity
  8
0
  6
Continuous
 62
     7
370
    25
100
AcDbPolyline
 90
      167
 70
   128
 43
0.0
 10
24.9263528731
 20
19.6545122408
 10
24.9726908948
 20
19.6475585081
 10
25.0194515476
 20
19.6416220295
 10
25.0665678472
 20
19.6367113089
 10
25.1139723
 20
19.632833381
 10
25.1615969996
 20
19.6299938008
 10
25.209373724
 20
19.6281966359
 10
25.2572340335
 20
19.6274444609
 10
25.3051093687
 20
19.6277383531
 10
25.3529311487
 20
19.6290778916
 10
25.4006308692
 20
19.6314611575
 10
25.4481402008
 20
19.6348847369
 10
25.4953910869
 20
19.6393437253
 10
25.542315841
 20
19.6448317355
 10
25.5888472439
 20
19.6513409059
 10
25.6349186397
 20
19.6588619121
 10
25.6804640317
 20
19.6673839804
 10
25.7254181765
 20
19.676894903
 10
25.7697166777
 20
19.6873810556
 10
25.8132960782
 20
19.6988274169
 10
25.8560939509
 20
19.71121759
 10
25.8980489882
 20
19.7245338263
 10
25.93910109
 20
19.7387570503
 10
25.9791914495
 20
19.7538668873
 10
26.0182626376
 20
19.7698416927
 10
26.0562586853
 20
19.7866585827
 10
26.0931251636
 20
19.8042934673
 10
26.1288092616
 20
19.8227210847
 10
26.1632598623
 20
19.8419150375
 10
26.1964276153
 20
19.8618478305
 10
26.2282650083
 20
19.8824909103
 10
26.2587264345
 20
19.9038147057
 10
26.2877682581
 20
19.9257886707
 10
26.3153488771
 20
19.9483813278
 10
26.3414287825
 20
19.9715603132
 10
26.3659706151
 20
19.9952924232
 10
26.3889392189
 20
20.0195436619
 10
26.4103016917
 20
20.0442792895
 10
26.4300274318
 20
20.0694638725
 10
26.4480881824
 20
20.0950613343
 10
26.4644580716
 20
20.1210350066
 10
26.4791136497
 20
20.1473476826
 10
26.4920339228
 20
20.1739616694
 10
26.5032003826
 20
20.2008388429
 10
26.5125970333
 20
20.2279407018
 10
26.5202104143
 20
20.2552284229
 10
26.5260296195
 20
20.2826629167
 10
26.530046313
 20
20.3102048837
 10
26.5322547408
 20
20.3378148703
 10
26.5326517395
 20
20.3654533254
 10
26.5312367403
 20
20.3930806572
 10
26.5280117702
 20
20.4206572898
 10
26.5229814489
 20
20.4481437199
 10
26.5161529824
 20
20.4755005735
 10
26.5075361523
 20
20.5026886622
 10
26.4971433022
 20
20.5296690393
 10
26.4849893197
 20
20.5564030557
 10
26.4710916152
 20
20.5828524151
 10
26.4554700972
 20
20.608979229
 10
26.4381471433
 20
20.6347460712
 10
26.4191475685
 20
20.6601160308
 10
26.3984985893
 20
20.6850527656
 10
26.3762297855
 20
20.709520554
 10
26.3523730567
 20
20.7334843461
 10
26.3269625775
 20
20.7569098139
 10
26.3000347481
 20
20.7797634009
 10
26.2716281425
 20
20.8020123693
 10
26.2417834528
 20
20.8236248478
 10
26.2105434313
 20
20.8445698767
 10
26.1779528289
 20
20.8648174524
 10
26.1440583315
 20
20.8843385705
 10
26.1089084924
 20
20.9031052672
 10
26.0725536637
 20
20.9210906594
 10
26.0350459231
 20
20.9382689831
 10
25.9964390002
 20
20.9546156306
 10
25.956788199
 20
20.9701071855
 10
25.9161503189
 20
20.9847214562
 10
25.8745835732
 20
20.998437508
 10
25.832147506
 20
21.0112356928
 10
25.7889029066
 20
21.0230976772
 10
25.7449117222
 20
21.0340064691
 10
25.70023697
 20
21.0439464418
 10
25.6549426461
 20
21.0529033563
 10
25.6090936341
 20
21.0608643819
 10
25.5627556123
 20
21.0678181146
 10
25.5159949595
 20
21.0737545932
 10
25.4688786599
 20
21.0786653138
 10
25.4214742071
 20
21.0825432417
 10
25.3738495076
 20
21.0853828219
 10
25.3260727832
 20
21.0871799868
 10
25.2782124737
 20
21.0879321618
 10
25.2303371384
 20
21.0876382696
 10
25.1825153584
 20
21.0862987311
 10
25.1348156379
 20
21.0839154652
 10
25.0873063063
 20
21.0804918858
 10
25.0400554202
 20
21.0760328974
 10
24.9931306661
 20
21.0705448872
 10
24.9465992633
 20
21.0640357168
 10
24.9005278674
 20
21.0565147106
 10
24.8549824754
 20
21.0479926423
 10
24.8100283306
 20
21.0384817197
 10
24.7657298294
 20
21.0279955671
 10
24.7221504289
 20
21.0165492058
 10
24.6793525563
 20
21.0041590326
 10
24.6373975189
 20
20.9908427964
 10
24.5963454172
 20
20.9766195724
 10
24.5562550577
 20
20.9615097354
 10
24.5171838695
 20
20.94553493
 10
24.4791878218
 20
20.92871804
 10
24.4423213435
 20
20.9110831554
 10
24.4066372455
 20
20.892655538
 10
24.3721866449
 20
20.8734615852
 10
24.3390188919
 20
20.8535287922
 10
24.3071814989
 20
20.8328857124
 10
24.2767200727
 20
20.811561917
 10
24.247678249
 20
20.789587952
 10
24.22009763
 20
20.7669952949
 10
24.1940177246
 20
20.7438163095
 10
24.169475892
 20
20.7200841995
 10
24.1465072882
 20
20.6958329608
 10
24.1251448155
 20
20.6710973332
 10
24.1054190753
 20
20.6459127502
 10
24.0873583247
 20
20.6203152884
 10
24.0709884355
 20
20.5943416161
 10
24.0563328574
 20
20.5680289401
 10
24.0434125844
 20
20.5414149533
 10
24.0322461246
 20
20.5145377798
 10
24.0228494739
 20
20.4874359209
 10
24.0152360929
 20
20.4601481998
 10
24.0094168876
 20
20.432713706
 10
24.0054001942
 20
20.405171739
 10
24.0031917663
 20
20.3775617524
 10
24.0027947677
 20
20.3499232973
 10
24.0042097669
 20
20.3222959655
 10
24.007434737
 20
20.2947193329
 10
24.0124650582
 20
20.2672329028
 10
24.0192935248
 20
20.2398760492
 10
24.0279103549
 20
20.2126879605
 10
24.038303205
 20
20.1857075834
 10
24.0504571875
 20
20.158973567
 10
24.0643548919
 20
20.1325242076
 10
24.0799764099
 20
20.1063973936
 10
24.0972993638
 20
20.0806305515
 10
24.1162989387
 20
20.0552605919
 10
24.1369479178
 20
20.0303238571
 10
24.1592167217
 20
20.0058560687
 10
24.1830734505
 20
19.9818922766
 10
24.2084839297
 20
19.9584668088
 10
24.235411759
 20
19.9356132218
 10
24.2638183646
 20
19.9133642534
 10
24.2936630543
 20
19.8917517749
 10
24.3249030759
 20
19.870806746
 10
24.3574936782
 20
19.8505591703
 10
24.3913881757
 20
19.8310380522
 10
24.4265380147
 20
19.8122713555
 10
24.4628928435
 20
19.7942859633
 10
24.5004005841
 20
19.7771076396
 10
24.539007507
 20
19.7607609921
 10
24.5786583082
 20
19.7452694372
 10
24.6192961883
 20
19.7306551665
 10
24.6608629339
 20
19.7169391147
 10
24.7032990011
 20
19.7041409299
 10
24.7465436006
 20
19.6922789455
 10
24.7905347849
 20
19.6813701536
 10
24.8352095371
 20
19.6714301809
 10
24.8805038611
 20
19.6624732664
 10
24.9263528731
 20
19.6545122408
  0
LWPOLYLINE
  5
153
330
1F
100
AcDbEntity
  8
0
  6
Continuous
 62
     7
370
    25
100
AcDbPolyline
 90
       82
 70
   128
 43
0.0
 10
26.5307447793
 20
20.3168612708
 10
26.5280117702
 20
20.3390032086
 10
26.5229814489
 20
20.3664896387
 10
26.5161529824
 20
20.3938464923
 10
26.5075361523
 20
20.421034581
 10
26.4971433022
 20
20.4480149581
 10
26.4849893197
 20
20.4747489745
 10
26.4710916152
 20
20.5011983339
 10
26.4554700972
 20
20.5273251479
 10
26.4381471433
 20
20.55309199
 10
26.4191475685
 20
20.5784619496
 10
26.3984985893
 20
20.6033986844
 10
26.3762297855
 20
20.6278664728
 10
26.3523730567
 20
20.6518302649
 10
26.3269625775
 20
20.6752557328
 10
26.3000347481
 20
20.6981093197
 10
26.2716281425
 20
20.7203582881
 10
26.2417834528
 20
20.7419707666
 10
26.2105434313
 20
20.7629157955
 10
26.1779528289
 20
20.7831633712
 10
26.1440583315
 20
20.8026844893
 10
26.1089084924
 20
20.821451186
 10
26.0725536637
 20
20.8394365782
 10
26.0350459231
 20
20.8566149019
 10
25.9964390002
 20
20.8729615494
 10
25.956788199
 20
20.8884531043
 10
25.9161503189
 20
20.903067375
 10
25.8745835732
 20
20.9167834268
 10
25.832147506
 20
20.9295816116
 10
25.7889029066
 20
20.941443596
 10
25.7449117222
 20
20.9523523879
 10
25.70023697
 20
20.9622923606
 10
25.6549426461
 20
20.9712492751
 10
25.6090936341
 20
20.9792103007
 10
25.5627556123
 20
20.9861640334
 10
25.5159949595
 20
20.992100512
 10
25.4688786599
 20
20.9970112326
 10
25.4214742071
 20
21.0008891605
 10
25.3738495076
 20
21.0037287407
 10
25.3260727832
 20
21.0055259056
 10
25.2782124737
 20
21.0062780806
 10
25.2303371384
 20
21.0059841884
 10
25.1825153584
 20
21.0046446499
 10
25.1348156379
 20
21.002261384
 10
25.0873063063
 20
20.9988378047
 10
25.0400554202
 20
20.9943788162
 10
24.9931306661
 20
20.988890806
 10
24.9465992633
 20
20.9823816356
 10
24.9005278674
 20
20.9748606294
 10
24.8549824754
 20
20.9663385611
 10
24.8100283306
 20
20.9568276385
 10
24.7657298294
 20
20.9463414859
 10
24.7221504289
 20
20.9348951246
 10
24.6793525563
 20
20.9225049515
 10
24.6373975189
 20
20.9091887152
 10
24.5963454172
 20
20.8949654913
 10
24.5562550577
 20
20.8798556542
 10
24.5171838695
 20
20.8638808488
 10
24.4791878218
 20
20.8470639588
 10
24.4423213435
 20
20.8294290742
 10
24.4066372455
 20
20.8110014568
 10
24.3721866449
 20
20.791807504
 10
24.3390188919
 20
20.771874711
 10
24.3071814989
 20
20.7512316313
 10
24.2767200727
 20
20.7299078358
 10
24.247678249
 20
20.7079338708
 10
24.22009763
 20
20.6853412137
 10
24.1940177246
 20
20.6621622283
 10
24.169475892
 20
20.6384301183
 10
24.1465072882
 20
20.6141788796
 10
24.1251448155
 20
20.589443252
 10
24.1054190753
 20
20.564258669
 10
24.0873583247
 20
20.5386612073
 10
24.0709884355
 20
20.5126875349
 10
24.0563328574
 20
20.486374859
 10
24.0434125844
 20
20.4597608721
 10
24.0322461246
 20
20.4328836986
 10
24.0228494739
 20
20.4057818397
 10
24.0152360929
 20
20.3784941187
 10
24.0094168876
 20
20.3510596248
 10
24.0054001942
 20
20.3235176578
 10
24.0047017278
 20
20.3168612708
  0
ARC
  5
154
330
1F
100
AcDbEntity
  8
0
  6
Continuous
 62
     7
370
    25
100
AcDbCircle
 10
24.304442511
 20
15.3890156925
 30
0.0
 40
0.521724906437972
100
AcDbArc
 50
180.2666265533
 51
204.6373231835
  0
LWPOLYLINE
  5
155
330
1F
100
AcDbEntity
  8
0
  6
Continuous
 62
     7
370
    25
100
AcDbPolyline
 90
       84
 70
   128
 43
0.0
 10
26.7527232536
 20
15.3865878486
 10
26.7522339257
 20
15.3645821705
 10
26.7499992651
 20
15.3346870642
 10
26.7459586795
 20
15.3048551909
 10
26.7401170917
 20
15.2751228963
 10
26.7324816189
 20
15.2455264046
 10
26.7230615636
 20
15.2161017745
 10
26.7118684028
 20
15.1868848554
 10
26.6989157736
 20
15.1579112437
 10
26.6842194567
 20
15.1292162392
 10
26.6677973574
 20
15.1008348023
 10
26.6496694835
 20
15.0728015115
 10
26.6298579209
 20
15.045150521
 10
26.6083868071
 20
15.0179155194
 10
26.5852823013
 20
14.9911296881
 10
26.5605725527
 20
14.9648256618
 10
26.5342876664
 20
14.9390354876
 10
26.5064596665
 20
14.9137905871
 10
26.477122457
 20
14.8891217172
 10
26.446311781
 20
14.8650589332
 10
26.4140651763
 20
14.8416315518
 10
26.3804219306
 20
14.8188681158
 10
26.3454230329
 20
14.7967963587
 10
26.3091111241
 20
14.7754431718
 10
26.2715304446
 20
14.7548345705
 10
26.2327267806
 20
14.7349956632
 10
26.1927474085
 20
14.7159506207
 10
26.151641037
 20
14.6977226463
 10
26.1094577477
 20
14.6803339481
 10
26.0662489347
 20
14.6638057114
 10
26.0220672411
 20
14.6481580734
 10
25.9769664956
 20
14.6334100984
 10
25.9310016464
 20
14.6195797545
 10
25.8842286947
 20
14.6066838917
 10
25.8367046261
 20
14.5947382218
 10
25.7884873413
 20
14.5837572987
 10
25.7396355856
 20
14.573754501
 10
25.6902088775
 20
14.5647420155
 10
25.6402674358
 20
14.5567308225
 10
25.5898721063
 20
14.5497306825
 10
25.5390842881
 20
14.543750124
 10
25.4879658583
 20
14.5387964335
 10
25.4365790968
 20
14.5348756462
 10
25.3849866104
 20
14.531992539
 10
25.3332512567
 20
14.5301506246
 10
25.2814360672
 20
14.5293521471
 10
25.2296041708
 20
14.5295980791
 10
25.1778187166
 20
14.5308881212
 10
25.1261427973
 20
14.5332207016
 10
25.0746393719
 20
14.5365929785
 10
25.0233711895
 20
14.5410008431
 10
24.9724007124
 20
14.5464389253
 10
24.9217900404
 20
14.5529005995
 10
24.8716008347
 20
14.5603779932
 10
24.8218942431
 20
14.5688619963
 10
24.7727308255
 20
14.5783422724
 10
24.72417048
 20
14.5888072713
 10
24.6762723697
 20
14.6002442429
 10
24.6290948513
 20
14.6126392531
 10
24.5826954032
 20
14.6259772004
 10
24.537130556
 20
14.6402418346
 10
24.4924558235
 20
14.6554157765
 10
24.4487256349
 20
14.6714805389
 10
24.4059932688
 20
14.6884165494
 10
24.3643107879
 20
14.7062031741
 10
24.3237289759
 20
14.7248187428
 10
24.2842972756
 20
14.7442405751
 10
24.2460637283
 20
14.7644450086
 10
24.2090749158
 20
14.7854074274
 10
24.1733759032
 20
14.8071022919
 10
24.1390101843
 20
14.8295031703
 10
24.1060196284
 20
14.8525827706
 10
24.0744444294
 20
14.8763129737
 10
24.0443230569
 20
14.9006648683
 10
24.015692209
 20
14.9256087851
 10
23.9885867681
 20
14.9511143339
 10
23.963039758
 20
14.9771504401
 10
23.9390823037
 20
15.0036853827
 10
23.9167435938
 20
15.030686833
 10
23.8960508445
 20
15.0581218939
 10
23.8770292668
 20
15.0859571399
 10
23.8597020354
 20
15.1141586581
 10
23.844090261
 20
15.1426920893
 10
23.8302129641
 20
15.17152267
  0
SPLINE
  5
156
330
1F
100
AcDbEntity
  8
0
  6
Continuous
 62
     7
370
    25
100
AcDbSpline
210
0.0
220
0.0
230
1.0
 70
    11
 71
     3
 72
    44
 73
    40
 74
     0
 42
0.00000001
 43
0.00000001
 40
0.0
 40
0.0
 40
0.0
 40
0.0
 40
0.026828384317104
 40
0.0536568489742682
 40
0.0804843602019136
 40
0.1073119868157072
 40
0.1341573061540499
 40
0.1610025960821477
 40
0.1878597184739336
 40
0.214716712164562
 40
0.2415545791584241
 40
0.2683924190851239
 40
0.2952100576824616
 40
0.3220278123640557
 40
0.3488557554504135
 40
0.3756837768927022
 40
0.4025365051125273
 40
0.4293891513265167
 40
0.456242506623543
 40
0.4830957469051961
 40
0.50992452152802
 40
0.5367533278964653
 40
0.5635707021997255
 40
0.5903882046885657
 40
0.6172251299283766
 40
0.6440620800005915
 40
0.6709190048091718
 40
0.6977758119438896
 40
0.7246219843421811
 40
0.7514680801574012
 40
0.778289560701006
 40
0.8051111247872248
 40
0.8319324759059598
 40
0.8587539401325756
 40
0.885599901041838
 40
0.9124458283078738
 40
0.9393028102145777
 40
0.9661596632562668
 40
0.9999999999999999
 40
0.9999999999999999
 40
0.9999999999999999
 40
0.9999999999999999
 10
25.70570203537453
 20
14.36331421648282
 30
0.0
 10
25.70552008384186
 20
14.36016206497373
 30
0.0
 10
25.70515618023165
 20
14.35385775251615
 30
0.0
 10
25.70231401452636
 20
14.34425504405103
 30
0.0
 10
25.69782027358496
 20
14.33490090557515
 30
0.0
 10
25.69169496449333
 20
14.32602352121558
 30
0.0
 10
25.6840880053271
 20
14.31791926105817
 30
0.0
 10
25.67525019872032
 20
14.31079147321703
 30
0.0
 10
25.66538405907786
 20
14.30490326892038
 30
0.0
 10
25.65480223991405
 20
14.30037916409839
 30
0.0
 10
25.64377967741341
 20
14.29741671373099
 30
0.0
 10
25.63264332084133
 20
14.29603621596278
 30
0.0
 10
25.62170823416616
 20
14.29634308555226
 30
0.0
 10
25.61127143013903
 20
14.29825283043468
 30
0.0
 10
25.60165618848629
 20
14.3017706945278
 30
0.0
 10
25.59309874792546
 20
14.3067246584685
 30
0.0
 10
25.58589863471942
 20
14.31302051744371
 30
0.0
 10
25.58020776752985
 20
14.32041925306643
 30
0.0
 10
25.57626246824569
 20
14.32873926276799
 30
0.0
 10
25.57410621219677
 20
14.3377025313535
 30
0.0
 10
25.57387822541266
 20
14.34706907600627
 30
0.0
 10
25.57550418170364
 20
14.35656132110593
 30
0.0
 10
25.57901281538097
 20
14.36591444071466
 30
0.0
 10
25.58422679770664
 20
14.37488528142637
 30
0.0
 10
25.59106433414402
 20
14.38320920987188
 30
0.0
 10
25.59926812444132
 20
14.39069520897193
 30
0.0
 10
25.60865215265214
 20
14.39710173936314
 30
0.0
 10
25.61890326150799
 20
14.40230317943418
 30
0.0
 10
25.62975351892426
 20
14.40610728210926
 30
0.0
 10
25.64087121690938
 20
14.40846850697232
 30
0.0
 10
25.65194470071782
 20
14.40926321141385
 30
0.0
 10
25.66266965956953
 20
14.40853046632625
 30
0.0
 10
25.67272653789522
 20
14.40622296547629
 30
0.0
 10
25.68187184425717
 20
14.40245725010925
 30
0.0
 10
25.68980387465955
 20
14.39726766515344
 30
0.0
 10
25.69636945908099
 20
14.39084325235629
 30
0.0
 10
25.70127518475025
 20
14.38329678425813
 30
0.0
 10
25.70492304496177
 20
14.37418059029095
 30
0.0
 10
25.7054231905723
 20
14.36720390730033
 30
0.0
 10
25.70570203537453
 20
14.36331421648282
 30
0.0
  0
LWPOLYLINE
  5
157
330
1F
100
AcDbEntity
  8
0
  6
Continuous
 62
     7
370
    25
100
AcDbPolyline
 90
        3
 70
   128
 43
0.0
 10
26.7514445306
 20
12.1803914005
 10
26.7522339257
 20
12.193954198
 10
26.7527232536
 20
12.215959876
  0
LWPOLYLINE
  5
158
330
1F
100
AcDbEntity
  8
0
  6
Continuous
 62
     7
370
    25
100
AcDbPolyline
 90
        3
 70
   128
 43
0.0
 10
23.7827232536
 20
12.215959876
 10
23.7827865685
 20
12.2080436372
 10
23.7840663057
 20
12.1795080953
  0
LWPOLYLINE
  5
159
330
1F
100
AcDbEntity
  8
0
  6
Continuous
 62
     7
370
    25
100
AcDbPolyline
 90
       38
 70
   128
 43
0.0
 10
25.6931428699
 20
14.3342246819
 10
25.697647898
 20
14.3428143669
 10
25.7005021947
 20
14.3516854407
 10
25.701623647
 20
14.3605826988
 10
25.7009799929
 20
14.3692501831
 10
25.698589749
 20
14.3774385459
 10
25.6945216784
 20
14.3849122229
 10
25.688892812
 20
14.3914562102
 10
25.681865082
 20
14.3968822489
 10
25.6736406635
 20
14.401034242
 10
25.664456158
 20
14.4037927441
 10
25.654575787
 20
14.4050783982
 10
25.6442837908
 20
14.4048542182
 10
25.6338762514
 20
14.4031266536
 10
25.6236525747
 20
14.399945403
 10
25.6139068773
 20
14.3954019854
 10
25.6049195252
 20
14.3896271066
 10
25.5969490681
 20
14.3827868994
 10
25.5902248016
 20
14.375078144
 10
25.5849401705
 20
14.3667226073
 10
25.5812472041
 20
14.3579606628
 10
25.5792521424
 20
14.3490443759
 10
25.5790123795
 20
14.3402302517
 10
25.5805348131
 20
14.3317718567
 10
25.5837756455
 20
14.3239125234
 10
25.5886416439
 20
14.3168783506
 10
25.5949928222
 20
14.3108716986
 10
25.6026464688
 20
14.3060653678
 10
25.6113824021
 20
14.3025976276
 10
25.6209493053
 20
14.3005682386
 10
25.6310719558
 20
14.3000355827
 10
25.6414591436
 20
14.3010149833
 10
25.6518120481
 20
14.3034782649
 10
25.6618328352
 20
14.3073545634
 10
25.671233225
 20
14.3125323647
 10
25.6797427853
 20
14.3188627128
 10
25.6871167118
 20
14.3261634953
 10
25.6931428699
 20
14.3342246819
  0
LINE
  5
15A
330
1F
100
AcDbEntity
  8
0
  6
Continuous
 62
     7
370
    25
100
AcDbLine
 10
25.6406547035
 20
14.3894236519
 30
0.0
 11
25.6027097639
 21
14.3656445837
 31
0.0
  0
LINE
  5
15B
330
1F
100
AcDbEntity
  8
0
  6
Continuous
 62
     7
370
    25
100
AcDbLine
 10
25.6023224962
 20
14.3288165513
 30
0.0
 11
25.6027097639
 21
14.3656445837
 31
0.0
  0
LINE
  5
15C
330
1F
100
AcDbEntity
  8
0
  6
Continuous
 62
     7
370
    25
100
AcDbLine
 10
25.6398801681
 20
14.3157675871
 30
0.0
 11
25.6023224962
 21
14.3288165513
 31
0.0
  0
LINE
  5
15D
330
1F
100
AcDbEntity
  8
0
  6
Continuous
 62
     7
370
    25
100
AcDbLine
 10
25.6398801681
 20
14.3157675871
 30
0.0
 11
25.6778251077
 21
14.3395466553
 31
0.0
  0
LINE
  5
15E
330
1F
100
AcDbEntity
  8
0
  6
Continuous
 62
     7
370
    25
100
AcDbLine
 10
25.6782123754
 20
14.3763746877
 30
0.0
 11
25.6778251077
 21
14.3395466553
 31
0.0
  0
LINE
  5
15F
330
1F
100
AcDbEntity
  8
0
  6
Continuous
 62
     7
370
    25
100
AcDbLine
 10
25.6782123754
 20
14.3763746877
 30
0.0
 11
25.6406547035
 21
14.3894236519
 31
0.0
  0
LINE
  5
160
330
1F
100
AcDbEntity
  8
0
  6
Continuous
 62
     7
370
    25
100
AcDbLine
 10
25.6581652237
 20
14.3833398309
 30
0.0
 11
25.6778251077
 21
14.3395466553
 31
0.0
  0
LINE
  5
161
330
1F
100
AcDbEntity
  8
0
  6
Continuous
 62
     7
370
    25
100
AcDbLine
 10
25.6173017328
 20
14.3660619523
 30
0.0
 11
25.6083427705
 21
14.3691746367
 31
0.0
  0
LINE
  5
162
330
1F
100
AcDbEntity
  8
0
  6
Continuous
 62
     7
370
    25
100
AcDbLine
 10
25.6173017328
 20
14.3660619523
 30
0.0
 11
25.6398801681
 21
14.3157675871
 31
0.0
  0
LINE
  5
163
330
1F
100
AcDbEntity
  8
0
  6
Continuous
 62
     7
370
    25
100
AcDbLine
 10
25.6173017328
 20
14.3660619523
 30
0.0
 11
25.6496136658
 21
14.3863109675
 31
0.0
  0
LWPOLYLINE
  5
164
330
1F
100
AcDbEntity
  8
0
  6
Continuous
 62
     7
370
    25
100
AcDbPolyline
 90
       38
 70
   128
 43
0.0
 10
25.6969618816
 20
16.5479763136
 10
25.6955243417
 20
16.5564606913
 10
25.6923636449
 20
16.5643608407
 10
25.6875707184
 20
16.5714494889
 10
25.6812834463
 20
16.5775227083
 10
25.6736827018
 20
16.5824057836
 10
25.6649871444
 20
16.5859582375
 10
25.6554469297
 20
16.5880778724
 10
25.645336512
 20
16.5887037103
 10
25.6349467499
 20
16.5878177469
 10
25.6245765378
 20
16.5854454699
 10
25.6145242078
 20
16.5816551252
 10
25.6050789472
 20
16.5765557542
 10
25.5965124789
 20
16.5702940565
 10
25.5890712446
 20
16.5630501698
 10
25.582969315
 20
16.5550324875
 10
25.5783822317
 20
16.5464716638
 10
25.5754419566
 20
16.5376139778
 10
25.574233076
 20
16.5287142492
 10
25.5747903673
 20
16.5200285069
 10
25.5770977982
 20
16.5118066239
 10
25.5810889882
 20
16.5042851289
 10
25.5866491179
 20
16.4976804014
 10
25.5936182326
 20
16.4921824476
 10
25.6017958434
 20
16.4879494335
 10
25.6109466955
 20
16.4851031353
 10
25.6208075355
 20
16.4837254357
 10
25.631094685
 20
16.4838559687
 10
25.6415122013
 20
16.4854909791
 10
25.6517603916
 20
16.4885834306
 10
25.661544434
 20
16.493044359
 10
25.6705828595
 20
16.4987454315
 10
25.6786156491
 20
16.5055226386
 10
25.6854117139
 20
16.5131810125
 10
25.6907755436
 20
16.5215002356
 10
25.6945528305
 20
16.5302409791
 10
25.6966349091
 20
16.5391517877
 10
25.6969618816
 20
16.5479763136
  0
LINE
  5
165
330
1F
100
AcDbEntity
  8
0
  6
Continuous
 62
     7
370
    25
100
AcDbLine
 10
25.6118216871
 20
16.5634544375
 30
0.0
 11
25.5920593804
 21
16.5277540715
 31
0.0
  0
LINE
  5
166
330
1F
100
AcDbEntity
  8
0
  6
Continuous
 62
     7
370
    25
100
AcDbLine
 10
25.615864014
 20
16.5004521822
 30
0.0
 11
25.5920593804
 21
16.5277540715
 31
0.0
  0
LINE
  5
167
330
1F
100
AcDbEntity
  8
0
  6
Continuous
 62
     7
370
    25
100
AcDbLine
 10
25.6594309541
 20
16.5088506589
 30
0.0
 11
25.615864014
 21
16.5004521822
 31
0.0
  0
LINE
  5
168
330
1F
100
AcDbEntity
  8
0
  6
Continuous
 62
     7
370
    25
100
AcDbLine
 10
25.6594309541
 20
16.5088506589
 30
0.0
 11
25.6791932608
 21
16.5445510249
 31
0.0
  0
LINE
  5
169
330
1F
100
AcDbEntity
  8
0
  6
Continuous
 62
     7
370
    25
100
AcDbLine
 10
25.6553886272
 20
16.5718529142
 30
0.0
 11
25.6791932608
 21
16.5445510249
 31
0.0
  0
LINE
  5
16A
330
1F
100
AcDbEntity
  8
0
  6
Continuous
 62
     7
370
    25
100
AcDbLine
 10
25.6553886272
 20
16.5718529142
 30
0.0
 11
25.6118216871
 21
16.5634544375
 31
0.0
  0
LINE
  5
16B
330
1F
100
AcDbEntity
  8
0
  6
Continuous
 62
     7
370
    25
100
AcDbLine
 10
25.5985646495
 20
16.5395057607
 30
0.0
 11
25.615864014
 21
16.5004521822
 31
0.0
  0
LINE
  5
16C
330
1F
100
AcDbEntity
  8
0
  6
Continuous
 62
     7
370
    25
100
AcDbLine
 10
25.6371337986
 20
16.5591868267
 30
0.0
 11
25.6594309541
 21
16.5088506589
 31
0.0
  0
LINE
  5
16D
330
1F
100
AcDbEntity
  8
0
  6
Continuous
 62
     7
370
    25
100
AcDbLine
 10
25.6371337986
 20
16.5591868267
 30
0.0
 11
25.6428021265
 21
16.569426592
 31
0.0
  0
LINE
  5
16E
330
1F
100
AcDbEntity
  8
0
  6
Continuous
 62
     7
370
    25
100
AcDbLine
 10
25.6371337986
 20
16.5591868267
 30
0.0
 11
25.6061533592
 21
16.5532146722
 31
0.0
  0
ARC
  5
16F
330
1F
100
AcDbEntity
  8
0
  6
Continuous
 62
     7
370
    25
100
AcDbCircle
 10
26.9375826512
 20
16.860621887
 30
0.0
 40
0.1673290013586423
100
AcDbArc
 50
300.0369485112
 51
311.948258355
  0
LWPOLYLINE
  5
170
330
1F
100
AcDbEntity
  8
0
  6
Continuous
 62
     7
370
    25
100
AcDbPolyline
 90
       92
 70
   128
 43
0.0
 10
23.7827232536
 20
17.1625641144
 10
23.7829494263
 20
17.1476026507
 10
23.7847583945
 20
17.1176979513
 10
23.7883741269
 20
17.0878479145
 10
23.7937922184
 20
17.0580889079
 10
23.8010060678
 20
17.0284571882
 10
23.8100068862
 20
16.9989888572
 10
23.8207837074
 20
16.9697198174
 10
23.8333234015
 20
16.9406857287
 10
23.847610691
 20
16.9119219646
 10
23.8636281688
 20
16.8834635693
 10
23.8813563202
 20
16.8553452151
 10
23.9007735462
 20
16.8276011598
 10
23.9218561898
 20
16.8002652053
 10
23.9445785652
 20
16.7733706561
 10
23.9689129885
 20
16.7469502793
 10
23.994829812
 20
16.7210362639
 10
24.0222974602
 20
16.6956601821
 10
24.0512824678
 20
16.6708529509
 10
24.0817495212
 20
16.646644794
 10
24.1136615008
 20
16.6230652053
 10
24.1469795269
 20
16.6001429129
 10
24.1816630067
 20
16.5779058441
 10
24.2176696835
 20
16.5563810914
 10
24.2549556889
 20
16.5355948793
 10
24.2934755955
 20
16.5155725327
 10
24.3331824729
 20
16.4963384456
 10
24.3740279442
 20
16.4779160519
 10
24.4159622456
 20
16.4603277963
 10
24.4589342866
 20
16.4435951076
 10
24.5028917123
 20
16.4277383718
 10
24.5477809675
 20
16.4127769081
 10
24.5935473615
 20
16.3987289445
 10
24.6401351349
 20
16.3856115964
 10
24.6874875278
 20
16.3734408453
 10
24.7355468485
 20
16.3622315194
 10
24.7842545442
 20
16.3519972754
 10
24.8335512721
 20
16.3427505823
 10
24.8833769716
 20
16.3345027056
 10
24.9336709379
 20
16.3272636943
 10
24.9843718954
 20
16.3210423678
 10
25.035418073
 20
16.315846306
 10
25.0867472786
 20
16.3116818394
 10
25.1382969756
 20
16.3085540417
 10
25.1900043586
 20
16.3064667238
 10
25.24180643
 20
16.3054224287
 10
25.2936400771
 20
16.3054224287
 10
25.3454421486
 20
16.3064667238
 10
25.3971495316
 20
16.3085540417
 10
25.4486992285
 20
16.3116818394
 10
25.5000284342
 20
16.315846306
 10
25.5510746117
 20
16.3210423678
 10
25.6017755693
 20
16.3272636943
 10
25.6520695356
 20
16.3345027056
 10
25.7018952351
 20
16.3427505823
 10
25.7511919629
 20
16.3519972754
 10
25.7998996586
 20
16.3622315194
 10
25.8479589794
 20
16.3734408453
 10
25.8953113723
 20
16.3856115964
 10
25.9418991457
 20
16.3987289445
 10
25.9876655396
 20
16.4127769081
 10
26.0325547948
 20
16.4277383718
 10
26.0765122206
 20
16.4435951076
 10
26.1194842616
 20
16.4603277963
 10
26.161418563
 20
16.4779160519
 10
26.2022640343
 20
16.4963384456
 10
26.2419709116
 20
16.5155725327
 10
26.2804908183
 20
16.5355948793
 10
26.3177768236
 20
16.5563810914
 10
26.3537835005
 20
16.5779058441
 10
26.3884669802
 20
16.6001429129
 10
26.4217850063
 20
16.6230652053
 10
26.453696986
 20
16.646644794
 10
26.4841640393
 20
16.6708529509
 10
26.513149047
 20
16.6956601821
 10
26.5406166951
 20
16.7210362639
 10
26.5665335187
 20
16.7469502793
 10
26.590867942
 20
16.7733706561
 10
26.6135903173
 20
16.8002652053
 10
26.634672961
 20
16.8276011598
 10
26.6540901869
 20
16.8553452151
 10
26.6718183383
 20
16.8834635693
 10
26.6878358162
 20
16.9119219646
 10
26.7021231056
 20
16.9406857287
 10
26.7146627998
 20
16.9697198174
 10
26.725439621
 20
16.9989888572
 10
26.7344404394
 20
17.0284571882
 10
26.7416542888
 20
17.0580889079
 10
26.7470723802
 20
17.0878479145
 10
26.7506881127
 20
17.1176979513
 10
26.7524970809
 20
17.1476026507
 10
26.7527232536
 20
17.1625641144
  0
LWPOLYLINE
  5
171
330
1F
100
AcDbEntity
  8
0
  6
Continuous
 62
     7
370
    25
100
AcDbPolyline
 90
       92
 70
   128
 43
0.0
 10
23.7827232536
 20
15.3865878486
 10
23.7829494263
 20
15.3716263848
 10
23.7847583945
 20
15.3417216855
 10
23.7883741269
 20
15.3118716487
 10
23.7937922184
 20
15.2821126421
 10
23.8010060678
 20
15.2524809224
 10
23.8100068862
 20
15.2230125913
 10
23.8207837074
 20
15.1937435515
 10
23.8333234015
 20
15.1647094628
 10
23.847610691
 20
15.1359456987
 10
23.8636281688
 20
15.1074873035
 10
23.8813563202
 20
15.0793689493
 10
23.9007735462
 20
15.051624894
 10
23.9218561898
 20
15.0242889394
 10
23.9445785652
 20
14.9973943903
 10
23.9689129885
 20
14.9709740134
 10
23.994829812
 20
14.945059998
 10
24.0222974602
 20
14.9196839163
 10
24.0512824678
 20
14.894876685
 10
24.0817495212
 20
14.8706685281
 10
24.1136615008
 20
14.8470889394
 10
24.1469795269
 20
14.8241666471
 10
24.1816630067
 20
14.8019295783
 10
24.2176696835
 20
14.7804048256
 10
24.2549556889
 20
14.7596186135
 10
24.2934755955
 20
14.7395962668
 10
24.3331824729
 20
14.7203621797
 10
24.3740279442
 20
14.701939786
 10
24.4159622456
 20
14.6843515305
 10
24.4589342866
 20
14.6676188417
 10
24.5028917123
 20
14.651762106
 10
24.5477809675
 20
14.6368006422
 10
24.5935473615
 20
14.6227526787
 10
24.6401351349
 20
14.6096353306
 10
24.6874875278
 20
14.5974645795
 10
24.7355468485
 20
14.5862552535
 10
24.7842545442
 20
14.5760210096
 10
24.8335512721
 20
14.5667743164
 10
24.8833769716
 20
14.5585264398
 10
24.9336709379
 20
14.5512874284
 10
24.9843718954
 20
14.545066102
 10
25.035418073
 20
14.5398700401
 10
25.0867472786
 20
14.5357055735
 10
25.1382969756
 20
14.5325777759
 10
25.1900043586
 20
14.530490458
 10
25.24180643
 20
14.5294461629
 10
25.2936400771
 20
14.5294461629
 10
25.3454421486
 20
14.530490458
 10
25.3971495316
 20
14.5325777759
 10
25.4486992285
 20
14.5357055735
 10
25.5000284342
 20
14.5398700401
 10
25.5510746117
 20
14.545066102
 10
25.6017755693
 20
14.5512874284
 10
25.6520695356
 20
14.5585264398
 10
25.7018952351
 20
14.5667743164
 10
25.7511919629
 20
14.5760210096
 10
25.7998996586
 20
14.5862552535
 10
25.8479589794
 20
14.5974645795
 10
25.8953113723
 20
14.6096353306
 10
25.9418991457
 20
14.6227526787
 10
25.9876655396
 20
14.6368006422
 10
26.0325547948
 20
14.651762106
 10
26.0765122206
 20
14.6676188417
 10
26.1194842616
 20
14.6843515305
 10
26.161418563
 20
14.701939786
 10
26.2022640343
 20
14.7203621797
 10
26.2419709116
 20
14.7395962668
 10
26.2804908183
 20
14.7596186135
 10
26.3177768236
 20
14.7804048256
 10
26.3537835005
 20
14.8019295783
 10
26.3884669802
 20
14.8241666471
 10
26.4217850063
 20
14.8470889394
 10
26.453696986
 20
14.8706685281
 10
26.4841640393
 20
14.894876685
 10
26.513149047
 20
14.9196839163
 10
26.5406166951
 20
14.945059998
 10
26.5665335187
 20
14.9709740134
 10
26.590867942
 20
14.9973943903
 10
26.6135903173
 20
15.0242889394
 10
26.634672961
 20
15.051624894
 10
26.6540901869
 20
15.0793689493
 10
26.6718183383
 20
15.1074873035
 10
26.6878358162
 20
15.1359456987
 10
26.7021231056
 20
15.1647094628
 10
26.7146627998
 20
15.1937435515
 10
26.725439621
 20
15.2230125913
 10
26.7344404394
 20
15.2524809224
 10
26.7416542888
 20
15.2821126421
 10
26.7470723802
 20
15.3118716487
 10
26.7506881127
 20
15.3417216855
 10
26.7524970809
 20
15.3716263848
 10
26.7527232536
 20
15.3865878486
  0
LWPOLYLINE
  5
172
330
1F
100
AcDbEntity
  8
0
  6
Continuous
 62
     7
370
    25
100
AcDbPolyline
 90
       55
 70
   128
 43
0.0
 10
27.884018344
 20
16.2445548367
 10
27.8952852084
 20
16.2388083931
 10
27.9063997078
 20
16.2346552178
 10
27.9172115376
 20
16.2321514755
 10
27.9275744865
 20
16.2313310249
 10
27.9373484132
 20
16.2322049612
 10
27.9464011423
 20
16.234761466
 10
27.954610251
 20
16.2389659669
 10
27.9618647253
 20
16.2447616052
 10
27.9680664608
 20
16.2520700048
 10
27.9731315897
 20
16.2607923323
 10
27.9769916148
 20
16.2708106331
 10
27.9795943359
 20
16.2819894268
 10
27.9809045558
 20
16.2941775394
 10
27.9809045558
 20
16.3072101477
 10
27.9795943359
 20
16.320911008
 10
27.9769916148
 20
16.3350948395
 10
27.9731315897
 20
16.3495698304
 10
27.9680664608
 20
16.3641402313
 10
27.9618647253
 20
16.3786090023
 10
27.954610251
 20
16.3927804783
 10
27.9464011423
 20
16.4064630144
 10
27.9373484132
 20
16.4194715776
 10
27.9275744865
 20
16.4316302496
 10
27.9172115376
 20
16.4427746051
 10
27.9063997078
 20
16.4527539358
 10
27.8952852084
 20
16.4614332884
 10
27.884018344
 20
16.4686952895
 10
27.8727514795
 20
16.4744417331
 10
27.8616369801
 20
16.4785949084
 10
27.8508251503
 20
16.4810986507
 10
27.8404622014
 20
16.4819191013
 10
27.8306882747
 20
16.481045165
 10
27.8216355457
 20
16.4784886602
 10
27.8134264369
 20
16.4742841593
 10
27.8061719627
 20
16.468488521
 10
27.7999702272
 20
16.4611801214
 10
27.7949050983
 20
16.4524577939
 10
27.7910450731
 20
16.4424394931
 10
27.788442352
 20
16.4312606994
 10
27.7871321322
 20
16.4190725868
 10
27.7871321322
 20
16.4060399785
 10
27.788442352
 20
16.3923391183
 10
27.7910450731
 20
16.3781552867
 10
27.7949050983
 20
16.3636802958
 10
27.7999702272
 20
16.3491098949
 10
27.8061719627
 20
16.3346411239
 10
27.8134264369
 20
16.3204696479
 10
27.8216355457
 20
16.3067871118
 10
27.8306882747
 20
16.2937785486
 10
27.8404622014
 20
16.2816198766
 10
27.8508251503
 20
16.2704755211
 10
27.8616369801
 20
16.2604961904
 10
27.8727514795
 20
16.2518168378
 10
27.884018344
 20
16.2445548367
  0
LWPOLYLINE
  5
173
330
1F
100
AcDbEntity
  8
0
  6
Continuous
 62
     7
370
    25
100
AcDbPolyline
 90
       45
 70
   128
 43
0.0
 10
27.8974533728
 20
16.2367964383
 10
27.9093989495
 20
16.2306483095
 10
27.9212044753
 20
16.2260680734
 10
27.9327315411
 20
16.2231094293
 10
27.9438450027
 20
16.2218070645
 10
27.9544145648
 20
16.222176248
 10
27.964316309
 20
16.2242126515
 10
27.9734341464
 20
16.2278924
 10
27.9816611787
 20
16.2331723519
 10
27.9889009514
 20
16.2399906045
 10
27.995068585
 20
16.2482672201
 10
28.0000917694
 20
16.2579051629
 10
28.0039116125
 20
16.2687914368
 10
28.00648333
 20
16.2807984102
 10
28.007776771
 20
16.2937853124
 10
28.007776771
 20
16.3075998837
 10
28.00648333
 20
16.3220801611
 10
28.0039116125
 20
16.3370563764
 10
28.0000917694
 20
16.3523529472
 10
27.995068585
 20
16.3677905352
 10
27.9889009514
 20
16.3831881489
 10
27.9816611787
 20
16.3983652652
 10
27.9734341464
 20
16.4131439464
 10
27.964316309
 20
16.427350926
 10
27.9544145648
 20
16.44081964
 10
27.9438450027
 20
16.4533921801
 10
27.9327315411
 20
16.4649211449
 10
27.9212044753
 20
16.4752713676
 10
27.9093989495
 20
16.4843215015
 10
27.8974533728
 20
16.491965442
 10
27.8855077961
 20
16.4981135709
 10
27.8737022703
 20
16.5026938069
 10
27.8621752045
 20
16.505652451
 10
27.851061743
 20
16.5069548158
 10
27.8404921809
 20
16.5065856323
 10
27.8305904367
 20
16.5045492288
 10
27.8214725992
 20
16.5008694803
 10
27.8132455669
 20
16.4955895284
 10
27.8060057942
 20
16.4887712758
 10
27.7998381606
 20
16.4804946602
 10
27.7948149762
 20
16.4708567175
 10
27.7909951332
 20
16.4599704436
 10
27.7884234156
 20
16.4479634701
 10
27.7871299747
 20
16.434976568
 10
27.7869679382
 20
16.4281628239
  0
LWPOLYLINE
  5
174
330
1F
100
AcDbEntity
  8
0
  6
Continuous
 62
     7
370
    25
100
AcDbPolyline
 90
       31
 70
   128
 43
0.0
 10
28.0964872834
 20
16.298863699
 10
28.1025764383
 20
16.3029752455
 10
28.109816211
 20
16.3097934981
 10
28.1159838446
 20
16.3180701137
 10
28.121007029
 20
16.3277080564
 10
28.124826872
 20
16.3385943303
 10
28.1273985896
 20
16.3506013038
 10
28.1286920305
 20
16.3635882059
 10
28.1286920305
 20
16.3774027773
 10
28.1273985896
 20
16.3918830546
 10
28.124826872
 20
16.4068592699
 10
28.121007029
 20
16.4221558408
 10
28.1159838446
 20
16.4375934288
 10
28.109816211
 20
16.4529910425
 10
28.1025764383
 20
16.4681681588
 10
28.0943494059
 20
16.48294684
 10
28.0852315685
 20
16.4971538195
 10
28.0753298243
 20
16.5106225335
 10
28.0647602622
 20
16.5231950737
 10
28.0536468007
 20
16.5347240384
 10
28.0421197349
 20
16.5450742612
 10
28.0303142091
 20
16.5541243951
 10
28.0183686324
 20
16.5617683356
 10
28.0064230557
 20
16.5679164644
 10
27.9946175299
 20
16.5724967005
 10
27.9830904641
 20
16.5754553446
 10
27.9719770025
 20
16.5767577094
 10
27.9614074404
 20
16.5763885259
 10
27.9515056962
 20
16.5743521224
 10
27.9423878588
 20
16.5706723738
 10
27.9402499814
 20
16.5695039685
  0
LINE
  5
175
330
1F
100
AcDbEntity
  8
0
  6
Continuous
 62
     7
370
    25
100
AcDbLine
 10
27.9478275518
 20
16.3197887915
 30
0.0
 11
27.9159229479
 21
16.4020195918
 31
0.0
  0
LINE
  5
176
330
1F
100
AcDbEntity
  8
0
  6
Continuous
 62
     7
370
    25
100
AcDbLine
 10
27.9159229479
 20
16.4020195918
 30
0.0
 11
27.8521137401
 21
16.4388558633
 31
0.0
  0
LINE
  5
177
330
1F
100
AcDbEntity
  8
0
  6
Continuous
 62
     7
370
    25
100
AcDbLine
 10
27.8202091362
 20
16.3934613347
 30
0.0
 11
27.8521137401
 21
16.4388558633
 31
0.0
  0
LINE
  5
178
330
1F
100
AcDbEntity
  8
0
  6
Continuous
 62
     7
370
    25
100
AcDbLine
 10
27.8521137401
 20
16.3112305344
 30
0.0
 11
27.8202091362
 21
16.3934613347
 31
0.0
  0
LINE
  5
179
330
1F
100
AcDbEntity
  8
0
  6
Continuous
 62
     7
370
    25
100
AcDbLine
 10
27.8521137401
 20
16.3112305344
 30
0.0
 11
27.9159229479
 21
16.2743942629
 31
0.0
  0
LINE
  5
17A
330
1F
100
AcDbEntity
  8
0
  6
Continuous
 62
     7
370
    25
100
AcDbLine
 10
27.9478275518
 20
16.3197887915
 30
0.0
 11
27.9159229479
 21
16.2743942629
 31
0.0
  0
ARC
  5
17B
330
1F
100
AcDbEntity
  8
0
  6
Continuous
 62
     7
370
    25
100
AcDbCircle
 10
28.0145981414
 20
16.4318753132
 30
0.0
 40
0.1225130336183305
100
AcDbArc
 50
200.4431139495
 51
234.1670707596
  0
ARC
  5
17C
330
1F
100
AcDbEntity
  8
0
  6
Continuous
 62
     7
370
    25
100
AcDbCircle
 10
28.0019040285
 20
16.4294539185
 30
0.0
 40
0.1097940101574841
100
AcDbArc
 50
187.4422996588
 51
201.5729205247
  0
LINE
  5
17D
330
1F
100
AcDbEntity
  8
0
  6
Continuous
 62
     7
370
    25
100
AcDbLine
 10
27.8754785132
 20
16.4253676669
 30
0.0
 11
27.8202091362
 21
16.3934613347
 31
0.0
  0
LINE
  5
17E
330
1F
100
AcDbEntity
  8
0
  6
Continuous
 62
     7
370
    25
100
AcDbLine
 10
27.9157533504
 20
16.3479688995
 30
0.0
 11
27.8521137401
 21
16.3112305344
 31
0.0
  0
LINE
  5
17F
330
1F
100
AcDbEntity
  8
0
  6
Continuous
 62
     7
370
    25
100
AcDbLine
 10
27.9157533504
 20
16.3479688995
 30
0.0
 11
27.9429957807
 21
16.3322421792
 31
0.0
  0
LINE
  5
180
330
1F
100
AcDbEntity
  8
0
  6
Continuous
 62
     7
370
    25
100
AcDbLine
 10
27.8998010484
 20
16.3890842996
 30
0.0
 11
27.8886805175
 21
16.417746312
 31
0.0
  0
LINE
  5
181
330
1F
100
AcDbEntity
  8
0
  6
Continuous
 62
     7
370
    25
100
AcDbLine
 10
27.9157533504
 20
16.3479688995
 30
0.0
 11
27.8998010484
 21
16.3890842996
 31
0.0
  0
ARC
  5
182
330
1F
100
AcDbEntity
  8
0
  6
Continuous
 62
     7
370
    25
100
AcDbCircle
 10
28.6356293542
 20
16.7835699428
 30
0.0
 40
0.1229861454030473
100
AcDbArc
 50
354.1546444091
 51
27.4854055867
  0
ARC
  5
183
330
1F
100
AcDbEntity
  8
0
  6
Continuous
 62
     7
370
    25
100
AcDbCircle
 10
28.6425380008
 20
16.7877937792
 30
0.0
 40
0.1187703374067867
100
AcDbArc
 50
348.8769606491
 51
32.8662862783
  0
ARC
  5
184
330
1F
100
AcDbEntity
  8
0
  6
Continuous
 62
     7
370
    25
100
AcDbCircle
 10
28.7321589367
 20
16.7919790109
 30
0.0
 40
0.0475706584173903
100
AcDbArc
 50
307.2736392678
 51
5.6514517352
  0
ARC
  5
185
330
1F
100
AcDbEntity
  8
0
  6
Continuous
 62
     7
370
    25
100
AcDbCircle
 10
28.6324765766
 20
16.7893022511
 30
0.0
 40
0.1472059705384276
100
AcDbArc
 50
2.8663958573
 51
47.0818012586
  0
ARC
  5
186
330
1F
100
AcDbEntity
  8
0
  6
Continuous
 62
     7
370
    25
100
AcDbCircle
 10
28.6615158671
 20
16.8057774031
 30
0.0
 40
0.1181071033547351
100
AcDbArc
 50
2.632053828
 51
53.3927531275
  0
LWPOLYLINE
  5
187
330
1F
100
AcDbEntity
  8
0
  6
Continuous
 62
     7
370
    25
100
AcDbPolyline
 90
      120
 70
   128
 43
0.0
 10
26.7527232536
 20
19.2334216331
 10
26.7570678263
 20
19.2310889538
 10
26.8044410953
 20
19.2048474968
 10
26.8518229781
 20
19.177125646
 10
26.8991790211
 20
19.1479435594
 10
26.9464747897
 20
19.1173224564
 10
26.9936758927
 20
19.0852846031
 10
27.0407480083
 20
19.0518532958
 10
27.087656908
 20
19.0170528438
 10
27.1343684823
 20
18.9809085523
 10
27.180848765
 20
18.9434467032
 10
27.2270639581
 20
18.9046945369
 10
27.2729804566
 20
18.8646802319
 10
27.3185648723
 20
18.8234328843
 10
27.3637840588
 20
18.7809824871
 10
27.4086051351
 20
18.7373599079
 10
27.4529955098
 20
18.6925968666
 10
27.4969229045
 20
18.6467259125
 10
27.5403553777
 20
18.5997804005
 10
27.5832613476
 20
18.5517944668
 10
27.6256096153
 20
18.5028030043
 10
27.6673693875
 20
18.4528416367
 10
27.7085102986
 20
18.4019466934
 10
27.7490024332
 20
18.3501551825
 10
27.7888163477
 20
18.2975047638
 10
27.8279230915
 20
18.2440337219
 10
27.8662942284
 20
18.1897809381
 10
27.9039018568
 20
18.1347858621
 10
27.9407186306
 20
18.0790884832
 10
27.9767177786
 20
18.0227293017
 10
28.0118731241
 20
17.9657492989
 10
28.0461591041
 20
17.9081899076
 10
28.0795507878
 20
17.8500929818
 10
28.1120238943
 20
17.7915007664
 10
28.1435548112
 20
17.7324558667
 10
28.1741206107
 20
17.6730012167
 10
28.2036990671
 20
17.6131800488
 10
28.2322686726
 20
17.5530358617
 10
28.2598086529
 20
17.4926123889
 10
28.2862989823
 20
17.4319535671
 10
28.3117203985
 20
17.3711035042
 10
28.3360544166
 20
17.310106447
 10
28.359283342
 20
17.2490067494
 10
28.381390284
 20
17.1878488396
 10
28.4023591676
 20
17.1266771884
 10
28.4221747453
 20
17.0655362765
 10
28.4408226084
 20
17.0044705623
 10
28.4582891971
 20
16.9435244495
 10
28.4745618107
 20
16.8827422548
 10
28.4896286166
 20
16.8221681758
 10
28.503478659
 20
16.7618462585
 10
28.5161018669
 20
16.7018203659
 10
28.5274890615
 20
16.6421341455
 10
28.5376319625
 20
16.582830998
 10
28.5465231946
 20
16.5239540453
 10
28.5541562926
 20
16.4655460996
 10
28.5605257061
 20
16.4076496321
 10
28.5656268036
 20
16.3503067418
 10
28.5694558758
 20
16.2935591255
 10
28.5720101385
 20
16.2374480469
 10
28.5732877344
 20
16.182014307
 10
28.5732877344
 20
16.1272982141
 10
28.5720101385
 20
16.073339555
 10
28.5694558758
 20
16.0201775653
 10
28.5656268036
 20
15.9678509017
 10
28.5605257061
 20
15.9163976132
 10
28.5541562926
 20
15.8658551139
 10
28.5465231946
 20
15.8162601556
 10
28.5376319625
 20
15.767648801
 10
28.5274890615
 20
15.7200563977
 10
28.5161018669
 20
15.6735175524
 10
28.503478659
 20
15.6280661054
 10
28.4896286166
 20
15.5837351067
 10
28.4745618107
 20
15.5405567914
 10
28.4582891971
 20
15.4985625565
 10
28.4408226084
 20
15.4577829377
 10
28.4221747453
 20
15.418247588
 10
28.4023591676
 20
15.3799852552
 10
28.381390284
 20
15.3430237617
 10
28.359283342
 20
15.3073899838
 10
28.3360544166
 20
15.2731098325
 10
28.3117203985
 20
15.2402082346
 10
28.2862989823
 20
15.2087091141
 10
28.2598086529
 20
15.1786353757
 10
28.2322686726
 20
15.1500088873
 10
28.2036990671
 20
15.1228504645
 10
28.1741206107
 20
15.0971798555
 10
28.1435548112
 20
15.0730157265
 10
28.1120238943
 20
15.0503756484
 10
28.0795507878
 20
15.0292760839
 10
28.0461591041
 20
15.0097323753
 10
28.0118731241
 20
14.9917587339
 10
27.9767177786
 20
14.9753682291
 10
27.9407186306
 20
14.9605727792
 10
27.9039018568
 20
14.9473831426
 10
27.8662942284
 20
14.9358089101
 10
27.8279230915
 20
14.9258584978
 10
27.7888163477
 20
14.9175391413
 10
27.7490024332
 20
14.9108568898
 10
27.7085102986
 20
14.9058166024
 10
27.6673693875
 20
14.902421944
 10
27.6256096153
 20
14.9006753831
 10
27.5832613476
 20
14.9005781897
 10
27.5403553777
 20
14.9021304344
 10
27.4969229045
 20
14.9053309886
 10
27.4529955098
 20
14.9101775249
 10
27.4086051351
 20
14.9166665193
 10
27.3637840588
 20
14.9247932532
 10
27.3185648723
 20
14.9345518175
 10
27.2729804566
 20
14.945935116
 10
27.2270639581
 20
14.9589348717
 10
27.180848765
 20
14.9735416316
 10
27.1343684823
 20
14.9897447747
 10
27.087656908
 20
15.0075325187
 10
27.0407480083
 20
15.0268919296
 10
26.9936758927
 20
15.04780893
 10
26.9464747897
 20
15.0702683104
 10
26.8991790211
 20
15.0942537394
 10
26.8518229781
 20
15.1197477762
 10
26.8160015164
 20
15.1400121101
  0
LWPOLYLINE
  5
188
330
1F
100
AcDbEntity
  8
0
  6
Continuous
 62
     7
370
    25
100
AcDbPolyline
 90
      119
 70
   128
 43
0.0
 10
26.7527232536
 20
15.1768153326
 10
26.7574141924
 20
15.174025935
 10
26.8044493383
 20
15.1468731232
 10
26.8514669345
 20
15.121214031
 10
26.8984318947
 20
15.0970678061
 10
26.9453091719
 20
15.0744524673
 10
26.9920637845
 20
15.053384891
 10
27.0386608426
 20
15.0338807987
 10
27.0850655735
 20
15.0159547451
 10
27.1312433483
 20
14.9996201072
 10
27.1771597076
 20
14.9848890745
 10
27.2227803867
 20
14.9717726399
 10
27.2680713418
 20
14.9602805914
 10
27.3129987751
 20
14.9504215048
 10
27.35752916
 20
14.9422027373
 10
27.4016292664
 20
14.935630422
 10
27.445266185
 20
14.9307094635
 10
27.4884073524
 20
14.9274435339
 10
27.531020575
 20
14.9258350705
 10
27.5730740532
 20
14.9258852734
 10
27.6145364052
 20
14.9275941053
 10
27.6553766901
 20
14.930960291
 10
27.6955644314
 20
14.9359813184
 10
27.7350696396
 20
14.9426534408
 10
27.7738628344
 20
14.950971679
 10
27.8119150667
 20
14.9609298258
 10
27.8491979407
 20
14.97252045
 10
27.8856836345
 20
14.9857349022
 10
27.9213449209
 20
15.0005633213
 10
27.9561551884
 20
15.0169946419
 10
27.9900884601
 20
15.0350166021
 10
28.0231194137
 20
15.0546157534
 10
28.0552234004
 20
15.0757774701
 10
28.0863764629
 20
15.0984859607
 10
28.1165553537
 20
15.122724279
 10
28.145737552
 20
15.1484743377
 10
28.1739012812
 20
15.175716921
 10
28.2010255243
 20
15.2044316995
 10
28.2270900402
 20
15.2345972452
 10
28.2520753786
 20
15.2661910474
 10
28.2759628945
 20
15.2991895297
 10
28.2987347621
 20
15.3335680672
 10
28.3203739883
 20
15.3693010055
 10
28.340864425
 20
15.4063616794
 10
28.3601907815
 20
15.4447224326
 10
28.3783386357
 20
15.4843546391
 10
28.3952944451
 20
15.5252287238
 10
28.4110455565
 20
15.5673141849
 10
28.4255802159
 20
15.6105796166
 10
28.438887577
 20
15.6549927327
 10
28.4509577093
 20
15.7005203905
 10
28.4617816057
 20
15.7471286154
 10
28.471351189
 20
15.7947826268
 10
28.4796593179
 20
15.8434468633
 10
28.4866997927
 20
15.8930850099
 10
28.4924673594
 20
15.9436600248
 10
28.4969577142
 20
15.9951341669
 10
28.5001675061
 20
16.0474690244
 10
28.5020943398
 20
16.1006255431
 10
28.5027367775
 20
16.1545640554
 10
28.5020943398
 20
16.2092443106
 10
28.5001675061
 20
16.2646255041
 10
28.4969577142
 20
16.3206663084
 10
28.4924673594
 20
16.3773249038
 10
28.4866997927
 20
16.4345590095
 10
28.4796593179
 20
16.4923259153
 10
28.471351189
 20
16.5505825133
 10
28.4617816057
 20
16.6092853302
 10
28.4509577093
 20
16.66839056
 10
28.438887577
 20
16.7278540959
 10
28.4255802159
 20
16.7876315641
 10
28.4110455565
 20
16.8476783564
 10
28.3952944451
 20
16.9079496636
 10
28.3783386357
 20
16.968400509
 10
28.3601907815
 20
17.028985782
 10
28.340864425
 20
17.0896602715
 10
28.3203739883
 20
17.1503787
 10
28.2987347621
 20
17.2110957571
 10
28.2759628945
 20
17.2717661334
 10
28.2520753786
 20
17.3323445544
 10
28.2270900402
 20
17.3927858143
 10
28.2010255243
 20
17.4530448095
 10
28.1739012812
 20
17.5130765725
 10
28.145737552
 20
17.5728363053
 10
28.1165553537
 20
17.6322794131
 10
28.0863764629
 20
17.691361537
 10
28.0552234004
 20
17.7500385879
 10
28.0231194137
 20
17.8082667787
 10
27.9900884601
 20
17.8660026573
 10
27.9561551884
 20
17.9232031391
 10
27.9213449209
 20
17.9798255389
 10
27.8856836345
 20
18.035827603
 10
27.8491979407
 20
18.0911675405
 10
27.8119150667
 20
18.1458040548
 10
27.7738628344
 20
18.1996963739
 10
27.7350696396
 20
18.2528042814
 10
27.6955644314
 20
18.3050881463
 10
27.6553766901
 20
18.3565089522
 10
27.6145364052
 20
18.4070283272
 10
27.5730740532
 20
18.4566085717
 10
27.531020575
 20
18.5052126871
 10
27.4884073524
 20
18.5528044032
 10
27.445266185
 20
18.5993482052
 10
27.4016292664
 20
18.6448093605
 10
27.35752916
 20
18.6891539443
 10
27.3129987751
 20
18.7323488648
 10
27.2680713418
 20
18.7743618886
 10
27.2227803867
 20
18.8151616638
 10
27.1771597076
 20
18.8547177441
 10
27.1312433483
 20
18.8930006114
 10
27.0850655735
 20
18.9299816975
 10
27.0386608426
 20
18.9656334057
 10
26.9920637845
 20
18.9999291314
 10
26.9453091719
 20
19.0328432819
 10
26.8984318947
 20
19.0643512953
 10
26.8514669345
 20
19.0944296593
 10
26.8044493383
 20
19.1230559281
 10
26.7574141924
 20
19.1502087399
 10
26.7527232536
 20
19.152835385
  0
LWPOLYLINE
  5
189
330
1F
100
AcDbEntity
  8
0
  6
Continuous
 62
     7
370
    25
100
AcDbPolyline
 90
       95
 70
   128
 43
0.0
 10
26.7527232536
 20
19.4716015248
 10
26.7981589176
 20
19.4535519679
 10
26.8451536969
 20
19.4334119316
 10
26.8922945912
 20
19.4117217696
 10
26.9395473222
 20
19.3884972539
 10
26.9868775301
 20
19.363755272
 10
27.0342507992
 20
19.337513815
 10
27.081632682
 20
19.3097919642
 10
27.128988725
 20
19.2806098775
 10
27.1762844936
 20
19.2499887746
 10
27.2234855966
 20
19.2179509213
 10
27.2705577122
 20
19.184519614
 10
27.3174666119
 20
19.149719162
 10
27.3641781862
 20
19.1135748704
 10
27.4106584688
 20
19.0761130214
 10
27.456873662
 20
19.0373608551
 10
27.5027901604
 20
18.99734655
 10
27.5483745762
 20
18.9560992025
 10
27.5935937627
 20
18.9136488053
 10
27.638414839
 20
18.8700262261
 10
27.6828052137
 20
18.8252631848
 10
27.7267326084
 20
18.7793922307
 10
27.7701650816
 20
18.7324467187
 10
27.8130710515
 20
18.684460785
 10
27.8554193192
 20
18.6354693224
 10
27.8971790913
 20
18.5855079549
 10
27.9383200025
 20
18.5346130116
 10
27.9788121371
 20
18.4828215006
 10
28.0186260516
 20
18.4301710819
 10
28.0577327954
 20
18.3767000401
 10
28.0961039323
 20
18.3224472563
 10
28.1337115607
 20
18.2674521802
 10
28.1705283345
 20
18.2117548014
 10
28.2065274825
 20
18.1553956199
 10
28.241682828
 20
18.0984156171
 10
28.275968808
 20
18.0408562258
 10
28.3093604916
 20
17.9827592999
 10
28.3418335982
 20
17.9241670846
 10
28.3733645151
 20
17.8651221848
 10
28.4039303146
 20
17.8056675349
 10
28.433508771
 20
17.745846367
 10
28.4620783765
 20
17.6857021799
 10
28.4896183567
 20
17.6252787071
 10
28.5161086862
 20
17.5646198853
 10
28.5415301024
 20
17.5037698224
 10
28.5658641205
 20
17.4427727652
 10
28.5890930459
 20
17.3816730675
 10
28.6111999879
 20
17.3205151577
 10
28.6321688715
 20
17.2593435065
 10
28.6519844492
 20
17.1982025947
 10
28.6706323123
 20
17.1371368805
 10
28.688098901
 20
17.0761907677
 10
28.7043715146
 20
17.015408573
 10
28.7194383205
 20
16.9548344939
 10
28.7332883629
 20
16.8945125767
 10
28.7459115708
 20
16.8344866841
 10
28.7572987654
 20
16.7748004637
 10
28.7674416664
 20
16.7154973161
 10
28.7763328985
 20
16.6566203635
 10
28.7839659965
 20
16.5982124178
 10
28.79033541
 20
16.5403159503
 10
28.7954365074
 20
16.48297306
 10
28.7992655797
 20
16.4262254437
 10
28.8018198424
 20
16.3701143651
 10
28.8030974382
 20
16.3146806251
 10
28.8030974382
 20
16.2599645323
 10
28.8018198424
 20
16.2060058732
 10
28.7992655797
 20
16.1528438835
 10
28.7954365074
 20
16.1005172199
 10
28.79033541
 20
16.0490639314
 10
28.7839659965
 20
15.9985214321
 10
28.7763328985
 20
15.9489264738
 10
28.7674416664
 20
15.9003151192
 10
28.7572987654
 20
15.8527227159
 10
28.7459115708
 20
15.8061838705
 10
28.7332883629
 20
15.7607324236
 10
28.7194383205
 20
15.7164014249
 10
28.7043715146
 20
15.6732231096
 10
28.688098901
 20
15.6312288746
 10
28.6706323123
 20
15.5904492559
 10
28.6519844492
 20
15.5509139062
 10
28.6321688715
 20
15.5126515734
 10
28.6111999879
 20
15.4756900799
 10
28.5890930459
 20
15.440056302
 10
28.5658641205
 20
15.4057761507
 10
28.5415301024
 20
15.3728745527
 10
28.5161086862
 20
15.3413754323
 10
28.4896183567
 20
15.3113016939
 10
28.4620783765
 20
15.2826752054
 10
28.433508771
 20
15.2555167827
 10
28.4039303146
 20
15.2298461736
 10
28.3733645151
 20
15.2056820447
 10
28.3418335982
 20
15.1830419666
 10
28.3093604916
 20
15.161942402
 10
28.2884958336
 20
15.1494860295
  0
LWPOLYLINE
  5
18A
330
1F
100
AcDbEntity
  8
0
  6
Continuous
 62
     7
370
    25
100
AcDbPolyline
 90
       37
 70
   128
 43
0.0
 10
24.8669841112
 20
19.5077245259
 10
24.8173252069
 20
19.5163010902
 10
24.7682150432
 20
19.5258729104
 10
24.7197134533
 20
19.5364283246
 10
24.671879529
 20
19.5479544727
 10
24.6247715484
 20
19.5604373119
 10
24.5784469055
 20
19.5738616338
 10
24.5329620396
 20
19.5882110829
 10
24.4883723671
 20
19.6034681765
 10
24.4447322136
 20
19.6196143264
 10
24.4020947479
 20
19.6366298608
 10
24.3605119172
 20
19.654494049
 10
24.3200343837
 20
19.6731851262
 10
24.2807114632
 20
19.6926803202
 10
24.2425910645
 20
19.7129558792
 10
24.2057196314
 20
19.7339871004
 10
24.1701420862
 20
19.7557483606
 10
24.1359017746
 20
19.778213147
 10
24.103040413
 20
19.8013540898
 10
24.0715980382
 20
19.8251429953
 10
24.0416129576
 20
19.8495508803
 10
24.0131217036
 20
19.8745480076
 10
23.9861589883
 20
19.9001039221
 10
23.9607576617
 20
19.9261874879
 10
23.9369486713
 20
19.952766926
 10
23.9147610247
 20
19.9798098536
 10
23.8942217542
 20
20.007283323
 10
23.8753558838
 20
20.035153862
 10
23.8581863984
 20
20.0633875147
 10
23.8427342167
 20
20.0919498827
 10
23.8290181645
 20
20.1208061672
 10
23.8170549529
 20
20.1499212112
 10
23.8068591572
 20
20.1792595425
 10
23.7984431993
 20
20.2087854169
 10
23.7918173329
 20
20.2384628617
 10
23.7869896304
 20
20.2682557194
 10
23.7840846234
 20
20.2964926804
  0
LWPOLYLINE
  5
18B
330
1F
100
AcDbEntity
  8
0
  6
Continuous
 62
     7
370
    25
100
AcDbPolyline
 90
       53
 70
   128
 43
0.0
 10
26.7514731868
 20
20.2980242438
 10
26.7497014035
 20
20.2785300337
 10
26.745494069
 20
20.2487058436
 10
26.7394862983
 20
20.2189845869
 10
26.731685411
 20
20.1894024745
 10
26.7221009114
 20
20.1599955476
 10
26.7107444766
 20
20.130799634
 10
26.6976299428
 20
20.1018503044
 10
26.6827732879
 20
20.0731828291
 10
26.6661926125
 20
20.0448321351
 10
26.6479081176
 20
20.0168327632
 10
26.62794208
 20
19.9892188265
 10
26.6063188254
 20
19.9620239682
 10
26.5830646982
 20
19.935281321
 10
26.5582080301
 20
19.9090234669
 10
26.5317791051
 20
19.8832823968
 10
26.5038101227
 20
19.8580894724
 10
26.4743351589
 20
19.8334753874
 10
26.4433901244
 20
19.8094701302
 10
26.4110127208
 20
19.7861029475
 10
26.3772423952
 20
19.7634023087
 10
26.3421202914
 20
19.741395871
 10
26.3056892003
 20
19.7201104457
 10
26.2679935076
 20
19.699571966
 10
26.2290791396
 20
19.6798054549
 10
26.1889935076
 20
19.6608349947
 10
26.1477854497
 20
19.642683698
 10
26.1055051716
 20
19.6253736795
 10
26.0622041853
 20
19.6089260286
 10
26.0179352463
 20
19.5933607844
 10
25.9727522896
 20
19.5786969107
 10
25.9267103635
 20
19.5649522731
 10
25.8798655633
 20
19.5521436174
 10
25.8322749619
 20
19.5402865489
 10
25.7839965412
 20
19.5293955137
 10
25.735089121
 20
19.5194837808
 10
25.6856122875
 20
19.5105634261
 10
25.6356263206
 20
19.5026453178
 10
25.5851921205
 20
19.4957391027
 10
25.5343711335
 20
19.4898531951
 10
25.4832252771
 20
19.4849947661
 10
25.4318168646
 20
19.4811697348
 10
25.3802085294
 20
19.4783827615
 10
25.3284631482
 20
19.4766372417
 10
25.2766437648
 20
19.475935302
 10
25.2248135132
 20
19.4762777977
 10
25.1730355404
 20
19.4776643114
 10
25.1213729301
 20
19.480093154
 10
25.069888625
 20
19.4835613662
 10
25.018645351
 20
19.4880647225
 10
24.9677055401
 20
19.4935977364
 10
24.9171312545
 20
19.5001536666
 10
24.8669841112
 20
19.5077245259
  0
LWPOLYLINE
  5
18C
330
1F
100
AcDbEntity
  8
0
  6
Continuous
 62
     7
370
    25
100
AcDbPolyline
 90
       83
 70
   128
 43
0.0
 10
23.8302129641
 20
12.0008946974
 10
23.844090261
 20
11.9720641168
 10
23.8597020354
 20
11.9435306856
 10
23.8770292668
 20
11.9153291673
 10
23.8960508445
 20
11.8874939213
 10
23.9167435938
 20
11.8600588604
 10
23.9390823037
 20
11.8330574102
 10
23.963039758
 20
11.8065224675
 10
23.9885867681
 20
11.7804863613
 10
24.015692209
 20
11.7549808125
 10
24.0443230569
 20
11.7300368957
 10
24.0744444294
 20
11.7056850012
 10
24.1060196284
 20
11.681954798
 10
24.1390101843
 20
11.6588751977
 10
24.1733759032
 20
11.6364743194
 10
24.2090749158
 20
11.6147794549
 10
24.2460637283
 20
11.5938170361
 10
24.2842972756
 20
11.5736126025
 10
24.3237289759
 20
11.5541907702
 10
24.3643107879
 20
11.5355752016
 10
24.4059932688
 20
11.5177885769
 10
24.4487256349
 20
11.5008525664
 10
24.4924558235
 20
11.4847878039
 10
24.537130556
 20
11.4696138621
 10
24.5826954032
 20
11.4553492278
 10
24.6290948513
 20
11.4420112805
 10
24.6762723697
 20
11.4296162704
 10
24.72417048
 20
11.4181792988
 10
24.7727308255
 20
11.4077142999
 10
24.8218942431
 20
11.3982340238
 10
24.8716008347
 20
11.3897500206
 10
24.9217900404
 20
11.3822726269
 10
24.9724007124
 20
11.3758109527
 10
25.0233711895
 20
11.3703728706
 10
25.0746393719
 20
11.3659650059
 10
25.1261427973
 20
11.3625927291
 10
25.1778187166
 20
11.3602601487
 10
25.2296041708
 20
11.3589701066
 10
25.2814360672
 20
11.3587241745
 10
25.3332512567
 20
11.3595226521
 10
25.3849866104
 20
11.3613645665
 10
25.4365790968
 20
11.3642476737
 10
25.4879658583
 20
11.3681684609
 10
25.5390842881
 20
11.3731221515
 10
25.5898721063
 20
11.3791027099
 10
25.6402674358
 20
11.3861028499
 10
25.6902088775
 20
11.3941140429
 10
25.7396355856
 20
11.4031265284
 10
25.7884873413
 20
11.4131293262
 10
25.8367046261
 20
11.4241102493
 10
25.8842286947
 20
11.4360559192
 10
25.9310016464
 20
11.4489517819
 10
25.9769664956
 20
11.4627821259
 10
26.0220672411
 20
11.4775301009
 10
26.0662489347
 20
11.4931777389
 10
26.1094577477
 20
11.5097059755
 10
26.151641037
 20
11.5270946738
 10
26.1927474085
 20
11.5453226481
 10
26.2327267806
 20
11.5643676907
 10
26.2715304446
 20
11.5842065979
 10
26.3091111241
 20
11.6048151992
 10
26.3454230329
 20
11.6261683862
 10
26.3804219306
 20
11.6482401432
 10
26.4140651763
 20
11.6710035793
 10
26.446311781
 20
11.6944309607
 10
26.477122457
 20
11.7184937447
 10
26.5064596665
 20
11.7431626146
 10
26.5342876664
 20
11.7684075151
 10
26.5605725527
 20
11.7941976892
 10
26.5852823013
 20
11.8205017156
 10
26.6083868071
 20
11.8472875468
 10
26.6298579209
 20
11.8745225485
 10
26.6496694835
 20
11.902173539
 10
26.6677973574
 20
11.9302068297
 10
26.6842194567
 20
11.9585882666
 10
26.6989157736
 20
11.9872832711
 10
26.7118684028
 20
12.0162568829
 10
26.7230615636
 20
12.0454738019
 10
26.7324816189
 20
12.074898432
 10
26.7401170917
 20
12.1044949237
 10
26.7459586795
 20
12.1342272183
 10
26.7499992651
 20
12.1640590916
 10
26.7514445306
 20
12.1803914005
  0
ARC
  5
18D
330
1F
100
AcDbEntity
  8
0
  6
Continuous
 62
     7
370
    25
100
AcDbCircle
 10
24.31335727
 20
12.2209880708
 30
0.0
 40
0.530913847367399
100
AcDbArc
 50
184.4810511327
 51
204.4913413014
  0
ARC
  5
18E
330
1F
100
AcDbEntity
  8
0
  6
Continuous
 62
     7
370
    25
100
AcDbCircle
 10
26.3730609079
 20
16.9116281208
 30
0.0
 40
0.7514478799780806
100
AcDbArc
 50
2.3467636355
 51
59.6526422603
  0
ARC
  5
18F
330
1F
100
AcDbEntity
  8
0
  6
Continuous
 62
     7
370
    25
100
AcDbCircle
 10
26.8484718555
 20
16.9252640469
 30
0.0
 40
0.2759391564400039
100
AcDbArc
 50
316.7431334419
 51
3.5599457894
  0
CIRCLE
  5
190
330
1F
100
AcDbEntity
  8
0
  6
Continuous
 62
     7
370
    25
100
AcDbCircle
 10
16.2382455863
 20
15.9028930234
 30
0.0
 40
2.485000000000001
  0
CIRCLE
  5
191
330
1F
100
AcDbEntity
  8
0
  6
Continuous
 62
     7
370
    25
100
AcDbCircle
 10
16.2382455863
 20
15.9028930234
 30
0.0
 40
2.435
  0
CIRCLE
  5
192
330
1F
100
AcDbEntity
  8
0
  6
Continuous
 62
     7
370
    25
100
AcDbCircle
 10
17.9882455863
 20
15.9028930234
 30
0.0
 40
0.1169999999999973
  0
CIRCLE
  5
193
330
1F
100
AcDbEntity
  8
0
  6
Continuous
 62
     7
370
    25
100
AcDbCircle
 10
14.4882455863
 20
15.9028930234
 30
0.0
 40
0.1169999999999991
  0
CIRCLE
  5
194
330
1F
100
AcDbEntity
  8
0
  6
Continuous
 62
     7
370
    25
100
AcDbCircle
 10
16.2382455863
 20
15.9028930234
 30
0.0
 40
0.4140000000000033
  0
DIMENSION
  5
195
330
1F
100
AcDbEntity
  8
0
  6
Continuous
 62
     7
370
    18
100
AcDbDimension
  2
_D_5
 10
20.9078931332
 20
13.4178930234
 30
0.0
 11
20.9078931332
 21
15.9028930234
 31
0.0
 70
   160
  1
%%c<>
 71
     2
 42
-1.0
  3
SLDDIMSTYLE2
100
AcDbAlignedDimension
 13
16.2382455863
 23
18.3878930234
 33
0.0
 14
16.2382455863
 24
13.4178930234
 34
0.0
 50
90.0
100
AcDbRotatedDimension
  0
DIMENSION
  5
1A8
330
1F
100
AcDbEntity
  8
0
  6
Continuous
 62
     7
370
    18
100
AcDbDimension
  2
_D_6
 10
14.4882455863
 20
19.7580265179
 30
0.0
 11
16.2382455863
 21
19.7580265179
 31
0.0
 70
   160
  1
<>O.C.
 71
     2
 42
-1.0
  3
SLDDIMSTYLE0
100
AcDbAlignedDimension
 13
17.9882455863
 23
15.9028930234
 33
0.0
 14
14.4882455863
 24
15.9028930234
 34
0.0
100
AcDbRotatedDimension
  0
MTEXT
  5
1BB
330
1F
100
AcDbEntity
  8
0
  6
Continuous
 62
     7
370
     0
100
AcDbMText
 10
16.1981416005
 20
12.731897598
 30
0.0
 40
0.375
 41
0.0
 71
     2
 72
     1
  1
CANOPY DETAIL
  7
SLDTEXTSTYLE0
 73
     1
 44
1.0
  0
ENDSEC
  0
SECTION
  2
OBJECTS
  0
DICTIONARY
  5
C
330
0
100
AcDbDictionary
281
     1
  3
ACAD_GROUP
350
D
  3
ACAD_LAYOUT
350
1A
  3
ACAD_MLINESTYLE
350
17
  3
ACAD_PLOTSETTINGS
350
19
  3
ACAD_PLOTSTYLENAME
350
E
  3
ACAD_SCALELIST
350
47
  3
DWGPROPS
350
1BC
  0
DICTIONARY
  5
D
102
{ACAD_REACTORS
330
C
102
}
330
C
100
AcDbDictionary
281
     1
  0
DICTIONARY
  5
1A
102
{ACAD_REACTORS
330
C
102
}
330
C
100
AcDbDictionary
281
     1
  3
Layout1
350
1E
  3
Layout2
350
26
  3
Model
350
22
  0
DICTIONARY
  5
17
102
{ACAD_REACTORS
330
C
102
}
330
C
100
AcDbDictionary
281
     1
  3
Standard
350
18
  0
DICTIONARY
  5
19
102
{ACAD_REACTORS
330
C
102
}
330
C
100
AcDbDictionary
281
     1
  0
ACDBDICTIONARYWDFLT
  5
E
102
{ACAD_REACTORS
330
C
102
}
330
C
100
AcDbDictionary
281
     1
  3
Normal
350
F
100
AcDbDictionaryWithDefault
340
F
  0
DICTIONARY
  5
47
102
{ACAD_REACTORS
330
C
102
}
330
C
100
AcDbDictionary
281
     1
  3
A0
350
48
  3
A1
350
49
  3
A2
350
4A
  3
A3
350
4B
  3
A4
350
4C
  3
A5
350
4D
  3
A6
350
4E
  3
A7
350
4F
  3
A8
350
50
  3
A9
350
51
  3
B1
350
52
  3
B2
350
53
  3
B3
350
54
  3
B4
350
55
  3
B5
350
56
  3
B6
350
57
  3
B7
350
58
  0
XRECORD
  5
1BC
102
{ACAD_REACTORS
330
C
102
}
330
C
100
AcDbXrecord
280
     1
  1
DWGPROPS COOKIE
  2

  3

  4

  6

  7

  8
shawnd
  9

300
=
301
=
302
=
303
=
304
=
305
=
306
=
307
=
308
=
309
=
 40
0.0
 41
2460766.897159989
 42
2460766.897160498
  1

 90
        0
  0
LAYOUT
  5
1E
102
{ACAD_REACTORS
330
1A
102
}
330
1A
100
AcDbPlotSettings
  1

  2
none_device
  4

  6

 40
0.0
 41
0.0
 42
0.0
 43
0.0
 44
0.0
 45
0.0
 46
0.0
 47
0.0
 48
0.0
 49
0.0
140
0.0
141
0.0
142
1.0
143
1.0
 70
   688
 72
     0
 73
     0
 74
     5
  7

 75
    16
147
1.0
148
0.0
149
0.0
100
AcDbLayout
  1
Layout1
 70
     1
 71
     1
 10
0.0
 20
0.0
 11
12.0
 21
9.0
 12
0.0
 22
0.0
 32
0.0
 14
1.0000000000E+20
 24
1.0000000000E+20
 34
1.0000000000E+20
 15
-1.0000000000E+20
 25
-1.0000000000E+20
 35
-1.0000000000E+20
146
0.0
 13
0.0
 23
0.0
 33
0.0
 16
1.0
 26
0.0
 36
0.0
 17
0.0
 27
1.0
 37
0.0
 76
     0
330
1B
  0
LAYOUT
  5
26
102
{ACAD_REACTORS
330
1A
102
}
330
1A
100
AcDbPlotSettings
  1

  2
none_device
  4

  6

 40
0.0
 41
0.0
 42
0.0
 43
0.0
 44
0.0
 45
0.0
 46
0.0
 47
0.0
 48
0.0
 49
0.0
140
0.0
141
0.0
142
1.0
143
1.0
 70
   688
 72
     0
 73
     0
 74
     5
  7

 75
    16
147
1.0
148
0.0
149
0.0
100
AcDbLayout
  1
Layout2
 70
     1
 71
     2
 10
0.0
 20
0.0
 11
0.0
 21
0.0
 12
0.0
 22
0.0
 32
0.0
 14
0.0
 24
0.0
 34
0.0
 15
0.0
 25
0.0
 35
0.0
146
0.0
 13
0.0
 23
0.0
 33
0.0
 16
1.0
 26
0.0
 36
0.0
 17
0.0
 27
1.0
 37
0.0
 76
     0
330
23
  0
LAYOUT
  5
22
102
{ACAD_REACTORS
330
1A
102
}
330
1A
100
AcDbPlotSettings
  1

  2
none_device
  4
Letter_(8.50_x_11.00_Inches)
  6

 40
6.35
 41
6.35
 42
6.35000508
 43
6.35000508
 44
215.9
 45
279.4
 46
0.0
 47
0.0
 48
0.0
 49
0.0
140
0.0
141
0.0
142
1.0
143
1.0
 70
  1712
 72
     0
 73
     0
 74
     0
  7

 75
     0
147
1.0
148
0.0
149
0.0
100
AcDbLayout
  1
Model
 70
     1
 71
     0
 10
0.0
 20
0.0
 11
33.0
 21
25.5
 12
0.0
 22
0.0
 32
0.0
 14
0.0
 24
0.0
 34
0.0
 15
33.0
 25
25.5
 35
0.0
146
0.0
 13
0.0
 23
0.0
 33
0.0
 16
1.0
 26
0.0
 36
0.0
 17
0.0
 27
1.0
 37
0.0
 76
     0
330
1F
331
29
  0
MLINESTYLE
  5
18
102
{ACAD_REACTORS
330
17
102
}
330
17
100
AcDbMlineStyle
  2
Standard
 70
     0
  3

 62
   256
 51
90.0
 52
90.0
 71
     2
 49
0.5
 62
   256
  6
BYLAYER
 49
-0.5
 62
   256
  6
BYLAYER
  0
ACDBPLACEHOLDER
  5
F
102
{ACAD_REACTORS
330
E
102
}
330
E
  0
SCALE
  5
48
102
{ACAD_REACTORS
330
47
102
}
330
47
100
AcDbScale
 70
     0
300
1:1
140
1.0
141
1.0
290
     1
  0
SCALE
  5
49
102
{ACAD_REACTORS
330
47
102
}
330
47
100
AcDbScale
 70
     0
300
1/128" = 1'-0"
140
0.0078125
141
12.0
290
     0
  0
SCALE
  5
4A
102
{ACAD_REACTORS
330
47
102
}
330
47
100
AcDbScale
 70
     0
300
1/64" = 1'-0"
140
0.015625
141
12.0
290
     0
  0
SCALE
  5
4B
102
{ACAD_REACTORS
330
47
102
}
330
47
100
AcDbScale
 70
     0
300
1/32" = 1'-0"
140
0.03125
141
12.0
290
     0
  0
SCALE
  5
4C
102
{ACAD_REACTORS
330
47
102
}
330
47
100
AcDbScale
 70
     0
300
1/16" = 1'-0"
140
0.0625
141
12.0
290
     0
  0
SCALE
  5
4D
102
{ACAD_REACTORS
330
47
102
}
330
47
100
AcDbScale
 70
     0
300
3/32" = 1'-0"
140
0.09375
141
12.0
290
     0
  0
SCALE
  5
4E
102
{ACAD_REACTORS
330
47
102
}
330
47
100
AcDbScale
 70
     0
300
1/8" = 1'-0"
140
0.125
141
12.0
290
     0
  0
SCALE
  5
4F
102
{ACAD_REACTORS
330
47
102
}
330
47
100
AcDbScale
 70
     0
300
3/16" = 1'-0"
140
0.1875
141
12.0
290
     0
  0
SCALE
  5
50
102
{ACAD_REACTORS
330
47
102
}
330
47
100
AcDbScale
 70
     0
300
1/4" = 1'-0"
140
0.25
141
12.0
290
     0
  0
SCALE
  5
51
102
{ACAD_REACTORS
330
47
102
}
330
47
100
AcDbScale
 70
     0
300
3/8" = 1'-0"
140
0.375
141
12.0
290
     0
  0
SCALE
  5
52
102
{ACAD_REACTORS
330
47
102
}
330
47
100
AcDbScale
 70
     0
300
1/2" = 1'-0"
140
0.5
141
12.0
290
     0
  0
SCALE
  5
53
102
{ACAD_REACTORS
330
47
102
}
330
47
100
AcDbScale
 70
     0
300
3/4" = 1'-0"
140
0.75
141
12.0
290
     0
  0
SCALE
  5
54
102
{ACAD_REACTORS
330
47
102
}
330
47
100
AcDbScale
 70
     0
300
1" = 1'-0"
140
1.0
141
12.0
290
     0
  0
SCALE
  5
55
102
{ACAD_REACTORS
330
47
102
}
330
47
100
AcDbScale
 70
     0
300
1-1/2" = 1'-0"
140
1.5
141
12.0
290
     0
  0
SCALE
  5
56
102
{ACAD_REACTORS
330
47
102
}
330
47
100
AcDbScale
 70
     0
300
3" = 1'-0"
140
3.0
141
12.0
290
     0
  0
SCALE
  5
57
102
{ACAD_REACTORS
330
47
102
}
330
47
100
AcDbScale
 70
     0
300
6" = 1'-0"
140
6.0
141
12.0
290
     0
  0
SCALE
  5
58
102
{ACAD_REACTORS
330
47
102
}
330
47
100
AcDbScale
 70
     0
300
1'-0" = 1'-0"
140
12.0
141
12.0
290
     0
  0
ENDSEC
  0
EOF
