  0
SECTION
  2
HEADER
  9
$ACADVER
  1
AC1015
  9
$ACADMAINTVER
 70
     6
  9
$DWGCODEPAGE
  3
ANSI_1252
  9
$INSBASE
 10
0.0
 20
0.0
 30
0.0
  9
$EXTMIN
 10
0.0
 20
0.0
 30
0.0
  9
$EXTMAX
 10
44.0
 20
34.0
 30
0.0
  9
$LIMMIN
 10
0.0
 20
0.0
  9
$LIMMAX
 10
44.0
 20
34.0
  9
$ORTHOMODE
 70
     0
  9
$REGENMODE
 70
     1
  9
$FILLMODE
 70
     1
  9
$QTEXTMODE
 70
     0
  9
$MIRRTEXT
 70
     1
  9
$LTSCALE
 40
4.0
  9
$ATTMODE
 70
     1
  9
$TEXTSIZE
 40
0.5
  9
$TRACEWID
 40
0.05
  9
$TEXTSTYLE
  7
Standard
  9
$CLAYER
  8
0
  9
$CELTYPE
  6
ByLayer
  9
$CECOLOR
 62
   256
  9
$CELTSCALE
 40
1.0
  9
$DISPSILH
 70
     0
  9
$DIMSCALE
 40
1.0
  9
$DIMASZ
 40
0.52
  9
$DIMEXO
 40
0.2
  9
$DIMDLI
 40
0.38
  9
$DIMRND
 40
0.0
  9
$DIMDLE
 40
0.0
  9
$DIMEXE
 40
0.5
  9
$DIMTP
 40
0.0
  9
$DIMTM
 40
0.0
  9
$DIMTXT
 40
0.5
  9
$DIMCEN
 40
0.09
  9
$DIMTSZ
 40
0.0
  9
$DIMTOL
 70
     0
  9
$DIMLIM
 70
     0
  9
$DIMTIH
 70
     1
  9
$DIMTOH
 70
     1
  9
$DIMSE1
 70
     0
  9
$DIMSE2
 70
     0
  9
$DIMTAD
 70
     0
  9
$DIMZIN
 70
     1
  9
$DIMBLK
  1

  9
$DIMASO
 70
     1
  9
$DIMSHO
 70
     1
  9
$DIMPOST
  1

  9
$DIMAPOST
  1

  9
$DIMALT
 70
     0
  9
$DIMALTD
 70
     2
  9
$DIMALTF
 40
25.4
  9
$DIMLFAC
 40
1.0
  9
$DIMTOFL
 70
     0
  9
$DIMTVP
 40
0.0
  9
$DIMTIX
 70
     0
  9
$DIMSOXD
 70
     0
  9
$DIMSAH
 70
     0
  9
$DIMBLK1
  1

  9
$DIMBLK2
  1

  9
$DIMSTYLE
  2
Standard
  9
$DIMCLRD
 70
     0
  9
$DIMCLRE
 70
     0
  9
$DIMCLRT
 70
     0
  9
$DIMTFAC
 40
1.0
  9
$DIMGAP
 40
0.24
  9
$DIMJUST
 70
     0
  9
$DIMSD1
 70
     0
  9
$DIMSD2
 70
     0
  9
$DIMTOLJ
 70
     1
  9
$DIMTZIN
 70
     1
  9
$DIMALTZ
 70
     0
  9
$DIMALTTZ
 70
     0
  9
$DIMUPT
 70
     0
  9
$DIMDEC
 70
     0
  9
$DIMTDEC
 70
     0
  9
$DIMALTU
 70
     2
  9
$DIMALTTD
 70
     2
  9
$DIMTXSTY
  7
Standard
  9
$DIMAUNIT
 70
     0
  9
$DIMADEC
 70
     0
  9
$DIMALTRND
 40
0.0
  9
$DIMAZIN
 70
     0
  9
$DIMDSEP
 70
    46
  9
$DIMATFIT
 70
     3
  9
$DIMFRAC
 70
     0
  9
$DIMLDRBLK
  1

  9
$DIMLUNIT
 70
     2
  9
$DIMLWD
 70
    -2
  9
$DIMLWE
 70
    -2
  9
$DIMTMOVE
 70
     0
  9
$LUNITS
 70
     2
  9
$LUPREC
 70
     6
  9
$SKETCHINC
 40
0.1
  9
$FILLETRAD
 40
0.0
  9
$AUNITS
 70
     0
  9
$AUPREC
 70
     2
  9
$MENU
  1
.
  9
$ELEVATION
 40
0.0
  9
$PELEVATION
 40
0.0
  9
$THICKNESS
 40
0.0
  9
$LIMCHECK
 70
     0
  9
$CHAMFERA
 40
0.0
  9
$CHAMFERB
 40
0.0
  9
$CHAMFERC
 40
0.0
  9
$CHAMFERD
 40
0.0
  9
$SKPOLY
 70
     0
  9
$TDCREATE
 40
2460504.664663727
  9
$TDUCREATE
 40
2460504.956330394
  9
$TDUPDATE
 40
2460504.664664155
  9
$TDUUPDATE
 40
2460504.956330822
  9
$TDINDWG
 40
0.0000000116
  9
$TDUSRTIMER
 40
0.0000000116
  9
$USRTIMER
 70
     1
  9
$ANGBASE
 50
0.0
  9
$ANGDIR
 70
     0
  9
$PDMODE
 70
     0
  9
$PDSIZE
 40
-1.0
  9
$PLINEWID
 40
0.0
  9
$SPLFRAME
 70
     0
  9
$SPLINETYPE
 70
     6
  9
$SPLINESEGS
 70
     8
  9
$HANDSEED
  5
189
  9
$SURFTAB1
 70
     6
  9
$SURFTAB2
 70
     6
  9
$SURFTYPE
 70
     6
  9
$SURFU
 70
     6
  9
$SURFV
 70
     6
  9
$UCSBASE
  2

  9
$UCSNAME
  2

  9
$UCSORG
 10
0.0
 20
0.0
 30
0.0
  9
$UCSXDIR
 10
1.0
 20
0.0
 30
0.0
  9
$UCSYDIR
 10
0.0
 20
1.0
 30
0.0
  9
$UCSORTHOREF
  2

  9
$UCSORTHOVIEW
 70
     0
  9
$UCSORGTOP
 10
0.0
 20
0.0
 30
0.0
  9
$UCSORGBOTTOM
 10
0.0
 20
0.0
 30
0.0
  9
$UCSORGLEFT
 10
0.0
 20
0.0
 30
0.0
  9
$UCSORGRIGHT
 10
0.0
 20
0.0
 30
0.0
  9
$UCSORGFRONT
 10
0.0
 20
0.0
 30
0.0
  9
$UCSORGBACK
 10
0.0
 20
0.0
 30
0.0
  9
$PUCSBASE
  2

  9
$PUCSNAME
  2

  9
$PUCSORG
 10
0.0
 20
0.0
 30
0.0
  9
$PUCSXDIR
 10
1.0
 20
0.0
 30
0.0
  9
$PUCSYDIR
 10
0.0
 20
1.0
 30
0.0
  9
$PUCSORTHOREF
  2

  9
$PUCSORTHOVIEW
 70
     0
  9
$PUCSORGTOP
 10
0.0
 20
0.0
 30
0.0
  9
$PUCSORGBOTTOM
 10
0.0
 20
0.0
 30
0.0
  9
$PUCSORGLEFT
 10
0.0
 20
0.0
 30
0.0
  9
$PUCSORGRIGHT
 10
0.0
 20
0.0
 30
0.0
  9
$PUCSORGFRONT
 10
0.0
 20
0.0
 30
0.0
  9
$PUCSORGBACK
 10
0.0
 20
0.0
 30
0.0
  9
$USERI1
 70
     0
  9
$USERI2
 70
     0
  9
$USERI3
 70
     0
  9
$USERI4
 70
     0
  9
$USERI5
 70
     0
  9
$USERR1
 40
0.0
  9
$USERR2
 40
0.0
  9
$USERR3
 40
0.0
  9
$USERR4
 40
0.0
  9
$USERR5
 40
0.0
  9
$WORLDVIEW
 70
     1
  9
$SHADEDGE
 70
     3
  9
$SHADEDIF
 70
    70
  9
$TILEMODE
 70
     1
  9
$MAXACTVP
 70
    64
  9
$PINSBASE
 10
0.0
 20
0.0
 30
0.0
  9
$PLIMCHECK
 70
     0
  9
$PEXTMIN
 10
1.0000000000E+20
 20
1.0000000000E+20
 30
1.0000000000E+20
  9
$PEXTMAX
 10
-1.0000000000E+20
 20
-1.0000000000E+20
 30
-1.0000000000E+20
  9
$PLIMMIN
 10
0.0
 20
0.0
  9
$PLIMMAX
 10
12.0
 20
9.0
  9
$UNITMODE
 70
     0
  9
$VISRETAIN
 70
     1
  9
$PLINEGEN
 70
     0
  9
$PSLTSCALE
 70
     1
  9
$TREEDEPTH
 70
  3020
  9
$CMLSTYLE
  2
Standard
  9
$CMLJUST
 70
     0
  9
$CMLSCALE
 40
1.0
  9
$PROXYGRAPHICS
 70
     1
  9
$MEASUREMENT
 70
     0
  9
$CELWEIGHT
370
    -1
  9
$ENDCAPS
280
     0
  9
$JOINSTYLE
280
     0
  9
$LWDISPLAY
290
     1
  9
$INSUNITS
 70
     1
  9
$HYPERLINKBASE
  1

  9
$STYLESHEET
  1

  9
$XEDIT
290
     1
  9
$CEPSNTYPE
380
     0
  9
$PSTYLEMODE
290
     1
  9
$FINGERPRINTGUID
  2
{189e5d4c-3f9a-4f7c-ac1e-44ad22775e6d}
  9
$VERSIONGUID
  2
{FAEB1C32-E019-11D5-929B-00C0DF256EC4}
  9
$EXTNAMES
290
     1
  9
$PSVPSCALE
 40
0.0
  9
$OLESTARTUP
290
     0
  0
ENDSEC
  0
SECTION
  2
CLASSES
  0
CLASS
  1
ACDBDICTIONARYWDFLT
  2
AcDbDictionaryWithDefault
  3
ObjectDBX Classes
 90
        0
280
     0
281
     0
  0
CLASS
  1
VISUALSTYLE
  2
AcDbVisualStyle
  3
ObjectDBX Classes
 90
     4095
280
     0
281
     0
  0
CLASS
  1
MATERIAL
  2
AcDbMaterial
  3
ObjectDBX Classes
 90
     1153
280
     0
281
     0
  0
CLASS
  1
SCALE
  2
AcDbScale
  3
ObjectDBX Classes
 90
     1153
280
     0
281
     0
  0
CLASS
  1
TABLESTYLE
  2
AcDbTableStyle
  3
ObjectDBX Classes
 90
     4095
280
     0
281
     0
  0
CLASS
  1
MLEADERSTYLE
  2
AcDbMLeaderStyle
  3
ACDB_MLEADERSTYLE_CLASS
 90
     4095
280
     0
281
     0
  0
CLASS
  1
SUN
  2
AcDbSun
  3
SCENEOE
 90
     1153
280
     0
281
     0
  0
CLASS
  1
ACDBPLACEHOLDER
  2
AcDbPlaceHolder
  3
ObjectDBX Classes
 90
        0
280
     0
281
     0
  0
CLASS
  1
LAYOUT
  2
AcDbLayout
  3
ObjectDBX Classes
 90
        0
280
     0
281
     0
  0
ENDSEC
  0
SECTION
  2
TABLES
  0
TABLE
  2
VPORT
  5
8
330
0
100
AcDbSymbolTable
 70
     1
  0
VPORT
  5
29
330
8
100
AcDbSymbolTableRecord
100
AcDbViewportTableRecord
  2
*Active
 70
     0
 10
0.0
 20
0.0
 11
1.0
 21
1.0
 12
22.0
 22
17.0
 13
0.0
 23
0.0
 14
0.5
 24
0.5
 15
0.5
 25
0.5
 16
0.0
 26
0.0
 36
1.0
 17
0.0
 27
0.0
 37
0.0
 40
34.0
 41
1.2941176471
 42
50.0
 43
0.0
 44
0.0
 50
0.0
 51
0.0
 71
     0
 72
  2000
 73
     1
 74
     3
 75
     0
 76
     0
 77
     0
 78
     0
281
     0
 65
     1
110
0.0
120
0.0
130
0.0
111
1.0
121
0.0
131
0.0
112
0.0
122
1.0
132
0.0
 79
     0
146
0.0
  0
ENDTAB
  0
TABLE
  2
LTYPE
  5
5
330
0
100
AcDbSymbolTable
 70
     6
  0
LTYPE
  5
14
330
5
100
AcDbSymbolTableRecord
100
AcDbLinetypeTableRecord
  2
ByBlock
 70
     0
  3

 72
    65
 73
     0
 40
0.0
  0
LTYPE
  5
15
330
5
100
AcDbSymbolTableRecord
100
AcDbLinetypeTableRecord
  2
ByLayer
 70
     0
  3

 72
    65
 73
     0
 40
0.0
  0
LTYPE
  5
16
330
5
100
AcDbSymbolTableRecord
100
AcDbLinetypeTableRecord
  2
Continuous
 70
     0
  3
Solid line
 72
    65
 73
     0
 40
0.0
  0
LTYPE
  5
5E
330
5
100
AcDbSymbolTableRecord
100
AcDbLinetypeTableRecord
  2
HIDDEN
 70
     0
  3
Hidden __ __ __ __ __ __ __ __ __ __ __ __ __ __
 72
    65
 73
     2
 40
0.075
 49
0.05
 74
     0
 49
-0.025
 74
     0
  0
LTYPE
  5
5F
330
5
100
AcDbSymbolTableRecord
100
AcDbLinetypeTableRecord
  2
PHANTOM
 70
     0
  3
Phantom ______  __  __  ______  __  __  ______
 72
    65
 73
     6
 40
0.5
 49
0.25
 74
     0
 49
-0.05
 74
     0
 49
0.05
 74
     0
 49
-0.05
 74
     0
 49
0.05
 74
     0
 49
-0.05
 74
     0
  0
LTYPE
  5
60
330
5
100
AcDbSymbolTableRecord
100
AcDbLinetypeTableRecord
  2
CENTER
 70
     0
  3
Center ____ _ ____ _ ____ _ ____ _ ____ _ ____
 72
    65
 73
     4
 40
0.4
 49
0.25
 74
     0
 49
-0.05
 74
     0
 49
0.05
 74
     0
 49
-0.05
 74
     0
  0
LTYPE
  5
61
330
5
100
AcDbSymbolTableRecord
100
AcDbLinetypeTableRecord
  2
CENTERX2
 70
     0
  3
Center (2x) ________  __  ________  __  _____
 72
    65
 73
     4
 40
0.8
 49
0.5
 74
     0
 49
-0.1
 74
     0
 49
0.1
 74
     0
 49
-0.1
 74
     0
  0
LTYPE
  5
62
330
5
100
AcDbSymbolTableRecord
100
AcDbLinetypeTableRecord
  2
DOT2
 70
     0
  3
Dot (.5x) ........................................
 72
    65
 73
     2
 40
0.025
 49
0.0
 74
     0
 49
-0.025
 74
     0
  0
ENDTAB
  0
TABLE
  2
LAYER
  5
2
330
0
100
AcDbSymbolTable
 70
    11
  0
LAYER
  5
10
330
2
100
AcDbSymbolTableRecord
100
AcDbLayerTableRecord
  2
0
 70
     0
 62
     7
  6
Continuous
370
    -3
390
F
  0
LAYER
  5
63
330
2
100
AcDbSymbolTableRecord
100
AcDbLayerTableRecord
  2
SLD-0
 70
     0
 62
     7
  6
Continuous
370
    -3
390
F
  0
LAYER
  5
64
330
2
100
AcDbSymbolTableRecord
100
AcDbLayerTableRecord
  2
DIM
 70
     0
 62
     7
  6
Continuous
370
    -3
390
F
  0
LAYER
  5
65
330
2
100
AcDbSymbolTableRecord
100
AcDbLayerTableRecord
  2
CEN
 70
     0
 62
     1
  6
CENTER
370
    -3
390
F
  0
LAYER
  5
66
330
2
100
AcDbSymbolTableRecord
100
AcDbLayerTableRecord
  2
HAT
 70
     0
 62
     4
  6
Continuous
370
    -3
390
F
  0
LAYER
  5
67
330
2
100
AcDbSymbolTableRecord
100
AcDbLayerTableRecord
  2
OBJ
 70
     0
 62
     5
  6
Continuous
370
    -3
390
F
  0
LAYER
  5
68
330
2
100
AcDbSymbolTableRecord
100
AcDbLayerTableRecord
  2
SLD-DEFPOINTS
 70
     0
 62
     7
  6
Continuous
370
    -3
390
F
  0
LAYER
  5
69
330
2
100
AcDbSymbolTableRecord
100
AcDbLayerTableRecord
  2
HID
 70
     0
 62
     4
  6
HIDDEN
370
    -3
390
F
  0
LAYER
  5
6A
330
2
100
AcDbSymbolTableRecord
100
AcDbLayerTableRecord
  2
NOTE
 70
     0
 62
     7
  6
Continuous
370
    -3
390
F
  0
LAYER
  5
6B
330
2
100
AcDbSymbolTableRecord
100
AcDbLayerTableRecord
  2
TITLE
 70
     0
 62
     7
  6
Continuous
370
    -3
390
F
  0
LAYER
  5
6C
330
2
100
AcDbSymbolTableRecord
100
AcDbLayerTableRecord
  2
THICK_TITLE
 70
     0
 62
     7
  6
Continuous
370
   100
390
F
  0
ENDTAB
  0
TABLE
  2
STYLE
  5
3
330
0
100
AcDbSymbolTable
 70
     2
  0
STYLE
  5
11
330
3
100
AcDbSymbolTableRecord
100
AcDbTextStyleTableRecord
  2
Standard
 70
     0
 40
0.0
 41
1.0
 50
0.0
 71
     0
 42
0.5
  3
txt
  4

  0
STYLE
  5
AD
330
3
100
AcDbSymbolTableRecord
100
AcDbTextStyleTableRecord
  2
SLDTEXTSTYLE0
 70
     0
 40
0.0
 41
0.75
 50
0.0
 71
     0
 42
0.5
  3
TXT
  4

  0
ENDTAB
  0
TABLE
  2
VIEW
  5
6
330
0
100
AcDbSymbolTable
 70
     0
  0
ENDTAB
  0
TABLE
  2
UCS
  5
7
330
0
100
AcDbSymbolTable
 70
     0
  0
ENDTAB
  0
TABLE
  2
APPID
  5
9
330
0
100
AcDbSymbolTable
 70
     1
  0
APPID
  5
12
330
9
100
AcDbSymbolTableRecord
100
AcDbRegAppTableRecord
  2
ACAD
 70
     0
  0
ENDTAB
  0
TABLE
  2
DIMSTYLE
  5
A
330
0
100
AcDbSymbolTable
 70
     4
100
AcDbDimStyleTable
  0
DIMSTYLE
105
27
330
A
100
AcDbSymbolTableRecord
100
AcDbDimStyleTableRecord
  2
Standard
 70
     0
178
     0
340
11
  0
DIMSTYLE
105
AE
102
{ACAD_REACTORS
330
AC
330
C2
102
}
330
A
100
AcDbSymbolTableRecord
100
AcDbDimStyleTableRecord
  2
SLDDIMSTYLE0
 70
     0
 41
0.52
 44
0.0
 45
0.000000001
 78
    12
 79
     3
140
0.5
147
0.125
148
0.000000001
170
     1
172
     1
173
     1
178
     0
271
     6
272
     0
276
     2
277
     5
284
    12
289
     0
340
AD
  0
DIMSTYLE
105
D7
102
{ACAD_REACTORS
330
D6
330
151
102
}
330
A
100
AcDbSymbolTableRecord
100
AcDbDimStyleTableRecord
  2
SLDDIMSTYLE1
 70
     0
 41
0.52
 44
0.0
 45
0.000000001
 78
    12
 79
     3
140
0.5
147
0.125
148
0.000000001
170
     1
173
     1
178
     0
271
     0
272
     0
276
     2
277
     5
284
    12
340
AD
  0
DIMSTYLE
105
EC
102
{ACAD_REACTORS
330
EB
330
FF
330
13E
102
}
330
A
100
AcDbSymbolTableRecord
100
AcDbDimStyleTableRecord
  2
SLDDIMSTYLE2
 70
     0
 41
0.52
 44
0.0
 45
0.000000001
 78
    12
 79
     3
140
0.5
147
0.125
148
0.000000001
170
     1
173
     1
178
     0
271
     6
272
     0
276
     2
277
     5
284
    12
340
AD
  0
ENDTAB
  0
TABLE
  2
BLOCK_RECORD
  5
1
330
0
100
AcDbSymbolTable
 70
    11
  0
BLOCK_RECORD
  5
1F
330
1
100
AcDbSymbolTableRecord
100
AcDbBlockTableRecord
  2
*Model_Space
340
22
  0
BLOCK_RECORD
  5
1B
330
1
100
AcDbSymbolTableRecord
100
AcDbBlockTableRecord
  2
*Paper_Space
340
1E
  0
BLOCK_RECORD
  5
23
330
1
100
AcDbSymbolTableRecord
100
AcDbBlockTableRecord
  2
*Paper_Space0
340
26
  0
BLOCK_RECORD
  5
AF
330
1
100
AcDbSymbolTableRecord
100
AcDbBlockTableRecord
  2
_D
340
0
  0
BLOCK_RECORD
  5
C3
330
1
100
AcDbSymbolTableRecord
100
AcDbBlockTableRecord
  2
_D_1
340
0
  0
BLOCK_RECORD
  5
D8
330
1
100
AcDbSymbolTableRecord
100
AcDbBlockTableRecord
  2
_D_2
340
0
  0
BLOCK_RECORD
  5
ED
330
1
100
AcDbSymbolTableRecord
100
AcDbBlockTableRecord
  2
_D_3
340
0
  0
BLOCK_RECORD
  5
100
330
1
100
AcDbSymbolTableRecord
100
AcDbBlockTableRecord
  2
_D_4
340
0
  0
BLOCK_RECORD
  5
13F
330
1
100
AcDbSymbolTableRecord
100
AcDbBlockTableRecord
  2
_D_5
340
0
  0
BLOCK_RECORD
  5
152
330
1
100
AcDbSymbolTableRecord
100
AcDbBlockTableRecord
  2
_D_6
340
0
  0
BLOCK_RECORD
  5
164
330
1
100
AcDbSymbolTableRecord
100
AcDbBlockTableRecord
  2
SW_CENTERMARKSYMBOL_0
340
0
102
{BLKREFS
331
16F
102
}
  0
BLOCK_RECORD
  5
170
330
1
100
AcDbSymbolTableRecord
100
AcDbBlockTableRecord
  2
SW_CENTERMARKSYMBOL_1
340
0
102
{BLKREFS
331
17B
102
}
  0
BLOCK_RECORD
  5
17C
330
1
100
AcDbSymbolTableRecord
100
AcDbBlockTableRecord
  2
SW_CENTERMARKSYMBOL_2
340
0
102
{BLKREFS
331
187
102
}
  0
ENDTAB
  0
ENDSEC
  0
SECTION
  2
BLOCKS
  0
BLOCK
  5
20
330
1F
100
AcDbEntity
  8
0
100
AcDbBlockBegin
  2
*Model_Space
 70
     0
 10
0.0
 20
0.0
 30
0.0
  3
*Model_Space
  1

  0
ENDBLK
  5
21
330
1F
100
AcDbEntity
  8
0
100
AcDbBlockEnd
  0
BLOCK
  5
1C
330
1B
100
AcDbEntity
 67
     1
  8
0
100
AcDbBlockBegin
  2
*Paper_Space
 70
     0
 10
0.0
 20
0.0
 30
0.0
  3
*Paper_Space
  1

  0
ENDBLK
  5
1D
330
1B
100
AcDbEntity
 67
     1
  8
0
100
AcDbBlockEnd
  0
BLOCK
  5
24
330
23
100
AcDbEntity
  8
0
100
AcDbBlockBegin
  2
*Paper_Space0
 70
     0
 10
0.0
 20
0.0
 30
0.0
  3
*Paper_Space0
  1

  0
ENDBLK
  5
25
330
23
100
AcDbEntity
  8
0
100
AcDbBlockEnd
  0
BLOCK
  5
B0
330
AF
100
AcDbEntity
  8
0
100
AcDbBlockBegin
  2
_D
 70
     0
 10
0.0
 20
0.0
 30
0.0
  3
_D
  1

  0
SOLID
  5
B2
330
AF
100
AcDbEntity
  8
0
  6
Continuous
 62
     7
370
    18
100
AcDbTrace
 10
8.0763878759
 20
24.0500699405
 30
0.0
 11
8.5963878759
 21
23.9700699405
 31
0.0
 12
8.5963878759
 22
24.1300699405
 32
0.0
 13
8.5963878759
 23
24.1300699405
 33
0.0
  0
SOLID
  5
B3
330
AF
100
AcDbEntity
  8
0
  6
Continuous
 62
     7
370
    18
100
AcDbTrace
 10
7.7863878759
 20
24.0500699405
 30
0.0
 11
7.2663878759
 21
24.1300699405
 31
0.0
 12
7.2663878759
 22
23.9700699405
 32
0.0
 13
7.2663878759
 23
23.9700699405
 33
0.0
  0
LINE
  5
B4
330
AF
100
AcDbEntity
  8
0
  6
Continuous
 62
     7
370
     0
100
AcDbLine
 10
4.4569806305
 20
24.046250418
 30
0.0
 11
4.304636882
 21
24.046250418
 31
0.0
  0
LINE
  5
B5
330
AF
100
AcDbEntity
  8
0
  6
Continuous
 62
     7
370
     0
100
AcDbLine
 10
4.304636882
 20
24.046250418
 30
0.0
 11
4.304636882
 21
23.2525003941
 31
0.0
  0
LINE
  5
B6
330
AF
100
AcDbEntity
  8
0
  6
Continuous
 62
     7
370
     0
100
AcDbLine
 10
4.304636882
 20
23.2525003941
 30
0.0
 11
4.4569806305
 21
23.2525003941
 31
0.0
  0
LINE
  5
B7
330
AF
100
AcDbEntity
  8
0
  6
Continuous
 62
     7
370
     0
100
AcDbLine
 10
6.0764250425
 20
24.046250418
 30
0.0
 11
6.228768791
 21
24.046250418
 31
0.0
  0
LINE
  5
B8
330
AF
100
AcDbEntity
  8
0
  6
Continuous
 62
     7
370
     0
100
AcDbLine
 10
6.228768791
 20
24.046250418
 30
0.0
 11
6.228768791
 21
23.2525003941
 31
0.0
  0
LINE
  5
B9
330
AF
100
AcDbEntity
  8
0
  6
Continuous
 62
     7
370
     0
100
AcDbLine
 10
6.228768791
 20
23.2525003941
 30
0.0
 11
6.0764250425
 21
23.2525003941
 31
0.0
  0
LINE
  5
BA
330
AF
100
AcDbEntity
  8
0
  6
Continuous
 62
     7
370
     0
100
AcDbLine
 10
8.0763878759
 20
23.1685561062
 30
0.0
 11
8.0763878759
 21
24.5500699405
 31
0.0
  0
LINE
  5
BB
330
AF
100
AcDbEntity
  8
0
  6
Continuous
 62
     7
370
     0
100
AcDbLine
 10
7.7863878759
 20
21.1835561062
 30
0.0
 11
7.7863878759
 21
24.5500699405
 31
0.0
  0
LINE
  5
BC
330
AF
100
AcDbEntity
  8
0
  6
Continuous
 62
     7
370
     0
100
AcDbLine
 10
8.0763878759
 20
24.0500699405
 30
0.0
 11
9.0763878759
 21
24.0500699405
 31
0.0
  0
LINE
  5
BD
330
AF
100
AcDbEntity
  8
0
  6
Continuous
 62
     7
370
     0
100
AcDbLine
 10
7.7863878759
 20
24.0500699405
 30
0.0
 11
6.6672236051
 21
24.0500699405
 31
0.0
  0
MTEXT
  5
BE
330
AF
100
AcDbEntity
  8
0
  6
Continuous
 62
     7
370
    18
100
AcDbMText
 10
4.1550709108
 20
24.799985728
 30
0.0
 40
0.5
 41
0.0
 71
     1
 72
     1
  1

  7
SLDTEXTSTYLE0
 73
     1
 44
1.0
  0
MTEXT
  5
BF
330
AF
100
AcDbEntity
  8
0
  6
Continuous
 62
     7
370
    18
100
AcDbMText
 10
4.4635778043
 20
24.7923468021
 30
0.0
 40
0.5
 41
0.0
 71
     1
 72
     1
  1
5/16"
  7
SLDTEXTSTYLE0
 73
     1
 44
1.0
  0
MTEXT
  5
C0
330
AF
100
AcDbEntity
  8
0
  6
Continuous
 62
     7
370
    18
100
AcDbMText
 10
4.4569806305
 20
23.897034319
 30
0.0
 40
0.5
 41
0.0
 71
     1
 72
     1
  1
7mm
  7
SLDTEXTSTYLE0
 73
     1
 44
1.0
  0
MTEXT
  5
C1
330
AF
100
AcDbEntity
  8
0
  6
Continuous
 62
     7
370
    18
100
AcDbMText
 10
6.5686124294
 20
24.799985728
 30
0.0
 40
0.5
 41
0.0
 71
     1
 72
     1
  1

  7
SLDTEXTSTYLE0
 73
     1
 44
1.0
  0
ENDBLK
  5
B1
330
AF
100
AcDbEntity
  8
0
100
AcDbBlockEnd
  0
BLOCK
  5
C4
330
C3
100
AcDbEntity
  8
0
100
AcDbBlockBegin
  2
_D_1
 70
     0
 10
0.0
 20
0.0
 30
0.0
  3
_D_1
  1

  0
SOLID
  5
C6
330
C3
100
AcDbEntity
  8
0
  6
Continuous
 62
     7
370
    18
100
AcDbTrace
 10
8.0763878759
 20
16.789596759
 30
0.0
 11
7.5563878759
 21
16.869596759
 31
0.0
 12
7.5563878759
 22
16.709596759
 32
0.0
 13
7.5563878759
 23
16.709596759
 33
0.0
  0
SOLID
  5
C7
330
C3
100
AcDbEntity
  8
0
  6
Continuous
 62
     7
370
    18
100
AcDbTrace
 10
8.4513878759
 20
16.789596759
 30
0.0
 11
8.9713878759
 21
16.709596759
 31
0.0
 12
8.9713878759
 22
16.869596759
 32
0.0
 13
8.9713878759
 23
16.869596759
 33
0.0
  0
LINE
  5
C8
330
C3
100
AcDbEntity
  8
0
  6
Continuous
 62
     7
370
     0
100
AcDbLine
 10
5.2171403342
 20
16.7857772365
 30
0.0
 11
5.0647965857
 21
16.7857772365
 31
0.0
  0
LINE
  5
C9
330
C3
100
AcDbEntity
  8
0
  6
Continuous
 62
     7
370
     0
100
AcDbLine
 10
5.0647965857
 20
16.7857772365
 30
0.0
 11
5.0647965857
 21
15.9920272126
 31
0.0
  0
LINE
  5
CA
330
C3
100
AcDbEntity
  8
0
  6
Continuous
 62
     7
370
     0
100
AcDbLine
 10
5.0647965857
 20
15.9920272126
 30
0.0
 11
5.2171403342
 21
15.9920272126
 31
0.0
  0
LINE
  5
CB
330
C3
100
AcDbEntity
  8
0
  6
Continuous
 62
     7
370
     0
100
AcDbLine
 10
7.206029265
 20
16.7857772365
 30
0.0
 11
7.3583730135
 21
16.7857772365
 31
0.0
  0
LINE
  5
CC
330
C3
100
AcDbEntity
  8
0
  6
Continuous
 62
     7
370
     0
100
AcDbLine
 10
7.3583730135
 20
16.7857772365
 30
0.0
 11
7.3583730135
 21
15.9920272126
 31
0.0
  0
LINE
  5
CD
330
C3
100
AcDbEntity
  8
0
  6
Continuous
 62
     7
370
     0
100
AcDbLine
 10
7.3583730135
 20
15.9920272126
 30
0.0
 11
7.206029265
 21
15.9920272126
 31
0.0
  0
LINE
  5
CE
330
C3
100
AcDbEntity
  8
0
  6
Continuous
 62
     7
370
     0
100
AcDbLine
 10
8.0763878759
 20
17.7985561062
 30
0.0
 11
8.0763878759
 21
16.289596759
 31
0.0
  0
LINE
  5
CF
330
C3
100
AcDbEntity
  8
0
  6
Continuous
 62
     7
370
     0
100
AcDbLine
 10
8.4513878759
 20
17.8485561062
 30
0.0
 11
8.4513878759
 21
16.289596759
 31
0.0
  0
LINE
  5
D0
330
C3
100
AcDbEntity
  8
0
  6
Continuous
 62
     7
370
     0
100
AcDbLine
 10
8.0763878759
 20
16.789596759
 30
0.0
 11
7.796827681
 21
16.789596759
 31
0.0
  0
LINE
  5
D1
330
C3
100
AcDbEntity
  8
0
  6
Continuous
 62
     7
370
     0
100
AcDbLine
 10
8.4513878759
 20
16.789596759
 30
0.0
 11
9.4513878759
 21
16.789596759
 31
0.0
  0
MTEXT
  5
D2
330
C3
100
AcDbEntity
  8
0
  6
Continuous
 62
     7
370
    18
100
AcDbMText
 10
4.9152306145
 20
17.5395125465
 30
0.0
 40
0.5
 41
0.0
 71
     1
 72
     1
  1

  7
SLDTEXTSTYLE0
 73
     1
 44
1.0
  0
MTEXT
  5
D3
330
C3
100
AcDbEntity
  8
0
  6
Continuous
 62
     7
370
    18
100
AcDbMText
 10
5.5931819534
 20
17.5318736206
 30
0.0
 40
0.5
 41
0.0
 71
     1
 72
     1
  1
3/8"
  7
SLDTEXTSTYLE0
 73
     1
 44
1.0
  0
MTEXT
  5
D4
330
C3
100
AcDbEntity
  8
0
  6
Continuous
 62
     7
370
    18
100
AcDbMText
 10
5.2171403342
 20
16.6365611375
 30
0.0
 40
0.5
 41
0.0
 71
     1
 72
     1
  1
10mm
  7
SLDTEXTSTYLE0
 73
     1
 44
1.0
  0
MTEXT
  5
D5
330
C3
100
AcDbEntity
  8
0
  6
Continuous
 62
     7
370
    18
100
AcDbMText
 10
7.6982166519
 20
17.5395125465
 30
0.0
 40
0.5
 41
0.0
 71
     1
 72
     1
  1

  7
SLDTEXTSTYLE0
 73
     1
 44
1.0
  0
ENDBLK
  5
C5
330
C3
100
AcDbEntity
  8
0
100
AcDbBlockEnd
  0
BLOCK
  5
D9
330
D8
100
AcDbEntity
  8
0
100
AcDbBlockBegin
  2
_D_2
 70
     0
 10
0.0
 20
0.0
 30
0.0
  3
_D_2
  1

  0
SOLID
  5
DB
330
D8
100
AcDbEntity
  8
0
  6
Continuous
 62
     7
370
    18
100
AcDbTrace
 10
8.0763878759
 20
24.0500699405
 30
0.0
 11
8.5963878759
 21
23.9700699405
 31
0.0
 12
8.5963878759
 22
24.1300699405
 32
0.0
 13
8.5963878759
 23
24.1300699405
 33
0.0
  0
SOLID
  5
DC
330
D8
100
AcDbEntity
  8
0
  6
Continuous
 62
     7
370
    18
100
AcDbTrace
 10
15.0663878759
 20
24.0500699405
 30
0.0
 11
14.5463878759
 21
24.1300699405
 31
0.0
 12
14.5463878759
 22
23.9700699405
 32
0.0
 13
14.5463878759
 23
23.9700699405
 33
0.0
  0
LINE
  5
DD
330
D8
100
AcDbEntity
  8
0
  6
Continuous
 62
     7
370
     0
100
AcDbLine
 10
10.3922212977
 20
24.046250418
 30
0.0
 11
10.2398775492
 21
24.046250418
 31
0.0
  0
LINE
  5
DE
330
D8
100
AcDbEntity
  8
0
  6
Continuous
 62
     7
370
     0
100
AcDbLine
 10
10.2398775492
 20
24.046250418
 30
0.0
 11
10.2398775492
 21
23.2525003941
 31
0.0
  0
LINE
  5
DF
330
D8
100
AcDbEntity
  8
0
  6
Continuous
 62
     7
370
     0
100
AcDbLine
 10
10.2398775492
 20
23.2525003941
 30
0.0
 11
10.3922212977
 21
23.2525003941
 31
0.0
  0
LINE
  5
E0
330
D8
100
AcDbEntity
  8
0
  6
Continuous
 62
     7
370
     0
100
AcDbLine
 10
12.7505546007
 20
24.046250418
 30
0.0
 11
12.9028983491
 21
24.046250418
 31
0.0
  0
LINE
  5
E1
330
D8
100
AcDbEntity
  8
0
  6
Continuous
 62
     7
370
     0
100
AcDbLine
 10
12.9028983491
 20
24.046250418
 30
0.0
 11
12.9028983491
 21
23.2525003941
 31
0.0
  0
LINE
  5
E2
330
D8
100
AcDbEntity
  8
0
  6
Continuous
 62
     7
370
     0
100
AcDbLine
 10
12.9028983491
 20
23.2525003941
 30
0.0
 11
12.7505546007
 21
23.2525003941
 31
0.0
  0
LINE
  5
E3
330
D8
100
AcDbEntity
  8
0
  6
Continuous
 62
     7
370
     0
100
AcDbLine
 10
8.0763878759
 20
23.1685561062
 30
0.0
 11
8.0763878759
 21
24.5500699405
 31
0.0
  0
LINE
  5
E4
330
D8
100
AcDbEntity
  8
0
  6
Continuous
 62
     7
370
     0
100
AcDbLine
 10
15.0663878759
 20
19.2415561062
 30
0.0
 11
15.0663878759
 21
24.5500699405
 31
0.0
  0
LINE
  5
E5
330
D8
100
AcDbEntity
  8
0
  6
Continuous
 62
     7
370
     0
100
AcDbLine
 10
8.0763878759
 20
24.0500699405
 30
0.0
 11
9.8014227351
 21
24.0500699405
 31
0.0
  0
LINE
  5
E6
330
D8
100
AcDbEntity
  8
0
  6
Continuous
 62
     7
370
     0
100
AcDbLine
 10
15.0663878759
 20
24.0500699405
 30
0.0
 11
13.3413530166
 21
24.0500699405
 31
0.0
  0
MTEXT
  5
E7
330
D8
100
AcDbEntity
  8
0
  6
Continuous
 62
     7
370
    18
100
AcDbMText
 10
10.0903115781
 20
24.799985728
 30
0.0
 40
0.5
 41
0.0
 71
     1
 72
     1
  1

  7
SLDTEXTSTYLE0
 73
     1
 44
1.0
  0
MTEXT
  5
E8
330
D8
100
AcDbEntity
  8
0
  6
Continuous
 62
     7
370
    18
100
AcDbMText
 10
11.2835406894
 20
24.7923468021
 30
0.0
 40
0.5
 41
0.0
 71
     1
 72
     1
  1
7"
  7
SLDTEXTSTYLE0
 73
     1
 44
1.0
  0
MTEXT
  5
E9
330
D8
100
AcDbEntity
  8
0
  6
Continuous
 62
     7
370
    18
100
AcDbMText
 10
10.3922212977
 20
23.897034319
 30
0.0
 40
0.5
 41
0.0
 71
     1
 72
     1
  1
178mm
  7
SLDTEXTSTYLE0
 73
     1
 44
1.0
  0
MTEXT
  5
EA
330
D8
100
AcDbEntity
  8
0
  6
Continuous
 62
     7
370
    18
100
AcDbMText
 10
13.2427419876
 20
24.799985728
 30
0.0
 40
0.5
 41
0.0
 71
     1
 72
     1
  1

  7
SLDTEXTSTYLE0
 73
     1
 44
1.0
  0
ENDBLK
  5
DA
330
D8
100
AcDbEntity
  8
0
100
AcDbBlockEnd
  0
BLOCK
  5
EE
330
ED
100
AcDbEntity
  8
0
100
AcDbBlockBegin
  2
_D_3
 70
     0
 10
0.0
 20
0.0
 30
0.0
  3
_D_3
  1

  0
SOLID
  5
F0
330
ED
100
AcDbEntity
  8
0
  6
Continuous
 62
     7
370
    18
100
AcDbTrace
 10
15.0663878759
 20
11.6567529566
 30
0.0
 11
14.5463878759
 21
11.7367529566
 31
0.0
 12
14.5463878759
 22
11.5767529566
 32
0.0
 13
14.5463878759
 23
11.5767529566
 33
0.0
  0
SOLID
  5
F1
330
ED
100
AcDbEntity
  8
0
  6
Continuous
 62
     7
370
    18
100
AcDbTrace
 10
9.5963878759
 20
11.6567529566
 30
0.0
 11
10.1163878759
 21
11.5767529566
 31
0.0
 12
10.1163878759
 22
11.7367529566
 32
0.0
 13
10.1163878759
 23
11.7367529566
 33
0.0
  0
LINE
  5
F2
330
ED
100
AcDbEntity
  8
0
  6
Continuous
 62
     7
370
     0
100
AcDbLine
 10
11.152221261
 20
11.6567528833
 30
0.0
 11
10.9998775126
 21
11.6567528833
 31
0.0
  0
LINE
  5
F3
330
ED
100
AcDbEntity
  8
0
  6
Continuous
 62
     7
370
     0
100
AcDbLine
 10
10.9998775126
 20
11.6567528833
 30
0.0
 11
10.9998775126
 21
10.8630028594
 31
0.0
  0
LINE
  5
F4
330
ED
100
AcDbEntity
  8
0
  6
Continuous
 62
     7
370
     0
100
AcDbLine
 10
10.9998775126
 20
10.8630028594
 30
0.0
 11
11.152221261
 21
10.8630028594
 31
0.0
  0
LINE
  5
F5
330
ED
100
AcDbEntity
  8
0
  6
Continuous
 62
     7
370
     0
100
AcDbLine
 10
13.510554564
 20
11.6567528833
 30
0.0
 11
13.6628983125
 21
11.6567528833
 31
0.0
  0
LINE
  5
F6
330
ED
100
AcDbEntity
  8
0
  6
Continuous
 62
     7
370
     0
100
AcDbLine
 10
13.6628983125
 20
11.6567528833
 30
0.0
 11
13.6628983125
 21
10.8630028594
 31
0.0
  0
LINE
  5
F7
330
ED
100
AcDbEntity
  8
0
  6
Continuous
 62
     7
370
     0
100
AcDbLine
 10
13.6628983125
 20
10.8630028594
 30
0.0
 11
13.510554564
 21
10.8630028594
 31
0.0
  0
LINE
  5
F8
330
ED
100
AcDbEntity
  8
0
  6
Continuous
 62
     7
370
     0
100
AcDbLine
 10
15.0663878759
 20
13.0315561062
 30
0.0
 11
15.0663878759
 21
11.1567529566
 31
0.0
  0
LINE
  5
F9
330
ED
100
AcDbEntity
  8
0
  6
Continuous
 62
     7
370
     0
100
AcDbLine
 10
9.5963878759
 20
13.0315561062
 30
0.0
 11
9.5963878759
 21
11.1567529566
 31
0.0
  0
LINE
  5
FA
330
ED
100
AcDbEntity
  8
0
  6
Continuous
 62
     7
370
     0
100
AcDbLine
 10
15.0663878759
 20
11.6567529566
 30
0.0
 11
13.9166308306
 21
11.6567529566
 31
0.0
  0
LINE
  5
FB
330
ED
100
AcDbEntity
  8
0
  6
Continuous
 62
     7
370
     0
100
AcDbLine
 10
9.5963878759
 20
11.6567529566
 30
0.0
 11
10.7461449212
 21
11.6567529566
 31
0.0
  0
MTEXT
  5
FC
330
ED
100
AcDbEntity
  8
0
  6
Continuous
 62
     7
370
    18
100
AcDbMText
 10
11.0588705094
 20
12.402849304
 30
0.0
 40
0.5
 41
0.0
 71
     1
 72
     1
  1
%%c
  7
SLDTEXTSTYLE0
 73
     1
 44
1.0
  0
MTEXT
  5
FD
330
ED
100
AcDbEntity
  8
0
  6
Continuous
 62
     7
370
    18
100
AcDbMText
 10
11.8129329918
 20
12.402849304
 30
0.0
 40
0.5
 41
0.0
 71
     1
 72
     1
  1
5 1/2"
  7
SLDTEXTSTYLE0
 73
     1
 44
1.0
  0
MTEXT
  5
FE
330
ED
100
AcDbEntity
  8
0
  6
Continuous
 62
     7
370
    18
100
AcDbMText
 10
11.152221261
 20
11.5075367843
 30
0.0
 40
0.5
 41
0.0
 71
     1
 72
     1
  1
139mm
  7
SLDTEXTSTYLE0
 73
     1
 44
1.0
  0
ENDBLK
  5
EF
330
ED
100
AcDbEntity
  8
0
100
AcDbBlockEnd
  0
BLOCK
  5
101
330
100
100
AcDbEntity
  8
0
100
AcDbBlockBegin
  2
_D_4
 70
     0
 10
0.0
 20
0.0
 30
0.0
  3
_D_4
  1

  0
SOLID
  5
103
330
100
100
AcDbEntity
  8
0
  6
Continuous
 62
     7
370
    18
100
AcDbTrace
 10
16.6411910255
 20
22.9835561062
 30
0.0
 11
16.5611910255
 21
22.4635561062
 31
0.0
 12
16.7211910255
 22
22.4635561062
 32
0.0
 13
16.7211910255
 23
22.4635561062
 33
0.0
  0
SOLID
  5
104
330
100
100
AcDbEntity
  8
0
  6
Continuous
 62
     7
370
    18
100
AcDbTrace
 10
16.6411910255
 20
13.2315561062
 30
0.0
 11
16.7211910255
 21
13.7515561062
 31
0.0
 12
16.5611910255
 22
13.7515561062
 32
0.0
 13
16.5611910255
 23
13.7515561062
 33
0.0
  0
LINE
  5
105
330
100
100
AcDbEntity
  8
0
  6
Continuous
 62
     7
370
     0
100
AcDbLine
 10
15.4620244473
 20
18.1037365836
 30
0.0
 11
15.3096806989
 21
18.1037365836
 31
0.0
  0
LINE
  5
106
330
100
100
AcDbEntity
  8
0
  6
Continuous
 62
     7
370
     0
100
AcDbLine
 10
15.3096806989
 20
18.1037365836
 30
0.0
 11
15.3096806989
 21
17.3099865598
 31
0.0
  0
LINE
  5
107
330
100
100
AcDbEntity
  8
0
  6
Continuous
 62
     7
370
     0
100
AcDbLine
 10
15.3096806989
 20
17.3099865598
 30
0.0
 11
15.4620244473
 21
17.3099865598
 31
0.0
  0
LINE
  5
108
330
100
100
AcDbEntity
  8
0
  6
Continuous
 62
     7
370
     0
100
AcDbLine
 10
17.8203577503
 20
18.1037365836
 30
0.0
 11
17.9727014987
 21
18.1037365836
 31
0.0
  0
LINE
  5
109
330
100
100
AcDbEntity
  8
0
  6
Continuous
 62
     7
370
     0
100
AcDbLine
 10
17.9727014987
 20
18.1037365836
 30
0.0
 11
17.9727014987
 21
17.3099865598
 31
0.0
  0
LINE
  5
10A
330
100
100
AcDbEntity
  8
0
  6
Continuous
 62
     7
370
     0
100
AcDbLine
 10
17.9727014987
 20
17.3099865598
 30
0.0
 11
17.8203577503
 21
17.3099865598
 31
0.0
  0
LINE
  5
10B
330
100
100
AcDbEntity
  8
0
  6
Continuous
 62
     7
370
     0
100
AcDbLine
 10
15.2363878759
 20
22.9835561062
 30
0.0
 11
17.1411910255
 21
22.9835561062
 31
0.0
  0
LINE
  5
10C
330
100
100
AcDbEntity
  8
0
  6
Continuous
 62
     7
370
     0
100
AcDbLine
 10
15.2663878759
 20
13.2315561062
 30
0.0
 11
17.1411910255
 21
13.2315561062
 31
0.0
  0
LINE
  5
10D
330
100
100
AcDbEntity
  8
0
  6
Continuous
 62
     7
370
     0
100
AcDbLine
 10
16.6411910255
 20
22.9835561062
 30
0.0
 11
16.6411910255
 21
19.0066879927
 31
0.0
  0
LINE
  5
10E
330
100
100
AcDbEntity
  8
0
  6
Continuous
 62
     7
370
     0
100
AcDbLine
 10
16.6411910255
 20
13.2315561062
 30
0.0
 11
16.6411910255
 21
17.2084242197
 31
0.0
  0
MTEXT
  5
10F
330
100
100
AcDbEntity
  8
0
  6
Continuous
 62
     7
370
    18
100
AcDbMText
 10
15.1601147277
 20
18.8574718937
 30
0.0
 40
0.5
 41
0.0
 71
     1
 72
     1
  1

  7
SLDTEXTSTYLE0
 73
     1
 44
1.0
  0
MTEXT
  5
110
330
100
100
AcDbEntity
  8
0
  6
Continuous
 62
     7
370
    18
100
AcDbMText
 10
15.7457049735
 20
18.8498329678
 30
0.0
 40
0.5
 41
0.0
 71
     1
 72
     1
  1
9 3/4"
  7
SLDTEXTSTYLE0
 73
     1
 44
1.0
  0
MTEXT
  5
111
330
100
100
AcDbEntity
  8
0
  6
Continuous
 62
     7
370
    18
100
AcDbMText
 10
15.4620244473
 20
17.9545204847
 30
0.0
 40
0.5
 41
0.0
 71
     1
 72
     1
  1
248mm
  7
SLDTEXTSTYLE0
 73
     1
 44
1.0
  0
MTEXT
  5
112
330
100
100
AcDbEntity
  8
0
  6
Continuous
 62
     7
370
    18
100
AcDbMText
 10
18.3125451372
 20
18.8574718937
 30
0.0
 40
0.5
 41
0.0
 71
     1
 72
     1
  1

  7
SLDTEXTSTYLE0
 73
     1
 44
1.0
  0
ENDBLK
  5
102
330
100
100
AcDbEntity
  8
0
100
AcDbBlockEnd
  0
BLOCK
  5
140
330
13F
100
AcDbEntity
  8
0
100
AcDbBlockBegin
  2
_D_5
 70
     0
 10
0.0
 20
0.0
 30
0.0
  3
_D_5
  1

  0
SOLID
  5
142
330
13F
100
AcDbEntity
  8
0
  6
Continuous
 62
     7
370
    18
100
AcDbTrace
 10
19.8844189984
 20
21.2305694726
 30
0.0
 11
20.4044189984
 21
21.1505694726
 31
0.0
 12
20.4044189984
 22
21.3105694726
 32
0.0
 13
20.4044189984
 23
21.3105694726
 33
0.0
  0
SOLID
  5
143
330
13F
100
AcDbEntity
  8
0
  6
Continuous
 62
     7
370
    18
100
AcDbTrace
 10
23.3844189984
 20
21.2305694726
 30
0.0
 11
22.8644189984
 21
21.3105694726
 31
0.0
 12
22.8644189984
 22
21.1505694726
 32
0.0
 13
22.8644189984
 23
21.1505694726
 33
0.0
  0
LINE
  5
144
330
13F
100
AcDbEntity
  8
0
  6
Continuous
 62
     7
370
     0
100
AcDbLine
 10
24.3876195529
 20
21.2267499501
 30
0.0
 11
24.2352758045
 21
21.2267499501
 31
0.0
  0
LINE
  5
145
330
13F
100
AcDbEntity
  8
0
  6
Continuous
 62
     7
370
     0
100
AcDbLine
 10
24.2352758045
 20
21.2267499501
 30
0.0
 11
24.2352758045
 21
20.4329999262
 31
0.0
  0
LINE
  5
146
330
13F
100
AcDbEntity
  8
0
  6
Continuous
 62
     7
370
     0
100
AcDbLine
 10
24.2352758045
 20
20.4329999262
 30
0.0
 11
24.3876195529
 21
20.4329999262
 31
0.0
  0
LINE
  5
147
330
13F
100
AcDbEntity
  8
0
  6
Continuous
 62
     7
370
     0
100
AcDbLine
 10
26.3765084838
 20
21.2267499501
 30
0.0
 11
26.5288522322
 21
21.2267499501
 31
0.0
  0
LINE
  5
148
330
13F
100
AcDbEntity
  8
0
  6
Continuous
 62
     7
370
     0
100
AcDbLine
 10
26.5288522322
 20
21.2267499501
 30
0.0
 11
26.5288522322
 21
20.4329999262
 31
0.0
  0
LINE
  5
149
330
13F
100
AcDbEntity
  8
0
  6
Continuous
 62
     7
370
     0
100
AcDbLine
 10
26.5288522322
 20
20.4329999262
 30
0.0
 11
26.3765084838
 21
20.4329999262
 31
0.0
  0
LINE
  5
14A
330
13F
100
AcDbEntity
  8
0
  6
Continuous
 62
     7
370
     0
100
AcDbLine
 10
19.8844189984
 20
17.8073384663
 30
0.0
 11
19.8844189984
 21
21.7305694726
 31
0.0
  0
LINE
  5
14B
330
13F
100
AcDbEntity
  8
0
  6
Continuous
 62
     7
370
     0
100
AcDbLine
 10
23.3844189984
 20
17.8073384663
 30
0.0
 11
23.3844189984
 21
21.7305694726
 31
0.0
  0
LINE
  5
14C
330
13F
100
AcDbEntity
  8
0
  6
Continuous
 62
     7
370
     0
100
AcDbLine
 10
19.8844189984
 20
21.2305694726
 30
0.0
 11
23.3844189984
 21
21.2305694726
 31
0.0
  0
LINE
  5
14D
330
13F
100
AcDbEntity
  8
0
  6
Continuous
 62
     7
370
     0
100
AcDbLine
 10
23.3844189984
 20
21.2305694726
 30
0.0
 11
23.981543213
 21
21.2305694726
 31
0.0
  0
MTEXT
  5
14E
330
13F
100
AcDbEntity
  8
0
  6
Continuous
 62
     7
370
    18
100
AcDbMText
 10
24.4865778931
 20
21.9728463342
 30
0.0
 40
0.5
 41
0.0
 71
     1
 72
     1
  1
3 1/2"
  7
SLDTEXTSTYLE0
 73
     1
 44
1.0
  0
MTEXT
  5
14F
330
13F
100
AcDbEntity
  8
0
  6
Continuous
 62
     7
370
    18
100
AcDbMText
 10
24.3876195529
 20
21.0775338511
 30
0.0
 40
0.5
 41
0.0
 71
     1
 72
     1
  1
89mm
  7
SLDTEXTSTYLE0
 73
     1
 44
1.0
  0
MTEXT
  5
150
330
13F
100
AcDbEntity
  8
0
  6
Continuous
 62
     7
370
    18
100
AcDbMText
 10
26.6811959073
 20
21.9804852601
 30
0.0
 40
0.5
 41
0.0
 71
     1
 72
     1
  1
O.C.
  7
SLDTEXTSTYLE0
 73
     1
 44
1.0
  0
ENDBLK
  5
141
330
13F
100
AcDbEntity
  8
0
100
AcDbBlockEnd
  0
BLOCK
  5
153
330
152
100
AcDbEntity
  8
0
100
AcDbBlockBegin
  2
_D_6
 70
     0
 10
0.0
 20
0.0
 30
0.0
  3
_D_6
  1

  0
SOLID
  5
155
330
152
100
AcDbEntity
  8
0
  6
Continuous
 62
     7
370
    18
100
AcDbTrace
 10
26.1272028538
 20
19.8753384663
 30
0.0
 11
26.0472028538
 21
19.3553384663
 31
0.0
 12
26.2072028538
 22
19.3553384663
 32
0.0
 13
26.2072028538
 23
19.3553384663
 33
0.0
  0
SOLID
  5
156
330
152
100
AcDbEntity
  8
0
  6
Continuous
 62
     7
370
    18
100
AcDbTrace
 10
26.1272028538
 20
14.9053384663
 30
0.0
 11
26.2072028538
 21
15.4253384663
 31
0.0
 12
26.0472028538
 22
15.4253384663
 32
0.0
 13
26.0472028538
 23
15.4253384663
 33
0.0
  0
LINE
  5
157
330
152
100
AcDbEntity
  8
0
  6
Continuous
 62
     7
370
     0
100
AcDbLine
 10
24.9480362389
 20
17.390338393
 30
0.0
 11
24.7956924905
 21
17.390338393
 31
0.0
  0
LINE
  5
158
330
152
100
AcDbEntity
  8
0
  6
Continuous
 62
     7
370
     0
100
AcDbLine
 10
24.7956924905
 20
17.390338393
 30
0.0
 11
24.7956924905
 21
16.5965883691
 31
0.0
  0
LINE
  5
159
330
152
100
AcDbEntity
  8
0
  6
Continuous
 62
     7
370
     0
100
AcDbLine
 10
24.7956924905
 20
16.5965883691
 30
0.0
 11
24.9480362389
 21
16.5965883691
 31
0.0
  0
LINE
  5
15A
330
152
100
AcDbEntity
  8
0
  6
Continuous
 62
     7
370
     0
100
AcDbLine
 10
27.3063695419
 20
17.390338393
 30
0.0
 11
27.4587132904
 21
17.390338393
 31
0.0
  0
LINE
  5
15B
330
152
100
AcDbEntity
  8
0
  6
Continuous
 62
     7
370
     0
100
AcDbLine
 10
27.4587132904
 20
17.390338393
 30
0.0
 11
27.4587132904
 21
16.5965883691
 31
0.0
  0
LINE
  5
15C
330
152
100
AcDbEntity
  8
0
  6
Continuous
 62
     7
370
     0
100
AcDbLine
 10
27.4587132904
 20
16.5965883691
 30
0.0
 11
27.3063695419
 21
16.5965883691
 31
0.0
  0
LINE
  5
15D
330
152
100
AcDbEntity
  8
0
  6
Continuous
 62
     7
370
     0
100
AcDbLine
 10
21.8344189984
 20
19.8753384663
 30
0.0
 11
26.6272028538
 21
19.8753384663
 31
0.0
  0
LINE
  5
15E
330
152
100
AcDbEntity
  8
0
  6
Continuous
 62
     7
370
     0
100
AcDbLine
 10
21.8344189984
 20
14.9053384663
 30
0.0
 11
26.6272028538
 21
14.9053384663
 31
0.0
  0
LINE
  5
15F
330
152
100
AcDbEntity
  8
0
  6
Continuous
 62
     7
370
     0
100
AcDbLine
 10
26.1272028538
 20
19.8753384663
 30
0.0
 11
26.1272028538
 21
18.2856509769
 31
0.0
  0
LINE
  5
160
330
152
100
AcDbEntity
  8
0
  6
Continuous
 62
     7
370
     0
100
AcDbLine
 10
26.1272028538
 20
14.9053384663
 30
0.0
 11
26.1272028538
 21
16.4950259557
 31
0.0
  0
MTEXT
  5
161
330
152
100
AcDbEntity
  8
0
  6
Continuous
 62
     7
370
    18
100
AcDbMText
 10
25.4623244078
 20
18.1364348138
 30
0.0
 40
0.5
 41
0.0
 71
     1
 72
     1
  1
%%c
  7
SLDTEXTSTYLE0
 73
     1
 44
1.0
  0
MTEXT
  5
162
330
152
100
AcDbEntity
  8
0
  6
Continuous
 62
     7
370
    18
100
AcDbMText
 10
26.2163868902
 20
18.1364348138
 30
0.0
 40
0.5
 41
0.0
 71
     1
 72
     1
  1
5"
  7
SLDTEXTSTYLE0
 73
     1
 44
1.0
  0
MTEXT
  5
163
330
152
100
AcDbEntity
  8
0
  6
Continuous
 62
     7
370
    18
100
AcDbMText
 10
24.9480362389
 20
17.241122294
 30
0.0
 40
0.5
 41
0.0
 71
     1
 72
     1
  1
126mm
  7
SLDTEXTSTYLE0
 73
     1
 44
1.0
  0
ENDBLK
  5
154
330
152
100
AcDbEntity
  8
0
100
AcDbBlockEnd
  0
BLOCK
  5
165
330
164
100
AcDbEntity
  8
0
100
AcDbBlockBegin
  2
SW_CENTERMARKSYMBOL_0
 70
     0
 10
0.0
 20
0.0
 30
0.0
  3
SW_CENTERMARKSYMBOL_0
  1

  0
LINE
  5
167
330
164
100
AcDbEntity
  8
0
  6
Continuous
 62
     0
370
    18
100
AcDbLine
 10
0.0
 20
0.0
 30
0.0
 11
0.0
 21
0.1
 31
0.0
  0
LINE
  5
168
330
164
100
AcDbEntity
  8
0
  6
Continuous
 62
     0
370
    18
100
AcDbLine
 10
0.0
 20
0.0
 30
0.0
 11
-0.1
 21
0.0
 31
0.0
  0
LINE
  5
169
330
164
100
AcDbEntity
  8
0
  6
Continuous
 62
     0
370
    18
100
AcDbLine
 10
0.0
 20
0.0
 30
0.0
 11
0.0
 21
-0.1
 31
0.0
  0
LINE
  5
16A
330
164
100
AcDbEntity
  8
0
  6
Continuous
 62
     0
370
    18
100
AcDbLine
 10
0.0
 20
0.0
 30
0.0
 11
0.1
 21
0.0
 31
0.0
  0
LINE
  5
16B
330
164
100
AcDbEntity
  8
0
  6
Continuous
 62
     0
370
    18
100
AcDbLine
 10
0.0
 20
0.2
 30
0.0
 11
0.0
 21
0.217
 31
0.0
  0
LINE
  5
16C
330
164
100
AcDbEntity
  8
0
  6
Continuous
 62
     0
370
    18
100
AcDbLine
 10
-0.2
 20
0.0
 30
0.0
 11
-0.217
 21
0.0
 31
0.0
  0
LINE
  5
16D
330
164
100
AcDbEntity
  8
0
  6
Continuous
 62
     0
370
    18
100
AcDbLine
 10
0.0
 20
-0.2
 30
0.0
 11
0.0
 21
-0.217
 31
0.0
  0
LINE
  5
16E
330
164
100
AcDbEntity
  8
0
  6
Continuous
 62
     0
370
    18
100
AcDbLine
 10
0.2
 20
0.0
 30
0.0
 11
0.217
 21
0.0
 31
0.0
  0
ENDBLK
  5
166
330
164
100
AcDbEntity
  8
0
100
AcDbBlockEnd
  0
BLOCK
  5
171
330
170
100
AcDbEntity
  8
0
100
AcDbBlockBegin
  2
SW_CENTERMARKSYMBOL_1
 70
     0
 10
0.0
 20
0.0
 30
0.0
  3
SW_CENTERMARKSYMBOL_1
  1

  0
LINE
  5
173
330
170
100
AcDbEntity
  8
0
  6
Continuous
 62
     0
370
    18
100
AcDbLine
 10
0.0
 20
0.0
 30
0.0
 11
0.0
 21
0.1
 31
0.0
  0
LINE
  5
174
330
170
100
AcDbEntity
  8
0
  6
Continuous
 62
     0
370
    18
100
AcDbLine
 10
0.0
 20
0.0
 30
0.0
 11
-0.1
 21
0.0
 31
0.0
  0
LINE
  5
175
330
170
100
AcDbEntity
  8
0
  6
Continuous
 62
     0
370
    18
100
AcDbLine
 10
0.0
 20
0.0
 30
0.0
 11
0.0
 21
-0.1
 31
0.0
  0
LINE
  5
176
330
170
100
AcDbEntity
  8
0
  6
Continuous
 62
     0
370
    18
100
AcDbLine
 10
0.0
 20
0.0
 30
0.0
 11
0.1
 21
0.0
 31
0.0
  0
LINE
  5
177
330
170
100
AcDbEntity
  8
0
  6
Continuous
 62
     0
370
    18
100
AcDbLine
 10
0.0
 20
0.2
 30
0.0
 11
0.0
 21
0.217
 31
0.0
  0
LINE
  5
178
330
170
100
AcDbEntity
  8
0
  6
Continuous
 62
     0
370
    18
100
AcDbLine
 10
-0.2
 20
0.0
 30
0.0
 11
-0.217
 21
0.0
 31
0.0
  0
LINE
  5
179
330
170
100
AcDbEntity
  8
0
  6
Continuous
 62
     0
370
    18
100
AcDbLine
 10
0.0
 20
-0.2
 30
0.0
 11
0.0
 21
-0.217
 31
0.0
  0
LINE
  5
17A
330
170
100
AcDbEntity
  8
0
  6
Continuous
 62
     0
370
    18
100
AcDbLine
 10
0.2
 20
0.0
 30
0.0
 11
0.217
 21
0.0
 31
0.0
  0
ENDBLK
  5
172
330
170
100
AcDbEntity
  8
0
100
AcDbBlockEnd
  0
BLOCK
  5
17D
330
17C
100
AcDbEntity
  8
0
100
AcDbBlockBegin
  2
SW_CENTERMARKSYMBOL_2
 70
     0
 10
0.0
 20
0.0
 30
0.0
  3
SW_CENTERMARKSYMBOL_2
  1

  0
LINE
  5
17F
330
17C
100
AcDbEntity
  8
0
  6
Continuous
 62
     0
370
    18
100
AcDbLine
 10
0.0
 20
0.0
 30
0.0
 11
0.0
 21
0.1
 31
0.0
  0
LINE
  5
180
330
17C
100
AcDbEntity
  8
0
  6
Continuous
 62
     0
370
    18
100
AcDbLine
 10
0.0
 20
0.0
 30
0.0
 11
-0.1
 21
0.0
 31
0.0
  0
LINE
  5
181
330
17C
100
AcDbEntity
  8
0
  6
Continuous
 62
     0
370
    18
100
AcDbLine
 10
0.0
 20
0.0
 30
0.0
 11
0.0
 21
-0.1
 31
0.0
  0
LINE
  5
182
330
17C
100
AcDbEntity
  8
0
  6
Continuous
 62
     0
370
    18
100
AcDbLine
 10
0.0
 20
0.0
 30
0.0
 11
0.1
 21
0.0
 31
0.0
  0
LINE
  5
183
330
17C
100
AcDbEntity
  8
0
  6
Continuous
 62
     0
370
    18
100
AcDbLine
 10
0.0
 20
0.1
 30
0.0
 11
0.0
 21
0.17
 31
0.0
  0
LINE
  5
184
330
17C
100
AcDbEntity
  8
0
  6
Continuous
 62
     0
370
    18
100
AcDbLine
 10
-0.1
 20
0.0
 30
0.0
 11
-0.17
 21
0.0
 31
0.0
  0
LINE
  5
185
330
17C
100
AcDbEntity
  8
0
  6
Continuous
 62
     0
370
    18
100
AcDbLine
 10
0.0
 20
-0.1
 30
0.0
 11
0.0
 21
-0.17
 31
0.0
  0
LINE
  5
186
330
17C
100
AcDbEntity
  8
0
  6
Continuous
 62
     0
370
    18
100
AcDbLine
 10
0.1
 20
0.0
 30
0.0
 11
0.17
 21
0.0
 31
0.0
  0
ENDBLK
  5
17E
330
17C
100
AcDbEntity
  8
0
100
AcDbBlockEnd
  0
ENDSEC
  0
SECTION
  2
ENTITIES
  0
LINE
  5
6D
330
1F
100
AcDbEntity
  8
0
  6
Continuous
 62
     7
370
    25
100
AcDbLine
 10
9.5963878759
 20
18.7776561062
 30
0.0
 11
9.5963878759
 21
13.2315561062
 31
0.0
  0
LINE
  5
6E
330
1F
100
AcDbEntity
  8
0
  6
Continuous
 62
     7
370
    25
100
AcDbLine
 10
9.5963878759
 20
19.0415561062
 30
0.0
 11
9.5963878759
 21
18.9304561062
 31
0.0
  0
LINE
  5
6F
330
1F
100
AcDbEntity
  8
0
  6
Continuous
 62
     7
370
    25
100
AcDbLine
 10
15.0663878759
 20
13.2315561062
 30
0.0
 11
15.0663878759
 21
19.0415561062
 31
0.0
  0
LINE
  5
70
330
1F
100
AcDbEntity
  8
0
  6
Continuous
 62
     7
370
    25
100
AcDbLine
 10
8.4013878759
 20
17.9985561062
 30
0.0
 11
8.4513878759
 21
18.0485561062
 31
0.0
  0
LINE
  5
71
330
1F
100
AcDbEntity
  8
0
  6
Continuous
 62
     7
370
    25
100
AcDbLine
 10
8.4513878759
 20
22.9185561062
 30
0.0
 11
8.4013878759
 21
22.9685561062
 31
0.0
  0
LINE
  5
72
330
1F
100
AcDbEntity
  8
0
  6
Continuous
 62
     7
370
    25
100
AcDbLine
 10
8.0763878759
 20
17.9985561062
 30
0.0
 11
8.4013878759
 21
17.9985561062
 31
0.0
  0
LINE
  5
73
330
1F
100
AcDbEntity
  8
0
  6
Continuous
 62
     7
370
    25
100
AcDbLine
 10
8.4013878759
 20
22.9685561062
 30
0.0
 11
8.0763878759
 21
22.9685561062
 31
0.0
  0
LINE
  5
74
330
1F
100
AcDbEntity
  8
0
  6
Continuous
 62
     7
370
    25
100
AcDbLine
 10
8.4613878759
 20
19.8285561062
 30
0.0
 11
9.5984903709
 21
19.8285561062
 31
0.0
  0
LINE
  5
75
330
1F
100
AcDbEntity
  8
0
  6
Continuous
 62
     7
370
    25
100
AcDbLine
 10
9.5984852121
 20
21.1385561062
 30
0.0
 11
8.4613878759
 21
21.1385561062
 31
0.0
  0
ARC
  5
76
330
1F
100
AcDbEntity
  8
0
  6
Continuous
 62
     7
370
    25
100
AcDbCircle
 10
8.4613878759
 20
21.1285561062
 30
0.0
 40
0.0099999999999998
100
AcDbArc
 50
90.0
 51
180.0
  0
ARC
  5
77
330
1F
100
AcDbEntity
  8
0
  6
Continuous
 62
     7
370
    25
100
AcDbCircle
 10
8.4613878759
 20
19.8385561062
 30
0.0
 40
0.0100000000000016
100
AcDbArc
 50
180.0
 51
270.0
  0
LINE
  5
78
330
1F
100
AcDbEntity
  8
0
  6
Continuous
 62
     7
370
    25
100
AcDbLine
 10
15.0663878759
 20
22.9535561062
 30
0.0
 11
15.0363878759
 21
22.9835561062
 31
0.0
  0
LINE
  5
79
330
1F
100
AcDbEntity
  8
0
  6
Continuous
 62
     7
370
    25
100
AcDbLine
 10
9.6263878759
 20
22.9835561062
 30
0.0
 11
9.5963878759
 21
22.9535561062
 31
0.0
  0
LINE
  5
7A
330
1F
100
AcDbEntity
  8
0
  6
Continuous
 62
     7
370
    25
100
AcDbLine
 10
9.5963878759
 20
19.821295731
 30
0.0
 11
9.5963878759
 21
19.0415561062
 31
0.0
  0
LINE
  5
7B
330
1F
100
AcDbEntity
  8
0
  6
Continuous
 62
     7
370
    25
100
AcDbLine
 10
9.5963878759
 20
22.9535561062
 30
0.0
 11
9.5963878759
 21
21.1449960737
 31
0.0
  0
LINE
  5
7C
330
1F
100
AcDbEntity
  8
0
  6
Continuous
 62
     7
370
    25
100
AcDbLine
 10
15.0663878759
 20
19.0415561062
 30
0.0
 11
15.0663878759
 21
22.9535561062
 31
0.0
  0
LINE
  5
7D
330
1F
100
AcDbEntity
  8
0
  6
Continuous
 62
     7
370
    25
100
AcDbLine
 10
9.5963878759
 20
19.0415561062
 30
0.0
 11
15.0663878759
 21
19.0415561062
 31
0.0
  0
LINE
  5
7E
330
1F
100
AcDbEntity
  8
0
  6
Continuous
 62
     7
370
    25
100
AcDbLine
 10
9.5963878759
 20
13.2315561062
 30
0.0
 11
15.0663878759
 21
13.2315561062
 31
0.0
  0
SPLINE
  5
7F
330
1F
100
AcDbEntity
  8
0
  6
Continuous
 62
     7
370
    25
100
AcDbSpline
210
0.0
220
0.0
230
1.0
 70
     8
 71
     3
 72
    12
 73
     8
 74
     0
 42
0.00000001
 43
0.00000001
 40
0.0
 40
0.0
 40
0.0
 40
0.0
 40
0.2147830941629005
 40
0.4295642449400217
 40
0.6443958265849422
 40
0.8592602473651373
 40
1.0
 40
1.0
 40
1.0
 40
1.0
 10
9.59740955892115
 20
18.8540561061932
 30
0.0
 10
9.597386448617923
 20
18.84565702119419
 30
0.0
 10
9.597340228220576
 20
18.8288589271922
 30
0.0
 10
9.597015390524641
 20
18.80641896894888
 30
0.0
 10
9.596663890849847
 20
18.78967524952991
 30
0.0
 10
9.596412147955181
 20
18.78018420991834
 30
0.0
 10
9.596413343807521
 20
18.78024140633785
 30
0.0
 10
9.596413817097698
 20
18.78026404333295
 30
0.0
  0
SPLINE
  5
80
330
1F
100
AcDbEntity
  8
0
  6
Continuous
 62
     7
370
    25
100
AcDbSpline
210
0.0
220
0.0
230
1.0
 70
     8
 71
     3
 72
    13
 73
     9
 74
     0
 42
0.00000001
 43
0.00000001
 40
0.0
 40
0.0
 40
0.0
 40
0.0
 40
0.0065952250515379
 40
0.2211887967361196
 40
0.435782847048762
 40
0.6504466747815371
 40
0.8651407446851781
 40
1.0
 40
1.0
 40
1.0
 40
1.0
 10
9.59639122017763
 20
18.92868051280948
 30
0.0
 10
9.596390108811223
 20
18.92872225956192
 30
0.0
 10
9.596352836118303
 20
18.93012235036503
 30
0.0
 10
9.596491677827695
 20
18.92506782088934
 30
0.0
 10
9.596784624603133
 20
18.9132285393975
 30
0.0
 10
9.597148966794329
 20
18.89375523176495
 30
0.0
 10
9.597376618851369
 20
18.87296756089443
 30
0.0
 10
9.597400388487806
 20
18.85932100805665
 30
0.0
 10
9.59740955892115
 20
18.8540561061932
 30
0.0
  0
SPLINE
  5
81
330
1F
100
AcDbEntity
  8
0
  6
Continuous
 62
     7
370
    25
100
AcDbSpline
210
0.0
220
0.0
230
1.0
 70
    11
 71
     3
 72
    26
 73
    22
 74
     0
 42
0.00000001
 43
0.00000001
 40
0.0
 40
0.0
 40
0.0
 40
0.0
 40
0.0536750643289458
 40
0.1073496429989186
 40
0.1610368245232618
 40
0.2147322126651588
 40
0.2684139093946653
 40
0.3220813954451703
 40
0.3757563163972531
 40
0.4294487206345586
 40
0.4831413779985645
 40
0.536816645641185
 40
0.5904840298559325
 40
0.644165336701511
 40
0.6978606434325673
 40
0.7515481785370038
 40
0.8052183088844873
 40
0.8588885589374314
 40
0.9125762604136222
 40
0.9662715254958636
 40
1.0
 40
1.0
 40
1.0
 40
1.0
 10
13.76311243326458
 20
18.85405610619318
 30
0.0
 10
13.7624085852199
 20
18.84565235704688
 30
0.0
 10
13.76100089549904
 20
18.82884493479249
 30
0.0
 10
13.75000786180649
 20
18.80647494343249
 30
0.0
 10
13.7337584859486
 20
18.78946527656505
 30
0.0
 10
13.71336965371874
 20
18.77973576030255
 30
0.0
 10
13.69127684566837
 20
18.77838579412187
 30
0.0
 10
13.6699197106667
 20
18.78556361430426
 30
0.0
 10
13.65174526774736
 20
18.80045886832725
 30
0.0
 10
13.6388526717386
 20
18.82139789630684
 30
0.0
 10
13.63275603779368
 20
18.84602078039237
 30
0.0
 10
13.63417386269736
 20
18.87154602416704
 30
0.0
 10
13.64293491615285
 20
18.89509687398595
 30
0.0
 10
13.65801063882339
 20
18.91402485903481
 30
0.0
 10
13.67764630619861
 20
18.92619590233506
 30
0.0
 10
13.69957899918646
 20
18.93023318569481
 30
0.0
 10
13.721303890324
 20
18.92568471489417
 30
0.0
 10
13.74043230423493
 20
18.91306305800863
 30
0.0
 10
13.75472809064446
 20
18.8938000555785
 30
0.0
 10
13.76209808709445
 20
18.8729610573982
 30
0.0
 10
13.76283004181846
 20
18.8593191974995
 30
0.0
 10
13.76311243326458
 20
18.85405610619318
 30
0.0
  0
SPLINE
  5
82
330
1F
100
AcDbEntity
  8
0
  6
Continuous
 62
     7
370
    25
100
AcDbSpline
210
0.0
220
0.0
230
1.0
 70
     8
 71
     3
 72
    10
 73
     6
 74
     0
 42
0.00000001
 43
0.00000001
 40
0.0
 40
0.0
 40
0.0
 40
0.0
 40
0.0700999696410071
 40
0.5307895628004665
 40
1.0
 40
1.0
 40
1.0
 40
1.0
 10
8.076387875861496
 20
20.73355610619321
 30
0.0
 10
8.076334538419433
 20
20.73948275253641
 30
0.0
 10
8.075930672944207
 20
20.78435869239047
 30
0.0
 10
8.066176877769253
 20
20.86896916884891
 30
0.0
 10
8.043282007300135
 20
20.94512784179568
 30
0.0
 10
8.031729677122998
 20
20.98355610619319
 30
0.0
  0
SPLINE
  5
83
330
1F
100
AcDbEntity
  8
0
  6
Continuous
 62
     7
370
    25
100
AcDbSpline
210
0.0
220
0.0
230
1.0
 70
     8
 71
     3
 72
     9
 73
     5
 74
     0
 42
0.00000001
 43
0.00000001
 40
0.0
 40
0.0
 40
0.0
 40
0.0
 40
0.4954579634770063
 40
1.0
 40
1.0
 40
1.0
 40
1.0
 10
8.031729677122994
 20
20.48355610619322
 30
0.0
 10
8.04421155502813
 20
20.52415720525379
 30
0.0
 10
8.06940416232329
 20
20.60610381233957
 30
0.0
 10
8.074045916005588
 20
20.69081549919159
 30
0.0
 10
8.076387875861496
 20
20.73355610619321
 30
0.0
  0
LINE
  5
84
330
1F
100
AcDbEntity
  8
0
  6
Continuous
 62
     7
370
    25
100
AcDbLine
 10
8.0317296771
 20
20.4835561062
 30
0.0
 11
7.8310460746
 21
20.4835561062
 31
0.0
  0
SPLINE
  5
85
330
1F
100
AcDbEntity
  8
0
  6
Continuous
 62
     7
370
    25
100
AcDbSpline
210
0.0
220
0.0
230
1.0
 70
     8
 71
     3
 72
    10
 73
     6
 74
     0
 42
0.00000001
 43
0.00000001
 40
0.0
 40
0.0
 40
0.0
 40
0.0
 40
0.0700999696411373
 40
0.5307895628005328
 40
1.0
 40
1.0
 40
1.0
 40
1.0
 10
7.786387875861513
 20
20.73355610619321
 30
0.0
 10
7.786441213303577
 20
20.72762945985
 30
0.0
 10
7.78684507877883
 20
20.68275351999597
 30
0.0
 10
7.796598873953768
 20
20.59814304353744
 30
0.0
 10
7.819493744422885
 20
20.5219843705907
 30
0.0
 10
7.831046074600026
 20
20.48355610619321
 30
0.0
  0
SPLINE
  5
86
330
1F
100
AcDbEntity
  8
0
  6
Continuous
 62
     7
370
    25
100
AcDbSpline
210
0.0
220
0.0
230
1.0
 70
     8
 71
     3
 72
     9
 73
     5
 74
     0
 42
0.00000001
 43
0.00000001
 40
0.0
 40
0.0
 40
0.0
 40
0.0
 40
0.4954579634770159
 40
1.0
 40
1.0
 40
1.0
 40
1.0
 10
7.831046074600028
 20
20.98355610619319
 30
0.0
 10
7.8185641966949
 20
20.94295500713261
 30
0.0
 10
7.793371589399759
 20
20.86100840004682
 30
0.0
 10
7.788729835717432
 20
20.77629671319482
 30
0.0
 10
7.786387875861513
 20
20.73355610619321
 30
0.0
  0
LINE
  5
87
330
1F
100
AcDbEntity
  8
0
  6
Continuous
 62
     7
370
    25
100
AcDbLine
 10
8.0317296771
 20
20.9835561062
 30
0.0
 11
7.8310460746
 21
20.9835561062
 31
0.0
  0
SPLINE
  5
88
330
1F
100
AcDbEntity
  8
0
  6
Continuous
 62
     7
370
    25
100
AcDbSpline
210
0.0
220
0.0
230
1.0
 70
     8
 71
     3
 72
     9
 73
     5
 74
     0
 42
0.00000001
 43
0.00000001
 40
0.0
 40
0.0
 40
0.0
 40
0.0
 40
0.4954579634770078
 40
1.0
 40
1.0
 40
1.0
 40
1.0
 10
7.831046074600026
 20
20.48355610619321
 30
0.0
 10
7.818564196694892
 20
20.44295500713263
 30
0.0
 10
7.793371589399741
 20
20.36100840004683
 30
0.0
 10
7.788729835717432
 20
20.2762967131948
 30
0.0
 10
7.786387875861521
 20
20.23355610619317
 30
0.0
  0
LINE
  5
89
330
1F
100
AcDbEntity
  8
0
  6
Continuous
 62
     7
370
    25
100
AcDbLine
 10
7.7863878759
 20
20.2335561062
 30
0.0
 11
7.7863878759
 21
20.7335561062
 31
0.0
  0
SPLINE
  5
8A
330
1F
100
AcDbEntity
  8
0
  6
Continuous
 62
     7
370
    25
100
AcDbSpline
210
0.0
220
0.0
230
1.0
 70
     8
 71
     3
 72
    10
 73
     6
 74
     0
 42
0.00000001
 43
0.00000001
 40
0.0
 40
0.0
 40
0.0
 40
0.0
 40
0.0700999696411827
 40
0.5307895628005549
 40
0.9999999999999999
 40
0.9999999999999999
 40
0.9999999999999999
 40
0.9999999999999999
 10
8.076387875861501
 20
20.2335561061932
 30
0.0
 10
8.07633453841944
 20
20.23948275253641
 30
0.0
 10
8.075930672944201
 20
20.28435869239046
 30
0.0
 10
8.066176877769259
 20
20.36896916884897
 30
0.0
 10
8.043282007300139
 20
20.44512784179572
 30
0.0
 10
8.031729677122994
 20
20.48355610619322
 30
0.0
  0
SPLINE
  5
8B
330
1F
100
AcDbEntity
  8
0
  6
Continuous
 62
     7
370
    25
100
AcDbSpline
210
0.0
220
0.0
230
1.0
 70
     8
 71
     3
 72
     9
 73
     5
 74
     0
 42
0.00000001
 43
0.00000001
 40
0.0
 40
0.0
 40
0.0
 40
0.0
 40
0.495457963477003
 40
1.0
 40
1.0
 40
1.0
 40
1.0
 10
8.031729677122987
 20
19.98355610619322
 30
0.0
 10
8.04421155502813
 20
20.02415720525379
 30
0.0
 10
8.069404162323307
 20
20.10610381233958
 30
0.0
 10
8.074045916005598
 20
20.19081549919159
 30
0.0
 10
8.076387875861501
 20
20.2335561061932
 30
0.0
  0
LINE
  5
8C
330
1F
100
AcDbEntity
  8
0
  6
Continuous
 62
     7
370
    25
100
AcDbLine
 10
8.0317296771
 20
19.9835561062
 30
0.0
 11
7.8310460746
 21
19.9835561062
 31
0.0
  0
SPLINE
  5
8D
330
1F
100
AcDbEntity
  8
0
  6
Continuous
 62
     7
370
    25
100
AcDbSpline
210
0.0
220
0.0
230
1.0
 70
     8
 71
     3
 72
    10
 73
     6
 74
     0
 42
0.00000001
 43
0.00000001
 40
0.0
 40
0.0
 40
0.0
 40
0.0
 40
0.0700999696409833
 40
0.5307895628004455
 40
1.0
 40
1.0
 40
1.0
 40
1.0
 10
7.786387875861521
 20
20.23355610619317
 30
0.0
 10
7.786441213303584
 20
20.22762945984998
 30
0.0
 10
7.786845078778812
 20
20.18275351999596
 30
0.0
 10
7.796598873953752
 20
20.09814304353747
 30
0.0
 10
7.819493744422889
 20
20.02198437059071
 30
0.0
 10
7.831046074600041
 20
19.9835561061932
 30
0.0
  0
SPLINE
  5
8E
330
1F
100
AcDbEntity
  8
0
  6
Continuous
 62
     7
370
    25
100
AcDbSpline
210
0.0
220
0.0
230
1.0
 70
    24
 71
     3
 72
    10
 73
     6
 74
     0
 42
0.00000001
 43
0.00000001
 40
0.0
 40
0.0
 40
0.0
 40
0.0
 40
0.2684065359321892
 40
0.6323728964502787
 40
0.9999999999999999
 40
0.9999999999999999
 40
0.9999999999999999
 40
0.9999999999999999
 10
8.076387875861508
 20
19.98355610619318
 30
0.0
 10
8.07566230043851
 20
19.98355610619317
 30
0.0
 10
8.073952825554672
 20
19.98355610619315
 30
0.0
 10
8.059269822836981
 20
19.98355610619323
 30
0.0
 10
8.040940298083362
 20
19.98355610619322
 30
0.0
 10
8.031729677122987
 20
19.98355610619322
 30
0.0
  0
SPLINE
  5
8F
330
1F
100
AcDbEntity
  8
0
  6
Continuous
 62
     7
370
    25
100
AcDbSpline
210
0.0
220
0.0
230
1.0
 70
    24
 71
     3
 72
    10
 73
     6
 74
     0
 42
0.00000001
 43
0.00000001
 40
0.0
 40
0.0
 40
0.0
 40
0.0
 40
0.364252329333085
 40
0.7315931065489123
 40
1.0
 40
1.0
 40
1.0
 40
1.0
 10
7.831046074600041
 20
19.9835561061932
 30
0.0
 10
7.821914347759924
 20
19.98355610619321
 30
0.0
 10
7.803573467361585
 20
19.98355610619323
 30
0.0
 10
7.788832999089324
 20
19.98355610619317
 30
0.0
 10
7.787113733978828
 20
19.98355610619317
 30
0.0
 10
7.786387875861497
 20
19.98355610619317
 30
0.0
  0
LINE
  5
90
330
1F
100
AcDbEntity
  8
0
  6
Continuous
 62
     7
370
    25
100
AcDbLine
 10
7.7863878759
 20
19.9835561062
 30
0.0
 11
7.7863878759
 21
20.2335561062
 31
0.0
  0
SPLINE
  5
91
330
1F
100
AcDbEntity
  8
0
  6
Continuous
 62
     7
370
    25
100
AcDbSpline
210
0.0
220
0.0
230
1.0
 70
    24
 71
     3
 72
    10
 73
     6
 74
     0
 42
0.00000001
 43
0.00000001
 40
0.0
 40
0.0
 40
0.0
 40
0.0
 40
0.268406535932291
 40
0.632372896450343
 40
1.0
 40
1.0
 40
1.0
 40
1.0
 10
7.786387875861525
 20
20.98355610619319
 30
0.0
 10
7.787113451284503
 20
20.98355610619321
 30
0.0
 10
7.788822926168293
 20
20.98355610619324
 30
0.0
 10
7.803505928886099
 20
20.98355610619315
 30
0.0
 10
7.821835453639676
 20
20.98355610619317
 30
0.0
 10
7.831046074600028
 20
20.98355610619319
 30
0.0
  0
LINE
  5
92
330
1F
100
AcDbEntity
  8
0
  6
Continuous
 62
     7
370
    25
100
AcDbLine
 10
7.7863878759
 20
20.7335561062
 30
0.0
 11
7.7863878759
 21
20.9835561062
 31
0.0
  0
SPLINE
  5
93
330
1F
100
AcDbEntity
  8
0
  6
Continuous
 62
     7
370
    25
100
AcDbSpline
210
0.0
220
0.0
230
1.0
 70
    24
 71
     3
 72
    10
 73
     6
 74
     0
 42
0.00000001
 43
0.00000001
 40
0.0
 40
0.0
 40
0.0
 40
0.0
 40
0.3642523293330639
 40
0.7315931065488671
 40
1.0
 40
1.0
 40
1.0
 40
1.0
 10
8.031729677122998
 20
20.98355610619319
 30
0.0
 10
8.040861403963103
 20
20.98355610619318
 30
0.0
 10
8.059202284361431
 20
20.98355610619315
 30
0.0
 10
8.073942752633686
 20
20.98355610619323
 30
0.0
 10
8.075662017744191
 20
20.98355610619321
 30
0.0
 10
8.076387875861524
 20
20.98355610619319
 30
0.0
  0
LINE
  5
94
330
1F
100
AcDbEntity
  8
0
  6
Continuous
 62
     7
370
    25
100
AcDbLine
 10
8.4013878759
 20
17.9985561062
 30
0.0
 11
8.4013878759
 21
22.9685561062
 31
0.0
  0
LINE
  5
95
330
1F
100
AcDbEntity
  8
0
  6
Continuous
 62
     7
370
    25
100
AcDbLine
 10
8.4513878759
 20
22.9185561062
 30
0.0
 11
8.4513878759
 21
18.0485561062
 31
0.0
  0
LINE
  5
96
330
1F
100
AcDbEntity
  8
0
  6
Continuous
 62
     7
370
    25
100
AcDbLine
 10
8.0763878759
 20
17.9985561062
 30
0.0
 11
8.0763878759
 21
22.9685561062
 31
0.0
  0
LWPOLYLINE
  5
97
330
1F
100
AcDbEntity
  8
0
  6
Continuous
 62
     7
370
    25
100
AcDbPolyline
 90
       19
 70
   128
 43
0.0
 10
13.7650522167
 20
18.8540561062
 10
13.7610620187
 20
18.8801864451
 10
13.7495727015
 20
18.9031650796
 10
13.7319700463
 20
18.920220447
 10
13.7103771931
 20
18.9292954185
 10
13.6873985586
 20
18.9292954185
 10
13.6658057054
 20
18.920220447
 10
13.6482030502
 20
18.9031650796
 10
13.636713733
 20
18.8801864451
 10
13.632723535
 20
18.8540561062
 10
13.636713733
 20
18.8279257672
 10
13.6482030502
 20
18.8049471328
 10
13.6658057054
 20
18.7878917653
 10
13.6873985586
 20
18.7788167939
 10
13.7103771931
 20
18.7788167939
 10
13.7319700463
 20
18.7878917653
 10
13.7495727015
 20
18.8049471328
 10
13.7610620187
 20
18.8279257672
 10
13.7650522167
 20
18.8540561062
  0
LINE
  5
98
330
1F
100
AcDbEntity
  8
0
  6
Continuous
 62
     7
370
    25
100
AcDbLine
 10
13.6754628759
 20
18.9009061062
 30
0.0
 11
13.6520378759
 21
18.8540561062
 31
0.0
  0
LINE
  5
99
330
1F
100
AcDbEntity
  8
0
  6
Continuous
 62
     7
370
    25
100
AcDbLine
 10
13.6754628759
 20
18.8072061062
 30
0.0
 11
13.6520378759
 21
18.8540561062
 31
0.0
  0
LINE
  5
9A
330
1F
100
AcDbEntity
  8
0
  6
Continuous
 62
     7
370
    25
100
AcDbLine
 10
13.7223128759
 20
18.8072061062
 30
0.0
 11
13.6754628759
 21
18.8072061062
 31
0.0
  0
LINE
  5
9B
330
1F
100
AcDbEntity
  8
0
  6
Continuous
 62
     7
370
    25
100
AcDbLine
 10
13.7223128759
 20
18.8072061062
 30
0.0
 11
13.7457378759
 21
18.8540561062
 31
0.0
  0
LINE
  5
9C
330
1F
100
AcDbEntity
  8
0
  6
Continuous
 62
     7
370
    25
100
AcDbLine
 10
13.7223128759
 20
18.9009061062
 30
0.0
 11
13.7457378759
 21
18.8540561062
 31
0.0
  0
LINE
  5
9D
330
1F
100
AcDbEntity
  8
0
  6
Continuous
 62
     7
370
    25
100
AcDbLine
 10
13.7223128759
 20
18.9009061062
 30
0.0
 11
13.6754628759
 21
18.9009061062
 31
0.0
  0
LINE
  5
9E
330
1F
100
AcDbEntity
  8
0
  6
Continuous
 62
     7
370
    25
100
AcDbLine
 10
13.7057378759
 20
18.8540561062
 30
0.0
 11
13.7457378759
 21
18.8540561062
 31
0.0
  0
LINE
  5
9F
330
1F
100
AcDbEntity
  8
0
  6
Continuous
 62
     7
370
    25
100
AcDbLine
 10
13.6823128759
 20
18.9009061062
 30
0.0
 11
13.7057378759
 21
18.8540561062
 31
0.0
  0
LINE
  5
A0
330
1F
100
AcDbEntity
  8
0
  6
Continuous
 62
     7
370
    25
100
AcDbLine
 10
13.6823128759
 20
18.8072061062
 30
0.0
 11
13.7057378759
 21
18.8540561062
 31
0.0
  0
LINE
  5
A1
330
1F
100
AcDbEntity
  8
0
  6
Continuous
 62
     7
370
    25
100
AcDbLine
 10
9.5963878759
 20
18.8521991087
 30
0.0
 11
9.5963878759
 21
18.9304561062
 31
0.0
  0
LINE
  5
A2
330
1F
100
AcDbEntity
  8
0
  6
Continuous
 62
     7
370
    25
100
AcDbLine
 10
9.5963878759
 20
18.7776561062
 30
0.0
 11
9.5963878759
 21
18.8521991087
 31
0.0
  0
LINE
  5
A3
330
1F
100
AcDbEntity
  8
0
  6
Continuous
 62
     7
370
    25
100
AcDbLine
 10
15.0663878759
 20
22.9535561062
 30
0.0
 11
9.5963878759
 21
22.9535561062
 31
0.0
  0
LINE
  5
A4
330
1F
100
AcDbEntity
  8
0
  6
Continuous
 62
     7
370
    25
100
AcDbLine
 10
9.6263878759
 20
22.9835561062
 30
0.0
 11
15.0363878759
 21
22.9835561062
 31
0.0
  0
SPLINE
  5
A5
330
1F
100
AcDbEntity
  8
0
  6
Continuous
 62
     7
370
    25
100
AcDbSpline
210
0.0
220
0.0
230
1.0
 70
     8
 71
     3
 72
    17
 73
    13
 74
     0
 42
0.00000001
 43
0.00000001
 40
0.0
 40
0.0
 40
0.0
 40
0.0
 40
0.0369530770430238
 40
0.1499133163073544
 40
0.2660376417371284
 40
0.3811328043545746
 40
0.4994148822656458
 40
0.6171155031363641
 40
0.7382714576825421
 40
0.8550484796629076
 40
0.9753880182300402
 40
1.0
 40
1.0
 40
1.0
 40
1.0
 10
9.676387875861506
 20
20.38678802002836
 30
0.0
 10
9.675921389112991
 20
20.37526801444289
 30
0.0
 10
9.674028919498024
 20
20.32853300942051
 30
0.0
 10
9.66829309283846
 20
20.24753702269156
 30
0.0
 10
9.657730074726805
 20
20.14924272310308
 30
0.0
 10
9.644797440935706
 20
20.05875647855177
 30
0.0
 10
9.631019821285548
 20
19.97954005074605
 30
0.0
 10
9.617754708745753
 20
19.91325199255348
 30
0.0
 10
9.606629221836716
 20
19.86295226778687
 30
0.0
 10
9.599264421632164
 20
19.83163109246645
 30
0.0
 10
9.595985518692599
 20
19.81814278841682
 30
0.0
 10
9.596637565283677
 20
19.82083808435975
 30
0.0
 10
9.596748279257392
 20
19.82129573098849
 30
0.0
  0
SPLINE
  5
A6
330
1F
100
AcDbEntity
  8
0
  6
Continuous
 62
     7
370
    25
100
AcDbSpline
210
0.0
220
0.0
230
1.0
 70
     8
 71
     3
 72
    10
 73
     6
 74
     0
 42
0.00000001
 43
0.00000001
 40
0.0
 40
0.0
 40
0.0
 40
0.0
 40
0.0434724194913751
 40
0.5167485577875519
 40
1.0
 40
1.0
 40
1.0
 40
1.0
 10
9.676387875861504
 20
20.58032419235801
 30
0.0
 10
9.676486280926735
 20
20.57754166275071
 30
0.0
 10
9.677656003618322
 20
20.54446625129686
 30
0.0
 10
9.678836356816415
 20
20.47954260411707
 30
0.0
 10
9.677209690830344
 20
20.41792042703341
 30
0.0
 10
9.676387875861506
 20
20.38678802002836
 30
0.0
  0
SPLINE
  5
A7
330
1F
100
AcDbEntity
  8
0
  6
Continuous
 62
     7
370
    25
100
AcDbSpline
210
0.0
220
0.0
230
1.0
 70
     8
 71
     3
 72
    16
 73
    12
 74
     0
 42
0.00000001
 43
0.00000001
 40
0.0
 40
0.0
 40
0.0
 40
0.0
 40
0.0712837126385458
 40
0.1844999632139682
 40
0.3009498937119588
 40
0.415210209260618
 40
0.5326243038010098
 40
0.6497506783480475
 40
0.7702387290334926
 40
0.8835246676162533
 40
1.0
 40
1.0
 40
1.0
 40
1.0
 10
9.59694742347471
 20
21.14499607373288
 30
0.0
 10
9.596888803094968
 20
21.14524029252288
 30
0.0
 10
9.596737078984297
 20
21.14587239144288
 30
0.0
 10
9.60142325889977
 20
21.12644241831091
 30
0.0
 10
9.6098328245773
 20
21.09004803359467
 30
0.0
 10
9.621450434072166
 20
21.03609431080751
 30
0.0
 10
9.63474699530018
 20
20.96734918714459
 30
0.0
 10
9.648626560187399
 20
20.88387579372355
 30
0.0
 10
9.661057523221718
 20
20.78997953518834
 30
0.0
 10
9.67117235666526
 20
20.68784635107323
 30
0.0
 10
9.67463335503367
 20
20.61649506237519
 30
0.0
 10
9.676387875861504
 20
20.58032419235801
 30
0.0
  0
LINE
  5
A8
330
1F
100
AcDbEntity
  8
0
  6
Continuous
 62
     7
370
    25
100
AcDbLine
 10
9.6713878759
 20
20.4835561062
 30
0.0
 11
9.6713878759
 21
20.669673652
 31
0.0
  0
LINE
  5
A9
330
1F
100
AcDbEntity
  8
0
  6
Continuous
 62
     7
370
    25
100
AcDbLine
 10
9.6713878759
 20
20.2998429191
 30
0.0
 11
9.6713878759
 21
20.4835561062
 31
0.0
  0
LINE
  5
AA
330
1F
100
AcDbEntity
  8
0
  6
Continuous
 62
     7
370
    25
100
AcDbLine
 10
8.4613878759
 20
20.4835561062
 30
0.0
 11
8.4613878759
 21
19.8285561062
 31
0.0
  0
LINE
  5
AB
330
1F
100
AcDbEntity
  8
0
  6
Continuous
 62
     7
370
    25
100
AcDbLine
 10
8.4613878759
 20
21.1385561062
 30
0.0
 11
8.4613878759
 21
20.4835561062
 31
0.0
  0
DIMENSION
  5
AC
330
1F
100
AcDbEntity
  8
0
  6
Continuous
 62
     7
370
    18
100
AcDbDimension
  2
_D
 10
7.7863878759
 20
24.0500699405
 30
0.0
 11
5.2667028365
 21
24.0500699405
 31
0.0
 70
   160
  1
<>
 71
     2
 42
-1.0
  3
SLDDIMSTYLE0
100
AcDbAlignedDimension
 13
8.0763878759
 23
22.9685561062
 33
0.0
 14
7.7863878759
 24
20.9835561062
 34
0.0
100
AcDbRotatedDimension
  0
DIMENSION
  5
C2
330
1F
100
AcDbEntity
  8
0
  6
Continuous
 62
     7
370
    18
100
AcDbDimension
  2
_D_1
 10
8.4513878759
 20
16.789596759
 30
0.0
 11
6.2115847263
 21
16.789596759
 31
0.0
 70
   160
  1
<>
 71
     2
 42
-1.0
  3
SLDDIMSTYLE0
100
AcDbAlignedDimension
 13
8.0763878759
 23
17.9985561062
 33
0.0
 14
8.4513878759
 24
18.0485561062
 34
0.0
100
AcDbRotatedDimension
  0
DIMENSION
  5
D6
330
1F
100
AcDbEntity
  8
0
  6
Continuous
 62
     7
370
    18
100
AcDbDimension
  2
_D_2
 10
15.0663878759
 20
24.0500699405
 30
0.0
 11
11.5713878759
 21
24.0500699405
 31
0.0
 70
   160
  1
<>
 71
     2
 42
-1.0
  3
SLDDIMSTYLE1
100
AcDbAlignedDimension
 13
8.0763878759
 23
22.9685561062
 33
0.0
 14
15.0663878759
 24
19.0415561062
 34
0.0
100
AcDbRotatedDimension
  0
DIMENSION
  5
EB
330
1F
100
AcDbEntity
  8
0
  6
Continuous
 62
     7
370
    18
100
AcDbDimension
  2
_D_3
 10
9.5963878759
 20
11.6567529566
 30
0.0
 11
12.3313878759
 21
11.6567529566
 31
0.0
 70
   160
  1
%%c<>
 71
     2
 42
-1.0
  3
SLDDIMSTYLE2
100
AcDbAlignedDimension
 13
15.0663878759
 23
13.2315561062
 33
0.0
 14
9.5963878759
 24
13.2315561062
 34
0.0
100
AcDbRotatedDimension
  0
DIMENSION
  5
FF
330
1F
100
AcDbEntity
  8
0
  6
Continuous
 62
     7
370
    18
100
AcDbDimension
  2
_D_4
 10
16.6411910255
 20
13.2315561062
 30
0.0
 11
16.6411910255
 21
18.1075561062
 31
0.0
 70
   160
  1
<>
 71
     2
 42
-1.0
  3
SLDDIMSTYLE2
100
AcDbAlignedDimension
 13
15.0363878759
 23
22.9835561062
 33
0.0
 14
15.0663878759
 24
13.2315561062
 34
0.0
 50
90.0
100
AcDbRotatedDimension
  0
LINE
  5
113
330
1F
100
AcDbEntity
  8
0
  6
Continuous
 62
     7
370
    25
100
AcDbLine
 10
29.4973321053
 20
19.007614661
 30
0.0
 11
29.4973321053
 21
14.2635125439
 31
0.0
  0
LINE
  5
114
330
1F
100
AcDbEntity
  8
0
  6
Continuous
 62
     7
370
    25
100
AcDbLine
 10
34.9673321053
 20
14.2635125439
 30
0.0
 11
34.9673321053
 21
19.007614661
 31
0.0
  0
LINE
  5
115
330
1F
100
AcDbEntity
  8
0
  6
Continuous
 62
     7
370
    25
100
AcDbLine
 10
34.9756265746
 20
19.7807829472
 30
0.0
 11
35.0109761674
 21
19.7603694272
 31
0.0
  0
LINE
  5
116
330
1F
100
AcDbEntity
  8
0
  6
Continuous
 62
     7
370
    25
100
AcDbLine
 10
33.998672434
 20
24.0741061927
 30
0.0
 11
33.7688627301
 21
23.9414398745
 31
0.0
  0
LINE
  5
117
330
1F
100
AcDbEntity
  8
0
  6
Continuous
 62
     7
370
    25
100
AcDbLine
 10
36.2536607807
 20
19.6371770284
 30
0.0
 11
36.4834704846
 21
19.7698433466
 31
0.0
  0
LINE
  5
118
330
1F
100
AcDbEntity
  8
0
  6
Continuous
 62
     7
370
    25
100
AcDbLine
 10
34.9673321053
 20
21.0076400383
 30
0.0
 11
35.2963087335
 21
21.1975542033
 31
0.0
  0
LINE
  5
119
330
1F
100
AcDbEntity
  8
0
  6
Continuous
 62
     7
370
    25
100
AcDbLine
 10
34.1665833944
 20
23.3181789722
 30
0.0
 11
34.1453667441
 21
23.330431065
 31
0.0
  0
LINE
  5
11A
330
1F
100
AcDbEntity
  8
0
  6
Continuous
 62
     7
370
    25
100
AcDbLine
 10
30.3192974666
 20
23.330431065
 30
0.0
 11
30.2980808162
 21
23.3181789722
 31
0.0
  0
LINE
  5
11B
330
1F
100
AcDbEntity
  8
0
  6
Continuous
 62
     7
370
    25
100
AcDbLine
 10
29.4973321053
 20
22.2019223171
 30
0.0
 11
29.4973321053
 21
19.007614661
 31
0.0
  0
LINE
  5
11C
330
1F
100
AcDbEntity
  8
0
  6
Continuous
 62
     7
370
    25
100
AcDbLine
 10
34.9673321053
 20
19.007614661
 30
0.0
 11
34.9673321053
 21
22.2019223171
 31
0.0
  0
LWPOLYLINE
  5
11D
330
1F
100
AcDbEntity
  8
0
  6
Continuous
 62
     7
370
    25
100
AcDbPolyline
 90
       12
 70
   128
 43
0.0
 10
34.1662691519
 20
17.8911765681
 10
34.2993071912
 20
17.973666906
 10
34.4218123993
 20
18.0614260047
 10
34.5331605176
 20
18.1540066639
 10
34.6327841418
 20
18.2509371138
 10
34.7201756126
 20
18.3517234191
 10
34.7948896032
 20
18.4558519957
 10
34.8565453882
 20
18.5627922285
 10
34.9048287838
 20
18.6719991743
 10
34.9394937489
 20
18.7829163398
 10
34.9603636388
 20
18.8949785164
 10
34.9673321053
 20
19.007614661
  0
LWPOLYLINE
  5
11E
330
1F
100
AcDbEntity
  8
0
  6
Continuous
 62
     7
370
    25
100
AcDbPolyline
 90
       34
 70
   128
 43
0.0
 10
29.4973321053
 20
19.007614661
 10
29.5043005719
 20
18.8949785164
 10
29.5251704618
 20
18.7829163398
 10
29.5598354269
 20
18.6719991743
 10
29.6081188225
 20
18.5627922285
 10
29.6697746075
 20
18.4558519957
 10
29.744488598
 20
18.3517234191
 10
29.8318800689
 20
18.2509371138
 10
29.931503693
 20
18.1540066639
 10
30.0428518114
 20
18.0614260047
 10
30.1653570195
 20
17.973666906
 10
30.2983950588
 20
17.8911765681
 10
30.441287998
 20
17.8143753427
 10
30.5933076874
 20
17.7436545915
 10
30.7536794696
 20
17.679374691
 10
30.9215861267
 20
17.6218631969
 10
31.0961720448
 20
17.5714131746
 10
31.2765475741
 20
17.528281706
 10
31.4617935624
 20
17.4926885789
 10
31.6509660384
 20
17.4648151679
 10
31.8431010227
 20
17.4448035095
 10
32.0372194393
 20
17.4327555785
 10
32.2323321053
 20
17.4287327684
 10
32.4274447714
 20
17.4327555785
 10
32.621563188
 20
17.4448035095
 10
32.8136981723
 20
17.4648151679
 10
33.0028706483
 20
17.4926885789
 10
33.1881166365
 20
17.528281706
 10
33.3684921659
 20
17.5714131746
 10
33.543078084
 20
17.6218631969
 10
33.7109847411
 20
17.679374691
 10
33.8713565232
 20
17.7436545915
 10
34.0233762127
 20
17.8143753427
 10
34.1662691519
 20
17.8911765681
  0
LWPOLYLINE
  5
11F
330
1F
100
AcDbEntity
  8
0
  6
Continuous
 62
     7
370
    25
100
AcDbPolyline
 90
       12
 70
   128
 43
0.0
 10
34.1662691519
 20
13.147074451
 10
34.2993071912
 20
13.229564789
 10
34.4218123993
 20
13.3173238877
 10
34.5331605176
 20
13.4099045469
 10
34.6327841418
 20
13.5068349968
 10
34.7201756126
 20
13.607621302
 10
34.7948896032
 20
13.7117498787
 10
34.8565453882
 20
13.8186901114
 10
34.9048287838
 20
13.9278970573
 10
34.9394937489
 20
14.0388142227
 10
34.9603636388
 20
14.1508763994
 10
34.9673321053
 20
14.2635125439
  0
LWPOLYLINE
  5
120
330
1F
100
AcDbEntity
  8
0
  6
Continuous
 62
     7
370
    25
100
AcDbPolyline
 90
       34
 70
   128
 43
0.0
 10
29.4973321053
 20
14.2635125439
 10
29.5043005719
 20
14.1508763994
 10
29.5251704618
 20
14.0388142227
 10
29.5598354269
 20
13.9278970573
 10
29.6081188225
 20
13.8186901114
 10
29.6697746075
 20
13.7117498787
 10
29.744488598
 20
13.607621302
 10
29.8318800689
 20
13.5068349968
 10
29.931503693
 20
13.4099045469
 10
30.0428518114
 20
13.3173238877
 10
30.1653570195
 20
13.229564789
 10
30.2983950588
 20
13.147074451
 10
30.441287998
 20
13.0702732257
 10
30.5933076874
 20
12.9995524744
 10
30.7536794696
 20
12.9352725739
 10
30.9215861267
 20
12.8777610798
 10
31.0961720448
 20
12.8273110576
 10
31.2765475741
 20
12.7841795889
 10
31.4617935624
 20
12.7485864619
 10
31.6509660384
 20
12.7207130509
 10
31.8431010227
 20
12.7007013925
 10
32.0372194393
 20
12.6886534615
 10
32.2323321053
 20
12.6846306514
 10
32.4274447714
 20
12.6886534615
 10
32.621563188
 20
12.7007013925
 10
32.8136981723
 20
12.7207130509
 10
33.0028706483
 20
12.7485864619
 10
33.1881166365
 20
12.7841795889
 10
33.3684921659
 20
12.8273110576
 10
33.543078084
 20
12.8777610798
 10
33.7109847411
 20
12.9352725739
 10
33.8713565232
 20
12.9995524744
 10
34.0233762127
 20
13.0702732257
 10
34.1662691519
 20
13.147074451
  0
SPLINE
  5
121
330
1F
100
AcDbEntity
  8
0
  6
Continuous
 62
     7
370
    25
100
AcDbSpline
210
0.0
220
0.0
230
1.0
 70
    11
 71
     3
 72
    26
 73
    22
 74
     0
 42
0.00000001
 43
0.00000001
 40
0.0
 40
0.0
 40
0.0
 40
0.0
 40
0.0536750643289197
 40
0.1073496429988592
 40
0.1610368245232482
 40
0.2147322126651252
 40
0.2684139093946073
 40
0.3220813954451586
 40
0.3757563163972446
 40
0.4294487206345222
 40
0.4831413779985414
 40
0.5368166456411639
 40
0.5904840298559223
 40
0.6441653367014819
 40
0.6978606434325547
 40
0.751548178536996
 40
0.8052183088844647
 40
0.8588885589374025
 40
0.9125762604135635
 40
0.9662715254958457
 40
1.0
 40
1.0
 40
1.0
 40
1.0
 10
33.01214071817699
 20
17.34116879585818
 30
0.0
 10
33.0113487333793
 20
17.33417039739023
 30
0.0
 10
33.0097647709499
 20
17.32017366377674
 30
0.0
 10
32.99740711861784
 20
17.29980311255649
 30
0.0
 10
32.9791761021879
 20
17.28287962081392
 30
0.0
 10
32.95635832274395
 20
17.27125156607742
 30
0.0
 10
32.93170558623302
 20
17.26631306568062
 30
0.0
 10
32.9079434947655
 20
17.26861582078515
 30
0.0
 10
32.88777575194269
 20
17.2778651871364
 30
0.0
 10
32.87349844971397
 20
17.29295930903576
 30
0.0
 10
32.86675541802887
 20
17.31213560867805
 30
0.0
 10
32.86832308940653
 20
17.33319309461359
 30
0.0
 10
32.87801652716794
 20
17.35376626387339
 30
0.0
 10
32.8947227996484
 20
17.37158892646394
 30
0.0
 10
32.91653228783701
 20
17.38471816780075
 30
0.0
 10
32.94096106306888
 20
17.39172558674151
 30
0.0
 10
32.96523012683772
 20
17.39184178939047
 30
0.0
 10
32.9866588699059
 20
17.38503788920768
 30
0.0
 10
33.00271096258932
 20
17.37200626625981
 30
0.0
 10
33.0109995693157
 20
17.35640935953871
 30
0.0
 10
33.01182302517763
 20
17.34541173080894
 30
0.0
 10
33.01214071817699
 20
17.34116879585818
 30
0.0
  0
LWPOLYLINE
  5
122
330
1F
100
AcDbEntity
  8
0
  6
Continuous
 62
     7
370
    25
100
AcDbPolyline
 90
       23
 70
   128
 43
0.0
 10
36.7684221067
 20
20.7749213725
 10
36.7635087299
 20
20.6261226789
 10
36.7487960773
 20
20.4838289919
 10
36.724366428
 20
20.3488360756
 10
36.6903564025
 20
20.2218988652
 10
36.6469561985
 20
20.1037272449
 10
36.5944085278
 20
19.9949820785
 10
36.5330072581
 20
19.8962715131
 10
36.4630957703
 20
19.808147578
 10
36.3850650378
 20
19.7311030982
 10
36.29935144
 20
19.6655689377
 10
36.2064343222
 20
19.6119115899
 10
36.1068333146
 20
19.5704311287
 10
36.0011054265
 20
19.5413595295
 10
35.889841931
 20
19.5248593725
 10
35.7736650588
 20
19.5210229333
 10
35.6532245181
 20
19.5298716668
 10
35.5291938612
 20
19.5513560874
 10
35.4022667179
 20
19.5853560453
 10
35.2731529162
 20
19.6316813992
 10
35.1425745129
 20
19.6900730787
 10
35.0112617554
 20
19.7602045339
 10
35.0109761674
 20
19.7603694272
  0
LWPOLYLINE
  5
123
330
1F
100
AcDbEntity
  8
0
  6
Continuous
 62
     7
370
    25
100
AcDbPolyline
 90
       37
 70
   128
 43
0.0
 10
33.4495689503
 20
23.6209429508
 10
33.4895162527
 20
23.6823453899
 10
33.5594277405
 20
23.7704693249
 10
33.6374584731
 20
23.8475138047
 10
33.7231720708
 20
23.9130479653
 10
33.8160891886
 20
23.966705313
 10
33.9156901962
 20
24.0081857742
 10
34.0214180843
 20
24.0372573735
 10
34.1326815798
 20
24.0537575304
 10
34.248858452
 20
24.0575939696
 10
34.3692989927
 20
24.0487452361
 10
34.4933296496
 20
24.0272608155
 10
34.6202567929
 20
23.9932608576
 10
34.7493705946
 20
23.9469355038
 10
34.8799489979
 20
23.8885438242
 10
35.0112617554
 20
23.818412369
 10
35.1425745129
 20
23.7369333416
 10
35.2731529162
 20
23.6445624057
 10
35.4022667179
 20
23.5418161372
 10
35.5291938612
 20
23.4292691348
 10
35.6532245181
 20
23.307550807
 10
35.7736650588
 20
23.1773418522
 10
35.889841931
 20
23.0393704515
 10
36.0011054265
 20
22.894408197
 10
36.1068333146
 20
22.7432657765
 10
36.2064343222
 20
22.5867884397
 10
36.29935144
 20
22.4258512713
 10
36.3850650378
 20
22.2613542972
 10
36.4630957703
 20
22.0942174513
 10
36.5330072581
 20
21.9253754306
 10
36.5944085278
 20
21.7557724681
 10
36.6469561985
 20
21.5863570525
 10
36.6903564025
 20
21.4180766234
 10
36.724366428
 20
21.2518722733
 10
36.7487960773
 20
21.0886734843
 10
36.7635087299
 20
20.9293929302
 10
36.7684221067
 20
20.7749213725
  0
LWPOLYLINE
  5
124
330
1F
100
AcDbEntity
  8
0
  6
Continuous
 62
     7
370
    25
100
AcDbPolyline
 90
       36
 70
   128
 43
0.0
 10
36.6977114285
 20
20.7749213725
 10
36.6927802569
 20
20.928138964
 10
36.6780149875
 20
21.0861723485
 10
36.6535001942
 20
21.2481163251
 10
36.6193762958
 20
21.4130432934
 10
36.5758387507
 20
21.5800085666
 10
36.5231369381
 20
21.7480557829
 10
36.4615727291
 20
21.9162223829
 10
36.3914987581
 20
22.0835451236
 10
36.3133164023
 20
22.2490655956
 10
36.2274734833
 20
22.4118357124
 10
36.1344617014
 20
22.5709231417
 10
36.0348138197
 20
22.725416645
 10
35.9291006124
 20
22.8744312975
 10
35.817927595
 20
23.0171135569
 10
35.7019315566
 20
23.152646152
 10
35.5817769119
 20
23.2802527645
 10
35.4581518959
 20
23.3992024751
 10
35.3317646214
 20
23.5088139508
 10
35.2033390234
 20
23.6084593469
 10
35.073610712
 20
23.6975679036
 10
34.9433227592
 20
23.7756292152
 10
34.8132214427
 20
23.8421961535
 10
34.684051971
 20
23.8968874292
 10
34.5565542151
 20
23.9393897756
 10
34.4314584706
 20
23.9694597431
 10
34.3094812747
 20
23.9869250936
 10
34.1913213016
 20
23.9916857872
 10
34.077655361
 20
23.9837145551
 10
33.9691345211
 20
23.9630570558
 10
33.8663803794
 20
23.9298316135
 10
33.7699815025
 20
23.8842285405
 10
33.6804900542
 20
23.8265090473
 10
33.5984186335
 20
23.7570037457
 10
33.5242373381
 20
23.6761107559
 10
33.4771348767
 20
23.6128096946
  0
LWPOLYLINE
  5
125
330
1F
100
AcDbEntity
  8
0
  6
Continuous
 62
     7
370
    25
100
AcDbPolyline
 90
       22
 70
   128
 43
0.0
 10
34.9673321053
 20
19.7855958697
 10
35.073610712
 20
19.7274216152
 10
35.2033390234
 20
19.6667490517
 10
35.3317646214
 20
19.6181174085
 10
35.4581518959
 20
19.5818052432
 10
35.5817769119
 20
19.5580205485
 10
35.7019315566
 20
19.5468995611
 10
35.817927595
 20
19.5485059809
 10
35.9291006124
 20
19.5628306066
 10
36.0348138197
 20
19.5897913879
 10
36.1344617014
 20
19.629233896
 10
36.2274734833
 20
19.6809322078
 10
36.3133164023
 20
19.7445901999
 10
36.3914987581
 20
19.8198432453
 10
36.4615727291
 20
19.9062603012
 10
36.5231369381
 20
20.0033463785
 10
36.5758387507
 20
20.1105453771
 10
36.6193762958
 20
20.2272432708
 10
36.6535001942
 20
20.3527716246
 10
36.6780149875
 20
20.4864114234
 10
36.6927802569
 20
20.6273971906
 10
36.6977114285
 20
20.7749213725
  0
LWPOLYLINE
  5
126
330
1F
100
AcDbEntity
  8
0
  6
Continuous
 62
     7
370
    25
100
AcDbPolyline
 90
       12
 70
   128
 43
0.0
 10
36.9982318105
 20
20.9075876907
 10
36.9933184338
 20
20.7587889971
 10
36.9786057812
 20
20.6164953101
 10
36.9541761319
 20
20.4815023938
 10
36.9201661063
 20
20.3545651833
 10
36.8767659024
 20
20.2363935631
 10
36.8242182317
 20
20.1276483967
 10
36.762816962
 20
20.0289378312
 10
36.6929054742
 20
19.9408138962
 10
36.6148747416
 20
19.8637694164
 10
36.5291611439
 20
19.7982352558
 10
36.4834704846
 20
19.7698433466
  0
LWPOLYLINE
  5
127
330
1F
100
AcDbEntity
  8
0
  6
Continuous
 62
     7
370
    25
100
AcDbPolyline
 90
       33
 70
   128
 43
0.0
 10
33.998672434
 20
24.0741061927
 10
34.0458988925
 20
24.0993716312
 10
34.1454999001
 20
24.1408520924
 10
34.2512277882
 20
24.1699236916
 10
34.3624912837
 20
24.1864238486
 10
34.4786681559
 20
24.1902602878
 10
34.5991086966
 20
24.1814115543
 10
34.7231393535
 20
24.1599271337
 10
34.8500664968
 20
24.1259271758
 10
34.9791802985
 20
24.0796018219
 10
35.1097587018
 20
24.0212101424
 10
35.2410714593
 20
23.9510786872
 10
35.3723842168
 20
23.8695996597
 10
35.5029626201
 20
23.7772287239
 10
35.6320764218
 20
23.6744824554
 10
35.7590035651
 20
23.561935453
 10
35.883034222
 20
23.4402171252
 10
36.0034747627
 20
23.3100081704
 10
36.1196516349
 20
23.1720367697
 10
36.2309151304
 20
23.0270745152
 10
36.3366430185
 20
22.8759320947
 10
36.4362440261
 20
22.7194547579
 10
36.5291611439
 20
22.5585175895
 10
36.6148747416
 20
22.3940206154
 10
36.6929054742
 20
22.2268837695
 10
36.762816962
 20
22.0580417488
 10
36.8242182317
 20
21.8884387863
 10
36.8767659024
 20
21.7190233707
 10
36.9201661063
 20
21.5507429416
 10
36.9541761319
 20
21.3845385914
 10
36.9786057812
 20
21.2213398024
 10
36.9933184338
 20
21.0620592484
 10
36.9982318105
 20
20.9075876907
  0
LWPOLYLINE
  5
128
330
1F
100
AcDbEntity
  8
0
  6
Continuous
 62
     7
370
    25
100
AcDbPolyline
 90
       19
 70
   128
 43
0.0
 10
36.13061179
 20
21.1023010254
 10
36.1356011096
 20
21.0667457641
 10
36.1499672826
 20
21.0297184463
 10
36.1719775367
 20
20.995685113
 10
36.1989771104
 20
20.9687506865
 10
36.2277094565
 20
20.9521638561
 10
36.2547090301
 20
20.9479252385
 10
36.2767192842
 20
20.9565460733
 10
36.2910854573
 20
20.9769865607
 10
36.2960747768
 20
21.0067812763
 10
36.2910854573
 20
21.0423365376
 10
36.2767192842
 20
21.0793638554
 10
36.2547090301
 20
21.1133971887
 10
36.2277094565
 20
21.1403316151
 10
36.1989771104
 20
21.1569184455
 10
36.1719775367
 20
21.1611570632
 10
36.1499672826
 20
21.1525362284
 10
36.1356011096
 20
21.1320957409
 10
36.13061179
 20
21.1023010254
  0
LWPOLYLINE
  5
129
330
1F
100
AcDbEntity
  8
0
  6
Continuous
 62
     7
370
    25
100
AcDbPolyline
 90
       17
 70
   128
 43
0.0
 10
33.0139462078
 20
17.338479844
 10
33.0094000616
 20
17.3618122529
 10
32.9943191674
 20
17.3802148276
 10
32.9709994545
 20
17.3908859431
 10
32.9429911378
 20
17.3922010187
 10
32.9145582297
 20
17.3839598461
 10
32.8900293826
 20
17.367417069
 10
32.8731388912
 20
17.3450911754
 10
32.8664581796
 20
17.3203810802
 10
32.8710043257
 20
17.2970486713
 10
32.88608522
 20
17.2786460965
 10
32.9094049329
 20
17.267974981
 10
32.9374132496
 20
17.2666599055
 10
32.9658461577
 20
17.2749010781
 10
32.9903750048
 20
17.2914438551
 10
33.0072654962
 20
17.3137697487
 10
33.0139462078
 20
17.338479844
  0
LINE
  5
12A
330
1F
100
AcDbEntity
  8
0
  6
Continuous
 62
     7
370
    25
100
AcDbLine
 10
32.915803902
 20
17.3647187489
 30
0.0
 11
32.8879851382
 21
17.3230227274
 31
0.0
  0
LINE
  5
12B
330
1F
100
AcDbEntity
  8
0
  6
Continuous
 62
     7
370
    25
100
AcDbLine
 10
32.9123834299
 20
17.2877344406
 30
0.0
 11
32.8879851382
 21
17.3230227274
 31
0.0
  0
LINE
  5
12C
330
1F
100
AcDbEntity
  8
0
  6
Continuous
 62
     7
370
    25
100
AcDbLine
 10
32.9646004854
 20
17.2941421753
 30
0.0
 11
32.9123834299
 21
17.2877344406
 31
0.0
  0
LINE
  5
12D
330
1F
100
AcDbEntity
  8
0
  6
Continuous
 62
     7
370
    25
100
AcDbLine
 10
32.9646004854
 20
17.2941421753
 30
0.0
 11
32.9924192492
 21
17.3358381968
 31
0.0
  0
LINE
  5
12E
330
1F
100
AcDbEntity
  8
0
  6
Continuous
 62
     7
370
    25
100
AcDbLine
 10
32.9680209575
 20
17.3711264836
 30
0.0
 11
32.9924192492
 21
17.3358381968
 31
0.0
  0
LINE
  5
12F
330
1F
100
AcDbEntity
  8
0
  6
Continuous
 62
     7
370
    25
100
AcDbLine
 10
32.9680209575
 20
17.3711264836
 30
0.0
 11
32.915803902
 21
17.3647187489
 31
0.0
  0
LINE
  5
130
330
1F
100
AcDbEntity
  8
0
  6
Continuous
 62
     7
370
    25
100
AcDbLine
 10
32.8927142793
 20
17.330110978
 30
0.0
 11
32.9123834299
 21
17.2877344406
 31
0.0
  0
LINE
  5
131
330
1F
100
AcDbEntity
  8
0
  6
Continuous
 62
     7
370
    25
100
AcDbLine
 10
32.9438949618
 20
17.3387515441
 30
0.0
 11
32.9646004854
 21
17.2941421753
 31
0.0
  0
LINE
  5
132
330
1F
100
AcDbEntity
  8
0
  6
Continuous
 62
     7
370
    25
100
AcDbLine
 10
32.9438949618
 20
17.3387515441
 30
0.0
 11
32.9652696264
 21
17.3707888583
 31
0.0
  0
LINE
  5
133
330
1F
100
AcDbEntity
  8
0
  6
Continuous
 62
     7
370
    25
100
AcDbLine
 10
32.9438949618
 20
17.3387515441
 30
0.0
 11
32.8944292373
 21
17.3326814347
 31
0.0
  0
LWPOLYLINE
  5
134
330
1F
100
AcDbEntity
  8
0
  6
Continuous
 62
     7
370
    25
100
AcDbPolyline
 90
       18
 70
   128
 43
0.0
 10
35.2963087335
 20
21.1975542033
 10
35.3354208585
 20
21.2263142739
 10
35.3727293413
 20
21.2698957504
 10
35.4014295249
 20
21.3240255973
 10
35.4209097147
 20
21.3875501307
 10
35.4307547242
 20
21.4591154355
 10
35.4307547242
 20
21.5371962216
 10
35.4209097147
 20
21.6201283325
 10
35.4014295249
 20
21.7061442143
 10
35.3727293413
 20
21.7934105878
 10
35.3354208585
 20
21.8800675217
 10
35.2902992419
 20
21.9642680739
 10
35.2383261806
 20
22.0442176559
 10
35.1806093901
 20
22.1182122812
 10
35.1183790036
 20
22.1846748826
 10
35.0529613537
 20
22.2421889254
 10
34.985750704
 20
22.2895285975
 10
34.9616392865
 20
22.3037400797
  0
ARC
  5
135
330
1F
100
AcDbEntity
  8
0
  6
Continuous
 62
     7
370
    25
100
AcDbCircle
 10
34.448657542
 20
21.4645239523
 30
0.0
 40
0.9840159293168674
100
AcDbArc
 50
2.1562969581
 51
57.8383265229
  0
LWPOLYLINE
  5
136
330
1F
100
AcDbEntity
  8
0
  6
Continuous
 62
     7
370
    25
100
AcDbPolyline
 90
       67
 70
   128
 43
0.0
 10
34.1662691519
 20
23.31836041
 10
34.2993071912
 20
23.2358700721
 10
34.4218123993
 20
23.1481109734
 10
34.5331605176
 20
23.0555303141
 10
34.6327841418
 20
22.9585998642
 10
34.7201756126
 20
22.857813559
 10
34.7948896032
 20
22.7536849824
 10
34.8565453882
 20
22.6467447496
 10
34.9048287838
 20
22.5375378038
 10
34.9394937489
 20
22.4266206383
 10
34.9603636388
 20
22.3145584617
 10
34.9673321053
 20
22.2019223171
 10
34.9603636388
 20
22.0892861725
 10
34.9394937489
 20
21.9772239959
 10
34.9048287838
 20
21.8663068304
 10
34.8565453882
 20
21.7570998846
 10
34.7948896032
 20
21.6501596518
 10
34.7201756126
 20
21.5460310752
 10
34.6327841418
 20
21.4452447699
 10
34.5331605176
 20
21.34831432
 10
34.4218123993
 20
21.2557336608
 10
34.2993071912
 20
21.1679745621
 10
34.1662691519
 20
21.0854842242
 10
34.0233762127
 20
21.0086829988
 10
33.8713565232
 20
20.9379622476
 10
33.7109847411
 20
20.8736823471
 10
33.543078084
 20
20.816170853
 10
33.3684921659
 20
20.7657208307
 10
33.1881166365
 20
20.7225893621
 10
33.0028706483
 20
20.686996235
 10
32.8136981723
 20
20.659122824
 10
32.621563188
 20
20.6391111656
 10
32.4274447714
 20
20.6270632346
 10
32.2323321053
 20
20.6230404245
 10
32.0372194393
 20
20.6270632346
 10
31.8431010227
 20
20.6391111656
 10
31.6509660384
 20
20.659122824
 10
31.4617935624
 20
20.686996235
 10
31.2765475741
 20
20.7225893621
 10
31.0961720448
 20
20.7657208307
 10
30.9215861267
 20
20.816170853
 10
30.7536794696
 20
20.8736823471
 10
30.5933076874
 20
20.9379622476
 10
30.441287998
 20
21.0086829988
 10
30.2983950588
 20
21.0854842242
 10
30.1653570195
 20
21.1679745621
 10
30.0428518114
 20
21.2557336608
 10
29.931503693
 20
21.34831432
 10
29.8318800689
 20
21.4452447699
 10
29.744488598
 20
21.5460310752
 10
29.6697746075
 20
21.6501596518
 10
29.6081188225
 20
21.7570998846
 10
29.5598354269
 20
21.8663068304
 10
29.5251704618
 20
21.9772239959
 10
29.5043005719
 20
22.0892861725
 10
29.4973321053
 20
22.2019223171
 10
29.5043005719
 20
22.3145584617
 10
29.5251704618
 20
22.4266206383
 10
29.5598354269
 20
22.5375378038
 10
29.6081188225
 20
22.6467447496
 10
29.6697746075
 20
22.7536849824
 10
29.744488598
 20
22.857813559
 10
29.8318800689
 20
22.9585998642
 10
29.931503693
 20
23.0555303141
 10
30.0428518114
 20
23.1481109734
 10
30.1653570195
 20
23.2358700721
 10
30.2980808162
 20
23.3181789722
  0
LWPOLYLINE
  5
137
330
1F
100
AcDbEntity
  8
0
  6
Continuous
 62
     7
370
    25
100
AcDbPolyline
 90
       89
 70
   128
 43
0.0
 10
34.1450559484
 20
23.3306105127
 10
34.0037303907
 20
23.4065693114
 10
33.8533781933
 20
23.4765143323
 10
33.6947655166
 20
23.5400891517
 10
33.5287006144
 20
23.5969698067
 10
33.3560297155
 20
23.6468664466
 10
33.1776327112
 20
23.6895248096
 10
32.9944186716
 20
23.7247275184
 10
32.8073212136
 20
23.7522951881
 10
32.6172937429
 20
23.7720873402
 10
32.4253045959
 20
23.7840031184
 10
32.2323321053
 20
23.7879818026
 10
32.0393596148
 20
23.7840031184
 10
31.8473704678
 20
23.7720873402
 10
31.6573429971
 20
23.7522951881
 10
31.4702455391
 20
23.7247275184
 10
31.2870314995
 20
23.6895248096
 10
31.1086344952
 20
23.6468664466
 10
30.9359635963
 20
23.5969698067
 10
30.7698986941
 20
23.5400891517
 10
30.6112860174
 20
23.4765143323
 10
30.46093382
 20
23.4065693114
 10
30.3196082622
 20
23.3306105127
 10
30.1880295067
 20
23.2490250048
 10
30.0668680486
 20
23.1622285287
 10
29.956741299
 20
23.0706633795
 10
29.8582104386
 20
22.9747961521
 10
29.7717775579
 20
22.8751153639
 10
29.6978830992
 20
22.7721289654
 10
29.6369036117
 20
22.6663617517
 10
29.5891498329
 20
22.5583526882
 10
29.5548651051
 20
22.4486521644
 10
29.5342241353
 20
22.337819189
 10
29.5273321053
 20
22.2264185414
 10
29.5342241353
 20
22.1150178939
 10
29.5548651051
 20
22.0041849185
 10
29.5891498329
 20
21.8944843947
 10
29.6369036117
 20
21.7864753312
 10
29.6978830992
 20
21.6807081175
 10
29.7717775579
 20
21.577721719
 10
29.8582104386
 20
21.4780409308
 10
29.956741299
 20
21.3821737034
 10
30.0668680486
 20
21.2906085542
 10
30.1880295067
 20
21.2038120781
 10
30.3196082622
 20
21.1222265702
 10
30.46093382
 20
21.0462677715
 10
30.6112860174
 20
20.9763227506
 10
30.7698986941
 20
20.9127479312
 10
30.9359635963
 20
20.8558672762
 10
31.1086344952
 20
20.8059706363
 10
31.2870314995
 20
20.7633122733
 10
31.4702455391
 20
20.7281095645
 10
31.6573429971
 20
20.7005418948
 10
31.8473704678
 20
20.6807497427
 10
32.0393596148
 20
20.6688339645
 10
32.2323321053
 20
20.6648552803
 10
32.4253045959
 20
20.6688339645
 10
32.6172937429
 20
20.6807497427
 10
32.8073212136
 20
20.7005418948
 10
32.9944186716
 20
20.7281095645
 10
33.1776327112
 20
20.7633122733
 10
33.3560297155
 20
20.8059706363
 10
33.5287006144
 20
20.8558672762
 10
33.6947655166
 20
20.9127479312
 10
33.8533781933
 20
20.9763227506
 10
34.0037303907
 20
21.0462677715
 10
34.1450559484
 20
21.1222265702
 10
34.276634704
 20
21.2038120781
 10
34.397796162
 20
21.2906085542
 10
34.5079229116
 20
21.3821737034
 10
34.6064537721
 20
21.4780409308
 10
34.6928866528
 20
21.577721719
 10
34.7667811115
 20
21.6807081175
 10
34.827760599
 20
21.7864753312
 10
34.8755143778
 20
21.8944843947
 10
34.9097991056
 20
22.0041849185
 10
34.9304400754
 20
22.1150178939
 10
34.9373321053
 20
22.2264185414
 10
34.9304400754
 20
22.337819189
 10
34.9097991056
 20
22.4486521644
 10
34.8755143778
 20
22.5583526882
 10
34.827760599
 20
22.6663617517
 10
34.7667811115
 20
22.7721289654
 10
34.6928866528
 20
22.8751153639
 10
34.6064537721
 20
22.9747961521
 10
34.5079229116
 20
23.0706633795
 10
34.397796162
 20
23.1622285287
 10
34.276634704
 20
23.2490250048
 10
34.1450559484
 20
23.3306105127
  0
LWPOLYLINE
  5
138
330
1F
100
AcDbEntity
  8
0
  6
Continuous
 62
     7
370
    25
100
AcDbPolyline
 90
       45
 70
   128
 43
0.0
 10
34.9673321053
 20
19.007614661
 10
34.9603636388
 20
18.8949785164
 10
34.9394937489
 20
18.7829163398
 10
34.9048287838
 20
18.6719991743
 10
34.8565453882
 20
18.5627922285
 10
34.7948896032
 20
18.4558519957
 10
34.7201756126
 20
18.3517234191
 10
34.6327841418
 20
18.2509371138
 10
34.5331605176
 20
18.1540066639
 10
34.4218123993
 20
18.0614260047
 10
34.2993071912
 20
17.973666906
 10
34.1662691519
 20
17.8911765681
 10
34.0233762127
 20
17.8143753427
 10
33.8713565232
 20
17.7436545915
 10
33.7109847411
 20
17.679374691
 10
33.543078084
 20
17.6218631969
 10
33.3684921659
 20
17.5714131746
 10
33.1881166365
 20
17.528281706
 10
33.0028706483
 20
17.4926885789
 10
32.8136981723
 20
17.4648151679
 10
32.621563188
 20
17.4448035095
 10
32.4274447714
 20
17.4327555785
 10
32.2323321053
 20
17.4287327684
 10
32.0372194393
 20
17.4327555785
 10
31.8431010227
 20
17.4448035095
 10
31.6509660384
 20
17.4648151679
 10
31.4617935624
 20
17.4926885789
 10
31.2765475741
 20
17.528281706
 10
31.0961720448
 20
17.5714131746
 10
30.9215861267
 20
17.6218631969
 10
30.7536794696
 20
17.679374691
 10
30.5933076874
 20
17.7436545915
 10
30.441287998
 20
17.8143753427
 10
30.2983950588
 20
17.8911765681
 10
30.1653570195
 20
17.973666906
 10
30.0428518114
 20
18.0614260047
 10
29.931503693
 20
18.1540066639
 10
29.8318800689
 20
18.2509371138
 10
29.744488598
 20
18.3517234191
 10
29.6697746075
 20
18.4558519957
 10
29.6081188225
 20
18.5627922285
 10
29.5598354269
 20
18.6719991743
 10
29.5251704618
 20
18.7829163398
 10
29.5043005719
 20
18.8949785164
 10
29.4973321053
 20
19.007614661
  0
CIRCLE
  5
139
330
1F
100
AcDbEntity
  8
0
  6
Continuous
 62
     7
370
    25
100
AcDbCircle
 10
21.6344189984
 20
17.3903384663
 30
0.0
 40
2.484999999999999
  0
CIRCLE
  5
13A
330
1F
100
AcDbEntity
  8
0
  6
Continuous
 62
     7
370
    25
100
AcDbCircle
 10
21.6344189984
 20
17.3903384663
 30
0.0
 40
2.434999999999999
  0
CIRCLE
  5
13B
330
1F
100
AcDbEntity
  8
0
  6
Continuous
 62
     7
370
    25
100
AcDbCircle
 10
23.3844189984
 20
17.3903384663
 30
0.0
 40
0.1169999999999973
  0
CIRCLE
  5
13C
330
1F
100
AcDbEntity
  8
0
  6
Continuous
 62
     7
370
    25
100
AcDbCircle
 10
19.8844189984
 20
17.3903384663
 30
0.0
 40
0.1169999999999973
  0
CIRCLE
  5
13D
330
1F
100
AcDbEntity
  8
0
  6
Continuous
 62
     7
370
    25
100
AcDbCircle
 10
21.6344189984
 20
17.3903384663
 30
0.0
 40
0.4139999999999979
  0
DIMENSION
  5
13E
330
1F
100
AcDbEntity
  8
0
  6
Continuous
 62
     7
370
    18
100
AcDbDimension
  2
_D_5
 10
23.3844189984
 20
21.2305694726
 30
0.0
 11
26.1272028538
 21
21.2305694726
 31
0.0
 70
   160
  1
<>O.C.
 71
     2
 42
-1.0
  3
SLDDIMSTYLE2
100
AcDbAlignedDimension
 13
19.8844189984
 23
17.6073384663
 33
0.0
 14
23.3844189984
 24
17.6073384663
 34
0.0
100
AcDbRotatedDimension
  0
DIMENSION
  5
151
330
1F
100
AcDbEntity
  8
0
  6
Continuous
 62
     7
370
    18
100
AcDbDimension
  2
_D_6
 10
26.1272028538
 20
14.9053384663
 30
0.0
 11
26.1272028538
 21
17.3903384663
 31
0.0
 70
   160
  1
%%c<>
 71
     2
 42
-1.0
  3
SLDDIMSTYLE1
100
AcDbAlignedDimension
 13
21.6344189984
 23
19.8753384663
 33
0.0
 14
21.6344189984
 24
14.9053384663
 34
0.0
 50
90.0
100
AcDbRotatedDimension
  0
INSERT
  5
16F
330
1F
100
AcDbEntity
  8
0
  6
Continuous
 62
     7
370
     0
100
AcDbBlockReference
  2
SW_CENTERMARKSYMBOL_0
 10
19.8844189984
 20
17.3903384663
 30
0.0
  0
INSERT
  5
17B
330
1F
100
AcDbEntity
  8
0
  6
Continuous
 62
     7
370
     0
100
AcDbBlockReference
  2
SW_CENTERMARKSYMBOL_1
 10
23.3844189984
 20
17.3903384663
 30
0.0
  0
INSERT
  5
187
330
1F
100
AcDbEntity
  8
0
  6
Continuous
 62
     7
370
     0
100
AcDbBlockReference
  2
SW_CENTERMARKSYMBOL_2
 10
22.5944189984
 20
17.3903384663
 30
0.0
  0
ENDSEC
  0
SECTION
  2
OBJECTS
  0
DICTIONARY
  5
C
330
0
100
AcDbDictionary
281
     1
  3
ACAD_GROUP
350
D
  3
ACAD_LAYOUT
350
1A
  3
ACAD_MLINESTYLE
350
17
  3
ACAD_PLOTSETTINGS
350
19
  3
ACAD_PLOTSTYLENAME
350
E
  3
ACAD_SCALELIST
350
47
  3
DWGPROPS
350
188
  0
DICTIONARY
  5
D
102
{ACAD_REACTORS
330
C
102
}
330
C
100
AcDbDictionary
281
     1
  0
DICTIONARY
  5
1A
102
{ACAD_REACTORS
330
C
102
}
330
C
100
AcDbDictionary
281
     1
  3
Layout1
350
1E
  3
Layout2
350
26
  3
Model
350
22
  0
DICTIONARY
  5
17
102
{ACAD_REACTORS
330
C
102
}
330
C
100
AcDbDictionary
281
     1
  3
Standard
350
18
  0
DICTIONARY
  5
19
102
{ACAD_REACTORS
330
C
102
}
330
C
100
AcDbDictionary
281
     1
  0
ACDBDICTIONARYWDFLT
  5
E
102
{ACAD_REACTORS
330
C
102
}
330
C
100
AcDbDictionary
281
     1
  3
Normal
350
F
100
AcDbDictionaryWithDefault
340
F
  0
DICTIONARY
  5
47
102
{ACAD_REACTORS
330
C
102
}
330
C
100
AcDbDictionary
281
     1
  3
A0
350
48
  3
A1
350
49
  3
A2
350
4A
  3
A3
350
4B
  3
A4
350
4C
  3
A5
350
4D
  3
A6
350
4E
  3
A7
350
4F
  3
A8
350
50
  3
A9
350
51
  3
B1
350
52
  3
B2
350
53
  3
B3
350
54
  3
B4
350
55
  3
B5
350
56
  3
B6
350
57
  3
B7
350
58
  0
XRECORD
  5
188
102
{ACAD_REACTORS
330
C
102
}
330
C
100
AcDbXrecord
280
     1
  1
DWGPROPS COOKIE
  2

  3

  4

  6

  7

  8
shawnd
  9

300
=
301
=
302
=
303
=
304
=
305
=
306
=
307
=
308
=
309
=
 40
0.0
 41
2460504.956330394
 42
2460504.956330822
  1

 90
        0
  0
LAYOUT
  5
1E
102
{ACAD_REACTORS
330
1A
102
}
330
1A
100
AcDbPlotSettings
  1

  2
none_device
  4

  6

 40
0.0
 41
0.0
 42
0.0
 43
0.0
 44
0.0
 45
0.0
 46
0.0
 47
0.0
 48
0.0
 49
0.0
140
0.0
141
0.0
142
1.0
143
1.0
 70
   688
 72
     0
 73
     0
 74
     5
  7

 75
    16
147
1.0
148
0.0
149
0.0
100
AcDbLayout
  1
Layout1
 70
     1
 71
     1
 10
0.0
 20
0.0
 11
12.0
 21
9.0
 12
0.0
 22
0.0
 32
0.0
 14
1.0000000000E+20
 24
1.0000000000E+20
 34
1.0000000000E+20
 15
-1.0000000000E+20
 25
-1.0000000000E+20
 35
-1.0000000000E+20
146
0.0
 13
0.0
 23
0.0
 33
0.0
 16
1.0
 26
0.0
 36
0.0
 17
0.0
 27
1.0
 37
0.0
 76
     0
330
1B
  0
LAYOUT
  5
26
102
{ACAD_REACTORS
330
1A
102
}
330
1A
100
AcDbPlotSettings
  1

  2
none_device
  4

  6

 40
0.0
 41
0.0
 42
0.0
 43
0.0
 44
0.0
 45
0.0
 46
0.0
 47
0.0
 48
0.0
 49
0.0
140
0.0
141
0.0
142
1.0
143
1.0
 70
   688
 72
     0
 73
     0
 74
     5
  7

 75
    16
147
1.0
148
0.0
149
0.0
100
AcDbLayout
  1
Layout2
 70
     1
 71
     2
 10
0.0
 20
0.0
 11
0.0
 21
0.0
 12
0.0
 22
0.0
 32
0.0
 14
0.0
 24
0.0
 34
0.0
 15
0.0
 25
0.0
 35
0.0
146
0.0
 13
0.0
 23
0.0
 33
0.0
 16
1.0
 26
0.0
 36
0.0
 17
0.0
 27
1.0
 37
0.0
 76
     0
330
23
  0
LAYOUT
  5
22
102
{ACAD_REACTORS
330
1A
102
}
330
1A
100
AcDbPlotSettings
  1

  2
none_device
  4
Letter_(8.50_x_11.00_Inches)
  6

 40
6.35
 41
6.35
 42
6.35000508
 43
6.35000508
 44
215.9
 45
279.4
 46
0.0
 47
0.0
 48
0.0
 49
0.0
140
0.0
141
0.0
142
1.0
143
1.0
 70
  1712
 72
     0
 73
     0
 74
     0
  7

 75
     0
147
1.0
148
0.0
149
0.0
100
AcDbLayout
  1
Model
 70
     1
 71
     0
 10
0.0
 20
0.0
 11
44.0
 21
34.0
 12
0.0
 22
0.0
 32
0.0
 14
0.0
 24
0.0
 34
0.0
 15
44.0
 25
34.0
 35
0.0
146
0.0
 13
0.0
 23
0.0
 33
0.0
 16
1.0
 26
0.0
 36
0.0
 17
0.0
 27
1.0
 37
0.0
 76
     0
330
1F
331
29
  0
MLINESTYLE
  5
18
102
{ACAD_REACTORS
330
17
102
}
330
17
100
AcDbMlineStyle
  2
Standard
 70
     0
  3

 62
   256
 51
90.0
 52
90.0
 71
     2
 49
0.5
 62
   256
  6
BYLAYER
 49
-0.5
 62
   256
  6
BYLAYER
  0
ACDBPLACEHOLDER
  5
F
102
{ACAD_REACTORS
330
E
102
}
330
E
  0
SCALE
  5
48
102
{ACAD_REACTORS
330
47
102
}
330
47
100
AcDbScale
 70
     0
300
1:1
140
1.0
141
1.0
290
     1
  0
SCALE
  5
49
102
{ACAD_REACTORS
330
47
102
}
330
47
100
AcDbScale
 70
     0
300
1/128" = 1'-0"
140
0.0078125
141
12.0
290
     0
  0
SCALE
  5
4A
102
{ACAD_REACTORS
330
47
102
}
330
47
100
AcDbScale
 70
     0
300
1/64" = 1'-0"
140
0.015625
141
12.0
290
     0
  0
SCALE
  5
4B
102
{ACAD_REACTORS
330
47
102
}
330
47
100
AcDbScale
 70
     0
300
1/32" = 1'-0"
140
0.03125
141
12.0
290
     0
  0
SCALE
  5
4C
102
{ACAD_REACTORS
330
47
102
}
330
47
100
AcDbScale
 70
     0
300
1/16" = 1'-0"
140
0.0625
141
12.0
290
     0
  0
SCALE
  5
4D
102
{ACAD_REACTORS
330
47
102
}
330
47
100
AcDbScale
 70
     0
300
3/32" = 1'-0"
140
0.09375
141
12.0
290
     0
  0
SCALE
  5
4E
102
{ACAD_REACTORS
330
47
102
}
330
47
100
AcDbScale
 70
     0
300
1/8" = 1'-0"
140
0.125
141
12.0
290
     0
  0
SCALE
  5
4F
102
{ACAD_REACTORS
330
47
102
}
330
47
100
AcDbScale
 70
     0
300
3/16" = 1'-0"
140
0.1875
141
12.0
290
     0
  0
SCALE
  5
50
102
{ACAD_REACTORS
330
47
102
}
330
47
100
AcDbScale
 70
     0
300
1/4" = 1'-0"
140
0.25
141
12.0
290
     0
  0
SCALE
  5
51
102
{ACAD_REACTORS
330
47
102
}
330
47
100
AcDbScale
 70
     0
300
3/8" = 1'-0"
140
0.375
141
12.0
290
     0
  0
SCALE
  5
52
102
{ACAD_REACTORS
330
47
102
}
330
47
100
AcDbScale
 70
     0
300
1/2" = 1'-0"
140
0.5
141
12.0
290
     0
  0
SCALE
  5
53
102
{ACAD_REACTORS
330
47
102
}
330
47
100
AcDbScale
 70
     0
300
3/4" = 1'-0"
140
0.75
141
12.0
290
     0
  0
SCALE
  5
54
102
{ACAD_REACTORS
330
47
102
}
330
47
100
AcDbScale
 70
     0
300
1" = 1'-0"
140
1.0
141
12.0
290
     0
  0
SCALE
  5
55
102
{ACAD_REACTORS
330
47
102
}
330
47
100
AcDbScale
 70
     0
300
1-1/2" = 1'-0"
140
1.5
141
12.0
290
     0
  0
SCALE
  5
56
102
{ACAD_REACTORS
330
47
102
}
330
47
100
AcDbScale
 70
     0
300
3" = 1'-0"
140
3.0
141
12.0
290
     0
  0
SCALE
  5
57
102
{ACAD_REACTORS
330
47
102
}
330
47
100
AcDbScale
 70
     0
300
6" = 1'-0"
140
6.0
141
12.0
290
     0
  0
SCALE
  5
58
102
{ACAD_REACTORS
330
47
102
}
330
47
100
AcDbScale
 70
     0
300
1'-0" = 1'-0"
140
12.0
141
12.0
290
     0
  0
ENDSEC
  0
EOF
