  0
SECTION
  2
HEADER
  9
$ACADVER
  1
AC1015
  9
$ACADMAINTVER
 70
     6
  9
$DWGCODEPAGE
  3
ANSI_1252
  9
$INSBASE
 10
0.0
 20
0.0
 30
0.0
  9
$EXTMIN
 10
0.0
 20
0.0
 30
0.0
  9
$EXTMAX
 10
44.0
 20
34.0
 30
0.0
  9
$LIMMIN
 10
0.0
 20
0.0
  9
$LIMMAX
 10
44.0
 20
34.0
  9
$ORTHOMODE
 70
     0
  9
$REGENMODE
 70
     1
  9
$FILLMODE
 70
     1
  9
$QTEXTMODE
 70
     0
  9
$MIRRTEXT
 70
     1
  9
$LTSCALE
 40
4.0
  9
$ATTMODE
 70
     1
  9
$TEXTSIZE
 40
0.5
  9
$TRACEWID
 40
0.05
  9
$TEXTSTYLE
  7
Standard
  9
$CLAYER
  8
0
  9
$CELTYPE
  6
ByLayer
  9
$CECOLOR
 62
   256
  9
$CELTSCALE
 40
1.0
  9
$DISPSILH
 70
     0
  9
$DIMSCALE
 40
1.0
  9
$DIMASZ
 40
0.52
  9
$DIMEXO
 40
0.6
  9
$DIMDLI
 40
0.38
  9
$DIMRND
 40
0.0
  9
$DIMDLE
 40
0.0
  9
$DIMEXE
 40
0.4
  9
$DIMTP
 40
0.0
  9
$DIMTM
 40
0.0
  9
$DIMTXT
 40
0.5
  9
$DIMCEN
 40
0.09
  9
$DIMTSZ
 40
0.0
  9
$DIMTOL
 70
     0
  9
$DIMLIM
 70
     0
  9
$DIMTIH
 70
     1
  9
$DIMTOH
 70
     1
  9
$DIMSE1
 70
     0
  9
$DIMSE2
 70
     0
  9
$DIMTAD
 70
     0
  9
$DIMZIN
 70
     0
  9
$DIMBLK
  1

  9
$DIMASO
 70
     1
  9
$DIMSHO
 70
     1
  9
$DIMPOST
  1

  9
$DIMAPOST
  1

  9
$DIMALT
 70
     0
  9
$DIMALTD
 70
     2
  9
$DIMALTF
 40
25.4
  9
$DIMLFAC
 40
1.0
  9
$DIMTOFL
 70
     0
  9
$DIMTVP
 40
0.0
  9
$DIMTIX
 70
     0
  9
$DIMSOXD
 70
     0
  9
$DIMSAH
 70
     0
  9
$DIMBLK1
  1

  9
$DIMBLK2
  1

  9
$DIMSTYLE
  2
Standard
  9
$DIMCLRD
 70
     0
  9
$DIMCLRE
 70
     0
  9
$DIMCLRT
 70
     0
  9
$DIMTFAC
 40
1.0
  9
$DIMGAP
 40
0.24
  9
$DIMJUST
 70
     0
  9
$DIMSD1
 70
     0
  9
$DIMSD2
 70
     0
  9
$DIMTOLJ
 70
     1
  9
$DIMTZIN
 70
     0
  9
$DIMALTZ
 70
     0
  9
$DIMALTTZ
 70
     0
  9
$DIMUPT
 70
     0
  9
$DIMDEC
 70
     0
  9
$DIMTDEC
 70
     0
  9
$DIMALTU
 70
     2
  9
$DIMALTTD
 70
     2
  9
$DIMTXSTY
  7
Standard
  9
$DIMAUNIT
 70
     0
  9
$DIMADEC
 70
     0
  9
$DIMALTRND
 40
0.0
  9
$DIMAZIN
 70
     0
  9
$DIMDSEP
 70
    46
  9
$DIMATFIT
 70
     3
  9
$DIMFRAC
 70
     0
  9
$DIMLDRBLK
  1

  9
$DIMLUNIT
 70
     2
  9
$DIMLWD
 70
    -2
  9
$DIMLWE
 70
    -2
  9
$DIMTMOVE
 70
     0
  9
$LUNITS
 70
     2
  9
$LUPREC
 70
     0
  9
$SKETCHINC
 40
0.1
  9
$FILLETRAD
 40
0.0
  9
$AUNITS
 70
     0
  9
$AUPREC
 70
     0
  9
$MENU
  1
.
  9
$ELEVATION
 40
0.0
  9
$PELEVATION
 40
0.0
  9
$THICKNESS
 40
0.0
  9
$LIMCHECK
 70
     0
  9
$CHAMFERA
 40
0.0
  9
$CHAMFERB
 40
0.0
  9
$CHAMFERC
 40
0.0
  9
$CHAMFERD
 40
0.0
  9
$SKPOLY
 70
     0
  9
$TDCREATE
 40
2460858.613595289
  9
$TDUCREATE
 40
2460858.905261956
  9
$TDUPDATE
 40
2460858.613595961
  9
$TDUUPDATE
 40
2460858.905262627
  9
$TDINDWG
 40
0.0000000116
  9
$TDUSRTIMER
 40
0.0000000116
  9
$USRTIMER
 70
     1
  9
$ANGBASE
 50
0.0
  9
$ANGDIR
 70
     0
  9
$PDMODE
 70
     0
  9
$PDSIZE
 40
-1.0
  9
$PLINEWID
 40
0.0
  9
$SPLFRAME
 70
     0
  9
$SPLINETYPE
 70
     6
  9
$SPLINESEGS
 70
     8
  9
$HANDSEED
  5
395
  9
$SURFTAB1
 70
     6
  9
$SURFTAB2
 70
     6
  9
$SURFTYPE
 70
     6
  9
$SURFU
 70
     6
  9
$SURFV
 70
     6
  9
$UCSBASE
  2

  9
$UCSNAME
  2

  9
$UCSORG
 10
0.0
 20
0.0
 30
0.0
  9
$UCSXDIR
 10
1.0
 20
0.0
 30
0.0
  9
$UCSYDIR
 10
0.0
 20
1.0
 30
0.0
  9
$UCSORTHOREF
  2

  9
$UCSORTHOVIEW
 70
     0
  9
$UCSORGTOP
 10
0.0
 20
0.0
 30
0.0
  9
$UCSORGBOTTOM
 10
0.0
 20
0.0
 30
0.0
  9
$UCSORGLEFT
 10
0.0
 20
0.0
 30
0.0
  9
$UCSORGRIGHT
 10
0.0
 20
0.0
 30
0.0
  9
$UCSORGFRONT
 10
0.0
 20
0.0
 30
0.0
  9
$UCSORGBACK
 10
0.0
 20
0.0
 30
0.0
  9
$PUCSBASE
  2

  9
$PUCSNAME
  2

  9
$PUCSORG
 10
0.0
 20
0.0
 30
0.0
  9
$PUCSXDIR
 10
1.0
 20
0.0
 30
0.0
  9
$PUCSYDIR
 10
0.0
 20
1.0
 30
0.0
  9
$PUCSORTHOREF
  2

  9
$PUCSORTHOVIEW
 70
     0
  9
$PUCSORGTOP
 10
0.0
 20
0.0
 30
0.0
  9
$PUCSORGBOTTOM
 10
0.0
 20
0.0
 30
0.0
  9
$PUCSORGLEFT
 10
0.0
 20
0.0
 30
0.0
  9
$PUCSORGRIGHT
 10
0.0
 20
0.0
 30
0.0
  9
$PUCSORGFRONT
 10
0.0
 20
0.0
 30
0.0
  9
$PUCSORGBACK
 10
0.0
 20
0.0
 30
0.0
  9
$USERI1
 70
     0
  9
$USERI2
 70
     0
  9
$USERI3
 70
     0
  9
$USERI4
 70
     0
  9
$USERI5
 70
     0
  9
$USERR1
 40
0.0
  9
$USERR2
 40
0.0
  9
$USERR3
 40
0.0
  9
$USERR4
 40
0.0
  9
$USERR5
 40
0.0
  9
$WORLDVIEW
 70
     1
  9
$SHADEDGE
 70
     3
  9
$SHADEDIF
 70
    70
  9
$TILEMODE
 70
     1
  9
$MAXACTVP
 70
    64
  9
$PINSBASE
 10
0.0
 20
0.0
 30
0.0
  9
$PLIMCHECK
 70
     0
  9
$PEXTMIN
 10
1.0000000000E+20
 20
1.0000000000E+20
 30
1.0000000000E+20
  9
$PEXTMAX
 10
-1.0000000000E+20
 20
-1.0000000000E+20
 30
-1.0000000000E+20
  9
$PLIMMIN
 10
0.0
 20
0.0
  9
$PLIMMAX
 10
12.0
 20
9.0
  9
$UNITMODE
 70
     0
  9
$VISRETAIN
 70
     1
  9
$PLINEGEN
 70
     0
  9
$PSLTSCALE
 70
     1
  9
$TREEDEPTH
 70
  3020
  9
$CMLSTYLE
  2
Standard
  9
$CMLJUST
 70
     0
  9
$CMLSCALE
 40
1.0
  9
$PROXYGRAPHICS
 70
     1
  9
$MEASUREMENT
 70
     0
  9
$CELWEIGHT
370
    -1
  9
$ENDCAPS
280
     0
  9
$JOINSTYLE
280
     0
  9
$LWDISPLAY
290
     1
  9
$INSUNITS
 70
     1
  9
$HYPERLINKBASE
  1

  9
$STYLESHEET
  1

  9
$XEDIT
290
     1
  9
$CEPSNTYPE
380
     0
  9
$PSTYLEMODE
290
     1
  9
$FINGERPRINTGUID
  2
{291a6e53-fa7d-4fe1-a124-e11e967664dc}
  9
$VERSIONGUID
  2
{FAEB1C32-E019-11D5-929B-00C0DF256EC4}
  9
$EXTNAMES
290
     1
  9
$PSVPSCALE
 40
0.0
  9
$OLESTARTUP
290
     0
  0
ENDSEC
  0
SECTION
  2
CLASSES
  0
CLASS
  1
ACDBDICTIONARYWDFLT
  2
AcDbDictionaryWithDefault
  3
ObjectDBX Classes
 90
        0
280
     0
281
     0
  0
CLASS
  1
VISUALSTYLE
  2
AcDbVisualStyle
  3
ObjectDBX Classes
 90
     4095
280
     0
281
     0
  0
CLASS
  1
MATERIAL
  2
AcDbMaterial
  3
ObjectDBX Classes
 90
     1153
280
     0
281
     0
  0
CLASS
  1
SCALE
  2
AcDbScale
  3
ObjectDBX Classes
 90
     1153
280
     0
281
     0
  0
CLASS
  1
TABLESTYLE
  2
AcDbTableStyle
  3
ObjectDBX Classes
 90
     4095
280
     0
281
     0
  0
CLASS
  1
MLEADERSTYLE
  2
AcDbMLeaderStyle
  3
ACDB_MLEADERSTYLE_CLASS
 90
     4095
280
     0
281
     0
  0
CLASS
  1
SUN
  2
AcDbSun
  3
SCENEOE
 90
     1153
280
     0
281
     0
  0
CLASS
  1
ACDBPLACEHOLDER
  2
AcDbPlaceHolder
  3
ObjectDBX Classes
 90
        0
280
     0
281
     0
  0
CLASS
  1
LAYOUT
  2
AcDbLayout
  3
ObjectDBX Classes
 90
        0
280
     0
281
     0
  0
ENDSEC
  0
SECTION
  2
TABLES
  0
TABLE
  2
VPORT
  5
8
330
0
100
AcDbSymbolTable
 70
     1
  0
VPORT
  5
29
330
8
100
AcDbSymbolTableRecord
100
AcDbViewportTableRecord
  2
*Active
 70
     0
 10
0.0
 20
0.0
 11
1.0
 21
1.0
 12
22.0
 22
17.0
 13
0.0
 23
0.0
 14
0.5
 24
0.5
 15
0.5
 25
0.5
 16
0.0
 26
0.0
 36
1.0
 17
0.0
 27
0.0
 37
0.0
 40
34.0
 41
1.2941176471
 42
50.0
 43
0.0
 44
0.0
 50
0.0
 51
0.0
 71
     0
 72
  2000
 73
     1
 74
     3
 75
     0
 76
     0
 77
     0
 78
     0
281
     0
 65
     1
110
0.0
120
0.0
130
0.0
111
1.0
121
0.0
131
0.0
112
0.0
122
1.0
132
0.0
 79
     0
146
0.0
  0
ENDTAB
  0
TABLE
  2
LTYPE
  5
5
330
0
100
AcDbSymbolTable
 70
     6
  0
LTYPE
  5
14
330
5
100
AcDbSymbolTableRecord
100
AcDbLinetypeTableRecord
  2
ByBlock
 70
     0
  3

 72
    65
 73
     0
 40
0.0
  0
LTYPE
  5
15
330
5
100
AcDbSymbolTableRecord
100
AcDbLinetypeTableRecord
  2
ByLayer
 70
     0
  3

 72
    65
 73
     0
 40
0.0
  0
LTYPE
  5
16
330
5
100
AcDbSymbolTableRecord
100
AcDbLinetypeTableRecord
  2
Continuous
 70
     0
  3
Solid line
 72
    65
 73
     0
 40
0.0
  0
LTYPE
  5
5E
330
5
100
AcDbSymbolTableRecord
100
AcDbLinetypeTableRecord
  2
HIDDEN
 70
     0
  3
Hidden __ __ __ __ __ __ __ __ __ __ __ __ __ __
 72
    65
 73
     2
 40
0.075
 49
0.05
 74
     0
 49
-0.025
 74
     0
  0
LTYPE
  5
5F
330
5
100
AcDbSymbolTableRecord
100
AcDbLinetypeTableRecord
  2
PHANTOM
 70
     0
  3
Phantom ______  __  __  ______  __  __  ______
 72
    65
 73
     6
 40
0.5
 49
0.25
 74
     0
 49
-0.05
 74
     0
 49
0.05
 74
     0
 49
-0.05
 74
     0
 49
0.05
 74
     0
 49
-0.05
 74
     0
  0
LTYPE
  5
60
330
5
100
AcDbSymbolTableRecord
100
AcDbLinetypeTableRecord
  2
CENTER
 70
     0
  3
Center ____ _ ____ _ ____ _ ____ _ ____ _ ____
 72
    65
 73
     4
 40
0.4
 49
0.25
 74
     0
 49
-0.05
 74
     0
 49
0.05
 74
     0
 49
-0.05
 74
     0
  0
LTYPE
  5
61
330
5
100
AcDbSymbolTableRecord
100
AcDbLinetypeTableRecord
  2
CENTERX2
 70
     0
  3
Center (2x) ________  __  ________  __  _____
 72
    65
 73
     4
 40
0.8
 49
0.5
 74
     0
 49
-0.1
 74
     0
 49
0.1
 74
     0
 49
-0.1
 74
     0
  0
LTYPE
  5
62
330
5
100
AcDbSymbolTableRecord
100
AcDbLinetypeTableRecord
  2
DOT2
 70
     0
  3
Dot (.5x) ........................................
 72
    65
 73
     2
 40
0.025
 49
0.0
 74
     0
 49
-0.025
 74
     0
  0
ENDTAB
  0
TABLE
  2
LAYER
  5
2
330
0
100
AcDbSymbolTable
 70
    11
  0
LAYER
  5
10
330
2
100
AcDbSymbolTableRecord
100
AcDbLayerTableRecord
  2
0
 70
     0
 62
     7
  6
Continuous
370
    -3
390
F
  0
LAYER
  5
63
330
2
100
AcDbSymbolTableRecord
100
AcDbLayerTableRecord
  2
SLD-0
 70
     0
 62
     7
  6
Continuous
370
    -3
390
F
  0
LAYER
  5
64
330
2
100
AcDbSymbolTableRecord
100
AcDbLayerTableRecord
  2
DIM
 70
     0
 62
     7
  6
Continuous
370
    -3
390
F
  0
LAYER
  5
65
330
2
100
AcDbSymbolTableRecord
100
AcDbLayerTableRecord
  2
CEN
 70
     0
 62
     1
  6
CENTER
370
    -3
390
F
  0
LAYER
  5
66
330
2
100
AcDbSymbolTableRecord
100
AcDbLayerTableRecord
  2
HAT
 70
     0
 62
     4
  6
Continuous
370
    -3
390
F
  0
LAYER
  5
67
330
2
100
AcDbSymbolTableRecord
100
AcDbLayerTableRecord
  2
OBJ
 70
     0
 62
     5
  6
Continuous
370
    -3
390
F
  0
LAYER
  5
68
330
2
100
AcDbSymbolTableRecord
100
AcDbLayerTableRecord
  2
SLD-DEFPOINTS
 70
     0
 62
     7
  6
Continuous
370
    -3
390
F
  0
LAYER
  5
69
330
2
100
AcDbSymbolTableRecord
100
AcDbLayerTableRecord
  2
HID
 70
     0
 62
     4
  6
HIDDEN
370
    -3
390
F
  0
LAYER
  5
6A
330
2
100
AcDbSymbolTableRecord
100
AcDbLayerTableRecord
  2
NOTE
 70
     0
 62
     7
  6
Continuous
370
    -3
390
F
  0
LAYER
  5
6B
330
2
100
AcDbSymbolTableRecord
100
AcDbLayerTableRecord
  2
TITLE
 70
     0
 62
     7
  6
Continuous
370
    -3
390
F
  0
LAYER
  5
6C
330
2
100
AcDbSymbolTableRecord
100
AcDbLayerTableRecord
  2
THICK_TITLE
 70
     0
 62
     7
  6
Continuous
370
   100
390
F
  0
ENDTAB
  0
TABLE
  2
STYLE
  5
3
330
0
100
AcDbSymbolTable
 70
     2
  0
STYLE
  5
11
330
3
100
AcDbSymbolTableRecord
100
AcDbTextStyleTableRecord
  2
Standard
 70
     0
 40
0.0
 41
1.0
 50
0.0
 71
     0
 42
0.5
  3
txt
  4

  0
STYLE
  5
21E
330
3
100
AcDbSymbolTableRecord
100
AcDbTextStyleTableRecord
  2
SLDTEXTSTYLE0
 70
     0
 40
0.0
 41
0.75
 50
0.0
 71
     0
 42
0.5
  3
TXT
  4

  0
ENDTAB
  0
TABLE
  2
VIEW
  5
6
330
0
100
AcDbSymbolTable
 70
     0
  0
ENDTAB
  0
TABLE
  2
UCS
  5
7
330
0
100
AcDbSymbolTable
 70
     0
  0
ENDTAB
  0
TABLE
  2
APPID
  5
9
330
0
100
AcDbSymbolTable
 70
     1
  0
APPID
  5
12
330
9
100
AcDbSymbolTableRecord
100
AcDbRegAppTableRecord
  2
ACAD
 70
     0
  0
ENDTAB
  0
TABLE
  2
DIMSTYLE
  5
A
330
0
100
AcDbSymbolTable
 70
     5
100
AcDbDimStyleTable
  0
DIMSTYLE
105
27
330
A
100
AcDbSymbolTableRecord
100
AcDbDimStyleTableRecord
  2
Standard
 70
     0
178
     0
340
11
  0
DIMSTYLE
105
21F
102
{ACAD_REACTORS
330
21D
330
302
330
316
102
}
330
A
100
AcDbSymbolTableRecord
100
AcDbDimStyleTableRecord
  2
SLDDIMSTYLE0
 70
     0
 41
0.52
 44
0.0
 45
0.000000001
 78
    12
 79
     3
140
0.5
147
0.125
148
0.000000001
170
     1
171
     0
173
     1
178
     0
271
     6
272
     0
274
     0
276
     2
277
     5
284
    12
340
21E
  0
DIMSTYLE
105
234
102
{ACAD_REACTORS
330
233
330
36C
102
}
330
A
100
AcDbSymbolTableRecord
100
AcDbDimStyleTableRecord
  2
SLDDIMSTYLE1
 70
     0
 41
0.52
 44
0.0
 45
0.000000001
 78
    12
 79
     3
140
0.5
147
0.125
148
0.000000001
170
     1
171
     0
173
     1
178
     0
271
     0
272
     0
274
     0
276
     2
277
     5
284
    12
340
21E
  0
DIMSTYLE
105
249
102
{ACAD_REACTORS
330
248
330
32A
330
37F
102
}
330
A
100
AcDbSymbolTableRecord
100
AcDbDimStyleTableRecord
  2
SLDDIMSTYLE2
 70
     0
 41
0.52
 44
0.0
 45
0.000000001
 78
    12
 79
     3
140
0.5
147
0.125
148
0.000000001
170
     1
171
     0
172
     1
173
     1
178
     0
271
     6
272
     0
274
     0
276
     2
277
     5
284
    12
289
     0
340
21E
  0
DIMSTYLE
105
340
330
A
100
AcDbSymbolTableRecord
100
AcDbDimStyleTableRecord
  2
SLDDIMSTYLE3
 70
     0
 41
0.52
 44
0.0
 45
0.000000001
146
0.52
147
0.0
173
     1
178
     0
271
     0
272
     0
276
     2
277
     5
340
11
  0
ENDTAB
  0
TABLE
  2
BLOCK_RECORD
  5
1
330
0
100
AcDbSymbolTable
 70
    10
  0
BLOCK_RECORD
  5
1F
330
1
100
AcDbSymbolTableRecord
100
AcDbBlockTableRecord
  2
*Model_Space
340
22
  0
BLOCK_RECORD
  5
1B
330
1
100
AcDbSymbolTableRecord
100
AcDbBlockTableRecord
  2
*Paper_Space
340
1E
  0
BLOCK_RECORD
  5
23
330
1
100
AcDbSymbolTableRecord
100
AcDbBlockTableRecord
  2
*Paper_Space0
340
26
  0
BLOCK_RECORD
  5
220
330
1
100
AcDbSymbolTableRecord
100
AcDbBlockTableRecord
  2
_D
340
0
  0
BLOCK_RECORD
  5
235
330
1
100
AcDbSymbolTableRecord
100
AcDbBlockTableRecord
  2
_D_1
340
0
  0
BLOCK_RECORD
  5
24A
330
1
100
AcDbSymbolTableRecord
100
AcDbBlockTableRecord
  2
_D_2
340
0
  0
BLOCK_RECORD
  5
25D
330
1
100
AcDbSymbolTableRecord
100
AcDbBlockTableRecord
  2
SW_CENTERMARKSYMBOL_0
340
0
102
{BLKREFS
331
268
102
}
  0
BLOCK_RECORD
  5
303
330
1
100
AcDbSymbolTableRecord
100
AcDbBlockTableRecord
  2
_D_3
340
0
  0
BLOCK_RECORD
  5
317
330
1
100
AcDbSymbolTableRecord
100
AcDbBlockTableRecord
  2
_D_4
340
0
  0
BLOCK_RECORD
  5
32B
330
1
100
AcDbSymbolTableRecord
100
AcDbBlockTableRecord
  2
_D_5
340
0
  0
BLOCK_RECORD
  5
36D
330
1
100
AcDbSymbolTableRecord
100
AcDbBlockTableRecord
  2
_D_6
340
0
  0
BLOCK_RECORD
  5
380
330
1
100
AcDbSymbolTableRecord
100
AcDbBlockTableRecord
  2
_D_7
340
0
  0
ENDTAB
  0
ENDSEC
  0
SECTION
  2
BLOCKS
  0
BLOCK
  5
20
330
1F
100
AcDbEntity
  8
0
100
AcDbBlockBegin
  2
*Model_Space
 70
     0
 10
0.0
 20
0.0
 30
0.0
  3
*Model_Space
  1

  0
ENDBLK
  5
21
330
1F
100
AcDbEntity
  8
0
100
AcDbBlockEnd
  0
BLOCK
  5
1C
330
1B
100
AcDbEntity
 67
     1
  8
0
100
AcDbBlockBegin
  2
*Paper_Space
 70
     0
 10
0.0
 20
0.0
 30
0.0
  3
*Paper_Space
  1

  0
ENDBLK
  5
1D
330
1B
100
AcDbEntity
 67
     1
  8
0
100
AcDbBlockEnd
  0
BLOCK
  5
24
330
23
100
AcDbEntity
  8
0
100
AcDbBlockBegin
  2
*Paper_Space0
 70
     0
 10
0.0
 20
0.0
 30
0.0
  3
*Paper_Space0
  1

  0
ENDBLK
  5
25
330
23
100
AcDbEntity
  8
0
100
AcDbBlockEnd
  0
BLOCK
  5
221
330
220
100
AcDbEntity
  8
0
100
AcDbBlockBegin
  2
_D
 70
     0
 10
0.0
 20
0.0
 30
0.0
  3
_D
  1

  0
SOLID
  5
223
330
220
100
AcDbEntity
  8
SLD-0
100
AcDbTrace
 10
12.126225575
 20
30.6190189124
 30
0.0
 11
12.4373525587
 21
30.1947548437
 31
0.0
 12
12.5504896437
 22
30.3078919287
 32
0.0
 13
12.5504896437
 23
30.3078919287
 33
0.0
  0
SOLID
  5
224
330
220
100
AcDbEntity
  8
SLD-0
100
AcDbTrace
 10
15.9074783383
 20
26.8377661491
 30
0.0
 11
15.5963513546
 21
27.2620302178
 31
0.0
 12
15.4832142696
 22
27.1488931328
 32
0.0
 13
15.4832142696
 23
27.1488931328
 33
0.0
  0
LINE
  5
225
330
220
100
AcDbEntity
  8
SLD-0
100
AcDbLine
 10
12.8376853785
 20
28.7245730082
 30
0.0
 11
12.68534163
 21
28.7245730082
 31
0.0
  0
LINE
  5
226
330
220
100
AcDbEntity
  8
SLD-0
100
AcDbLine
 10
12.68534163
 20
28.7245730082
 30
0.0
 11
12.68534163
 21
27.9308229843
 31
0.0
  0
LINE
  5
227
330
220
100
AcDbEntity
  8
SLD-0
100
AcDbLine
 10
12.68534163
 20
27.9308229843
 30
0.0
 11
12.8376853785
 21
27.9308229843
 31
0.0
  0
LINE
  5
228
330
220
100
AcDbEntity
  8
SLD-0
100
AcDbLine
 10
15.1960186815
 20
28.7245730082
 30
0.0
 11
15.3483624299
 21
28.7245730082
 31
0.0
  0
LINE
  5
229
330
220
100
AcDbEntity
  8
SLD-0
100
AcDbLine
 10
15.3483624299
 20
28.7245730082
 30
0.0
 11
15.3483624299
 21
27.9308229843
 31
0.0
  0
LINE
  5
22A
330
220
100
AcDbEntity
  8
SLD-0
100
AcDbLine
 10
15.3483624299
 20
27.9308229843
 30
0.0
 11
15.1960186815
 21
27.9308229843
 31
0.0
  0
LINE
  5
22B
330
220
100
AcDbEntity
  8
SLD-0
100
AcDbLine
 10
9.608549974
 20
28.1013433113
 30
0.0
 11
12.4090682875
 21
30.9018616249
 31
0.0
  0
LINE
  5
22C
330
220
100
AcDbEntity
  8
SLD-0
100
AcDbLine
 10
13.9151416823
 20
24.8454294931
 30
0.0
 11
16.1903210508
 21
27.1206088616
 31
0.0
  0
LINE
  5
22D
330
220
100
AcDbEntity
  8
SLD-0
100
AcDbLine
 10
12.126225575
 20
30.6190189124
 30
0.0
 11
13.1177200702
 21
29.6275244172
 31
0.0
  0
LINE
  5
22E
330
220
100
AcDbEntity
  8
SLD-0
100
AcDbLine
 10
15.9074783383
 20
26.8377661491
 30
0.0
 11
14.9159838431
 21
27.8292606443
 31
0.0
  0
MTEXT
  5
22F
330
220
100
AcDbEntity
  8
SLD-0
100
AcDbMText
 10
12.5357756589
 20
29.4783083182
 30
0.0
 40
0.5
 41
0.0
 71
     1
 72
     1
  1

  7
SLDTEXTSTYLE0
 73
     1
 44
1.0
  0
MTEXT
  5
230
330
220
100
AcDbEntity
  8
SLD-0
100
AcDbMText
 10
13.1213659047
 20
29.4706693923
 30
0.0
 40
0.5
 41
0.0
 71
     1
 72
     1
  1
5 3/8"
  7
SLDTEXTSTYLE0
 73
     1
 44
1.0
  0
MTEXT
  5
231
330
220
100
AcDbEntity
  8
SLD-0
100
AcDbMText
 10
12.8376853785
 20
28.5753569092
 30
0.0
 40
0.5
 41
0.0
 71
     1
 72
     1
  1
136mm
  7
SLDTEXTSTYLE0
 73
     1
 44
1.0
  0
MTEXT
  5
232
330
220
100
AcDbEntity
  8
SLD-0
100
AcDbMText
 10
15.6882060684
 20
29.4783083182
 30
0.0
 40
0.5
 41
0.0
 71
     1
 72
     1
  1

  7
SLDTEXTSTYLE0
 73
     1
 44
1.0
  0
ENDBLK
  5
222
330
220
100
AcDbEntity
  8
0
100
AcDbBlockEnd
  0
BLOCK
  5
236
330
235
100
AcDbEntity
  8
0
100
AcDbBlockBegin
  2
_D_1
 70
     0
 10
0.0
 20
0.0
 30
0.0
  3
_D_1
  1

  0
SOLID
  5
238
330
235
100
AcDbEntity
  8
0
  6
Continuous
 62
     7
370
    18
100
AcDbTrace
 10
5.2489309474
 20
28.2614108224
 30
0.0
 11
5.1689309474
 21
27.7414108224
 31
0.0
 12
5.3289309474
 22
27.7414108224
 32
0.0
 13
5.3289309474
 23
27.7414108224
 33
0.0
  0
SOLID
  5
239
330
235
100
AcDbEntity
  8
0
  6
Continuous
 62
     7
370
    18
100
AcDbTrace
 10
5.2489309474
 20
24.2614108224
 30
0.0
 11
5.3289309474
 21
24.7814108224
 31
0.0
 12
5.1689309474
 22
24.7814108224
 32
0.0
 13
5.1689309474
 23
24.7814108224
 33
0.0
  0
LINE
  5
23A
330
235
100
AcDbEntity
  8
0
  6
Continuous
 62
     7
370
     0
100
AcDbLine
 10
4.0697643326
 20
26.2614107491
 30
0.0
 11
3.9174205841
 21
26.2614107491
 31
0.0
  0
LINE
  5
23B
330
235
100
AcDbEntity
  8
0
  6
Continuous
 62
     7
370
     0
100
AcDbLine
 10
3.9174205841
 20
26.2614107491
 30
0.0
 11
3.9174205841
 21
25.4676607252
 31
0.0
  0
LINE
  5
23C
330
235
100
AcDbEntity
  8
0
  6
Continuous
 62
     7
370
     0
100
AcDbLine
 10
3.9174205841
 20
25.4676607252
 30
0.0
 11
4.0697643326
 21
25.4676607252
 31
0.0
  0
LINE
  5
23D
330
235
100
AcDbEntity
  8
0
  6
Continuous
 62
     7
370
     0
100
AcDbLine
 10
6.4280976356
 20
26.2614107491
 30
0.0
 11
6.580441384
 21
26.2614107491
 31
0.0
  0
LINE
  5
23E
330
235
100
AcDbEntity
  8
0
  6
Continuous
 62
     7
370
     0
100
AcDbLine
 10
6.580441384
 20
26.2614107491
 30
0.0
 11
6.580441384
 21
25.4676607252
 31
0.0
  0
LINE
  5
23F
330
235
100
AcDbEntity
  8
0
  6
Continuous
 62
     7
370
     0
100
AcDbLine
 10
6.580441384
 20
25.4676607252
 30
0.0
 11
6.4280976356
 21
25.4676607252
 31
0.0
  0
LINE
  5
240
330
235
100
AcDbEntity
  8
0
  6
Continuous
 62
     7
370
     0
100
AcDbLine
 10
9.9970431115
 20
28.2614108224
 30
0.0
 11
9.888617485
 21
28.2614108224
 31
0.0
  0
LINE
  5
241
330
235
100
AcDbEntity
  8
0
  6
Continuous
 62
     7
370
     0
100
AcDbLine
 10
9.648617485
 20
28.2614108224
 30
0.0
 11
4.8489309474
 21
28.2614108224
 31
0.0
  0
LINE
  5
242
330
235
100
AcDbEntity
  8
0
  6
Continuous
 62
     7
370
     0
100
AcDbLine
 10
9.9970431115
 20
24.2614108224
 30
0.0
 11
4.8489309474
 21
24.2614108224
 31
0.0
  0
LINE
  5
243
330
235
100
AcDbEntity
  8
0
  6
Continuous
 62
     7
370
     0
100
AcDbLine
 10
5.2489309474
 20
28.2614108224
 30
0.0
 11
5.2489309474
 21
27.156723333
 31
0.0
  0
LINE
  5
244
330
235
100
AcDbEntity
  8
0
  6
Continuous
 62
     7
370
     0
100
AcDbLine
 10
5.2489309474
 20
24.2614108224
 30
0.0
 11
5.2489309474
 21
25.3660983118
 31
0.0
  0
MTEXT
  5
245
330
235
100
AcDbEntity
  8
0
  6
Continuous
 62
     7
370
    18
100
AcDbMText
 10
4.5840525015
 20
27.0075071698
 30
0.0
 40
0.5
 41
0.0
 71
     1
 72
     1
  1
%%c
  7
SLDTEXTSTYLE0
 73
     1
 44
1.0
  0
MTEXT
  5
246
330
235
100
AcDbEntity
  8
0
  6
Continuous
 62
     7
370
    18
100
AcDbMText
 10
5.3381149838
 20
27.0075071698
 30
0.0
 40
0.5
 41
0.0
 71
     1
 72
     1
  1
4"
  7
SLDTEXTSTYLE0
 73
     1
 44
1.0
  0
MTEXT
  5
247
330
235
100
AcDbEntity
  8
0
  6
Continuous
 62
     7
370
    18
100
AcDbMText
 10
4.0697643326
 20
26.1121946501
 30
0.0
 40
0.5
 41
0.0
 71
     1
 72
     1
  1
102mm
  7
SLDTEXTSTYLE0
 73
     1
 44
1.0
  0
ENDBLK
  5
237
330
235
100
AcDbEntity
  8
0
100
AcDbBlockEnd
  0
BLOCK
  5
24B
330
24A
100
AcDbEntity
  8
0
100
AcDbBlockBegin
  2
_D_2
 70
     0
 10
0.0
 20
0.0
 30
0.0
  3
_D_2
  1

  0
SOLID
  5
24D
330
24A
100
AcDbEntity
  8
0
  6
Continuous
 62
     7
370
    18
100
AcDbTrace
 10
17.1967951577
 20
23.8943708724
 30
0.0
 11
17.2767951577
 21
24.4143708724
 31
0.0
 12
17.1167951577
 22
24.4143708724
 32
0.0
 13
17.1167951577
 23
24.4143708724
 33
0.0
  0
SOLID
  5
24E
330
24A
100
AcDbEntity
  8
0
  6
Continuous
 62
     7
370
    18
100
AcDbTrace
 10
17.1967951577
 20
21.2063708724
 30
0.0
 11
17.1167951577
 21
20.6863708724
 31
0.0
 12
17.2767951577
 22
20.6863708724
 32
0.0
 13
17.2767951577
 23
20.6863708724
 33
0.0
  0
LINE
  5
24F
330
24A
100
AcDbEntity
  8
0
  6
Continuous
 62
     7
370
     0
100
AcDbLine
 10
16.2023507656
 20
22.453914722
 30
0.0
 11
16.0500070172
 21
22.453914722
 31
0.0
  0
LINE
  5
250
330
24A
100
AcDbEntity
  8
0
  6
Continuous
 62
     7
370
     0
100
AcDbLine
 10
16.0500070172
 20
22.453914722
 30
0.0
 11
16.0500070172
 21
21.6601646982
 31
0.0
  0
LINE
  5
251
330
24A
100
AcDbEntity
  8
0
  6
Continuous
 62
     7
370
     0
100
AcDbLine
 10
16.0500070172
 20
21.6601646982
 30
0.0
 11
16.2023507656
 21
21.6601646982
 31
0.0
  0
LINE
  5
252
330
24A
100
AcDbEntity
  8
0
  6
Continuous
 62
     7
370
     0
100
AcDbLine
 10
18.1912396965
 20
22.453914722
 30
0.0
 11
18.3435834449
 21
22.453914722
 31
0.0
  0
LINE
  5
253
330
24A
100
AcDbEntity
  8
0
  6
Continuous
 62
     7
370
     0
100
AcDbLine
 10
18.3435834449
 20
22.453914722
 30
0.0
 11
18.3435834449
 21
21.6601646982
 31
0.0
  0
LINE
  5
254
330
24A
100
AcDbEntity
  8
0
  6
Continuous
 62
     7
370
     0
100
AcDbLine
 10
18.3435834449
 20
21.6601646982
 30
0.0
 11
18.1912396965
 21
21.6601646982
 31
0.0
  0
LINE
  5
255
330
24A
100
AcDbEntity
  8
0
  6
Continuous
 62
     7
370
     0
100
AcDbLine
 10
14.3090830616
 20
23.8943708724
 30
0.0
 11
17.5967951577
 21
23.8943708724
 31
0.0
  0
LINE
  5
256
330
24A
100
AcDbEntity
  8
0
  6
Continuous
 62
     7
370
     0
100
AcDbLine
 10
14.3090830616
 20
21.2063708724
 30
0.0
 11
17.5967951577
 21
21.2063708724
 31
0.0
  0
LINE
  5
257
330
24A
100
AcDbEntity
  8
0
  6
Continuous
 62
     7
370
     0
100
AcDbLine
 10
17.1967951577
 20
23.8943708724
 30
0.0
 11
17.1967951577
 21
24.8943708724
 31
0.0
  0
LINE
  5
258
330
24A
100
AcDbEntity
  8
0
  6
Continuous
 62
     7
370
     0
100
AcDbLine
 10
17.1967951577
 20
21.2063708724
 30
0.0
 11
17.1967951577
 21
20.2063708724
 31
0.0
  0
MTEXT
  5
259
330
24A
100
AcDbEntity
  8
0
  6
Continuous
 62
     7
370
    18
100
AcDbMText
 10
15.900441046
 20
23.2076500321
 30
0.0
 40
0.5
 41
0.0
 71
     1
 72
     1
  1

  7
SLDTEXTSTYLE0
 73
     1
 44
1.0
  0
MTEXT
  5
25A
330
24A
100
AcDbEntity
  8
0
  6
Continuous
 62
     7
370
    18
100
AcDbMText
 10
15.9318646603
 20
23.2000111062
 30
0.0
 40
0.5
 41
0.0
 71
     1
 72
     1
  1
2 11/16"
  7
SLDTEXTSTYLE0
 73
     1
 44
1.0
  0
MTEXT
  5
25B
330
24A
100
AcDbEntity
  8
0
  6
Continuous
 62
     7
370
    18
100
AcDbMText
 10
16.2023507656
 20
22.3046986231
 30
0.0
 40
0.5
 41
0.0
 71
     1
 72
     1
  1
68mm
  7
SLDTEXTSTYLE0
 73
     1
 44
1.0
  0
MTEXT
  5
25C
330
24A
100
AcDbEntity
  8
0
  6
Continuous
 62
     7
370
    18
100
AcDbMText
 10
18.6834270834
 20
23.2076500321
 30
0.0
 40
0.5
 41
0.0
 71
     1
 72
     1
  1

  7
SLDTEXTSTYLE0
 73
     1
 44
1.0
  0
ENDBLK
  5
24C
330
24A
100
AcDbEntity
  8
0
100
AcDbBlockEnd
  0
BLOCK
  5
25E
330
25D
100
AcDbEntity
  8
0
100
AcDbBlockBegin
  2
SW_CENTERMARKSYMBOL_0
 70
     0
 10
0.0
 20
0.0
 30
0.0
  3
SW_CENTERMARKSYMBOL_0
  1

  0
LINE
  5
260
330
25D
100
AcDbEntity
  8
0
  6
Continuous
 62
     0
370
    18
100
AcDbLine
 10
0.0
 20
0.0
 30
0.0
 11
0.0
 21
0.1
 31
0.0
  0
LINE
  5
261
330
25D
100
AcDbEntity
  8
0
  6
Continuous
 62
     0
370
    18
100
AcDbLine
 10
0.0
 20
0.0
 30
0.0
 11
-0.1
 21
0.0
 31
0.0
  0
LINE
  5
262
330
25D
100
AcDbEntity
  8
0
  6
Continuous
 62
     0
370
    18
100
AcDbLine
 10
0.0
 20
0.0
 30
0.0
 11
0.0
 21
-0.1
 31
0.0
  0
LINE
  5
263
330
25D
100
AcDbEntity
  8
0
  6
Continuous
 62
     0
370
    18
100
AcDbLine
 10
0.0
 20
0.0
 30
0.0
 11
0.1
 21
0.0
 31
0.0
  0
LINE
  5
264
330
25D
100
AcDbEntity
  8
0
  6
Continuous
 62
     0
370
    18
100
AcDbLine
 10
0.0
 20
0.2
 30
0.0
 11
0.0
 21
0.2953125
 31
0.0
  0
LINE
  5
265
330
25D
100
AcDbEntity
  8
0
  6
Continuous
 62
     0
370
    18
100
AcDbLine
 10
-0.2
 20
0.0
 30
0.0
 11
-0.2953125
 21
0.0
 31
0.0
  0
LINE
  5
266
330
25D
100
AcDbEntity
  8
0
  6
Continuous
 62
     0
370
    18
100
AcDbLine
 10
0.0
 20
-0.2
 30
0.0
 11
0.0
 21
-0.2953125
 31
0.0
  0
LINE
  5
267
330
25D
100
AcDbEntity
  8
0
  6
Continuous
 62
     0
370
    18
100
AcDbLine
 10
0.2
 20
0.0
 30
0.0
 11
0.2953125
 21
0.0
 31
0.0
  0
ENDBLK
  5
25F
330
25D
100
AcDbEntity
  8
0
100
AcDbBlockEnd
  0
BLOCK
  5
304
330
303
100
AcDbEntity
  8
0
100
AcDbBlockBegin
  2
_D_3
 70
     0
 10
0.0
 20
0.0
 30
0.0
  3
_D_3
  1

  0
SOLID
  5
306
330
303
100
AcDbEntity
  8
0
  6
Continuous
 62
     7
370
    18
100
AcDbTrace
 10
6.6731440762
 20
16.9742473975
 30
0.0
 11
7.1931440762
 21
16.8942473975
 31
0.0
 12
7.1931440762
 22
17.0542473975
 32
0.0
 13
7.1931440762
 23
17.0542473975
 33
0.0
  0
SOLID
  5
307
330
303
100
AcDbEntity
  8
0
  6
Continuous
 62
     7
370
    18
100
AcDbTrace
 10
15.1131440762
 20
16.9742473975
 30
0.0
 11
14.5931440762
 21
17.0542473975
 31
0.0
 12
14.5931440762
 22
16.8942473975
 32
0.0
 13
14.5931440762
 23
16.8942473975
 33
0.0
  0
LINE
  5
308
330
303
100
AcDbEntity
  8
0
  6
Continuous
 62
     7
370
     0
100
AcDbLine
 10
9.713977498
 20
16.9704278749
 30
0.0
 11
9.5616337495
 21
16.9704278749
 31
0.0
  0
LINE
  5
309
330
303
100
AcDbEntity
  8
0
  6
Continuous
 62
     7
370
     0
100
AcDbLine
 10
9.5616337495
 20
16.9704278749
 30
0.0
 11
9.5616337495
 21
16.1766778511
 31
0.0
  0
LINE
  5
30A
330
303
100
AcDbEntity
  8
0
  6
Continuous
 62
     7
370
     0
100
AcDbLine
 10
9.5616337495
 20
16.1766778511
 30
0.0
 11
9.713977498
 21
16.1766778511
 31
0.0
  0
LINE
  5
30B
330
303
100
AcDbEntity
  8
0
  6
Continuous
 62
     7
370
     0
100
AcDbLine
 10
12.072310801
 20
16.9704278749
 30
0.0
 11
12.2246545494
 21
16.9704278749
 31
0.0
  0
LINE
  5
30C
330
303
100
AcDbEntity
  8
0
  6
Continuous
 62
     7
370
     0
100
AcDbLine
 10
12.2246545494
 20
16.9704278749
 30
0.0
 11
12.2246545494
 21
16.1766778511
 31
0.0
  0
LINE
  5
30D
330
303
100
AcDbEntity
  8
0
  6
Continuous
 62
     7
370
     0
100
AcDbLine
 10
12.2246545494
 20
16.1766778511
 30
0.0
 11
12.072310801
 21
16.1766778511
 31
0.0
  0
LINE
  5
30E
330
303
100
AcDbEntity
  8
0
  6
Continuous
 62
     7
370
     0
100
AcDbLine
 10
6.6731440762
 20
13.096285581
 30
0.0
 11
6.6731440762
 21
17.3742473975
 31
0.0
  0
LINE
  5
30F
330
303
100
AcDbEntity
  8
0
  6
Continuous
 62
     7
370
     0
100
AcDbLine
 10
15.1131440762
 20
13.096285581
 30
0.0
 11
15.1131440762
 21
17.3742473975
 31
0.0
  0
LINE
  5
310
330
303
100
AcDbEntity
  8
0
  6
Continuous
 62
     7
370
     0
100
AcDbLine
 10
6.6731440762
 20
16.9742473975
 30
0.0
 11
9.1231789354
 21
16.9742473975
 31
0.0
  0
LINE
  5
311
330
303
100
AcDbEntity
  8
0
  6
Continuous
 62
     7
370
     0
100
AcDbLine
 10
15.1131440762
 20
16.9742473975
 30
0.0
 11
12.6631092169
 21
16.9742473975
 31
0.0
  0
MTEXT
  5
312
330
303
100
AcDbEntity
  8
0
  6
Continuous
 62
     7
370
    18
100
AcDbMText
 10
9.4120677784
 20
17.724163185
 30
0.0
 40
0.5
 41
0.0
 71
     1
 72
     1
  1

  7
SLDTEXTSTYLE0
 73
     1
 44
1.0
  0
MTEXT
  5
313
330
303
100
AcDbEntity
  8
0
  6
Continuous
 62
     7
370
    18
100
AcDbMText
 10
9.8129357648
 20
17.7165242591
 30
0.0
 40
0.5
 41
0.0
 71
     1
 72
     1
  1
8 7/16"
  7
SLDTEXTSTYLE0
 73
     1
 44
1.0
  0
MTEXT
  5
314
330
303
100
AcDbEntity
  8
0
  6
Continuous
 62
     7
370
    18
100
AcDbMText
 10
9.713977498
 20
16.821211776
 30
0.0
 40
0.5
 41
0.0
 71
     1
 72
     1
  1
214mm
  7
SLDTEXTSTYLE0
 73
     1
 44
1.0
  0
MTEXT
  5
315
330
303
100
AcDbEntity
  8
0
  6
Continuous
 62
     7
370
    18
100
AcDbMText
 10
12.5644981879
 20
17.724163185
 30
0.0
 40
0.5
 41
0.0
 71
     1
 72
     1
  1

  7
SLDTEXTSTYLE0
 73
     1
 44
1.0
  0
ENDBLK
  5
305
330
303
100
AcDbEntity
  8
0
100
AcDbBlockEnd
  0
BLOCK
  5
318
330
317
100
AcDbEntity
  8
0
100
AcDbBlockBegin
  2
_D_4
 70
     0
 10
0.0
 20
0.0
 30
0.0
  3
_D_4
  1

  0
SOLID
  5
31A
330
317
100
AcDbEntity
  8
0
  6
Continuous
 62
     7
370
    18
100
AcDbTrace
 10
7.6431440762
 20
14.8031395382
 30
0.0
 11
8.1631440762
 21
14.7231395382
 31
0.0
 12
8.1631440762
 22
14.8831395382
 32
0.0
 13
8.1631440762
 23
14.8831395382
 33
0.0
  0
SOLID
  5
31B
330
317
100
AcDbEntity
  8
0
  6
Continuous
 62
     7
370
    18
100
AcDbTrace
 10
14.1431440762
 20
14.8031395382
 30
0.0
 11
13.6231440762
 21
14.8831395382
 31
0.0
 12
13.6231440762
 22
14.7231395382
 32
0.0
 13
13.6231440762
 23
14.7231395382
 33
0.0
  0
LINE
  5
31C
330
317
100
AcDbEntity
  8
0
  6
Continuous
 62
     7
370
     0
100
AcDbLine
 10
9.713977498
 20
14.7993200156
 30
0.0
 11
9.5616337495
 21
14.7993200156
 31
0.0
  0
LINE
  5
31D
330
317
100
AcDbEntity
  8
0
  6
Continuous
 62
     7
370
     0
100
AcDbLine
 10
9.5616337495
 20
14.7993200156
 30
0.0
 11
9.5616337495
 21
14.0055699918
 31
0.0
  0
LINE
  5
31E
330
317
100
AcDbEntity
  8
0
  6
Continuous
 62
     7
370
     0
100
AcDbLine
 10
9.5616337495
 20
14.0055699918
 30
0.0
 11
9.713977498
 21
14.0055699918
 31
0.0
  0
LINE
  5
31F
330
317
100
AcDbEntity
  8
0
  6
Continuous
 62
     7
370
     0
100
AcDbLine
 10
12.072310801
 20
14.7993200156
 30
0.0
 11
12.2246545494
 21
14.7993200156
 31
0.0
  0
LINE
  5
320
330
317
100
AcDbEntity
  8
0
  6
Continuous
 62
     7
370
     0
100
AcDbLine
 10
12.2246545494
 20
14.7993200156
 30
0.0
 11
12.2246545494
 21
14.0055699918
 31
0.0
  0
LINE
  5
321
330
317
100
AcDbEntity
  8
0
  6
Continuous
 62
     7
370
     0
100
AcDbLine
 10
12.2246545494
 20
14.0055699918
 30
0.0
 11
12.072310801
 21
14.0055699918
 31
0.0
  0
LINE
  5
322
330
317
100
AcDbEntity
  8
0
  6
Continuous
 62
     7
370
     0
100
AcDbLine
 10
7.6431440762
 20
12.3723733523
 30
0.0
 11
7.6431440762
 21
15.2031395382
 31
0.0
  0
LINE
  5
323
330
317
100
AcDbEntity
  8
0
  6
Continuous
 62
     7
370
     0
100
AcDbLine
 10
14.1431440762
 20
12.3723733523
 30
0.0
 11
14.1431440762
 21
15.2031395382
 31
0.0
  0
LINE
  5
324
330
317
100
AcDbEntity
  8
0
  6
Continuous
 62
     7
370
     0
100
AcDbLine
 10
7.6431440762
 20
14.8031395382
 30
0.0
 11
9.1231789354
 21
14.8031395382
 31
0.0
  0
LINE
  5
325
330
317
100
AcDbEntity
  8
0
  6
Continuous
 62
     7
370
     0
100
AcDbLine
 10
14.1431440762
 20
14.8031395382
 30
0.0
 11
12.6631092169
 21
14.8031395382
 31
0.0
  0
MTEXT
  5
326
330
317
100
AcDbEntity
  8
0
  6
Continuous
 62
     7
370
    18
100
AcDbMText
 10
9.4120677784
 20
15.5530553257
 30
0.0
 40
0.5
 41
0.0
 71
     1
 72
     1
  1

  7
SLDTEXTSTYLE0
 73
     1
 44
1.0
  0
MTEXT
  5
327
330
317
100
AcDbEntity
  8
0
  6
Continuous
 62
     7
370
    18
100
AcDbMText
 10
9.9976580242
 20
15.5454163998
 30
0.0
 40
0.5
 41
0.0
 71
     1
 72
     1
  1
6 1/2"
  7
SLDTEXTSTYLE0
 73
     1
 44
1.0
  0
MTEXT
  5
328
330
317
100
AcDbEntity
  8
0
  6
Continuous
 62
     7
370
    18
100
AcDbMText
 10
9.713977498
 20
14.6501039167
 30
0.0
 40
0.5
 41
0.0
 71
     1
 72
     1
  1
165mm
  7
SLDTEXTSTYLE0
 73
     1
 44
1.0
  0
MTEXT
  5
329
330
317
100
AcDbEntity
  8
0
  6
Continuous
 62
     7
370
    18
100
AcDbMText
 10
12.5644981879
 20
15.5530553257
 30
0.0
 40
0.5
 41
0.0
 71
     1
 72
     1
  1

  7
SLDTEXTSTYLE0
 73
     1
 44
1.0
  0
ENDBLK
  5
319
330
317
100
AcDbEntity
  8
0
100
AcDbBlockEnd
  0
BLOCK
  5
32C
330
32B
100
AcDbEntity
  8
0
100
AcDbBlockBegin
  2
_D_5
 70
     0
 10
0.0
 20
0.0
 30
0.0
  3
_D_5
  1

  0
SOLID
  5
32E
330
32B
100
AcDbEntity
  8
0
  6
Continuous
 62
     7
370
    18
100
AcDbTrace
 10
18.1057359182
 20
11.7723733523
 30
0.0
 11
18.1857359182
 21
12.2923733523
 31
0.0
 12
18.0257359182
 22
12.2923733523
 32
0.0
 13
18.0257359182
 23
12.2923733523
 33
0.0
  0
SOLID
  5
32F
330
32B
100
AcDbEntity
  8
0
  6
Continuous
 62
     7
370
    18
100
AcDbTrace
 10
18.1057359182
 20
9.2201978097
 30
0.0
 11
18.0257359182
 21
8.7001978097
 31
0.0
 12
18.1857359182
 22
8.7001978097
 32
0.0
 13
18.1857359182
 23
8.7001978097
 33
0.0
  0
LINE
  5
330
330
32B
100
AcDbEntity
  8
0
  6
Continuous
 62
     7
370
     0
100
AcDbLine
 10
17.1112915261
 20
10.4924660585
 30
0.0
 11
16.9589477776
 21
10.4924660585
 31
0.0
  0
LINE
  5
331
330
32B
100
AcDbEntity
  8
0
  6
Continuous
 62
     7
370
     0
100
AcDbLine
 10
16.9589477776
 20
10.4924660585
 30
0.0
 11
16.9589477776
 21
9.6987160346
 31
0.0
  0
LINE
  5
332
330
32B
100
AcDbEntity
  8
0
  6
Continuous
 62
     7
370
     0
100
AcDbLine
 10
16.9589477776
 20
9.6987160346
 30
0.0
 11
17.1112915261
 21
9.6987160346
 31
0.0
  0
LINE
  5
333
330
32B
100
AcDbEntity
  8
0
  6
Continuous
 62
     7
370
     0
100
AcDbLine
 10
19.1001804569
 20
10.4924660585
 30
0.0
 11
19.2525242054
 21
10.4924660585
 31
0.0
  0
LINE
  5
334
330
32B
100
AcDbEntity
  8
0
  6
Continuous
 62
     7
370
     0
100
AcDbLine
 10
19.2525242054
 20
10.4924660585
 30
0.0
 11
19.2525242054
 21
9.6987160346
 31
0.0
  0
LINE
  5
335
330
32B
100
AcDbEntity
  8
0
  6
Continuous
 62
     7
370
     0
100
AcDbLine
 10
19.2525242054
 20
9.6987160346
 30
0.0
 11
19.1001804569
 21
9.6987160346
 31
0.0
  0
LINE
  5
336
330
32B
100
AcDbEntity
  8
0
  6
Continuous
 62
     7
370
     0
100
AcDbLine
 10
14.7431440762
 20
11.7723733523
 30
0.0
 11
18.5057359182
 21
11.7723733523
 31
0.0
  0
LINE
  5
337
330
32B
100
AcDbEntity
  8
0
  6
Continuous
 62
     7
370
     0
100
AcDbLine
 10
14.7431440762
 20
9.2201978097
 30
0.0
 11
18.5057359182
 21
9.2201978097
 31
0.0
  0
LINE
  5
338
330
32B
100
AcDbEntity
  8
0
  6
Continuous
 62
     7
370
     0
100
AcDbLine
 10
18.1057359182
 20
11.7723733523
 30
0.0
 11
18.1057359182
 21
12.7723733523
 31
0.0
  0
LINE
  5
339
330
32B
100
AcDbEntity
  8
0
  6
Continuous
 62
     7
370
     0
100
AcDbLine
 10
18.1057359182
 20
9.2201978097
 30
0.0
 11
18.1057359182
 21
8.2201978097
 31
0.0
  0
MTEXT
  5
33A
330
32B
100
AcDbEntity
  8
0
  6
Continuous
 62
     7
370
    18
100
AcDbMText
 10
16.8093818065
 20
11.2462013685
 30
0.0
 40
0.5
 41
0.0
 71
     1
 72
     1
  1

  7
SLDTEXTSTYLE0
 73
     1
 44
1.0
  0
MTEXT
  5
33B
330
32B
100
AcDbEntity
  8
0
  6
Continuous
 62
     7
370
    18
100
AcDbMText
 10
17.0255276068
 20
11.2385624426
 30
0.0
 40
0.5
 41
0.0
 71
     1
 72
     1
  1
2 9/16"
  7
SLDTEXTSTYLE0
 73
     1
 44
1.0
  0
MTEXT
  5
33C
330
32B
100
AcDbEntity
  8
0
  6
Continuous
 62
     7
370
    18
100
AcDbMText
 10
17.1112915261
 20
10.3432499595
 30
0.0
 40
0.5
 41
0.0
 71
     1
 72
     1
  1
65mm
  7
SLDTEXTSTYLE0
 73
     1
 44
1.0
  0
MTEXT
  5
33D
330
32B
100
AcDbEntity
  8
0
  6
Continuous
 62
     7
370
    18
100
AcDbMText
 10
19.5923678438
 20
11.2462013685
 30
0.0
 40
0.5
 41
0.0
 71
     1
 72
     1
  1

  7
SLDTEXTSTYLE0
 73
     1
 44
1.0
  0
ENDBLK
  5
32D
330
32B
100
AcDbEntity
  8
0
100
AcDbBlockEnd
  0
BLOCK
  5
36E
330
36D
100
AcDbEntity
  8
0
100
AcDbBlockBegin
  2
_D_6
 70
     0
 10
0.0
 20
0.0
 30
0.0
  3
_D_6
  1

  0
SOLID
  5
370
330
36D
100
AcDbEntity
  8
SLD-0
100
AcDbTrace
 10
24.8963100663
 20
8.3795769566
 30
0.0
 11
24.9763100663
 21
8.8995769566
 31
0.0
 12
24.8163100663
 22
8.8995769566
 32
0.0
 13
24.8163100663
 23
8.8995769566
 33
0.0
  0
SOLID
  5
371
330
36D
100
AcDbEntity
  8
SLD-0
100
AcDbTrace
 10
24.8963100663
 20
12.3795769566
 30
0.0
 11
24.8163100663
 21
11.8595769566
 31
0.0
 12
24.9763100663
 22
11.8595769566
 32
0.0
 13
24.9763100663
 23
11.8595769566
 33
0.0
  0
LINE
  5
372
330
36D
100
AcDbEntity
  8
SLD-0
100
AcDbLine
 10
23.7171434515
 20
10.3795768833
 30
0.0
 11
23.564799703
 21
10.3795768833
 31
0.0
  0
LINE
  5
373
330
36D
100
AcDbEntity
  8
SLD-0
100
AcDbLine
 10
23.564799703
 20
10.3795768833
 30
0.0
 11
23.564799703
 21
9.5858268594
 31
0.0
  0
LINE
  5
374
330
36D
100
AcDbEntity
  8
SLD-0
100
AcDbLine
 10
23.564799703
 20
9.5858268594
 30
0.0
 11
23.7171434515
 21
9.5858268594
 31
0.0
  0
LINE
  5
375
330
36D
100
AcDbEntity
  8
SLD-0
100
AcDbLine
 10
26.0754767545
 20
10.3795768833
 30
0.0
 11
26.2278205029
 21
10.3795768833
 31
0.0
  0
LINE
  5
376
330
36D
100
AcDbEntity
  8
SLD-0
100
AcDbLine
 10
26.2278205029
 20
10.3795768833
 30
0.0
 11
26.2278205029
 21
9.5858268594
 31
0.0
  0
LINE
  5
377
330
36D
100
AcDbEntity
  8
SLD-0
100
AcDbLine
 10
26.2278205029
 20
9.5858268594
 30
0.0
 11
26.0754767545
 21
9.5858268594
 31
0.0
  0
LINE
  5
378
330
36D
100
AcDbEntity
  8
SLD-0
100
AcDbLine
 10
27.4578909091
 20
8.3795769566
 30
0.0
 11
24.4963100663
 21
8.3795769566
 31
0.0
  0
LINE
  5
379
330
36D
100
AcDbEntity
  8
SLD-0
100
AcDbLine
 10
27.4578909091
 20
12.3795769566
 30
0.0
 11
24.4963100663
 21
12.3795769566
 31
0.0
  0
LINE
  5
37A
330
36D
100
AcDbEntity
  8
SLD-0
100
AcDbLine
 10
24.8963100663
 20
8.3795769566
 30
0.0
 11
24.8963100663
 21
9.484264446
 31
0.0
  0
LINE
  5
37B
330
36D
100
AcDbEntity
  8
SLD-0
100
AcDbLine
 10
24.8963100663
 20
12.3795769566
 30
0.0
 11
24.8963100663
 21
11.2748894672
 31
0.0
  0
MTEXT
  5
37C
330
36D
100
AcDbEntity
  8
SLD-0
100
AcDbMText
 10
24.2314316204
 20
11.1256733041
 30
0.0
 40
0.5
 41
0.0
 71
     1
 72
     1
  1
%%c
  7
SLDTEXTSTYLE0
 73
     1
 44
1.0
  0
MTEXT
  5
37D
330
36D
100
AcDbEntity
  8
SLD-0
100
AcDbMText
 10
24.9854941027
 20
11.1256733041
 30
0.0
 40
0.5
 41
0.0
 71
     1
 72
     1
  1
4"
  7
SLDTEXTSTYLE0
 73
     1
 44
1.0
  0
MTEXT
  5
37E
330
36D
100
AcDbEntity
  8
SLD-0
100
AcDbMText
 10
23.7171434515
 20
10.2303607843
 30
0.0
 40
0.5
 41
0.0
 71
     1
 72
     1
  1
102mm
  7
SLDTEXTSTYLE0
 73
     1
 44
1.0
  0
ENDBLK
  5
36F
330
36D
100
AcDbEntity
  8
0
100
AcDbBlockEnd
  0
BLOCK
  5
381
330
380
100
AcDbEntity
  8
0
100
AcDbBlockBegin
  2
_D_7
 70
     0
 10
0.0
 20
0.0
 30
0.0
  3
_D_7
  1

  0
SOLID
  5
383
330
380
100
AcDbEntity
  8
SLD-0
100
AcDbTrace
 10
38.0869970554
 20
8.8395769566
 30
0.0
 11
38.1669970554
 21
9.3595769566
 31
0.0
 12
38.0069970554
 22
9.3595769566
 32
0.0
 13
38.0069970554
 23
9.3595769566
 33
0.0
  0
SOLID
  5
384
330
380
100
AcDbEntity
  8
SLD-0
100
AcDbTrace
 10
38.0869970554
 20
8.3795769566
 30
0.0
 11
38.0069970554
 21
7.8595769566
 31
0.0
 12
38.1669970554
 22
7.8595769566
 32
0.0
 13
38.1669970554
 23
7.8595769566
 33
0.0
  0
LINE
  5
385
330
380
100
AcDbEntity
  8
SLD-0
100
AcDbLine
 10
39.380573304
 20
6.0689034769
 30
0.0
 11
39.2282295555
 21
6.0689034769
 31
0.0
  0
LINE
  5
386
330
380
100
AcDbEntity
  8
SLD-0
100
AcDbLine
 10
39.2282295555
 20
6.0689034769
 30
0.0
 11
39.2282295555
 21
5.2751534531
 31
0.0
  0
LINE
  5
387
330
380
100
AcDbEntity
  8
SLD-0
100
AcDbLine
 10
39.2282295555
 20
5.2751534531
 30
0.0
 11
39.380573304
 21
5.2751534531
 31
0.0
  0
LINE
  5
388
330
380
100
AcDbEntity
  8
SLD-0
100
AcDbLine
 10
41.3694622348
 20
6.0689034769
 30
0.0
 11
41.5218059833
 21
6.0689034769
 31
0.0
  0
LINE
  5
389
330
380
100
AcDbEntity
  8
SLD-0
100
AcDbLine
 10
41.5218059833
 20
6.0689034769
 30
0.0
 11
41.5218059833
 21
5.2751534531
 31
0.0
  0
LINE
  5
38A
330
380
100
AcDbEntity
  8
SLD-0
100
AcDbLine
 10
41.5218059833
 20
5.2751534531
 30
0.0
 11
41.3694622348
 21
5.2751534531
 31
0.0
  0
LINE
  5
38B
330
380
100
AcDbEntity
  8
SLD-0
100
AcDbLine
 10
36.1278909091
 20
8.8395769566
 30
0.0
 11
38.4869970554
 21
8.8395769566
 31
0.0
  0
LINE
  5
38C
330
380
100
AcDbEntity
  8
SLD-0
100
AcDbLine
 10
36.8778909091
 20
8.3795769566
 30
0.0
 11
38.4869970554
 21
8.3795769566
 31
0.0
  0
LINE
  5
38D
330
380
100
AcDbEntity
  8
SLD-0
100
AcDbLine
 10
38.5869970554
 20
6.0727229995
 30
0.0
 11
38.0869970554
 21
6.0727229995
 31
0.0
  0
LINE
  5
38E
330
380
100
AcDbEntity
  8
SLD-0
100
AcDbLine
 10
38.0869970554
 20
6.0727229995
 30
0.0
 11
38.0869970554
 21
8.3795769566
 31
0.0
  0
LINE
  5
38F
330
380
100
AcDbEntity
  8
SLD-0
100
AcDbLine
 10
38.0869970554
 20
8.8395769566
 30
0.0
 11
38.0869970554
 21
9.8395769566
 31
0.0
  0
MTEXT
  5
390
330
380
100
AcDbEntity
  8
SLD-0
100
AcDbMText
 10
39.0786635844
 20
6.822638787
 30
0.0
 40
0.5
 41
0.0
 71
     1
 72
     1
  1

  7
SLDTEXTSTYLE0
 73
     1
 44
1.0
  0
MTEXT
  5
391
330
380
100
AcDbEntity
  8
SLD-0
100
AcDbMText
 10
39.5718927372
 20
6.814999861
 30
0.0
 40
0.5
 41
0.0
 71
     1
 72
     1
  1
7/16"
  7
SLDTEXTSTYLE0
 73
     1
 44
1.0
  0
MTEXT
  5
392
330
380
100
AcDbEntity
  8
SLD-0
100
AcDbMText
 10
39.380573304
 20
5.9196873779
 30
0.0
 40
0.5
 41
0.0
 71
     1
 72
     1
  1
12mm
  7
SLDTEXTSTYLE0
 73
     1
 44
1.0
  0
MTEXT
  5
393
330
380
100
AcDbEntity
  8
SLD-0
100
AcDbMText
 10
41.8616496217
 20
6.822638787
 30
0.0
 40
0.5
 41
0.0
 71
     1
 72
     1
  1

  7
SLDTEXTSTYLE0
 73
     1
 44
1.0
  0
ENDBLK
  5
382
330
380
100
AcDbEntity
  8
0
100
AcDbBlockEnd
  0
ENDSEC
  0
SECTION
  2
ENTITIES
  0
ARC
  5
6D
330
1F
100
AcDbEntity
  8
0
  6
Continuous
 62
     7
370
    25
100
AcDbCircle
 10
32.1069520016
 20
28.0613569652
 30
0.0
 40
0.1804759332986008
100
AcDbArc
 50
308.8697932041
 51
21.9879703818
  0
ARC
  5
6E
330
1F
100
AcDbEntity
  8
0
  6
Continuous
 62
     7
370
    25
100
AcDbCircle
 10
32.1069520016
 20
28.0613569652
 30
0.0
 40
0.1804759332986007
100
AcDbArc
 50
278.0174061509
 51
308.8697932041
  0
LINE
  5
6F
330
1F
100
AcDbEntity
  8
0
  6
Continuous
 62
     7
370
    25
100
AcDbLine
 10
32.0931282808
 20
27.8892088245
 30
0.0
 11
32.0825216791
 21
27.8953318854
 31
0.0
  0
LINE
  5
70
330
1F
100
AcDbEntity
  8
0
  6
Continuous
 62
     7
370
    25
100
AcDbLine
 10
32.2385090014
 20
28.1655391304
 30
0.0
 11
32.2491156031
 21
28.1594160696
 31
0.0
  0
LINE
  5
71
330
1F
100
AcDbEntity
  8
0
  6
Continuous
 62
     7
370
    25
100
AcDbLine
 10
39.7518165581
 20
25.2807188585
 30
0.0
 11
39.7518165581
 21
25.2725547774
 31
0.0
  0
LINE
  5
72
330
1F
100
AcDbEntity
  8
0
  6
Continuous
 62
     7
370
    25
100
AcDbLine
 10
38.3449027637
 20
22.8354445378
 30
0.0
 11
38.3378328452
 21
22.8313618337
 31
0.0
  0
LINE
  5
73
330
1F
100
AcDbEntity
  8
0
  6
Continuous
 62
     7
370
    25
100
AcDbLine
 10
39.1678161008
 20
26.2943774448
 30
0.0
 11
39.3375217283
 21
26.1964084714
 31
0.0
  0
LINE
  5
74
330
1F
100
AcDbEntity
  8
0
  6
Continuous
 62
     7
370
    25
100
AcDbLine
 10
37.3376842631
 20
22.7322130219
 30
0.0
 11
37.1679786356
 21
22.8301819953
 31
0.0
  0
LINE
  5
75
330
1F
100
AcDbEntity
  8
0
  6
Continuous
 62
     7
370
    25
100
AcDbLine
 10
34.1557991052
 20
23.9484431127
 30
0.0
 11
34.1217422785
 21
23.8894549585
 31
0.0
  0
LINE
  5
76
330
1F
100
AcDbEntity
  8
0
  6
Continuous
 62
     7
370
    25
100
AcDbLine
 10
34.0681475465
 20
23.9216261598
 30
0.0
 11
34.1016725175
 21
23.9796931127
 31
0.0
  0
LINE
  5
77
330
1F
100
AcDbEntity
  8
0
  6
Continuous
 62
     7
370
    25
100
AcDbLine
 10
31.5394086573
 20
26.0794862804
 30
0.0
 11
31.3697030298
 21
26.1774552538
 31
0.0
  0
LINE
  5
78
330
1F
100
AcDbEntity
  8
0
  6
Continuous
 62
     7
370
    25
100
AcDbLine
 10
33.3695404951
 20
29.6416507033
 30
0.0
 11
33.5392461226
 21
29.5436817299
 31
0.0
  0
LINE
  5
79
330
1F
100
AcDbEntity
  8
0
  6
Continuous
 62
     7
370
    25
100
AcDbLine
 10
30.9554082001
 20
27.0931448667
 30
0.0
 11
30.9554082001
 21
27.1013089479
 31
0.0
  0
LINE
  5
7A
330
1F
100
AcDbEntity
  8
0
  6
Continuous
 62
     7
370
    25
100
AcDbLine
 10
32.3623219944
 20
29.5384191875
 30
0.0
 11
32.369391913
 21
29.5425018915
 31
0.0
  0
LINE
  5
7B
330
1F
100
AcDbEntity
  8
0
  6
Continuous
 62
     7
370
    25
100
AcDbLine
 10
34.998818779
 20
24.0824113261
 30
0.0
 11
34.7300513044
 21
23.6168924061
 31
0.0
  0
LINE
  5
7C
330
1F
100
AcDbEntity
  8
0
  6
Continuous
 62
     7
370
    25
100
AcDbLine
 10
33.0346734537
 20
23.6604118328
 30
0.0
 11
33.7492337084
 21
24.8980664953
 31
0.0
  0
ARC
  5
7D
330
1F
100
AcDbEntity
  8
0
  6
Continuous
 62
     7
370
    25
100
AcDbCircle
 10
33.6798623791
 20
23.287911832
 30
0.0
 40
0.7450000000000029
100
AcDbArc
 50
149.9999999272
 51
228.4780653347
  0
LINE
  5
7E
330
1F
100
AcDbEntity
  8
0
  6
Continuous
 62
     7
370
    25
100
AcDbLine
 10
33.3587317972
 20
20.5539353204
 30
0.0
 11
33.340386739
 21
20.5783237844
 31
0.0
  0
LINE
  5
7F
330
1F
100
AcDbEntity
  8
0
  6
Continuous
 62
     7
370
    25
100
AcDbLine
 10
33.3587317972
 20
20.4959609228
 30
0.0
 11
33.340386739
 21
20.5203493868
 31
0.0
  0
LINE
  5
80
330
1F
100
AcDbEntity
  8
0
  6
Continuous
 62
     7
370
    25
100
AcDbLine
 10
38.7519159811
 20
26.1574235483
 30
0.0
 11
38.7519159811
 21
26.1481981367
 31
0.0
  0
LINE
  5
81
330
1F
100
AcDbEntity
  8
0
  6
Continuous
 62
     7
370
    25
100
AcDbLine
 10
38.6800149093
 20
26.023648332
 30
0.0
 11
38.6720259013
 21
26.0190348764
 31
0.0
  0
LINE
  5
82
330
1F
100
AcDbEntity
  8
0
  6
Continuous
 62
     7
370
    25
100
AcDbLine
 10
38.7272348975
 20
26.2098951445
 30
0.0
 11
38.7285083232
 21
26.2091600115
 31
0.0
  0
LINE
  5
83
330
1F
100
AcDbEntity
  8
0
  6
Continuous
 62
     7
370
    25
100
AcDbLine
 10
38.6155175064
 20
26.0134329686
 30
0.0
 11
38.6142440807
 21
26.0141681016
 31
0.0
  0
LINE
  5
84
330
1F
100
AcDbEntity
  8
0
  6
Continuous
 62
     7
370
    25
100
AcDbLine
 10
38.6672165204
 20
26.1487054674
 30
0.0
 11
38.6811913231
 21
26.1406379855
 31
0.0
  0
LINE
  5
85
330
1F
100
AcDbEntity
  8
0
  6
Continuous
 62
     7
370
    25
100
AcDbLine
 10
38.6511937611
 20
26.0886750538
 30
0.0
 11
38.6372189585
 21
26.0967425356
 31
0.0
  0
LINE
  5
86
330
1F
100
AcDbEntity
  8
0
  6
Continuous
 62
     7
370
    25
100
AcDbLine
 10
39.3351726096
 20
23.9805075303
 30
0.0
 11
39.3351726096
 21
23.9712821187
 31
0.0
  0
LINE
  5
87
330
1F
100
AcDbEntity
  8
0
  6
Continuous
 62
     7
370
    25
100
AcDbLine
 10
39.2632715378
 20
23.8467323139
 30
0.0
 11
39.2552825298
 21
23.8421188584
 31
0.0
  0
LINE
  5
88
330
1F
100
AcDbEntity
  8
0
  6
Continuous
 62
     7
370
    25
100
AcDbLine
 10
39.310491526
 20
24.0329791265
 30
0.0
 11
39.3117649517
 21
24.0322439935
 31
0.0
  0
LINE
  5
89
330
1F
100
AcDbEntity
  8
0
  6
Continuous
 62
     7
370
    25
100
AcDbLine
 10
39.1987741349
 20
23.8365169506
 30
0.0
 11
39.1975007092
 21
23.8372520836
 31
0.0
  0
LINE
  5
8A
330
1F
100
AcDbEntity
  8
0
  6
Continuous
 62
     7
370
    25
100
AcDbLine
 10
39.250473149
 20
23.9717894494
 30
0.0
 11
39.2644479516
 21
23.9637219675
 31
0.0
  0
LINE
  5
8B
330
1F
100
AcDbEntity
  8
0
  6
Continuous
 62
     7
370
    25
100
AcDbLine
 10
39.2344503896
 20
23.9117590358
 30
0.0
 11
39.220475587
 21
23.9198265176
 31
0.0
  0
LINE
  5
8C
330
1F
100
AcDbEntity
  8
0
  6
Continuous
 62
     7
370
    25
100
AcDbLine
 10
37.1584292381
 20
23.3974235564
 30
0.0
 11
37.1584292381
 21
23.3881981448
 31
0.0
  0
LINE
  5
8D
330
1F
100
AcDbEntity
  8
0
  6
Continuous
 62
     7
370
    25
100
AcDbLine
 10
37.0865281663
 20
23.2636483401
 30
0.0
 11
37.0785391583
 21
23.2590348845
 31
0.0
  0
LINE
  5
8E
330
1F
100
AcDbEntity
  8
0
  6
Continuous
 62
     7
370
    25
100
AcDbLine
 10
37.1337481545
 20
23.4498951526
 30
0.0
 11
37.1350215802
 21
23.4491600196
 31
0.0
  0
LINE
  5
8F
330
1F
100
AcDbEntity
  8
0
  6
Continuous
 62
     7
370
    25
100
AcDbLine
 10
37.0220307634
 20
23.2534329767
 30
0.0
 11
37.0207573377
 21
23.2541681097
 31
0.0
  0
LINE
  5
90
330
1F
100
AcDbEntity
  8
0
  6
Continuous
 62
     7
370
    25
100
AcDbLine
 10
37.0737297775
 20
23.3887054755
 30
0.0
 11
37.0877045801
 21
23.3806379936
 31
0.0
  0
LINE
  5
91
330
1F
100
AcDbEntity
  8
0
  6
Continuous
 62
     7
370
    25
100
AcDbLine
 10
37.0577070182
 20
23.3286750619
 30
0.0
 11
37.0437322155
 21
23.3367425437
 31
0.0
  0
LINE
  5
92
330
1F
100
AcDbEntity
  8
0
  6
Continuous
 62
     7
370
    25
100
AcDbLine
 10
34.3509552917
 20
21.4645304165
 30
0.0
 11
34.3509552917
 21
21.446626324
 31
0.0
  0
LINE
  5
93
330
1F
100
AcDbEntity
  8
0
  6
Continuous
 62
     7
370
    25
100
AcDbLine
 10
34.358910243
 20
23.0489823652
 30
0.0
 11
34.358910243
 21
23.0336747131
 31
0.0
  0
LINE
  5
94
330
1F
100
AcDbEntity
  8
0
  6
Continuous
 62
     7
370
    25
100
AcDbLine
 10
34.2396053672
 20
22.8270102141
 30
0.0
 11
34.2263492699
 21
22.8193551441
 31
0.0
  0
LINE
  5
95
330
1F
100
AcDbEntity
  8
0
  6
Continuous
 62
     7
370
    25
100
AcDbLine
 10
34.2875568049
 20
23.1535977937
 30
0.0
 11
34.3200701027
 21
23.1348282664
 31
0.0
  0
LINE
  5
96
330
1F
100
AcDbEntity
  8
0
  6
Continuous
 62
     7
370
    25
100
AcDbLine
 10
34.1325853404
 20
22.810059943
 30
0.0
 11
34.1099213424
 21
22.8231435905
 31
0.0
  0
ARC
  5
97
330
1F
100
AcDbEntity
  8
0
  6
Continuous
 62
     7
370
    25
100
AcDbCircle
 10
33.7127914217
 20
23.2689023003
 30
0.0
 40
0.7450000000000045
100
AcDbArc
 50
0.0
 51
56.6229389287
  0
LINE
  5
98
330
1F
100
AcDbEntity
  8
0
  6
Continuous
 62
     7
370
    25
100
AcDbLine
 10
32.9677914217
 20
21.0740405979
 30
0.0
 11
32.9677914217
 21
22.6009719162
 31
0.0
  0
LINE
  5
99
330
1F
100
AcDbEntity
  8
0
  6
Continuous
 62
     7
370
    25
100
AcDbLine
 10
34.4577914217
 20
23.2689023003
 30
0.0
 11
34.4577914217
 21
21.0740405979
 31
0.0
  0
LINE
  5
9A
330
1F
100
AcDbEntity
  8
0
  6
Continuous
 62
     7
370
    25
100
AcDbLine
 10
33.525103987
 20
29.551845811
 30
0.0
 11
39.1819582365
 21
26.2862133637
 31
0.0
  0
LINE
  5
9B
330
1F
100
AcDbEntity
  8
0
  6
Continuous
 62
     7
370
    25
100
AcDbLine
 10
33.7084059726
 20
24.8273507827
 30
0.0
 11
31.5252665217
 21
26.0876503615
 31
0.0
  0
LINE
  5
9C
330
1F
100
AcDbEntity
  8
0
  6
Continuous
 62
     7
370
    25
100
AcDbLine
 10
37.1821207712
 20
22.8220179142
 30
0.0
 11
34.8946211475
 21
24.1425633384
 31
0.0
  0
LWPOLYLINE
  5
9D
330
1F
100
AcDbEntity
  8
0
  6
Continuous
 62
     7
370
    25
100
AcDbPolyline
 90
       17
 70
   128
 43
0.0
 10
32.2327506082
 20
27.9386322617
 10
32.2112304635
 20
27.9262287438
 10
32.1913550029
 20
27.9242831142
 10
32.1761500853
 20
27.9330915773
 10
32.1679305214
 20
27.9513131245
 10
32.1679476654
 20
27.9761736904
 10
32.1761989072
 20
28.0038884792
 10
32.1914280702
 20
28.0302381655
 10
32.2113166522
 20
28.0512112484
 10
32.2328367969
 20
28.0636147663
 10
32.2527122575
 20
28.0655603959
 10
32.2679171751
 20
28.0567519328
 10
32.276136739
 20
28.0385303856
 10
32.276119595
 20
28.0136698197
 10
32.2678683531
 20
27.985955031
 10
32.2526391902
 20
27.9596053446
 10
32.2327506082
 20
27.9386322617
  0
LWPOLYLINE
  5
9E
330
1F
100
AcDbEntity
  8
0
  6
Continuous
 62
     7
370
    25
100
AcDbPolyline
 90
       16
 70
   128
 43
0.0
 10
32.1321236897
 20
27.88264505
 10
32.1278767747
 20
27.8821640904
 10
32.0998867674
 20
27.8859313964
 10
32.078226318
 20
27.9019944659
 10
32.0648200524
 20
27.9289260249
 10
32.0608591762
 20
27.9643330861
 10
32.0666956306
 20
28.0050695767
 10
32.0818108211
 20
28.0475158808
 10
32.1048616965
 20
28.087900458
 10
32.1338000856
 20
28.1226349614
 10
32.1660546854
 20
28.1486330779
 10
32.1987595331
 20
28.1635847607
 10
32.2290086596
 20
28.1661614874
 10
32.2541142972
 20
28.1561343043
 10
32.2718456998
 20
28.1343941707
 10
32.274300564
 20
28.1289293053
  0
LWPOLYLINE
  5
9F
330
1F
100
AcDbEntity
  8
0
  6
Continuous
 62
     7
370
    25
100
AcDbPolyline
 90
       12
 70
   128
 43
0.0
 10
32.0825216791
 20
27.8953318854
 10
32.0676197163
 20
27.9081175268
 10
32.0542134507
 20
27.9350490857
 10
32.0502525745
 20
27.9704561469
 10
32.0560890289
 20
28.0111926375
 10
32.0712042194
 20
28.0536389416
 10
32.0942550948
 20
28.0940235188
 10
32.1231934839
 20
28.1287580222
 10
32.1554480836
 20
28.1547561387
 10
32.1881529314
 20
28.1697078216
 10
32.2184020579
 20
28.1722845482
 10
32.2385090014
 20
28.1655391304
  0
LINE
  5
A0
330
1F
100
AcDbEntity
  8
0
  6
Continuous
 62
     7
370
    25
100
AcDbLine
 10
32.18438971
 20
27.9645796944
 30
0.0
 11
32.2096693363
 21
27.9458326966
 31
0.0
  0
LINE
  5
A1
330
1F
100
AcDbEntity
  8
0
  6
Continuous
 62
     7
370
    25
100
AcDbLine
 10
32.1967540038
 20
28.0136687528
 30
0.0
 11
32.18438971
 21
27.9645796944
 31
0.0
  0
LINE
  5
A2
330
1F
100
AcDbEntity
  8
0
  6
Continuous
 62
     7
370
    25
100
AcDbLine
 10
32.2343979241
 20
28.0440108135
 30
0.0
 11
32.1967540038
 21
28.0136687528
 31
0.0
  0
LINE
  5
A3
330
1F
100
AcDbEntity
  8
0
  6
Continuous
 62
     7
370
    25
100
AcDbLine
 10
32.2596775504
 20
28.0252638157
 30
0.0
 11
32.2343979241
 21
28.0440108135
 31
0.0
  0
LINE
  5
A4
330
1F
100
AcDbEntity
  8
0
  6
Continuous
 62
     7
370
    25
100
AcDbLine
 10
32.2473132565
 20
27.9761747573
 30
0.0
 11
32.2596775504
 21
28.0252638157
 31
0.0
  0
LINE
  5
A5
330
1F
100
AcDbEntity
  8
0
  6
Continuous
 62
     7
370
    25
100
AcDbLine
 10
32.2096693363
 20
27.9458326966
 30
0.0
 11
32.2473132565
 21
27.9761747573
 31
0.0
  0
ARC
  5
A6
330
1F
100
AcDbEntity
  8
0
  6
Continuous
 62
     7
370
    25
100
AcDbCircle
 10
32.1422996879
 20
28.0410742752
 30
0.0
 40
0.076844964458981
100
AcDbArc
 50
310.026347715
 51
345.586287983
  0
LWPOLYLINE
  5
A7
330
1F
100
AcDbEntity
  8
0
  6
Continuous
 62
     7
370
    25
100
AcDbPolyline
 90
        3
 70
   128
 43
0.0
 10
32.2182999818
 20
28.0310354183
 10
32.2178543384
 20
28.0274452767
 10
32.2167258509
 20
28.0219458974
  0
LINE
  5
A8
330
1F
100
AcDbEntity
  8
0
  6
Continuous
 62
     7
370
    25
100
AcDbLine
 10
32.1917217438
 20
27.9822303379
 30
0.0
 11
32.1881721823
 21
27.9795969698
 31
0.0
  0
LINE
  5
A9
330
1F
100
AcDbEntity
  8
0
  6
Continuous
 62
     7
370
    25
100
AcDbLine
 10
32.2313954428
 20
28.0415907289
 30
0.0
 11
32.2596775504
 21
28.0252638157
 31
0.0
  0
LINE
  5
AA
330
1F
100
AcDbEntity
  8
0
  6
Continuous
 62
     7
370
    25
100
AcDbLine
 10
32.2105437039
 20
27.9974013682
 30
0.0
 11
32.2473132565
 21
27.9761747573
 31
0.0
  0
LINE
  5
AB
330
1F
100
AcDbEntity
  8
0
  6
Continuous
 62
     7
370
    25
100
AcDbLine
 10
32.2167258509
 20
28.0219458974
 30
0.0
 11
32.21919748
 21
28.0317588271
 31
0.0
  0
LINE
  5
AC
330
1F
100
AcDbEntity
  8
0
  6
Continuous
 62
     7
370
    25
100
AcDbLine
 10
32.2105437039
 20
27.9974013682
 30
0.0
 11
32.2167258509
 21
28.0219458974
 31
0.0
  0
LINE
  5
AD
330
1F
100
AcDbEntity
  8
0
  6
Continuous
 62
     7
370
    25
100
AcDbLine
 10
32.1917217438
 20
27.9822303379
 30
0.0
 11
32.2105437039
 21
27.9974013682
 31
0.0
  0
LINE
  5
AE
330
1F
100
AcDbEntity
  8
0
  6
Continuous
 62
     7
370
    25
100
AcDbLine
 10
32.1881002278
 20
27.9793112939
 30
0.0
 11
32.1917217438
 21
27.9822303379
 31
0.0
  0
LWPOLYLINE
  5
AF
330
1F
100
AcDbEntity
  8
0
  6
Continuous
 62
     7
370
    25
100
AcDbPolyline
 90
       76
 70
   128
 43
0.0
 10
37.9804787867
 20
25.8195317863
 10
38.0954906003
 20
25.9156135575
 10
38.2122502567
 20
26.0014868496
 10
38.3299387711
 20
26.0765493233
 10
38.4477306429
 20
26.1402744692
 10
38.5647996469
 20
26.1922153011
 10
38.680324628
 20
26.2320074916
 10
38.7934952617
 20
26.2593719268
 10
38.903517737
 20
26.2741166651
 10
39.0096203256
 20
26.2761382826
 10
39.1110587939
 20
26.2654225991
 10
39.2071216239
 20
26.2420447775
 10
39.297135004
 20
26.2061687964
 10
39.3804675549
 20
26.1580463001
 10
39.4565347587
 20
26.0980148332
 10
39.5248030586
 20
26.0264954733
 10
39.5847936015
 20
25.9439898775
 10
39.6360855969
 20
25.8510767631
 10
39.6783192682
 20
25.7484078489
 10
39.7111983767
 20
25.6367032836
 10
39.7344922989
 20
25.5167465944
 10
39.7480376448
 20
25.3893791913
 10
39.7517394035
 20
25.2554944652
 10
39.7455716099
 20
25.1160315212
 10
39.7295775264
 20
24.9719685916
 10
39.7038693403
 20
24.8243161744
 10
39.6686273758
 20
24.6741099452
 10
39.6240988301
 20
24.5224034928
 10
39.570596039
 20
24.370260929
 10
39.508494286
 20
24.2187494244
 10
39.4382291703
 20
24.0689317235
 10
39.3602935513
 20
23.9218586898
 10
39.2752340914
 20
23.778561935
 10
39.1836474214
 20
23.6400465827
 10
39.0861759561
 20
23.5072842188
 10
38.9835033878
 20
23.3812060757
 10
38.8763498908
 20
23.2626965012
 10
38.7654670699
 20
23.1525867546
 10
38.6516326884
 20
23.0516491768
 10
38.5356452127
 20
22.9605917723
 10
38.4183182115
 20
22.8800532434
 10
38.3004746496
 20
22.81059851
 10
38.1829411148
 20
22.7527147472
 10
38.0665420205
 20
22.706807968
 10
37.9520938226
 20
22.6732001754
 10
37.840399293
 20
22.652127104
 10
37.7322418886
 20
22.6437365662
 10
37.6283802559
 20
22.6480874156
 10
37.5295429096
 20
22.6651491341
 10
37.4364231227
 20
22.6948020461
 10
37.3496740635
 20
22.7368381576
 10
37.2699042144
 20
22.7909626156
 10
37.1976731036
 20
22.8567957759
 10
37.1334873805
 20
22.9338758661
 10
37.0777972616
 20
23.0216622247
 10
37.0309933733
 20
23.1195390937
 10
36.9934040111
 20
23.2268199369
 10
36.9652928375
 20
23.3427522565
 10
36.9468570321
 20
23.4665228705
 10
36.9382259088
 20
23.597263617
 10
36.9394600088
 20
23.7340574435
 10
36.9505506758
 20
23.8759448396
 10
36.9714201166
 20
24.0219305673
 10
37.0019219472
 20
24.1709906415
 10
37.0418422192
 20
24.3220795129
 10
37.0909009204
 20
24.4741374016
 10
37.1487539394
 20
24.6260977309
 10
37.2149954788
 20
24.7768946081
 10
37.2891609018
 20
24.9254703015
 10
37.3707299912
 20
25.0707826594
 10
37.4591305986
 20
25.21181242
 10
37.553742657
 20
25.3475703608
 10
37.6539025311
 20
25.4771042376
 10
37.758907671
 20
25.599505463
 10
37.8680215414
 20
25.7139154806
 10
37.9804787867
 20
25.8195317863
  0
LWPOLYLINE
  5
B0
330
1F
100
AcDbEntity
  8
0
  6
Continuous
 62
     7
370
    25
100
AcDbPolyline
 90
       36
 70
   128
 43
0.0
 10
37.9715775919
 20
25.8304444956
 10
37.8585552348
 20
25.7242974547
 10
37.7488930535
 20
25.6093125124
 10
37.6433602495
 20
25.4862962054
 10
37.5426970595
 20
25.3561114047
 10
37.4476095636
 20
25.2196712631
 10
37.3587647321
 20
25.0779328103
 10
37.2767857477
 20
24.9318902395
 10
37.2022476342
 20
24.7825679346
 10
37.1356732227
 20
24.6310132841
 10
37.077529485
 20
24.4782893351
 10
37.0282242577
 20
24.3254673364
 10
36.9881033813
 20
24.1736192244
 10
36.9574482752
 20
24.0238101046
 10
36.9364739628
 20
23.8770907803
 10
36.9253275639
 20
23.7344903822
 10
36.9240872623
 20
23.5970091495
 10
36.9327617581
 20
23.4656114144
 10
36.9512902057
 20
23.3412188375
 10
36.9795426415
 20
23.2247039435
 10
37.017320895
 20
23.1168840005
 10
37.0643599787
 20
23.018515288
 10
37.1203299474
 20
22.9302877918
 10
37.1848382119
 20
22.8528203645
 10
37.2574322931
 20
22.7866563844
 10
37.3376029957
 20
22.7322599442
 10
37.4247879798
 20
22.6900125959
 10
37.5183757053
 20
22.6602106743
 10
37.6177097217
 20
22.6430632185
 10
37.7220932722
 20
22.6386905055
 10
37.8307941811
 20
22.6471232068
 10
37.9430499898
 20
22.6683021731
 10
38.0580733042
 20
22.702078849
 10
38.1750573186
 20
22.7482163156
 10
38.2931814742
 20
22.8063909516
 10
38.3378328452
 20
22.8313618337
  0
LWPOLYLINE
  5
B1
330
1F
100
AcDbEntity
  8
0
  6
Continuous
 62
     7
370
    25
100
AcDbPolyline
 90
       23
 70
   128
 43
0.0
 10
39.7518165581
 20
25.2807188585
 10
39.7480186553
 20
25.3981303298
 10
39.7344052424
 20
25.5261377701
 10
39.7109942652
 20
25.6466972567
 10
39.6779499351
 20
25.7589631515
 10
39.6355040343
 20
25.8621479899
 10
39.5839542902
 20
25.9555280043
 10
39.5236622872
 20
26.0384482012
 10
39.4550509306
 20
26.1103269548
 10
39.3786014795
 20
26.1706600873
 10
39.2948501721
 20
26.2190244053
 10
39.2043844634
 20
26.2550806677
 10
39.1078389056
 20
26.2785759658
 10
39.0058906963
 20
26.2893454969
 10
38.8992549289
 20
26.2873137205
 10
38.7886795767
 20
26.2724948881
 10
38.6749402465
 20
26.2449929431
 10
38.5588347378
 20
26.2050007919
 10
38.4411774474
 20
26.1527989508
 10
38.3227936566
 20
26.088753578
 10
38.2045137427
 20
26.013313906
 10
38.0871673542
 20
25.9270090898
 10
37.9715775919
 20
25.8304444956
  0
LWPOLYLINE
  5
B2
330
1F
100
AcDbEntity
  8
0
  6
Continuous
 62
     7
370
    25
100
AcDbPolyline
 90
       14
 70
   128
 43
0.0
 10
37.8018719644
 20
25.928413469
 10
37.9174617268
 20
26.0249780632
 10
38.0348081152
 20
26.1112828794
 10
38.1530880291
 20
26.1867225515
 10
38.2714718199
 20
26.2507679242
 10
38.3891291103
 20
26.3029697654
 10
38.505234619
 20
26.3429619165
 10
38.6189739493
 20
26.3704638615
 10
38.7295493014
 20
26.3852826939
 10
38.8361850688
 20
26.3873144703
 10
38.9381332781
 20
26.3765449392
 10
39.034678836
 20
26.3530496411
 10
39.1251445446
 20
26.3169933787
 10
39.1678161008
 20
26.2943774448
  0
LWPOLYLINE
  5
B3
330
1F
100
AcDbEntity
  8
0
  6
Continuous
 62
     7
370
    25
100
AcDbPolyline
 90
       27
 70
   128
 43
0.0
 10
37.1679786356
 20
22.8301819953
 10
37.1678973682
 20
22.8302289176
 10
37.0877266656
 20
22.8846253578
 10
37.0151325844
 20
22.9507893379
 10
36.9506243199
 20
23.0282567653
 10
36.8946543512
 20
23.1164842614
 10
36.8476152675
 20
23.2148529739
 10
36.8098370141
 20
23.3226729169
 10
36.7815845783
 20
23.439187811
 10
36.7630561306
 20
23.5635803878
 10
36.7543816349
 20
23.6949781229
 10
36.7556219364
 20
23.8324593556
 10
36.7667683353
 20
23.9750597538
 10
36.7877426477
 20
24.1217790781
 10
36.8183977539
 20
24.2715881978
 10
36.8585186302
 20
24.4234363098
 10
36.9078238575
 20
24.5762583085
 10
36.9659675952
 20
24.7289822575
 10
37.0325420067
 20
24.880536908
 10
37.1070801202
 20
25.0298592129
 10
37.1890591046
 20
25.1759017837
 10
37.2779039361
 20
25.3176402365
 10
37.3729914321
 20
25.4540803781
 10
37.473654622
 20
25.5842651788
 10
37.579187426
 20
25.7072814858
 10
37.6888496073
 20
25.8222664282
 10
37.8018719644
 20
25.928413469
  0
LWPOLYLINE
  5
B4
330
1F
100
AcDbEntity
  8
0
  6
Continuous
 62
     7
370
    25
100
AcDbPolyline
 90
       19
 70
   128
 43
0.0
 10
37.0668842313
 20
23.4244200747
 10
37.0950179599
 20
23.443503644
 10
37.1222968595
 20
23.4508108394
 10
37.145430692
 20
23.4454603053
 10
37.161629176
 20
23.4280973951
 10
37.1689385351
 20
23.400816332
 10
37.1664771527
 20
23.3669076148
 10
37.154541908
 20
23.3304611352
 10
37.1345723676
 20
23.2958728767
 10
37.1089771527
 20
23.2673146936
 10
37.0808434241
 20
23.2482311243
 10
37.0535645246
 20
23.2409239289
 10
37.030430692
 20
23.246274463
 10
37.0142322081
 20
23.2636373733
 10
37.006922849
 20
23.2909184364
 10
37.0093842313
 20
23.3248271536
 10
37.021319476
 20
23.3612736331
 10
37.0412890164
 20
23.3958618917
 10
37.0668842313
 20
23.4244200747
  0
LWPOLYLINE
  5
B5
330
1F
100
AcDbEntity
  8
0
  6
Continuous
 62
     7
370
    25
100
AcDbPolyline
 90
       19
 70
   128
 43
0.0
 10
39.2436276028
 20
24.0075040486
 10
39.2717613314
 20
24.0265876179
 10
39.299040231
 20
24.0338948133
 10
39.3221740635
 20
24.0285442792
 10
39.3383725474
 20
24.011181369
 10
39.3456819065
 20
23.9839003058
 10
39.3432205242
 20
23.9499915886
 10
39.3312852795
 20
23.9135451091
 10
39.3113157391
 20
23.8789568506
 10
39.2857205242
 20
23.8503986675
 10
39.2575867956
 20
23.8313150982
 10
39.2303078961
 20
23.8240079028
 10
39.2071740635
 20
23.8293584369
 10
39.1909755796
 20
23.8467213471
 10
39.1836662205
 20
23.8740024103
 10
39.1861276028
 20
23.9079111275
 10
39.1980628475
 20
23.944357607
 10
39.2180323879
 20
23.9789458655
 10
39.2436276028
 20
24.0075040486
  0
LWPOLYLINE
  5
B6
330
1F
100
AcDbEntity
  8
0
  6
Continuous
 62
     7
370
    25
100
AcDbPolyline
 90
       19
 70
   128
 43
0.0
 10
38.6603709743
 20
26.1844200666
 10
38.6885047029
 20
26.2035036359
 10
38.7157836024
 20
26.2108108313
 10
38.738917435
 20
26.2054602972
 10
38.7551159189
 20
26.188097387
 10
38.762425278
 20
26.1608163239
 10
38.7599638957
 20
26.1269076067
 10
38.748028651
 20
26.0904611271
 10
38.7280591106
 20
26.0558728686
 10
38.7024638957
 20
26.0273146855
 10
38.6743301671
 20
26.0082311162
 10
38.6470512675
 20
26.0009239208
 10
38.623917435
 20
26.0062744549
 10
38.607718951
 20
26.0236373652
 10
38.6004095919
 20
26.0509184283
 10
38.6028709743
 20
26.0848271455
 10
38.614806219
 20
26.121273625
 10
38.6347757594
 20
26.1558618836
 10
38.6603709743
 20
26.1844200666
  0
LWPOLYLINE
  5
B7
330
1F
100
AcDbEntity
  8
0
  6
Continuous
 62
     7
370
    25
100
AcDbPolyline
 90
       39
 70
   128
 43
0.0
 10
33.53932739
 20
29.5436348076
 10
33.4521424059
 20
29.5858821559
 10
33.3585546803
 20
29.6156840775
 10
33.2592206639
 20
29.6328315333
 10
33.1548371135
 20
29.6372042463
 10
33.0461362045
 20
29.628771545
 10
32.9338803959
 20
29.6075925787
 10
32.8188570814
 20
29.5738159028
 10
32.701873067
 20
29.5276784362
 10
32.5837489115
 20
29.4695038002
 10
32.4653131708
 20
29.3997000481
 10
32.3473965868
 20
29.318756803
 10
32.2308262594
 20
29.2272418236
 10
32.1164198459
 20
29.1257970217
 10
32.0049798248
 20
29.0151339598
 10
31.897287868
 20
28.8960288598
 10
31.7940993572
 20
28.7693171582
 10
31.6961380856
 20
28.6358876467
 10
31.6040911811
 20
28.4966762374
 10
31.5186042866
 20
28.3526593984
 10
31.4402770313
 20
28.2048473042
 10
31.3696588246
 20
28.0542767506
 10
31.3072450025
 20
27.9020038817
 10
31.2534733531
 20
27.7490967823
 10
31.2087210459
 20
27.5966279859
 10
31.1733019862
 20
27.4456669516
 10
31.1474646131
 20
27.2972725624
 10
31.1313901574
 20
27.1524856985
 10
31.1251913698
 20
27.0123219357
 10
31.1289117303
 20
26.877764422
 10
31.1425251433
 20
26.7497569817
 10
31.1659361204
 20
26.6291974951
 10
31.1989804505
 20
26.5169316003
 10
31.2414263514
 20
26.413746762
 10
31.2929760955
 20
26.3203667475
 10
31.3532680984
 20
26.2374465507
 10
31.4218794551
 20
26.165567797
 10
31.4983289061
 20
26.1052346645
 10
31.5394086573
 20
26.0794862804
  0
LWPOLYLINE
  5
B8
330
1F
100
AcDbEntity
  8
0
  6
Continuous
 62
     7
370
    25
100
AcDbPolyline
 90
       40
 70
   128
 43
0.0
 10
31.3697030298
 20
26.1774552538
 10
31.3286232786
 20
26.2032036379
 10
31.2521738276
 20
26.2635367705
 10
31.1835624709
 20
26.3354155241
 10
31.123270468
 20
26.4183357209
 10
31.0717207239
 20
26.5117157354
 10
31.0292748231
 20
26.6149005738
 10
30.9962304929
 20
26.7271664685
 10
30.9728195158
 20
26.8477259552
 10
30.9592061028
 20
26.9757333954
 10
30.9554857423
 20
27.1102909091
 10
30.96168453
 20
27.250454672
 10
30.9777589857
 20
27.3952415359
 10
31.0035963587
 20
27.543635925
 10
31.0390154184
 20
27.6945969594
 10
31.0837677257
 20
27.8470657557
 10
31.1375393751
 20
27.9999728551
 10
31.1999531972
 20
28.152245724
 10
31.2705714038
 20
28.3028162776
 10
31.3488986591
 20
28.4506283718
 10
31.4343855536
 20
28.5946452109
 10
31.5264324581
 20
28.7338566201
 10
31.6243937297
 20
28.8672861316
 10
31.7275822406
 20
28.9939978332
 10
31.8352741973
 20
29.1131029333
 10
31.9467142184
 20
29.2237659952
 10
32.061120632
 20
29.325210797
 10
32.1776909593
 20
29.4167257764
 10
32.2956075434
 20
29.4976690215
 10
32.414043284
 20
29.5674727736
 10
32.5321674395
 20
29.6256474096
 10
32.6491514539
 20
29.6717848762
 10
32.7641747684
 20
29.7055615522
 10
32.876430577
 20
29.7267405184
 10
32.985131486
 20
29.7351732197
 10
33.0895150364
 20
29.7308005067
 10
33.1888490528
 20
29.7136530509
 10
33.2824367784
 20
29.6838511293
 10
33.3696217625
 20
29.641603781
 10
33.3696217625
 20
29.641603781
  0
LWPOLYLINE
  5
B9
330
1F
100
AcDbEntity
  8
0
  6
Continuous
 62
     7
370
    25
100
AcDbPolyline
 90
       21
 70
   128
 43
0.0
 10
32.3623219944
 20
29.5384191875
 10
32.2889065466
 20
29.4938104819
 10
32.1715795455
 20
29.413271953
 10
32.0555920698
 20
29.3222145485
 10
31.9417576883
 20
29.2212769706
 10
31.8308748674
 20
29.1111672241
 10
31.7237213704
 20
28.9926576495
 10
31.6210488021
 20
28.8665795064
 10
31.5235773368
 20
28.7338171425
 10
31.4319906668
 20
28.5953017903
 10
31.3469312068
 20
28.4520050354
 10
31.2689955878
 20
28.3049320017
 10
31.1987304722
 20
28.1551143008
 10
31.1366287192
 20
28.0036027963
 10
31.083125928
 20
27.8514602324
 10
31.0385973824
 20
27.69975378
 10
31.0033554179
 20
27.5495475508
 10
30.9776472317
 20
27.4018951336
 10
30.9616531483
 20
27.2578322041
 10
30.9554853546
 20
27.11836926
 10
30.9554082001
 20
27.1013089479
  0
LWPOLYLINE
  5
BA
330
1F
100
AcDbEntity
  8
0
  6
Continuous
 62
     7
370
    25
100
AcDbPolyline
 90
       23
 70
   128
 43
0.0
 10
33.7159063023
 20
24.2024561205
 10
33.7946348948
 20
24.1570062995
 10
33.8792213874
 20
24.1081733894
 10
33.9679585013
 20
24.056943025
 10
34.0590551824
 20
24.0043492309
 10
34.1506727513
 20
23.951453551
 10
34.2409620154
 20
23.8993236221
 10
34.3281005921
 20
23.8490116257
 10
34.4103296918
 20
23.8015330501
 10
34.4859896168
 20
23.7578461945
 10
34.5535532608
 20
23.7188328266
 10
34.6116569311
 20
23.6852803853
 10
34.6591278734
 20
23.6578660872
 10
34.6950079427
 20
23.6371432576
 10
34.7185729421
 20
23.6235301625
 10
34.7293472397
 20
23.6173015661
 10
34.7271133691
 20
23.6185831852
 10
34.7119164183
 20
23.6273491521
 10
34.6840631198
 20
23.6434225358
 10
34.6441156597
 20
23.6664789142
 10
34.5928803305
 20
23.6960529212
 10
34.531391257
 20
23.7315476405
 10
34.4608895236
 20
23.7722466529
  0
LINE
  5
BB
330
1F
100
AcDbEntity
  8
0
  6
Continuous
 62
     7
370
    25
100
AcDbLine
 10
34.4608895236
 20
23.7722466529
 30
0.0
 11
34.3713668086
 21
23.6171887625
 31
0.0
  0
LINE
  5
BC
330
1F
100
AcDbEntity
  8
0
  6
Continuous
 62
     7
370
    25
100
AcDbLine
 10
33.3109063023
 20
23.5009755455
 30
0.0
 11
33.7159063023
 21
24.2024561205
 31
0.0
  0
LINE
  5
BD
330
1F
100
AcDbEntity
  8
0
  6
Continuous
 62
     7
370
    25
100
AcDbLine
 10
33.7159063023
 20
24.2024561205
 30
0.0
 11
34.1016692773
 21
23.9796875005
 31
0.0
  0
LINE
  5
BE
330
1F
100
AcDbEntity
  8
0
  6
Continuous
 62
     7
370
    25
100
AcDbLine
 10
34.155792933
 20
23.948432422
 30
0.0
 11
34.4608895236
 21
23.7722466529
 31
0.0
  0
LWPOLYLINE
  5
BF
330
1F
100
AcDbEntity
  8
0
  6
Continuous
 62
     7
370
    25
100
AcDbPolyline
 90
       10
 70
   128
 43
0.0
 10
33.3109063023
 20
23.5009755455
 10
33.2636547749
 20
23.4111208132
 10
33.2242222679
 20
23.3189329103
 10
33.1933433344
 20
23.2261291231
 10
33.1715931904
 20
23.1344382106
 10
33.1593770001
 20
23.0455682009
 10
33.1569223279
 20
22.9611745741
 10
33.1642748997
 20
22.8828294239
 10
33.181297751
 20
22.8119921722
 10
33.1859968697
 20
22.7984093457
  0
LWPOLYLINE
  5
C0
330
1F
100
AcDbEntity
  8
0
  6
Continuous
 62
     7
370
    25
100
AcDbPolyline
 90
       17
 70
   128
 43
0.0
 10
33.1859968697
 20
22.877215152
 10
33.1812475053
 20
22.9041439968
 10
33.1750655706
 20
22.9821706138
 10
33.1787777467
 20
23.0661084098
 10
33.1923117803
 20
23.1543236309
 10
33.2154042469
 20
23.2450992683
 10
33.2476056779
 20
23.3366684774
 10
33.2882893091
 20
23.4272489677
 10
33.3366632797
 20
23.515077693
 10
33.3917860457
 20
23.5984451671
 10
33.4525847049
 20
23.6757287369
 10
33.5178758806
 20
23.7454241657
 10
33.5863887545
 20
23.8061749111
 10
33.6567898012
 20
23.8567985291
 10
33.7277087446
 20
23.8963096885
 10
33.7977652281
 20
23.9239393495
 10
33.864156018
 20
23.9389539053
  0
LINE
  5
C1
330
1F
100
AcDbEntity
  8
0
  6
Continuous
 62
     7
370
    25
100
AcDbLine
 10
33.7810419324
 20
20.4986090989
 30
0.0
 11
33.8278159289
 21
20.5459302378
 31
0.0
  0
LINE
  5
C2
330
1F
100
AcDbEntity
  8
0
  6
Continuous
 62
     7
370
    25
100
AcDbLine
 10
33.8278159289
 20
20.4879558401
 30
0.0
 11
33.7810419324
 21
20.4986090989
 31
0.0
  0
LINE
  5
C3
330
1F
100
AcDbEntity
  8
0
  6
Continuous
 62
     7
370
    25
100
AcDbLine
 10
33.7810419324
 20
20.4406347013
 30
0.0
 11
33.8278159289
 21
20.4879558401
 31
0.0
  0
LINE
  5
C4
330
1F
100
AcDbEntity
  8
0
  6
Continuous
 62
     7
370
    25
100
AcDbLine
 10
33.8278159289
 20
20.4299814425
 30
0.0
 11
33.7810419324
 21
20.4406347013
 31
0.0
  0
LINE
  5
C5
330
1F
100
AcDbEntity
  8
0
  6
Continuous
 62
     7
370
    25
100
AcDbLine
 10
33.7810419324
 20
20.3826603036
 30
0.0
 11
33.8278159289
 21
20.4299814425
 31
0.0
  0
LINE
  5
C6
330
1F
100
AcDbEntity
  8
0
  6
Continuous
 62
     7
370
    25
100
AcDbLine
 10
33.8278159289
 20
20.3720070449
 30
0.0
 11
33.7810419324
 21
20.3826603036
 31
0.0
  0
LINE
  5
C7
330
1F
100
AcDbEntity
  8
0
  6
Continuous
 62
     7
370
    25
100
AcDbLine
 10
33.7976109867
 20
20.3426120271
 30
0.0
 11
33.8278159289
 21
20.3720070449
 31
0.0
  0
LINE
  5
C8
330
1F
100
AcDbEntity
  8
0
  6
Continuous
 62
     7
370
    25
100
AcDbLine
 10
33.8504455781
 20
20.3633215304
 30
0.0
 11
33.7976109867
 21
20.3426120271
 31
0.0
  0
LINE
  5
C9
330
1F
100
AcDbEntity
  8
0
  6
Continuous
 62
     7
370
    25
100
AcDbLine
 10
33.8504455781
 20
20.5543090986
 30
0.0
 11
33.8504455781
 21
20.3633215304
 31
0.0
  0
LINE
  5
CA
330
1F
100
AcDbEntity
  8
0
  6
Continuous
 62
     7
370
    25
100
AcDbLine
 10
34.0821393412
 20
20.5181449812
 30
0.0
 11
33.8504455781
 21
20.3633215304
 31
0.0
  0
LINE
  5
CB
330
1F
100
AcDbEntity
  8
0
  6
Continuous
 62
     7
370
    25
100
AcDbLine
 10
34.0821393412
 20
20.6430331951
 30
0.0
 11
34.0821393412
 21
20.5181449812
 31
0.0
  0
ARC
  5
CC
330
1F
100
AcDbEntity
  8
0
  6
Continuous
 62
     7
370
    25
100
AcDbCircle
 10
33.7129457186
 20
21.1607746314
 30
0.0
 40
0.6254828483782505
100
AcDbArc
 50
250.4600812077
 51
280.5824612057
  0
LWPOLYLINE
  5
CD
330
1F
100
AcDbEntity
  8
0
  6
Continuous
 62
     7
370
    25
100
AcDbPolyline
 90
        8
 70
   128
 43
0.0
 10
33.7810419324
 20
20.4986090989
 10
33.7047833764
 20
20.4953192846
 10
33.6288089197
 20
20.5003428476
 10
33.5558138879
 20
20.5135015682
 10
33.4883879065
 20
20.5343286181
 10
33.428923029
 20
20.5620851215
 10
33.3795288752
 20
20.5957863682
 10
33.3627094572
 20
20.6109519563
  0
LWPOLYLINE
  5
CE
330
1F
100
AcDbEntity
  8
0
  6
Continuous
 62
     7
370
    25
100
AcDbPolyline
 90
        9
 70
   128
 43
0.0
 10
33.8278159289
 20
20.4879558401
 10
33.755564522
 20
20.4792045649
 10
33.6817485336
 20
20.4785540208
 10
33.6090680515
 20
20.4860280036
 10
33.5401816287
 20
20.5013531255
 10
33.4776090361
 20
20.5239688143
 10
33.4236390938
 20
20.553047819
 10
33.3802459484
 20
20.5875264695
 10
33.3587317972
 20
20.6119097181
  0
LWPOLYLINE
  5
CF
330
1F
100
AcDbEntity
  8
0
  6
Continuous
 62
     7
370
    25
100
AcDbPolyline
 90
       10
 70
   128
 43
0.0
 10
33.7810419324
 20
20.4406347013
 10
33.7047833764
 20
20.437344887
 10
33.6288089197
 20
20.4423684499
 10
33.5558138879
 20
20.4555271706
 10
33.4883879065
 20
20.4763542204
 10
33.428923029
 20
20.5041107238
 10
33.3795288752
 20
20.5378119706
 10
33.3419577883
 20
20.5762623506
 10
33.3175426678
 20
20.6180977698
 10
33.3107566611
 20
20.639001112
  0
LINE
  5
D0
330
1F
100
AcDbEntity
  8
0
  6
Continuous
 62
     7
370
    25
100
AcDbLine
 10
34.1186827075
 20
20.666254542
 30
0.0
 11
34.0940546167
 21
20.6078886587
 31
0.0
  0
LWPOLYLINE
  5
D1
330
1F
100
AcDbEntity
  8
0
  6
Continuous
 62
     7
370
    25
100
AcDbPolyline
 90
        9
 70
   128
 43
0.0
 10
33.8278159289
 20
20.4299814425
 10
33.755564522
 20
20.4212301673
 10
33.6817485336
 20
20.4205796231
 10
33.6090680515
 20
20.428053606
 10
33.5401816287
 20
20.4433787278
 10
33.4776090361
 20
20.4659944166
 10
33.4236390938
 20
20.4950734214
 10
33.3802459484
 20
20.5295520719
 10
33.3587317972
 20
20.5539353204
  0
LINE
  5
D2
330
1F
100
AcDbEntity
  8
0
  6
Continuous
 62
     7
370
    25
100
AcDbLine
 10
34.0940546167
 20
20.6078886587
 30
0.0
 11
34.1186827075
 21
20.6082801444
 31
0.0
  0
LWPOLYLINE
  5
D3
330
1F
100
AcDbEntity
  8
0
  6
Continuous
 62
     7
370
    25
100
AcDbPolyline
 90
       11
 70
   128
 43
0.0
 10
33.7810419324
 20
20.3826603036
 10
33.7047833764
 20
20.3793704893
 10
33.6288089197
 20
20.3843940523
 10
33.5558138879
 20
20.3975527729
 10
33.4883879065
 20
20.4183798228
 10
33.428923029
 20
20.4461363262
 10
33.3795288752
 20
20.4798375729
 10
33.3419577883
 20
20.5182879529
 10
33.3175426678
 20
20.5601233722
 10
33.3071496825
 20
20.6038596467
 10
33.3103872319
 20
20.6448283893
  0
LINE
  5
D4
330
1F
100
AcDbEntity
  8
0
  6
Continuous
 62
     7
370
    25
100
AcDbLine
 10
34.1144572855
 20
20.6478591101
 30
0.0
 11
34.1186827075
 21
20.6082801444
 31
0.0
  0
LINE
  5
D5
330
1F
100
AcDbEntity
  8
0
  6
Continuous
 62
     7
370
    25
100
AcDbLine
 10
34.1186827075
 20
20.6082801444
 30
0.0
 11
34.0940546167
 21
20.549914261
 31
0.0
  0
LWPOLYLINE
  5
D6
330
1F
100
AcDbEntity
  8
0
  6
Continuous
 62
     7
370
    25
100
AcDbPolyline
 90
        9
 70
   128
 43
0.0
 10
33.8278159289
 20
20.3720070449
 10
33.755564522
 20
20.3632557696
 10
33.6817485336
 20
20.3626052255
 10
33.6090680515
 20
20.3700792083
 10
33.5401816287
 20
20.3854043302
 10
33.4776090361
 20
20.408020019
 10
33.4236390938
 20
20.4370990237
 10
33.3802459484
 20
20.4715776742
 10
33.3587317972
 20
20.4959609228
  0
LINE
  5
D7
330
1F
100
AcDbEntity
  8
0
  6
Continuous
 62
     7
370
    25
100
AcDbLine
 10
34.0940546167
 20
20.549914261
 30
0.0
 11
34.1099585402
 21
20.5513303173
 31
0.0
  0
LWPOLYLINE
  5
D8
330
1F
100
AcDbEntity
  8
0
  6
Continuous
 62
     7
370
    25
100
AcDbPolyline
 90
       11
 70
   128
 43
0.0
 10
33.7976109867
 20
20.3426120271
 10
33.7217661367
 20
20.3373937271
 10
33.6455909275
 20
20.3406331526
 10
33.5718893676
 20
20.3522110605
 10
33.5033744103
 20
20.3717012681
 10
33.4425680902
 20
20.3983863411
 10
33.3917086871
 20
20.4312840024
 10
33.3526683349
 20
20.4691832895
 10
33.3268841083
 20
20.5106891303
 10
33.3153051245
 20
20.5542736953
 10
33.3146799487
 20
20.5677258813
  0
LINE
  5
D9
330
1F
100
AcDbEntity
  8
0
  6
Continuous
 62
     7
370
    25
100
AcDbLine
 10
34.109507042
 20
20.5863978109
 30
0.0
 11
34.1099585402
 21
20.5513303173
 31
0.0
  0
LINE
  5
DA
330
1F
100
AcDbEntity
  8
0
  6
Continuous
 62
     7
370
    25
100
AcDbLine
 10
34.1099585402
 20
20.5513303173
 30
0.0
 11
34.0821393412
 21
20.5181449812
 31
0.0
  0
SPLINE
  5
DB
330
1F
100
AcDbEntity
  8
0
  6
Continuous
 62
     7
370
    25
100
AcDbSpline
210
0.0
220
0.0
230
1.0
 70
     8
 71
     3
 72
    10
 73
     6
 74
     0
 42
0.00000001
 43
0.00000001
 40
0.0
 40
0.0
 40
0.0
 40
0.0
 40
0.0700999696409432
 40
0.530789562800427
 40
1.0
 40
1.0
 40
1.0
 40
1.0
 10
33.6133363169784
 20
20.55436766922051
 30
0.0
 10
33.60662956403304
 20
20.55519704990711
 30
0.0
 10
33.55584673941962
 20
20.56147703282709
 30
0.0
 10
33.46009924086193
 20
20.58066011401981
 30
0.0
 10
33.37391603124836
 20
20.6094527742685
 30
0.0
 10
33.33042957018606
 20
20.6239810205986
 30
0.0
  0
SPLINE
  5
DC
330
1F
100
AcDbEntity
  8
0
  6
Continuous
 62
     7
370
    25
100
AcDbSpline
210
0.0
220
0.0
230
1.0
 70
     8
 71
     3
 72
     9
 73
     5
 74
     0
 42
0.00000001
 43
0.00000001
 40
0.0
 40
0.0
 40
0.0
 40
0.0
 40
0.4954579634770133
 40
1.0
 40
1.0
 40
1.0
 40
1.0
 10
33.89624306377077
 20
20.557684801553
 30
0.0
 10
33.85029776436507
 20
20.55287623754812
 30
0.0
 10
33.75756477227981
 20
20.54317094596064
 30
0.0
 10
33.66170274130943
 20
20.55061289373483
 30
0.0
 10
33.6133363169784
 20
20.55436766922051
 30
0.0
  0
LINE
  5
DD
330
1F
100
AcDbEntity
  8
0
  6
Continuous
 62
     7
370
    25
100
AcDbLine
 10
33.8962430638
 20
20.5576848016
 30
0.0
 11
33.8962430638
 21
20.6572042919
 31
0.0
  0
LINE
  5
DE
330
1F
100
AcDbEntity
  8
0
  6
Continuous
 62
     7
370
    25
100
AcDbLine
 10
33.3304295702
 20
20.6239810206
 30
0.0
 11
33.3304295702
 21
20.7049264217
 31
0.0
  0
SPLINE
  5
DF
330
1F
100
AcDbEntity
  8
0
  6
Continuous
 62
     7
370
    25
100
AcDbSpline
210
0.0
220
0.0
230
1.0
 70
     8
 71
     3
 72
    10
 73
     6
 74
     0
 42
0.00000001
 43
0.00000001
 40
0.0
 40
0.0
 40
0.0
 40
0.0
 40
0.3688686996161528
 40
0.7427571871384947
 40
0.9999999999999999
 40
0.9999999999999999
 40
0.9999999999999999
 40
0.9999999999999999
 10
34.08742398953503
 20
20.64608355156491
 30
0.0
 10
34.06355836497217
 20
20.63159419526482
 30
0.0
 10
34.01550233802259
 20
20.60241830275861
 30
0.0
 10
33.95168634093098
 20
20.57533834733448
 30
0.0
 10
33.91229754392536
 20
20.56279666569458
 30
0.0
 10
33.89624306377077
 20
20.557684801553
 30
0.0
  0
SPLINE
  5
E0
330
1F
100
AcDbEntity
  8
0
  6
Continuous
 62
     7
370
    25
100
AcDbSpline
210
0.0
220
0.0
230
1.0
 70
     8
 71
     3
 72
     9
 73
     5
 74
     0
 42
0.00000001
 43
0.00000001
 40
0.0
 40
0.0
 40
0.0
 40
0.0
 40
0.6827159713357889
 40
1.0
 40
1.0
 40
1.0
 40
1.0
 10
34.24943092513998
 20
20.78131986795883
 30
0.0
 10
34.21299568576183
 20
20.74636716809106
 30
0.0
 10
34.15962760751565
 20
20.69517062174488
 30
0.0
 10
34.10481511726339
 20
20.65790677498759
 30
0.0
 10
34.08742398953503
 20
20.64608355156491
 30
0.0
  0
SPLINE
  5
E1
330
1F
100
AcDbEntity
  8
0
  6
Continuous
 62
     7
370
    25
100
AcDbSpline
210
0.0
220
0.0
230
1.0
 70
     8
 71
     3
 72
     9
 73
     5
 74
     0
 42
0.00000001
 43
0.00000001
 40
0.0
 40
0.0
 40
0.0
 40
0.0
 40
0.4954579634769989
 40
1.0
 40
1.0
 40
1.0
 40
1.0
 10
33.33042957018606
 20
20.6239810205986
 30
0.0
 10
33.31553289360216
 20
20.63945091780529
 30
0.0
 10
33.28546641434051
 20
20.6706743481406
 30
0.0
 10
33.25438541823178
 20
20.72042605342739
 30
0.0
 10
33.23870374915792
 20
20.74552788013328
 30
0.0
  0
LWPOLYLINE
  5
E2
330
1F
100
AcDbEntity
  8
0
  6
Continuous
 62
     7
370
    25
100
AcDbPolyline
 90
       17
 70
   128
 43
0.0
 10
38.7510009638
 20
26.1344648714
 10
38.741220491
 20
26.098449378
 10
38.7221202438
 20
26.0636874983
 10
38.6966080618
 20
26.0354714134
 10
38.6685679434
 20
26.0180967663
 10
38.6422687423
 20
26.0142086898
 10
38.6217142737
 20
26.024399108
 10
38.610033769
 20
26.0471166223
 10
38.6090054791
 20
26.078902697
 10
38.6187859519
 20
26.1149181904
 10
38.637886199
 20
26.1496800701
 10
38.6633983811
 20
26.177896155
 10
38.6914384995
 20
26.195270802
 10
38.7177377005
 20
26.1991588786
 10
38.7382921691
 20
26.1889684604
 10
38.7499726739
 20
26.1662509461
 10
38.7510009638
 20
26.1344648714
  0
ARC
  5
E3
330
1F
100
AcDbEntity
  8
0
  6
Continuous
 62
     7
370
    25
100
AcDbCircle
 10
38.6958988876
 20
26.1630731665
 30
0.0
 40
0.0563012694546925
100
AcDbArc
 50
354.2408937308
 51
56.3061258701
  0
ARC
  5
E4
330
1F
100
AcDbEntity
  8
0
  6
Continuous
 62
     7
370
    25
100
AcDbCircle
 10
38.6391467098
 20
26.0644008106
 30
0.0
 40
0.0560277540124807
100
AcDbArc
 50
243.530820564
 51
305.9329128929
  0
ARC
  5
E5
330
1F
100
AcDbEntity
  8
0
  6
Continuous
 62
     7
370
    25
100
AcDbCircle
 10
38.6612113933
 20
26.0734561938
 30
0.0
 40
0.0247177906137201
100
AcDbArc
 50
201.8864508209
 51
298.2289641163
  0
ARC
  5
E6
330
1F
100
AcDbEntity
  8
0
  6
Continuous
 62
     7
370
    25
100
AcDbCircle
 10
38.7065780245
 20
26.083386347
 30
0.0
 40
0.0709350509429552
100
AcDbArc
 50
149.6319633621
 51
195.6573040566
  0
ARC
  5
E7
330
1F
100
AcDbEntity
  8
0
  6
Continuous
 62
     7
370
    25
100
AcDbCircle
 10
38.7246058455
 20
26.0830835455
 30
0.0
 40
0.0870935558069943
100
AcDbArc
 50
115.5054486505
 51
155.465954046
  0
ARC
  5
E8
330
1F
100
AcDbEntity
  8
0
  6
Continuous
 62
     7
370
    25
100
AcDbCircle
 10
38.6987950495
 20
26.1399113746
 30
0.0
 40
0.0247177906137115
100
AcDbArc
 50
21.8864508209
 51
118.2289641163
  0
ARC
  5
E9
330
1F
100
AcDbEntity
  8
0
  6
Continuous
 62
     7
370
    25
100
AcDbCircle
 10
38.6534284183
 20
26.1299812214
 30
0.0
 40
0.0709350509429089
100
AcDbArc
 50
329.6319633621
 51
15.6573040566
  0
ARC
  5
EA
330
1F
100
AcDbEntity
  8
0
  6
Continuous
 62
     7
370
    25
100
AcDbCircle
 10
38.6354005973
 20
26.1302840229
 30
0.0
 40
0.0870935558070194
100
AcDbArc
 50
295.5054486505
 51
335.465954046
  0
LINE
  5
EB
330
1F
100
AcDbEntity
  8
0
  6
Continuous
 62
     7
370
    25
100
AcDbLine
 10
38.6728052855
 20
26.1539683276
 30
0.0
 11
38.687103628
 21
26.1616893413
 31
0.0
  0
SPLINE
  5
EC
330
1F
100
AcDbEntity
  8
0
  6
Continuous
 62
     7
370
    25
100
AcDbSpline
210
0.0
220
0.0
230
1.0
 70
     8
 71
     3
 72
     9
 73
     5
 74
     0
 42
0.00000001
 43
0.00000001
 40
0.0
 40
0.0
 40
0.0
 40
0.0
 40
0.497129044749362
 40
1.0
 40
1.0
 40
1.0
 40
1.0
 10
38.63827515154974
 20
26.0642421835509
 30
0.0
 10
38.63741895993583
 20
26.06808615636677
 30
0.0
 10
38.63569668757425
 20
26.07581850042606
 30
0.0
 10
38.63591143502126
 20
26.08316633253421
 30
0.0
 10
38.63601942527508
 20
26.08686134388546
 30
0.0
  0
SPLINE
  5
ED
330
1F
100
AcDbEntity
  8
0
  6
Continuous
 62
     7
370
    25
100
AcDbSpline
210
0.0
220
0.0
230
1.0
 70
     8
 71
     3
 72
    10
 73
     6
 74
     0
 42
0.00000001
 43
0.00000001
 40
0.0
 40
0.0
 40
0.0
 40
0.0
 40
0.4391147205610627
 40
0.7513654971132788
 40
0.9999999999999999
 40
0.9999999999999999
 40
0.9999999999999999
 40
0.9999999999999999
 10
38.68710362796517
 20
26.16168934132342
 30
0.0
 10
38.68941234178259
 20
26.16141965763281
 30
0.0
 10
38.69336276253573
 20
26.16095820414295
 30
0.0
 10
38.70770750994493
 20
26.15532151274833
 30
0.0
 10
38.71742405139842
 20
26.15102845282692
 30
0.0
 10
38.7217312912969
 20
26.14912538484038
 30
0.0
  0
SPLINE
  5
EE
330
1F
100
AcDbEntity
  8
0
  6
Continuous
 62
     7
370
    25
100
AcDbSpline
210
0.0
220
0.0
230
1.0
 70
     8
 71
     3
 72
    10
 73
     6
 74
     0
 42
0.00000001
 43
0.00000001
 40
0.0
 40
0.0
 40
0.0
 40
0.0
 40
0.4391147205610613
 40
0.7513654971132787
 40
1.0
 40
1.0
 40
1.0
 40
1.0
 10
38.67290281488148
 20
26.05167822706787
 30
0.0
 10
38.66529713936333
 20
26.05500578165969
 30
0.0
 10
38.65228313209142
 20
26.06069953227426
 30
0.0
 10
38.64196702222301
 20
26.06401054072014
 30
0.0
 10
38.63940906630959
 20
26.06417103717335
 30
0.0
 10
38.63827515154974
 20
26.0642421835509
 30
0.0
  0
LINE
  5
EF
330
1F
100
AcDbEntity
  8
0
  6
Continuous
 62
     7
370
    25
100
AcDbLine
 10
38.6367581403
 20
26.0725441035
 30
0.0
 11
38.6729028149
 21
26.0516782271
 31
0.0
  0
LWPOLYLINE
  5
F0
330
1F
100
AcDbEntity
  8
0
  6
Continuous
 62
     7
370
    25
100
AcDbPolyline
 90
       17
 70
   128
 43
0.0
 10
38.6871358289
 20
26.1228515306
 10
38.6842507337
 20
26.1122274913
 10
38.6786164425
 20
26.1019732495
 10
38.6710907251
 20
26.0936499206
 10
38.6628193037
 20
26.088524656
 10
38.6550614273
 20
26.0873777307
 10
38.6489981622
 20
26.0903837538
 10
38.6455525856
 20
26.0970850855
 10
38.6452492553
 20
26.1064615087
 10
38.6481343505
 20
26.117085548
 10
38.6537686417
 20
26.1273397898
 10
38.6612943591
 20
26.1356631187
 10
38.6695657805
 20
26.1407883833
 10
38.6773236569
 20
26.1419353086
 10
38.683386922
 20
26.1389292855
 10
38.6868324986
 20
26.1322279539
 10
38.6871358289
 20
26.1228515306
  0
SPLINE
  5
F1
330
1F
100
AcDbEntity
  8
0
  6
Continuous
 62
     7
370
    25
100
AcDbSpline
210
0.0
220
0.0
230
1.0
 70
     8
 71
     3
 72
    10
 73
     6
 74
     0
 42
0.00000001
 43
0.00000001
 40
0.0
 40
0.0
 40
0.0
 40
0.0
 40
0.4391147205610613
 40
0.7513654971132796
 40
1.0
 40
1.0
 40
1.0
 40
1.0
 10
38.71463088475506
 20
26.09411982771261
 30
0.0
 10
38.70600873587249
 20
26.08957294815968
 30
0.0
 10
38.69125544959448
 20
26.08179282088171
 30
0.0
 10
38.67841098384677
 20
26.06551711651927
 30
0.0
 10
38.67459458435074
 20
26.05592867958846
 30
0.0
 10
38.67290281488148
 20
26.05167822706787
 30
0.0
  0
LINE
  5
F2
330
1F
100
AcDbEntity
  8
0
  6
Continuous
 62
     7
370
    25
100
AcDbLine
 10
38.6840604359
 20
26.1117677722
 30
0.0
 11
38.7146308848
 21
26.0941198277
 31
0.0
  0
SPLINE
  5
F3
330
1F
100
AcDbEntity
  8
0
  6
Continuous
 62
     7
370
    25
100
AcDbSpline
210
0.0
220
0.0
230
1.0
 70
     8
 71
     3
 72
    11
 73
     7
 74
     0
 42
0.00000001
 43
0.00000001
 40
0.0
 40
0.0
 40
0.0
 40
0.0
 40
0.1560254891889376
 40
0.4937074226657222
 40
0.8190577533761174
 40
0.9999999999999999
 40
0.9999999999999999
 40
0.9999999999999999
 40
0.9999999999999999
 10
38.7217312912969
 20
26.14912538484038
 30
0.0
 10
38.72035692029623
 20
26.14702245736567
 30
0.0
 10
38.71600803366201
 20
26.1403682183116
 30
0.0
 10
38.71121941274337
 20
26.12629413981607
 30
0.0
 10
38.71167769967112
 20
26.10861003263787
 30
0.0
 10
38.71385333983859
 20
26.09793495776978
 30
0.0
 10
38.71463088475506
 20
26.09411982771261
 30
0.0
  0
LWPOLYLINE
  5
F4
330
1F
100
AcDbEntity
  8
0
  6
Continuous
 62
     7
370
    25
100
AcDbPolyline
 90
       17
 70
   128
 43
0.0
 10
39.3175043891
 20
23.9065637722
 10
39.2953080109
 20
23.8739289308
 10
39.2682325908
 20
23.849795046
 10
39.240400116
 20
23.8378362828
 10
39.2160478284
 20
23.8398732547
 10
39.1988831432
 20
23.855595851
 10
39.1915192279
 20
23.882610449
 10
39.1950771721
 20
23.9168043211
 10
39.2090153108
 20
23.9529717602
 10
39.2312116889
 20
23.9856066015
 10
39.2582871091
 20
24.0097404864
 10
39.2861195839
 20
24.0216992495
 10
39.3104718715
 20
24.0196622777
 10
39.3276365567
 20
24.0039396814
 10
39.335000472
 20
23.9769250834
 10
39.3314425278
 20
23.9427312113
 10
39.3175043891
 20
23.9065637722
  0
ARC
  5
F5
330
1F
100
AcDbEntity
  8
0
  6
Continuous
 62
     7
370
    25
100
AcDbCircle
 10
39.2783295831
 20
23.9857671988
 30
0.0
 40
0.0570858456091793
100
AcDbArc
 50
354.7134913698
 51
55.8335284498
  0
ARC
  5
F6
330
1F
100
AcDbEntity
  8
0
  6
Continuous
 62
     7
370
    25
100
AcDbCircle
 10
39.2224814293
 20
23.8865413796
 30
0.0
 40
0.0552202189930953
100
AcDbArc
 50
243.0219813998
 51
306.4417517998
  0
ARC
  5
F7
330
1F
100
AcDbEntity
  8
0
  6
Continuous
 62
     7
370
    25
100
AcDbCircle
 10
39.2530712643
 20
23.9036231636
 30
0.0
 40
0.035302874949939
100
AcDbArc
 50
162.3336890688
 51
237.1951688797
  0
ARC
  5
F8
330
1F
100
AcDbEntity
  8
0
  6
Continuous
 62
     7
370
    25
100
AcDbCircle
 10
39.3210969167
 20
23.8965502465
 30
0.0
 40
0.1032078118969763
100
AcDbArc
 50
134.5073093216
 51
170.0763556422
  0
ARC
  5
F9
330
1F
100
AcDbEntity
  8
0
  6
Continuous
 62
     7
370
    25
100
AcDbCircle
 10
39.2828198283
 20
23.9433382742
 30
0.0
 40
0.0433585043323352
100
AcDbArc
 50
76.9980670301
 51
141.7957989519
  0
ARC
  5
FA
330
1F
100
AcDbEntity
  8
0
  6
Continuous
 62
     7
370
    25
100
AcDbCircle
 10
39.2734484356
 20
23.9559123687
 30
0.0
 40
0.035302874949958
100
AcDbArc
 50
342.3336890688
 51
57.1951688796
  0
ARC
  5
FB
330
1F
100
AcDbEntity
  8
0
  6
Continuous
 62
     7
370
    25
100
AcDbCircle
 10
39.2054227831
 20
23.9629852859
 30
0.0
 40
0.1032078118970512
100
AcDbArc
 50
314.5073093216
 51
350.0763556422
  0
ARC
  5
FC
330
1F
100
AcDbEntity
  8
0
  6
Continuous
 62
     7
370
    25
100
AcDbCircle
 10
39.2436998716
 20
23.9161972581
 30
0.0
 40
0.0433585043323347
100
AcDbArc
 50
256.9980670301
 51
321.7957989519
  0
SPLINE
  5
FD
330
1F
100
AcDbEntity
  8
0
  6
Continuous
 62
     7
370
    25
100
AcDbSpline
210
0.0
220
0.0
230
1.0
 70
     8
 71
     3
 72
    10
 73
     6
 74
     0
 42
0.00000001
 43
0.00000001
 40
0.0
 40
0.0
 40
0.0
 40
0.0
 40
0.1585302403061188
 40
0.6269853692630648
 40
1.0
 40
1.0
 40
1.0
 40
1.0
 10
39.2588323587467
 20
23.97785482072578
 30
0.0
 10
39.25980989298666
 20
23.97870743108492
 30
0.0
 10
39.26367603023105
 20
23.98207949574485
 30
0.0
 10
39.27640515651278
 20
23.98452757146274
 30
0.0
 10
39.28760848014409
 20
23.9852603436716
 30
0.0
 10
39.29257479483244
 20
23.98558517382948
 30
0.0
  0
SPLINE
  5
FE
330
1F
100
AcDbEntity
  8
0
  6
Continuous
 62
     7
370
    25
100
AcDbSpline
210
0.0
220
0.0
230
1.0
 70
     8
 71
     3
 72
     9
 73
     5
 74
     0
 42
0.00000001
 43
0.00000001
 40
0.0
 40
0.0
 40
0.0
 40
0.0
 40
0.5844222582060569
 40
1.0
 40
1.0
 40
1.0
 40
1.0
 10
39.23394490505083
 20
23.87395035851426
 30
0.0
 10
39.22910113869937
 20
23.88135946114586
 30
0.0
 10
39.22081301092285
 20
23.89403711420846
 30
0.0
 10
39.21927733115807
 20
23.90327152308488
 30
0.0
 10
39.2186391368293
 20
23.90710913787255
 30
0.0
  0
LWPOLYLINE
  5
FF
330
1F
100
AcDbEntity
  8
0
  6
Continuous
 62
     7
370
    25
100
AcDbPolyline
 90
       17
 70
   128
 43
0.0
 10
39.2654505096
 20
23.9308956657
 10
39.2589029054
 20
23.9212688688
 10
39.2509160558
 20
23.9141497287
 10
39.2427058863
 20
23.91062207
 10
39.2355223206
 20
23.9112229466
 10
39.2304589916
 20
23.9158608806
 10
39.2282867452
 20
23.9238297886
 10
39.2293362863
 20
23.9339164765
 10
39.2334478316
 20
23.9445853376
 10
39.2399954358
 20
23.9542121345
 10
39.2479822854
 20
23.9613312746
 10
39.256192455
 20
23.9648589333
 10
39.2633760206
 20
23.9642580567
 10
39.2684393496
 20
23.9596201226
 10
39.270611596
 20
23.9516512147
 10
39.269562055
 20
23.9415645267
 10
39.2654505096
 20
23.9308956657
  0
LINE
  5
100
330
1F
100
AcDbEntity
  8
0
  6
Continuous
 62
     7
370
    25
100
AcDbLine
 10
39.2547060321
 20
23.9754374644
 30
0.0
 11
39.3070864299
 21
23.9451989044
 31
0.0
  0
SPLINE
  5
101
330
1F
100
AcDbEntity
  8
0
  6
Continuous
 62
     7
370
    25
100
AcDbSpline
210
0.0
220
0.0
230
1.0
 70
     8
 71
     3
 72
    10
 73
     6
 74
     0
 42
0.00000001
 43
0.00000001
 40
0.0
 40
0.0
 40
0.0
 40
0.0
 40
0.4391147205610643
 40
0.7513654971132812
 40
1.0
 40
1.0
 40
1.0
 40
1.0
 10
39.29257479483244
 20
23.98558517382948
 30
0.0
 10
39.2920037570729
 20
23.98133252946292
 30
0.0
 10
39.29102665917576
 20
23.97405586553226
 30
0.0
 10
39.29820836908155
 20
23.95851203599249
 30
0.0
 10
39.3043596376824
 20
23.94928787656764
 30
0.0
 10
39.30708642989244
 20
23.94519890440663
 30
0.0
  0
SPLINE
  5
102
330
1F
100
AcDbEntity
  8
0
  6
Continuous
 62
     7
370
    25
100
AcDbSpline
210
0.0
220
0.0
230
1.0
 70
     8
 71
     3
 72
    10
 73
     6
 74
     0
 42
0.00000001
 43
0.00000001
 40
0.0
 40
0.0
 40
0.0
 40
0.0
 40
0.4391147205610618
 40
0.7513654971132808
 40
0.9999999999999999
 40
0.9999999999999999
 40
0.9999999999999999
 40
0.9999999999999999
 10
39.27777148500163
 20
23.88938149674902
 30
0.0
 10
39.26884891957448
 20
23.88870135573258
 30
0.0
 10
39.2535815930792
 20
23.88753757217216
 30
0.0
 10
39.2399898771198
 20
23.88087991728816
 30
0.0
 10
39.23580154729496
 20
23.87607869118579
 30
0.0
 10
39.23394490505083
 20
23.87395035851426
 30
0.0
  0
LINE
  5
103
330
1F
100
AcDbEntity
  8
0
  6
Continuous
 62
     7
370
    25
100
AcDbLine
 10
39.2413245063
 20
23.9104218897
 30
0.0
 11
39.277771485
 21
23.8893814967
 31
0.0
  0
SPLINE
  5
104
330
1F
100
AcDbEntity
  8
0
  6
Continuous
 62
     7
370
    25
100
AcDbSpline
210
0.0
220
0.0
230
1.0
 70
     8
 71
     3
 72
    11
 73
     7
 74
     0
 42
0.00000001
 43
0.00000001
 40
0.0
 40
0.0
 40
0.0
 40
0.0
 40
0.1560254891889376
 40
0.4937074226657221
 40
0.8190577533761187
 40
1.0
 40
1.0
 40
1.0
 40
1.0
 10
39.30708642989244
 20
23.94519890440663
 30
0.0
 10
39.3046234665423
 20
23.94305619333337
 30
0.0
 10
39.29682997527343
 20
23.93627606806668
 30
0.0
 10
39.28571257948404
 20
23.92197069873128
 30
0.0
 10
39.27962370170105
 20
23.90404731945767
 30
0.0
 10
39.27825915564802
 20
23.89324286526088
 30
0.0
 10
39.27777148500163
 20
23.88938149674902
 30
0.0
  0
LWPOLYLINE
  5
105
330
1F
100
AcDbEntity
  8
0
  6
Continuous
 62
     7
370
    25
100
AcDbPolyline
 90
       17
 70
   128
 43
0.0
 10
37.0855339278
 20
23.2630821288
 10
37.0580914672
 20
23.2539947523
 10
37.0349764568
 20
23.2590184418
 10
37.0197079475
 20
23.2773883863
 10
37.0146104315
 20
23.3063079282
 10
37.0204599592
 20
23.3413743293
 10
37.0363659932
 20
23.3772490481
 10
37.059906984
 20
23.4084704838
 10
37.0874990291
 20
23.4302854558
 10
37.1149414898
 20
23.4393728323
 10
37.1380565001
 20
23.4343491428
 10
37.1533250094
 20
23.4159791983
 10
37.1584225255
 20
23.3870596564
 10
37.1525729977
 20
23.3519932553
 10
37.1366669637
 20
23.3161185365
 10
37.1131259729
 20
23.2848971008
 10
37.0855339278
 20
23.2630821288
  0
ARC
  5
106
330
1F
100
AcDbEntity
  8
0
  6
Continuous
 62
     7
370
    25
100
AcDbCircle
 10
37.1037866127
 20
23.4037221054
 30
0.0
 40
0.055004438303018
100
AcDbArc
 50
353.42464636
 51
57.122373348
  0
ARC
  5
107
330
1F
100
AcDbEntity
  8
0
  6
Continuous
 62
     7
370
    25
100
AcDbCircle
 10
37.0458762473
 20
23.2997737867
 30
0.0
 40
0.0520310833855244
100
AcDbArc
 50
241.0458233056
 51
307.3387272058
  0
ARC
  5
108
330
1F
100
AcDbEntity
  8
0
  6
Continuous
 62
     7
370
    25
100
AcDbCircle
 10
37.1393080183
 20
23.3161687319
 30
0.0
 40
0.0975915360263527
100
AcDbArc
 50
139.8429114529
 51
176.8016910691
  0
ARC
  5
109
330
1F
100
AcDbEntity
  8
0
  6
Continuous
 62
     7
370
    25
100
AcDbCircle
 10
37.1117256171
 20
23.3476847842
 30
0.0
 40
0.0565386830417584
100
AcDbArc
 50
92.389045389
 51
146.2401254111
  0
ARC
  5
10A
330
1F
100
AcDbEntity
  8
0
  6
Continuous
 62
     7
370
    25
100
AcDbCircle
 10
37.1034300694
 20
23.3766452165
 30
0.0
 40
0.0281623969375193
100
AcDbArc
 50
349.9982534124
 51
77.8263482021
  0
ARC
  5
10B
330
1F
100
AcDbEntity
  8
0
  6
Continuous
 62
     7
370
    25
100
AcDbCircle
 10
37.0337249386
 20
23.3771988527
 30
0.0
 40
0.0975915360263317
100
AcDbArc
 50
319.8429114529
 51
356.8016910691
  0
ARC
  5
10C
330
1F
100
AcDbEntity
  8
0
  6
Continuous
 62
     7
370
    25
100
AcDbCircle
 10
37.0613073398
 20
23.3456828004
 30
0.0
 40
0.0565386830417474
100
AcDbArc
 50
272.389045389
 51
326.2401254111
  0
ARC
  5
10D
330
1F
100
AcDbEntity
  8
0
  6
Continuous
 62
     7
370
    25
100
AcDbCircle
 10
37.0696028875
 20
23.3167223681
 30
0.0
 40
0.0281623969375359
100
AcDbArc
 50
169.9982534124
 51
257.8263482021
  0
SPLINE
  5
10E
330
1F
100
AcDbEntity
  8
0
  6
Continuous
 62
     7
370
    25
100
AcDbSpline
210
0.0
220
0.0
230
1.0
 70
     8
 71
     3
 72
    10
 73
     6
 74
     0
 42
0.00000001
 43
0.00000001
 40
0.0
 40
0.0
 40
0.0
 40
0.0
 40
0.0347695583290878
 40
0.6949599197261237
 40
1.0
 40
1.0
 40
1.0
 40
1.0
 10
37.08068636405584
 20
23.39471447595459
 30
0.0
 10
37.08090647963034
 20
23.39489612482424
 30
0.0
 10
37.08530606102673
 20
23.39852684922619
 30
0.0
 10
37.09616050401038
 20
23.40144425568827
 30
0.0
 10
37.10619700536895
 20
23.40351873179723
 30
0.0
 10
37.10936882325608
 20
23.40417432483646
 30
0.0
  0
SPLINE
  5
10F
330
1F
100
AcDbEntity
  8
0
  6
Continuous
 62
     7
370
    25
100
AcDbSpline
210
0.0
220
0.0
230
1.0
 70
     8
 71
     3
 72
    10
 73
     6
 74
     0
 42
0.00000001
 43
0.00000001
 40
0.0
 40
0.0
 40
0.0
 40
0.0
 40
0.439114720561062
 40
0.75136549711328
 40
1.0
 40
1.0
 40
1.0
 40
1.0
 10
37.06366413366383
 20
23.28919325975541
 30
0.0
 10
37.05789545238559
 20
23.29536339059861
 30
0.0
 10
37.04802471047384
 20
23.3059210494772
 30
0.0
 10
37.04227790399236
 20
23.31630262625192
 30
0.0
 10
37.0419942365094
 20
23.31998237069224
 30
0.0
 10
37.0418684897191
 20
23.3216135624229
 30
0.0
  0
LWPOLYLINE
  5
110
330
1F
100
AcDbEntity
  8
0
  6
Continuous
 62
     7
370
    25
100
AcDbPolyline
 90
       17
 70
   128
 43
0.0
 10
37.0724159612
 20
23.3299952701
 10
37.0643208401
 20
23.3273146281
 10
37.0575022529
 20
23.3287965424
 10
37.0529982679
 20
23.334215405
 10
37.0514945758
 20
23.3427462434
 10
37.0532201003
 20
23.3530903145
 10
37.0579121457
 20
23.3636728274
 10
37.0648563907
 20
23.3728826904
 10
37.0729956371
 20
23.3793177854
 10
37.0810907582
 20
23.3819984275
 10
37.0879093454
 20
23.3805165132
 10
37.0924133304
 20
23.3750976505
 10
37.0939170224
 20
23.3665668122
 10
37.092191498
 20
23.356222741
 10
37.0874994526
 20
23.3456402281
 10
37.0805552075
 20
23.3364303651
 10
37.0724159612
 20
23.3299952701
  0
SPLINE
  5
111
330
1F
100
AcDbEntity
  8
0
  6
Continuous
 62
     7
370
    25
100
AcDbSpline
210
0.0
220
0.0
230
1.0
 70
     8
 71
     3
 72
    10
 73
     6
 74
     0
 42
0.00000001
 43
0.00000001
 40
0.0
 40
0.0
 40
0.0
 40
0.0
 40
0.4391147205610588
 40
0.7513654971132764
 40
1.0
 40
1.0
 40
1.0
 40
1.0
 10
37.10936882325608
 20
23.40417432483646
 30
0.0
 10
37.10984054283357
 20
23.40106206489448
 30
0.0
 10
37.11064769822657
 20
23.39573670314059
 30
0.0
 10
37.12042314224885
 20
23.38302944341713
 30
0.0
 10
37.12786539527189
 20
23.37521713550861
 30
0.0
 10
37.13116446720081
 20
23.37175402216896
 30
0.0
  0
LINE
  5
112
330
1F
100
AcDbEntity
  8
0
  6
Continuous
 62
     7
370
    25
100
AcDbLine
 10
37.0858991354
 20
23.397885142
 30
0.0
 11
37.1311644672
 21
23.3717540222
 31
0.0
  0
SPLINE
  5
113
330
1F
100
AcDbEntity
  8
0
  6
Continuous
 62
     7
370
    25
100
AcDbSpline
210
0.0
220
0.0
230
1.0
 70
     8
 71
     3
 72
    11
 73
     7
 74
     0
 42
0.00000001
 43
0.00000001
 40
0.0
 40
0.0
 40
0.0
 40
0.0
 40
0.1560254891889394
 40
0.4937074226657209
 40
0.8190577533761176
 40
1.0
 40
1.0
 40
1.0
 40
1.0
 10
37.10831212240469
 20
23.31426348962844
 30
0.0
 10
37.10509778470831
 20
23.31362750095372
 30
0.0
 10
37.09492673901631
 20
23.31161505842866
 30
0.0
 10
37.0794410605696
 20
23.30606935643599
 30
0.0
 10
37.06883316186318
 20
23.29720791822926
 30
0.0
 10
37.0650250885262
 20
23.29130344139875
 30
0.0
 10
37.06366413366383
 20
23.28919325975541
 30
0.0
  0
LINE
  5
114
330
1F
100
AcDbEntity
  8
0
  6
Continuous
 62
     7
370
    25
100
AcDbLine
 10
37.0764137863
 20
23.3326780071
 30
0.0
 11
37.1083121224
 21
23.3142634896
 31
0.0
  0
SPLINE
  5
115
330
1F
100
AcDbEntity
  8
0
  6
Continuous
 62
     7
370
    25
100
AcDbSpline
210
0.0
220
0.0
230
1.0
 70
     8
 71
     3
 72
    10
 73
     6
 74
     0
 42
0.00000001
 43
0.00000001
 40
0.0
 40
0.0
 40
0.0
 40
0.0
 40
0.4391147205610594
 40
0.7513654971132777
 40
0.9999999999999999
 40
0.9999999999999999
 40
0.9999999999999999
 40
0.9999999999999999
 10
37.13116446720081
 20
23.37175402216896
 30
0.0
 10
37.12524451172958
 20
23.36505278168688
 30
0.0
 10
37.11511492582125
 20
23.35358634558186
 30
0.0
 10
37.10899184288369
 20
23.33195192616395
 30
0.0
 10
37.10852089057452
 20
23.31969628536842
 30
0.0
 10
37.10831212240469
 20
23.31426348962844
 30
0.0
  0
LWPOLYLINE
  5
116
330
1F
100
AcDbEntity
  8
0
  6
Continuous
 62
     7
370
    25
100
AcDbPolyline
 90
       22
 70
   128
 43
0.0
 10
34.3469910082
 20
21.4783451937
 10
34.350899749
 20
21.4425330994
 10
34.3449177724
 20
21.4013720674
 10
34.3295766033
 20
21.358519436
 10
34.3062393718
 20
21.3177828495
 10
34.2769796934
 20
21.2827819325
 10
34.2443974188
 20
21.2566266701
 10
34.2113876263
 20
21.241641072
 10
34.1808833807
 20
21.2391566745
 10
34.1555951181
 20
21.2493942271
 10
34.1377698116
 20
21.2714440783
 10
34.1289913179
 20
21.3033470022
 10
34.1300396447
 20
21.342268284
 10
34.1408216436
 20
21.3847495969
 10
34.1603792866
 20
21.4270162898
 10
34.1869747914
 20
21.4653127817
 10
34.2182450306
 20
21.4962362611
 10
34.2514115062
 20
21.5170390413
 10
34.2835272314
 20
21.5258727038
 10
34.311738583
 20
21.521952339
 10
34.3335388587
 20
21.5056262886
 10
34.3469910082
 20
21.4783451937
  0
LINE
  5
117
330
1F
100
AcDbEntity
  8
0
  6
Continuous
 62
     7
370
    25
100
AcDbLine
 10
34.2597425646
 20
21.4829036793
 30
0.0
 11
34.3163606625
 21
21.4509642577
 31
0.0
  0
LINE
  5
118
330
1F
100
AcDbEntity
  8
0
  6
Continuous
 62
     7
370
    25
100
AcDbLine
 10
34.3163606625
 20
21.4509642577
 30
0.0
 11
34.2962040715
 21
21.3503947636
 31
0.0
  0
LINE
  5
119
330
1F
100
AcDbEntity
  8
0
  6
Continuous
 62
     7
370
    25
100
AcDbLine
 10
34.2962040715
 20
21.3503947636
 30
0.0
 11
34.2194293828
 21
21.2817646911
 31
0.0
  0
LINE
  5
11A
330
1F
100
AcDbEntity
  8
0
  6
Continuous
 62
     7
370
    25
100
AcDbLine
 10
34.2194293828
 20
21.2817646911
 30
0.0
 11
34.1628112849
 21
21.3137041127
 31
0.0
  0
LINE
  5
11B
330
1F
100
AcDbEntity
  8
0
  6
Continuous
 62
     7
370
    25
100
AcDbLine
 10
34.1628112849
 20
21.3137041127
 30
0.0
 11
34.1829678759
 21
21.4142736068
 31
0.0
  0
LINE
  5
11C
330
1F
100
AcDbEntity
  8
0
  6
Continuous
 62
     7
370
    25
100
AcDbLine
 10
34.1829678759
 20
21.4142736068
 30
0.0
 11
34.2597425646
 21
21.4829036793
 31
0.0
  0
LINE
  5
11D
330
1F
100
AcDbEntity
  8
0
  6
Continuous
 62
     7
370
    25
100
AcDbLine
 10
34.1629452082
 20
21.314372311
 30
0.0
 11
34.2194293828
 21
21.2817646911
 31
0.0
  0
LINE
  5
11E
330
1F
100
AcDbEntity
  8
0
  6
Continuous
 62
     7
370
    25
100
AcDbLine
 10
34.1901380544
 20
21.411625372
 30
0.0
 11
34.1807562339
 21
21.4032388187
 31
0.0
  0
LINE
  5
11F
330
1F
100
AcDbEntity
  8
0
  6
Continuous
 62
     7
370
    25
100
AcDbLine
 10
34.1923496963
 20
21.42266016
 30
0.0
 11
34.1901380544
 21
21.411625372
 31
0.0
  0
LINE
  5
120
330
1F
100
AcDbEntity
  8
0
  6
Continuous
 62
     7
370
    25
100
AcDbLine
 10
34.1901380544
 20
21.411625372
 30
0.0
 11
34.2962040715
 21
21.3503947636
 31
0.0
  0
LWPOLYLINE
  5
121
330
1F
100
AcDbEntity
  8
0
  6
Continuous
 62
     7
370
    25
100
AcDbPolyline
 90
       22
 70
   128
 43
0.0
 10
34.1970028523
 20
23.06892589
 10
34.2317502644
 20
23.0977606691
 10
34.2671939137
 20
23.1147804455
 10
34.3001844764
 20
23.1184729374
 10
34.3277905961
 20
23.1085100506
 10
34.3475593481
 20
23.0857770313
 10
34.3577341919
 20
23.0522938082
 10
34.3574110481
 20
23.0110355124
 10
34.3466186293
 20
22.9656681246
 10
34.3263158894
 20
22.9202227364
 10
34.2983068158
 20
22.8787373699
 10
34.2650801378
 20
22.844898182
 10
34.2295881914
 20
22.821711933
 10
34.1949845918
 20
22.8112388229
 10
34.1643440207
 20
22.8144094335
 10
34.1403890273
 20
22.8309420421
 10
34.125248118
 20
22.8593676539
 10
34.1202666289
 20
22.8971605285
 10
34.1258871872
 20
22.9409626033
 10
34.1416103816
 20
22.9868818715
 10
34.1660391374
 20
23.0308382048
 10
34.1970028523
 20
23.06892589
  0
LWPOLYLINE
  5
122
330
1F
100
AcDbEntity
  8
0
  6
Continuous
 62
     7
370
    25
100
AcDbPolyline
 90
       12
 70
   128
 43
0.0
 10
34.1790131422
 20
23.0881503395
 10
34.1473526755
 20
23.049828637
 10
34.1215494267
 20
23.0057676777
 10
34.1035171047
 20
22.9592352615
 10
34.0945930843
 20
22.9136824847
 10
34.0954392193
 20
22.8724877885
 10
34.1059927557
 20
22.8387063949
 10
34.1254709861
 20
22.8148437155
 10
34.1524292991
 20
22.802669536
 10
34.1848683201
 20
22.8030867596
 10
34.2203821952
 20
22.8160644427
 10
34.2263492699
 20
22.8193551441
  0
LWPOLYLINE
  5
123
330
1F
100
AcDbEntity
  8
0
  6
Continuous
 62
     7
370
    25
100
AcDbPolyline
 90
        9
 70
   128
 43
0.0
 10
34.358910243
 20
23.0489823652
 10
34.358873833
 20
23.0525491757
 10
34.3531204096
 20
23.090389669
 10
34.3379633525
 20
23.1194826793
 10
34.3145267914
 20
23.1376705112
 10
34.2845489088
 20
23.1436042564
 10
34.250253027
 20
23.1368438362
 10
34.2141827148
 20
23.1178906399
 10
34.1790131422
 20
23.0881503395
  0
ARC
  5
124
330
1F
100
AcDbEntity
  8
0
  6
Continuous
 62
     7
370
    25
100
AcDbCircle
 10
34.1941768806
 20
23.0047082749
 30
0.0
 40
0.1214580046365146
100
AcDbArc
 50
329.656303379
 51
15.7195462221
  0
ARC
  5
125
330
1F
100
AcDbEntity
  8
0
  6
Continuous
 62
     7
370
    25
100
AcDbCircle
 10
34.1630322209
 20
23.0053343229
 30
0.0
 40
0.1494268832345442
100
AcDbArc
 50
295.5543714681
 51
335.4921595473
  0
ARC
  5
126
330
1F
100
AcDbEntity
  8
0
  6
Continuous
 62
     7
370
    25
100
AcDbCircle
 10
34.2073847211
 20
22.9078454986
 30
0.0
 40
0.042391649259056
100
AcDbArc
 50
201.9992744658
 51
298.312293374
  0
ARC
  5
127
330
1F
100
AcDbEntity
  8
0
  6
Continuous
 62
     7
370
    25
100
AcDbCircle
 10
34.2849950667
 20
22.9248722823
 30
0.0
 40
0.1214580046367445
100
AcDbArc
 50
149.656303379
 51
195.719546222
  0
ARC
  5
128
330
1F
100
AcDbEntity
  8
0
  6
Continuous
 62
     7
370
    25
100
AcDbCircle
 10
34.3161397265
 20
22.9242462343
 30
0.0
 40
0.1494268832347221
100
AcDbArc
 50
115.5543714681
 51
155.4921595473
  0
ARC
  5
129
330
1F
100
AcDbEntity
  8
0
  6
Continuous
 62
     7
370
    25
100
AcDbCircle
 10
34.2717872263
 20
23.0217350587
 30
0.0
 40
0.0423916492588924
100
AcDbArc
 50
21.9992744656
 51
118.3122933742
  0
LINE
  5
12A
330
1F
100
AcDbEntity
  8
0
  6
Continuous
 62
     7
370
    25
100
AcDbLine
 10
34.1680796673
 20
22.891965805
 30
0.0
 11
34.1641063941
 21
22.9309552348
 31
0.0
  0
LINE
  5
12B
330
1F
100
AcDbEntity
  8
0
  6
Continuous
 62
     7
370
    25
100
AcDbLine
 10
34.2340076804
 20
23.049937337
 30
0.0
 11
34.2516818373
 21
23.0590556329
 31
0.0
  0
SPLINE
  5
12C
330
1F
100
AcDbEntity
  8
0
  6
Continuous
 62
     7
370
    25
100
AcDbSpline
210
0.0
220
0.0
230
1.0
 70
     8
 71
     3
 72
    10
 73
     6
 74
     0
 42
0.00000001
 43
0.00000001
 40
0.0
 40
0.0
 40
0.0
 40
0.0
 40
0.4391249614232446
 40
0.7513736477014473
 40
0.9999999999999999
 40
0.9999999999999999
 40
0.9999999999999999
 40
0.9999999999999999
 10
34.25168183725739
 20
23.05905563288692
 30
0.0
 10
34.25564673881187
 20
23.05860722326251
 30
0.0
 10
34.26243096381723
 20
23.05783996290438
 30
0.0
 10
34.28703959288978
 20
23.04821155084362
 30
0.0
 10
34.30370485380487
 20
23.04086940187911
 30
0.0
 10
34.31109228014129
 20
23.0376147522878
 30
0.0
  0
SPLINE
  5
12D
330
1F
100
AcDbEntity
  8
0
  6
Continuous
 62
     7
370
    25
100
AcDbSpline
210
0.0
220
0.0
230
1.0
 70
     8
 71
     3
 72
    10
 73
     6
 74
     0
 42
0.00000001
 43
0.00000001
 40
0.0
 40
0.0
 40
0.0
 40
0.0
 40
0.4391249614229248
 40
0.7513736477007497
 40
1.0
 40
1.0
 40
1.0
 40
1.0
 10
34.22749011013951
 20
22.87052492435208
 30
0.0
 10
34.21444453128407
 20
22.87621549739977
 30
0.0
 10
34.19212262970228
 20
22.88595246751982
 30
0.0
 10
34.17442087924688
 20
22.89159362342593
 30
0.0
 10
34.17002727651769
 20
22.89185149491287
 30
0.0
 10
34.16807966725559
 20
22.89196580495119
 30
0.0
  0
LINE
  5
12E
330
1F
100
AcDbEntity
  8
0
  6
Continuous
 62
     7
370
    25
100
AcDbLine
 10
34.1666876638
 20
22.9056254295
 30
0.0
 11
34.2274901101
 21
22.8705249244
 31
0.0
  0
LINE
  5
12F
330
1F
100
AcDbEntity
  8
0
  6
Continuous
 62
     7
370
    25
100
AcDbLine
 10
34.1995595255
 20
23.0007530934
 30
0.0
 11
34.1755877059
 21
22.9763393706
 31
0.0
  0
LINE
  5
130
330
1F
100
AcDbEntity
  8
0
  6
Continuous
 62
     7
370
    25
100
AcDbLine
 10
34.2020492964
 20
23.0201563493
 30
0.0
 11
34.1995595255
 21
23.0007530934
 31
0.0
  0
LINE
  5
131
330
1F
100
AcDbEntity
  8
0
  6
Continuous
 62
     7
370
    25
100
AcDbLine
 10
34.1995595255
 20
23.0007530934
 30
0.0
 11
34.2989964166
 21
22.943349398
 31
0.0
  0
SPLINE
  5
132
330
1F
100
AcDbEntity
  8
0
  6
Continuous
 62
     7
370
    25
100
AcDbSpline
210
0.0
220
0.0
230
1.0
 70
     8
 71
     3
 72
    10
 73
     6
 74
     0
 42
0.00000001
 43
0.00000001
 40
0.0
 40
0.0
 40
0.0
 40
0.0
 40
0.4391249614230527
 40
0.7513736477006238
 40
1.0
 40
1.0
 40
1.0
 40
1.0
 10
34.31109228014129
 20
23.0376147522878
 30
0.0
 10
34.30482028927511
 20
23.02674074050858
 30
0.0
 10
34.29408847243602
 20
23.00813454269823
 30
0.0
 10
34.29323475164743
 20
22.972574400707
 30
0.0
 10
34.29722680660753
 20
22.95232542436916
 30
0.0
 10
34.29899641658238
 20
22.94334939802032
 30
0.0
  0
SPLINE
  5
133
330
1F
100
AcDbEntity
  8
0
  6
Continuous
 62
     7
370
    25
100
AcDbSpline
210
0.0
220
0.0
230
1.0
 70
     8
 71
     3
 72
    11
 73
     7
 74
     0
 42
0.00000001
 43
0.00000001
 40
0.0
 40
0.0
 40
0.0
 40
0.0
 40
0.1809422465197105
 40
0.506292577265547
 40
0.8439745107796225
 40
1.0
 40
1.0
 40
1.0
 40
1.0
 10
34.29899641658238
 20
22.94334939802032
 30
0.0
 10
34.29289762808676
 20
22.94037141896595
 30
0.0
 10
34.27583267280388
 20
22.93203876741839
 30
0.0
 10
34.25038496911
 20
22.91310013551083
 30
0.0
 10
34.23475460239713
 20
22.88961582723373
 30
0.0
 10
34.22923458996742
 20
22.87510937344949
 30
0.0
 10
34.22749011013951
 20
22.87052492435208
 30
0.0
  0
LWPOLYLINE
  5
134
330
1F
100
AcDbEntity
  8
0
  6
Continuous
 62
     7
370
    25
100
AcDbPolyline
 90
       18
 70
   128
 43
0.0
 10
34.068822715
 20
23.922795586
 10
34.0165834736
 20
23.9412592174
 10
33.9551511771
 20
23.9489345242
 10
33.889204177
 20
23.9439421174
 10
33.819970941
 20
23.926374996
 10
33.7487411533
 20
23.8965604023
 10
33.6768416901
 20
23.8550537257
 10
33.6056119025
 20
23.8026281571
 10
33.5363786665
 20
23.7402602857
 10
33.4704316663
 20
23.6691119068
 10
33.4089993698
 20
23.5905083802
 10
33.3532261444
 20
23.5059139408
 10
33.3041509399
 20
23.4169044229
 10
33.2626879343
 20
23.3251379056
 10
33.2296095051
 20
23.2323238254
 10
33.2055318407
 20
23.1401911329
 10
33.1909034626
 20
23.0504560859
 10
33.1859968697
 20
22.9647902786
  0
ARC
  5
135
330
1F
100
AcDbEntity
  8
0
  6
Continuous
 62
     7
370
    25
100
AcDbCircle
 10
33.7172010815
 20
24.0036911526
 30
0.0
 40
1.166830296382731
100
AcDbArc
 50
242.9187189056
 51
288.2729326866
  0
LWPOLYLINE
  5
136
330
1F
100
AcDbEntity
  8
0
  6
Continuous
 62
     7
370
    25
100
AcDbPolyline
 90
       12
 70
   128
 43
0.0
 10
34.0830536025
 20
22.8956997837
 10
34.088647898
 20
22.9438601867
 10
34.104977568
 20
22.9945779564
 10
34.1307196797
 20
23.0437442406
 10
34.1637887604
 20
23.0873758796
 10
34.2015057497
 20
23.1219380973
 10
34.2408150416
 20
23.1446308685
 10
34.278532031
 20
23.1536157597
 10
34.3116011116
 20
23.1481648686
 10
34.3373432233
 20
23.1287197939
 10
34.3536728933
 20
23.0968558599
 10
34.3592671889
 20
23.0551544931
  0
LINE
  5
137
330
1F
100
AcDbEntity
  8
0
  6
Continuous
 62
     7
370
    25
100
AcDbLine
 10
33.1859968697
 20
22.2968598945
 30
0.0
 11
33.1859968697
 21
22.9647902786
 31
0.0
  0
LWPOLYLINE
  5
138
330
1F
100
AcDbEntity
  8
0
  6
Continuous
 62
     7
370
    25
100
AcDbPolyline
 90
       11
 70
   128
 43
0.0
 10
33.1859968697
 20
22.2968598945
 10
33.1191716137
 20
22.3411023252
 10
33.0634043715
 20
22.3901856347
 10
33.0197339814
 20
22.4431954938
 10
32.9889739401
 20
22.4991444292
 10
32.971697249
 20
22.5569902179
 10
32.9682257401
 20
22.6156553025
 10
32.978624081
 20
22.6740468633
 10
33.0026985704
 20
22.7310771762
 10
33.0400007461
 20
22.7856838742
 10
33.0881008476
 20
22.8353156655
  0
SPLINE
  5
139
330
1F
100
AcDbEntity
  8
0
  6
Continuous
 62
     7
370
    25
100
AcDbSpline
210
0.0
220
0.0
230
1.0
 70
     8
 71
     3
 72
    15
 73
    11
 74
     0
 42
0.00000001
 43
0.00000001
 40
0.0
 40
0.0
 40
0.0
 40
0.0
 40
0.1264530887231173
 40
0.2527989175329287
 40
0.3819077902065124
 40
0.5129698876992054
 40
0.6411027205987058
 40
0.7661371138633092
 40
0.89241648723461
 40
1.0
 40
1.0
 40
1.0
 40
1.0
 10
34.08305360246094
 20
22.89569978373815
 30
0.0
 10
34.08493863444844
 20
22.87872572443515
 30
0.0
 10
34.08870709950347
 20
22.84479200354889
 30
0.0
 10
34.11728245839971
 20
22.80770003829684
 30
0.0
 10
34.15781834396869
 20
22.78712543540913
 30
0.0
 10
34.20599216038712
 20
22.78785622729626
 30
0.0
 10
34.25378985861236
 20
22.81071186494158
 30
0.0
 10
34.29500921508217
 20
22.85226635508355
 30
0.0
 10
34.32642227570182
 20
22.90412485503544
 30
0.0
 10
34.33836726351938
 20
22.94210386564178
 30
0.0
 10
34.34386229426403
 20
22.95957527993878
 30
0.0
  0
LINE
  5
13A
330
1F
100
AcDbEntity
  8
0
  6
Continuous
 62
     7
370
    25
100
AcDbLine
 10
34.358910243
 20
23.0466388958
 30
0.0
 11
34.3592671889
 21
23.0551544931
 31
0.0
  0
LWPOLYLINE
  5
13B
330
1F
100
AcDbEntity
  8
0
  6
Continuous
 62
     7
370
    25
100
AcDbPolyline
 90
       25
 70
   128
 43
0.0
 10
32.9677914217
 20
21.0740405979
 10
32.971697249
 20
21.0300588997
 10
32.9889739401
 20
20.9722131109
 10
33.0197339814
 20
20.9162641756
 10
33.0634043715
 20
20.8632543165
 10
33.1191716137
 20
20.814171007
 10
33.1859968697
 20
20.7699285763
 10
33.2626353115
 20
20.7313511771
 10
33.3476593099
 20
20.6991574335
 10
33.4394850287
 20
20.6739470539
 10
33.5364019285
 20
20.65618966
 10
33.6366046308
 20
20.6462160385
 10
33.7382265488
 20
20.6442119791
 10
33.8393746586
 20
20.6502148135
 10
33.9381647621
 20
20.6641127204
 10
34.0327565868
 20
20.6856468081
 10
34.1213880658
 20
20.7144159372
 10
34.2024081624
 20
20.7498841933
 10
34.2743076256
 20
20.7913908699
 10
34.3357471043
 20
20.8381627761
 10
34.3855820973
 20
20.8893286398
 10
34.422884273
 20
20.9439353379
 10
34.4469587624
 20
21.0009656507
 10
34.4573571034
 20
21.0593572116
 10
34.4577914217
 20
21.0740405979
  0
LINE
  5
13C
330
1F
100
AcDbEntity
  8
0
  6
Continuous
 62
     7
370
    25
100
AcDbLine
 10
34.2395859737
 20
21.2547496833
 30
0.0
 11
34.2469057925
 21
21.2607470835
 31
0.0
  0
SPLINE
  5
13D
330
1F
100
AcDbEntity
  8
0
  6
Continuous
 62
     7
370
    25
100
AcDbSpline
210
0.0
220
0.0
230
1.0
 70
     8
 71
     3
 72
    17
 73
    13
 74
     0
 42
0.00000001
 43
0.00000001
 40
0.0
 40
0.0
 40
0.0
 40
0.0
 40
0.1052242471934392
 40
0.2167342764892367
 40
0.3261973937946641
 40
0.4345868465880867
 40
0.5444301989577144
 40
0.6561102594111667
 40
0.7671521217454317
 40
0.8759785509443015
 40
0.9845071391193807
 40
0.9999999999999999
 40
0.9999999999999999
 40
0.9999999999999999
 40
0.9999999999999999
 10
34.3116697793936
 20
21.52060886144666
 30
0.0
 10
34.30392311569442
 20
21.52352061441644
 30
0.0
 10
34.2879670257548
 20
21.5295180597777
 30
0.0
 10
34.25418237707364
 20
21.51928033219627
 30
0.0
 10
34.21649573018005
 20
21.49633125564742
 30
0.0
 10
34.17904584216484
 20
21.46221497556987
 30
0.0
 10
34.14651199335977
 20
21.42023509221762
 30
0.0
 10
34.12375498757886
 20
21.37385985444586
 30
0.0
 10
34.11472667452976
 20
21.32748189854586
 30
0.0
 10
34.1219145155663
 20
21.2882583187463
 30
0.0
 10
34.13452971374512
 20
21.26371523784739
 30
0.0
 10
34.14611570902203
 20
21.25789793667715
 30
0.0
 10
34.14756304103076
 20
21.2571712346557
 30
0.0
  0
SPLINE
  5
13E
330
1F
100
AcDbEntity
  8
0
  6
Continuous
 62
     7
370
    25
100
AcDbSpline
210
0.0
220
0.0
230
1.0
 70
     8
 71
     3
 72
    10
 73
     6
 74
     0
 42
0.00000001
 43
0.00000001
 40
0.0
 40
0.0
 40
0.0
 40
0.0
 40
0.2396515944527131
 40
0.6722719416090179
 40
1.0
 40
1.0
 40
1.0
 40
1.0
 10
34.15668743864181
 20
21.25226618371096
 30
0.0
 10
34.16216174514452
 20
21.24876657350723
 30
0.0
 10
34.17751829918686
 20
21.23894944814275
 30
0.0
 10
34.20774499514699
 20
21.23992826830843
 30
0.0
 10
34.22999548771352
 20
21.25028548092297
 30
0.0
 10
34.23958597369847
 20
21.25474968332775
 30
0.0
  0
LINE
  5
13F
330
1F
100
AcDbEntity
  8
0
  6
Continuous
 62
     7
370
    25
100
AcDbLine
 10
37.35868146
 20
26.4532794717
 30
0.0
 11
33.0665432982
 21
28.9310780911
 31
0.0
  0
ARC
  5
140
330
1F
100
AcDbEntity
  8
0
  6
Continuous
 62
     7
370
    25
100
AcDbCircle
 10
33.0203049571
 20
28.8254592002
 30
0.0
 40
0.1152967228407587
100
AcDbArc
 50
66.3569291845
 51
155.1837008195
  0
LINE
  5
141
330
1F
100
AcDbEntity
  8
0
  6
Continuous
 62
     7
370
    25
100
AcDbLine
 10
32.9156549505
 20
28.8738504229
 30
0.0
 11
31.807779295
 21
26.9549535047
 31
0.0
  0
ARC
  5
142
330
1F
100
AcDbEntity
  8
0
  6
Continuous
 62
     7
370
    25
100
AcDbCircle
 10
31.902000455
 20
26.888524512
 30
0.0
 40
0.1152841622816605
100
AcDbArc
 50
144.8149143564
 51
233.6487565512
  0
LINE
  5
143
330
1F
100
AcDbEntity
  8
0
  6
Continuous
 62
     7
370
    25
100
AcDbLine
 10
31.8336676427
 20
26.7956748226
 30
0.0
 11
36.1258058045
 21
24.3178762032
 31
0.0
  0
ARC
  5
144
330
1F
100
AcDbEntity
  8
0
  6
Continuous
 62
     7
370
    25
100
AcDbCircle
 10
36.1727965707
 20
24.4150257021
 30
0.0
 40
0.1079173630126733
100
AcDbArc
 50
244.1871592655
 51
324.6343448559
  0
ARC
  5
145
330
1F
100
AcDbEntity
  8
0
  6
Continuous
 62
     7
370
    25
100
AcDbCircle
 10
37.29404356
 20
26.3628843959
 30
0.0
 40
0.1111275296446474
100
AcDbArc
 50
336.6761046335
 51
54.432958508
  0
LINE
  5
146
330
1F
100
AcDbEntity
  8
0
  6
Continuous
 62
     7
370
    25
100
AcDbLine
 10
36.1883058045
 20
24.2817839921
 30
0.0
 11
36.1258058045
 21
24.3178762032
 31
0.0
  0
LWPOLYLINE
  5
147
330
1F
100
AcDbEntity
  8
0
  6
Continuous
 62
     7
370
    25
100
AcDbPolyline
 90
        3
 70
   128
 43
0.0
 10
36.2234433827
 20
24.2707489267
 10
36.2067504356
 20
24.2739094639
 10
36.1883058045
 20
24.2817839921
  0
LWPOLYLINE
  5
148
330
1F
100
AcDbEntity
  8
0
  6
Continuous
 62
     7
370
    25
100
AcDbPolyline
 90
        3
 70
   128
 43
0.0
 10
37.42118146
 20
26.4171872606
 10
37.4372242512
 20
26.4051526236
 10
37.4482498797
 20
26.3923606264
  0
LINE
  5
149
330
1F
100
AcDbEntity
  8
0
  6
Continuous
 62
     7
370
    25
100
AcDbLine
 10
37.42118146
 20
26.4171872606
 30
0.0
 11
37.35868146
 21
26.4532794717
 31
0.0
  0
LINE
  5
14A
330
1F
100
AcDbEntity
  8
0
  6
Continuous
 62
     7
370
    25
100
AcDbLine
 10
31.8961676427
 20
26.7595826114
 30
0.0
 11
31.8336676427
 21
26.7956748226
 31
0.0
  0
LINE
  5
14B
330
1F
100
AcDbEntity
  8
0
  6
Continuous
 62
     7
370
    25
100
AcDbLine
 10
31.8961676427
 20
26.7595826114
 30
0.0
 11
36.1883058045
 21
24.2817839921
 31
0.0
  0
LINE
  5
14C
330
1F
100
AcDbEntity
  8
0
  6
Continuous
 62
     7
370
    25
100
AcDbLine
 10
32.9235592259
 20
29.0633755098
 30
0.0
 11
37.5197533036
 21
26.4100491463
 31
0.0
  0
ARC
  5
14D
330
1F
100
AcDbEntity
  8
0
  6
Continuous
 62
     7
370
    25
100
AcDbCircle
 10
39.3820598875
 20
23.8613467013
 30
0.0
 40
3.156591510740676
100
AcDbArc
 50
126.155155629
 51
173.8448442254
  0
LINE
  5
14E
330
1F
100
AcDbEntity
  8
0
  6
Continuous
 62
     7
370
    25
100
AcDbLine
 10
31.6474714546
 20
26.8531266615
 30
0.0
 11
36.2436655323
 21
24.1998002981
 31
0.0
  0
ARC
  5
14F
330
1F
100
AcDbEntity
  8
0
  6
Continuous
 62
     7
370
    25
100
AcDbCircle
 10
34.7858658098
 20
26.5146730647
 30
0.0
 40
3.156591510740609
100
AcDbArc
 50
126.155155629
 51
173.8448442254
  0
LWPOLYLINE
  5
150
330
1F
100
AcDbEntity
  8
0
  6
Continuous
 62
     7
370
    25
100
AcDbPolyline
 90
       40
 70
   128
 43
0.0
 10
31.5252665217
 20
26.0876503615
 10
31.4841867705
 20
26.1133987456
 10
31.4077373195
 20
26.1737318782
 10
31.3391259628
 20
26.2456106318
 10
31.2788339599
 20
26.3285308286
 10
31.2272842158
 20
26.4219108431
 10
31.1848383149
 20
26.5250956815
 10
31.1517939848
 20
26.6373615762
 10
31.1283830077
 20
26.7579210629
 10
31.1147695947
 20
26.8859285031
 10
31.1110492342
 20
27.0204860168
 10
31.1172480218
 20
27.1606497797
 10
31.1333224775
 20
27.3054366436
 10
31.1591598506
 20
27.4538310327
 10
31.1945789103
 20
27.6047920671
 10
31.2393312175
 20
27.7572608634
 10
31.2931028669
 20
27.9101679628
 10
31.355516689
 20
28.0624408317
 10
31.4261348957
 20
28.2130113853
 10
31.504462151
 20
28.3608234795
 10
31.5899490454
 20
28.5048403186
 10
31.6819959499
 20
28.6440517278
 10
31.7799572216
 20
28.7774812393
 10
31.8831457324
 20
28.9041929409
 10
31.9908376892
 20
29.023298041
 10
32.1022777102
 20
29.1339611029
 10
32.2166841238
 20
29.2354059047
 10
32.3332544512
 20
29.3269208841
 10
32.4511710352
 20
29.4078641292
 10
32.5696067758
 20
29.4776678813
 10
32.6877309314
 20
29.5358425173
 10
32.8047149458
 20
29.5819799839
 10
32.9197382603
 20
29.6157566599
 10
33.0319940689
 20
29.6369356261
 10
33.1406949778
 20
29.6453683274
 10
33.2450785283
 20
29.6409956144
 10
33.3444125447
 20
29.6238481586
 10
33.4380002703
 20
29.594046237
 10
33.5251852543
 20
29.5517988887
 10
33.5251852543
 20
29.5517988887
  0
LWPOLYLINE
  5
151
330
1F
100
AcDbEntity
  8
0
  6
Continuous
 62
     7
370
    25
100
AcDbPolyline
 90
       40
 70
   128
 43
0.0
 10
37.1821207712
 20
22.8220179142
 10
37.14104102
 20
22.8477662983
 10
37.064591569
 20
22.9080994309
 10
36.9959802123
 20
22.9799781845
 10
36.9356882094
 20
23.0628983813
 10
36.8841384653
 20
23.1562783958
 10
36.8416925644
 20
23.2594632342
 10
36.8086482343
 20
23.371729129
 10
36.7852372572
 20
23.4922886156
 10
36.7716238442
 20
23.6202960558
 10
36.7679034837
 20
23.7548535695
 10
36.7741022713
 20
23.8950173324
 10
36.790176727
 20
24.0398041963
 10
36.8160141
 20
24.1881985854
 10
36.8514331598
 20
24.3391596198
 10
36.896185467
 20
24.4916284162
 10
36.9499571164
 20
24.6445355155
 10
37.0123709385
 20
24.7968083844
 10
37.0829891452
 20
24.9473789381
 10
37.1613164005
 20
25.0951910322
 10
37.2468032949
 20
25.2392078713
 10
37.3388501994
 20
25.3784192806
 10
37.4368114711
 20
25.511848792
 10
37.5399999819
 20
25.6385604936
 10
37.6476919387
 20
25.7576655937
 10
37.7591319597
 20
25.8683286556
 10
37.8735383733
 20
25.9697734574
 10
37.9901087007
 20
26.0612884368
 10
38.1080252847
 20
26.1422316819
 10
38.2264610253
 20
26.2120354341
 10
38.3445851809
 20
26.27021007
 10
38.4615691953
 20
26.3163475366
 10
38.5765925098
 20
26.3501242126
 10
38.6888483184
 20
26.3713031788
 10
38.7975492273
 20
26.3797358801
 10
38.9019327778
 20
26.3753631671
 10
39.0012667942
 20
26.3582157113
 10
39.0948545197
 20
26.3284137897
 10
39.1820395038
 20
26.2861664415
 10
39.1820395038
 20
26.2861664415
  0
SPLINE
  5
152
330
1F
100
AcDbEntity
  8
0
  6
Continuous
 62
     7
370
    25
100
AcDbSpline
210
0.0
220
0.0
230
1.0
 70
     8
 71
     3
 72
    24
 73
    20
 74
     0
 42
0.00000001
 43
0.00000001
 40
0.0
 40
0.0
 40
0.0
 40
0.0
 40
0.02421598419532
 40
0.0821891609136328
 40
0.1416608433345389
 40
0.2030681951740198
 40
0.2662286891182145
 40
0.3278274447492253
 40
0.3914666005772492
 40
0.449000543973961
 40
0.5083250957094498
 40
0.564095908658799
 40
0.6213305696582868
 40
0.6801344294306652
 40
0.7404634681269994
 40
0.8025183865867644
 40
0.866441560284972
 40
0.9319509869963619
 40
1.0
 40
1.0
 40
1.0
 40
1.0
 10
33.7198967461677
 20
24.84725338630724
 30
0.0
 10
33.71737752275821
 20
24.85124334686281
 30
0.0
 10
33.70882726700526
 20
24.86478529120404
 30
0.0
 10
33.71426724647411
 20
24.88248342580549
 30
0.0
 10
33.7352674434587
 20
24.8983251798366
 30
0.0
 10
33.77614789751932
 20
24.90425541546897
 30
0.0
 10
33.8339846867559
 20
24.89774122678318
 30
0.0
 10
33.90726449099427
 20
24.87639831749281
 30
0.0
 10
33.98999214195383
 20
24.84013989162635
 30
0.0
 10
34.07972532008809
 20
24.78959911792122
 30
0.0
 10
34.17037619348131
 20
24.72901190794378
 30
0.0
 10
34.26314267187767
 20
24.65900965386896
 30
0.0
 10
34.35613133730347
 20
24.5827639775023
 30
0.0
 10
34.45068965189313
 20
24.50101972285409
 30
0.0
 10
34.54568337646027
 20
24.41699516091094
 30
0.0
 10
34.63997585311166
 20
24.33422838351932
 30
0.0
 10
34.73149154326385
 20
24.25747597502549
 30
0.0
 10
34.81928675848238
 20
24.18952814714849
 30
0.0
 10
34.86914561200373
 20
24.15844304622321
 30
0.0
 10
34.89454906669262
 20
24.14260495735666
 30
0.0
  0
LINE
  5
153
330
1F
100
AcDbEntity
  8
0
  6
Continuous
 62
     7
370
    25
100
AcDbLine
 10
32.9235592259
 20
29.0633755098
 30
0.0
 11
31.6474714546
 21
26.8531266615
 31
0.0
  0
ARC
  5
154
330
1F
100
AcDbEntity
  8
0
  6
Continuous
 62
     7
370
    25
100
AcDbCircle
 10
36.1867080078
 20
24.3139490827
 30
0.0
 40
0.0576483614203865
100
AcDbArc
 50
246.3569291845
 51
335.1837008195
  0
LINE
  5
155
330
1F
100
AcDbEntity
  8
0
  6
Continuous
 62
     7
370
    25
100
AcDbLine
 10
36.1635888372
 20
24.2611396373
 30
0.0
 11
31.7406359209
 21
26.814456007
 31
0.0
  0
ARC
  5
156
330
1F
100
AcDbEntity
  8
0
  6
Continuous
 62
     7
370
    25
100
AcDbCircle
 10
31.7748023271
 20
26.8608808517
 30
0.0
 40
0.0576420811408358
100
AcDbArc
 50
144.8149143564
 51
233.6487565512
  0
LINE
  5
157
330
1F
100
AcDbEntity
  8
0
  6
Continuous
 62
     7
370
    25
100
AcDbLine
 10
31.7276917471
 20
26.8940953481
 30
0.0
 11
32.9281917471
 21
28.9734223365
 31
0.0
  0
ARC
  5
158
330
1F
100
AcDbEntity
  8
0
  6
Continuous
 62
     7
370
    25
100
AcDbCircle
 10
32.9805167504
 20
28.9492267251
 30
0.0
 40
0.0576483614203692
100
AcDbArc
 50
66.3569291845
 51
155.1837008195
  0
LINE
  5
159
330
1F
100
AcDbEntity
  8
0
  6
Continuous
 62
     7
370
    25
100
AcDbLine
 10
33.0036359209
 20
29.0020361705
 30
0.0
 11
37.4265888372
 21
26.4487198008
 31
0.0
  0
ARC
  5
15A
330
1F
100
AcDbEntity
  8
0
  6
Continuous
 62
     7
370
    25
100
AcDbCircle
 10
37.3924224311
 20
26.4022949561
 30
0.0
 40
0.0576420811408337
100
AcDbArc
 50
324.8149143564
 51
53.6487565512
  0
LINE
  5
15B
330
1F
100
AcDbEntity
  8
0
  6
Continuous
 62
     7
370
    25
100
AcDbLine
 10
37.4395330111
 20
26.3690804598
 30
0.0
 11
37.4223550094
 21
26.3393272882
 31
0.0
  0
LINE
  5
15C
330
1F
100
AcDbEntity
  8
0
  6
Continuous
 62
     7
370
    25
100
AcDbLine
 10
36.2562179077
 20
24.3195185853
 30
0.0
 11
36.2390330111
 21
24.2897534714
 31
0.0
  0
LINE
  5
15D
330
1F
100
AcDbEntity
  8
0
  6
Continuous
 62
     7
370
    25
100
AcDbLine
 10
33.0786359209
 20
28.9587255172
 30
0.0
 11
33.0036359209
 21
29.0020361705
 31
0.0
  0
LINE
  5
15E
330
1F
100
AcDbEntity
  8
0
  6
Continuous
 62
     7
370
    25
100
AcDbLine
 10
33.0786359209
 20
28.9587255172
 30
0.0
 11
37.4274555404
 21
26.4482053888
 31
0.0
  0
ARC
  5
15F
330
1F
100
AcDbEntity
  8
0
  6
Continuous
 62
     7
370
    25
100
AcDbCircle
 10
31.8479056645
 20
26.8163104535
 30
0.0
 40
0.0555087614372774
100
AcDbArc
 50
156.9884122274
 51
234.4547981163
  0
ARC
  5
160
330
1F
100
AcDbEntity
  8
0
  6
Continuous
 62
     7
370
    25
100
AcDbCircle
 10
33.0551572524
 20
28.910248182
 30
0.0
 40
0.0538637160133515
100
AcDbArc
 50
64.1580447504
 51
144.1015825967
  0
LWPOLYLINE
  5
161
330
1F
100
AcDbEntity
  8
0
  6
Continuous
 62
     7
370
    25
100
AcDbPolyline
 90
        9
 70
   128
 43
0.0
 10
33.3109063023
 20
23.5009755455
 10
33.2419955086
 20
23.5407563074
 10
33.1813110864
 20
23.575786784
 10
33.129993137
 20
23.6054088443
 10
33.0890057903
 20
23.6290659674
 10
33.0591190911
 20
23.6463136981
 10
33.0408945322
 20
23.6568279964
 10
33.0346745054
 20
23.6604113265
 10
33.0346734537
 20
23.6604118328
  0
ARC
  5
162
330
1F
100
AcDbEntity
  8
0
  6
Continuous
 62
     7
370
    25
100
AcDbCircle
 10
34.1550046372
 20
23.278887249
 30
0.0
 40
0.3029513757509043
100
AcDbArc
 50
312.3953173835
 51
358.1112512009
  0
LINE
  5
163
330
1F
100
AcDbEntity
  8
0
  6
Continuous
 62
     7
370
    25
100
AcDbLine
 10
31.7905390475
 20
26.8578025795
 30
0.0
 11
31.7276917471
 21
26.8940953481
 31
0.0
  0
LINE
  5
164
330
1F
100
AcDbEntity
  8
0
  6
Continuous
 62
     7
370
    25
100
AcDbLine
 10
32.9281917471
 20
28.9734223365
 30
0.0
 11
32.9908322747
 21
28.9372489741
 31
0.0
  0
LINE
  5
165
330
1F
100
AcDbEntity
  8
0
  6
Continuous
 62
     7
370
    25
100
AcDbLine
 10
12.3940905813
 20
24.4698913776
 30
0.0
 11
12.4408325774
 21
24.4231493815
 31
0.0
  0
LINE
  5
166
330
1F
100
AcDbEntity
  8
0
  6
Continuous
 62
     7
370
    25
100
AcDbLine
 10
12.4871196706
 20
24.465250636
 30
0.0
 11
12.4382847551
 21
24.5140855515
 31
0.0
  0
LINE
  5
167
330
1F
100
AcDbEntity
  8
0
  6
Continuous
 62
     7
370
    25
100
AcDbLine
 10
11.3826842723
 20
24.4221805577
 30
0.0
 11
12.2190830616
 21
23.5857817684
 31
0.0
  0
LINE
  5
168
330
1F
100
AcDbEntity
  8
0
  6
Continuous
 62
     7
370
    25
100
AcDbLine
 10
13.4908776135
 20
24.4211654243
 30
0.0
 11
12.4362733762
 21
25.4757696617
 31
0.0
  0
LINE
  5
169
330
1F
100
AcDbEntity
  8
0
  6
Continuous
 62
     7
370
    25
100
AcDbLine
 10
12.5580830616
 20
20.7136061624
 30
0.0
 11
12.5780830616
 21
20.6781061624
 31
0.0
  0
LINE
  5
16A
330
1F
100
AcDbEntity
  8
0
  6
Continuous
 62
     7
370
    25
100
AcDbLine
 10
13.3500830616
 20
20.6781061624
 30
0.0
 11
13.3700830616
 21
20.7136061624
 31
0.0
  0
LINE
  5
16B
330
1F
100
AcDbEntity
  8
0
  6
Continuous
 62
     7
370
    25
100
AcDbLine
 10
13.3700830616
 20
20.6426061624
 30
0.0
 11
13.3500830616
 21
20.6781061624
 31
0.0
  0
LINE
  5
16C
330
1F
100
AcDbEntity
  8
0
  6
Continuous
 62
     7
370
    25
100
AcDbLine
 10
12.5780830616
 20
20.6781061624
 30
0.0
 11
12.5580830616
 21
20.6426061624
 31
0.0
  0
LINE
  5
16D
330
1F
100
AcDbEntity
  8
0
  6
Continuous
 62
     7
370
    25
100
AcDbLine
 10
12.5580830616
 20
20.6426061624
 30
0.0
 11
12.5780830616
 21
20.6071061624
 31
0.0
  0
LINE
  5
16E
330
1F
100
AcDbEntity
  8
0
  6
Continuous
 62
     7
370
    25
100
AcDbLine
 10
13.3500830616
 20
20.6071061624
 30
0.0
 11
13.3700830616
 21
20.6426061624
 31
0.0
  0
LINE
  5
16F
330
1F
100
AcDbEntity
  8
0
  6
Continuous
 62
     7
370
    25
100
AcDbLine
 10
12.5580830616
 20
20.7846061624
 30
0.0
 11
12.5780830616
 21
20.7491061624
 31
0.0
  0
LINE
  5
170
330
1F
100
AcDbEntity
  8
0
  6
Continuous
 62
     7
370
    25
100
AcDbLine
 10
13.3500830616
 20
20.7491061624
 30
0.0
 11
13.3700830616
 21
20.7846061624
 31
0.0
  0
LINE
  5
171
330
1F
100
AcDbEntity
  8
0
  6
Continuous
 62
     7
370
    25
100
AcDbLine
 10
13.3700830616
 20
20.7136061624
 30
0.0
 11
13.3500830616
 21
20.7491061624
 31
0.0
  0
LINE
  5
172
330
1F
100
AcDbEntity
  8
0
  6
Continuous
 62
     7
370
    25
100
AcDbLine
 10
12.5780830616
 20
20.7491061624
 30
0.0
 11
12.5580830616
 21
20.7136061624
 31
0.0
  0
LINE
  5
173
330
1F
100
AcDbEntity
  8
0
  6
Continuous
 62
     7
370
    25
100
AcDbLine
 10
12.5580830616
 20
20.8556061624
 30
0.0
 11
12.5780830616
 21
20.8201061624
 31
0.0
  0
LINE
  5
174
330
1F
100
AcDbEntity
  8
0
  6
Continuous
 62
     7
370
    25
100
AcDbLine
 10
13.3500830616
 20
20.8201061624
 30
0.0
 11
13.3700830616
 21
20.8556061624
 31
0.0
  0
LINE
  5
175
330
1F
100
AcDbEntity
  8
0
  6
Continuous
 62
     7
370
    25
100
AcDbLine
 10
13.3700830616
 20
20.7846061624
 30
0.0
 11
13.3500830616
 21
20.8201061624
 31
0.0
  0
LINE
  5
176
330
1F
100
AcDbEntity
  8
0
  6
Continuous
 62
     7
370
    25
100
AcDbLine
 10
12.5780830616
 20
20.8201061624
 30
0.0
 11
12.5580830616
 21
20.7846061624
 31
0.0
  0
LINE
  5
177
330
1F
100
AcDbEntity
  8
0
  6
Continuous
 62
     7
370
    25
100
AcDbLine
 10
13.3700830616
 20
20.8556061624
 30
0.0
 11
13.3500830616
 21
20.8911061624
 31
0.0
  0
LINE
  5
178
330
1F
100
AcDbEntity
  8
0
  6
Continuous
 62
     7
370
    25
100
AcDbLine
 10
12.5780830616
 20
20.8911061624
 30
0.0
 11
12.5580830616
 21
20.8556061624
 31
0.0
  0
LINE
  5
179
330
1F
100
AcDbEntity
  8
0
  6
Continuous
 62
     7
370
    25
100
AcDbLine
 10
12.5638494221
 20
20.9163708724
 30
0.0
 11
12.5780830616
 21
20.8911061624
 31
0.0
  0
LINE
  5
17A
330
1F
100
AcDbEntity
  8
0
  6
Continuous
 62
     7
370
    25
100
AcDbLine
 10
13.3500830616
 20
20.8911061624
 30
0.0
 11
13.364316701
 21
20.9163708724
 31
0.0
  0
LINE
  5
17B
330
1F
100
AcDbEntity
  8
0
  6
Continuous
 62
     7
370
    25
100
AcDbLine
 10
13.3621957376
 20
20.5856061624
 30
0.0
 11
13.3500830616
 21
20.6071061624
 31
0.0
  0
LINE
  5
17C
330
1F
100
AcDbEntity
  8
0
  6
Continuous
 62
     7
370
    25
100
AcDbLine
 10
12.5780830616
 20
20.6071061624
 30
0.0
 11
12.5659703855
 21
20.5856061624
 31
0.0
  0
LINE
  5
17D
330
1F
100
AcDbEntity
  8
0
  6
Continuous
 62
     7
370
    25
100
AcDbLine
 10
13.4640830616
 20
20.9163708724
 30
0.0
 11
13.5234324863
 21
20.9506362787
 31
0.0
  0
LINE
  5
17E
330
1F
100
AcDbEntity
  8
0
  6
Continuous
 62
     7
370
    25
100
AcDbLine
 10
13.5233682636
 20
21.172142545
 30
0.0
 11
13.4640830616
 21
21.2063708724
 31
0.0
  0
LINE
  5
17F
330
1F
100
AcDbEntity
  8
0
  6
Continuous
 62
     7
370
    25
100
AcDbLine
 10
12.4640830616
 20
21.2063708724
 30
0.0
 11
12.4047978596
 21
21.172142545
 31
0.0
  0
LINE
  5
180
330
1F
100
AcDbEntity
  8
0
  6
Continuous
 62
     7
370
    25
100
AcDbLine
 10
12.4047336368
 20
20.9506362787
 30
0.0
 11
12.4640830616
 21
20.9163708724
 31
0.0
  0
LINE
  5
181
330
1F
100
AcDbEntity
  8
0
  6
Continuous
 62
     7
370
    25
100
AcDbLine
 10
13.7090830616
 20
21.2063708724
 30
0.0
 11
13.7090830616
 21
23.0763708724
 31
0.0
  0
LINE
  5
182
330
1F
100
AcDbEntity
  8
0
  6
Continuous
 62
     7
370
    25
100
AcDbLine
 10
12.2190830616
 20
23.0763708724
 30
0.0
 11
12.2190830616
 21
21.2063708724
 31
0.0
  0
CIRCLE
  5
183
330
1F
100
AcDbEntity
  8
0
  6
Continuous
 62
     7
370
    25
100
AcDbCircle
 10
12.3743466319
 20
25.7851837794
 30
0.0
 40
0.1150000000000008
  0
CIRCLE
  5
184
330
1F
100
AcDbEntity
  8
0
  6
Continuous
 62
     7
370
    25
100
AcDbCircle
 10
9.2959666342
 20
24.960334345
 30
0.0
 40
0.1150000000000008
  0
CIRCLE
  5
185
330
1F
100
AcDbEntity
  8
0
  6
Continuous
 62
     7
370
    25
100
AcDbCircle
 10
10.1208160686
 20
28.0387143428
 30
0.0
 40
0.1150000000000012
  0
CIRCLE
  5
186
330
1F
100
AcDbEntity
  8
0
  6
Continuous
 62
     7
370
    25
100
AcDbCircle
 10
10.5970431115
 20
26.2614108224
 30
0.0
 40
1.990000000000001
  0
CIRCLE
  5
187
330
1F
100
AcDbEntity
  8
0
  6
Continuous
 62
     7
370
    25
100
AcDbCircle
 10
10.5970431115
 20
26.2614108224
 30
0.0
 40
2.000000000000004
  0
LINE
  5
188
330
1F
100
AcDbEntity
  8
0
  6
Continuous
 62
     7
370
    25
100
AcDbLine
 10
12.9181092564
 20
24.9939100528
 30
0.0
 11
11.8645438812
 21
23.9403446775
 31
0.0
  0
LINE
  5
189
330
1F
100
AcDbEntity
  8
0
  6
Continuous
 62
     7
370
    25
100
AcDbLine
 10
11.8645438812
 20
23.9403446775
 30
0.0
 11
12.2190830616
 21
23.5858054971
 31
0.0
  0
LINE
  5
18A
330
1F
100
AcDbEntity
  8
0
  6
Continuous
 62
     7
370
    25
100
AcDbLine
 10
13.4873302153
 20
24.4246890939
 30
0.0
 11
12.9181092564
 21
24.9939100528
 31
0.0
  0
LINE
  5
18B
330
1F
100
AcDbEntity
  8
0
  6
Continuous
 62
     7
370
    25
100
AcDbLine
 10
13.1988225458
 20
20.7136061624
 30
0.0
 11
13.3700830616
 21
20.7136061624
 31
0.0
  0
LINE
  5
18C
330
1F
100
AcDbEntity
  8
0
  6
Continuous
 62
     7
370
    25
100
AcDbLine
 10
12.5580830616
 20
20.7136061624
 30
0.0
 11
12.6837177775
 21
20.7136061624
 31
0.0
  0
LINE
  5
18D
330
1F
100
AcDbEntity
  8
0
  6
Continuous
 62
     7
370
    25
100
AcDbLine
 10
12.6837177775
 20
20.7136061624
 30
0.0
 11
12.7371177597
 21
20.6781061624
 31
0.0
  0
LINE
  5
18E
330
1F
100
AcDbEntity
  8
0
  6
Continuous
 62
     7
370
    25
100
AcDbLine
 10
13.1432915035
 20
20.6781061624
 30
0.0
 11
13.3500830616
 21
20.6781061624
 31
0.0
  0
LINE
  5
18F
330
1F
100
AcDbEntity
  8
0
  6
Continuous
 62
     7
370
    25
100
AcDbLine
 10
12.5780830616
 20
20.6781061624
 30
0.0
 11
12.7371177597
 21
20.6781061624
 31
0.0
  0
LINE
  5
190
330
1F
100
AcDbEntity
  8
0
  6
Continuous
 62
     7
370
    25
100
AcDbLine
 10
13.1432915035
 20
20.6781061624
 30
0.0
 11
13.1988225458
 21
20.7136061624
 31
0.0
  0
LINE
  5
191
330
1F
100
AcDbEntity
  8
0
  6
Continuous
 62
     7
370
    25
100
AcDbLine
 10
12.7371177597
 20
20.6781061624
 30
0.0
 11
12.6837177775
 21
20.6426061624
 31
0.0
  0
LINE
  5
192
330
1F
100
AcDbEntity
  8
0
  6
Continuous
 62
     7
370
    25
100
AcDbLine
 10
13.1988225458
 20
20.6426061624
 30
0.0
 11
13.3700830616
 21
20.6426061624
 31
0.0
  0
LINE
  5
193
330
1F
100
AcDbEntity
  8
0
  6
Continuous
 62
     7
370
    25
100
AcDbLine
 10
12.5580830616
 20
20.6426061624
 30
0.0
 11
12.6837177775
 21
20.6426061624
 31
0.0
  0
LINE
  5
194
330
1F
100
AcDbEntity
  8
0
  6
Continuous
 62
     7
370
    25
100
AcDbLine
 10
13.1988225458
 20
20.6426061624
 30
0.0
 11
13.1432915035
 21
20.6781061624
 31
0.0
  0
LINE
  5
195
330
1F
100
AcDbEntity
  8
0
  6
Continuous
 62
     7
370
    25
100
AcDbLine
 10
12.6837177775
 20
20.6426061624
 30
0.0
 11
12.7371177597
 21
20.6071061624
 31
0.0
  0
LINE
  5
196
330
1F
100
AcDbEntity
  8
0
  6
Continuous
 62
     7
370
    25
100
AcDbLine
 10
13.1432915035
 20
20.6071061624
 30
0.0
 11
13.3500830616
 21
20.6071061624
 31
0.0
  0
LINE
  5
197
330
1F
100
AcDbEntity
  8
0
  6
Continuous
 62
     7
370
    25
100
AcDbLine
 10
12.5780830616
 20
20.6071061624
 30
0.0
 11
12.7371177597
 21
20.6071061624
 31
0.0
  0
LINE
  5
198
330
1F
100
AcDbEntity
  8
0
  6
Continuous
 62
     7
370
    25
100
AcDbLine
 10
13.1432915035
 20
20.6071061624
 30
0.0
 11
13.1988225458
 21
20.6426061624
 31
0.0
  0
LINE
  5
199
330
1F
100
AcDbEntity
  8
0
  6
Continuous
 62
     7
370
    25
100
AcDbLine
 10
13.1988225458
 20
20.7846061624
 30
0.0
 11
13.3700830616
 21
20.7846061624
 31
0.0
  0
LINE
  5
19A
330
1F
100
AcDbEntity
  8
0
  6
Continuous
 62
     7
370
    25
100
AcDbLine
 10
12.5580830616
 20
20.7846061624
 30
0.0
 11
12.6837177775
 21
20.7846061624
 31
0.0
  0
LINE
  5
19B
330
1F
100
AcDbEntity
  8
0
  6
Continuous
 62
     7
370
    25
100
AcDbLine
 10
12.6837177775
 20
20.7846061624
 30
0.0
 11
12.7371177597
 21
20.7491061624
 31
0.0
  0
LINE
  5
19C
330
1F
100
AcDbEntity
  8
0
  6
Continuous
 62
     7
370
    25
100
AcDbLine
 10
13.1432915035
 20
20.7491061624
 30
0.0
 11
13.3500830616
 21
20.7491061624
 31
0.0
  0
LINE
  5
19D
330
1F
100
AcDbEntity
  8
0
  6
Continuous
 62
     7
370
    25
100
AcDbLine
 10
12.5780830616
 20
20.7491061624
 30
0.0
 11
12.7371177597
 21
20.7491061624
 31
0.0
  0
LINE
  5
19E
330
1F
100
AcDbEntity
  8
0
  6
Continuous
 62
     7
370
    25
100
AcDbLine
 10
13.1432915035
 20
20.7491061624
 30
0.0
 11
13.1988225458
 21
20.7846061624
 31
0.0
  0
LINE
  5
19F
330
1F
100
AcDbEntity
  8
0
  6
Continuous
 62
     7
370
    25
100
AcDbLine
 10
12.7371177597
 20
20.7491061624
 30
0.0
 11
12.6837177775
 21
20.7136061624
 31
0.0
  0
LINE
  5
1A0
330
1F
100
AcDbEntity
  8
0
  6
Continuous
 62
     7
370
    25
100
AcDbLine
 10
13.1988225458
 20
20.7136061624
 30
0.0
 11
13.1432915035
 21
20.7491061624
 31
0.0
  0
LINE
  5
1A1
330
1F
100
AcDbEntity
  8
0
  6
Continuous
 62
     7
370
    25
100
AcDbLine
 10
13.1988225458
 20
20.8556061624
 30
0.0
 11
13.3700830616
 21
20.8556061624
 31
0.0
  0
LINE
  5
1A2
330
1F
100
AcDbEntity
  8
0
  6
Continuous
 62
     7
370
    25
100
AcDbLine
 10
12.5580830616
 20
20.8556061624
 30
0.0
 11
12.6837177775
 21
20.8556061624
 31
0.0
  0
LINE
  5
1A3
330
1F
100
AcDbEntity
  8
0
  6
Continuous
 62
     7
370
    25
100
AcDbLine
 10
12.6837177775
 20
20.8556061624
 30
0.0
 11
12.7371177597
 21
20.8201061624
 31
0.0
  0
LINE
  5
1A4
330
1F
100
AcDbEntity
  8
0
  6
Continuous
 62
     7
370
    25
100
AcDbLine
 10
13.1432915035
 20
20.8201061624
 30
0.0
 11
13.3500830616
 21
20.8201061624
 31
0.0
  0
LINE
  5
1A5
330
1F
100
AcDbEntity
  8
0
  6
Continuous
 62
     7
370
    25
100
AcDbLine
 10
12.5780830616
 20
20.8201061624
 30
0.0
 11
12.7371177597
 21
20.8201061624
 31
0.0
  0
LINE
  5
1A6
330
1F
100
AcDbEntity
  8
0
  6
Continuous
 62
     7
370
    25
100
AcDbLine
 10
13.1432915035
 20
20.8201061624
 30
0.0
 11
13.1988225458
 21
20.8556061624
 31
0.0
  0
LINE
  5
1A7
330
1F
100
AcDbEntity
  8
0
  6
Continuous
 62
     7
370
    25
100
AcDbLine
 10
12.7371177597
 20
20.8201061624
 30
0.0
 11
12.6837177775
 21
20.7846061624
 31
0.0
  0
LINE
  5
1A8
330
1F
100
AcDbEntity
  8
0
  6
Continuous
 62
     7
370
    25
100
AcDbLine
 10
13.1988225458
 20
20.7846061624
 30
0.0
 11
13.1432915035
 21
20.8201061624
 31
0.0
  0
LINE
  5
1A9
330
1F
100
AcDbEntity
  8
0
  6
Continuous
 62
     7
370
    25
100
AcDbLine
 10
13.1432915035
 20
20.8911061624
 30
0.0
 11
13.3500830616
 21
20.8911061624
 31
0.0
  0
LINE
  5
1AA
330
1F
100
AcDbEntity
  8
0
  6
Continuous
 62
     7
370
    25
100
AcDbLine
 10
12.5780830616
 20
20.8911061624
 30
0.0
 11
12.7371177597
 21
20.8911061624
 31
0.0
  0
LINE
  5
1AB
330
1F
100
AcDbEntity
  8
0
  6
Continuous
 62
     7
370
    25
100
AcDbLine
 10
12.7371177597
 20
20.8911061624
 30
0.0
 11
12.6837177775
 21
20.8556061624
 31
0.0
  0
LINE
  5
1AC
330
1F
100
AcDbEntity
  8
0
  6
Continuous
 62
     7
370
    25
100
AcDbLine
 10
13.1988225458
 20
20.8556061624
 30
0.0
 11
13.1432915035
 21
20.8911061624
 31
0.0
  0
LINE
  5
1AD
330
1F
100
AcDbEntity
  8
0
  6
Continuous
 62
     7
370
    25
100
AcDbLine
 10
12.6991139551
 20
20.9163708724
 30
0.0
 11
12.7371177597
 21
20.8911061624
 31
0.0
  0
LINE
  5
1AE
330
1F
100
AcDbEntity
  8
0
  6
Continuous
 62
     7
370
    25
100
AcDbLine
 10
13.1432915035
 20
20.8911061624
 30
0.0
 11
13.1828119452
 21
20.9163708724
 31
0.0
  0
LINE
  5
1AF
330
1F
100
AcDbEntity
  8
0
  6
Continuous
 62
     7
370
    25
100
AcDbLine
 10
12.7371177597
 20
20.6071061624
 30
0.0
 11
12.7026339974
 21
20.5856061624
 31
0.0
  0
LINE
  5
1B0
330
1F
100
AcDbEntity
  8
0
  6
Continuous
 62
     7
370
    25
100
AcDbLine
 10
13.1791514267
 20
20.5856061624
 30
0.0
 11
13.1432915035
 21
20.6071061624
 31
0.0
  0
LINE
  5
1B1
330
1F
100
AcDbEntity
  8
0
  6
Continuous
 62
     7
370
    25
100
AcDbLine
 10
13.1791514267
 20
20.5856061624
 30
0.0
 11
13.3621957376
 21
20.5856061624
 31
0.0
  0
LINE
  5
1B2
330
1F
100
AcDbEntity
  8
0
  6
Continuous
 62
     7
370
    25
100
AcDbLine
 10
12.5659703855
 20
20.5856061624
 30
0.0
 11
12.7026339974
 21
20.5856061624
 31
0.0
  0
LINE
  5
1B3
330
1F
100
AcDbEntity
  8
0
  6
Continuous
 62
     7
370
    25
100
AcDbLine
 10
13.1164251224
 20
20.9163708724
 30
0.0
 11
13.1164251224
 21
20.5856061624
 31
0.0
  0
LINE
  5
1B4
330
1F
100
AcDbEntity
  8
0
  6
Continuous
 62
     7
370
    25
100
AcDbLine
 10
13.1164251224
 20
20.5856061624
 30
0.0
 11
13.1791514267
 21
20.5856061624
 31
0.0
  0
LINE
  5
1B5
330
1F
100
AcDbEntity
  8
0
  6
Continuous
 62
     7
370
    25
100
AcDbLine
 10
12.7629531162
 20
20.9163708724
 30
0.0
 11
12.7629531162
 21
20.5856061624
 31
0.0
  0
LINE
  5
1B6
330
1F
100
AcDbEntity
  8
0
  6
Continuous
 62
     7
370
    25
100
AcDbLine
 10
12.7629531162
 20
20.5856061624
 30
0.0
 11
13.1164251224
 21
20.5856061624
 31
0.0
  0
LINE
  5
1B7
330
1F
100
AcDbEntity
  8
0
  6
Continuous
 62
     7
370
    25
100
AcDbLine
 10
12.7026339974
 20
20.5856061624
 30
0.0
 11
12.7629531162
 21
20.5856061624
 31
0.0
  0
SPLINE
  5
1B8
330
1F
100
AcDbEntity
  8
0
  6
Continuous
 62
     7
370
    25
100
AcDbSpline
210
0.0
220
0.0
230
1.0
 70
     8
 71
     3
 72
    10
 73
     6
 74
     0
 42
0.00000001
 43
0.00000001
 40
0.0
 40
0.0
 40
0.0
 40
0.0
 40
0.0700999696409419
 40
0.5307895628004271
 40
0.9999999999999999
 40
0.9999999999999999
 40
0.9999999999999999
 40
0.9999999999999999
 10
13.38089702775983
 20
20.91637087236101
 30
0.0
 10
13.38467687454273
 20
20.91642420980309
 30
0.0
 10
13.41329747497413
 20
20.91682807527839
 30
0.0
 10
13.46725963480647
 20
20.92658187045323
 30
0.0
 10
13.51583147430189
 20
20.94947674092237
 30
0.0
 10
13.5403399303737
 20
20.96102907109952
 30
0.0
  0
SPLINE
  5
1B9
330
1F
100
AcDbEntity
  8
0
  6
Continuous
 62
     7
370
    25
100
AcDbSpline
210
0.0
220
0.0
230
1.0
 70
     8
 71
     3
 72
     9
 73
     5
 74
     0
 42
0.00000001
 43
0.00000001
 40
0.0
 40
0.0
 40
0.0
 40
0.0
 40
0.4954579634770134
 40
1.0
 40
1.0
 40
1.0
 40
1.0
 10
13.22145412514593
 20
20.96102907109951
 30
0.0
 10
13.24734835348006
 20
20.94854719319438
 30
0.0
 10
13.29961157305254
 20
20.92335458589925
 30
0.0
 10
13.35363828200056
 20
20.91871283221693
 30
0.0
 10
13.38089702775983
 20
20.91637087236101
 30
0.0
  0
LINE
  5
1BA
330
1F
100
AcDbEntity
  8
0
  6
Continuous
 62
     7
370
    25
100
AcDbLine
 10
13.2214541251
 20
20.9610290711
 30
0.0
 11
13.2214541251
 21
21.1617126736
 31
0.0
  0
SPLINE
  5
1BB
330
1F
100
AcDbEntity
  8
0
  6
Continuous
 62
     7
370
    25
100
AcDbSpline
210
0.0
220
0.0
230
1.0
 70
     8
 71
     3
 72
    10
 73
     6
 74
     0
 42
0.00000001
 43
0.00000001
 40
0.0
 40
0.0
 40
0.0
 40
0.0
 40
0.0700999696413409
 40
0.5307895628006356
 40
1.0
 40
1.0
 40
1.0
 40
1.0
 10
13.38089702775983
 20
21.20637087236101
 30
0.0
 10
13.37711718097691
 20
21.20631753491895
 30
0.0
 10
13.34849658054546
 20
21.20591366944368
 30
0.0
 10
13.29453442071313
 20
21.19615987426875
 30
0.0
 10
13.24596258121773
 20
21.17326500379962
 30
0.0
 10
13.22145412514593
 20
21.16171267362248
 30
0.0
  0
SPLINE
  5
1BC
330
1F
100
AcDbEntity
  8
0
  6
Continuous
 62
     7
370
    25
100
AcDbSpline
210
0.0
220
0.0
230
1.0
 70
     8
 71
     3
 72
     9
 73
     5
 74
     0
 42
0.00000001
 43
0.00000001
 40
0.0
 40
0.0
 40
0.0
 40
0.0
 40
0.4954579634770182
 40
1.0
 40
1.0
 40
1.0
 40
1.0
 10
13.54033993037371
 20
21.1617126736225
 30
0.0
 10
13.51444570203958
 20
21.17419455152762
 30
0.0
 10
13.46218248246711
 20
21.19938715882276
 30
0.0
 10
13.40815577351909
 20
21.20402891250509
 30
0.0
 10
13.38089702775983
 20
21.20637087236101
 30
0.0
  0
LINE
  5
1BD
330
1F
100
AcDbEntity
  8
0
  6
Continuous
 62
     7
370
    25
100
AcDbLine
 10
13.5403399304
 20
20.9610290711
 30
0.0
 11
13.5403399304
 21
21.1617126736
 31
0.0
  0
SPLINE
  5
1BE
330
1F
100
AcDbEntity
  8
0
  6
Continuous
 62
     7
370
    25
100
AcDbSpline
210
0.0
220
0.0
230
1.0
 70
     8
 71
     3
 72
    10
 73
     6
 74
     0
 42
0.00000001
 43
0.00000001
 40
0.0
 40
0.0
 40
0.0
 40
0.0
 40
0.2572432618847658
 40
0.6263798857723065
 40
1.0
 40
1.0
 40
1.0
 40
1.0
 10
13.22145412514593
 20
21.16171267362248
 30
0.0
 10
13.1972583749225
 20
21.16829367274124
 30
0.0
 10
13.1383424245101
 20
21.18431821482668
 30
0.0
 10
13.04218333008432
 20
21.20225517237388
 30
0.0
 10
12.96975729854412
 20
21.20499346266634
 30
0.0
 10
12.9333256907397
 20
21.206370872361
 30
0.0
  0
SPLINE
  5
1BF
330
1F
100
AcDbEntity
  8
0
  6
Continuous
 62
     7
370
    25
100
AcDbSpline
210
0.0
220
0.0
230
1.0
 70
     8
 71
     3
 72
    10
 73
     6
 74
     0
 42
0.00000001
 43
0.00000001
 40
0.0
 40
0.0
 40
0.0
 40
0.0
 40
0.3688686996161529
 40
0.7427571871384944
 40
1.0
 40
1.0
 40
1.0
 40
1.0
 10
12.93332569073967
 20
20.916370872361
 30
0.0
 10
12.96929353122341
 20
20.91771526154304
 30
0.0
 10
13.04171868427366
 20
20.92042233516655
 30
0.0
 10
13.13789566039502
 20
20.93830205028175
 30
0.0
 10
13.19725844655688
 20
20.95444810180295
 30
0.0
 10
13.22145412514593
 20
20.96102907109951
 30
0.0
  0
LINE
  5
1C0
330
1F
100
AcDbEntity
  8
0
  6
Continuous
 62
     7
370
    25
100
AcDbLine
 10
12.9333256907
 20
20.9163708724
 30
0.0
 11
13.3808970278
 21
20.9163708724
 31
0.0
  0
SPLINE
  5
1C1
330
1F
100
AcDbEntity
  8
0
  6
Continuous
 62
     7
370
    25
100
AcDbSpline
210
0.0
220
0.0
230
1.0
 70
     8
 71
     3
 72
     9
 73
     5
 74
     0
 42
0.00000001
 43
0.00000001
 40
0.0
 40
0.0
 40
0.0
 40
0.0
 40
0.7313663949444412
 40
1.0
 40
1.0
 40
1.0
 40
1.0
 10
12.64519725633348
 20
20.96102907109952
 30
0.0
 10
12.71464455190906
 20
20.94348689972309
 30
0.0
 10
12.80960009820655
 20
20.9195014233631
 30
0.0
 10
12.90712675368854
 20
20.91703376761945
 30
0.0
 10
12.93332569073967
 20
20.916370872361
 30
0.0
  0
LINE
  5
1C2
330
1F
100
AcDbEntity
  8
0
  6
Continuous
 62
     7
370
    25
100
AcDbLine
 10
12.6451972563
 20
20.9610290711
 30
0.0
 11
12.6451972563
 21
21.1617126736
 31
0.0
  0
SPLINE
  5
1C3
330
1F
100
AcDbEntity
  8
0
  6
Continuous
 62
     7
370
    25
100
AcDbSpline
210
0.0
220
0.0
230
1.0
 70
     8
 71
     3
 72
     9
 73
     5
 74
     0
 42
0.00000001
 43
0.00000001
 40
0.0
 40
0.0
 40
0.0
 40
0.0
 40
0.2686336050556422
 40
1.0
 40
1.0
 40
1.0
 40
1.0
 10
12.9333256907397
 20
21.206370872361
 30
0.0
 10
12.90712675368855
 20
21.20570797710256
 30
0.0
 10
12.80960009820656
 20
21.20324032135895
 30
0.0
 10
12.71464455190906
 20
21.17925484499894
 30
0.0
 10
12.64519725633348
 20
21.16171267362249
 30
0.0
  0
SPLINE
  5
1C4
330
1F
100
AcDbEntity
  8
0
  6
Continuous
 62
     7
370
    25
100
AcDbSpline
210
0.0
220
0.0
230
1.0
 70
     8
 71
     3
 72
     9
 73
     5
 74
     0
 42
0.00000001
 43
0.00000001
 40
0.0
 40
0.0
 40
0.0
 40
0.0
 40
0.4954579634770159
 40
1.0
 40
1.0
 40
1.0
 40
1.0
 10
12.64519725633348
 20
21.16171267362249
 30
0.0
 10
12.62429816023763
 20
21.17419455152762
 30
0.0
 10
12.58211678939197
 20
21.19938715882277
 30
0.0
 10
12.53851211550567
 20
21.20402891250509
 30
0.0
 10
12.51651172454115
 20
21.20637087236101
 30
0.0
  0
SPLINE
  5
1C5
330
1F
100
AcDbEntity
  8
0
  6
Continuous
 62
     7
370
    25
100
AcDbSpline
210
0.0
220
0.0
230
1.0
 70
     8
 71
     3
 72
    10
 73
     6
 74
     0
 42
0.00000001
 43
0.00000001
 40
0.0
 40
0.0
 40
0.0
 40
0.0
 40
0.0700999696410075
 40
0.530789562800467
 40
1.0
 40
1.0
 40
1.0
 40
1.0
 10
12.51651172454115
 20
20.91637087236103
 30
0.0
 10
12.51956241908683
 20
20.91642420980309
 30
0.0
 10
12.54266195582596
 20
20.91682807527832
 30
0.0
 10
12.5862145324591
 20
20.92658187045327
 30
0.0
 10
12.62541660977409
 20
20.94947674092239
 30
0.0
 10
12.64519725633348
 20
20.96102907109953
 30
0.0
  0
LINE
  5
1C6
330
1F
100
AcDbEntity
  8
0
  6
Continuous
 62
     7
370
    25
100
AcDbLine
 10
12.5165117245
 20
20.9163708724
 30
0.0
 11
12.9333256907
 21
20.9163708724
 31
0.0
  0
SPLINE
  5
1C7
330
1F
100
AcDbEntity
  8
0
  6
Continuous
 62
     7
370
    25
100
AcDbSpline
210
0.0
220
0.0
230
1.0
 70
     8
 71
     3
 72
     9
 73
     5
 74
     0
 42
0.00000001
 43
0.00000001
 40
0.0
 40
0.0
 40
0.0
 40
0.0
 40
0.4954579634770062
 40
1.0
 40
1.0
 40
1.0
 40
1.0
 10
12.3878261927488
 20
20.96102907109953
 30
0.0
 10
12.40872528884467
 20
20.94854719319439
 30
0.0
 10
12.45090665969034
 20
20.92335458589924
 30
0.0
 10
12.49451133357664
 20
20.91871283221694
 30
0.0
 10
12.51651172454115
 20
20.91637087236103
 30
0.0
  0
LINE
  5
1C8
330
1F
100
AcDbEntity
  8
0
  6
Continuous
 62
     7
370
    25
100
AcDbLine
 10
12.3878261927
 20
20.9610290711
 30
0.0
 11
12.3878261927
 21
21.1617126736
 31
0.0
  0
SPLINE
  5
1C9
330
1F
100
AcDbEntity
  8
0
  6
Continuous
 62
     7
370
    25
100
AcDbSpline
210
0.0
220
0.0
230
1.0
 70
     8
 71
     3
 72
    10
 73
     6
 74
     0
 42
0.00000001
 43
0.00000001
 40
0.0
 40
0.0
 40
0.0
 40
0.0
 40
0.070099969641137
 40
0.5307895628005326
 40
0.9999999999999999
 40
0.9999999999999999
 40
0.9999999999999999
 40
0.9999999999999999
 10
12.51651172454115
 20
21.20637087236101
 30
0.0
 10
12.51346102999546
 20
21.20631753491895
 30
0.0
 10
12.49036149325623
 20
21.2059136694437
 30
0.0
 10
12.44680891662325
 20
21.19615987426875
 30
0.0
 10
12.40760683930821
 20
21.17326500379964
 30
0.0
 10
12.38782619274879
 20
21.1617126736225
 30
0.0
  0
LINE
  5
1CA
330
1F
100
AcDbEntity
  8
0
  6
Continuous
 62
     7
370
    25
100
AcDbLine
 10
13.5403399304
 20
20.9610290711
 30
0.0
 11
13.5226739058
 21
20.9519501786
 31
0.0
  0
LINE
  5
1CB
330
1F
100
AcDbEntity
  8
0
  6
Continuous
 62
     7
370
    25
100
AcDbLine
 10
13.3808970278
 20
20.9163708724
 30
0.0
 11
13.4640830616
 21
20.9163708724
 31
0.0
  0
LINE
  5
1CC
330
1F
100
AcDbEntity
  8
0
  6
Continuous
 62
     7
370
    25
100
AcDbLine
 10
13.5226698999
 20
21.1709329436
 30
0.0
 11
13.5403399304
 21
21.1617126736
 31
0.0
  0
LINE
  5
1CD
330
1F
100
AcDbEntity
  8
0
  6
Continuous
 62
     7
370
    25
100
AcDbLine
 10
12.4640830616
 20
20.9163708724
 30
0.0
 11
12.5165117245
 21
20.9163708724
 31
0.0
  0
SPLINE
  5
1CE
330
1F
100
AcDbEntity
  8
0
  6
Continuous
 62
     7
370
    25
100
AcDbSpline
210
0.0
220
0.0
230
1.0
 70
    24
 71
     3
 72
    10
 73
     6
 74
     0
 42
0.00000001
 43
0.00000001
 40
0.0
 40
0.0
 40
0.0
 40
0.0
 40
0.4391147205610567
 40
0.7513654971132685
 40
1.0
 40
1.0
 40
1.0
 40
1.0
 10
10.07184515743363
 20
27.99884605870975
 30
0.0
 10
10.08029319978187
 20
27.99562847323915
 30
0.0
 10
10.09474857383654
 20
27.99012288986101
 30
0.0
 10
10.11576206842241
 20
27.98211953096685
 30
0.0
 10
10.12622115672823
 20
27.97813600328301
 30
0.0
 10
10.1308575597805
 20
27.97637014765849
 30
0.0
  0
ARC
  5
1CF
330
1F
100
AcDbEntity
  8
0
  6
Continuous
 62
     7
370
    25
100
AcDbCircle
 10
10.1208160686
 20
28.0387143428
 30
0.0
 40
0.0631476856926134
100
AcDbArc
 50
219.149784904
 51
279.149784904
  0
SPLINE
  5
1D0
330
1F
100
AcDbEntity
  8
0
  6
Continuous
 62
     7
370
    25
100
AcDbSpline
210
0.0
220
0.0
230
1.0
 70
    24
 71
     3
 72
    10
 73
     6
 74
     0
 42
0.00000001
 43
0.00000001
 40
0.0
 40
0.0
 40
0.0
 40
0.0
 40
0.4391147205610628
 40
0.7513654971132836
 40
1.0
 40
1.0
 40
1.0
 40
1.0
 10
10.1308575597805
 20
27.97637014765849
 30
0.0
 10
10.13786809171101
 20
27.98207757420901
 30
0.0
 10
10.14986375380647
 20
27.99184350367248
 30
0.0
 10
10.16730161321735
 20
28.00604004435905
 30
0.0
 10
10.17598099354115
 20
28.01310611669039
 30
0.0
 10
10.17982847089753
 20
28.01623843170359
 30
0.0
  0
ARC
  5
1D1
330
1F
100
AcDbEntity
  8
0
  6
Continuous
 62
     7
370
    25
100
AcDbCircle
 10
10.1208160686
 20
28.0387143428
 30
0.0
 40
0.0631476856926165
100
AcDbArc
 50
279.149784904
 51
339.149784904
  0
ARC
  5
1D2
330
1F
100
AcDbEntity
  8
0
  6
Continuous
 62
     7
370
    25
100
AcDbCircle
 10
10.1208160686
 20
28.0387143428
 30
0.0
 40
0.0631476856926165
100
AcDbArc
 50
99.149784904
 51
159.149784904
  0
SPLINE
  5
1D3
330
1F
100
AcDbEntity
  8
0
  6
Continuous
 62
     7
370
    25
100
AcDbSpline
210
0.0
220
0.0
230
1.0
 70
    24
 71
     3
 72
    10
 73
     6
 74
     0
 42
0.00000001
 43
0.00000001
 40
0.0
 40
0.0
 40
0.0
 40
0.0
 40
0.4391147205610609
 40
0.7513654971132748
 40
1.0
 40
1.0
 40
1.0
 40
1.0
 10
10.11077457732082
 20
28.10105853785122
 30
0.0
 10
10.10376404539032
 20
28.0953511113007
 30
0.0
 10
10.09176838329486
 20
28.08558518183723
 30
0.0
 10
10.07433052388398
 20
28.07138864115066
 30
0.0
 10
10.06565114356018
 20
28.06432256881931
 30
0.0
 10
10.06180366620379
 20
28.06119025380612
 30
0.0
  0
ARC
  5
1D4
330
1F
100
AcDbEntity
  8
0
  6
Continuous
 62
     7
370
    25
100
AcDbCircle
 10
10.1208160686
 20
28.0387143428
 30
0.0
 40
0.0631476856926183
100
AcDbArc
 50
39.149784904
 51
99.149784904
  0
SPLINE
  5
1D5
330
1F
100
AcDbEntity
  8
0
  6
Continuous
 62
     7
370
    25
100
AcDbSpline
210
0.0
220
0.0
230
1.0
 70
    24
 71
     3
 72
    10
 73
     6
 74
     0
 42
0.00000001
 43
0.00000001
 40
0.0
 40
0.0
 40
0.0
 40
0.0
 40
0.4391147205610522
 40
0.7513654971132813
 40
0.9999999999999999
 40
0.9999999999999999
 40
0.9999999999999999
 40
0.9999999999999999
 10
10.16978697966769
 20
28.07858262679996
 30
0.0
 10
10.16133893731945
 20
28.08180021227056
 30
0.0
 10
10.14688356326479
 20
28.08730579564871
 30
0.0
 10
10.12587006867892
 20
28.09530915454286
 30
0.0
 10
10.1154109803731
 20
28.0992926822267
 30
0.0
 10
10.11077457732082
 20
28.10105853785122
 30
0.0
  0
SPLINE
  5
1D6
330
1F
100
AcDbEntity
  8
0
  6
Continuous
 62
     7
370
    25
100
AcDbSpline
210
0.0
220
0.0
230
1.0
 70
    24
 71
     3
 72
    11
 73
     7
 74
     0
 42
0.00000001
 43
0.00000001
 40
0.0
 40
0.0
 40
0.0
 40
0.0
 40
0.1560254891889403
 40
0.4937074226657184
 40
0.8190577533761071
 40
0.9999999999999999
 40
0.9999999999999999
 40
0.9999999999999999
 40
0.9999999999999999
 10
10.06180366620379
 20
28.06119025380612
 30
0.0
 10
10.06229573542253
 20
28.05813516381285
 30
0.0
 10
10.06385277733291
 20
28.04846802151173
 30
0.0
 10
10.06671353168945
 20
28.03070657317261
 30
0.0
 10
10.06967300336473
 20
28.01233222266202
 30
0.0
 10
10.07127325038885
 20
28.00239683454181
 30
0.0
 10
10.07184515743363
 20
27.99884605870975
 30
0.0
  0
ARC
  5
1D7
330
1F
100
AcDbEntity
  8
0
  6
Continuous
 62
     7
370
    25
100
AcDbCircle
 10
10.1208160686
 20
28.0387143428
 30
0.0
 40
0.0631476856926165
100
AcDbArc
 50
159.149784904
 51
219.149784904
  0
ARC
  5
1D8
330
1F
100
AcDbEntity
  8
0
  6
Continuous
 62
     7
370
    25
100
AcDbCircle
 10
10.1208160686
 20
28.0387143428
 30
0.0
 40
0.0631476856926183
100
AcDbArc
 50
339.149784904
 51
39.149784904
  0
SPLINE
  5
1D9
330
1F
100
AcDbEntity
  8
0
  6
Continuous
 62
     7
370
    25
100
AcDbSpline
210
0.0
220
0.0
230
1.0
 70
    24
 71
     3
 72
    11
 73
     7
 74
     0
 42
0.00000001
 43
0.00000001
 40
0.0
 40
0.0
 40
0.0
 40
0.0
 40
0.180942246623888
 40
0.5062925773342793
 40
0.8439745108110553
 40
1.0
 40
1.0
 40
1.0
 40
1.0
 10
10.17982847089753
 20
28.01623843170359
 30
0.0
 10
10.17925656385275
 20
28.01978920753565
 30
0.0
 10
10.17765631682863
 20
28.02972459565586
 30
0.0
 10
10.17469684515335
 20
28.04809894616645
 30
0.0
 10
10.17183609079682
 20
28.06586039450557
 30
0.0
 10
10.17027904888643
 20
28.07552753680669
 30
0.0
 10
10.16978697966769
 20
28.07858262679996
 30
0.0
  0
CIRCLE
  5
1DA
330
1F
100
AcDbEntity
  8
0
  6
Continuous
 62
     7
370
    25
100
AcDbCircle
 10
10.1208160686
 20
28.0387143428
 30
0.0
 40
0.1016999999999978
  0
CIRCLE
  5
1DB
330
1F
100
AcDbEntity
  8
0
  6
Continuous
 62
     7
370
    25
100
AcDbCircle
 10
10.1208160686
 20
28.0387143428
 30
0.0
 40
0.1129999999999998
  0
CIRCLE
  5
1DC
330
1F
100
AcDbEntity
  8
0
  6
Continuous
 62
     7
370
    25
100
AcDbCircle
 10
10.1208160686
 20
28.0387143428
 30
0.0
 40
0.0299999999999991
  0
SPLINE
  5
1DD
330
1F
100
AcDbEntity
  8
0
  6
Continuous
 62
     7
370
    25
100
AcDbSpline
210
0.0
220
0.0
230
1.0
 70
    24
 71
     3
 72
    10
 73
     6
 74
     0
 42
0.00000001
 43
0.00000001
 40
0.0
 40
0.0
 40
0.0
 40
0.0
 40
0.4391147205610637
 40
0.7513654971132712
 40
1.0
 40
1.0
 40
1.0
 40
1.0
 10
9.275444083042007
 20
24.9006145400427
 30
0.0
 10
9.28431697854196
 20
24.90234485828661
 30
0.0
 10
9.299499315243485
 20
24.90530559124915
 30
0.0
 10
9.32156958121322
 20
24.90960955085913
 30
0.0
 10
9.33255465843429
 20
24.91175176920561
 30
0.0
 10
9.337424226800866
 20
24.91270139190597
 30
0.0
  0
ARC
  5
1DE
330
1F
100
AcDbEntity
  8
0
  6
Continuous
 62
     7
370
    25
100
AcDbCircle
 10
9.2959666342
 20
24.960334345
 30
0.0
 40
0.0631476856926176
100
AcDbArc
 50
251.0348536147
 51
311.0348536147
  0
SPLINE
  5
1DF
330
1F
100
AcDbEntity
  8
0
  6
Continuous
 62
     7
370
    25
100
AcDbSpline
210
0.0
220
0.0
230
1.0
 70
    24
 71
     3
 72
    10
 73
     6
 74
     0
 42
0.00000001
 43
0.00000001
 40
0.0
 40
0.0
 40
0.0
 40
0.0
 40
0.4391147205610632
 40
0.7513654971132806
 40
1.0
 40
1.0
 40
1.0
 40
1.0
 10
9.254509041511266
 20
25.00796729809347
 30
0.0
 10
9.25157109331715
 20
24.99941798606343
 30
0.0
 10
9.246543994925764
 20
24.98478933030983
 30
0.0
 10
9.239236200300008
 20
24.96352393950677
 30
0.0
 10
9.235598877197976
 20
24.95293947439755
 30
0.0
 10
9.233986490397207
 20
24.94824749313645
 30
0.0
  0
ARC
  5
1E0
330
1F
100
AcDbEntity
  8
0
  6
Continuous
 62
     7
370
    25
100
AcDbCircle
 10
9.2959666342
 20
24.960334345
 30
0.0
 40
0.0631476856926165
100
AcDbArc
 50
131.0348536147
 51
191.0348536147
  0
ARC
  5
1E1
330
1F
100
AcDbEntity
  8
0
  6
Continuous
 62
     7
370
    25
100
AcDbCircle
 10
9.2959666342
 20
24.960334345
 30
0.0
 40
0.0631476856926154
100
AcDbArc
 50
311.0348536147
 51
11.0348536147
  0
SPLINE
  5
1E2
330
1F
100
AcDbEntity
  8
0
  6
Continuous
 62
     7
370
    25
100
AcDbSpline
210
0.0
220
0.0
230
1.0
 70
    24
 71
     3
 72
    10
 73
     6
 74
     0
 42
0.00000001
 43
0.00000001
 40
0.0
 40
0.0
 40
0.0
 40
0.0
 40
0.4391147205610602
 40
0.7513654971132807
 40
1.0
 40
1.0
 40
1.0
 40
1.0
 10
9.337424226800866
 20
24.91270139190597
 30
0.0
 10
9.340362174994985
 20
24.92125070393601
 30
0.0
 10
9.345389273386367
 20
24.93587935968961
 30
0.0
 10
9.352697068012125
 20
24.95714475049267
 30
0.0
 10
9.356334391114157
 20
24.96772921560189
 30
0.0
 10
9.357946777914924
 20
24.97242119686299
 30
0.0
  0
SPLINE
  5
1E3
330
1F
100
AcDbEntity
  8
0
  6
Continuous
 62
     7
370
    25
100
AcDbSpline
210
0.0
220
0.0
230
1.0
 70
    24
 71
     3
 72
    10
 73
     6
 74
     0
 42
0.00000001
 43
0.00000001
 40
0.0
 40
0.0
 40
0.0
 40
0.0
 40
0.4391147205610478
 40
0.7513654971132778
 40
1.0
 40
1.0
 40
1.0
 40
1.0
 10
9.316489185270123
 20
25.02005414995674
 30
0.0
 10
9.307616289770172
 20
25.01832383171283
 30
0.0
 10
9.292433953068645
 20
25.01536309875029
 30
0.0
 10
9.270363687098913
 20
25.0110591391403
 30
0.0
 10
9.259378609877842
 20
25.00891692079382
 30
0.0
 10
9.254509041511266
 20
25.00796729809347
 30
0.0
  0
ARC
  5
1E4
330
1F
100
AcDbEntity
  8
0
  6
Continuous
 62
     7
370
    25
100
AcDbCircle
 10
9.2959666342
 20
24.960334345
 30
0.0
 40
0.0631476856926144
100
AcDbArc
 50
71.0348536147
 51
131.0348536147
  0
ARC
  5
1E5
330
1F
100
AcDbEntity
  8
0
  6
Continuous
 62
     7
370
    25
100
AcDbCircle
 10
9.2959666342
 20
24.960334345
 30
0.0
 40
0.0631476856926154
100
AcDbArc
 50
11.0348536147
 51
71.0348536147
  0
SPLINE
  5
1E6
330
1F
100
AcDbEntity
  8
0
  6
Continuous
 62
     7
370
    25
100
AcDbSpline
210
0.0
220
0.0
230
1.0
 70
    24
 71
     3
 72
    11
 73
     7
 74
     0
 42
0.00000001
 43
0.00000001
 40
0.0
 40
0.0
 40
0.0
 40
0.0
 40
0.1809422466238875
 40
0.5062925773342783
 40
0.8439745108110553
 40
1.0
 40
1.0
 40
1.0
 40
1.0
 10
9.357946777914924
 20
24.97242119686299
 30
0.0
 10
9.355585585861823
 20
24.97513410282631
 30
0.0
 10
9.348978759471347
 20
24.98272505617114
 30
0.0
 10
9.336760198667038
 20
24.996763645885
 30
0.0
 10
9.324949205055095
 20
25.01033395879556
 30
0.0
 10
9.318520756553362
 20
25.01771996378076
 30
0.0
 10
9.316489185270123
 20
25.02005414995674
 30
0.0
  0
SPLINE
  5
1E7
330
1F
100
AcDbEntity
  8
0
  6
Continuous
 62
     7
370
    25
100
AcDbSpline
210
0.0
220
0.0
230
1.0
 70
    24
 71
     3
 72
    11
 73
     7
 74
     0
 42
0.00000001
 43
0.00000001
 40
0.0
 40
0.0
 40
0.0
 40
0.0
 40
0.1560254891889435
 40
0.4937074226657178
 40
0.8190577533761044
 40
1.0
 40
1.0
 40
1.0
 40
1.0
 10
9.233986490397207
 20
24.94824749313645
 30
0.0
 10
9.236018061680445
 20
24.94591330696046
 30
0.0
 10
9.242446510182177
 20
24.93852730197527
 30
0.0
 10
9.254257503794122
 20
24.92495698906472
 30
0.0
 10
9.26647606459843
 20
24.91091839935086
 30
0.0
 10
9.273082890988906
 20
24.90332744600601
 30
0.0
 10
9.275444083042007
 20
24.9006145400427
 30
0.0
  0
ARC
  5
1E8
330
1F
100
AcDbEntity
  8
0
  6
Continuous
 62
     7
370
    25
100
AcDbCircle
 10
9.2959666342
 20
24.960334345
 30
0.0
 40
0.0631476856926176
100
AcDbArc
 50
191.0348536147
 51
251.0348536147
  0
CIRCLE
  5
1E9
330
1F
100
AcDbEntity
  8
0
  6
Continuous
 62
     7
370
    25
100
AcDbCircle
 10
9.2959666342
 20
24.960334345
 30
0.0
 40
0.1017000000000006
  0
CIRCLE
  5
1EA
330
1F
100
AcDbEntity
  8
0
  6
Continuous
 62
     7
370
    25
100
AcDbCircle
 10
9.2959666342
 20
24.960334345
 30
0.0
 40
0.1129999999999982
  0
CIRCLE
  5
1EB
330
1F
100
AcDbEntity
  8
0
  6
Continuous
 62
     7
370
    25
100
AcDbCircle
 10
9.2959666342
 20
24.960334345
 30
0.0
 40
0.029999999999999
  0
SPLINE
  5
1EC
330
1F
100
AcDbEntity
  8
0
  6
Continuous
 62
     7
370
    25
100
AcDbSpline
210
0.0
220
0.0
230
1.0
 70
    24
 71
     3
 72
    10
 73
     6
 74
     0
 42
0.00000001
 43
0.00000001
 40
0.0
 40
0.0
 40
0.0
 40
0.0
 40
0.4391147205610632
 40
0.7513654971132743
 40
1.0
 40
1.0
 40
1.0
 40
1.0
 10
12.40666472785389
 20
25.73093278048215
 30
0.0
 10
12.4110773576163
 20
25.73882270914837
 30
0.0
 10
12.41862777120931
 20
25.752323099586
 30
0.0
 10
12.42960365979979
 20
25.77194835316267
 30
0.0
 10
12.4350667105805
 20
25.78171646951969
 30
0.0
 10
12.43748842312119
 20
25.78604657202657
 30
0.0
  0
ARC
  5
1ED
330
1F
100
AcDbEntity
  8
0
  6
Continuous
 62
     7
370
    25
100
AcDbCircle
 10
12.3743466319
 20
25.7851837794
 30
0.0
 40
0.0631476856926167
100
AcDbArc
 50
300.7828618591
 51
0.7828618591
  0
ARC
  5
1EE
330
1F
100
AcDbEntity
  8
0
  6
Continuous
 62
     7
370
    25
100
AcDbCircle
 10
12.3743466319
 20
25.7851837794
 30
0.0
 40
0.0631476856926181
100
AcDbArc
 50
180.7828618591
 51
240.7828618591
  0
SPLINE
  5
1EF
330
1F
100
AcDbEntity
  8
0
  6
Continuous
 62
     7
370
    25
100
AcDbSpline
210
0.0
220
0.0
230
1.0
 70
    24
 71
     3
 72
    10
 73
     6
 74
     0
 42
0.00000001
 43
0.00000001
 40
0.0
 40
0.0
 40
0.0
 40
0.0
 40
0.4391147205610642
 40
0.7513654971132784
 40
1.0
 40
1.0
 40
1.0
 40
1.0
 10
12.31120484070119
 20
25.78432098676213
 30
0.0
 10
12.31583140447898
 20
25.77655457295727
 30
0.0
 10
12.32374787876247
 20
25.76326552775783
 30
0.0
 10
12.33525590262034
 20
25.74394750262103
 30
0.0
 10
12.34098381414229
 20
25.73433230368426
 30
0.0
 10
12.34352293664389
 20
25.73006998784992
 30
0.0
  0
ARC
  5
1F0
330
1F
100
AcDbEntity
  8
0
  6
Continuous
 62
     7
370
    25
100
AcDbCircle
 10
12.3743466319
 20
25.7851837794
 30
0.0
 40
0.063147685692615
100
AcDbArc
 50
120.7828618591
 51
180.7828618591
  0
SPLINE
  5
1F1
330
1F
100
AcDbEntity
  8
0
  6
Continuous
 62
     7
370
    25
100
AcDbSpline
210
0.0
220
0.0
230
1.0
 70
    24
 71
     3
 72
    10
 73
     6
 74
     0
 42
0.00000001
 43
0.00000001
 40
0.0
 40
0.0
 40
0.0
 40
0.0
 40
0.4391147205610513
 40
0.7513654971132804
 40
1.0
 40
1.0
 40
1.0
 40
1.0
 10
12.34202853596849
 20
25.83943477830655
 30
0.0
 10
12.33761590620608
 20
25.83154484964032
 30
0.0
 10
12.33006549261307
 20
25.81804445920269
 30
0.0
 10
12.31908960402259
 20
25.79841920562603
 30
0.0
 10
12.31362655324188
 20
25.78865108926901
 30
0.0
 10
12.31120484070119
 20
25.78432098676213
 30
0.0
  0
ARC
  5
1F2
330
1F
100
AcDbEntity
  8
0
  6
Continuous
 62
     7
370
    25
100
AcDbCircle
 10
12.3743466319
 20
25.7851837794
 30
0.0
 40
0.0631476856926167
100
AcDbArc
 50
0.7828618591
 51
60.7828618591
  0
SPLINE
  5
1F3
330
1F
100
AcDbEntity
  8
0
  6
Continuous
 62
     7
370
    25
100
AcDbSpline
210
0.0
220
0.0
230
1.0
 70
    24
 71
     3
 72
    10
 73
     6
 74
     0
 42
0.00000001
 43
0.00000001
 40
0.0
 40
0.0
 40
0.0
 40
0.0
 40
0.4391147205610628
 40
0.7513654971132874
 40
1.0
 40
1.0
 40
1.0
 40
1.0
 10
12.43748842312119
 20
25.78604657202657
 30
0.0
 10
12.4328618593434
 20
25.79381298583143
 30
0.0
 10
12.4249453850599
 20
25.80710203103087
 30
0.0
 10
12.41343736120204
 20
25.82642005616766
 30
0.0
 10
12.40770944968009
 20
25.83603525510443
 30
0.0
 10
12.40517032717849
 20
25.84029757093877
 30
0.0
  0
SPLINE
  5
1F4
330
1F
100
AcDbEntity
  8
0
  6
Continuous
 62
     7
370
    25
100
AcDbSpline
210
0.0
220
0.0
230
1.0
 70
    24
 71
     3
 72
    11
 73
     7
 74
     0
 42
0.00000001
 43
0.00000001
 40
0.0
 40
0.0
 40
0.0
 40
0.0
 40
0.1560254891889399
 40
0.4937074226657174
 40
0.8190577533761075
 40
1.0
 40
1.0
 40
1.0
 40
1.0
 10
12.34352293664389
 20
25.73006998784992
 30
0.0
 10
12.34661711171801
 20
25.73011226779488
 30
0.0
 10
12.3564079299302
 20
25.7302460531319
 30
0.0
 10
12.37439660812041
 20
25.7304918570394
 30
0.0
 10
12.39300602960328
 20
25.7307461430113
 30
0.0
 10
12.40306852541876
 20
25.73088364065089
 30
0.0
 10
12.40666472785389
 20
25.73093278048215
 30
0.0
  0
ARC
  5
1F5
330
1F
100
AcDbEntity
  8
0
  6
Continuous
 62
     7
370
    25
100
AcDbCircle
 10
12.3743466319
 20
25.7851837794
 30
0.0
 40
0.0631476856926181
100
AcDbArc
 50
240.7828618591
 51
300.7828618591
  0
SPLINE
  5
1F6
330
1F
100
AcDbEntity
  8
0
  6
Continuous
 62
     7
370
    25
100
AcDbSpline
210
0.0
220
0.0
230
1.0
 70
    24
 71
     3
 72
    11
 73
     7
 74
     0
 42
0.00000001
 43
0.00000001
 40
0.0
 40
0.0
 40
0.0
 40
0.0
 40
0.1809422466238908
 40
0.5062925773342807
 40
0.8439745108110572
 40
1.0
 40
1.0
 40
1.0
 40
1.0
 10
12.40517032717849
 20
25.84029757093877
 30
0.0
 10
12.40157412474336
 20
25.84024843110751
 30
0.0
 10
12.39151162892789
 20
25.84011093346792
 30
0.0
 10
12.37290220744501
 20
25.83985664749602
 30
0.0
 10
12.35491352925481
 20
25.83961084358852
 30
0.0
 10
12.34512271104261
 20
25.83947705825151
 30
0.0
 10
12.34202853596849
 20
25.83943477830655
 30
0.0
  0
ARC
  5
1F7
330
1F
100
AcDbEntity
  8
0
  6
Continuous
 62
     7
370
    25
100
AcDbCircle
 10
12.3743466319
 20
25.7851837794
 30
0.0
 40
0.063147685692615
100
AcDbArc
 50
60.7828618591
 51
120.7828618591
  0
CIRCLE
  5
1F8
330
1F
100
AcDbEntity
  8
0
  6
Continuous
 62
     7
370
    25
100
AcDbCircle
 10
12.3743466319
 20
25.7851837794
 30
0.0
 40
0.1017000000000025
  0
CIRCLE
  5
1F9
330
1F
100
AcDbEntity
  8
0
  6
Continuous
 62
     7
370
    25
100
AcDbCircle
 10
12.3743466319
 20
25.7851837794
 30
0.0
 40
0.1130000000000007
  0
CIRCLE
  5
1FA
330
1F
100
AcDbEntity
  8
0
  6
Continuous
 62
     7
370
    25
100
AcDbCircle
 10
12.3743466319
 20
25.7851837794
 30
0.0
 40
0.0299999999999996
  0
CIRCLE
  5
1FB
330
1F
100
AcDbEntity
  8
0
  6
Continuous
 62
     7
370
    25
100
AcDbCircle
 10
12.9640830616
 20
21.9563708724
 30
0.0
 40
0.1574999999999999
  0
LINE
  5
1FC
330
1F
100
AcDbEntity
  8
0
  6
Continuous
 62
     7
370
    25
100
AcDbLine
 10
12.9355773373
 20
22.0652856266
 30
0.0
 11
12.8555072554
 21
21.9861415681
 31
0.0
  0
LINE
  5
1FD
330
1F
100
AcDbEntity
  8
0
  6
Continuous
 62
     7
370
    25
100
AcDbLine
 10
12.8555072554
 20
21.9861415681
 30
0.0
 11
12.8840129797
 21
21.8772268139
 31
0.0
  0
LINE
  5
1FE
330
1F
100
AcDbEntity
  8
0
  6
Continuous
 62
     7
370
    25
100
AcDbLine
 10
12.8840129797
 20
21.8772268139
 30
0.0
 11
12.9925887858
 21
21.8474561182
 31
0.0
  0
LINE
  5
1FF
330
1F
100
AcDbEntity
  8
0
  6
Continuous
 62
     7
370
    25
100
AcDbLine
 10
12.9925887858
 20
21.8474561182
 30
0.0
 11
13.0726588677
 21
21.9266001766
 31
0.0
  0
LINE
  5
200
330
1F
100
AcDbEntity
  8
0
  6
Continuous
 62
     7
370
    25
100
AcDbLine
 10
13.0726588677
 20
21.9266001766
 30
0.0
 11
13.0441531434
 21
22.0355149308
 31
0.0
  0
LINE
  5
201
330
1F
100
AcDbEntity
  8
0
  6
Continuous
 62
     7
370
    25
100
AcDbLine
 10
13.0441531434
 20
22.0355149308
 30
0.0
 11
12.9355773373
 21
22.0652856266
 31
0.0
  0
CIRCLE
  5
202
330
1F
100
AcDbEntity
  8
0
  6
Continuous
 62
     7
370
    25
100
AcDbCircle
 10
12.9640830616
 20
21.9563708724
 30
0.0
 40
0.096750000000003
  0
SPLINE
  5
203
330
1F
100
AcDbEntity
  8
0
  6
Continuous
 62
     7
370
    25
100
AcDbSpline
210
0.0
220
0.0
230
1.0
 70
    24
 71
     3
 72
    10
 73
     6
 74
     0
 42
0.00000001
 43
0.00000001
 40
0.0
 40
0.0
 40
0.0
 40
0.0
 40
0.4391249614229237
 40
0.7513736477007477
 40
1.0
 40
1.0
 40
1.0
 40
1.0
 10
12.98118919585497
 20
23.78747779414956
 30
0.0
 10
12.99321742190407
 20
23.79725006992385
 30
0.0
 10
13.0137985613879
 20
23.81397112005744
 30
0.0
 10
13.04371651766674
 20
23.83827782315434
 30
0.0
 10
13.05860738295367
 20
23.85037583673566
 30
0.0
 10
13.06520824992801
 20
23.85573868011415
 30
0.0
  0
ARC
  5
204
330
1F
100
AcDbEntity
  8
0
  6
Continuous
 62
     7
370
    25
100
AcDbCircle
 10
12.9640830616
 20
23.8943708724
 30
0.0
 40
0.1082531754730892
100
AcDbArc
 50
279.091971167
 51
339.0919711669
  0
ARC
  5
205
330
1F
100
AcDbEntity
  8
0
  6
Continuous
 62
     7
370
    25
100
AcDbCircle
 10
12.9640830616
 20
23.8943708724
 30
0.0
 40
0.108253175473048
100
AcDbArc
 50
159.0919711669
 51
219.091971167
  0
SPLINE
  5
206
330
1F
100
AcDbEntity
  8
0
  6
Continuous
 62
     7
370
    25
100
AcDbSpline
210
0.0
220
0.0
230
1.0
 70
    24
 71
     3
 72
    10
 73
     6
 74
     0
 42
0.00000001
 43
0.00000001
 40
0.0
 40
0.0
 40
0.0
 40
0.0
 40
0.4391249614230486
 40
0.7513736477006187
 40
1.0
 40
1.0
 40
1.0
 40
1.0
 10
12.86295787319463
 20
23.93300306460797
 30
0.0
 10
12.86540679924337
 20
23.91770017739983
 30
0.0
 10
12.86959708369504
 20
23.89151586270117
 30
0.0
 10
12.87568832791983
 20
23.85345280098591
 30
0.0
 10
12.87872008237314
 20
23.83450792657241
 30
0.0
 10
12.88006400748827
 20
23.82610998639639
 30
0.0
  0
ARC
  5
207
330
1F
100
AcDbEntity
  8
0
  6
Continuous
 62
     7
370
    25
100
AcDbCircle
 10
12.9640830616
 20
23.8943708724
 30
0.0
 40
0.1082531754731169
100
AcDbArc
 50
339.0919711669
 51
39.0919711669
  0
SPLINE
  5
208
330
1F
100
AcDbEntity
  8
0
  6
Continuous
 62
     7
370
    25
100
AcDbSpline
210
0.0
220
0.0
230
1.0
 70
    24
 71
     3
 72
    10
 73
     6
 74
     0
 42
0.00000001
 43
0.00000001
 40
0.0
 40
0.0
 40
0.0
 40
0.0
 40
0.4391249614223977
 40
0.7513736477011506
 40
0.9999999999999999
 40
0.9999999999999999
 40
0.9999999999999999
 40
0.9999999999999999
 10
13.06520824992801
 20
23.85573868011414
 30
0.0
 10
13.06275932387924
 20
23.87104156732225
 30
0.0
 10
13.05856903942751
 20
23.8972258820209
 30
0.0
 10
13.05247779520279
 20
23.93528894373617
 30
0.0
 10
13.04944604074947
 20
23.95423381814967
 30
0.0
 10
13.04810211563434
 20
23.96263175832567
 30
0.0
  0
SPLINE
  5
209
330
1F
100
AcDbEntity
  8
0
  6
Continuous
 62
     7
370
    25
100
AcDbSpline
210
0.0
220
0.0
230
1.0
 70
    24
 71
     3
 72
    10
 73
     6
 74
     0
 42
0.00000001
 43
0.00000001
 40
0.0
 40
0.0
 40
0.0
 40
0.0
 40
0.4391249614232465
 40
0.7513736477014444
 40
1.0
 40
1.0
 40
1.0
 40
1.0
 10
12.94697692726763
 20
24.00126395057255
 30
0.0
 10
12.93494870121853
 20
23.99149167479826
 30
0.0
 10
12.91436756173469
 20
23.97477062466466
 30
0.0
 10
12.8844496054559
 20
23.9504639215677
 30
0.0
 10
12.86955874016896
 20
23.93836590798642
 30
0.0
 10
12.86295787319463
 20
23.93300306460798
 30
0.0
  0
ARC
  5
20A
330
1F
100
AcDbEntity
  8
0
  6
Continuous
 62
     7
370
    25
100
AcDbCircle
 10
12.9640830616
 20
23.8943708724
 30
0.0
 40
0.1082531754730967
100
AcDbArc
 50
99.0919711669
 51
159.0919711669
  0
ARC
  5
20B
330
1F
100
AcDbEntity
  8
0
  6
Continuous
 62
     7
370
    25
100
AcDbCircle
 10
12.9640830616
 20
23.8943708724
 30
0.0
 40
0.108253175473048
100
AcDbArc
 50
219.091971167
 51
279.091971167
  0
SPLINE
  5
20C
330
1F
100
AcDbEntity
  8
0
  6
Continuous
 62
     7
370
    25
100
AcDbSpline
210
0.0
220
0.0
230
1.0
 70
    24
 71
     3
 72
    11
 73
     7
 74
     0
 42
0.00000001
 43
0.00000001
 40
0.0
 40
0.0
 40
0.0
 40
0.0
 40
0.1809422465197069
 40
0.5062925772655442
 40
0.8439745107796227
 40
1.0
 40
1.0
 40
1.0
 40
1.0
 10
12.88006400748827
 20
23.82610998639639
 30
0.0
 10
12.88582353127553
 20
23.8239097133112
 30
0.0
 10
12.90193919358305
 20
23.81775315257202
 30
0.0
 10
12.93174324596541
 20
23.80636730597947
 30
0.0
 10
12.96055314248341
 20
23.79536125022948
 30
0.0
 10
12.97623369758232
 20
23.78937091064249
 30
0.0
 10
12.98118919585497
 20
23.78747779414956
 30
0.0
  0
ARC
  5
20D
330
1F
100
AcDbEntity
  8
0
  6
Continuous
 62
     7
370
    25
100
AcDbCircle
 10
12.9640830616
 20
23.8943708724
 30
0.0
 40
0.1082531754731169
100
AcDbArc
 50
39.0919711669
 51
99.0919711669
  0
SPLINE
  5
20E
330
1F
100
AcDbEntity
  8
0
  6
Continuous
 62
     7
370
    25
100
AcDbSpline
210
0.0
220
0.0
230
1.0
 70
    24
 71
     3
 72
    11
 73
     7
 74
     0
 42
0.00000001
 43
0.00000001
 40
0.0
 40
0.0
 40
0.0
 40
0.0
 40
0.1560254891886948
 40
0.4937074226655738
 40
0.8190577533760085
 40
0.9999999999999999
 40
0.9999999999999999
 40
0.9999999999999999
 40
0.9999999999999999
 10
13.04810211563434
 20
23.96263175832567
 30
0.0
 10
13.04314661736271
 20
23.96452487481822
 30
0.0
 10
13.02746606226602
 20
23.97051521440441
 30
0.0
 10
12.99865616575224
 20
23.98152127015275
 30
0.0
 10
12.96885211336811
 20
23.99290711674584
 30
0.0
 10
12.95273645105826
 20
23.99906367748604
 30
0.0
 10
12.94697692726763
 20
24.00126395057255
 30
0.0
  0
CIRCLE
  5
20F
330
1F
100
AcDbEntity
  8
0
  6
Continuous
 62
     7
370
    25
100
AcDbCircle
 10
12.9640830616
 20
23.8943708724
 30
0.0
 40
0.1687500000000008
  0
CIRCLE
  5
210
330
1F
100
AcDbEntity
  8
0
  6
Continuous
 62
     7
370
    25
100
AcDbCircle
 10
12.9640830616
 20
23.8943708724
 30
0.0
 40
0.1874999999999994
  0
LINE
  5
211
330
1F
100
AcDbEntity
  8
0
  6
Continuous
 62
     7
370
    25
100
AcDbLine
 10
13.7090830616
 20
23.0763708724
 30
0.0
 11
13.7090830616
 21
23.8943708724
 31
0.0
  0
LINE
  5
212
330
1F
100
AcDbEntity
  8
0
  6
Continuous
 62
     7
370
    25
100
AcDbLine
 10
12.2190830616
 20
23.8943708724
 30
0.0
 11
12.2190830616
 21
23.0763708724
 31
0.0
  0
LINE
  5
213
330
1F
100
AcDbEntity
  8
0
  6
Continuous
 62
     7
370
    25
100
AcDbLine
 10
12.7687705616
 20
23.8943708724
 30
0.0
 11
12.2190830616
 21
23.8943708724
 31
0.0
  0
SPLINE
  5
214
330
1F
100
AcDbEntity
  8
0
  6
Continuous
 62
     7
370
    25
100
AcDbSpline
210
0.0
220
0.0
230
1.0
 70
     8
 71
     3
 72
    17
 73
    13
 74
     0
 42
0.00000001
 43
0.00000001
 40
0.0
 40
0.0
 40
0.0
 40
0.0
 40
0.104832714169772
 40
0.2095765072388657
 40
0.3166109314861637
 40
0.4252646270477377
 40
0.5314898903667573
 40
0.6351464711814797
 40
0.7398351710609901
 40
0.8476277085572527
 40
0.9560054683794277
 40
0.9999999999999999
 40
0.9999999999999999
 40
0.9999999999999999
 40
0.9999999999999999
 10
13.15939556156127
 20
23.89437087236102
 30
0.0
 10
13.15731242607303
 20
23.87283297058113
 30
0.0
 10
13.15314792205166
 20
23.829775435879
 30
0.0
 10
13.12077568910042
 20
23.77218589775596
 30
0.0
 10
13.07250949796319
 20
23.72738639612131
 30
0.0
 10
13.0110598208713
 20
23.70090934005374
 30
0.0
 10
12.94477726083384
 20
23.69638768781362
 30
0.0
 10
12.88166249347623
 20
23.71343683476825
 30
0.0
 10
12.827399938794
 20
23.74980314693964
 30
0.0
 10
12.7875724473022
 20
23.80255736177117
 30
0.0
 10
12.7704644832675
 20
23.85420302932236
 30
0.0
 10
12.76915007216752
 20
23.88537156477368
 30
0.0
 10
12.76877056156127
 20
23.89437087236102
 30
0.0
  0
LINE
  5
215
330
1F
100
AcDbEntity
  8
0
  6
Continuous
 62
     7
370
    25
100
AcDbLine
 10
13.7090830616
 20
23.8943708724
 30
0.0
 11
13.1593955616
 21
23.8943708724
 31
0.0
  0
LINE
  5
216
330
1F
100
AcDbEntity
  8
0
  6
Continuous
 62
     7
370
    25
100
AcDbLine
 10
13.7090830616
 20
21.2063708724
 30
0.0
 11
12.2190830616
 21
21.2063708724
 31
0.0
  0
SPLINE
  5
217
330
1F
100
AcDbEntity
  8
0
  6
Continuous
 62
     7
370
    25
100
AcDbSpline
210
0.0
220
0.0
230
1.0
 70
     8
 71
     3
 72
    13
 73
     9
 74
     0
 42
0.00000001
 43
0.00000001
 40
0.0
 40
0.0
 40
0.0
 40
0.0
 40
0.1918002999580407
 40
0.3835032323336631
 40
0.5777510312738497
 40
0.7739195142245763
 40
0.9672469541673973
 40
1.0
 40
1.0
 40
1.0
 40
1.0
 10
12.96408306156128
 20
21.80012087236101
 30
0.0
 10
12.94671922090734
 20
21.8018115353794
 30
0.0
 10
12.91200035436768
 20
21.80519200314967
 30
0.0
 10
12.86575296687377
 20
21.83145690996143
 30
0.0
 10
12.82969535837289
 20
21.8705364154948
 30
0.0
 10
12.81006657712675
 20
21.91952530256289
 30
0.0
 10
12.80435029220922
 20
21.95902699531007
 30
0.0
 10
12.81021759118773
 20
21.97854336241612
 30
0.0
 10
12.8110676066665
 20
21.98137076463139
 30
0.0
  0
SPLINE
  5
218
330
1F
100
AcDbEntity
  8
0
  6
Continuous
 62
     7
370
    25
100
AcDbSpline
210
0.0
220
0.0
230
1.0
 70
     8
 71
     3
 72
    11
 73
     7
 74
     0
 42
0.00000001
 43
0.00000001
 40
0.0
 40
0.0
 40
0.0
 40
0.0
 40
0.2894193245425817
 40
0.5887071187114249
 40
0.8884818030174894
 40
1.0
 40
1.0
 40
1.0
 40
1.0
 10
12.82282412418329
 20
22.02288183312849
 30
0.0
 10
12.83150263509732
 20
22.03766541707884
 30
0.0
 10
12.84915557227758
 20
22.06773666793741
 30
0.0
 10
12.89267607279069
 20
22.09782494394807
 30
0.0
 10
12.93319255495501
 20
22.11304938081058
 30
0.0
 10
12.95742655663345
 20
22.11110542688661
 30
0.0
 10
12.96399737829315
 20
22.11057834206098
 30
0.0
  0
LINE
  5
219
330
1F
100
AcDbEntity
  8
0
  6
Continuous
 62
     7
370
    25
100
AcDbLine
 10
12.9750141622
 20
21.8015370147
 30
0.0
 11
12.9640830616
 21
21.8001208724
 31
0.0
  0
ARC
  5
21A
330
1F
100
AcDbEntity
  8
0
  6
Continuous
 62
     7
370
    25
100
AcDbCircle
 10
12.9640830616
 20
23.8943708724
 30
0.0
 40
0.7449999999999992
100
AcDbArc
 50
134.6993762036
 51
180.0
  0
ARC
  5
21B
330
1F
100
AcDbEntity
  8
0
  6
Continuous
 62
     7
370
    25
100
AcDbCircle
 10
12.9640830616
 20
23.8943708724
 30
0.0
 40
0.745000000000001
100
AcDbArc
 50
0.0
 51
129.8858967156
  0
ARC
  5
21C
330
1F
100
AcDbEntity
  8
0
  6
Continuous
 62
     7
370
    25
100
AcDbCircle
 10
12.9640830616
 20
23.8943708724
 30
0.0
 40
0.1953125000000018
100
AcDbArc
 50
0.0
 51
180.0
  0
DIMENSION
  5
21D
330
1F
100
AcDbEntity
  8
SLD-0
100
AcDbDimension
  2
_D
 10
15.9074783383
 20
26.8377661491
 30
0.0
 11
14.0168519566
 21
28.7283925307
 31
0.0
 70
   160
  1
<>
 71
     2
 42
-1.0
  3
SLDDIMSTYLE0
100
AcDbAlignedDimension
 13
9.1842859053
 23
27.6770792426
 33
0.0
 14
13.4908776135
 24
24.4211654243
 34
0.0
 50
-45.0
100
AcDbRotatedDimension
  0
DIMENSION
  5
233
330
1F
100
AcDbEntity
  8
0
  6
Continuous
 62
     7
370
    18
100
AcDbDimension
  2
_D_1
 10
5.2489309474
 20
24.2614108224
 30
0.0
 11
5.2489309474
 21
26.2614108224
 31
0.0
 70
   160
  1
%%c<>
 71
     2
 42
-1.0
  3
SLDDIMSTYLE1
100
AcDbAlignedDimension
 13
10.5970431115
 23
28.2614108224
 33
0.0
 14
10.5970431115
 24
24.2614108224
 34
0.0
 50
90.0
100
AcDbRotatedDimension
  0
DIMENSION
  5
248
330
1F
100
AcDbEntity
  8
0
  6
Continuous
 62
     7
370
    18
100
AcDbDimension
  2
_D_2
 10
17.1967951577
 20
21.2063708724
 30
0.0
 11
17.1967951577
 21
22.9601479492
 31
0.0
 70
   160
  1
<>
 71
     2
 42
-1.0
  3
SLDDIMSTYLE2
100
AcDbAlignedDimension
 13
13.7090830616
 23
23.8943708724
 33
0.0
 14
13.7090830616
 24
21.2063708724
 34
0.0
 50
90.0
100
AcDbRotatedDimension
  0
INSERT
  5
268
330
1F
100
AcDbEntity
  8
0
  6
Continuous
 62
     7
370
     0
100
AcDbBlockReference
  2
SW_CENTERMARKSYMBOL_0
 10
12.9640830616
 20
23.8943708724
 30
0.0
  0
LINE
  5
269
330
1F
100
AcDbEntity
  8
0
  6
Continuous
 62
     7
370
    25
100
AcDbLine
 10
14.1281440762
 20
10.340285581
 30
0.0
 11
14.1431440762
 21
10.340285581
 31
0.0
  0
LINE
  5
26A
330
1F
100
AcDbEntity
  8
0
  6
Continuous
 62
     7
370
    25
100
AcDbLine
 10
14.1431440762
 20
10.652285581
 30
0.0
 11
14.1281440762
 21
10.652285581
 31
0.0
  0
ARC
  5
26B
330
1F
100
AcDbEntity
  8
0
  6
Continuous
 62
     7
370
    25
100
AcDbCircle
 10
14.2188940762
 20
10.496285581
 30
0.0
 40
0.1804759332985993
100
AcDbArc
 50
205.6066609883
 51
239.8121189264
  0
ARC
  5
26C
330
1F
100
AcDbEntity
  8
0
  6
Continuous
 62
     7
370
    25
100
AcDbCircle
 10
14.2188940762
 20
10.496285581
 30
0.0
 40
0.1804759332985993
100
AcDbArc
 50
120.1878810736
 51
154.3933390117
  0
LINE
  5
26D
330
1F
100
AcDbEntity
  8
0
  6
Continuous
 62
     7
370
    25
100
AcDbLine
 10
7.6581440762
 20
10.652285581
 30
0.0
 11
7.6431440762
 21
10.652285581
 31
0.0
  0
LINE
  5
26E
330
1F
100
AcDbEntity
  8
0
  6
Continuous
 62
     7
370
    25
100
AcDbLine
 10
7.6431440762
 20
10.340285581
 30
0.0
 11
7.6581440762
 21
10.340285581
 31
0.0
  0
ARC
  5
26F
330
1F
100
AcDbEntity
  8
0
  6
Continuous
 62
     7
370
    25
100
AcDbCircle
 10
7.5673940762
 20
10.496285581
 30
0.0
 40
0.1804759332985974
100
AcDbArc
 50
25.6066609883
 51
59.8121189264
  0
ARC
  5
270
330
1F
100
AcDbEntity
  8
0
  6
Continuous
 62
     7
370
    25
100
AcDbCircle
 10
7.5673940762
 20
10.496285581
 30
0.0
 40
0.1804759332986004
100
AcDbArc
 50
300.1878810736
 51
334.3933390117
  0
LINE
  5
271
330
1F
100
AcDbEntity
  8
0
  6
Continuous
 62
     7
370
    25
100
AcDbLine
 10
6.9131440762
 20
12.496285581
 30
0.0
 11
6.6731440762
 21
12.496285581
 31
0.0
  0
LINE
  5
272
330
1F
100
AcDbEntity
  8
0
  6
Continuous
 62
     7
370
    25
100
AcDbLine
 10
6.6731440762
 20
8.496285581
 30
0.0
 11
6.9131440762
 21
8.496285581
 31
0.0
  0
LINE
  5
273
330
1F
100
AcDbEntity
  8
0
  6
Continuous
 62
     7
370
    25
100
AcDbLine
 10
6.6731440762
 20
12.496285581
 30
0.0
 11
6.6631440762
 21
12.486285581
 31
0.0
  0
LINE
  5
274
330
1F
100
AcDbEntity
  8
0
  6
Continuous
 62
     7
370
    25
100
AcDbLine
 10
6.6631440762
 20
8.506285581
 30
0.0
 11
6.6731440762
 21
8.496285581
 31
0.0
  0
LINE
  5
275
330
1F
100
AcDbEntity
  8
0
  6
Continuous
 62
     7
370
    25
100
AcDbLine
 10
10.7749865738
 20
7.958785581
 30
0.0
 11
10.7749865738
 21
7.8895040799
 31
0.0
  0
LINE
  5
276
330
1F
100
AcDbEntity
  8
0
  6
Continuous
 62
     7
370
    25
100
AcDbLine
 10
10.8374865738
 20
7.8928999843
 30
0.0
 11
10.8374865738
 21
7.958785581
 31
0.0
  0
LINE
  5
277
330
1F
100
AcDbEntity
  8
0
  6
Continuous
 62
     7
370
    25
100
AcDbLine
 10
10.8748993233
 20
7.958785581
 30
0.0
 11
10.8748993233
 21
7.8666510204
 31
0.0
  0
LINE
  5
278
330
1F
100
AcDbEntity
  8
0
  6
Continuous
 62
     7
370
    25
100
AcDbLine
 10
14.8731440762
 20
8.496285581
 30
0.0
 11
15.1131440762
 21
8.496285581
 31
0.0
  0
LINE
  5
279
330
1F
100
AcDbEntity
  8
0
  6
Continuous
 62
     7
370
    25
100
AcDbLine
 10
15.1131440762
 20
12.496285581
 30
0.0
 11
14.8731440762
 21
12.496285581
 31
0.0
  0
LINE
  5
27A
330
1F
100
AcDbEntity
  8
0
  6
Continuous
 62
     7
370
    25
100
AcDbLine
 10
15.1131440762
 20
8.496285581
 30
0.0
 11
15.1231440762
 21
8.506285581
 31
0.0
  0
LINE
  5
27B
330
1F
100
AcDbEntity
  8
0
  6
Continuous
 62
     7
370
    25
100
AcDbLine
 10
15.1231440762
 20
12.486285581
 30
0.0
 11
15.1131440762
 21
12.496285581
 31
0.0
  0
ARC
  5
27C
330
1F
100
AcDbEntity
  8
0
  6
Continuous
 62
     7
370
    25
100
AcDbCircle
 10
10.8931440762
 20
7.148785581
 30
0.0
 40
0.745000000000001
100
AcDbArc
 50
269.6154616802
 51
0.0
  0
LINE
  5
27D
330
1F
100
AcDbEntity
  8
0
  6
Continuous
 62
     7
370
    25
100
AcDbLine
 10
10.1481440762
 20
8.5038057843
 30
0.0
 11
10.1481440762
 21
7.958785581
 31
0.0
  0
LINE
  5
27E
330
1F
100
AcDbEntity
  8
0
  6
Continuous
 62
     7
370
    25
100
AcDbLine
 10
11.6381440762
 20
7.148785581
 30
0.0
 11
11.6381440762
 21
8.5038115884
 31
0.0
  0
LINE
  5
27F
330
1F
100
AcDbEntity
  8
0
  6
Continuous
 62
     7
370
    25
100
AcDbLine
 10
11.2525753775
 20
4.394020871
 30
0.0
 11
11.2407443916
 21
4.415020871
 31
0.0
  0
LINE
  5
280
330
1F
100
AcDbEntity
  8
0
  6
Continuous
 62
     7
370
    25
100
AcDbLine
 10
11.2325753775
 20
4.358520871
 30
0.0
 11
11.2525753775
 21
4.394020871
 31
0.0
  0
LINE
  5
281
330
1F
100
AcDbEntity
  8
0
  6
Continuous
 62
     7
370
    25
100
AcDbLine
 10
11.2325753775
 20
4.216520871
 30
0.0
 11
11.2525753775
 21
4.252020871
 31
0.0
  0
LINE
  5
282
330
1F
100
AcDbEntity
  8
0
  6
Continuous
 62
     7
370
    25
100
AcDbLine
 10
11.2325753775
 20
4.287520871
 30
0.0
 11
11.2525753775
 21
4.323020871
 31
0.0
  0
LINE
  5
283
330
1F
100
AcDbEntity
  8
0
  6
Continuous
 62
     7
370
    25
100
AcDbLine
 10
11.2525753775
 20
4.323020871
 30
0.0
 11
11.2325753775
 21
4.358520871
 31
0.0
  0
LINE
  5
284
330
1F
100
AcDbEntity
  8
0
  6
Continuous
 62
     7
370
    25
100
AcDbLine
 10
11.2525753775
 20
4.252020871
 30
0.0
 11
11.2325753775
 21
4.287520871
 31
0.0
  0
LINE
  5
285
330
1F
100
AcDbEntity
  8
0
  6
Continuous
 62
     7
370
    25
100
AcDbLine
 10
11.2325753775
 20
4.074520871
 30
0.0
 11
11.2525753775
 21
4.110020871
 31
0.0
  0
LINE
  5
286
330
1F
100
AcDbEntity
  8
0
  6
Continuous
 62
     7
370
    25
100
AcDbLine
 10
11.2325753775
 20
4.145520871
 30
0.0
 11
11.2525753775
 21
4.181020871
 31
0.0
  0
LINE
  5
287
330
1F
100
AcDbEntity
  8
0
  6
Continuous
 62
     7
370
    25
100
AcDbLine
 10
11.2525753775
 20
4.110020871
 30
0.0
 11
11.2325753775
 21
4.145520871
 31
0.0
  0
LINE
  5
288
330
1F
100
AcDbEntity
  8
0
  6
Continuous
 62
     7
370
    25
100
AcDbLine
 10
11.2525753775
 20
4.181020871
 30
0.0
 11
11.2325753775
 21
4.216520871
 31
0.0
  0
LINE
  5
289
330
1F
100
AcDbEntity
  8
0
  6
Continuous
 62
     7
370
    25
100
AcDbLine
 10
11.2325753775
 20
4.003520871
 30
0.0
 11
11.2525753775
 21
4.039020871
 31
0.0
  0
LINE
  5
28A
330
1F
100
AcDbEntity
  8
0
  6
Continuous
 62
     7
370
    25
100
AcDbLine
 10
11.2525753775
 20
4.039020871
 30
0.0
 11
11.2325753775
 21
4.074520871
 31
0.0
  0
LINE
  5
28B
330
1F
100
AcDbEntity
  8
0
  6
Continuous
 62
     7
370
    25
100
AcDbLine
 10
11.2325753775
 20
3.932520871
 30
0.0
 11
11.2525753775
 21
3.968020871
 31
0.0
  0
LINE
  5
28C
330
1F
100
AcDbEntity
  8
0
  6
Continuous
 62
     7
370
    25
100
AcDbLine
 10
11.2525753775
 20
3.968020871
 30
0.0
 11
11.2325753775
 21
4.003520871
 31
0.0
  0
LINE
  5
28D
330
1F
100
AcDbEntity
  8
0
  6
Continuous
 62
     7
370
    25
100
AcDbLine
 10
11.2325753775
 20
3.861520871
 30
0.0
 11
11.2525753775
 21
3.897020871
 31
0.0
  0
LINE
  5
28E
330
1F
100
AcDbEntity
  8
0
  6
Continuous
 62
     7
370
    25
100
AcDbLine
 10
11.2525753775
 20
3.897020871
 30
0.0
 11
11.2325753775
 21
3.932520871
 31
0.0
  0
LINE
  5
28F
330
1F
100
AcDbEntity
  8
0
  6
Continuous
 62
     7
370
    25
100
AcDbLine
 10
11.2446880535
 20
3.840020871
 30
0.0
 11
11.2325753775
 21
3.861520871
 31
0.0
  0
LINE
  5
290
330
1F
100
AcDbEntity
  8
0
  6
Continuous
 62
     7
370
    25
100
AcDbLine
 10
11.1965753775
 20
4.415020871
 30
0.0
 11
11.1965753775
 21
4.442020871
 31
0.0
  0
ARC
  5
291
330
1F
100
AcDbEntity
  8
0
  6
Continuous
 62
     7
370
    25
100
AcDbCircle
 10
10.4110753775
 20
4.477020871
 30
0.0
 40
0.0350000000000001
100
AcDbArc
 50
207.6368192362
 51
270.0
  0
ARC
  5
292
330
1F
100
AcDbEntity
  8
0
  6
Continuous
 62
     7
370
    25
100
AcDbCircle
 10
11.2820753775
 20
4.477020871
 30
0.0
 40
0.0349999999999998
100
AcDbArc
 50
270.0
 51
332.3631807638
  0
LINE
  5
293
330
1F
100
AcDbEntity
  8
0
  6
Continuous
 62
     7
370
    25
100
AcDbLine
 10
10.4110753775
 20
4.442020871
 30
0.0
 11
11.2820753775
 21
4.442020871
 31
0.0
  0
ARC
  5
294
330
1F
100
AcDbEntity
  8
0
  6
Continuous
 62
     7
370
    25
100
AcDbCircle
 10
10.8980753775
 20
6.476910581
 30
0.0
 40
0.0515000000000006
100
AcDbArc
 50
180.0
 51
258.8813832038
  0
ARC
  5
295
330
1F
100
AcDbEntity
  8
0
  6
Continuous
 62
     7
370
    25
100
AcDbCircle
 10
10.8980753775
 20
7.820660581
 30
0.0
 40
0.0514999999999997
100
AcDbArc
 50
101.1186167962
 51
180.0
  0
LINE
  5
296
330
1F
100
AcDbEntity
  8
0
  6
Continuous
 62
     7
370
    25
100
AcDbLine
 10
10.1276330798
 20
7.336285581
 30
0.0
 11
10.1203253775
 21
7.336285581
 31
0.0
  0
LINE
  5
297
330
1F
100
AcDbEntity
  8
0
  6
Continuous
 62
     7
370
    25
100
AcDbLine
 10
10.1203253775
 20
7.336285581
 30
0.0
 11
10.1015753775
 21
7.317535581
 31
0.0
  0
LINE
  5
298
330
1F
100
AcDbEntity
  8
0
  6
Continuous
 62
     7
370
    25
100
AcDbLine
 10
10.1015753775
 20
6.980035581
 30
0.0
 11
10.1067824915
 21
6.974828467
 31
0.0
  0
SPLINE
  5
299
330
1F
100
AcDbEntity
  8
0
  6
Continuous
 62
     7
370
    25
100
AcDbSpline
210
0.0
220
0.0
230
1.0
 70
     8
 71
     3
 72
     9
 73
     5
 74
     0
 42
0.00000001
 43
0.00000001
 40
0.0
 40
0.0
 40
0.0
 40
0.0
 40
0.4998420301191021
 40
1.0
 40
1.0
 40
1.0
 40
1.0
 10
10.85438882381613
 20
7.25023047428701
 30
0.0
 10
10.85213829018352
 20
7.254111457827173
 30
0.0
 10
10.84763580040273
 20
7.261875877996558
 30
0.0
 10
10.8431378031503
 20
7.269639027964557
 30
0.0
 10
10.84088809397599
 20
7.273521829292432
 30
0.0
  0
LINE
  5
29A
330
1F
100
AcDbEntity
  8
0
  6
Continuous
 62
     7
370
    25
100
AcDbLine
 10
11.5915753775
 20
5.9427383302
 30
0.0
 11
11.5915753775
 21
6.330785581
 31
0.0
  0
LINE
  5
29B
330
1F
100
AcDbEntity
  8
0
  6
Continuous
 62
     7
370
    25
100
AcDbLine
 10
11.5915753775
 20
4.460785581
 30
0.0
 11
11.5915753775
 21
5.854285581
 31
0.0
  0
LINE
  5
29C
330
1F
100
AcDbEntity
  8
0
  6
Continuous
 62
     7
370
    25
100
AcDbLine
 10
10.1015753775
 20
5.053285581
 30
0.0
 11
10.1015753775
 21
4.460785581
 31
0.0
  0
LINE
  5
29D
330
1F
100
AcDbEntity
  8
0
  6
Continuous
 62
     7
370
    25
100
AcDbLine
 10
10.1015753775
 20
6.9557640665
 30
0.0
 11
10.1015753775
 21
5.368285581
 31
0.0
  0
LINE
  5
29E
330
1F
100
AcDbEntity
  8
0
  6
Continuous
 62
     7
370
    25
100
AcDbLine
 10
10.8465753775
 20
7.893785581
 30
0.0
 11
10.8374865738
 21
7.8937301384
 31
0.0
  0
ARC
  5
29F
330
1F
100
AcDbEntity
  8
0
  6
Continuous
 62
     7
370
    25
100
AcDbCircle
 10
10.8465753775
 20
7.148785581
 30
0.0
 40
0.745
100
AcDbArc
 50
95.5141947403
 51
164.8014694201
  0
LINE
  5
2A0
330
1F
100
AcDbEntity
  8
0
  6
Continuous
 62
     7
370
    25
100
AcDbLine
 10
14.8931440762
 20
12.496285581
 30
0.0
 11
6.8931440762
 21
12.496285581
 31
0.0
  0
LINE
  5
2A1
330
1F
100
AcDbEntity
  8
0
  6
Continuous
 62
     7
370
    25
100
AcDbLine
 10
11.657291421
 20
8.496285581
 30
0.0
 11
14.8931440762
 21
8.496285581
 31
0.0
  0
LINE
  5
2A2
330
1F
100
AcDbEntity
  8
0
  6
Continuous
 62
     7
370
    25
100
AcDbLine
 10
6.8931440762
 20
8.496285581
 30
0.0
 11
10.1281440762
 21
8.496285581
 31
0.0
  0
LINE
  5
2A3
330
1F
100
AcDbEntity
  8
0
  6
Continuous
 62
     7
370
    25
100
AcDbLine
 10
14.1281440762
 20
10.340285581
 30
0.0
 11
14.1281440762
 21
10.652285581
 31
0.0
  0
LINE
  5
2A4
330
1F
100
AcDbEntity
  8
0
  6
Continuous
 62
     7
370
    25
100
AcDbLine
 10
14.0561440762
 20
10.418285581
 30
0.0
 11
14.0561440762
 21
10.574285581
 31
0.0
  0
LINE
  5
2A5
330
1F
100
AcDbEntity
  8
0
  6
Continuous
 62
     7
370
    25
100
AcDbLine
 10
7.6581440762
 20
10.652285581
 30
0.0
 11
7.6581440762
 21
10.340285581
 31
0.0
  0
LINE
  5
2A6
330
1F
100
AcDbEntity
  8
0
  6
Continuous
 62
     7
370
    25
100
AcDbLine
 10
7.7301440762
 20
10.574285581
 30
0.0
 11
7.7301440762
 21
10.418285581
 31
0.0
  0
LINE
  5
2A7
330
1F
100
AcDbEntity
  8
0
  6
Continuous
 62
     7
370
    25
100
AcDbLine
 10
6.9131440762
 20
11.496285581
 30
0.0
 11
6.9131440762
 21
12.496285581
 31
0.0
  0
LINE
  5
2A8
330
1F
100
AcDbEntity
  8
0
  6
Continuous
 62
     7
370
    25
100
AcDbLine
 10
6.9131440762
 20
8.496285581
 30
0.0
 11
6.9131440762
 21
11.496285581
 31
0.0
  0
LINE
  5
2A9
330
1F
100
AcDbEntity
  8
0
  6
Continuous
 62
     7
370
    25
100
AcDbLine
 10
6.6731440762
 20
11.496285581
 30
0.0
 11
6.6731440762
 21
8.496285581
 31
0.0
  0
LINE
  5
2AA
330
1F
100
AcDbEntity
  8
0
  6
Continuous
 62
     7
370
    25
100
AcDbLine
 10
6.6731440762
 20
12.496285581
 30
0.0
 11
6.6731440762
 21
11.496285581
 31
0.0
  0
LINE
  5
2AB
330
1F
100
AcDbEntity
  8
0
  6
Continuous
 62
     7
370
    25
100
AcDbLine
 10
6.6631440762
 20
11.491285581
 30
0.0
 11
6.6631440762
 21
12.486285581
 31
0.0
  0
LINE
  5
2AC
330
1F
100
AcDbEntity
  8
0
  6
Continuous
 62
     7
370
    25
100
AcDbLine
 10
6.6631440762
 20
8.506285581
 30
0.0
 11
6.6631440762
 21
11.491285581
 31
0.0
  0
LINE
  5
2AD
330
1F
100
AcDbEntity
  8
0
  6
Continuous
 62
     7
370
    25
100
AcDbLine
 10
14.8731440762
 20
12.496285581
 30
0.0
 11
14.8731440762
 21
8.496285581
 31
0.0
  0
LINE
  5
2AE
330
1F
100
AcDbEntity
  8
0
  6
Continuous
 62
     7
370
    25
100
AcDbLine
 10
15.1131440762
 20
8.496285581
 30
0.0
 11
15.1131440762
 21
12.496285581
 31
0.0
  0
LINE
  5
2AF
330
1F
100
AcDbEntity
  8
0
  6
Continuous
 62
     7
370
    25
100
AcDbLine
 10
15.1231440762
 20
12.486285581
 30
0.0
 11
15.1231440762
 21
8.506285581
 31
0.0
  0
LINE
  5
2B0
330
1F
100
AcDbEntity
  8
0
  6
Continuous
 62
     7
370
    25
100
AcDbLine
 10
10.8881440762
 20
7.148785581
 30
0.0
 11
10.8881440762
 21
6.4038023597
 31
0.0
  0
LINE
  5
2B1
330
1F
100
AcDbEntity
  8
0
  6
Continuous
 62
     7
370
    25
100
AcDbLine
 10
10.8881440762
 20
7.958785581
 30
0.0
 11
10.1481440762
 21
7.958785581
 31
0.0
  0
LINE
  5
2B2
330
1F
100
AcDbEntity
  8
0
  6
Continuous
 62
     7
370
    25
100
AcDbLine
 10
10.8881440762
 20
7.148785581
 30
0.0
 11
10.8881440762
 21
7.958785581
 31
0.0
  0
LINE
  5
2B3
330
1F
100
AcDbEntity
  8
0
  6
Continuous
 62
     7
370
    25
100
AcDbLine
 10
10.5153150953
 20
4.394020871
 30
0.0
 11
11.2525753775
 21
4.394020871
 31
0.0
  0
LINE
  5
2B4
330
1F
100
AcDbEntity
  8
0
  6
Continuous
 62
     7
370
    25
100
AcDbLine
 10
10.5153150953
 20
4.394020871
 30
0.0
 11
10.5095003766
 21
4.415020871
 31
0.0
  0
LINE
  5
2B5
330
1F
100
AcDbEntity
  8
0
  6
Continuous
 62
     7
370
    25
100
AcDbLine
 10
10.5095003766
 20
4.415020871
 30
0.0
 11
11.2407443916
 21
4.415020871
 31
0.0
  0
LINE
  5
2B6
330
1F
100
AcDbEntity
  8
0
  6
Continuous
 62
     7
370
    25
100
AcDbLine
 10
10.5046977176
 20
4.358520871
 30
0.0
 11
11.2325753775
 21
4.358520871
 31
0.0
  0
LINE
  5
2B7
330
1F
100
AcDbEntity
  8
0
  6
Continuous
 62
     7
370
    25
100
AcDbLine
 10
10.5046977176
 20
4.358520871
 30
0.0
 11
10.5153150953
 21
4.394020871
 31
0.0
  0
LINE
  5
2B8
330
1F
100
AcDbEntity
  8
0
  6
Continuous
 62
     7
370
    25
100
AcDbLine
 10
10.5153150953
 20
4.252020871
 30
0.0
 11
11.2525753775
 21
4.252020871
 31
0.0
  0
LINE
  5
2B9
330
1F
100
AcDbEntity
  8
0
  6
Continuous
 62
     7
370
    25
100
AcDbLine
 10
10.5046977176
 20
4.216520871
 30
0.0
 11
11.2325753775
 21
4.216520871
 31
0.0
  0
LINE
  5
2BA
330
1F
100
AcDbEntity
  8
0
  6
Continuous
 62
     7
370
    25
100
AcDbLine
 10
10.5046977176
 20
4.216520871
 30
0.0
 11
10.5153150953
 21
4.252020871
 31
0.0
  0
LINE
  5
2BB
330
1F
100
AcDbEntity
  8
0
  6
Continuous
 62
     7
370
    25
100
AcDbLine
 10
10.5153150953
 20
4.323020871
 30
0.0
 11
11.2525753775
 21
4.323020871
 31
0.0
  0
LINE
  5
2BC
330
1F
100
AcDbEntity
  8
0
  6
Continuous
 62
     7
370
    25
100
AcDbLine
 10
10.5046977176
 20
4.287520871
 30
0.0
 11
11.2325753775
 21
4.287520871
 31
0.0
  0
LINE
  5
2BD
330
1F
100
AcDbEntity
  8
0
  6
Continuous
 62
     7
370
    25
100
AcDbLine
 10
10.5046977176
 20
4.287520871
 30
0.0
 11
10.5153150953
 21
4.323020871
 31
0.0
  0
LINE
  5
2BE
330
1F
100
AcDbEntity
  8
0
  6
Continuous
 62
     7
370
    25
100
AcDbLine
 10
10.5153150953
 20
4.323020871
 30
0.0
 11
10.5046977176
 21
4.358520871
 31
0.0
  0
LINE
  5
2BF
330
1F
100
AcDbEntity
  8
0
  6
Continuous
 62
     7
370
    25
100
AcDbLine
 10
10.5153150953
 20
4.252020871
 30
0.0
 11
10.5046977176
 21
4.287520871
 31
0.0
  0
LINE
  5
2C0
330
1F
100
AcDbEntity
  8
0
  6
Continuous
 62
     7
370
    25
100
AcDbLine
 10
10.5153150953
 20
4.110020871
 30
0.0
 11
11.2525753775
 21
4.110020871
 31
0.0
  0
LINE
  5
2C1
330
1F
100
AcDbEntity
  8
0
  6
Continuous
 62
     7
370
    25
100
AcDbLine
 10
10.5046977176
 20
4.074520871
 30
0.0
 11
11.2325753775
 21
4.074520871
 31
0.0
  0
LINE
  5
2C2
330
1F
100
AcDbEntity
  8
0
  6
Continuous
 62
     7
370
    25
100
AcDbLine
 10
10.5046977176
 20
4.074520871
 30
0.0
 11
10.5153150953
 21
4.110020871
 31
0.0
  0
LINE
  5
2C3
330
1F
100
AcDbEntity
  8
0
  6
Continuous
 62
     7
370
    25
100
AcDbLine
 10
10.5153150953
 20
4.181020871
 30
0.0
 11
11.2525753775
 21
4.181020871
 31
0.0
  0
LINE
  5
2C4
330
1F
100
AcDbEntity
  8
0
  6
Continuous
 62
     7
370
    25
100
AcDbLine
 10
10.5046977176
 20
4.145520871
 30
0.0
 11
11.2325753775
 21
4.145520871
 31
0.0
  0
LINE
  5
2C5
330
1F
100
AcDbEntity
  8
0
  6
Continuous
 62
     7
370
    25
100
AcDbLine
 10
10.5046977176
 20
4.145520871
 30
0.0
 11
10.5153150953
 21
4.181020871
 31
0.0
  0
LINE
  5
2C6
330
1F
100
AcDbEntity
  8
0
  6
Continuous
 62
     7
370
    25
100
AcDbLine
 10
10.5153150953
 20
4.110020871
 30
0.0
 11
10.5046977176
 21
4.145520871
 31
0.0
  0
LINE
  5
2C7
330
1F
100
AcDbEntity
  8
0
  6
Continuous
 62
     7
370
    25
100
AcDbLine
 10
10.5153150953
 20
4.181020871
 30
0.0
 11
10.5046977176
 21
4.216520871
 31
0.0
  0
LINE
  5
2C8
330
1F
100
AcDbEntity
  8
0
  6
Continuous
 62
     7
370
    25
100
AcDbLine
 10
10.5153150953
 20
4.039020871
 30
0.0
 11
11.2525753775
 21
4.039020871
 31
0.0
  0
LINE
  5
2C9
330
1F
100
AcDbEntity
  8
0
  6
Continuous
 62
     7
370
    25
100
AcDbLine
 10
10.5046977176
 20
4.003520871
 30
0.0
 11
11.2325753775
 21
4.003520871
 31
0.0
  0
LINE
  5
2CA
330
1F
100
AcDbEntity
  8
0
  6
Continuous
 62
     7
370
    25
100
AcDbLine
 10
10.5046977176
 20
4.003520871
 30
0.0
 11
10.5153150953
 21
4.039020871
 31
0.0
  0
LINE
  5
2CB
330
1F
100
AcDbEntity
  8
0
  6
Continuous
 62
     7
370
    25
100
AcDbLine
 10
10.5153150953
 20
4.039020871
 30
0.0
 11
10.5046977176
 21
4.074520871
 31
0.0
  0
LINE
  5
2CC
330
1F
100
AcDbEntity
  8
0
  6
Continuous
 62
     7
370
    25
100
AcDbLine
 10
10.5153150953
 20
3.968020871
 30
0.0
 11
11.2525753775
 21
3.968020871
 31
0.0
  0
LINE
  5
2CD
330
1F
100
AcDbEntity
  8
0
  6
Continuous
 62
     7
370
    25
100
AcDbLine
 10
10.5046977176
 20
3.932520871
 30
0.0
 11
11.2325753775
 21
3.932520871
 31
0.0
  0
LINE
  5
2CE
330
1F
100
AcDbEntity
  8
0
  6
Continuous
 62
     7
370
    25
100
AcDbLine
 10
10.5046977176
 20
3.932520871
 30
0.0
 11
10.5153150953
 21
3.968020871
 31
0.0
  0
LINE
  5
2CF
330
1F
100
AcDbEntity
  8
0
  6
Continuous
 62
     7
370
    25
100
AcDbLine
 10
10.5153150953
 20
3.968020871
 30
0.0
 11
10.5046977176
 21
4.003520871
 31
0.0
  0
LINE
  5
2D0
330
1F
100
AcDbEntity
  8
0
  6
Continuous
 62
     7
370
    25
100
AcDbLine
 10
10.5153150953
 20
3.897020871
 30
0.0
 11
11.2525753775
 21
3.897020871
 31
0.0
  0
LINE
  5
2D1
330
1F
100
AcDbEntity
  8
0
  6
Continuous
 62
     7
370
    25
100
AcDbLine
 10
10.5046977176
 20
3.861520871
 30
0.0
 11
11.2325753775
 21
3.861520871
 31
0.0
  0
LINE
  5
2D2
330
1F
100
AcDbEntity
  8
0
  6
Continuous
 62
     7
370
    25
100
AcDbLine
 10
10.5046977176
 20
3.861520871
 30
0.0
 11
10.5153150953
 21
3.897020871
 31
0.0
  0
LINE
  5
2D3
330
1F
100
AcDbEntity
  8
0
  6
Continuous
 62
     7
370
    25
100
AcDbLine
 10
10.5153150953
 20
3.897020871
 30
0.0
 11
10.5046977176
 21
3.932520871
 31
0.0
  0
LINE
  5
2D4
330
1F
100
AcDbEntity
  8
0
  6
Continuous
 62
     7
370
    25
100
AcDbLine
 10
10.5115540332
 20
3.840020871
 30
0.0
 11
11.2446880535
 21
3.840020871
 31
0.0
  0
LINE
  5
2D5
330
1F
100
AcDbEntity
  8
0
  6
Continuous
 62
     7
370
    25
100
AcDbLine
 10
10.5115540332
 20
3.840020871
 30
0.0
 11
10.5046977176
 21
3.861520871
 31
0.0
  0
LINE
  5
2D6
330
1F
100
AcDbEntity
  8
0
  6
Continuous
 62
     7
370
    25
100
AcDbLine
 10
10.5050834947
 20
4.415020871
 30
0.0
 11
10.5050834947
 21
4.442020871
 31
0.0
  0
LINE
  5
2D7
330
1F
100
AcDbEntity
  8
0
  6
Continuous
 62
     7
370
    25
100
AcDbLine
 10
10.4995609417
 20
4.415020871
 30
0.0
 11
10.4995609417
 21
3.840020871
 31
0.0
  0
LINE
  5
2D8
330
1F
100
AcDbEntity
  8
0
  6
Continuous
 62
     7
370
    25
100
AcDbLine
 10
10.5095003766
 20
4.415020871
 30
0.0
 11
10.4995609417
 21
4.415020871
 31
0.0
  0
LINE
  5
2D9
330
1F
100
AcDbEntity
  8
0
  6
Continuous
 62
     7
370
    25
100
AcDbLine
 10
10.4995609417
 20
3.840020871
 30
0.0
 11
10.5115540332
 21
3.840020871
 31
0.0
  0
LINE
  5
2DA
330
1F
100
AcDbEntity
  8
0
  6
Continuous
 62
     7
370
    25
100
AcDbLine
 10
10.1015753775
 20
5.053285581
 30
0.0
 11
10.1015753775
 21
5.368285581
 31
0.0
  0
LINE
  5
2DB
330
1F
100
AcDbEntity
  8
0
  6
Continuous
 62
     7
370
    25
100
AcDbLine
 10
10.1203253775
 20
7.3239395452
 30
0.0
 11
10.1203253775
 21
7.0460577981
 31
0.0
  0
LINE
  5
2DC
330
1F
100
AcDbEntity
  8
0
  6
Continuous
 62
     7
370
    25
100
AcDbLine
 10
10.1203253775
 20
7.336285581
 30
0.0
 11
10.1203253775
 21
7.3239395452
 31
0.0
  0
LINE
  5
2DD
330
1F
100
AcDbEntity
  8
0
  6
Continuous
 62
     7
370
    25
100
AcDbLine
 10
10.1015753775
 20
7.3064241488
 30
0.0
 11
10.1015753775
 21
7.317535581
 31
0.0
  0
LINE
  5
2DE
330
1F
100
AcDbEntity
  8
0
  6
Continuous
 62
     7
370
    25
100
AcDbLine
 10
10.1015753775
 20
6.980035581
 30
0.0
 11
10.1015753775
 21
7.3064241488
 31
0.0
  0
LINE
  5
2DF
330
1F
100
AcDbEntity
  8
0
  6
Continuous
 62
     7
370
    25
100
AcDbLine
 10
11.5915753775
 20
5.935660581
 30
0.0
 11
11.5915753775
 21
5.861910581
 31
0.0
  0
ARC
  5
2E0
330
1F
100
AcDbEntity
  8
0
  6
Continuous
 62
     7
370
    25
100
AcDbCircle
 10
12.3358310476
 20
5.8987842902
 30
0.0
 40
0.7455847621641091
100
AcDbArc
 50
176.6203145184
 51
183.4216153811
  0
LINE
  5
2E1
330
1F
100
AcDbEntity
  8
0
  6
Continuous
 62
     7
370
    25
100
AcDbLine
 10
10.8465753775
 20
6.330785581
 30
0.0
 11
10.8465753775
 21
7.148785581
 31
0.0
  0
LINE
  5
2E2
330
1F
100
AcDbEntity
  8
0
  6
Continuous
 62
     7
370
    25
100
AcDbLine
 10
10.8465753775
 20
6.330785581
 30
0.0
 11
11.5915753775
 21
6.330785581
 31
0.0
  0
SPLINE
  5
2E3
330
1F
100
AcDbEntity
  8
0
  6
Continuous
 62
     7
370
    25
100
AcDbSpline
210
0.0
220
0.0
230
1.0
 70
     8
 71
     3
 72
    12
 73
     8
 74
     0
 42
0.00000001
 43
0.00000001
 40
0.0
 40
0.0
 40
0.0
 40
0.0
 40
0.2097738237900663
 40
0.4193697134356944
 40
0.6335492339159345
 40
0.8509689713269238
 40
1.0
 40
1.0
 40
1.0
 40
1.0
 10
10.12763307983298
 20
7.148785581006246
 30
0.0
 10
10.12705329240107
 20
7.127258488914972
 30
0.0
 10
10.12589420932396
 20
7.084222564421093
 30
0.0
 10
10.11781078761376
 20
7.02646987475663
 30
0.0
 10
10.1089221318037
 20
6.982306565490458
 30
0.0
 10
10.10231788053624
 20
6.956273145405407
 30
0.0
 10
10.1022128550487
 20
6.955911246370581
 30
0.0
 10
10.10217014247202
 20
6.955764066475143
 30
0.0
  0
LINE
  5
2E4
330
1F
100
AcDbEntity
  8
0
  6
Continuous
 62
     7
370
    25
100
AcDbLine
 10
10.8465753775
 20
7.148785581
 30
0.0
 11
10.1276330798
 21
7.148785581
 31
0.0
  0
LINE
  5
2E5
330
1F
100
AcDbEntity
  8
0
  6
Continuous
 62
     7
370
    25
100
AcDbLine
 10
11.5915753775
 20
4.460785581
 30
0.0
 11
10.1015753775
 21
4.460785581
 31
0.0
  0
LINE
  5
2E6
330
1F
100
AcDbEntity
  8
0
  6
Continuous
 62
     7
370
    25
100
AcDbLine
 10
10.1276330798
 20
7.148785581
 30
0.0
 11
10.1276330798
 21
7.344098081
 31
0.0
  0
LINE
  5
2E7
330
1F
100
AcDbEntity
  8
0
  6
Continuous
 62
     7
370
    25
100
AcDbLine
 10
10.8465753775
 20
7.893785581
 30
0.0
 11
10.8465753775
 21
7.148785581
 31
0.0
  0
LINE
  5
2E8
330
1F
100
AcDbEntity
  8
0
  6
Continuous
 62
     7
370
    25
100
AcDbLine
 10
7.8581440762
 20
11.729285581
 30
0.0
 11
13.9281440762
 21
11.729285581
 31
0.0
  0
ARC
  5
2E9
330
1F
100
AcDbEntity
  8
0
  6
Continuous
 62
     7
370
    25
100
AcDbCircle
 10
13.9281440762
 20
11.604285581
 30
0.0
 40
0.125
100
AcDbArc
 50
0.0
 51
90.0
  0
LINE
  5
2EA
330
1F
100
AcDbEntity
  8
0
  6
Continuous
 62
     7
370
    25
100
AcDbLine
 10
14.0531440762
 20
11.604285581
 30
0.0
 11
14.0531440762
 21
9.3885342699
 31
0.0
  0
ARC
  5
2EB
330
1F
100
AcDbEntity
  8
0
  6
Continuous
 62
     7
370
    25
100
AcDbCircle
 10
13.9281440762
 20
9.3885342699
 30
0.0
 40
0.1249999999999982
100
AcDbArc
 50
270.0
 51
0.0
  0
LINE
  5
2EC
330
1F
100
AcDbEntity
  8
0
  6
Continuous
 62
     7
370
    25
100
AcDbLine
 10
13.9281440762
 20
9.2635342699
 30
0.0
 11
7.8581440762
 21
9.2635342699
 31
0.0
  0
ARC
  5
2ED
330
1F
100
AcDbEntity
  8
0
  6
Continuous
 62
     7
370
    25
100
AcDbCircle
 10
7.8581440762
 20
9.3885342699
 30
0.0
 40
0.1250000000000053
100
AcDbArc
 50
180.0
 51
270.0
  0
LINE
  5
2EE
330
1F
100
AcDbEntity
  8
0
  6
Continuous
 62
     7
370
    25
100
AcDbLine
 10
7.7331440762
 20
9.3885342699
 30
0.0
 11
7.7331440762
 21
11.604285581
 31
0.0
  0
ARC
  5
2EF
330
1F
100
AcDbEntity
  8
0
  6
Continuous
 62
     7
370
    25
100
AcDbCircle
 10
7.8581440762
 20
11.604285581
 30
0.0
 40
0.1250000000000089
100
AcDbArc
 50
90.0
 51
180.0
  0
LINE
  5
2F0
330
1F
100
AcDbEntity
  8
0
  6
Continuous
 62
     7
370
    25
100
AcDbLine
 10
14.1431440762
 20
11.7723733523
 30
0.0
 11
7.6431440762
 21
11.7723733523
 31
0.0
  0
LINE
  5
2F1
330
1F
100
AcDbEntity
  8
0
  6
Continuous
 62
     7
370
    25
100
AcDbLine
 10
7.6431440762
 20
9.2201978097
 30
0.0
 11
7.6431440762
 21
11.7723733523
 31
0.0
  0
LINE
  5
2F2
330
1F
100
AcDbEntity
  8
0
  6
Continuous
 62
     7
370
    25
100
AcDbLine
 10
14.1431440762
 20
9.2201978097
 30
0.0
 11
7.6431440762
 21
9.2201978097
 31
0.0
  0
LINE
  5
2F3
330
1F
100
AcDbEntity
  8
0
  6
Continuous
 62
     7
370
    25
100
AcDbLine
 10
14.1431440762
 20
9.2201978097
 30
0.0
 11
14.1431440762
 21
11.7723733523
 31
0.0
  0
LINE
  5
2F4
330
1F
100
AcDbEntity
  8
0
  6
Continuous
 62
     7
370
    25
100
AcDbLine
 10
14.8931440762
 20
8.496285581
 30
0.0
 11
14.8931440762
 21
12.496285581
 31
0.0
  0
LINE
  5
2F5
330
1F
100
AcDbEntity
  8
0
  6
Continuous
 62
     7
370
    25
100
AcDbLine
 10
6.8931440762
 20
8.496285581
 30
0.0
 11
6.8931440762
 21
12.496285581
 31
0.0
  0
LWPOLYLINE
  5
2F6
330
1F
100
AcDbEntity
  8
0
  6
Continuous
 62
     7
370
    25
100
AcDbPolyline
 90
       21
 70
   128
 43
0.0
 10
11.657291421
 20
8.4966102434
 10
11.6492665509
 20
8.4996643859
 10
11.622207425
 20
8.5097538378
 10
11.5764443046
 20
8.5260890928
 10
11.5136866867
 20
8.5469656659
 10
11.4335381346
 20
8.5709802186
 10
11.3360391177
 20
8.5960405921
 10
11.2224961714
 20
8.6192539343
 10
11.1015530099
 20
8.6366594671
 10
10.9695640377
 20
8.6467951078
 10
10.8477818014
 20
8.6478179086
 10
10.723636707
 20
8.6406164973
 10
10.6115849211
 20
8.6270476192
 10
10.5041174897
 20
8.607869132
 10
10.4040923585
 20
8.5847556747
 10
10.3146274225
 20
8.5599342393
 10
10.2386614306
 20
8.5358972181
 10
10.1796693789
 20
8.5154218442
 10
10.1416937465
 20
8.5014290453
 10
10.1281440762
 20
8.496285581
 10
10.1281440762
 20
8.496285581
  0
ARC
  5
2F7
330
1F
100
AcDbEntity
  8
0
  6
Continuous
 62
     7
370
    25
100
AcDbCircle
 10
7.7656440762
 20
9.295785581
 30
0.0
 40
0.0625000000000009
100
AcDbArc
 50
180.0
 51
270.0
  0
LINE
  5
2F8
330
1F
100
AcDbEntity
  8
0
  6
Continuous
 62
     7
370
    25
100
AcDbLine
 10
7.7656440762
 20
9.233285581
 30
0.0
 11
14.0206440762
 21
9.233285581
 31
0.0
  0
ARC
  5
2F9
330
1F
100
AcDbEntity
  8
0
  6
Continuous
 62
     7
370
    25
100
AcDbCircle
 10
14.0206440762
 20
9.295785581
 30
0.0
 40
0.0625
100
AcDbArc
 50
270.0
 51
0.0
  0
LINE
  5
2FA
330
1F
100
AcDbEntity
  8
0
  6
Continuous
 62
     7
370
    25
100
AcDbLine
 10
14.0831440762
 20
9.295785581
 30
0.0
 11
14.0831440762
 21
10.3773591331
 31
0.0
  0
LINE
  5
2FB
330
1F
100
AcDbEntity
  8
0
  6
Continuous
 62
     7
370
    25
100
AcDbLine
 10
14.0831440762
 20
10.6152120289
 30
0.0
 11
14.0831440762
 21
11.696785581
 31
0.0
  0
ARC
  5
2FC
330
1F
100
AcDbEntity
  8
0
  6
Continuous
 62
     7
370
    25
100
AcDbCircle
 10
14.0206440762
 20
11.696785581
 30
0.0
 40
0.0625000000000018
100
AcDbArc
 50
0.0
 51
90.0
  0
LINE
  5
2FD
330
1F
100
AcDbEntity
  8
0
  6
Continuous
 62
     7
370
    25
100
AcDbLine
 10
14.0206440762
 20
11.759285581
 30
0.0
 11
7.7656440762
 21
11.759285581
 31
0.0
  0
ARC
  5
2FE
330
1F
100
AcDbEntity
  8
0
  6
Continuous
 62
     7
370
    25
100
AcDbCircle
 10
7.7656440762
 20
11.696785581
 30
0.0
 40
0.0625
100
AcDbArc
 50
90.0
 51
180.0
  0
LINE
  5
2FF
330
1F
100
AcDbEntity
  8
0
  6
Continuous
 62
     7
370
    25
100
AcDbLine
 10
7.7031440762
 20
11.696785581
 30
0.0
 11
7.7031440762
 21
10.6152120289
 31
0.0
  0
LINE
  5
300
330
1F
100
AcDbEntity
  8
0
  6
Continuous
 62
     7
370
    25
100
AcDbLine
 10
7.7031440762
 20
10.3773591331
 30
0.0
 11
7.7031440762
 21
9.295785581
 31
0.0
  0
LINE
  5
301
330
1F
100
AcDbEntity
  8
0
  6
Continuous
 62
     7
370
    25
100
AcDbLine
 10
10.8881440762
 20
7.148785581
 30
0.0
 11
11.6381440762
 21
7.148785581
 31
0.0
  0
DIMENSION
  5
302
330
1F
100
AcDbEntity
  8
0
  6
Continuous
 62
     7
370
    18
100
AcDbDimension
  2
_D_3
 10
15.1131440762
 20
16.9742473975
 30
0.0
 11
10.8931440762
 21
16.9742473975
 31
0.0
 70
   160
  1
<>
 71
     2
 42
-1.0
  3
SLDDIMSTYLE0
100
AcDbAlignedDimension
 13
6.6731440762
 23
12.496285581
 33
0.0
 14
15.1131440762
 24
12.496285581
 34
0.0
100
AcDbRotatedDimension
  0
DIMENSION
  5
316
330
1F
100
AcDbEntity
  8
0
  6
Continuous
 62
     7
370
    18
100
AcDbDimension
  2
_D_4
 10
14.1431440762
 20
14.8031395382
 30
0.0
 11
10.8931440762
 21
14.8031395382
 31
0.0
 70
   160
  1
<>
 71
     2
 42
-1.0
  3
SLDDIMSTYLE0
100
AcDbAlignedDimension
 13
7.6431440762
 23
11.7723733523
 33
0.0
 14
14.1431440762
 24
11.7723733523
 34
0.0
 50
0.0
100
AcDbRotatedDimension
  0
DIMENSION
  5
32A
330
1F
100
AcDbEntity
  8
0
  6
Continuous
 62
     7
370
    18
100
AcDbDimension
  2
_D_5
 10
18.1057359182
 20
9.2201978097
 30
0.0
 11
18.1057359182
 21
10.496285581
 31
0.0
 70
   160
  1
<>
 71
     2
 42
-1.0
  3
SLDDIMSTYLE2
100
AcDbAlignedDimension
 13
14.1431440762
 23
11.7723733523
 33
0.0
 14
14.1431440762
 24
9.2201978097
 34
0.0
 50
90.0
100
AcDbRotatedDimension
  0
MTEXT
  5
33E
330
1F
100
AcDbEntity
  8
SLD-0
100
AcDbMText
 10
15.3237955502
 20
2.7476119166
 30
0.0
 40
0.5
 41
0.0
 71
     2
 72
     1
  1
1/2" PIPE THREAD
  7
SLDTEXTSTYLE0
 73
     1
 44
1.0
  0
MTEXT
  5
33F
330
1F
100
AcDbEntity
  8
SLD-0
100
AcDbMText
 10
15.3349065112
 20
2.0901316186
 30
0.0
 40
0.5
 41
0.0
 71
     2
 72
     1
  1
FOR MOUNTING
  7
SLDTEXTSTYLE0
 73
     1
 44
1.0
  0
LEADER
  5
341
330
1F
100
AcDbEntity
  8
SLD-0
100
AcDbLeader
  3
SLDDIMSTYLE3
 76
     3
 10
11.0640313532
 20
3.840020871
 30
0.0
 10
12.0816220486
 20
2.5210361747
 30
0.0
 10
12.5816220486
 20
2.5210361747
 30
0.0
  0
ARC
  5
342
330
1F
100
AcDbEntity
  8
0
  6
Continuous
 62
     7
370
    25
100
AcDbCircle
 10
35.6036409091
 20
8.5895769566
 30
0.0
 40
0.1804759332986009
100
AcDbArc
 50
205.6066609883
 51
239.8121189264
  0
ARC
  5
343
330
1F
100
AcDbEntity
  8
0
  6
Continuous
 62
     7
370
    25
100
AcDbCircle
 10
35.6036409091
 20
8.5895769566
 30
0.0
 40
0.1804759332986001
100
AcDbArc
 50
120.1878810736
 51
154.3933390117
  0
LINE
  5
344
330
1F
100
AcDbEntity
  8
0
  6
Continuous
 62
     7
370
    25
100
AcDbLine
 10
35.5128909091
 20
8.4335769566
 30
0.0
 11
35.5278909091
 21
8.4335769566
 31
0.0
  0
LINE
  5
345
330
1F
100
AcDbEntity
  8
0
  6
Continuous
 62
     7
370
    25
100
AcDbLine
 10
35.5278909091
 20
8.7455769566
 30
0.0
 11
35.5128909091
 21
8.7455769566
 31
0.0
  0
ARC
  5
346
330
1F
100
AcDbEntity
  8
0
  6
Continuous
 62
     7
370
    25
100
AcDbCircle
 10
28.9521409091
 20
8.5895769566
 30
0.0
 40
0.1804759332986009
100
AcDbArc
 50
25.6066609883
 51
59.8121189264
  0
ARC
  5
347
330
1F
100
AcDbEntity
  8
0
  6
Continuous
 62
     7
370
    25
100
AcDbCircle
 10
28.9521409091
 20
8.5895769566
 30
0.0
 40
0.1804759332985993
100
AcDbArc
 50
300.1878810736
 51
334.3933390117
  0
LINE
  5
348
330
1F
100
AcDbEntity
  8
0
  6
Continuous
 62
     7
370
    25
100
AcDbLine
 10
29.0428909091
 20
8.7455769566
 30
0.0
 11
29.0278909091
 21
8.7455769566
 31
0.0
  0
LINE
  5
349
330
1F
100
AcDbEntity
  8
0
  6
Continuous
 62
     7
370
    25
100
AcDbLine
 10
29.0278909091
 20
8.4335769566
 30
0.0
 11
29.0428909091
 21
8.4335769566
 31
0.0
  0
LINE
  5
34A
330
1F
100
AcDbEntity
  8
0
  6
Continuous
 62
     7
370
    25
100
AcDbLine
 10
28.0578909091
 20
12.3795769566
 30
0.0
 11
28.0478909091
 21
12.3695769566
 31
0.0
  0
LINE
  5
34B
330
1F
100
AcDbEntity
  8
0
  6
Continuous
 62
     7
370
    25
100
AcDbLine
 10
28.0478909091
 20
8.3895769566
 30
0.0
 11
28.0578909091
 21
8.3795769566
 31
0.0
  0
LINE
  5
34C
330
1F
100
AcDbEntity
  8
0
  6
Continuous
 62
     7
370
    25
100
AcDbLine
 10
28.2978909091
 20
12.3795769566
 30
0.0
 11
28.0578909091
 21
12.3795769566
 31
0.0
  0
LINE
  5
34D
330
1F
100
AcDbEntity
  8
0
  6
Continuous
 62
     7
370
    25
100
AcDbLine
 10
28.0578909091
 20
8.3795769566
 30
0.0
 11
28.2978909091
 21
8.3795769566
 31
0.0
  0
LINE
  5
34E
330
1F
100
AcDbEntity
  8
0
  6
Continuous
 62
     7
370
    25
100
AcDbLine
 10
36.2578909091
 20
8.3795769566
 30
0.0
 11
36.4978909091
 21
8.3795769566
 31
0.0
  0
LINE
  5
34F
330
1F
100
AcDbEntity
  8
0
  6
Continuous
 62
     7
370
    25
100
AcDbLine
 10
36.4978909091
 20
12.3795769566
 30
0.0
 11
36.2578909091
 21
12.3795769566
 31
0.0
  0
LINE
  5
350
330
1F
100
AcDbEntity
  8
0
  6
Continuous
 62
     7
370
    25
100
AcDbLine
 10
36.4978909091
 20
8.3795769566
 30
0.0
 11
36.5078909091
 21
8.3895769566
 31
0.0
  0
LINE
  5
351
330
1F
100
AcDbEntity
  8
0
  6
Continuous
 62
     7
370
    25
100
AcDbLine
 10
36.5078909091
 20
12.3695769566
 30
0.0
 11
36.4978909091
 21
12.3795769566
 31
0.0
  0
LINE
  5
352
330
1F
100
AcDbEntity
  8
0
  6
Continuous
 62
     7
370
    25
100
AcDbLine
 10
36.2778909091
 20
12.3795769566
 30
0.0
 11
28.2778909091
 21
12.3795769566
 31
0.0
  0
LINE
  5
353
330
1F
100
AcDbEntity
  8
0
  6
Continuous
 62
     7
370
    25
100
AcDbLine
 10
35.5278909091
 20
8.3795769566
 30
0.0
 11
36.2778909091
 21
8.3795769566
 31
0.0
  0
LINE
  5
354
330
1F
100
AcDbEntity
  8
0
  6
Continuous
 62
     7
370
    25
100
AcDbLine
 10
28.2778909091
 20
8.3795769566
 30
0.0
 11
29.0278909091
 21
8.3795769566
 31
0.0
  0
LINE
  5
355
330
1F
100
AcDbEntity
  8
0
  6
Continuous
 62
     7
370
    25
100
AcDbLine
 10
35.4408909091
 20
8.5115769566
 30
0.0
 11
35.4408909091
 21
8.6675769566
 31
0.0
  0
LINE
  5
356
330
1F
100
AcDbEntity
  8
0
  6
Continuous
 62
     7
370
    25
100
AcDbLine
 10
35.5128909091
 20
8.4335769566
 30
0.0
 11
35.5128909091
 21
8.7455769566
 31
0.0
  0
LINE
  5
357
330
1F
100
AcDbEntity
  8
0
  6
Continuous
 62
     7
370
    25
100
AcDbLine
 10
29.1148909091
 20
8.6675769566
 30
0.0
 11
29.1148909091
 21
8.5115769566
 31
0.0
  0
LINE
  5
358
330
1F
100
AcDbEntity
  8
0
  6
Continuous
 62
     7
370
    25
100
AcDbLine
 10
29.0428909091
 20
8.7455769566
 30
0.0
 11
29.0428909091
 21
8.4335769566
 31
0.0
  0
LINE
  5
359
330
1F
100
AcDbEntity
  8
0
  6
Continuous
 62
     7
370
    25
100
AcDbLine
 10
28.0478909091
 20
8.6561864031
 30
0.0
 11
28.0478909091
 21
12.3695769566
 31
0.0
  0
LINE
  5
35A
330
1F
100
AcDbEntity
  8
0
  6
Continuous
 62
     7
370
    25
100
AcDbLine
 10
28.0478909091
 20
8.3895769566
 30
0.0
 11
28.0478909091
 21
8.6561864031
 31
0.0
  0
LINE
  5
35B
330
1F
100
AcDbEntity
  8
0
  6
Continuous
 62
     7
370
    25
100
AcDbLine
 10
28.0578909091
 20
8.6475261491
 30
0.0
 11
28.0578909091
 21
8.3795769566
 31
0.0
  0
LINE
  5
35C
330
1F
100
AcDbEntity
  8
0
  6
Continuous
 62
     7
370
    25
100
AcDbLine
 10
28.0578909091
 20
12.3795769566
 30
0.0
 11
28.0578909091
 21
8.6475261491
 31
0.0
  0
LINE
  5
35D
330
1F
100
AcDbEntity
  8
0
  6
Continuous
 62
     7
370
    25
100
AcDbLine
 10
28.2978909091
 20
8.6475261491
 30
0.0
 11
28.2978909091
 21
12.3795769566
 31
0.0
  0
LINE
  5
35E
330
1F
100
AcDbEntity
  8
0
  6
Continuous
 62
     7
370
    25
100
AcDbLine
 10
28.2978909091
 20
8.3795769566
 30
0.0
 11
28.2978909091
 21
8.6475261491
 31
0.0
  0
LINE
  5
35F
330
1F
100
AcDbEntity
  8
0
  6
Continuous
 62
     7
370
    25
100
AcDbLine
 10
36.4978909091
 20
10.3795769566
 30
0.0
 11
36.4978909091
 21
12.3795769566
 31
0.0
  0
LINE
  5
360
330
1F
100
AcDbEntity
  8
0
  6
Continuous
 62
     7
370
    25
100
AcDbLine
 10
36.4978909091
 20
8.3795769566
 30
0.0
 11
36.4978909091
 21
10.3795769566
 31
0.0
  0
LINE
  5
361
330
1F
100
AcDbEntity
  8
0
  6
Continuous
 62
     7
370
    25
100
AcDbLine
 10
36.2578909091
 20
10.3795769566
 30
0.0
 11
36.2578909091
 21
8.3795769566
 31
0.0
  0
LINE
  5
362
330
1F
100
AcDbEntity
  8
0
  6
Continuous
 62
     7
370
    25
100
AcDbLine
 10
36.2578909091
 20
12.3795769566
 30
0.0
 11
36.2578909091
 21
10.3795769566
 31
0.0
  0
LINE
  5
363
330
1F
100
AcDbEntity
  8
0
  6
Continuous
 62
     7
370
    25
100
AcDbLine
 10
36.5078909091
 20
10.3795769566
 30
0.0
 11
36.5078909091
 21
8.3895769566
 31
0.0
  0
LINE
  5
364
330
1F
100
AcDbEntity
  8
0
  6
Continuous
 62
     7
370
    25
100
AcDbLine
 10
36.5078909091
 20
12.3695769566
 30
0.0
 11
36.5078909091
 21
10.3795769566
 31
0.0
  0
LINE
  5
365
330
1F
100
AcDbEntity
  8
0
  6
Continuous
 62
     7
370
    25
100
AcDbLine
 10
35.5278909091
 20
8.8395769566
 30
0.0
 11
29.0278909091
 21
8.8395769566
 31
0.0
  0
LINE
  5
366
330
1F
100
AcDbEntity
  8
0
  6
Continuous
 62
     7
370
    25
100
AcDbLine
 10
29.0278909091
 20
8.3795769566
 30
0.0
 11
29.0278909091
 21
8.8395769566
 31
0.0
  0
LINE
  5
367
330
1F
100
AcDbEntity
  8
0
  6
Continuous
 62
     7
370
    25
100
AcDbLine
 10
35.5278909091
 20
8.3795769566
 30
0.0
 11
35.5278909091
 21
8.8395769566
 31
0.0
  0
LINE
  5
368
330
1F
100
AcDbEntity
  8
0
  6
Continuous
 62
     7
370
    25
100
AcDbLine
 10
28.2778909091
 20
10.3795769566
 30
0.0
 11
28.2778909091
 21
12.3795769566
 31
0.0
  0
LINE
  5
369
330
1F
100
AcDbEntity
  8
0
  6
Continuous
 62
     7
370
    25
100
AcDbLine
 10
28.2778909091
 20
8.3795769566
 30
0.0
 11
28.2778909091
 21
10.3795769566
 31
0.0
  0
LINE
  5
36A
330
1F
100
AcDbEntity
  8
0
  6
Continuous
 62
     7
370
    25
100
AcDbLine
 10
36.2778909091
 20
10.3795769566
 30
0.0
 11
36.2778909091
 21
12.3795769566
 31
0.0
  0
LINE
  5
36B
330
1F
100
AcDbEntity
  8
0
  6
Continuous
 62
     7
370
    25
100
AcDbLine
 10
36.2778909091
 20
8.3795769566
 30
0.0
 11
36.2778909091
 21
10.3795769566
 31
0.0
  0
DIMENSION
  5
36C
330
1F
100
AcDbEntity
  8
SLD-0
100
AcDbDimension
  2
_D_6
 10
24.8963100663
 20
12.3795769566
 30
0.0
 11
24.8963100663
 21
10.3795769566
 31
0.0
 70
   160
  1
%%c<>
 71
     2
 42
-1.0
  3
SLDDIMSTYLE1
100
AcDbAlignedDimension
 13
28.0578909091
 23
8.3795769566
 33
0.0
 14
28.0578909091
 24
12.3795769566
 34
0.0
 50
90.0
100
AcDbRotatedDimension
  0
DIMENSION
  5
37F
330
1F
100
AcDbEntity
  8
SLD-0
100
AcDbDimension
  2
_D_7
 10
38.0869970554
 20
8.3795769566
 30
0.0
 11
38.0869970554
 21
6.0727229995
 31
0.0
 70
   160
  1
<>
 71
     2
 42
-1.0
  3
SLDDIMSTYLE2
100
AcDbAlignedDimension
 13
35.5278909091
 23
8.8395769566
 33
0.0
 14
36.2778909091
 24
8.3795769566
 34
0.0
 50
90.0
100
AcDbRotatedDimension
  0
ENDSEC
  0
SECTION
  2
OBJECTS
  0
DICTIONARY
  5
C
330
0
100
AcDbDictionary
281
     1
  3
ACAD_GROUP
350
D
  3
ACAD_LAYOUT
350
1A
  3
ACAD_MLINESTYLE
350
17
  3
ACAD_PLOTSETTINGS
350
19
  3
ACAD_PLOTSTYLENAME
350
E
  3
ACAD_SCALELIST
350
47
  3
DWGPROPS
350
394
  0
DICTIONARY
  5
D
102
{ACAD_REACTORS
330
C
102
}
330
C
100
AcDbDictionary
281
     1
  0
DICTIONARY
  5
1A
102
{ACAD_REACTORS
330
C
102
}
330
C
100
AcDbDictionary
281
     1
  3
Layout1
350
1E
  3
Layout2
350
26
  3
Model
350
22
  0
DICTIONARY
  5
17
102
{ACAD_REACTORS
330
C
102
}
330
C
100
AcDbDictionary
281
     1
  3
Standard
350
18
  0
DICTIONARY
  5
19
102
{ACAD_REACTORS
330
C
102
}
330
C
100
AcDbDictionary
281
     1
  0
ACDBDICTIONARYWDFLT
  5
E
102
{ACAD_REACTORS
330
C
102
}
330
C
100
AcDbDictionary
281
     1
  3
Normal
350
F
100
AcDbDictionaryWithDefault
340
F
  0
DICTIONARY
  5
47
102
{ACAD_REACTORS
330
C
102
}
330
C
100
AcDbDictionary
281
     1
  3
A0
350
48
  3
A1
350
49
  3
A2
350
4A
  3
A3
350
4B
  3
A4
350
4C
  3
A5
350
4D
  3
A6
350
4E
  3
A7
350
4F
  3
A8
350
50
  3
A9
350
51
  3
B1
350
52
  3
B2
350
53
  3
B3
350
54
  3
B4
350
55
  3
B5
350
56
  3
B6
350
57
  3
B7
350
58
  0
XRECORD
  5
394
102
{ACAD_REACTORS
330
C
102
}
330
C
100
AcDbXrecord
280
     1
  1
DWGPROPS COOKIE
  2

  3

  4

  6

  7

  8
shawnd
  9

300
=
301
=
302
=
303
=
304
=
305
=
306
=
307
=
308
=
309
=
 40
0.0
 41
2460858.905261956
 42
2460858.905262627
  1

 90
        0
  0
LAYOUT
  5
1E
102
{ACAD_REACTORS
330
1A
102
}
330
1A
100
AcDbPlotSettings
  1

  2
none_device
  4

  6

 40
0.0
 41
0.0
 42
0.0
 43
0.0
 44
0.0
 45
0.0
 46
0.0
 47
0.0
 48
0.0
 49
0.0
140
0.0
141
0.0
142
1.0
143
1.0
 70
   688
 72
     0
 73
     0
 74
     5
  7

 75
    16
147
1.0
148
0.0
149
0.0
100
AcDbLayout
  1
Layout1
 70
     1
 71
     1
 10
0.0
 20
0.0
 11
12.0
 21
9.0
 12
0.0
 22
0.0
 32
0.0
 14
1.0000000000E+20
 24
1.0000000000E+20
 34
1.0000000000E+20
 15
-1.0000000000E+20
 25
-1.0000000000E+20
 35
-1.0000000000E+20
146
0.0
 13
0.0
 23
0.0
 33
0.0
 16
1.0
 26
0.0
 36
0.0
 17
0.0
 27
1.0
 37
0.0
 76
     0
330
1B
  0
LAYOUT
  5
26
102
{ACAD_REACTORS
330
1A
102
}
330
1A
100
AcDbPlotSettings
  1

  2
none_device
  4

  6

 40
0.0
 41
0.0
 42
0.0
 43
0.0
 44
0.0
 45
0.0
 46
0.0
 47
0.0
 48
0.0
 49
0.0
140
0.0
141
0.0
142
1.0
143
1.0
 70
   688
 72
     0
 73
     0
 74
     5
  7

 75
    16
147
1.0
148
0.0
149
0.0
100
AcDbLayout
  1
Layout2
 70
     1
 71
     2
 10
0.0
 20
0.0
 11
0.0
 21
0.0
 12
0.0
 22
0.0
 32
0.0
 14
0.0
 24
0.0
 34
0.0
 15
0.0
 25
0.0
 35
0.0
146
0.0
 13
0.0
 23
0.0
 33
0.0
 16
1.0
 26
0.0
 36
0.0
 17
0.0
 27
1.0
 37
0.0
 76
     0
330
23
  0
LAYOUT
  5
22
102
{ACAD_REACTORS
330
1A
102
}
330
1A
100
AcDbPlotSettings
  1

  2
none_device
  4
Letter_(8.50_x_11.00_Inches)
  6

 40
6.35
 41
6.35
 42
6.35000508
 43
6.35000508
 44
215.9
 45
279.4
 46
0.0
 47
0.0
 48
0.0
 49
0.0
140
0.0
141
0.0
142
1.0
143
1.0
 70
  1712
 72
     0
 73
     0
 74
     0
  7

 75
     0
147
1.0
148
0.0
149
0.0
100
AcDbLayout
  1
Model
 70
     1
 71
     0
 10
0.0
 20
0.0
 11
44.0
 21
34.0
 12
0.0
 22
0.0
 32
0.0
 14
0.0
 24
0.0
 34
0.0
 15
44.0
 25
34.0
 35
0.0
146
0.0
 13
0.0
 23
0.0
 33
0.0
 16
1.0
 26
0.0
 36
0.0
 17
0.0
 27
1.0
 37
0.0
 76
     0
330
1F
331
29
  0
MLINESTYLE
  5
18
102
{ACAD_REACTORS
330
17
102
}
330
17
100
AcDbMlineStyle
  2
Standard
 70
     0
  3

 62
   256
 51
90.0
 52
90.0
 71
     2
 49
0.5
 62
   256
  6
BYLAYER
 49
-0.5
 62
   256
  6
BYLAYER
  0
ACDBPLACEHOLDER
  5
F
102
{ACAD_REACTORS
330
E
102
}
330
E
  0
SCALE
  5
48
102
{ACAD_REACTORS
330
47
102
}
330
47
100
AcDbScale
 70
     0
300
1:1
140
1.0
141
1.0
290
     1
  0
SCALE
  5
49
102
{ACAD_REACTORS
330
47
102
}
330
47
100
AcDbScale
 70
     0
300
1/128" = 1'-0"
140
0.0078125
141
12.0
290
     0
  0
SCALE
  5
4A
102
{ACAD_REACTORS
330
47
102
}
330
47
100
AcDbScale
 70
     0
300
1/64" = 1'-0"
140
0.015625
141
12.0
290
     0
  0
SCALE
  5
4B
102
{ACAD_REACTORS
330
47
102
}
330
47
100
AcDbScale
 70
     0
300
1/32" = 1'-0"
140
0.03125
141
12.0
290
     0
  0
SCALE
  5
4C
102
{ACAD_REACTORS
330
47
102
}
330
47
100
AcDbScale
 70
     0
300
1/16" = 1'-0"
140
0.0625
141
12.0
290
     0
  0
SCALE
  5
4D
102
{ACAD_REACTORS
330
47
102
}
330
47
100
AcDbScale
 70
     0
300
3/32" = 1'-0"
140
0.09375
141
12.0
290
     0
  0
SCALE
  5
4E
102
{ACAD_REACTORS
330
47
102
}
330
47
100
AcDbScale
 70
     0
300
1/8" = 1'-0"
140
0.125
141
12.0
290
     0
  0
SCALE
  5
4F
102
{ACAD_REACTORS
330
47
102
}
330
47
100
AcDbScale
 70
     0
300
3/16" = 1'-0"
140
0.1875
141
12.0
290
     0
  0
SCALE
  5
50
102
{ACAD_REACTORS
330
47
102
}
330
47
100
AcDbScale
 70
     0
300
1/4" = 1'-0"
140
0.25
141
12.0
290
     0
  0
SCALE
  5
51
102
{ACAD_REACTORS
330
47
102
}
330
47
100
AcDbScale
 70
     0
300
3/8" = 1'-0"
140
0.375
141
12.0
290
     0
  0
SCALE
  5
52
102
{ACAD_REACTORS
330
47
102
}
330
47
100
AcDbScale
 70
     0
300
1/2" = 1'-0"
140
0.5
141
12.0
290
     0
  0
SCALE
  5
53
102
{ACAD_REACTORS
330
47
102
}
330
47
100
AcDbScale
 70
     0
300
3/4" = 1'-0"
140
0.75
141
12.0
290
     0
  0
SCALE
  5
54
102
{ACAD_REACTORS
330
47
102
}
330
47
100
AcDbScale
 70
     0
300
1" = 1'-0"
140
1.0
141
12.0
290
     0
  0
SCALE
  5
55
102
{ACAD_REACTORS
330
47
102
}
330
47
100
AcDbScale
 70
     0
300
1-1/2" = 1'-0"
140
1.5
141
12.0
290
     0
  0
SCALE
  5
56
102
{ACAD_REACTORS
330
47
102
}
330
47
100
AcDbScale
 70
     0
300
3" = 1'-0"
140
3.0
141
12.0
290
     0
  0
SCALE
  5
57
102
{ACAD_REACTORS
330
47
102
}
330
47
100
AcDbScale
 70
     0
300
6" = 1'-0"
140
6.0
141
12.0
290
     0
  0
SCALE
  5
58
102
{ACAD_REACTORS
330
47
102
}
330
47
100
AcDbScale
 70
     0
300
1'-0" = 1'-0"
140
12.0
141
12.0
290
     0
  0
ENDSEC
  0
EOF
