  0
SECTION
  2
HEADER
  9
$ACADVER
  1
AC1015
  9
$ACADMAINTVER
 70
     6
  9
$DWGCODEPAGE
  3
ANSI_1252
  9
$INSBASE
 10
0.0
 20
0.0
 30
0.0
  9
$EXTMIN
 10
0.0
 20
0.0
 30
0.0
  9
$EXTMAX
 10
33.0
 20
25.5
 30
0.0
  9
$LIMMIN
 10
0.0
 20
0.0
  9
$LIMMAX
 10
33.0
 20
25.5
  9
$ORTHOMODE
 70
     0
  9
$REGENMODE
 70
     1
  9
$FILLMODE
 70
     1
  9
$QTEXTMODE
 70
     0
  9
$MIRRTEXT
 70
     1
  9
$LTSCALE
 40
3.0
  9
$ATTMODE
 70
     1
  9
$TEXTSIZE
 40
0.375
  9
$TRACEWID
 40
0.05
  9
$TEXTSTYLE
  7
Standard
  9
$CLAYER
  8
0
  9
$CELTYPE
  6
ByLayer
  9
$CECOLOR
 62
   256
  9
$CELTSCALE
 40
1.0
  9
$DISPSILH
 70
     0
  9
$DIMSCALE
 40
1.0
  9
$DIMASZ
 40
0.39
  9
$DIMEXO
 40
0.45
  9
$DIMDLI
 40
0.38
  9
$DIMRND
 40
0.0
  9
$DIMDLE
 40
0.0
  9
$DIMEXE
 40
0.3
  9
$DIMTP
 40
0.0
  9
$DIMTM
 40
0.0
  9
$DIMTXT
 40
0.5
  9
$DIMCEN
 40
0.09
  9
$DIMTSZ
 40
0.0
  9
$DIMTOL
 70
     0
  9
$DIMLIM
 70
     0
  9
$DIMTIH
 70
     1
  9
$DIMTOH
 70
     1
  9
$DIMSE1
 70
     0
  9
$DIMSE2
 70
     0
  9
$DIMTAD
 70
     0
  9
$DIMZIN
 70
     0
  9
$DIMBLK
  1

  9
$DIMASO
 70
     1
  9
$DIMSHO
 70
     1
  9
$DIMPOST
  1

  9
$DIMAPOST
  1

  9
$DIMALT
 70
     0
  9
$DIMALTD
 70
     2
  9
$DIMALTF
 40
25.4
  9
$DIMLFAC
 40
1.0
  9
$DIMTOFL
 70
     0
  9
$DIMTVP
 40
0.0
  9
$DIMTIX
 70
     0
  9
$DIMSOXD
 70
     0
  9
$DIMSAH
 70
     0
  9
$DIMBLK1
  1

  9
$DIMBLK2
  1

  9
$DIMSTYLE
  2
Standard
  9
$DIMCLRD
 70
     0
  9
$DIMCLRE
 70
     0
  9
$DIMCLRT
 70
     0
  9
$DIMTFAC
 40
1.0
  9
$DIMGAP
 40
0.18
  9
$DIMJUST
 70
     0
  9
$DIMSD1
 70
     0
  9
$DIMSD2
 70
     0
  9
$DIMTOLJ
 70
     1
  9
$DIMTZIN
 70
     0
  9
$DIMALTZ
 70
     0
  9
$DIMALTTZ
 70
     0
  9
$DIMUPT
 70
     0
  9
$DIMDEC
 70
     2
  9
$DIMTDEC
 70
     2
  9
$DIMALTU
 70
     2
  9
$DIMALTTD
 70
     2
  9
$DIMTXSTY
  7
Standard
  9
$DIMAUNIT
 70
     0
  9
$DIMADEC
 70
     2
  9
$DIMALTRND
 40
0.0
  9
$DIMAZIN
 70
     0
  9
$DIMDSEP
 70
    46
  9
$DIMATFIT
 70
     3
  9
$DIMFRAC
 70
     0
  9
$DIMLDRBLK
  1

  9
$DIMLUNIT
 70
     2
  9
$DIMLWD
 70
    -2
  9
$DIMLWE
 70
    -2
  9
$DIMTMOVE
 70
     0
  9
$LUNITS
 70
     2
  9
$LUPREC
 70
     2
  9
$SKETCHINC
 40
0.1
  9
$FILLETRAD
 40
0.0
  9
$AUNITS
 70
     0
  9
$AUPREC
 70
     2
  9
$MENU
  1
.
  9
$ELEVATION
 40
0.0
  9
$PELEVATION
 40
0.0
  9
$THICKNESS
 40
0.0
  9
$LIMCHECK
 70
     0
  9
$CHAMFERA
 40
0.0
  9
$CHAMFERB
 40
0.0
  9
$CHAMFERC
 40
0.0
  9
$CHAMFERD
 40
0.0
  9
$SKPOLY
 70
     0
  9
$TDCREATE
 40
2460432.907505567
  9
$TDUCREATE
 40
2460433.199172234
  9
$TDUPDATE
 40
2460432.907506019
  9
$TDUUPDATE
 40
2460433.199172686
  9
$TDINDWG
 40
0.0000000116
  9
$TDUSRTIMER
 40
0.0000000116
  9
$USRTIMER
 70
     1
  9
$ANGBASE
 50
0.0
  9
$ANGDIR
 70
     0
  9
$PDMODE
 70
     0
  9
$PDSIZE
 40
-1.0
  9
$PLINEWID
 40
0.0
  9
$SPLFRAME
 70
     0
  9
$SPLINETYPE
 70
     6
  9
$SPLINESEGS
 70
     8
  9
$HANDSEED
  5
18C
  9
$SURFTAB1
 70
     6
  9
$SURFTAB2
 70
     6
  9
$SURFTYPE
 70
     6
  9
$SURFU
 70
     6
  9
$SURFV
 70
     6
  9
$UCSBASE
  2

  9
$UCSNAME
  2

  9
$UCSORG
 10
0.0
 20
0.0
 30
0.0
  9
$UCSXDIR
 10
1.0
 20
0.0
 30
0.0
  9
$UCSYDIR
 10
0.0
 20
1.0
 30
0.0
  9
$UCSORTHOREF
  2

  9
$UCSORTHOVIEW
 70
     0
  9
$UCSORGTOP
 10
0.0
 20
0.0
 30
0.0
  9
$UCSORGBOTTOM
 10
0.0
 20
0.0
 30
0.0
  9
$UCSORGLEFT
 10
0.0
 20
0.0
 30
0.0
  9
$UCSORGRIGHT
 10
0.0
 20
0.0
 30
0.0
  9
$UCSORGFRONT
 10
0.0
 20
0.0
 30
0.0
  9
$UCSORGBACK
 10
0.0
 20
0.0
 30
0.0
  9
$PUCSBASE
  2

  9
$PUCSNAME
  2

  9
$PUCSORG
 10
0.0
 20
0.0
 30
0.0
  9
$PUCSXDIR
 10
1.0
 20
0.0
 30
0.0
  9
$PUCSYDIR
 10
0.0
 20
1.0
 30
0.0
  9
$PUCSORTHOREF
  2

  9
$PUCSORTHOVIEW
 70
     0
  9
$PUCSORGTOP
 10
0.0
 20
0.0
 30
0.0
  9
$PUCSORGBOTTOM
 10
0.0
 20
0.0
 30
0.0
  9
$PUCSORGLEFT
 10
0.0
 20
0.0
 30
0.0
  9
$PUCSORGRIGHT
 10
0.0
 20
0.0
 30
0.0
  9
$PUCSORGFRONT
 10
0.0
 20
0.0
 30
0.0
  9
$PUCSORGBACK
 10
0.0
 20
0.0
 30
0.0
  9
$USERI1
 70
     0
  9
$USERI2
 70
     0
  9
$USERI3
 70
     0
  9
$USERI4
 70
     0
  9
$USERI5
 70
     0
  9
$USERR1
 40
0.0
  9
$USERR2
 40
0.0
  9
$USERR3
 40
0.0
  9
$USERR4
 40
0.0
  9
$USERR5
 40
0.0
  9
$WORLDVIEW
 70
     1
  9
$SHADEDGE
 70
     3
  9
$SHADEDIF
 70
    70
  9
$TILEMODE
 70
     1
  9
$MAXACTVP
 70
    64
  9
$PINSBASE
 10
0.0
 20
0.0
 30
0.0
  9
$PLIMCHECK
 70
     0
  9
$PEXTMIN
 10
1.0000000000E+20
 20
1.0000000000E+20
 30
1.0000000000E+20
  9
$PEXTMAX
 10
-1.0000000000E+20
 20
-1.0000000000E+20
 30
-1.0000000000E+20
  9
$PLIMMIN
 10
0.0
 20
0.0
  9
$PLIMMAX
 10
12.0
 20
9.0
  9
$UNITMODE
 70
     0
  9
$VISRETAIN
 70
     1
  9
$PLINEGEN
 70
     0
  9
$PSLTSCALE
 70
     1
  9
$TREEDEPTH
 70
  3020
  9
$CMLSTYLE
  2
Standard
  9
$CMLJUST
 70
     0
  9
$CMLSCALE
 40
1.0
  9
$PROXYGRAPHICS
 70
     1
  9
$MEASUREMENT
 70
     0
  9
$CELWEIGHT
370
    -1
  9
$ENDCAPS
280
     0
  9
$JOINSTYLE
280
     0
  9
$LWDISPLAY
290
     1
  9
$INSUNITS
 70
     1
  9
$HYPERLINKBASE
  1

  9
$STYLESHEET
  1

  9
$XEDIT
290
     1
  9
$CEPSNTYPE
380
     0
  9
$PSTYLEMODE
290
     1
  9
$FINGERPRINTGUID
  2
{0afac3f2-1fef-45d6-822d-59571f537f10}
  9
$VERSIONGUID
  2
{FAEB1C32-E019-11D5-929B-00C0DF256EC4}
  9
$EXTNAMES
290
     1
  9
$PSVPSCALE
 40
0.0
  9
$OLESTARTUP
290
     0
  0
ENDSEC
  0
SECTION
  2
CLASSES
  0
CLASS
  1
ACDBDICTIONARYWDFLT
  2
AcDbDictionaryWithDefault
  3
ObjectDBX Classes
 90
        0
280
     0
281
     0
  0
CLASS
  1
VISUALSTYLE
  2
AcDbVisualStyle
  3
ObjectDBX Classes
 90
     4095
280
     0
281
     0
  0
CLASS
  1
MATERIAL
  2
AcDbMaterial
  3
ObjectDBX Classes
 90
     1153
280
     0
281
     0
  0
CLASS
  1
SCALE
  2
AcDbScale
  3
ObjectDBX Classes
 90
     1153
280
     0
281
     0
  0
CLASS
  1
TABLESTYLE
  2
AcDbTableStyle
  3
ObjectDBX Classes
 90
     4095
280
     0
281
     0
  0
CLASS
  1
MLEADERSTYLE
  2
AcDbMLeaderStyle
  3
ACDB_MLEADERSTYLE_CLASS
 90
     4095
280
     0
281
     0
  0
CLASS
  1
SUN
  2
AcDbSun
  3
SCENEOE
 90
     1153
280
     0
281
     0
  0
CLASS
  1
ACDBPLACEHOLDER
  2
AcDbPlaceHolder
  3
ObjectDBX Classes
 90
        0
280
     0
281
     0
  0
CLASS
  1
LAYOUT
  2
AcDbLayout
  3
ObjectDBX Classes
 90
        0
280
     0
281
     0
  0
ENDSEC
  0
SECTION
  2
TABLES
  0
TABLE
  2
VPORT
  5
8
330
0
100
AcDbSymbolTable
 70
     1
  0
VPORT
  5
29
330
8
100
AcDbSymbolTableRecord
100
AcDbViewportTableRecord
  2
*Active
 70
     0
 10
0.0
 20
0.0
 11
1.0
 21
1.0
 12
16.5
 22
12.75
 13
0.0
 23
0.0
 14
0.5
 24
0.5
 15
0.5
 25
0.5
 16
0.0
 26
0.0
 36
1.0
 17
0.0
 27
0.0
 37
0.0
 40
25.5
 41
1.2941176471
 42
50.0
 43
0.0
 44
0.0
 50
0.0
 51
0.0
 71
     0
 72
  2000
 73
     1
 74
     3
 75
     0
 76
     0
 77
     0
 78
     0
281
     0
 65
     1
110
0.0
120
0.0
130
0.0
111
1.0
121
0.0
131
0.0
112
0.0
122
1.0
132
0.0
 79
     0
146
0.0
  0
ENDTAB
  0
TABLE
  2
LTYPE
  5
5
330
0
100
AcDbSymbolTable
 70
     6
  0
LTYPE
  5
14
330
5
100
AcDbSymbolTableRecord
100
AcDbLinetypeTableRecord
  2
ByBlock
 70
     0
  3

 72
    65
 73
     0
 40
0.0
  0
LTYPE
  5
15
330
5
100
AcDbSymbolTableRecord
100
AcDbLinetypeTableRecord
  2
ByLayer
 70
     0
  3

 72
    65
 73
     0
 40
0.0
  0
LTYPE
  5
16
330
5
100
AcDbSymbolTableRecord
100
AcDbLinetypeTableRecord
  2
Continuous
 70
     0
  3
Solid line
 72
    65
 73
     0
 40
0.0
  0
LTYPE
  5
5E
330
5
100
AcDbSymbolTableRecord
100
AcDbLinetypeTableRecord
  2
HIDDEN
 70
     0
  3
Hidden __ __ __ __ __ __ __ __ __ __ __ __ __ __
 72
    65
 73
     2
 40
0.075
 49
0.05
 74
     0
 49
-0.025
 74
     0
  0
LTYPE
  5
5F
330
5
100
AcDbSymbolTableRecord
100
AcDbLinetypeTableRecord
  2
PHANTOM
 70
     0
  3
Phantom ______  __  __  ______  __  __  ______
 72
    65
 73
     6
 40
0.5
 49
0.25
 74
     0
 49
-0.05
 74
     0
 49
0.05
 74
     0
 49
-0.05
 74
     0
 49
0.05
 74
     0
 49
-0.05
 74
     0
  0
LTYPE
  5
60
330
5
100
AcDbSymbolTableRecord
100
AcDbLinetypeTableRecord
  2
CENTER
 70
     0
  3
Center ____ _ ____ _ ____ _ ____ _ ____ _ ____
 72
    65
 73
     4
 40
0.4
 49
0.25
 74
     0
 49
-0.05
 74
     0
 49
0.05
 74
     0
 49
-0.05
 74
     0
  0
LTYPE
  5
61
330
5
100
AcDbSymbolTableRecord
100
AcDbLinetypeTableRecord
  2
CENTERX2
 70
     0
  3
Center (2x) ________  __  ________  __  _____
 72
    65
 73
     4
 40
0.8
 49
0.5
 74
     0
 49
-0.1
 74
     0
 49
0.1
 74
     0
 49
-0.1
 74
     0
  0
LTYPE
  5
62
330
5
100
AcDbSymbolTableRecord
100
AcDbLinetypeTableRecord
  2
DOT2
 70
     0
  3
Dot (.5x) ........................................
 72
    65
 73
     2
 40
0.025
 49
0.0
 74
     0
 49
-0.025
 74
     0
  0
ENDTAB
  0
TABLE
  2
LAYER
  5
2
330
0
100
AcDbSymbolTable
 70
    11
  0
LAYER
  5
10
330
2
100
AcDbSymbolTableRecord
100
AcDbLayerTableRecord
  2
0
 70
     0
 62
     7
  6
Continuous
370
    -3
390
F
  0
LAYER
  5
63
330
2
100
AcDbSymbolTableRecord
100
AcDbLayerTableRecord
  2
SLD-0
 70
     0
 62
     7
  6
Continuous
370
    -3
390
F
  0
LAYER
  5
64
330
2
100
AcDbSymbolTableRecord
100
AcDbLayerTableRecord
  2
DIM
 70
     0
 62
     7
  6
Continuous
370
    -3
390
F
  0
LAYER
  5
65
330
2
100
AcDbSymbolTableRecord
100
AcDbLayerTableRecord
  2
CEN
 70
     0
 62
     1
  6
CENTER
370
    -3
390
F
  0
LAYER
  5
66
330
2
100
AcDbSymbolTableRecord
100
AcDbLayerTableRecord
  2
HAT
 70
     0
 62
     4
  6
Continuous
370
    -3
390
F
  0
LAYER
  5
67
330
2
100
AcDbSymbolTableRecord
100
AcDbLayerTableRecord
  2
OBJ
 70
     0
 62
     5
  6
Continuous
370
    -3
390
F
  0
LAYER
  5
68
330
2
100
AcDbSymbolTableRecord
100
AcDbLayerTableRecord
  2
SLD-DEFPOINTS
 70
     0
 62
     7
  6
Continuous
370
    -3
390
F
  0
LAYER
  5
69
330
2
100
AcDbSymbolTableRecord
100
AcDbLayerTableRecord
  2
HID
 70
     0
 62
     4
  6
HIDDEN
370
    -3
390
F
  0
LAYER
  5
6A
330
2
100
AcDbSymbolTableRecord
100
AcDbLayerTableRecord
  2
NOTE
 70
     0
 62
     7
  6
Continuous
370
    -3
390
F
  0
LAYER
  5
6B
330
2
100
AcDbSymbolTableRecord
100
AcDbLayerTableRecord
  2
TITLE
 70
     0
 62
     7
  6
Continuous
370
    -3
390
F
  0
LAYER
  5
6C
330
2
100
AcDbSymbolTableRecord
100
AcDbLayerTableRecord
  2
THICK_TITLE
 70
     0
 62
     7
  6
Continuous
370
   100
390
F
  0
ENDTAB
  0
TABLE
  2
STYLE
  5
3
330
0
100
AcDbSymbolTable
 70
     2
  0
STYLE
  5
11
330
3
100
AcDbSymbolTableRecord
100
AcDbTextStyleTableRecord
  2
Standard
 70
     0
 40
0.0
 41
1.0
 50
0.0
 71
     0
 42
0.375
  3
txt
  4

  0
STYLE
  5
91
330
3
100
AcDbSymbolTableRecord
100
AcDbTextStyleTableRecord
  2
SLDTEXTSTYLE0
 70
     0
 40
0.0
 41
0.7
 50
0.0
 71
     0
 42
0.375
  3
TXT
  4

  0
ENDTAB
  0
TABLE
  2
VIEW
  5
6
330
0
100
AcDbSymbolTable
 70
     0
  0
ENDTAB
  0
TABLE
  2
UCS
  5
7
330
0
100
AcDbSymbolTable
 70
     0
  0
ENDTAB
  0
TABLE
  2
APPID
  5
9
330
0
100
AcDbSymbolTable
 70
     1
  0
APPID
  5
12
330
9
100
AcDbSymbolTableRecord
100
AcDbRegAppTableRecord
  2
ACAD
 70
     0
  0
ENDTAB
  0
TABLE
  2
DIMSTYLE
  5
A
330
0
100
AcDbSymbolTable
 70
     5
100
AcDbDimStyleTable
  0
DIMSTYLE
105
27
330
A
100
AcDbSymbolTableRecord
100
AcDbDimStyleTableRecord
  2
Standard
 70
     0
178
     0
340
11
  0
DIMSTYLE
105
92
102
{ACAD_REACTORS
330
90
102
}
330
A
100
AcDbSymbolTableRecord
100
AcDbDimStyleTableRecord
  2
SLDDIMSTYLE0
 70
     0
  3
<>
 41
0.39
 44
0.0
 45
0.000000001
 78
    12
 79
     3
140
0.3640136719
141
0.0
147
0.091003418
173
     1
178
     0
271
     2
272
     2
276
     2
277
     5
284
    12
340
91
  0
DIMSTYLE
105
9D
102
{ACAD_REACTORS
330
9C
102
}
330
A
100
AcDbSymbolTableRecord
100
AcDbDimStyleTableRecord
  2
SLDDIMSTYLE1
 70
     0
 41
0.39
 44
0.0
 45
0.000000001
 78
    12
 79
     3
140
0.3640136719
147
0.091003418
173
     1
178
     0
271
     2
272
     2
276
     2
277
     5
284
    12
340
91
  0
DIMSTYLE
105
AB
102
{ACAD_REACTORS
330
AA
102
}
330
A
100
AcDbSymbolTableRecord
100
AcDbDimStyleTableRecord
  2
SLDDIMSTYLE2
 70
     0
 41
0.39
 44
0.0
 45
0.000000001
 78
    12
 79
     3
140
0.3640136719
141
0.0
147
0.091003418
148
0.000000001
170
     1
173
     1
178
     0
271
     2
272
     2
276
     2
277
     5
284
    12
340
91
  0
DIMSTYLE
105
E4
102
{ACAD_REACTORS
330
E3
330
F8
330
10B
102
}
330
A
100
AcDbSymbolTableRecord
100
AcDbDimStyleTableRecord
  2
SLDDIMSTYLE3
 70
     0
 41
0.39
 44
0.0
 45
0.000000001
 78
    12
 79
     3
140
0.3640136719
147
0.091003418
148
0.000000001
170
     1
173
     1
178
     0
271
     6
272
     2
276
     2
277
     5
284
    12
340
91
  0
ENDTAB
  0
TABLE
  2
BLOCK_RECORD
  5
1
330
0
100
AcDbSymbolTable
 70
     9
  0
BLOCK_RECORD
  5
1F
330
1
100
AcDbSymbolTableRecord
100
AcDbBlockTableRecord
  2
*Model_Space
340
22
  0
BLOCK_RECORD
  5
1B
330
1
100
AcDbSymbolTableRecord
100
AcDbBlockTableRecord
  2
*Paper_Space
340
1E
  0
BLOCK_RECORD
  5
23
330
1
100
AcDbSymbolTableRecord
100
AcDbBlockTableRecord
  2
*Paper_Space0
340
26
  0
BLOCK_RECORD
  5
93
330
1
100
AcDbSymbolTableRecord
100
AcDbBlockTableRecord
  2
_D
340
0
  0
BLOCK_RECORD
  5
9E
330
1
100
AcDbSymbolTableRecord
100
AcDbBlockTableRecord
  2
_D_1
340
0
  0
BLOCK_RECORD
  5
AC
330
1
100
AcDbSymbolTableRecord
100
AcDbBlockTableRecord
  2
_D_2
340
0
  0
BLOCK_RECORD
  5
BB
330
1
100
AcDbSymbolTableRecord
100
AcDbBlockTableRecord
  2
SW_CENTERMARKSYMBOL_0
340
0
102
{BLKREFS
331
C6
102
}
  0
BLOCK_RECORD
  5
C7
330
1
100
AcDbSymbolTableRecord
100
AcDbBlockTableRecord
  2
SW_CENTERMARKSYMBOL_1
340
0
102
{BLKREFS
331
D2
102
}
  0
BLOCK_RECORD
  5
E5
330
1
100
AcDbSymbolTableRecord
100
AcDbBlockTableRecord
  2
_D_3
340
0
  0
BLOCK_RECORD
  5
F9
330
1
100
AcDbSymbolTableRecord
100
AcDbBlockTableRecord
  2
_D_4
340
0
  0
BLOCK_RECORD
  5
10C
330
1
100
AcDbSymbolTableRecord
100
AcDbBlockTableRecord
  2
_D_5
340
0
  0
ENDTAB
  0
ENDSEC
  0
SECTION
  2
BLOCKS
  0
BLOCK
  5
20
330
1F
100
AcDbEntity
  8
0
100
AcDbBlockBegin
  2
*Model_Space
 70
     0
 10
0.0
 20
0.0
 30
0.0
  3
*Model_Space
  1

  0
ENDBLK
  5
21
330
1F
100
AcDbEntity
  8
0
100
AcDbBlockEnd
  0
BLOCK
  5
1C
330
1B
100
AcDbEntity
 67
     1
  8
0
100
AcDbBlockBegin
  2
*Paper_Space
 70
     0
 10
0.0
 20
0.0
 30
0.0
  3
*Paper_Space
  1

  0
ENDBLK
  5
1D
330
1B
100
AcDbEntity
 67
     1
  8
0
100
AcDbBlockEnd
  0
BLOCK
  5
24
330
23
100
AcDbEntity
  8
0
100
AcDbBlockBegin
  2
*Paper_Space0
 70
     0
 10
0.0
 20
0.0
 30
0.0
  3
*Paper_Space0
  1

  0
ENDBLK
  5
25
330
23
100
AcDbEntity
  8
0
100
AcDbBlockEnd
  0
BLOCK
  5
94
330
93
100
AcDbEntity
  8
0
100
AcDbBlockBegin
  2
_D
 70
     0
 10
0.0
 20
0.0
 30
0.0
  3
_D
  1

  0
SOLID
  5
96
330
93
100
AcDbEntity
  8
SLD-0
100
AcDbTrace
 10
7.2629510594
 20
19.9082618324
 30
0.0
 11
6.8933462445
 21
19.7700870125
 31
0.0
 12
6.9519701125
 22
19.6653815107
 32
0.0
 13
6.9519701125
 23
19.6653815107
 33
0.0
  0
LINE
  5
97
330
93
100
AcDbEntity
  8
SLD-0
100
AcDbLine
 10
7.2629510594
 20
19.9082618324
 30
0.0
 11
5.3840129329
 21
18.8562577002
 31
0.0
  0
LINE
  5
98
330
93
100
AcDbEntity
  8
SLD-0
100
AcDbLine
 10
5.3840129329
 20
18.8562577002
 30
0.0
 11
5.0090129329
 21
18.8562577002
 31
0.0
  0
MTEXT
  5
99
330
93
100
AcDbEntity
  8
SLD-0
100
AcDbMText
 10
2.2201240703
 20
19.3396581026
 30
0.0
 40
0.375
 41
0.0
 71
     1
 72
     1
  1
2 13/16"
  7
SLDTEXTSTYLE0
 73
     1
 44
1.0
  0
MTEXT
  5
9A
330
93
100
AcDbEntity
  8
SLD-0
100
AcDbMText
 10
4.2051935732
 20
19.3396581026
 30
0.0
 40
0.375
 41
0.0
 71
     1
 72
     1
  1
dia.
  7
SLDTEXTSTYLE0
 73
     1
 44
1.0
  0
MTEXT
  5
9B
330
93
100
AcDbEntity
  8
SLD-0
100
AcDbMText
 10
2.7812352333
 20
18.7806303155
 30
0.0
 40
0.375
 41
0.0
 71
     1
 72
     1
  1
[71mm]
  7
SLDTEXTSTYLE0
 73
     1
 44
1.0
  0
ENDBLK
  5
95
330
93
100
AcDbEntity
  8
0
100
AcDbBlockEnd
  0
BLOCK
  5
9F
330
9E
100
AcDbEntity
  8
0
100
AcDbBlockBegin
  2
_D_1
 70
     0
 10
0.0
 20
0.0
 30
0.0
  3
_D_1
  1

  0
SOLID
  5
A1
330
9E
100
AcDbEntity
  8
SLD-0
100
AcDbTrace
 10
6.4845152472
 20
24.2551508018
 30
0.0
 11
6.8745152472
 21
24.1951508018
 31
0.0
 12
6.8745152472
 22
24.3151508018
 32
0.0
 13
6.8745152472
 23
24.3151508018
 33
0.0
  0
SOLID
  5
A2
330
9E
100
AcDbEntity
  8
SLD-0
100
AcDbTrace
 10
10.4845152472
 20
24.2551508018
 30
0.0
 11
10.0945152472
 21
24.3151508018
 31
0.0
 12
10.0945152472
 22
24.1951508018
 32
0.0
 13
10.0945152472
 23
24.1951508018
 33
0.0
  0
LINE
  5
A3
330
9E
100
AcDbEntity
  8
SLD-0
100
AcDbLine
 10
6.4845152472
 20
21.2872069582
 30
0.0
 11
6.4845152472
 21
24.5551508018
 31
0.0
  0
LINE
  5
A4
330
9E
100
AcDbEntity
  8
SLD-0
100
AcDbLine
 10
10.4845152472
 20
21.2872069582
 30
0.0
 11
10.4845152472
 21
24.5551508018
 31
0.0
  0
LINE
  5
A5
330
9E
100
AcDbEntity
  8
SLD-0
100
AcDbLine
 10
6.4845152472
 20
24.2551508018
 30
0.0
 11
7.5122931284
 21
24.2551508018
 31
0.0
  0
LINE
  5
A6
330
9E
100
AcDbEntity
  8
SLD-0
100
AcDbLine
 10
10.4845152472
 20
24.2551508018
 30
0.0
 11
9.456737366
 21
24.2551508018
 31
0.0
  0
MTEXT
  5
A7
330
9E
100
AcDbEntity
  8
SLD-0
100
AcDbMText
 10
7.6734040872
 20
24.7385512042
 30
0.0
 40
0.375
 41
0.0
 71
     1
 72
     1
  1
4"
  7
SLDTEXTSTYLE0
 73
     1
 44
1.0
  0
MTEXT
  5
A8
330
9E
100
AcDbEntity
  8
SLD-0
100
AcDbMText
 10
8.2695846446
 20
24.7385512042
 30
0.0
 40
0.375
 41
0.0
 71
     1
 72
     1
  1
O.C.
  7
SLDTEXTSTYLE0
 73
     1
 44
1.0
  0
MTEXT
  5
A9
330
9E
100
AcDbEntity
  8
SLD-0
100
AcDbMText
 10
7.5122931284
 20
24.1795234171
 30
0.0
 40
0.375
 41
0.0
 71
     1
 72
     1
  1
[102mm]
  7
SLDTEXTSTYLE0
 73
     1
 44
1.0
  0
ENDBLK
  5
A0
330
9E
100
AcDbEntity
  8
0
100
AcDbBlockEnd
  0
BLOCK
  5
AD
330
AC
100
AcDbEntity
  8
0
100
AcDbBlockBegin
  2
_D_2
 70
     0
 10
0.0
 20
0.0
 30
0.0
  3
_D_2
  1

  0
SOLID
  5
AF
330
AC
100
AcDbEntity
  8
SLD-0
100
AcDbTrace
 10
6.7260803004
 20
18.8363221278
 30
0.0
 11
6.407713009
 21
18.6032078472
 31
0.0
 12
6.4925042282
 22
18.5182934836
 32
0.0
 13
6.4925042282
 23
18.5182934836
 33
0.0
  0
LINE
  5
B0
330
AC
100
AcDbEntity
  8
SLD-0
100
AcDbLine
 10
2.7812352333
 20
16.8225611553
 30
0.0
 11
2.6562352349
 21
16.8225611553
 31
0.0
  0
LINE
  5
B1
330
AC
100
AcDbEntity
  8
SLD-0
100
AcDbLine
 10
2.6562352349
 20
16.8225611553
 30
0.0
 11
2.6562352349
 21
16.2635333683
 31
0.0
  0
LINE
  5
B2
330
AC
100
AcDbEntity
  8
SLD-0
100
AcDbLine
 10
2.6562352349
 20
16.2635333683
 30
0.0
 11
2.7812352333
 21
16.2635333683
 31
0.0
  0
LINE
  5
B3
330
AC
100
AcDbEntity
  8
SLD-0
100
AcDbLine
 10
4.4479018799
 20
16.8225611553
 30
0.0
 11
4.5729018784
 21
16.8225611553
 31
0.0
  0
LINE
  5
B4
330
AC
100
AcDbEntity
  8
SLD-0
100
AcDbLine
 10
4.5729018784
 20
16.8225611553
 30
0.0
 11
4.5729018784
 21
16.2635333683
 31
0.0
  0
LINE
  5
B5
330
AC
100
AcDbEntity
  8
SLD-0
100
AcDbLine
 10
4.5729018784
 20
16.2635333683
 30
0.0
 11
4.4479018799
 21
16.2635333683
 31
0.0
  0
LINE
  5
B6
330
AC
100
AcDbEntity
  8
SLD-0
100
AcDbLine
 10
6.7260803004
 20
18.8363221278
 30
0.0
 11
5.0729017668
 21
17.1855410657
 31
0.0
  0
LINE
  5
B7
330
AC
100
AcDbEntity
  8
SLD-0
100
AcDbLine
 10
5.0729017668
 20
17.1855410657
 30
0.0
 11
4.6979017668
 21
17.1855410657
 31
0.0
  0
MTEXT
  5
B8
330
AC
100
AcDbEntity
  8
SLD-0
100
AcDbMText
 10
3.1212525254
 20
17.3892949176
 30
0.0
 40
0.375
 41
0.0
 71
     1
 72
     1
  1
%%c
  7
SLDTEXTSTYLE0
 73
     1
 44
1.0
  0
MTEXT
  5
B9
330
AC
100
AcDbEntity
  8
SLD-0
100
AcDbMText
 10
3.6523289204
 20
17.3892949176
 30
0.0
 40
0.375
 41
0.0
 71
     1
 72
     1
  1
5"
  7
SLDTEXTSTYLE0
 73
     1
 44
1.0
  0
MTEXT
  5
BA
330
AC
100
AcDbEntity
  8
SLD-0
100
AcDbMText
 10
2.7812352333
 20
16.7469337707
 30
0.0
 40
0.375
 41
0.0
 71
     1
 72
     1
  1
126mm
  7
SLDTEXTSTYLE0
 73
     1
 44
1.0
  0
ENDBLK
  5
AE
330
AC
100
AcDbEntity
  8
0
100
AcDbBlockEnd
  0
BLOCK
  5
BC
330
BB
100
AcDbEntity
  8
0
100
AcDbBlockBegin
  2
SW_CENTERMARKSYMBOL_0
 70
     0
 10
0.0
 20
0.0
 30
0.0
  3
SW_CENTERMARKSYMBOL_0
  1

  0
LINE
  5
BE
330
BB
100
AcDbEntity
  8
SLD-0
 62
     0
100
AcDbLine
 10
0.0
 20
0.0
 30
0.0
 11
0.0
 21
0.1
 31
0.0
  0
LINE
  5
BF
330
BB
100
AcDbEntity
  8
SLD-0
 62
     0
100
AcDbLine
 10
0.0
 20
0.0
 30
0.0
 11
-0.1
 21
0.0
 31
0.0
  0
LINE
  5
C0
330
BB
100
AcDbEntity
  8
SLD-0
 62
     0
100
AcDbLine
 10
0.0
 20
0.0
 30
0.0
 11
0.0
 21
-0.1
 31
0.0
  0
LINE
  5
C1
330
BB
100
AcDbEntity
  8
SLD-0
 62
     0
100
AcDbLine
 10
0.0
 20
0.0
 30
0.0
 11
0.1
 21
0.0
 31
0.0
  0
LINE
  5
C2
330
BB
100
AcDbEntity
  8
SLD-0
 62
     0
100
AcDbLine
 10
0.0
 20
0.2
 30
0.0
 11
0.0
 21
0.245
 31
0.0
  0
LINE
  5
C3
330
BB
100
AcDbEntity
  8
SLD-0
 62
     0
100
AcDbLine
 10
-0.2
 20
0.0
 30
0.0
 11
-0.245
 21
0.0
 31
0.0
  0
LINE
  5
C4
330
BB
100
AcDbEntity
  8
SLD-0
 62
     0
100
AcDbLine
 10
0.0
 20
-0.2
 30
0.0
 11
0.0
 21
-0.245
 31
0.0
  0
LINE
  5
C5
330
BB
100
AcDbEntity
  8
SLD-0
 62
     0
100
AcDbLine
 10
0.2
 20
0.0
 30
0.0
 11
0.245
 21
0.0
 31
0.0
  0
ENDBLK
  5
BD
330
BB
100
AcDbEntity
  8
0
100
AcDbBlockEnd
  0
BLOCK
  5
C8
330
C7
100
AcDbEntity
  8
0
100
AcDbBlockBegin
  2
SW_CENTERMARKSYMBOL_1
 70
     0
 10
0.0
 20
0.0
 30
0.0
  3
SW_CENTERMARKSYMBOL_1
  1

  0
LINE
  5
CA
330
C7
100
AcDbEntity
  8
SLD-0
 62
     0
100
AcDbLine
 10
0.0
 20
0.0
 30
0.0
 11
0.0
 21
0.1
 31
0.0
  0
LINE
  5
CB
330
C7
100
AcDbEntity
  8
SLD-0
 62
     0
100
AcDbLine
 10
0.0
 20
0.0
 30
0.0
 11
-0.1
 21
0.0
 31
0.0
  0
LINE
  5
CC
330
C7
100
AcDbEntity
  8
SLD-0
 62
     0
100
AcDbLine
 10
0.0
 20
0.0
 30
0.0
 11
0.0
 21
-0.1
 31
0.0
  0
LINE
  5
CD
330
C7
100
AcDbEntity
  8
SLD-0
 62
     0
100
AcDbLine
 10
0.0
 20
0.0
 30
0.0
 11
0.1
 21
0.0
 31
0.0
  0
LINE
  5
CE
330
C7
100
AcDbEntity
  8
SLD-0
 62
     0
100
AcDbLine
 10
0.0
 20
0.2
 30
0.0
 11
0.0
 21
0.245
 31
0.0
  0
LINE
  5
CF
330
C7
100
AcDbEntity
  8
SLD-0
 62
     0
100
AcDbLine
 10
-0.2
 20
0.0
 30
0.0
 11
-0.245
 21
0.0
 31
0.0
  0
LINE
  5
D0
330
C7
100
AcDbEntity
  8
SLD-0
 62
     0
100
AcDbLine
 10
0.0
 20
-0.2
 30
0.0
 11
0.0
 21
-0.245
 31
0.0
  0
LINE
  5
D1
330
C7
100
AcDbEntity
  8
SLD-0
 62
     0
100
AcDbLine
 10
0.2
 20
0.0
 30
0.0
 11
0.245
 21
0.0
 31
0.0
  0
ENDBLK
  5
C9
330
C7
100
AcDbEntity
  8
0
100
AcDbBlockEnd
  0
BLOCK
  5
E6
330
E5
100
AcDbEntity
  8
0
100
AcDbBlockBegin
  2
_D_3
 70
     0
 10
0.0
 20
0.0
 30
0.0
  3
_D_3
  1

  0
SOLID
  5
E8
330
E5
100
AcDbEntity
  8
SLD-0
100
AcDbTrace
 10
13.7170628712
 20
13.60996067
 30
0.0
 11
13.6570628712
 21
13.21996067
 31
0.0
 12
13.7770628712
 22
13.21996067
 32
0.0
 13
13.7770628712
 23
13.21996067
 33
0.0
  0
SOLID
  5
E9
330
E5
100
AcDbEntity
  8
SLD-0
100
AcDbTrace
 10
13.7170628712
 20
2.48996067
 30
0.0
 11
13.7770628712
 21
2.87996067
 31
0.0
 12
13.6570628712
 22
2.87996067
 32
0.0
 13
13.6570628712
 23
2.87996067
 33
0.0
  0
LINE
  5
EA
330
E5
100
AcDbEntity
  8
SLD-0
100
AcDbLine
 10
12.8837296991
 20
8.04996067
 30
0.0
 11
12.7587297006
 21
8.04996067
 31
0.0
  0
LINE
  5
EB
330
E5
100
AcDbEntity
  8
SLD-0
100
AcDbLine
 10
12.7587297006
 20
8.04996067
 30
0.0
 11
12.7587297006
 21
7.4909328829
 31
0.0
  0
LINE
  5
EC
330
E5
100
AcDbEntity
  8
SLD-0
100
AcDbLine
 10
12.7587297006
 20
7.4909328829
 30
0.0
 11
12.8837296991
 21
7.4909328829
 31
0.0
  0
LINE
  5
ED
330
E5
100
AcDbEntity
  8
SLD-0
100
AcDbLine
 10
14.5503963457
 20
8.04996067
 30
0.0
 11
14.6753963442
 21
8.04996067
 31
0.0
  0
LINE
  5
EE
330
E5
100
AcDbEntity
  8
SLD-0
100
AcDbLine
 10
14.6753963442
 20
8.04996067
 30
0.0
 11
14.6753963442
 21
7.4909328829
 31
0.0
  0
LINE
  5
EF
330
E5
100
AcDbEntity
  8
SLD-0
100
AcDbLine
 10
14.6753963442
 20
7.4909328829
 30
0.0
 11
14.5503963457
 21
7.4909328829
 31
0.0
  0
LINE
  5
F0
330
E5
100
AcDbEntity
  8
SLD-0
100
AcDbLine
 10
11.4195152472
 20
13.60996067
 30
0.0
 11
14.0170628712
 21
13.60996067
 31
0.0
  0
LINE
  5
F1
330
E5
100
AcDbEntity
  8
SLD-0
100
AcDbLine
 10
10.2753009721
 20
2.48996067
 30
0.0
 11
14.0170628712
 21
2.48996067
 31
0.0
  0
LINE
  5
F2
330
E5
100
AcDbEntity
  8
SLD-0
100
AcDbLine
 10
13.7170628712
 20
13.60996067
 30
0.0
 11
13.7170628712
 21
8.6923217894
 31
0.0
  0
LINE
  5
F3
330
E5
100
AcDbEntity
  8
SLD-0
100
AcDbLine
 10
13.7170628712
 20
2.48996067
 30
0.0
 11
13.7170628712
 21
7.4075995506
 31
0.0
  0
MTEXT
  5
F4
330
E5
100
AcDbEntity
  8
SLD-0
100
AcDbMText
 10
12.6354658104
 20
8.6166944047
 30
0.0
 40
0.375
 41
0.0
 71
     1
 72
     1
  1

  7
SLDTEXTSTYLE0
 73
     1
 44
1.0
  0
MTEXT
  5
F5
330
E5
100
AcDbEntity
  8
SLD-0
100
AcDbMText
 10
12.9337296215
 20
8.6166944322
 30
0.0
 40
0.375
 41
0.0
 71
     1
 72
     1
  1
11 1/8"
  7
SLDTEXTSTYLE0
 73
     1
 44
1.0
  0
MTEXT
  5
F6
330
E5
100
AcDbEntity
  8
SLD-0
100
AcDbMText
 10
12.8837296991
 20
7.9743332853
 30
0.0
 40
0.375
 41
0.0
 71
     1
 72
     1
  1
282mm
  7
SLDTEXTSTYLE0
 73
     1
 44
1.0
  0
MTEXT
  5
F7
330
E5
100
AcDbEntity
  8
SLD-0
100
AcDbMText
 10
14.9410211364
 20
8.6166944047
 30
0.0
 40
0.375
 41
0.0
 71
     1
 72
     1
  1

  7
SLDTEXTSTYLE0
 73
     1
 44
1.0
  0
ENDBLK
  5
E7
330
E5
100
AcDbEntity
  8
0
100
AcDbBlockEnd
  0
BLOCK
  5
FA
330
F9
100
AcDbEntity
  8
0
100
AcDbBlockBegin
  2
_D_4
 70
     0
 10
0.0
 20
0.0
 30
0.0
  3
_D_4
  1

  0
SOLID
  5
FC
330
F9
100
AcDbEntity
  8
SLD-0
100
AcDbTrace
 10
6.2345152472
 20
1.3088583078
 30
0.0
 11
6.6245152472
 21
1.2488583078
 31
0.0
 12
6.6245152472
 22
1.3688583078
 32
0.0
 13
6.6245152472
 23
1.3688583078
 33
0.0
  0
SOLID
  5
FD
330
F9
100
AcDbEntity
  8
SLD-0
100
AcDbTrace
 10
10.7345152472
 20
1.3088583078
 30
0.0
 11
10.3445152472
 21
1.3688583078
 31
0.0
 12
10.3445152472
 22
1.2488583078
 32
0.0
 13
10.3445152472
 23
1.2488583078
 33
0.0
  0
LINE
  5
FE
330
F9
100
AcDbEntity
  8
SLD-0
100
AcDbLine
 10
7.6511819789
 20
1.3383722318
 30
0.0
 11
7.5261819804
 21
1.3383722318
 31
0.0
  0
LINE
  5
FF
330
F9
100
AcDbEntity
  8
SLD-0
100
AcDbLine
 10
7.5261819804
 20
1.3383722318
 30
0.0
 11
7.5261819804
 21
0.7793444448
 31
0.0
  0
LINE
  5
100
330
F9
100
AcDbEntity
  8
SLD-0
100
AcDbLine
 10
7.5261819804
 20
0.7793444448
 30
0.0
 11
7.6511819789
 21
0.7793444448
 31
0.0
  0
LINE
  5
101
330
F9
100
AcDbEntity
  8
SLD-0
100
AcDbLine
 10
9.3178486254
 20
1.3383722318
 30
0.0
 11
9.4428486239
 21
1.3383722318
 31
0.0
  0
LINE
  5
102
330
F9
100
AcDbEntity
  8
SLD-0
100
AcDbLine
 10
9.4428486239
 20
1.3383722318
 30
0.0
 11
9.4428486239
 21
0.7793444448
 31
0.0
  0
LINE
  5
103
330
F9
100
AcDbEntity
  8
SLD-0
100
AcDbLine
 10
9.4428486239
 20
0.7793444448
 30
0.0
 11
9.3178486254
 21
0.7793444448
 31
0.0
  0
LINE
  5
104
330
F9
100
AcDbEntity
  8
SLD-0
100
AcDbLine
 10
6.2345152472
 20
2.03996067
 30
0.0
 11
6.2345152472
 21
1.0088583078
 31
0.0
  0
LINE
  5
105
330
F9
100
AcDbEntity
  8
SLD-0
100
AcDbLine
 10
10.7345152472
 20
2.03996067
 30
0.0
 11
10.7345152472
 21
1.0088583078
 31
0.0
  0
LINE
  5
106
330
F9
100
AcDbEntity
  8
SLD-0
100
AcDbLine
 10
6.2345152472
 20
1.3088583078
 30
0.0
 11
7.3178472272
 21
1.3088583078
 31
0.0
  0
LINE
  5
107
330
F9
100
AcDbEntity
  8
SLD-0
100
AcDbLine
 10
10.7345152472
 20
1.3088583078
 30
0.0
 11
9.6511832671
 21
1.3088583078
 31
0.0
  0
MTEXT
  5
108
330
F9
100
AcDbEntity
  8
SLD-0
100
AcDbMText
 10
7.5745325544
 20
1.9051059941
 30
0.0
 40
0.375
 41
0.0
 71
     1
 72
     1
  1
%%c
  7
SLDTEXTSTYLE0
 73
     1
 44
1.0
  0
MTEXT
  5
109
330
F9
100
AcDbEntity
  8
SLD-0
100
AcDbMText
 10
8.1056089493
 20
1.9051059941
 30
0.0
 40
0.375
 41
0.0
 71
     1
 72
     1
  1
4 1/2"
  7
SLDTEXTSTYLE0
 73
     1
 44
1.0
  0
MTEXT
  5
10A
330
F9
100
AcDbEntity
  8
SLD-0
100
AcDbMText
 10
7.6511819789
 20
1.2627448472
 30
0.0
 40
0.375
 41
0.0
 71
     1
 72
     1
  1
114mm
  7
SLDTEXTSTYLE0
 73
     1
 44
1.0
  0
ENDBLK
  5
FB
330
F9
100
AcDbEntity
  8
0
100
AcDbBlockEnd
  0
BLOCK
  5
10D
330
10C
100
AcDbEntity
  8
0
100
AcDbBlockBegin
  2
_D_5
 70
     0
 10
0.0
 20
0.0
 30
0.0
  3
_D_5
  1

  0
SOLID
  5
10F
330
10C
100
AcDbEntity
  8
SLD-0
100
AcDbTrace
 10
4.9391178587
 20
13.60996067
 30
0.0
 11
4.8791178587
 21
13.21996067
 31
0.0
 12
4.9991178587
 22
13.21996067
 32
0.0
 13
4.9991178587
 23
13.21996067
 33
0.0
  0
SOLID
  5
110
330
10C
100
AcDbEntity
  8
SLD-0
100
AcDbTrace
 10
4.9391178587
 20
11.85996067
 30
0.0
 11
4.9991178587
 21
12.24996067
 31
0.0
 12
4.8791178587
 22
12.24996067
 32
0.0
 13
4.8791178587
 23
12.24996067
 33
0.0
  0
LINE
  5
111
330
10C
100
AcDbEntity
  8
SLD-0
100
AcDbLine
 10
2.5363359529
 20
10.6065953651
 30
0.0
 11
2.4113359544
 21
10.6065953651
 31
0.0
  0
LINE
  5
112
330
10C
100
AcDbEntity
  8
SLD-0
100
AcDbLine
 10
2.4113359544
 20
10.6065953651
 30
0.0
 11
2.4113359544
 21
10.047567578
 31
0.0
  0
LINE
  5
113
330
10C
100
AcDbEntity
  8
SLD-0
100
AcDbLine
 10
2.4113359544
 20
10.047567578
 30
0.0
 11
2.5363359529
 21
10.047567578
 31
0.0
  0
LINE
  5
114
330
10C
100
AcDbEntity
  8
SLD-0
100
AcDbLine
 10
3.9252247883
 20
10.6065953651
 30
0.0
 11
4.0502247868
 21
10.6065953651
 31
0.0
  0
LINE
  5
115
330
10C
100
AcDbEntity
  8
SLD-0
100
AcDbLine
 10
4.0502247868
 20
10.6065953651
 30
0.0
 11
4.0502247868
 21
10.047567578
 31
0.0
  0
LINE
  5
116
330
10C
100
AcDbEntity
  8
SLD-0
100
AcDbLine
 10
4.0502247868
 20
10.047567578
 30
0.0
 11
3.9252247883
 21
10.047567578
 31
0.0
  0
LINE
  5
117
330
10C
100
AcDbEntity
  8
SLD-0
100
AcDbLine
 10
5.5495152472
 20
13.60996067
 30
0.0
 11
4.6391178587
 21
13.60996067
 31
0.0
  0
LINE
  5
118
330
10C
100
AcDbEntity
  8
SLD-0
100
AcDbLine
 10
5.5495152472
 20
11.85996067
 30
0.0
 11
4.6391178587
 21
11.85996067
 31
0.0
  0
LINE
  5
119
330
10C
100
AcDbEntity
  8
SLD-0
100
AcDbLine
 10
4.5641178587
 20
10.9695752205
 30
0.0
 11
4.9391178587
 21
10.9695752205
 31
0.0
  0
LINE
  5
11A
330
10C
100
AcDbEntity
  8
SLD-0
100
AcDbLine
 10
4.9391178587
 20
10.9695752205
 30
0.0
 11
4.9391178587
 21
11.85996067
 31
0.0
  0
LINE
  5
11B
330
10C
100
AcDbEntity
  8
SLD-0
100
AcDbLine
 10
4.9391178587
 20
13.60996067
 30
0.0
 11
4.9391178587
 21
11.85996067
 31
0.0
  0
MTEXT
  5
11C
330
10C
100
AcDbEntity
  8
SLD-0
100
AcDbMText
 10
2.2880720641
 20
11.1733290998
 30
0.0
 40
0.375
 41
0.0
 71
     1
 72
     1
  1

  7
SLDTEXTSTYLE0
 73
     1
 44
1.0
  0
MTEXT
  5
11D
330
10C
100
AcDbEntity
  8
SLD-0
100
AcDbMText
 10
2.5863359853
 20
11.1733291273
 30
0.0
 40
0.375
 41
0.0
 71
     1
 72
     1
  1
1 3/4"
  7
SLDTEXTSTYLE0
 73
     1
 44
1.0
  0
MTEXT
  5
11E
330
10C
100
AcDbEntity
  8
SLD-0
100
AcDbMText
 10
2.5363359529
 20
10.5309679805
 30
0.0
 40
0.375
 41
0.0
 71
     1
 72
     1
  1
44mm
  7
SLDTEXTSTYLE0
 73
     1
 44
1.0
  0
MTEXT
  5
11F
330
10C
100
AcDbEntity
  8
SLD-0
100
AcDbMText
 10
4.315849799
 20
11.1733290998
 30
0.0
 40
0.375
 41
0.0
 71
     1
 72
     1
  1

  7
SLDTEXTSTYLE0
 73
     1
 44
1.0
  0
ENDBLK
  5
10E
330
10C
100
AcDbEntity
  8
0
100
AcDbBlockEnd
  0
ENDSEC
  0
SECTION
  2
ENTITIES
  0
CIRCLE
  5
6D
330
1F
100
AcDbEntity
  8
0
  6
Continuous
 62
     7
370
    25
100
AcDbCircle
 10
10.4845152472
 20
20.5922069582
 30
0.0
 40
0.1189999999999998
  0
CIRCLE
  5
6E
330
1F
100
AcDbEntity
  8
0
  6
Continuous
 62
     7
370
    25
100
AcDbCircle
 10
10.4845152472
 20
20.5922069582
 30
0.0
 40
0.1349999999999998
  0
LINE
  5
6F
330
1F
100
AcDbEntity
  8
0
  6
Continuous
 62
     7
370
    25
100
AcDbLine
 10
10.4845152472
 20
20.6730359959
 30
0.0
 11
10.4145152472
 21
20.6326214771
 31
0.0
  0
LINE
  5
70
330
1F
100
AcDbEntity
  8
0
  6
Continuous
 62
     7
370
    25
100
AcDbLine
 10
10.5545152472
 20
20.5517924394
 30
0.0
 11
10.4845152472
 21
20.5113779205
 31
0.0
  0
LINE
  5
71
330
1F
100
AcDbEntity
  8
0
  6
Continuous
 62
     7
370
    25
100
AcDbLine
 10
10.4845152472
 20
20.6730359959
 30
0.0
 11
10.5545152472
 21
20.6326214771
 31
0.0
  0
LINE
  5
72
330
1F
100
AcDbEntity
  8
0
  6
Continuous
 62
     7
370
    25
100
AcDbLine
 10
10.4845152472
 20
20.5113779205
 30
0.0
 11
10.4145152472
 21
20.5517924394
 31
0.0
  0
LINE
  5
73
330
1F
100
AcDbEntity
  8
0
  6
Continuous
 62
     7
370
    25
100
AcDbLine
 10
10.4145152472
 20
20.6326214771
 30
0.0
 11
10.4145152472
 21
20.5517924394
 31
0.0
  0
LINE
  5
74
330
1F
100
AcDbEntity
  8
0
  6
Continuous
 62
     7
370
    25
100
AcDbLine
 10
10.5545152472
 20
20.5517924394
 30
0.0
 11
10.5545152472
 21
20.6326214771
 31
0.0
  0
ARC
  5
75
330
1F
100
AcDbEntity
  8
0
  6
Continuous
 62
     7
370
    25
100
AcDbCircle
 10
10.4845152472
 20
20.5922069582
 30
0.0
 40
0.0700000000000022
100
AcDbArc
 50
300.0
 51
0.0
  0
ARC
  5
76
330
1F
100
AcDbEntity
  8
0
  6
Continuous
 62
     7
370
    25
100
AcDbCircle
 10
10.4845152472
 20
20.5922069582
 30
0.0
 40
0.0700000000000022
100
AcDbArc
 50
240.0
 51
300.0
  0
ARC
  5
77
330
1F
100
AcDbEntity
  8
0
  6
Continuous
 62
     7
370
    25
100
AcDbCircle
 10
10.4845152472
 20
20.5922069582
 30
0.0
 40
0.0700000000000014
100
AcDbArc
 50
180.0
 51
240.0
  0
ARC
  5
78
330
1F
100
AcDbEntity
  8
0
  6
Continuous
 62
     7
370
    25
100
AcDbCircle
 10
10.4845152472
 20
20.5922069582
 30
0.0
 40
0.0700000000000003
100
AcDbArc
 50
120.0
 51
180.0
  0
ARC
  5
79
330
1F
100
AcDbEntity
  8
0
  6
Continuous
 62
     7
370
    25
100
AcDbCircle
 10
10.4845152472
 20
20.5922069582
 30
0.0
 40
0.0699999999999992
100
AcDbArc
 50
60.0
 51
120.0
  0
ARC
  5
7A
330
1F
100
AcDbEntity
  8
0
  6
Continuous
 62
     7
370
    25
100
AcDbCircle
 10
10.4845152472
 20
20.5922069582
 30
0.0
 40
0.0700000000000003
100
AcDbArc
 50
0.0
 51
60.0
  0
CIRCLE
  5
7B
330
1F
100
AcDbEntity
  8
0
  6
Continuous
 62
     7
370
    25
100
AcDbCircle
 10
6.4845152472
 20
20.5922069582
 30
0.0
 40
0.1190000000000007
  0
CIRCLE
  5
7C
330
1F
100
AcDbEntity
  8
0
  6
Continuous
 62
     7
370
    25
100
AcDbCircle
 10
6.4845152472
 20
20.5922069582
 30
0.0
 40
0.1349999999999998
  0
LINE
  5
7D
330
1F
100
AcDbEntity
  8
0
  6
Continuous
 62
     7
370
    25
100
AcDbLine
 10
6.5545152472
 20
20.5517924394
 30
0.0
 11
6.4845152472
 21
20.5113779205
 31
0.0
  0
LINE
  5
7E
330
1F
100
AcDbEntity
  8
0
  6
Continuous
 62
     7
370
    25
100
AcDbLine
 10
6.5545152472
 20
20.5517924394
 30
0.0
 11
6.5545152472
 21
20.6326214771
 31
0.0
  0
LINE
  5
7F
330
1F
100
AcDbEntity
  8
0
  6
Continuous
 62
     7
370
    25
100
AcDbLine
 10
6.4845152472
 20
20.6730359959
 30
0.0
 11
6.5545152472
 21
20.6326214771
 31
0.0
  0
LINE
  5
80
330
1F
100
AcDbEntity
  8
0
  6
Continuous
 62
     7
370
    25
100
AcDbLine
 10
6.4145152472
 20
20.6326214771
 30
0.0
 11
6.4145152472
 21
20.5517924394
 31
0.0
  0
LINE
  5
81
330
1F
100
AcDbEntity
  8
0
  6
Continuous
 62
     7
370
    25
100
AcDbLine
 10
6.4845152472
 20
20.6730359959
 30
0.0
 11
6.4145152472
 21
20.6326214771
 31
0.0
  0
LINE
  5
82
330
1F
100
AcDbEntity
  8
0
  6
Continuous
 62
     7
370
    25
100
AcDbLine
 10
6.4845152472
 20
20.5113779205
 30
0.0
 11
6.4145152472
 21
20.5517924394
 31
0.0
  0
ARC
  5
83
330
1F
100
AcDbEntity
  8
0
  6
Continuous
 62
     7
370
    25
100
AcDbCircle
 10
6.4845152472
 20
20.5922069582
 30
0.0
 40
0.0700000000000012
100
AcDbArc
 50
300.0
 51
0.0
  0
ARC
  5
84
330
1F
100
AcDbEntity
  8
0
  6
Continuous
 62
     7
370
    25
100
AcDbCircle
 10
6.4845152472
 20
20.5922069582
 30
0.0
 40
0.0699999999999992
100
AcDbArc
 50
240.0
 51
300.0
  0
ARC
  5
85
330
1F
100
AcDbEntity
  8
0
  6
Continuous
 62
     7
370
    25
100
AcDbCircle
 10
6.4845152472
 20
20.5922069582
 30
0.0
 40
0.0700000000000003
100
AcDbArc
 50
180.0
 51
240.0
  0
ARC
  5
86
330
1F
100
AcDbEntity
  8
0
  6
Continuous
 62
     7
370
    25
100
AcDbCircle
 10
6.4845152472
 20
20.5922069582
 30
0.0
 40
0.0700000000000018
100
AcDbArc
 50
120.0
 51
180.0
  0
ARC
  5
87
330
1F
100
AcDbEntity
  8
0
  6
Continuous
 62
     7
370
    25
100
AcDbCircle
 10
6.4845152472
 20
20.5922069582
 30
0.0
 40
0.0700000000000022
100
AcDbArc
 50
60.0
 51
120.0
  0
ARC
  5
88
330
1F
100
AcDbEntity
  8
0
  6
Continuous
 62
     7
370
    25
100
AcDbCircle
 10
6.4845152472
 20
20.5922069582
 30
0.0
 40
0.0700000000000022
100
AcDbArc
 50
0.0
 51
60.0
  0
CIRCLE
  5
89
330
1F
100
AcDbEntity
  8
0
  6
Continuous
 62
     7
370
    25
100
AcDbCircle
 10
8.4845152472
 20
20.5922069582
 30
0.0
 40
2.485000000000031
  0
CIRCLE
  5
8A
330
1F
100
AcDbEntity
  8
0
  6
Continuous
 62
     7
370
    25
100
AcDbCircle
 10
8.4845152472
 20
20.5922069582
 30
0.0
 40
2.375000000000028
  0
CIRCLE
  5
8B
330
1F
100
AcDbEntity
  8
0
  6
Continuous
 62
     7
370
    25
100
AcDbCircle
 10
8.4845152472
 20
20.5922069582
 30
0.0
 40
1.365000000000002
  0
CIRCLE
  5
8C
330
1F
100
AcDbEntity
  8
0
  6
Continuous
 62
     7
370
    25
100
AcDbCircle
 10
8.4845152472
 20
20.5922069582
 30
0.0
 40
1.399999999999999
  0
CIRCLE
  5
8D
330
1F
100
AcDbEntity
  8
0
  6
Continuous
 62
     7
370
    25
100
AcDbCircle
 10
6.4845152472
 20
20.5922069582
 30
0.0
 40
0.1449999999999987
  0
CIRCLE
  5
8E
330
1F
100
AcDbEntity
  8
0
  6
Continuous
 62
     7
370
    25
100
AcDbCircle
 10
10.4845152472
 20
20.5922069582
 30
0.0
 40
0.1449999999999996
  0
CIRCLE
  5
8F
330
1F
100
AcDbEntity
  8
0
  6
Continuous
 62
     7
370
    25
100
AcDbCircle
 10
8.4845152472
 20
20.5922069582
 30
0.0
 40
2.34375
  0
DIMENSION
  5
90
330
1F
100
AcDbEntity
  8
SLD-0
100
AcDbDimension
  2
_D
 10
9.706079435
 20
21.276152084
 30
0.0
 11
3.6145685016
 21
18.8562577002
 31
0.0
 70
   163
  1
<> dia.\P[71mm]
 71
     1
 42
-1.0
  3
SLDDIMSTYLE0
100
AcDbDiametricDimension
 15
7.2629510594
 25
19.9082618324
 35
0.0
 40
0.0
  0
DIMENSION
  5
9C
330
1F
100
AcDbEntity
  8
SLD-0
100
AcDbDimension
  2
_D_1
 10
10.4845152472
 20
24.2551508018
 30
0.0
 11
8.4845152472
 21
24.2551508018
 31
0.0
 70
   160
  1
<> O.C.\P[102mm]
 71
     2
 42
-1.0
  3
SLDDIMSTYLE1
100
AcDbAlignedDimension
 13
6.4845152472
 23
20.8372069582
 33
0.0
 14
10.4845152472
 24
20.8372069582
 34
0.0
100
AcDbRotatedDimension
  0
DIMENSION
  5
AA
330
1F
100
AcDbEntity
  8
SLD-0
100
AcDbDimension
  2
_D_2
 10
10.242950194
 20
22.3480917887
 30
0.0
 11
3.6145685016
 21
17.1855410657
 31
0.0
 70
   163
  1
<>
 71
     1
 42
-1.0
  3
SLDDIMSTYLE2
100
AcDbDiametricDimension
 15
6.7260803004
 25
18.8363221278
 35
0.0
 40
0.0
  0
INSERT
  5
C6
330
1F
100
AcDbEntity
  8
SLD-0
100
AcDbBlockReference
  2
SW_CENTERMARKSYMBOL_0
 10
6.4845152472
 20
20.5922069582
 30
0.0
  0
INSERT
  5
D2
330
1F
100
AcDbEntity
  8
SLD-0
100
AcDbBlockReference
  2
SW_CENTERMARKSYMBOL_1
 10
10.4845152472
 20
20.5922069582
 30
0.0
  0
LINE
  5
D3
330
1F
100
AcDbEntity
  8
0
  6
Continuous
 62
     7
370
    25
100
AcDbLine
 10
6.2345152472
 20
11.85996067
 30
0.0
 11
6.2345152472
 21
6.36496067
 31
0.0
  0
LINE
  5
D4
330
1F
100
AcDbEntity
  8
0
  6
Continuous
 62
     7
370
    25
100
AcDbLine
 10
6.2345152472
 20
5.48996067
 30
0.0
 11
6.2345152472
 21
2.48996067
 31
0.0
  0
LINE
  5
D5
330
1F
100
AcDbEntity
  8
0
  6
Continuous
 62
     7
370
    25
100
AcDbLine
 10
10.7345152472
 20
2.48996067
 30
0.0
 11
10.7345152472
 21
5.48996067
 31
0.0
  0
LINE
  5
D6
330
1F
100
AcDbEntity
  8
0
  6
Continuous
 62
     7
370
    25
100
AcDbLine
 10
10.7345152472
 20
6.36496067
 30
0.0
 11
10.7345152472
 21
11.85996067
 31
0.0
  0
LINE
  5
D7
330
1F
100
AcDbEntity
  8
0
  6
Continuous
 62
     7
370
    25
100
AcDbLine
 10
10.9695152472
 20
11.85996067
 30
0.0
 11
10.9695152472
 21
13.60996067
 31
0.0
  0
LINE
  5
D8
330
1F
100
AcDbEntity
  8
0
  6
Continuous
 62
     7
370
    25
100
AcDbLine
 10
5.9995152472
 20
13.60996067
 30
0.0
 11
5.9995152472
 21
11.85996067
 31
0.0
  0
LINE
  5
D9
330
1F
100
AcDbEntity
  8
0
  6
Continuous
 62
     7
370
    25
100
AcDbLine
 10
4.7070152472
 20
6.36496067
 30
0.0
 11
4.7375709205
 21
5.48996067
 31
0.0
  0
LINE
  5
DA
330
1F
100
AcDbEntity
  8
0
  6
Continuous
 62
     7
370
    25
100
AcDbLine
 10
12.2314595739
 20
5.48996067
 30
0.0
 11
12.2620152472
 21
6.36496067
 31
0.0
  0
CIRCLE
  5
DB
330
1F
100
AcDbEntity
  8
0
  6
Continuous
 62
     7
370
    25
100
AcDbCircle
 10
8.3860900503
 20
9.2098277792
 30
0.0
 40
0.0118110236220499
  0
CIRCLE
  5
DC
330
1F
100
AcDbEntity
  8
0
  6
Continuous
 62
     7
370
    25
100
AcDbCircle
 10
8.582940444
 20
9.2098277792
 30
0.0
 40
0.0118110236220481
  0
LINE
  5
DD
330
1F
100
AcDbEntity
  8
0
  6
Continuous
 62
     7
370
    25
100
AcDbLine
 10
8.4845152472
 20
2.48996067
 30
0.0
 11
6.2345152472
 21
2.48996067
 31
0.0
  0
LINE
  5
DE
330
1F
100
AcDbEntity
  8
0
  6
Continuous
 62
     7
370
    25
100
AcDbLine
 10
10.7345152472
 20
2.48996067
 30
0.0
 11
8.4845152472
 21
2.48996067
 31
0.0
  0
LINE
  5
DF
330
1F
100
AcDbEntity
  8
0
  6
Continuous
 62
     7
370
    25
100
AcDbLine
 10
5.9995152472
 20
11.85996067
 30
0.0
 11
10.9695152472
 21
11.85996067
 31
0.0
  0
LINE
  5
E0
330
1F
100
AcDbEntity
  8
0
  6
Continuous
 62
     7
370
    25
100
AcDbLine
 10
5.9995152472
 20
13.60996067
 30
0.0
 11
10.9695152472
 21
13.60996067
 31
0.0
  0
LINE
  5
E1
330
1F
100
AcDbEntity
  8
0
  6
Continuous
 62
     7
370
    25
100
AcDbLine
 10
4.7375709205
 20
5.48996067
 30
0.0
 11
12.2314595739
 21
5.48996067
 31
0.0
  0
LINE
  5
E2
330
1F
100
AcDbEntity
  8
0
  6
Continuous
 62
     7
370
    25
100
AcDbLine
 10
4.7070152472
 20
6.36496067
 30
0.0
 11
12.2620152472
 21
6.36496067
 31
0.0
  0
DIMENSION
  5
E3
330
1F
100
AcDbEntity
  8
SLD-0
100
AcDbDimension
  2
_D_3
 10
13.7170628712
 20
2.48996067
 30
0.0
 11
13.7170628712
 21
8.04996067
 31
0.0
 70
   160
  1
<>
 71
     2
 42
-1.0
  3
SLDDIMSTYLE3
100
AcDbAlignedDimension
 13
10.9695152472
 23
13.60996067
 33
0.0
 14
10.7345152472
 24
2.48996067
 34
0.0
 50
90.0
100
AcDbRotatedDimension
  0
DIMENSION
  5
F8
330
1F
100
AcDbEntity
  8
SLD-0
100
AcDbDimension
  2
_D_4
 10
10.7345152472
 20
1.3088583078
 30
0.0
 11
8.4845152472
 21
1.3088583078
 31
0.0
 70
   160
  1
%%c<>
 71
     2
 42
-1.0
  3
SLDDIMSTYLE3
100
AcDbAlignedDimension
 13
6.2345152472
 23
2.48996067
 33
0.0
 14
10.7345152472
 24
2.48996067
 34
0.0
 50
0.0
100
AcDbRotatedDimension
  0
DIMENSION
  5
10B
330
1F
100
AcDbEntity
  8
SLD-0
100
AcDbDimension
  2
_D_5
 10
4.9391178587
 20
11.85996067
 30
0.0
 11
4.9391178587
 21
10.9695752205
 31
0.0
 70
   160
  1
<>
 71
     2
 42
-1.0
  3
SLDDIMSTYLE3
100
AcDbAlignedDimension
 13
5.9995152472
 23
13.60996067
 33
0.0
 14
5.9995152472
 24
11.85996067
 34
0.0
 50
90.0
100
AcDbRotatedDimension
  0
LINE
  5
120
330
1F
100
AcDbEntity
  8
0
  6
Continuous
 62
     7
370
    25
100
AcDbLine
 10
25.2278230012
 20
21.7042120923
 30
0.0
 11
25.2165074544
 21
21.7107465418
 31
0.0
  0
LINE
  5
121
330
1F
100
AcDbEntity
  8
0
  6
Continuous
 62
     7
370
    25
100
AcDbLine
 10
25.048188695
 20
21.7107465418
 30
0.0
 11
25.0368731482
 21
21.7042120923
 31
0.0
  0
LINE
  5
122
330
1F
100
AcDbEntity
  8
0
  6
Continuous
 62
     7
370
    25
100
AcDbLine
 10
24.9973480747
 20
21.6491135005
 30
0.0
 11
24.9973480747
 21
21.6324474999
 31
0.0
  0
LINE
  5
123
330
1F
100
AcDbEntity
  8
0
  6
Continuous
 62
     7
370
    25
100
AcDbLine
 10
25.2673480747
 20
21.6324474999
 30
0.0
 11
25.2673480747
 21
21.6491135005
 31
0.0
  0
LINE
  5
124
330
1F
100
AcDbEntity
  8
0
  6
Continuous
 62
     7
370
    25
100
AcDbLine
 10
28.0562501259
 20
23.3370283159
 30
0.0
 11
28.0449345791
 21
23.3435627654
 31
0.0
  0
LINE
  5
125
330
1F
100
AcDbEntity
  8
0
  6
Continuous
 62
     7
370
    25
100
AcDbLine
 10
27.8766158198
 20
23.3435627654
 30
0.0
 11
27.8653002729
 21
23.3370283159
 31
0.0
  0
LINE
  5
126
330
1F
100
AcDbEntity
  8
0
  6
Continuous
 62
     7
370
    25
100
AcDbLine
 10
27.8257751994
 20
23.2819297242
 30
0.0
 11
27.8257751994
 21
23.2652637236
 31
0.0
  0
LINE
  5
127
330
1F
100
AcDbEntity
  8
0
  6
Continuous
 62
     7
370
    25
100
AcDbLine
 10
28.0957751994
 20
23.2652637236
 30
0.0
 11
28.0957751994
 21
23.2819297242
 31
0.0
  0
LINE
  5
128
330
1F
100
AcDbEntity
  8
0
  6
Continuous
 62
     7
370
    25
100
AcDbLine
 10
24.2965616371
 20
20.4414999335
 30
0.0
 11
24.2965616371
 21
16.563564624
 31
0.0
  0
LINE
  5
129
330
1F
100
AcDbEntity
  8
0
  6
Continuous
 62
     7
370
    25
100
AcDbLine
 10
24.2965616371
 20
14.1194337867
 30
0.0
 11
24.2965616371
 21
13.399468978
 31
0.0
  0
LINE
  5
12A
330
1F
100
AcDbEntity
  8
0
  6
Continuous
 62
     7
370
    25
100
AcDbLine
 10
28.7965616371
 20
13.399468978
 30
0.0
 11
28.7965616371
 21
14.1194337867
 31
0.0
  0
LINE
  5
12B
330
1F
100
AcDbEntity
  8
0
  6
Continuous
 62
     7
370
    25
100
AcDbLine
 10
28.7965616371
 20
16.563564624
 30
0.0
 11
28.7965616371
 21
20.4414999335
 31
0.0
  0
LINE
  5
12C
330
1F
100
AcDbEntity
  8
0
  6
Continuous
 62
     7
370
    25
100
AcDbLine
 10
29.0315616371
 20
21.0504563853
 30
0.0
 11
29.0315616371
 21
22.4794028061
 31
0.0
  0
LINE
  5
12D
330
1F
100
AcDbEntity
  8
0
  6
Continuous
 62
     7
370
    25
100
AcDbLine
 10
24.0615616371
 20
22.4794028061
 30
0.0
 11
24.0615616371
 21
21.0504563853
 31
0.0
  0
LINE
  5
12E
330
1F
100
AcDbEntity
  8
0
  6
Continuous
 62
     7
370
    25
100
AcDbLine
 10
27.9115616371
 20
22.3691697965
 30
0.0
 11
27.9115616371
 21
22.471237398
 31
0.0
  0
LINE
  5
12F
330
1F
100
AcDbEntity
  8
0
  6
Continuous
 62
     7
370
    25
100
AcDbLine
 10
25.1815616371
 20
22.471237398
 30
0.0
 11
25.1815616371
 21
22.3691697965
 31
0.0
  0
LINE
  5
130
330
1F
100
AcDbEntity
  8
0
  6
Continuous
 62
     7
370
    25
100
AcDbLine
 10
28.8903116371
 20
22.2577206133
 30
0.0
 11
28.8903116371
 21
22.4794028061
 31
0.0
  0
LINE
  5
131
330
1F
100
AcDbEntity
  8
0
  6
Continuous
 62
     7
370
    25
100
AcDbLine
 10
24.2028116371
 20
22.4794028061
 30
0.0
 11
24.2028116371
 21
22.2577206133
 31
0.0
  0
LINE
  5
132
330
1F
100
AcDbEntity
  8
0
  6
Continuous
 62
     7
370
    25
100
AcDbLine
 10
22.7702130659
 20
16.509725869
 30
0.0
 11
22.8007594255
 21
15.7956881529
 31
0.0
  0
LINE
  5
133
330
1F
100
AcDbEntity
  8
0
  6
Continuous
 62
     7
370
    25
100
AcDbLine
 10
30.2923638486
 20
15.7956881529
 30
0.0
 11
30.3229102082
 21
16.509725869
 31
0.0
  0
LWPOLYLINE
  5
134
330
1F
100
AcDbEntity
  8
0
  6
Continuous
 62
     7
370
    25
100
AcDbPolyline
 90
       19
 70
   128
 43
0.0
 10
25.0482023677
 20
21.6136018709
 10
25.0820565015
 20
21.599917312
 10
25.1219765413
 20
21.5937423295
 10
25.163147541
 20
21.5958217174
 10
25.2006036706
 20
21.6059046708
 10
25.229827168
 20
21.6227750367
 10
25.247293248
 20
21.644398
 10
25.2508952438
 20
21.6681655123
 10
25.2401987013
 20
21.6912108607
 10
25.2164937816
 20
21.7107544362
 10
25.1826396478
 20
21.724438995
 10
25.1427196081
 20
21.7306139775
 10
25.1015486083
 20
21.7285345896
 10
25.0640924788
 20
21.7184516362
 10
25.0348689814
 20
21.7015812703
 10
25.0174029014
 20
21.679958307
 10
25.0138009056
 20
21.6561907947
 10
25.024497448
 20
21.6331454463
 10
25.0482023677
 20
21.6136018709
  0
ARC
  5
135
330
1F
100
AcDbEntity
  8
0
  6
Continuous
 62
     7
370
    25
100
AcDbCircle
 10
25.2064240985
 20
21.6490982195
 30
0.0
 40
0.0591223478042208
100
AcDbArc
 50
333.2016017924
 51
68.7804475484
  0
ARC
  5
136
330
1F
100
AcDbEntity
  8
0
  6
Continuous
 62
     7
370
    25
100
AcDbCircle
 10
25.0566992487
 20
21.649701679
 30
0.0
 40
0.0580039603126439
100
AcDbArc
 50
109.9869423834
 51
208.0310082785
  0
LINE
  5
137
330
1F
100
AcDbEntity
  8
0
  6
Continuous
 62
     7
370
    25
100
AcDbLine
 10
25.1895028353
 20
21.6291834125
 30
0.0
 11
25.2104229297
 21
21.6742550669
 31
0.0
  0
LINE
  5
138
330
1F
100
AcDbEntity
  8
0
  6
Continuous
 62
     7
370
    25
100
AcDbLine
 10
25.2104229297
 20
21.6742550669
 30
0.0
 11
25.153268169
 21
21.7072498079
 31
0.0
  0
LINE
  5
139
330
1F
100
AcDbEntity
  8
0
  6
Continuous
 62
     7
370
    25
100
AcDbLine
 10
25.075193314
 20
21.6951728945
 30
0.0
 11
25.153268169
 21
21.7072498079
 31
0.0
  0
LINE
  5
13A
330
1F
100
AcDbEntity
  8
0
  6
Continuous
 62
     7
370
    25
100
AcDbLine
 10
25.0542732197
 20
21.6501012401
 30
0.0
 11
25.075193314
 21
21.6951728945
 31
0.0
  0
LINE
  5
13B
330
1F
100
AcDbEntity
  8
0
  6
Continuous
 62
     7
370
    25
100
AcDbLine
 10
25.0542732197
 20
21.6501012401
 30
0.0
 11
25.1114279803
 21
21.6171064991
 31
0.0
  0
LINE
  5
13C
330
1F
100
AcDbEntity
  8
0
  6
Continuous
 62
     7
370
    25
100
AcDbLine
 10
25.1895028353
 20
21.6291834125
 30
0.0
 11
25.1114279803
 21
21.6171064991
 31
0.0
  0
ARC
  5
13D
330
1F
100
AcDbEntity
  8
0
  6
Continuous
 62
     7
370
    25
100
AcDbCircle
 10
25.1276880764
 20
21.5447127513
 30
0.0
 40
0.0945871688483763
100
AcDbArc
 50
98.1794787294
 51
114.7700389184
  0
ARC
  5
13E
330
1F
100
AcDbEntity
  8
0
  6
Continuous
 62
     7
370
    25
100
AcDbCircle
 10
25.1324668934
 20
21.5324431889
 30
0.0
 40
0.1074532761856598
100
AcDbArc
 50
62.642825155
 51
99.7710969793
  0
LINE
  5
13F
330
1F
100
AcDbEntity
  8
0
  6
Continuous
 62
     7
370
    25
100
AcDbLine
 10
25.075193314
 20
21.6380243267
 30
0.0
 11
25.075193314
 21
21.6951728945
 31
0.0
  0
LINE
  5
140
330
1F
100
AcDbEntity
  8
0
  6
Continuous
 62
     7
370
    25
100
AcDbLine
 10
25.1816813904
 20
21.6279735619
 30
0.0
 11
25.153268169
 21
21.6443761654
 31
0.0
  0
LINE
  5
141
330
1F
100
AcDbEntity
  8
0
  6
Continuous
 62
     7
370
    25
100
AcDbLine
 10
25.153268169
 20
21.6443761654
 30
0.0
 11
25.153268169
 21
21.7072498079
 31
0.0
  0
LINE
  5
142
330
1F
100
AcDbEntity
  8
0
  6
Continuous
 62
     7
370
    25
100
AcDbLine
 10
25.1142307415
 20
21.6383377087
 30
0.0
 11
25.153268169
 21
21.6443761654
 31
0.0
  0
LINE
  5
143
330
1F
100
AcDbEntity
  8
0
  6
Continuous
 62
     7
370
    25
100
AcDbLine
 10
25.0830147589
 20
21.6335091027
 30
0.0
 11
25.1142307415
 21
21.6383377087
 31
0.0
  0
LWPOLYLINE
  5
144
330
1F
100
AcDbEntity
  8
0
  6
Continuous
 62
     7
370
    25
100
AcDbPolyline
 90
       19
 70
   128
 43
0.0
 10
27.8766294925
 20
23.2464180945
 10
27.9104836263
 20
23.2327335357
 10
27.950403666
 20
23.2265585532
 10
27.9915746658
 20
23.228637941
 10
28.0290307954
 20
23.2387208944
 10
28.0582542927
 20
23.2555912604
 10
28.0757203728
 20
23.2772142237
 10
28.0793223685
 20
23.3009817359
 10
28.0686258261
 20
23.3240270844
 10
28.0449209064
 20
23.3435706598
 10
28.0110667726
 20
23.3572552187
 10
27.9711467328
 20
23.3634302012
 10
27.9299757331
 20
23.3613508133
 10
27.8925196035
 20
23.3512678599
 10
27.8632961062
 20
23.334397494
 10
27.8458300261
 20
23.3127745306
 10
27.8422280304
 20
23.2890070184
 10
27.8529245728
 20
23.26596167
 10
27.8766294925
 20
23.2464180945
  0
ARC
  5
145
330
1F
100
AcDbEntity
  8
0
  6
Continuous
 62
     7
370
    25
100
AcDbCircle
 10
28.0348512232
 20
23.2819144431
 30
0.0
 40
0.059122347807603
100
AcDbArc
 50
333.201601823
 51
68.7804475474
  0
ARC
  5
146
330
1F
100
AcDbEntity
  8
0
  6
Continuous
 62
     7
370
    25
100
AcDbCircle
 10
27.8851263734
 20
23.2825179027
 30
0.0
 40
0.0580039603148524
100
AcDbArc
 50
109.9869423842
 51
208.0310082525
  0
LINE
  5
147
330
1F
100
AcDbEntity
  8
0
  6
Continuous
 62
     7
370
    25
100
AcDbLine
 10
28.0179299601
 20
23.2619996361
 30
0.0
 11
28.0388500544
 21
23.3070712906
 31
0.0
  0
LINE
  5
148
330
1F
100
AcDbEntity
  8
0
  6
Continuous
 62
     7
370
    25
100
AcDbLine
 10
28.0388500544
 20
23.3070712906
 30
0.0
 11
27.9816952938
 21
23.3400660316
 31
0.0
  0
LINE
  5
149
330
1F
100
AcDbEntity
  8
0
  6
Continuous
 62
     7
370
    25
100
AcDbLine
 10
27.9036204388
 20
23.3279891182
 30
0.0
 11
27.9816952938
 21
23.3400660316
 31
0.0
  0
LINE
  5
14A
330
1F
100
AcDbEntity
  8
0
  6
Continuous
 62
     7
370
    25
100
AcDbLine
 10
27.8827003444
 20
23.2829174638
 30
0.0
 11
27.9036204388
 21
23.3279891182
 31
0.0
  0
LINE
  5
14B
330
1F
100
AcDbEntity
  8
0
  6
Continuous
 62
     7
370
    25
100
AcDbLine
 10
27.8827003444
 20
23.2829174638
 30
0.0
 11
27.9398551051
 21
23.2499227227
 31
0.0
  0
LINE
  5
14C
330
1F
100
AcDbEntity
  8
0
  6
Continuous
 62
     7
370
    25
100
AcDbLine
 10
28.0179299601
 20
23.2619996361
 30
0.0
 11
27.9398551051
 21
23.2499227227
 31
0.0
  0
ARC
  5
14D
330
1F
100
AcDbEntity
  8
0
  6
Continuous
 62
     7
370
    25
100
AcDbCircle
 10
27.9561152011
 20
23.177528975
 30
0.0
 40
0.0945871688486319
100
AcDbArc
 50
98.1794787294
 51
114.7700389183
  0
ARC
  5
14E
330
1F
100
AcDbEntity
  8
0
  6
Continuous
 62
     7
370
    25
100
AcDbCircle
 10
27.9608940181
 20
23.1652594125
 30
0.0
 40
0.1074532761856202
100
AcDbArc
 50
62.642825155
 51
99.7710969793
  0
LINE
  5
14F
330
1F
100
AcDbEntity
  8
0
  6
Continuous
 62
     7
370
    25
100
AcDbLine
 10
27.9036204388
 20
23.2708405504
 30
0.0
 11
27.9036204388
 21
23.3279891182
 31
0.0
  0
LINE
  5
150
330
1F
100
AcDbEntity
  8
0
  6
Continuous
 62
     7
370
    25
100
AcDbLine
 10
28.0101085152
 20
23.2607897855
 30
0.0
 11
27.9816952938
 21
23.2771923891
 31
0.0
  0
LINE
  5
151
330
1F
100
AcDbEntity
  8
0
  6
Continuous
 62
     7
370
    25
100
AcDbLine
 10
27.9816952938
 20
23.2771923891
 30
0.0
 11
27.9816952938
 21
23.3400660316
 31
0.0
  0
LINE
  5
152
330
1F
100
AcDbEntity
  8
0
  6
Continuous
 62
     7
370
    25
100
AcDbLine
 10
27.9426578663
 20
23.2711539324
 30
0.0
 11
27.9816952938
 21
23.2771923891
 31
0.0
  0
LINE
  5
153
330
1F
100
AcDbEntity
  8
0
  6
Continuous
 62
     7
370
    25
100
AcDbLine
 10
27.9114418837
 20
23.2663253263
 30
0.0
 11
27.9426578663
 21
23.2711539324
 31
0.0
  0
LWPOLYLINE
  5
154
330
1F
100
AcDbEntity
  8
0
  6
Continuous
 62
     7
370
    25
100
AcDbPolyline
 90
       41
 70
   128
 43
0.0
 10
28.7965616371
 20
13.399468978
 10
28.789625638
 20
13.2975586663
 10
28.7688604034
 20
13.1962766655
 10
28.7343939579
 20
13.096247413
 10
28.6864387987
 20
12.9980876222
 10
28.6252905852
 20
12.902402481
 10
28.5513263165
 20
12.8097819199
 10
28.4650020069
 20
12.7207969757
 10
28.3668498744
 20
12.6359962701
 10
28.2574750597
 20
12.5559026276
 10
28.1375518947
 20
12.4810098522
 10
28.0078197458
 20
12.4117796827
 10
27.8690784547
 20
12.3486389461
 10
27.7221834077
 20
12.2919769261
 10
27.5680402615
 20
12.2421429629
 10
27.4075993599
 20
12.1994442995
 10
27.2418498744
 20
12.1641441872
 10
27.0718137057
 20
12.136460263
 10
26.8985391834
 20
12.1165632076
 10
26.7230946024
 20
12.1045756928
 10
26.5465616371
 20
12.1005716258
 10
26.3700286717
 20
12.1045756928
 10
26.1945840907
 20
12.1165632076
 10
26.0213095684
 20
12.136460263
 10
25.8512733997
 20
12.1641441872
 10
25.6855239142
 20
12.1994442995
 10
25.5250830126
 20
12.2421429629
 10
25.3709398664
 20
12.2919769261
 10
25.2240448194
 20
12.3486389461
 10
25.0853035283
 20
12.4117796827
 10
24.9555713794
 20
12.4810098522
 10
24.8356482145
 20
12.5559026276
 10
24.7262733997
 20
12.6359962701
 10
24.6281212673
 20
12.7207969757
 10
24.5417969576
 20
12.8097819199
 10
24.4678326889
 20
12.902402481
 10
24.4066844754
 20
12.9980876222
 10
24.3587293162
 20
13.096247413
 10
24.3242628707
 20
13.1962766655
 10
24.3034976362
 20
13.2975586663
 10
24.2965616371
 20
13.399468978
  0
LWPOLYLINE
  5
155
330
1F
100
AcDbEntity
  8
0
  6
Continuous
 62
     7
370
    25
100
AcDbPolyline
 90
       85
 70
   128
 43
0.0
 10
28.3037219883
 20
21.4650157272
 10
28.4301213691
 20
21.5436574006
 10
28.5459871198
 20
21.6275321418
 10
28.6506712721
 20
21.7161708893
 10
28.7435883899
 20
21.8090779393
 10
28.8242188429
 20
21.9057337179
 10
28.8921117129
 20
22.0055976867
 10
28.9468873154
 20
22.108111366
 10
28.988239323
 20
22.2127014576
 10
29.0159364786
 20
22.3187830513
 10
29.0298238885
 20
22.4257628958
 10
29.0298238885
 20
22.5330427165
 10
29.0159364786
 20
22.640022561
 10
28.988239323
 20
22.7461041547
 10
28.9468873154
 20
22.8506942463
 10
28.8921117129
 20
22.9532079256
 10
28.8242188429
 20
23.0530718944
 10
28.7435883899
 20
23.149727673
 10
28.6506712721
 20
23.242634723
 10
28.5459871198
 20
23.3312734705
 10
28.4301213691
 20
23.4151482117
 10
28.3037219883
 20
23.4937898851
 10
28.1674958541
 20
23.5667586944
 10
28.0222047982
 20
23.6336465686
 10
27.8686613472
 20
23.6940794434
 10
27.7077241783
 20
23.7477193537
 10
27.5402933175
 20
23.7942663234
 10
27.367305106
 20
23.833460043
 10
27.1897269641
 20
23.8650813253
 10
27.0085519809
 20
23.8889533311
 10
26.8247933602
 20
23.9049425587
 10
26.6394787548
 20
23.9129595898
 10
26.4536445193
 20
23.9129595898
 10
26.2683299139
 20
23.9049425587
 10
26.0845712933
 20
23.8889533311
 10
25.90339631
 20
23.8650813253
 10
25.7258181681
 20
23.833460043
 10
25.5528299566
 20
23.7942663234
 10
25.3853990958
 20
23.7477193537
 10
25.2244619269
 20
23.6940794434
 10
25.0709184759
 20
23.6336465686
 10
24.92562742
 20
23.5667586944
 10
24.7894012858
 20
23.4937898851
 10
24.663001905
 20
23.4151482117
 10
24.5471361543
 20
23.3312734705
 10
24.442452002
 20
23.242634723
 10
24.3495348842
 20
23.149727673
 10
24.2689044312
 20
23.0530718944
 10
24.2010115612
 20
22.9532079256
 10
24.1462359587
 20
22.8506942463
 10
24.1048839511
 20
22.7461041547
 10
24.0771867955
 20
22.640022561
 10
24.0632993857
 20
22.5330427165
 10
24.0632993857
 20
22.4257628958
 10
24.0771867955
 20
22.3187830513
 10
24.1048839511
 20
22.2127014576
 10
24.1462359587
 20
22.108111366
 10
24.2010115612
 20
22.0055976867
 10
24.2689044312
 20
21.9057337179
 10
24.3495348842
 20
21.8090779393
 10
24.442452002
 20
21.7161708893
 10
24.5471361543
 20
21.6275321418
 10
24.663001905
 20
21.5436574006
 10
24.7894012858
 20
21.4650157272
 10
24.92562742
 20
21.3920469179
 10
25.0709184759
 20
21.3251590437
 10
25.2244619269
 20
21.2647261689
 10
25.3853990958
 20
21.2110862586
 10
25.5528299566
 20
21.1645392889
 10
25.7258181681
 20
21.1253455693
 10
25.90339631
 20
21.093724287
 10
26.0845712933
 20
21.0698522812
 10
26.2683299139
 20
21.0538630536
 10
26.4536445193
 20
21.0458460225
 10
26.6394787548
 20
21.0458460225
 10
26.8247933602
 20
21.0538630536
 10
27.0085519809
 20
21.0698522812
 10
27.1897269641
 20
21.093724287
 10
27.367305106
 20
21.1253455693
 10
27.5402933175
 20
21.1645392889
 10
27.7077241783
 20
21.2110862586
 10
27.8686613472
 20
21.2647261689
 10
28.0222047982
 20
21.3251590437
 10
28.1674958541
 20
21.3920469179
 10
28.3037219883
 20
21.4650157272
  0
LWPOLYLINE
  5
156
330
1F
100
AcDbEntity
  8
0
  6
Continuous
 62
     7
370
    25
100
AcDbPolyline
 90
       83
 70
   128
 43
0.0
 10
28.2259402424
 20
21.5099181734
 10
28.3495677891
 20
21.5869761583
 10
28.4626145788
 20
21.6692712577
 10
28.564417208
 20
21.7563205311
 10
28.6543782583
 20
21.8476131388
 10
28.7319698026
 20
21.9426133396
 10
28.7967365027
 20
22.0407636343
 10
28.848298282
 20
22.1414880382
 10
28.8863525554
 20
22.2441954602
 10
28.9106760053
 20
22.3482831725
 10
28.9211258921
 20
22.453140347
 10
28.9176408916
 20
22.55815164
 10
28.9002414552
 20
22.6627008035
 10
28.8690296898
 20
22.7661743015
 10
28.8241887583
 20
22.8679649103
 10
28.7659818052
 20
22.9674752822
 10
28.6947504121
 20
23.0641214507
 10
28.610912593
 20
23.1573362578
 10
28.5149603417
 20
23.2465726817
 10
28.4074567441
 20
23.3313070478
 10
28.289032674
 20
23.411042101
 10
28.160383091
 20
23.4853099245
 10
28.0222629621
 20
23.5536746849
 10
27.8754828309
 20
23.6157351908
 10
27.7209040618
 20
23.6711272465
 10
27.5594337844
 20
23.7195257892
 10
27.3920195705
 20
23.7606467972
 10
27.2196438732
 20
23.794248956
 10
27.0433182617
 20
23.8201350747
 10
26.8640774849
 20
23.8381532434
 10
26.6829733987
 20
23.8481977242
 10
26.5010687942
 20
23.8502095721
 10
26.3194311597
 20
23.8441769809
 10
26.1391264171
 20
23.8301353522
 10
25.9612126665
 20
23.8081670877
 10
25.7867339763
 20
23.7784011061
 10
25.616714257
 20
23.741012086
 10
25.4521512519
 20
23.6962194409
 10
25.2940106821
 20
23.644286032
 10
25.1432205793
 20
23.5855166251
 10
25.0006658399
 20
23.5202561026
 10
24.8671830317
 20
23.4488874389
 10
24.743555485
 20
23.371829454
 10
24.6305086953
 20
23.2895343546
 10
24.5287060661
 20
23.2024850812
 10
24.4387450158
 20
23.1111924735
 10
24.3611534715
 20
23.0161922727
 10
24.2963867714
 20
22.918041978
 10
24.2448249921
 20
22.8173175741
 10
24.2067707187
 20
22.7146101521
 10
24.1824472688
 20
22.6105224398
 10
24.171997382
 20
22.5056652653
 10
24.1754823825
 20
22.4006539723
 10
24.1928818189
 20
22.2961048088
 10
24.2240935843
 20
22.1926313108
 10
24.2689345158
 20
22.090840702
 10
24.3271414689
 20
21.9913303301
 10
24.398372862
 20
21.8946841616
 10
24.4822106811
 20
21.8014693545
 10
24.5781629324
 20
21.7122329306
 10
24.68566653
 20
21.6274985645
 10
24.8040906001
 20
21.5477635113
 10
24.9327401831
 20
21.4734956878
 10
25.070860312
 20
21.4051309274
 10
25.2176404432
 20
21.3430704215
 10
25.3722192123
 20
21.2876783658
 10
25.5336894897
 20
21.2392798231
 10
25.7011037036
 20
21.1981588151
 10
25.8734794009
 20
21.1645566563
 10
26.0498050124
 20
21.1386705376
 10
26.2290457893
 20
21.1206523689
 10
26.4101498754
 20
21.1106078881
 10
26.59205448
 20
21.1085960402
 10
26.7736921144
 20
21.1146286314
 10
26.953996857
 20
21.1286702601
 10
27.1319106076
 20
21.1506385246
 10
27.3063892978
 20
21.1804045062
 10
27.4764090171
 20
21.2177935263
 10
27.6409720222
 20
21.2625861714
 10
27.799112592
 20
21.3145195803
 10
27.9499026948
 20
21.3732889872
 10
28.0924574342
 20
21.4385495097
 10
28.2259402424
 20
21.5099181734
  0
LWPOLYLINE
  5
157
330
1F
100
AcDbEntity
  8
0
  6
Continuous
 62
     7
370
    25
100
AcDbPolyline
 90
       12
 70
   128
 43
0.0
 10
28.3037219883
 20
20.0360693064
 10
28.4301213691
 20
20.1147109798
 10
28.5459871198
 20
20.198585721
 10
28.6506712721
 20
20.2872244685
 10
28.7435883899
 20
20.3801315185
 10
28.8242188429
 20
20.4767872971
 10
28.8921117129
 20
20.5766512659
 10
28.9468873154
 20
20.6791649452
 10
28.988239323
 20
20.7837550368
 10
29.0159364786
 20
20.8898366305
 10
29.0298238885
 20
20.996816475
 10
29.0315616371
 20
21.0504563853
  0
LWPOLYLINE
  5
158
330
1F
100
AcDbEntity
  8
0
  6
Continuous
 62
     7
370
    25
100
AcDbPolyline
 90
       33
 70
   128
 43
0.0
 10
24.0615616371
 20
21.0504563853
 10
24.0632993857
 20
20.996816475
 10
24.0771867955
 20
20.8898366305
 10
24.1048839511
 20
20.7837550368
 10
24.1462359587
 20
20.6791649452
 10
24.2010115612
 20
20.5766512659
 10
24.2689044312
 20
20.4767872971
 10
24.3495348842
 20
20.3801315185
 10
24.442452002
 20
20.2872244685
 10
24.5471361543
 20
20.198585721
 10
24.663001905
 20
20.1147109798
 10
24.7894012858
 20
20.0360693064
 10
24.92562742
 20
19.9631004971
 10
25.0709184759
 20
19.8962126229
 10
25.2244619269
 20
19.8357797481
 10
25.3853990958
 20
19.7821398378
 10
25.5528299566
 20
19.7355928681
 10
25.7258181681
 20
19.6963991485
 10
25.90339631
 20
19.6647778662
 10
26.0845712933
 20
19.6409058604
 10
26.2683299139
 20
19.6249166328
 10
26.4536445193
 20
19.6168996017
 10
26.6394787548
 20
19.6168996017
 10
26.8247933602
 20
19.6249166328
 10
27.0085519809
 20
19.6409058604
 10
27.1897269641
 20
19.6647778662
 10
27.367305106
 20
19.6963991485
 10
27.5402933175
 20
19.7355928681
 10
27.7077241783
 20
19.7821398378
 10
27.8686613472
 20
19.8357797481
 10
28.0222047982
 20
19.8962126229
 10
28.1674958541
 20
19.9631004971
 10
28.3037219883
 20
20.0360693064
  0
LWPOLYLINE
  5
159
330
1F
100
AcDbEntity
  8
0
  6
Continuous
 62
     7
370
    25
100
AcDbPolyline
 90
        3
 70
   128
 43
0.0
 10
28.9067077429
 20
22.3263014039
 10
28.9002414552
 20
22.356497999
 10
28.8903116371
 20
22.3948821945
  0
LINE
  5
15A
330
1F
100
AcDbEntity
  8
0
  6
Continuous
 62
     7
370
    25
100
AcDbLine
 10
24.2028116371
 20
22.3948821945
 30
0.0
 11
24.1864155312
 21
22.3263014039
 31
0.0
  0
LWPOLYLINE
  5
15B
330
1F
100
AcDbEntity
  8
0
  6
Continuous
 62
     7
370
    25
100
AcDbPolyline
 90
       63
 70
   128
 43
0.0
 10
27.5117623934
 20
21.9140388617
 10
27.6044580013
 20
21.9732685081
 10
27.686298161
 20
22.0376079892
 10
27.7564430817
 20
22.1063970949
 10
27.8141729815
 20
22.1789299557
 10
27.8588954735
 20
22.2544622865
 10
27.8901516445
 20
22.3322190232
 10
27.9076207639
 20
22.4114022766
 10
27.9111235748
 20
22.4911995193
 10
27.9006241337
 20
22.5707919237
 10
27.8762301791
 20
22.6493627638
 10
27.8381920258
 20
22.7261057967
 10
27.786899997
 20
22.800233535
 10
27.7228804181
 20
22.8709853276
 10
27.6467902167
 20
22.9376351656
 10
27.5594101812
 20
22.9994991313
 10
27.4616369491
 20
23.0559424168
 10
27.3544738059
 20
23.1063858375
 10
27.2390203907
 20
23.1503117758
 10
27.1164614115
 20
23.187269492
 10
26.9880544895
 20
23.21687975
 10
26.8551172534
 20
23.2388387085
 10
26.7190138191
 20
23.2529210388
 10
26.5811407921
 20
23.2589822371
 10
26.4429129361
 20
23.2569601074
 10
26.3057486561
 20
23.2468753994
 10
26.1710554431
 20
23.228831596
 10
26.0402154319
 20
23.2030138509
 10
25.9145712179
 20
23.1696870891
 10
25.7954120808
 20
23.1291932883
 10
25.6839607546
 20
23.0819479698
 10
25.5813608807
 20
23.0284359343
 10
25.4886652728
 20
22.9692062879
 10
25.4068251131
 20
22.9048668068
 10
25.3366801924
 20
22.8360777012
 10
25.2789502926
 20
22.7635448403
 10
25.2342278006
 20
22.6880125096
 10
25.2029716296
 20
22.6102557728
 10
25.1855025102
 20
22.5310725194
 10
25.1819996993
 20
22.4512752767
 10
25.1924991404
 20
22.3716828724
 10
25.216893095
 20
22.2931120322
 10
25.2549312483
 20
22.2163689993
 10
25.3062232771
 20
22.1422412611
 10
25.370242856
 20
22.0714894685
 10
25.4463330574
 20
22.0048396305
 10
25.5337130929
 20
21.9429756648
 10
25.6314863251
 20
21.8865323793
 10
25.7386494682
 20
21.8360889585
 10
25.8541028835
 20
21.7921630203
 10
25.9766618626
 20
21.755205304
 10
26.1050687846
 20
21.725595046
 10
26.2380060207
 20
21.7036360876
 10
26.374109455
 20
21.6895537573
 10
26.511982482
 20
21.683492559
 10
26.650210338
 20
21.6855146887
 10
26.787374618
 20
21.6955993966
 10
26.922067831
 20
21.7136432001
 10
27.0529078422
 20
21.7394609452
 10
27.1785520563
 20
21.772787707
 10
27.2977111934
 20
21.8132815077
 10
27.4091625195
 20
21.8605268263
 10
27.5117623934
 20
21.9140388617
  0
LWPOLYLINE
  5
15C
330
1F
100
AcDbEntity
  8
0
  6
Continuous
 62
     7
370
    25
100
AcDbPolyline
 90
        3
 70
   128
 43
0.0
 10
27.9023947174
 20
22.2779991623
 10
27.9076207639
 20
22.3093346751
 10
27.9115616371
 20
22.3691697965
  0
LWPOLYLINE
  5
15D
330
1F
100
AcDbEntity
  8
0
  6
Continuous
 62
     7
370
    25
100
AcDbPolyline
 90
        3
 70
   128
 43
0.0
 10
25.1815616371
 20
22.3691697965
 10
25.1819996993
 20
22.3492076752
 10
25.1907285567
 20
22.2779991623
  0
LWPOLYLINE
  5
15E
330
1F
100
AcDbEntity
  8
0
  6
Continuous
 62
     7
370
    25
100
AcDbPolyline
 90
       82
 70
   128
 43
0.0
 10
28.2038431555
 20
23.4361310622
 10
28.0704328558
 20
23.5073933125
 10
27.9278578154
 20
23.572473107
 10
27.7769754972
 20
23.6309790481
 10
27.6186933253
 20
23.6825592741
 10
27.4539632273
 20
23.7269035756
 10
27.2837759093
 20
23.7637452607
 10
27.1091548979
 20
23.7928627591
 10
26.9311503845
 20
23.8140809548
 10
26.7508329091
 20
23.8272722391
 10
26.5692869223
 20
23.832357278
 10
26.3876042629
 20
23.8293054895
 10
26.2068775918
 20
23.8181352275
 10
26.0281938206
 20
23.7989136712
 10
25.8526275744
 20
23.7717564212
 10
25.6812347293
 20
23.7368268046
 10
25.515046062
 20
23.694334892
 10
25.3550610508
 20
23.644536235
 10
25.2022418644
 20
23.5877303284
 10
25.0575075752
 20
23.5242588097
 10
24.9217286323
 20
23.454503404
 10
24.7957216263
 20
23.3788836286
 10
24.6802443782
 20
23.2978542697
 10
24.5759913816
 20
23.2119026474
 10
24.4835896265
 20
23.1215456849
 10
24.4035948277
 20
23.0273267996
 10
24.3364880835
 20
22.9298126348
 10
24.2826729817
 20
22.8295896524
 10
24.2424731726
 20
22.727260605
 10
24.2161304227
 20
22.6234409117
 10
24.2038031603
 20
22.5187549563
 10
24.205565523
 20
22.4138323324
 10
24.2214069119
 20
22.3093040571
 10
24.2512320548
 20
22.2057987757
 10
24.2948615799
 20
22.103938981
 10
24.3520330941
 20
22.0043372701
 10
24.4224027612
 20
21.9075926591
 10
24.5055473697
 20
21.8142869817
 10
24.6009668781
 20
21.724981389
 10
24.7080874224
 20
21.6402129756
 10
24.8262647669
 20
21.5604915485
 10
24.9547881792
 20
21.4862965619
 10
25.0928847044
 20
21.418074233
 10
25.2397238137
 20
21.3562348591
 10
25.3944223994
 20
21.3011503494
 10
25.5560500861
 20
21.2531519886
 10
25.7236348258
 20
21.2125284445
 10
25.8961687442
 20
21.1795240319
 10
26.0726142019
 20
21.1543372431
 10
26.2519100353
 20
21.1371195546
 10
26.4329779381
 20
21.1279745155
 10
26.6147289466
 20
21.1269571251
 10
26.7960699889
 20
21.1340735022
 10
26.9759104586
 20
21.1492808481
 10
27.153168774
 20
21.1724877039
 10
27.3267788827
 20
21.2035545009
 10
27.4956966731
 20
21.2422943997
 10
27.6589062537
 20
21.2884744141
 10
27.8154260628
 20
21.3418168119
 10
27.964314772
 20
21.4020007858
 10
28.1046769471
 20
21.4686643821
 10
28.2356684333
 20
21.5414066783
 10
28.3565014325
 20
21.6197901936
 10
28.4664492409
 20
21.7033435203
 10
28.5648506192
 20
21.7915641588
 10
28.6511137702
 20
21.8839215399
 10
28.724719897
 20
21.9798602154
 10
28.7852263237
 20
22.0788031988
 10
28.8322691576
 20
22.1801554354
 10
28.8655654775
 20
22.2833073808
 10
28.8849150354
 20
22.3876386673
 10
28.8902014609
 20
22.4925218341
 10
28.8813929607
 20
22.5973261014
 10
28.8585425102
 20
22.7014211643
 10
28.8217875347
 20
22.8041809826
 10
28.7713490829
 20
22.9049875467
 10
28.7075304977
 20
23.0032345941
 10
28.6307155914
 20
23.0983312555
 10
28.5413663381
 20
23.1897056084
 10
28.4400200945
 20
23.2768081167
 10
28.327286369
 20
23.3591149356
 10
28.2038431555
 20
23.4361310622
  0
LWPOLYLINE
  5
15F
330
1F
100
AcDbEntity
  8
0
  6
Continuous
 62
     7
370
    25
100
AcDbPolyline
 90
       64
 70
   128
 43
0.0
 10
27.5365111307
 20
23.0508884844
 10
27.43302471
 20
23.1049502421
 10
27.320728221
 20
23.1527950282
 10
27.2007377166
 20
23.19394734
 10
27.0742457165
 20
23.2279981871
 10
26.942509355
 20
23.254609157
 10
26.8068378871
 20
23.273515778
 10
26.6685796769
 20
23.2845301474
 10
26.5291087966
 20
23.2875427996
 10
26.3898113705
 20
23.2825237935
 10
26.252071799
 20
23.2695230102
 10
26.1172589997
 20
23.2486696573
 10
25.986712803
 20
23.2201709849
 10
25.8617306355
 20
23.1843102255
 10
25.7435546262
 20
23.1414437794
 10
25.6333592613
 20
23.0919976728
 10
25.5322397119
 20
23.0364633231
 10
25.4412009494
 20
22.9753926558
 10
25.3611477581
 20
22.9093926184
 10
25.2928757425
 20
22.8391191492
 10
25.2370634206
 20
22.7652706573
 10
25.1942654803
 20
22.6885810823
 10
25.1649072667
 20
22.6098125996
 10
25.1492805549
 20
22.5297480458
 10
25.1475406504
 20
22.4491831384
 10
25.1597048449
 20
22.3689185676
 10
25.1856522453
 20
22.2897520388
 10
25.2251249746
 20
22.2124703445
 10
25.2777307352
 20
22.137841545
 10
25.3429467073
 20
22.0666073347
 10
25.4201247454
 20
21.9994756713
 10
25.5084978193
 20
21.9371137394
 10
25.6071876379
 20
21.8801413198
 10
25.7152133773
 20
21.8291246301
 10
25.8315014291
 20
21.7845706971
 10
25.9548960706
 20
21.7469223178
 10
26.0841709503
 20
21.7165536586
 10
26.2180412764
 20
21.693766537
 10
26.3551765854
 20
21.6787874216
 10
26.4942139651
 20
21.6717651816
 10
26.6337715994
 20
21.6727696071
 10
26.7724625019
 20
21.6817907158
 10
26.9089083002
 20
21.6987388517
 10
27.0417529345
 20
21.7234455768
 10
27.1696761353
 20
21.7556653444
 10
27.2914065442
 20
21.7950779401
 10
27.4057343498
 20
21.8412916638
 10
27.5115233109
 20
21.8938472226
 10
27.6077220495
 20
21.952222296
 10
27.6933744991
 20
22.015836726
 10
27.7676294072
 20
22.0840582841
 10
27.8297487953
 20
22.1562089536
 10
27.8791152929
 20
22.2315716689
 10
27.9152382735
 20
22.3093974413
 10
27.9377587309
 20
22.3889128034
 10
27.9464528465
 20
22.4693274958
 10
27.9412342144
 20
22.5498423212
 10
27.9221546996
 20
22.629657087
 10
27.8894039229
 20
22.7079785583
 10
27.8433073763
 20
22.7840283411
 10
27.784323188
 20
22.8570506184
 10
27.7130375692
 20
22.9263196622
 10
27.6301589886
 20
22.9911470454
 10
27.5365111307
 20
23.0508884844
  0
LWPOLYLINE
  5
160
330
1F
100
AcDbEntity
  8
0
  6
Continuous
 62
     7
370
    25
100
AcDbPolyline
 90
       21
 70
   128
 43
0.0
 10
28.0633056827
 20
23.3550005061
 10
28.0266038219
 20
23.3703941501
 10
27.9834581969
 20
23.3784870676
 10
27.938092202
 20
23.3784870676
 10
27.894946577
 20
23.3703941501
 10
27.8582447162
 20
23.3550005061
 10
27.8315792534
 20
23.3338129728
 10
27.81756039
 20
23.3089055337
 10
27.81756039
 20
23.2827163023
 10
27.8315792534
 20
23.2578088631
 10
27.8582447162
 20
23.2366213299
 10
27.894946577
 20
23.2212276859
 10
27.938092202
 20
23.2131347683
 10
27.9834581969
 20
23.2131347683
 10
28.0266038219
 20
23.2212276859
 10
28.0633056827
 20
23.2366213299
 10
28.0899711454
 20
23.2578088631
 10
28.1039900088
 20
23.2827163023
 10
28.1039900088
 20
23.3089055337
 10
28.0899711454
 20
23.3338129728
 10
28.0633056827
 20
23.3550005061
  0
LWPOLYLINE
  5
161
330
1F
100
AcDbEntity
  8
0
  6
Continuous
 62
     7
370
    25
100
AcDbPolyline
 90
       21
 70
   128
 43
0.0
 10
25.234878558
 20
21.7221842824
 10
25.1981766971
 20
21.7375779264
 10
25.1550310721
 20
21.745670844
 10
25.1096650773
 20
21.745670844
 10
25.0665194522
 20
21.7375779264
 10
25.0298175914
 20
21.7221842824
 10
25.0031521287
 20
21.7009967492
 10
24.9891332653
 20
21.67608931
 10
24.9891332653
 20
21.6499000786
 10
25.0031521287
 20
21.6249926395
 10
25.0298175914
 20
21.6038051062
 10
25.0665194522
 20
21.5884114622
 10
25.1096650773
 20
21.5803185447
 10
25.1550310721
 20
21.5803185447
 10
25.1981766971
 20
21.5884114622
 10
25.234878558
 20
21.6038051062
 10
25.2615440207
 20
21.6249926395
 10
25.2755628841
 20
21.6499000786
 10
25.2755628841
 20
21.67608931
 10
25.2615440207
 20
21.7009967492
 10
25.234878558
 20
21.7221842824
  0
LWPOLYLINE
  5
162
330
1F
100
AcDbEntity
  8
0
  6
Continuous
 62
     7
370
    25
100
AcDbPolyline
 90
        3
 70
   128
 43
0.0
 10
25.1941938596
 20
22.5781937074
 10
25.1649072667
 20
22.49957959
 10
25.1498209534
 20
22.4242863013
  0
ARC
  5
163
330
1F
100
AcDbEntity
  8
0
  6
Continuous
 62
     7
370
    25
100
AcDbCircle
 10
27.4437904183
 20
22.363622732
 30
0.0
 40
0.503182083611773
100
AcDbArc
 50
6.9244156729
 51
25.2410904513
  0
LWPOLYLINE
  5
164
330
1F
100
AcDbEntity
  8
0
  6
Continuous
 62
     7
370
    25
100
AcDbPolyline
 90
       40
 70
   128
 43
0.0
 10
23.8970718949
 20
14.3195735422
 10
24.063523453
 20
14.22917301
 10
24.2392120761
 20
14.1447986807
 10
24.4234841912
 20
14.0667644323
 10
24.6156542938
 20
13.9953605573
 10
24.8150074986
 20
13.9308526829
 10
25.0208021985
 20
13.8734807825
 10
25.2322728237
 20
13.8234582835
 10
25.4486326896
 20
13.7809712727
 10
25.6690769233
 20
13.7461778047
 10
25.8927854578
 20
13.7192073134
 10
26.1189260826
 20
13.7001601309
 10
26.3466575398
 20
13.6891071139
 10
26.5751326533
 20
13.6860893803
 10
26.8035014808
 20
13.6911181564
 10
27.0309144752
 20
13.7041747348
 10
27.2565256452
 20
13.725210544
 10
27.4794957024
 20
13.7541473296
 10
27.6989951837
 20
13.7908774448
 10
27.9142075365
 20
13.8352642511
 10
28.1243321567
 20
13.8871426268
 10
28.328587367
 20
13.9463195808
 10
28.5262133245
 20
14.0125749709
 10
28.7164748477
 20
14.0856623229
 10
28.8986641512
 20
14.1653097469
 10
29.0721034789
 20
14.2512209493
 10
29.236147625
 20
14.3430763348
 10
29.3901863347
 20
14.4405341953
 10
29.5336465736
 20
14.5432319812
 10
29.6659946605
 20
14.6507876499
 10
29.7867382516
 20
14.7628010873
 10
29.8954281728
 20
14.8788555961
 10
29.9916600907
 20
14.9985194458
 10
30.0750760159
 20
15.1213474792
 10
30.145365636
 20
15.2468827677
 10
30.2022674688
 20
15.374658312
 10
30.2455698358
 20
15.5041987786
 10
30.2751116493
 20
15.6350222684
 10
30.2907830119
 20
15.7666421095
 10
30.2923638486
 20
15.7956881529
  0
LWPOLYLINE
  5
165
330
1F
100
AcDbEntity
  8
0
  6
Continuous
 62
     7
370
    25
100
AcDbPolyline
 90
       14
 70
   128
 43
0.0
 10
22.8007594255
 20
15.7956881529
 10
22.8049536753
 20
15.7336892347
 10
22.8241001369
 20
15.6022226628
 10
22.8570943998
 20
15.4716744589
 10
22.9038137231
 20
15.3425302709
 10
22.9640843079
 20
15.2152705235
 10
23.0376819437
 20
15.0903686315
 10
23.1243328424
 20
14.9682892381
 10
23.223714657
 20
14.8494864867
 10
23.3354576806
 20
14.7344023312
 10
23.4591462218
 20
14.6234648923
 10
23.5943201512
 20
14.5170868646
 10
23.7404766127
 20
14.4156639813
 10
23.8970718949
 20
14.3195735422
  0
LWPOLYLINE
  5
166
330
1F
100
AcDbEntity
  8
0
  6
Continuous
 62
     7
370
    25
100
AcDbPolyline
 90
       56
 70
   128
 43
0.0
 10
23.8754657711
 20
15.0215738028
 10
24.0416157956
 20
14.9312839927
 10
24.2169060957
 20
14.8469501975
 10
24.4006970563
 20
14.7688801422
 10
24.592318044
 20
14.6973586959
 10
24.7910698547
 20
14.6326468327
 10
24.9962272645
 20
14.5749806792
 10
25.2070416763
 20
14.5245706527
 10
25.4227438511
 20
14.4816006942
 10
25.6425467152
 20
14.4462275963
 10
25.8656482317
 20
14.4185804315
 10
26.0912343274
 20
14.3987600815
 10
26.318481863
 20
14.3868388684
 10
26.5465616371
 20
14.3828602916
 10
26.7746414111
 20
14.3868388684
 10
27.0018889467
 20
14.3987600815
 10
27.2274750424
 20
14.4185804315
 10
27.4505765589
 20
14.4462275963
 10
27.670379423
 20
14.4816006942
 10
27.8860815979
 20
14.5245706527
 10
28.0968960097
 20
14.5749806792
 10
28.3020534195
 20
14.6326468327
 10
28.5008052301
 20
14.6973586959
 10
28.6924262178
 20
14.7688801422
 10
28.8762171784
 20
14.8469501975
 10
29.0515074786
 20
14.9312839927
 10
29.217657503
 20
15.0215738028
 10
29.3740609883
 20
15.1174901703
 10
29.5201472351
 20
15.2186831066
 10
29.6553831905
 20
15.3247833698
 10
29.7792753932
 20
15.4354038113
 10
29.891371774
 20
15.5501407894
 10
29.9912633053
 20
15.6685756411
 10
30.0785854938
 20
15.7902762106
 10
30.1530197103
 20
15.9147984256
 10
30.2142943524
 20
16.0416879181
 10
30.2621858355
 20
16.1704816821
 10
30.296519409
 20
16.3007097632
 10
30.3171697931
 20
16.4318969731
 10
30.3240616371
 20
16.563564624
 10
30.3171697931
 20
16.695232275
 10
30.296519409
 20
16.8264194849
 10
30.2621858355
 20
16.9566475659
 10
30.2142943524
 20
17.08544133
 10
30.1530197103
 20
17.2123308225
 10
30.0785854938
 20
17.3368530375
 10
29.9912633053
 20
17.458553607
 10
29.891371774
 20
17.5769884587
 10
29.7792753932
 20
17.6917254367
 10
29.6553831905
 20
17.8023458783
 10
29.5201472351
 20
17.9084461415
 10
29.3740609883
 20
18.0096390778
 10
29.217657503
 20
18.1055554452
 10
29.0515074786
 20
18.1958452554
 10
28.8762171784
 20
18.2801790506
 10
28.7965616371
 20
18.3152315598
  0
LWPOLYLINE
  5
167
330
1F
100
AcDbEntity
  8
0
  6
Continuous
 62
     7
370
    25
100
AcDbPolyline
 90
       30
 70
   128
 43
0.0
 10
24.2965616371
 20
18.3152315598
 10
24.2169060957
 20
18.2801790506
 10
24.0416157956
 20
18.1958452554
 10
23.8754657711
 20
18.1055554452
 10
23.7190622858
 20
18.0096390778
 10
23.5729760391
 20
17.9084461415
 10
23.4377400836
 20
17.8023458783
 10
23.3138478809
 20
17.6917254367
 10
23.2017515001
 20
17.5769884587
 10
23.1018599688
 20
17.458553607
 10
23.0145377803
 20
17.3368530375
 10
22.9401035638
 20
17.2123308225
 10
22.8788289217
 20
17.08544133
 10
22.8309374386
 20
16.9566475659
 10
22.7966038651
 20
16.8264194849
 10
22.775953481
 20
16.695232275
 10
22.7690616371
 20
16.563564624
 10
22.775953481
 20
16.4318969731
 10
22.7966038651
 20
16.3007097632
 10
22.8309374386
 20
16.1704816821
 10
22.8788289217
 20
16.0416879181
 10
22.9401035638
 20
15.9147984256
 10
23.0145377803
 20
15.7902762106
 10
23.1018599688
 20
15.6685756411
 10
23.2017515001
 20
15.5501407894
 10
23.3138478809
 20
15.4354038113
 10
23.4377400836
 20
15.3247833698
 10
23.5729760391
 20
15.2186831066
 10
23.7190622858
 20
15.1174901703
 10
23.8754657711
 20
15.0215738028
  0
LWPOLYLINE
  5
168
330
1F
100
AcDbEntity
  8
0
  6
Continuous
 62
     7
370
    25
100
AcDbPolyline
 90
       24
 70
   128
 43
0.0
 10
24.5083263403
 20
15.3869164329
 10
24.5391801569
 20
15.363428411
 10
24.5579126481
 20
15.3360058956
 10
24.5631345105
 20
15.3066826893
 10
24.5544584626
 20
15.27763356
 10
24.5325279671
 20
15.2510129488
 10
24.4989695086
 20
15.2287951846
 10
24.4562719644
 20
15.2126280575
 10
24.407602016
 20
15.2037106092
 10
24.3565692909
 20
15.2027042061
 10
24.3069586528
 20
15.2096834885
 10
24.2624494958
 20
15.2241308349
 10
24.2263428604
 20
15.2449747519
 10
24.2013166107
 20
15.2706693413
 10
24.189226829
 20
15.299308953
 10
24.1909701592
 20
15.3287695182
 10
24.2064173065
 20
15.3568660813
 10
24.2344226266
 20
15.3815148489
 10
24.272909093
 20
15.4008877347
 10
24.3190223405
 20
15.4135479402
 10
24.3693423607
 20
15.4185565161
 10
24.4201371476
 20
15.415541999
 10
24.4676394845
 20
15.4047279621
 10
24.5083263403
 20
15.3869164329
  0
LWPOLYLINE
  5
169
330
1F
100
AcDbEntity
  8
0
  6
Continuous
 62
     7
370
    25
100
AcDbPolyline
 90
        9
 70
   128
 43
0.0
 10
28.8499619768
 20
17.8932893362
 10
28.8808157934
 20
17.8698013143
 10
28.8995482846
 20
17.8423787989
 10
28.904770147
 20
17.8130555926
 10
28.8960940991
 20
17.7840064633
 10
28.8741636036
 20
17.7573858521
 10
28.8406051451
 20
17.7351680879
 10
28.7979076009
 20
17.7190009608
 10
28.7965616371
 20
17.7186352044
  0
LWPOLYLINE
  5
16A
330
1F
100
AcDbEntity
  8
0
  6
Continuous
 62
     7
370
    25
100
AcDbPolyline
 90
        3
 70
   128
 43
0.0
 10
28.7965616371
 20
17.914866947
 10
28.809275121
 20
17.9111008654
 10
28.8499619768
 20
17.8932893362
  0
LWPOLYLINE
  5
16B
330
1F
100
AcDbEntity
  8
0
  6
Continuous
 62
     7
370
    25
100
AcDbPolyline
 90
       24
 70
   128
 43
0.0
 10
28.8499619768
 20
15.3869164329
 10
28.8808157934
 20
15.363428411
 10
28.8995482846
 20
15.3360058956
 10
28.904770147
 20
15.3066826893
 10
28.8960940991
 20
15.27763356
 10
28.8741636036
 20
15.2510129488
 10
28.8406051451
 20
15.2287951846
 10
28.7979076009
 20
15.2126280575
 10
28.7492376525
 20
15.2037106092
 10
28.6982049274
 20
15.2027042061
 10
28.6485942893
 20
15.2096834885
 10
28.6040851323
 20
15.2241308349
 10
28.5679784969
 20
15.2449747519
 10
28.5429522472
 20
15.2706693413
 10
28.5308624655
 20
15.299308953
 10
28.5326057957
 20
15.3287695182
 10
28.548052943
 20
15.3568660813
 10
28.576058263
 20
15.3815148489
 10
28.6145447294
 20
15.4008877347
 10
28.660657977
 20
15.4135479402
 10
28.7109779971
 20
15.4185565161
 10
28.7617727841
 20
15.415541999
 10
28.809275121
 20
15.4047279621
 10
28.8499619768
 20
15.3869164329
  0
ARC
  5
16C
330
1F
100
AcDbEntity
  8
0
  6
Continuous
 62
     7
370
    25
100
AcDbCircle
 10
25.0711687831
 20
16.5485251
 30
0.0
 40
0.8579102850911878
100
AcDbArc
 50
154.5419091346
 51
171.674439836
  0
SPLINE
  5
16D
330
1F
100
AcDbEntity
  8
0
  6
Continuous
 62
     7
370
    25
100
AcDbSpline
210
0.0
220
0.0
230
1.0
 70
     8
 71
     3
 72
    12
 73
     8
 74
     0
 42
0.00000001
 43
0.00000001
 40
0.0
 40
0.0
 40
0.0
 40
0.0
 40
0.1396721217146539
 40
0.3605257065119091
 40
0.581207933347746
 40
0.8017997377680549
 40
1.0
 40
1.0
 40
1.0
 40
1.0
 10
24.27460937159787
 20
16.63559308361328
 30
0.0
 10
24.2704243724284
 20
16.63605215089403
 30
0.0
 10
24.25962193194277
 20
16.63723710859137
 30
0.0
 10
24.24385634978745
 20
16.64243108656703
 30
0.0
 10
24.2303131017997
 20
16.65122710771976
 30
0.0
 10
24.22243262888299
 20
16.66184051228111
 30
0.0
 10
24.22234244496898
 20
16.66924443928815
 30
0.0
 10
24.22229976394222
 20
16.67274847002606
 30
0.0
  0
SPLINE
  5
16E
330
1F
100
AcDbEntity
  8
0
  6
Continuous
 62
     7
370
    25
100
AcDbSpline
210
0.0
220
0.0
230
1.0
 70
     8
 71
     3
 72
     9
 73
     5
 74
     0
 42
0.00000001
 43
0.00000001
 40
0.0
 40
0.0
 40
0.0
 40
0.0
 40
0.7515896153432201
 40
1.0
 40
1.0
 40
1.0
 40
1.0
 10
24.29656163705492
 20
16.63116579748313
 30
0.0
 10
24.29128151632244
 20
16.63271353946642
 30
0.0
 10
24.28425624531722
 20
16.63477283080265
 30
0.0
 10
24.27652891956127
 20
16.63542986860105
 30
0.0
 10
24.27460937159787
 20
16.63559308361328
 30
0.0
  0
SPLINE
  5
16F
330
1F
100
AcDbEntity
  8
0
  6
Continuous
 62
     7
370
    25
100
AcDbSpline
210
0.0
220
0.0
230
1.0
 70
     8
 71
     3
 72
     9
 73
     5
 74
     0
 42
0.00000001
 43
0.00000001
 40
0.0
 40
0.0
 40
0.0
 40
0.0
 40
0.7570597261187639
 40
1.0
 40
1.0
 40
1.0
 40
1.0
 10
24.27460937159787
 20
16.49153616446199
 30
0.0
 10
24.28141448842354
 20
16.49221476438525
 30
0.0
 10
24.29040336551063
 20
16.49311112685157
 30
0.0
 10
24.29740225085779
 20
16.49631539926967
 30
0.0
 10
24.2991025619809
 20
16.49709384608851
 30
0.0
  0
SPLINE
  5
170
330
1F
100
AcDbEntity
  8
0
  6
Continuous
 62
     7
370
    25
100
AcDbSpline
210
0.0
220
0.0
230
1.0
 70
     8
 71
     3
 72
    12
 73
     8
 74
     0
 42
0.00000001
 43
0.00000001
 40
0.0
 40
0.0
 40
0.0
 40
0.0
 40
0.2208865173273846
 40
0.4417806307244683
 40
0.6625033604127638
 40
0.8831356450140331
 40
1.0
 40
1.0
 40
1.0
 40
1.0
 10
24.22229976394221
 20
16.45438077804921
 30
0.0
 10
24.22241308736619
 20
16.45829259054214
 30
0.0
 10
24.22263973811122
 20
16.46611635005139
 30
0.0
 10
24.23148779694292
 20
16.47694135752629
 30
0.0
 10
24.24555498602841
 20
16.48545930862398
 30
0.0
 10
24.26098915890369
 20
16.49012209080638
 30
0.0
 10
24.27110617174073
 20
16.49117245629241
 30
0.0
 10
24.27460937159787
 20
16.49153616446199
 30
0.0
  0
LWPOLYLINE
  5
171
330
1F
100
AcDbEntity
  8
0
  6
Continuous
 62
     7
370
    25
100
AcDbPolyline
 90
        9
 70
   128
 43
0.0
 10
24.2222997639
 20
16.454380778
 10
24.2440582198
 20
16.3503254859
 10
24.2797736224
 20
16.2475627726
 10
24.3292294779
 20
16.1467155487
 10
24.3921260027
 20
16.0483951139
 10
24.4680819407
 20
15.9531974512
 10
24.5566368743
 20
15.8616996146
 10
24.6572540155
 20
15.774456231
 10
24.7693234592
 20
15.6919961383
  0
SPLINE
  5
172
330
1F
100
AcDbEntity
  8
0
  6
Continuous
 62
     7
370
    25
100
AcDbSpline
210
0.0
220
0.0
230
1.0
 70
     8
 71
     3
 72
    12
 73
     8
 74
     0
 42
0.00000001
 43
0.00000001
 40
0.0
 40
0.0
 40
0.0
 40
0.0
 40
0.1396721217146943
 40
0.3605257065119473
 40
0.581207933347769
 40
0.8017997377680887
 40
1.0
 40
1.0
 40
1.0
 40
1.0
 10
24.85182273768276
 20
15.68707630664543
 30
0.0
 10
24.84830119516653
 20
15.68569258259771
 30
0.0
 10
24.83921128811789
 20
15.68212087420094
 30
0.0
 10
24.82170135084414
 20
15.67935799666925
 30
0.0
 10
24.80135077916658
 20
15.680049314115
 30
0.0
 10
24.78277832193348
 20
15.6843372834447
 30
0.0
 10
24.77364564801162
 20
15.68953583699932
 30
0.0
 10
24.76932345924463
 20
15.69199613832735
 30
0.0
  0
SPLINE
  5
173
330
1F
100
AcDbEntity
  8
0
  6
Continuous
 62
     7
370
    25
100
AcDbSpline
210
0.0
220
0.0
230
1.0
 70
     8
 71
     3
 72
    10
 73
     6
 74
     0
 42
0.00000001
 43
0.00000001
 40
0.0
 40
0.0
 40
0.0
 40
0.0
 40
0.0264666421913498
 40
0.782122187774251
 40
1.0
 40
1.0
 40
1.0
 40
1.0
 10
24.87584168785683
 20
15.69350171394565
 30
0.0
 10
24.87560699037347
 20
15.69349453886638
 30
0.0
 10
24.86867138789592
 20
15.69328250635178
 30
0.0
 10
24.86037633512619
 20
15.69061272590064
 30
0.0
 10
24.85338696600671
 20
15.68772302484803
 30
0.0
 10
24.85182273768276
 20
15.68707630664543
 30
0.0
  0
SPLINE
  5
174
330
1F
100
AcDbEntity
  8
0
  6
Continuous
 62
     7
370
    25
100
AcDbSpline
210
0.0
220
0.0
230
1.0
 70
     8
 71
     3
 72
     9
 73
     5
 74
     0
 42
0.00000001
 43
0.00000001
 40
0.0
 40
0.0
 40
0.0
 40
0.0
 40
0.7570597261146551
 40
1.0
 40
1.0
 40
1.0
 40
1.0
 10
25.02827482955341
 20
15.58521268223671
 30
0.0
 10
25.03225557196942
 20
15.58847040113335
 30
0.0
 10
25.03751373361597
 20
15.59277352119675
 30
0.0
 10
25.03853785143035
 20
15.59789625733796
 30
0.0
 10
25.03878665089266
 20
15.59914077625915
 30
0.0
  0
SPLINE
  5
175
330
1F
100
AcDbEntity
  8
0
  6
Continuous
 62
     7
370
    25
100
AcDbSpline
210
0.0
220
0.0
230
1.0
 70
     8
 71
     3
 72
    12
 73
     8
 74
     0
 42
0.00000001
 43
0.00000001
 40
0.0
 40
0.0
 40
0.0
 40
0.0
 40
0.2208865173273768
 40
0.4417806307244331
 40
0.6625033604127915
 40
0.8831356450141005
 40
1.0
 40
1.0
 40
1.0
 40
1.0
 10
25.03679715140251
 20
15.53758686253846
 30
0.0
 10
25.03208579170742
 20
15.54039919076023
 30
0.0
 10
25.02266291029823
 20
15.54602394391699
 30
0.0
 10
25.01566012363704
 20
15.55729019361093
 30
0.0
 10
25.01517368102422
 20
15.56905557823389
 30
0.0
 10
25.02037595192673
 20
15.57865295510159
 30
0.0
 10
25.0262431911646
 20
15.58352548133328
 30
0.0
 10
25.02827482955341
 20
15.58521268223671
 30
0.0
  0
ARC
  5
176
330
1F
100
AcDbEntity
  8
0
  6
Continuous
 62
     7
370
    25
100
AcDbCircle
 10
26.472046506
 20
18.6204581733
 30
0.0
 40
3.400593511269106
100
AcDbArc
 50
245.0353832058
 51
268.0684744247
  0
SPLINE
  5
177
330
1F
100
AcDbEntity
  8
0
  6
Continuous
 62
     7
370
    25
100
AcDbSpline
210
0.0
220
0.0
230
1.0
 70
     8
 71
     3
 72
    12
 73
     8
 74
     0
 42
0.00000001
 43
0.00000001
 40
0.0
 40
0.0
 40
0.0
 40
0.0
 40
0.1396721217146346
 40
0.3605257065118995
 40
0.5812079333477769
 40
0.8017997377680695
 40
1.0
 40
1.0
 40
1.0
 40
1.0
 10
26.42179116633862
 20
15.25199449874435
 30
0.0
 10
26.42099595232117
 20
15.24957855014873
 30
0.0
 10
26.41894332297789
 20
15.24334243399584
 30
0.0
 10
26.40994611436438
 20
15.2342411571437
 30
0.0
 10
26.39470930788368
 20
15.22642280649864
 30
0.0
 10
26.37632435989473
 20
15.22187350631841
 30
0.0
 10
26.36349899248773
 20
15.22182144425302
 30
0.0
 10
26.35742917554107
 20
15.22179680502073
 30
0.0
  0
SPLINE
  5
178
330
1F
100
AcDbEntity
  8
0
  6
Continuous
 62
     7
370
    25
100
AcDbSpline
210
0.0
220
0.0
230
1.0
 70
     8
 71
     3
 72
    10
 73
     6
 74
     0
 42
0.00000001
 43
0.00000001
 40
0.0
 40
0.0
 40
0.0
 40
0.0
 40
0.0264666421914523
 40
0.7821221877740694
 40
1.0
 40
1.0
 40
1.0
 40
1.0
 10
26.43090479147869
 20
15.26634258069802
 30
0.0
 10
26.43074762389048
 20
15.26624170268619
 30
0.0
 10
26.42610312622236
 20
15.26326063199575
 30
0.0
 10
26.42350779240188
 20
15.25798673794987
 30
0.0
 10
26.42210509216077
 20
15.25309032191713
 30
0.0
 10
26.42179116633862
 20
15.25199449874435
 30
0.0
  0
SPLINE
  5
179
330
1F
100
AcDbEntity
  8
0
  6
Continuous
 62
     7
370
    25
100
AcDbSpline
210
0.0
220
0.0
230
1.0
 70
     8
 71
     3
 72
     9
 73
     5
 74
     0
 42
0.00000001
 43
0.00000001
 40
0.0
 40
0.0
 40
0.0
 40
0.0
 40
0.7570597261189914
 40
1.0
 40
1.0
 40
1.0
 40
1.0
 10
26.6713321077712
 20
15.25199449874435
 30
0.0
 10
26.67015661085857
 20
15.25592300906712
 30
0.0
 10
26.66860389728514
 20
15.26111217735494
 30
0.0
 10
26.66305333324054
 20
15.26515254786415
 30
0.0
 10
26.66170487769135
 20
15.26613411658225
 30
0.0
  0
SPLINE
  5
17A
330
1F
100
AcDbEntity
  8
0
  6
Continuous
 62
     7
370
    25
100
AcDbSpline
210
0.0
220
0.0
230
1.0
 70
     8
 71
     3
 72
    12
 73
     8
 74
     0
 42
0.00000001
 43
0.00000001
 40
0.0
 40
0.0
 40
0.0
 40
0.0
 40
0.220886517327376
 40
0.4417806307244366
 40
0.6625033604127621
 40
0.8831356450140486
 40
1.0
 40
1.0
 40
1.0
 40
1.0
 10
26.73569409856875
 20
15.22179680502073
 30
0.0
 10
26.72891790636676
 20
15.22186222524088
 30
0.0
 10
26.71536528893623
 20
15.22199306793092
 30
0.0
 10
26.69661379423387
 20
15.22710094357027
 30
0.0
 10
26.68185867140801
 20
15.23522175897291
 30
0.0
 10
26.67378162059818
 20
15.24413171732001
 30
0.0
 10
26.67196213706503
 20
15.24997214451385
 30
0.0
 10
26.6713321077712
 20
15.25199449874435
 30
0.0
  0
ARC
  5
17B
330
1F
100
AcDbEntity
  8
0
  6
Continuous
 62
     7
370
    25
100
AcDbCircle
 10
26.6210767681
 20
18.6204581733
 30
0.0
 40
3.400593511269094
100
AcDbArc
 50
271.9315255753
 51
294.9646167942
  0
SPLINE
  5
17C
330
1F
100
AcDbEntity
  8
0
  6
Continuous
 62
     7
370
    25
100
AcDbSpline
210
0.0
220
0.0
230
1.0
 70
     8
 71
     3
 72
    12
 73
     8
 74
     0
 42
0.00000001
 43
0.00000001
 40
0.0
 40
0.0
 40
0.0
 40
0.0
 40
0.1396721217146784
 40
0.3605257065119263
 40
0.5812079333477496
 40
0.8017997377680679
 40
1.0
 40
1.0
 40
1.0
 40
1.0
 10
28.06484844455641
 20
15.5852126822367
 30
0.0
 10
28.06724538462417
 20
15.5831797390145
 30
0.0
 10
28.07343243541703
 20
15.57793224737131
 30
0.0
 10
28.07821839824604
 20
15.56782397574379
 30
0.0
 10
28.07702087155135
 20
15.55607584078041
 30
0.0
 10
28.06959308599497
 20
15.54535418943651
 30
0.0
 10
28.06058795138741
 20
15.54008200900294
 30
0.0
 10
28.05632612270733
 20
15.53758686253844
 30
0.0
  0
SPLINE
  5
17D
330
1F
100
AcDbEntity
  8
0
  6
Continuous
 62
     7
370
    25
100
AcDbSpline
210
0.0
220
0.0
230
1.0
 70
     8
 71
     3
 72
    10
 73
     6
 74
     0
 42
0.00000001
 43
0.00000001
 40
0.0
 40
0.0
 40
0.0
 40
0.0
 40
0.0264666421914055
 40
0.7821221877741724
 40
1.0
 40
1.0
 40
1.0
 40
1.0
 10
28.05371810665781
 20
15.59907852702939
 30
0.0
 10
28.05373053560636
 20
15.59894303905618
 30
0.0
 10
28.05409782649124
 20
15.59493920096998
 30
0.0
 10
28.05872252297316
 20
15.59015056893491
 30
0.0
 10
28.06372817438773
 20
15.58611569202701
 30
0.0
 10
28.06484844455641
 20
15.5852126822367
 30
0.0
  0
SPLINE
  5
17E
330
1F
100
AcDbEntity
  8
0
  6
Continuous
 62
     7
370
    25
100
AcDbSpline
210
0.0
220
0.0
230
1.0
 70
     8
 71
     3
 72
     9
 73
     5
 74
     0
 42
0.00000001
 43
0.00000001
 40
0.0
 40
0.0
 40
0.0
 40
0.0
 40
0.7570597261190108
 40
1.0
 40
1.0
 40
1.0
 40
1.0
 10
28.24130053642707
 20
15.68707630664542
 30
0.0
 10
28.23565739033468
 20
15.68937434032716
 30
0.0
 10
28.22820336009414
 20
15.69240981243385
 30
0.0
 10
28.21932955932906
 20
15.69300102306382
 30
0.0
 10
28.21717375574083
 20
15.69314465193619
 30
0.0
  0
SPLINE
  5
17F
330
1F
100
AcDbEntity
  8
0
  6
Continuous
 62
     7
370
    25
100
AcDbSpline
210
0.0
220
0.0
230
1.0
 70
     8
 71
     3
 72
    12
 73
     8
 74
     0
 42
0.00000001
 43
0.00000001
 40
0.0
 40
0.0
 40
0.0
 40
0.0
 40
0.2208865173273853
 40
0.441780630724458
 40
0.6625033604127644
 40
0.8831356450140544
 40
1.0
 40
1.0
 40
1.0
 40
1.0
 10
28.3237998148652
 20
15.69199613832733
 30
0.0
 10
28.318928191647
 20
15.68927632826814
 30
0.0
 10
28.30918477768026
 20
15.68383661461818
 30
0.0
 10
28.28966894621862
 20
15.67979399192832
 30
0.0
 10
28.26928849401662
 20
15.67951317458531
 30
0.0
 10
28.25266354831489
 20
15.68251638165226
 30
0.0
 10
28.24422317078792
 20
15.68590346676815
 30
0.0
 10
28.24130053642707
 20
15.68707630664542
 30
0.0
  0
LWPOLYLINE
  5
180
330
1F
100
AcDbEntity
  8
0
  6
Continuous
 62
     7
370
    25
100
AcDbPolyline
 90
        9
 70
   128
 43
0.0
 10
28.3237998149
 20
15.6919961383
 10
28.4358692587
 20
15.774456231
 10
28.5364863998
 20
15.8616996146
 10
28.6250413335
 20
15.9531974512
 10
28.7009972714
 20
16.0483951139
 10
28.7638937962
 20
16.1467155487
 10
28.8133496517
 20
16.2475627726
 10
28.8490650543
 20
16.3503254859
 10
28.8708235102
 20
16.454380778
  0
SPLINE
  5
181
330
1F
100
AcDbEntity
  8
0
  6
Continuous
 62
     7
370
    25
100
AcDbSpline
210
0.0
220
0.0
230
1.0
 70
     8
 71
     3
 72
    12
 73
     8
 74
     0
 42
0.00000001
 43
0.00000001
 40
0.0
 40
0.0
 40
0.0
 40
0.0
 40
0.1396721217146643
 40
0.360525706511916
 40
0.5812079333477481
 40
0.8017997377680535
 40
1.0
 40
1.0
 40
1.0
 40
1.0
 10
28.81851390251198
 20
16.49153616446198
 30
0.0
 10
28.82269890168145
 20
16.49107709718122
 30
0.0
 10
28.83350134216708
 20
16.48989213948388
 30
0.0
 10
28.8492669243224
 20
16.48469816150823
 30
0.0
 10
28.86281017231015
 20
16.47590214035549
 30
0.0
 10
28.87069064522687
 20
16.46528873579415
 30
0.0
 10
28.87078082914087
 20
16.4578848087871
 30
0.0
 10
28.87082351016764
 20
16.45438077804919
 30
0.0
  0
SPLINE
  5
182
330
1F
100
AcDbEntity
  8
0
  6
Continuous
 62
     7
370
    25
100
AcDbSpline
210
0.0
220
0.0
230
1.0
 70
     8
 71
     3
 72
    10
 73
     6
 74
     0
 42
0.00000001
 43
0.00000001
 40
0.0
 40
0.0
 40
0.0
 40
0.0
 40
0.0264666421914397
 40
0.782122187774155
 40
1.0
 40
1.0
 40
1.0
 40
1.0
 10
28.79365960256191
 20
16.49679734826789
 30
0.0
 10
28.79383434733773
 20
16.49670661735048
 30
0.0
 10
28.79899827275658
 20
16.49402540591786
 30
0.0
 10
28.80813391506367
 20
16.49252715159454
 30
0.0
 10
28.81661567542376
 20
16.49171738998161
 30
0.0
 10
28.81851390251198
 20
16.49153616446198
 30
0.0
  0
SPLINE
  5
183
330
1F
100
AcDbEntity
  8
0
  6
Continuous
 62
     7
370
    25
100
AcDbSpline
210
0.0
220
0.0
230
1.0
 70
     8
 71
     3
 72
     9
 73
     5
 74
     0
 42
0.00000001
 43
0.00000001
 40
0.0
 40
0.0
 40
0.0
 40
0.0
 40
0.8586286379073188
 40
1.0
 40
1.0
 40
1.0
 40
1.0
 10
28.81851390251198
 20
16.63559308361326
 30
0.0
 10
28.81165777972211
 20
16.63497363829352
 30
0.0
 10
28.80367281103229
 20
16.6342522026316
 30
0.0
 10
28.79744243394947
 20
16.63149586433673
 30
0.0
 10
28.79656163705492
 20
16.6311061970376
 30
0.0
  0
SPLINE
  5
184
330
1F
100
AcDbEntity
  8
0
  6
Continuous
 62
     7
370
    25
100
AcDbSpline
210
0.0
220
0.0
230
1.0
 70
     8
 71
     3
 72
    12
 73
     8
 74
     0
 42
0.00000001
 43
0.00000001
 40
0.0
 40
0.0
 40
0.0
 40
0.0
 40
0.220886517327356
 40
0.4417806307243768
 40
0.6625033604127487
 40
0.8831356450140678
 40
1.0
 40
1.0
 40
1.0
 40
1.0
 10
28.87082351016764
 20
16.67274847002605
 30
0.0
 10
28.87071018674366
 20
16.66883665753311
 30
0.0
 10
28.87048353599863
 20
16.66101289802387
 30
0.0
 10
28.86163547716694
 20
16.65018789054896
 30
0.0
 10
28.84756828808144
 20
16.64166993945128
 30
0.0
 10
28.83213411520616
 20
16.63700715726888
 30
0.0
 10
28.82201710236911
 20
16.63595679178284
 30
0.0
 10
28.81851390251198
 20
16.63559308361326
 30
0.0
  0
ARC
  5
185
330
1F
100
AcDbEntity
  8
0
  6
Continuous
 62
     7
370
    25
100
AcDbCircle
 10
28.0219544911
 20
16.5485251
 30
0.0
 40
0.8579102850907327
100
AcDbArc
 50
8.3255601639
 51
25.4580908654
  0
LWPOLYLINE
  5
186
330
1F
100
AcDbEntity
  8
0
  6
Continuous
 62
     7
370
    25
100
AcDbPolyline
 90
       10
 70
   128
 43
0.0
 10
24.2965616371
 20
17.7186352044
 10
24.2624494958
 20
17.7305037382
 10
24.2263428604
 20
17.7513476551
 10
24.2013166107
 20
17.7770422446
 10
24.189226829
 20
17.8056818563
 10
24.1909701592
 20
17.8351424215
 10
24.2064173065
 20
17.8632389846
 10
24.2344226266
 20
17.8878877522
 10
24.272909093
 20
17.9072606379
 10
24.2965616371
 20
17.914866947
  0
LINE
  5
187
330
1F
100
AcDbEntity
  8
0
  6
Continuous
 62
     7
370
    25
100
AcDbLine
 10
28.0648484446
 20
15.5852126822
 30
0.0
 11
28.0673419734
 21
15.5449046692
 31
0.0
  0
LINE
  5
188
330
1F
100
AcDbEntity
  8
0
  6
Continuous
 62
     7
370
    25
100
AcDbLine
 10
25.02579789
 20
15.5451562534
 30
0.0
 11
25.0282748296
 21
15.5852126822
 31
0.0
  0
LWPOLYLINE
  5
189
330
1F
100
AcDbEntity
  8
0
  6
Continuous
 62
     7
370
    25
100
AcDbPolyline
 90
        3
 70
   128
 43
0.0
 10
28.8185139025
 20
16.4915361645
 10
28.8228739566
 20
16.3961047573
 10
28.8272911961
 20
16.2991703496
  0
LINE
  5
18A
330
1F
100
AcDbEntity
  8
0
  6
Continuous
 62
     7
370
    25
100
AcDbLine
 10
24.2657319749
 20
16.2970987644
 30
0.0
 11
24.2746093716
 21
16.4915361645
 31
0.0
  0
ENDSEC
  0
SECTION
  2
OBJECTS
  0
DICTIONARY
  5
C
330
0
100
AcDbDictionary
281
     1
  3
ACAD_GROUP
350
D
  3
ACAD_LAYOUT
350
1A
  3
ACAD_MLINESTYLE
350
17
  3
ACAD_PLOTSETTINGS
350
19
  3
ACAD_PLOTSTYLENAME
350
E
  3
ACAD_SCALELIST
350
47
  3
DWGPROPS
350
18B
  0
DICTIONARY
  5
D
102
{ACAD_REACTORS
330
C
102
}
330
C
100
AcDbDictionary
281
     1
  0
DICTIONARY
  5
1A
102
{ACAD_REACTORS
330
C
102
}
330
C
100
AcDbDictionary
281
     1
  3
Layout1
350
1E
  3
Layout2
350
26
  3
Model
350
22
  0
DICTIONARY
  5
17
102
{ACAD_REACTORS
330
C
102
}
330
C
100
AcDbDictionary
281
     1
  3
Standard
350
18
  0
DICTIONARY
  5
19
102
{ACAD_REACTORS
330
C
102
}
330
C
100
AcDbDictionary
281
     1
  0
ACDBDICTIONARYWDFLT
  5
E
102
{ACAD_REACTORS
330
C
102
}
330
C
100
AcDbDictionary
281
     1
  3
Normal
350
F
100
AcDbDictionaryWithDefault
340
F
  0
DICTIONARY
  5
47
102
{ACAD_REACTORS
330
C
102
}
330
C
100
AcDbDictionary
281
     1
  3
A0
350
48
  3
A1
350
49
  3
A2
350
4A
  3
A3
350
4B
  3
A4
350
4C
  3
A5
350
4D
  3
A6
350
4E
  3
A7
350
4F
  3
A8
350
50
  3
A9
350
51
  3
B1
350
52
  3
B2
350
53
  3
B3
350
54
  3
B4
350
55
  3
B5
350
56
  3
B6
350
57
  3
B7
350
58
  0
XRECORD
  5
18B
102
{ACAD_REACTORS
330
C
102
}
330
C
100
AcDbXrecord
280
     1
  1
DWGPROPS COOKIE
  2

  3

  4

  6

  7

  8
shawnd
  9

300
=
301
=
302
=
303
=
304
=
305
=
306
=
307
=
308
=
309
=
 40
0.0
 41
2460433.199172234
 42
2460433.199172686
  1

 90
        0
  0
LAYOUT
  5
1E
102
{ACAD_REACTORS
330
1A
102
}
330
1A
100
AcDbPlotSettings
  1

  2
none_device
  4

  6

 40
0.0
 41
0.0
 42
0.0
 43
0.0
 44
0.0
 45
0.0
 46
0.0
 47
0.0
 48
0.0
 49
0.0
140
0.0
141
0.0
142
1.0
143
1.0
 70
   688
 72
     0
 73
     0
 74
     5
  7

 75
    16
147
1.0
148
0.0
149
0.0
100
AcDbLayout
  1
Layout1
 70
     1
 71
     1
 10
0.0
 20
0.0
 11
12.0
 21
9.0
 12
0.0
 22
0.0
 32
0.0
 14
1.0000000000E+20
 24
1.0000000000E+20
 34
1.0000000000E+20
 15
-1.0000000000E+20
 25
-1.0000000000E+20
 35
-1.0000000000E+20
146
0.0
 13
0.0
 23
0.0
 33
0.0
 16
1.0
 26
0.0
 36
0.0
 17
0.0
 27
1.0
 37
0.0
 76
     0
330
1B
  0
LAYOUT
  5
26
102
{ACAD_REACTORS
330
1A
102
}
330
1A
100
AcDbPlotSettings
  1

  2
none_device
  4

  6

 40
0.0
 41
0.0
 42
0.0
 43
0.0
 44
0.0
 45
0.0
 46
0.0
 47
0.0
 48
0.0
 49
0.0
140
0.0
141
0.0
142
1.0
143
1.0
 70
   688
 72
     0
 73
     0
 74
     5
  7

 75
    16
147
1.0
148
0.0
149
0.0
100
AcDbLayout
  1
Layout2
 70
     1
 71
     2
 10
0.0
 20
0.0
 11
0.0
 21
0.0
 12
0.0
 22
0.0
 32
0.0
 14
0.0
 24
0.0
 34
0.0
 15
0.0
 25
0.0
 35
0.0
146
0.0
 13
0.0
 23
0.0
 33
0.0
 16
1.0
 26
0.0
 36
0.0
 17
0.0
 27
1.0
 37
0.0
 76
     0
330
23
  0
LAYOUT
  5
22
102
{ACAD_REACTORS
330
1A
102
}
330
1A
100
AcDbPlotSettings
  1

  2
none_device
  4
Letter_(8.50_x_11.00_Inches)
  6

 40
6.35
 41
6.35
 42
6.35000508
 43
6.35000508
 44
215.9
 45
279.4
 46
0.0
 47
0.0
 48
0.0
 49
0.0
140
0.0
141
0.0
142
1.0
143
1.0
 70
  1712
 72
     0
 73
     0
 74
     0
  7

 75
     0
147
1.0
148
0.0
149
0.0
100
AcDbLayout
  1
Model
 70
     1
 71
     0
 10
0.0
 20
0.0
 11
33.0
 21
25.5
 12
0.0
 22
0.0
 32
0.0
 14
0.0
 24
0.0
 34
0.0
 15
33.0
 25
25.5
 35
0.0
146
0.0
 13
0.0
 23
0.0
 33
0.0
 16
1.0
 26
0.0
 36
0.0
 17
0.0
 27
1.0
 37
0.0
 76
     0
330
1F
331
29
  0
MLINESTYLE
  5
18
102
{ACAD_REACTORS
330
17
102
}
330
17
100
AcDbMlineStyle
  2
Standard
 70
     0
  3

 62
   256
 51
90.0
 52
90.0
 71
     2
 49
0.5
 62
   256
  6
BYLAYER
 49
-0.5
 62
   256
  6
BYLAYER
  0
ACDBPLACEHOLDER
  5
F
102
{ACAD_REACTORS
330
E
102
}
330
E
  0
SCALE
  5
48
102
{ACAD_REACTORS
330
47
102
}
330
47
100
AcDbScale
 70
     0
300
1:1
140
1.0
141
1.0
290
     1
  0
SCALE
  5
49
102
{ACAD_REACTORS
330
47
102
}
330
47
100
AcDbScale
 70
     0
300
1/128" = 1'-0"
140
0.0078125
141
12.0
290
     0
  0
SCALE
  5
4A
102
{ACAD_REACTORS
330
47
102
}
330
47
100
AcDbScale
 70
     0
300
1/64" = 1'-0"
140
0.015625
141
12.0
290
     0
  0
SCALE
  5
4B
102
{ACAD_REACTORS
330
47
102
}
330
47
100
AcDbScale
 70
     0
300
1/32" = 1'-0"
140
0.03125
141
12.0
290
     0
  0
SCALE
  5
4C
102
{ACAD_REACTORS
330
47
102
}
330
47
100
AcDbScale
 70
     0
300
1/16" = 1'-0"
140
0.0625
141
12.0
290
     0
  0
SCALE
  5
4D
102
{ACAD_REACTORS
330
47
102
}
330
47
100
AcDbScale
 70
     0
300
3/32" = 1'-0"
140
0.09375
141
12.0
290
     0
  0
SCALE
  5
4E
102
{ACAD_REACTORS
330
47
102
}
330
47
100
AcDbScale
 70
     0
300
1/8" = 1'-0"
140
0.125
141
12.0
290
     0
  0
SCALE
  5
4F
102
{ACAD_REACTORS
330
47
102
}
330
47
100
AcDbScale
 70
     0
300
3/16" = 1'-0"
140
0.1875
141
12.0
290
     0
  0
SCALE
  5
50
102
{ACAD_REACTORS
330
47
102
}
330
47
100
AcDbScale
 70
     0
300
1/4" = 1'-0"
140
0.25
141
12.0
290
     0
  0
SCALE
  5
51
102
{ACAD_REACTORS
330
47
102
}
330
47
100
AcDbScale
 70
     0
300
3/8" = 1'-0"
140
0.375
141
12.0
290
     0
  0
SCALE
  5
52
102
{ACAD_REACTORS
330
47
102
}
330
47
100
AcDbScale
 70
     0
300
1/2" = 1'-0"
140
0.5
141
12.0
290
     0
  0
SCALE
  5
53
102
{ACAD_REACTORS
330
47
102
}
330
47
100
AcDbScale
 70
     0
300
3/4" = 1'-0"
140
0.75
141
12.0
290
     0
  0
SCALE
  5
54
102
{ACAD_REACTORS
330
47
102
}
330
47
100
AcDbScale
 70
     0
300
1" = 1'-0"
140
1.0
141
12.0
290
     0
  0
SCALE
  5
55
102
{ACAD_REACTORS
330
47
102
}
330
47
100
AcDbScale
 70
     0
300
1-1/2" = 1'-0"
140
1.5
141
12.0
290
     0
  0
SCALE
  5
56
102
{ACAD_REACTORS
330
47
102
}
330
47
100
AcDbScale
 70
     0
300
3" = 1'-0"
140
3.0
141
12.0
290
     0
  0
SCALE
  5
57
102
{ACAD_REACTORS
330
47
102
}
330
47
100
AcDbScale
 70
     0
300
6" = 1'-0"
140
6.0
141
12.0
290
     0
  0
SCALE
  5
58
102
{ACAD_REACTORS
330
47
102
}
330
47
100
AcDbScale
 70
     0
300
1'-0" = 1'-0"
140
12.0
141
12.0
290
     0
  0
ENDSEC
  0
EOF
