  0
SECTION
  2
HEADER
  9
$ACADVER
  1
AC1015
  9
$ACADMAINTVER
 70
     6
  9
$DWGCODEPAGE
  3
ANSI_1252
  9
$INSBASE
 10
0.0
 20
0.0
 30
0.0
  9
$EXTMIN
 10
0.0
 20
0.0
 30
0.0
  9
$EXTMAX
 10
44.0
 20
34.0
 30
0.0
  9
$LIMMIN
 10
0.0
 20
0.0
  9
$LIMMAX
 10
44.0
 20
34.0
  9
$ORTHOMODE
 70
     0
  9
$REGENMODE
 70
     1
  9
$FILLMODE
 70
     1
  9
$QTEXTMODE
 70
     0
  9
$MIRRTEXT
 70
     1
  9
$LTSCALE
 40
4.0
  9
$ATTMODE
 70
     1
  9
$TEXTSIZE
 40
0.5
  9
$TRACEWID
 40
0.05
  9
$TEXTSTYLE
  7
STANDARD
  9
$CLAYER
  8
0
  9
$CELTYPE
  6
ByLayer
  9
$CECOLOR
 62
   256
  9
$CELTSCALE
 40
1.0
  9
$DISPSILH
 70
     0
  9
$DIMSCALE
 40
1.0
  9
$DIMASZ
 40
0.52
  9
$DIMEXO
 40
0.2
  9
$DIMDLI
 40
0.38
  9
$DIMRND
 40
0.0
  9
$DIMDLE
 40
0.0
  9
$DIMEXE
 40
0.5
  9
$DIMTP
 40
0.0
  9
$DIMTM
 40
0.0
  9
$DIMTXT
 40
0.5
  9
$DIMCEN
 40
0.09
  9
$DIMTSZ
 40
0.0
  9
$DIMTOL
 70
     0
  9
$DIMLIM
 70
     0
  9
$DIMTIH
 70
     1
  9
$DIMTOH
 70
     1
  9
$DIMSE1
 70
     0
  9
$DIMSE2
 70
     0
  9
$DIMTAD
 70
     0
  9
$DIMZIN
 70
     1
  9
$DIMBLK
  1

  9
$DIMASO
 70
     1
  9
$DIMSHO
 70
     1
  9
$DIMPOST
  1

  9
$DIMAPOST
  1

  9
$DIMALT
 70
     0
  9
$DIMALTD
 70
     2
  9
$DIMALTF
 40
25.4
  9
$DIMLFAC
 40
1.0
  9
$DIMTOFL
 70
     0
  9
$DIMTVP
 40
0.0
  9
$DIMTIX
 70
     0
  9
$DIMSOXD
 70
     0
  9
$DIMSAH
 70
     0
  9
$DIMBLK1
  1

  9
$DIMBLK2
  1

  9
$DIMSTYLE
  2
Standard
  9
$DIMCLRD
 70
     0
  9
$DIMCLRE
 70
     0
  9
$DIMCLRT
 70
     0
  9
$DIMTFAC
 40
1.0
  9
$DIMGAP
 40
0.24
  9
$DIMJUST
 70
     0
  9
$DIMSD1
 70
     0
  9
$DIMSD2
 70
     0
  9
$DIMTOLJ
 70
     1
  9
$DIMTZIN
 70
     1
  9
$DIMALTZ
 70
     0
  9
$DIMALTTZ
 70
     0
  9
$DIMUPT
 70
     0
  9
$DIMDEC
 70
     0
  9
$DIMTDEC
 70
     0
  9
$DIMALTU
 70
     2
  9
$DIMALTTD
 70
     2
  9
$DIMTXSTY
  7
STANDARD
  9
$DIMAUNIT
 70
     0
  9
$DIMADEC
 70
     0
  9
$DIMALTRND
 40
0.0
  9
$DIMAZIN
 70
     0
  9
$DIMDSEP
 70
    46
  9
$DIMATFIT
 70
     3
  9
$DIMFRAC
 70
     0
  9
$DIMLDRBLK
  1

  9
$DIMLUNIT
 70
     2
  9
$DIMLWD
 70
    -2
  9
$DIMLWE
 70
    -2
  9
$DIMTMOVE
 70
     0
  9
$LUNITS
 70
     2
  9
$LUPREC
 70
     6
  9
$SKETCHINC
 40
0.1
  9
$FILLETRAD
 40
0.0
  9
$AUNITS
 70
     0
  9
$AUPREC
 70
     2
  9
$MENU
  1
.
  9
$ELEVATION
 40
0.0
  9
$PELEVATION
 40
0.0
  9
$THICKNESS
 40
0.0
  9
$LIMCHECK
 70
     0
  9
$CHAMFERA
 40
0.0
  9
$CHAMFERB
 40
0.0
  9
$CHAMFERC
 40
0.0
  9
$CHAMFERD
 40
0.0
  9
$SKPOLY
 70
     0
  9
$TDCREATE
 40
2460537.961665394
  9
$TDUCREATE
 40
2460538.253332061
  9
$TDUPDATE
 40
2460537.96166654
  9
$TDUUPDATE
 40
2460538.253333206
  9
$TDINDWG
 40
0.0000000116
  9
$TDUSRTIMER
 40
0.0000000116
  9
$USRTIMER
 70
     1
  9
$ANGBASE
 50
0.0
  9
$ANGDIR
 70
     0
  9
$PDMODE
 70
     0
  9
$PDSIZE
 40
-1.0
  9
$PLINEWID
 40
0.0
  9
$SPLFRAME
 70
     0
  9
$SPLINETYPE
 70
     6
  9
$SPLINESEGS
 70
     8
  9
$HANDSEED
  5
267
  9
$SURFTAB1
 70
     6
  9
$SURFTAB2
 70
     6
  9
$SURFTYPE
 70
     6
  9
$SURFU
 70
     6
  9
$SURFV
 70
     6
  9
$UCSBASE
  2

  9
$UCSNAME
  2

  9
$UCSORG
 10
0.0
 20
0.0
 30
0.0
  9
$UCSXDIR
 10
1.0
 20
0.0
 30
0.0
  9
$UCSYDIR
 10
0.0
 20
1.0
 30
0.0
  9
$UCSORTHOREF
  2

  9
$UCSORTHOVIEW
 70
     0
  9
$UCSORGTOP
 10
0.0
 20
0.0
 30
0.0
  9
$UCSORGBOTTOM
 10
0.0
 20
0.0
 30
0.0
  9
$UCSORGLEFT
 10
0.0
 20
0.0
 30
0.0
  9
$UCSORGRIGHT
 10
0.0
 20
0.0
 30
0.0
  9
$UCSORGFRONT
 10
0.0
 20
0.0
 30
0.0
  9
$UCSORGBACK
 10
0.0
 20
0.0
 30
0.0
  9
$PUCSBASE
  2

  9
$PUCSNAME
  2

  9
$PUCSORG
 10
0.0
 20
0.0
 30
0.0
  9
$PUCSXDIR
 10
1.0
 20
0.0
 30
0.0
  9
$PUCSYDIR
 10
0.0
 20
1.0
 30
0.0
  9
$PUCSORTHOREF
  2

  9
$PUCSORTHOVIEW
 70
     0
  9
$PUCSORGTOP
 10
0.0
 20
0.0
 30
0.0
  9
$PUCSORGBOTTOM
 10
0.0
 20
0.0
 30
0.0
  9
$PUCSORGLEFT
 10
0.0
 20
0.0
 30
0.0
  9
$PUCSORGRIGHT
 10
0.0
 20
0.0
 30
0.0
  9
$PUCSORGFRONT
 10
0.0
 20
0.0
 30
0.0
  9
$PUCSORGBACK
 10
0.0
 20
0.0
 30
0.0
  9
$USERI1
 70
     0
  9
$USERI2
 70
     0
  9
$USERI3
 70
     0
  9
$USERI4
 70
     0
  9
$USERI5
 70
     0
  9
$USERR1
 40
0.0
  9
$USERR2
 40
0.0
  9
$USERR3
 40
0.0
  9
$USERR4
 40
0.0
  9
$USERR5
 40
0.0
  9
$WORLDVIEW
 70
     1
  9
$SHADEDGE
 70
     3
  9
$SHADEDIF
 70
    70
  9
$TILEMODE
 70
     1
  9
$MAXACTVP
 70
    64
  9
$PINSBASE
 10
0.0
 20
0.0
 30
0.0
  9
$PLIMCHECK
 70
     0
  9
$PEXTMIN
 10
1.0000000000E+20
 20
1.0000000000E+20
 30
1.0000000000E+20
  9
$PEXTMAX
 10
-1.0000000000E+20
 20
-1.0000000000E+20
 30
-1.0000000000E+20
  9
$PLIMMIN
 10
0.0
 20
0.0
  9
$PLIMMAX
 10
12.0
 20
9.0
  9
$UNITMODE
 70
     0
  9
$VISRETAIN
 70
     1
  9
$PLINEGEN
 70
     0
  9
$PSLTSCALE
 70
     1
  9
$TREEDEPTH
 70
  3020
  9
$CMLSTYLE
  2
Standard
  9
$CMLJUST
 70
     0
  9
$CMLSCALE
 40
1.0
  9
$PROXYGRAPHICS
 70
     1
  9
$MEASUREMENT
 70
     0
  9
$CELWEIGHT
370
    -1
  9
$ENDCAPS
280
     0
  9
$JOINSTYLE
280
     0
  9
$LWDISPLAY
290
     1
  9
$INSUNITS
 70
     1
  9
$HYPERLINKBASE
  1

  9
$STYLESHEET
  1

  9
$XEDIT
290
     1
  9
$CEPSNTYPE
380
     0
  9
$PSTYLEMODE
290
     1
  9
$FINGERPRINTGUID
  2
{189e1d04-d9ce-4719-87be-f18e7fd46f96}
  9
$VERSIONGUID
  2
{FAEB1C32-E019-11D5-929B-00C0DF256EC4}
  9
$EXTNAMES
290
     1
  9
$PSVPSCALE
 40
0.0
  9
$OLESTARTUP
290
     0
  0
ENDSEC
  0
SECTION
  2
CLASSES
  0
CLASS
  1
ACDBDICTIONARYWDFLT
  2
AcDbDictionaryWithDefault
  3
ObjectDBX Classes
 90
        0
280
     0
281
     0
  0
CLASS
  1
VISUALSTYLE
  2
AcDbVisualStyle
  3
ObjectDBX Classes
 90
     4095
280
     0
281
     0
  0
CLASS
  1
MATERIAL
  2
AcDbMaterial
  3
ObjectDBX Classes
 90
     1153
280
     0
281
     0
  0
CLASS
  1
SCALE
  2
AcDbScale
  3
ObjectDBX Classes
 90
     1153
280
     0
281
     0
  0
CLASS
  1
TABLESTYLE
  2
AcDbTableStyle
  3
ObjectDBX Classes
 90
     4095
280
     0
281
     0
  0
CLASS
  1
MLEADERSTYLE
  2
AcDbMLeaderStyle
  3
ACDB_MLEADERSTYLE_CLASS
 90
     4095
280
     0
281
     0
  0
CLASS
  1
SUN
  2
AcDbSun
  3
SCENEOE
 90
     1153
280
     0
281
     0
  0
CLASS
  1
ACDBPLACEHOLDER
  2
AcDbPlaceHolder
  3
ObjectDBX Classes
 90
        0
280
     0
281
     0
  0
CLASS
  1
LAYOUT
  2
AcDbLayout
  3
ObjectDBX Classes
 90
        0
280
     0
281
     0
  0
ENDSEC
  0
SECTION
  2
TABLES
  0
TABLE
  2
VPORT
  5
8
330
0
100
AcDbSymbolTable
 70
     1
  0
VPORT
  5
29
330
8
100
AcDbSymbolTableRecord
100
AcDbViewportTableRecord
  2
*Active
 70
     0
 10
0.0
 20
0.0
 11
1.0
 21
1.0
 12
22.0
 22
17.0
 13
0.0
 23
0.0
 14
0.5
 24
0.5
 15
0.5
 25
0.5
 16
0.0
 26
0.0
 36
1.0
 17
0.0
 27
0.0
 37
0.0
 40
34.0
 41
1.2941176471
 42
50.0
 43
0.0
 44
0.0
 50
0.0
 51
0.0
 71
     0
 72
  2000
 73
     1
 74
     3
 75
     0
 76
     0
 77
     0
 78
     0
281
     0
 65
     1
110
0.0
120
0.0
130
0.0
111
1.0
121
0.0
131
0.0
112
0.0
122
1.0
132
0.0
 79
     0
146
0.0
  0
ENDTAB
  0
TABLE
  2
LTYPE
  5
5
330
0
100
AcDbSymbolTable
 70
     6
  0
LTYPE
  5
14
330
5
100
AcDbSymbolTableRecord
100
AcDbLinetypeTableRecord
  2
ByBlock
 70
     0
  3

 72
    65
 73
     0
 40
0.0
  0
LTYPE
  5
15
330
5
100
AcDbSymbolTableRecord
100
AcDbLinetypeTableRecord
  2
ByLayer
 70
     0
  3

 72
    65
 73
     0
 40
0.0
  0
LTYPE
  5
16
330
5
100
AcDbSymbolTableRecord
100
AcDbLinetypeTableRecord
  2
Continuous
 70
     0
  3
Solid line
 72
    65
 73
     0
 40
0.0
  0
LTYPE
  5
5E
330
5
100
AcDbSymbolTableRecord
100
AcDbLinetypeTableRecord
  2
HIDDEN
 70
     0
  3
Hidden __ __ __ __ __ __ __ __ __ __ __ __ __ __
 72
    65
 73
     2
 40
0.075
 49
0.05
 74
     0
 49
-0.025
 74
     0
  0
LTYPE
  5
5F
330
5
100
AcDbSymbolTableRecord
100
AcDbLinetypeTableRecord
  2
PHANTOM
 70
     0
  3
Phantom ______  __  __  ______  __  __  ______
 72
    65
 73
     6
 40
0.5
 49
0.25
 74
     0
 49
-0.05
 74
     0
 49
0.05
 74
     0
 49
-0.05
 74
     0
 49
0.05
 74
     0
 49
-0.05
 74
     0
  0
LTYPE
  5
60
330
5
100
AcDbSymbolTableRecord
100
AcDbLinetypeTableRecord
  2
CENTER
 70
     0
  3
Center ____ _ ____ _ ____ _ ____ _ ____ _ ____
 72
    65
 73
     4
 40
0.4
 49
0.25
 74
     0
 49
-0.05
 74
     0
 49
0.05
 74
     0
 49
-0.05
 74
     0
  0
LTYPE
  5
61
330
5
100
AcDbSymbolTableRecord
100
AcDbLinetypeTableRecord
  2
CENTERX2
 70
     0
  3
Center (2x) ________  __  ________  __  _____
 72
    65
 73
     4
 40
0.8
 49
0.5
 74
     0
 49
-0.1
 74
     0
 49
0.1
 74
     0
 49
-0.1
 74
     0
  0
LTYPE
  5
62
330
5
100
AcDbSymbolTableRecord
100
AcDbLinetypeTableRecord
  2
DOT2
 70
     0
  3
Dot (.5x) ........................................
 72
    65
 73
     2
 40
0.025
 49
0.0
 74
     0
 49
-0.025
 74
     0
  0
ENDTAB
  0
TABLE
  2
LAYER
  5
2
330
0
100
AcDbSymbolTable
 70
    12
  0
LAYER
  5
10
330
2
100
AcDbSymbolTableRecord
100
AcDbLayerTableRecord
  2
0
 70
     0
 62
     7
  6
Continuous
370
    -3
390
F
  0
LAYER
  5
63
330
2
100
AcDbSymbolTableRecord
100
AcDbLayerTableRecord
  2
SLD-0
 70
     0
 62
     7
  6
Continuous
370
    -3
390
F
  0
LAYER
  5
64
330
2
100
AcDbSymbolTableRecord
100
AcDbLayerTableRecord
  2
DIM
 70
     0
 62
     7
  6
Continuous
370
    -3
390
F
  0
LAYER
  5
65
330
2
100
AcDbSymbolTableRecord
100
AcDbLayerTableRecord
  2
CEN
 70
     0
 62
     1
  6
CENTER
370
    -3
390
F
  0
LAYER
  5
66
330
2
100
AcDbSymbolTableRecord
100
AcDbLayerTableRecord
  2
HAT
 70
     0
 62
     4
  6
Continuous
370
    -3
390
F
  0
LAYER
  5
67
330
2
100
AcDbSymbolTableRecord
100
AcDbLayerTableRecord
  2
OBJ
 70
     0
 62
     5
  6
Continuous
370
    -3
390
F
  0
LAYER
  5
68
330
2
100
AcDbSymbolTableRecord
100
AcDbLayerTableRecord
  2
SLD-DEFPOINTS
 70
     0
 62
     7
  6
Continuous
370
    -3
390
F
  0
LAYER
  5
69
330
2
100
AcDbSymbolTableRecord
100
AcDbLayerTableRecord
  2
HID
 70
     0
 62
     4
  6
HIDDEN
370
    -3
390
F
  0
LAYER
  5
6A
330
2
100
AcDbSymbolTableRecord
100
AcDbLayerTableRecord
  2
NOTE
 70
     0
 62
     7
  6
Continuous
370
    -3
390
F
  0
LAYER
  5
6B
330
2
100
AcDbSymbolTableRecord
100
AcDbLayerTableRecord
  2
VP
 70
     0
 62
    -5
  6
Continuous
290
     0
370
    -3
390
F
  0
LAYER
  5
6C
330
2
100
AcDbSymbolTableRecord
100
AcDbLayerTableRecord
  2
TITLE
 70
     0
 62
     7
  6
Continuous
370
    -3
390
F
  0
LAYER
  5
6D
330
2
100
AcDbSymbolTableRecord
100
AcDbLayerTableRecord
  2
THICK_TITLE
 70
     0
 62
     7
  6
Continuous
370
   100
390
F
  0
ENDTAB
  0
TABLE
  2
STYLE
  5
3
330
0
100
AcDbSymbolTable
 70
     2
  0
STYLE
  5
11
330
3
100
AcDbSymbolTableRecord
100
AcDbTextStyleTableRecord
  2
STANDARD
 70
     0
 40
0.0
 41
1.0
 50
0.0
 71
     0
 42
0.5
  3
GOTHIC.TTF
  4

1001
ACAD
1000
CENTURY GOTHIC
1071
       34
  0
STYLE
  5
D9
330
3
100
AcDbSymbolTableRecord
100
AcDbTextStyleTableRecord
  2
SLDTEXTSTYLE0
 70
     0
 40
0.0
 41
0.913
 50
0.0
 71
     0
 42
0.5
  3
GOTHIC.TTF
  4

1001
ACAD
1000
Century Gothic
1071
      290
  0
ENDTAB
  0
TABLE
  2
VIEW
  5
6
330
0
100
AcDbSymbolTable
 70
     0
  0
ENDTAB
  0
TABLE
  2
UCS
  5
7
330
0
100
AcDbSymbolTable
 70
     0
  0
ENDTAB
  0
TABLE
  2
APPID
  5
9
330
0
100
AcDbSymbolTable
 70
     1
  0
APPID
  5
12
330
9
100
AcDbSymbolTableRecord
100
AcDbRegAppTableRecord
  2
ACAD
 70
     0
  0
ENDTAB
  0
TABLE
  2
DIMSTYLE
  5
A
330
0
100
AcDbSymbolTable
 70
     5
100
AcDbDimStyleTable
  0
DIMSTYLE
105
27
330
A
100
AcDbSymbolTableRecord
100
AcDbDimStyleTableRecord
  2
Standard
 70
     0
178
     0
340
11
  0
DIMSTYLE
105
DA
102
{ACAD_REACTORS
330
D8
102
}
330
A
100
AcDbSymbolTableRecord
100
AcDbDimStyleTableRecord
  2
SLDDIMSTYLE0
 70
     0
 41
0.52
 44
0.0
 45
0.000000001
 78
    12
 79
     3
140
0.5
147
0.125
148
0.000000001
170
     1
173
     1
178
     0
271
     0
272
     0
276
     2
277
     5
284
    12
340
D9
  0
DIMSTYLE
105
E8
102
{ACAD_REACTORS
330
E7
102
}
330
A
100
AcDbSymbolTableRecord
100
AcDbDimStyleTableRecord
  2
SLDDIMSTYLE1
 70
     0
 41
0.52
 44
0.0
 45
0.000000001
 78
    12
 79
     3
140
0.5
147
0.125
148
0.000000001
170
     1
172
     1
173
     1
178
     0
271
     0
272
     0
276
     2
277
     5
284
    12
289
     0
340
D9
  0
DIMSTYLE
105
1A9
102
{ACAD_REACTORS
330
1A8
330
1F4
102
}
330
A
100
AcDbSymbolTableRecord
100
AcDbDimStyleTableRecord
  2
SLDDIMSTYLE2
 70
     0
 41
0.52
 44
0.0
 45
0.000000001
 78
    12
 79
     3
140
0.5
141
0.0
147
0.125
148
0.000000001
170
     1
173
     1
178
     0
271
     0
272
     0
276
     2
277
     5
284
    12
340
D9
  0
DIMSTYLE
105
1BA
102
{ACAD_REACTORS
330
1B9
330
204
330
22A
330
252
102
}
330
A
100
AcDbSymbolTableRecord
100
AcDbDimStyleTableRecord
  2
SLDDIMSTYLE3
 70
     0
 41
0.52
 44
0.0
 45
0.000000001
 78
    12
 79
     3
140
0.5
147
0.125
148
0.000000001
170
     1
172
     1
173
     1
178
     0
271
     6
272
     0
276
     2
277
     5
284
    12
289
     0
340
D9
  0
ENDTAB
  0
TABLE
  2
BLOCK_RECORD
  5
1
330
0
100
AcDbSymbolTable
 70
     9
  0
BLOCK_RECORD
  5
1F
330
1
100
AcDbSymbolTableRecord
100
AcDbBlockTableRecord
  2
*Model_Space
340
22
  0
BLOCK_RECORD
  5
1B
330
1
100
AcDbSymbolTableRecord
100
AcDbBlockTableRecord
  2
*Paper_Space
340
1E
  0
BLOCK_RECORD
  5
23
330
1
100
AcDbSymbolTableRecord
100
AcDbBlockTableRecord
  2
*Paper_Space0
340
26
  0
BLOCK_RECORD
  5
DB
330
1
100
AcDbSymbolTableRecord
100
AcDbBlockTableRecord
  2
_D
340
0
  0
BLOCK_RECORD
  5
E9
330
1
100
AcDbSymbolTableRecord
100
AcDbBlockTableRecord
  2
_D_1
340
0
  0
BLOCK_RECORD
  5
1AA
330
1
100
AcDbSymbolTableRecord
100
AcDbBlockTableRecord
  2
_D_2
340
0
  0
BLOCK_RECORD
  5
1BB
330
1
100
AcDbSymbolTableRecord
100
AcDbBlockTableRecord
  2
_D_3
340
0
  0
BLOCK_RECORD
  5
1F5
330
1
100
AcDbSymbolTableRecord
100
AcDbBlockTableRecord
  2
_D_4
340
0
  0
BLOCK_RECORD
  5
205
330
1
100
AcDbSymbolTableRecord
100
AcDbBlockTableRecord
  2
_D_5
340
0
  0
BLOCK_RECORD
  5
22B
330
1
100
AcDbSymbolTableRecord
100
AcDbBlockTableRecord
  2
_D_6
340
0
  0
BLOCK_RECORD
  5
253
330
1
100
AcDbSymbolTableRecord
100
AcDbBlockTableRecord
  2
_D_7
340
0
  0
ENDTAB
  0
ENDSEC
  0
SECTION
  2
BLOCKS
  0
BLOCK
  5
20
330
1F
100
AcDbEntity
  8
0
100
AcDbBlockBegin
  2
*Model_Space
 70
     0
 10
0.0
 20
0.0
 30
0.0
  3
*Model_Space
  1

  0
ENDBLK
  5
21
330
1F
100
AcDbEntity
  8
0
100
AcDbBlockEnd
  0
BLOCK
  5
1C
330
1B
100
AcDbEntity
 67
     1
  8
0
100
AcDbBlockBegin
  2
*Paper_Space
 70
     0
 10
0.0
 20
0.0
 30
0.0
  3
*Paper_Space
  1

  0
ENDBLK
  5
1D
330
1B
100
AcDbEntity
 67
     1
  8
0
100
AcDbBlockEnd
  0
BLOCK
  5
24
330
23
100
AcDbEntity
  8
0
100
AcDbBlockBegin
  2
*Paper_Space0
 70
     0
 10
0.0
 20
0.0
 30
0.0
  3
*Paper_Space0
  1

  0
ENDBLK
  5
25
330
23
100
AcDbEntity
  8
0
100
AcDbBlockEnd
  0
BLOCK
  5
DC
330
DB
100
AcDbEntity
  8
0
100
AcDbBlockBegin
  2
_D
 70
     0
 10
0.0
 20
0.0
 30
0.0
  3
_D
  1

  0
SOLID
  5
DE
330
DB
100
AcDbEntity
  8
0
  6
Continuous
 62
     7
370
    18
100
AcDbTrace
 10
6.4071208336
 20
30.7893716583
 30
0.0
 11
6.3271208336
 21
30.2693716583
 31
0.0
 12
6.4871208336
 22
30.2693716583
 32
0.0
 13
6.4871208336
 23
30.2693716583
 33
0.0
  0
SOLID
  5
DF
330
DB
100
AcDbEntity
  8
0
  6
Continuous
 62
     7
370
    18
100
AcDbTrace
 10
6.4071208336
 20
18.6686736684
 30
0.0
 11
6.4871208336
 21
19.1886736684
 31
0.0
 12
6.3271208336
 22
19.1886736684
 32
0.0
 13
6.3271208336
 23
19.1886736684
 33
0.0
  0
LINE
  5
E0
330
DB
100
AcDbEntity
  8
0
  6
Continuous
 62
     7
370
     0
100
AcDbLine
 10
17.1158396199
 20
30.7893716583
 30
0.0
 11
5.9071208336
 21
30.7893716583
 31
0.0
  0
LINE
  5
E1
330
DB
100
AcDbEntity
  8
0
  6
Continuous
 62
     7
370
     0
100
AcDbLine
 10
14.6395184915
 20
18.6686736684
 30
0.0
 11
5.9071208336
 21
18.6686736684
 31
0.0
  0
LINE
  5
E2
330
DB
100
AcDbEntity
  8
0
  6
Continuous
 62
     7
370
     0
100
AcDbLine
 10
6.4071208336
 20
30.7893716583
 30
0.0
 11
6.4071208336
 21
25.9196477358
 31
0.0
  0
LINE
  5
E3
330
DB
100
AcDbEntity
  8
0
  6
Continuous
 62
     7
370
     0
100
AcDbLine
 10
6.4071208336
 20
18.6686736684
 30
0.0
 11
6.4071208336
 21
23.5383975909
 31
0.0
  0
MTEXT
  5
E4
330
DB
100
AcDbEntity
  8
0
  6
Continuous
 62
     7
370
    18
100
AcDbMText
 10
2.3158008169
 20
25.7645696419
 30
0.0
 40
0.5
 41
0.0
 71
     1
 72
     1
  1
Specify Projection Length
  7
SLDTEXTSTYLE0
 73
     1
 44
1.0
  0
MTEXT
  5
E5
330
DB
100
AcDbEntity
  8
0
  6
Continuous
 62
     7
370
    18
100
AcDbMText
 10
5.1664959121
 20
24.9708196181
 30
0.0
 40
0.5
 41
0.0
 71
     1
 72
     1
  1
12" - 30"
  7
SLDTEXTSTYLE0
 73
     1
 44
1.0
  0
MTEXT
  5
E6
330
DB
100
AcDbEntity
  8
0
  6
Continuous
 62
     7
370
    18
100
AcDbMText
 10
3.5192737409
 20
24.1770695942
 30
0.0
 40
0.5
 41
0.0
 71
     1
 72
     1
  1
[305mm - 762mm]
  7
SLDTEXTSTYLE0
 73
     1
 44
1.0
  0
ENDBLK
  5
DD
330
DB
100
AcDbEntity
  8
0
100
AcDbBlockEnd
  0
BLOCK
  5
EA
330
E9
100
AcDbEntity
  8
0
100
AcDbBlockBegin
  2
_D_1
 70
     0
 10
0.0
 20
0.0
 30
0.0
  3
_D_1
  1

  0
SOLID
  5
EC
330
E9
100
AcDbEntity
  8
0
  6
Continuous
 62
     7
370
    18
100
AcDbTrace
 10
14.8158396199
 20
17.0745685087
 30
0.0
 11
14.2958396199
 21
17.1545685087
 31
0.0
 12
14.2958396199
 22
16.9945685087
 32
0.0
 13
14.2958396199
 23
16.9945685087
 33
0.0
  0
SOLID
  5
ED
330
E9
100
AcDbEntity
  8
0
  6
Continuous
 62
     7
370
    18
100
AcDbTrace
 10
19.8158396199
 20
17.0745685087
 30
0.0
 11
20.3358396199
 21
16.9945685087
 31
0.0
 12
20.3358396199
 22
17.1545685087
 32
0.0
 13
20.3358396199
 23
17.1545685087
 33
0.0
  0
LINE
  5
EE
330
E9
100
AcDbEntity
  8
0
  6
Continuous
 62
     7
370
     0
100
AcDbLine
 10
16.1366730417
 20
17.0707489861
 30
0.0
 11
15.9843292932
 21
17.0707489861
 31
0.0
  0
LINE
  5
EF
330
E9
100
AcDbEntity
  8
0
  6
Continuous
 62
     7
370
     0
100
AcDbLine
 10
15.9843292932
 20
17.0707489861
 30
0.0
 11
15.9843292932
 21
16.2769989623
 31
0.0
  0
LINE
  5
F0
330
E9
100
AcDbEntity
  8
0
  6
Continuous
 62
     7
370
     0
100
AcDbLine
 10
15.9843292932
 20
16.2769989623
 30
0.0
 11
16.1366730417
 21
16.2769989623
 31
0.0
  0
LINE
  5
F1
330
E9
100
AcDbEntity
  8
0
  6
Continuous
 62
     7
370
     0
100
AcDbLine
 10
18.4950063447
 20
17.0707489861
 30
0.0
 11
18.6473500931
 21
17.0707489861
 31
0.0
  0
LINE
  5
F2
330
E9
100
AcDbEntity
  8
0
  6
Continuous
 62
     7
370
     0
100
AcDbLine
 10
18.6473500931
 20
17.0707489861
 30
0.0
 11
18.6473500931
 21
16.2769989623
 31
0.0
  0
LINE
  5
F3
330
E9
100
AcDbEntity
  8
0
  6
Continuous
 62
     7
370
     0
100
AcDbLine
 10
18.6473500931
 20
16.2769989623
 30
0.0
 11
18.4950063447
 21
16.2769989623
 31
0.0
  0
LINE
  5
F4
330
E9
100
AcDbEntity
  8
0
  6
Continuous
 62
     7
370
     0
100
AcDbLine
 10
14.8158396199
 20
18.5743716583
 30
0.0
 11
14.8158396199
 21
16.5745685087
 31
0.0
  0
LINE
  5
F5
330
E9
100
AcDbEntity
  8
0
  6
Continuous
 62
     7
370
     0
100
AcDbLine
 10
19.8158396199
 20
18.5743716583
 30
0.0
 11
19.8158396199
 21
16.5745685087
 31
0.0
  0
LINE
  5
F6
330
E9
100
AcDbEntity
  8
0
  6
Continuous
 62
     7
370
     0
100
AcDbLine
 10
14.8158396199
 20
17.0745685087
 30
0.0
 11
13.8158396199
 21
17.0745685087
 31
0.0
  0
LINE
  5
F7
330
E9
100
AcDbEntity
  8
0
  6
Continuous
 62
     7
370
     0
100
AcDbLine
 10
19.8158396199
 20
17.0745685087
 30
0.0
 11
20.8158396199
 21
17.0745685087
 31
0.0
  0
MTEXT
  5
F8
330
E9
100
AcDbEntity
  8
0
  6
Continuous
 62
     7
370
    18
100
AcDbMText
 10
15.6472633221
 20
17.8186223013
 30
0.0
 40
0.5
 41
0.0
 71
     1
 72
     1
  1
 
  7
SLDTEXTSTYLE0
 73
     1
 44
1.0
  0
MTEXT
  5
F9
330
E9
100
AcDbEntity
  8
0
  6
Continuous
 62
     7
370
    18
100
AcDbMText
 10
17.0279924334
 20
17.8109833754
 30
0.0
 40
0.5
 41
0.0
 71
     1
 72
     1
  1
5"
  7
SLDTEXTSTYLE0
 73
     1
 44
1.0
  0
MTEXT
  5
FA
330
E9
100
AcDbEntity
  8
0
  6
Continuous
 62
     7
370
    18
100
AcDbMText
 10
16.1366730417
 20
16.9156708923
 30
0.0
 40
0.5
 41
0.0
 71
     1
 72
     1
  1
127mm
  7
SLDTEXTSTYLE0
 73
     1
 44
1.0
  0
MTEXT
  5
FB
330
E9
100
AcDbEntity
  8
0
  6
Continuous
 62
     7
370
    18
100
AcDbMText
 10
18.7996937316
 20
17.8186223013
 30
0.0
 40
0.5
 41
0.0
 71
     1
 72
     1
  1
 
  7
SLDTEXTSTYLE0
 73
     1
 44
1.0
  0
ENDBLK
  5
EB
330
E9
100
AcDbEntity
  8
0
100
AcDbBlockEnd
  0
BLOCK
  5
1AB
330
1AA
100
AcDbEntity
  8
0
100
AcDbBlockBegin
  2
_D_2
 70
     0
 10
0.0
 20
0.0
 30
0.0
  3
_D_2
  1

  0
SOLID
  5
1AD
330
1AA
100
AcDbEntity
  8
0
  6
Continuous
 62
     7
370
    18
100
AcDbTrace
 10
7.3675134179
 20
10.1295285749
 30
0.0
 11
7.0563864342
 21
10.5537926436
 31
0.0
 12
6.9432493492
 22
10.4406555586
 32
0.0
 13
6.9432493492
 23
10.4406555586
 33
0.0
  0
LINE
  5
1AE
330
1AA
100
AcDbEntity
  8
0
  6
Continuous
 62
     7
370
     0
100
AcDbLine
 10
2.5822562582
 20
11.2517649347
 30
0.0
 11
2.4299125098
 21
11.2517649347
 31
0.0
  0
LINE
  5
1AF
330
1AA
100
AcDbEntity
  8
0
  6
Continuous
 62
     7
370
     0
100
AcDbLine
 10
2.4299125098
 20
11.2517649347
 30
0.0
 11
2.4299125098
 21
10.4580149108
 31
0.0
  0
LINE
  5
1B0
330
1AA
100
AcDbEntity
  8
0
  6
Continuous
 62
     7
370
     0
100
AcDbLine
 10
2.4299125098
 20
10.4580149108
 30
0.0
 11
2.5822562582
 21
10.4580149108
 31
0.0
  0
LINE
  5
1B1
330
1AA
100
AcDbEntity
  8
0
  6
Continuous
 62
     7
370
     0
100
AcDbLine
 10
4.9405895612
 20
11.2517649347
 30
0.0
 11
5.0929333097
 21
11.2517649347
 31
0.0
  0
LINE
  5
1B2
330
1AA
100
AcDbEntity
  8
0
  6
Continuous
 62
     7
370
     0
100
AcDbLine
 10
5.0929333097
 20
11.2517649347
 30
0.0
 11
5.0929333097
 21
10.4580149108
 31
0.0
  0
LINE
  5
1B3
330
1AA
100
AcDbEntity
  8
0
  6
Continuous
 62
     7
370
     0
100
AcDbLine
 10
5.0929333097
 20
10.4580149108
 30
0.0
 11
4.9405895612
 21
10.4580149108
 31
0.0
  0
LINE
  5
1B4
330
1AA
100
AcDbEntity
  8
0
  6
Continuous
 62
     7
370
     0
100
AcDbLine
 10
7.3675134179
 20
10.1295285749
 30
0.0
 11
6.2452769848
 21
11.251765008
 31
0.0
  0
LINE
  5
1B5
330
1AA
100
AcDbEntity
  8
0
  6
Continuous
 62
     7
370
     0
100
AcDbLine
 10
6.2452769848
 20
11.251765008
 30
0.0
 11
5.2452769848
 21
11.251765008
 31
0.0
  0
MTEXT
  5
1B6
330
1AA
100
AcDbEntity
  8
0
  6
Continuous
 62
     7
370
    18
100
AcDbMText
 10
3.0965444271
 20
11.9919993606
 30
0.0
 40
0.5
 41
0.0
 71
     1
 72
     1
  1
%%c
  7
SLDTEXTSTYLE0
 73
     1
 44
1.0
  0
MTEXT
  5
1B7
330
1AA
100
AcDbEntity
  8
0
  6
Continuous
 62
     7
370
    18
100
AcDbMText
 10
3.8506069095
 20
11.9919993606
 30
0.0
 40
0.5
 41
0.0
 71
     1
 72
     1
  1
5"
  7
SLDTEXTSTYLE0
 73
     1
 44
1.0
  0
MTEXT
  5
1B8
330
1AA
100
AcDbEntity
  8
0
  6
Continuous
 62
     7
370
    18
100
AcDbMText
 10
2.5822562582
 20
11.0966868408
 30
0.0
 40
0.5
 41
0.0
 71
     1
 72
     1
  1
128mm
  7
SLDTEXTSTYLE0
 73
     1
 44
1.0
  0
ENDBLK
  5
1AC
330
1AA
100
AcDbEntity
  8
0
100
AcDbBlockEnd
  0
BLOCK
  5
1BC
330
1BB
100
AcDbEntity
  8
0
100
AcDbBlockBegin
  2
_D_3
 70
     0
 10
0.0
 20
0.0
 30
0.0
  3
_D_3
  1

  0
SOLID
  5
1BE
330
1BB
100
AcDbEntity
  8
0
  6
Continuous
 62
     7
370
    18
100
AcDbTrace
 10
7.3958869726
 20
13.3858400595
 30
0.0
 11
6.8758869726
 21
13.4658400595
 31
0.0
 12
6.8758869726
 22
13.3058400595
 32
0.0
 13
6.8758869726
 23
13.3058400595
 33
0.0
  0
SOLID
  5
1BF
330
1BB
100
AcDbEntity
  8
0
  6
Continuous
 62
     7
370
    18
100
AcDbTrace
 10
10.8958869726
 20
13.3858400595
 30
0.0
 11
11.4158869726
 21
13.3058400595
 31
0.0
 12
11.4158869726
 22
13.4658400595
 32
0.0
 13
11.4158869726
 23
13.4658400595
 33
0.0
  0
LINE
  5
1C0
330
1BB
100
AcDbEntity
  8
0
  6
Continuous
 62
     7
370
     0
100
AcDbLine
 10
8.1514425805
 20
13.382020537
 30
0.0
 11
7.9990988321
 21
13.382020537
 31
0.0
  0
LINE
  5
1C1
330
1BB
100
AcDbEntity
  8
0
  6
Continuous
 62
     7
370
     0
100
AcDbLine
 10
7.9990988321
 20
13.382020537
 30
0.0
 11
7.9990988321
 21
12.5882705131
 31
0.0
  0
LINE
  5
1C2
330
1BB
100
AcDbEntity
  8
0
  6
Continuous
 62
     7
370
     0
100
AcDbLine
 10
7.9990988321
 20
12.5882705131
 30
0.0
 11
8.1514425805
 21
12.5882705131
 31
0.0
  0
LINE
  5
1C3
330
1BB
100
AcDbEntity
  8
0
  6
Continuous
 62
     7
370
     0
100
AcDbLine
 10
10.1403315114
 20
13.382020537
 30
0.0
 11
10.2926752598
 21
13.382020537
 31
0.0
  0
LINE
  5
1C4
330
1BB
100
AcDbEntity
  8
0
  6
Continuous
 62
     7
370
     0
100
AcDbLine
 10
10.2926752598
 20
13.382020537
 30
0.0
 11
10.2926752598
 21
12.5882705131
 31
0.0
  0
LINE
  5
1C5
330
1BB
100
AcDbEntity
  8
0
  6
Continuous
 62
     7
370
     0
100
AcDbLine
 10
10.2926752598
 20
12.5882705131
 30
0.0
 11
10.1403315114
 21
12.5882705131
 31
0.0
  0
LINE
  5
1C6
330
1BB
100
AcDbEntity
  8
0
  6
Continuous
 62
     7
370
     0
100
AcDbLine
 10
7.3958869726
 20
8.5511550202
 30
0.0
 11
7.3958869726
 21
13.8858400595
 31
0.0
  0
LINE
  5
1C7
330
1BB
100
AcDbEntity
  8
0
  6
Continuous
 62
     7
370
     0
100
AcDbLine
 10
10.8958869726
 20
8.5511550202
 30
0.0
 11
10.8958869726
 21
13.8858400595
 31
0.0
  0
LINE
  5
1C8
330
1BB
100
AcDbEntity
  8
0
  6
Continuous
 62
     7
370
     0
100
AcDbLine
 10
7.3958869726
 20
13.3858400595
 30
0.0
 11
6.3958869726
 21
13.3858400595
 31
0.0
  0
LINE
  5
1C9
330
1BB
100
AcDbEntity
  8
0
  6
Continuous
 62
     7
370
     0
100
AcDbLine
 10
10.8958869726
 20
13.3858400595
 30
0.0
 11
11.8958869726
 21
13.3858400595
 31
0.0
  0
MTEXT
  5
1CA
330
1BB
100
AcDbEntity
  8
0
  6
Continuous
 62
     7
370
    18
100
AcDbMText
 10
7.6620328609
 20
14.1298938522
 30
0.0
 40
0.5
 41
0.0
 71
     1
 72
     1
  1
 
  7
SLDTEXTSTYLE0
 73
     1
 44
1.0
  0
MTEXT
  5
1CB
330
1BB
100
AcDbEntity
  8
0
  6
Continuous
 62
     7
370
    18
100
AcDbMText
 10
8.2504009207
 20
14.1222549262
 30
0.0
 40
0.5
 41
0.0
 71
     1
 72
     1
  1
3 1/2"
  7
SLDTEXTSTYLE0
 73
     1
 44
1.0
  0
MTEXT
  5
1CC
330
1BB
100
AcDbEntity
  8
0
  6
Continuous
 62
     7
370
    18
100
AcDbMText
 10
8.1514425805
 20
13.2269424431
 30
0.0
 40
0.5
 41
0.0
 71
     1
 72
     1
  1
89mm
  7
SLDTEXTSTYLE0
 73
     1
 44
1.0
  0
MTEXT
  5
1CD
330
1BB
100
AcDbEntity
  8
0
  6
Continuous
 62
     7
370
    18
100
AcDbMText
 10
10.4450188983
 20
14.1298938522
 30
0.0
 40
0.5
 41
0.0
 71
     1
 72
     1
  1
 
  7
SLDTEXTSTYLE0
 73
     1
 44
1.0
  0
ENDBLK
  5
1BD
330
1BB
100
AcDbEntity
  8
0
100
AcDbBlockEnd
  0
BLOCK
  5
1F6
330
1F5
100
AcDbEntity
  8
0
100
AcDbBlockBegin
  2
_D_4
 70
     0
 10
0.0
 20
0.0
 30
0.0
  3
_D_4
  1

  0
SOLID
  5
1F8
330
1F5
100
AcDbEntity
  8
0
  6
Continuous
 62
     7
370
    18
100
AcDbTrace
 10
26.959265329
 20
10.1083153714
 30
0.0
 11
26.6481383453
 21
10.5325794401
 31
0.0
 12
26.5350012603
 22
10.4194423551
 32
0.0
 13
26.5350012603
 23
10.4194423551
 33
0.0
  0
LINE
  5
1F9
330
1F5
100
AcDbEntity
  8
0
  6
Continuous
 62
     7
370
     0
100
AcDbLine
 10
20.9636018041
 20
12.4409580964
 30
0.0
 11
20.8112580557
 21
12.4409580964
 31
0.0
  0
LINE
  5
1FA
330
1F5
100
AcDbEntity
  8
0
  6
Continuous
 62
     7
370
     0
100
AcDbLine
 10
20.8112580557
 20
12.4409580964
 30
0.0
 11
20.8112580557
 21
11.6472080726
 31
0.0
  0
LINE
  5
1FB
330
1F5
100
AcDbEntity
  8
0
  6
Continuous
 62
     7
370
     0
100
AcDbLine
 10
20.8112580557
 20
11.6472080726
 30
0.0
 11
20.9636018041
 21
11.6472080726
 31
0.0
  0
LINE
  5
1FC
330
1F5
100
AcDbEntity
  8
0
  6
Continuous
 62
     7
370
     0
100
AcDbLine
 10
23.3219351071
 20
12.4409580964
 30
0.0
 11
23.4742788556
 21
12.4409580964
 31
0.0
  0
LINE
  5
1FD
330
1F5
100
AcDbEntity
  8
0
  6
Continuous
 62
     7
370
     0
100
AcDbLine
 10
23.4742788556
 20
12.4409580964
 30
0.0
 11
23.4742788556
 21
11.6472080726
 31
0.0
  0
LINE
  5
1FE
330
1F5
100
AcDbEntity
  8
0
  6
Continuous
 62
     7
370
     0
100
AcDbLine
 10
23.4742788556
 20
11.6472080726
 30
0.0
 11
23.3219351071
 21
11.6472080726
 31
0.0
  0
LINE
  5
1FF
330
1F5
100
AcDbEntity
  8
0
  6
Continuous
 62
     7
370
     0
100
AcDbLine
 10
26.959265329
 20
10.1083153714
 30
0.0
 11
24.6266225307
 21
12.4409581698
 31
0.0
  0
LINE
  5
200
330
1F5
100
AcDbEntity
  8
0
  6
Continuous
 62
     7
370
     0
100
AcDbLine
 10
24.6266225307
 20
12.4409581698
 30
0.0
 11
23.6266225307
 21
12.4409581698
 31
0.0
  0
MTEXT
  5
201
330
1F5
100
AcDbEntity
  8
0
  6
Continuous
 62
     7
370
    18
100
AcDbMText
 10
21.477889973
 20
13.1811925223
 30
0.0
 40
0.5
 41
0.0
 71
     1
 72
     1
  1
%%c
  7
SLDTEXTSTYLE0
 73
     1
 44
1.0
  0
MTEXT
  5
202
330
1F5
100
AcDbEntity
  8
0
  6
Continuous
 62
     7
370
    18
100
AcDbMText
 10
22.2319524554
 20
13.1811925223
 30
0.0
 40
0.5
 41
0.0
 71
     1
 72
     1
  1
5"
  7
SLDTEXTSTYLE0
 73
     1
 44
1.0
  0
MTEXT
  5
203
330
1F5
100
AcDbEntity
  8
0
  6
Continuous
 62
     7
370
    18
100
AcDbMText
 10
20.9636018041
 20
12.2858800026
 30
0.0
 40
0.5
 41
0.0
 71
     1
 72
     1
  1
126mm
  7
SLDTEXTSTYLE0
 73
     1
 44
1.0
  0
ENDBLK
  5
1F7
330
1F5
100
AcDbEntity
  8
0
100
AcDbBlockEnd
  0
BLOCK
  5
206
330
205
100
AcDbEntity
  8
0
100
AcDbBlockBegin
  2
_D_5
 70
     0
 10
0.0
 20
0.0
 30
0.0
  3
_D_5
  1

  0
SOLID
  5
208
330
205
100
AcDbEntity
  8
0
  6
Continuous
 62
     7
370
    18
100
AcDbTrace
 10
26.9664256803
 20
12.4409581698
 30
0.0
 11
26.4464256803
 21
12.5209581698
 31
0.0
 12
26.4464256803
 22
12.3609581698
 32
0.0
 13
26.4464256803
 23
12.3609581698
 33
0.0
  0
SOLID
  5
209
330
205
100
AcDbEntity
  8
0
  6
Continuous
 62
     7
370
    18
100
AcDbTrace
 10
30.4664256803
 20
12.4409581698
 30
0.0
 11
30.9864256803
 21
12.3609581698
 31
0.0
 12
30.9864256803
 22
12.5209581698
 32
0.0
 13
30.9864256803
 23
12.5209581698
 33
0.0
  0
LINE
  5
20A
330
205
100
AcDbEntity
  8
0
  6
Continuous
 62
     7
370
     0
100
AcDbLine
 10
27.7219812882
 20
12.4371386472
 30
0.0
 11
27.5696375398
 21
12.4371386472
 31
0.0
  0
LINE
  5
20B
330
205
100
AcDbEntity
  8
0
  6
Continuous
 62
     7
370
     0
100
AcDbLine
 10
27.5696375398
 20
12.4371386472
 30
0.0
 11
27.5696375398
 21
11.6433886234
 31
0.0
  0
LINE
  5
20C
330
205
100
AcDbEntity
  8
0
  6
Continuous
 62
     7
370
     0
100
AcDbLine
 10
27.5696375398
 20
11.6433886234
 30
0.0
 11
27.7219812882
 21
11.6433886234
 31
0.0
  0
LINE
  5
20D
330
205
100
AcDbEntity
  8
0
  6
Continuous
 62
     7
370
     0
100
AcDbLine
 10
29.710870219
 20
12.4371386472
 30
0.0
 11
29.8632139675
 21
12.4371386472
 31
0.0
  0
LINE
  5
20E
330
205
100
AcDbEntity
  8
0
  6
Continuous
 62
     7
370
     0
100
AcDbLine
 10
29.8632139675
 20
12.4371386472
 30
0.0
 11
29.8632139675
 21
11.6433886234
 31
0.0
  0
LINE
  5
20F
330
205
100
AcDbEntity
  8
0
  6
Continuous
 62
     7
370
     0
100
AcDbLine
 10
29.8632139675
 20
11.6433886234
 30
0.0
 11
29.710870219
 21
11.6433886234
 31
0.0
  0
LINE
  5
210
330
205
100
AcDbEntity
  8
0
  6
Continuous
 62
     7
370
     0
100
AcDbLine
 10
26.9664256803
 20
8.5511550202
 30
0.0
 11
26.9664256803
 21
12.9409581698
 31
0.0
  0
LINE
  5
211
330
205
100
AcDbEntity
  8
0
  6
Continuous
 62
     7
370
     0
100
AcDbLine
 10
30.4664256803
 20
8.5511550202
 30
0.0
 11
30.4664256803
 21
12.9409581698
 31
0.0
  0
LINE
  5
212
330
205
100
AcDbEntity
  8
0
  6
Continuous
 62
     7
370
     0
100
AcDbLine
 10
26.9664256803
 20
12.4409581698
 30
0.0
 11
25.9664256803
 21
12.4409581698
 31
0.0
  0
LINE
  5
213
330
205
100
AcDbEntity
  8
0
  6
Continuous
 62
     7
370
     0
100
AcDbLine
 10
30.4664256803
 20
12.4409581698
 30
0.0
 11
31.4664256803
 21
12.4409581698
 31
0.0
  0
MTEXT
  5
214
330
205
100
AcDbEntity
  8
0
  6
Continuous
 62
     7
370
    18
100
AcDbMText
 10
27.2325715686
 20
13.1850119624
 30
0.0
 40
0.5
 41
0.0
 71
     1
 72
     1
  1
 
  7
SLDTEXTSTYLE0
 73
     1
 44
1.0
  0
MTEXT
  5
215
330
205
100
AcDbEntity
  8
0
  6
Continuous
 62
     7
370
    18
100
AcDbMText
 10
27.8209396284
 20
13.1773730365
 30
0.0
 40
0.5
 41
0.0
 71
     1
 72
     1
  1
3 1/2"
  7
SLDTEXTSTYLE0
 73
     1
 44
1.0
  0
MTEXT
  5
216
330
205
100
AcDbEntity
  8
0
  6
Continuous
 62
     7
370
    18
100
AcDbMText
 10
27.7219812882
 20
12.2820605534
 30
0.0
 40
0.5
 41
0.0
 71
     1
 72
     1
  1
89mm
  7
SLDTEXTSTYLE0
 73
     1
 44
1.0
  0
MTEXT
  5
217
330
205
100
AcDbEntity
  8
0
  6
Continuous
 62
     7
370
    18
100
AcDbMText
 10
30.0155576059
 20
13.1850119624
 30
0.0
 40
0.5
 41
0.0
 71
     1
 72
     1
  1
 
  7
SLDTEXTSTYLE0
 73
     1
 44
1.0
  0
ENDBLK
  5
207
330
205
100
AcDbEntity
  8
0
100
AcDbBlockEnd
  0
BLOCK
  5
22C
330
22B
100
AcDbEntity
  8
0
100
AcDbBlockBegin
  2
_D_6
 70
     0
 10
0.0
 20
0.0
 30
0.0
  3
_D_6
  1

  0
SOLID
  5
22E
330
22B
100
AcDbEntity
  8
0
  6
Continuous
 62
     7
370
    18
100
AcDbTrace
 10
18.9540701282
 20
10.8661550202
 30
0.0
 11
19.0340701282
 21
11.3861550202
 31
0.0
 12
18.8740701282
 22
11.3861550202
 32
0.0
 13
18.8740701282
 23
11.3861550202
 33
0.0
  0
SOLID
  5
22F
330
22B
100
AcDbEntity
  8
0
  6
Continuous
 62
     7
370
    18
100
AcDbTrace
 10
18.9540701282
 20
7.7261550202
 30
0.0
 11
18.8740701282
 21
7.2061550202
 31
0.0
 12
19.0340701282
 22
7.2061550202
 32
0.0
 13
19.0340701282
 23
7.2061550202
 33
0.0
  0
LINE
  5
230
330
22B
100
AcDbEntity
  8
0
  6
Continuous
 62
     7
370
     0
100
AcDbLine
 10
17.9596257361
 20
9.2923354976
 30
0.0
 11
17.8072819876
 21
9.2923354976
 31
0.0
  0
LINE
  5
231
330
22B
100
AcDbEntity
  8
0
  6
Continuous
 62
     7
370
     0
100
AcDbLine
 10
17.8072819876
 20
9.2923354976
 30
0.0
 11
17.8072819876
 21
8.4985854738
 31
0.0
  0
LINE
  5
232
330
22B
100
AcDbEntity
  8
0
  6
Continuous
 62
     7
370
     0
100
AcDbLine
 10
17.8072819876
 20
8.4985854738
 30
0.0
 11
17.9596257361
 21
8.4985854738
 31
0.0
  0
LINE
  5
233
330
22B
100
AcDbEntity
  8
0
  6
Continuous
 62
     7
370
     0
100
AcDbLine
 10
19.9485146669
 20
9.2923354976
 30
0.0
 11
20.1008584154
 21
9.2923354976
 31
0.0
  0
LINE
  5
234
330
22B
100
AcDbEntity
  8
0
  6
Continuous
 62
     7
370
     0
100
AcDbLine
 10
20.1008584154
 20
9.2923354976
 30
0.0
 11
20.1008584154
 21
8.4985854738
 31
0.0
  0
LINE
  5
235
330
22B
100
AcDbEntity
  8
0
  6
Continuous
 62
     7
370
     0
100
AcDbLine
 10
20.1008584154
 20
8.4985854738
 30
0.0
 11
19.9485146669
 21
8.4985854738
 31
0.0
  0
LINE
  5
236
330
22B
100
AcDbEntity
  8
0
  6
Continuous
 62
     7
370
     0
100
AcDbLine
 10
16.345081683
 20
10.8661550202
 30
0.0
 11
19.4540701282
 21
10.8661550202
 31
0.0
  0
LINE
  5
237
330
22B
100
AcDbEntity
  8
0
  6
Continuous
 62
     7
370
     0
100
AcDbLine
 10
17.1291563813
 20
7.7261550202
 30
0.0
 11
19.4540701282
 21
7.7261550202
 31
0.0
  0
LINE
  5
238
330
22B
100
AcDbEntity
  8
0
  6
Continuous
 62
     7
370
     0
100
AcDbLine
 10
18.9540701282
 20
10.8661550202
 30
0.0
 11
18.9540701282
 21
11.8661550202
 31
0.0
  0
LINE
  5
239
330
22B
100
AcDbEntity
  8
0
  6
Continuous
 62
     7
370
     0
100
AcDbLine
 10
18.9540701282
 20
7.7261550202
 30
0.0
 11
18.9540701282
 21
6.7261550202
 31
0.0
  0
MTEXT
  5
23A
330
22B
100
AcDbEntity
  8
0
  6
Continuous
 62
     7
370
    18
100
AcDbMText
 10
17.4702160164
 20
10.0402088128
 30
0.0
 40
0.5
 41
0.0
 71
     1
 72
     1
  1
 
  7
SLDTEXTSTYLE0
 73
     1
 44
1.0
  0
MTEXT
  5
23B
330
22B
100
AcDbEntity
  8
0
  6
Continuous
 62
     7
370
    18
100
AcDbMText
 10
18.0585840762
 20
10.0325698869
 30
0.0
 40
0.5
 41
0.0
 71
     1
 72
     1
  1
3 1/8"
  7
SLDTEXTSTYLE0
 73
     1
 44
1.0
  0
MTEXT
  5
23C
330
22B
100
AcDbEntity
  8
0
  6
Continuous
 62
     7
370
    18
100
AcDbMText
 10
17.9596257361
 20
9.1372574038
 30
0.0
 40
0.5
 41
0.0
 71
     1
 72
     1
  1
80mm
  7
SLDTEXTSTYLE0
 73
     1
 44
1.0
  0
MTEXT
  5
23D
330
22B
100
AcDbEntity
  8
0
  6
Continuous
 62
     7
370
    18
100
AcDbMText
 10
20.2532020538
 20
10.0402088128
 30
0.0
 40
0.5
 41
0.0
 71
     1
 72
     1
  1
 
  7
SLDTEXTSTYLE0
 73
     1
 44
1.0
  0
ENDBLK
  5
22D
330
22B
100
AcDbEntity
  8
0
100
AcDbBlockEnd
  0
BLOCK
  5
254
330
253
100
AcDbEntity
  8
0
100
AcDbBlockBegin
  2
_D_7
 70
     0
 10
0.0
 20
0.0
 30
0.0
  3
_D_7
  1

  0
SOLID
  5
256
330
253
100
AcDbEntity
  8
0
  6
Continuous
 62
     7
370
    18
100
AcDbTrace
 10
39.4395242444
 20
10.8661550202
 30
0.0
 11
39.5195242444
 21
11.3861550202
 31
0.0
 12
39.3595242444
 22
11.3861550202
 32
0.0
 13
39.3595242444
 23
11.3861550202
 33
0.0
  0
SOLID
  5
257
330
253
100
AcDbEntity
  8
0
  6
Continuous
 62
     7
370
    18
100
AcDbTrace
 10
39.4395242444
 20
7.9761550202
 30
0.0
 11
39.3595242444
 21
7.4561550202
 31
0.0
 12
39.5195242444
 22
7.4561550202
 32
0.0
 13
39.5195242444
 23
7.4561550202
 33
0.0
  0
LINE
  5
258
330
253
100
AcDbEntity
  8
0
  6
Continuous
 62
     7
370
     0
100
AcDbLine
 10
38.4450798523
 20
9.4173354976
 30
0.0
 11
38.2927361039
 21
9.4173354976
 31
0.0
  0
LINE
  5
259
330
253
100
AcDbEntity
  8
0
  6
Continuous
 62
     7
370
     0
100
AcDbLine
 10
38.2927361039
 20
9.4173354976
 30
0.0
 11
38.2927361039
 21
8.6235854738
 31
0.0
  0
LINE
  5
25A
330
253
100
AcDbEntity
  8
0
  6
Continuous
 62
     7
370
     0
100
AcDbLine
 10
38.2927361039
 20
8.6235854738
 30
0.0
 11
38.4450798523
 21
8.6235854738
 31
0.0
  0
LINE
  5
25B
330
253
100
AcDbEntity
  8
0
  6
Continuous
 62
     7
370
     0
100
AcDbLine
 10
40.4339687832
 20
9.4173354976
 30
0.0
 11
40.5863125316
 21
9.4173354976
 31
0.0
  0
LINE
  5
25C
330
253
100
AcDbEntity
  8
0
  6
Continuous
 62
     7
370
     0
100
AcDbLine
 10
40.5863125316
 20
9.4173354976
 30
0.0
 11
40.5863125316
 21
8.6235854738
 31
0.0
  0
LINE
  5
25D
330
253
100
AcDbEntity
  8
0
  6
Continuous
 62
     7
370
     0
100
AcDbLine
 10
40.5863125316
 20
8.6235854738
 30
0.0
 11
40.4339687832
 21
8.6235854738
 31
0.0
  0
LINE
  5
25E
330
253
100
AcDbEntity
  8
0
  6
Continuous
 62
     7
370
     0
100
AcDbLine
 10
36.6733323074
 20
10.8661550202
 30
0.0
 11
39.9395242444
 21
10.8661550202
 31
0.0
  0
LINE
  5
25F
330
253
100
AcDbEntity
  8
0
  6
Continuous
 62
     7
370
     0
100
AcDbLine
 10
37.6313275227
 20
7.9761550202
 30
0.0
 11
39.9395242444
 21
7.9761550202
 31
0.0
  0
LINE
  5
260
330
253
100
AcDbEntity
  8
0
  6
Continuous
 62
     7
370
     0
100
AcDbLine
 10
39.4395242444
 20
10.8661550202
 30
0.0
 11
39.4395242444
 21
11.8661550202
 31
0.0
  0
LINE
  5
261
330
253
100
AcDbEntity
  8
0
  6
Continuous
 62
     7
370
     0
100
AcDbLine
 10
39.4395242444
 20
7.9761550202
 30
0.0
 11
39.4395242444
 21
6.9761550202
 31
0.0
  0
MTEXT
  5
262
330
253
100
AcDbEntity
  8
0
  6
Continuous
 62
     7
370
    18
100
AcDbMText
 10
37.9556701327
 20
10.1652088128
 30
0.0
 40
0.5
 41
0.0
 71
     1
 72
     1
  1
 
  7
SLDTEXTSTYLE0
 73
     1
 44
1.0
  0
MTEXT
  5
263
330
253
100
AcDbEntity
  8
0
  6
Continuous
 62
     7
370
    18
100
AcDbMText
 10
38.5440381925
 20
10.1575698869
 30
0.0
 40
0.5
 41
0.0
 71
     1
 72
     1
  1
2 7/8"
  7
SLDTEXTSTYLE0
 73
     1
 44
1.0
  0
MTEXT
  5
264
330
253
100
AcDbEntity
  8
0
  6
Continuous
 62
     7
370
    18
100
AcDbMText
 10
38.4450798523
 20
9.2622574038
 30
0.0
 40
0.5
 41
0.0
 71
     1
 72
     1
  1
73mm
  7
SLDTEXTSTYLE0
 73
     1
 44
1.0
  0
MTEXT
  5
265
330
253
100
AcDbEntity
  8
0
  6
Continuous
 62
     7
370
    18
100
AcDbMText
 10
40.7386561701
 20
10.1652088128
 30
0.0
 40
0.5
 41
0.0
 71
     1
 72
     1
  1
 
  7
SLDTEXTSTYLE0
 73
     1
 44
1.0
  0
ENDBLK
  5
255
330
253
100
AcDbEntity
  8
0
100
AcDbBlockEnd
  0
ENDSEC
  0
SECTION
  2
ENTITIES
  0
LINE
  5
6E
330
1F
100
AcDbEntity
  8
0
  6
Continuous
 62
     7
370
    25
100
AcDbLine
 10
14.7958396199
 20
19.5938716583
 30
0.0
 11
14.8158396199
 21
19.5938716583
 31
0.0
  0
LINE
  5
6F
330
1F
100
AcDbEntity
  8
0
  6
Continuous
 62
     7
370
    25
100
AcDbLine
 10
14.8158396199
 20
19.9548716583
 30
0.0
 11
14.7958396199
 21
19.9548716583
 31
0.0
  0
ARC
  5
70
330
1F
100
AcDbEntity
  8
0
  6
Continuous
 62
     7
370
    25
100
AcDbCircle
 10
14.9061741106
 20
19.7743716583
 30
0.0
 40
0.2115512936547988
100
AcDbArc
 50
205.2526445171
 51
238.5637474715
  0
ARC
  5
71
330
1F
100
AcDbEntity
  8
0
  6
Continuous
 62
     7
370
    25
100
AcDbCircle
 10
14.9061741106
 20
19.7743716583
 30
0.0
 40
0.2115512936548018
100
AcDbArc
 50
121.4362525285
 51
154.7473554829
  0
LINE
  5
72
330
1F
100
AcDbEntity
  8
0
  6
Continuous
 62
     7
370
    25
100
AcDbLine
 10
19.8358396199
 20
19.9548716583
 30
0.0
 11
19.8158396199
 21
19.9548716583
 31
0.0
  0
LINE
  5
73
330
1F
100
AcDbEntity
  8
0
  6
Continuous
 62
     7
370
    25
100
AcDbLine
 10
19.8158396199
 20
19.5938716583
 30
0.0
 11
19.8358396199
 21
19.5938716583
 31
0.0
  0
ARC
  5
74
330
1F
100
AcDbEntity
  8
0
  6
Continuous
 62
     7
370
    25
100
AcDbCircle
 10
19.7255051291
 20
19.7743716583
 30
0.0
 40
0.2115512936548009
100
AcDbArc
 50
25.2526445171
 51
58.5637474715
  0
ARC
  5
75
330
1F
100
AcDbEntity
  8
0
  6
Continuous
 62
     7
370
    25
100
AcDbCircle
 10
19.7255051291
 20
19.7743716583
 30
0.0
 40
0.2115512936547979
100
AcDbArc
 50
301.4362525285
 51
334.7473554829
  0
LINE
  5
76
330
1F
100
AcDbEntity
  8
0
  6
Continuous
 62
     7
370
    25
100
AcDbLine
 10
16.5195827518
 20
27.6493716583
 30
0.0
 11
18.112096488
 21
27.6493716583
 31
0.0
  0
ARC
  5
77
330
1F
100
AcDbEntity
  8
0
  6
Continuous
 62
     7
370
    25
100
AcDbCircle
 10
17.3158396199
 20
28.2743716583
 30
0.0
 40
1.012249969128181
100
AcDbArc
 50
218.1291692158
 51
321.8708307842
  0
CIRCLE
  5
78
330
1F
100
AcDbEntity
  8
0
  6
Continuous
 62
     7
370
    25
100
AcDbCircle
 10
17.3158396199
 20
28.2743716583
 30
0.0
 40
1.012422836565829
  0
ARC
  5
79
330
1F
100
AcDbEntity
  8
0
  6
Continuous
 62
     7
370
    25
100
AcDbCircle
 10
17.3158396199
 20
28.2743716583
 30
0.0
 40
0.9222255689363669
100
AcDbArc
 50
222.664826585
 51
317.335173415
  0
CIRCLE
  5
7A
330
1F
100
AcDbEntity
  8
0
  6
Continuous
 62
     7
370
    25
100
AcDbCircle
 10
17.3158396199
 20
28.2743716583
 30
0.0
 40
2.515000000000011
  0
LINE
  5
7B
330
1F
100
AcDbEntity
  8
0
  6
Continuous
 62
     7
370
    25
100
AcDbLine
 10
16.6908396199
 20
27.6407511094
 30
0.0
 11
16.6908396199
 21
27.6493716583
 31
0.0
  0
LINE
  5
7C
330
1F
100
AcDbEntity
  8
0
  6
Continuous
 62
     7
370
    25
100
AcDbLine
 10
17.9408396199
 20
27.6407511094
 30
0.0
 11
17.9408396199
 21
27.6493716583
 31
0.0
  0
LINE
  5
7D
330
1F
100
AcDbEntity
  8
0
  6
Continuous
 62
     7
370
    25
100
AcDbLine
 10
17.8783396199
 20
27.5846661052
 30
0.0
 11
17.8783396199
 21
27.6493716583
 31
0.0
  0
LINE
  5
7E
330
1F
100
AcDbEntity
  8
0
  6
Continuous
 62
     7
370
    25
100
AcDbLine
 10
16.8158396199
 20
27.5380972529
 30
0.0
 11
16.8158396199
 21
27.6493716583
 31
0.0
  0
LINE
  5
7F
330
1F
100
AcDbEntity
  8
0
  6
Continuous
 62
     7
370
    25
100
AcDbLine
 10
16.7533396199
 20
27.5846661052
 30
0.0
 11
16.7533396199
 21
27.6493716583
 31
0.0
  0
LINE
  5
80
330
1F
100
AcDbEntity
  8
0
  6
Continuous
 62
     7
370
    25
100
AcDbLine
 10
17.7533396199
 20
27.4993273047
 30
0.0
 11
17.7533396199
 21
27.6493716583
 31
0.0
  0
LINE
  5
81
330
1F
100
AcDbEntity
  8
0
  6
Continuous
 62
     7
370
    25
100
AcDbLine
 10
17.8158396199
 20
27.5380972529
 30
0.0
 11
17.8158396199
 21
27.6493716583
 31
0.0
  0
LINE
  5
82
330
1F
100
AcDbEntity
  8
0
  6
Continuous
 62
     7
370
    25
100
AcDbLine
 10
16.9408396199
 20
27.4672316456
 30
0.0
 11
16.9408396199
 21
27.6493716583
 31
0.0
  0
LINE
  5
83
330
1F
100
AcDbEntity
  8
0
  6
Continuous
 62
     7
370
    25
100
AcDbLine
 10
16.8783396199
 20
27.4993273047
 30
0.0
 11
16.8783396199
 21
27.6493716583
 31
0.0
  0
LINE
  5
84
330
1F
100
AcDbEntity
  8
0
  6
Continuous
 62
     7
370
    25
100
AcDbLine
 10
17.6283396199
 20
27.4410387416
 30
0.0
 11
17.6283396199
 21
27.6493716583
 31
0.0
  0
LINE
  5
85
330
1F
100
AcDbEntity
  8
0
  6
Continuous
 62
     7
370
    25
100
AcDbLine
 10
17.6908396199
 20
27.4672316456
 30
0.0
 11
17.6908396199
 21
27.6493716583
 31
0.0
  0
LINE
  5
86
330
1F
100
AcDbEntity
  8
0
  6
Continuous
 62
     7
370
    25
100
AcDbLine
 10
17.0033396199
 20
27.4410387416
 30
0.0
 11
17.0033396199
 21
27.6493716583
 31
0.0
  0
LINE
  5
87
330
1F
100
AcDbEntity
  8
0
  6
Continuous
 62
     7
370
    25
100
AcDbLine
 10
17.0658396199
 20
27.4202053981
 30
0.0
 11
17.0658396199
 21
27.6493716583
 31
0.0
  0
LINE
  5
88
330
1F
100
AcDbEntity
  8
0
  6
Continuous
 62
     7
370
    25
100
AcDbLine
 10
17.5658396199
 20
27.4202053981
 30
0.0
 11
17.5658396199
 21
27.6493716583
 31
0.0
  0
LINE
  5
89
330
1F
100
AcDbEntity
  8
0
  6
Continuous
 62
     7
370
    25
100
AcDbLine
 10
17.5033396199
 20
27.404346515
 30
0.0
 11
17.5033396199
 21
27.6493716583
 31
0.0
  0
LINE
  5
8A
330
1F
100
AcDbEntity
  8
0
  6
Continuous
 62
     7
370
    25
100
AcDbLine
 10
17.1908396199
 20
27.3931934697
 30
0.0
 11
17.1908396199
 21
27.6493716583
 31
0.0
  0
LINE
  5
8B
330
1F
100
AcDbEntity
  8
0
  6
Continuous
 62
     7
370
    25
100
AcDbLine
 10
17.1283396199
 20
27.404346515
 30
0.0
 11
17.1283396199
 21
27.6493716583
 31
0.0
  0
LINE
  5
8C
330
1F
100
AcDbEntity
  8
0
  6
Continuous
 62
     7
370
    25
100
AcDbLine
 10
17.4408396199
 20
27.3931934697
 30
0.0
 11
17.4408396199
 21
27.6493716583
 31
0.0
  0
LINE
  5
8D
330
1F
100
AcDbEntity
  8
0
  6
Continuous
 62
     7
370
    25
100
AcDbLine
 10
17.3783396199
 20
27.386568893
 30
0.0
 11
17.3783396199
 21
27.6493716583
 31
0.0
  0
LINE
  5
8E
330
1F
100
AcDbEntity
  8
0
  6
Continuous
 62
     7
370
    25
100
AcDbLine
 10
17.2533396199
 20
27.386568893
 30
0.0
 11
17.2533396199
 21
27.6493716583
 31
0.0
  0
LINE
  5
8F
330
1F
100
AcDbEntity
  8
0
  6
Continuous
 62
     7
370
    25
100
AcDbLine
 10
17.3158396199
 20
27.3843716583
 30
0.0
 11
17.3158396199
 21
27.6493716583
 31
0.0
  0
ARC
  5
90
330
1F
100
AcDbEntity
  8
0
  6
Continuous
 62
     7
370
    25
100
AcDbCircle
 10
17.3158396199
 20
28.2743716583
 30
0.0
 40
0.8899999999999999
100
AcDbArc
 50
224.6075756536
 51
315.3924243464
  0
LINE
  5
91
330
1F
100
AcDbEntity
  8
0
  6
Continuous
 62
     7
370
    25
100
AcDbLine
 10
14.8158396199
 20
26.9743716583
 30
0.0
 11
14.8158396199
 21
18.7743716583
 31
0.0
  0
LINE
  5
92
330
1F
100
AcDbEntity
  8
0
  6
Continuous
 62
     7
370
    25
100
AcDbLine
 10
19.8158396199
 20
26.9743716583
 30
0.0
 11
19.8158396199
 21
18.7743716583
 31
0.0
  0
LINE
  5
93
330
1F
100
AcDbEntity
  8
0
  6
Continuous
 62
     7
370
    25
100
AcDbLine
 10
14.8158396199
 20
18.7743716583
 30
0.0
 11
19.8158396199
 21
18.7743716583
 31
0.0
  0
LINE
  5
94
330
1F
100
AcDbEntity
  8
0
  6
Continuous
 62
     7
370
    25
100
AcDbLine
 10
14.8158396199
 20
26.9743716583
 30
0.0
 11
15.1628823514
 21
26.9743716583
 31
0.0
  0
LINE
  5
95
330
1F
100
AcDbEntity
  8
0
  6
Continuous
 62
     7
370
    25
100
AcDbLine
 10
19.4687968884
 20
26.9743716583
 30
0.0
 11
19.8158396199
 21
26.9743716583
 31
0.0
  0
LINE
  5
96
330
1F
100
AcDbEntity
  8
0
  6
Continuous
 62
     7
370
    25
100
AcDbLine
 10
19.7960133956
 20
26.9941978825
 30
0.0
 11
19.8158396199
 21
26.9743716583
 31
0.0
  0
LINE
  5
97
330
1F
100
AcDbEntity
  8
0
  6
Continuous
 62
     7
370
    25
100
AcDbLine
 10
19.8158396199
 20
26.9743716583
 30
0.0
 11
19.8158396199
 21
28.0000998952
 31
0.0
  0
LINE
  5
98
330
1F
100
AcDbEntity
  8
0
  6
Continuous
 62
     7
370
    25
100
AcDbLine
 10
14.8356658441
 20
26.9941978825
 30
0.0
 11
14.8158396199
 21
26.9743716583
 31
0.0
  0
LINE
  5
99
330
1F
100
AcDbEntity
  8
0
  6
Continuous
 62
     7
370
    25
100
AcDbLine
 10
14.8158396199
 20
28.0000998952
 30
0.0
 11
14.8158396199
 21
26.9743716583
 31
0.0
  0
LINE
  5
9A
330
1F
100
AcDbEntity
  8
0
  6
Continuous
 62
     7
370
    25
100
AcDbLine
 10
15.521928709
 20
28.2170989314
 30
0.0
 11
15.494284528
 21
28.2837632591
 31
0.0
  0
LINE
  5
9B
330
1F
100
AcDbEntity
  8
0
  6
Continuous
 62
     7
370
    25
100
AcDbLine
 10
15.5934838008
 20
28.2077073306
 30
0.0
 11
15.521928709
 21
28.2170989314
 31
0.0
  0
LINE
  5
9C
330
1F
100
AcDbEntity
  8
0
  6
Continuous
 62
     7
370
    25
100
AcDbLine
 10
15.6373947117
 20
28.2649800574
 30
0.0
 11
15.5934838008
 21
28.2077073306
 31
0.0
  0
LINE
  5
9D
330
1F
100
AcDbEntity
  8
0
  6
Continuous
 62
     7
370
    25
100
AcDbLine
 10
15.6097505307
 20
28.3316443851
 30
0.0
 11
15.6373947117
 21
28.2649800574
 31
0.0
  0
LINE
  5
9E
330
1F
100
AcDbEntity
  8
0
  6
Continuous
 62
     7
370
    25
100
AcDbLine
 10
15.5381954389
 20
28.341035986
 30
0.0
 11
15.6097505307
 21
28.3316443851
 31
0.0
  0
LINE
  5
9F
330
1F
100
AcDbEntity
  8
0
  6
Continuous
 62
     7
370
    25
100
AcDbLine
 10
15.494284528
 20
28.2837632591
 30
0.0
 11
15.5381954389
 21
28.341035986
 31
0.0
  0
CIRCLE
  5
A0
330
1F
100
AcDbEntity
  8
0
  6
Continuous
 62
     7
370
    25
100
AcDbCircle
 10
15.5658396199
 20
28.2743716583
 30
0.0
 40
0.2055000000000009
  0
ARC
  5
A1
330
1F
100
AcDbEntity
  8
0
  6
Continuous
 62
     7
370
    25
100
AcDbCircle
 10
15.5658396199
 20
28.2743716583
 30
0.0
 40
0.0625000000000049
100
AcDbArc
 50
202.5226735859
 51
262.5226735859
  0
ARC
  5
A2
330
1F
100
AcDbEntity
  8
0
  6
Continuous
 62
     7
370
    25
100
AcDbCircle
 10
15.5658396199
 20
28.2743716583
 30
0.0
 40
0.0624999999999983
100
AcDbArc
 50
142.5226735859
 51
202.5226735859
  0
ARC
  5
A3
330
1F
100
AcDbEntity
  8
0
  6
Continuous
 62
     7
370
    25
100
AcDbCircle
 10
15.5658396199
 20
28.2743716583
 30
0.0
 40
0.0624999999999992
100
AcDbArc
 50
82.5226735859
 51
142.5226735859
  0
ARC
  5
A4
330
1F
100
AcDbEntity
  8
0
  6
Continuous
 62
     7
370
    25
100
AcDbCircle
 10
15.5658396199
 20
28.2743716583
 30
0.0
 40
0.0625000000000024
100
AcDbArc
 50
22.5226735859
 51
82.5226735859
  0
ARC
  5
A5
330
1F
100
AcDbEntity
  8
0
  6
Continuous
 62
     7
370
    25
100
AcDbCircle
 10
15.5658396199
 20
28.2743716583
 30
0.0
 40
0.0625000000000024
100
AcDbArc
 50
322.5226735859
 51
22.5226735859
  0
ARC
  5
A6
330
1F
100
AcDbEntity
  8
0
  6
Continuous
 62
     7
370
    25
100
AcDbCircle
 10
15.5658396199
 20
28.2743716583
 30
0.0
 40
0.0625000000000049
100
AcDbArc
 50
262.5226735859
 51
322.5226735859
  0
LINE
  5
A7
330
1F
100
AcDbEntity
  8
0
  6
Continuous
 62
     7
370
    25
100
AcDbLine
 10
19.021928709
 20
28.2170989314
 30
0.0
 11
18.994284528
 21
28.2837632591
 31
0.0
  0
LINE
  5
A8
330
1F
100
AcDbEntity
  8
0
  6
Continuous
 62
     7
370
    25
100
AcDbLine
 10
19.0934838008
 20
28.2077073306
 30
0.0
 11
19.021928709
 21
28.2170989314
 31
0.0
  0
LINE
  5
A9
330
1F
100
AcDbEntity
  8
0
  6
Continuous
 62
     7
370
    25
100
AcDbLine
 10
19.1373947117
 20
28.2649800574
 30
0.0
 11
19.0934838008
 21
28.2077073306
 31
0.0
  0
LINE
  5
AA
330
1F
100
AcDbEntity
  8
0
  6
Continuous
 62
     7
370
    25
100
AcDbLine
 10
19.1097505307
 20
28.3316443851
 30
0.0
 11
19.1373947117
 21
28.2649800574
 31
0.0
  0
LINE
  5
AB
330
1F
100
AcDbEntity
  8
0
  6
Continuous
 62
     7
370
    25
100
AcDbLine
 10
19.0381954389
 20
28.341035986
 30
0.0
 11
19.1097505307
 21
28.3316443851
 31
0.0
  0
LINE
  5
AC
330
1F
100
AcDbEntity
  8
0
  6
Continuous
 62
     7
370
    25
100
AcDbLine
 10
18.994284528
 20
28.2837632591
 30
0.0
 11
19.0381954389
 21
28.341035986
 31
0.0
  0
CIRCLE
  5
AD
330
1F
100
AcDbEntity
  8
0
  6
Continuous
 62
     7
370
    25
100
AcDbCircle
 10
19.0658396199
 20
28.2743716583
 30
0.0
 40
0.205499999999999
  0
ARC
  5
AE
330
1F
100
AcDbEntity
  8
0
  6
Continuous
 62
     7
370
    25
100
AcDbCircle
 10
19.0658396199
 20
28.2743716583
 30
0.0
 40
0.0624999999999964
100
AcDbArc
 50
142.5226735859
 51
202.5226735859
  0
ARC
  5
AF
330
1F
100
AcDbEntity
  8
0
  6
Continuous
 62
     7
370
    25
100
AcDbCircle
 10
19.0658396199
 20
28.2743716583
 30
0.0
 40
0.0624999999999957
100
AcDbArc
 50
82.5226735859
 51
142.5226735859
  0
ARC
  5
B0
330
1F
100
AcDbEntity
  8
0
  6
Continuous
 62
     7
370
    25
100
AcDbCircle
 10
19.0658396199
 20
28.2743716583
 30
0.0
 40
0.0625000000000043
100
AcDbArc
 50
22.5226735859
 51
82.5226735859
  0
ARC
  5
B1
330
1F
100
AcDbEntity
  8
0
  6
Continuous
 62
     7
370
    25
100
AcDbCircle
 10
19.0658396199
 20
28.2743716583
 30
0.0
 40
0.0625000000000043
100
AcDbArc
 50
322.5226735859
 51
22.5226735859
  0
ARC
  5
B2
330
1F
100
AcDbEntity
  8
0
  6
Continuous
 62
     7
370
    25
100
AcDbCircle
 10
19.0658396199
 20
28.2743716583
 30
0.0
 40
0.0625000000000084
100
AcDbArc
 50
262.5226735859
 51
322.5226735859
  0
ARC
  5
B3
330
1F
100
AcDbEntity
  8
0
  6
Continuous
 62
     7
370
    25
100
AcDbCircle
 10
19.0658396199
 20
28.2743716583
 30
0.0
 40
0.0625000000000084
100
AcDbArc
 50
202.5226735859
 51
262.5226735859
  0
LINE
  5
B4
330
1F
100
AcDbEntity
  8
0
  6
Continuous
 62
     7
370
    25
100
AcDbLine
 10
14.7958396199
 20
19.5938716583
 30
0.0
 11
14.7958396199
 21
19.9548716583
 31
0.0
  0
LINE
  5
B5
330
1F
100
AcDbEntity
  8
0
  6
Continuous
 62
     7
370
    25
100
AcDbLine
 10
14.7148396199
 20
19.6841216583
 30
0.0
 11
14.7148396199
 21
19.8646216583
 31
0.0
  0
LINE
  5
B6
330
1F
100
AcDbEntity
  8
0
  6
Continuous
 62
     7
370
    25
100
AcDbLine
 10
17.3158396199
 20
19.8465404419
 30
0.0
 11
17.3783396199
 21
19.8104560501
 31
0.0
  0
LINE
  5
B7
330
1F
100
AcDbEntity
  8
0
  6
Continuous
 62
     7
370
    25
100
AcDbLine
 10
17.3783396199
 20
19.7382872665
 30
0.0
 11
17.3158396199
 21
19.7022028746
 31
0.0
  0
CIRCLE
  5
B8
330
1F
100
AcDbEntity
  8
0
  6
Continuous
 62
     7
370
    25
100
AcDbCircle
 10
17.3158396199
 20
19.7743716583
 30
0.0
 40
0.0902500000000011
  0
LINE
  5
B9
330
1F
100
AcDbEntity
  8
0
  6
Continuous
 62
     7
370
    25
100
AcDbLine
 10
17.3783396199
 20
19.8104560501
 30
0.0
 11
17.3783396199
 21
19.7382872665
 31
0.0
  0
LINE
  5
BA
330
1F
100
AcDbEntity
  8
0
  6
Continuous
 62
     7
370
    25
100
AcDbLine
 10
17.2533396199
 20
19.8104560501
 30
0.0
 11
17.3158396199
 21
19.8465404419
 31
0.0
  0
LINE
  5
BB
330
1F
100
AcDbEntity
  8
0
  6
Continuous
 62
     7
370
    25
100
AcDbLine
 10
17.3158396199
 20
19.7022028746
 30
0.0
 11
17.2533396199
 21
19.7382872665
 31
0.0
  0
LINE
  5
BC
330
1F
100
AcDbEntity
  8
0
  6
Continuous
 62
     7
370
    25
100
AcDbLine
 10
17.2533396199
 20
19.7382872665
 30
0.0
 11
17.2533396199
 21
19.8104560501
 31
0.0
  0
CIRCLE
  5
BD
330
1F
100
AcDbEntity
  8
0
  6
Continuous
 62
     7
370
    25
100
AcDbCircle
 10
17.3158396199
 20
19.7743716583
 30
0.0
 40
0.1805000000000021
  0
ARC
  5
BE
330
1F
100
AcDbEntity
  8
0
  6
Continuous
 62
     7
370
    25
100
AcDbCircle
 10
17.3158396199
 20
19.7743716583
 30
0.0
 40
0.0625000000000038
100
AcDbArc
 50
300.0
 51
0.0
  0
ARC
  5
BF
330
1F
100
AcDbEntity
  8
0
  6
Continuous
 62
     7
370
    25
100
AcDbCircle
 10
17.3158396199
 20
19.7743716583
 30
0.0
 40
0.0625000000000069
100
AcDbArc
 50
60.0
 51
120.0
  0
ARC
  5
C0
330
1F
100
AcDbEntity
  8
0
  6
Continuous
 62
     7
370
    25
100
AcDbCircle
 10
17.3158396199
 20
19.7743716583
 30
0.0
 40
0.0625000000000003
100
AcDbArc
 50
120.0
 51
180.0
  0
ARC
  5
C1
330
1F
100
AcDbEntity
  8
0
  6
Continuous
 62
     7
370
    25
100
AcDbCircle
 10
17.3158396199
 20
19.7743716583
 30
0.0
 40
0.0624999999999941
100
AcDbArc
 50
180.0
 51
240.0
  0
ARC
  5
C2
330
1F
100
AcDbEntity
  8
0
  6
Continuous
 62
     7
370
    25
100
AcDbCircle
 10
17.3158396199
 20
19.7743716583
 30
0.0
 40
0.0625000000000038
100
AcDbArc
 50
240.0
 51
300.0
  0
ARC
  5
C3
330
1F
100
AcDbEntity
  8
0
  6
Continuous
 62
     7
370
    25
100
AcDbCircle
 10
17.3158396199
 20
19.7743716583
 30
0.0
 40
0.0625000000000069
100
AcDbArc
 50
0.0
 51
60.0
  0
LINE
  5
C4
330
1F
100
AcDbEntity
  8
0
  6
Continuous
 62
     7
370
    25
100
AcDbLine
 10
19.8358396199
 20
19.9548716583
 30
0.0
 11
19.8358396199
 21
19.5938716583
 31
0.0
  0
LINE
  5
C5
330
1F
100
AcDbEntity
  8
0
  6
Continuous
 62
     7
370
    25
100
AcDbLine
 10
19.9168396199
 20
19.8646216583
 30
0.0
 11
19.9168396199
 21
19.6841216583
 31
0.0
  0
LINE
  5
C6
330
1F
100
AcDbEntity
  8
0
  6
Continuous
 62
     7
370
    25
100
AcDbLine
 10
14.8358274364
 20
18.7743716583
 30
0.0
 11
14.8395184915
 21
18.6686736684
 31
0.0
  0
ARC
  5
C7
330
1F
100
AcDbEntity
  8
0
  6
Continuous
 62
     7
370
    25
100
AcDbCircle
 10
14.8295245833
 20
18.8120570749
 30
0.0
 40
0.1437312752153179
100
AcDbArc
 50
266.0128986004
 51
273.9871013996
  0
LINE
  5
C8
330
1F
100
AcDbEntity
  8
0
  6
Continuous
 62
     7
370
    25
100
AcDbLine
 10
14.819530675
 20
18.6686736684
 30
0.0
 11
14.8158396199
 21
18.7743716583
 31
0.0
  0
LINE
  5
C9
330
1F
100
AcDbEntity
  8
0
  6
Continuous
 62
     7
370
    25
100
AcDbLine
 10
19.8158396199
 20
18.7743716583
 30
0.0
 11
19.8121485647
 21
18.6686736684
 31
0.0
  0
ARC
  5
CA
330
1F
100
AcDbEntity
  8
0
  6
Continuous
 62
     7
370
    25
100
AcDbCircle
 10
19.8021546564
 20
18.8120570749
 30
0.0
 40
0.1437312752154243
100
AcDbArc
 50
266.0128986004
 51
273.9871013996
  0
LINE
  5
CB
330
1F
100
AcDbEntity
  8
0
  6
Continuous
 62
     7
370
    25
100
AcDbLine
 10
19.7921607482
 20
18.6686736684
 30
0.0
 11
19.7958518033
 21
18.7743716583
 31
0.0
  0
LINE
  5
CC
330
1F
100
AcDbEntity
  8
0
  6
Continuous
 62
     7
370
    25
100
AcDbLine
 10
14.8395184915
 20
18.6686736684
 30
0.0
 11
19.7921607482
 21
18.6686736684
 31
0.0
  0
LINE
  5
CD
330
1F
100
AcDbEntity
  8
0
  6
Continuous
 62
     7
370
    25
100
AcDbLine
 10
19.7958518033
 20
18.7743716583
 30
0.0
 11
14.8358274364
 21
18.7743716583
 31
0.0
  0
LINE
  5
CE
330
1F
100
AcDbEntity
  8
0
  6
Continuous
 62
     7
370
    25
100
AcDbLine
 10
14.8395184915
 20
18.6686736684
 30
0.0
 11
14.8395184915
 21
18.6493716583
 31
0.0
  0
ARC
  5
CF
330
1F
100
AcDbEntity
  8
0
  6
Continuous
 62
     7
370
    25
100
AcDbCircle
 10
14.8395184915
 20
18.6693716583
 30
0.0
 40
0.0199999999999996
100
AcDbArc
 50
182.0
 51
270.0
  0
LINE
  5
D0
330
1F
100
AcDbEntity
  8
0
  6
Continuous
 62
     7
370
    25
100
AcDbLine
 10
19.7921607482
 20
18.6493716583
 30
0.0
 11
19.7921607482
 21
18.6686736684
 31
0.0
  0
ARC
  5
D1
330
1F
100
AcDbEntity
  8
0
  6
Continuous
 62
     7
370
    25
100
AcDbCircle
 10
19.7921607482
 20
18.6693716583
 30
0.0
 40
0.0200000000000005
100
AcDbArc
 50
270.0
 51
358.0
  0
LINE
  5
D2
330
1F
100
AcDbEntity
  8
0
  6
Continuous
 62
     7
370
    25
100
AcDbLine
 10
19.7921607482
 20
18.6493716583
 30
0.0
 11
14.8395184915
 21
18.6493716583
 31
0.0
  0
LINE
  5
D3
330
1F
100
AcDbEntity
  8
0
  6
Continuous
 62
     7
370
    25
100
AcDbLine
 10
19.7960133956
 20
26.9941978825
 30
0.0
 11
19.7960133956
 21
27.8572828885
 31
0.0
  0
LINE
  5
D4
330
1F
100
AcDbEntity
  8
0
  6
Continuous
 62
     7
370
    25
100
AcDbLine
 10
19.4806444849
 20
26.9941978825
 30
0.0
 11
19.7960133956
 21
26.9941978825
 31
0.0
  0
LINE
  5
D5
330
1F
100
AcDbEntity
  8
0
  6
Continuous
 62
     7
370
    25
100
AcDbLine
 10
14.8356658441
 20
26.9941978825
 30
0.0
 11
15.1510347548
 21
26.9941978825
 31
0.0
  0
LINE
  5
D6
330
1F
100
AcDbEntity
  8
0
  6
Continuous
 62
     7
370
    25
100
AcDbLine
 10
14.8356658441
 20
27.8572828885
 30
0.0
 11
14.8356658441
 21
26.9941978825
 31
0.0
  0
POINT
  5
D7
330
1F
100
AcDbEntity
  8
VP
100
AcDbPoint
 10
17.3158396199
 20
21.4887813566
 30
0.0
  0
DIMENSION
  5
D8
330
1F
100
AcDbEntity
  8
0
  6
Continuous
 62
     7
370
    18
100
AcDbDimension
  2
_D
 10
6.4071208336
 20
18.6686736684
 30
0.0
 11
6.4071208336
 21
24.7290226633
 31
0.0
 70
   160
  1
Specify Projection Length\P12" - 30"\P[305mm - 762mm]
 71
     2
 42
-1.0
  3
SLDDIMSTYLE0
100
AcDbAlignedDimension
 13
17.3158396199
 23
30.7893716583
 33
0.0
 14
14.8395184915
 24
18.6686736684
 34
0.0
 50
90.0
100
AcDbRotatedDimension
  0
DIMENSION
  5
E7
330
1F
100
AcDbEntity
  8
0
  6
Continuous
 62
     7
370
    18
100
AcDbDimension
  2
_D_1
 10
19.8158396199
 20
17.0745685087
 30
0.0
 11
17.3158396199
 21
17.0745685087
 31
0.0
 70
   160
  1
<>
 71
     2
 42
-1.0
  3
SLDDIMSTYLE1
100
AcDbAlignedDimension
 13
14.8158396199
 23
18.7743716583
 33
0.0
 14
19.8158396199
 24
18.7743716583
 34
0.0
100
AcDbRotatedDimension
  0
LINE
  5
FC
330
1F
100
AcDbEntity
  8
0
  6
Continuous
 62
     7
370
    25
100
AcDbLine
 10
31.6816329466
 20
29.4480070332
 30
0.0
 11
31.4164679036
 21
29.2949305122
 31
0.0
  0
LINE
  5
FD
330
1F
100
AcDbEntity
  8
0
  6
Continuous
 62
     7
370
    25
100
AcDbLine
 10
33.9312635162
 20
24.9387047344
 30
0.0
 11
34.1964285592
 21
25.0917812554
 31
0.0
  0
ARC
  5
FE
330
1F
100
AcDbEntity
  8
0
  6
Continuous
 62
     7
370
    25
100
AcDbCircle
 10
32.6827045447
 20
27.121920174
 30
0.0
 40
1.012500000000004
100
AcDbArc
 50
120.8636979963
 51
180.0
  0
ARC
  5
FF
330
1F
100
AcDbEntity
  8
0
  6
Continuous
 62
     7
370
    25
100
AcDbCircle
 10
32.6827045447
 20
27.121920174
 30
0.0
 40
1.0125
100
AcDbArc
 50
298.4376832933
 51
299.130925471
  0
ARC
  5
100
330
1F
100
AcDbEntity
  8
0
  6
Continuous
 62
     7
370
    25
100
AcDbCircle
 10
32.6827045447
 20
27.121920174
 30
0.0
 40
1.012500000000003
100
AcDbArc
 50
180.0
 51
229.1105837065
  0
LINE
  5
101
330
1F
100
AcDbEntity
  8
0
  6
Continuous
 62
     7
370
    25
100
AcDbLine
 10
33.7981707646
 20
30.6525382687
 30
0.0
 11
31.8262793624
 21
29.5141895927
 31
0.0
  0
SPLINE
  5
102
330
1F
100
AcDbEntity
  8
0
  6
Continuous
 62
     7
370
    25
100
AcDbSpline
210
0.0
220
0.0
230
1.0
 70
     8
 71
     3
 72
    90
 73
    86
 74
     0
 42
0.00000001
 43
0.00000001
 40
0.0
 40
0.0
 40
0.0
 40
0.0
 40
0.0064093412995199
 40
0.0185786595122377
 40
0.0307477059840921
 40
0.0429162979592108
 40
0.0550843651123155
 40
0.0672518543605599
 40
0.0794187275555288
 40
0.0915849594114231
 40
0.1037505356599249
 40
0.1159154514201272
 40
0.1280797097685803
 40
0.140243320492878
 40
0.1524062990114651
 40
0.1645686654426051
 40
0.1767304438060569
 40
0.188891661342033
 40
0.2010523479331801
 40
0.2132125356165831
 40
0.2253722581740604
 40
0.2375315507902536
 40
0.2496904497691648
 40
0.2618489923008308
 40
0.2740072162708818
 40
0.2861651601064772
 40
0.2983228626529789
 40
0.3104803630763115
 40
0.3226377007866053
 40
0.3347949153791137
 40
0.3469520465888739
 40
0.3591091342558477
 40
0.3712662182975847
 40
0.3834233310737671
 40
0.3955805068848557
 40
0.4077377857611012
 40
0.419895207729847
 40
0.4320528127867124
 40
0.4442106408590575
 40
0.4563687317583667
 40
0.4685271251182386
 40
0.4806858603142883
 40
0.4928449763619168
 40
0.5050045117873386
 40
0.5171645044666776
 40
0.5293249914272543
 40
0.5414860086043999
 40
0.5536475905461463
 40
0.5658097700573183
 40
0.5779725777732396
 40
0.5901360416521654
 40
0.6023001863743358
 40
0.6144650326340889
 40
0.6266305963103178
 40
0.6387968874992437
 40
0.6509639093924776
 40
0.6631316569827465
 40
0.6753001155793592
 40
0.6874692591163396
 40
0.6996390482378326
 40
0.7118094281490146
 40
0.7239803262260449
 40
0.7361516493873533
 40
0.7483232812403141
 40
0.7604950790340672
 40
0.7726668127466318
 40
0.784838259246883
 40
0.7970091649243687
 40
0.809179236325201
 40
0.821348137807079
 40
0.8335154899934343
 40
0.8456808693749923
 40
0.8578438094657631
 40
0.8700038039678686
 40
0.8821603124252229
 40
0.8943127688366098
 40
0.9064605936389225
 40
0.9186032093455531
 40
0.9307400599206959
 40
0.9428706336812299
 40
0.9549944891490626
 40
0.9671112828483075
 40
0.9792207975919722
 40
0.9913229693878193
 40
1.0
 40
1.0
 40
1.0
 40
1.0
 10
36.81995665620051
 20
27.47392523626092
 30
0.0
 10
36.81992158013914
 20
27.48350383504456
 30
0.0
 10
36.81981990569699
 20
27.51126917271175
 30
0.0
 10
36.81869096617579
 20
27.55775334896331
 30
0.0
 10
36.81615909205069
 20
27.61356041919865
 30
0.0
 10
36.8123574115203
 20
27.6699892114438
 30
0.0
 10
36.80731081476527
 20
27.72698729993929
 30
0.0
 10
36.80101761122128
 20
27.78451785728069
 30
0.0
 10
36.79348431002835
 20
27.84253948762515
 30
0.0
 10
36.78471629593788
 20
27.90101161971279
 30
0.0
 10
36.77472032080026
 20
27.95989309050102
 30
0.0
 10
36.76350382938399
 20
28.01914255421912
 30
0.0
 10
36.75107513328996
 20
28.07871840330279
 30
0.0
 10
36.73744335741531
 20
28.13857882103576
 30
0.0
 10
36.72261844701474
 20
28.19868179977569
 30
0.0
 10
36.7066111580825
 20
28.25898516920864
 30
0.0
 10
36.6894330516766
 20
28.31944662265255
 30
0.0
 10
36.67109648659343
 20
28.38002374454431
 30
0.0
 10
36.65161461183783
 20
28.44067403819379
 30
0.0
 10
36.63100135846106
 20
28.50135495397442
 30
0.0
 10
36.60927143085048
 20
28.56202391783014
 30
0.0
 10
36.58644029742721
 20
28.62263836005847
 30
0.0
 10
36.5625241807492
 20
28.68315574431094
 30
0.0
 10
36.53754004701277
 20
28.74353359675979
 30
0.0
 10
36.51150559495175
 20
28.80372953538114
 30
0.0
 10
36.48443924413637
 20
28.86370129930717
 30
0.0
 10
36.45636012267681
 20
28.92340677820217
 30
0.0
 10
36.42728805433872
 20
28.98280404161956
 30
0.0
 10
36.39724354507996
 20
29.04185136829835
 30
0.0
 10
36.36624776901948
 20
29.1005072753599
 30
0.0
 10
36.33432255385097
 20
29.15873054736684
 30
0.0
 10
36.30149036571509
 20
29.21648026520707
 30
0.0
 10
36.26777430058203
 20
29.27371582282263
 30
0.0
 10
36.23319806726966
 20
29.33039695923464
 30
0.0
 10
36.19778596588252
 20
29.38648379611651
 30
0.0
 10
36.16156286274447
 20
29.44193687719349
 30
0.0
 10
36.12455417381677
 20
29.49671719227818
 30
0.0
 10
36.08678585207508
 20
29.55078619552268
 30
0.0
 10
36.04828436905998
 20
29.60410583213949
 30
0.0
 10
36.00907669603647
 20
29.65663856468844
 30
0.0
 10
35.96919028478841
 20
29.70834739889814
 30
0.0
 10
35.92865304807533
 20
29.75919590899168
 30
0.0
 10
35.88749333978156
 20
29.80914826248663
 30
0.0
 10
35.84573993479
 20
29.85816924444011
 30
0.0
 10
35.8034220086161
 20
29.90622428111011
 30
0.0
 10
35.76056911684088
 20
29.95327946300569
 30
0.0
 10
35.71721117438575
 20
29.9993015672994
 30
0.0
 10
35.67337843467599
 20
30.04425807957761
 30
0.0
 10
35.62910146874509
 20
30.0881172149063
 30
0.0
 10
35.5844111443368
 20
30.13084793819329
 30
0.0
 10
35.53933860506825
 20
30.17241998383193
 30
0.0
 10
35.49391524972329
 20
30.21280387461627
 30
0.0
 10
35.44817271175227
 20
30.25197093992492
 30
0.0
 10
35.40214283906094
 20
30.28989333317918
 30
0.0
 10
35.35585767417829
 20
30.32654404859152
 30
0.0
 10
35.30934943489935
 20
30.36189693723442
 30
0.0
 10
35.26265049550445
 20
30.39592672247529
 30
0.0
 10
35.21579336866025
 20
30.42860901484346
 30
0.0
 10
35.16881068810909
 20
30.45992032641838
 30
0.0
 10
35.12173519225037
 20
30.48983808485635
 30
0.0
 10
35.07459970870989
 20
30.51834064720477
 30
0.0
 10
35.0274371399776
 20
30.54540731368937
 30
0.0
 10
34.98028045016802
 20
30.5710183416994
 30
0.0
 10
34.93316265292484
 20
30.59515496023666
 30
0.0
 10
34.88611687479128
 20
30.61779934934675
 30
0.0
 10
34.83917629332072
 20
30.63893469254169
 30
0.0
 10
34.79237411971194
 20
30.65854520210069
 30
0.0
 10
34.74574351686012
 20
30.67661616650348
 30
0.0
 10
34.69931764239175
 20
30.6931339465923
 30
0.0
 10
34.65312964653429
 20
30.70808599735658
 30
0.0
 10
34.60721265982497
 20
30.72146089631696
 30
0.0
 10
34.56159977794259
 20
30.73324837487944
 30
0.0
 10
34.51632404261526
 20
30.74343935210804
 30
0.0
 10
34.47141841668916
 20
30.75202597174101
 30
0.0
 10
34.42691575420068
 20
30.75900163654729
 30
0.0
 10
34.38284875594286
 20
30.76436105727079
 30
0.0
 10
34.33924994017755
 20
30.76810024479685
 30
0.0
 10
34.29615151342877
 20
30.77021670231795
 30
0.0
 10
34.25358556836704
 20
30.77070884810747
 30
0.0
 10
34.21158301750232
 20
30.76957827070082
 30
0.0
 10
34.17017720251376
 20
30.76682137020182
 30
0.0
 10
34.1293900402543
 20
30.76246051310901
 30
0.0
 10
34.0892832744387
 20
30.75642777141697
 30
0.0
 10
34.05348704497839
 20
30.74969766633528
 30
0.0
 10
34.03138189336789
 20
30.74426577260011
 30
0.0
 10
34.02215116961609
 20
30.74199750901151
 30
0.0
  0
LINE
  5
103
330
1F
100
AcDbEntity
  8
0
  6
Continuous
 62
     7
370
    25
100
AcDbLine
 10
34.4662992963
 20
25.3361414239
 30
0.0
 11
34.7069222092
 21
25.197232773
 31
0.0
  0
LINE
  5
104
330
1F
100
AcDbEntity
  8
0
  6
Continuous
 62
     7
370
    25
100
AcDbLine
 10
36.8199566562
 20
26.4170634711
 30
0.0
 11
36.8199566562
 21
27.4739252363
 31
0.0
  0
LINE
  5
105
330
1F
100
AcDbEntity
  8
0
  6
Continuous
 62
     7
370
    25
100
AcDbLine
 10
31.5352282421
 20
27.6509258671
 30
0.0
 11
31.538763776
 21
27.6529668874
 31
0.0
  0
LINE
  5
106
330
1F
100
AcDbEntity
  8
0
  6
Continuous
 62
     7
370
    25
100
AcDbLine
 10
31.3332804764
 20
28.0089129699
 30
0.0
 11
31.3297449425
 21
28.0068719496
 31
0.0
  0
LINE
  5
107
330
1F
100
AcDbEntity
  8
0
  6
Continuous
 62
     7
370
    25
100
AcDbLine
 10
31.5802269362
 20
27.7270320784
 30
0.0
 11
31.5802827896
 21
27.7275196881
 31
0.0
  0
LINE
  5
108
330
1F
100
AcDbEntity
  8
0
  6
Continuous
 62
     7
370
    25
100
AcDbLine
 10
31.4186044783
 20
28.0075850834
 30
0.0
 11
31.4181542876
 21
28.0077805601
 31
0.0
  0
LINE
  5
109
330
1F
100
AcDbEntity
  8
0
  6
Continuous
 62
     7
370
    25
100
AcDbLine
 10
34.0101019762
 20
26.2222116715
 30
0.0
 11
34.0136375101
 21
26.2242526917
 31
0.0
  0
LINE
  5
10A
330
1F
100
AcDbEntity
  8
0
  6
Continuous
 62
     7
370
    25
100
AcDbLine
 10
33.8081542106
 20
26.5801987742
 30
0.0
 11
33.8046186767
 21
26.5781577539
 31
0.0
  0
LINE
  5
10B
330
1F
100
AcDbEntity
  8
0
  6
Continuous
 62
     7
370
    25
100
AcDbLine
 10
34.0551006704
 20
26.2983178827
 30
0.0
 11
34.0551565238
 21
26.2988054924
 31
0.0
  0
LINE
  5
10C
330
1F
100
AcDbEntity
  8
0
  6
Continuous
 62
     7
370
    25
100
AcDbLine
 10
33.8934782124
 20
26.5788708877
 30
0.0
 11
33.8930280217
 21
26.5790663644
 31
0.0
  0
ARC
  5
10D
330
1F
100
AcDbEntity
  8
0
  6
Continuous
 62
     7
370
    25
100
AcDbCircle
 10
33.0029068839
 20
20.3661721488
 30
0.0
 40
0.2115512936548027
100
AcDbArc
 50
159.6984043567
 51
260.2962191106
  0
LINE
  5
10E
330
1F
100
AcDbEntity
  8
0
  6
Continuous
 62
     7
370
    25
100
AcDbLine
 10
33.0151312829
 20
20.1648113425
 30
0.0
 11
33.0292734185
 21
20.1729754236
 31
0.0
  0
LINE
  5
10F
330
1F
100
AcDbEntity
  8
0
  6
Continuous
 62
     7
370
    25
100
AcDbLine
 10
32.8487880873
 20
20.4856190629
 30
0.0
 11
32.8346459516
 21
20.4774549818
 31
0.0
  0
ARC
  5
110
330
1F
100
AcDbEntity
  8
0
  6
Continuous
 62
     7
370
    25
100
AcDbCircle
 10
35.7035817467
 20
19.9579680929
 30
0.0
 40
0.2115512936548029
100
AcDbArc
 50
279.7037808894
 51
344.4472230249
  0
ARC
  5
111
330
1F
100
AcDbEntity
  8
0
  6
Continuous
 62
     7
370
    25
100
AcDbCircle
 10
35.7035817467
 20
19.9579680929
 30
0.0
 40
0.2115512936547971
100
AcDbArc
 50
344.4472230249
 51
20.3015956433
  0
LINE
  5
112
330
1F
100
AcDbEntity
  8
0
  6
Continuous
 62
     7
370
    25
100
AcDbLine
 10
35.8718426789
 20
20.0692509259
 30
0.0
 11
35.8577005433
 21
20.077415007
 31
0.0
  0
LINE
  5
113
330
1F
100
AcDbEntity
  8
0
  6
Continuous
 62
     7
370
    25
100
AcDbLine
 10
35.677215212
 20
19.7647713677
 30
0.0
 11
35.6913573476
 21
19.7566072866
 31
0.0
  0
ARC
  5
114
330
1F
100
AcDbEntity
  8
0
  6
Continuous
 62
     7
370
    25
100
AcDbCircle
 10
34.7067977059
 20
18.4258411293
 30
0.0
 40
0.0200000000000025
100
AcDbArc
 50
240.0026882663
 51
299.9973117336
  0
LINE
  5
115
330
1F
100
AcDbEntity
  8
0
  6
Continuous
 62
     7
370
    25
100
AcDbLine
 10
31.1947515941
 20
20.4302088087
 30
0.0
 11
34.6967985185
 21
18.408520152
 31
0.0
  0
LINE
  5
116
330
1F
100
AcDbEntity
  8
0
  6
Continuous
 62
     7
370
    25
100
AcDbLine
 10
34.7167968932
 20
18.408520152
 30
0.0
 11
36.8046302553
 21
19.6138006968
 31
0.0
  0
LINE
  5
117
330
1F
100
AcDbEntity
  8
0
  6
Continuous
 62
     7
370
    25
100
AcDbLine
 10
36.8145945881
 20
19.629914255
 30
0.0
 11
36.819554072
 21
19.7119145804
 31
0.0
  0
ARC
  5
118
330
1F
100
AcDbEntity
  8
0
  6
Continuous
 62
     7
370
    25
100
AcDbCircle
 10
36.7946310679
 20
19.6311216741
 30
0.0
 40
0.0200000000000025
100
AcDbArc
 50
299.9973117337
 51
356.5388945674
  0
LINE
  5
119
330
1F
100
AcDbEntity
  8
0
  6
Continuous
 62
     7
370
    25
100
AcDbLine
 10
31.1798277773
 20
20.5283226922
 30
0.0
 11
31.1847872612
 21
20.4463223668
 31
0.0
  0
ARC
  5
11A
330
1F
100
AcDbEntity
  8
0
  6
Continuous
 62
     7
370
    25
100
AcDbCircle
 10
31.2047507814
 20
20.4475297859
 30
0.0
 40
0.0200000000000007
100
AcDbArc
 50
183.4611054326
 51
240.0026882663
  0
LWPOLYLINE
  5
11B
330
1F
100
AcDbEntity
  8
0
  6
Continuous
 62
     7
370
    25
100
AcDbPolyline
 90
      114
 70
   128
 43
0.0
 10
34.1964285592
 20
25.0917812554
 10
34.2268788403
 20
25.1102324755
 10
34.2606198578
 20
25.1328302854
 10
34.2933303399
 20
25.1570945134
 10
34.3249847799
 20
25.1830062391
 10
34.3555584946
 20
25.2105452571
 10
34.3850276436
 20
25.2396900934
 10
34.4133692478
 20
25.2704180218
 10
34.4405612071
 20
25.3027050816
 10
34.4665823181
 20
25.3365260961
 10
34.4914122904
 20
25.371854693
 10
34.5150317623
 20
25.4086633239
 10
34.5374223159
 20
25.4469232866
 10
34.5585664919
 20
25.4866047471
 10
34.5784478027
 20
25.5276767631
 10
34.5970507454
 20
25.5701073078
 10
34.6143608139
 20
25.6138632951
 10
34.6303645105
 20
25.6589106055
 10
34.6450493558
 20
25.7052141124
 10
34.6584038992
 20
25.7527377097
 10
34.6704177272
 20
25.8014443399
 10
34.6810814716
 20
25.8512960231
 10
34.6903868173
 20
25.9022538865
 10
34.6983265082
 20
25.9542781946
 10
34.7048943532
 20
26.0073283805
 10
34.7100852309
 20
26.0613630771
 10
34.7138950936
 20
26.11634015
 10
34.7163209704
 20
26.1722167295
 10
34.7173609699
 20
26.2289492449
 10
34.7170142809
 20
26.2864934577
 10
34.7152811738
 20
26.3448044969
 10
34.7121630001
 20
26.4038368931
 10
34.7076621912
 20
26.4635446148
 10
34.7017822567
 20
26.5238811035
 10
34.6945277816
 20
26.5847993108
 10
34.6859044227
 20
26.6462517344
 10
34.6759189043
 20
26.7081904556
 10
34.6645790127
 20
26.7705671764
 10
34.6518935905
 20
26.8333332574
 10
34.6378725294
 20
26.8964397554
 10
34.6225267626
 20
26.959837462
 10
34.6058682563
 20
27.0234769414
 10
34.5879100002
 20
27.0873085695
 10
34.5686659976
 20
27.1512825724
 10
34.5481512546
 20
27.215349065
 10
34.5263817677
 20
27.2794580902
 10
34.5033745123
 20
27.3435596577
 10
34.4791474287
 20
27.4076037831
 10
34.4537194084
 20
27.4715405267
 10
34.4271102794
 20
27.5353200325
 10
34.3993407909
 20
27.5988925671
 10
34.3704325964
 20
27.6622085587
 10
34.3404082379
 20
27.7252186353
 10
34.3092911274
 20
27.7878736635
 10
34.277105529
 20
27.8501247869
 10
34.2438765402
 20
27.9119234639
 10
34.2096300719
 20
27.9732215058
 10
34.1743928284
 20
28.0339711141
 10
34.1381922868
 20
28.0941249182
 10
34.1010566751
 20
28.153636012
 10
34.0630149505
 20
28.2124579904
 10
34.0240967769
 20
28.2705449858
 10
33.9843325014
 20
28.3278517039
 10
33.943753131
 20
28.3843334585
 10
33.9023903084
 20
28.4399462068
 10
33.860276287
 20
28.4946465837
 10
33.817443906
 20
28.5483919355
 10
33.7739265648
 20
28.6011403532
 10
33.729758197
 20
28.6528507051
 10
33.6849732438
 20
28.7034826691
 10
33.639606627
 20
28.7529967639
 10
33.5936937222
 20
28.8013543799
 10
33.5472703309
 20
28.8485178093
 10
33.5003726528
 20
28.8944502754
 10
33.453037257
 20
28.9391159615
 10
33.4053010545
 20
28.9824800386
 10
33.3572012684
 20
29.0245086928
 10
33.3087754055
 20
29.0651691514
 10
33.2600612269
 20
29.1044297084
 10
33.2110967184
 20
29.1422597499
 10
33.161920061
 20
29.178629777
 10
33.1125696012
 20
29.2135114294
 10
33.0630838211
 20
29.2468775075
 10
33.0135013081
 20
29.2787019935
 10
32.9638607252
 20
29.3089600716
 10
32.9142007806
 20
29.3376281474
 10
32.8645601977
 20
29.3646838664
 10
32.8149776847
 20
29.3901061314
 10
32.7654919046
 20
29.4138751188
 10
32.7161414448
 20
29.4359722944
 10
32.6669647874
 20
29.4563804274
 10
32.6180002789
 20
29.4750836042
 10
32.5692861002
 20
29.4920672405
 10
32.5208602373
 20
29.5073180932
 10
32.4727604513
 20
29.5208242699
 10
32.4250242487
 20
29.532575239
 10
32.377688853
 20
29.5425618375
 10
32.3307911748
 20
29.5507762781
 10
32.2843677836
 20
29.5572121554
 10
32.2384548788
 20
29.5618644509
 10
32.193088262
 20
29.5647295369
 10
32.1483033087
 20
29.5658051793
 10
32.1041349409
 20
29.5650905394
 10
32.0606175998
 20
29.5625861743
 10
32.0177852188
 20
29.558294037
 10
31.9756711974
 20
29.5522174742
 10
31.9343083747
 20
29.5443612244
 10
31.8937290044
 20
29.5347314136
 10
31.8539647289
 20
29.5233355508
 10
31.8150465552
 20
29.5101825221
 10
31.7770048307
 20
29.495282584
 10
31.7398692189
 20
29.4786473549
 10
31.7036686773
 20
29.4602898065
 10
31.6816329466
 20
29.4480070332
  0
LWPOLYLINE
  5
11C
330
1F
100
AcDbEntity
  8
0
  6
Continuous
 62
     7
370
    25
100
AcDbPolyline
 90
      226
 70
   128
 43
0.0
 10
32.6738657099
 20
25.0632174814
 10
32.7235208138
 20
25.0353528679
 10
32.7731371982
 20
25.009111318
 10
32.8226761736
 20
24.984513294
 10
32.8720991111
 20
24.9615779769
 10
32.9213674722
 20
24.9403232508
 10
32.9704428388
 20
24.9207656895
 10
33.0192869436
 20
24.9029205434
 10
33.0678616992
 20
24.8868017277
 10
33.1161292286
 20
24.8724218114
 10
33.1640518942
 20
24.8597920073
 10
33.2115923274
 20
24.848922164
 10
33.2587134575
 20
24.8398207573
 10
33.305378541
 20
24.8324948842
 10
33.3515511897
 20
24.8269502574
 10
33.3971953997
 20
24.8231912002
 10
33.442275579
 20
24.8212206439
 10
33.4867565753
 20
24.8210401251
 10
33.5306037038
 20
24.8226497845
 10
33.5737827738
 20
24.826048367
 10
33.6162601156
 20
24.8312332224
 10
33.6580026065
 20
24.8382003078
 10
33.6989776971
 20
24.8469441905
 10
33.7391534362
 20
24.8574580521
 10
33.7784984959
 20
24.8697336944
 10
33.8169821963
 20
24.8837615452
 10
33.8545745288
 20
24.8995306659
 10
33.8912461801
 20
24.9170287603
 10
33.9269685547
 20
24.9362421838
 10
33.9617137974
 20
24.9571559545
 10
33.9954548149
 20
24.9797537645
 10
34.0281652969
 20
25.0040179925
 10
34.0598197369
 20
25.0299297181
 10
34.0903934517
 20
25.0574687361
 10
34.1198626007
 20
25.0866135725
 10
34.1482042048
 20
25.1173415009
 10
34.1753961641
 20
25.1496285606
 10
34.2014172752
 20
25.1834495752
 10
34.2262472475
 20
25.218778172
 10
34.2498667193
 20
25.2555868029
 10
34.272257273
 20
25.2938467656
 10
34.293401449
 20
25.3335282262
 10
34.3132827598
 20
25.3746002422
 10
34.3318857024
 20
25.4170307868
 10
34.349195771
 20
25.4607867742
 10
34.3651994675
 20
25.5058340845
 10
34.3798843129
 20
25.5521375914
 10
34.3932388563
 20
25.5996611887
 10
34.4052526842
 20
25.6483678189
 10
34.4159164286
 20
25.6982195022
 10
34.4252217743
 20
25.7491773656
 10
34.4331614653
 20
25.8012016737
 10
34.4397293103
 20
25.8542518595
 10
34.444920188
 20
25.9082865562
 10
34.4487300506
 20
25.963263629
 10
34.4511559275
 20
26.0191402085
 10
34.4521959269
 20
26.0758727239
 10
34.4518492379
 20
26.1334169368
 10
34.4501161308
 20
26.1917279759
 10
34.4469979571
 20
26.2507603722
 10
34.4424971482
 20
26.3104680938
 10
34.4366172137
 20
26.3708045825
 10
34.4293627386
 20
26.4317227898
 10
34.4207393797
 20
26.4931752134
 10
34.4107538613
 20
26.5551139346
 10
34.3994139698
 20
26.6174906554
 10
34.3867285476
 20
26.6802567364
 10
34.3727074865
 20
26.7433632345
 10
34.3573617197
 20
26.806760941
 10
34.3407032133
 20
26.8704004204
 10
34.3227449572
 20
26.9342320485
 10
34.3035009547
 20
26.9982060514
 10
34.2829862116
 20
27.062272544
 10
34.2612167248
 20
27.1263815692
 10
34.2382094693
 20
27.1904831368
 10
34.2139823857
 20
27.2545272622
 10
34.1885543654
 20
27.3184640057
 10
34.1619452365
 20
27.3822435115
 10
34.1341757479
 20
27.4458160461
 10
34.1052675535
 20
27.5091320377
 10
34.075243195
 20
27.5721421143
 10
34.0441260844
 20
27.6347971426
 10
34.0119404861
 20
27.697048266
 10
33.9787114973
 20
27.758846943
 10
33.9444650289
 20
27.8201449848
 10
33.9092277855
 20
27.8808945932
 10
33.8730272439
 20
27.9410483973
 10
33.8358916322
 20
28.000559491
 10
33.7978499076
 20
28.0593814694
 10
33.7589317339
 20
28.1174684649
 10
33.7191674584
 20
28.1747751829
 10
33.6785880881
 20
28.2312569375
 10
33.6372252655
 20
28.2868696858
 10
33.595111244
 20
28.3415700627
 10
33.552278863
 20
28.3953154145
 10
33.5087615219
 20
28.4480638322
 10
33.4645931541
 20
28.4997741841
 10
33.4198082008
 20
28.5504061481
 10
33.374441584
 20
28.5999202429
 10
33.3285286793
 20
28.6482778589
 10
33.282105288
 20
28.6954412883
 10
33.2352076098
 20
28.7413737544
 10
33.1878722141
 20
28.7860394405
 10
33.1401360116
 20
28.8294035177
 10
33.0920362255
 20
28.8714321718
 10
33.0436103626
 20
28.9120926304
 10
32.994896184
 20
28.9513531875
 10
32.9459316754
 20
28.9891832289
 10
32.896755018
 20
29.025553256
 10
32.8474045583
 20
29.0604349084
 10
32.7979187781
 20
29.0938009866
 10
32.7483362651
 20
29.1256254726
 10
32.6986956822
 20
29.1558835506
 10
32.6490357377
 20
29.1845516264
 10
32.5993951548
 20
29.2116073454
 10
32.5498126418
 20
29.2370296104
 10
32.5003268616
 20
29.2607985978
 10
32.4509764018
 20
29.2828957734
 10
32.4017997445
 20
29.3033039064
 10
32.3528352359
 20
29.3220070832
 10
32.3041210573
 20
29.3389907196
 10
32.2556951944
 20
29.3542415722
 10
32.2075954083
 20
29.3677477489
 10
32.1598592058
 20
29.3794987181
 10
32.1125238101
 20
29.3894853165
 10
32.0656261319
 20
29.3976997571
 10
32.0192027406
 20
29.4041356344
 10
31.9732898358
 20
29.4087879299
 10
31.9279232191
 20
29.4116530159
 10
31.8831382658
 20
29.4127286584
 10
31.838969898
 20
29.4120140184
 10
31.7954525569
 20
29.4095096533
 10
31.7526201759
 20
29.405217516
 10
31.7105061544
 20
29.3991409533
 10
31.6691433318
 20
29.3912847034
 10
31.6285639614
 20
29.3816548926
 10
31.5887996859
 20
29.3702590298
 10
31.5498815123
 20
29.3571060012
 10
31.5118397877
 20
29.342206063
 10
31.474704176
 20
29.325570834
 10
31.4385036344
 20
29.3072132856
 10
31.4032663909
 20
29.2871477325
 10
31.3690199226
 20
29.2653898213
 10
31.3357909338
 20
29.2419565182
 10
31.3036053355
 20
29.2168660957
 10
31.2724882249
 20
29.1901381185
 10
31.2424638664
 20
29.1617934284
 10
31.213555672
 20
29.1318541277
 10
31.1857861834
 20
29.1003435621
 10
31.1591770544
 20
29.0672863026
 10
31.1337490342
 20
29.0327081264
 10
31.1095219505
 20
28.9966359963
 10
31.0865146951
 20
28.9590980405
 10
31.0647452083
 20
28.9201235298
 10
31.0442304652
 20
28.8797428554
 10
31.0249864626
 20
28.8379875049
 10
31.0070282065
 20
28.7948900379
 10
30.9903697002
 20
28.7504840605
 10
30.9750239334
 20
28.7048041992
 10
30.9610028723
 20
28.6578860738
 10
30.9483174501
 20
28.6097662695
 10
30.9369775586
 20
28.5604823087
 10
30.9269920401
 20
28.5100726217
 10
30.9183686813
 20
28.4585765163
 10
30.9111142062
 20
28.4060341477
 10
30.9052342717
 20
28.3524864868
 10
30.9007334628
 20
28.2979752886
 10
30.897615289
 20
28.2425430591
 10
30.895882182
 20
28.1862330228
 10
30.895535493
 20
28.1290890885
 10
30.8965754924
 20
28.0711558153
 10
30.8990013692
 20
28.012478378
 10
30.9028112319
 20
27.9531025314
 10
30.9080021096
 20
27.8930745749
 10
30.9145699546
 20
27.8324413166
 10
30.9225096455
 20
27.7712500365
 10
30.9318149912
 20
27.7095484497
 10
30.9424787357
 20
27.6473846692
 10
30.9544925636
 20
27.5848071685
 10
30.967847107
 20
27.5218647436
 10
30.9825319523
 20
27.4586064751
 10
30.9985356489
 20
27.39508169
 10
31.0158457175
 20
27.3313399229
 10
31.0344486601
 20
27.2674308778
 10
31.0543299709
 20
27.2034043891
 10
31.0754741469
 20
27.1393103825
 10
31.0978647006
 20
27.0751988368
 10
31.1214841724
 20
27.0111197442
 10
31.1463141447
 20
26.9471230716
 10
31.1723352557
 20
26.8832587216
 10
31.1995272151
 20
26.819576494
 10
31.2278688192
 20
26.7561260459
 10
31.2573379682
 20
26.6929568544
 10
31.2879116829
 20
26.6301181767
 10
31.3195661229
 20
26.5676590126
 10
31.352276605
 20
26.5056280659
 10
31.3860176225
 20
26.4440737064
 10
31.4207628652
 20
26.3830439323
 10
31.4564852398
 20
26.3225863329
 10
31.4931568911
 20
26.2627480512
 10
31.5307492236
 20
26.2035757473
 10
31.5692329239
 20
26.1451155619
 10
31.6085779837
 20
26.0874130805
 10
31.6487537228
 20
26.0305132978
 10
31.6897288134
 20
25.9744605826
 10
31.7314713043
 20
25.919298643
 10
31.773948646
 20
25.8650704927
 10
31.817127716
 20
25.8118184172
 10
31.8609748446
 20
25.7595839408
 10
31.9054558409
 20
25.7084077944
 10
31.9505360202
 20
25.6583298836
 10
31.9961802302
 20
25.6093892576
 10
32.0423528789
 20
25.561624079
 10
32.0890179624
 20
25.5150715935
 10
32.1361390925
 20
25.4697681014
 10
32.1836795257
 20
25.425748929
 10
32.2316021913
 20
25.383048401
 10
32.2798697207
 20
25.3416998142
 10
32.3284444763
 20
25.3017354108
 10
32.377288581
 20
25.2631863539
 10
32.4263639477
 20
25.2260827029
 10
32.4756323087
 20
25.1904533902
 10
32.5250552462
 20
25.1563261983
 10
32.5745942217
 20
25.1237277387
 10
32.624210606
 20
25.0926834306
 10
32.6738657099
 20
25.0632174814
  0
LWPOLYLINE
  5
11D
330
1F
100
AcDbEntity
  8
0
  6
Continuous
 62
     7
370
    25
100
AcDbPolyline
 90
       73
 70
   128
 43
0.0
 10
33.1755965606
 20
26.2374917085
 10
33.185645726
 20
26.2433209874
 10
33.2072871768
 20
26.257534656
 10
33.2278844301
 20
26.2734304113
 10
33.2473971657
 20
26.2909771368
 10
33.2657871865
 20
26.3101404837
 10
33.2830184932
 20
26.3308829391
 10
33.2990573548
 20
26.3531638985
 10
33.3138723744
 20
26.3769397459
 10
33.3274345508
 20
26.402163939
 10
33.3397173356
 20
26.4287871003
 10
33.3506966845
 20
26.4567571136
 10
33.360351105
 20
26.4860192264
 10
33.3686616982
 20
26.5165161566
 10
33.3756121955
 20
26.5481882052
 10
33.3811889912
 20
26.5809733726
 10
33.3853811683
 20
26.6148074802
 10
33.3881805205
 20
26.6496242963
 10
33.3895815679
 20
26.6853556652
 10
33.3895815679
 20
26.7219316412
 10
33.3881805205
 20
26.759280625
 10
33.3853811683
 20
26.7973295043
 10
33.3811889912
 20
26.8360037966
 10
33.3756121955
 20
26.8752277952
 10
33.3686616982
 20
26.9149247172
 10
33.360351105
 20
26.955016854
 10
33.3506966845
 20
26.9954257234
 10
33.3397173356
 20
27.0360722232
 10
33.3274345508
 20
27.0768767859
 10
33.3138723744
 20
27.1177595347
 10
33.2990573548
 20
27.1586404396
 10
33.2830184932
 20
27.1994394744
 10
33.2657871865
 20
27.240076773
 10
33.2473971657
 20
27.2804727861
 10
33.2278844301
 20
27.3205484365
 10
33.2072871768
 20
27.3602252743
 10
33.185645726
 20
27.3994256301
 10
33.1630024418
 20
27.4380727676
 10
33.1394016494
 20
27.4760910329
 10
33.1148895486
 20
27.5134060038
 10
33.0895141229
 20
27.5499446342
 10
33.0633250459
 20
27.5856353982
 10
33.036373584
 20
27.6204084293
 10
33.0087124959
 20
27.6541956578
 10
32.9803959294
 20
27.6869309436
 10
32.9514793157
 20
27.7185502058
 10
32.9220192603
 20
27.7489915482
 10
32.8920734327
 20
27.7781953804
 10
32.8617004532
 20
27.8061045347
 10
32.8309597784
 20
27.8326643774
 10
32.7999115846
 20
27.8578229165
 10
32.7686166501
 20
27.8815309029
 10
32.7371362361
 20
27.9037419272
 10
32.7055319671
 20
27.9244125102
 10
32.6738657099
 20
27.9435021883
 10
32.6421994528
 20
27.9609735925
 10
32.6105951838
 20
27.9767925218
 10
32.5791147698
 20
27.9909280098
 10
32.5478198353
 20
28.0033523857
 10
32.5167716414
 20
28.0140413281
 10
32.4860309666
 20
28.0229739131
 10
32.4556579872
 20
28.0301326545
 10
32.4257121595
 20
28.0355035389
 10
32.3962521042
 20
28.0390760525
 10
32.3673354904
 20
28.0408432018
 10
32.339018924
 20
28.0408015277
 10
32.3113578359
 20
28.0389511118
 10
32.284406374
 20
28.0352955762
 10
32.258217297
 20
28.0298420769
 10
32.2328418713
 20
28.0226012893
 10
32.2083297705
 20
28.0135873877
 10
32.1847289781
 20
28.0028180172
 10
32.163294588
 20
27.9910401582
  0
ARC
  5
11E
330
1F
100
AcDbEntity
  8
0
  6
Continuous
 62
     7
370
    25
100
AcDbCircle
 10
31.2790006786
 20
27.7402933764
 30
0.0
 40
0.3015527773168937
100
AcDbArc
 50
357.5722409574
 51
62.4223825099
  0
ARC
  5
11F
330
1F
100
AcDbEntity
  8
0
  6
Continuous
 62
     7
370
    25
100
AcDbCircle
 10
33.7538744128
 20
26.3115791807
 30
0.0
 40
0.3015527773169111
100
AcDbArc
 50
357.5722409574
 51
62.4223825099
  0
LWPOLYLINE
  5
120
330
1F
100
AcDbEntity
  8
0
  6
Continuous
 62
     7
370
    25
100
AcDbPolyline
 90
       36
 70
   128
 43
0.0
 10
32.019920849
 20
26.3564960937
 10
32.0419341576
 20
26.3383935663
 10
32.066265168
 20
26.320332795
 10
32.0921221764
 20
26.3029930126
 10
32.1194411738
 20
26.2864171439
 10
32.1481545318
 20
26.2706462224
 10
32.1781911704
 20
26.2557192892
 10
32.2094767338
 20
26.2416732959
 10
32.2419337744
 20
26.2285430134
 10
32.2754819448
 20
26.2163609458
 10
32.3100381963
 20
26.2051572498
 10
32.3455169848
 20
26.1949596603
 10
32.3818304823
 20
26.1857934214
 10
32.4188887948
 20
26.1776812242
 10
32.4566001842
 20
26.1706431504
 10
32.4948712957
 20
26.1646966228
 10
32.5336073892
 20
26.1598563622
 10
32.5727125733
 20
26.1561343504
 10
32.6120900429
 20
26.1535398015
 10
32.651642319
 20
26.1520791383
 10
32.6912714898
 20
26.1517559765
 10
32.7308794531
 20
26.1525711163
 10
32.7703681591
 20
26.1545225396
 10
32.8096398536
 20
26.1576054158
 10
32.8485973192
 20
26.1618121132
 10
32.8871441167
 20
26.1671322181
 10
32.9251848231
 20
26.1735525606
 10
32.9626252688
 20
26.181057247
 10
32.9993727695
 20
26.1896276995
 10
33.0353363569
 20
26.1992427019
 10
33.0704270029
 20
26.2098784522
 10
33.1045578405
 20
26.2215086217
 10
33.1376443786
 20
26.2341044196
 10
33.1696047114
 20
26.2476346652
 10
33.2003597209
 20
26.2620658643
 10
33.2298332731
 20
26.2773622922
  0
ARC
  5
121
330
1F
100
AcDbEntity
  8
0
  6
Continuous
 62
     7
370
    25
100
AcDbCircle
 10
32.9948119073
 20
26.5447329177
 30
0.0
 40
0.3559804682432704
100
AcDbArc
 50
270.1680863009
 51
311.3157836008
  0
LINE
  5
122
330
1F
100
AcDbEntity
  8
0
  6
Continuous
 62
     7
370
    25
100
AcDbLine
 10
36.8281180494
 20
26.4124931168
 30
0.0
 11
36.8199566562
 21
26.4172045888
 31
0.0
  0
LINE
  5
123
330
1F
100
AcDbEntity
  8
0
  6
Continuous
 62
     7
370
    25
100
AcDbLine
 10
34.7067977059
 20
25.1878809491
 30
0.0
 11
36.8281180494
 21
26.4124931168
 31
0.0
  0
LINE
  5
124
330
1F
100
AcDbEntity
  8
0
  6
Continuous
 62
     7
370
    25
100
AcDbLine
 10
34.461401437
 20
25.3295451996
 30
0.0
 11
34.7067977059
 21
25.1878809491
 31
0.0
  0
LINE
  5
125
330
1F
100
AcDbEntity
  8
0
  6
Continuous
 62
     7
370
    25
100
AcDbLine
 10
31.1712637999
 20
26.8858293246
 30
0.0
 11
31.1712637999
 21
20.5332665712
 31
0.0
  0
LINE
  5
126
330
1F
100
AcDbEntity
  8
0
  6
Continuous
 62
     7
370
    25
100
AcDbLine
 10
34.7067977059
 20
25.1878809491
 30
0.0
 11
34.7067977059
 21
18.4922462916
 31
0.0
  0
LINE
  5
127
330
1F
100
AcDbEntity
  8
0
  6
Continuous
 62
     7
370
    25
100
AcDbLine
 10
31.1712637999
 20
20.5332665712
 30
0.0
 11
34.7067977059
 21
18.4922462916
 31
0.0
  0
LINE
  5
128
330
1F
100
AcDbEntity
  8
0
  6
Continuous
 62
     7
370
    25
100
AcDbLine
 10
36.8281180494
 20
26.4124931168
 30
0.0
 11
36.8281180494
 21
19.7168584593
 31
0.0
  0
LINE
  5
129
330
1F
100
AcDbEntity
  8
0
  6
Continuous
 62
     7
370
    25
100
AcDbLine
 10
34.7067977059
 20
18.4922462916
 30
0.0
 11
36.8281180494
 21
19.7168584593
 31
0.0
  0
LWPOLYLINE
  5
12A
330
1F
100
AcDbEntity
  8
0
  6
Continuous
 62
     7
370
    25
100
AcDbPolyline
 90
       62
 70
   128
 43
0.0
 10
34.7190796219
 20
26.2564742037
 10
34.7183842291
 20
26.3141279277
 10
34.7162985975
 20
26.3725391762
 10
34.7128243682
 20
26.4316619945
 10
34.7079642744
 20
26.4914498679
 10
34.7017221398
 20
26.5518557582
 10
34.6941028754
 20
26.6128321415
 10
34.6851124756
 20
26.6743310447
 10
34.6747580136
 20
26.7363040838
 10
34.6630476358
 20
26.7987025015
 10
34.6499905552
 20
26.8614772061
 10
34.6355970445
 20
26.9245788099
 10
34.6198784277
 20
26.9879576677
 10
34.6028470715
 20
27.0515639164
 10
34.5845163751
 20
27.1153475141
 10
34.5649007602
 20
27.179258279
 10
34.5440156593
 20
27.2432459297
 10
34.5218775038
 20
27.307260124
 10
34.4985037107
 20
27.3712504989
 10
34.4739126693
 20
27.4351667102
 10
34.4481237266
 20
27.4989584719
 10
34.421157172
 20
27.5625755961
 10
34.3930342212
 20
27.6259680321
 10
34.3637770001
 20
27.6890859062
 10
34.3334085265
 20
27.7518795606
 10
34.3019526928
 20
27.8142995924
 10
34.2694342468
 20
27.876296893
 10
34.2358787723
 20
27.9378226861
 10
34.201312669
 20
27.9988285664
 10
34.1657631316
 20
28.0592665378
 10
34.1292581287
 20
28.1190890508
 10
34.0918263804
 20
28.1782490403
 10
34.0534973362
 20
28.2366999623
 10
34.0143011512
 20
28.2943958307
 10
33.974268663
 20
28.3512912534
 10
33.9334313669
 20
28.4073414681
 10
33.8918213917
 20
28.4625023775
 10
33.8494714739
 20
28.5167305838
 10
33.8064149321
 20
28.5699834232
 10
33.762685641
 20
28.6222189992
 10
33.7183180044
 20
28.6733962155
 10
33.6733469285
 20
28.7234748086
 10
33.6278077941
 20
28.7724153794
 10
33.5817364291
 20
28.8201794239
 10
33.5351690799
 20
28.866729364
 10
33.4881423834
 20
28.9120285766
 10
33.4406933375
 20
28.9560414226
 10
33.3928592727
 20
28.9987332751
 10
33.3446778224
 20
29.0400705465
 10
33.2961868931
 20
29.0800207146
 10
33.2474246349
 20
29.1185523489
 10
33.1984294115
 20
29.1556351346
 10
33.1492397697
 20
29.191239897
 10
33.0998944093
 20
29.2253386241
 10
33.0504321526
 20
29.2579044889
 10
33.000891914
 20
29.2889118703
 10
32.951312669
 20
29.3183363732
 10
32.901733424
 20
29.3461548481
 10
32.8521931853
 20
29.3723454088
 10
32.8027309286
 20
29.39688745
 10
32.7533855682
 20
29.4197616633
 10
32.7182024313
 20
29.435081758
  0
LWPOLYLINE
  5
12B
330
1F
100
AcDbEntity
  8
0
  6
Continuous
 62
     7
370
    25
100
AcDbPolyline
 90
       85
 70
   128
 43
0.0
 10
33.7981707646
 20
30.6525382687
 10
33.8336187177
 20
30.6718729651
 10
33.8701237206
 20
30.6895476989
 10
33.9075554689
 20
30.7054899118
 10
33.9458845131
 20
30.7196870613
 10
33.9850806981
 20
30.7321279777
 10
34.0251131863
 20
30.7428028733
 10
34.0659504824
 20
30.7517033497
 10
34.1075604576
 20
30.7588224043
 10
34.1499103754
 20
30.7641544362
 10
34.1929669172
 20
30.7676952506
 10
34.2366962083
 20
30.7694420617
 10
34.2810638449
 20
30.7693934952
 10
34.3260349208
 20
30.7675495893
 10
34.3715740552
 20
30.7639117947
 10
34.4176454202
 20
30.7584829735
 10
34.4642127694
 20
30.7512673966
 10
34.511239466
 20
30.742270741
 10
34.5586885119
 20
30.7315000848
 10
34.6065225766
 20
30.7189639017
 10
34.654704027
 20
30.7046720546
 10
34.7031949563
 20
30.6886357874
 10
34.7519572144
 20
30.6708677168
 10
34.8009524378
 20
30.6513818217
 10
34.8501420796
 20
30.6301934326
 10
34.89948744
 20
30.6073192193
 10
34.9489496967
 20
30.5827771781
 10
34.9984899354
 20
30.5565866174
 10
35.0480691804
 20
30.5287681425
 10
35.0976484254
 20
30.4993436396
 10
35.147188664
 20
30.4683362582
 10
35.1966509207
 20
30.4357703934
 10
35.2459962811
 20
30.4016716662
 10
35.2951859229
 20
30.3660669038
 10
35.3441811463
 20
30.3289841181
 10
35.3929434045
 20
30.2904524839
 10
35.4414343338
 20
30.2505023157
 10
35.4896157841
 20
30.2091650444
 10
35.5374498489
 20
30.1664731919
 10
35.5848988948
 20
30.1224603458
 10
35.6319255913
 20
30.0771611332
 10
35.6784929405
 20
30.0306111932
 10
35.7245643055
 20
29.9828471486
 10
35.7701034399
 20
29.9339065779
 10
35.8150745158
 20
29.8838279847
 10
35.8594421524
 20
29.8326507684
 10
35.9031714435
 20
29.7804151925
 10
35.9462279853
 20
29.7271623531
 10
35.9885779031
 20
29.6729341467
 10
36.0301878783
 20
29.6177732374
 10
36.0710251744
 20
29.5617230226
 10
36.1110576626
 20
29.5048275999
 10
36.1502538476
 20
29.4471317316
 10
36.1885828918
 20
29.3886808096
 10
36.2260146401
 20
29.3295208201
 10
36.262519643
 20
29.2696983071
 10
36.2980691804
 20
29.2092603357
 10
36.3326352837
 20
29.1482544553
 10
36.3661907582
 20
29.0867286623
 10
36.3987092042
 20
29.0247313617
 10
36.4301650379
 20
28.9623113299
 10
36.4605335115
 20
28.8995176755
 10
36.4897907326
 20
28.8363998014
 10
36.5179136834
 20
28.7730073653
 10
36.544880238
 20
28.7093902411
 10
36.5706691807
 20
28.6455984794
 10
36.5952602221
 20
28.5816822682
 10
36.6186340152
 20
28.5176918933
 10
36.6407721707
 20
28.453677699
 10
36.6616572716
 20
28.3896900483
 10
36.6812728865
 20
28.3257792833
 10
36.6996035829
 20
28.2619956857
 10
36.7166349391
 20
28.1983894369
 10
36.7323535559
 20
28.1350105791
 10
36.7467470666
 20
28.0719089754
 10
36.7598041472
 20
28.0091342708
 10
36.771514525
 20
27.946735853
 10
36.781868987
 20
27.884762814
 10
36.7908593868
 20
27.8232639108
 10
36.7984786512
 20
27.7622875275
 10
36.8047207858
 20
27.7018816371
 10
36.8095808796
 20
27.6420937638
 10
36.8130551089
 20
27.5829709455
 10
36.8151407404
 20
27.5245596969
 10
36.8158361333
 20
27.466905973
  0
LINE
  5
12C
330
1F
100
AcDbEntity
  8
0
  6
Continuous
 62
     7
370
    25
100
AcDbLine
 10
36.8158361333
 20
27.466905973
 30
0.0
 11
34.7190796219
 21
26.2564742037
 31
0.0
  0
ELLIPSE
  5
12D
330
1F
100
AcDbEntity
  8
0
  6
Continuous
 62
     7
370
    25
100
AcDbEllipse
 10
34.7069205839
 20
25.2203270965
 30
0.0
 11
-0.01414271023574543
 21
0.02449456561252106
 31
0.0
210
0.0
220
0.0
230
1.0
 40
0.5773346305
 41
1.570755694764059
 42
3.009632340307708
  0
LINE
  5
12E
330
1F
100
AcDbEntity
  8
0
  6
Continuous
 62
     7
370
    25
100
AcDbLine
 10
34.7190796219
 20
25.1949711483
 30
0.0
 11
34.7190796219
 21
26.2564742037
 31
0.0
  0
LINE
  5
12F
330
1F
100
AcDbEntity
  8
0
  6
Continuous
 62
     7
370
    25
100
AcDbLine
 10
36.8158361333
 20
27.466905973
 30
0.0
 11
36.8158361333
 21
26.4054029176
 31
0.0
  0
ARC
  5
130
330
1F
100
AcDbEntity
  8
0
  6
Continuous
 62
     7
370
    25
100
AcDbCircle
 10
36.8035087782
 20
26.4222291651
 30
0.0
 40
0.0208587221838072
100
AcDbArc
 50
300.5125796001
 51
306.2274936246
  0
LINE
  5
131
330
1F
100
AcDbEntity
  8
0
  6
Continuous
 62
     7
370
    25
100
AcDbLine
 10
36.8140993256
 20
26.4042590066
 30
0.0
 11
35.7674578776
 21
25.7894982674
 31
0.0
  0
LINE
  5
132
330
1F
100
AcDbEntity
  8
0
  6
Continuous
 62
     7
370
    25
100
AcDbLine
 10
35.7674578776
 20
25.7894982674
 30
0.0
 11
34.7208164296
 21
25.1958325128
 31
0.0
  0
ARC
  5
133
330
1F
100
AcDbEntity
  8
0
  6
Continuous
 62
     7
370
    25
100
AcDbCircle
 10
34.7124514646
 20
25.2105174807
 30
0.0
 40
0.0169003230783316
100
AcDbArc
 50
293.0909086137
 51
299.6670389281
  0
ELLIPSE
  5
134
330
1F
100
AcDbEntity
  8
0
  6
Continuous
 62
     7
370
    25
100
AcDbEllipse
 10
36.7999566562
 20
26.428611102
 30
0.0
 11
-0.01414271023575253
 21
0.02449456561252817
 31
0.0
210
0.0
220
0.0
230
1.0
 40
0.5773346305
 41
3.273471702809574
 42
3.926950184956134
  0
LINE
  5
135
330
1F
100
AcDbEntity
  8
0
  6
Continuous
 62
     7
370
    25
100
AcDbLine
 10
31.4014368895
 20
27.8000580014
 30
0.0
 11
31.3818895016
 21
27.8657766125
 31
0.0
  0
LINE
  5
136
330
1F
100
AcDbEntity
  8
0
  6
Continuous
 62
     7
370
    25
100
AcDbLine
 10
31.4520339801
 20
27.7631802973
 30
0.0
 11
31.4014368895
 21
27.8000580014
 31
0.0
  0
LINE
  5
137
330
1F
100
AcDbEntity
  8
0
  6
Continuous
 62
     7
370
    25
100
AcDbLine
 10
31.483083683
 20
27.7920212043
 30
0.0
 11
31.4520339801
 21
27.7631802973
 31
0.0
  0
LINE
  5
138
330
1F
100
AcDbEntity
  8
0
  6
Continuous
 62
     7
370
    25
100
AcDbLine
 10
31.4635362951
 20
27.8577398154
 30
0.0
 11
31.483083683
 21
27.7920212043
 31
0.0
  0
LINE
  5
139
330
1F
100
AcDbEntity
  8
0
  6
Continuous
 62
     7
370
    25
100
AcDbLine
 10
31.4129392045
 20
27.8946175194
 30
0.0
 11
31.4635362951
 21
27.8577398154
 31
0.0
  0
LINE
  5
13A
330
1F
100
AcDbEntity
  8
0
  6
Continuous
 62
     7
370
    25
100
AcDbLine
 10
31.3818895016
 20
27.8657766125
 30
0.0
 11
31.4129392045
 21
27.8946175194
 31
0.0
  0
LWPOLYLINE
  5
13B
330
1F
100
AcDbEntity
  8
0
  6
Continuous
 62
     7
370
    25
100
AcDbPolyline
 90
       65
 70
   128
 43
0.0
 10
31.2982592638
 20
27.8421114028
 10
31.3043613392
 20
27.8237055211
 10
31.3116973309
 20
27.8053496545
 10
31.3201965891
 20
27.7872205801
 10
31.3297772615
 20
27.7694928907
 10
31.3403470808
 20
27.7523373139
 10
31.3518042541
 20
27.735919067
 10
31.3640384423
 20
27.7203962668
 10
31.3769318237
 20
27.7059184064
 10
31.3903602278
 20
27.6926249154
 10
31.4041943319
 20
27.6806438175
 10
31.4183009059
 20
27.6700904971
 10
31.4325440958
 20
27.6610665886
 10
31.4467867319
 20
27.653658997
 10
31.4608916499
 20
27.6479390616
 10
31.4747230116
 20
27.6439618685
 10
31.4881476136
 20
27.6417657201
 10
31.5010361694
 20
27.6413717666
 10
31.5132645554
 20
27.642783802
 10
31.5247150054
 20
27.6459882277
 10
31.5352772454
 20
27.6509541831
 10
31.5448495552
 20
27.6576338436
 10
31.5533397482
 20
27.6659628802
 10
31.5606660593
 20
27.6758610799
 10
31.5667579321
 20
27.6872331175
 10
31.5715566984
 20
27.6999694742
 10
31.5750161436
 20
27.7139474917
 10
31.5771029513
 20
27.7290325543
 10
31.5777970245
 20
27.7450793844
 10
31.5770916787
 20
27.7619334423
 10
31.5749937069
 20
27.7794324143
 10
31.5715233136
 20
27.7974077757
 10
31.5667139208
 20
27.8156864139
 10
31.5606118454
 20
27.8340922957
 10
31.5532758538
 20
27.8524481623
 10
31.5447765955
 20
27.8705772367
 10
31.5351959231
 20
27.888304926
 10
31.5246261038
 20
27.9054605029
 10
31.5131689305
 20
27.9218787497
 10
31.5009347423
 20
27.9374015499
 10
31.4880413609
 20
27.9518794104
 10
31.4746129568
 20
27.9651729013
 10
31.4607788527
 20
27.9771539992
 10
31.4466722787
 20
27.9877073196
 10
31.4324290888
 20
27.9967312281
 10
31.4181864527
 20
28.0041388197
 10
31.4040815347
 20
28.0098587551
 10
31.390250173
 20
28.0138359483
 10
31.376825571
 20
28.0160320966
 10
31.3639370152
 20
28.0164260501
 10
31.3517086292
 20
28.0150140147
 10
31.3402581792
 20
28.0118095891
 10
31.3296959392
 20
28.0068436336
 10
31.3201236294
 20
28.0001639731
 10
31.3116334364
 20
27.9918349365
 10
31.3043071253
 20
27.9819367368
 10
31.2982152525
 20
27.9705646992
 10
31.2934164862
 20
27.9578283426
 10
31.289957041
 20
27.943850325
 10
31.2878702333
 20
27.9287652625
 10
31.2871761601
 20
27.9127184323
 10
31.2878815059
 20
27.8958643744
 10
31.2899794777
 20
27.8783654024
 10
31.293449871
 20
27.860390041
 10
31.2982592638
 20
27.8421114028
  0
LWPOLYLINE
  5
13C
330
1F
100
AcDbEntity
  8
0
  6
Continuous
 62
     7
370
    25
100
AcDbPolyline
 90
       34
 70
   128
 43
0.0
 10
31.538763776
 20
27.6529668874
 10
31.5388127793
 20
27.6529952034
 10
31.5483850891
 20
27.6596748639
 10
31.5568752821
 20
27.6680039005
 10
31.5642015932
 20
27.6779021002
 10
31.570293466
 20
27.6892741378
 10
31.5750922323
 20
27.7020104944
 10
31.5785516775
 20
27.715988512
 10
31.5806384852
 20
27.7310735745
 10
31.5813325584
 20
27.7471204047
 10
31.5806272126
 20
27.7639744626
 10
31.5785292408
 20
27.7814734346
 10
31.5750588476
 20
27.799448796
 10
31.5702494547
 20
27.8177274342
 10
31.5641473793
 20
27.8361333159
 10
31.5568113877
 20
27.8544891825
 10
31.5483121294
 20
27.8726182569
 10
31.538731457
 20
27.8903459463
 10
31.5281616377
 20
27.9075015231
 10
31.5167044644
 20
27.92391977
 10
31.5044702762
 20
27.9394425702
 10
31.4915768948
 20
27.9539204306
 10
31.4781484907
 20
27.9672139216
 10
31.4643143866
 20
27.9791950195
 10
31.4502078126
 20
27.9897483399
 10
31.4359646227
 20
27.9987722484
 10
31.4217219866
 20
28.00617984
 10
31.4076170686
 20
28.0118997754
 10
31.3937857069
 20
28.0158769685
 10
31.380361105
 20
28.0180731169
 10
31.3674725491
 20
28.0184670704
 10
31.3552441631
 20
28.017055035
 10
31.3437937131
 20
28.0138506093
 10
31.3332804764
 20
28.0089129699
  0
LINE
  5
13D
330
1F
100
AcDbEntity
  8
0
  6
Continuous
 62
     7
370
    25
100
AcDbLine
 10
31.4212968934
 20
27.8885260155
 30
0.0
 11
31.3818895016
 21
27.8657766125
 31
0.0
  0
ARC
  5
13E
330
1F
100
AcDbEntity
  8
0
  6
Continuous
 62
     7
370
    25
100
AcDbCircle
 10
31.5547538602
 20
27.8994597777
 30
0.0
 40
0.1062270293131489
100
AcDbArc
 50
199.3167936013
 51
217.3305846796
  0
LINE
  5
13F
330
1F
100
AcDbEntity
  8
0
  6
Continuous
 62
     7
370
    25
100
AcDbLine
 10
31.4629551794
 20
27.8355717542
 30
0.0
 11
31.4014368895
 21
27.8000580014
 31
0.0
  0
LINE
  5
140
330
1F
100
AcDbEntity
  8
0
  6
Continuous
 62
     7
370
    25
100
AcDbLine
 10
31.472115936
 20
27.8288949342
 30
0.0
 11
31.4629551794
 21
27.8355717542
 31
0.0
  0
LINE
  5
141
330
1F
100
AcDbEntity
  8
0
  6
Continuous
 62
     7
370
    25
100
AcDbLine
 10
31.4629551794
 20
27.8355717542
 30
0.0
 11
31.4543755386
 21
27.8644166354
 31
0.0
  0
LWPOLYLINE
  5
142
330
1F
100
AcDbEntity
  8
0
  6
Continuous
 62
     7
370
    25
100
AcDbPolyline
 90
       65
 70
   128
 43
0.0
 10
33.773132998
 20
26.4133972071
 10
33.7792350734
 20
26.3949913254
 10
33.786571065
 20
26.3766354588
 10
33.7950703233
 20
26.3585063844
 10
33.8046509956
 20
26.3407786951
 10
33.815220815
 20
26.3236231182
 10
33.8266779882
 20
26.3072048713
 10
33.8389121765
 20
26.2916820711
 10
33.8518055578
 20
26.2772042107
 10
33.865233962
 20
26.2639107197
 10
33.8790680661
 20
26.2519296218
 10
33.8931746401
 20
26.2413763014
 10
33.90741783
 20
26.2323523929
 10
33.9216604661
 20
26.2249448013
 10
33.9357653841
 20
26.2192248659
 10
33.9495967458
 20
26.2152476728
 10
33.9630213477
 20
26.2130515244
 10
33.9759099036
 20
26.2126575709
 10
33.9881382895
 20
26.2140696063
 10
33.9995887396
 20
26.217274032
 10
34.0101509795
 20
26.2222399874
 10
34.0197232893
 20
26.2289196479
 10
34.0282134824
 20
26.2372486846
 10
34.0355397935
 20
26.2471468842
 10
34.0416316662
 20
26.2585189218
 10
34.0464304326
 20
26.2712552785
 10
34.0498898778
 20
26.285233296
 10
34.0519766855
 20
26.3003183586
 10
34.0526707586
 20
26.3163651887
 10
34.0519654128
 20
26.3332192466
 10
34.049867441
 20
26.3507182186
 10
34.0463970478
 20
26.36869358
 10
34.0415876549
 20
26.3869722182
 10
34.0354855795
 20
26.4053781
 10
34.0281495879
 20
26.4237339666
 10
34.0196503297
 20
26.441863041
 10
34.0100696573
 20
26.4595907303
 10
33.9994998379
 20
26.4767463072
 10
33.9880426647
 20
26.4931645541
 10
33.9758084764
 20
26.5086873542
 10
33.9629150951
 20
26.5231652147
 10
33.9494866909
 20
26.5364587056
 10
33.9356525869
 20
26.5484398036
 10
33.9215460129
 20
26.5589931239
 10
33.9073028229
 20
26.5680170324
 10
33.8930601868
 20
26.575424624
 10
33.8789552689
 20
26.5811445594
 10
33.8651239071
 20
26.5851217526
 10
33.8516993052
 20
26.5873179009
 10
33.8388107493
 20
26.5877118544
 10
33.8265823634
 20
26.586299819
 10
33.8151319134
 20
26.5830953934
 10
33.8045696734
 20
26.5781294379
 10
33.7949973636
 20
26.5714497774
 10
33.7865071705
 20
26.5631207408
 10
33.7791808594
 20
26.5532225411
 10
33.7730889867
 20
26.5418505035
 10
33.7682902203
 20
26.5291141469
 10
33.7648307751
 20
26.5151361293
 10
33.7627439674
 20
26.5000510668
 10
33.7620498943
 20
26.4840042367
 10
33.7627552401
 20
26.4671501787
 10
33.7648532119
 20
26.4496512067
 10
33.7683236051
 20
26.4316758453
 10
33.773132998
 20
26.4133972071
  0
LWPOLYLINE
  5
143
330
1F
100
AcDbEntity
  8
0
  6
Continuous
 62
     7
370
    25
100
AcDbPolyline
 90
       34
 70
   128
 43
0.0
 10
34.0136375101
 20
26.2242526917
 10
34.0136865134
 20
26.2242810077
 10
34.0232588232
 20
26.2309606682
 10
34.0317490163
 20
26.2392897048
 10
34.0390753274
 20
26.2491879045
 10
34.0451672001
 20
26.2605599421
 10
34.0499659665
 20
26.2732962987
 10
34.0534254117
 20
26.2872743163
 10
34.0555122194
 20
26.3023593788
 10
34.0562062925
 20
26.318406209
 10
34.0555009467
 20
26.3352602669
 10
34.0534029749
 20
26.3527592389
 10
34.0499325817
 20
26.3707346003
 10
34.0451231889
 20
26.3890132385
 10
34.0390211134
 20
26.4074191203
 10
34.0316851218
 20
26.4257749868
 10
34.0231858636
 20
26.4439040612
 10
34.0136051912
 20
26.4616317506
 10
34.0030353718
 20
26.4787873275
 10
33.9915781986
 20
26.4952055743
 10
33.9793440103
 20
26.5107283745
 10
33.966450629
 20
26.5252062349
 10
33.9530222248
 20
26.5384997259
 10
33.9391881208
 20
26.5504808238
 10
33.9250815468
 20
26.5610341442
 10
33.9108383568
 20
26.5700580527
 10
33.8965957207
 20
26.5774656443
 10
33.8824908028
 20
26.5831855797
 10
33.868659441
 20
26.5871627729
 10
33.8552348391
 20
26.5893589212
 10
33.8423462832
 20
26.5897528747
 10
33.8301178973
 20
26.5883408393
 10
33.8186674473
 20
26.5851364136
 10
33.8081542106
 20
26.5801987742
  0
LINE
  5
144
330
1F
100
AcDbEntity
  8
0
  6
Continuous
 62
     7
370
    25
100
AcDbLine
 10
33.8763106236
 20
26.3713438057
 30
0.0
 11
33.8567632358
 21
26.4370624168
 31
0.0
  0
LINE
  5
145
330
1F
100
AcDbEntity
  8
0
  6
Continuous
 62
     7
370
    25
100
AcDbLine
 10
33.9269077143
 20
26.3344661016
 30
0.0
 11
33.8763106236
 21
26.3713438057
 31
0.0
  0
LINE
  5
146
330
1F
100
AcDbEntity
  8
0
  6
Continuous
 62
     7
370
    25
100
AcDbLine
 10
33.9579574171
 20
26.3633070086
 30
0.0
 11
33.9269077143
 21
26.3344661016
 31
0.0
  0
LINE
  5
147
330
1F
100
AcDbEntity
  8
0
  6
Continuous
 62
     7
370
    25
100
AcDbLine
 10
33.9384100293
 20
26.4290256197
 30
0.0
 11
33.9579574171
 21
26.3633070086
 31
0.0
  0
LINE
  5
148
330
1F
100
AcDbEntity
  8
0
  6
Continuous
 62
     7
370
    25
100
AcDbLine
 10
33.8878129386
 20
26.4659033238
 30
0.0
 11
33.9384100293
 21
26.4290256197
 31
0.0
  0
LINE
  5
149
330
1F
100
AcDbEntity
  8
0
  6
Continuous
 62
     7
370
    25
100
AcDbLine
 10
33.8567632358
 20
26.4370624168
 30
0.0
 11
33.8878129386
 21
26.4659033238
 31
0.0
  0
LINE
  5
14A
330
1F
100
AcDbEntity
  8
0
  6
Continuous
 62
     7
370
    25
100
AcDbLine
 10
33.8961706275
 20
26.4598118198
 30
0.0
 11
33.8567632358
 21
26.4370624168
 31
0.0
  0
ARC
  5
14B
330
1F
100
AcDbEntity
  8
0
  6
Continuous
 62
     7
370
    25
100
AcDbCircle
 10
34.0296275944
 20
26.4707455821
 30
0.0
 40
0.1062270293131712
100
AcDbArc
 50
199.3167936013
 51
217.3305846796
  0
LINE
  5
14C
330
1F
100
AcDbEntity
  8
0
  6
Continuous
 62
     7
370
    25
100
AcDbLine
 10
33.9378289136
 20
26.4068575585
 30
0.0
 11
33.8763106236
 21
26.3713438057
 31
0.0
  0
LINE
  5
14D
330
1F
100
AcDbEntity
  8
0
  6
Continuous
 62
     7
370
    25
100
AcDbLine
 10
33.9469896701
 20
26.4001807385
 30
0.0
 11
33.9378289136
 21
26.4068575585
 31
0.0
  0
LINE
  5
14E
330
1F
100
AcDbEntity
  8
0
  6
Continuous
 62
     7
370
    25
100
AcDbLine
 10
33.9378289136
 20
26.4068575585
 30
0.0
 11
33.9292492728
 21
26.4357024397
 31
0.0
  0
LWPOLYLINE
  5
14F
330
1F
100
AcDbEntity
  8
0
  6
Continuous
 62
     7
370
    25
100
AcDbPolyline
 90
       43
 70
   128
 43
0.0
 10
32.931429355
 20
20.2512282176
 10
32.9307165787
 20
20.2626230377
 10
32.928594172
 20
20.2745862704
 10
32.9251095459
 20
20.2868506769
 10
32.9203405414
 20
20.2991422904
 10
32.9143936899
 20
20.3111865368
 10
32.9074018345
 20
20.3227143674
 10
32.8995211615
 20
20.3334682696
 10
32.8909277122
 20
20.343208019
 10
32.88181345
 20
20.3517160455
 10
32.8723819726
 20
20.3588022941
 10
32.8628439634
 20
20.3643084696
 10
32.8534124859
 20
20.3681115731
 10
32.8442982238
 20
20.3701266496
 10
32.8357047745
 20
20.3703086857
 10
32.8278241015
 20
20.3686536149
 10
32.820832246
 20
20.3651984087
 10
32.8148853946
 20
20.3600202508
 10
32.81011639
 20
20.3532348127
 10
32.806631764
 20
20.3449936699
 10
32.8045093573
 20
20.3354809158
 10
32.803796581
 20
20.3249090497
 10
32.8045093573
 20
20.3135142295
 10
32.806631764
 20
20.3015509968
 10
32.81011639
 20
20.2892865903
 10
32.8148853946
 20
20.2769949768
 10
32.820832246
 20
20.2649507304
 10
32.8278241015
 20
20.2534228998
 10
32.8357047745
 20
20.2426689976
 10
32.8442982238
 20
20.2329292483
 10
32.8534124859
 20
20.2244212217
 10
32.8628439634
 20
20.2173349731
 10
32.8723819726
 20
20.2118287976
 10
32.88181345
 20
20.2080256941
 10
32.8909277122
 20
20.2060106176
 10
32.8995211615
 20
20.2058285815
 10
32.9074018345
 20
20.2074836524
 10
32.9143936899
 20
20.2109388585
 10
32.9203405414
 20
20.2161170164
 10
32.9251095459
 20
20.2229024545
 10
32.928594172
 20
20.2311435973
 10
32.9307165787
 20
20.2406563514
 10
32.931429355
 20
20.2512282176
  0
LWPOLYLINE
  5
150
330
1F
100
AcDbEntity
  8
0
  6
Continuous
 62
     7
370
    25
100
AcDbPolyline
 90
       28
 70
   128
 43
0.0
 10
33.0525213913
 20
20.24745233
 10
33.0518222056
 20
20.2632619534
 10
33.0497323089
 20
20.2797056257
 10
33.0462745987
 20
20.2966031869
 10
33.0414869582
 20
20.3137695036
 10
33.0354218419
 20
20.331016498
 10
33.0281457005
 20
20.3481552086
 10
33.0197382528
 20
20.36499786
 10
33.0102916127
 20
20.3813599206
 10
32.9999092795
 20
20.3970621242
 10
32.9887050043
 20
20.4119324342
 10
32.9768015433
 20
20.4258079284
 10
32.9643293135
 20
20.4385365839
 10
32.9514249631
 20
20.449978943
 10
32.938229875
 20
20.4600096407
 10
32.9248886173
 20
20.4685187787
 10
32.9115473595
 20
20.475413129
 10
32.8983522714
 20
20.4806171557
 10
32.8854479211
 20
20.4840738424
 10
32.8729756912
 20
20.485745317
 10
32.8610722303
 20
20.4856132663
 10
32.849867955
 20
20.4836791371
 10
32.8394856218
 20
20.4799641203
 10
32.8300389817
 20
20.4745089182
 10
32.8216315341
 20
20.4673732993
 10
32.8143553926
 20
20.4586354428
 10
32.8082902763
 20
20.4483910825
 10
32.8044973105
 20
20.4395723603
  0
LWPOLYLINE
  5
151
330
1F
100
AcDbEntity
  8
0
  6
Continuous
 62
     7
370
    25
100
AcDbPolyline
 90
       13
 70
   128
 43
0.0
 10
32.9672489773
 20
20.1576476573
 10
32.9768015433
 20
20.1565210073
 10
32.9887050043
 20
20.156653058
 10
32.9999092795
 20
20.1585871871
 10
33.0102916127
 20
20.162302204
 10
33.0197382528
 20
20.1677574061
 10
33.0281457005
 20
20.174893025
 10
33.0354218419
 20
20.1836308815
 10
33.0414869582
 20
20.1938752418
 10
33.0462745987
 20
20.2055138664
 10
33.0497323089
 20
20.2184192403
 10
33.0518222056
 20
20.2324499693
 10
33.0525213913
 20
20.24745233
  0
LWPOLYLINE
  5
152
330
1F
100
AcDbEntity
  8
0
  6
Continuous
 62
     7
370
    25
100
AcDbPolyline
 90
       24
 70
   128
 43
0.0
 10
33.0666635269
 20
20.2556164112
 10
33.0659643412
 20
20.2714260345
 10
33.0638744446
 20
20.2878697069
 10
33.0604167343
 20
20.304767268
 10
33.0556290938
 20
20.3219335847
 10
33.0495639775
 20
20.3391805792
 10
33.0422878361
 20
20.3563192897
 10
33.0338803884
 20
20.3731619411
 10
33.0244337483
 20
20.3895240017
 10
33.0140514152
 20
20.4052262053
 10
33.0028471399
 20
20.4200965153
 10
32.9909436789
 20
20.4339720095
 10
32.9784714491
 20
20.446700665
 10
32.9655670987
 20
20.4581430241
 10
32.9523720106
 20
20.4681737218
 10
32.9390307529
 20
20.4766828598
 10
32.9256894952
 20
20.4835772101
 10
32.912494407
 20
20.4887812368
 10
32.8995900567
 20
20.4922379236
 10
32.8871178268
 20
20.4939093981
 10
32.8752143659
 20
20.4937773474
 10
32.8640100906
 20
20.4918432182
 10
32.8536277574
 20
20.4881282014
 10
32.8487880873
 20
20.4856190629
  0
ARC
  5
153
330
1F
100
AcDbEntity
  8
0
  6
Continuous
 62
     7
370
    25
100
AcDbCircle
 10
32.9773424981
 20
20.2462499504
 30
0.0
 40
0.0898107832002024
100
AcDbArc
 50
305.3258580115
 51
5.9863223819
  0
LINE
  5
154
330
1F
100
AcDbEntity
  8
0
  6
Continuous
 62
     7
370
    25
100
AcDbLine
 10
32.867612968
 20
20.3469973908
 30
0.0
 11
32.9118071418
 21
20.2920202587
 31
0.0
  0
LINE
  5
155
330
1F
100
AcDbEntity
  8
0
  6
Continuous
 62
     7
370
    25
100
AcDbLine
 10
32.8234187942
 20
20.3430457657
 30
0.0
 11
32.867612968
 21
20.3469973908
 31
0.0
  0
LINE
  5
156
330
1F
100
AcDbEntity
  8
0
  6
Continuous
 62
     7
370
    25
100
AcDbLine
 10
32.8234187942
 20
20.2841170085
 30
0.0
 11
32.8234187942
 21
20.3430457657
 31
0.0
  0
LINE
  5
157
330
1F
100
AcDbEntity
  8
0
  6
Continuous
 62
     7
370
    25
100
AcDbLine
 10
32.867612968
 20
20.2291398764
 30
0.0
 11
32.8234187942
 21
20.2841170085
 31
0.0
  0
LINE
  5
158
330
1F
100
AcDbEntity
  8
0
  6
Continuous
 62
     7
370
    25
100
AcDbLine
 10
32.9118071418
 20
20.2330915015
 30
0.0
 11
32.867612968
 21
20.2291398764
 31
0.0
  0
LINE
  5
159
330
1F
100
AcDbEntity
  8
0
  6
Continuous
 62
     7
370
    25
100
AcDbLine
 10
32.9118071418
 20
20.2920202587
 30
0.0
 11
32.9118071418
 21
20.2330915015
 31
0.0
  0
ARC
  5
15A
330
1F
100
AcDbEntity
  8
0
  6
Continuous
 62
     7
370
    25
100
AcDbCircle
 10
32.9618184664
 20
20.337807624
 30
0.0
 40
0.0850305713493879
100
AcDbArc
 50
218.2182473259
 51
233.9736688684
  0
ARC
  5
15B
330
1F
100
AcDbEntity
  8
0
  6
Continuous
 62
     7
370
    25
100
AcDbCircle
 10
32.9694940784
 20
20.3469985081
 30
0.0
 40
0.0967785961975686
100
AcDbArc
 50
183.9291659641
 51
219.6820960478
  0
LINE
  5
15C
330
1F
100
AcDbEntity
  8
0
  6
Continuous
 62
     7
370
    25
100
AcDbLine
 10
32.9118071418
 20
20.2546526299
 30
0.0
 11
32.867612968
 21
20.2291398764
 31
0.0
  0
LINE
  5
15D
330
1F
100
AcDbEntity
  8
0
  6
Continuous
 62
     7
370
    25
100
AcDbLine
 10
32.8729162688
 20
20.3126912924
 30
0.0
 11
32.8234187942
 21
20.2841170085
 31
0.0
  0
LINE
  5
15E
330
1F
100
AcDbEntity
  8
0
  6
Continuous
 62
     7
370
    25
100
AcDbLine
 10
32.8729162688
 20
20.3126912924
 30
0.0
 11
32.8729162688
 21
20.340400135
 31
0.0
  0
LINE
  5
15F
330
1F
100
AcDbEntity
  8
0
  6
Continuous
 62
     7
370
    25
100
AcDbLine
 10
32.8950133558
 20
20.2852027264
 30
0.0
 11
32.8729162688
 21
20.3126912924
 31
0.0
  0
LINE
  5
160
330
1F
100
AcDbEntity
  8
0
  6
Continuous
 62
     7
370
    25
100
AcDbLine
 10
32.9118071418
 20
20.2643114162
 30
0.0
 11
32.8950133558
 21
20.2852027264
 31
0.0
  0
LWPOLYLINE
  5
161
330
1F
100
AcDbEntity
  8
0
  6
Continuous
 62
     7
370
    25
100
AcDbPolyline
 90
       43
 70
   128
 43
0.0
 10
35.8616959491
 20
19.9618585097
 10
35.8525586392
 20
19.9597425552
 10
35.8431156743
 20
19.9558422587
 10
35.8335779944
 20
19.9502447464
 10
35.8241586558
 20
19.9430750574
 10
35.8150680707
 20
19.9344933507
 10
35.8065093079
 20
19.9246913275
 10
35.798673556
 20
19.9138879488
 10
35.7917358527
 20
19.9023245443
 10
35.7858511749
 20
19.8902594211
 10
35.7811509765
 20
19.8779620944
 10
35.7777402522
 20
19.865707266
 10
35.7756951919
 20
19.8537686885
 10
35.775061479
 20
19.8424130501
 10
35.7758532695
 20
19.8318940169
 10
35.778052876
 20
19.8224465668
 10
35.7816111632
 20
19.8142817401
 10
35.7864486446
 20
19.8075819257
 10
35.792457259
 20
19.8024967863
 10
35.7995027838
 20
19.7991399155
 10
35.8074278336
 20
19.7975863002
 10
35.816055376
 20
19.7978706457
 10
35.8251926858
 20
19.7999866002
 10
35.8346356508
 20
19.8038868967
 10
35.8441733306
 20
19.809484409
 10
35.8535926693
 20
19.816654098
 10
35.8626832543
 20
19.8252358047
 10
35.8712420171
 20
19.8350378279
 10
35.879077769
 20
19.8458412065
 10
35.8860154723
 20
19.8574046111
 10
35.8919001502
 20
19.8694697343
 10
35.8966003486
 20
19.881767061
 10
35.9000110729
 20
19.8940218894
 10
35.9020561331
 20
19.9059604669
 10
35.9026898461
 20
19.9173161053
 10
35.9018980556
 20
19.9278351385
 10
35.899698449
 20
19.9372825886
 10
35.8961401619
 20
19.9454474153
 10
35.8913026805
 20
19.9521472297
 10
35.8852940661
 20
19.9572323691
 10
35.8782485413
 20
19.9605892399
 10
35.8703234915
 20
19.9621428552
 10
35.8616959491
 20
19.9618585097
  0
LWPOLYLINE
  5
162
330
1F
100
AcDbEntity
  8
0
  6
Continuous
 62
     7
370
    25
100
AcDbPolyline
 90
       32
 70
   128
 43
0.0
 10
35.8272405864
 20
20.0769169702
 10
35.8145314611
 20
20.0743352146
 10
35.8014615321
 20
20.06998506
 10
35.7881739961
 20
20.0639141674
 10
35.7748144341
 20
20.056189051
 10
35.7615292164
 20
20.0468943486
 10
35.7484638985
 20
20.036131895
 10
35.7357616268
 20
20.0240196058
 10
35.7235615701
 20
20.0106901859
 10
35.7119973948
 20
19.9962896751
 10
35.7011958002
 20
19.9809758485
 10
35.6912751311
 20
19.9649164876
 10
35.6823440802
 20
19.948287542
 10
35.6745004982
 20
19.931271202
 10
35.6678303208
 20
19.9140539022
 10
35.662406628
 20
19.8968242788
 10
35.6582888429
 20
19.8797711033
 10
35.6555220807
 20
19.8630812139
 10
35.6541366548
 20
19.8469374683
 10
35.6541477441
 20
19.831516741
 10
35.6555552271
 20
19.8169879846
 10
35.6583436832
 20
19.8035103792
 10
35.6624825614
 20
19.7912315882
 10
35.6679265154
 20
19.7802861408
 10
35.6746159
 20
19.7707939574
 10
35.6824774249
 20
19.7628590364
 10
35.6914249576
 20
19.7565683146
 10
35.7013604671
 20
19.7519907143
 10
35.7121750979
 20
19.7491763887
 10
35.7237503626
 20
19.7481561721
 10
35.7359594401
 20
19.7489412423
 10
35.7392396533
 20
19.7494436014
  0
ARC
  5
163
330
1F
100
AcDbEntity
  8
0
  6
Continuous
 62
     7
370
    25
100
AcDbCircle
 10
35.8383322035
 20
20.0110079035
 30
0.0
 40
0.0668358364977953
100
AcDbArc
 50
17.736085209
 51
99.5526089418
  0
LWPOLYLINE
  5
164
330
1F
100
AcDbEntity
  8
0
  6
Continuous
 62
     7
370
    25
100
AcDbPolyline
 90
       27
 70
   128
 43
0.0
 10
35.8130984507
 20
20.0850810513
 10
35.8003893255
 20
20.0824992957
 10
35.7873193964
 20
20.0781491411
 10
35.7740318604
 20
20.0720782486
 10
35.7606722985
 20
20.0643531321
 10
35.7473870808
 20
20.0550584297
 10
35.7343217629
 20
20.0442959761
 10
35.7216194912
 20
20.0321836869
 10
35.7094194345
 20
20.018854267
 10
35.6978552591
 20
20.0044537562
 10
35.6870536646
 20
19.9891399296
 10
35.6771329955
 20
19.9730805687
 10
35.6682019446
 20
19.9564516231
 10
35.6603583626
 20
19.9394352831
 10
35.6536881852
 20
19.9222179833
 10
35.6482644924
 20
19.9049883599
 10
35.6441467072
 20
19.8879351844
 10
35.6413799451
 20
19.871245295
 10
35.6399945192
 20
19.8551015495
 10
35.6400056085
 20
19.8396808221
 10
35.6414130915
 20
19.8251520657
 10
35.6442015476
 20
19.8116744603
 10
35.6483404258
 20
19.7993956694
 10
35.6537843797
 20
19.7884502219
 10
35.6604737643
 20
19.7789580385
 10
35.6683352893
 20
19.7710231176
 10
35.677215212
 20
19.7647713677
  0
ARC
  5
165
330
1F
100
AcDbEntity
  8
0
  6
Continuous
 62
     7
370
    25
100
AcDbCircle
 10
35.8243772828
 20
20.0171192819
 30
0.0
 40
0.0688913212750237
100
AcDbArc
 50
61.0721629755
 51
99.4228383633
  0
LINE
  5
166
330
1F
100
AcDbEntity
  8
0
  6
Continuous
 62
     7
370
    25
100
AcDbLine
 10
35.7912189222
 20
19.873425432
 30
0.0
 11
35.8308508149
 21
19.9334275062
 31
0.0
  0
LINE
  5
167
330
1F
100
AcDbEntity
  8
0
  6
Continuous
 62
     7
370
    25
100
AcDbLine
 10
35.7992437698
 20
19.8198625035
 30
0.0
 11
35.7912189222
 21
19.873425432
 31
0.0
  0
LINE
  5
168
330
1F
100
AcDbEntity
  8
0
  6
Continuous
 62
     7
370
    25
100
AcDbLine
 10
35.8469005102
 20
19.8263016492
 30
0.0
 11
35.7992437698
 21
19.8198625035
 31
0.0
  0
LINE
  5
169
330
1F
100
AcDbEntity
  8
0
  6
Continuous
 62
     7
370
    25
100
AcDbLine
 10
35.8865324029
 20
19.8863037234
 30
0.0
 11
35.8469005102
 21
19.8263016492
 31
0.0
  0
LINE
  5
16A
330
1F
100
AcDbEntity
  8
0
  6
Continuous
 62
     7
370
    25
100
AcDbLine
 10
35.8785075552
 20
19.9398666519
 30
0.0
 11
35.8865324029
 21
19.8863037234
 31
0.0
  0
LINE
  5
16B
330
1F
100
AcDbEntity
  8
0
  6
Continuous
 62
     7
370
    25
100
AcDbLine
 10
35.8308508149
 20
19.9334275062
 30
0.0
 11
35.8785075552
 21
19.9398666519
 31
0.0
  0
ARC
  5
16C
330
1F
100
AcDbEntity
  8
0
  6
Continuous
 62
     7
370
    25
100
AcDbCircle
 10
35.7425310789
 20
19.9370373592
 30
0.0
 40
0.091098787164158
100
AcDbArc
 50
325.0703986115
 51
357.9604419853
  0
ARC
  5
16D
330
1F
100
AcDbEntity
  8
0
  6
Continuous
 62
     7
370
    25
100
AcDbCircle
 10
35.7411692442
 20
19.9336800908
 30
0.0
 40
0.0903620892244448
100
AcDbArc
 50
305.1980744862
 51
327.310641263
  0
LINE
  5
16E
330
1F
100
AcDbEntity
  8
0
  6
Continuous
 62
     7
370
    25
100
AcDbLine
 10
35.7974030355
 20
19.8548759331
 30
0.0
 11
35.8469005102
 21
19.8263016492
 31
0.0
  0
LINE
  5
16F
330
1F
100
AcDbEntity
  8
0
  6
Continuous
 62
     7
370
    25
100
AcDbLine
 10
35.7974030355
 20
19.8548759331
 30
0.0
 11
35.7940655855
 21
19.8544249932
 31
0.0
  0
LINE
  5
170
330
1F
100
AcDbEntity
  8
0
  6
Continuous
 62
     7
370
    25
100
AcDbLine
 10
35.8370349282
 20
19.9148780073
 30
0.0
 11
35.8865324029
 21
19.8863037234
 31
0.0
  0
LINE
  5
171
330
1F
100
AcDbEntity
  8
0
  6
Continuous
 62
     7
370
    25
100
AcDbLine
 10
35.8341882648
 20
19.9338784461
 30
0.0
 11
35.8370349282
 21
19.9148780073
 31
0.0
  0
LINE
  5
172
330
1F
100
AcDbEntity
  8
0
  6
Continuous
 62
     7
370
    25
100
AcDbLine
 10
35.8172189818
 20
19.8848769702
 30
0.0
 11
35.7974030355
 21
19.8548759331
 31
0.0
  0
LINE
  5
173
330
1F
100
AcDbEntity
  8
0
  6
Continuous
 62
     7
370
    25
100
AcDbLine
 10
35.8370349282
 20
19.9148780073
 30
0.0
 11
35.8172189818
 21
19.8848769702
 31
0.0
  0
LINE
  5
174
330
1F
100
AcDbEntity
  8
0
  6
Continuous
 62
     7
370
    25
100
AcDbLine
 10
36.8139845288
 20
19.7086993515
 30
0.0
 11
34.7209312265
 21
18.5004053994
 31
0.0
  0
LINE
  5
175
330
1F
100
AcDbEntity
  8
0
  6
Continuous
 62
     7
370
    25
100
AcDbLine
 10
34.6926641852
 20
18.5004053994
 30
0.0
 11
31.1853973205
 21
20.5251074634
 31
0.0
  0
LINE
  5
176
330
1F
100
AcDbEntity
  8
0
  6
Continuous
 62
     7
370
    25
100
AcDbLine
 10
34.7209312265
 20
18.5004053994
 30
0.0
 11
34.7209312265
 21
18.4171120842
 31
0.0
  0
ARC
  5
177
330
1F
100
AcDbEntity
  8
0
  6
Continuous
 62
     7
370
    25
100
AcDbCircle
 10
34.7067977059
 20
18.4424802126
 30
0.0
 40
0.0290395995575712
100
AcDbArc
 50
240.8762066064
 51
299.1237933936
  0
LINE
  5
178
330
1F
100
AcDbEntity
  8
0
  6
Continuous
 62
     7
370
    25
100
AcDbLine
 10
34.6926641852
 20
18.4171120842
 30
0.0
 11
34.6926641852
 21
18.5004053994
 31
0.0
  0
LINE
  5
179
330
1F
100
AcDbEntity
  8
0
  6
Continuous
 62
     7
370
    25
100
AcDbLine
 10
36.8087645886
 20
19.622392629
 30
0.0
 11
36.8139845288
 21
19.7086993515
 31
0.0
  0
LINE
  5
17A
330
1F
100
AcDbEntity
  8
0
  6
Continuous
 62
     7
370
    25
100
AcDbLine
 10
34.7209312265
 20
18.4171120842
 30
0.0
 11
36.8087645886
 21
19.622392629
 31
0.0
  0
LINE
  5
17B
330
1F
100
AcDbEntity
  8
0
  6
Continuous
 62
     7
370
    25
100
AcDbLine
 10
31.1906172608
 20
20.4388007409
 30
0.0
 11
34.6926641852
 21
18.4171120842
 31
0.0
  0
LINE
  5
17C
330
1F
100
AcDbEntity
  8
0
  6
Continuous
 62
     7
370
    25
100
AcDbLine
 10
31.1853973205
 20
20.5251074634
 30
0.0
 11
31.1906172608
 21
20.4388007409
 31
0.0
  0
LINE
  5
17D
330
1F
100
AcDbEntity
  8
0
  6
Continuous
 62
     7
370
    25
100
AcDbLine
 10
34.7173712727
 20
26.2557971108
 30
0.0
 11
34.7190796219
 21
26.2564742037
 31
0.0
  0
LINE
  5
17E
330
1F
100
AcDbEntity
  8
0
  6
Continuous
 62
     7
370
    25
100
AcDbLine
 10
34.6927784483
 20
25.2121630154
 30
0.0
 11
34.6927784483
 21
25.9169071469
 31
0.0
  0
LINE
  5
17F
330
1F
100
AcDbEntity
  8
0
  6
Continuous
 62
     7
370
    25
100
AcDbLine
 10
34.4697789529
 20
25.3408978839
 30
0.0
 11
34.6927784483
 21
25.2121630154
 31
0.0
  0
ARC
  5
180
330
1F
100
AcDbEntity
  8
0
  6
Continuous
 62
     7
370
    25
100
AcDbCircle
 10
36.8110189841
 20
27.4744530196
 30
0.0
 40
0.0089533703039407
100
AcDbArc
 50
302.5493857148
 51
356.6065836408
  0
ARC
  5
181
330
1F
100
AcDbEntity
  8
0
  6
Continuous
 62
     7
370
    25
100
AcDbCircle
 10
34.7023958335
 20
18.4165041735
 30
0.0
 40
0.0097506170593272
100
AcDbArc
 50
176.4255262241
 51
234.9670618772
  0
ARC
  5
182
330
1F
100
AcDbEntity
  8
0
  6
Continuous
 62
     7
370
    25
100
AcDbCircle
 10
34.7111995782
 20
18.4165041735
 30
0.0
 40
0.0097506170593584
100
AcDbArc
 50
305.0329381229
 51
3.5744737758
  0
ARC
  5
183
330
1F
100
AcDbEntity
  8
0
  6
Continuous
 62
     7
370
    25
100
AcDbCircle
 10
31.200348909
 20
20.4381928301
 30
0.0
 40
0.009750617059352
100
AcDbArc
 50
176.4255262242
 51
234.9670618771
  0
ARC
  5
184
330
1F
100
AcDbEntity
  8
0
  6
Continuous
 62
     7
370
    25
100
AcDbCircle
 10
36.7990329403
 20
19.6217847183
 30
0.0
 40
0.0097506170593652
100
AcDbArc
 50
305.0329381229
 51
3.5744737758
  0
ARC
  5
185
330
1F
100
AcDbEntity
  8
0
  6
Continuous
 62
     7
370
    25
100
AcDbCircle
 10
36.8050019593
 20
19.631329261
 30
0.0
 40
0.0096964307582743
100
AcDbArc
 50
292.832765479
 51
351.6088279776
  0
ARC
  5
186
330
1F
100
AcDbEntity
  8
0
  6
Continuous
 62
     7
370
    25
100
AcDbCircle
 10
31.19437989
 20
20.4477373728
 30
0.0
 40
0.0096964307582708
100
AcDbArc
 50
188.3911720224
 51
247.1672345211
  0
LINE
  5
187
330
1F
100
AcDbEntity
  8
0
  6
Continuous
 62
     7
370
    25
100
AcDbLine
 10
8.3496301045
 20
7.7261550202
 30
0.0
 11
9.9421438407
 21
7.7261550202
 31
0.0
  0
ARC
  5
188
330
1F
100
AcDbEntity
  8
0
  6
Continuous
 62
     7
370
    25
100
AcDbCircle
 10
9.1458869726
 20
8.3511550202
 30
0.0
 40
1.012249969128182
100
AcDbArc
 50
218.1291692158
 51
321.8708307842
  0
CIRCLE
  5
189
330
1F
100
AcDbEntity
  8
0
  6
Continuous
 62
     7
370
    25
100
AcDbCircle
 10
9.1458869726
 20
8.3511550202
 30
0.0
 40
1.012422836565833
  0
ARC
  5
18A
330
1F
100
AcDbEntity
  8
0
  6
Continuous
 62
     7
370
    25
100
AcDbCircle
 10
9.1458869726
 20
8.3511550202
 30
0.0
 40
0.9222255689363661
100
AcDbArc
 50
222.664826585
 51
317.335173415
  0
CIRCLE
  5
18B
330
1F
100
AcDbEntity
  8
0
  6
Continuous
 62
     7
370
    25
100
AcDbCircle
 10
9.1458869726
 20
8.3511550202
 30
0.0
 40
2.515000000000007
  0
CIRCLE
  5
18C
330
1F
100
AcDbEntity
  8
0
  6
Continuous
 62
     7
370
    25
100
AcDbCircle
 10
7.3958869726
 20
8.3511550202
 30
0.0
 40
0.2050000000000018
  0
CIRCLE
  5
18D
330
1F
100
AcDbEntity
  8
0
  6
Continuous
 62
     7
370
    25
100
AcDbCircle
 10
10.8958869726
 20
8.3511550202
 30
0.0
 40
0.2050000000000001
  0
CIRCLE
  5
18E
330
1F
100
AcDbEntity
  8
0
  6
Continuous
 62
     7
370
    25
100
AcDbCircle
 10
7.3958869726
 20
8.3511550202
 30
0.0
 40
0.1014999999999997
  0
CIRCLE
  5
18F
330
1F
100
AcDbEntity
  8
0
  6
Continuous
 62
     7
370
    25
100
AcDbCircle
 10
10.8958869726
 20
8.3511550202
 30
0.0
 40
0.1014999999999997
  0
LINE
  5
190
330
1F
100
AcDbEntity
  8
0
  6
Continuous
 62
     7
370
    25
100
AcDbLine
 10
8.5208869726
 20
7.7175344713
 30
0.0
 11
8.5208869726
 21
7.7261550202
 31
0.0
  0
LINE
  5
191
330
1F
100
AcDbEntity
  8
0
  6
Continuous
 62
     7
370
    25
100
AcDbLine
 10
9.7708869726
 20
7.7175344713
 30
0.0
 11
9.7708869726
 21
7.7261550202
 31
0.0
  0
LINE
  5
192
330
1F
100
AcDbEntity
  8
0
  6
Continuous
 62
     7
370
    25
100
AcDbLine
 10
9.7083869726
 20
7.6614494671
 30
0.0
 11
9.7083869726
 21
7.7261550202
 31
0.0
  0
LINE
  5
193
330
1F
100
AcDbEntity
  8
0
  6
Continuous
 62
     7
370
    25
100
AcDbLine
 10
8.6458869726
 20
7.6148806148
 30
0.0
 11
8.6458869726
 21
7.7261550202
 31
0.0
  0
LINE
  5
194
330
1F
100
AcDbEntity
  8
0
  6
Continuous
 62
     7
370
    25
100
AcDbLine
 10
8.5833869726
 20
7.6614494671
 30
0.0
 11
8.5833869726
 21
7.7261550202
 31
0.0
  0
LINE
  5
195
330
1F
100
AcDbEntity
  8
0
  6
Continuous
 62
     7
370
    25
100
AcDbLine
 10
9.5833869726
 20
7.5761106666
 30
0.0
 11
9.5833869726
 21
7.7261550202
 31
0.0
  0
LINE
  5
196
330
1F
100
AcDbEntity
  8
0
  6
Continuous
 62
     7
370
    25
100
AcDbLine
 10
9.6458869726
 20
7.6148806148
 30
0.0
 11
9.6458869726
 21
7.7261550202
 31
0.0
  0
LINE
  5
197
330
1F
100
AcDbEntity
  8
0
  6
Continuous
 62
     7
370
    25
100
AcDbLine
 10
8.7083869726
 20
7.5761106666
 30
0.0
 11
8.7083869726
 21
7.7261550202
 31
0.0
  0
LINE
  5
198
330
1F
100
AcDbEntity
  8
0
  6
Continuous
 62
     7
370
    25
100
AcDbLine
 10
8.7708869726
 20
7.5440150075
 30
0.0
 11
8.7708869726
 21
7.7261550202
 31
0.0
  0
LINE
  5
199
330
1F
100
AcDbEntity
  8
0
  6
Continuous
 62
     7
370
    25
100
AcDbLine
 10
9.4583869726
 20
7.5178221035
 30
0.0
 11
9.4583869726
 21
7.7261550202
 31
0.0
  0
LINE
  5
19A
330
1F
100
AcDbEntity
  8
0
  6
Continuous
 62
     7
370
    25
100
AcDbLine
 10
9.5208869726
 20
7.5440150075
 30
0.0
 11
9.5208869726
 21
7.7261550202
 31
0.0
  0
LINE
  5
19B
330
1F
100
AcDbEntity
  8
0
  6
Continuous
 62
     7
370
    25
100
AcDbLine
 10
8.8333869726
 20
7.5178221035
 30
0.0
 11
8.8333869726
 21
7.7261550202
 31
0.0
  0
LINE
  5
19C
330
1F
100
AcDbEntity
  8
0
  6
Continuous
 62
     7
370
    25
100
AcDbLine
 10
8.8958869726
 20
7.49698876
 30
0.0
 11
8.8958869726
 21
7.7261550202
 31
0.0
  0
LINE
  5
19D
330
1F
100
AcDbEntity
  8
0
  6
Continuous
 62
     7
370
    25
100
AcDbLine
 10
9.3333869726
 20
7.4811298769
 30
0.0
 11
9.3333869726
 21
7.7261550202
 31
0.0
  0
LINE
  5
19E
330
1F
100
AcDbEntity
  8
0
  6
Continuous
 62
     7
370
    25
100
AcDbLine
 10
9.3958869726
 20
7.49698876
 30
0.0
 11
9.3958869726
 21
7.7261550202
 31
0.0
  0
LINE
  5
19F
330
1F
100
AcDbEntity
  8
0
  6
Continuous
 62
     7
370
    25
100
AcDbLine
 10
9.0208869726
 20
7.4699768316
 30
0.0
 11
9.0208869726
 21
7.7261550202
 31
0.0
  0
LINE
  5
1A0
330
1F
100
AcDbEntity
  8
0
  6
Continuous
 62
     7
370
    25
100
AcDbLine
 10
8.9583869726
 20
7.4811298769
 30
0.0
 11
8.9583869726
 21
7.7261550202
 31
0.0
  0
LINE
  5
1A1
330
1F
100
AcDbEntity
  8
0
  6
Continuous
 62
     7
370
    25
100
AcDbLine
 10
9.2708869726
 20
7.4699768316
 30
0.0
 11
9.2708869726
 21
7.7261550202
 31
0.0
  0
LINE
  5
1A2
330
1F
100
AcDbEntity
  8
0
  6
Continuous
 62
     7
370
    25
100
AcDbLine
 10
9.2083869726
 20
7.4633522549
 30
0.0
 11
9.2083869726
 21
7.7261550202
 31
0.0
  0
LINE
  5
1A3
330
1F
100
AcDbEntity
  8
0
  6
Continuous
 62
     7
370
    25
100
AcDbLine
 10
9.0833869726
 20
7.4633522549
 30
0.0
 11
9.0833869726
 21
7.7261550202
 31
0.0
  0
LINE
  5
1A4
330
1F
100
AcDbEntity
  8
0
  6
Continuous
 62
     7
370
    25
100
AcDbLine
 10
9.1458869726
 20
7.4611550202
 30
0.0
 11
9.1458869726
 21
7.7261550202
 31
0.0
  0
ARC
  5
1A5
330
1F
100
AcDbEntity
  8
0
  6
Continuous
 62
     7
370
    25
100
AcDbCircle
 10
9.1458869726
 20
8.3511550202
 30
0.0
 40
0.8900000000000011
100
AcDbArc
 50
224.6075756536
 51
315.3924243464
  0
POINT
  5
1A6
330
1F
100
AcDbEntity
  8
VP
100
AcDbPoint
 10
9.1458869726
 20
7.7261550202
 30
0.0
  0
POINT
  5
1A7
330
1F
100
AcDbEntity
  8
VP
100
AcDbPoint
 10
9.1458869726
 20
7.338905051
 30
0.0
  0
DIMENSION
  5
1A8
330
1F
100
AcDbEntity
  8
0
  6
Continuous
 62
     7
370
    18
100
AcDbDimension
  2
_D_2
 10
10.9242605273
 20
6.5727814655
 30
0.0
 11
3.7614228731
 21
11.251765008
 31
0.0
 70
   163
  1
<>
 71
     1
 42
-1.0
  3
SLDDIMSTYLE2
100
AcDbDiametricDimension
 15
7.3675134179
 25
10.1295285749
 35
0.0
 40
0.0
  0
DIMENSION
  5
1B9
330
1F
100
AcDbEntity
  8
0
  6
Continuous
 62
     7
370
    18
100
AcDbDimension
  2
_D_3
 10
10.8958869726
 20
13.3858400595
 30
0.0
 11
9.1458869726
 21
13.3858400595
 31
0.0
 70
   160
  1
<>
 71
     2
 42
-1.0
  3
SLDDIMSTYLE3
100
AcDbAlignedDimension
 13
7.3958869726
 23
8.3511550202
 33
0.0
 14
10.8958869726
 24
8.3511550202
 34
0.0
 50
0.0
100
AcDbRotatedDimension
  0
MTEXT
  5
1CE
330
1F
100
AcDbEntity
  8
0
  6
Continuous
 62
     7
370
     0
100
AcDbMText
 10
11.5953068311
 20
3.3145055954
 30
0.0
 40
0.5
 41
0.0
 71
     1
 72
     1
  1
A FACEPLATE
  7
SLDTEXTSTYLE0
 73
     1
 44
1.0
  0
LINE
  5
1CF
330
1F
100
AcDbEntity
  8
0
  6
Continuous
 62
     7
370
    25
100
AcDbLine
 10
27.7760135366
 20
7.9761550202
 30
0.0
 11
29.656837824
 21
7.9761550202
 31
0.0
  0
ARC
  5
1D0
330
1F
100
AcDbEntity
  8
0
  6
Continuous
 62
     7
370
    25
100
AcDbCircle
 10
28.7164256803
 20
8.3511550202
 30
0.0
 40
1.012422836565831
100
AcDbArc
 50
338.2597980049
 51
201.7402019951
  0
CIRCLE
  5
1D1
330
1F
100
AcDbEntity
  8
0
  6
Continuous
 62
     7
370
    25
100
AcDbCircle
 10
26.9664256803
 20
8.3511550202
 30
0.0
 40
0.2050000000000001
  0
CIRCLE
  5
1D2
330
1F
100
AcDbEntity
  8
0
  6
Continuous
 62
     7
370
    25
100
AcDbCircle
 10
30.4664256803
 20
8.3511550202
 30
0.0
 40
0.2050000000000001
  0
CIRCLE
  5
1D3
330
1F
100
AcDbEntity
  8
0
  6
Continuous
 62
     7
370
    25
100
AcDbCircle
 10
28.7164256803
 20
8.3511550202
 30
0.0
 40
2.485
  0
ARC
  5
1D4
330
1F
100
AcDbEntity
  8
0
  6
Continuous
 62
     7
370
    25
100
AcDbCircle
 10
28.7164256803
 20
8.3511550202
 30
0.0
 40
0.9224153077654342
100
AcDbArc
 50
203.9877545989
 51
336.0122454011
  0
CIRCLE
  5
1D5
330
1F
100
AcDbEntity
  8
0
  6
Continuous
 62
     7
370
    25
100
AcDbCircle
 10
26.9664256803
 20
8.3511550202
 30
0.0
 40
0.1014999999999997
  0
CIRCLE
  5
1D6
330
1F
100
AcDbEntity
  8
0
  6
Continuous
 62
     7
370
    25
100
AcDbCircle
 10
30.4664256803
 20
8.3511550202
 30
0.0
 40
0.1014999999999997
  0
CIRCLE
  5
1D7
330
1F
100
AcDbEntity
  8
0
  6
Continuous
 62
     7
370
    25
100
AcDbCircle
 10
28.7164256803
 20
8.3511550202
 30
0.0
 40
2.515
  0
LINE
  5
1D8
330
1F
100
AcDbEntity
  8
0
  6
Continuous
 62
     7
370
    25
100
AcDbLine
 10
27.9664256803
 20
7.8719890781
 30
0.0
 11
27.9664256803
 21
7.9761550202
 31
0.0
  0
LINE
  5
1D9
330
1F
100
AcDbEntity
  8
0
  6
Continuous
 62
     7
370
    25
100
AcDbLine
 10
29.4039256803
 20
7.7859614692
 30
0.0
 11
29.4039256803
 21
7.9761550202
 31
0.0
  0
LINE
  5
1DA
330
1F
100
AcDbEntity
  8
0
  6
Continuous
 62
     7
370
    25
100
AcDbLine
 10
29.4664256803
 20
7.8719890781
 30
0.0
 11
29.4664256803
 21
7.9761550202
 31
0.0
  0
LINE
  5
1DB
330
1F
100
AcDbEntity
  8
0
  6
Continuous
 62
     7
370
    25
100
AcDbLine
 10
28.0914256803
 20
7.7175344713
 30
0.0
 11
28.0914256803
 21
7.9761550202
 31
0.0
  0
LINE
  5
1DC
330
1F
100
AcDbEntity
  8
0
  6
Continuous
 62
     7
370
    25
100
AcDbLine
 10
28.0289256803
 20
7.7859614692
 30
0.0
 11
28.0289256803
 21
7.9761550202
 31
0.0
  0
LINE
  5
1DD
330
1F
100
AcDbEntity
  8
0
  6
Continuous
 62
     7
370
    25
100
AcDbLine
 10
29.3414256803
 20
7.7175344713
 30
0.0
 11
29.3414256803
 21
7.9761550202
 31
0.0
  0
LINE
  5
1DE
330
1F
100
AcDbEntity
  8
0
  6
Continuous
 62
     7
370
    25
100
AcDbLine
 10
29.2789256803
 20
7.6614494671
 30
0.0
 11
29.2789256803
 21
7.9761550202
 31
0.0
  0
LINE
  5
1DF
330
1F
100
AcDbEntity
  8
0
  6
Continuous
 62
     7
370
    25
100
AcDbLine
 10
28.2164256803
 20
7.6148806148
 30
0.0
 11
28.2164256803
 21
7.9761550202
 31
0.0
  0
LINE
  5
1E0
330
1F
100
AcDbEntity
  8
0
  6
Continuous
 62
     7
370
    25
100
AcDbLine
 10
28.1539256803
 20
7.6614494671
 30
0.0
 11
28.1539256803
 21
7.9761550202
 31
0.0
  0
LINE
  5
1E1
330
1F
100
AcDbEntity
  8
0
  6
Continuous
 62
     7
370
    25
100
AcDbLine
 10
29.1539256803
 20
7.5761106666
 30
0.0
 11
29.1539256803
 21
7.9761550202
 31
0.0
  0
LINE
  5
1E2
330
1F
100
AcDbEntity
  8
0
  6
Continuous
 62
     7
370
    25
100
AcDbLine
 10
29.2164256803
 20
7.6148806148
 30
0.0
 11
29.2164256803
 21
7.9761550202
 31
0.0
  0
LINE
  5
1E3
330
1F
100
AcDbEntity
  8
0
  6
Continuous
 62
     7
370
    25
100
AcDbLine
 10
28.2789256803
 20
7.5761106666
 30
0.0
 11
28.2789256803
 21
7.9761550202
 31
0.0
  0
LINE
  5
1E4
330
1F
100
AcDbEntity
  8
0
  6
Continuous
 62
     7
370
    25
100
AcDbLine
 10
28.3414256803
 20
7.5440150075
 30
0.0
 11
28.3414256803
 21
7.9761550202
 31
0.0
  0
LINE
  5
1E5
330
1F
100
AcDbEntity
  8
0
  6
Continuous
 62
     7
370
    25
100
AcDbLine
 10
29.0289256803
 20
7.5178221035
 30
0.0
 11
29.0289256803
 21
7.9761550202
 31
0.0
  0
LINE
  5
1E6
330
1F
100
AcDbEntity
  8
0
  6
Continuous
 62
     7
370
    25
100
AcDbLine
 10
29.0914256803
 20
7.5440150075
 30
0.0
 11
29.0914256803
 21
7.9761550202
 31
0.0
  0
LINE
  5
1E7
330
1F
100
AcDbEntity
  8
0
  6
Continuous
 62
     7
370
    25
100
AcDbLine
 10
28.4039256803
 20
7.5178221035
 30
0.0
 11
28.4039256803
 21
7.9761550202
 31
0.0
  0
LINE
  5
1E8
330
1F
100
AcDbEntity
  8
0
  6
Continuous
 62
     7
370
    25
100
AcDbLine
 10
28.4664256803
 20
7.49698876
 30
0.0
 11
28.4664256803
 21
7.9761550202
 31
0.0
  0
LINE
  5
1E9
330
1F
100
AcDbEntity
  8
0
  6
Continuous
 62
     7
370
    25
100
AcDbLine
 10
28.9039256803
 20
7.4811298769
 30
0.0
 11
28.9039256803
 21
7.9761550202
 31
0.0
  0
LINE
  5
1EA
330
1F
100
AcDbEntity
  8
0
  6
Continuous
 62
     7
370
    25
100
AcDbLine
 10
28.9664256803
 20
7.49698876
 30
0.0
 11
28.9664256803
 21
7.9761550202
 31
0.0
  0
LINE
  5
1EB
330
1F
100
AcDbEntity
  8
0
  6
Continuous
 62
     7
370
    25
100
AcDbLine
 10
28.5914256803
 20
7.4699768316
 30
0.0
 11
28.5914256803
 21
7.9761550202
 31
0.0
  0
LINE
  5
1EC
330
1F
100
AcDbEntity
  8
0
  6
Continuous
 62
     7
370
    25
100
AcDbLine
 10
28.5289256803
 20
7.4811298769
 30
0.0
 11
28.5289256803
 21
7.9761550202
 31
0.0
  0
LINE
  5
1ED
330
1F
100
AcDbEntity
  8
0
  6
Continuous
 62
     7
370
    25
100
AcDbLine
 10
28.8414256803
 20
7.4699768316
 30
0.0
 11
28.8414256803
 21
7.9761550202
 31
0.0
  0
LINE
  5
1EE
330
1F
100
AcDbEntity
  8
0
  6
Continuous
 62
     7
370
    25
100
AcDbLine
 10
28.7789256803
 20
7.4633522549
 30
0.0
 11
28.7789256803
 21
7.9761550202
 31
0.0
  0
LINE
  5
1EF
330
1F
100
AcDbEntity
  8
0
  6
Continuous
 62
     7
370
    25
100
AcDbLine
 10
28.6539256803
 20
7.4633522549
 30
0.0
 11
28.6539256803
 21
7.9761550202
 31
0.0
  0
LINE
  5
1F0
330
1F
100
AcDbEntity
  8
0
  6
Continuous
 62
     7
370
    25
100
AcDbLine
 10
28.7164256803
 20
7.4611550202
 30
0.0
 11
28.7164256803
 21
7.9761550202
 31
0.0
  0
ARC
  5
1F1
330
1F
100
AcDbEntity
  8
0
  6
Continuous
 62
     7
370
    25
100
AcDbCircle
 10
28.7164256803
 20
8.3511550202
 30
0.0
 40
0.8899999999999998
100
AcDbArc
 50
204.9197415276
 51
335.0802584724
  0
POINT
  5
1F2
330
1F
100
AcDbEntity
  8
VP
100
AcDbPoint
 10
28.7164256803
 20
7.9761550202
 30
0.0
  0
POINT
  5
1F3
330
1F
100
AcDbEntity
  8
VP
100
AcDbPoint
 10
28.7164256803
 20
7.4287397124
 30
0.0
  0
DIMENSION
  5
1F4
330
1F
100
AcDbEntity
  8
0
  6
Continuous
 62
     7
370
    18
100
AcDbDimension
  2
_D_4
 10
30.4735860315
 20
6.5939946689
 30
0.0
 11
22.142768419
 21
12.4409581698
 31
0.0
 70
   163
  1
<>
 71
     1
 42
-1.0
  3
SLDDIMSTYLE2
100
AcDbDiametricDimension
 15
26.959265329
 25
10.1083153714
 35
0.0
 40
0.0
  0
DIMENSION
  5
204
330
1F
100
AcDbEntity
  8
0
  6
Continuous
 62
     7
370
    18
100
AcDbDimension
  2
_D_5
 10
30.4664256803
 20
12.4409581698
 30
0.0
 11
28.7164256803
 21
12.4409581698
 31
0.0
 70
   160
  1
<>
 71
     2
 42
-1.0
  3
SLDDIMSTYLE3
100
AcDbAlignedDimension
 13
26.9664256803
 23
8.3511550202
 33
0.0
 14
30.4664256803
 24
8.3511550202
 34
0.0
100
AcDbRotatedDimension
  0
MTEXT
  5
218
330
1F
100
AcDbEntity
  8
0
  6
Continuous
 62
     7
370
     0
100
AcDbMText
 10
31.9335378975
 20
3.155269865
 30
0.0
 40
0.5
 41
0.0
 71
     1
 72
     1
  1
B FACEPLATE
  7
SLDTEXTSTYLE0
 73
     1
 44
1.0
  0
LINE
  5
219
330
1F
100
AcDbEntity
  8
0
  6
Continuous
 62
     7
370
    25
100
AcDbLine
 10
15.770081683
 20
5.8361550202
 30
0.0
 11
16.145081683
 21
5.8361550202
 31
0.0
  0
LINE
  5
21A
330
1F
100
AcDbEntity
  8
0
  6
Continuous
 62
     7
370
    25
100
AcDbLine
 10
16.145081683
 20
10.8661550202
 30
0.0
 11
15.770081683
 21
10.8661550202
 31
0.0
  0
LINE
  5
21B
330
1F
100
AcDbEntity
  8
0
  6
Continuous
 62
     7
370
    25
100
AcDbLine
 10
15.770081683
 20
9.5282725237
 30
0.0
 11
15.755081683
 21
9.5281416207
 31
0.0
  0
LINE
  5
21C
330
1F
100
AcDbEntity
  8
0
  6
Continuous
 62
     7
370
    25
100
AcDbLine
 10
15.755081683
 20
7.1741684196
 30
0.0
 11
15.770081683
 21
7.1740375166
 31
0.0
  0
ARC
  5
21D
330
1F
100
AcDbEntity
  8
0
  6
Continuous
 62
     7
370
    25
100
AcDbCircle
 10
16.132581683
 20
8.3511550202
 30
0.0
 40
1.012500000000023
100
AcDbArc
 50
321.8819356938
 51
89.2926267275
  0
ARC
  5
21E
330
1F
100
AcDbEntity
  8
0
  6
Continuous
 62
     7
370
    25
100
AcDbCircle
 10
16.132581683
 20
8.3511550202
 30
0.0
 40
1.012500000000023
100
AcDbArc
 50
270.7073732726
 51
271.2733443614
  0
LINE
  5
21F
330
1F
100
AcDbEntity
  8
0
  6
Continuous
 62
     7
370
    25
100
AcDbLine
 10
15.182581683
 20
7.2411550202
 30
0.0
 11
15.755081683
 21
7.2411550202
 31
0.0
  0
LINE
  5
220
330
1F
100
AcDbEntity
  8
0
  6
Continuous
 62
     7
370
    25
100
AcDbLine
 10
15.755081683
 20
9.4611550202
 30
0.0
 11
15.182581683
 21
9.4611550202
 31
0.0
  0
LINE
  5
221
330
1F
100
AcDbEntity
  8
0
  6
Continuous
 62
     7
370
    25
100
AcDbLine
 10
16.145081683
 20
10.8661550202
 30
0.0
 11
16.145081683
 21
5.8361550202
 31
0.0
  0
LINE
  5
222
330
1F
100
AcDbEntity
  8
0
  6
Continuous
 62
     7
370
    25
100
AcDbLine
 10
15.770081683
 20
10.8661550202
 30
0.0
 11
15.770081683
 21
5.8361550202
 31
0.0
  0
LINE
  5
223
330
1F
100
AcDbEntity
  8
0
  6
Continuous
 62
     7
370
    25
100
AcDbLine
 10
15.755081683
 20
9.5281416207
 30
0.0
 11
15.755081683
 21
7.1741684196
 31
0.0
  0
LINE
  5
224
330
1F
100
AcDbEntity
  8
0
  6
Continuous
 62
     7
370
    25
100
AcDbLine
 10
16.155081683
 20
7.7261550202
 30
0.0
 11
16.9291563813
 21
7.7261550202
 31
0.0
  0
LINE
  5
225
330
1F
100
AcDbEntity
  8
0
  6
Continuous
 62
     7
370
    25
100
AcDbLine
 10
16.155081683
 20
7.338905051
 30
0.0
 11
16.155081683
 21
7.7261550202
 31
0.0
  0
LINE
  5
226
330
1F
100
AcDbEntity
  8
0
  6
Continuous
 62
     7
370
    25
100
AcDbLine
 10
15.182581683
 20
9.4611550202
 30
0.0
 11
15.182581683
 21
7.2411550202
 31
0.0
  0
ARC
  5
227
330
1F
100
AcDbEntity
  8
0
  6
Continuous
 62
     7
370
    25
100
AcDbCircle
 10
15.307581683
 20
8.3511634297
 30
0.0
 40
0.0820000004312166
100
AcDbArc
 50
180.00587595
 51
359.99412405
  0
SPLINE
  5
228
330
1F
100
AcDbEntity
  8
0
  6
Continuous
 62
     7
370
    25
100
AcDbSpline
210
0.0
220
0.0
230
1.0
 70
     8
 71
     3
 72
    27
 73
    23
 74
     0
 42
0.00000001
 43
0.00000001
 40
0.0
 40
0.0
 40
0.0
 40
0.0
 40
0.0364460099546646
 40
0.0728920843388318
 40
0.1264239195331036
 40
0.1799564159516599
 40
0.2335885463870186
 40
0.2872208149647409
 40
0.3409577786937045
 40
0.3946941302384041
 40
0.4483766786757895
 40
0.5020588188586276
 40
0.5556120220265824
 40
0.6091656557811648
 40
0.6627167162703806
 40
0.7162683671515618
 40
0.7699474741670719
 40
0.8236264137015346
 40
0.8773642840503586
 40
0.9311014833958992
 40
0.965550766149882
 40
1.0
 40
1.0
 40
1.0
 40
1.0
 10
15.22558168301716
 20
8.351155020167981
 30
0.0
 10
15.22568654790152
 20
8.354283839939146
 30
0.0
 10
15.22589627785562
 20
8.360541485012627
 30
0.0
 10
15.22781282499676
 20
8.371251977484087
 30
0.0
 10
15.23161504396353
 20
8.383016309873794
 30
0.0
 10
15.23801143023033
 20
8.395300547062597
 30
0.0
 10
15.24640717154372
 20
8.406318187175476
 30
0.0
 10
15.25651327546286
 20
8.415818395697793
 30
0.0
 10
15.26810532743059
 20
8.423453691773405
 30
0.0
 10
15.2808026669055
 20
8.429080369181312
 30
0.0
 10
15.29427512968697
 20
8.432446600084981
 30
0.0
 10
15.30810404980957
 20
8.433550517543175
 30
0.0
 10
15.32190627789166
 20
8.43227163207322
 30
0.0
 10
15.33529870580034
 20
8.42874914427183
 30
0.0
 10
15.34788885609558
 20
8.422990947705419
 30
0.0
 10
15.35937050509853
 20
8.415241515164123
 30
0.0
 10
15.36936555565755
 20
8.405635774407894
 30
0.0
 10
15.377653231903
 20
8.394504124458948
 30
0.0
 10
15.38392464861003
 20
8.382110890913117
 30
0.0
 10
15.38754344786164
 20
8.370430186227438
 30
0.0
 10
15.38930083819236
 20
8.360026784366232
 30
0.0
 10
15.38948806811986
 20
8.354112273501366
 30
0.0
 10
15.38958168301716
 20
8.351155020167981
 30
0.0
  0
LINE
  5
229
330
1F
100
AcDbEntity
  8
VP
100
AcDbLine
 10
16.9291563813
 20
7.7261550202
 30
0.0
 11
16.145081683
 21
8.0429417613
 31
0.0
  0
DIMENSION
  5
22A
330
1F
100
AcDbEntity
  8
0
  6
Continuous
 62
     7
370
    18
100
AcDbDimension
  2
_D_6
 10
18.9540701282
 20
7.7261550202
 30
0.0
 11
18.9540701282
 21
9.2961550202
 31
0.0
 70
   160
  1
<>
 71
     2
 42
-1.0
  3
SLDDIMSTYLE3
100
AcDbAlignedDimension
 13
16.145081683
 23
10.8661550202
 33
0.0
 14
16.9291563813
 24
7.7261550202
 34
0.0
 50
90.0
100
AcDbRotatedDimension
  0
ARC
  5
23E
330
1F
100
AcDbEntity
  8
0
  6
Continuous
 62
     7
370
    25
100
AcDbCircle
 10
36.4733323074
 20
10.8361550202
 30
0.0
 40
0.0300000000000011
100
AcDbArc
 50
0.0
 51
90.0
  0
ARC
  5
23F
330
1F
100
AcDbEntity
  8
0
  6
Continuous
 62
     7
370
    25
100
AcDbCircle
 10
36.4733323074
 20
5.8661550202
 30
0.0
 40
0.0300000000000011
100
AcDbArc
 50
270.0
 51
0.0
  0
LINE
  5
240
330
1F
100
AcDbEntity
  8
0
  6
Continuous
 62
     7
370
    25
100
AcDbLine
 10
36.1463323074
 20
5.8361550202
 30
0.0
 11
36.4733323074
 21
5.8361550202
 31
0.0
  0
LINE
  5
241
330
1F
100
AcDbEntity
  8
0
  6
Continuous
 62
     7
370
    25
100
AcDbLine
 10
36.4733323074
 20
10.8661550202
 30
0.0
 11
36.1463323074
 21
10.8661550202
 31
0.0
  0
ARC
  5
242
330
1F
100
AcDbEntity
  8
0
  6
Continuous
 62
     7
370
    25
100
AcDbCircle
 10
36.1463323074
 20
10.8361550202
 30
0.0
 40
0.0300000000000011
100
AcDbArc
 50
90.0
 51
180.0
  0
ARC
  5
243
330
1F
100
AcDbEntity
  8
0
  6
Continuous
 62
     7
370
    25
100
AcDbCircle
 10
36.1463323074
 20
5.8661550202
 30
0.0
 40
0.0300000000000011
100
AcDbArc
 50
180.0
 51
270.0
  0
LINE
  5
244
330
1F
100
AcDbEntity
  8
0
  6
Continuous
 62
     7
370
    25
100
AcDbLine
 10
36.1163323074
 20
9.5102777223
 30
0.0
 11
36.1133323074
 21
9.5102515417
 31
0.0
  0
LINE
  5
245
330
1F
100
AcDbEntity
  8
0
  6
Continuous
 62
     7
370
    25
100
AcDbLine
 10
36.1133323074
 20
7.1920584986
 30
0.0
 11
36.1163323074
 21
7.192032318
 31
0.0
  0
ARC
  5
246
330
1F
100
AcDbEntity
  8
0
  6
Continuous
 62
     7
370
    25
100
AcDbCircle
 10
36.4908323074
 20
8.3511550202
 30
0.0
 40
1.012500000000004
100
AcDbArc
 50
338.2615392085
 51
89.2926267275
  0
LINE
  5
247
330
1F
100
AcDbEntity
  8
0
  6
Continuous
 62
     7
370
    25
100
AcDbLine
 10
35.5408323074
 20
7.2411550202
 30
0.0
 11
36.1133323074
 21
7.2411550202
 31
0.0
  0
LINE
  5
248
330
1F
100
AcDbEntity
  8
0
  6
Continuous
 62
     7
370
    25
100
AcDbLine
 10
36.1133323074
 20
9.4611550202
 30
0.0
 11
35.5408323074
 21
9.4611550202
 31
0.0
  0
LINE
  5
249
330
1F
100
AcDbEntity
  8
0
  6
Continuous
 62
     7
370
    25
100
AcDbLine
 10
36.5033323074
 20
10.8361550202
 30
0.0
 11
36.5033323074
 21
5.8661550202
 31
0.0
  0
LINE
  5
24A
330
1F
100
AcDbEntity
  8
0
  6
Continuous
 62
     7
370
    25
100
AcDbLine
 10
36.1163323074
 20
5.8661550202
 30
0.0
 11
36.1163323074
 21
10.8361550202
 31
0.0
  0
LINE
  5
24B
330
1F
100
AcDbEntity
  8
0
  6
Continuous
 62
     7
370
    25
100
AcDbLine
 10
36.1133323074
 20
9.5102515417
 30
0.0
 11
36.1133323074
 21
7.1920584986
 31
0.0
  0
LINE
  5
24C
330
1F
100
AcDbEntity
  8
0
  6
Continuous
 62
     7
370
    25
100
AcDbLine
 10
36.5033323074
 20
7.9761550202
 30
0.0
 11
37.4313275227
 21
7.9761550202
 31
0.0
  0
LINE
  5
24D
330
1F
100
AcDbEntity
  8
0
  6
Continuous
 62
     7
370
    25
100
AcDbLine
 10
35.5408323074
 20
9.4611550202
 30
0.0
 11
35.5408323074
 21
7.2411550202
 31
0.0
  0
ARC
  5
24E
330
1F
100
AcDbEntity
  8
0
  6
Continuous
 62
     7
370
    25
100
AcDbCircle
 10
35.6658323074
 20
8.3511634297
 30
0.0
 40
0.0820000004312166
100
AcDbArc
 50
180.00587595
 51
359.99412405
  0
SPLINE
  5
24F
330
1F
100
AcDbEntity
  8
0
  6
Continuous
 62
     7
370
    25
100
AcDbSpline
210
0.0
220
0.0
230
1.0
 70
     8
 71
     3
 72
    27
 73
    23
 74
     0
 42
0.00000001
 43
0.00000001
 40
0.0
 40
0.0
 40
0.0
 40
0.0
 40
0.0364460099546646
 40
0.0728920843388318
 40
0.1264239195331036
 40
0.1799564159516599
 40
0.2335885463870187
 40
0.2872208149647411
 40
0.3409577786937046
 40
0.3946941302384042
 40
0.4483766786757891
 40
0.5020588188586277
 40
0.5556120220265827
 40
0.609165655781165
 40
0.6627167162703808
 40
0.716268367151562
 40
0.7699474741670718
 40
0.8236264137015347
 40
0.8773642840503588
 40
0.9311014833958992
 40
0.9655507661498821
 40
1.0
 40
1.0
 40
1.0
 40
1.0
 10
35.58383230737617
 20
8.351155020167981
 30
0.0
 10
35.58393717226053
 20
8.354283839939146
 30
0.0
 10
35.58414690221462
 20
8.360541485012627
 30
0.0
 10
35.58606344935577
 20
8.371251977484087
 30
0.0
 10
35.58986566832254
 20
8.383016309873794
 30
0.0
 10
35.59626205458934
 20
8.395300547062597
 30
0.0
 10
35.60465779590272
 20
8.406318187175476
 30
0.0
 10
35.61476389982187
 20
8.415818395697793
 30
0.0
 10
35.6263559517896
 20
8.423453691773405
 30
0.0
 10
35.6390532912645
 20
8.429080369181312
 30
0.0
 10
35.65252575404597
 20
8.432446600084981
 30
0.0
 10
35.66635467416858
 20
8.433550517543175
 30
0.0
 10
35.68015690225067
 20
8.43227163207322
 30
0.0
 10
35.69354933015934
 20
8.42874914427183
 30
0.0
 10
35.70613948045459
 20
8.422990947705419
 30
0.0
 10
35.71762112945754
 20
8.415241515164123
 30
0.0
 10
35.72761618001655
 20
8.405635774407894
 30
0.0
 10
35.735903856262
 20
8.394504124458948
 30
0.0
 10
35.74217527296904
 20
8.382110890913117
 30
0.0
 10
35.74579407222064
 20
8.370430186227438
 30
0.0
 10
35.74755146255137
 20
8.360026784366232
 30
0.0
 10
35.74773869247887
 20
8.354112273501366
 30
0.0
 10
35.74783230737617
 20
8.351155020167981
 30
0.0
  0
LINE
  5
250
330
1F
100
AcDbEntity
  8
0
  6
Continuous
 62
     7
370
    25
100
AcDbLine
 10
36.4733323074
 20
5.8361550202
 30
0.0
 11
36.4733323074
 21
10.8661550202
 31
0.0
  0
LINE
  5
251
330
1F
100
AcDbEntity
  8
0
  6
Continuous
 62
     7
370
    25
100
AcDbLine
 10
36.1463323074
 20
10.8661550202
 30
0.0
 11
36.1463323074
 21
5.8361550202
 31
0.0
  0
DIMENSION
  5
252
330
1F
100
AcDbEntity
  8
0
  6
Continuous
 62
     7
370
    18
100
AcDbDimension
  2
_D_7
 10
39.4395242444
 20
7.9761550202
 30
0.0
 11
39.4395242444
 21
9.4211550202
 31
0.0
 70
   160
  1
<>
 71
     2
 42
-1.0
  3
SLDDIMSTYLE3
100
AcDbAlignedDimension
 13
36.4733323074
 23
10.8661550202
 33
0.0
 14
37.4313275227
 24
7.9761550202
 34
0.0
 50
90.0
100
AcDbRotatedDimension
  0
ENDSEC
  0
SECTION
  2
OBJECTS
  0
DICTIONARY
  5
C
330
0
100
AcDbDictionary
281
     1
  3
ACAD_GROUP
350
D
  3
ACAD_LAYOUT
350
1A
  3
ACAD_MLINESTYLE
350
17
  3
ACAD_PLOTSETTINGS
350
19
  3
ACAD_PLOTSTYLENAME
350
E
  3
ACAD_SCALELIST
350
47
  3
DWGPROPS
350
266
  0
DICTIONARY
  5
D
102
{ACAD_REACTORS
330
C
102
}
330
C
100
AcDbDictionary
281
     1
  0
DICTIONARY
  5
1A
102
{ACAD_REACTORS
330
C
102
}
330
C
100
AcDbDictionary
281
     1
  3
Layout1
350
1E
  3
Layout2
350
26
  3
Model
350
22
  0
DICTIONARY
  5
17
102
{ACAD_REACTORS
330
C
102
}
330
C
100
AcDbDictionary
281
     1
  3
Standard
350
18
  0
DICTIONARY
  5
19
102
{ACAD_REACTORS
330
C
102
}
330
C
100
AcDbDictionary
281
     1
  0
ACDBDICTIONARYWDFLT
  5
E
102
{ACAD_REACTORS
330
C
102
}
330
C
100
AcDbDictionary
281
     1
  3
Normal
350
F
100
AcDbDictionaryWithDefault
340
F
  0
DICTIONARY
  5
47
102
{ACAD_REACTORS
330
C
102
}
330
C
100
AcDbDictionary
281
     1
  3
A0
350
48
  3
A1
350
49
  3
A2
350
4A
  3
A3
350
4B
  3
A4
350
4C
  3
A5
350
4D
  3
A6
350
4E
  3
A7
350
4F
  3
A8
350
50
  3
A9
350
51
  3
B1
350
52
  3
B2
350
53
  3
B3
350
54
  3
B4
350
55
  3
B5
350
56
  3
B6
350
57
  3
B7
350
58
  0
XRECORD
  5
266
102
{ACAD_REACTORS
330
C
102
}
330
C
100
AcDbXrecord
280
     1
  1
DWGPROPS COOKIE
  2

  3

  4

  6

  7

  8
stevend
  9

300
=
301
=
302
=
303
=
304
=
305
=
306
=
307
=
308
=
309
=
 40
0.0
 41
2460538.253332061
 42
2460538.253333206
  1

 90
        0
  0
LAYOUT
  5
1E
102
{ACAD_REACTORS
330
1A
102
}
330
1A
100
AcDbPlotSettings
  1

  2
none_device
  4

  6

 40
0.0
 41
0.0
 42
0.0
 43
0.0
 44
0.0
 45
0.0
 46
0.0
 47
0.0
 48
0.0
 49
0.0
140
0.0
141
0.0
142
1.0
143
1.0
 70
   688
 72
     0
 73
     0
 74
     5
  7

 75
    16
147
1.0
148
0.0
149
0.0
100
AcDbLayout
  1
Layout1
 70
     1
 71
     1
 10
0.0
 20
0.0
 11
12.0
 21
9.0
 12
0.0
 22
0.0
 32
0.0
 14
1.0000000000E+20
 24
1.0000000000E+20
 34
1.0000000000E+20
 15
-1.0000000000E+20
 25
-1.0000000000E+20
 35
-1.0000000000E+20
146
0.0
 13
0.0
 23
0.0
 33
0.0
 16
1.0
 26
0.0
 36
0.0
 17
0.0
 27
1.0
 37
0.0
 76
     0
330
1B
  0
LAYOUT
  5
26
102
{ACAD_REACTORS
330
1A
102
}
330
1A
100
AcDbPlotSettings
  1

  2
none_device
  4

  6

 40
0.0
 41
0.0
 42
0.0
 43
0.0
 44
0.0
 45
0.0
 46
0.0
 47
0.0
 48
0.0
 49
0.0
140
0.0
141
0.0
142
1.0
143
1.0
 70
   688
 72
     0
 73
     0
 74
     5
  7

 75
    16
147
1.0
148
0.0
149
0.0
100
AcDbLayout
  1
Layout2
 70
     1
 71
     2
 10
0.0
 20
0.0
 11
0.0
 21
0.0
 12
0.0
 22
0.0
 32
0.0
 14
0.0
 24
0.0
 34
0.0
 15
0.0
 25
0.0
 35
0.0
146
0.0
 13
0.0
 23
0.0
 33
0.0
 16
1.0
 26
0.0
 36
0.0
 17
0.0
 27
1.0
 37
0.0
 76
     0
330
23
  0
LAYOUT
  5
22
102
{ACAD_REACTORS
330
1A
102
}
330
1A
100
AcDbPlotSettings
  1

  2
none_device
  4
Letter_(8.50_x_11.00_Inches)
  6

 40
6.35
 41
6.35
 42
6.35000508
 43
6.35000508
 44
215.9
 45
279.4
 46
0.0
 47
0.0
 48
0.0
 49
0.0
140
0.0
141
0.0
142
1.0
143
1.0
 70
  1712
 72
     0
 73
     0
 74
     0
  7

 75
     0
147
1.0
148
0.0
149
0.0
100
AcDbLayout
  1
Model
 70
     1
 71
     0
 10
0.0
 20
0.0
 11
44.0
 21
34.0
 12
0.0
 22
0.0
 32
0.0
 14
0.0
 24
0.0
 34
0.0
 15
44.0
 25
34.0
 35
0.0
146
0.0
 13
0.0
 23
0.0
 33
0.0
 16
1.0
 26
0.0
 36
0.0
 17
0.0
 27
1.0
 37
0.0
 76
     0
330
1F
331
29
  0
MLINESTYLE
  5
18
102
{ACAD_REACTORS
330
17
102
}
330
17
100
AcDbMlineStyle
  2
Standard
 70
     0
  3

 62
   256
 51
90.0
 52
90.0
 71
     2
 49
0.5
 62
   256
  6
BYLAYER
 49
-0.5
 62
   256
  6
BYLAYER
  0
ACDBPLACEHOLDER
  5
F
102
{ACAD_REACTORS
330
E
102
}
330
E
  0
SCALE
  5
48
102
{ACAD_REACTORS
330
47
102
}
330
47
100
AcDbScale
 70
     0
300
1:1
140
1.0
141
1.0
290
     1
  0
SCALE
  5
49
102
{ACAD_REACTORS
330
47
102
}
330
47
100
AcDbScale
 70
     0
300
1/128" = 1'-0"
140
0.0078125
141
12.0
290
     0
  0
SCALE
  5
4A
102
{ACAD_REACTORS
330
47
102
}
330
47
100
AcDbScale
 70
     0
300
1/64" = 1'-0"
140
0.015625
141
12.0
290
     0
  0
SCALE
  5
4B
102
{ACAD_REACTORS
330
47
102
}
330
47
100
AcDbScale
 70
     0
300
1/32" = 1'-0"
140
0.03125
141
12.0
290
     0
  0
SCALE
  5
4C
102
{ACAD_REACTORS
330
47
102
}
330
47
100
AcDbScale
 70
     0
300
1/16" = 1'-0"
140
0.0625
141
12.0
290
     0
  0
SCALE
  5
4D
102
{ACAD_REACTORS
330
47
102
}
330
47
100
AcDbScale
 70
     0
300
3/32" = 1'-0"
140
0.09375
141
12.0
290
     0
  0
SCALE
  5
4E
102
{ACAD_REACTORS
330
47
102
}
330
47
100
AcDbScale
 70
     0
300
1/8" = 1'-0"
140
0.125
141
12.0
290
     0
  0
SCALE
  5
4F
102
{ACAD_REACTORS
330
47
102
}
330
47
100
AcDbScale
 70
     0
300
3/16" = 1'-0"
140
0.1875
141
12.0
290
     0
  0
SCALE
  5
50
102
{ACAD_REACTORS
330
47
102
}
330
47
100
AcDbScale
 70
     0
300
1/4" = 1'-0"
140
0.25
141
12.0
290
     0
  0
SCALE
  5
51
102
{ACAD_REACTORS
330
47
102
}
330
47
100
AcDbScale
 70
     0
300
3/8" = 1'-0"
140
0.375
141
12.0
290
     0
  0
SCALE
  5
52
102
{ACAD_REACTORS
330
47
102
}
330
47
100
AcDbScale
 70
     0
300
1/2" = 1'-0"
140
0.5
141
12.0
290
     0
  0
SCALE
  5
53
102
{ACAD_REACTORS
330
47
102
}
330
47
100
AcDbScale
 70
     0
300
3/4" = 1'-0"
140
0.75
141
12.0
290
     0
  0
SCALE
  5
54
102
{ACAD_REACTORS
330
47
102
}
330
47
100
AcDbScale
 70
     0
300
1" = 1'-0"
140
1.0
141
12.0
290
     0
  0
SCALE
  5
55
102
{ACAD_REACTORS
330
47
102
}
330
47
100
AcDbScale
 70
     0
300
1-1/2" = 1'-0"
140
1.5
141
12.0
290
     0
  0
SCALE
  5
56
102
{ACAD_REACTORS
330
47
102
}
330
47
100
AcDbScale
 70
     0
300
3" = 1'-0"
140
3.0
141
12.0
290
     0
  0
SCALE
  5
57
102
{ACAD_REACTORS
330
47
102
}
330
47
100
AcDbScale
 70
     0
300
6" = 1'-0"
140
6.0
141
12.0
290
     0
  0
SCALE
  5
58
102
{ACAD_REACTORS
330
47
102
}
330
47
100
AcDbScale
 70
     0
300
1'-0" = 1'-0"
140
12.0
141
12.0
290
     0
  0
ENDSEC
  0
EOF
