  0
SECTION
  2
HEADER
  9
$ACADVER
  1
AC1015
  9
$ACADMAINTVER
 70
     6
  9
$DWGCODEPAGE
  3
ANSI_1252
  9
$INSBASE
 10
0.0
 20
0.0
 30
0.0
  9
$EXTMIN
 10
0.0
 20
0.0
 30
0.0
  9
$EXTMAX
 10
22.0
 20
17.0
 30
0.0
  9
$LIMMIN
 10
0.0
 20
0.0
  9
$LIMMAX
 10
22.0
 20
17.0
  9
$ORTHOMODE
 70
     0
  9
$REGENMODE
 70
     1
  9
$FILLMODE
 70
     1
  9
$QTEXTMODE
 70
     0
  9
$MIRRTEXT
 70
     1
  9
$LTSCALE
 40
2.0
  9
$ATTMODE
 70
     1
  9
$TEXTSIZE
 40
0.25
  9
$TRACEWID
 40
0.05
  9
$TEXTSTYLE
  7
Standard
  9
$CLAYER
  8
0
  9
$CELTYPE
  6
ByLayer
  9
$CECOLOR
 62
   256
  9
$CELTSCALE
 40
1.0
  9
$DISPSILH
 70
     0
  9
$DIMSCALE
 40
1.0
  9
$DIMASZ
 40
0.26
  9
$DIMEXO
 40
0.1
  9
$DIMDLI
 40
0.38
  9
$DIMRND
 40
0.0
  9
$DIMDLE
 40
0.0
  9
$DIMEXE
 40
0.25
  9
$DIMTP
 40
0.0
  9
$DIMTM
 40
0.0
  9
$DIMTXT
 40
0.25
  9
$DIMCEN
 40
0.09
  9
$DIMTSZ
 40
0.0
  9
$DIMTOL
 70
     0
  9
$DIMLIM
 70
     0
  9
$DIMTIH
 70
     1
  9
$DIMTOH
 70
     1
  9
$DIMSE1
 70
     0
  9
$DIMSE2
 70
     0
  9
$DIMTAD
 70
     0
  9
$DIMZIN
 70
     1
  9
$DIMBLK
  1

  9
$DIMASO
 70
     1
  9
$DIMSHO
 70
     1
  9
$DIMPOST
  1

  9
$DIMAPOST
  1

  9
$DIMALT
 70
     0
  9
$DIMALTD
 70
     2
  9
$DIMALTF
 40
25.4
  9
$DIMLFAC
 40
1.0
  9
$DIMTOFL
 70
     0
  9
$DIMTVP
 40
0.0
  9
$DIMTIX
 70
     0
  9
$DIMSOXD
 70
     0
  9
$DIMSAH
 70
     0
  9
$DIMBLK1
  1

  9
$DIMBLK2
  1

  9
$DIMSTYLE
  2
Standard
  9
$DIMCLRD
 70
     0
  9
$DIMCLRE
 70
     0
  9
$DIMCLRT
 70
     0
  9
$DIMTFAC
 40
1.0
  9
$DIMGAP
 40
0.12
  9
$DIMJUST
 70
     0
  9
$DIMSD1
 70
     0
  9
$DIMSD2
 70
     0
  9
$DIMTOLJ
 70
     1
  9
$DIMTZIN
 70
     1
  9
$DIMALTZ
 70
     0
  9
$DIMALTTZ
 70
     0
  9
$DIMUPT
 70
     0
  9
$DIMDEC
 70
     0
  9
$DIMTDEC
 70
     0
  9
$DIMALTU
 70
     2
  9
$DIMALTTD
 70
     2
  9
$DIMTXSTY
  7
Standard
  9
$DIMAUNIT
 70
     0
  9
$DIMADEC
 70
     0
  9
$DIMALTRND
 40
0.0
  9
$DIMAZIN
 70
     0
  9
$DIMDSEP
 70
    46
  9
$DIMATFIT
 70
     3
  9
$DIMFRAC
 70
     0
  9
$DIMLDRBLK
  1

  9
$DIMLUNIT
 70
     2
  9
$DIMLWD
 70
    -2
  9
$DIMLWE
 70
    -2
  9
$DIMTMOVE
 70
     0
  9
$LUNITS
 70
     2
  9
$LUPREC
 70
     6
  9
$SKETCHINC
 40
0.1
  9
$FILLETRAD
 40
0.0
  9
$AUNITS
 70
     0
  9
$AUPREC
 70
     2
  9
$MENU
  1
.
  9
$ELEVATION
 40
0.0
  9
$PELEVATION
 40
0.0
  9
$THICKNESS
 40
0.0
  9
$LIMCHECK
 70
     0
  9
$CHAMFERA
 40
0.0
  9
$CHAMFERB
 40
0.0
  9
$CHAMFERC
 40
0.0
  9
$CHAMFERD
 40
0.0
  9
$SKPOLY
 70
     0
  9
$TDCREATE
 40
2460538.134560787
  9
$TDUCREATE
 40
2460538.426227454
  9
$TDUPDATE
 40
2460538.13456132
  9
$TDUUPDATE
 40
2460538.426227986
  9
$TDINDWG
 40
0.0000000116
  9
$TDUSRTIMER
 40
0.0000000116
  9
$USRTIMER
 70
     1
  9
$ANGBASE
 50
0.0
  9
$ANGDIR
 70
     0
  9
$PDMODE
 70
     0
  9
$PDSIZE
 40
-1.0
  9
$PLINEWID
 40
0.0
  9
$SPLFRAME
 70
     0
  9
$SPLINETYPE
 70
     6
  9
$SPLINESEGS
 70
     8
  9
$HANDSEED
  5
1F7
  9
$SURFTAB1
 70
     6
  9
$SURFTAB2
 70
     6
  9
$SURFTYPE
 70
     6
  9
$SURFU
 70
     6
  9
$SURFV
 70
     6
  9
$UCSBASE
  2

  9
$UCSNAME
  2

  9
$UCSORG
 10
0.0
 20
0.0
 30
0.0
  9
$UCSXDIR
 10
1.0
 20
0.0
 30
0.0
  9
$UCSYDIR
 10
0.0
 20
1.0
 30
0.0
  9
$UCSORTHOREF
  2

  9
$UCSORTHOVIEW
 70
     0
  9
$UCSORGTOP
 10
0.0
 20
0.0
 30
0.0
  9
$UCSORGBOTTOM
 10
0.0
 20
0.0
 30
0.0
  9
$UCSORGLEFT
 10
0.0
 20
0.0
 30
0.0
  9
$UCSORGRIGHT
 10
0.0
 20
0.0
 30
0.0
  9
$UCSORGFRONT
 10
0.0
 20
0.0
 30
0.0
  9
$UCSORGBACK
 10
0.0
 20
0.0
 30
0.0
  9
$PUCSBASE
  2

  9
$PUCSNAME
  2

  9
$PUCSORG
 10
0.0
 20
0.0
 30
0.0
  9
$PUCSXDIR
 10
1.0
 20
0.0
 30
0.0
  9
$PUCSYDIR
 10
0.0
 20
1.0
 30
0.0
  9
$PUCSORTHOREF
  2

  9
$PUCSORTHOVIEW
 70
     0
  9
$PUCSORGTOP
 10
0.0
 20
0.0
 30
0.0
  9
$PUCSORGBOTTOM
 10
0.0
 20
0.0
 30
0.0
  9
$PUCSORGLEFT
 10
0.0
 20
0.0
 30
0.0
  9
$PUCSORGRIGHT
 10
0.0
 20
0.0
 30
0.0
  9
$PUCSORGFRONT
 10
0.0
 20
0.0
 30
0.0
  9
$PUCSORGBACK
 10
0.0
 20
0.0
 30
0.0
  9
$USERI1
 70
     0
  9
$USERI2
 70
     0
  9
$USERI3
 70
     0
  9
$USERI4
 70
     0
  9
$USERI5
 70
     0
  9
$USERR1
 40
0.0
  9
$USERR2
 40
0.0
  9
$USERR3
 40
0.0
  9
$USERR4
 40
0.0
  9
$USERR5
 40
0.0
  9
$WORLDVIEW
 70
     1
  9
$SHADEDGE
 70
     3
  9
$SHADEDIF
 70
    70
  9
$TILEMODE
 70
     1
  9
$MAXACTVP
 70
    64
  9
$PINSBASE
 10
0.0
 20
0.0
 30
0.0
  9
$PLIMCHECK
 70
     0
  9
$PEXTMIN
 10
1.0000000000E+20
 20
1.0000000000E+20
 30
1.0000000000E+20
  9
$PEXTMAX
 10
-1.0000000000E+20
 20
-1.0000000000E+20
 30
-1.0000000000E+20
  9
$PLIMMIN
 10
0.0
 20
0.0
  9
$PLIMMAX
 10
12.0
 20
9.0
  9
$UNITMODE
 70
     0
  9
$VISRETAIN
 70
     1
  9
$PLINEGEN
 70
     0
  9
$PSLTSCALE
 70
     1
  9
$TREEDEPTH
 70
  3020
  9
$CMLSTYLE
  2
Standard
  9
$CMLJUST
 70
     0
  9
$CMLSCALE
 40
1.0
  9
$PROXYGRAPHICS
 70
     1
  9
$MEASUREMENT
 70
     0
  9
$CELWEIGHT
370
    -1
  9
$ENDCAPS
280
     0
  9
$JOINSTYLE
280
     0
  9
$LWDISPLAY
290
     1
  9
$INSUNITS
 70
     1
  9
$HYPERLINKBASE
  1

  9
$STYLESHEET
  1

  9
$XEDIT
290
     1
  9
$CEPSNTYPE
380
     0
  9
$PSTYLEMODE
290
     1
  9
$FINGERPRINTGUID
  2
{a1eca0b9-25c0-4404-868d-aea221e7a061}
  9
$VERSIONGUID
  2
{FAEB1C32-E019-11D5-929B-00C0DF256EC4}
  9
$EXTNAMES
290
     1
  9
$PSVPSCALE
 40
0.0
  9
$OLESTARTUP
290
     0
  0
ENDSEC
  0
SECTION
  2
CLASSES
  0
CLASS
  1
ACDBDICTIONARYWDFLT
  2
AcDbDictionaryWithDefault
  3
ObjectDBX Classes
 90
        0
280
     0
281
     0
  0
CLASS
  1
VISUALSTYLE
  2
AcDbVisualStyle
  3
ObjectDBX Classes
 90
     4095
280
     0
281
     0
  0
CLASS
  1
MATERIAL
  2
AcDbMaterial
  3
ObjectDBX Classes
 90
     1153
280
     0
281
     0
  0
CLASS
  1
SCALE
  2
AcDbScale
  3
ObjectDBX Classes
 90
     1153
280
     0
281
     0
  0
CLASS
  1
TABLESTYLE
  2
AcDbTableStyle
  3
ObjectDBX Classes
 90
     4095
280
     0
281
     0
  0
CLASS
  1
MLEADERSTYLE
  2
AcDbMLeaderStyle
  3
ACDB_MLEADERSTYLE_CLASS
 90
     4095
280
     0
281
     0
  0
CLASS
  1
SUN
  2
AcDbSun
  3
SCENEOE
 90
     1153
280
     0
281
     0
  0
CLASS
  1
ACDBPLACEHOLDER
  2
AcDbPlaceHolder
  3
ObjectDBX Classes
 90
        0
280
     0
281
     0
  0
CLASS
  1
LAYOUT
  2
AcDbLayout
  3
ObjectDBX Classes
 90
        0
280
     0
281
     0
  0
ENDSEC
  0
SECTION
  2
TABLES
  0
TABLE
  2
VPORT
  5
8
330
0
100
AcDbSymbolTable
 70
     1
  0
VPORT
  5
29
330
8
100
AcDbSymbolTableRecord
100
AcDbViewportTableRecord
  2
*Active
 70
     0
 10
0.0
 20
0.0
 11
1.0
 21
1.0
 12
11.0
 22
8.5
 13
0.0
 23
0.0
 14
0.5
 24
0.5
 15
0.5
 25
0.5
 16
0.0
 26
0.0
 36
1.0
 17
0.0
 27
0.0
 37
0.0
 40
17.0
 41
1.2941176471
 42
50.0
 43
0.0
 44
0.0
 50
0.0
 51
0.0
 71
     0
 72
  2000
 73
     1
 74
     3
 75
     0
 76
     0
 77
     0
 78
     0
281
     0
 65
     1
110
0.0
120
0.0
130
0.0
111
1.0
121
0.0
131
0.0
112
0.0
122
1.0
132
0.0
 79
     0
146
0.0
  0
ENDTAB
  0
TABLE
  2
LTYPE
  5
5
330
0
100
AcDbSymbolTable
 70
     6
  0
LTYPE
  5
14
330
5
100
AcDbSymbolTableRecord
100
AcDbLinetypeTableRecord
  2
ByBlock
 70
     0
  3

 72
    65
 73
     0
 40
0.0
  0
LTYPE
  5
15
330
5
100
AcDbSymbolTableRecord
100
AcDbLinetypeTableRecord
  2
ByLayer
 70
     0
  3

 72
    65
 73
     0
 40
0.0
  0
LTYPE
  5
16
330
5
100
AcDbSymbolTableRecord
100
AcDbLinetypeTableRecord
  2
Continuous
 70
     0
  3
Solid line
 72
    65
 73
     0
 40
0.0
  0
LTYPE
  5
5E
330
5
100
AcDbSymbolTableRecord
100
AcDbLinetypeTableRecord
  2
HIDDEN
 70
     0
  3
Hidden __ __ __ __ __ __ __ __ __ __ __ __ __ __
 72
    65
 73
     2
 40
0.075
 49
0.05
 74
     0
 49
-0.025
 74
     0
  0
LTYPE
  5
5F
330
5
100
AcDbSymbolTableRecord
100
AcDbLinetypeTableRecord
  2
PHANTOM
 70
     0
  3
Phantom ______  __  __  ______  __  __  ______
 72
    65
 73
     6
 40
0.5
 49
0.25
 74
     0
 49
-0.05
 74
     0
 49
0.05
 74
     0
 49
-0.05
 74
     0
 49
0.05
 74
     0
 49
-0.05
 74
     0
  0
LTYPE
  5
60
330
5
100
AcDbSymbolTableRecord
100
AcDbLinetypeTableRecord
  2
CENTER
 70
     0
  3
Center ____ _ ____ _ ____ _ ____ _ ____ _ ____
 72
    65
 73
     4
 40
0.4
 49
0.25
 74
     0
 49
-0.05
 74
     0
 49
0.05
 74
     0
 49
-0.05
 74
     0
  0
LTYPE
  5
61
330
5
100
AcDbSymbolTableRecord
100
AcDbLinetypeTableRecord
  2
CENTERX2
 70
     0
  3
Center (2x) ________  __  ________  __  _____
 72
    65
 73
     4
 40
0.8
 49
0.5
 74
     0
 49
-0.1
 74
     0
 49
0.1
 74
     0
 49
-0.1
 74
     0
  0
LTYPE
  5
62
330
5
100
AcDbSymbolTableRecord
100
AcDbLinetypeTableRecord
  2
DOT2
 70
     0
  3
Dot (.5x) ........................................
 72
    65
 73
     2
 40
0.025
 49
0.0
 74
     0
 49
-0.025
 74
     0
  0
ENDTAB
  0
TABLE
  2
LAYER
  5
2
330
0
100
AcDbSymbolTable
 70
    12
  0
LAYER
  5
10
330
2
100
AcDbSymbolTableRecord
100
AcDbLayerTableRecord
  2
0
 70
     0
 62
     7
  6
Continuous
370
    -3
390
F
  0
LAYER
  5
63
330
2
100
AcDbSymbolTableRecord
100
AcDbLayerTableRecord
  2
SLD-0
 70
     0
 62
     7
  6
Continuous
370
    -3
390
F
  0
LAYER
  5
64
330
2
100
AcDbSymbolTableRecord
100
AcDbLayerTableRecord
  2
DIM
 70
     0
 62
     7
  6
Continuous
370
    -3
390
F
  0
LAYER
  5
65
330
2
100
AcDbSymbolTableRecord
100
AcDbLayerTableRecord
  2
CEN
 70
     0
 62
     1
  6
CENTER
370
    -3
390
F
  0
LAYER
  5
66
330
2
100
AcDbSymbolTableRecord
100
AcDbLayerTableRecord
  2
HAT
 70
     0
 62
     4
  6
Continuous
370
    -3
390
F
  0
LAYER
  5
67
330
2
100
AcDbSymbolTableRecord
100
AcDbLayerTableRecord
  2
OBJ
 70
     0
 62
     5
  6
Continuous
370
    -3
390
F
  0
LAYER
  5
68
330
2
100
AcDbSymbolTableRecord
100
AcDbLayerTableRecord
  2
SLD-DEFPOINTS
 70
     0
 62
     7
  6
Continuous
370
    -3
390
F
  0
LAYER
  5
69
330
2
100
AcDbSymbolTableRecord
100
AcDbLayerTableRecord
  2
HID
 70
     0
 62
     4
  6
HIDDEN
370
    -3
390
F
  0
LAYER
  5
6A
330
2
100
AcDbSymbolTableRecord
100
AcDbLayerTableRecord
  2
NOTE
 70
     0
 62
     7
  6
Continuous
370
    -3
390
F
  0
LAYER
  5
6B
330
2
100
AcDbSymbolTableRecord
100
AcDbLayerTableRecord
  2
VP
 70
     0
 62
    -5
  6
Continuous
290
     0
370
    -3
390
F
  0
LAYER
  5
6C
330
2
100
AcDbSymbolTableRecord
100
AcDbLayerTableRecord
  2
TITLE
 70
     0
 62
     7
  6
Continuous
370
    -3
390
F
  0
LAYER
  5
6D
330
2
100
AcDbSymbolTableRecord
100
AcDbLayerTableRecord
  2
THICK_TITLE
 70
     0
 62
     7
  6
Continuous
370
   100
390
F
  0
ENDTAB
  0
TABLE
  2
STYLE
  5
3
330
0
100
AcDbSymbolTable
 70
     2
  0
STYLE
  5
11
330
3
100
AcDbSymbolTableRecord
100
AcDbTextStyleTableRecord
  2
Standard
 70
     0
 40
0.0
 41
1.0
 50
0.0
 71
     0
 42
0.25
  3
txt
  4

  0
STYLE
  5
C7
330
3
100
AcDbSymbolTableRecord
100
AcDbTextStyleTableRecord
  2
SLDTEXTSTYLE0
 70
     0
 40
0.0
 41
0.75
 50
0.0
 71
     0
 42
0.25
  3
TXT
  4

  0
ENDTAB
  0
TABLE
  2
VIEW
  5
6
330
0
100
AcDbSymbolTable
 70
     0
  0
ENDTAB
  0
TABLE
  2
UCS
  5
7
330
0
100
AcDbSymbolTable
 70
     0
  0
ENDTAB
  0
TABLE
  2
APPID
  5
9
330
0
100
AcDbSymbolTable
 70
     1
  0
APPID
  5
12
330
9
100
AcDbSymbolTableRecord
100
AcDbRegAppTableRecord
  2
ACAD
 70
     0
  0
ENDTAB
  0
TABLE
  2
DIMSTYLE
  5
A
330
0
100
AcDbSymbolTable
 70
     5
100
AcDbDimStyleTable
  0
DIMSTYLE
105
27
330
A
100
AcDbSymbolTableRecord
100
AcDbDimStyleTableRecord
  2
Standard
 70
     0
178
     0
340
11
  0
DIMSTYLE
105
C8
102
{ACAD_REACTORS
330
C6
102
}
330
A
100
AcDbSymbolTableRecord
100
AcDbDimStyleTableRecord
  2
SLDDIMSTYLE0
 70
     0
 41
0.26
 44
0.0
 78
    12
 79
     3
140
0.25
144
2.0
147
0.0625
148
0.000000001
170
     1
173
     1
178
     0
179
     2
272
     2
276
     2
277
     5
284
    12
340
C7
  0
DIMSTYLE
105
D6
102
{ACAD_REACTORS
330
D5
330
EB
330
1BA
330
1E3
102
}
330
A
100
AcDbSymbolTableRecord
100
AcDbDimStyleTableRecord
  2
SLDDIMSTYLE1
 70
     0
 41
0.26
 44
0.0
 45
0.000000001
 78
    12
 79
     3
140
0.25
147
0.0625
148
0.000000001
170
     1
173
     1
178
     0
271
     6
272
     0
276
     2
277
     5
284
    12
340
C7
  0
DIMSTYLE
105
FF
102
{ACAD_REACTORS
330
FE
102
}
330
A
100
AcDbSymbolTableRecord
100
AcDbDimStyleTableRecord
  2
SLDDIMSTYLE2
 70
     0
 41
0.26
 44
0.0
 45
0.000000001
 78
    12
 79
     3
140
0.25
147
0.0625
148
0.000000001
170
     1
172
     1
173
     1
178
     0
271
     6
272
     0
276
     2
277
     5
284
    12
289
     0
340
C7
  0
DIMSTYLE
105
1CF
102
{ACAD_REACTORS
330
1CE
102
}
330
A
100
AcDbSymbolTableRecord
100
AcDbDimStyleTableRecord
  2
SLDDIMSTYLE3
 70
     0
 41
0.26
 44
0.0
 45
0.000000001
 78
    12
 79
     3
140
0.25
147
0.0625
148
0.000000001
170
     1
173
     1
178
     0
271
     0
272
     0
276
     2
277
     5
284
    12
340
C7
  0
ENDTAB
  0
TABLE
  2
BLOCK_RECORD
  5
1
330
0
100
AcDbSymbolTable
 70
     8
  0
BLOCK_RECORD
  5
1F
330
1
100
AcDbSymbolTableRecord
100
AcDbBlockTableRecord
  2
*Model_Space
340
22
  0
BLOCK_RECORD
  5
1B
330
1
100
AcDbSymbolTableRecord
100
AcDbBlockTableRecord
  2
*Paper_Space
340
1E
  0
BLOCK_RECORD
  5
23
330
1
100
AcDbSymbolTableRecord
100
AcDbBlockTableRecord
  2
*Paper_Space0
340
26
  0
BLOCK_RECORD
  5
C9
330
1
100
AcDbSymbolTableRecord
100
AcDbBlockTableRecord
  2
_D
340
0
  0
BLOCK_RECORD
  5
D7
330
1
100
AcDbSymbolTableRecord
100
AcDbBlockTableRecord
  2
_D_1
340
0
  0
BLOCK_RECORD
  5
EC
330
1
100
AcDbSymbolTableRecord
100
AcDbBlockTableRecord
  2
_D_2
340
0
  0
BLOCK_RECORD
  5
100
330
1
100
AcDbSymbolTableRecord
100
AcDbBlockTableRecord
  2
_D_3
340
0
  0
BLOCK_RECORD
  5
1BB
330
1
100
AcDbSymbolTableRecord
100
AcDbBlockTableRecord
  2
_D_4
340
0
  0
BLOCK_RECORD
  5
1D0
330
1
100
AcDbSymbolTableRecord
100
AcDbBlockTableRecord
  2
_D_5
340
0
  0
BLOCK_RECORD
  5
1E4
330
1
100
AcDbSymbolTableRecord
100
AcDbBlockTableRecord
  2
_D_6
340
0
  0
ENDTAB
  0
ENDSEC
  0
SECTION
  2
BLOCKS
  0
BLOCK
  5
20
330
1F
100
AcDbEntity
  8
0
100
AcDbBlockBegin
  2
*Model_Space
 70
     0
 10
0.0
 20
0.0
 30
0.0
  3
*Model_Space
  1

  0
ENDBLK
  5
21
330
1F
100
AcDbEntity
  8
0
100
AcDbBlockEnd
  0
BLOCK
  5
1C
330
1B
100
AcDbEntity
 67
     1
  8
0
100
AcDbBlockBegin
  2
*Paper_Space
 70
     0
 10
0.0
 20
0.0
 30
0.0
  3
*Paper_Space
  1

  0
ENDBLK
  5
1D
330
1B
100
AcDbEntity
 67
     1
  8
0
100
AcDbBlockEnd
  0
BLOCK
  5
24
330
23
100
AcDbEntity
  8
0
100
AcDbBlockBegin
  2
*Paper_Space0
 70
     0
 10
0.0
 20
0.0
 30
0.0
  3
*Paper_Space0
  1

  0
ENDBLK
  5
25
330
23
100
AcDbEntity
  8
0
100
AcDbBlockEnd
  0
BLOCK
  5
CA
330
C9
100
AcDbEntity
  8
0
100
AcDbBlockBegin
  2
_D
 70
     0
 10
0.0
 20
0.0
 30
0.0
  3
_D
  1

  0
ARC
  5
CC
330
C9
100
AcDbEntity
  8
SLD-0
100
AcDbCircle
 10
8.3635948544
 20
5.2457144373
 30
0.0
 40
2.367687500580571
100
AcDbArc
 50
317.957981969
 51
330.0
  0
ARC
  5
CD
330
C9
100
AcDbEntity
  8
SLD-0
100
AcDbCircle
 10
8.3635948544
 20
5.2457144373
 30
0.0
 40
2.367687500580571
100
AcDbArc
 50
0.0
 51
12.042018031
  0
SOLID
  5
CE
330
C9
100
AcDbEntity
  8
SLD-0
100
AcDbTrace
 10
10.4140723782
 20
4.0618706871
 30
0.0
 11
10.2384631824
 21
3.8660099958
 31
0.0
 12
10.3054552605
 22
3.8222828707
 32
0.0
 13
10.3054552605
 23
3.8222828707
 33
0.0
  0
SOLID
  5
CF
330
C9
100
AcDbEntity
  8
SLD-0
100
AcDbTrace
 10
10.731282355
 20
5.2457144373
 30
0.0
 11
10.75701108
 21
5.5075121316
 31
0.0
 12
10.677130676
 22
5.5031393694
 32
0.0
 13
10.677130676
 23
5.5031393694
 33
0.0
  0
LINE
  5
D0
330
C9
100
AcDbEntity
  8
SLD-0
100
AcDbLine
 10
8.5719442193
 20
5.1254238754
 30
0.0
 11
10.6305787291
 21
3.9368706871
 31
0.0
  0
LINE
  5
D1
330
C9
100
AcDbEntity
  8
SLD-0
100
AcDbLine
 10
8.5703086773
 20
5.2457144373
 30
0.0
 11
10.981282355
 21
5.2457144373
 31
0.0
  0
MTEXT
  5
D2
330
C9
100
AcDbEntity
  8
SLD-0
100
AcDbMText
 10
9.7144943205
 20
4.9551787818
 30
0.0
 40
0.25
 41
0.0
 71
     1
 72
     1
  1
30°
  7
SLDTEXTSTYLE0
 73
     1
 44
1.0
  0
MTEXT
  5
D3
330
C9
100
AcDbEntity
  8
SLD-0
100
AcDbMText
 10
10.3110221124
 20
4.9551787818
 30
0.0
 40
0.25
 41
0.0
 71
     1
 72
     1
  1
LOUVER
  7
SLDTEXTSTYLE0
 73
     1
 44
1.0
  0
MTEXT
  5
D4
330
C9
100
AcDbEntity
  8
SLD-0
100
AcDbMText
 10
10.0924456644
 20
4.5583037699
 30
0.0
 40
0.25
 41
0.0
 71
     1
 72
     1
  1
ANGLE
  7
SLDTEXTSTYLE0
 73
     1
 44
1.0
  0
ENDBLK
  5
CB
330
C9
100
AcDbEntity
  8
0
100
AcDbBlockEnd
  0
BLOCK
  5
D8
330
D7
100
AcDbEntity
  8
0
100
AcDbBlockBegin
  2
_D_1
 70
     0
 10
0.0
 20
0.0
 30
0.0
  3
_D_1
  1

  0
SOLID
  5
DA
330
D7
100
AcDbEntity
  8
SLD-0
100
AcDbTrace
 10
4.257841679
 20
8.5292254502
 30
0.0
 11
4.517841679
 21
8.4892254502
 31
0.0
 12
4.517841679
 22
8.5692254502
 32
0.0
 13
4.517841679
 23
8.5692254502
 33
0.0
  0
SOLID
  5
DB
330
D7
100
AcDbEntity
  8
SLD-0
100
AcDbTrace
 10
8.105341679
 20
8.5292254502
 30
0.0
 11
7.845341679
 21
8.5692254502
 31
0.0
 12
7.845341679
 22
8.4892254502
 32
0.0
 13
7.845341679
 23
8.4892254502
 33
0.0
  0
LINE
  5
DC
330
D7
100
AcDbEntity
  8
SLD-0
100
AcDbLine
 10
5.6843694829
 20
8.527315689
 30
0.0
 11
5.6081976087
 21
8.527315689
 31
0.0
  0
LINE
  5
DD
330
D7
100
AcDbEntity
  8
SLD-0
100
AcDbLine
 10
5.6081976087
 20
8.527315689
 30
0.0
 11
5.6081976087
 21
8.130440677
 31
0.0
  0
LINE
  5
DE
330
D7
100
AcDbEntity
  8
SLD-0
100
AcDbLine
 10
5.6081976087
 20
8.130440677
 30
0.0
 11
5.6843694829
 21
8.130440677
 31
0.0
  0
LINE
  5
DF
330
D7
100
AcDbEntity
  8
SLD-0
100
AcDbLine
 10
6.6788139483
 20
8.527315689
 30
0.0
 11
6.7549858226
 21
8.527315689
 31
0.0
  0
LINE
  5
E0
330
D7
100
AcDbEntity
  8
SLD-0
100
AcDbLine
 10
6.7549858226
 20
8.527315689
 30
0.0
 11
6.7549858226
 21
8.130440677
 31
0.0
  0
LINE
  5
E1
330
D7
100
AcDbEntity
  8
SLD-0
100
AcDbLine
 10
6.7549858226
 20
8.130440677
 30
0.0
 11
6.6788139483
 21
8.130440677
 31
0.0
  0
LINE
  5
E2
330
D7
100
AcDbEntity
  8
SLD-0
100
AcDbLine
 10
4.257841679
 20
5.6230738754
 30
0.0
 11
4.257841679
 21
6.2918238754
 31
0.0
  0
LINE
  5
E3
330
D7
100
AcDbEntity
  8
SLD-0
100
AcDbLine
 10
4.257841679
 20
6.4118238754
 30
0.0
 11
4.257841679
 21
8.7792254502
 31
0.0
  0
LINE
  5
E4
330
D7
100
AcDbEntity
  8
SLD-0
100
AcDbLine
 10
8.105341679
 20
7.8418238754
 30
0.0
 11
8.105341679
 21
8.7792254502
 31
0.0
  0
LINE
  5
E5
330
D7
100
AcDbEntity
  8
SLD-0
100
AcDbLine
 10
4.257841679
 20
8.5292254502
 30
0.0
 11
5.388957891
 21
8.5292254502
 31
0.0
  0
LINE
  5
E6
330
D7
100
AcDbEntity
  8
SLD-0
100
AcDbLine
 10
8.105341679
 20
8.5292254502
 30
0.0
 11
6.9742254669
 21
8.5292254502
 31
0.0
  0
MTEXT
  5
E7
330
D7
100
AcDbEntity
  8
SLD-0
100
AcDbMText
 10
5.5334146231
 20
8.904183344
 30
0.0
 40
0.25
 41
0.0
 71
     1
 72
     1
  1

  7
SLDTEXTSTYLE0
 73
     1
 44
1.0
  0
MTEXT
  5
E8
330
D7
100
AcDbEntity
  8
SLD-0
100
AcDbMText
 10
5.733848653
 20
8.900363881
 30
0.0
 40
0.25
 41
0.0
 71
     1
 72
     1
  1
3 7/8"
  7
SLDTEXTSTYLE0
 73
     1
 44
1.0
  0
MTEXT
  5
E9
330
D7
100
AcDbEntity
  8
SLD-0
100
AcDbMText
 10
5.6843694829
 20
8.4527076395
 30
0.0
 40
0.25
 41
0.0
 71
     1
 72
     1
  1
98mm
  7
SLDTEXTSTYLE0
 73
     1
 44
1.0
  0
MTEXT
  5
EA
330
D7
100
AcDbEntity
  8
SLD-0
100
AcDbMText
 10
6.9249076418
 20
8.904183344
 30
0.0
 40
0.25
 41
0.0
 71
     1
 72
     1
  1

  7
SLDTEXTSTYLE0
 73
     1
 44
1.0
  0
ENDBLK
  5
D9
330
D7
100
AcDbEntity
  8
0
100
AcDbBlockEnd
  0
BLOCK
  5
ED
330
EC
100
AcDbEntity
  8
0
100
AcDbBlockBegin
  2
_D_2
 70
     0
 10
0.0
 20
0.0
 30
0.0
  3
_D_2
  1

  0
SOLID
  5
EF
330
EC
100
AcDbEntity
  8
SLD-0
100
AcDbTrace
 10
1.0659401042
 20
6.3518238754
 30
0.0
 11
1.0259401042
 21
6.0918238754
 31
0.0
 12
1.1059401042
 22
6.0918238754
 32
0.0
 13
1.1059401042
 23
6.0918238754
 33
0.0
  0
SOLID
  5
F0
330
EC
100
AcDbEntity
  8
SLD-0
100
AcDbTrace
 10
1.0659401042
 20
4.1318238754
 30
0.0
 11
1.1059401042
 21
4.3918238754
 31
0.0
 12
1.0259401042
 22
4.3918238754
 32
0.0
 13
1.0259401042
 23
4.3918238754
 33
0.0
  0
LINE
  5
F1
330
EC
100
AcDbEntity
  8
SLD-0
100
AcDbLine
 10
0.5687178898
 20
5.2418238388
 30
0.0
 11
0.4925460156
 21
5.2418238388
 31
0.0
  0
LINE
  5
F2
330
EC
100
AcDbEntity
  8
SLD-0
100
AcDbLine
 10
0.4925460156
 20
5.2418238388
 30
0.0
 11
0.4925460156
 21
4.8449488268
 31
0.0
  0
LINE
  5
F3
330
EC
100
AcDbEntity
  8
SLD-0
100
AcDbLine
 10
0.4925460156
 20
4.8449488268
 30
0.0
 11
0.5687178898
 21
4.8449488268
 31
0.0
  0
LINE
  5
F4
330
EC
100
AcDbEntity
  8
SLD-0
100
AcDbLine
 10
1.5631623552
 20
5.2418238388
 30
0.0
 11
1.6393342294
 21
5.2418238388
 31
0.0
  0
LINE
  5
F5
330
EC
100
AcDbEntity
  8
SLD-0
100
AcDbLine
 10
1.6393342294
 20
5.2418238388
 30
0.0
 11
1.6393342294
 21
4.8449488268
 31
0.0
  0
LINE
  5
F6
330
EC
100
AcDbEntity
  8
SLD-0
100
AcDbLine
 10
1.6393342294
 20
4.8449488268
 30
0.0
 11
1.5631623552
 21
4.8449488268
 31
0.0
  0
LINE
  5
F7
330
EC
100
AcDbEntity
  8
SLD-0
100
AcDbLine
 10
4.575341679
 20
6.3518238754
 30
0.0
 11
0.8159401042
 21
6.3518238754
 31
0.0
  0
LINE
  5
F8
330
EC
100
AcDbEntity
  8
SLD-0
100
AcDbLine
 10
4.575341679
 20
4.1318238754
 30
0.0
 11
0.8159401042
 21
4.1318238754
 31
0.0
  0
LINE
  5
F9
330
EC
100
AcDbEntity
  8
SLD-0
100
AcDbLine
 10
1.0659401042
 20
6.3518238754
 30
0.0
 11
1.0659401042
 21
5.6894801307
 31
0.0
  0
LINE
  5
FA
330
EC
100
AcDbEntity
  8
SLD-0
100
AcDbLine
 10
1.0659401042
 20
4.1318238754
 30
0.0
 11
1.0659401042
 21
4.7941676201
 31
0.0
  0
MTEXT
  5
FB
330
EC
100
AcDbEntity
  8
SLD-0
100
AcDbMText
 10
0.4296814209
 20
5.6148720492
 30
0.0
 40
0.25
 41
0.0
 71
     1
 72
     1
  1
%%c
  7
SLDTEXTSTYLE0
 73
     1
 44
1.0
  0
MTEXT
  5
FC
330
EC
100
AcDbEntity
  8
SLD-0
100
AcDbMText
 10
0.8067126621
 20
5.6148720492
 30
0.0
 40
0.25
 41
0.0
 71
     1
 72
     1
  1
2 1/4"
  7
SLDTEXTSTYLE0
 73
     1
 44
1.0
  0
MTEXT
  5
FD
330
EC
100
AcDbEntity
  8
SLD-0
100
AcDbMText
 10
0.5687178898
 20
5.1672157893
 30
0.0
 40
0.25
 41
0.0
 71
     1
 72
     1
  1
56mm
  7
SLDTEXTSTYLE0
 73
     1
 44
1.0
  0
ENDBLK
  5
EE
330
EC
100
AcDbEntity
  8
0
100
AcDbBlockEnd
  0
BLOCK
  5
101
330
100
100
AcDbEntity
  8
0
100
AcDbBlockBegin
  2
_D_3
 70
     0
 10
0.0
 20
0.0
 30
0.0
  3
_D_3
  1

  0
SOLID
  5
103
330
100
100
AcDbEntity
  8
SLD-0
100
AcDbTrace
 10
8.105341679
 20
8.5292254502
 30
0.0
 11
7.845341679
 21
8.5692254502
 31
0.0
 12
7.845341679
 22
8.4892254502
 32
0.0
 13
7.845341679
 23
8.4892254502
 33
0.0
  0
SOLID
  5
104
330
100
100
AcDbEntity
  8
SLD-0
100
AcDbTrace
 10
8.485341679
 20
8.5292254502
 30
0.0
 11
8.745341679
 21
8.4892254502
 31
0.0
 12
8.745341679
 22
8.5692254502
 32
0.0
 13
8.745341679
 23
8.5692254502
 33
0.0
  0
LINE
  5
105
330
100
100
AcDbEntity
  8
SLD-0
100
AcDbLine
 10
9.2300465388
 20
8.527315689
 30
0.0
 11
9.1538746646
 21
8.527315689
 31
0.0
  0
LINE
  5
106
330
100
100
AcDbEntity
  8
SLD-0
100
AcDbLine
 10
9.1538746646
 20
8.527315689
 30
0.0
 11
9.1538746646
 21
8.130440677
 31
0.0
  0
LINE
  5
107
330
100
100
AcDbEntity
  8
SLD-0
100
AcDbLine
 10
9.1538746646
 20
8.130440677
 30
0.0
 11
9.2300465388
 21
8.130440677
 31
0.0
  0
LINE
  5
108
330
100
100
AcDbEntity
  8
SLD-0
100
AcDbLine
 10
10.2244910042
 20
8.527315689
 30
0.0
 11
10.3006628784
 21
8.527315689
 31
0.0
  0
LINE
  5
109
330
100
100
AcDbEntity
  8
SLD-0
100
AcDbLine
 10
10.3006628784
 20
8.527315689
 30
0.0
 11
10.3006628784
 21
8.130440677
 31
0.0
  0
LINE
  5
10A
330
100
100
AcDbEntity
  8
SLD-0
100
AcDbLine
 10
10.3006628784
 20
8.130440677
 30
0.0
 11
10.2244910042
 21
8.130440677
 31
0.0
  0
LINE
  5
10B
330
100
100
AcDbEntity
  8
SLD-0
100
AcDbLine
 10
8.105341679
 20
7.8418238754
 30
0.0
 11
8.105341679
 21
8.7792254502
 31
0.0
  0
LINE
  5
10C
330
100
100
AcDbEntity
  8
SLD-0
100
AcDbLine
 10
8.485341679
 20
7.8418238754
 30
0.0
 11
8.485341679
 21
8.7792254502
 31
0.0
  0
LINE
  5
10D
330
100
100
AcDbEntity
  8
SLD-0
100
AcDbLine
 10
8.105341679
 20
8.5292254502
 30
0.0
 11
7.605341679
 21
8.5292254502
 31
0.0
  0
LINE
  5
10E
330
100
100
AcDbEntity
  8
SLD-0
100
AcDbLine
 10
8.485341679
 20
8.5292254502
 30
0.0
 11
8.9346349468
 21
8.5292254502
 31
0.0
  0
MTEXT
  5
10F
330
100
100
AcDbEntity
  8
SLD-0
100
AcDbMText
 10
9.079091679
 20
8.904183344
 30
0.0
 40
0.25
 41
0.0
 71
     1
 72
     1
  1

  7
SLDTEXTSTYLE0
 73
     1
 44
1.0
  0
MTEXT
  5
110
330
100
100
AcDbEntity
  8
SLD-0
100
AcDbMText
 10
9.4180673484
 20
8.900363881
 30
0.0
 40
0.25
 41
0.0
 71
     1
 72
     1
  1
3/8"
  7
SLDTEXTSTYLE0
 73
     1
 44
1.0
  0
MTEXT
  5
111
330
100
100
AcDbEntity
  8
SLD-0
100
AcDbMText
 10
9.2300465388
 20
8.4527076395
 30
0.0
 40
0.25
 41
0.0
 71
     1
 72
     1
  1
10mm
  7
SLDTEXTSTYLE0
 73
     1
 44
1.0
  0
MTEXT
  5
112
330
100
100
AcDbEntity
  8
SLD-0
100
AcDbMText
 10
10.4705846976
 20
8.904183344
 30
0.0
 40
0.25
 41
0.0
 71
     1
 72
     1
  1

  7
SLDTEXTSTYLE0
 73
     1
 44
1.0
  0
ENDBLK
  5
102
330
100
100
AcDbEntity
  8
0
100
AcDbBlockEnd
  0
BLOCK
  5
1BC
330
1BB
100
AcDbEntity
  8
0
100
AcDbBlockBegin
  2
_D_4
 70
     0
 10
0.0
 20
0.0
 30
0.0
  3
_D_4
  1

  0
SOLID
  5
1BE
330
1BB
100
AcDbEntity
  8
SLD-0
100
AcDbTrace
 10
13.5918797546
 20
8.5292254502
 30
0.0
 11
13.8518797546
 21
8.4892254502
 31
0.0
 12
13.8518797546
 22
8.5692254502
 32
0.0
 13
13.8518797546
 23
8.5692254502
 33
0.0
  0
SOLID
  5
1BF
330
1BB
100
AcDbEntity
  8
SLD-0
100
AcDbTrace
 10
16.8418797546
 20
8.5292254502
 30
0.0
 11
16.5818797546
 21
8.5692254502
 31
0.0
 12
16.5818797546
 22
8.4892254502
 32
0.0
 13
16.5818797546
 23
8.4892254502
 33
0.0
  0
LINE
  5
1C0
330
1BB
100
AcDbEntity
  8
SLD-0
100
AcDbLine
 10
14.7196575586
 20
8.527315689
 30
0.0
 11
14.6434856843
 21
8.527315689
 31
0.0
  0
LINE
  5
1C1
330
1BB
100
AcDbEntity
  8
SLD-0
100
AcDbLine
 10
14.6434856843
 20
8.527315689
 30
0.0
 11
14.6434856843
 21
8.130440677
 31
0.0
  0
LINE
  5
1C2
330
1BB
100
AcDbEntity
  8
SLD-0
100
AcDbLine
 10
14.6434856843
 20
8.130440677
 30
0.0
 11
14.7196575586
 21
8.130440677
 31
0.0
  0
LINE
  5
1C3
330
1BB
100
AcDbEntity
  8
SLD-0
100
AcDbLine
 10
15.714102024
 20
8.527315689
 30
0.0
 11
15.7902738982
 21
8.527315689
 31
0.0
  0
LINE
  5
1C4
330
1BB
100
AcDbEntity
  8
SLD-0
100
AcDbLine
 10
15.7902738982
 20
8.527315689
 30
0.0
 11
15.7902738982
 21
8.130440677
 31
0.0
  0
LINE
  5
1C5
330
1BB
100
AcDbEntity
  8
SLD-0
100
AcDbLine
 10
15.7902738982
 20
8.130440677
 30
0.0
 11
15.714102024
 21
8.130440677
 31
0.0
  0
LINE
  5
1C6
330
1BB
100
AcDbEntity
  8
SLD-0
100
AcDbLine
 10
13.5918797546
 20
7.8118238754
 30
0.0
 11
13.5918797546
 21
8.7792254502
 31
0.0
  0
LINE
  5
1C7
330
1BB
100
AcDbEntity
  8
SLD-0
100
AcDbLine
 10
16.8418797546
 20
7.8118238754
 30
0.0
 11
16.8418797546
 21
8.7792254502
 31
0.0
  0
LINE
  5
1C8
330
1BB
100
AcDbEntity
  8
SLD-0
100
AcDbLine
 10
13.5918797546
 20
8.5292254502
 30
0.0
 11
14.4242459666
 21
8.5292254502
 31
0.0
  0
LINE
  5
1C9
330
1BB
100
AcDbEntity
  8
SLD-0
100
AcDbLine
 10
16.8418797546
 20
8.5292254502
 30
0.0
 11
16.0095135426
 21
8.5292254502
 31
0.0
  0
MTEXT
  5
1CA
330
1BB
100
AcDbEntity
  8
SLD-0
100
AcDbMText
 10
14.5687026988
 20
8.904183344
 30
0.0
 40
0.25
 41
0.0
 71
     1
 72
     1
  1

  7
SLDTEXTSTYLE0
 73
     1
 44
1.0
  0
MTEXT
  5
1CB
330
1BB
100
AcDbEntity
  8
SLD-0
100
AcDbMText
 10
14.7691367287
 20
8.900363881
 30
0.0
 40
0.25
 41
0.0
 71
     1
 72
     1
  1
3 1/4"
  7
SLDTEXTSTYLE0
 73
     1
 44
1.0
  0
MTEXT
  5
1CC
330
1BB
100
AcDbEntity
  8
SLD-0
100
AcDbMText
 10
14.7196575586
 20
8.4527076395
 30
0.0
 40
0.25
 41
0.0
 71
     1
 72
     1
  1
83mm
  7
SLDTEXTSTYLE0
 73
     1
 44
1.0
  0
MTEXT
  5
1CD
330
1BB
100
AcDbEntity
  8
SLD-0
100
AcDbMText
 10
15.9601957174
 20
8.904183344
 30
0.0
 40
0.25
 41
0.0
 71
     1
 72
     1
  1

  7
SLDTEXTSTYLE0
 73
     1
 44
1.0
  0
ENDBLK
  5
1BD
330
1BB
100
AcDbEntity
  8
0
100
AcDbBlockEnd
  0
BLOCK
  5
1D1
330
1D0
100
AcDbEntity
  8
0
100
AcDbBlockBegin
  2
_D_5
 70
     0
 10
0.0
 20
0.0
 30
0.0
  3
_D_5
  1

  0
SOLID
  5
1D3
330
1D0
100
AcDbEntity
  8
SLD-0
100
AcDbTrace
 10
19.9914860538
 20
7.7418238754
 30
0.0
 11
19.9514860538
 21
7.4818238754
 31
0.0
 12
20.0314860538
 22
7.4818238754
 32
0.0
 13
20.0314860538
 23
7.4818238754
 33
0.0
  0
SOLID
  5
1D4
330
1D0
100
AcDbEntity
  8
SLD-0
100
AcDbTrace
 10
19.9914860538
 20
2.7418238754
 30
0.0
 11
20.0314860538
 21
3.0018238754
 31
0.0
 12
19.9514860538
 22
3.0018238754
 32
0.0
 13
19.9514860538
 23
3.0018238754
 33
0.0
  0
LINE
  5
1D5
330
1D0
100
AcDbEntity
  8
SLD-0
100
AcDbLine
 10
19.4019027647
 20
5.2399141142
 30
0.0
 11
19.3257308905
 21
5.2399141142
 31
0.0
  0
LINE
  5
1D6
330
1D0
100
AcDbEntity
  8
SLD-0
100
AcDbLine
 10
19.3257308905
 20
5.2399141142
 30
0.0
 11
19.3257308905
 21
4.8430391022
 31
0.0
  0
LINE
  5
1D7
330
1D0
100
AcDbEntity
  8
SLD-0
100
AcDbLine
 10
19.3257308905
 20
4.8430391022
 30
0.0
 11
19.4019027647
 21
4.8430391022
 31
0.0
  0
LINE
  5
1D8
330
1D0
100
AcDbEntity
  8
SLD-0
100
AcDbLine
 10
20.5810694162
 20
5.2399141142
 30
0.0
 11
20.6572412905
 21
5.2399141142
 31
0.0
  0
LINE
  5
1D9
330
1D0
100
AcDbEntity
  8
SLD-0
100
AcDbLine
 10
20.6572412905
 20
5.2399141142
 30
0.0
 11
20.6572412905
 21
4.8430391022
 31
0.0
  0
LINE
  5
1DA
330
1D0
100
AcDbEntity
  8
SLD-0
100
AcDbLine
 10
20.6572412905
 20
4.8430391022
 30
0.0
 11
20.5810694162
 21
4.8430391022
 31
0.0
  0
LINE
  5
1DB
330
1D0
100
AcDbEntity
  8
SLD-0
100
AcDbLine
 10
16.9118797546
 20
7.7418238754
 30
0.0
 11
20.2414860538
 21
7.7418238754
 31
0.0
  0
LINE
  5
1DC
330
1D0
100
AcDbEntity
  8
SLD-0
100
AcDbLine
 10
16.9118797546
 20
2.7418238754
 30
0.0
 11
20.2414860538
 21
2.7418238754
 31
0.0
  0
LINE
  5
1DD
330
1D0
100
AcDbEntity
  8
SLD-0
100
AcDbLine
 10
19.9914860538
 20
7.7418238754
 30
0.0
 11
19.9914860538
 21
5.6913898187
 31
0.0
  0
LINE
  5
1DE
330
1D0
100
AcDbEntity
  8
SLD-0
100
AcDbLine
 10
19.9914860538
 20
2.7418238754
 30
0.0
 11
19.9914860538
 21
4.7922579322
 31
0.0
  0
MTEXT
  5
1DF
330
1D0
100
AcDbEntity
  8
SLD-0
100
AcDbMText
 10
19.2509479049
 20
5.6167817692
 30
0.0
 40
0.25
 41
0.0
 71
     1
 72
     1
  1

  7
SLDTEXTSTYLE0
 73
     1
 44
1.0
  0
MTEXT
  5
1E0
330
1D0
100
AcDbEntity
  8
SLD-0
100
AcDbMText
 10
19.8475624606
 20
5.6129623062
 30
0.0
 40
0.25
 41
0.0
 71
     1
 72
     1
  1
5"
  7
SLDTEXTSTYLE0
 73
     1
 44
1.0
  0
MTEXT
  5
1E1
330
1D0
100
AcDbEntity
  8
SLD-0
100
AcDbMText
 10
19.4019027647
 20
5.1653060647
 30
0.0
 40
0.25
 41
0.0
 71
     1
 72
     1
  1
127mm
  7
SLDTEXTSTYLE0
 73
     1
 44
1.0
  0
MTEXT
  5
1E2
330
1D0
100
AcDbEntity
  8
SLD-0
100
AcDbMText
 10
20.8271631097
 20
5.6167817692
 30
0.0
 40
0.25
 41
0.0
 71
     1
 72
     1
  1

  7
SLDTEXTSTYLE0
 73
     1
 44
1.0
  0
ENDBLK
  5
1D2
330
1D0
100
AcDbEntity
  8
0
100
AcDbBlockEnd
  0
BLOCK
  5
1E5
330
1E4
100
AcDbEntity
  8
0
100
AcDbBlockBegin
  2
_D_6
 70
     0
 10
0.0
 20
0.0
 30
0.0
  3
_D_6
  1

  0
SOLID
  5
1E7
330
1E4
100
AcDbEntity
  8
SLD-0
100
AcDbTrace
 10
18.1017222743
 20
6.8983238754
 30
0.0
 11
18.0617222743
 21
6.6383238754
 31
0.0
 12
18.1417222743
 22
6.6383238754
 32
0.0
 13
18.1417222743
 23
6.6383238754
 33
0.0
  0
SOLID
  5
1E8
330
1E4
100
AcDbEntity
  8
SLD-0
100
AcDbTrace
 10
18.1017222743
 20
3.5853238754
 30
0.0
 11
18.1417222743
 21
3.8453238754
 31
0.0
 12
18.0617222743
 22
3.8453238754
 32
0.0
 13
18.0617222743
 23
3.8453238754
 33
0.0
  0
LINE
  5
1E9
330
1E4
100
AcDbEntity
  8
SLD-0
100
AcDbLine
 10
17.2319306239
 20
5.2399141142
 30
0.0
 11
17.1557587497
 21
5.2399141142
 31
0.0
  0
LINE
  5
1EA
330
1E4
100
AcDbEntity
  8
SLD-0
100
AcDbLine
 10
17.1557587497
 20
5.2399141142
 30
0.0
 11
17.1557587497
 21
4.8430391022
 31
0.0
  0
LINE
  5
1EB
330
1E4
100
AcDbEntity
  8
SLD-0
100
AcDbLine
 10
17.1557587497
 20
4.8430391022
 30
0.0
 11
17.2319306239
 21
4.8430391022
 31
0.0
  0
LINE
  5
1EC
330
1E4
100
AcDbEntity
  8
SLD-0
100
AcDbLine
 10
18.2263750893
 20
5.2399141142
 30
0.0
 11
18.3025469635
 21
5.2399141142
 31
0.0
  0
LINE
  5
1ED
330
1E4
100
AcDbEntity
  8
SLD-0
100
AcDbLine
 10
18.3025469635
 20
5.2399141142
 30
0.0
 11
18.3025469635
 21
4.8430391022
 31
0.0
  0
LINE
  5
1EE
330
1E4
100
AcDbEntity
  8
SLD-0
100
AcDbLine
 10
18.3025469635
 20
4.8430391022
 30
0.0
 11
18.2263750893
 21
4.8430391022
 31
0.0
  0
LINE
  5
1EF
330
1E4
100
AcDbEntity
  8
SLD-0
100
AcDbLine
 10
15.3168797546
 20
6.8983238754
 30
0.0
 11
18.3517222743
 21
6.8983238754
 31
0.0
  0
LINE
  5
1F0
330
1E4
100
AcDbEntity
  8
SLD-0
100
AcDbLine
 10
15.3168797546
 20
3.5853238754
 30
0.0
 11
18.3517222743
 21
3.5853238754
 31
0.0
  0
LINE
  5
1F1
330
1E4
100
AcDbEntity
  8
SLD-0
100
AcDbLine
 10
18.1017222743
 20
6.8983238754
 30
0.0
 11
18.1017222743
 21
5.6913898187
 31
0.0
  0
LINE
  5
1F2
330
1E4
100
AcDbEntity
  8
SLD-0
100
AcDbLine
 10
18.1017222743
 20
3.5853238754
 30
0.0
 11
18.1017222743
 21
4.7922579322
 31
0.0
  0
MTEXT
  5
1F3
330
1E4
100
AcDbEntity
  8
SLD-0
100
AcDbMText
 10
17.1890486643
 20
5.6129623062
 30
0.0
 40
0.25
 41
0.0
 71
     1
 72
     1
  1
3 5/16"
  7
SLDTEXTSTYLE0
 73
     1
 44
1.0
  0
MTEXT
  5
1F4
330
1E4
100
AcDbEntity
  8
SLD-0
100
AcDbMText
 10
17.2319306239
 20
5.1653060647
 30
0.0
 40
0.25
 41
0.0
 71
     1
 72
     1
  1
84mm
  7
SLDTEXTSTYLE0
 73
     1
 44
1.0
  0
MTEXT
  5
1F5
330
1E4
100
AcDbEntity
  8
SLD-0
100
AcDbMText
 10
18.3787188011
 20
5.6167817692
 30
0.0
 40
0.25
 41
0.0
 71
     1
 72
     1
  1
O.C.
  7
SLDTEXTSTYLE0
 73
     1
 44
1.0
  0
ENDBLK
  5
1E6
330
1E4
100
AcDbEntity
  8
0
100
AcDbBlockEnd
  0
ENDSEC
  0
SECTION
  2
ENTITIES
  0
ARC
  5
6E
330
1F
100
AcDbEntity
  8
0
  6
Continuous
 62
     7
370
    25
100
AcDbCircle
 10
7.724091679
 20
4.0918238754
 30
0.0
 40
0.0600000000000002
100
AcDbArc
 50
41.8103148958
 51
138.1896851042
  0
ARC
  5
6F
330
1F
100
AcDbEntity
  8
0
  6
Continuous
 62
     7
370
    25
100
AcDbCircle
 10
7.724091679
 20
6.3918238754
 30
0.0
 40
0.0599999999999996
100
AcDbArc
 50
221.8103148958
 51
318.1896851042
  0
LINE
  5
70
330
1F
100
AcDbEntity
  8
0
  6
Continuous
 62
     7
370
    25
100
AcDbLine
 10
7.7688130385
 20
4.1318238754
 30
0.0
 11
7.985341679
 21
4.1318238754
 31
0.0
  0
LINE
  5
71
330
1F
100
AcDbEntity
  8
0
  6
Continuous
 62
     7
370
    25
100
AcDbLine
 10
7.985341679
 20
6.3518238754
 30
0.0
 11
7.7688130385
 21
6.3518238754
 31
0.0
  0
LINE
  5
72
330
1F
100
AcDbEntity
  8
0
  6
Continuous
 62
     7
370
    25
100
AcDbLine
 10
6.605341679
 20
4.1318238754
 30
0.0
 11
7.6793703194
 21
4.1318238754
 31
0.0
  0
LINE
  5
73
330
1F
100
AcDbEntity
  8
0
  6
Continuous
 62
     7
370
    25
100
AcDbLine
 10
6.7706171684
 20
6.3518238754
 30
0.0
 11
6.605341679
 21
6.3518238754
 31
0.0
  0
LINE
  5
74
330
1F
100
AcDbEntity
  8
0
  6
Continuous
 62
     7
370
    25
100
AcDbLine
 10
7.6793703194
 20
6.3518238754
 30
0.0
 11
6.940220033
 21
6.3518238754
 31
0.0
  0
LINE
  5
75
330
1F
100
AcDbEntity
  8
0
  6
Continuous
 62
     7
370
    25
100
AcDbLine
 10
7.985341679
 20
4.0168238754
 30
0.0
 11
8.105341679
 21
4.0168238754
 31
0.0
  0
LINE
  5
76
330
1F
100
AcDbEntity
  8
0
  6
Continuous
 62
     7
370
    25
100
AcDbLine
 10
8.105341679
 20
6.4668238754
 30
0.0
 11
7.985341679
 21
6.4668238754
 31
0.0
  0
LINE
  5
77
330
1F
100
AcDbEntity
  8
0
  6
Continuous
 62
     7
370
    25
100
AcDbLine
 10
4.257841679
 20
5.3768238754
 30
0.0
 11
1.853341679
 21
5.3768238754
 31
0.0
  0
LINE
  5
78
330
1F
100
AcDbEntity
  8
0
  6
Continuous
 62
     7
370
    25
100
AcDbLine
 10
1.853341679
 20
5.0968238754
 30
0.0
 11
4.257841679
 21
5.0968238754
 31
0.0
  0
LINE
  5
79
330
1F
100
AcDbEntity
  8
0
  6
Continuous
 62
     7
370
    25
100
AcDbLine
 10
4.520341679
 20
4.7468238754
 30
0.0
 11
4.645341679
 21
4.7468238754
 31
0.0
  0
LINE
  5
7A
330
1F
100
AcDbEntity
  8
0
  6
Continuous
 62
     7
370
    25
100
AcDbLine
 10
4.645341679
 20
5.7368238754
 30
0.0
 11
4.520341679
 21
5.7368238754
 31
0.0
  0
LINE
  5
7B
330
1F
100
AcDbEntity
  8
0
  6
Continuous
 62
     7
370
    25
100
AcDbLine
 10
4.520341679
 20
5.5855738754
 30
0.0
 11
4.507341679
 21
5.5855738754
 31
0.0
  0
LINE
  5
7C
330
1F
100
AcDbEntity
  8
0
  6
Continuous
 62
     7
370
    25
100
AcDbLine
 10
4.507341679
 20
4.8980738754
 30
0.0
 11
4.520341679
 21
4.8980738754
 31
0.0
  0
LINE
  5
7D
330
1F
100
AcDbEntity
  8
0
  6
Continuous
 62
     7
370
    25
100
AcDbLine
 10
4.675341679
 20
4.1318238754
 30
0.0
 11
6.595341679
 21
4.1318238754
 31
0.0
  0
LINE
  5
7E
330
1F
100
AcDbEntity
  8
0
  6
Continuous
 62
     7
370
    25
100
AcDbLine
 10
6.595341679
 20
6.3518238754
 30
0.0
 11
4.675341679
 21
6.3518238754
 31
0.0
  0
LINE
  5
7F
330
1F
100
AcDbEntity
  8
0
  6
Continuous
 62
     7
370
    25
100
AcDbLine
 10
4.675341679
 20
6.3518238754
 30
0.0
 11
4.645341679
 21
6.3218238754
 31
0.0
  0
LINE
  5
80
330
1F
100
AcDbEntity
  8
0
  6
Continuous
 62
     7
370
    25
100
AcDbLine
 10
4.645341679
 20
4.1618238754
 30
0.0
 11
4.675341679
 21
4.1318238754
 31
0.0
  0
ARC
  5
81
330
1F
100
AcDbEntity
  8
0
  6
Continuous
 62
     7
370
    25
100
AcDbCircle
 10
6.595341679
 20
6.3418238754
 30
0.0
 40
0.0100000000000007
100
AcDbArc
 50
0.0
 51
90.0
  0
ARC
  5
82
330
1F
100
AcDbEntity
  8
0
  6
Continuous
 62
     7
370
    25
100
AcDbCircle
 10
6.595341679
 20
4.1418238754
 30
0.0
 40
0.0100000000000007
100
AcDbArc
 50
270.0
 51
360.0
  0
LINE
  5
83
330
1F
100
AcDbEntity
  8
0
  6
Continuous
 62
     7
370
    25
100
AcDbLine
 10
7.7688130385
 20
5.2418238754
 30
0.0
 11
7.7688130385
 21
6.3518238754
 31
0.0
  0
LINE
  5
84
330
1F
100
AcDbEntity
  8
0
  6
Continuous
 62
     7
370
    25
100
AcDbLine
 10
7.7688130385
 20
4.1318238754
 30
0.0
 11
7.7688130385
 21
5.2418238754
 31
0.0
  0
LINE
  5
85
330
1F
100
AcDbEntity
  8
0
  6
Continuous
 62
     7
370
    25
100
AcDbLine
 10
7.6793703194
 20
5.2418238754
 30
0.0
 11
7.6793703194
 21
6.3518238754
 31
0.0
  0
LINE
  5
86
330
1F
100
AcDbEntity
  8
0
  6
Continuous
 62
     7
370
    25
100
AcDbLine
 10
7.6793703194
 20
4.1318238754
 30
0.0
 11
7.6793703194
 21
5.2418238754
 31
0.0
  0
LINE
  5
87
330
1F
100
AcDbEntity
  8
0
  6
Continuous
 62
     7
370
    25
100
AcDbLine
 10
6.605341679
 20
5.2418238754
 30
0.0
 11
6.605341679
 21
6.3518238754
 31
0.0
  0
LINE
  5
88
330
1F
100
AcDbEntity
  8
0
  6
Continuous
 62
     7
370
    25
100
AcDbLine
 10
6.605341679
 20
4.1318238754
 30
0.0
 11
6.605341679
 21
5.2418238754
 31
0.0
  0
SPLINE
  5
89
330
1F
100
AcDbEntity
  8
0
  6
Continuous
 62
     7
370
    25
100
AcDbSpline
210
0.0
220
0.0
230
1.0
 70
     8
 71
     3
 72
    27
 73
    23
 74
     0
 42
0.00000001
 43
0.00000001
 40
0.0
 40
0.0
 40
0.0
 40
0.0
 40
0.0059455175349492
 40
0.0560678251880561
 40
0.1076445621294315
 40
0.1578226559594506
 40
0.209387974703381
 40
0.2608549715628549
 40
0.313716174294061
 40
0.3670144043204503
 40
0.421772385766801
 40
0.4766230708723654
 40
0.5330215391256506
 40
0.588596898332399
 40
0.6457983357985576
 40
0.701064721828749
 40
0.75800887713989
 40
0.8119450192838972
 40
0.8675603875583318
 40
0.9195613469234907
 40
0.9731680482807914
 40
1.0
 40
1.0
 40
1.0
 40
1.0
 10
6.940220033007184
 20
6.351815265975612
 30
0.0
 10
6.940259737518445
 20
6.351818075528275
 30
0.0
 10
6.940634161710024
 20
6.351844570363534
 30
0.0
 10
6.939172537154305
 20
6.351740471614395
 30
0.0
 10
6.935788340597413
 20
6.351505790680866
 30
0.0
 10
6.930032634135658
 20
6.351128540876588
 30
0.0
 10
6.92243081510055
 20
6.350672901610523
 30
0.0
 10
6.912950278198305
 20
6.350172527033722
 30
0.0
 10
6.901880492672629
 20
6.349683803083651
 30
0.0
 10
6.889357490219693
 20
6.349255538041279
 30
0.0
 10
6.875771851565699
 20
6.348941047265689
 30
0.0
 10
6.861373775043417
 20
6.348778493779455
 30
0.0
 10
6.846733046100437
 20
6.348794115222116
 30
0.0
 10
6.832131918810838
 20
6.348990848002068
 30
0.0
 10
6.818278786874794
 20
6.349345421010105
 30
0.0
 10
6.805390254953616
 20
6.349820979348025
 30
0.0
 10
6.794178398918821
 20
6.350349548106355
 30
0.0
 10
6.784745227854661
 20
6.350875757536536
 30
0.0
 10
6.77757869104051
 20
6.3513260893122
 30
0.0
 10
6.77278872123952
 20
6.351650425147051
 30
0.0
 10
6.770436027183859
 20
6.351817146248621
 30
0.0
 10
6.770571858910385
 20
6.351807522212103
 30
0.0
 10
6.770617168350419
 20
6.351804311918626
 30
0.0
  0
SPLINE
  5
8A
330
1F
100
AcDbEntity
  8
0
  6
Continuous
 62
     7
370
    25
100
AcDbSpline
210
0.0
220
0.0
230
1.0
 70
    11
 71
     3
 72
    45
 73
    41
 74
     0
 42
0.00000001
 43
0.00000001
 40
0.0
 40
0.0
 40
0.0
 40
0.0
 40
0.0237175399948466
 40
0.0474321274804073
 40
0.0737704074114311
 40
0.1001058302052727
 40
0.1256831926192596
 40
0.1512613530838347
 40
0.1766109339555999
 40
0.2019638704002132
 40
0.227779010424176
 40
0.253598192345983
 40
0.2802998405742466
 40
0.307004634469689
 40
0.334590109763828
 40
0.362176830766877
 40
0.3903008030868571
 40
0.4184235803193755
 40
0.4465839298029451
 40
0.474740451268067
 40
0.5024000164995929
 40
0.5300542399531947
 40
0.5567908251397574
 40
0.5835234845596506
 40
0.6093175702390949
 40
0.6351113171116083
 40
0.660453835068485
 40
0.6857990961317754
 40
0.7114024556147768
 40
0.7370098334383344
 40
0.7634096901586931
 40
0.7898131155645026
 40
0.8171426391285822
 40
0.8444740854076955
 40
0.8724773226205982
 40
0.9004801841984593
 40
0.9286871977639618
 40
0.9568911912208135
 40
0.9784464809507
 40
1.0
 40
1.0
 40
1.0
 40
1.0
 10
6.791771179615055
 20
4.640382922898193
 30
0.0
 10
6.789099232509672
 20
4.643057064590368
 30
0.0
 10
6.783755670919771
 20
4.64840501508066
 30
0.0
 10
6.777428656849169
 20
4.657995384057972
 30
0.0
 10
6.772779791198077
 20
4.668719568740944
 30
0.0
 10
6.770295786032647
 20
4.680337598535822
 30
0.0
 10
6.77021354033224
 20
4.692114570366305
 30
0.0
 10
6.772356728265865
 20
4.703671258180166
 30
0.0
 10
6.776719972637427
 20
4.71477889841568
 30
0.0
 10
6.783084259540638
 20
4.725214959409526
 30
0.0
 10
6.791381070176277
 20
4.734679081610604
 30
0.0
 10
6.801437406724514
 20
4.743032440002313
 30
0.0
 10
6.813034863091511
 20
4.749896780199085
 30
0.0
 10
6.825985387884079
 20
4.755150156555284
 30
0.0
 10
6.839881732490728
 20
4.75844159474293
 30
0.0
 10
6.854432997550146
 20
4.759695829553966
 30
0.0
 10
6.869107342218734
 20
4.758711253559624
 30
0.0
 10
6.883501179757208
 20
4.755550977208388
 30
0.0
 10
6.897081421394486
 20
4.750214704879825
 30
0.0
 10
6.909409614554749
 20
4.74297410022166
 30
0.0
 10
6.92005934219149
 20
4.733999786096556
 30
0.0
 10
6.928696913878496
 20
4.723768553696281
 30
0.0
 10
6.935069578897313
 20
4.712536928663936
 30
0.0
 10
6.939090920024442
 20
4.700859031665814
 30
0.0
 10
6.940672206048134
 20
4.688975199718737
 30
0.0
 10
6.939965760237312
 20
4.677319181880744
 30
0.0
 10
6.936961242152757
 20
4.666095764850198
 30
0.0
 10
6.931886016548855
 20
4.655538958964187
 30
0.0
 10
6.924779498529577
 20
4.645890964288029
 30
0.0
 10
6.915827824682836
 20
4.637260640613317
 30
0.0
 10
6.905193199581237
 20
4.629958344676528
 30
0.0
 10
6.893047936309427
 20
4.624063647988014
 30
0.0
 10
6.879741328259676
 20
4.619888948481925
 30
0.0
 10
6.86552589977742
 20
4.617501621748988
 30
0.0
 10
6.850905444107219
 20
4.617116722319182
 30
0.0
 10
6.836255556233797
 20
4.618731833004492
 30
0.0
 10
6.822111546273684
 20
4.622402155891315
 30
0.0
 10
6.80994016228475
 20
4.627592032990394
 30
0.0
 10
6.799752539232439
 20
4.633653633761886
 30
0.0
 10
6.79443155996834
 20
4.638139887943245
 30
0.0
 10
6.791771179615055
 20
4.640382922898193
 30
0.0
  0
SPLINE
  5
8B
330
1F
100
AcDbEntity
  8
0
  6
Continuous
 62
     7
370
    25
100
AcDbSpline
210
0.0
220
0.0
230
1.0
 70
     8
 71
     3
 72
    15
 73
    11
 74
     0
 42
0.00000001
 43
0.00000001
 40
0.0
 40
0.0
 40
0.0
 40
0.0
 40
0.1272650587720277
 40
0.254530903169699
 40
0.3817874328483157
 40
0.5090450885190911
 40
0.6364755782310632
 40
0.763905782124933
 40
0.8914518860198708
 40
1.0
 40
1.0
 40
1.0
 40
1.0
 10
6.855341678960139
 20
4.666552264095257
 30
0.0
 10
6.85915984115411
 20
4.666710442583963
 30
0.0
 10
6.866796189112123
 20
4.667026800537832
 30
0.0
 10
6.877931209841127
 20
4.669500776136124
 30
0.0
 10
6.888412343399186
 20
4.673417166491928
 30
0.0
 10
6.897975741000917
 20
4.678769460922322
 30
0.0
 10
6.906323982224048
 20
4.685433933756264
 30
0.0
 10
6.91321105326144
 20
4.693220807319173
 30
0.0
 10
6.918346524547847
 20
4.701469485375502
 30
0.0
 10
6.920269419604713
 20
4.707317859362913
 30
0.0
 10
6.921153501534728
 20
4.710006743368196
 30
0.0
  0
SPLINE
  5
8C
330
1F
100
AcDbEntity
  8
0
  6
Continuous
 62
     7
370
    25
100
AcDbSpline
210
0.0
220
0.0
230
1.0
 70
     8
 71
     3
 72
    15
 73
    11
 74
     0
 42
0.00000001
 43
0.00000001
 40
0.0
 40
0.0
 40
0.0
 40
0.0
 40
0.0676851226513021
 40
0.195642592455626
 40
0.323601175089148
 40
0.4517995384198604
 40
0.5799975844206232
 40
0.70830657389192
 40
0.8366142911970169
 40
1.0
 40
1.0
 40
1.0
 40
1.0
 10
6.789777432375407
 20
4.709596927652114
 30
0.0
 10
6.790245535347039
 20
4.707910537525486
 30
0.0
 10
6.791598578310088
 20
4.703036058122315
 30
0.0
 10
6.79586640431365
 20
4.695595788183833
 30
0.0
 10
6.802233609820004
 20
4.68751037066669
 30
0.0
 10
6.810231861945074
 20
4.680537267610412
 30
0.0
 10
6.819466352506006
 20
4.674768727769081
 30
0.0
 10
6.829752182360228
 20
4.670462501651379
 30
0.0
 10
6.841753441225973
 20
4.667243333240376
 30
0.0
 10
6.85046313436588
 20
4.666800376595798
 30
0.0
 10
6.855341678960139
 20
4.666552264095257
 30
0.0
  0
LWPOLYLINE
  5
8D
330
1F
100
AcDbEntity
  8
0
  6
Continuous
 62
     7
370
    25
100
AcDbPolyline
 90
       56
 70
   128
 43
0.0
 10
6.855341679
 20
4.636434148
 10
6.8630930948
 20
4.6368180068
 10
6.8707434591
 20
4.6379645791
 10
6.8781930377
 20
4.6398589176
 10
6.8853447138
 20
4.6424763265
 10
6.8921052545
 20
4.6457826842
 10
6.8983865258
 20
4.649734887
 10
6.9041066417
 20
4.654281412
 10
6.9091910317
 20
4.6593629882
 10
6.913573413
 20
4.6649133697
 10
6.9171966546
 20
4.6708601985
 10
6.9200135221
 20
4.6771259489
 10
6.9219872931
 20
4.683628937
 10
6.9230922367
 20
4.6902843865
 10
6.9233139481
 20
4.6970055335
 10
6.922649537
 20
4.7037047575
 10
6.9211076651
 20
4.7102947238
 10
6.9187084329
 20
4.7166895223
 10
6.9154831183
 20
4.7228057869
 10
6.911473768
 20
4.7285637828
 10
6.90673265
 20
4.7338884456
 10
6.9013215722
 20
4.7387103602
 10
6.8953110761
 20
4.7429666657
 10
6.8887795178
 20
4.7466018746
 10
6.8818120462
 20
4.7495685963
 10
6.8744994928
 20
4.7518281551
 10
6.8669371881
 20
4.7533510943
 10
6.8592237181
 20
4.7541175599
 10
6.8514596398
 20
4.7541175599
 10
6.8437461699
 20
4.7533510943
 10
6.8361838651
 20
4.7518281551
 10
6.8288713117
 20
4.7495685963
 10
6.8219038401
 20
4.7466018746
 10
6.8153722818
 20
4.7429666657
 10
6.8093617857
 20
4.7387103602
 10
6.8039507079
 20
4.7338884456
 10
6.79920959
 20
4.7285637828
 10
6.7952002397
 20
4.7228057869
 10
6.791974925
 20
4.7166895223
 10
6.7895756928
 20
4.7102947238
 10
6.7880338209
 20
4.7037047575
 10
6.7873694098
 20
4.6970055335
 10
6.7875911213
 20
4.6902843865
 10
6.7886960648
 20
4.683628937
 10
6.7906698359
 20
4.6771259489
 10
6.7934867033
 20
4.6708601985
 10
6.7971099449
 20
4.6649133697
 10
6.8014923262
 20
4.6593629882
 10
6.8065767162
 20
4.654281412
 10
6.8122968321
 20
4.649734887
 10
6.8185781034
 20
4.6457826842
 10
6.8253386441
 20
4.6424763265
 10
6.8324903202
 20
4.6398589176
 10
6.8399398988
 20
4.6379645791
 10
6.8475902631
 20
4.6368180068
 10
6.855341679
 20
4.636434148
  0
LINE
  5
8E
330
1F
100
AcDbEntity
  8
0
  6
Continuous
 62
     7
370
    25
100
AcDbLine
 10
8.105341679
 20
2.7718238754
 30
0.0
 11
8.485341679
 21
2.7718238754
 31
0.0
  0
LINE
  5
8F
330
1F
100
AcDbEntity
  8
0
  6
Continuous
 62
     7
370
    25
100
AcDbLine
 10
8.485341679
 20
2.7718238754
 30
0.0
 11
8.485341679
 21
2.7418238754
 31
0.0
  0
LINE
  5
90
330
1F
100
AcDbEntity
  8
0
  6
Continuous
 62
     7
370
    25
100
AcDbLine
 10
8.485341679
 20
2.7418238754
 30
0.0
 11
8.105341679
 21
2.7418238754
 31
0.0
  0
LINE
  5
91
330
1F
100
AcDbEntity
  8
0
  6
Continuous
 62
     7
370
    25
100
AcDbLine
 10
8.105341679
 20
2.7418238754
 30
0.0
 11
8.105341679
 21
2.7718238754
 31
0.0
  0
LINE
  5
92
330
1F
100
AcDbEntity
  8
0
  6
Continuous
 62
     7
370
    25
100
AcDbLine
 10
8.485341679
 20
7.7118238754
 30
0.0
 11
8.105341679
 21
7.7118238754
 31
0.0
  0
LINE
  5
93
330
1F
100
AcDbEntity
  8
0
  6
Continuous
 62
     7
370
    25
100
AcDbLine
 10
8.485341679
 20
2.7718238754
 30
0.0
 11
8.485341679
 21
7.7118238754
 31
0.0
  0
LINE
  5
94
330
1F
100
AcDbEntity
  8
0
  6
Continuous
 62
     7
370
    25
100
AcDbLine
 10
8.105341679
 20
2.7718238754
 30
0.0
 11
8.105341679
 21
7.7118238754
 31
0.0
  0
LINE
  5
95
330
1F
100
AcDbEntity
  8
0
  6
Continuous
 62
     7
370
    25
100
AcDbLine
 10
8.105341679
 20
7.7418238754
 30
0.0
 11
8.485341679
 21
7.7418238754
 31
0.0
  0
LINE
  5
96
330
1F
100
AcDbEntity
  8
0
  6
Continuous
 62
     7
370
    25
100
AcDbLine
 10
8.485341679
 20
7.7418238754
 30
0.0
 11
8.485341679
 21
7.7118238754
 31
0.0
  0
LINE
  5
97
330
1F
100
AcDbEntity
  8
0
  6
Continuous
 62
     7
370
    25
100
AcDbLine
 10
8.105341679
 20
7.7118238754
 30
0.0
 11
8.105341679
 21
7.7418238754
 31
0.0
  0
LINE
  5
98
330
1F
100
AcDbEntity
  8
0
  6
Continuous
 62
     7
370
    25
100
AcDbLine
 10
7.985341679
 20
5.2418238754
 30
0.0
 11
7.985341679
 21
6.4668238754
 31
0.0
  0
LINE
  5
99
330
1F
100
AcDbEntity
  8
0
  6
Continuous
 62
     7
370
    25
100
AcDbLine
 10
7.985341679
 20
4.0168238754
 30
0.0
 11
7.985341679
 21
5.2418238754
 31
0.0
  0
LINE
  5
9A
330
1F
100
AcDbEntity
  8
0
  6
Continuous
 62
     7
370
    25
100
AcDbLine
 10
4.257841679
 20
5.2414403913
 30
0.0
 11
1.853341679
 21
5.2414403913
 31
0.0
  0
LINE
  5
9B
330
1F
100
AcDbEntity
  8
0
  6
Continuous
 62
     7
370
    25
100
AcDbLine
 10
1.853341679
 20
5.3768238754
 30
0.0
 11
1.853341679
 21
5.2414403913
 31
0.0
  0
LINE
  5
9C
330
1F
100
AcDbEntity
  8
0
  6
Continuous
 62
     7
370
    25
100
AcDbLine
 10
4.257841679
 20
5.2322073596
 30
0.0
 11
1.853341679
 21
5.2322073596
 31
0.0
  0
LINE
  5
9D
330
1F
100
AcDbEntity
  8
0
  6
Continuous
 62
     7
370
    25
100
AcDbLine
 10
1.853341679
 20
5.2322073596
 30
0.0
 11
1.853341679
 21
5.0968238754
 31
0.0
  0
LINE
  5
9E
330
1F
100
AcDbEntity
  8
0
  6
Continuous
 62
     7
370
    25
100
AcDbLine
 10
1.853341679
 20
5.2414403913
 30
0.0
 11
1.853341679
 21
5.2322073596
 31
0.0
  0
LINE
  5
9F
330
1F
100
AcDbEntity
  8
0
  6
Continuous
 62
     7
370
    25
100
AcDbLine
 10
4.520341679
 20
5.7368238754
 30
0.0
 11
4.520341679
 21
4.7468238754
 31
0.0
  0
LINE
  5
A0
330
1F
100
AcDbEntity
  8
0
  6
Continuous
 62
     7
370
    25
100
AcDbLine
 10
4.507341679
 20
5.5855738754
 30
0.0
 11
4.507341679
 21
4.8980738754
 31
0.0
  0
LINE
  5
A1
330
1F
100
AcDbEntity
  8
0
  6
Continuous
 62
     7
370
    25
100
AcDbLine
 10
4.317841679
 20
4.9605738754
 30
0.0
 11
4.317841679
 21
5.5230738754
 31
0.0
  0
SPLINE
  5
A2
330
1F
100
AcDbEntity
  8
0
  6
Continuous
 62
     7
370
    25
100
AcDbSpline
210
0.0
220
0.0
230
1.0
 70
    24
 71
     3
 72
     9
 73
     5
 74
     0
 42
0.00000001
 43
0.00000001
 40
0.0
 40
0.0
 40
0.0
 40
0.0
 40
0.4995107894512401
 40
1.0
 40
1.0
 40
1.0
 40
1.0
 10
4.317841678960134
 20
4.960573875433163
 30
0.0
 10
4.314101520179156
 20
4.960573875433173
 30
0.0
 10
4.306613876548703
 20
4.960573875433192
 30
0.0
 10
4.300767651512963
 20
4.960573875433167
 30
0.0
 10
4.297841678960136
 20
4.960573875433155
 30
0.0
  0
LINE
  5
A3
330
1F
100
AcDbEntity
  8
0
  6
Continuous
 62
     7
370
    25
100
AcDbLine
 10
4.297841679
 20
5.5230738754
 30
0.0
 11
4.297841679
 21
4.9605738754
 31
0.0
  0
SPLINE
  5
A4
330
1F
100
AcDbEntity
  8
0
  6
Continuous
 62
     7
370
    25
100
AcDbSpline
210
0.0
220
0.0
230
1.0
 70
    24
 71
     3
 72
    10
 73
     6
 74
     0
 42
0.00000001
 43
0.00000001
 40
0.0
 40
0.0
 40
0.0
 40
0.0
 40
0.4661492107782144
 40
0.9332262706969401
 40
1.0
 40
1.0
 40
1.0
 40
1.0
 10
4.297841678960136
 20
5.523073875433155
 30
0.0
 10
4.300569571473655
 20
5.523073875433137
 30
0.0
 10
4.306030786248647
 20
5.523073875433099
 30
0.0
 10
4.313250122633927
 20
5.523073875433113
 30
0.0
 10
4.317331218048625
 20
5.523073875433111
 30
0.0
 10
4.317841678960143
 20
5.523073875433111
 30
0.0
  0
LINE
  5
A5
330
1F
100
AcDbEntity
  8
0
  6
Continuous
 62
     7
370
    25
100
AcDbLine
 10
4.337841679
 20
5.5230738754
 30
0.0
 11
4.337841679
 21
4.9605738754
 31
0.0
  0
SPLINE
  5
A6
330
1F
100
AcDbEntity
  8
0
  6
Continuous
 62
     7
370
    25
100
AcDbSpline
210
0.0
220
0.0
230
1.0
 70
    24
 71
     3
 72
    10
 73
     6
 74
     0
 42
0.00000001
 43
0.00000001
 40
0.0
 40
0.0
 40
0.0
 40
0.0
 40
0.4661492107781582
 40
0.9332262706968663
 40
1.0
 40
1.0
 40
1.0
 40
1.0
 10
4.337841678960132
 20
4.960573875433155
 30
0.0
 10
4.335113786446633
 20
4.960573875433163
 30
0.0
 10
4.32965257167168
 20
4.960573875433179
 30
0.0
 10
4.322433235286312
 20
4.960573875433205
 30
0.0
 10
4.318352139871648
 20
4.960573875433168
 30
0.0
 10
4.317841678960134
 20
4.960573875433163
 30
0.0
  0
SPLINE
  5
A7
330
1F
100
AcDbEntity
  8
0
  6
Continuous
 62
     7
370
    25
100
AcDbSpline
210
0.0
220
0.0
230
1.0
 70
    24
 71
     3
 72
     9
 73
     5
 74
     0
 42
0.00000001
 43
0.00000001
 40
0.0
 40
0.0
 40
0.0
 40
0.0
 40
0.4995107894512592
 40
0.9999999999999999
 40
0.9999999999999999
 40
0.9999999999999999
 40
0.9999999999999999
 10
4.317841678960142
 20
5.523073875433111
 30
0.0
 10
4.321581837741103
 20
5.523073875433108
 30
0.0
 10
4.329069481371524
 20
5.5230738754331
 30
0.0
 10
4.334915706407291
 20
5.523073875433137
 30
0.0
 10
4.337841678960132
 20
5.523073875433155
 30
0.0
  0
LINE
  5
A8
330
1F
100
AcDbEntity
  8
0
  6
Continuous
 62
     7
370
    25
100
AcDbLine
 10
4.277841679
 20
4.9605738754
 30
0.0
 11
4.277841679
 21
5.5230738754
 31
0.0
  0
SPLINE
  5
A9
330
1F
100
AcDbEntity
  8
0
  6
Continuous
 62
     7
370
    25
100
AcDbSpline
210
0.0
220
0.0
230
1.0
 70
    24
 71
     3
 72
     9
 73
     5
 74
     0
 42
0.00000001
 43
0.00000001
 40
0.0
 40
0.0
 40
0.0
 40
0.0
 40
0.4995107894512417
 40
1.0
 40
1.0
 40
1.0
 40
1.0
 10
4.277841678960129
 20
4.960573875433163
 30
0.0
 10
4.274101520179155
 20
4.960573875433173
 30
0.0
 10
4.266613876548708
 20
4.960573875433192
 30
0.0
 10
4.260767651512968
 20
4.960573875433167
 30
0.0
 10
4.25784167896014
 20
4.960573875433155
 30
0.0
  0
LINE
  5
AA
330
1F
100
AcDbEntity
  8
0
  6
Continuous
 62
     7
370
    25
100
AcDbLine
 10
4.257841679
 20
5.5230738754
 30
0.0
 11
4.257841679
 21
4.9605738754
 31
0.0
  0
SPLINE
  5
AB
330
1F
100
AcDbEntity
  8
0
  6
Continuous
 62
     7
370
    25
100
AcDbSpline
210
0.0
220
0.0
230
1.0
 70
    24
 71
     3
 72
    10
 73
     6
 74
     0
 42
0.00000001
 43
0.00000001
 40
0.0
 40
0.0
 40
0.0
 40
0.0
 40
0.4661492107782311
 40
0.9332262706969736
 40
1.0
 40
1.0
 40
1.0
 40
1.0
 10
4.25784167896014
 20
5.523073875433155
 30
0.0
 10
4.260569571473655
 20
5.523073875433137
 30
0.0
 10
4.266030786248643
 20
5.523073875433099
 30
0.0
 10
4.27325012263395
 20
5.523073875433111
 30
0.0
 10
4.277331218048623
 20
5.523073875433111
 30
0.0
 10
4.277841678960137
 20
5.523073875433111
 30
0.0
  0
LINE
  5
AC
330
1F
100
AcDbEntity
  8
0
  6
Continuous
 62
     7
370
    25
100
AcDbLine
 10
4.417841679
 20
5.5230738754
 30
0.0
 11
4.417841679
 21
4.9605738754
 31
0.0
  0
SPLINE
  5
AD
330
1F
100
AcDbEntity
  8
0
  6
Continuous
 62
     7
370
    25
100
AcDbSpline
210
0.0
220
0.0
230
1.0
 70
    24
 71
     3
 72
    10
 73
     6
 74
     0
 42
0.00000001
 43
0.00000001
 40
0.0
 40
0.0
 40
0.0
 40
0.0
 40
0.4661492107781714
 40
0.933226270696902
 40
0.9999999999999999
 40
0.9999999999999999
 40
0.9999999999999999
 40
0.9999999999999999
 10
4.417841678960134
 20
4.960573875433155
 30
0.0
 10
4.415113786446638
 20
4.960573875433163
 30
0.0
 10
4.409652571671691
 20
4.960573875433179
 30
0.0
 10
4.402433235286287
 20
4.960573875433205
 30
0.0
 10
4.398352139871647
 20
4.960573875433168
 30
0.0
 10
4.397841678960135
 20
4.960573875433163
 30
0.0
  0
LINE
  5
AE
330
1F
100
AcDbEntity
  8
0
  6
Continuous
 62
     7
370
    25
100
AcDbLine
 10
4.397841679
 20
4.9605738754
 30
0.0
 11
4.397841679
 21
5.5230738754
 31
0.0
  0
SPLINE
  5
AF
330
1F
100
AcDbEntity
  8
0
  6
Continuous
 62
     7
370
    25
100
AcDbSpline
210
0.0
220
0.0
230
1.0
 70
    24
 71
     3
 72
     9
 73
     5
 74
     0
 42
0.00000001
 43
0.00000001
 40
0.0
 40
0.0
 40
0.0
 40
0.0
 40
0.4995107894512592
 40
0.9999999999999999
 40
0.9999999999999999
 40
0.9999999999999999
 40
0.9999999999999999
 10
4.397841678960144
 20
5.523073875433111
 30
0.0
 10
4.401581837741105
 20
5.523073875433108
 30
0.0
 10
4.409069481371526
 20
5.5230738754331
 30
0.0
 10
4.414915706407291
 20
5.523073875433137
 30
0.0
 10
4.417841678960134
 20
5.523073875433155
 30
0.0
  0
SPLINE
  5
B0
330
1F
100
AcDbEntity
  8
0
  6
Continuous
 62
     7
370
    25
100
AcDbSpline
210
0.0
220
0.0
230
1.0
 70
    24
 71
     3
 72
    10
 73
     6
 74
     0
 42
0.00000001
 43
0.00000001
 40
0.0
 40
0.0
 40
0.0
 40
0.0
 40
0.4661492107781546
 40
0.9332262706968685
 40
0.9999999999999999
 40
0.9999999999999999
 40
0.9999999999999999
 40
0.9999999999999999
 10
4.297841678960136
 20
4.960573875433155
 30
0.0
 10
4.295113786446637
 20
4.960573875433163
 30
0.0
 10
4.289652571671685
 20
4.960573875433179
 30
0.0
 10
4.282433235286308
 20
4.960573875433206
 30
0.0
 10
4.278352139871644
 20
4.960573875433168
 30
0.0
 10
4.277841678960129
 20
4.960573875433163
 30
0.0
  0
SPLINE
  5
B1
330
1F
100
AcDbEntity
  8
0
  6
Continuous
 62
     7
370
    25
100
AcDbSpline
210
0.0
220
0.0
230
1.0
 70
    24
 71
     3
 72
     9
 73
     5
 74
     0
 42
0.00000001
 43
0.00000001
 40
0.0
 40
0.0
 40
0.0
 40
0.0
 40
0.499510789451258
 40
1.0
 40
1.0
 40
1.0
 40
1.0
 10
4.277841678960137
 20
5.523073875433111
 30
0.0
 10
4.281581837741101
 20
5.523073875433108
 30
0.0
 10
4.289069481371529
 20
5.5230738754331
 30
0.0
 10
4.294915706407295
 20
5.523073875433137
 30
0.0
 10
4.297841678960136
 20
5.523073875433155
 30
0.0
  0
SPLINE
  5
B2
330
1F
100
AcDbEntity
  8
0
  6
Continuous
 62
     7
370
    25
100
AcDbSpline
210
0.0
220
0.0
230
1.0
 70
    24
 71
     3
 72
     9
 73
     5
 74
     0
 42
0.00000001
 43
0.00000001
 40
0.0
 40
0.0
 40
0.0
 40
0.0
 40
0.4995107894512401
 40
1.0
 40
1.0
 40
1.0
 40
1.0
 10
4.397841678960135
 20
4.960573875433163
 30
0.0
 10
4.394101520179158
 20
4.960573875433173
 30
0.0
 10
4.386613876548704
 20
4.960573875433192
 30
0.0
 10
4.380767651512964
 20
4.960573875433167
 30
0.0
 10
4.377841678960137
 20
4.960573875433155
 30
0.0
  0
LINE
  5
B3
330
1F
100
AcDbEntity
  8
0
  6
Continuous
 62
     7
370
    25
100
AcDbLine
 10
4.377841679
 20
5.5230738754
 30
0.0
 11
4.377841679
 21
4.9605738754
 31
0.0
  0
SPLINE
  5
B4
330
1F
100
AcDbEntity
  8
0
  6
Continuous
 62
     7
370
    25
100
AcDbSpline
210
0.0
220
0.0
230
1.0
 70
    24
 71
     3
 72
    10
 73
     6
 74
     0
 42
0.00000001
 43
0.00000001
 40
0.0
 40
0.0
 40
0.0
 40
0.0
 40
0.4661492107782144
 40
0.9332262706969401
 40
1.0
 40
1.0
 40
1.0
 40
1.0
 10
4.377841678960137
 20
5.523073875433155
 30
0.0
 10
4.380569571473656
 20
5.523073875433137
 30
0.0
 10
4.386030786248648
 20
5.523073875433099
 30
0.0
 10
4.393250122633928
 20
5.523073875433113
 30
0.0
 10
4.397331218048627
 20
5.523073875433111
 30
0.0
 10
4.397841678960144
 20
5.523073875433111
 30
0.0
  0
SPLINE
  5
B5
330
1F
100
AcDbEntity
  8
0
  6
Continuous
 62
     7
370
    25
100
AcDbSpline
210
0.0
220
0.0
230
1.0
 70
    24
 71
     3
 72
    10
 73
     6
 74
     0
 42
0.00000001
 43
0.00000001
 40
0.0
 40
0.0
 40
0.0
 40
0.0
 40
0.4661492107781546
 40
0.9332262706968685
 40
0.9999999999999999
 40
0.9999999999999999
 40
0.9999999999999999
 40
0.9999999999999999
 10
4.377841678960137
 20
4.960573875433155
 30
0.0
 10
4.375113786446638
 20
4.960573875433163
 30
0.0
 10
4.369652571671686
 20
4.960573875433179
 30
0.0
 10
4.362433235286311
 20
4.960573875433206
 30
0.0
 10
4.358352139871645
 20
4.960573875433168
 30
0.0
 10
4.35784167896013
 20
4.960573875433163
 30
0.0
  0
LINE
  5
B6
330
1F
100
AcDbEntity
  8
0
  6
Continuous
 62
     7
370
    25
100
AcDbLine
 10
4.357841679
 20
4.9605738754
 30
0.0
 11
4.357841679
 21
5.5230738754
 31
0.0
  0
SPLINE
  5
B7
330
1F
100
AcDbEntity
  8
0
  6
Continuous
 62
     7
370
    25
100
AcDbSpline
210
0.0
220
0.0
230
1.0
 70
    24
 71
     3
 72
     9
 73
     5
 74
     0
 42
0.00000001
 43
0.00000001
 40
0.0
 40
0.0
 40
0.0
 40
0.0
 40
0.499510789451258
 40
1.0
 40
1.0
 40
1.0
 40
1.0
 10
4.357841678960139
 20
5.523073875433111
 30
0.0
 10
4.361581837741103
 20
5.523073875433108
 30
0.0
 10
4.369069481371529
 20
5.5230738754331
 30
0.0
 10
4.374915706407297
 20
5.523073875433137
 30
0.0
 10
4.377841678960137
 20
5.523073875433155
 30
0.0
  0
SPLINE
  5
B8
330
1F
100
AcDbEntity
  8
0
  6
Continuous
 62
     7
370
    25
100
AcDbSpline
210
0.0
220
0.0
230
1.0
 70
    24
 71
     3
 72
     9
 73
     5
 74
     0
 42
0.00000001
 43
0.00000001
 40
0.0
 40
0.0
 40
0.0
 40
0.0
 40
0.4995107894512401
 40
1.0
 40
1.0
 40
1.0
 40
1.0
 10
4.35784167896013
 20
4.960573875433163
 30
0.0
 10
4.354101520179152
 20
4.960573875433173
 30
0.0
 10
4.346613876548699
 20
4.960573875433192
 30
0.0
 10
4.340767651512959
 20
4.960573875433167
 30
0.0
 10
4.337841678960132
 20
4.960573875433155
 30
0.0
  0
SPLINE
  5
B9
330
1F
100
AcDbEntity
  8
0
  6
Continuous
 62
     7
370
    25
100
AcDbSpline
210
0.0
220
0.0
230
1.0
 70
    24
 71
     3
 72
    10
 73
     6
 74
     0
 42
0.00000001
 43
0.00000001
 40
0.0
 40
0.0
 40
0.0
 40
0.0
 40
0.4661492107782269
 40
0.9332262706969758
 40
1.0
 40
1.0
 40
1.0
 40
1.0
 10
4.337841678960132
 20
5.523073875433155
 30
0.0
 10
4.340569571473646
 20
5.523073875433137
 30
0.0
 10
4.346030786248632
 20
5.523073875433099
 30
0.0
 10
4.353250122633954
 20
5.523073875433111
 30
0.0
 10
4.357331218048624
 20
5.523073875433111
 30
0.0
 10
4.357841678960138
 20
5.523073875433111
 30
0.0
  0
SPLINE
  5
BA
330
1F
100
AcDbEntity
  8
0
  6
Continuous
 62
     7
370
    25
100
AcDbSpline
210
0.0
220
0.0
230
1.0
 70
    24
 71
     3
 72
     9
 73
     5
 74
     0
 42
0.00000001
 43
0.00000001
 40
0.0
 40
0.0
 40
0.0
 40
0.0
 40
0.4995271105052352
 40
1.0
 40
1.0
 40
1.0
 40
1.0
 10
4.437341678960136
 20
4.960573875433172
 30
0.0
 10
4.433700514622837
 20
4.960573875433178
 30
0.0
 10
4.426411291954587
 20
4.960573875433189
 30
0.0
 10
4.420700017159519
 20
4.960573875433167
 30
0.0
 10
4.417841678960134
 20
4.960573875433155
 30
0.0
  0
SPLINE
  5
BB
330
1F
100
AcDbEntity
  8
0
  6
Continuous
 62
     7
370
    25
100
AcDbSpline
210
0.0
220
0.0
230
1.0
 70
    24
 71
     3
 72
    10
 73
     6
 74
     0
 42
0.00000001
 43
0.00000001
 40
0.0
 40
0.0
 40
0.0
 40
0.0
 40
0.476507751173702
 40
0.953963969698964
 40
1.0
 40
1.0
 40
1.0
 40
1.0
 10
4.417841678960134
 20
5.523073875433155
 30
0.0
 10
4.420569106219181
 20
5.523073875433137
 30
0.0
 10
4.426029389559163
 20
5.523073875433099
 30
0.0
 10
4.433096676503824
 20
5.523073875433113
 30
0.0
 10
4.436998547514572
 20
5.523073875433111
 30
0.0
 10
4.437341678960136
 20
5.523073875433111
 30
0.0
  0
LINE
  5
BC
330
1F
100
AcDbEntity
  8
0
  6
Continuous
 62
     7
370
    25
100
AcDbLine
 10
4.437341679
 20
5.5230738754
 30
0.0
 11
4.437341679
 21
4.9605738754
 31
0.0
  0
LINE
  5
BD
330
1F
100
AcDbEntity
  8
0
  6
Continuous
 62
     7
370
    25
100
AcDbLine
 10
4.507341679
 20
4.9605738754
 30
0.0
 11
4.437341679
 21
4.9605738754
 31
0.0
  0
LINE
  5
BE
330
1F
100
AcDbEntity
  8
0
  6
Continuous
 62
     7
370
    25
100
AcDbLine
 10
4.437341679
 20
5.5230738754
 30
0.0
 11
4.507341679
 21
5.5230738754
 31
0.0
  0
LINE
  5
BF
330
1F
100
AcDbEntity
  8
0
  6
Continuous
 62
     7
370
    25
100
AcDbLine
 10
4.675341679
 20
5.9489708659
 30
0.0
 11
4.675341679
 21
4.1318238754
 31
0.0
  0
LINE
  5
C0
330
1F
100
AcDbEntity
  8
0
  6
Continuous
 62
     7
370
    25
100
AcDbLine
 10
4.675341679
 20
6.3518238754
 30
0.0
 11
4.675341679
 21
5.9489708659
 31
0.0
  0
LINE
  5
C1
330
1F
100
AcDbEntity
  8
0
  6
Continuous
 62
     7
370
    25
100
AcDbLine
 10
4.645341679
 20
5.9298587851
 30
0.0
 11
4.645341679
 21
6.3218238754
 31
0.0
  0
LINE
  5
C2
330
1F
100
AcDbEntity
  8
0
  6
Continuous
 62
     7
370
    25
100
AcDbLine
 10
4.645341679
 20
4.1618238754
 30
0.0
 11
4.645341679
 21
5.9298587851
 31
0.0
  0
LINE
  5
C3
330
1F
100
AcDbEntity
  8
0
  6
Continuous
 62
     7
370
    25
100
AcDbLine
 10
6.595341679
 20
4.1318238754
 30
0.0
 11
6.595341679
 21
6.3518238754
 31
0.0
  0
LINE
  5
C4
330
1F
100
AcDbEntity
  8
VP
100
AcDbLine
 10
8.255341679
 20
5.2457144373
 30
0.0
 11
8.485374582
 21
5.2457144373
 31
0.0
  0
LINE
  5
C5
330
1F
100
AcDbEntity
  8
VP
100
AcDbLine
 10
9.1594163773
 20
4.6168238754
 30
0.0
 11
8.375341679
 21
4.9336106166
 31
0.0
  0
DIMENSION
  5
C6
330
1F
100
AcDbEntity
  8
SLD-0
100
AcDbDimension
  2
_D
 10
8.255341679
 20
5.2457144373
 30
0.0
 11
10.6506053598
 21
4.6329118193
 31
0.0
 70
   162
  1
<> LOUVER\PANGLE
 71
     1
 42
-1.0
  3
SLDDIMSTYLE0
100
AcDb2LineAngularDimension
 13
8.485341679
 23
5.1754238754
 33
0.0
 14
8.255341679
 24
5.3082144373
 34
0.0
 15
8.485374582
 25
5.2457144373
 35
0.0
 16
10.2785838503
 26
3.8533203674
 36
0.0
  0
DIMENSION
  5
D5
330
1F
100
AcDbEntity
  8
SLD-0
100
AcDbDimension
  2
_D_1
 10
8.105341679
 20
8.5292254502
 30
0.0
 11
6.181591679
 21
8.5292254502
 31
0.0
 70
   160
  1
<>
 71
     2
 42
-1.0
  3
SLDDIMSTYLE1
100
AcDbAlignedDimension
 13
4.257841679
 23
5.5230738754
 33
0.0
 14
8.105341679
 24
7.7418238754
 34
0.0
100
AcDbRotatedDimension
  0
DIMENSION
  5
EB
330
1F
100
AcDbEntity
  8
SLD-0
100
AcDbDimension
  2
_D_2
 10
1.0659401042
 20
4.1318238754
 30
0.0
 11
1.0659401042
 21
5.2418238754
 31
0.0
 70
   160
  1
%%c<>
 71
     2
 42
-1.0
  3
SLDDIMSTYLE1
100
AcDbAlignedDimension
 13
4.675341679
 23
6.3518238754
 33
0.0
 14
4.675341679
 24
4.1318238754
 34
0.0
 50
90.0
100
AcDbRotatedDimension
  0
DIMENSION
  5
FE
330
1F
100
AcDbEntity
  8
SLD-0
100
AcDbDimension
  2
_D_3
 10
8.485341679
 20
8.5292254502
 30
0.0
 11
9.7272687348
 21
8.5292254502
 31
0.0
 70
   160
  1
<>
 71
     2
 42
-1.0
  3
SLDDIMSTYLE2
100
AcDbAlignedDimension
 13
8.105341679
 23
7.7418238754
 33
0.0
 14
8.485341679
 24
7.7418238754
 34
0.0
100
AcDbRotatedDimension
  0
LINE
  5
113
330
1F
100
AcDbEntity
  8
0
  6
Continuous
 62
     7
370
    25
100
AcDbLine
 10
16.3529485769
 20
13.9528496383
 30
0.0
 11
16.3391145836
 21
13.9448634439
 31
0.0
  0
LINE
  5
114
330
1F
100
AcDbEntity
  8
0
  6
Continuous
 62
     7
370
    25
100
AcDbLine
 10
17.6421917185
 20
12.1337481022
 30
0.0
 11
18.1087582675
 21
12.4030912378
 31
0.0
  0
LINE
  5
115
330
1F
100
AcDbEntity
  8
0
  6
Continuous
 62
     7
370
    25
100
AcDbLine
 10
15.3503091021
 20
15.4460221316
 30
0.0
 11
15.0816085253
 21
15.2909045903
 31
0.0
  0
LINE
  5
116
330
1F
100
AcDbEntity
  8
0
  6
Continuous
 62
     7
370
    25
100
AcDbLine
 10
17.3672767192
 20
9.9030591095
 30
0.0
 11
17.6359772961
 21
10.0581766508
 31
0.0
  0
LINE
  5
117
330
1F
100
AcDbEntity
  8
0
  6
Continuous
 62
     7
370
    25
100
AcDbLine
 10
20.8789776394
 20
15.4178897219
 30
0.0
 11
19.4186761668
 21
14.5748756257
 31
0.0
  0
LINE
  5
118
330
1F
100
AcDbEntity
  8
0
  6
Continuous
 62
     7
370
    25
100
AcDbLine
 10
19.491658986
 20
14.4553540139
 30
0.0
 11
20.9489719507
 21
15.2966428811
 31
0.0
  0
LINE
  5
119
330
1F
100
AcDbEntity
  8
0
  6
Continuous
 62
     7
370
    25
100
AcDbLine
 10
19.5377742637
 20
14.3676600834
 30
0.0
 11
20.9489719507
 21
15.1823271675
 31
0.0
  0
LINE
  5
11A
330
1F
100
AcDbEntity
  8
0
  6
Continuous
 62
     7
370
    25
100
AcDbLine
 10
18.363564562
 20
15.1135535402
 30
0.0
 11
17.1511072732
 21
14.4136168459
 31
0.0
  0
LINE
  5
11B
330
1F
100
AcDbEntity
  8
0
  6
Continuous
 62
     7
370
    25
100
AcDbLine
 10
18.1158293353
 20
12.4071732783
 30
0.0
 11
19.4734743552
 21
13.1909250657
 31
0.0
  0
LINE
  5
11C
330
1F
100
AcDbEntity
  8
0
  6
Continuous
 62
     7
370
    25
100
AcDbLine
 10
19.7034079857
 20
13.6991328009
 30
0.0
 11
19.7034079857
 21
13.7236250442
 31
0.0
  0
LINE
  5
11D
330
1F
100
AcDbEntity
  8
0
  6
Continuous
 62
     7
370
    25
100
AcDbLine
 10
18.9398567807
 20
15.0462778376
 30
0.0
 11
18.918647025
 21
15.0585259496
 31
0.0
  0
LWPOLYLINE
  5
11E
330
1F
100
AcDbEntity
  8
0
  6
Continuous
 62
     7
370
    25
100
AcDbPolyline
 90
       83
 70
   128
 43
0.0
 10
17.2135002738
 20
14.3775981334
 10
17.2300036226
 20
14.3769695186
 10
17.255013516
 20
14.3750114733
 10
17.2803834278
 20
14.3718357264
 10
17.3060827894
 20
14.3674461046
 10
17.332080635
 20
14.3618478969
 10
17.3583456393
 20
14.3550478488
 10
17.3848461548
 20
14.3470541538
 10
17.4115502507
 20
14.3378764437
 10
17.4384257505
 20
14.3275257769
 10
17.4654402713
 20
14.3160146251
 10
17.4925612628
 20
14.3033568584
 10
17.5197560463
 20
14.2895677284
 10
17.5469918541
 20
14.27466385
 10
17.5742358693
 20
14.2586631812
 10
17.6014552649
 20
14.2415850014
 10
17.6286172437
 20
14.2234498887
 10
17.6556890776
 20
14.2042796943
 10
17.6826381471
 20
14.1840975169
 10
17.7094319808
 20
14.1629276745
 10
17.7360382941
 20
14.140795675
 10
17.7624250286
 20
14.1177281857
 10
17.7885603902
 20
14.0937530013
 10
17.8144128878
 20
14.0688990099
 10
17.8399513713
 20
14.0431961587
 10
17.8651450688
 20
14.0166754176
 10
17.8899636237
 20
13.989368742
 10
17.9143771318
 20
13.9613090343
 10
17.9383561765
 20
13.9325301044
 10
17.9618718651
 20
13.9030666285
 10
17.9848958629
 20
13.8729541079
 10
18.0074004278
 20
13.8422288257
 10
18.0293584436
 20
13.8109278037
 10
18.0507434526
 20
13.779088757
 10
18.0715296875
 20
13.7467500493
 10
18.0916921025
 20
13.7139506462
 10
18.1112064034
 20
13.6807300683
 10
18.1300490772
 20
13.6471283439
 10
18.1481974197
 20
13.6131859606
 10
18.1656295637
 20
13.5789438161
 10
18.1823245048
 20
13.5444431696
 10
18.1982621269
 20
13.5097255917
 10
18.2134232264
 20
13.4748329144
 10
18.2277895353
 20
13.4398071806
 10
18.2413437434
 20
13.4046905936
 10
18.2540695189
 20
13.3695254662
 10
18.2659515282
 20
13.3343541697
 10
18.2769754545
 20
13.2992190826
 10
18.2871280147
 20
13.26416254
 10
18.2963969759
 20
13.2292267823
 10
18.3047711696
 20
13.1944539045
 10
18.3122405056
 20
13.1598858051
 10
18.3187959839
 20
13.1255641359
 10
18.3244297057
 20
13.0915302519
 10
18.3291348828
 20
13.0578251614
 10
18.3329058458
 20
13.0244894762
 10
18.335738051
 20
12.9915633633
 10
18.3376280858
 20
12.9590864962
 10
18.3385736729
 20
12.9270980068
 10
18.3385736729
 20
12.8956364389
 10
18.3376280858
 20
12.8647397012
 10
18.335738051
 20
12.8344450218
 10
18.3329058458
 20
12.8047889034
 10
18.3291348828
 20
12.7758070795
 10
18.3244297057
 20
12.7475344707
 10
18.3187959839
 20
12.7200051435
 10
18.3122405056
 20
12.6932522685
 10
18.3047711696
 20
12.6673080808
 10
18.2963969759
 20
12.6422038412
 10
18.2871280147
 20
12.6179697984
 10
18.2769754545
 20
12.5946351523
 10
18.2659515282
 20
12.5722280196
 10
18.2540695189
 20
12.550775399
 10
18.2413437434
 20
12.5303031392
 10
18.2277895353
 20
12.5108359078
 10
18.2134232264
 20
12.4923971613
 10
18.1982621269
 20
12.4750091168
 10
18.1823245048
 20
12.4586927257
 10
18.1656295637
 20
12.4434676479
 10
18.1481974197
 20
12.4293522285
 10
18.1300490772
 20
12.4163634754
 10
18.1112064034
 20
12.404517039
 10
18.1087582675
 20
12.4030912378
  0
SPLINE
  5
11F
330
1F
100
AcDbEntity
  8
0
  6
Continuous
 62
     7
370
    25
100
AcDbSpline
210
0.0
220
0.0
230
1.0
 70
    11
 71
     3
 72
    44
 73
    40
 74
     0
 42
0.00000001
 43
0.00000001
 40
0.0
 40
0.0
 40
0.0
 40
0.0
 40
0.0241097081348633
 40
0.0482217398709174
 40
0.0738497821463301
 40
0.099481856746732
 40
0.1258983909064555
 40
0.1523184751649174
 40
0.1796636143149819
 40
0.2070106434047392
 40
0.2350231401323457
 40
0.2630352205604901
 40
0.291243149879142
 40
0.3194480164770384
 40
0.3473150289674394
 40
0.3751769078469837
 40
0.4022197664929836
 40
0.4292579379153504
 40
0.4553071016851356
 40
0.4813547835989002
 40
0.5067619288327836
 40
0.532171057442004
 40
0.5576265836982619
 40
0.5830859429704793
 40
0.609213172105245
 40
0.6353442599949454
 40
0.6624071540298387
 40
0.6894725561208102
 40
0.71731812218018
 40
0.7451640545512651
 40
0.7733667622868156
 40
0.8015672568909356
 40
0.8296010131686729
 40
0.8576301160061038
 40
0.884974662634354
 40
0.9123140204145095
 40
0.9386659158764054
 40
0.96501514275692
 40
1.0
 40
1.0
 40
1.0
 40
1.0
 10
18.11159926558688
 20
12.44471284571274
 30
0.0
 10
18.10948419667718
 20
12.44232606569298
 30
0.0
 10
18.10525385501555
 20
12.43755227562476
 30
0.0
 10
18.09719751192894
 20
12.42972006266356
 30
0.0
 10
18.08801411817634
 20
12.42155570495345
 30
0.0
 10
18.07772283878324
 20
12.4131140806997
 30
0.0
 10
18.06679960036527
 20
12.40476885507982
 30
0.0
 10
18.05542652132145
 20
12.39661101326406
 30
0.0
 10
18.04403132357701
 20
12.38893596285607
 30
0.0
 10
18.03284571332484
 20
12.38187114133396
 30
0.0
 10
18.0223500326371
 20
12.3757272075512
 30
0.0
 10
18.01280224743511
 20
12.37065521744719
 30
0.0
 10
18.00461235541956
 20
12.36691540217879
 30
0.0
 10
17.99798797261419
 20
12.36461988045234
 30
0.0
 10
17.99318952274341
 20
12.36393517295437
 30
0.0
 10
17.99028595228867
 20
12.36484799329145
 30
0.0
 10
17.98937118819116
 20
12.36740970760841
 30
0.0
 10
17.99031833524587
 20
12.37142510276049
 30
0.0
 10
17.99309868258224
 20
12.37684683024821
 30
0.0
 10
17.99744434926969
 20
12.38336097398257
 30
0.0
 10
18.00328315929736
 20
12.390867720061
 30
0.0
 10
18.01035066565313
 20
12.39907535007833
 30
0.0
 10
18.01854901725068
 20
12.40782709625206
 30
0.0
 10
18.02769864262649
 20
12.41691556906553
 30
0.0
 10
18.03761626547649
 20
12.42607708980435
 30
0.0
 10
18.04816941245617
 20
12.43514625569271
 30
0.0
 10
18.05904540992157
 20
12.44375265722797
 30
0.0
 10
18.07007398280296
 20
12.45172303575576
 30
0.0
 10
18.08084248231345
 20
12.45866421302405
 30
0.0
 10
18.09110512689454
 20
12.46441447813403
 30
0.0
 10
18.10043473208609
 20
12.46867079845565
 30
0.0
 10
18.10855436545083
 20
12.47135435143194
 30
0.0
 10
18.11510940756855
 20
12.47231745033516
 30
0.0
 10
18.11989474233207
 20
12.47162904636571
 30
0.0
 10
18.12268644989203
 20
12.46929294750576
 30
0.0
 10
18.12348293911681
 20
12.46554860739383
 30
0.0
 10
18.1221723582345
 20
12.46047871990224
 30
0.0
 10
18.11876320513935
 20
12.45375153433767
 30
0.0
 10
18.11420134363077
 20
12.44799586800017
 30
0.0
 10
18.11159926558688
 20
12.44471284571274
 30
0.0
  0
ARC
  5
120
330
1F
100
AcDbEntity
  8
0
  6
Continuous
 62
     7
370
    25
100
AcDbCircle
 10
17.9381834373
 20
12.5628804165
 30
0.0
 40
0.1873485947002374
100
AcDbArc
 50
289.0843705461
 51
329.7135506138
  0
ARC
  5
121
330
1F
100
AcDbEntity
  8
0
  6
Continuous
 62
     7
370
    25
100
AcDbCircle
 10
15.1214505859
 20
11.245553461
 30
0.0
 40
0.0461041442271719
100
AcDbArc
 50
182.6054784857
 51
237.39452166
  0
LINE
  5
122
330
1F
100
AcDbEntity
  8
0
  6
Continuous
 62
     7
370
    25
100
AcDbLine
 10
15.0753941028
 20
11.2434576354
 30
0.0
 11
15.0753941028
 21
15.2771692461
 31
0.0
  0
ARC
  5
123
330
1F
100
AcDbEntity
  8
0
  6
Continuous
 62
     7
370
    25
100
AcDbCircle
 10
15.0883263338
 20
15.279267062
 30
0.0
 40
0.0131012759228545
100
AcDbArc
 50
50.7967147643
 51
189.2140369905
  0
LINE
  5
124
330
1F
100
AcDbEntity
  8
0
  6
Continuous
 62
     7
370
    25
100
AcDbLine
 10
15.0966073063
 20
15.2894193488
 30
0.0
 11
17.3522779382
 21
13.9872484104
 31
0.0
  0
ARC
  5
125
330
1F
100
AcDbEntity
  8
0
  6
Continuous
 62
     7
370
    25
100
AcDbCircle
 10
17.3274346586
 20
13.9484102388
 30
0.0
 40
0.0461041442271545
100
AcDbArc
 50
2.6054784857
 51
57.39452166
  0
LINE
  5
126
330
1F
100
AcDbEntity
  8
0
  6
Continuous
 62
     7
370
    25
100
AcDbLine
 10
17.3734911417
 20
13.9505060644
 30
0.0
 11
17.3734911417
 21
9.9167944537
 31
0.0
  0
ARC
  5
127
330
1F
100
AcDbEntity
  8
0
  6
Continuous
 62
     7
370
    25
100
AcDbCircle
 10
17.3605589107
 20
9.9146966378
 30
0.0
 40
0.0131012759228548
100
AcDbArc
 50
230.7967147643
 51
9.2140369904
  0
LINE
  5
128
330
1F
100
AcDbEntity
  8
0
  6
Continuous
 62
     7
370
    25
100
AcDbLine
 10
17.3522779382
 20
9.904544351
 30
0.0
 11
15.0966073063
 21
11.2067152894
 31
0.0
  0
LWPOLYLINE
  5
129
330
1F
100
AcDbEntity
  8
0
  6
Continuous
 62
     7
370
    25
100
AcDbPolyline
 90
       79
 70
   128
 43
0.0
 10
16.3693995124
 20
11.1607001636
 10
16.3689294619
 20
11.1744408866
 10
16.3675223587
 20
11.1886352046
 10
16.3651873286
 20
11.2031910619
 10
16.3619395151
 20
11.2180140582
 10
16.3577999814
 20
11.2330080607
 10
16.3527955741
 20
11.2480758275
 10
16.3469587486
 20
11.2631196384
 10
16.3403273591
 20
11.2780419285
 10
16.3329444125
 20
11.2927459211
 10
16.3248577903
 20
11.307136255
 10
16.3161199371
 20
11.3211196034
 10
16.3067875213
 20
11.334605279
 10
16.2969210673
 20
11.347505822
 10
16.2865845628
 20
11.3597375674
 10
16.2758450439
 20
11.3712211876
 10
16.2647721606
 20
11.381882207
 10
16.2534377248
 20
11.3916514848
 10
16.2419152446
 20
11.4004656634
 10
16.2302794477
 20
11.4082675795
 10
16.2186057968
 20
11.4150066348
 10
16.2069699999
 20
11.4206391237
 10
16.1954475197
 20
11.4251285176
 10
16.1841130839
 20
11.4284457009
 10
16.1730402006
 20
11.4305691604
 10
16.1623006817
 20
11.4314851247
 10
16.1519641772
 20
11.4311876535
 10
16.1420977232
 20
11.4296786758
 10
16.1327653074
 20
11.4269679781
 10
16.1240274542
 20
11.4230731402
 10
16.115940832
 20
11.4180194216
 10
16.1085578854
 20
11.4118395977
 10
16.1019264959
 20
11.404573747
 10
16.0960896704
 20
11.3962689914
 10
16.0910852631
 20
11.3869791902
 10
16.0869457294
 20
11.3767645915
 10
16.0836979159
 20
11.3656914409
 10
16.0813628858
 20
11.353831552
 10
16.0799557826
 20
11.3412618407
 10
16.0794857321
 20
11.3280638265
 10
16.0799557826
 20
11.3143231034
 10
16.0813628858
 20
11.3001287855
 10
16.0836979159
 20
11.2855729282
 10
16.0869457294
 20
11.2707499318
 10
16.0910852631
 20
11.2557559293
 10
16.0960896704
 20
11.2406881625
 10
16.1019264959
 20
11.2256443516
 10
16.1085578854
 20
11.2107220615
 10
16.115940832
 20
11.196018069
 10
16.1240274542
 20
11.1816277351
 10
16.1327653074
 20
11.1676443866
 10
16.1420977232
 20
11.154158711
 10
16.1519641772
 20
11.1412581681
 10
16.1623006817
 20
11.1290264227
 10
16.1730402006
 20
11.1175428024
 10
16.1841130839
 20
11.106881783
 10
16.1954475197
 20
11.0971125052
 10
16.2069699999
 20
11.0882983266
 10
16.2186057968
 20
11.0804964105
 10
16.2302794477
 20
11.0737573553
 10
16.2419152446
 20
11.0681248663
 10
16.2534377248
 20
11.0636354725
 10
16.2647721606
 20
11.0603182892
 10
16.2758450439
 20
11.0581948296
 10
16.2865845628
 20
11.0572788653
 10
16.2969210673
 20
11.0575763366
 10
16.3067875213
 20
11.0590853143
 10
16.3161199371
 20
11.061796012
 10
16.3248577903
 20
11.0656908499
 10
16.3329444125
 20
11.0707445684
 10
16.3403273591
 20
11.0769243923
 10
16.3469587486
 20
11.084190243
 10
16.3527955741
 20
11.0924949987
 10
16.3577999814
 20
11.1017847998
 10
16.3619395151
 20
11.1119993985
 10
16.3651873286
 20
11.1230725491
 10
16.3675223587
 20
11.134932438
 10
16.3689294619
 20
11.1475021493
 10
16.3693995124
 20
11.1607001636
  0
LWPOLYLINE
  5
12A
330
1F
100
AcDbEntity
  8
0
  6
Continuous
 62
     7
370
    25
100
AcDbPolyline
 90
       79
 70
   128
 43
0.0
 10
16.3693995124
 20
13.8658998733
 10
16.3689294619
 20
13.8796405964
 10
16.3675223587
 20
13.8938349144
 10
16.3651873286
 20
13.9083907717
 10
16.3619395151
 20
13.923213768
 10
16.3577999814
 20
13.9382077705
 10
16.3527955741
 20
13.9532755373
 10
16.3469587486
 20
13.9683193482
 10
16.3403273591
 20
13.9832416383
 10
16.3329444125
 20
13.9979456308
 10
16.3248577903
 20
14.0123359647
 10
16.3161199371
 20
14.0263193132
 10
16.3067875213
 20
14.0398049888
 10
16.2969210673
 20
14.0527055318
 10
16.2865845628
 20
14.0649372772
 10
16.2758450439
 20
14.0764208974
 10
16.2647721606
 20
14.0870819168
 10
16.2534377248
 20
14.0968511946
 10
16.2419152446
 20
14.1056653732
 10
16.2302794477
 20
14.1134672893
 10
16.2186057968
 20
14.1202063446
 10
16.2069699999
 20
14.1258388335
 10
16.1954475197
 20
14.1303282274
 10
16.1841130839
 20
14.1336454107
 10
16.1730402006
 20
14.1357688702
 10
16.1623006817
 20
14.1366848345
 10
16.1519641772
 20
14.1363873632
 10
16.1420977232
 20
14.1348783856
 10
16.1327653074
 20
14.1321676878
 10
16.1240274542
 20
14.1282728499
 10
16.115940832
 20
14.1232191314
 10
16.1085578854
 20
14.1170393075
 10
16.1019264959
 20
14.1097734568
 10
16.0960896704
 20
14.1014687011
 10
16.0910852631
 20
14.0921789
 10
16.0869457294
 20
14.0819643013
 10
16.0836979159
 20
14.0708911507
 10
16.0813628858
 20
14.0590312618
 10
16.0799557826
 20
14.0464615505
 10
16.0794857321
 20
14.0332635363
 10
16.0799557826
 20
14.0195228132
 10
16.0813628858
 20
14.0053284952
 10
16.0836979159
 20
13.9907726379
 10
16.0869457294
 20
13.9759496416
 10
16.0910852631
 20
13.9609556391
 10
16.0960896704
 20
13.9458878723
 10
16.1019264959
 20
13.9308440614
 10
16.1085578854
 20
13.9159217713
 10
16.115940832
 20
13.9012177788
 10
16.1240274542
 20
13.8868274449
 10
16.1327653074
 20
13.8728440964
 10
16.1420977232
 20
13.8593584208
 10
16.1519641772
 20
13.8464578778
 10
16.1623006817
 20
13.8342261324
 10
16.1730402006
 20
13.8227425122
 10
16.1841130839
 20
13.8120814928
 10
16.1954475197
 20
13.802312215
 10
16.2069699999
 20
13.7934980364
 10
16.2186057968
 20
13.7856961203
 10
16.2302794477
 20
13.778957065
 10
16.2419152446
 20
13.7733245761
 10
16.2534377248
 20
13.7688351822
 10
16.2647721606
 20
13.7655179989
 10
16.2758450439
 20
13.7633945394
 10
16.2865845628
 20
13.7624785751
 10
16.2969210673
 20
13.7627760464
 10
16.3067875213
 20
13.764285024
 10
16.3161199371
 20
13.7669957218
 10
16.3248577903
 20
13.7708905597
 10
16.3329444125
 20
13.7759442782
 10
16.3403273591
 20
13.7821241021
 10
16.3469587486
 20
13.7893899528
 10
16.3527955741
 20
13.7976947085
 10
16.3577999814
 20
13.8069845096
 10
16.3619395151
 20
13.8171991083
 10
16.3651873286
 20
13.8282722589
 10
16.3675223587
 20
13.8401321478
 10
16.3689294619
 20
13.8527018591
 10
16.3693995124
 20
13.8658998733
  0
LINE
  5
12B
330
1F
100
AcDbEntity
  8
0
  6
Continuous
 62
     7
370
    25
100
AcDbLine
 10
15.8479082613
 20
13.3725378087
 30
0.0
 11
16.6009769832
 21
12.9378004891
 31
0.0
  0
SPLINE
  5
12C
330
1F
100
AcDbEntity
  8
0
  6
Continuous
 62
     7
370
    25
100
AcDbSpline
210
0.0
220
0.0
230
1.0
 70
     8
 71
     3
 72
    25
 73
    21
 74
     0
 42
0.00000001
 43
0.00000001
 40
0.0
 40
0.0
 40
0.0
 40
0.0
 40
0.0611618131782255
 40
0.1223236263564514
 40
0.1760236318511582
 40
0.229723637345865
 40
0.2834236428405721
 40
0.337123648335279
 40
0.390823653829987
 40
0.444523659324695
 40
0.4982236648194021
 40
0.5519236703141088
 40
0.6048587710067866
 40
0.6577938716994634
 40
0.7107289723921404
 40
0.7636640730848182
 40
0.8165991737774952
 40
0.8695342744701718
 40
0.9224693751628488
 40
1.0
 40
1.0
 40
1.0
 40
1.0
 10
15.84790826126555
 20
13.27047020720469
 30
0.0
 10
15.84507789652019
 20
13.27229071585509
 30
0.0
 10
15.83941716702948
 20
13.2759317331559
 30
0.0
 10
15.8315630669523
 20
13.28323881461776
 30
0.0
 10
15.82458703021977
 20
13.29133921226935
 30
0.0
 10
15.81856694324211
 20
13.29994981521866
 30
0.0
 10
15.81339725262007
 20
13.3091768088664
 30
0.0
 10
15.80918697434652
 20
13.31874867480604
 30
0.0
 10
15.80609847556906
 20
13.32839984675344
 30
0.0
 10
15.80417262015996
 20
13.33785923340836
 30
0.0
 10
15.80351295522314
 20
13.34684556360242
 30
0.0
 10
15.80408821790908
 20
13.35508497095704
 30
0.0
 10
15.80589677573592
 20
13.36233843246913
 30
0.0
 10
15.80885194228078
 20
13.36843289026981
 30
0.0
 10
15.81288524447965
 20
13.37323302158883
 30
0.0
 10
15.81788434744963
 20
13.37660421826941
 30
0.0
 10
15.82371136779918
 20
13.37846435323424
 30
0.0
 10
15.83020668469216
 20
13.37872091502753
 30
0.0
 10
15.83826782879663
 20
13.37733492552253
 30
0.0
 10
15.84431479074697
 20
13.37432593364911
 30
0.0
 10
15.84790826126555
 20
13.37253780869041
 30
0.0
  0
LINE
  5
12D
330
1F
100
AcDbEntity
  8
0
  6
Continuous
 62
     7
370
    25
100
AcDbLine
 10
16.6009769832
 20
12.8357328877
 30
0.0
 11
15.8479082613
 21
13.2704702072
 31
0.0
  0
SPLINE
  5
12E
330
1F
100
AcDbEntity
  8
0
  6
Continuous
 62
     7
370
    25
100
AcDbSpline
210
0.0
220
0.0
230
1.0
 70
     8
 71
     3
 72
    26
 73
    22
 74
     0
 42
0.00000001
 43
0.00000001
 40
0.0
 40
0.0
 40
0.0
 40
0.0
 40
0.0600185114031148
 40
0.1129431116728891
 40
0.1658677119426628
 40
0.2187923122124368
 40
0.2717169124822095
 40
0.3246415127519828
 40
0.3775661130217564
 40
0.4304907132915305
 40
0.483415313561303
 40
0.5363399138310756
 40
0.589264514100849
 40
0.6421891143706224
 40
0.6951137146403947
 40
0.7480383149101674
 40
0.8009629151799407
 40
0.8538875154497128
 40
0.9068121157194856
 40
0.9534060578597426
 40
1.0
 40
1.0
 40
1.0
 40
1.0
 10
16.60097698322922
 20
12.93780048914481
 30
0.0
 10
16.6037557896226
 20
12.93602255549881
 30
0.0
 10
16.60898496031456
 20
12.93267683176068
 30
0.0
 10
16.6164044064106
 20
12.92591740034347
 30
0.0
 10
16.62308201746633
 20
12.91847379241654
 30
0.0
 10
16.62914967565489
 20
12.91012710612376
 30
0.0
 10
16.63444036399858
 20
12.90114375864001
 30
0.0
 10
16.6388080677549
 20
12.8917618219812
 30
0.0
 10
16.64213234393634
 20
12.88224266210486
 30
0.0
 10
16.64432149800724
 20
12.87284813366712
 30
0.0
 10
16.64531515184603
 20
12.86383753792543
 30
0.0
 10
16.64508589873057
 20
12.85545934643345
 30
0.0
 10
16.64364006165119
 20
12.84794466534548
 30
0.0
 10
16.64101751964573
 20
12.84150071566976
 30
0.0
 10
16.63729060255629
 20
12.83630538244465
 30
0.0
 10
16.63256211664315
 20
12.83250139550058
 30
0.0
 10
16.62696243209682
 20
12.83019577987301
 30
0.0
 10
16.62064617448868
 20
12.8294442684514
 30
0.0
 10
16.61406038271949
 20
12.83026292245609
 30
0.0
 10
16.607444090096
 20
12.83232047071141
 30
0.0
 10
16.60313268551815
 20
12.8345954153432
 30
0.0
 10
16.60097698322922
 20
12.83573288765909
 30
0.0
  0
LINE
  5
12F
330
1F
100
AcDbEntity
  8
0
  6
Continuous
 62
     7
370
    25
100
AcDbLine
 10
16.6009769832
 20
12.6826314854
 30
0.0
 11
15.8479082613
 21
13.117368805
 31
0.0
  0
SPLINE
  5
130
330
1F
100
AcDbEntity
  8
0
  6
Continuous
 62
     7
370
    25
100
AcDbSpline
210
0.0
220
0.0
230
1.0
 70
     8
 71
     3
 72
    26
 73
    22
 74
     0
 42
0.00000001
 43
0.00000001
 40
0.0
 40
0.0
 40
0.0
 40
0.0
 40
0.0600185114031147
 40
0.1129431116728891
 40
0.1658677119426628
 40
0.2187923122124368
 40
0.2717169124822095
 40
0.3246415127519829
 40
0.3775661130217564
 40
0.4304907132915306
 40
0.4834153135613039
 40
0.5363399138310769
 40
0.589264514100849
 40
0.6421891143706223
 40
0.6951137146403954
 40
0.7480383149101685
 40
0.8009629151799413
 40
0.853887515449714
 40
0.9068121157194872
 40
0.9534060578597436
 40
1.0
 40
1.0
 40
1.0
 40
1.0
 10
16.60097698322922
 20
12.78469908691624
 30
0.0
 10
16.60375578962259
 20
12.78292115327023
 30
0.0
 10
16.60898496031456
 20
12.77957542953211
 30
0.0
 10
16.6164044064106
 20
12.77281599811489
 30
0.0
 10
16.62308201746633
 20
12.76537239018796
 30
0.0
 10
16.62914967565489
 20
12.75702570389518
 30
0.0
 10
16.63444036399858
 20
12.74804235641144
 30
0.0
 10
16.6388080677549
 20
12.73866041975262
 30
0.0
 10
16.64213234393634
 20
12.72914125987629
 30
0.0
 10
16.64432149800724
 20
12.71974673143854
 30
0.0
 10
16.64531515184603
 20
12.71073613569685
 30
0.0
 10
16.64508589873057
 20
12.70235794420487
 30
0.0
 10
16.64364006165119
 20
12.69484326311691
 30
0.0
 10
16.64101751964574
 20
12.68839931344118
 30
0.0
 10
16.63729060255629
 20
12.68320398021607
 30
0.0
 10
16.63256211664315
 20
12.679399993272
 30
0.0
 10
16.62696243209682
 20
12.67709437764443
 30
0.0
 10
16.62064617448868
 20
12.67634286622282
 30
0.0
 10
16.61406038271949
 20
12.67716152022751
 30
0.0
 10
16.607444090096
 20
12.67921906848284
 30
0.0
 10
16.60313268551815
 20
12.68149401311462
 30
0.0
 10
16.60097698322922
 20
12.68263148543052
 30
0.0
  0
LINE
  5
131
330
1F
100
AcDbEntity
  8
0
  6
Continuous
 62
     7
370
    25
100
AcDbLine
 10
15.8479082613
 20
13.2194364065
 30
0.0
 11
16.6009769832
 21
12.7846990869
 31
0.0
  0
SPLINE
  5
132
330
1F
100
AcDbEntity
  8
0
  6
Continuous
 62
     7
370
    25
100
AcDbSpline
210
0.0
220
0.0
230
1.0
 70
     8
 71
     3
 72
    25
 73
    21
 74
     0
 42
0.00000001
 43
0.00000001
 40
0.0
 40
0.0
 40
0.0
 40
0.0
 40
0.0611618131782256
 40
0.1223236263564513
 40
0.1760236318511582
 40
0.2297236373458653
 40
0.283423642840573
 40
0.3371236483352806
 40
0.3908236538299878
 40
0.4445236593246951
 40
0.4982236648194018
 40
0.5519236703141093
 40
0.6048587710067864
 40
0.6577938716994637
 40
0.7107289723921404
 40
0.763664073084817
 40
0.8165991737774944
 40
0.8695342744701716
 40
0.9224693751628485
 40
1.0
 40
1.0
 40
1.0
 40
1.0
 10
15.84790826126555
 20
13.11736880497611
 30
0.0
 10
15.84507789652019
 20
13.11918931362651
 30
0.0
 10
15.83941716702948
 20
13.12283033092732
 30
0.0
 10
15.8315630669523
 20
13.13013741238918
 30
0.0
 10
15.82458703021977
 20
13.13823781004078
 30
0.0
 10
15.81856694324211
 20
13.14684841299008
 30
0.0
 10
15.81339725262007
 20
13.15607540663783
 30
0.0
 10
15.80918697434652
 20
13.16564727257746
 30
0.0
 10
15.80609847556906
 20
13.17529844452486
 30
0.0
 10
15.80417262015996
 20
13.18475783117978
 30
0.0
 10
15.80351295522314
 20
13.19374416137384
 30
0.0
 10
15.80408821790908
 20
13.20198356872847
 30
0.0
 10
15.80589677573593
 20
13.20923703024055
 30
0.0
 10
15.80885194228078
 20
13.21533148804124
 30
0.0
 10
15.81288524447965
 20
13.22013161936026
 30
0.0
 10
15.81788434744963
 20
13.22350281604083
 30
0.0
 10
15.82371136779918
 20
13.22536295100567
 30
0.0
 10
15.83020668469216
 20
13.22561951279895
 30
0.0
 10
15.83826782879663
 20
13.22423352329395
 30
0.0
 10
15.84431479074697
 20
13.22122453142054
 30
0.0
 10
15.84790826126555
 20
13.21943640646183
 30
0.0
  0
LINE
  5
133
330
1F
100
AcDbEntity
  8
0
  6
Continuous
 62
     7
370
    25
100
AcDbLine
 10
15.8479082613
 20
13.0663350042
 30
0.0
 11
16.6009769832
 21
12.6315976847
 31
0.0
  0
SPLINE
  5
134
330
1F
100
AcDbEntity
  8
0
  6
Continuous
 62
     7
370
    25
100
AcDbSpline
210
0.0
220
0.0
230
1.0
 70
     8
 71
     3
 72
    25
 73
    21
 74
     0
 42
0.00000001
 43
0.00000001
 40
0.0
 40
0.0
 40
0.0
 40
0.0
 40
0.0611618131782254
 40
0.122323626356451
 40
0.1760236318511581
 40
0.2297236373458656
 40
0.2834236428405724
 40
0.3371236483352797
 40
0.3908236538299871
 40
0.4445236593246942
 40
0.4982236648194013
 40
0.5519236703141083
 40
0.6048587710067869
 40
0.6577938716994642
 40
0.7107289723921402
 40
0.7636640730848167
 40
0.8165991737774928
 40
0.8695342744701692
 40
0.9224693751628453
 40
1.0
 40
1.0
 40
1.0
 40
1.0
 10
15.84790826126555
 20
12.96426740274753
 30
0.0
 10
15.84507789652019
 20
12.96608791139793
 30
0.0
 10
15.83941716702948
 20
12.96972892869874
 30
0.0
 10
15.8315630669523
 20
12.9770360101606
 30
0.0
 10
15.82458703021977
 20
12.9851364078122
 30
0.0
 10
15.81856694324211
 20
12.9937470107615
 30
0.0
 10
15.81339725262007
 20
13.00297400440925
 30
0.0
 10
15.80918697434652
 20
13.01254587034889
 30
0.0
 10
15.80609847556906
 20
13.02219704229629
 30
0.0
 10
15.80417262015996
 20
13.03165642895121
 30
0.0
 10
15.80351295522314
 20
13.04064275914527
 30
0.0
 10
15.80408821790908
 20
13.04888216649989
 30
0.0
 10
15.80589677573593
 20
13.05613562801197
 30
0.0
 10
15.80885194228078
 20
13.06223008581266
 30
0.0
 10
15.81288524447965
 20
13.06703021713168
 30
0.0
 10
15.81788434744963
 20
13.07040141381225
 30
0.0
 10
15.82371136779918
 20
13.07226154877709
 30
0.0
 10
15.83020668469216
 20
13.07251811057037
 30
0.0
 10
15.83826782879663
 20
13.07113212106537
 30
0.0
 10
15.84431479074697
 20
13.06812312919196
 30
0.0
 10
15.84790826126555
 20
13.06633500423325
 30
0.0
  0
LINE
  5
135
330
1F
100
AcDbEntity
  8
0
  6
Continuous
 62
     7
370
    25
100
AcDbLine
 10
16.6009769832
 20
12.5295300832
 30
0.0
 11
15.8479082613
 21
12.9642674027
 31
0.0
  0
SPLINE
  5
136
330
1F
100
AcDbEntity
  8
0
  6
Continuous
 62
     7
370
    25
100
AcDbSpline
210
0.0
220
0.0
230
1.0
 70
     8
 71
     3
 72
    26
 73
    22
 74
     0
 42
0.00000001
 43
0.00000001
 40
0.0
 40
0.0
 40
0.0
 40
0.0
 40
0.060018511403115
 40
0.112943111672889
 40
0.1658677119426636
 40
0.2187923122124373
 40
0.271716912482211
 40
0.3246415127519846
 40
0.3775661130217585
 40
0.4304907132915312
 40
0.4834153135613044
 40
0.5363399138310774
 40
0.5892645141008508
 40
0.6421891143706238
 40
0.6951137146403971
 40
0.7480383149101709
 40
0.8009629151799439
 40
0.8538875154497169
 40
0.90681211571949
 40
0.9534060578597446
 40
1.0
 40
1.0
 40
1.0
 40
1.0
 10
16.60097698322922
 20
12.63159768468766
 30
0.0
 10
16.60375578962259
 20
12.62981975104165
 30
0.0
 10
16.60898496031456
 20
12.62647402730353
 30
0.0
 10
16.6164044064106
 20
12.61971459588631
 30
0.0
 10
16.62308201746632
 20
12.61227098795938
 30
0.0
 10
16.62914967565489
 20
12.6039243016666
 30
0.0
 10
16.63444036399858
 20
12.59494095418286
 30
0.0
 10
16.6388080677549
 20
12.58555901752404
 30
0.0
 10
16.64213234393634
 20
12.57603985764771
 30
0.0
 10
16.64432149800724
 20
12.56664532920996
 30
0.0
 10
16.64531515184603
 20
12.55763473346827
 30
0.0
 10
16.64508589873057
 20
12.54925654197629
 30
0.0
 10
16.64364006165119
 20
12.54174186088833
 30
0.0
 10
16.64101751964573
 20
12.5352979112126
 30
0.0
 10
16.63729060255629
 20
12.5301025779875
 30
0.0
 10
16.63256211664315
 20
12.52629859104342
 30
0.0
 10
16.62696243209682
 20
12.52399297541585
 30
0.0
 10
16.62064617448868
 20
12.52324146399424
 30
0.0
 10
16.61406038271949
 20
12.52406011799893
 30
0.0
 10
16.607444090096
 20
12.52611766625426
 30
0.0
 10
16.60313268551815
 20
12.52839261088605
 30
0.0
 10
16.60097698322922
 20
12.52953008320194
 30
0.0
  0
LINE
  5
137
330
1F
100
AcDbEntity
  8
0
  6
Continuous
 62
     7
370
    25
100
AcDbLine
 10
16.6009769832
 20
12.376428681
 30
0.0
 11
15.8479082613
 21
12.8111660005
 31
0.0
  0
SPLINE
  5
138
330
1F
100
AcDbEntity
  8
0
  6
Continuous
 62
     7
370
    25
100
AcDbSpline
210
0.0
220
0.0
230
1.0
 70
     8
 71
     3
 72
    26
 73
    22
 74
     0
 42
0.00000001
 43
0.00000001
 40
0.0
 40
0.0
 40
0.0
 40
0.0
 40
0.0600185114031151
 40
0.1129431116728892
 40
0.1658677119426635
 40
0.2187923122124376
 40
0.2717169124822121
 40
0.3246415127519858
 40
0.3775661130217595
 40
0.4304907132915331
 40
0.4834153135613063
 40
0.5363399138310794
 40
0.5892645141008536
 40
0.6421891143706269
 40
0.6951137146404005
 40
0.7480383149101738
 40
0.8009629151799476
 40
0.8538875154497204
 40
0.9068121157194935
 40
0.9534060578597464
 40
1.0
 40
1.0
 40
1.0
 40
1.0
 10
16.60097698322922
 20
12.47849628245908
 30
0.0
 10
16.60375578962259
 20
12.47671834881307
 30
0.0
 10
16.60898496031456
 20
12.47337262507495
 30
0.0
 10
16.6164044064106
 20
12.46661319365774
 30
0.0
 10
16.62308201746632
 20
12.4591695857308
 30
0.0
 10
16.62914967565489
 20
12.45082289943802
 30
0.0
 10
16.63444036399858
 20
12.44183955195428
 30
0.0
 10
16.6388080677549
 20
12.43245761529547
 30
0.0
 10
16.64213234393634
 20
12.42293845541913
 30
0.0
 10
16.64432149800724
 20
12.41354392698138
 30
0.0
 10
16.64531515184603
 20
12.40453333123969
 30
0.0
 10
16.64508589873057
 20
12.39615513974772
 30
0.0
 10
16.64364006165119
 20
12.38864045865975
 30
0.0
 10
16.64101751964574
 20
12.38219650898403
 30
0.0
 10
16.63729060255629
 20
12.37700117575892
 30
0.0
 10
16.63256211664315
 20
12.37319718881484
 30
0.0
 10
16.62696243209682
 20
12.37089157318727
 30
0.0
 10
16.62064617448868
 20
12.37014006176566
 30
0.0
 10
16.61406038271949
 20
12.37095871577036
 30
0.0
 10
16.607444090096
 20
12.37301626402568
 30
0.0
 10
16.60313268551815
 20
12.37529120865747
 30
0.0
 10
16.60097698322922
 20
12.37642868097336
 30
0.0
  0
LINE
  5
139
330
1F
100
AcDbEntity
  8
0
  6
Continuous
 62
     7
370
    25
100
AcDbLine
 10
15.8479082613
 20
12.913233602
 30
0.0
 11
16.6009769832
 21
12.4784962825
 31
0.0
  0
SPLINE
  5
13A
330
1F
100
AcDbEntity
  8
0
  6
Continuous
 62
     7
370
    25
100
AcDbSpline
210
0.0
220
0.0
230
1.0
 70
     8
 71
     3
 72
    25
 73
    21
 74
     0
 42
0.00000001
 43
0.00000001
 40
0.0
 40
0.0
 40
0.0
 40
0.0
 40
0.0611618131782253
 40
0.1223236263564509
 40
0.1760236318511579
 40
0.2297236373458654
 40
0.2834236428405727
 40
0.3371236483352799
 40
0.390823653829987
 40
0.4445236593246942
 40
0.4982236648194012
 40
0.5519236703141083
 40
0.6048587710067862
 40
0.6577938716994636
 40
0.7107289723921403
 40
0.7636640730848165
 40
0.8165991737774928
 40
0.8695342744701695
 40
0.922469375162846
 40
1.0
 40
1.0
 40
1.0
 40
1.0
 10
15.84790826126555
 20
12.81116600051896
 30
0.0
 10
15.84507789652019
 20
12.81298650916936
 30
0.0
 10
15.83941716702948
 20
12.81662752647016
 30
0.0
 10
15.8315630669523
 20
12.82393460793202
 30
0.0
 10
15.82458703021977
 20
12.83203500558362
 30
0.0
 10
15.81856694324211
 20
12.84064560853292
 30
0.0
 10
15.81339725262007
 20
12.84987260218067
 30
0.0
 10
15.80918697434652
 20
12.85944446812031
 30
0.0
 10
15.80609847556906
 20
12.86909564006771
 30
0.0
 10
15.80417262015996
 20
12.87855502672263
 30
0.0
 10
15.80351295522314
 20
12.88754135691669
 30
0.0
 10
15.80408821790908
 20
12.89578076427131
 30
0.0
 10
15.80589677573593
 20
12.9030342257834
 30
0.0
 10
15.80885194228078
 20
12.90912868358408
 30
0.0
 10
15.81288524447965
 20
12.9139288149031
 30
0.0
 10
15.81788434744963
 20
12.91730001158367
 30
0.0
 10
15.82371136779918
 20
12.91916014654851
 30
0.0
 10
15.83020668469216
 20
12.91941670834179
 30
0.0
 10
15.83826782879663
 20
12.91803071883679
 30
0.0
 10
15.84431479074697
 20
12.91502172696338
 30
0.0
 10
15.84790826126555
 20
12.91323360200467
 30
0.0
  0
LINE
  5
13B
330
1F
100
AcDbEntity
  8
0
  6
Continuous
 62
     7
370
    25
100
AcDbLine
 10
15.8479082613
 20
12.7601321998
 30
0.0
 11
16.6009769832
 21
12.3253948802
 31
0.0
  0
SPLINE
  5
13C
330
1F
100
AcDbEntity
  8
0
  6
Continuous
 62
     7
370
    25
100
AcDbSpline
210
0.0
220
0.0
230
1.0
 70
     8
 71
     3
 72
    25
 73
    21
 74
     0
 42
0.00000001
 43
0.00000001
 40
0.0
 40
0.0
 40
0.0
 40
0.0
 40
0.0611618131782256
 40
0.122323626356451
 40
0.1760236318511582
 40
0.2297236373458658
 40
0.2834236428405728
 40
0.33712364833528
 40
0.3908236538299873
 40
0.4445236593246946
 40
0.4982236648194017
 40
0.5519236703141087
 40
0.6048587710067856
 40
0.657793871699463
 40
0.7107289723921401
 40
0.7636640730848161
 40
0.8165991737774921
 40
0.869534274470168
 40
0.9224693751628443
 40
1.0
 40
1.0
 40
1.0
 40
1.0
 10
15.84790826126555
 20
12.65806459829038
 30
0.0
 10
15.84507789652019
 20
12.65988510694078
 30
0.0
 10
15.83941716702948
 20
12.66352612424158
 30
0.0
 10
15.8315630669523
 20
12.67083320570344
 30
0.0
 10
15.82458703021977
 20
12.67893360335504
 30
0.0
 10
15.81856694324211
 20
12.68754420630435
 30
0.0
 10
15.81339725262007
 20
12.69677119995209
 30
0.0
 10
15.80918697434652
 20
12.70634306589173
 30
0.0
 10
15.80609847556906
 20
12.71599423783913
 30
0.0
 10
15.80417262015996
 20
12.72545362449405
 30
0.0
 10
15.80351295522314
 20
12.73443995468811
 30
0.0
 10
15.80408821790908
 20
12.74267936204273
 30
0.0
 10
15.80589677573593
 20
12.74993282355482
 30
0.0
 10
15.80885194228078
 20
12.7560272813555
 30
0.0
 10
15.81288524447965
 20
12.76082741267452
 30
0.0
 10
15.81788434744963
 20
12.76419860935509
 30
0.0
 10
15.82371136779918
 20
12.76605874431993
 30
0.0
 10
15.83020668469216
 20
12.76631530611322
 30
0.0
 10
15.83826782879663
 20
12.76492931660821
 30
0.0
 10
15.84431479074697
 20
12.7619203247348
 30
0.0
 10
15.84790826126555
 20
12.7601321997761
 30
0.0
  0
LINE
  5
13D
330
1F
100
AcDbEntity
  8
0
  6
Continuous
 62
     7
370
    25
100
AcDbLine
 10
16.6009769832
 20
12.2233272787
 30
0.0
 11
15.8479082613
 21
12.6580645983
 31
0.0
  0
SPLINE
  5
13E
330
1F
100
AcDbEntity
  8
0
  6
Continuous
 62
     7
370
    25
100
AcDbSpline
210
0.0
220
0.0
230
1.0
 70
     8
 71
     3
 72
    26
 73
    22
 74
     0
 42
0.00000001
 43
0.00000001
 40
0.0
 40
0.0
 40
0.0
 40
0.0
 40
0.0600185114031151
 40
0.1129431116728891
 40
0.1658677119426638
 40
0.2187923122124375
 40
0.2717169124822112
 40
0.3246415127519849
 40
0.3775661130217594
 40
0.4304907132915329
 40
0.4834153135613053
 40
0.5363399138310784
 40
0.5892645141008511
 40
0.6421891143706239
 40
0.6951137146403973
 40
0.7480383149101707
 40
0.8009629151799439
 40
0.8538875154497169
 40
0.9068121157194895
 40
0.9534060578597451
 40
1.0
 40
1.0
 40
1.0
 40
1.0
 10
16.60097698322922
 20
12.3253948802305
 30
0.0
 10
16.6037557896226
 20
12.32361694658449
 30
0.0
 10
16.60898496031456
 20
12.32027122284637
 30
0.0
 10
16.6164044064106
 20
12.31351179142916
 30
0.0
 10
16.62308201746632
 20
12.30606818350222
 30
0.0
 10
16.62914967565489
 20
12.29772149720944
 30
0.0
 10
16.63444036399858
 20
12.2887381497257
 30
0.0
 10
16.6388080677549
 20
12.27935621306689
 30
0.0
 10
16.64213234393634
 20
12.26983705319055
 30
0.0
 10
16.64432149800724
 20
12.26044252475281
 30
0.0
 10
16.64531515184603
 20
12.25143192901112
 30
0.0
 10
16.64508589873057
 20
12.24305373751914
 30
0.0
 10
16.64364006165119
 20
12.23553905643117
 30
0.0
 10
16.64101751964573
 20
12.22909510675545
 30
0.0
 10
16.63729060255629
 20
12.22389977353034
 30
0.0
 10
16.63256211664315
 20
12.22009578658626
 30
0.0
 10
16.62696243209682
 20
12.21779017095869
 30
0.0
 10
16.62064617448868
 20
12.21703865953709
 30
0.0
 10
16.61406038271949
 20
12.21785731354178
 30
0.0
 10
16.60744409009601
 20
12.2199148617971
 30
0.0
 10
16.60313268551815
 20
12.22218980642889
 30
0.0
 10
16.60097698322922
 20
12.22332727874478
 30
0.0
  0
LINE
  5
13F
330
1F
100
AcDbEntity
  8
0
  6
Continuous
 62
     7
370
    25
100
AcDbLine
 10
16.6009769832
 20
11.9171244743
 30
0.0
 11
15.8479082613
 21
12.3518617938
 31
0.0
  0
SPLINE
  5
140
330
1F
100
AcDbEntity
  8
0
  6
Continuous
 62
     7
370
    25
100
AcDbSpline
210
0.0
220
0.0
230
1.0
 70
     8
 71
     3
 72
    26
 73
    22
 74
     0
 42
0.00000001
 43
0.00000001
 40
0.0
 40
0.0
 40
0.0
 40
0.0
 40
0.0600185114031147
 40
0.1129431116728892
 40
0.1658677119426631
 40
0.2187923122124371
 40
0.2717169124822112
 40
0.324641512751985
 40
0.3775661130217587
 40
0.4304907132915328
 40
0.4834153135613066
 40
0.5363399138310799
 40
0.5892645141008537
 40
0.6421891143706271
 40
0.6951137146404005
 40
0.748038314910174
 40
0.8009629151799477
 40
0.8538875154497213
 40
0.9068121157194948
 40
0.9534060578597469
 40
1.0
 40
1.0
 40
1.0
 40
1.0
 10
16.60097698322922
 20
12.01919207577335
 30
0.0
 10
16.60375578962259
 20
12.01741414212734
 30
0.0
 10
16.60898496031456
 20
12.01406841838922
 30
0.0
 10
16.6164044064106
 20
12.007308986972
 30
0.0
 10
16.62308201746632
 20
11.99986537904507
 30
0.0
 10
16.62914967565489
 20
11.99151869275229
 30
0.0
 10
16.63444036399858
 20
11.98253534526854
 30
0.0
 10
16.6388080677549
 20
11.97315340860973
 30
0.0
 10
16.64213234393634
 20
11.96363424873339
 30
0.0
 10
16.64432149800724
 20
11.95423972029565
 30
0.0
 10
16.64531515184603
 20
11.94522912455396
 30
0.0
 10
16.64508589873057
 20
11.93685093306198
 30
0.0
 10
16.64364006165119
 20
11.92933625197401
 30
0.0
 10
16.64101751964573
 20
11.92289230229829
 30
0.0
 10
16.63729060255629
 20
11.91769696907318
 30
0.0
 10
16.63256211664315
 20
11.9138929821291
 30
0.0
 10
16.62696243209682
 20
11.91158736650154
 30
0.0
 10
16.62064617448868
 20
11.91083585507993
 30
0.0
 10
16.61406038271949
 20
11.91165450908462
 30
0.0
 10
16.607444090096
 20
11.91371205733994
 30
0.0
 10
16.60313268551815
 20
11.91598700197173
 30
0.0
 10
16.60097698322922
 20
11.91712447428763
 30
0.0
  0
LINE
  5
141
330
1F
100
AcDbEntity
  8
0
  6
Continuous
 62
     7
370
    25
100
AcDbLine
 10
15.8479082613
 20
12.4539293953
 30
0.0
 11
16.6009769832
 21
12.0191920758
 31
0.0
  0
SPLINE
  5
142
330
1F
100
AcDbEntity
  8
0
  6
Continuous
 62
     7
370
    25
100
AcDbSpline
210
0.0
220
0.0
230
1.0
 70
     8
 71
     3
 72
    25
 73
    21
 74
     0
 42
0.00000001
 43
0.00000001
 40
0.0
 40
0.0
 40
0.0
 40
0.0
 40
0.0611618131782256
 40
0.1223236263564513
 40
0.1760236318511584
 40
0.2297236373458656
 40
0.2834236428405726
 40
0.3371236483352797
 40
0.3908236538299865
 40
0.4445236593246935
 40
0.4982236648194006
 40
0.5519236703141086
 40
0.6048587710067866
 40
0.657793871699463
 40
0.7107289723921385
 40
0.7636640730848138
 40
0.8165991737774895
 40
0.8695342744701657
 40
0.9224693751628421
 40
1.0
 40
1.0
 40
1.0
 40
1.0
 10
15.84790826126555
 20
12.35186179383322
 30
0.0
 10
15.84507789652019
 20
12.35368230248362
 30
0.0
 10
15.83941716702948
 20
12.35732331978442
 30
0.0
 10
15.8315630669523
 20
12.36463040124629
 30
0.0
 10
15.82458703021977
 20
12.37273079889788
 30
0.0
 10
15.81856694324211
 20
12.38134140184719
 30
0.0
 10
15.81339725262007
 20
12.39056839549493
 30
0.0
 10
15.80918697434652
 20
12.40014026143457
 30
0.0
 10
15.80609847556906
 20
12.40979143338197
 30
0.0
 10
15.80417262015996
 20
12.41925082003689
 30
0.0
 10
15.80351295522314
 20
12.42823715023095
 30
0.0
 10
15.80408821790908
 20
12.43647655758558
 30
0.0
 10
15.80589677573593
 20
12.44373001909766
 30
0.0
 10
15.80885194228078
 20
12.44982447689835
 30
0.0
 10
15.81288524447965
 20
12.45462460821737
 30
0.0
 10
15.81788434744963
 20
12.45799580489794
 30
0.0
 10
15.82371136779918
 20
12.45985593986278
 30
0.0
 10
15.83020668469216
 20
12.46011250165606
 30
0.0
 10
15.83826782879663
 20
12.45872651215106
 30
0.0
 10
15.84431479074697
 20
12.45571752027765
 30
0.0
 10
15.84790826126555
 20
12.45392939531894
 30
0.0
  0
LINE
  5
143
330
1F
100
AcDbEntity
  8
0
  6
Continuous
 62
     7
370
    25
100
AcDbLine
 10
16.6009769832
 20
12.0702258765
 30
0.0
 11
15.8479082613
 21
12.5049631961
 31
0.0
  0
SPLINE
  5
144
330
1F
100
AcDbEntity
  8
0
  6
Continuous
 62
     7
370
    25
100
AcDbSpline
210
0.0
220
0.0
230
1.0
 70
     8
 71
     3
 72
    26
 73
    22
 74
     0
 42
0.00000001
 43
0.00000001
 40
0.0
 40
0.0
 40
0.0
 40
0.0
 40
0.0600185114031151
 40
0.1129431116728896
 40
0.1658677119426642
 40
0.218792312212438
 40
0.2717169124822124
 40
0.3246415127519856
 40
0.3775661130217594
 40
0.4304907132915329
 40
0.4834153135613062
 40
0.5363399138310799
 40
0.5892645141008535
 40
0.6421891143706266
 40
0.6951137146404004
 40
0.7480383149101745
 40
0.8009629151799481
 40
0.8538875154497216
 40
0.9068121157194954
 40
0.9534060578597479
 40
1.0
 40
1.0
 40
1.0
 40
1.0
 10
16.60097698322922
 20
12.17229347800193
 30
0.0
 10
16.60375578962259
 20
12.17051554435591
 30
0.0
 10
16.60898496031456
 20
12.16716982061779
 30
0.0
 10
16.6164044064106
 20
12.16041038920058
 30
0.0
 10
16.62308201746632
 20
12.15296678127365
 30
0.0
 10
16.62914967565489
 20
12.14462009498087
 30
0.0
 10
16.63444036399858
 20
12.13563674749712
 30
0.0
 10
16.6388080677549
 20
12.12625481083831
 30
0.0
 10
16.64213234393634
 20
12.11673565096197
 30
0.0
 10
16.64432149800724
 20
12.10734112252423
 30
0.0
 10
16.64531515184603
 20
12.09833052678254
 30
0.0
 10
16.64508589873057
 20
12.08995233529056
 30
0.0
 10
16.64364006165119
 20
12.08243765420259
 30
0.0
 10
16.64101751964573
 20
12.07599370452687
 30
0.0
 10
16.63729060255629
 20
12.07079837130176
 30
0.0
 10
16.63256211664315
 20
12.06699438435768
 30
0.0
 10
16.62696243209682
 20
12.06468876873011
 30
0.0
 10
16.62064617448868
 20
12.06393725730851
 30
0.0
 10
16.61406038271949
 20
12.0647559113132
 30
0.0
 10
16.607444090096
 20
12.06681345956852
 30
0.0
 10
16.60313268551815
 20
12.06908840420031
 30
0.0
 10
16.60097698322922
 20
12.07022587651621
 30
0.0
  0
LINE
  5
145
330
1F
100
AcDbEntity
  8
0
  6
Continuous
 62
     7
370
    25
100
AcDbLine
 10
15.8479082613
 20
12.6070307975
 30
0.0
 11
16.6009769832
 21
12.172293478
 31
0.0
  0
SPLINE
  5
146
330
1F
100
AcDbEntity
  8
0
  6
Continuous
 62
     7
370
    25
100
AcDbSpline
210
0.0
220
0.0
230
1.0
 70
     8
 71
     3
 72
    25
 73
    21
 74
     0
 42
0.00000001
 43
0.00000001
 40
0.0
 40
0.0
 40
0.0
 40
0.0
 40
0.0611618131782255
 40
0.1223236263564514
 40
0.1760236318511585
 40
0.2297236373458659
 40
0.2834236428405728
 40
0.3371236483352796
 40
0.3908236538299864
 40
0.4445236593246933
 40
0.4982236648194007
 40
0.5519236703141078
 40
0.6048587710067856
 40
0.657793871699463
 40
0.7107289723921403
 40
0.7636640730848177
 40
0.8165991737774944
 40
0.8695342744701716
 40
0.9224693751628489
 40
1.0
 40
1.0
 40
1.0
 40
1.0
 10
15.84790826126555
 20
12.5049631960618
 30
0.0
 10
15.84507789652019
 20
12.5067837047122
 30
0.0
 10
15.83941716702948
 20
12.510424722013
 30
0.0
 10
15.8315630669523
 20
12.51773180347486
 30
0.0
 10
15.82458703021977
 20
12.52583220112646
 30
0.0
 10
15.81856694324211
 20
12.53444280407577
 30
0.0
 10
15.81339725262007
 20
12.54366979772351
 30
0.0
 10
15.80918697434652
 20
12.55324166366315
 30
0.0
 10
15.80609847556906
 20
12.56289283561055
 30
0.0
 10
15.80417262015996
 20
12.57235222226547
 30
0.0
 10
15.80351295522314
 20
12.58133855245953
 30
0.0
 10
15.80408821790908
 20
12.58957795981415
 30
0.0
 10
15.80589677573593
 20
12.59683142132624
 30
0.0
 10
15.80885194228078
 20
12.60292587912692
 30
0.0
 10
15.81288524447965
 20
12.60772601044595
 30
0.0
 10
15.81788434744963
 20
12.61109720712652
 30
0.0
 10
15.82371136779918
 20
12.61295734209135
 30
0.0
 10
15.83020668469216
 20
12.61321390388464
 30
0.0
 10
15.83826782879663
 20
12.61182791437964
 30
0.0
 10
15.84431479074697
 20
12.60881892250623
 30
0.0
 10
15.84790826126555
 20
12.60703079754752
 30
0.0
  0
LINE
  5
147
330
1F
100
AcDbEntity
  8
0
  6
Continuous
 62
     7
370
    25
100
AcDbLine
 10
15.8479082613
 20
12.3008279931
 30
0.0
 11
16.6009769832
 21
11.8660906735
 31
0.0
  0
SPLINE
  5
148
330
1F
100
AcDbEntity
  8
0
  6
Continuous
 62
     7
370
    25
100
AcDbSpline
210
0.0
220
0.0
230
1.0
 70
     8
 71
     3
 72
    25
 73
    21
 74
     0
 42
0.00000001
 43
0.00000001
 40
0.0
 40
0.0
 40
0.0
 40
0.0
 40
0.0611618131782255
 40
0.1223236263564507
 40
0.1760236318511578
 40
0.2297236373458651
 40
0.2834236428405719
 40
0.3371236483352795
 40
0.3908236538299868
 40
0.4445236593246937
 40
0.4982236648194011
 40
0.5519236703141083
 40
0.6048587710067854
 40
0.6577938716994634
 40
0.7107289723921405
 40
0.7636640730848179
 40
0.8165991737774952
 40
0.8695342744701724
 40
0.9224693751628497
 40
1.0
 40
1.0
 40
1.0
 40
1.0
 10
15.84790826126555
 20
12.19876039160464
 30
0.0
 10
15.84507789652019
 20
12.20058090025504
 30
0.0
 10
15.83941716702948
 20
12.20422191755585
 30
0.0
 10
15.8315630669523
 20
12.21152899901771
 30
0.0
 10
15.82458703021977
 20
12.21962939666931
 30
0.0
 10
15.81856694324211
 20
12.22823999961861
 30
0.0
 10
15.81339725262007
 20
12.23746699326636
 30
0.0
 10
15.80918697434652
 20
12.24703885920599
 30
0.0
 10
15.80609847556906
 20
12.2566900311534
 30
0.0
 10
15.80417262015996
 20
12.26614941780831
 30
0.0
 10
15.80351295522314
 20
12.27513574800238
 30
0.0
 10
15.80408821790908
 20
12.283375155357
 30
0.0
 10
15.80589677573592
 20
12.29062861686908
 30
0.0
 10
15.80885194228078
 20
12.29672307466977
 30
0.0
 10
15.81288524447965
 20
12.30152320598879
 30
0.0
 10
15.81788434744963
 20
12.30489440266936
 30
0.0
 10
15.82371136779918
 20
12.3067545376342
 30
0.0
 10
15.83020668469216
 20
12.30701109942748
 30
0.0
 10
15.83826782879663
 20
12.30562510992248
 30
0.0
 10
15.84431479074697
 20
12.30261611804907
 30
0.0
 10
15.84790826126555
 20
12.30082799309036
 30
0.0
  0
LINE
  5
149
330
1F
100
AcDbEntity
  8
0
  6
Continuous
 62
     7
370
    25
100
AcDbLine
 10
16.6009769832
 20
11.7640230721
 30
0.0
 11
15.8479082613
 21
12.1987603916
 31
0.0
  0
SPLINE
  5
14A
330
1F
100
AcDbEntity
  8
0
  6
Continuous
 62
     7
370
    25
100
AcDbSpline
210
0.0
220
0.0
230
1.0
 70
     8
 71
     3
 72
    26
 73
    22
 74
     0
 42
0.00000001
 43
0.00000001
 40
0.0
 40
0.0
 40
0.0
 40
0.0
 40
0.0600185114031147
 40
0.1129431116728887
 40
0.1658677119426633
 40
0.2187923122124374
 40
0.2717169124822113
 40
0.3246415127519849
 40
0.3775661130217581
 40
0.4304907132915322
 40
0.4834153135613053
 40
0.5363399138310798
 40
0.5892645141008527
 40
0.6421891143706256
 40
0.695113714640399
 40
0.7480383149101713
 40
0.8009629151799439
 40
0.8538875154497169
 40
0.90681211571949
 40
0.9534060578597446
 40
1.0
 40
1.0
 40
1.0
 40
1.0
 10
16.60097698322922
 20
11.86609067354477
 30
0.0
 10
16.6037557896226
 20
11.86431273989876
 30
0.0
 10
16.60898496031456
 20
11.86096701616064
 30
0.0
 10
16.6164044064106
 20
11.85420758474342
 30
0.0
 10
16.62308201746632
 20
11.84676397681649
 30
0.0
 10
16.62914967565489
 20
11.83841729052371
 30
0.0
 10
16.63444036399858
 20
11.82943394303996
 30
0.0
 10
16.6388080677549
 20
11.82005200638115
 30
0.0
 10
16.64213234393634
 20
11.81053284650482
 30
0.0
 10
16.64432149800724
 20
11.80113831806707
 30
0.0
 10
16.64531515184603
 20
11.79212772232538
 30
0.0
 10
16.64508589873057
 20
11.7837495308334
 30
0.0
 10
16.64364006165119
 20
11.77623484974544
 30
0.0
 10
16.64101751964573
 20
11.76979090006971
 30
0.0
 10
16.63729060255629
 20
11.7645955668446
 30
0.0
 10
16.63256211664315
 20
11.76079157990053
 30
0.0
 10
16.62696243209682
 20
11.75848596427296
 30
0.0
 10
16.62064617448868
 20
11.75773445285135
 30
0.0
 10
16.61406038271949
 20
11.75855310685604
 30
0.0
 10
16.607444090096
 20
11.76061065511137
 30
0.0
 10
16.60313268551815
 20
11.76288559974316
 30
0.0
 10
16.60097698322922
 20
11.76402307205905
 30
0.0
  0
LINE
  5
14B
330
1F
100
AcDbEntity
  8
0
  6
Continuous
 62
     7
370
    25
100
AcDbLine
 10
16.6009769832
 20
11.6109216698
 30
0.0
 11
15.8479082613
 21
12.0456589894
 31
0.0
  0
SPLINE
  5
14C
330
1F
100
AcDbEntity
  8
0
  6
Continuous
 62
     7
370
    25
100
AcDbSpline
210
0.0
220
0.0
230
1.0
 70
     8
 71
     3
 72
    26
 73
    22
 74
     0
 42
0.00000001
 43
0.00000001
 40
0.0
 40
0.0
 40
0.0
 40
0.0
 40
0.0600185114031139
 40
0.1129431116728888
 40
0.1658677119426634
 40
0.2187923122124372
 40
0.271716912482211
 40
0.3246415127519851
 40
0.377566113021759
 40
0.4304907132915324
 40
0.4834153135613055
 40
0.5363399138310792
 40
0.5892645141008526
 40
0.6421891143706256
 40
0.6951137146403997
 40
0.7480383149101737
 40
0.8009629151799466
 40
0.8538875154497199
 40
0.906812115719493
 40
0.9534060578597462
 40
1.0
 40
1.0
 40
1.0
 40
1.0
 10
16.60097698322922
 20
11.71298927131619
 30
0.0
 10
16.6037557896226
 20
11.71121133767018
 30
0.0
 10
16.60898496031456
 20
11.70786561393206
 30
0.0
 10
16.6164044064106
 20
11.70110618251484
 30
0.0
 10
16.62308201746632
 20
11.69366257458791
 30
0.0
 10
16.62914967565489
 20
11.68531588829513
 30
0.0
 10
16.63444036399858
 20
11.67633254081139
 30
0.0
 10
16.6388080677549
 20
11.66695060415258
 30
0.0
 10
16.64213234393634
 20
11.65743144427624
 30
0.0
 10
16.64432149800724
 20
11.6480369158385
 30
0.0
 10
16.64531515184603
 20
11.63902632009681
 30
0.0
 10
16.64508589873057
 20
11.63064812860483
 30
0.0
 10
16.64364006165119
 20
11.62313344751686
 30
0.0
 10
16.64101751964573
 20
11.61668949784113
 30
0.0
 10
16.63729060255629
 20
11.61149416461603
 30
0.0
 10
16.63256211664315
 20
11.60769017767195
 30
0.0
 10
16.62696243209682
 20
11.60538456204438
 30
0.0
 10
16.62064617448868
 20
11.60463305062277
 30
0.0
 10
16.61406038271949
 20
11.60545170462747
 30
0.0
 10
16.607444090096
 20
11.60750925288279
 30
0.0
 10
16.60313268551815
 20
11.60978419751458
 30
0.0
 10
16.60097698322922
 20
11.61092166983047
 30
0.0
  0
LINE
  5
14D
330
1F
100
AcDbEntity
  8
0
  6
Continuous
 62
     7
370
    25
100
AcDbLine
 10
15.8479082613
 20
12.1477265909
 30
0.0
 11
16.6009769832
 21
11.7129892713
 31
0.0
  0
SPLINE
  5
14E
330
1F
100
AcDbEntity
  8
0
  6
Continuous
 62
     7
370
    25
100
AcDbSpline
210
0.0
220
0.0
230
1.0
 70
     8
 71
     3
 72
    25
 73
    21
 74
     0
 42
0.00000001
 43
0.00000001
 40
0.0
 40
0.0
 40
0.0
 40
0.0
 40
0.0611618131782253
 40
0.1223236263564514
 40
0.1760236318511579
 40
0.2297236373458655
 40
0.2834236428405735
 40
0.3371236483352803
 40
0.390823653829987
 40
0.4445236593246944
 40
0.4982236648194017
 40
0.5519236703141088
 40
0.6048587710067868
 40
0.6577938716994625
 40
0.7107289723921387
 40
0.7636640730848153
 40
0.8165991737774918
 40
0.8695342744701674
 40
0.9224693751628431
 40
1.0
 40
1.0
 40
1.0
 40
1.0
 10
15.84790826126555
 20
12.04565898937607
 30
0.0
 10
15.84507789652019
 20
12.04747949802647
 30
0.0
 10
15.83941716702948
 20
12.05112051532727
 30
0.0
 10
15.8315630669523
 20
12.05842759678913
 30
0.0
 10
15.82458703021977
 20
12.06652799444073
 30
0.0
 10
15.81856694324211
 20
12.07513859739004
 30
0.0
 10
15.81339725262007
 20
12.08436559103778
 30
0.0
 10
15.80918697434652
 20
12.09393745697742
 30
0.0
 10
15.80609847556906
 20
12.10358862892482
 30
0.0
 10
15.80417262015996
 20
12.11304801557974
 30
0.0
 10
15.80351295522314
 20
12.1220343457738
 30
0.0
 10
15.80408821790908
 20
12.13027375312842
 30
0.0
 10
15.80589677573592
 20
12.1375272146405
 30
0.0
 10
15.80885194228078
 20
12.14362167244119
 30
0.0
 10
15.81288524447965
 20
12.14842180376021
 30
0.0
 10
15.81788434744963
 20
12.15179300044078
 30
0.0
 10
15.82371136779918
 20
12.15365313540562
 30
0.0
 10
15.83020668469216
 20
12.15390969719891
 30
0.0
 10
15.83826782879663
 20
12.1525237076939
 30
0.0
 10
15.84431479074697
 20
12.14951471582049
 30
0.0
 10
15.84790826126555
 20
12.14772659086178
 30
0.0
  0
LINE
  5
14F
330
1F
100
AcDbEntity
  8
0
  6
Continuous
 62
     7
370
    25
100
AcDbLine
 10
17.6421917185
 20
14.1056236057
 30
0.0
 11
17.3734911417
 21
13.9505060644
 31
0.0
  0
LINE
  5
150
330
1F
100
AcDbEntity
  8
0
  6
Continuous
 62
     7
370
    25
100
AcDbLine
 10
17.3522779382
 20
13.9872484104
 30
0.0
 11
17.6209785151
 21
14.1423659517
 31
0.0
  0
ARC
  5
151
330
1F
100
AcDbEntity
  8
0
  6
Continuous
 62
     7
370
    25
100
AcDbCircle
 10
17.5961352355
 20
14.1035277801
 30
0.0
 40
0.0461041442271901
100
AcDbArc
 50
2.6054784857
 51
57.39452166
  0
LINE
  5
152
330
1F
100
AcDbEntity
  8
0
  6
Continuous
 62
     7
370
    25
100
AcDbLine
 10
17.6421917185
 20
14.1056236057
 30
0.0
 11
17.6421917185
 21
10.0719119949
 31
0.0
  0
LINE
  5
153
330
1F
100
AcDbEntity
  8
0
  6
Continuous
 62
     7
370
    25
100
AcDbLine
 10
17.3734911417
 20
9.9167944537
 30
0.0
 11
17.6421917185
 21
10.0719119949
 31
0.0
  0
LINE
  5
154
330
1F
100
AcDbEntity
  8
0
  6
Continuous
 62
     7
370
    25
100
AcDbLine
 10
15.3653078831
 20
15.4445368901
 30
0.0
 11
15.0966073063
 21
15.2894193488
 31
0.0
  0
LINE
  5
155
330
1F
100
AcDbEntity
  8
0
  6
Continuous
 62
     7
370
    25
100
AcDbLine
 10
15.3653078831
 20
15.4445368901
 30
0.0
 11
17.6209785151
 21
14.1423659517
 31
0.0
  0
LWPOLYLINE
  5
156
330
1F
100
AcDbEntity
  8
0
  6
Continuous
 62
     7
370
    25
100
AcDbPolyline
 90
       31
 70
   128
 43
0.0
 10
16.2638498408
 20
14.0879190431
 10
16.2606791676
 20
14.0864960593
 10
16.2550080426
 20
14.0828286014
 10
16.250073103
 20
14.0780228175
 10
16.2459410854
 20
14.0721436977
 10
16.2426678683
 20
14.0652707468
 10
16.2402977163
 20
14.0574969099
 10
16.2388626817
 20
14.0489273146
 10
16.2383821708
 20
14.0396778501
 10
16.2388626817
 20
14.0298735995
 10
16.2402977163
 20
14.0196471485
 10
16.2426678683
 20
14.0091367923
 10
16.2459410854
 20
13.9984846654
 10
16.250073103
 20
13.9878348196
 10
16.2550080426
 20
13.9773312758
 10
16.2606791676
 20
13.9671160763
 10
16.2670097859
 20
13.9573273642
 10
16.2739142865
 20
13.9480975151
 10
16.2812992981
 20
13.9395513469
 10
16.2890649509
 20
13.9318044317
 10
16.297106228
 20
13.9249615334
 10
16.3053143847
 20
13.9191151904
 10
16.3135784198
 20
13.9143444644
 10
16.3217865766
 20
13.9107138714
 10
16.3298278536
 20
13.9082725089
 10
16.3375935065
 20
13.9070533921
 10
16.344978518
 20
13.9070730075
 10
16.3518830187
 20
13.9083310898
 10
16.3582136369
 20
13.9108106257
 10
16.3638847619
 20
13.9144780836
 10
16.3639465919
 20
13.914527597
  0
LWPOLYLINE
  5
157
330
1F
100
AcDbEntity
  8
0
  6
Continuous
 62
     7
370
    25
100
AcDbPolyline
 90
        3
 70
   128
 43
0.0
 10
16.2771220774
 20
14.0620419222
 10
16.2776025884
 20
14.0712913867
 10
16.2779763707
 20
14.0742348384
  0
ARC
  5
158
330
1F
100
AcDbEntity
  8
0
  6
Continuous
 62
     7
370
    25
100
AcDbCircle
 10
16.426680926
 20
14.0671517874
 30
0.0
 40
0.1496461155439644
100
AcDbArc
 50
181.9568208121
 51
243.1793761898
  0
ARC
  5
159
330
1F
100
AcDbEntity
  8
0
  6
Continuous
 62
     7
370
    25
100
AcDbCircle
 10
15.3565202815
 20
15.4322704502
 30
0.0
 40
0.0150893170770696
100
AcDbArc
 50
54.3824225248
 51
114.3071190461
  0
ARC
  5
15A
330
1F
100
AcDbEntity
  8
0
  6
Continuous
 62
     7
370
    25
100
AcDbCircle
 10
17.6279211518
 20
10.0700950741
 30
0.0
 40
0.0143857663970682
100
AcDbArc
 50
304.0563508429
 51
7.2558295505
  0
LWPOLYLINE
  5
15B
330
1F
100
AcDbEntity
  8
0
  6
Continuous
 62
     7
370
    25
100
AcDbPolyline
 90
       31
 70
   128
 43
0.0
 10
16.2638498408
 20
11.3827193333
 10
16.2606791676
 20
11.3812963495
 10
16.2550080426
 20
11.3776288916
 10
16.250073103
 20
11.3728231078
 10
16.2459410854
 20
11.3669439879
 10
16.2426678683
 20
11.360071037
 10
16.2402977163
 20
11.3522972001
 10
16.2388626817
 20
11.3437276048
 10
16.2383821708
 20
11.3344781403
 10
16.2388626817
 20
11.3246738897
 10
16.2402977163
 20
11.3144474387
 10
16.2426678683
 20
11.3039370825
 10
16.2459410854
 20
11.2932849556
 10
16.250073103
 20
11.2826351098
 10
16.2550080426
 20
11.272131566
 10
16.2606791676
 20
11.2619163665
 10
16.2670097859
 20
11.2521276544
 10
16.2739142865
 20
11.2428978053
 10
16.2812992981
 20
11.2343516371
 10
16.2890649509
 20
11.2266047219
 10
16.297106228
 20
11.2197618236
 10
16.3053143847
 20
11.2139154806
 10
16.3135784198
 20
11.2091447546
 10
16.3217865766
 20
11.2055141616
 10
16.3298278536
 20
11.2030727991
 10
16.3375935065
 20
11.2018536823
 10
16.344978518
 20
11.2018732977
 10
16.3518830187
 20
11.20313138
 10
16.3582136369
 20
11.2056109159
 10
16.3638847619
 20
11.2092783738
 10
16.3639465919
 20
11.2093278873
  0
LWPOLYLINE
  5
15C
330
1F
100
AcDbEntity
  8
0
  6
Continuous
 62
     7
370
    25
100
AcDbPolyline
 90
        3
 70
   128
 43
0.0
 10
16.2771220774
 20
11.3568422124
 10
16.2776025884
 20
11.3660916769
 10
16.2779763707
 20
11.3690351286
  0
ARC
  5
15D
330
1F
100
AcDbEntity
  8
0
  6
Continuous
 62
     7
370
    25
100
AcDbCircle
 10
16.426680926
 20
11.3619520776
 30
0.0
 40
0.1496461155439486
100
AcDbArc
 50
181.9568208121
 51
243.1793761899
  0
LWPOLYLINE
  5
15E
330
1F
100
AcDbEntity
  8
0
  6
Continuous
 62
     7
370
    25
100
AcDbPolyline
 90
       24
 70
   128
 43
0.0
 10
20.9489719507
 20
15.2966428811
 10
20.9533695842
 20
15.2999188199
 10
20.9571373261
 20
15.3043715041
 10
20.9600746267
 20
15.309841877
 10
20.9621249729
 20
15.3162246893
 10
20.9632489163
 20
15.3233971367
 10
20.9634248323
 20
15.3312212221
 10
20.9626493364
 20
15.3395464112
 10
20.960937349
 20
15.3482125287
 10
20.9583218084
 20
15.3570528395
 10
20.9548530374
 20
15.3658972572
 10
20.9505977746
 20
15.3745756166
 10
20.9456378907
 20
15.3829209471
 10
20.9400688132
 20
15.3907726857
 10
20.9339976903
 20
15.3979797661
 10
20.9275413297
 20
15.404403525
 10
20.9208239508
 20
15.4099203702
 10
20.9139747951
 20
15.4144241583
 10
20.9071256394
 20
15.4178282371
 10
20.9004082605
 20
15.4200671125
 10
20.8939518998
 20
15.4210977089
 10
20.887880777
 20
15.4209001978
 10
20.8823116994
 20
15.4194783792
 10
20.8789776394
 20
15.4178897219
  0
LINE
  5
15F
330
1F
100
AcDbEntity
  8
0
  6
Continuous
 62
     7
370
    25
100
AcDbLine
 10
19.4918751812
 20
14.4549680358
 30
0.0
 11
20.9316524646
 21
15.2861337697
 31
0.0
  0
LWPOLYLINE
  5
160
330
1F
100
AcDbEntity
  8
0
  6
Continuous
 62
     7
370
    25
100
AcDbPolyline
 90
       16
 70
   128
 43
0.0
 10
20.9489719507
 20
15.1823271675
 10
20.9505977746
 20
15.1833572806
 10
20.9548530374
 20
15.1871226181
 10
20.9583218084
 20
15.1919620781
 10
20.960937349
 20
15.1977825501
 10
20.9626493364
 20
15.2044720489
 10
20.9634248323
 20
15.2119018695
 10
20.9632489163
 20
15.2199290633
 10
20.9621249729
 20
15.228399188
 10
20.9600746267
 20
15.2371492796
 10
20.9571373261
 20
15.2460109877
 10
20.9533695842
 20
15.254813814
 10
20.948843892
 20
15.2633883935
 10
20.9436473232
 20
15.2715697524
 10
20.937879859
 20
15.2792004826
 10
20.9316524646
 20
15.2861337697
  0
LINE
  5
161
330
1F
100
AcDbEntity
  8
0
  6
Continuous
 62
     7
370
    25
100
AcDbLine
 10
20.9316524646
 20
15.2861337697
 30
0.0
 11
20.9316524646
 21
15.2866445546
 31
0.0
  0
ARC
  5
162
330
1F
100
AcDbEntity
  8
0
  6
Continuous
 62
     7
370
    25
100
AcDbCircle
 10
17.9294361109
 20
12.7299008561
 30
0.0
 40
0.372685916790527
100
AcDbArc
 50
299.3812112603
 51
309.3762028062
  0
LWPOLYLINE
  5
163
330
1F
100
AcDbEntity
  8
0
  6
Continuous
 62
     7
370
    25
100
AcDbPolyline
 90
       93
 70
   128
 43
0.0
 10
19.4734743552
 20
13.1909250657
 10
19.4778995965
 20
13.1935207668
 10
19.4966716135
 20
13.2054858385
 10
19.5147470022
 20
13.2185916744
 10
19.5321039831
 20
13.232822483
 10
19.5487216425
 20
13.2481611173
 10
19.5645799574
 20
13.2645890954
 10
19.5796598196
 20
13.2820866228
 10
19.5939430592
 20
13.3006326164
 10
19.607412466
 20
13.3202047298
 10
19.6200518104
 20
13.34077938
 10
19.6318458629
 20
13.3623317762
 10
19.6427804127
 20
13.3848359494
 10
19.6528422844
 20
13.408264784
 10
19.6620193544
 20
13.4325900498
 10
19.6703005648
 20
13.457782437
 10
19.6776759376
 20
13.4838115906
 10
19.6841365859
 20
13.5106461476
 10
19.6896747253
 20
13.5382537743
 10
19.6942836826
 20
13.5666012057
 10
19.6979579044
 20
13.5956542855
 10
19.7006929637
 20
13.6253780068
 10
19.7024855647
 20
13.655736555
 10
19.7033335477
 20
13.6866933503
 10
19.7032358908
 20
13.7182110923
 10
19.7021927118
 20
13.7502518044
 10
19.7002052675
 20
13.7827768801
 10
19.6972759527
 20
13.8157471293
 10
19.6934082969
 20
13.8491228254
 10
19.6886069605
 20
13.8828637532
 10
19.6828777286
 20
13.9169292575
 10
19.6762275046
 20
13.9512782921
 10
19.6686643013
 20
13.9858694691
 10
19.660197232
 20
14.0206611088
 10
19.6508364987
 20
14.05561129
 10
19.6405933804
 20
14.0906779004
 10
19.6294802193
 20
14.1258186874
 10
19.6175104058
 20
14.1609913093
 10
19.6046983627
 20
14.1961533857
 10
19.5910595274
 20
14.231262549
 10
19.5766103337
 20
14.2662764955
 10
19.5613681918
 20
14.301153036
 10
19.5453514673
 20
14.3358501471
 10
19.528579459
 20
14.3703260215
 10
19.5110723759
 20
14.4045391183
 10
19.4928513127
 20
14.4384482135
 10
19.4739382243
 20
14.4720124492
 10
19.4543558996
 20
14.5051913832
 10
19.4341279337
 20
14.5379450374
 10
19.4132786998
 20
14.5702339463
 10
19.3918333195
 20
14.6020192042
 10
19.3698176329
 20
14.6332625123
 10
19.3472581671
 20
14.663926225
 10
19.3241821046
 20
14.6939733947
 10
19.3006172502
 20
14.7233678171
 10
19.2765919977
 20
14.7520740741
 10
19.2521352956
 20
14.7800575769
 10
19.2272766125
 20
14.8072846076
 10
19.2020459011
 20
14.8337223597
 10
19.1764735624
 20
14.8593389778
 10
19.1505904091
 20
14.8841035959
 10
19.1244276283
 20
14.9079863745
 10
19.0980167443
 20
14.9309585367
 10
19.07138958
 20
14.9529924029
 10
19.0445782191
 20
14.974061424
 10
19.0176149672
 20
14.9941402135
 10
18.990532313
 20
15.0132045779
 10
18.9633628888
 20
15.0312315463
 10
18.9361394319
 20
15.0481993974
 10
18.9088947442
 20
15.0640876864
 10
18.8816616536
 20
15.0788772692
 10
18.8544729737
 20
15.0925503253
 10
18.8273614649
 20
15.1050903799
 10
18.8003597944
 20
15.1164823232
 10
18.773500497
 20
15.1267124288
 10
18.7468159362
 20
15.1357683701
 10
18.7203382648
 20
15.1436392355
 10
18.6940993863
 20
15.1503155412
 10
18.6681309165
 20
15.1557892428
 10
18.6424641454
 20
15.1600537449
 10
18.6171299994
 20
15.163103909
 10
18.5921590043
 20
15.1649360601
 10
18.567581248
 20
15.1655479904
 10
18.543426345
 20
15.1649389627
 10
18.5197234
 20
15.1631097107
 10
18.4965009732
 20
15.1600624387
 10
18.4737870458
 20
15.1558008183
 10
18.4516089862
 20
15.1503299844
 10
18.4299935175
 20
15.143656529
 10
18.4089666844
 20
15.135788493
 10
18.3885538228
 20
15.1267353569
 10
18.3687795285
 20
15.1165080289
 10
18.363564562
 20
15.1135535402
  0
ARC
  5
164
330
1F
100
AcDbEntity
  8
0
  6
Continuous
 62
     7
370
    25
100
AcDbCircle
 10
18.0469050539
 20
13.6490670175
 30
0.0
 40
1.658179984879725
100
AcDbArc
 50
2.5771032366
 51
57.4175202307
  0
LINE
  5
165
330
1F
100
AcDbEntity
  8
0
  6
Continuous
 62
     7
370
    25
100
AcDbLine
 10
16.6408644169
 20
12.8853524759
 30
0.0
 11
16.6009769832
 21
12.8357328877
 31
0.0
  0
LINE
  5
166
330
1F
100
AcDbEntity
  8
0
  6
Continuous
 62
     7
370
    25
100
AcDbLine
 10
16.6408644169
 20
12.7322510737
 30
0.0
 11
16.6009769832
 21
12.6826314854
 31
0.0
  0
LINE
  5
167
330
1F
100
AcDbEntity
  8
0
  6
Continuous
 62
     7
370
    25
100
AcDbLine
 10
15.9039500023
 20
13.3401856002
 30
0.0
 11
15.8479082613
 21
13.2704702072
 31
0.0
  0
LINE
  5
168
330
1F
100
AcDbEntity
  8
0
  6
Continuous
 62
     7
370
    25
100
AcDbLine
 10
16.6408644169
 20
12.5791496714
 30
0.0
 11
16.6009769832
 21
12.5295300832
 31
0.0
  0
LINE
  5
169
330
1F
100
AcDbEntity
  8
0
  6
Continuous
 62
     7
370
    25
100
AcDbLine
 10
15.9039500023
 20
13.187084198
 30
0.0
 11
15.8479082613
 21
13.117368805
 31
0.0
  0
LINE
  5
16A
330
1F
100
AcDbEntity
  8
0
  6
Continuous
 62
     7
370
    25
100
AcDbLine
 10
16.6408644169
 20
12.4260482692
 30
0.0
 11
16.6009769832
 21
12.376428681
 31
0.0
  0
LINE
  5
16B
330
1F
100
AcDbEntity
  8
0
  6
Continuous
 62
     7
370
    25
100
AcDbLine
 10
15.9039500023
 20
13.0339827958
 30
0.0
 11
15.8479082613
 21
12.9642674027
 31
0.0
  0
LINE
  5
16C
330
1F
100
AcDbEntity
  8
0
  6
Continuous
 62
     7
370
    25
100
AcDbLine
 10
16.6408644169
 20
12.272946867
 30
0.0
 11
16.6009769832
 21
12.2233272787
 31
0.0
  0
LINE
  5
16D
330
1F
100
AcDbEntity
  8
0
  6
Continuous
 62
     7
370
    25
100
AcDbLine
 10
15.9039500023
 20
12.8808813936
 30
0.0
 11
15.8479082613
 21
12.8111660005
 31
0.0
  0
LINE
  5
16E
330
1F
100
AcDbEntity
  8
0
  6
Continuous
 62
     7
370
    25
100
AcDbLine
 10
16.6408644169
 20
12.1198454647
 30
0.0
 11
16.6009769832
 21
12.0702258765
 31
0.0
  0
LINE
  5
16F
330
1F
100
AcDbEntity
  8
0
  6
Continuous
 62
     7
370
    25
100
AcDbLine
 10
15.9039500023
 20
12.7277799913
 30
0.0
 11
15.8479082613
 21
12.6580645983
 31
0.0
  0
LINE
  5
170
330
1F
100
AcDbEntity
  8
0
  6
Continuous
 62
     7
370
    25
100
AcDbLine
 10
16.6408644169
 20
11.9667440625
 30
0.0
 11
16.6009769832
 21
11.9171244743
 31
0.0
  0
LINE
  5
171
330
1F
100
AcDbEntity
  8
0
  6
Continuous
 62
     7
370
    25
100
AcDbLine
 10
15.9039500023
 20
12.5746785891
 30
0.0
 11
15.8479082613
 21
12.5049631961
 31
0.0
  0
LINE
  5
172
330
1F
100
AcDbEntity
  8
0
  6
Continuous
 62
     7
370
    25
100
AcDbLine
 10
16.6408644169
 20
11.8136426603
 30
0.0
 11
16.6009769832
 21
11.7640230721
 31
0.0
  0
LINE
  5
173
330
1F
100
AcDbEntity
  8
0
  6
Continuous
 62
     7
370
    25
100
AcDbLine
 10
15.9039500023
 20
12.4215771869
 30
0.0
 11
15.8479082613
 21
12.3518617938
 31
0.0
  0
LINE
  5
174
330
1F
100
AcDbEntity
  8
0
  6
Continuous
 62
     7
370
    25
100
AcDbLine
 10
16.6408644169
 20
11.6605412581
 30
0.0
 11
16.6009769832
 21
11.6109216698
 31
0.0
  0
LINE
  5
175
330
1F
100
AcDbEntity
  8
0
  6
Continuous
 62
     7
370
    25
100
AcDbLine
 10
15.9039500023
 20
12.2684757846
 30
0.0
 11
15.8479082613
 21
12.1987603916
 31
0.0
  0
LINE
  5
176
330
1F
100
AcDbEntity
  8
0
  6
Continuous
 62
     7
370
    25
100
AcDbLine
 10
15.9039500023
 20
12.1153743824
 30
0.0
 11
15.8479082613
 21
12.0456589894
 31
0.0
  0
LWPOLYLINE
  5
177
330
1F
100
AcDbEntity
  8
0
  6
Continuous
 62
     7
370
    25
100
AcDbPolyline
 90
       80
 70
   128
 43
0.0
 10
17.2062520672
 20
14.3817824339
 10
17.222174089
 20
14.381642846
 10
17.2469521969
 20
14.3804206212
 10
17.2721085567
 20
14.3779790959
 10
17.2976128568
 20
14.3743212118
 10
17.3234343667
 20
14.3694513764
 10
17.3495419734
 20
14.3633754576
 10
17.3759042192
 20
14.3561007763
 10
17.4024893397
 20
14.3476360979
 10
17.429265302
 20
14.3379916218
 10
17.456199843
 20
14.3271789687
 10
17.4832605087
 20
14.3152111671
 10
17.5104146932
 20
14.3021026372
 10
17.5376296777
 20
14.2878691738
 10
17.5648726704
 20
14.2725279271
 10
17.5921108455
 20
14.2560973822
 10
17.6193113832
 20
14.2385973364
 10
17.6464415089
 20
14.2200488762
 10
17.6734685329
 20
14.2004743508
 10
17.7003598899
 20
14.179897346
 10
17.7270831777
 20
14.1583426557
 10
17.7536061969
 20
14.1358362514
 10
17.7798969894
 20
14.1124052516
 10
17.8059238768
 20
14.0880778889
 10
17.8316554987
 20
14.0628834759
 10
17.8570608505
 20
14.0368523698
 10
17.8821093207
 20
14.0100159361
 10
17.906770728
 20
13.9824065107
 10
17.9310153571
 20
13.9540573606
 10
17.9548139953
 20
13.9250026445
 10
17.9781379669
 20
13.8952773711
 10
18.0009591686
 20
13.8649173569
 10
18.0232501024
 20
13.8339591833
 10
18.0449839095
 20
13.8024401527
 10
18.0661344025
 20
13.770398243
 10
18.0866760965
 20
13.7378720621
 10
18.1065842405
 20
13.7049008016
 10
18.1258348467
 20
13.6715241894
 10
18.1444047196
 20
13.6377824415
 10
18.1622714839
 20
13.6037162142
 10
18.1794136117
 20
13.5693665547
 10
18.1958104479
 20
13.5347748515
 10
18.2114422357
 20
13.4999827851
 10
18.22629014
 20
13.4650322771
 10
18.2403362702
 20
13.4299654402
 10
18.2535637018
 20
13.3948245272
 10
18.2659564968
 20
13.3596518801
 10
18.2774997228
 20
13.3244898793
 10
18.2881794711
 20
13.2893808922
 10
18.2979828736
 20
13.2543672225
 10
18.3068981178
 20
13.2194910588
 10
18.3149144616
 20
13.1847944242
 10
18.3220222458
 20
13.1503191255
 10
18.3282129063
 20
13.1161067027
 10
18.3334789837
 20
13.0821983791
 10
18.3378141327
 20
13.0486350117
 10
18.34121313
 20
13.0154570416
 10
18.3436718799
 20
12.9827044457
 10
18.3451874198
 20
12.9504166884
 10
18.3457579237
 20
12.9186326738
 10
18.3453827042
 20
12.8873906993
 10
18.3440622132
 20
12.856728409
 10
18.341798042
 20
12.8266827486
 10
18.3385929187
 20
12.7972899207
 10
18.3344507052
 20
12.7685853414
 10
18.3293763926
 20
12.7406035975
 10
18.3233760949
 20
12.7133784049
 10
18.3164570422
 20
12.6869425677
 10
18.3086275712
 20
12.661327939
 10
18.299897116
 20
12.6365653826
 10
18.290276196
 20
12.6126847353
 10
18.2797764037
 20
12.5897147716
 10
18.2684103905
 20
12.5676831683
 10
18.2561918516
 20
12.5466164719
 10
18.2431355094
 20
12.526540066
 10
18.2292570958
 20
12.5074781413
 10
18.2145733331
 20
12.4894536658
 10
18.1991019141
 20
12.4724883577
 10
18.1828614807
 20
12.4566026587
 10
18.1658716014
 20
12.44181571
  0
ARC
  5
178
330
1F
100
AcDbEntity
  8
0
  6
Continuous
 62
     7
370
    25
100
AcDbCircle
 10
13.6218797546
 20
2.7718238754
 30
0.0
 40
0.0299999999999994
100
AcDbArc
 50
180.0
 51
270.0
  0
LINE
  5
179
330
1F
100
AcDbEntity
  8
0
  6
Continuous
 62
     7
370
    25
100
AcDbLine
 10
13.5918797546
 20
2.7718238754
 30
0.0
 11
13.5918797546
 21
7.7118238754
 31
0.0
  0
ARC
  5
17A
330
1F
100
AcDbEntity
  8
0
  6
Continuous
 62
     7
370
    25
100
AcDbCircle
 10
16.8118797546
 20
7.7118238754
 30
0.0
 40
0.0300000000000011
100
AcDbArc
 50
0.0
 51
90.0
  0
LINE
  5
17B
330
1F
100
AcDbEntity
  8
0
  6
Continuous
 62
     7
370
    25
100
AcDbLine
 10
16.8418797546
 20
7.7118238754
 30
0.0
 11
16.8418797546
 21
2.7718238754
 31
0.0
  0
ARC
  5
17C
330
1F
100
AcDbEntity
  8
0
  6
Continuous
 62
     7
370
    25
100
AcDbCircle
 10
16.8118797546
 20
2.7718238754
 30
0.0
 40
0.0300000000000011
100
AcDbArc
 50
270.0
 51
360.0
  0
LINE
  5
17D
330
1F
100
AcDbEntity
  8
0
  6
Continuous
 62
     7
370
    25
100
AcDbLine
 10
16.8118797546
 20
2.7418238754
 30
0.0
 11
13.6218797546
 21
2.7418238754
 31
0.0
  0
CIRCLE
  5
17E
330
1F
100
AcDbEntity
  8
0
  6
Continuous
 62
     7
370
    25
100
AcDbCircle
 10
15.2168797546
 20
3.5853238754
 30
0.0
 40
0.2050000000000001
  0
CIRCLE
  5
17F
330
1F
100
AcDbEntity
  8
0
  6
Continuous
 62
     7
370
    25
100
AcDbCircle
 10
15.2168797546
 20
6.8983238754
 30
0.0
 40
0.2050000000000001
  0
LINE
  5
180
330
1F
100
AcDbEntity
  8
0
  6
Continuous
 62
     7
370
    25
100
AcDbLine
 10
14.6843797546
 20
5.9254238754
 30
0.0
 11
15.7493797546
 21
5.9254238754
 31
0.0
  0
SPLINE
  5
181
330
1F
100
AcDbEntity
  8
0
  6
Continuous
 62
     7
370
    25
100
AcDbSpline
210
0.0
220
0.0
230
1.0
 70
     8
 71
     3
 72
    26
 73
    22
 74
     0
 42
0.00000001
 43
0.00000001
 40
0.0
 40
0.0
 40
0.0
 40
0.0
 40
0.0611530549702559
 40
0.1223061099405123
 40
0.1759984257381407
 40
0.2296907415357697
 40
0.2833830573333985
 40
0.3370753731310275
 40
0.3907676889286572
 40
0.4444600047262872
 40
0.4981523205239157
 40
0.5518446363215442
 40
0.6047721568494646
 40
0.6576996773773839
 40
0.7106271979053035
 40
0.7635547184332238
 40
0.8164822389611434
 40
0.8694097594890625
 40
0.9223372800169819
 40
0.9611686400084822
 40
1.0
 40
1.0
 40
1.0
 40
1.0
 10
14.68437975461796
 20
5.800423875433116
 30
0.0
 10
14.68037701440862
 20
5.800652368436095
 30
0.0
 10
14.67237153398993
 20
5.801109354442055
 30
0.0
 10
14.66126415914053
 20
5.804505395347531
 30
0.0
 10
14.65139855338183
 20
5.809493777197417
 30
0.0
 10
14.64288486473115
 20
5.81578284522787
 30
0.0
 10
14.63557381814102
 20
5.823428016993814
 30
0.0
 10
14.62961958550208
 20
5.832173843267384
 30
0.0
 10
14.62525178865527
 20
5.841809882547648
 30
0.0
 10
14.62252821777305
 20
5.852033027160567
 30
0.0
 10
14.62159531083513
 20
5.862572011351834
 30
0.0
 10
14.62240885452452
 20
5.873069356422196
 30
0.0
 10
14.62496654375103
 20
5.883231100035996
 30
0.0
 10
14.62914577209965
 20
5.892784318741306
 30
0.0
 10
14.63484975359433
 20
5.901513745198517
 30
0.0
 10
14.64191943777685
 20
5.909179326741396
 30
0.0
 10
14.65016051830885
 20
5.915567256365533
 30
0.0
 10
14.65934468128635
 20
5.920510148942988
 30
0.0
 10
14.66834511225364
 20
5.923543332317356
 30
0.0
 10
14.67675971994098
 20
5.925152095368054
 30
0.0
 10
14.68183974305897
 20
5.925333282078095
 30
0.0
 10
14.68437975461796
 20
5.925423875433116
 30
0.0
  0
LINE
  5
182
330
1F
100
AcDbEntity
  8
0
  6
Continuous
 62
     7
370
    25
100
AcDbLine
 10
15.7493797546
 20
5.8004238754
 30
0.0
 11
14.6843797546
 21
5.8004238754
 31
0.0
  0
SPLINE
  5
183
330
1F
100
AcDbEntity
  8
0
  6
Continuous
 62
     7
370
    25
100
AcDbSpline
210
0.0
220
0.0
230
1.0
 70
     8
 71
     3
 72
    26
 73
    22
 74
     0
 42
0.00000001
 43
0.00000001
 40
0.0
 40
0.0
 40
0.0
 40
0.0
 40
0.0600185114031147
 40
0.112943111672889
 40
0.1658677119426627
 40
0.2187923122124366
 40
0.2717169124822092
 40
0.3246415127519826
 40
0.3775661130217561
 40
0.4304907132915302
 40
0.4834153135613027
 40
0.5363399138310757
 40
0.589264514100849
 40
0.6421891143706224
 40
0.6951137146403948
 40
0.7480383149101674
 40
0.8009629151799408
 40
0.8538875154497129
 40
0.9068121157194856
 40
0.9534060578597426
 40
1.0
 40
1.0
 40
1.0
 40
1.0
 10
15.74937975461797
 20
5.925423875433115
 30
0.0
 10
15.75330958030669
 20
5.925211071788375
 30
0.0
 10
15.76070474441922
 20
5.924810616907865
 30
0.0
 10
15.77119742571354
 20
5.921777974424544
 30
0.0
 10
15.7806409938328
 20
5.91738296432078
 30
0.0
 10
15.78922195833491
 20
5.911450741817167
 30
0.0
 10
15.79670412154485
 20
5.904189502662735
 30
0.0
 10
15.80288098743346
 20
5.895787577308365
 30
0.0
 10
15.80758222389433
 20
5.886479902817899
 30
0.0
 10
15.81067815527153
 20
5.87652233967544
 30
0.0
 10
15.81208339400664
 20
5.866189761722589
 30
0.0
 10
15.81175918114154
 20
5.855767090406458
 30
0.0
 10
15.8097144587349
 20
5.845541826774766
 30
0.0
 10
15.8060056242629
 20
5.83579594410232
 30
0.0
 10
15.80073496756917
 20
5.826798430986182
 30
0.0
 10
15.79404787866131
 20
5.818796768774815
 30
0.0
 10
15.78612872883088
 20
5.812014199395421
 30
0.0
 10
15.77719619165801
 20
5.806628296742257
 30
0.0
 10
15.76788247561905
 20
5.802974783513537
 30
0.0
 10
15.75852562485829
 20
5.800816953616819
 30
0.0
 10
15.75242837803141
 20
5.800554901494349
 30
0.0
 10
15.74937975461796
 20
5.800423875433114
 30
0.0
  0
LINE
  5
184
330
1F
100
AcDbEntity
  8
0
  6
Continuous
 62
     7
370
    25
100
AcDbLine
 10
15.7493797546
 20
5.6129238754
 30
0.0
 11
14.6843797546
 21
5.6129238754
 31
0.0
  0
SPLINE
  5
185
330
1F
100
AcDbEntity
  8
0
  6
Continuous
 62
     7
370
    25
100
AcDbSpline
210
0.0
220
0.0
230
1.0
 70
     8
 71
     3
 72
    26
 73
    22
 74
     0
 42
0.00000001
 43
0.00000001
 40
0.0
 40
0.0
 40
0.0
 40
0.0
 40
0.0600185114031147
 40
0.112943111672889
 40
0.1658677119426627
 40
0.2187923122124367
 40
0.2717169124822094
 40
0.3246415127519828
 40
0.3775661130217565
 40
0.4304907132915307
 40
0.483415313561304
 40
0.5363399138310769
 40
0.589264514100849
 40
0.6421891143706223
 40
0.6951137146403953
 40
0.7480383149101684
 40
0.8009629151799412
 40
0.8538875154497139
 40
0.906812115719487
 40
0.9534060578597436
 40
1.0
 40
1.0
 40
1.0
 40
1.0
 10
15.74937975461796
 20
5.737923875433115
 30
0.0
 10
15.75330958030669
 20
5.737711071788375
 30
0.0
 10
15.76070474441922
 20
5.737310616907866
 30
0.0
 10
15.77119742571354
 20
5.734277974424544
 30
0.0
 10
15.7806409938328
 20
5.72988296432078
 30
0.0
 10
15.78922195833491
 20
5.723950741817167
 30
0.0
 10
15.79670412154485
 20
5.716689502662735
 30
0.0
 10
15.80288098743346
 20
5.708287577308365
 30
0.0
 10
15.80758222389433
 20
5.698979902817898
 30
0.0
 10
15.81067815527153
 20
5.68902233967544
 30
0.0
 10
15.81208339400664
 20
5.678689761722588
 30
0.0
 10
15.81175918114154
 20
5.668267090406458
 30
0.0
 10
15.8097144587349
 20
5.658041826774765
 30
0.0
 10
15.8060056242629
 20
5.64829594410232
 30
0.0
 10
15.80073496756917
 20
5.639298430986181
 30
0.0
 10
15.79404787866131
 20
5.631296768774815
 30
0.0
 10
15.78612872883088
 20
5.624514199395422
 30
0.0
 10
15.77719619165801
 20
5.619128296742257
 30
0.0
 10
15.76788247561905
 20
5.615474783513536
 30
0.0
 10
15.75852562485829
 20
5.613316953616819
 30
0.0
 10
15.75242837803141
 20
5.613054901494349
 30
0.0
 10
15.74937975461797
 20
5.612923875433116
 30
0.0
  0
LINE
  5
186
330
1F
100
AcDbEntity
  8
0
  6
Continuous
 62
     7
370
    25
100
AcDbLine
 10
14.6843797546
 20
5.7379238754
 30
0.0
 11
15.7493797546
 21
5.7379238754
 31
0.0
  0
SPLINE
  5
187
330
1F
100
AcDbEntity
  8
0
  6
Continuous
 62
     7
370
    25
100
AcDbSpline
210
0.0
220
0.0
230
1.0
 70
     8
 71
     3
 72
    26
 73
    22
 74
     0
 42
0.00000001
 43
0.00000001
 40
0.0
 40
0.0
 40
0.0
 40
0.0
 40
0.061153054970256
 40
0.1223061099405122
 40
0.1759984257381413
 40
0.2296907415357698
 40
0.2833830573333994
 40
0.3370753731310289
 40
0.3907676889286576
 40
0.4444600047262871
 40
0.4981523205239157
 40
0.5518446363215449
 40
0.6047721568494646
 40
0.6576996773773844
 40
0.7106271979053037
 40
0.7635547184332226
 40
0.8164822389611425
 40
0.8694097594890623
 40
0.9223372800169818
 40
0.961168640008482
 40
1.0
 40
1.0
 40
1.0
 40
1.0
 10
14.68437975461796
 20
5.612923875433116
 30
0.0
 10
14.68037701440862
 20
5.613152368436094
 30
0.0
 10
14.67237153398993
 20
5.613609354442054
 30
0.0
 10
14.66126415914053
 20
5.617005395347531
 30
0.0
 10
14.65139855338183
 20
5.621993777197417
 30
0.0
 10
14.64288486473115
 20
5.62828284522787
 30
0.0
 10
14.63557381814102
 20
5.635928016993814
 30
0.0
 10
14.62961958550208
 20
5.644673843267384
 30
0.0
 10
14.62525178865527
 20
5.654309882547649
 30
0.0
 10
14.62252821777305
 20
5.664533027160567
 30
0.0
 10
14.62159531083513
 20
5.675072011351834
 30
0.0
 10
14.62240885452452
 20
5.685569356422196
 30
0.0
 10
14.62496654375103
 20
5.695731100035997
 30
0.0
 10
14.62914577209965
 20
5.705284318741307
 30
0.0
 10
14.63484975359433
 20
5.714013745198518
 30
0.0
 10
14.64191943777685
 20
5.721679326741396
 30
0.0
 10
14.65016051830885
 20
5.728067256365533
 30
0.0
 10
14.65934468128635
 20
5.733010148942988
 30
0.0
 10
14.66834511225364
 20
5.736043332317356
 30
0.0
 10
14.67675971994098
 20
5.737652095368055
 30
0.0
 10
14.68183974305897
 20
5.737833282078095
 30
0.0
 10
14.68437975461796
 20
5.737923875433116
 30
0.0
  0
LINE
  5
188
330
1F
100
AcDbEntity
  8
0
  6
Continuous
 62
     7
370
    25
100
AcDbLine
 10
14.6843797546
 20
5.5504238754
 30
0.0
 11
15.7493797546
 21
5.5504238754
 31
0.0
  0
SPLINE
  5
189
330
1F
100
AcDbEntity
  8
0
  6
Continuous
 62
     7
370
    25
100
AcDbSpline
210
0.0
220
0.0
230
1.0
 70
     8
 71
     3
 72
    26
 73
    22
 74
     0
 42
0.00000001
 43
0.00000001
 40
0.0
 40
0.0
 40
0.0
 40
0.0
 40
0.0611530549702558
 40
0.1223061099405118
 40
0.1759984257381405
 40
0.2296907415357701
 40
0.2833830573333988
 40
0.3370753731310278
 40
0.3907676889286569
 40
0.444460004726286
 40
0.4981523205239147
 40
0.5518446363215437
 40
0.6047721568494647
 40
0.6576996773773847
 40
0.7106271979053032
 40
0.7635547184332221
 40
0.8164822389611409
 40
0.8694097594890597
 40
0.9223372800169785
 40
0.9611686400084805
 40
1.0
 40
1.0
 40
1.0
 40
1.0
 10
14.68437975461796
 20
5.425423875433115
 30
0.0
 10
14.68037701440862
 20
5.425652368436094
 30
0.0
 10
14.67237153398993
 20
5.426109354442055
 30
0.0
 10
14.66126415914053
 20
5.42950539534753
 30
0.0
 10
14.65139855338183
 20
5.434493777197417
 30
0.0
 10
14.64288486473115
 20
5.44078284522787
 30
0.0
 10
14.63557381814102
 20
5.448428016993814
 30
0.0
 10
14.62961958550208
 20
5.457173843267383
 30
0.0
 10
14.62525178865527
 20
5.466809882547649
 30
0.0
 10
14.62252821777305
 20
5.477033027160567
 30
0.0
 10
14.62159531083513
 20
5.487572011351834
 30
0.0
 10
14.62240885452452
 20
5.498069356422196
 30
0.0
 10
14.62496654375103
 20
5.508231100035997
 30
0.0
 10
14.62914577209965
 20
5.517784318741307
 30
0.0
 10
14.63484975359433
 20
5.526513745198518
 30
0.0
 10
14.64191943777685
 20
5.534179326741396
 30
0.0
 10
14.65016051830885
 20
5.540567256365533
 30
0.0
 10
14.65934468128635
 20
5.545510148942988
 30
0.0
 10
14.66834511225364
 20
5.548543332317356
 30
0.0
 10
14.67675971994098
 20
5.550152095368055
 30
0.0
 10
14.68183974305897
 20
5.550333282078095
 30
0.0
 10
14.68437975461796
 20
5.550423875433116
 30
0.0
  0
LINE
  5
18A
330
1F
100
AcDbEntity
  8
0
  6
Continuous
 62
     7
370
    25
100
AcDbLine
 10
15.7493797546
 20
5.4254238754
 30
0.0
 11
14.6843797546
 21
5.4254238754
 31
0.0
  0
SPLINE
  5
18B
330
1F
100
AcDbEntity
  8
0
  6
Continuous
 62
     7
370
    25
100
AcDbSpline
210
0.0
220
0.0
230
1.0
 70
     8
 71
     3
 72
    26
 73
    22
 74
     0
 42
0.00000001
 43
0.00000001
 40
0.0
 40
0.0
 40
0.0
 40
0.0
 40
0.060018511403115
 40
0.112943111672889
 40
0.1658677119426636
 40
0.2187923122124373
 40
0.271716912482211
 40
0.3246415127519846
 40
0.3775661130217584
 40
0.4304907132915312
 40
0.4834153135613043
 40
0.5363399138310773
 40
0.5892645141008507
 40
0.6421891143706236
 40
0.695113714640397
 40
0.748038314910171
 40
0.800962915179944
 40
0.853887515449717
 40
0.9068121157194902
 40
0.9534060578597451
 40
1.0
 40
1.0
 40
1.0
 40
1.0
 10
15.74937975461797
 20
5.550423875433115
 30
0.0
 10
15.75330958030669
 20
5.550211071788375
 30
0.0
 10
15.76070474441922
 20
5.549810616907866
 30
0.0
 10
15.77119742571354
 20
5.546777974424544
 30
0.0
 10
15.7806409938328
 20
5.54238296432078
 30
0.0
 10
15.78922195833491
 20
5.536450741817167
 30
0.0
 10
15.79670412154485
 20
5.529189502662735
 30
0.0
 10
15.80288098743346
 20
5.520787577308364
 30
0.0
 10
15.80758222389433
 20
5.511479902817898
 30
0.0
 10
15.81067815527153
 20
5.50152233967544
 30
0.0
 10
15.81208339400664
 20
5.491189761722588
 30
0.0
 10
15.81175918114154
 20
5.480767090406458
 30
0.0
 10
15.8097144587349
 20
5.470541826774765
 30
0.0
 10
15.8060056242629
 20
5.46079594410232
 30
0.0
 10
15.80073496756917
 20
5.451798430986181
 30
0.0
 10
15.79404787866131
 20
5.443796768774815
 30
0.0
 10
15.78612872883088
 20
5.437014199395422
 30
0.0
 10
15.77719619165801
 20
5.431628296742257
 30
0.0
 10
15.76788247561905
 20
5.427974783513537
 30
0.0
 10
15.75852562485829
 20
5.425816953616819
 30
0.0
 10
15.75242837803141
 20
5.425554901494349
 30
0.0
 10
15.74937975461796
 20
5.425423875433115
 30
0.0
  0
LINE
  5
18C
330
1F
100
AcDbEntity
  8
0
  6
Continuous
 62
     7
370
    25
100
AcDbLine
 10
15.7493797546
 20
5.2379238754
 30
0.0
 11
14.6843797546
 21
5.2379238754
 31
0.0
  0
SPLINE
  5
18D
330
1F
100
AcDbEntity
  8
0
  6
Continuous
 62
     7
370
    25
100
AcDbSpline
210
0.0
220
0.0
230
1.0
 70
     8
 71
     3
 72
    26
 73
    22
 74
     0
 42
0.00000001
 43
0.00000001
 40
0.0
 40
0.0
 40
0.0
 40
0.0
 40
0.0600185114031151
 40
0.1129431116728892
 40
0.1658677119426635
 40
0.2187923122124375
 40
0.2717169124822121
 40
0.3246415127519858
 40
0.3775661130217595
 40
0.430490713291533
 40
0.4834153135613062
 40
0.5363399138310793
 40
0.5892645141008536
 40
0.642189114370627
 40
0.6951137146404005
 40
0.7480383149101739
 40
0.8009629151799476
 40
0.8538875154497204
 40
0.9068121157194935
 40
0.9534060578597464
 40
1.0
 40
1.0
 40
1.0
 40
1.0
 10
15.74937975461796
 20
5.362923875433116
 30
0.0
 10
15.75330958030669
 20
5.362711071788374
 30
0.0
 10
15.76070474441922
 20
5.362310616907865
 30
0.0
 10
15.77119742571354
 20
5.359277974424544
 30
0.0
 10
15.7806409938328
 20
5.35488296432078
 30
0.0
 10
15.78922195833491
 20
5.348950741817168
 30
0.0
 10
15.79670412154485
 20
5.341689502662735
 30
0.0
 10
15.80288098743346
 20
5.333287577308364
 30
0.0
 10
15.80758222389433
 20
5.323979902817898
 30
0.0
 10
15.81067815527153
 20
5.31402233967544
 30
0.0
 10
15.81208339400664
 20
5.303689761722588
 30
0.0
 10
15.81175918114154
 20
5.293267090406458
 30
0.0
 10
15.8097144587349
 20
5.283041826774765
 30
0.0
 10
15.8060056242629
 20
5.273295944102319
 30
0.0
 10
15.80073496756917
 20
5.264298430986181
 30
0.0
 10
15.79404787866131
 20
5.256296768774814
 30
0.0
 10
15.78612872883088
 20
5.249514199395421
 30
0.0
 10
15.77719619165801
 20
5.244128296742256
 30
0.0
 10
15.76788247561905
 20
5.240474783513537
 30
0.0
 10
15.75852562485829
 20
5.238316953616819
 30
0.0
 10
15.75242837803141
 20
5.23805490149435
 30
0.0
 10
15.74937975461796
 20
5.237923875433115
 30
0.0
  0
LINE
  5
18E
330
1F
100
AcDbEntity
  8
0
  6
Continuous
 62
     7
370
    25
100
AcDbLine
 10
14.6843797546
 20
5.3629238754
 30
0.0
 11
15.7493797546
 21
5.3629238754
 31
0.0
  0
SPLINE
  5
18F
330
1F
100
AcDbEntity
  8
0
  6
Continuous
 62
     7
370
    25
100
AcDbSpline
210
0.0
220
0.0
230
1.0
 70
     8
 71
     3
 72
    26
 73
    22
 74
     0
 42
0.00000001
 43
0.00000001
 40
0.0
 40
0.0
 40
0.0
 40
0.0
 40
0.0611530549702557
 40
0.1223061099405117
 40
0.1759984257381406
 40
0.2296907415357699
 40
0.2833830573333991
 40
0.3370753731310281
 40
0.390767688928657
 40
0.4444600047262861
 40
0.4981523205239149
 40
0.5518446363215438
 40
0.6047721568494643
 40
0.6576996773773842
 40
0.7106271979053034
 40
0.7635547184332221
 40
0.8164822389611408
 40
0.8694097594890601
 40
0.9223372800169791
 40
0.9611686400084807
 40
0.9999999999999999
 40
0.9999999999999999
 40
0.9999999999999999
 40
0.9999999999999999
 10
14.68437975461796
 20
5.237923875433116
 30
0.0
 10
14.68037701440862
 20
5.238152368436095
 30
0.0
 10
14.67237153398993
 20
5.238609354442055
 30
0.0
 10
14.66126415914053
 20
5.24200539534753
 30
0.0
 10
14.65139855338183
 20
5.246993777197418
 30
0.0
 10
14.64288486473115
 20
5.25328284522787
 30
0.0
 10
14.63557381814102
 20
5.260928016993814
 30
0.0
 10
14.62961958550208
 20
5.269673843267383
 30
0.0
 10
14.62525178865527
 20
5.279309882547649
 30
0.0
 10
14.62252821777305
 20
5.289533027160566
 30
0.0
 10
14.62159531083513
 20
5.300072011351834
 30
0.0
 10
14.62240885452452
 20
5.310569356422196
 30
0.0
 10
14.62496654375103
 20
5.320731100035997
 30
0.0
 10
14.62914577209965
 20
5.330284318741307
 30
0.0
 10
14.63484975359433
 20
5.339013745198518
 30
0.0
 10
14.64191943777685
 20
5.346679326741396
 30
0.0
 10
14.65016051830885
 20
5.353067256365533
 30
0.0
 10
14.65934468128635
 20
5.358010148942988
 30
0.0
 10
14.66834511225364
 20
5.361043332317357
 30
0.0
 10
14.67675971994098
 20
5.362652095368055
 30
0.0
 10
14.68183974305897
 20
5.362833282078095
 30
0.0
 10
14.68437975461796
 20
5.362923875433116
 30
0.0
  0
LINE
  5
190
330
1F
100
AcDbEntity
  8
0
  6
Continuous
 62
     7
370
    25
100
AcDbLine
 10
14.6843797546
 20
5.1754238754
 30
0.0
 11
15.7493797546
 21
5.1754238754
 31
0.0
  0
SPLINE
  5
191
330
1F
100
AcDbEntity
  8
0
  6
Continuous
 62
     7
370
    25
100
AcDbSpline
210
0.0
220
0.0
230
1.0
 70
     8
 71
     3
 72
    26
 73
    22
 74
     0
 42
0.00000001
 43
0.00000001
 40
0.0
 40
0.0
 40
0.0
 40
0.0
 40
0.061153054970256
 40
0.1223061099405118
 40
0.1759984257381411
 40
0.2296907415357702
 40
0.2833830573333989
 40
0.3370753731310281
 40
0.3907676889286574
 40
0.4444600047262866
 40
0.4981523205239154
 40
0.5518446363215442
 40
0.6047721568494637
 40
0.6576996773773837
 40
0.7106271979053032
 40
0.7635547184332216
 40
0.8164822389611402
 40
0.8694097594890586
 40
0.9223372800169775
 40
0.9611686400084801
 40
1.0
 40
1.0
 40
1.0
 40
1.0
 10
14.68437975461796
 20
5.050423875433116
 30
0.0
 10
14.68037701440862
 20
5.050652368436095
 30
0.0
 10
14.67237153398993
 20
5.051109354442055
 30
0.0
 10
14.66126415914053
 20
5.054505395347531
 30
0.0
 10
14.65139855338183
 20
5.059493777197418
 30
0.0
 10
14.64288486473115
 20
5.065782845227871
 30
0.0
 10
14.63557381814102
 20
5.073428016993815
 30
0.0
 10
14.62961958550208
 20
5.082173843267384
 30
0.0
 10
14.62525178865527
 20
5.091809882547648
 30
0.0
 10
14.62252821777305
 20
5.102033027160567
 30
0.0
 10
14.62159531083513
 20
5.112572011351834
 30
0.0
 10
14.62240885452452
 20
5.123069356422197
 30
0.0
 10
14.62496654375103
 20
5.133231100035997
 30
0.0
 10
14.62914577209965
 20
5.142784318741306
 30
0.0
 10
14.63484975359433
 20
5.151513745198518
 30
0.0
 10
14.64191943777685
 20
5.159179326741397
 30
0.0
 10
14.65016051830885
 20
5.165567256365533
 30
0.0
 10
14.65934468128635
 20
5.170510148942987
 30
0.0
 10
14.66834511225364
 20
5.173543332317357
 30
0.0
 10
14.67675971994098
 20
5.175152095368055
 30
0.0
 10
14.68183974305897
 20
5.175333282078096
 30
0.0
 10
14.68437975461796
 20
5.175423875433117
 30
0.0
  0
LINE
  5
192
330
1F
100
AcDbEntity
  8
0
  6
Continuous
 62
     7
370
    25
100
AcDbLine
 10
15.7493797546
 20
5.0504238754
 30
0.0
 11
14.6843797546
 21
5.0504238754
 31
0.0
  0
SPLINE
  5
193
330
1F
100
AcDbEntity
  8
0
  6
Continuous
 62
     7
370
    25
100
AcDbSpline
210
0.0
220
0.0
230
1.0
 70
     8
 71
     3
 72
    26
 73
    22
 74
     0
 42
0.00000001
 43
0.00000001
 40
0.0
 40
0.0
 40
0.0
 40
0.0
 40
0.0600185114031151
 40
0.1129431116728892
 40
0.1658677119426638
 40
0.2187923122124374
 40
0.2717169124822113
 40
0.3246415127519849
 40
0.3775661130217594
 40
0.4304907132915329
 40
0.4834153135613054
 40
0.5363399138310785
 40
0.5892645141008512
 40
0.6421891143706239
 40
0.6951137146403973
 40
0.7480383149101707
 40
0.800962915179944
 40
0.853887515449717
 40
0.9068121157194897
 40
0.9534060578597446
 40
1.0
 40
1.0
 40
1.0
 40
1.0
 10
15.74937975461796
 20
5.175423875433116
 30
0.0
 10
15.75330958030669
 20
5.175211071788375
 30
0.0
 10
15.76070474441922
 20
5.174810616907867
 30
0.0
 10
15.77119742571354
 20
5.171777974424545
 30
0.0
 10
15.7806409938328
 20
5.167382964320781
 30
0.0
 10
15.78922195833491
 20
5.161450741817168
 30
0.0
 10
15.79670412154485
 20
5.154189502662736
 30
0.0
 10
15.80288098743346
 20
5.145787577308365
 30
0.0
 10
15.80758222389433
 20
5.136479902817898
 30
0.0
 10
15.81067815527153
 20
5.126522339675441
 30
0.0
 10
15.81208339400664
 20
5.116189761722589
 30
0.0
 10
15.81175918114154
 20
5.105767090406458
 30
0.0
 10
15.8097144587349
 20
5.095541826774766
 30
0.0
 10
15.8060056242629
 20
5.085795944102319
 30
0.0
 10
15.80073496756917
 20
5.076798430986181
 30
0.0
 10
15.79404787866131
 20
5.068796768774816
 30
0.0
 10
15.78612872883088
 20
5.062014199395422
 30
0.0
 10
15.77719619165801
 20
5.056628296742258
 30
0.0
 10
15.76788247561905
 20
5.052974783513537
 30
0.0
 10
15.75852562485829
 20
5.05081695361682
 30
0.0
 10
15.75242837803141
 20
5.05055490149435
 30
0.0
 10
15.74937975461797
 20
5.050423875433116
 30
0.0
  0
LINE
  5
194
330
1F
100
AcDbEntity
  8
0
  6
Continuous
 62
     7
370
    25
100
AcDbLine
 10
15.7493797546
 20
4.6754238754
 30
0.0
 11
14.6843797546
 21
4.6754238754
 31
0.0
  0
SPLINE
  5
195
330
1F
100
AcDbEntity
  8
0
  6
Continuous
 62
     7
370
    25
100
AcDbSpline
210
0.0
220
0.0
230
1.0
 70
     8
 71
     3
 72
    26
 73
    22
 74
     0
 42
0.00000001
 43
0.00000001
 40
0.0
 40
0.0
 40
0.0
 40
0.0
 40
0.0600185114031146
 40
0.1129431116728892
 40
0.1658677119426631
 40
0.218792312212437
 40
0.2717169124822114
 40
0.3246415127519851
 40
0.3775661130217589
 40
0.4304907132915329
 40
0.4834153135613067
 40
0.5363399138310799
 40
0.5892645141008537
 40
0.6421891143706271
 40
0.6951137146404005
 40
0.7480383149101739
 40
0.8009629151799477
 40
0.8538875154497213
 40
0.9068121157194947
 40
0.9534060578597472
 40
1.0
 40
1.0
 40
1.0
 40
1.0
 10
15.74937975461796
 20
4.800423875433115
 30
0.0
 10
15.75330958030669
 20
4.800211071788375
 30
0.0
 10
15.76070474441922
 20
4.799810616907866
 30
0.0
 10
15.77119742571354
 20
4.796777974424544
 30
0.0
 10
15.7806409938328
 20
4.79238296432078
 30
0.0
 10
15.78922195833491
 20
4.786450741817168
 30
0.0
 10
15.79670412154485
 20
4.779189502662736
 30
0.0
 10
15.80288098743346
 20
4.770787577308365
 30
0.0
 10
15.80758222389433
 20
4.761479902817898
 30
0.0
 10
15.81067815527153
 20
4.751522339675439
 30
0.0
 10
15.81208339400664
 20
4.741189761722588
 30
0.0
 10
15.81175918114154
 20
4.730767090406458
 30
0.0
 10
15.8097144587349
 20
4.720541826774765
 30
0.0
 10
15.8060056242629
 20
4.710795944102319
 30
0.0
 10
15.80073496756917
 20
4.70179843098618
 30
0.0
 10
15.79404787866131
 20
4.693796768774814
 30
0.0
 10
15.78612872883088
 20
4.687014199395421
 30
0.0
 10
15.77719619165801
 20
4.681628296742257
 30
0.0
 10
15.76788247561905
 20
4.677974783513537
 30
0.0
 10
15.75852562485829
 20
4.675816953616819
 30
0.0
 10
15.75242837803141
 20
4.675554901494349
 30
0.0
 10
15.74937975461796
 20
4.675423875433115
 30
0.0
  0
LINE
  5
196
330
1F
100
AcDbEntity
  8
0
  6
Continuous
 62
     7
370
    25
100
AcDbLine
 10
14.6843797546
 20
4.8004238754
 30
0.0
 11
15.7493797546
 21
4.8004238754
 31
0.0
  0
SPLINE
  5
197
330
1F
100
AcDbEntity
  8
0
  6
Continuous
 62
     7
370
    25
100
AcDbSpline
210
0.0
220
0.0
230
1.0
 70
     8
 71
     3
 72
    26
 73
    22
 74
     0
 42
0.00000001
 43
0.00000001
 40
0.0
 40
0.0
 40
0.0
 40
0.0
 40
0.0611530549702559
 40
0.1223061099405122
 40
0.1759984257381411
 40
0.2296907415357701
 40
0.2833830573333988
 40
0.337075373131028
 40
0.3907676889286568
 40
0.4444600047262856
 40
0.4981523205239152
 40
0.5518446363215443
 40
0.604772156849465
 40
0.6576996773773838
 40
0.7106271979053018
 40
0.7635547184332193
 40
0.8164822389611377
 40
0.8694097594890564
 40
0.9223372800169753
 40
0.9611686400084791
 40
1.0
 40
1.0
 40
1.0
 40
1.0
 10
14.68437975461796
 20
4.675423875433116
 30
0.0
 10
14.68037701440862
 20
4.675652368436095
 30
0.0
 10
14.67237153398993
 20
4.676109354442055
 30
0.0
 10
14.66126415914053
 20
4.679505395347531
 30
0.0
 10
14.65139855338183
 20
4.684493777197418
 30
0.0
 10
14.64288486473114
 20
4.69078284522787
 30
0.0
 10
14.63557381814102
 20
4.698428016993815
 30
0.0
 10
14.62961958550208
 20
4.707173843267383
 30
0.0
 10
14.62525178865527
 20
4.716809882547648
 30
0.0
 10
14.62252821777305
 20
4.727033027160567
 30
0.0
 10
14.62159531083513
 20
4.737572011351834
 30
0.0
 10
14.62240885452452
 20
4.748069356422196
 30
0.0
 10
14.62496654375103
 20
4.758231100035997
 30
0.0
 10
14.62914577209965
 20
4.767784318741307
 30
0.0
 10
14.63484975359433
 20
4.776513745198517
 30
0.0
 10
14.64191943777685
 20
4.784179326741396
 30
0.0
 10
14.65016051830885
 20
4.790567256365533
 30
0.0
 10
14.65934468128635
 20
4.795510148942987
 30
0.0
 10
14.66834511225363
 20
4.798543332317356
 30
0.0
 10
14.67675971994098
 20
4.800152095368055
 30
0.0
 10
14.68183974305897
 20
4.800333282078095
 30
0.0
 10
14.68437975461796
 20
4.800423875433116
 30
0.0
  0
LINE
  5
198
330
1F
100
AcDbEntity
  8
0
  6
Continuous
 62
     7
370
    25
100
AcDbLine
 10
15.7493797546
 20
4.8629238754
 30
0.0
 11
14.6843797546
 21
4.8629238754
 31
0.0
  0
SPLINE
  5
199
330
1F
100
AcDbEntity
  8
0
  6
Continuous
 62
     7
370
    25
100
AcDbSpline
210
0.0
220
0.0
230
1.0
 70
     8
 71
     3
 72
    26
 73
    22
 74
     0
 42
0.00000001
 43
0.00000001
 40
0.0
 40
0.0
 40
0.0
 40
0.0
 40
0.0600185114031151
 40
0.1129431116728895
 40
0.1658677119426641
 40
0.2187923122124379
 40
0.2717169124822123
 40
0.3246415127519855
 40
0.3775661130217594
 40
0.4304907132915328
 40
0.4834153135613063
 40
0.5363399138310799
 40
0.5892645141008535
 40
0.6421891143706266
 40
0.6951137146404004
 40
0.7480383149101745
 40
0.800962915179948
 40
0.8538875154497215
 40
0.9068121157194953
 40
0.9534060578597477
 40
1.0
 40
1.0
 40
1.0
 40
1.0
 10
15.74937975461796
 20
4.987923875433116
 30
0.0
 10
15.75330958030669
 20
4.987711071788375
 30
0.0
 10
15.76070474441922
 20
4.987310616907865
 30
0.0
 10
15.77119742571354
 20
4.984277974424544
 30
0.0
 10
15.7806409938328
 20
4.97988296432078
 30
0.0
 10
15.78922195833491
 20
4.973950741817168
 30
0.0
 10
15.79670412154485
 20
4.966689502662736
 30
0.0
 10
15.80288098743346
 20
4.958287577308364
 30
0.0
 10
15.80758222389433
 20
4.948979902817898
 30
0.0
 10
15.81067815527153
 20
4.939022339675439
 30
0.0
 10
15.81208339400664
 20
4.928689761722588
 30
0.0
 10
15.81175918114154
 20
4.918267090406458
 30
0.0
 10
15.8097144587349
 20
4.908041826774765
 30
0.0
 10
15.8060056242629
 20
4.898295944102319
 30
0.0
 10
15.80073496756917
 20
4.88929843098618
 30
0.0
 10
15.79404787866131
 20
4.881296768774814
 30
0.0
 10
15.78612872883088
 20
4.87451419939542
 30
0.0
 10
15.77719619165801
 20
4.869128296742257
 30
0.0
 10
15.76788247561905
 20
4.865474783513537
 30
0.0
 10
15.75852562485829
 20
4.863316953616819
 30
0.0
 10
15.75242837803141
 20
4.863054901494349
 30
0.0
 10
15.74937975461796
 20
4.862923875433116
 30
0.0
  0
LINE
  5
19A
330
1F
100
AcDbEntity
  8
0
  6
Continuous
 62
     7
370
    25
100
AcDbLine
 10
14.6843797546
 20
4.9879238754
 30
0.0
 11
15.7493797546
 21
4.9879238754
 31
0.0
  0
SPLINE
  5
19B
330
1F
100
AcDbEntity
  8
0
  6
Continuous
 62
     7
370
    25
100
AcDbSpline
210
0.0
220
0.0
230
1.0
 70
     8
 71
     3
 72
    26
 73
    22
 74
     0
 42
0.00000001
 43
0.00000001
 40
0.0
 40
0.0
 40
0.0
 40
0.0
 40
0.061153054970256
 40
0.1223061099405122
 40
0.1759984257381412
 40
0.2296907415357704
 40
0.2833830573333991
 40
0.3370753731310279
 40
0.3907676889286565
 40
0.4444600047262854
 40
0.4981523205239143
 40
0.5518446363215435
 40
0.6047721568494637
 40
0.6576996773773837
 40
0.7106271979053034
 40
0.7635547184332233
 40
0.8164822389611426
 40
0.8694097594890624
 40
0.9223372800169821
 40
0.9611686400084822
 40
1.0
 40
1.0
 40
1.0
 40
1.0
 10
14.68437975461796
 20
4.862923875433116
 30
0.0
 10
14.68037701440862
 20
4.863152368436095
 30
0.0
 10
14.67237153398993
 20
4.863609354442055
 30
0.0
 10
14.66126415914053
 20
4.867005395347531
 30
0.0
 10
14.65139855338183
 20
4.871993777197418
 30
0.0
 10
14.64288486473114
 20
4.87828284522787
 30
0.0
 10
14.63557381814102
 20
4.885928016993814
 30
0.0
 10
14.62961958550208
 20
4.894673843267384
 30
0.0
 10
14.62525178865527
 20
4.904309882547648
 30
0.0
 10
14.62252821777305
 20
4.914533027160566
 30
0.0
 10
14.62159531083513
 20
4.925072011351834
 30
0.0
 10
14.62240885452452
 20
4.935569356422195
 30
0.0
 10
14.62496654375103
 20
4.945731100035997
 30
0.0
 10
14.62914577209965
 20
4.955284318741306
 30
0.0
 10
14.63484975359433
 20
4.964013745198517
 30
0.0
 10
14.64191943777685
 20
4.971679326741397
 30
0.0
 10
14.65016051830885
 20
4.978067256365533
 30
0.0
 10
14.65934468128635
 20
4.983010148942987
 30
0.0
 10
14.66834511225364
 20
4.986043332317357
 30
0.0
 10
14.67675971994098
 20
4.987652095368055
 30
0.0
 10
14.68183974305897
 20
4.987833282078095
 30
0.0
 10
14.68437975461796
 20
4.987923875433116
 30
0.0
  0
LINE
  5
19C
330
1F
100
AcDbEntity
  8
0
  6
Continuous
 62
     7
370
    25
100
AcDbLine
 10
14.6843797546
 20
4.6129238754
 30
0.0
 11
15.7493797546
 21
4.6129238754
 31
0.0
  0
SPLINE
  5
19D
330
1F
100
AcDbEntity
  8
0
  6
Continuous
 62
     7
370
    25
100
AcDbSpline
210
0.0
220
0.0
230
1.0
 70
     8
 71
     3
 72
    26
 73
    22
 74
     0
 42
0.00000001
 43
0.00000001
 40
0.0
 40
0.0
 40
0.0
 40
0.0
 40
0.0611530549702559
 40
0.1223061099405115
 40
0.1759984257381405
 40
0.2296907415357696
 40
0.2833830573333982
 40
0.3370753731310276
 40
0.3907676889286568
 40
0.4444600047262856
 40
0.4981523205239148
 40
0.5518446363215439
 40
0.6047721568494635
 40
0.657699677377384
 40
0.7106271979053036
 40
0.7635547184332235
 40
0.8164822389611434
 40
0.8694097594890631
 40
0.9223372800169828
 40
0.9611686400084829
 40
1.0
 40
1.0
 40
1.0
 40
1.0
 10
14.68437975461796
 20
4.487923875433116
 30
0.0
 10
14.68037701440862
 20
4.488152368436095
 30
0.0
 10
14.67237153398993
 20
4.488609354442055
 30
0.0
 10
14.66126415914053
 20
4.49200539534753
 30
0.0
 10
14.65139855338183
 20
4.496993777197418
 30
0.0
 10
14.64288486473115
 20
4.50328284522787
 30
0.0
 10
14.63557381814102
 20
4.510928016993814
 30
0.0
 10
14.62961958550208
 20
4.519673843267383
 30
0.0
 10
14.62525178865527
 20
4.529309882547648
 30
0.0
 10
14.62252821777305
 20
4.539533027160567
 30
0.0
 10
14.62159531083513
 20
4.550072011351833
 30
0.0
 10
14.62240885452452
 20
4.560569356422196
 30
0.0
 10
14.62496654375103
 20
4.570731100035996
 30
0.0
 10
14.62914577209965
 20
4.580284318741307
 30
0.0
 10
14.63484975359433
 20
4.589013745198517
 30
0.0
 10
14.64191943777685
 20
4.596679326741396
 30
0.0
 10
14.65016051830885
 20
4.603067256365533
 30
0.0
 10
14.65934468128635
 20
4.608010148942988
 30
0.0
 10
14.66834511225364
 20
4.611043332317356
 30
0.0
 10
14.67675971994098
 20
4.612652095368055
 30
0.0
 10
14.68183974305897
 20
4.612833282078095
 30
0.0
 10
14.68437975461796
 20
4.612923875433116
 30
0.0
  0
LINE
  5
19E
330
1F
100
AcDbEntity
  8
0
  6
Continuous
 62
     7
370
    25
100
AcDbLine
 10
15.7493797546
 20
4.4879238754
 30
0.0
 11
14.6843797546
 21
4.4879238754
 31
0.0
  0
SPLINE
  5
19F
330
1F
100
AcDbEntity
  8
0
  6
Continuous
 62
     7
370
    25
100
AcDbSpline
210
0.0
220
0.0
230
1.0
 70
     8
 71
     3
 72
    26
 73
    22
 74
     0
 42
0.00000001
 43
0.00000001
 40
0.0
 40
0.0
 40
0.0
 40
0.0
 40
0.0600185114031147
 40
0.1129431116728887
 40
0.1658677119426633
 40
0.2187923122124374
 40
0.2717169124822113
 40
0.3246415127519849
 40
0.3775661130217581
 40
0.4304907132915322
 40
0.4834153135613053
 40
0.5363399138310798
 40
0.5892645141008527
 40
0.6421891143706256
 40
0.695113714640399
 40
0.7480383149101713
 40
0.8009629151799439
 40
0.8538875154497169
 40
0.90681211571949
 40
0.9534060578597446
 40
1.0
 40
1.0
 40
1.0
 40
1.0
 10
15.74937975461796
 20
4.612923875433115
 30
0.0
 10
15.75330958030669
 20
4.612711071788375
 30
0.0
 10
15.76070474441922
 20
4.612310616907866
 30
0.0
 10
15.77119742571354
 20
4.609277974424544
 30
0.0
 10
15.7806409938328
 20
4.60488296432078
 30
0.0
 10
15.78922195833491
 20
4.598950741817167
 30
0.0
 10
15.79670412154485
 20
4.591689502662735
 30
0.0
 10
15.80288098743346
 20
4.583287577308365
 30
0.0
 10
15.80758222389433
 20
4.573979902817898
 30
0.0
 10
15.81067815527153
 20
4.56402233967544
 30
0.0
 10
15.81208339400664
 20
4.553689761722588
 30
0.0
 10
15.81175918114154
 20
4.543267090406458
 30
0.0
 10
15.8097144587349
 20
4.533041826774766
 30
0.0
 10
15.8060056242629
 20
4.523295944102319
 30
0.0
 10
15.80073496756917
 20
4.514298430986181
 30
0.0
 10
15.79404787866131
 20
4.506296768774815
 30
0.0
 10
15.78612872883088
 20
4.499514199395421
 30
0.0
 10
15.77719619165801
 20
4.494128296742257
 30
0.0
 10
15.76788247561905
 20
4.490474783513536
 30
0.0
 10
15.75852562485829
 20
4.488316953616819
 30
0.0
 10
15.75242837803141
 20
4.48805490149435
 30
0.0
 10
15.74937975461796
 20
4.487923875433116
 30
0.0
  0
LINE
  5
1A0
330
1F
100
AcDbEntity
  8
0
  6
Continuous
 62
     7
370
    25
100
AcDbLine
 10
15.7493797546
 20
4.3004238754
 30
0.0
 11
14.6843797546
 21
4.3004238754
 31
0.0
  0
SPLINE
  5
1A1
330
1F
100
AcDbEntity
  8
0
  6
Continuous
 62
     7
370
    25
100
AcDbSpline
210
0.0
220
0.0
230
1.0
 70
     8
 71
     3
 72
    26
 73
    22
 74
     0
 42
0.00000001
 43
0.00000001
 40
0.0
 40
0.0
 40
0.0
 40
0.0
 40
0.0600185114031139
 40
0.1129431116728888
 40
0.1658677119426634
 40
0.2187923122124372
 40
0.271716912482211
 40
0.3246415127519851
 40
0.377566113021759
 40
0.4304907132915324
 40
0.4834153135613055
 40
0.5363399138310792
 40
0.5892645141008526
 40
0.6421891143706256
 40
0.6951137146403997
 40
0.7480383149101737
 40
0.8009629151799466
 40
0.8538875154497199
 40
0.906812115719493
 40
0.9534060578597462
 40
1.0
 40
1.0
 40
1.0
 40
1.0
 10
15.74937975461796
 20
4.425423875433115
 30
0.0
 10
15.75330958030669
 20
4.425211071788375
 30
0.0
 10
15.76070474441922
 20
4.424810616907867
 30
0.0
 10
15.77119742571354
 20
4.421777974424544
 30
0.0
 10
15.7806409938328
 20
4.417382964320781
 30
0.0
 10
15.78922195833491
 20
4.411450741817167
 30
0.0
 10
15.79670412154485
 20
4.404189502662735
 30
0.0
 10
15.80288098743346
 20
4.395787577308365
 30
0.0
 10
15.80758222389433
 20
4.386479902817897
 30
0.0
 10
15.81067815527153
 20
4.37652233967544
 30
0.0
 10
15.81208339400664
 20
4.366189761722588
 30
0.0
 10
15.81175918114154
 20
4.355767090406458
 30
0.0
 10
15.8097144587349
 20
4.345541826774766
 30
0.0
 10
15.8060056242629
 20
4.335795944102319
 30
0.0
 10
15.80073496756917
 20
4.32679843098618
 30
0.0
 10
15.79404787866131
 20
4.318796768774814
 30
0.0
 10
15.78612872883088
 20
4.312014199395421
 30
0.0
 10
15.77719619165801
 20
4.306628296742257
 30
0.0
 10
15.76788247561905
 20
4.302974783513536
 30
0.0
 10
15.75852562485829
 20
4.300816953616819
 30
0.0
 10
15.75242837803141
 20
4.30055490149435
 30
0.0
 10
15.74937975461796
 20
4.300423875433115
 30
0.0
  0
LINE
  5
1A2
330
1F
100
AcDbEntity
  8
0
  6
Continuous
 62
     7
370
    25
100
AcDbLine
 10
14.6843797546
 20
4.4254238754
 30
0.0
 11
15.7493797546
 21
4.4254238754
 31
0.0
  0
SPLINE
  5
1A3
330
1F
100
AcDbEntity
  8
0
  6
Continuous
 62
     7
370
    25
100
AcDbSpline
210
0.0
220
0.0
230
1.0
 70
     8
 71
     3
 72
    26
 73
    22
 74
     0
 42
0.00000001
 43
0.00000001
 40
0.0
 40
0.0
 40
0.0
 40
0.0
 40
0.061153054970256
 40
0.1223061099405122
 40
0.1759984257381408
 40
0.22969074153577
 40
0.2833830573333994
 40
0.3370753731310284
 40
0.3907676889286569
 40
0.4444600047262862
 40
0.4981523205239153
 40
0.5518446363215445
 40
0.6047721568494648
 40
0.657699677377383
 40
0.7106271979053018
 40
0.763554718433221
 40
0.8164822389611399
 40
0.869409759489058
 40
0.9223372800169762
 40
0.9611686400084796
 40
1.0
 40
1.0
 40
1.0
 40
1.0
 10
14.68437975461796
 20
4.300423875433116
 30
0.0
 10
14.68037701440862
 20
4.300652368436095
 30
0.0
 10
14.67237153398993
 20
4.301109354442055
 30
0.0
 10
14.66126415914053
 20
4.30450539534753
 30
0.0
 10
14.65139855338183
 20
4.309493777197418
 30
0.0
 10
14.64288486473114
 20
4.31578284522787
 30
0.0
 10
14.63557381814102
 20
4.323428016993815
 30
0.0
 10
14.62961958550208
 20
4.332173843267383
 30
0.0
 10
14.62525178865527
 20
4.341809882547649
 30
0.0
 10
14.62252821777305
 20
4.352033027160566
 30
0.0
 10
14.62159531083513
 20
4.362572011351835
 30
0.0
 10
14.62240885452452
 20
4.373069356422196
 30
0.0
 10
14.62496654375103
 20
4.383231100035997
 30
0.0
 10
14.62914577209965
 20
4.392784318741307
 30
0.0
 10
14.63484975359433
 20
4.401513745198517
 30
0.0
 10
14.64191943777685
 20
4.409179326741396
 30
0.0
 10
14.65016051830885
 20
4.415567256365533
 30
0.0
 10
14.65934468128635
 20
4.420510148942987
 30
0.0
 10
14.66834511225364
 20
4.423543332317356
 30
0.0
 10
14.67675971994098
 20
4.425152095368055
 30
0.0
 10
14.68183974305897
 20
4.425333282078095
 30
0.0
 10
14.68437975461796
 20
4.425423875433116
 30
0.0
  0
LINE
  5
1A4
330
1F
100
AcDbEntity
  8
0
  6
Continuous
 62
     7
370
    25
100
AcDbLine
 10
13.6218797546
 20
7.7418238754
 30
0.0
 11
16.8118797546
 21
7.7418238754
 31
0.0
  0
ARC
  5
1A5
330
1F
100
AcDbEntity
  8
0
  6
Continuous
 62
     7
370
    25
100
AcDbCircle
 10
13.6218797546
 20
7.7118238754
 30
0.0
 40
0.0300000000000002
100
AcDbArc
 50
90.0
 51
180.0
  0
CIRCLE
  5
1A6
330
1F
100
AcDbEntity
  8
0
  6
Continuous
 62
     7
370
    25
100
AcDbCircle
 10
15.2168797546
 20
3.5853238754
 30
0.0
 40
0.1004999999999985
  0
CIRCLE
  5
1A7
330
1F
100
AcDbEntity
  8
0
  6
Continuous
 62
     7
370
    25
100
AcDbCircle
 10
15.2168797546
 20
6.8983238754
 30
0.0
 40
0.1004999999999985
  0
LINE
  5
1A8
330
1F
100
AcDbEntity
  8
0
  6
Continuous
 62
     7
370
    25
100
AcDbLine
 10
14.6843797546
 20
5.1754238754
 30
0.0
 11
14.6843797546
 21
5.0504238754
 31
0.0
  0
LINE
  5
1A9
330
1F
100
AcDbEntity
  8
0
  6
Continuous
 62
     7
370
    25
100
AcDbLine
 10
14.6843797546
 20
4.8004238754
 30
0.0
 11
14.6843797546
 21
4.6754238754
 31
0.0
  0
LINE
  5
1AA
330
1F
100
AcDbEntity
  8
0
  6
Continuous
 62
     7
370
    25
100
AcDbLine
 10
14.6843797546
 20
4.9879238754
 30
0.0
 11
14.6843797546
 21
4.8629238754
 31
0.0
  0
LINE
  5
1AB
330
1F
100
AcDbEntity
  8
0
  6
Continuous
 62
     7
370
    25
100
AcDbLine
 10
15.7493797546
 20
5.9254238754
 30
0.0
 11
15.7493797546
 21
5.8004238754
 31
0.0
  0
LINE
  5
1AC
330
1F
100
AcDbEntity
  8
0
  6
Continuous
 62
     7
370
    25
100
AcDbLine
 10
15.7493797546
 20
5.7379238754
 30
0.0
 11
15.7493797546
 21
5.6129238754
 31
0.0
  0
LINE
  5
1AD
330
1F
100
AcDbEntity
  8
0
  6
Continuous
 62
     7
370
    25
100
AcDbLine
 10
14.6843797546
 20
5.3629238754
 30
0.0
 11
14.6843797546
 21
5.2379238754
 31
0.0
  0
LINE
  5
1AE
330
1F
100
AcDbEntity
  8
0
  6
Continuous
 62
     7
370
    25
100
AcDbLine
 10
15.7493797546
 20
5.5504238754
 30
0.0
 11
15.7493797546
 21
5.4254238754
 31
0.0
  0
LINE
  5
1AF
330
1F
100
AcDbEntity
  8
0
  6
Continuous
 62
     7
370
    25
100
AcDbLine
 10
15.7493797546
 20
5.3629238754
 30
0.0
 11
15.7493797546
 21
5.2379238754
 31
0.0
  0
LINE
  5
1B0
330
1F
100
AcDbEntity
  8
0
  6
Continuous
 62
     7
370
    25
100
AcDbLine
 10
15.7493797546
 20
4.9879238754
 30
0.0
 11
15.7493797546
 21
4.8629238754
 31
0.0
  0
LINE
  5
1B1
330
1F
100
AcDbEntity
  8
0
  6
Continuous
 62
     7
370
    25
100
AcDbLine
 10
15.7493797546
 20
4.6129238754
 30
0.0
 11
15.7493797546
 21
4.4879238754
 31
0.0
  0
LINE
  5
1B2
330
1F
100
AcDbEntity
  8
0
  6
Continuous
 62
     7
370
    25
100
AcDbLine
 10
14.6843797546
 20
5.9254238754
 30
0.0
 11
14.6843797546
 21
5.8004238754
 31
0.0
  0
LINE
  5
1B3
330
1F
100
AcDbEntity
  8
0
  6
Continuous
 62
     7
370
    25
100
AcDbLine
 10
14.6843797546
 20
4.6129238754
 30
0.0
 11
14.6843797546
 21
4.4879238754
 31
0.0
  0
LINE
  5
1B4
330
1F
100
AcDbEntity
  8
0
  6
Continuous
 62
     7
370
    25
100
AcDbLine
 10
14.6843797546
 20
5.5504238754
 30
0.0
 11
14.6843797546
 21
5.4254238754
 31
0.0
  0
LINE
  5
1B5
330
1F
100
AcDbEntity
  8
0
  6
Continuous
 62
     7
370
    25
100
AcDbLine
 10
15.7493797546
 20
5.1754238754
 30
0.0
 11
15.7493797546
 21
5.0504238754
 31
0.0
  0
LINE
  5
1B6
330
1F
100
AcDbEntity
  8
0
  6
Continuous
 62
     7
370
    25
100
AcDbLine
 10
15.7493797546
 20
4.8004238754
 30
0.0
 11
15.7493797546
 21
4.6754238754
 31
0.0
  0
LINE
  5
1B7
330
1F
100
AcDbEntity
  8
0
  6
Continuous
 62
     7
370
    25
100
AcDbLine
 10
15.7493797546
 20
4.4254238754
 30
0.0
 11
15.7493797546
 21
4.3004238754
 31
0.0
  0
LINE
  5
1B8
330
1F
100
AcDbEntity
  8
0
  6
Continuous
 62
     7
370
    25
100
AcDbLine
 10
14.6843797546
 20
4.4254238754
 30
0.0
 11
14.6843797546
 21
4.3004238754
 31
0.0
  0
LINE
  5
1B9
330
1F
100
AcDbEntity
  8
0
  6
Continuous
 62
     7
370
    25
100
AcDbLine
 10
14.6843797546
 20
5.7379238754
 30
0.0
 11
14.6843797546
 21
5.6129238754
 31
0.0
  0
DIMENSION
  5
1BA
330
1F
100
AcDbEntity
  8
SLD-0
100
AcDbDimension
  2
_D_4
 10
16.8418797546
 20
8.5292254502
 30
0.0
 11
15.2168797546
 21
8.5292254502
 31
0.0
 70
   160
  1
<>
 71
     2
 42
-1.0
  3
SLDDIMSTYLE1
100
AcDbAlignedDimension
 13
13.5918797546
 23
7.7118238754
 33
0.0
 14
16.8418797546
 24
7.7118238754
 34
0.0
100
AcDbRotatedDimension
  0
DIMENSION
  5
1CE
330
1F
100
AcDbEntity
  8
SLD-0
100
AcDbDimension
  2
_D_5
 10
19.9914860538
 20
2.7418238754
 30
0.0
 11
19.9914860538
 21
5.2418238754
 31
0.0
 70
   160
  1
<>
 71
     2
 42
-1.0
  3
SLDDIMSTYLE3
100
AcDbAlignedDimension
 13
16.8118797546
 23
7.7418238754
 33
0.0
 14
16.8118797546
 24
2.7418238754
 34
0.0
 50
90.0
100
AcDbRotatedDimension
  0
DIMENSION
  5
1E3
330
1F
100
AcDbEntity
  8
SLD-0
100
AcDbDimension
  2
_D_6
 10
18.1017222743
 20
3.5853238754
 30
0.0
 11
18.1017222743
 21
5.2418238754
 31
0.0
 70
   160
  1
<>O.C.
 71
     2
 42
-1.0
  3
SLDDIMSTYLE1
100
AcDbAlignedDimension
 13
15.2168797546
 23
6.8983238754
 33
0.0
 14
15.2168797546
 24
3.5853238754
 34
0.0
 50
90.0
100
AcDbRotatedDimension
  0
ENDSEC
  0
SECTION
  2
OBJECTS
  0
DICTIONARY
  5
C
330
0
100
AcDbDictionary
281
     1
  3
ACAD_GROUP
350
D
  3
ACAD_LAYOUT
350
1A
  3
ACAD_MLINESTYLE
350
17
  3
ACAD_PLOTSETTINGS
350
19
  3
ACAD_PLOTSTYLENAME
350
E
  3
ACAD_SCALELIST
350
47
  3
DWGPROPS
350
1F6
  0
DICTIONARY
  5
D
102
{ACAD_REACTORS
330
C
102
}
330
C
100
AcDbDictionary
281
     1
  0
DICTIONARY
  5
1A
102
{ACAD_REACTORS
330
C
102
}
330
C
100
AcDbDictionary
281
     1
  3
Layout1
350
1E
  3
Layout2
350
26
  3
Model
350
22
  0
DICTIONARY
  5
17
102
{ACAD_REACTORS
330
C
102
}
330
C
100
AcDbDictionary
281
     1
  3
Standard
350
18
  0
DICTIONARY
  5
19
102
{ACAD_REACTORS
330
C
102
}
330
C
100
AcDbDictionary
281
     1
  0
ACDBDICTIONARYWDFLT
  5
E
102
{ACAD_REACTORS
330
C
102
}
330
C
100
AcDbDictionary
281
     1
  3
Normal
350
F
100
AcDbDictionaryWithDefault
340
F
  0
DICTIONARY
  5
47
102
{ACAD_REACTORS
330
C
102
}
330
C
100
AcDbDictionary
281
     1
  3
A0
350
48
  3
A1
350
49
  3
A2
350
4A
  3
A3
350
4B
  3
A4
350
4C
  3
A5
350
4D
  3
A6
350
4E
  3
A7
350
4F
  3
A8
350
50
  3
A9
350
51
  3
B1
350
52
  3
B2
350
53
  3
B3
350
54
  3
B4
350
55
  3
B5
350
56
  3
B6
350
57
  3
B7
350
58
  0
XRECORD
  5
1F6
102
{ACAD_REACTORS
330
C
102
}
330
C
100
AcDbXrecord
280
     1
  1
DWGPROPS COOKIE
  2

  3

  4

  6

  7

  8
alekseyb
  9

300
=
301
=
302
=
303
=
304
=
305
=
306
=
307
=
308
=
309
=
 40
0.0
 41
2460538.426227454
 42
2460538.426227986
  1

 90
        0
  0
LAYOUT
  5
1E
102
{ACAD_REACTORS
330
1A
102
}
330
1A
100
AcDbPlotSettings
  1

  2
none_device
  4

  6

 40
0.0
 41
0.0
 42
0.0
 43
0.0
 44
0.0
 45
0.0
 46
0.0
 47
0.0
 48
0.0
 49
0.0
140
0.0
141
0.0
142
1.0
143
1.0
 70
   688
 72
     0
 73
     0
 74
     5
  7

 75
    16
147
1.0
148
0.0
149
0.0
100
AcDbLayout
  1
Layout1
 70
     1
 71
     1
 10
0.0
 20
0.0
 11
12.0
 21
9.0
 12
0.0
 22
0.0
 32
0.0
 14
1.0000000000E+20
 24
1.0000000000E+20
 34
1.0000000000E+20
 15
-1.0000000000E+20
 25
-1.0000000000E+20
 35
-1.0000000000E+20
146
0.0
 13
0.0
 23
0.0
 33
0.0
 16
1.0
 26
0.0
 36
0.0
 17
0.0
 27
1.0
 37
0.0
 76
     0
330
1B
  0
LAYOUT
  5
26
102
{ACAD_REACTORS
330
1A
102
}
330
1A
100
AcDbPlotSettings
  1

  2
none_device
  4

  6

 40
0.0
 41
0.0
 42
0.0
 43
0.0
 44
0.0
 45
0.0
 46
0.0
 47
0.0
 48
0.0
 49
0.0
140
0.0
141
0.0
142
1.0
143
1.0
 70
   688
 72
     0
 73
     0
 74
     5
  7

 75
    16
147
1.0
148
0.0
149
0.0
100
AcDbLayout
  1
Layout2
 70
     1
 71
     2
 10
0.0
 20
0.0
 11
0.0
 21
0.0
 12
0.0
 22
0.0
 32
0.0
 14
0.0
 24
0.0
 34
0.0
 15
0.0
 25
0.0
 35
0.0
146
0.0
 13
0.0
 23
0.0
 33
0.0
 16
1.0
 26
0.0
 36
0.0
 17
0.0
 27
1.0
 37
0.0
 76
     0
330
23
  0
LAYOUT
  5
22
102
{ACAD_REACTORS
330
1A
102
}
330
1A
100
AcDbPlotSettings
  1

  2
none_device
  4
Letter_(8.50_x_11.00_Inches)
  6

 40
6.35
 41
6.35
 42
6.35000508
 43
6.35000508
 44
215.9
 45
279.4
 46
0.0
 47
0.0
 48
0.0
 49
0.0
140
0.0
141
0.0
142
1.0
143
1.0
 70
  1712
 72
     0
 73
     0
 74
     0
  7

 75
     0
147
1.0
148
0.0
149
0.0
100
AcDbLayout
  1
Model
 70
     1
 71
     0
 10
0.0
 20
0.0
 11
22.0
 21
17.0
 12
0.0
 22
0.0
 32
0.0
 14
0.0
 24
0.0
 34
0.0
 15
22.0
 25
17.0
 35
0.0
146
0.0
 13
0.0
 23
0.0
 33
0.0
 16
1.0
 26
0.0
 36
0.0
 17
0.0
 27
1.0
 37
0.0
 76
     0
330
1F
331
29
  0
MLINESTYLE
  5
18
102
{ACAD_REACTORS
330
17
102
}
330
17
100
AcDbMlineStyle
  2
Standard
 70
     0
  3

 62
   256
 51
90.0
 52
90.0
 71
     2
 49
0.5
 62
   256
  6
BYLAYER
 49
-0.5
 62
   256
  6
BYLAYER
  0
ACDBPLACEHOLDER
  5
F
102
{ACAD_REACTORS
330
E
102
}
330
E
  0
SCALE
  5
48
102
{ACAD_REACTORS
330
47
102
}
330
47
100
AcDbScale
 70
     0
300
1:1
140
1.0
141
1.0
290
     1
  0
SCALE
  5
49
102
{ACAD_REACTORS
330
47
102
}
330
47
100
AcDbScale
 70
     0
300
1/128" = 1'-0"
140
0.0078125
141
12.0
290
     0
  0
SCALE
  5
4A
102
{ACAD_REACTORS
330
47
102
}
330
47
100
AcDbScale
 70
     0
300
1/64" = 1'-0"
140
0.015625
141
12.0
290
     0
  0
SCALE
  5
4B
102
{ACAD_REACTORS
330
47
102
}
330
47
100
AcDbScale
 70
     0
300
1/32" = 1'-0"
140
0.03125
141
12.0
290
     0
  0
SCALE
  5
4C
102
{ACAD_REACTORS
330
47
102
}
330
47
100
AcDbScale
 70
     0
300
1/16" = 1'-0"
140
0.0625
141
12.0
290
     0
  0
SCALE
  5
4D
102
{ACAD_REACTORS
330
47
102
}
330
47
100
AcDbScale
 70
     0
300
3/32" = 1'-0"
140
0.09375
141
12.0
290
     0
  0
SCALE
  5
4E
102
{ACAD_REACTORS
330
47
102
}
330
47
100
AcDbScale
 70
     0
300
1/8" = 1'-0"
140
0.125
141
12.0
290
     0
  0
SCALE
  5
4F
102
{ACAD_REACTORS
330
47
102
}
330
47
100
AcDbScale
 70
     0
300
3/16" = 1'-0"
140
0.1875
141
12.0
290
     0
  0
SCALE
  5
50
102
{ACAD_REACTORS
330
47
102
}
330
47
100
AcDbScale
 70
     0
300
1/4" = 1'-0"
140
0.25
141
12.0
290
     0
  0
SCALE
  5
51
102
{ACAD_REACTORS
330
47
102
}
330
47
100
AcDbScale
 70
     0
300
3/8" = 1'-0"
140
0.375
141
12.0
290
     0
  0
SCALE
  5
52
102
{ACAD_REACTORS
330
47
102
}
330
47
100
AcDbScale
 70
     0
300
1/2" = 1'-0"
140
0.5
141
12.0
290
     0
  0
SCALE
  5
53
102
{ACAD_REACTORS
330
47
102
}
330
47
100
AcDbScale
 70
     0
300
3/4" = 1'-0"
140
0.75
141
12.0
290
     0
  0
SCALE
  5
54
102
{ACAD_REACTORS
330
47
102
}
330
47
100
AcDbScale
 70
     0
300
1" = 1'-0"
140
1.0
141
12.0
290
     0
  0
SCALE
  5
55
102
{ACAD_REACTORS
330
47
102
}
330
47
100
AcDbScale
 70
     0
300
1-1/2" = 1'-0"
140
1.5
141
12.0
290
     0
  0
SCALE
  5
56
102
{ACAD_REACTORS
330
47
102
}
330
47
100
AcDbScale
 70
     0
300
3" = 1'-0"
140
3.0
141
12.0
290
     0
  0
SCALE
  5
57
102
{ACAD_REACTORS
330
47
102
}
330
47
100
AcDbScale
 70
     0
300
6" = 1'-0"
140
6.0
141
12.0
290
     0
  0
SCALE
  5
58
102
{ACAD_REACTORS
330
47
102
}
330
47
100
AcDbScale
 70
     0
300
1'-0" = 1'-0"
140
12.0
141
12.0
290
     0
  0
ENDSEC
  0
EOF
