  0
SECTION
  2
HEADER
  9
$ACADVER
  1
AC1015
  9
$ACADMAINTVER
 70
     6
  9
$DWGCODEPAGE
  3
ANSI_1252
  9
$INSBASE
 10
0.0
 20
0.0
 30
0.0
  9
$EXTMIN
 10
0.0
 20
0.0
 30
0.0
  9
$EXTMAX
 10
22.0
 20
17.0
 30
0.0
  9
$LIMMIN
 10
0.0
 20
0.0
  9
$LIMMAX
 10
22.0
 20
17.0
  9
$ORTHOMODE
 70
     0
  9
$REGENMODE
 70
     1
  9
$FILLMODE
 70
     1
  9
$QTEXTMODE
 70
     0
  9
$MIRRTEXT
 70
     1
  9
$LTSCALE
 40
2.0
  9
$ATTMODE
 70
     1
  9
$TEXTSIZE
 40
0.25
  9
$TRACEWID
 40
0.05
  9
$TEXTSTYLE
  7
Standard
  9
$CLAYER
  8
0
  9
$CELTYPE
  6
ByLayer
  9
$CECOLOR
 62
   256
  9
$CELTSCALE
 40
1.0
  9
$DISPSILH
 70
     0
  9
$DIMSCALE
 40
1.0
  9
$DIMASZ
 40
0.26
  9
$DIMEXO
 40
0.1
  9
$DIMDLI
 40
0.38
  9
$DIMRND
 40
0.0
  9
$DIMDLE
 40
0.0
  9
$DIMEXE
 40
0.25
  9
$DIMTP
 40
0.0
  9
$DIMTM
 40
0.0
  9
$DIMTXT
 40
0.25
  9
$DIMCEN
 40
0.09
  9
$DIMTSZ
 40
0.0
  9
$DIMTOL
 70
     0
  9
$DIMLIM
 70
     0
  9
$DIMTIH
 70
     1
  9
$DIMTOH
 70
     1
  9
$DIMSE1
 70
     0
  9
$DIMSE2
 70
     0
  9
$DIMTAD
 70
     0
  9
$DIMZIN
 70
     1
  9
$DIMBLK
  1

  9
$DIMASO
 70
     1
  9
$DIMSHO
 70
     1
  9
$DIMPOST
  1

  9
$DIMAPOST
  1

  9
$DIMALT
 70
     0
  9
$DIMALTD
 70
     2
  9
$DIMALTF
 40
25.4
  9
$DIMLFAC
 40
1.0
  9
$DIMTOFL
 70
     0
  9
$DIMTVP
 40
0.0
  9
$DIMTIX
 70
     0
  9
$DIMSOXD
 70
     0
  9
$DIMSAH
 70
     0
  9
$DIMBLK1
  1

  9
$DIMBLK2
  1

  9
$DIMSTYLE
  2
Standard
  9
$DIMCLRD
 70
     0
  9
$DIMCLRE
 70
     0
  9
$DIMCLRT
 70
     0
  9
$DIMTFAC
 40
1.0
  9
$DIMGAP
 40
0.12
  9
$DIMJUST
 70
     0
  9
$DIMSD1
 70
     0
  9
$DIMSD2
 70
     0
  9
$DIMTOLJ
 70
     1
  9
$DIMTZIN
 70
     1
  9
$DIMALTZ
 70
     0
  9
$DIMALTTZ
 70
     0
  9
$DIMUPT
 70
     0
  9
$DIMDEC
 70
     0
  9
$DIMTDEC
 70
     0
  9
$DIMALTU
 70
     2
  9
$DIMALTTD
 70
     2
  9
$DIMTXSTY
  7
Standard
  9
$DIMAUNIT
 70
     0
  9
$DIMADEC
 70
     0
  9
$DIMALTRND
 40
0.0
  9
$DIMAZIN
 70
     0
  9
$DIMDSEP
 70
    46
  9
$DIMATFIT
 70
     3
  9
$DIMFRAC
 70
     0
  9
$DIMLDRBLK
  1

  9
$DIMLUNIT
 70
     2
  9
$DIMLWD
 70
    -2
  9
$DIMLWE
 70
    -2
  9
$DIMTMOVE
 70
     0
  9
$LUNITS
 70
     2
  9
$LUPREC
 70
     6
  9
$SKETCHINC
 40
0.1
  9
$FILLETRAD
 40
0.0
  9
$AUNITS
 70
     0
  9
$AUPREC
 70
     2
  9
$MENU
  1
.
  9
$ELEVATION
 40
0.0
  9
$PELEVATION
 40
0.0
  9
$THICKNESS
 40
0.0
  9
$LIMCHECK
 70
     0
  9
$CHAMFERA
 40
0.0
  9
$CHAMFERB
 40
0.0
  9
$CHAMFERC
 40
0.0
  9
$CHAMFERD
 40
0.0
  9
$SKPOLY
 70
     0
  9
$TDCREATE
 40
2460629.450704352
  9
$TDUCREATE
 40
2460629.784037685
  9
$TDUPDATE
 40
2460629.450705151
  9
$TDUUPDATE
 40
2460629.784038484
  9
$TDINDWG
 40
0.0000000116
  9
$TDUSRTIMER
 40
0.0000000116
  9
$USRTIMER
 70
     1
  9
$ANGBASE
 50
0.0
  9
$ANGDIR
 70
     0
  9
$PDMODE
 70
     0
  9
$PDSIZE
 40
-1.0
  9
$PLINEWID
 40
0.0
  9
$SPLFRAME
 70
     0
  9
$SPLINETYPE
 70
     6
  9
$SPLINESEGS
 70
     8
  9
$HANDSEED
  5
223
  9
$SURFTAB1
 70
     6
  9
$SURFTAB2
 70
     6
  9
$SURFTYPE
 70
     6
  9
$SURFU
 70
     6
  9
$SURFV
 70
     6
  9
$UCSBASE
  2

  9
$UCSNAME
  2

  9
$UCSORG
 10
0.0
 20
0.0
 30
0.0
  9
$UCSXDIR
 10
1.0
 20
0.0
 30
0.0
  9
$UCSYDIR
 10
0.0
 20
1.0
 30
0.0
  9
$UCSORTHOREF
  2

  9
$UCSORTHOVIEW
 70
     0
  9
$UCSORGTOP
 10
0.0
 20
0.0
 30
0.0
  9
$UCSORGBOTTOM
 10
0.0
 20
0.0
 30
0.0
  9
$UCSORGLEFT
 10
0.0
 20
0.0
 30
0.0
  9
$UCSORGRIGHT
 10
0.0
 20
0.0
 30
0.0
  9
$UCSORGFRONT
 10
0.0
 20
0.0
 30
0.0
  9
$UCSORGBACK
 10
0.0
 20
0.0
 30
0.0
  9
$PUCSBASE
  2

  9
$PUCSNAME
  2

  9
$PUCSORG
 10
0.0
 20
0.0
 30
0.0
  9
$PUCSXDIR
 10
1.0
 20
0.0
 30
0.0
  9
$PUCSYDIR
 10
0.0
 20
1.0
 30
0.0
  9
$PUCSORTHOREF
  2

  9
$PUCSORTHOVIEW
 70
     0
  9
$PUCSORGTOP
 10
0.0
 20
0.0
 30
0.0
  9
$PUCSORGBOTTOM
 10
0.0
 20
0.0
 30
0.0
  9
$PUCSORGLEFT
 10
0.0
 20
0.0
 30
0.0
  9
$PUCSORGRIGHT
 10
0.0
 20
0.0
 30
0.0
  9
$PUCSORGFRONT
 10
0.0
 20
0.0
 30
0.0
  9
$PUCSORGBACK
 10
0.0
 20
0.0
 30
0.0
  9
$USERI1
 70
     0
  9
$USERI2
 70
     0
  9
$USERI3
 70
     0
  9
$USERI4
 70
     0
  9
$USERI5
 70
     0
  9
$USERR1
 40
0.0
  9
$USERR2
 40
0.0
  9
$USERR3
 40
0.0
  9
$USERR4
 40
0.0
  9
$USERR5
 40
0.0
  9
$WORLDVIEW
 70
     1
  9
$SHADEDGE
 70
     3
  9
$SHADEDIF
 70
    70
  9
$TILEMODE
 70
     1
  9
$MAXACTVP
 70
    64
  9
$PINSBASE
 10
0.0
 20
0.0
 30
0.0
  9
$PLIMCHECK
 70
     0
  9
$PEXTMIN
 10
1.0000000000E+20
 20
1.0000000000E+20
 30
1.0000000000E+20
  9
$PEXTMAX
 10
-1.0000000000E+20
 20
-1.0000000000E+20
 30
-1.0000000000E+20
  9
$PLIMMIN
 10
0.0
 20
0.0
  9
$PLIMMAX
 10
12.0
 20
9.0
  9
$UNITMODE
 70
     0
  9
$VISRETAIN
 70
     1
  9
$PLINEGEN
 70
     0
  9
$PSLTSCALE
 70
     1
  9
$TREEDEPTH
 70
  3020
  9
$CMLSTYLE
  2
Standard
  9
$CMLJUST
 70
     0
  9
$CMLSCALE
 40
1.0
  9
$PROXYGRAPHICS
 70
     1
  9
$MEASUREMENT
 70
     0
  9
$CELWEIGHT
370
    -1
  9
$ENDCAPS
280
     0
  9
$JOINSTYLE
280
     0
  9
$LWDISPLAY
290
     1
  9
$INSUNITS
 70
     1
  9
$HYPERLINKBASE
  1

  9
$STYLESHEET
  1

  9
$XEDIT
290
     1
  9
$CEPSNTYPE
380
     0
  9
$PSTYLEMODE
290
     1
  9
$FINGERPRINTGUID
  2
{9cc62061-5f78-4c31-993b-bb99056936d5}
  9
$VERSIONGUID
  2
{FAEB1C32-E019-11D5-929B-00C0DF256EC4}
  9
$EXTNAMES
290
     1
  9
$PSVPSCALE
 40
0.0
  9
$OLESTARTUP
290
     0
  0
ENDSEC
  0
SECTION
  2
CLASSES
  0
CLASS
  1
ACDBDICTIONARYWDFLT
  2
AcDbDictionaryWithDefault
  3
ObjectDBX Classes
 90
        0
280
     0
281
     0
  0
CLASS
  1
VISUALSTYLE
  2
AcDbVisualStyle
  3
ObjectDBX Classes
 90
     4095
280
     0
281
     0
  0
CLASS
  1
MATERIAL
  2
AcDbMaterial
  3
ObjectDBX Classes
 90
     1153
280
     0
281
     0
  0
CLASS
  1
SCALE
  2
AcDbScale
  3
ObjectDBX Classes
 90
     1153
280
     0
281
     0
  0
CLASS
  1
TABLESTYLE
  2
AcDbTableStyle
  3
ObjectDBX Classes
 90
     4095
280
     0
281
     0
  0
CLASS
  1
MLEADERSTYLE
  2
AcDbMLeaderStyle
  3
ACDB_MLEADERSTYLE_CLASS
 90
     4095
280
     0
281
     0
  0
CLASS
  1
SUN
  2
AcDbSun
  3
SCENEOE
 90
     1153
280
     0
281
     0
  0
CLASS
  1
ACDBPLACEHOLDER
  2
AcDbPlaceHolder
  3
ObjectDBX Classes
 90
        0
280
     0
281
     0
  0
CLASS
  1
LAYOUT
  2
AcDbLayout
  3
ObjectDBX Classes
 90
        0
280
     0
281
     0
  0
ENDSEC
  0
SECTION
  2
TABLES
  0
TABLE
  2
VPORT
  5
8
330
0
100
AcDbSymbolTable
 70
     1
  0
VPORT
  5
29
330
8
100
AcDbSymbolTableRecord
100
AcDbViewportTableRecord
  2
*Active
 70
     0
 10
0.0
 20
0.0
 11
1.0
 21
1.0
 12
11.0
 22
8.5
 13
0.0
 23
0.0
 14
0.5
 24
0.5
 15
0.5
 25
0.5
 16
0.0
 26
0.0
 36
1.0
 17
0.0
 27
0.0
 37
0.0
 40
17.0
 41
1.2941176471
 42
50.0
 43
0.0
 44
0.0
 50
0.0
 51
0.0
 71
     0
 72
  2000
 73
     1
 74
     3
 75
     0
 76
     0
 77
     0
 78
     0
281
     0
 65
     1
110
0.0
120
0.0
130
0.0
111
1.0
121
0.0
131
0.0
112
0.0
122
1.0
132
0.0
 79
     0
146
0.0
  0
ENDTAB
  0
TABLE
  2
LTYPE
  5
5
330
0
100
AcDbSymbolTable
 70
     6
  0
LTYPE
  5
14
330
5
100
AcDbSymbolTableRecord
100
AcDbLinetypeTableRecord
  2
ByBlock
 70
     0
  3

 72
    65
 73
     0
 40
0.0
  0
LTYPE
  5
15
330
5
100
AcDbSymbolTableRecord
100
AcDbLinetypeTableRecord
  2
ByLayer
 70
     0
  3

 72
    65
 73
     0
 40
0.0
  0
LTYPE
  5
16
330
5
100
AcDbSymbolTableRecord
100
AcDbLinetypeTableRecord
  2
Continuous
 70
     0
  3
Solid line
 72
    65
 73
     0
 40
0.0
  0
LTYPE
  5
5E
330
5
100
AcDbSymbolTableRecord
100
AcDbLinetypeTableRecord
  2
HIDDEN
 70
     0
  3
Hidden __ __ __ __ __ __ __ __ __ __ __ __ __ __
 72
    65
 73
     2
 40
0.075
 49
0.05
 74
     0
 49
-0.025
 74
     0
  0
LTYPE
  5
5F
330
5
100
AcDbSymbolTableRecord
100
AcDbLinetypeTableRecord
  2
PHANTOM
 70
     0
  3
Phantom ______  __  __  ______  __  __  ______
 72
    65
 73
     6
 40
0.5
 49
0.25
 74
     0
 49
-0.05
 74
     0
 49
0.05
 74
     0
 49
-0.05
 74
     0
 49
0.05
 74
     0
 49
-0.05
 74
     0
  0
LTYPE
  5
60
330
5
100
AcDbSymbolTableRecord
100
AcDbLinetypeTableRecord
  2
CENTER
 70
     0
  3
Center ____ _ ____ _ ____ _ ____ _ ____ _ ____
 72
    65
 73
     4
 40
0.4
 49
0.25
 74
     0
 49
-0.05
 74
     0
 49
0.05
 74
     0
 49
-0.05
 74
     0
  0
LTYPE
  5
61
330
5
100
AcDbSymbolTableRecord
100
AcDbLinetypeTableRecord
  2
CENTERX2
 70
     0
  3
Center (2x) ________  __  ________  __  _____
 72
    65
 73
     4
 40
0.8
 49
0.5
 74
     0
 49
-0.1
 74
     0
 49
0.1
 74
     0
 49
-0.1
 74
     0
  0
LTYPE
  5
62
330
5
100
AcDbSymbolTableRecord
100
AcDbLinetypeTableRecord
  2
DOT2
 70
     0
  3
Dot (.5x) ........................................
 72
    65
 73
     2
 40
0.025
 49
0.0
 74
     0
 49
-0.025
 74
     0
  0
ENDTAB
  0
TABLE
  2
LAYER
  5
2
330
0
100
AcDbSymbolTable
 70
    12
  0
LAYER
  5
10
330
2
100
AcDbSymbolTableRecord
100
AcDbLayerTableRecord
  2
0
 70
     0
 62
     7
  6
Continuous
370
    -3
390
F
  0
LAYER
  5
63
330
2
100
AcDbSymbolTableRecord
100
AcDbLayerTableRecord
  2
SLD-0
 70
     0
 62
     7
  6
Continuous
370
    -3
390
F
  0
LAYER
  5
64
330
2
100
AcDbSymbolTableRecord
100
AcDbLayerTableRecord
  2
DIM
 70
     0
 62
     7
  6
Continuous
370
    -3
390
F
  0
LAYER
  5
65
330
2
100
AcDbSymbolTableRecord
100
AcDbLayerTableRecord
  2
CEN
 70
     0
 62
     1
  6
CENTER
370
    -3
390
F
  0
LAYER
  5
66
330
2
100
AcDbSymbolTableRecord
100
AcDbLayerTableRecord
  2
HAT
 70
     0
 62
     4
  6
Continuous
370
    -3
390
F
  0
LAYER
  5
67
330
2
100
AcDbSymbolTableRecord
100
AcDbLayerTableRecord
  2
OBJ
 70
     0
 62
     5
  6
Continuous
370
    -3
390
F
  0
LAYER
  5
68
330
2
100
AcDbSymbolTableRecord
100
AcDbLayerTableRecord
  2
SLD-DEFPOINTS
 70
     0
 62
     7
  6
Continuous
370
    -3
390
F
  0
LAYER
  5
69
330
2
100
AcDbSymbolTableRecord
100
AcDbLayerTableRecord
  2
HID
 70
     0
 62
     4
  6
HIDDEN
370
    -3
390
F
  0
LAYER
  5
6A
330
2
100
AcDbSymbolTableRecord
100
AcDbLayerTableRecord
  2
NOTE
 70
     0
 62
     7
  6
Continuous
370
    -3
390
F
  0
LAYER
  5
6B
330
2
100
AcDbSymbolTableRecord
100
AcDbLayerTableRecord
  2
VP
 70
     0
 62
    -5
  6
Continuous
290
     0
370
    -3
390
F
  0
LAYER
  5
6C
330
2
100
AcDbSymbolTableRecord
100
AcDbLayerTableRecord
  2
TITLE
 70
     0
 62
     7
  6
Continuous
370
    -3
390
F
  0
LAYER
  5
6D
330
2
100
AcDbSymbolTableRecord
100
AcDbLayerTableRecord
  2
THICK_TITLE
 70
     0
 62
     7
  6
Continuous
370
   100
390
F
  0
ENDTAB
  0
TABLE
  2
STYLE
  5
3
330
0
100
AcDbSymbolTable
 70
     2
  0
STYLE
  5
11
330
3
100
AcDbSymbolTableRecord
100
AcDbTextStyleTableRecord
  2
Standard
 70
     0
 40
0.0
 41
1.0
 50
0.0
 71
     0
 42
0.25
  3
txt
  4

  0
STYLE
  5
74
330
3
100
AcDbSymbolTableRecord
100
AcDbTextStyleTableRecord
  2
SLDTEXTSTYLE0
 70
     0
 40
0.0
 41
0.75
 50
0.0
 71
     0
 42
0.25
  3
TXT
  4

  0
ENDTAB
  0
TABLE
  2
VIEW
  5
6
330
0
100
AcDbSymbolTable
 70
     0
  0
ENDTAB
  0
TABLE
  2
UCS
  5
7
330
0
100
AcDbSymbolTable
 70
     0
  0
ENDTAB
  0
TABLE
  2
APPID
  5
9
330
0
100
AcDbSymbolTable
 70
     1
  0
APPID
  5
12
330
9
100
AcDbSymbolTableRecord
100
AcDbRegAppTableRecord
  2
ACAD
 70
     0
  0
ENDTAB
  0
TABLE
  2
DIMSTYLE
  5
A
330
0
100
AcDbSymbolTable
 70
     6
100
AcDbDimStyleTable
  0
DIMSTYLE
105
27
330
A
100
AcDbSymbolTableRecord
100
AcDbDimStyleTableRecord
  2
Standard
 70
     0
178
     0
340
11
  0
DIMSTYLE
105
D7
102
{ACAD_REACTORS
330
D6
330
EC
102
}
330
A
100
AcDbSymbolTableRecord
100
AcDbDimStyleTableRecord
  2
SLDDIMSTYLE0
 70
     0
 41
0.26
 44
0.0
 45
0.000000001
 78
    12
 79
     3
140
0.25
147
0.0625
148
0.000000001
170
     1
173
     1
178
     0
271
     6
272
     0
276
     2
277
     5
284
    12
340
74
  0
DIMSTYLE
105
100
102
{ACAD_REACTORS
330
FF
102
}
330
A
100
AcDbSymbolTableRecord
100
AcDbDimStyleTableRecord
  2
SLDDIMSTYLE1
 70
     0
 41
0.26
 44
0.0
 45
0.000000001
 78
    12
 79
     3
140
0.25
147
0.0625
148
0.000000001
170
     1
172
     1
173
     1
178
     0
271
     6
272
     0
276
     2
277
     5
284
    12
289
     0
340
74
  0
DIMSTYLE
105
162
102
{ACAD_REACTORS
330
161
330
1AB
102
}
330
A
100
AcDbSymbolTableRecord
100
AcDbDimStyleTableRecord
  2
SLDDIMSTYLE2
 70
     0
 41
0.26
 44
0.0
 45
0.000000001
 78
    12
 79
     3
140
0.25
144
2.0
147
0.0625
148
0.000000001
170
     1
172
     1
173
     1
178
     0
271
     6
272
     0
276
     2
277
     5
284
    12
289
     0
340
74
  0
DIMSTYLE
105
177
102
{ACAD_REACTORS
330
176
330
1BF
102
}
330
A
100
AcDbSymbolTableRecord
100
AcDbDimStyleTableRecord
  2
SLDDIMSTYLE3
 70
     0
 41
0.26
 44
0.0
 45
0.000000001
 78
    12
 79
     3
140
0.25
141
0.0
144
2.0
147
0.0625
148
0.000000001
170
     1
173
     1
178
     0
271
     0
272
     0
276
     2
277
     5
284
    12
340
74
  0
DIMSTYLE
105
1EB
102
{ACAD_REACTORS
330
1EA
330
217
102
}
330
A
100
AcDbSymbolTableRecord
100
AcDbDimStyleTableRecord
  2
SLDDIMSTYLE4
 70
     0
 41
0.26
 44
0.0
 78
    12
 79
     3
140
0.25
144
4.0
147
0.0625
148
0.000000001
170
     1
173
     1
178
     0
179
     2
272
     2
276
     2
277
     5
284
    12
340
74
  0
ENDTAB
  0
TABLE
  2
BLOCK_RECORD
  5
1
330
0
100
AcDbSymbolTable
 70
    14
  0
BLOCK_RECORD
  5
1F
330
1
100
AcDbSymbolTableRecord
100
AcDbBlockTableRecord
  2
*Model_Space
340
22
  0
BLOCK_RECORD
  5
1B
330
1
100
AcDbSymbolTableRecord
100
AcDbBlockTableRecord
  2
*Paper_Space
340
1E
  0
BLOCK_RECORD
  5
23
330
1
100
AcDbSymbolTableRecord
100
AcDbBlockTableRecord
  2
*Paper_Space0
340
26
  0
BLOCK_RECORD
  5
6E
330
1
100
AcDbSymbolTableRecord
100
AcDbBlockTableRecord
  2
Block1
340
0
102
{BLKREFS
331
160
102
}
  0
BLOCK_RECORD
  5
71
330
1
100
AcDbSymbolTableRecord
100
AcDbBlockTableRecord
  2
SW_NOTE_0
340
0
102
{BLKREFS
331
76
102
}
  0
BLOCK_RECORD
  5
77
330
1
100
AcDbSymbolTableRecord
100
AcDbBlockTableRecord
  2
Block2
340
0
102
{BLKREFS
331
1AA
102
}
  0
BLOCK_RECORD
  5
7A
330
1
100
AcDbSymbolTableRecord
100
AcDbBlockTableRecord
  2
SW_NOTE_0_1
340
0
102
{BLKREFS
331
7E
102
}
  0
BLOCK_RECORD
  5
D8
330
1
100
AcDbSymbolTableRecord
100
AcDbBlockTableRecord
  2
_D
340
0
  0
BLOCK_RECORD
  5
ED
330
1
100
AcDbSymbolTableRecord
100
AcDbBlockTableRecord
  2
_D_1
340
0
  0
BLOCK_RECORD
  5
101
330
1
100
AcDbSymbolTableRecord
100
AcDbBlockTableRecord
  2
_D_2
340
0
  0
BLOCK_RECORD
  5
163
330
1
100
AcDbSymbolTableRecord
100
AcDbBlockTableRecord
  2
_D_3
340
0
  0
BLOCK_RECORD
  5
178
330
1
100
AcDbSymbolTableRecord
100
AcDbBlockTableRecord
  2
_D_4
340
0
  0
BLOCK_RECORD
  5
1AC
330
1
100
AcDbSymbolTableRecord
100
AcDbBlockTableRecord
  2
_D_5
340
0
  0
BLOCK_RECORD
  5
1C0
330
1
100
AcDbSymbolTableRecord
100
AcDbBlockTableRecord
  2
_D_6
340
0
  0
BLOCK_RECORD
  5
1EC
330
1
100
AcDbSymbolTableRecord
100
AcDbBlockTableRecord
  2
_D_7
340
0
  0
BLOCK_RECORD
  5
218
330
1
100
AcDbSymbolTableRecord
100
AcDbBlockTableRecord
  2
_D_8
340
0
  0
ENDTAB
  0
ENDSEC
  0
SECTION
  2
BLOCKS
  0
BLOCK
  5
20
330
1F
100
AcDbEntity
  8
0
100
AcDbBlockBegin
  2
*Model_Space
 70
     0
 10
0.0
 20
0.0
 30
0.0
  3
*Model_Space
  1

  0
ENDBLK
  5
21
330
1F
100
AcDbEntity
  8
0
100
AcDbBlockEnd
  0
BLOCK
  5
1C
330
1B
100
AcDbEntity
 67
     1
  8
0
100
AcDbBlockBegin
  2
*Paper_Space
 70
     0
 10
0.0
 20
0.0
 30
0.0
  3
*Paper_Space
  1

  0
ENDBLK
  5
1D
330
1B
100
AcDbEntity
 67
     1
  8
0
100
AcDbBlockEnd
  0
BLOCK
  5
24
330
23
100
AcDbEntity
  8
0
100
AcDbBlockBegin
  2
*Paper_Space0
 70
     0
 10
0.0
 20
0.0
 30
0.0
  3
*Paper_Space0
  1

  0
ENDBLK
  5
25
330
23
100
AcDbEntity
  8
0
100
AcDbBlockEnd
  0
BLOCK
  5
6F
330
6E
100
AcDbEntity
  8
0
100
AcDbBlockBegin
  2
Block1
 70
     0
 10
0.0
 20
0.0
 30
0.0
  3
Block1
  1

  0
INSERT
  5
76
330
6E
100
AcDbEntity
  8
0
  6
Continuous
 62
     7
370
     0
100
AcDbBlockReference
  2
SW_NOTE_0
 10
-0.5556018056
 20
-0.0347641935
 30
0.0
  0
ENDBLK
  5
70
330
6E
100
AcDbEntity
  8
0
100
AcDbBlockEnd
  0
BLOCK
  5
72
330
71
100
AcDbEntity
  8
0
100
AcDbBlockBegin
  2
SW_NOTE_0
 70
     0
 10
0.0
 20
0.0
 30
0.0
  3
SW_NOTE_0
  1

  0
MTEXT
  5
75
330
71
100
AcDbEntity
  8
0
  6
Continuous
 62
     0
370
     0
100
AcDbMText
 10
1.69921875
 20
0.5371115582
 30
0.0
 40
0.4166666667
 41
0.0
 71
     2
 72
     1
  1
FACEPLATE A
  7
SLDTEXTSTYLE0
 73
     1
 44
1.0
  0
ENDBLK
  5
73
330
71
100
AcDbEntity
  8
0
100
AcDbBlockEnd
  0
BLOCK
  5
78
330
77
100
AcDbEntity
  8
0
100
AcDbBlockBegin
  2
Block2
 70
     0
 10
0.0
 20
0.0
 30
0.0
  3
Block2
  1

  0
INSERT
  5
7E
330
77
100
AcDbEntity
  8
0
  6
Continuous
 62
     7
370
     0
100
AcDbBlockReference
  2
SW_NOTE_0_1
 10
-0.6061215252
 20
0.5683615613
 30
0.0
  0
ENDBLK
  5
79
330
77
100
AcDbEntity
  8
0
100
AcDbBlockEnd
  0
BLOCK
  5
7B
330
7A
100
AcDbEntity
  8
0
100
AcDbBlockBegin
  2
SW_NOTE_0_1
 70
     0
 10
0.0
 20
0.0
 30
0.0
  3
SW_NOTE_0_1
  1

  0
MTEXT
  5
7D
330
7A
100
AcDbEntity
  8
0
  6
Continuous
 62
     0
370
     0
100
AcDbMText
 10
1.6666666667
 20
0.5371115582
 30
0.0
 40
0.4166666667
 41
0.0
 71
     2
 72
     1
  1
FACEPLATE B
  7
SLDTEXTSTYLE0
 73
     1
 44
1.0
  0
ENDBLK
  5
7C
330
7A
100
AcDbEntity
  8
0
100
AcDbBlockEnd
  0
BLOCK
  5
D9
330
D8
100
AcDbEntity
  8
0
100
AcDbBlockBegin
  2
_D
 70
     0
 10
0.0
 20
0.0
 30
0.0
  3
_D
  1

  0
SOLID
  5
DB
330
D8
100
AcDbEntity
  8
0
  6
Continuous
 62
     7
370
    18
100
AcDbTrace
 10
5.5036227885
 20
13.4731579271
 30
0.0
 11
5.7636227885
 21
13.4331579271
 31
0.0
 12
5.7636227885
 22
13.5131579271
 32
0.0
 13
5.7636227885
 23
13.5131579271
 33
0.0
  0
SOLID
  5
DC
330
D8
100
AcDbEntity
  8
0
  6
Continuous
 62
     7
370
    18
100
AcDbTrace
 10
9.2341227885
 20
13.4731579271
 30
0.0
 11
8.9741227885
 21
13.5131579271
 31
0.0
 12
8.9741227885
 22
13.4331579271
 32
0.0
 13
8.9741227885
 23
13.4331579271
 33
0.0
  0
LINE
  5
DD
330
D8
100
AcDbEntity
  8
0
  6
Continuous
 62
     7
370
     0
100
AcDbLine
 10
6.8716505924
 20
13.4712481658
 30
0.0
 11
6.7954787182
 21
13.4712481658
 31
0.0
  0
LINE
  5
DE
330
D8
100
AcDbEntity
  8
0
  6
Continuous
 62
     7
370
     0
100
AcDbLine
 10
6.7954787182
 20
13.4712481658
 30
0.0
 11
6.7954787182
 21
13.0743731539
 31
0.0
  0
LINE
  5
DF
330
D8
100
AcDbEntity
  8
0
  6
Continuous
 62
     7
370
     0
100
AcDbLine
 10
6.7954787182
 20
13.0743731539
 30
0.0
 11
6.8716505924
 21
13.0743731539
 31
0.0
  0
LINE
  5
E0
330
D8
100
AcDbEntity
  8
0
  6
Continuous
 62
     7
370
     0
100
AcDbLine
 10
7.8660950579
 20
13.4712481658
 30
0.0
 11
7.9422669321
 21
13.4712481658
 31
0.0
  0
LINE
  5
E1
330
D8
100
AcDbEntity
  8
0
  6
Continuous
 62
     7
370
     0
100
AcDbLine
 10
7.9422669321
 20
13.4712481658
 30
0.0
 11
7.9422669321
 21
13.0743731539
 31
0.0
  0
LINE
  5
E2
330
D8
100
AcDbEntity
  8
0
  6
Continuous
 62
     7
370
     0
100
AcDbLine
 10
7.9422669321
 20
13.0743731539
 30
0.0
 11
7.8660950579
 21
13.0743731539
 31
0.0
  0
LINE
  5
E3
330
D8
100
AcDbEntity
  8
0
  6
Continuous
 62
     7
370
     0
100
AcDbLine
 10
5.5036227885
 20
10.5520063523
 30
0.0
 11
5.5036227885
 21
11.2207563523
 31
0.0
  0
LINE
  5
E4
330
D8
100
AcDbEntity
  8
0
  6
Continuous
 62
     7
370
     0
100
AcDbLine
 10
5.5036227885
 20
11.3407563523
 30
0.0
 11
5.5036227885
 21
13.7231579271
 31
0.0
  0
LINE
  5
E5
330
D8
100
AcDbEntity
  8
0
  6
Continuous
 62
     7
370
     0
100
AcDbLine
 10
9.2341227885
 20
12.7557563523
 30
0.0
 11
9.2341227885
 21
13.7231579271
 31
0.0
  0
LINE
  5
E6
330
D8
100
AcDbEntity
  8
0
  6
Continuous
 62
     7
370
     0
100
AcDbLine
 10
5.5036227885
 20
13.4731579271
 30
0.0
 11
6.5762122488
 21
13.4731579271
 31
0.0
  0
LINE
  5
E7
330
D8
100
AcDbEntity
  8
0
  6
Continuous
 62
     7
370
     0
100
AcDbLine
 10
9.2341227885
 20
13.4731579271
 30
0.0
 11
8.1615333282
 21
13.4731579271
 31
0.0
  0
MTEXT
  5
E8
330
D8
100
AcDbEntity
  8
0
  6
Continuous
 62
     7
370
    18
100
AcDbMText
 10
6.7206957326
 20
13.8481158208
 30
0.0
 40
0.25
 41
0.0
 71
     1
 72
     1
  1

  7
SLDTEXTSTYLE0
 73
     1
 44
1.0
  0
MTEXT
  5
E9
330
D8
100
AcDbEntity
  8
0
  6
Continuous
 62
     7
370
    18
100
AcDbMText
 10
6.9211297625
 20
13.8442963579
 30
0.0
 40
0.25
 41
0.0
 71
     1
 72
     1
  1
3 3/4"
  7
SLDTEXTSTYLE0
 73
     1
 44
1.0
  0
MTEXT
  5
EA
330
D8
100
AcDbEntity
  8
0
  6
Continuous
 62
     7
370
    18
100
AcDbMText
 10
6.8716505924
 20
13.3966401163
 30
0.0
 40
0.25
 41
0.0
 71
     1
 72
     1
  1
95mm
  7
SLDTEXTSTYLE0
 73
     1
 44
1.0
  0
MTEXT
  5
EB
330
D8
100
AcDbEntity
  8
0
  6
Continuous
 62
     7
370
    18
100
AcDbMText
 10
8.1121887513
 20
13.8481158208
 30
0.0
 40
0.25
 41
0.0
 71
     1
 72
     1
  1

  7
SLDTEXTSTYLE0
 73
     1
 44
1.0
  0
ENDBLK
  5
DA
330
D8
100
AcDbEntity
  8
0
100
AcDbBlockEnd
  0
BLOCK
  5
EE
330
ED
100
AcDbEntity
  8
0
100
AcDbBlockBegin
  2
_D_1
 70
     0
 10
0.0
 20
0.0
 30
0.0
  3
_D_1
  1

  0
SOLID
  5
F0
330
ED
100
AcDbEntity
  8
0
  6
Continuous
 62
     7
370
    18
100
AcDbTrace
 10
1.9180204263
 20
11.2807563523
 30
0.0
 11
1.8780204263
 21
11.0207563523
 31
0.0
 12
1.9580204263
 22
11.0207563523
 32
0.0
 13
1.9580204263
 23
11.0207563523
 33
0.0
  0
SOLID
  5
F1
330
ED
100
AcDbEntity
  8
0
  6
Continuous
 62
     7
370
    18
100
AcDbTrace
 10
1.9180204263
 20
9.0607563523
 30
0.0
 11
1.9580204263
 21
9.3207563523
 31
0.0
 12
1.8780204263
 22
9.3207563523
 32
0.0
 13
1.8780204263
 23
9.3207563523
 33
0.0
  0
LINE
  5
F2
330
ED
100
AcDbEntity
  8
0
  6
Continuous
 62
     7
370
     0
100
AcDbLine
 10
1.4207982119
 20
10.1707563156
 30
0.0
 11
1.3446263377
 21
10.1707563156
 31
0.0
  0
LINE
  5
F3
330
ED
100
AcDbEntity
  8
0
  6
Continuous
 62
     7
370
     0
100
AcDbLine
 10
1.3446263377
 20
10.1707563156
 30
0.0
 11
1.3446263377
 21
9.7738813037
 31
0.0
  0
LINE
  5
F4
330
ED
100
AcDbEntity
  8
0
  6
Continuous
 62
     7
370
     0
100
AcDbLine
 10
1.3446263377
 20
9.7738813037
 30
0.0
 11
1.4207982119
 21
9.7738813037
 31
0.0
  0
LINE
  5
F5
330
ED
100
AcDbEntity
  8
0
  6
Continuous
 62
     7
370
     0
100
AcDbLine
 10
2.4152426773
 20
10.1707563156
 30
0.0
 11
2.4914145516
 21
10.1707563156
 31
0.0
  0
LINE
  5
F6
330
ED
100
AcDbEntity
  8
0
  6
Continuous
 62
     7
370
     0
100
AcDbLine
 10
2.4914145516
 20
10.1707563156
 30
0.0
 11
2.4914145516
 21
9.7738813037
 31
0.0
  0
LINE
  5
F7
330
ED
100
AcDbEntity
  8
0
  6
Continuous
 62
     7
370
     0
100
AcDbLine
 10
2.4914145516
 20
9.7738813037
 30
0.0
 11
2.4152426773
 21
9.7738813037
 31
0.0
  0
LINE
  5
F8
330
ED
100
AcDbEntity
  8
0
  6
Continuous
 62
     7
370
     0
100
AcDbLine
 10
5.8211227885
 20
11.2807563523
 30
0.0
 11
1.6680204263
 21
11.2807563523
 31
0.0
  0
LINE
  5
F9
330
ED
100
AcDbEntity
  8
0
  6
Continuous
 62
     7
370
     0
100
AcDbLine
 10
5.8211227885
 20
9.0607563523
 30
0.0
 11
1.6680204263
 21
9.0607563523
 31
0.0
  0
LINE
  5
FA
330
ED
100
AcDbEntity
  8
0
  6
Continuous
 62
     7
370
     0
100
AcDbLine
 10
1.9180204263
 20
11.2807563523
 30
0.0
 11
1.9180204263
 21
10.6184126076
 31
0.0
  0
LINE
  5
FB
330
ED
100
AcDbEntity
  8
0
  6
Continuous
 62
     7
370
     0
100
AcDbLine
 10
1.9180204263
 20
9.0607563523
 30
0.0
 11
1.9180204263
 21
9.723100097
 31
0.0
  0
MTEXT
  5
FC
330
ED
100
AcDbEntity
  8
0
  6
Continuous
 62
     7
370
    18
100
AcDbMText
 10
1.2817617431
 20
10.543804526
 30
0.0
 40
0.25
 41
0.0
 71
     1
 72
     1
  1
%%c
  7
SLDTEXTSTYLE0
 73
     1
 44
1.0
  0
MTEXT
  5
FD
330
ED
100
AcDbEntity
  8
0
  6
Continuous
 62
     7
370
    18
100
AcDbMText
 10
1.6587929842
 20
10.543804526
 30
0.0
 40
0.25
 41
0.0
 71
     1
 72
     1
  1
2 1/4"
  7
SLDTEXTSTYLE0
 73
     1
 44
1.0
  0
MTEXT
  5
FE
330
ED
100
AcDbEntity
  8
0
  6
Continuous
 62
     7
370
    18
100
AcDbMText
 10
1.4207982119
 20
10.0961482661
 30
0.0
 40
0.25
 41
0.0
 71
     1
 72
     1
  1
56mm
  7
SLDTEXTSTYLE0
 73
     1
 44
1.0
  0
ENDBLK
  5
EF
330
ED
100
AcDbEntity
  8
0
100
AcDbBlockEnd
  0
BLOCK
  5
102
330
101
100
AcDbEntity
  8
0
100
AcDbBlockBegin
  2
_D_2
 70
     0
 10
0.0
 20
0.0
 30
0.0
  3
_D_2
  1

  0
SOLID
  5
104
330
101
100
AcDbEntity
  8
0
  6
Continuous
 62
     7
370
    18
100
AcDbTrace
 10
9.2341227885
 20
13.4731579271
 30
0.0
 11
8.9741227885
 21
13.5131579271
 31
0.0
 12
8.9741227885
 22
13.4331579271
 32
0.0
 13
8.9741227885
 23
13.4331579271
 33
0.0
  0
SOLID
  5
105
330
101
100
AcDbEntity
  8
0
  6
Continuous
 62
     7
370
    18
100
AcDbTrace
 10
10.6211227885
 20
13.4731579271
 30
0.0
 11
10.8811227885
 21
13.4331579271
 31
0.0
 12
10.8811227885
 22
13.5131579271
 32
0.0
 13
10.8811227885
 23
13.5131579271
 33
0.0
  0
LINE
  5
106
330
101
100
AcDbEntity
  8
0
  6
Continuous
 62
     7
370
     0
100
AcDbLine
 10
9.4304005924
 20
13.4712481658
 30
0.0
 11
9.3542287182
 21
13.4712481658
 31
0.0
  0
LINE
  5
107
330
101
100
AcDbEntity
  8
0
  6
Continuous
 62
     7
370
     0
100
AcDbLine
 10
9.3542287182
 20
13.4712481658
 30
0.0
 11
9.3542287182
 21
13.0743731539
 31
0.0
  0
LINE
  5
108
330
101
100
AcDbEntity
  8
0
  6
Continuous
 62
     7
370
     0
100
AcDbLine
 10
9.3542287182
 20
13.0743731539
 30
0.0
 11
9.4304005924
 21
13.0743731539
 31
0.0
  0
LINE
  5
109
330
101
100
AcDbEntity
  8
0
  6
Continuous
 62
     7
370
     0
100
AcDbLine
 10
10.4248450579
 20
13.4712481658
 30
0.0
 11
10.5010169321
 21
13.4712481658
 31
0.0
  0
LINE
  5
10A
330
101
100
AcDbEntity
  8
0
  6
Continuous
 62
     7
370
     0
100
AcDbLine
 10
10.5010169321
 20
13.4712481658
 30
0.0
 11
10.5010169321
 21
13.0743731539
 31
0.0
  0
LINE
  5
10B
330
101
100
AcDbEntity
  8
0
  6
Continuous
 62
     7
370
     0
100
AcDbLine
 10
10.5010169321
 20
13.0743731539
 30
0.0
 11
10.4248450579
 21
13.0743731539
 31
0.0
  0
LINE
  5
10C
330
101
100
AcDbEntity
  8
0
  6
Continuous
 62
     7
370
     0
100
AcDbLine
 10
9.2341227885
 20
12.6757563523
 30
0.0
 11
9.2341227885
 21
13.7231579271
 31
0.0
  0
LINE
  5
10D
330
101
100
AcDbEntity
  8
0
  6
Continuous
 62
     7
370
     0
100
AcDbLine
 10
10.6211227885
 20
10.2707563523
 30
0.0
 11
10.6211227885
 21
13.7231579271
 31
0.0
  0
LINE
  5
10E
330
101
100
AcDbEntity
  8
0
  6
Continuous
 62
     7
370
     0
100
AcDbLine
 10
9.2341227885
 20
13.4731579271
 30
0.0
 11
8.7341227885
 21
13.4731579271
 31
0.0
  0
LINE
  5
10F
330
101
100
AcDbEntity
  8
0
  6
Continuous
 62
     7
370
     0
100
AcDbLine
 10
10.6211227885
 20
13.4731579271
 30
0.0
 11
11.1211227885
 21
13.4731579271
 31
0.0
  0
MTEXT
  5
110
330
101
100
AcDbEntity
  8
0
  6
Continuous
 62
     7
370
    18
100
AcDbMText
 10
9.2794457326
 20
13.8481158208
 30
0.0
 40
0.25
 41
0.0
 71
     1
 72
     1
  1

  7
SLDTEXTSTYLE0
 73
     1
 44
1.0
  0
MTEXT
  5
111
330
101
100
AcDbEntity
  8
0
  6
Continuous
 62
     7
370
    18
100
AcDbMText
 10
9.4798797625
 20
13.8442963579
 30
0.0
 40
0.25
 41
0.0
 71
     1
 72
     1
  1
1 3/8"
  7
SLDTEXTSTYLE0
 73
     1
 44
1.0
  0
MTEXT
  5
112
330
101
100
AcDbEntity
  8
0
  6
Continuous
 62
     7
370
    18
100
AcDbMText
 10
9.4304005924
 20
13.3966401163
 30
0.0
 40
0.25
 41
0.0
 71
     1
 72
     1
  1
35mm
  7
SLDTEXTSTYLE0
 73
     1
 44
1.0
  0
MTEXT
  5
113
330
101
100
AcDbEntity
  8
0
  6
Continuous
 62
     7
370
    18
100
AcDbMText
 10
10.6709387513
 20
13.8481158208
 30
0.0
 40
0.25
 41
0.0
 71
     1
 72
     1
  1

  7
SLDTEXTSTYLE0
 73
     1
 44
1.0
  0
ENDBLK
  5
103
330
101
100
AcDbEntity
  8
0
100
AcDbBlockEnd
  0
BLOCK
  5
164
330
163
100
AcDbEntity
  8
0
100
AcDbBlockBegin
  2
_D_3
 70
     0
 10
0.0
 20
0.0
 30
0.0
  3
_D_3
  1

  0
SOLID
  5
166
330
163
100
AcDbEntity
  8
0
  6
Continuous
 62
     7
370
    18
100
AcDbTrace
 10
4.12777869
 20
5.4944005864
 30
0.0
 11
3.86777869
 21
5.5344005864
 31
0.0
 12
3.86777869
 22
5.4544005864
 32
0.0
 13
3.86777869
 23
5.4544005864
 33
0.0
  0
SOLID
  5
167
330
163
100
AcDbEntity
  8
0
  6
Continuous
 62
     7
370
    18
100
AcDbTrace
 10
5.87777869
 20
5.4944005864
 30
0.0
 11
6.13777869
 21
5.4544005864
 31
0.0
 12
6.13777869
 22
5.5344005864
 32
0.0
 13
6.13777869
 23
5.5344005864
 33
0.0
  0
LINE
  5
168
330
163
100
AcDbEntity
  8
0
  6
Continuous
 62
     7
370
     0
100
AcDbLine
 10
4.505556494
 20
5.4924908251
 30
0.0
 11
4.4293846198
 21
5.4924908251
 31
0.0
  0
LINE
  5
169
330
163
100
AcDbEntity
  8
0
  6
Continuous
 62
     7
370
     0
100
AcDbLine
 10
4.4293846198
 20
5.4924908251
 30
0.0
 11
4.4293846198
 21
5.0956158132
 31
0.0
  0
LINE
  5
16A
330
163
100
AcDbEntity
  8
0
  6
Continuous
 62
     7
370
     0
100
AcDbLine
 10
4.4293846198
 20
5.0956158132
 30
0.0
 11
4.505556494
 21
5.0956158132
 31
0.0
  0
LINE
  5
16B
330
163
100
AcDbEntity
  8
0
  6
Continuous
 62
     7
370
     0
100
AcDbLine
 10
5.5000009594
 20
5.4924908251
 30
0.0
 11
5.5761728336
 21
5.4924908251
 31
0.0
  0
LINE
  5
16C
330
163
100
AcDbEntity
  8
0
  6
Continuous
 62
     7
370
     0
100
AcDbLine
 10
5.5761728336
 20
5.4924908251
 30
0.0
 11
5.5761728336
 21
5.0956158132
 31
0.0
  0
LINE
  5
16D
330
163
100
AcDbEntity
  8
0
  6
Continuous
 62
     7
370
     0
100
AcDbLine
 10
5.5761728336
 20
5.0956158132
 30
0.0
 11
5.5000009594
 21
5.0956158132
 31
0.0
  0
LINE
  5
16E
330
163
100
AcDbEntity
  8
0
  6
Continuous
 62
     7
370
     0
100
AcDbLine
 10
4.12777869
 20
3.5494990116
 30
0.0
 11
4.12777869
 21
5.7444005864
 31
0.0
  0
LINE
  5
16F
330
163
100
AcDbEntity
  8
0
  6
Continuous
 62
     7
370
     0
100
AcDbLine
 10
5.87777869
 20
3.5494990116
 30
0.0
 11
5.87777869
 21
5.7444005864
 31
0.0
  0
LINE
  5
170
330
163
100
AcDbEntity
  8
0
  6
Continuous
 62
     7
370
     0
100
AcDbLine
 10
4.12777869
 20
5.4944005864
 30
0.0
 11
3.62777869
 21
5.4944005864
 31
0.0
  0
LINE
  5
171
330
163
100
AcDbEntity
  8
0
  6
Continuous
 62
     7
370
     0
100
AcDbLine
 10
5.87777869
 20
5.4944005864
 30
0.0
 11
6.37777869
 21
5.4944005864
 31
0.0
  0
MTEXT
  5
172
330
163
100
AcDbEntity
  8
0
  6
Continuous
 62
     7
370
    18
100
AcDbMText
 10
4.3546016342
 20
5.8693584801
 30
0.0
 40
0.25
 41
0.0
 71
     1
 72
     1
  1

  7
SLDTEXTSTYLE0
 73
     1
 44
1.0
  0
MTEXT
  5
173
330
163
100
AcDbEntity
  8
0
  6
Continuous
 62
     7
370
    18
100
AcDbMText
 10
4.5550356641
 20
5.8655390172
 30
0.0
 40
0.25
 41
0.0
 71
     1
 72
     1
  1
3 1/2"
  7
SLDTEXTSTYLE0
 73
     1
 44
1.0
  0
MTEXT
  5
174
330
163
100
AcDbEntity
  8
0
  6
Continuous
 62
     7
370
    18
100
AcDbMText
 10
4.505556494
 20
5.4178827756
 30
0.0
 40
0.25
 41
0.0
 71
     1
 72
     1
  1
89mm
  7
SLDTEXTSTYLE0
 73
     1
 44
1.0
  0
MTEXT
  5
175
330
163
100
AcDbEntity
  8
0
  6
Continuous
 62
     7
370
    18
100
AcDbMText
 10
5.7460946529
 20
5.8693584801
 30
0.0
 40
0.25
 41
0.0
 71
     1
 72
     1
  1

  7
SLDTEXTSTYLE0
 73
     1
 44
1.0
  0
ENDBLK
  5
165
330
163
100
AcDbEntity
  8
0
100
AcDbBlockEnd
  0
BLOCK
  5
179
330
178
100
AcDbEntity
  8
0
100
AcDbBlockBegin
  2
_D_4
 70
     0
 10
0.0
 20
0.0
 30
0.0
  3
_D_4
  1

  0
SOLID
  5
17B
330
178
100
AcDbEntity
  8
0
  6
Continuous
 62
     7
370
    18
100
AcDbTrace
 10
4.1135919127
 20
2.5603122342
 30
0.0
 11
3.9014598783
 21
2.4047487424
 31
0.0
 12
3.9580284208
 22
2.3481801999
 32
0.0
 13
3.9580284208
 23
2.3481801999
 33
0.0
  0
LINE
  5
17C
330
178
100
AcDbEntity
  8
0
  6
Continuous
 62
     7
370
     0
100
AcDbLine
 10
1.8290070118
 20
2.10723766
 30
0.0
 11
1.7528351376
 21
2.10723766
 31
0.0
  0
LINE
  5
17D
330
178
100
AcDbEntity
  8
0
  6
Continuous
 62
     7
370
     0
100
AcDbLine
 10
1.7528351376
 20
2.10723766
 30
0.0
 11
1.7528351376
 21
1.7103626481
 31
0.0
  0
LINE
  5
17E
330
178
100
AcDbEntity
  8
0
  6
Continuous
 62
     7
370
     0
100
AcDbLine
 10
1.7528351376
 20
1.7103626481
 30
0.0
 11
1.8290070118
 21
1.7103626481
 31
0.0
  0
LINE
  5
17F
330
178
100
AcDbEntity
  8
0
  6
Continuous
 62
     7
370
     0
100
AcDbLine
 10
3.0081736633
 20
2.10723766
 30
0.0
 11
3.0843455376
 21
2.10723766
 31
0.0
  0
LINE
  5
180
330
178
100
AcDbEntity
  8
0
  6
Continuous
 62
     7
370
     0
100
AcDbLine
 10
3.0843455376
 20
2.10723766
 30
0.0
 11
3.0843455376
 21
1.7103626481
 31
0.0
  0
LINE
  5
181
330
178
100
AcDbEntity
  8
0
  6
Continuous
 62
     7
370
     0
100
AcDbLine
 10
3.0843455376
 20
1.7103626481
 30
0.0
 11
3.0081736633
 21
1.7103626481
 31
0.0
  0
LINE
  5
182
330
178
100
AcDbEntity
  8
0
  6
Continuous
 62
     7
370
     0
100
AcDbLine
 10
4.1135919127
 20
2.5603122342
 30
0.0
 11
3.6605173751
 21
2.1072376967
 31
0.0
  0
LINE
  5
183
330
178
100
AcDbEntity
  8
0
  6
Continuous
 62
     7
370
     0
100
AcDbLine
 10
3.6605173751
 20
2.1072376967
 30
0.0
 11
3.1605173751
 21
2.1072376967
 31
0.0
  0
MTEXT
  5
184
330
178
100
AcDbEntity
  8
0
  6
Continuous
 62
     7
370
    18
100
AcDbMText
 10
2.0861510963
 20
2.4802858704
 30
0.0
 40
0.25
 41
0.0
 71
     1
 72
     1
  1
%%c
  7
SLDTEXTSTYLE0
 73
     1
 44
1.0
  0
MTEXT
  5
185
330
178
100
AcDbEntity
  8
0
  6
Continuous
 62
     7
370
    18
100
AcDbMText
 10
2.4631823375
 20
2.4802858704
 30
0.0
 40
0.25
 41
0.0
 71
     1
 72
     1
  1
5"
  7
SLDTEXTSTYLE0
 73
     1
 44
1.0
  0
MTEXT
  5
186
330
178
100
AcDbEntity
  8
0
  6
Continuous
 62
     7
370
    18
100
AcDbMText
 10
1.8290070118
 20
2.0326296105
 30
0.0
 40
0.25
 41
0.0
 71
     1
 72
     1
  1
128mm
  7
SLDTEXTSTYLE0
 73
     1
 44
1.0
  0
ENDBLK
  5
17A
330
178
100
AcDbEntity
  8
0
100
AcDbBlockEnd
  0
BLOCK
  5
1AD
330
1AC
100
AcDbEntity
  8
0
100
AcDbBlockBegin
  2
_D_5
 70
     0
 10
0.0
 20
0.0
 30
0.0
  3
_D_5
  1

  0
SOLID
  5
1AF
330
1AC
100
AcDbEntity
  8
0
  6
Continuous
 62
     7
370
    18
100
AcDbTrace
 10
13.9667104756
 20
5.4944005864
 30
0.0
 11
13.7067104756
 21
5.5344005864
 31
0.0
 12
13.7067104756
 22
5.4544005864
 32
0.0
 13
13.7067104756
 23
5.4544005864
 33
0.0
  0
SOLID
  5
1B0
330
1AC
100
AcDbEntity
  8
0
  6
Continuous
 62
     7
370
    18
100
AcDbTrace
 10
15.7167104756
 20
5.4944005864
 30
0.0
 11
15.9767104756
 21
5.4544005864
 31
0.0
 12
15.9767104756
 22
5.5344005864
 32
0.0
 13
15.9767104756
 23
5.5344005864
 33
0.0
  0
LINE
  5
1B1
330
1AC
100
AcDbEntity
  8
0
  6
Continuous
 62
     7
370
     0
100
AcDbLine
 10
14.3444882796
 20
5.4924908251
 30
0.0
 11
14.2683164053
 21
5.4924908251
 31
0.0
  0
LINE
  5
1B2
330
1AC
100
AcDbEntity
  8
0
  6
Continuous
 62
     7
370
     0
100
AcDbLine
 10
14.2683164053
 20
5.4924908251
 30
0.0
 11
14.2683164053
 21
5.0956158132
 31
0.0
  0
LINE
  5
1B3
330
1AC
100
AcDbEntity
  8
0
  6
Continuous
 62
     7
370
     0
100
AcDbLine
 10
14.2683164053
 20
5.0956158132
 30
0.0
 11
14.3444882796
 21
5.0956158132
 31
0.0
  0
LINE
  5
1B4
330
1AC
100
AcDbEntity
  8
0
  6
Continuous
 62
     7
370
     0
100
AcDbLine
 10
15.338932745
 20
5.4924908251
 30
0.0
 11
15.4151046192
 21
5.4924908251
 31
0.0
  0
LINE
  5
1B5
330
1AC
100
AcDbEntity
  8
0
  6
Continuous
 62
     7
370
     0
100
AcDbLine
 10
15.4151046192
 20
5.4924908251
 30
0.0
 11
15.4151046192
 21
5.0956158132
 31
0.0
  0
LINE
  5
1B6
330
1AC
100
AcDbEntity
  8
0
  6
Continuous
 62
     7
370
     0
100
AcDbLine
 10
15.4151046192
 20
5.0956158132
 30
0.0
 11
15.338932745
 21
5.0956158132
 31
0.0
  0
LINE
  5
1B7
330
1AC
100
AcDbEntity
  8
0
  6
Continuous
 62
     7
370
     0
100
AcDbLine
 10
13.9667104756
 20
3.5494990116
 30
0.0
 11
13.9667104756
 21
5.7444005864
 31
0.0
  0
LINE
  5
1B8
330
1AC
100
AcDbEntity
  8
0
  6
Continuous
 62
     7
370
     0
100
AcDbLine
 10
15.7167104756
 20
3.5494990116
 30
0.0
 11
15.7167104756
 21
5.7444005864
 31
0.0
  0
LINE
  5
1B9
330
1AC
100
AcDbEntity
  8
0
  6
Continuous
 62
     7
370
     0
100
AcDbLine
 10
13.9667104756
 20
5.4944005864
 30
0.0
 11
13.4667104756
 21
5.4944005864
 31
0.0
  0
LINE
  5
1BA
330
1AC
100
AcDbEntity
  8
0
  6
Continuous
 62
     7
370
     0
100
AcDbLine
 10
15.7167104756
 20
5.4944005864
 30
0.0
 11
16.2167104756
 21
5.4944005864
 31
0.0
  0
MTEXT
  5
1BB
330
1AC
100
AcDbEntity
  8
0
  6
Continuous
 62
     7
370
    18
100
AcDbMText
 10
14.1935334198
 20
5.8693584801
 30
0.0
 40
0.25
 41
0.0
 71
     1
 72
     1
  1

  7
SLDTEXTSTYLE0
 73
     1
 44
1.0
  0
MTEXT
  5
1BC
330
1AC
100
AcDbEntity
  8
0
  6
Continuous
 62
     7
370
    18
100
AcDbMText
 10
14.3939674497
 20
5.8655390172
 30
0.0
 40
0.25
 41
0.0
 71
     1
 72
     1
  1
3 1/2"
  7
SLDTEXTSTYLE0
 73
     1
 44
1.0
  0
MTEXT
  5
1BD
330
1AC
100
AcDbEntity
  8
0
  6
Continuous
 62
     7
370
    18
100
AcDbMText
 10
14.3444882796
 20
5.4178827756
 30
0.0
 40
0.25
 41
0.0
 71
     1
 72
     1
  1
89mm
  7
SLDTEXTSTYLE0
 73
     1
 44
1.0
  0
MTEXT
  5
1BE
330
1AC
100
AcDbEntity
  8
0
  6
Continuous
 62
     7
370
    18
100
AcDbMText
 10
15.5850264384
 20
5.8693584801
 30
0.0
 40
0.25
 41
0.0
 71
     1
 72
     1
  1

  7
SLDTEXTSTYLE0
 73
     1
 44
1.0
  0
ENDBLK
  5
1AE
330
1AC
100
AcDbEntity
  8
0
100
AcDbBlockEnd
  0
BLOCK
  5
1C1
330
1C0
100
AcDbEntity
  8
0
100
AcDbBlockBegin
  2
_D_6
 70
     0
 10
0.0
 20
0.0
 30
0.0
  3
_D_6
  1

  0
SOLID
  5
1C3
330
1C0
100
AcDbEntity
  8
0
  6
Continuous
 62
     7
370
    18
100
AcDbTrace
 10
13.9525236983
 20
2.5603122342
 30
0.0
 11
13.7403916639
 21
2.4047487424
 31
0.0
 12
13.7969602064
 22
2.3481801999
 32
0.0
 13
13.7969602064
 23
2.3481801999
 33
0.0
  0
LINE
  5
1C4
330
1C0
100
AcDbEntity
  8
0
  6
Continuous
 62
     7
370
     0
100
AcDbLine
 10
11.6512628577
 20
2.0905617202
 30
0.0
 11
11.5750909834
 21
2.0905617202
 31
0.0
  0
LINE
  5
1C5
330
1C0
100
AcDbEntity
  8
0
  6
Continuous
 62
     7
370
     0
100
AcDbLine
 10
11.5750909834
 20
2.0905617202
 30
0.0
 11
11.5750909834
 21
1.6936867083
 31
0.0
  0
LINE
  5
1C6
330
1C0
100
AcDbEntity
  8
0
  6
Continuous
 62
     7
370
     0
100
AcDbLine
 10
11.5750909834
 20
1.6936867083
 30
0.0
 11
11.6512628577
 21
1.6936867083
 31
0.0
  0
LINE
  5
1C7
330
1C0
100
AcDbEntity
  8
0
  6
Continuous
 62
     7
370
     0
100
AcDbLine
 10
12.8304295092
 20
2.0905617202
 30
0.0
 11
12.9066013834
 21
2.0905617202
 31
0.0
  0
LINE
  5
1C8
330
1C0
100
AcDbEntity
  8
0
  6
Continuous
 62
     7
370
     0
100
AcDbLine
 10
12.9066013834
 20
2.0905617202
 30
0.0
 11
12.9066013834
 21
1.6936867083
 31
0.0
  0
LINE
  5
1C9
330
1C0
100
AcDbEntity
  8
0
  6
Continuous
 62
     7
370
     0
100
AcDbLine
 10
12.9066013834
 20
1.6936867083
 30
0.0
 11
12.8304295092
 21
1.6936867083
 31
0.0
  0
LINE
  5
1CA
330
1C0
100
AcDbEntity
  8
0
  6
Continuous
 62
     7
370
     0
100
AcDbLine
 10
13.9525236983
 20
2.5603122342
 30
0.0
 11
13.4827732209
 21
2.0905617569
 31
0.0
  0
LINE
  5
1CB
330
1C0
100
AcDbEntity
  8
0
  6
Continuous
 62
     7
370
     0
100
AcDbLine
 10
13.4827732209
 20
2.0905617569
 30
0.0
 11
12.9827732209
 21
2.0905617569
 31
0.0
  0
MTEXT
  5
1CC
330
1C0
100
AcDbEntity
  8
0
  6
Continuous
 62
     7
370
    18
100
AcDbMText
 10
11.9084069421
 20
2.4636099306
 30
0.0
 40
0.25
 41
0.0
 71
     1
 72
     1
  1
%%c
  7
SLDTEXTSTYLE0
 73
     1
 44
1.0
  0
MTEXT
  5
1CD
330
1C0
100
AcDbEntity
  8
0
  6
Continuous
 62
     7
370
    18
100
AcDbMText
 10
12.2854381833
 20
2.4636099306
 30
0.0
 40
0.25
 41
0.0
 71
     1
 72
     1
  1
5"
  7
SLDTEXTSTYLE0
 73
     1
 44
1.0
  0
MTEXT
  5
1CE
330
1C0
100
AcDbEntity
  8
0
  6
Continuous
 62
     7
370
    18
100
AcDbMText
 10
11.6512628577
 20
2.0159536707
 30
0.0
 40
0.25
 41
0.0
 71
     1
 72
     1
  1
128mm
  7
SLDTEXTSTYLE0
 73
     1
 44
1.0
  0
ENDBLK
  5
1C2
330
1C0
100
AcDbEntity
  8
0
100
AcDbBlockEnd
  0
BLOCK
  5
1ED
330
1EC
100
AcDbEntity
  8
0
100
AcDbBlockBegin
  2
_D_7
 70
     0
 10
0.0
 20
0.0
 30
0.0
  3
_D_7
  1

  0
ARC
  5
1EF
330
1EC
100
AcDbEntity
  8
0
  6
Continuous
 62
     7
370
    18
100
AcDbCircle
 10
8.6366568196
 20
3.2953923821
 30
0.0
 40
1.493709586967661
100
AcDbArc
 50
270.0
 51
293.010171041
  0
ARC
  5
1F0
330
1EC
100
AcDbEntity
  8
0
  6
Continuous
 62
     7
370
    18
100
AcDbCircle
 10
8.6366568196
 20
3.2953923821
 30
0.0
 40
1.493709586967663
100
AcDbArc
 50
315.8779760478
 51
338.0
  0
SOLID
  5
1F1
330
1EC
100
AcDbEntity
  8
0
  6
Continuous
 62
     7
370
    18
100
AcDbTrace
 10
8.6366568196
 20
1.8016827952
 30
0.0
 11
8.8991346385
 21
1.7842072522
 31
0.0
 12
8.8922497003
 22
1.8639104368
 32
0.0
 13
8.8922497003
 23
1.8639104368
 33
0.0
  0
SOLID
  5
1F2
330
1EC
100
AcDbEntity
  8
0
  6
Continuous
 62
     7
370
    18
100
AcDbTrace
 10
10.0216002321
 20
2.7358389222
 30
0.0
 11
9.8681569892
 21
2.5221682148
 31
0.0
 12
9.9394773518
 22
2.4859272728
 32
0.0
 13
9.9394773518
 23
2.4859272728
 33
0.0
  0
LINE
  5
1F3
330
1EC
100
AcDbEntity
  8
0
  6
Continuous
 62
     7
370
     0
100
AcDbLine
 10
8.6366568196
 20
2.0919990116
 30
0.0
 11
8.6366568196
 21
1.5516827952
 31
0.0
  0
LINE
  5
1F4
330
1EC
100
AcDbEntity
  8
0
  6
Continuous
 62
     7
370
     0
100
AcDbLine
 10
9.1214125543
 20
3.0995383522
 30
0.0
 11
10.2533961957
 21
2.6421872739
 31
0.0
  0
MTEXT
  5
1F5
330
1EC
100
AcDbEntity
  8
0
  6
Continuous
 62
     7
370
    18
100
AcDbMText
 10
9.2205397246
 20
2.1808804685
 30
0.0
 40
0.25
 41
0.0
 71
     1
 72
     1
  1
68°
  7
SLDTEXTSTYLE0
 73
     1
 44
1.0
  0
ENDBLK
  5
1EE
330
1EC
100
AcDbEntity
  8
0
100
AcDbBlockEnd
  0
BLOCK
  5
219
330
218
100
AcDbEntity
  8
0
100
AcDbBlockBegin
  2
_D_8
 70
     0
 10
0.0
 20
0.0
 30
0.0
  3
_D_8
  1

  0
ARC
  5
21B
330
218
100
AcDbEntity
  8
0
  6
Continuous
 62
     7
370
    18
100
AcDbCircle
 10
18.4855385395
 20
3.2619990116
 30
0.0
 40
1.386026452250807
100
AcDbArc
 50
270.0
 51
301.7582058415
  0
ARC
  5
21C
330
218
100
AcDbEntity
  8
0
  6
Continuous
 62
     7
370
    18
100
AcDbCircle
 10
18.4855385395
 20
3.2619990116
 30
0.0
 40
1.386026452250807
100
AcDbArc
 50
325.6715129154
 51
0.0
  0
SOLID
  5
21D
330
218
100
AcDbEntity
  8
0
  6
Continuous
 62
     7
370
    18
100
AcDbTrace
 10
18.4855385395
 20
1.8759725593
 30
0.0
 11
18.7481251523
 21
1.8602159485
 31
0.0
 12
18.7407185099
 22
1.9398723459
 32
0.0
 13
18.7407185099
 23
1.9398723459
 33
0.0
  0
SOLID
  5
21E
330
218
100
AcDbEntity
  8
0
  6
Continuous
 62
     7
370
    18
100
AcDbTrace
 10
19.8715649918
 20
3.2619990116
 30
0.0
 11
19.8076652052
 21
3.0068190412
 31
0.0
 12
19.8873216026
 22
2.9994123988
 32
0.0
 13
19.8873216026
 23
2.9994123988
 33
0.0
  0
LINE
  5
21F
330
218
100
AcDbEntity
  8
0
  6
Continuous
 62
     7
370
     0
100
AcDbLine
 10
18.4855385395
 20
2.1069990116
 30
0.0
 11
18.4855385395
 21
1.6259725593
 31
0.0
  0
LINE
  5
220
330
218
100
AcDbEntity
  8
0
  6
Continuous
 62
     7
370
     0
100
AcDbLine
 10
19.0495361472
 20
3.2619990116
 30
0.0
 11
20.1215649918
 21
3.2619990116
 31
0.0
  0
MTEXT
  5
221
330
218
100
AcDbEntity
  8
0
  6
Continuous
 62
     7
370
    18
100
AcDbMText
 10
19.2142183469
 20
2.4057597648
 30
0.0
 40
0.25
 41
0.0
 71
     1
 72
     1
  1
90°
  7
SLDTEXTSTYLE0
 73
     1
 44
1.0
  0
ENDBLK
  5
21A
330
218
100
AcDbEntity
  8
0
100
AcDbBlockEnd
  0
ENDSEC
  0
SECTION
  2
ENTITIES
  0
LINE
  5
7F
330
1F
100
AcDbEntity
  8
0
  6
Continuous
 62
     7
370
    25
100
AcDbLine
 10
9.2641227885
 20
7.6557563523
 30
0.0
 11
9.5911227885
 21
7.6557563523
 31
0.0
  0
LINE
  5
80
330
1F
100
AcDbEntity
  8
0
  6
Continuous
 62
     7
370
    25
100
AcDbLine
 10
9.5911227885
 20
12.6857563523
 30
0.0
 11
9.2641227885
 21
12.6857563523
 31
0.0
  0
ARC
  5
81
330
1F
100
AcDbEntity
  8
0
  6
Continuous
 62
     7
370
    25
100
AcDbCircle
 10
9.5911227885
 20
12.6557563523
 30
0.0
 40
0.0300000000000011
100
AcDbArc
 50
0.0
 51
90.0
  0
ARC
  5
82
330
1F
100
AcDbEntity
  8
0
  6
Continuous
 62
     7
370
    25
100
AcDbCircle
 10
9.5911227885
 20
7.6857563523
 30
0.0
 40
0.0300000000000002
100
AcDbArc
 50
270.0
 51
0.0
  0
ARC
  5
83
330
1F
100
AcDbEntity
  8
0
  6
Continuous
 62
     7
370
    25
100
AcDbCircle
 10
9.2641227885
 20
12.6557563523
 30
0.0
 40
0.0300000000000011
100
AcDbArc
 50
90.0
 51
180.0
  0
ARC
  5
84
330
1F
100
AcDbEntity
  8
0
  6
Continuous
 62
     7
370
    25
100
AcDbCircle
 10
9.2641227885
 20
7.6857563523
 30
0.0
 40
0.0300000000000002
100
AcDbArc
 50
180.0
 51
270.0
  0
LINE
  5
85
330
1F
100
AcDbEntity
  8
0
  6
Continuous
 62
     7
370
    25
100
AcDbLine
 10
9.2341227885
 20
11.3298790544
 30
0.0
 11
9.2311227885
 21
11.3298528738
 31
0.0
  0
LINE
  5
86
330
1F
100
AcDbEntity
  8
0
  6
Continuous
 62
     7
370
    25
100
AcDbLine
 10
9.2311227885
 20
9.0116598307
 30
0.0
 11
9.2341227885
 21
9.0116336501
 31
0.0
  0
ARC
  5
87
330
1F
100
AcDbEntity
  8
0
  6
Continuous
 62
     7
370
    25
100
AcDbCircle
 10
9.6086227885
 20
10.1707563523
 30
0.0
 40
1.0125
100
AcDbArc
 50
338.2615392085
 51
89.2926267275
  0
LINE
  5
88
330
1F
100
AcDbEntity
  8
0
  6
Continuous
 62
     7
370
    25
100
AcDbLine
 10
7.8511227885
 20
9.0607563523
 30
0.0
 11
8.9251514289
 21
9.0607563523
 31
0.0
  0
LINE
  5
89
330
1F
100
AcDbEntity
  8
0
  6
Continuous
 62
     7
370
    25
100
AcDbLine
 10
8.0163982779
 20
11.2807563523
 30
0.0
 11
7.8511227885
 21
11.2807563523
 31
0.0
  0
LINE
  5
8A
330
1F
100
AcDbEntity
  8
0
  6
Continuous
 62
     7
370
    25
100
AcDbLine
 10
8.9251514289
 20
11.2807563523
 30
0.0
 11
8.1860011425
 21
11.2807563523
 31
0.0
  0
LINE
  5
8B
330
1F
100
AcDbEntity
  8
0
  6
Continuous
 62
     7
370
    25
100
AcDbLine
 10
9.014594148
 20
9.0607563523
 30
0.0
 11
9.2311227885
 21
9.0607563523
 31
0.0
  0
LINE
  5
8C
330
1F
100
AcDbEntity
  8
0
  6
Continuous
 62
     7
370
    25
100
AcDbLine
 10
9.2311227885
 20
11.2807563523
 30
0.0
 11
9.014594148
 21
11.2807563523
 31
0.0
  0
ARC
  5
8D
330
1F
100
AcDbEntity
  8
0
  6
Continuous
 62
     7
370
    25
100
AcDbCircle
 10
8.9698727885
 20
9.0207563523
 30
0.0
 40
0.0600000000000008
100
AcDbArc
 50
41.8103148958
 51
138.1896851042
  0
ARC
  5
8E
330
1F
100
AcDbEntity
  8
0
  6
Continuous
 62
     7
370
    25
100
AcDbCircle
 10
8.9698727885
 20
11.3207563523
 30
0.0
 40
0.0600000000000008
100
AcDbArc
 50
221.8103148958
 51
318.1896851042
  0
LINE
  5
8F
330
1F
100
AcDbEntity
  8
0
  6
Continuous
 62
     7
370
    25
100
AcDbLine
 10
5.5036227885
 20
10.3057563523
 30
0.0
 11
3.0991227885
 21
10.3057563523
 31
0.0
  0
LINE
  5
90
330
1F
100
AcDbEntity
  8
0
  6
Continuous
 62
     7
370
    25
100
AcDbLine
 10
3.0991227885
 20
10.0257563523
 30
0.0
 11
5.5036227885
 21
10.0257563523
 31
0.0
  0
LINE
  5
91
330
1F
100
AcDbEntity
  8
0
  6
Continuous
 62
     7
370
    25
100
AcDbLine
 10
5.7661227885
 20
9.6757563523
 30
0.0
 11
5.8911227885
 21
9.6757563523
 31
0.0
  0
LINE
  5
92
330
1F
100
AcDbEntity
  8
0
  6
Continuous
 62
     7
370
    25
100
AcDbLine
 10
5.8911227885
 20
10.6657563523
 30
0.0
 11
5.7661227885
 21
10.6657563523
 31
0.0
  0
LINE
  5
93
330
1F
100
AcDbEntity
  8
0
  6
Continuous
 62
     7
370
    25
100
AcDbLine
 10
5.7661227885
 20
10.5145063523
 30
0.0
 11
5.7531227885
 21
10.5145063523
 31
0.0
  0
LINE
  5
94
330
1F
100
AcDbEntity
  8
0
  6
Continuous
 62
     7
370
    25
100
AcDbLine
 10
5.7531227885
 20
9.8270063523
 30
0.0
 11
5.7661227885
 21
9.8270063523
 31
0.0
  0
LINE
  5
95
330
1F
100
AcDbEntity
  8
0
  6
Continuous
 62
     7
370
    25
100
AcDbLine
 10
5.9211227885
 20
11.2807563523
 30
0.0
 11
5.8911227885
 21
11.2507563523
 31
0.0
  0
LINE
  5
96
330
1F
100
AcDbEntity
  8
0
  6
Continuous
 62
     7
370
    25
100
AcDbLine
 10
5.8911227885
 20
9.0907563523
 30
0.0
 11
5.9211227885
 21
9.0607563523
 31
0.0
  0
LINE
  5
97
330
1F
100
AcDbEntity
  8
0
  6
Continuous
 62
     7
370
    25
100
AcDbLine
 10
5.9211227885
 20
9.0607563523
 30
0.0
 11
7.8411227885
 21
9.0607563523
 31
0.0
  0
LINE
  5
98
330
1F
100
AcDbEntity
  8
0
  6
Continuous
 62
     7
370
    25
100
AcDbLine
 10
7.8411227885
 20
11.2807563523
 30
0.0
 11
5.9211227885
 21
11.2807563523
 31
0.0
  0
ARC
  5
99
330
1F
100
AcDbEntity
  8
0
  6
Continuous
 62
     7
370
    25
100
AcDbCircle
 10
7.8411227885
 20
11.2707563523
 30
0.0
 40
0.0099999999999998
100
AcDbArc
 50
0.0
 51
90.0
  0
ARC
  5
9A
330
1F
100
AcDbEntity
  8
0
  6
Continuous
 62
     7
370
    25
100
AcDbCircle
 10
7.8411227885
 20
9.0707563523
 30
0.0
 40
0.0099999999999998
100
AcDbArc
 50
270.0
 51
360.0
  0
LINE
  5
9B
330
1F
100
AcDbEntity
  8
0
  6
Continuous
 62
     7
370
    25
100
AcDbLine
 10
9.6211227885
 20
12.6557563523
 30
0.0
 11
9.6211227885
 21
7.6857563523
 31
0.0
  0
LINE
  5
9C
330
1F
100
AcDbEntity
  8
0
  6
Continuous
 62
     7
370
    25
100
AcDbLine
 10
9.2341227885
 20
7.6857563523
 30
0.0
 11
9.2341227885
 21
12.6557563523
 31
0.0
  0
LINE
  5
9D
330
1F
100
AcDbEntity
  8
0
  6
Continuous
 62
     7
370
    25
100
AcDbLine
 10
9.2311227885
 20
11.3298528738
 30
0.0
 11
9.2311227885
 21
9.0116598307
 31
0.0
  0
LINE
  5
9E
330
1F
100
AcDbEntity
  8
0
  6
Continuous
 62
     7
370
    25
100
AcDbLine
 10
9.6211227885
 20
9.7957563523
 30
0.0
 11
10.5491180038
 21
9.7957563523
 31
0.0
  0
LINE
  5
9F
330
1F
100
AcDbEntity
  8
0
  6
Continuous
 62
     7
370
    25
100
AcDbLine
 10
8.9251514289
 20
10.1707563523
 30
0.0
 11
8.9251514289
 21
11.2807563523
 31
0.0
  0
LINE
  5
A0
330
1F
100
AcDbEntity
  8
0
  6
Continuous
 62
     7
370
    25
100
AcDbLine
 10
8.9251514289
 20
9.0607563523
 30
0.0
 11
8.9251514289
 21
10.1707563523
 31
0.0
  0
LINE
  5
A1
330
1F
100
AcDbEntity
  8
0
  6
Continuous
 62
     7
370
    25
100
AcDbLine
 10
7.8511227885
 20
10.1707563523
 30
0.0
 11
7.8511227885
 21
11.2807563523
 31
0.0
  0
LINE
  5
A2
330
1F
100
AcDbEntity
  8
0
  6
Continuous
 62
     7
370
    25
100
AcDbLine
 10
7.8511227885
 20
9.0607563523
 30
0.0
 11
7.8511227885
 21
10.1707563523
 31
0.0
  0
SPLINE
  5
A3
330
1F
100
AcDbEntity
  8
0
  6
Continuous
 62
     7
370
    25
100
AcDbSpline
210
0.0
220
0.0
230
1.0
 70
     8
 71
     3
 72
    27
 73
    23
 74
     0
 42
0.00000001
 43
0.00000001
 40
0.0
 40
0.0
 40
0.0
 40
0.0
 40
0.0059455175349634
 40
0.0560678251880712
 40
0.1076445621294425
 40
0.1578226559594623
 40
0.2093879747033889
 40
0.2608549715628634
 40
0.313716174294066
 40
0.3670144043204555
 40
0.4217723857668023
 40
0.4766230708723672
 40
0.5330215391256492
 40
0.5885968983323981
 40
0.645798335798553
 40
0.7010647218287454
 40
0.7580088771398829
 40
0.8119450192838913
 40
0.8675603875583217
 40
0.9195613469234815
 40
0.9731680482807777
 40
1.0
 40
1.0
 40
1.0
 40
1.0
 10
8.186001142536094
 20
11.28074774282006
 30
0.0
 10
8.186040847047355
 20
11.28075055237272
 30
0.0
 10
8.186415271238934
 20
11.28077704720798
 30
0.0
 10
8.184953646683207
 20
11.28067294845883
 30
0.0
 10
8.181569450126325
 20
11.28043826752532
 30
0.0
 10
8.175813743664563
 20
11.28006101772103
 30
0.0
 10
8.168211924629462
 20
11.27960537845497
 30
0.0
 10
8.15873138772721
 20
11.27910500387816
 30
0.0
 10
8.147661602201541
 20
11.2786162799281
 30
0.0
 10
8.1351385997486
 20
11.27818801488572
 30
0.0
 10
8.12155296109461
 20
11.27787352411014
 30
0.0
 10
8.107154884572328
 20
11.27771097062389
 30
0.0
 10
8.092514155629349
 20
11.27772659206657
 30
0.0
 10
8.077913028339752
 20
11.27792332484651
 30
0.0
 10
8.064059896403704
 20
11.27827789785456
 30
0.0
 10
8.051171364482531
 20
11.27875345619247
 30
0.0
 10
8.039959508447728
 20
11.2792820249508
 30
0.0
 10
8.030526337383577
 20
11.27980823438098
 30
0.0
 10
8.023359800569418
 20
11.28025856615665
 30
0.0
 10
8.018569830768437
 20
11.28058290199149
 30
0.0
 10
8.016217136712768
 20
11.28074962309307
 30
0.0
 10
8.016352968439296
 20
11.28073999905655
 30
0.0
 10
8.016398277879333
 20
11.28073678876307
 30
0.0
  0
SPLINE
  5
A4
330
1F
100
AcDbEntity
  8
0
  6
Continuous
 62
     7
370
    25
100
AcDbSpline
210
0.0
220
0.0
230
1.0
 70
    11
 71
     3
 72
    45
 73
    41
 74
     0
 42
0.00000001
 43
0.00000001
 40
0.0
 40
0.0
 40
0.0
 40
0.0
 40
0.0237175399948466
 40
0.0474321274804073
 40
0.0737704074114316
 40
0.1001058302052734
 40
0.1256831926192605
 40
0.1512613530838362
 40
0.1766109339556015
 40
0.2019638704002151
 40
0.2277790104241778
 40
0.2535981923459846
 40
0.2802998405742487
 40
0.3070046344696911
 40
0.33459010976383
 40
0.3621768307668787
 40
0.3903008030868586
 40
0.4184235803193772
 40
0.4465839298029466
 40
0.4747404512680684
 40
0.5024000164995942
 40
0.5300542399531963
 40
0.5567908251397585
 40
0.5835234845596513
 40
0.6093175702390959
 40
0.6351113171116096
 40
0.6604538350684868
 40
0.685799096131777
 40
0.7114024556147787
 40
0.737009833438336
 40
0.7634096901586939
 40
0.7898131155645023
 40
0.8171426391285822
 40
0.8444740854076956
 40
0.8724773226205982
 40
0.9004801841984599
 40
0.9286871977639628
 40
0.9568911912208141
 40
0.9784464809507002
 40
1.0
 40
1.0
 40
1.0
 40
1.0
 10
8.037552289143965
 20
9.569315399742637
 30
0.0
 10
8.034880342038583
 20
9.571989541434812
 30
0.0
 10
8.029536780448682
 20
9.577337491925105
 30
0.0
 10
8.023209766378079
 20
9.586927860902415
 30
0.0
 10
8.018560900726987
 20
9.597652045585388
 30
0.0
 10
8.016076895561557
 20
9.609270075380266
 30
0.0
 10
8.01599464986115
 20
9.62104704721075
 30
0.0
 10
8.018137837794775
 20
9.632603735024611
 30
0.0
 10
8.022501082166338
 20
9.643711375260125
 30
0.0
 10
8.028865369069548
 20
9.65414743625397
 30
0.0
 10
8.037162179705188
 20
9.663611558455049
 30
0.0
 10
8.047218516253423
 20
9.671964916846758
 30
0.0
 10
8.058815972620422
 20
9.67882925704353
 30
0.0
 10
8.07176649741299
 20
9.684082633399727
 30
0.0
 10
8.085662842019637
 20
9.687374071587373
 30
0.0
 10
8.100214107079058
 20
9.68862830639841
 30
0.0
 10
8.114888451747644
 20
9.68764373040407
 30
0.0
 10
8.129282289286119
 20
9.684483454052833
 30
0.0
 10
8.142862530923399
 20
9.67914718172427
 30
0.0
 10
8.15519072408366
 20
9.671906577066105
 30
0.0
 10
8.1658404517204
 20
9.662932262941
 30
0.0
 10
8.174478023407406
 20
9.652701030540726
 30
0.0
 10
8.180850688426224
 20
9.641469405508381
 30
0.0
 10
8.184872029553352
 20
9.629791508510259
 30
0.0
 10
8.186453315577044
 20
9.617907676563181
 30
0.0
 10
8.185746869766223
 20
9.606251658725188
 30
0.0
 10
8.182742351681666
 20
9.595028241694642
 30
0.0
 10
8.177667126077765
 20
9.584471435808632
 30
0.0
 10
8.170560608058487
 20
9.574823441132471
 30
0.0
 10
8.161608934211749
 20
9.56619311745776
 30
0.0
 10
8.150974309110149
 20
9.558890821520972
 30
0.0
 10
8.138829045838339
 20
9.55299612483246
 30
0.0
 10
8.125522437788588
 20
9.54882142532637
 30
0.0
 10
8.111307009306332
 20
9.546434098593432
 30
0.0
 10
8.096686553636129
 20
9.546049199163626
 30
0.0
 10
8.082036665762708
 20
9.547664309848937
 30
0.0
 10
8.067892655802593
 20
9.55133463273576
 30
0.0
 10
8.055721271813661
 20
9.556524509834837
 30
0.0
 10
8.04553364876135
 20
9.562586110606329
 30
0.0
 10
8.04021266949725
 20
9.567072364787688
 30
0.0
 10
8.037552289143965
 20
9.569315399742637
 30
0.0
  0
LINE
  5
A5
330
1F
100
AcDbEntity
  8
0
  6
Continuous
 62
     7
370
    25
100
AcDbLine
 10
9.014594148
 20
10.1707563523
 30
0.0
 11
9.014594148
 21
11.2807563523
 31
0.0
  0
LINE
  5
A6
330
1F
100
AcDbEntity
  8
0
  6
Continuous
 62
     7
370
    25
100
AcDbLine
 10
9.014594148
 20
9.0607563523
 30
0.0
 11
9.014594148
 21
10.1707563523
 31
0.0
  0
SPLINE
  5
A7
330
1F
100
AcDbEntity
  8
0
  6
Continuous
 62
     7
370
    25
100
AcDbSpline
210
0.0
220
0.0
230
1.0
 70
     8
 71
     3
 72
    15
 73
    11
 74
     0
 42
0.00000001
 43
0.00000001
 40
0.0
 40
0.0
 40
0.0
 40
0.0
 40
0.1284943030175682
 40
0.2569893992490827
 40
0.3854750907913277
 40
0.5139619192016089
 40
0.6426232510449286
 40
0.7712842943094487
 40
0.9000623570449895
 40
0.9999999999999999
 40
0.9999999999999999
 40
0.9999999999999999
 40
0.9999999999999999
 10
8.10112278848905
 20
9.595484740939701
 30
0.0
 10
8.1049409528319
 20
9.595642918681074
 30
0.0
 10
8.112577305087678
 20
9.595959275140276
 30
0.0
 10
8.12371229358406
 20
9.598433261948358
 30
0.0
 10
8.134193549617953
 20
9.602349609709783
 30
0.0
 10
8.143756489342742
 20
9.607702063379627
 30
0.0
 10
8.152106441791625
 20
9.614365941087184
 30
0.0
 10
8.158987122672277
 20
9.622155037004967
 30
0.0
 10
8.164009535316175
 20
9.630178961171014
 30
0.0
 10
8.165864167730593
 20
9.635787002212249
 30
0.0
 10
8.166674551921245
 20
9.638237443477589
 30
0.0
  0
SPLINE
  5
A8
330
1F
100
AcDbEntity
  8
0
  6
Continuous
 62
     7
370
    25
100
AcDbSpline
210
0.0
220
0.0
230
1.0
 70
     8
 71
     3
 72
    15
 73
    11
 74
     0
 42
0.00000001
 43
0.00000001
 40
0.0
 40
0.0
 40
0.0
 40
0.0
 40
0.0682192005399787
 40
0.1961033697277724
 40
0.3239886511072732
 40
0.4521135758252571
 40
0.5802381833950706
 40
0.7084736708812982
 40
0.836707886930087
 40
1.0
 40
1.0
 40
1.0
 40
1.0
 10
8.035545405897551
 20
9.638571865851336
 30
0.0
 10
8.036017214167883
 20
9.636871115491456
 30
0.0
 10
8.037373477374507
 20
9.63198212714216
 30
0.0
 10
8.041647063641431
 20
9.624528127001279
 30
0.0
 10
8.048014840231255
 20
9.616442884572406
 30
0.0
 10
8.05601293906118
 20
9.609469734517425
 30
0.0
 10
8.065247470720347
 20
9.603701207276387
 30
0.0
 10
8.075533289590632
 20
9.599394977791125
 30
0.0
 10
8.087534551515937
 20
9.59617581031815
 30
0.0
 10
8.09624424416803
 20
9.595732853524014
 30
0.0
 10
8.10112278848905
 20
9.595484740939701
 30
0.0
  0
LWPOLYLINE
  5
A9
330
1F
100
AcDbEntity
  8
0
  6
Continuous
 62
     7
370
    25
100
AcDbPolyline
 90
       52
 70
   128
 43
0.0
 10
8.1011227885
 20
9.5653666248
 10
8.1094791923
 20
9.5658129789
 10
8.1177089215
 20
9.567145275
 10
8.1256872218
 20
9.5693433168
 10
8.1332931504
 20
9.5723737843
 10
8.140411409
 20
9.5761907386
 10
8.1469340923
 20
9.5807363186
 10
8.1527623228
 20
9.5859416179
 10
8.1578077507
 20
9.5917277296
 10
8.1619938923
 20
9.598006942
 10
8.16525729
 20
9.6046840687
 10
8.1675484741
 20
9.6116578913
 10
8.1688327125
 20
9.6188226937
 10
8.1690905374
 20
9.6260698649
 10
8.1683180406
 20
9.633289545
 10
8.1665269322
 20
9.6403722912
 10
8.1637443637
 20
9.6472107361
 10
8.1600125159
 20
9.653701216
 10
8.1553879599
 20
9.6597453418
 10
8.1499407993
 20
9.6652514906
 10
8.1437536073
 20
9.670136195
 10
8.1369201756
 20
9.6743254077
 10
8.1295440919
 20
9.6777556245
 10
8.1217371703
 20
9.680374847
 10
8.1136177557
 20
9.6821433702
 10
8.1053089301
 20
9.6830343853
 10
8.0969366469
 20
9.6830343853
 10
8.0886278213
 20
9.6821433702
 10
8.0805084066
 20
9.680374847
 10
8.072701485
 20
9.6777556245
 10
8.0653254014
 20
9.6743254077
 10
8.0584919697
 20
9.670136195
 10
8.0523047777
 20
9.6652514906
 10
8.046857617
 20
9.6597453418
 10
8.042233061
 20
9.653701216
 10
8.0385012133
 20
9.6472107361
 10
8.0357186448
 20
9.6403722912
 10
8.0339275364
 20
9.633289545
 10
8.0331550395
 20
9.6260698649
 10
8.0334128645
 20
9.6188226937
 10
8.0346971029
 20
9.6116578913
 10
8.0369882869
 20
9.6046840687
 10
8.0402516847
 20
9.598006942
 10
8.0444378263
 20
9.5917277296
 10
8.0494832542
 20
9.5859416179
 10
8.0553114847
 20
9.5807363186
 10
8.061834168
 20
9.5761907386
 10
8.0689524266
 20
9.5723737843
 10
8.0765583552
 20
9.5693433168
 10
8.0845366555
 20
9.567145275
 10
8.0927663847
 20
9.5658129789
 10
8.1011227885
 20
9.5653666248
  0
LINE
  5
AA
330
1F
100
AcDbEntity
  8
0
  6
Continuous
 62
     7
370
    25
100
AcDbLine
 10
5.5036227885
 20
10.1703728681
 30
0.0
 11
3.0991227885
 21
10.1703728681
 31
0.0
  0
LINE
  5
AB
330
1F
100
AcDbEntity
  8
0
  6
Continuous
 62
     7
370
    25
100
AcDbLine
 10
3.0991227885
 20
10.3057563523
 30
0.0
 11
3.0991227885
 21
10.1703728681
 31
0.0
  0
LINE
  5
AC
330
1F
100
AcDbEntity
  8
0
  6
Continuous
 62
     7
370
    25
100
AcDbLine
 10
5.5036227885
 20
10.1611398364
 30
0.0
 11
3.0991227885
 21
10.1611398364
 31
0.0
  0
LINE
  5
AD
330
1F
100
AcDbEntity
  8
0
  6
Continuous
 62
     7
370
    25
100
AcDbLine
 10
3.0991227885
 20
10.1611398364
 30
0.0
 11
3.0991227885
 21
10.0257563523
 31
0.0
  0
LINE
  5
AE
330
1F
100
AcDbEntity
  8
0
  6
Continuous
 62
     7
370
    25
100
AcDbLine
 10
3.0991227885
 20
10.1703728681
 30
0.0
 11
3.0991227885
 21
10.1611398364
 31
0.0
  0
LINE
  5
AF
330
1F
100
AcDbEntity
  8
0
  6
Continuous
 62
     7
370
    25
100
AcDbLine
 10
5.7661227885
 20
10.6657563523
 30
0.0
 11
5.7661227885
 21
9.6757563523
 31
0.0
  0
LINE
  5
B0
330
1F
100
AcDbEntity
  8
0
  6
Continuous
 62
     7
370
    25
100
AcDbLine
 10
5.7531227885
 20
10.5145063523
 30
0.0
 11
5.7531227885
 21
9.8270063523
 31
0.0
  0
LINE
  5
B1
330
1F
100
AcDbEntity
  8
0
  6
Continuous
 62
     7
370
    25
100
AcDbLine
 10
5.5836227885
 20
10.4520063523
 30
0.0
 11
5.5836227885
 21
9.8895063523
 31
0.0
  0
SPLINE
  5
B2
330
1F
100
AcDbEntity
  8
0
  6
Continuous
 62
     7
370
    25
100
AcDbSpline
210
0.0
220
0.0
230
1.0
 70
    24
 71
     3
 72
    10
 73
     6
 74
     0
 42
0.00000001
 43
0.00000001
 40
0.0
 40
0.0
 40
0.0
 40
0.0
 40
0.4661492107781586
 40
0.9332262706968664
 40
1.0
 40
1.0
 40
1.0
 40
1.0
 10
5.583622788489043
 20
9.889506352277598
 30
0.0
 10
5.580894895975543
 20
9.889506352277605
 30
0.0
 10
5.575433681200589
 20
9.88950635227762
 30
0.0
 10
5.568214344815224
 20
9.889506352277648
 30
0.0
 10
5.56413324940056
 20
9.88950635227761
 30
0.0
 10
5.563622788489045
 20
9.889506352277607
 30
0.0
  0
LINE
  5
B3
330
1F
100
AcDbEntity
  8
0
  6
Continuous
 62
     7
370
    25
100
AcDbLine
 10
5.5636227885
 20
9.8895063523
 30
0.0
 11
5.5636227885
 21
10.4520063523
 31
0.0
  0
SPLINE
  5
B4
330
1F
100
AcDbEntity
  8
0
  6
Continuous
 62
     7
370
    25
100
AcDbSpline
210
0.0
220
0.0
230
1.0
 70
    24
 71
     3
 72
     9
 73
     5
 74
     0
 42
0.00000001
 43
0.00000001
 40
0.0
 40
0.0
 40
0.0
 40
0.0
 40
0.4995107894512584
 40
1.0
 40
1.0
 40
1.0
 40
1.0
 10
5.563622788489053
 20
10.45200635227755
 30
0.0
 10
5.567362947270015
 20
10.45200635227755
 30
0.0
 10
5.574850590900437
 20
10.45200635227754
 30
0.0
 10
5.580696815936202
 20
10.45200635227758
 30
0.0
 10
5.583622788489043
 20
10.4520063522776
 30
0.0
  0
SPLINE
  5
B5
330
1F
100
AcDbEntity
  8
0
  6
Continuous
 62
     7
370
    25
100
AcDbSpline
210
0.0
220
0.0
230
1.0
 70
    24
 71
     3
 72
     9
 73
     5
 74
     0
 42
0.00000001
 43
0.00000001
 40
0.0
 40
0.0
 40
0.0
 40
0.0
 40
0.4995107894512418
 40
0.9999999999999999
 40
0.9999999999999999
 40
0.9999999999999999
 40
0.9999999999999999
 10
5.563622788489045
 20
9.889506352277607
 30
0.0
 10
5.559882629708068
 20
9.889506352277616
 30
0.0
 10
5.552394986077617
 20
9.889506352277634
 30
0.0
 10
5.546548761041874
 20
9.889506352277609
 30
0.0
 10
5.543622788489047
 20
9.889506352277598
 30
0.0
  0
LINE
  5
B6
330
1F
100
AcDbEntity
  8
0
  6
Continuous
 62
     7
370
    25
100
AcDbLine
 10
5.5436227885
 20
10.4520063523
 30
0.0
 11
5.5436227885
 21
9.8895063523
 31
0.0
  0
SPLINE
  5
B7
330
1F
100
AcDbEntity
  8
0
  6
Continuous
 62
     7
370
    25
100
AcDbSpline
210
0.0
220
0.0
230
1.0
 70
    24
 71
     3
 72
    10
 73
     6
 74
     0
 42
0.00000001
 43
0.00000001
 40
0.0
 40
0.0
 40
0.0
 40
0.0
 40
0.466149210778212
 40
0.93322627069694
 40
1.0
 40
1.0
 40
1.0
 40
1.0
 10
5.543622788489047
 20
10.4520063522776
 30
0.0
 10
5.546350681002565
 20
10.45200635227758
 30
0.0
 10
5.551811895777555
 20
10.45200635227754
 30
0.0
 10
5.559031232162839
 20
10.45200635227755
 30
0.0
 10
5.563112327577535
 20
10.45200635227755
 30
0.0
 10
5.563622788489053
 20
10.45200635227755
 30
0.0
  0
LINE
  5
B8
330
1F
100
AcDbEntity
  8
0
  6
Continuous
 62
     7
370
    25
100
AcDbLine
 10
5.6236227885
 20
10.4520063523
 30
0.0
 11
5.6236227885
 21
9.8895063523
 31
0.0
  0
SPLINE
  5
B9
330
1F
100
AcDbEntity
  8
0
  6
Continuous
 62
     7
370
    25
100
AcDbSpline
210
0.0
220
0.0
230
1.0
 70
    24
 71
     3
 72
    10
 73
     6
 74
     0
 42
0.00000001
 43
0.00000001
 40
0.0
 40
0.0
 40
0.0
 40
0.0
 40
0.4661492107781569
 40
0.9332262706968686
 40
1.0
 40
1.0
 40
1.0
 40
1.0
 10
5.623622788489048
 20
9.889506352277598
 30
0.0
 10
5.62089489597555
 20
9.889506352277605
 30
0.0
 10
5.615433681200596
 20
9.88950635227762
 30
0.0
 10
5.608214344815219
 20
9.889506352277648
 30
0.0
 10
5.604133249400556
 20
9.88950635227761
 30
0.0
 10
5.603622788489041
 20
9.889506352277607
 30
0.0
  0
LINE
  5
BA
330
1F
100
AcDbEntity
  8
0
  6
Continuous
 62
     7
370
    25
100
AcDbLine
 10
5.6036227885
 20
9.8895063523
 30
0.0
 11
5.6036227885
 21
10.4520063523
 31
0.0
  0
SPLINE
  5
BB
330
1F
100
AcDbEntity
  8
0
  6
Continuous
 62
     7
370
    25
100
AcDbSpline
210
0.0
220
0.0
230
1.0
 70
    24
 71
     3
 72
     9
 73
     5
 74
     0
 42
0.00000001
 43
0.00000001
 40
0.0
 40
0.0
 40
0.0
 40
0.0
 40
0.4995107894512562
 40
1.0
 40
1.0
 40
1.0
 40
1.0
 10
5.60362278848905
 20
10.45200635227755
 30
0.0
 10
5.607362947270015
 20
10.45200635227755
 30
0.0
 10
5.614850590900444
 20
10.45200635227754
 30
0.0
 10
5.620696815936208
 20
10.45200635227758
 30
0.0
 10
5.623622788489048
 20
10.4520063522776
 30
0.0
  0
LINE
  5
BC
330
1F
100
AcDbEntity
  8
0
  6
Continuous
 62
     7
370
    25
100
AcDbLine
 10
5.6636227885
 20
10.4520063523
 30
0.0
 11
5.6636227885
 21
9.8895063523
 31
0.0
  0
SPLINE
  5
BD
330
1F
100
AcDbEntity
  8
0
  6
Continuous
 62
     7
370
    25
100
AcDbSpline
210
0.0
220
0.0
230
1.0
 70
    24
 71
     3
 72
    10
 73
     6
 74
     0
 42
0.00000001
 43
0.00000001
 40
0.0
 40
0.0
 40
0.0
 40
0.0
 40
0.4661492107781736
 40
0.9332262706969021
 40
1.0
 40
1.0
 40
1.0
 40
1.0
 10
5.663622788489044
 20
9.889506352277598
 30
0.0
 10
5.660894895975548
 20
9.889506352277605
 30
0.0
 10
5.655433681200599
 20
9.88950635227762
 30
0.0
 10
5.648214344815196
 20
9.889506352277648
 30
0.0
 10
5.644133249400557
 20
9.88950635227761
 30
0.0
 10
5.643622788489046
 20
9.889506352277607
 30
0.0
  0
LINE
  5
BE
330
1F
100
AcDbEntity
  8
0
  6
Continuous
 62
     7
370
    25
100
AcDbLine
 10
5.6436227885
 20
9.8895063523
 30
0.0
 11
5.6436227885
 21
10.4520063523
 31
0.0
  0
SPLINE
  5
BF
330
1F
100
AcDbEntity
  8
0
  6
Continuous
 62
     7
370
    25
100
AcDbSpline
210
0.0
220
0.0
230
1.0
 70
    24
 71
     3
 72
     9
 73
     5
 74
     0
 42
0.00000001
 43
0.00000001
 40
0.0
 40
0.0
 40
0.0
 40
0.0
 40
0.4995107894512578
 40
1.0
 40
1.0
 40
1.0
 40
1.0
 10
5.643622788489055
 20
10.45200635227755
 30
0.0
 10
5.647362947270016
 20
10.45200635227755
 30
0.0
 10
5.654850590900438
 20
10.45200635227754
 30
0.0
 10
5.660696815936204
 20
10.45200635227758
 30
0.0
 10
5.663622788489044
 20
10.4520063522776
 30
0.0
  0
LINE
  5
C0
330
1F
100
AcDbEntity
  8
0
  6
Continuous
 62
     7
370
    25
100
AcDbLine
 10
5.5236227885
 20
9.8895063523
 30
0.0
 11
5.5236227885
 21
10.4520063523
 31
0.0
  0
SPLINE
  5
C1
330
1F
100
AcDbEntity
  8
0
  6
Continuous
 62
     7
370
    25
100
AcDbSpline
210
0.0
220
0.0
230
1.0
 70
    24
 71
     3
 72
     9
 73
     5
 74
     0
 42
0.00000001
 43
0.00000001
 40
0.0
 40
0.0
 40
0.0
 40
0.0
 40
0.4995107894512431
 40
1.0
 40
1.0
 40
1.0
 40
1.0
 10
5.52362278848904
 20
9.889506352277607
 30
0.0
 10
5.519882629708066
 20
9.889506352277616
 30
0.0
 10
5.51239498607762
 20
9.889506352277634
 30
0.0
 10
5.50654876104188
 20
9.889506352277609
 30
0.0
 10
5.50362278848905
 20
9.889506352277598
 30
0.0
  0
LINE
  5
C2
330
1F
100
AcDbEntity
  8
0
  6
Continuous
 62
     7
370
    25
100
AcDbLine
 10
5.5036227885
 20
10.4520063523
 30
0.0
 11
5.5036227885
 21
9.8895063523
 31
0.0
  0
SPLINE
  5
C3
330
1F
100
AcDbEntity
  8
0
  6
Continuous
 62
     7
370
    25
100
AcDbSpline
210
0.0
220
0.0
230
1.0
 70
    24
 71
     3
 72
    10
 73
     6
 74
     0
 42
0.00000001
 43
0.00000001
 40
0.0
 40
0.0
 40
0.0
 40
0.0
 40
0.466149210778229
 40
0.9332262706969735
 40
1.0
 40
1.0
 40
1.0
 40
1.0
 10
5.50362278848905
 20
10.4520063522776
 30
0.0
 10
5.506350681002565
 20
10.45200635227758
 30
0.0
 10
5.51181189577755
 20
10.45200635227754
 30
0.0
 10
5.519031232162864
 20
10.45200635227755
 30
0.0
 10
5.523112327577533
 20
10.45200635227755
 30
0.0
 10
5.523622788489049
 20
10.45200635227755
 30
0.0
  0
SPLINE
  5
C4
330
1F
100
AcDbEntity
  8
0
  6
Continuous
 62
     7
370
    25
100
AcDbSpline
210
0.0
220
0.0
230
1.0
 70
    24
 71
     3
 72
     9
 73
     5
 74
     0
 42
0.00000001
 43
0.00000001
 40
0.0
 40
0.0
 40
0.0
 40
0.0
 40
0.4995107894512418
 40
0.9999999999999999
 40
0.9999999999999999
 40
0.9999999999999999
 40
0.9999999999999999
 10
5.603622788489041
 20
9.889506352277607
 30
0.0
 10
5.599882629708064
 20
9.889506352277616
 30
0.0
 10
5.592394986077613
 20
9.889506352277634
 30
0.0
 10
5.586548761041871
 20
9.889506352277609
 30
0.0
 10
5.583622788489043
 20
9.889506352277598
 30
0.0
  0
SPLINE
  5
C5
330
1F
100
AcDbEntity
  8
0
  6
Continuous
 62
     7
370
    25
100
AcDbSpline
210
0.0
220
0.0
230
1.0
 70
    24
 71
     3
 72
    10
 73
     6
 74
     0
 42
0.00000001
 43
0.00000001
 40
0.0
 40
0.0
 40
0.0
 40
0.0
 40
0.466149210778227
 40
0.9332262706969757
 40
1.0
 40
1.0
 40
1.0
 40
1.0
 10
5.583622788489043
 20
10.4520063522776
 30
0.0
 10
5.586350681002557
 20
10.45200635227758
 30
0.0
 10
5.591811895777541
 20
10.45200635227754
 30
0.0
 10
5.599031232162865
 20
10.45200635227755
 30
0.0
 10
5.603112327577535
 20
10.45200635227755
 30
0.0
 10
5.60362278848905
 20
10.45200635227755
 30
0.0
  0
SPLINE
  5
C6
330
1F
100
AcDbEntity
  8
0
  6
Continuous
 62
     7
370
    25
100
AcDbSpline
210
0.0
220
0.0
230
1.0
 70
    24
 71
     3
 72
     9
 73
     5
 74
     0
 42
0.00000001
 43
0.00000001
 40
0.0
 40
0.0
 40
0.0
 40
0.0
 40
0.4995107894512418
 40
0.9999999999999999
 40
0.9999999999999999
 40
0.9999999999999999
 40
0.9999999999999999
 10
5.643622788489046
 20
9.889506352277607
 30
0.0
 10
5.63988262970807
 20
9.889506352277616
 30
0.0
 10
5.632394986077617
 20
9.889506352277634
 30
0.0
 10
5.626548761041876
 20
9.889506352277609
 30
0.0
 10
5.623622788489048
 20
9.889506352277598
 30
0.0
  0
SPLINE
  5
C7
330
1F
100
AcDbEntity
  8
0
  6
Continuous
 62
     7
370
    25
100
AcDbSpline
210
0.0
220
0.0
230
1.0
 70
    24
 71
     3
 72
    10
 73
     6
 74
     0
 42
0.00000001
 43
0.00000001
 40
0.0
 40
0.0
 40
0.0
 40
0.0
 40
0.466149210778212
 40
0.93322627069694
 40
1.0
 40
1.0
 40
1.0
 40
1.0
 10
5.623622788489048
 20
10.4520063522776
 30
0.0
 10
5.626350681002565
 20
10.45200635227758
 30
0.0
 10
5.631811895777556
 20
10.45200635227754
 30
0.0
 10
5.639031232162838
 20
10.45200635227755
 30
0.0
 10
5.643112327577537
 20
10.45200635227755
 30
0.0
 10
5.643622788489055
 20
10.45200635227755
 30
0.0
  0
SPLINE
  5
C8
330
1F
100
AcDbEntity
  8
0
  6
Continuous
 62
     7
370
    25
100
AcDbSpline
210
0.0
220
0.0
230
1.0
 70
    24
 71
     3
 72
    10
 73
     6
 74
     0
 42
0.00000001
 43
0.00000001
 40
0.0
 40
0.0
 40
0.0
 40
0.0
 40
0.4661492107781569
 40
0.9332262706968686
 40
1.0
 40
1.0
 40
1.0
 40
1.0
 10
5.543622788489047
 20
9.889506352277598
 30
0.0
 10
5.540894895975549
 20
9.889506352277605
 30
0.0
 10
5.535433681200595
 20
9.88950635227762
 30
0.0
 10
5.528214344815217
 20
9.889506352277648
 30
0.0
 10
5.524133249400554
 20
9.88950635227761
 30
0.0
 10
5.52362278848904
 20
9.889506352277607
 30
0.0
  0
SPLINE
  5
C9
330
1F
100
AcDbEntity
  8
0
  6
Continuous
 62
     7
370
    25
100
AcDbSpline
210
0.0
220
0.0
230
1.0
 70
    24
 71
     3
 72
     9
 73
     5
 74
     0
 42
0.00000001
 43
0.00000001
 40
0.0
 40
0.0
 40
0.0
 40
0.0
 40
0.4995107894512562
 40
1.0
 40
1.0
 40
1.0
 40
1.0
 10
5.523622788489049
 20
10.45200635227755
 30
0.0
 10
5.527362947270014
 20
10.45200635227755
 30
0.0
 10
5.534850590900442
 20
10.45200635227754
 30
0.0
 10
5.540696815936208
 20
10.45200635227758
 30
0.0
 10
5.543622788489047
 20
10.4520063522776
 30
0.0
  0
SPLINE
  5
CA
330
1F
100
AcDbEntity
  8
0
  6
Continuous
 62
     7
370
    25
100
AcDbSpline
210
0.0
220
0.0
230
1.0
 70
    24
 71
     3
 72
     9
 73
     5
 74
     0
 42
0.00000001
 43
0.00000001
 40
0.0
 40
0.0
 40
0.0
 40
0.0
 40
0.4995271105052345
 40
0.9999999999999999
 40
0.9999999999999999
 40
0.9999999999999999
 40
0.9999999999999999
 10
5.683122788489047
 20
9.889506352277616
 30
0.0
 10
5.679481624151749
 20
9.88950635227762
 30
0.0
 10
5.672192401483502
 20
9.88950635227763
 30
0.0
 10
5.666481126688432
 20
9.889506352277609
 30
0.0
 10
5.663622788489044
 20
9.889506352277598
 30
0.0
  0
SPLINE
  5
CB
330
1F
100
AcDbEntity
  8
0
  6
Continuous
 62
     7
370
    25
100
AcDbSpline
210
0.0
220
0.0
230
1.0
 70
    24
 71
     3
 72
    10
 73
     6
 74
     0
 42
0.00000001
 43
0.00000001
 40
0.0
 40
0.0
 40
0.0
 40
0.0
 40
0.476507751173702
 40
0.9539639696989638
 40
1.0
 40
1.0
 40
1.0
 40
1.0
 10
5.663622788489044
 20
10.4520063522776
 30
0.0
 10
5.666350215748092
 20
10.45200635227758
 30
0.0
 10
5.671810499088074
 20
10.45200635227754
 30
0.0
 10
5.678877786032735
 20
10.45200635227755
 30
0.0
 10
5.682779657043484
 20
10.45200635227755
 30
0.0
 10
5.683122788489047
 20
10.45200635227755
 30
0.0
  0
LINE
  5
CC
330
1F
100
AcDbEntity
  8
0
  6
Continuous
 62
     7
370
    25
100
AcDbLine
 10
5.6831227885
 20
10.4520063523
 30
0.0
 11
5.6831227885
 21
9.8895063523
 31
0.0
  0
LINE
  5
CD
330
1F
100
AcDbEntity
  8
0
  6
Continuous
 62
     7
370
    25
100
AcDbLine
 10
5.7531227885
 20
9.8895063523
 30
0.0
 11
5.6831227885
 21
9.8895063523
 31
0.0
  0
LINE
  5
CE
330
1F
100
AcDbEntity
  8
0
  6
Continuous
 62
     7
370
    25
100
AcDbLine
 10
5.6831227885
 20
10.4520063523
 30
0.0
 11
5.7531227885
 21
10.4520063523
 31
0.0
  0
LINE
  5
CF
330
1F
100
AcDbEntity
  8
0
  6
Continuous
 62
     7
370
    25
100
AcDbLine
 10
5.8911227885
 20
10.8587912619
 30
0.0
 11
5.8911227885
 21
11.2507563523
 31
0.0
  0
LINE
  5
D0
330
1F
100
AcDbEntity
  8
0
  6
Continuous
 62
     7
370
    25
100
AcDbLine
 10
5.8911227885
 20
9.0907563523
 30
0.0
 11
5.8911227885
 21
10.8587912619
 31
0.0
  0
LINE
  5
D1
330
1F
100
AcDbEntity
  8
0
  6
Continuous
 62
     7
370
    25
100
AcDbLine
 10
5.9211227885
 20
10.8779033427
 30
0.0
 11
5.9211227885
 21
9.0607563523
 31
0.0
  0
LINE
  5
D2
330
1F
100
AcDbEntity
  8
0
  6
Continuous
 62
     7
370
    25
100
AcDbLine
 10
5.9211227885
 20
11.2807563523
 30
0.0
 11
5.9211227885
 21
10.8779033427
 31
0.0
  0
LINE
  5
D3
330
1F
100
AcDbEntity
  8
0
  6
Continuous
 62
     7
370
    25
100
AcDbLine
 10
9.5911227885
 20
7.6557563523
 30
0.0
 11
9.5911227885
 21
12.6857563523
 31
0.0
  0
LINE
  5
D4
330
1F
100
AcDbEntity
  8
0
  6
Continuous
 62
     7
370
    25
100
AcDbLine
 10
9.2641227885
 20
12.6857563523
 30
0.0
 11
9.2641227885
 21
7.6557563523
 31
0.0
  0
LINE
  5
D5
330
1F
100
AcDbEntity
  8
0
  6
Continuous
 62
     7
370
    25
100
AcDbLine
 10
7.8411227885
 20
9.0607563523
 30
0.0
 11
7.8411227885
 21
11.2807563523
 31
0.0
  0
DIMENSION
  5
D6
330
1F
100
AcDbEntity
  8
0
  6
Continuous
 62
     7
370
    18
100
AcDbDimension
  2
_D
 10
9.2341227885
 20
13.4731579271
 30
0.0
 11
7.3688727885
 21
13.4731579271
 31
0.0
 70
   160
  1
<>
 71
     2
 42
-1.0
  3
SLDDIMSTYLE0
100
AcDbAlignedDimension
 13
5.5036227885
 23
10.4520063523
 33
0.0
 14
9.2341227885
 24
12.6557563523
 34
0.0
 50
0.0
100
AcDbRotatedDimension
  0
DIMENSION
  5
EC
330
1F
100
AcDbEntity
  8
0
  6
Continuous
 62
     7
370
    18
100
AcDbDimension
  2
_D_1
 10
1.9180204263
 20
9.0607563523
 30
0.0
 11
1.9180204263
 21
10.1707563523
 31
0.0
 70
   160
  1
%%c<>
 71
     2
 42
-1.0
  3
SLDDIMSTYLE0
100
AcDbAlignedDimension
 13
5.9211227885
 23
11.2807563523
 33
0.0
 14
5.9211227885
 24
9.0607563523
 34
0.0
 50
90.0
100
AcDbRotatedDimension
  0
DIMENSION
  5
FF
330
1F
100
AcDbEntity
  8
0
  6
Continuous
 62
     7
370
    18
100
AcDbDimension
  2
_D_2
 10
10.6211227885
 20
13.4731579271
 30
0.0
 11
9.9276227885
 21
13.4731579271
 31
0.0
 70
   160
  1
<>
 71
     2
 42
-1.0
  3
SLDDIMSTYLE1
100
AcDbAlignedDimension
 13
9.2341227885
 23
12.5757563523
 33
0.0
 14
10.6211227885
 24
10.1707563523
 34
0.0
100
AcDbRotatedDimension
  0
SPLINE
  5
114
330
1F
100
AcDbEntity
  8
0
  6
Continuous
 62
     7
370
    25
100
AcDbSpline
210
0.0
220
0.0
230
1.0
 70
     8
 71
     3
 72
   106
 73
   102
 74
     0
 42
0.00000001
 43
0.00000001
 40
0.0
 40
0.0
 40
0.0
 40
0.0
 40
0.007880839067167
 40
0.017967419247032
 40
0.0280565281119593
 40
0.0381493302384691
 40
0.0482468832067007
 40
0.0583501117975188
 40
0.0684597886295814
 40
0.0785765218154338
 40
0.0887007497389365
 40
0.0988327426089032
 40
0.1089726100623748
 40
0.1191203138027994
 40
0.1292756840789029
 40
0.1394384387410712
 40
0.1496082036442994
 40
0.1597845332818099
 40
0.1699669307072144
 40
0.1801548660103069
 40
0.190347792828033
 40
0.2005451625787464
 40
0.2107464362897135
 40
0.2209510940369021
 40
0.2311586421289139
 40
0.2413686182443405
 40
0.2515805947777519
 40
0.2617941806689691
 40
0.2720090219896751
 40
0.2822248015462652
 40
0.2924412377332712
 40
0.3026580828424204
 40
0.3128751210008558
 40
0.3230921189050989
 40
0.3333089168630713
 40
0.3435253881627681
 40
0.3537414276403937
 40
0.363956949425483
 40
0.3741718848184624
 40
0.3843861803181916
 40
0.3945997958081978
 40
0.4048127029037805
 40
0.4150248834574022
 40
0.4252363282162182
 40
0.4354470356236363
 40
0.4456570107550872
 40
0.45586626437768
 40
0.4660748121231257
 40
0.476282673763392
 40
0.4864898725789612
 40
0.4966964348101545
 40
0.5069023891824607
 40
0.5171077664976459
 40
0.527312599283049
 40
0.5375169214921444
 40
0.547720768250136
 40
0.5579241756389796
 40
0.5681271805167671
 40
0.5783298203669979
 40
0.5885321331736546
 40
0.5987341573185241
 40
0.6089359314975127
 40
0.6191374946530681
 40
0.6293388859201078
 40
0.6395401445830755
 40
0.6497413100419954
 40
0.6599424217855223
 40
0.6701435193691353
 40
0.680344638402554
 40
0.6905458093136939
 40
0.7007470717597369
 40
0.710948465401153
 40
0.7211500298808947
 40
0.7313518047995003
 40
0.7415538296839141
 40
0.7517561439480027
 40
0.7619587868427059
 40
0.772161797393498
 40
0.7823652143226798
 40
0.7925690759535958
 40
0.8027734200937406
 40
0.8129782838932055
 40
0.8231837036745303
 40
0.8333897147296381
 40
0.843596351078877
 40
0.853803645186751
 40
0.864011627628194
 40
0.8742203266986672
 40
0.8844297679606028
 40
0.8946399737180104
 40
0.9048509624103813
 40
0.9150627479163052
 40
0.9252753387565797
 40
0.935488737186224
 40
0.9457029381643676
 40
0.9559179281912243
 40
0.9661336840015623
 40
0.9763501711054319
 40
0.9865673421684974
 40
0.9967851352272933
 40
1.0
 40
1.0
 40
1.0
 40
1.0
 10
14.23931798262808
 20
14.87929180531207
 30
0.0
 10
14.23179190058862
 20
14.87427636146795
 30
0.0
 10
14.21463328712904
 20
14.86284171834311
 30
0.0
 10
14.18871647011482
 20
14.84357689262916
 30
0.0
 10
14.16143189752252
 20
14.82176053995412
 30
0.0
 10
14.13493846186357
 20
14.79874031862908
 30
0.0
 10
14.1092212975245
 20
14.77457521947072
 30
0.0
 10
14.08430219811893
 20
14.74926461998233
 30
0.0
 10
14.06019294829037
 20
14.72282467541683
 30
0.0
 10
14.03690781564664
 20
14.69526792165834
 30
0.0
 10
14.01446015996643
 20
14.66660882004904
 30
0.0
 10
13.99286328538031
 20
14.6368623304474
 30
0.0
 10
13.97213014275178
 20
14.6060443360026
 30
0.0
 10
13.95227333350796
 20
14.57417155152724
 30
0.0
 10
13.93330503047908
 20
14.54126155061917
 30
0.0
 10
13.91523692325604
 20
14.50733274248027
 30
0.0
 10
13.89808016287598
 20
14.47240434617816
 30
0.0
 10
13.88184531532942
 20
14.43649635265674
 30
0.0
 10
13.86654232310025
 20
14.39962948056185
 30
0.0
 10
13.85218047576921
 20
14.36182512774038
 30
0.0
 10
13.83876838939943
 20
14.32310532114846
 30
0.0
 10
13.82631399411569
 20
14.2834926672259
 30
0.0
 10
13.81482452889828
 20
14.24301030442121
 30
0.0
 10
13.80430654242707
 20
14.20168185905824
 30
0.0
 10
13.79476589873468
 20
14.15953140529475
 30
0.0
 10
13.78620778645416
 20
14.1165834295303
 30
0.0
 10
13.77863673054379
 20
14.07286279930169
 30
0.0
 10
13.77205660551408
 20
14.02839473646081
 30
0.0
 10
13.76647064934667
 20
13.98320479426125
 30
0.0
 10
13.76188147746427
 20
13.93731883787599
 30
0.0
 10
13.75829109627149
 20
13.89076302781857
 30
0.0
 10
13.75570091593064
 20
13.84356380573593
 30
0.0
 10
13.75411176459568
 20
13.7957479553325
 30
0.0
 10
13.75352388979
 20
13.74734252301864
 30
0.0
 10
13.75393696802017
 20
13.69837479417326
 30
0.0
 10
13.75535011911855
 20
13.64887220675354
 30
0.0
 10
13.75776191742011
 20
13.59886241532218
 30
0.0
 10
13.76117039811571
 20
13.54837329657974
 30
0.0
 10
13.76557306263558
 20
13.49743294037401
 30
0.0
 10
13.77096688336268
 20
13.44606964038913
 30
0.0
 10
13.77734830779931
 20
13.39431188442356
 30
0.0
 10
13.78471326230515
 20
13.34218834419718
 30
0.0
 10
13.7930571555165
 20
13.28972786465269
 30
0.0
 10
13.80237488154689
 20
13.23695945273614
 30
0.0
 10
13.81266082305849
 20
13.18391226565723
 30
0.0
 10
13.82390885428357
 20
13.13061559864148
 30
0.0
 10
13.83611234406473
 20
13.07709887219536
 30
0.0
 10
13.84926415897306
 20
13.02339161891141
 30
0.0
 10
13.86335666655467
 20
12.96952346984484
 30
0.0
 10
13.87838173874751
 20
12.9155241404952
 30
0.0
 10
13.89433075550371
 20
12.86142341642878
 30
0.0
 10
13.91119460864587
 20
12.80725113857716
 30
0.0
 10
13.92896370598042
 20
12.75303718824762
 30
0.0
 10
13.94762797568601
 20
12.6988114718799
 30
0.0
 10
13.96717687099099
 20
12.64460390558335
 30
0.0
 10
13.98759937515024
 20
12.59044439948662
 30
0.0
 10
14.00888400672861
 20
12.53636284193105
 30
0.0
 10
14.03101882519557
 20
12.48238908353734
 30
0.0
 10
14.05399143683347
 20
12.42855292117374
 30
0.0
 10
14.07778900095994
 20
12.37488408185241
 30
0.0
 10
14.10239823646329
 20
12.32141220657948
 30
0.0
 10
14.12780542864853
 20
12.26816683418301
 30
0.0
 10
14.15399643639033
 20
12.21517738514186
 30
0.0
 10
14.18095669958831
 20
12.16247314543751
 30
0.0
 10
14.20867124691925
 20
12.11008325044993
 30
0.0
 10
14.23712470387987
 20
12.05803666891762
 30
0.0
 10
14.26630130111323
 20
12.0063621869814
 30
0.0
 10
14.29618487911114
 20
11.95508839902242
 30
0.0
 10
14.3267588913798
 20
11.90424370028378
 30
0.0
 10
14.35800642189171
 20
11.85385625529994
 30
0.0
 10
14.38991019886395
 20
11.80395397587161
 30
0.0
 10
14.42245261062045
 20
11.75456449777343
 30
0.0
 10
14.45561570624977
 20
11.70571518097578
 30
0.0
 10
14.48938120568027
 20
11.65743309477372
 30
0.0
 10
14.52373050996266
 20
11.60974500313543
 30
0.0
 10
14.55864471174631
 20
11.56267735028768
 30
0.0
 10
14.5941046059349
 20
11.51625624655432
 30
0.0
 10
14.63009070050654
 20
11.47050745446347
 30
0.0
 10
14.66658322748136
 20
11.42545637513923
 30
0.0
 10
14.7035621540188
 20
11.38112803499318
 30
0.0
 10
14.74100719362462
 20
11.33754707273079
 30
0.0
 10
14.77889781744621
 20
11.29473772668722
 30
0.0
 10
14.81721326563217
 20
11.25272382250659
 30
0.0
 10
14.85593255873038
 20
11.21152876117771
 30
0.0
 10
14.8950345090957
 20
11.17117550743868
 30
0.0
 10
14.93449773227564
 20
11.13168657855977
 30
0.0
 10
14.9743006583395
 20
11.09308403351825
 30
0.0
 10
15.01442154311274
 20
11.05538946255318
 30
0.0
 10
15.05483847927475
 20
11.01862397717273
 30
0.0
 10
15.09552940727489
 20
10.98280820035596
 30
0.0
 10
15.1364721260156
 20
10.9479622579068
 30
0.0
 10
15.17764430325563
 20
10.91410576735611
 30
0.0
 10
15.21902348565175
 20
10.8812578378081
 30
0.0
 10
15.26058710846914
 20
10.84943703063766
 30
0.0
 10
15.30231250455748
 20
10.81866146787976
 30
0.0
 10
15.34417691379476
 20
10.78894839074588
 30
0.0
 10
15.38615748820236
 20
10.76031577167647
 30
0.0
 10
15.42823131032497
 20
10.73277626247707
 30
0.0
 10
15.47037535891037
 20
10.70635974806454
 30
0.0
 10
15.50292706512344
 20
10.68681651055686
 30
0.0
 10
15.52142203296797
 20
10.67609000945992
 30
0.0
 10
15.52584847048626
 20
10.6735228145724
 30
0.0
  0
SPLINE
  5
115
330
1F
100
AcDbEntity
  8
0
  6
Continuous
 62
     7
370
    25
100
AcDbSpline
210
0.0
220
0.0
230
1.0
 70
     8
 71
     3
 72
    40
 73
    36
 74
     0
 42
0.00000001
 43
0.00000001
 40
0.0
 40
0.0
 40
0.0
 40
0.0
 40
0.0166117136173372
 40
0.0481429881098742
 40
0.0796762752747023
 40
0.1112102124508399
 40
0.1427441818477347
 40
0.1742774928970957
 40
0.20580942997843
 40
0.2373391741801284
 40
0.2688657970632432
 40
0.3003882557823171
 40
0.3319053901423573
 40
0.3634159222768524
 40
0.394918459722547
 40
0.4264115027359608
 40
0.4578934567320564
 40
0.4893626507066525
 40
0.5208173624146931
 40
0.5522558508942563
 40
0.5836763966377709
 40
0.6150773493052222
 40
0.6464571823524613
 40
0.6778145533274467
 40
0.7091483679024647
 40
0.7404578450168273
 40
0.7717425798727984
 40
0.8030026010406562
 40
0.8342384176713711
 40
0.8654510528582907
 40
0.8966420595837507
 40
0.9278135164411359
 40
0.9589680014100557
 40
0.9901085433056666
 40
1.0
 40
1.0
 40
1.0
 40
1.0
 10
15.52584847048626
 20
10.6735228145724
 30
0.0
 10
15.53326137685699
 20
10.66927571512821
 30
0.0
 10
15.55474498002321
 20
10.65696704771718
 30
0.0
 10
15.59030466435328
 20
10.63747791037641
 30
0.0
 10
15.63250295169618
 20
10.6154490278635
 30
0.0
 10
15.67465998417905
 20
10.59461596619824
 30
0.0
 10
15.71675153497817
 20
10.57497172058707
 30
0.0
 10
15.75875423143639
 20
10.55653339234457
 30
0.0
 10
15.8006445593143
 20
10.53931073508076
 30
0.0
 10
15.84239902554123
 20
10.5233146253283
 30
0.0
 10
15.88399408348001
 20
10.50855478845696
 30
0.0
 10
15.92540614809197
 20
10.49504038774128
 30
0.0
 10
15.96661159737581
 20
10.48277983947443
 30
0.0
 10
16.0075867802385
 20
10.47178083255823
 30
0.0
 10
16.04830802638786
 20
10.46205029059165
 30
0.0
 10
16.08875166050234
 20
10.45359434703322
 30
0.0
 10
16.12889402117852
 20
10.44641831520074
 30
0.0
 10
16.16871148558466
 20
10.44052665898746
 30
0.0
 10
16.20818050049097
 20
10.43592296407211
 30
0.0
 10
16.24727762016331
 20
10.43260991138248
 30
0.0
 10
16.28597955123443
 20
10.43058925442026
 30
0.0
 10
16.32426320432775
 20
10.42986180217694
 30
0.0
 10
16.36210575127535
 20
10.43042741012681
 30
0.0
 10
16.39948468760424
 20
10.43228497908331
 30
0.0
 10
16.43637789393539
 20
10.43543247127955
 30
0.0
 10
16.47276370945264
 20
10.43986691590058
 30
0.0
 10
16.50862095517486
 20
10.44558451228853
 30
0.0
 10
16.54392912388971
 20
10.45258042868293
 30
0.0
 10
16.57866791211267
 20
10.4608497925772
 30
0.0
 10
16.61281915219551
 20
10.47038428795805
 30
0.0
 10
16.6463597301134
 20
10.48118516634067
 30
0.0
 10
16.67928803359804
 20
10.49321508276567
 30
0.0
 10
16.71152529579732
 20
10.50657802900291
 30
0.0
 10
16.73606373340029
 20
10.51760447592202
 30
0.0
 10
16.74962444884264
 20
10.5245841097536
 30
0.0
 10
16.75289348847394
 20
10.5262666684434
 30
0.0
  0
LINE
  5
116
330
1F
100
AcDbEntity
  8
0
  6
Continuous
 62
     7
370
    25
100
AcDbLine
 10
14.5146733626
 20
15.0402038132
 30
0.0
 11
14.2834494452
 21
14.9067210869
 31
0.0
  0
LINE
  5
117
330
1F
100
AcDbEntity
  8
0
  6
Continuous
 62
     7
370
    25
100
AcDbLine
 10
16.7982450578
 20
10.5504953091
 30
0.0
 11
17.0294689752
 21
10.6839780354
 31
0.0
  0
SPLINE
  5
118
330
1F
100
AcDbEntity
  8
0
  6
Continuous
 62
     7
370
    25
100
AcDbSpline
210
0.0
220
0.0
230
1.0
 70
     8
 71
     3
 72
   138
 73
   134
 74
     0
 42
0.00000001
 43
0.00000001
 40
0.0
 40
0.0
 40
0.0
 40
0.0
 40
0.0057538886227617
 40
0.0133681586470985
 40
0.020984265089264
 40
0.028603092534302
 40
0.03622544652695
 40
0.0438520337367521
 40
0.0514834469347586
 40
0.0591201552474338
 40
0.0667624997931646
 40
0.0744106944661465
 40
0.0820648313395704
 40
0.0897248899364902
 40
0.097390749474508
 40
0.1050622031318585
 40
0.1127389734012522
 40
0.1204207276803386
 40
0.1281070933759628
 40
0.1357976719545878
 40
0.1434920515346096
 40
0.1511898177733716
 40
0.1588905629406074
 40
0.1665938931848154
 40
0.1742994340862745
 40
0.1820068346510618
 40
0.1897157699366901
 40
0.1974259425161591
 40
0.2051370829878716
 40
0.2128489497279468
 40
0.2205613280635988
 40
0.2282740290241036
 40
0.2359868878023467
 40
0.243699729684981
 40
0.2514124289610932
 40
0.2591248886103139
 40
0.2668370280177139
 40
0.2745487812645022
 40
0.282260095517275
 40
0.2899709295297102
 40
0.2976812522637232
 40
0.3053910416321263
 40
0.313100283360966
 40
0.3208089699672342
 40
0.3285170998457687
 40
0.336224676458119
 40
0.3439317076155712
 40
0.3516382048482697
 40
0.3593441828525603
 40
0.3670496590088206
 40
0.3747546529625217
 40
0.3824591862617202
 40
0.3901632820446596
 40
0.3978669647717394
 40
0.4055702599965723
 40
0.4132731941714069
 40
0.4209757944826151
 40
0.4286780887124251
 40
0.436380105123456
 40
0.4440818723629729
 40
0.4517834193841456
 40
0.4594847753818048
 40
0.4671859697405466
 40
0.4748870319931663
 40
0.4825879917876447
 40
0.490288878861034
 40
0.4979897230187418
 40
0.5056905541178226
 40
0.5133913998280515
 40
0.5210922823275366
 40
0.5287932315527792
 40
0.5364942774439075
 40
0.5441954499291553
 40
0.5518967789063893
 40
0.5595982942199865
 40
0.5673000256315966
 40
0.5750020027831678
 40
0.58270425515061
 40
0.5904068119860527
 40
0.5981097022467602
 40
0.6058129545082103
 40
0.6135165968588231
 40
0.6212206567733524
 40
0.6289251609616793
 40
0.6366301351893372
 40
0.6443356040656545
 40
0.6520415907949862
 40
0.6597481168859077
 40
0.6674552018128826
 40
0.6751628626241646
 40
0.6828711134893425
 40
0.6905799651793174
 40
0.6982894244710425
 40
0.7059994934690261
 40
0.7137101688353147
 40
0.7214214409197655
 40
0.729133292782617
 40
0.7368456991022514
 40
0.7445586249622582
 40
0.7522720245140886
 40
0.7599858395145497
 40
0.7676999977417742
 40
0.7754144112989286
 40
0.7831289748225476
 40
0.7908435316814948
 40
0.7985579144810073
 40
0.8062719462072885
 40
0.8139854244467996
 40
0.8216981198824784
 40
0.8294097751320849
 40
0.8371201040726238
 40
0.8448287918202887
 40
0.8525354955572159
 40
0.860239846412925
 40
0.8679414526158556
 40
0.8756399041249106
 40
0.8833347789270832
 40
0.8910256511410518
 40
0.8987121009934924
 40
0.9063937266333882
 40
0.9140701576196842
 40
0.9217410697643217
 40
0.9294062008444194
 40
0.937065366528281
 40
0.9447184757072775
 40
0.9523655443104337
 40
0.9600067066205932
 40
0.9676422231282839
 40
0.9752724840626674
 40
0.9828980079306395
 40
0.990519434666769
 40
0.9981375133293441
 40
1.0
 40
1.0
 40
1.0
 40
1.0
 10
17.07204106533368
 20
10.71039065340216
 30
0.0
 10
17.07933395723433
 20
10.71521850624883
 30
0.0
 10
17.09627772210636
 20
10.72643518196337
 30
0.0
 10
17.12200670081171
 20
10.745441447591
 30
0.0
 10
17.14935249428585
 20
10.76716327554742
 30
0.0
 10
17.1759071218714
 20
10.79009183519782
 30
0.0
 10
17.20168690545941
 20
10.81416567864767
 30
0.0
 10
17.22666964707636
 20
10.8393861461545
 30
0.0
 10
17.25084365572463
 20
10.86573695623984
 30
0.0
 10
17.2741946214968
 20
10.89320567952572
 30
0.0
 10
17.29670917487388
 20
10.92177790423157
 30
0.0
 10
17.31837398822225
 20
10.95143873947257
 30
0.0
 10
17.33917608507305
 20
10.98217236849098
 30
0.0
 10
17.35910283279187
 20
11.0139621445972
 30
0.0
 10
17.3781420226772
 20
11.04679056135507
 30
0.0
 10
17.39628192467442
 20
11.08063927509817
 30
0.0
 10
17.41351134325179
 20
11.11548912968027
 30
0.0
 10
17.429819664505
 20
11.15132019382812
 30
0.0
 10
17.44519689531926
 20
11.1881118048644
 30
0.0
 10
17.4596336934768
 20
11.22584261697784
 30
0.0
 10
17.47312138895298
 20
11.2644906512674
 30
0.0
 10
17.48565199695424
 20
11.30403334547308
 30
0.0
 10
17.49721822365566
 20
11.34444760167081
 30
0.0
 10
17.50781346579155
 20
11.38570983070388
 30
0.0
 10
17.51743180533845
 20
11.42779599256654
 30
0.0
 10
17.52606800051005
 20
11.47068163235402
 30
0.0
 10
17.53371747419112
 20
11.51434191171818
 30
0.0
 10
17.5403763007979
 20
11.55875163601734
 30
0.0
 10
17.54604119238837
 20
11.60388527752318
 30
0.0
 10
17.55070948467687
 20
11.64971699515624
 30
0.0
 10
17.55437912344522
 20
11.69622065127528
 30
0.0
 10
17.55704865169697
 20
11.74336982605347
 30
0.0
 10
17.55871719544342
 20
11.79113776317862
 30
0.0
 10
17.55938446142365
 20
11.83949743562413
 30
0.0
 10
17.55905072822924
 20
11.88842157661396
 30
0.0
 10
17.55771683236724
 20
11.93788275926254
 30
0.0
 10
17.55538415649843
 20
11.98785334699928
 30
0.0
 10
17.55205462288705
 20
12.03830548041318
 30
0.0
 10
17.5477306879587
 20
12.08921108622281
 30
0.0
 10
17.54241533753847
 20
12.14054188655808
 30
0.0
 10
17.53611208264534
 20
12.19226940864709
 30
0.0
 10
17.52882495572428
 20
12.24436499497013
 30
0.0
 10
17.52055850720555
 20
12.29679981391744
 30
0.0
 10
17.51131780229014
 20
12.34954487096715
 30
0.0
 10
17.50110841787115
 20
12.40257102038411
 30
0.0
 10
17.48993643951103
 20
12.45584897742804
 30
0.0
 10
17.47780845840508
 20
12.50934933105076
 30
0.0
 10
17.4647315682714
 20
12.5630425570556
 30
0.0
 10
17.45071336211629
 20
12.61689903168818
 30
0.0
 10
17.43576192883219
 20
12.67088904562456
 30
0.0
 10
17.41988584959279
 20
12.72498281832172
 30
0.0
 10
17.4030941940162
 20
12.77915051269461
 30
0.0
 10
17.38539651607272
 20
12.83336225008424
 30
0.0
 10
17.36680284971879
 20
12.88758812548192
 30
0.0
 10
17.34732370424285
 20
12.94179822297605
 30
0.0
 10
17.32697005931257
 20
12.9959626313886
 30
0.0
 10
17.30575335971591
 20
13.05005146007051
 30
0.0
 10
17.28368550979126
 20
13.10403485482591
 30
0.0
 10
17.2607788675441
 20
13.15788301393723
 30
0.0
 10
17.23704623844947
 20
13.21156620426405
 30
0.0
 10
17.21250086894133
 20
13.26505477739025
 30
0.0
 10
17.18715643959105
 20
13.31831918579518
 30
0.0
 10
17.16102705797865
 20
13.37132999902564
 30
0.0
 10
17.13412725126127
 20
13.4240579198467
 30
0.0
 10
17.10647195844426
 20
13.47647380035007
 30
0.0
 10
17.07807652236127
 20
13.52854865799983
 30
0.0
 10
17.04895668136999
 20
13.58025369159603
 30
0.0
 10
17.0191285636438
 20
13.63156029219624
 30
0.0
 10
16.98860868597663
 20
13.68244004693536
 30
0.0
 10
16.95741393543831
 20
13.73286477241094
 30
0.0
 10
16.92556155674325
 20
13.78280653504805
 30
0.0
 10
16.89306913424337
 20
13.83223767784486
 30
0.0
 10
16.8599545923156
 20
13.88113081841567
 30
0.0
 10
16.82623618530376
 20
13.92945886387869
 30
0.0
 10
16.79193248725188
 20
13.97719502552567
 30
0.0
 10
16.75706238144283
 20
14.02431283325574
 30
0.0
 10
16.72164504975627
 20
14.0707861497577
 30
0.0
 10
16.68569996186106
 20
14.1165891844246
 30
0.0
 10
16.64924686425866
 20
14.16169650698522
 30
0.0
 10
16.61230576919545
 20
14.20608306083682
 30
0.0
 10
16.57489694346367
 20
14.24972417606435
 30
0.0
 10
16.53704089711226
 20
14.29259558213118
 30
0.0
 10
16.49875837209146
 20
14.33467342022763
 30
0.0
 10
16.46007033085676
 20
14.37593425526392
 30
0.0
 10
16.42099794496089
 20
14.41635508749537
 30
0.0
 10
16.38156258366516
 20
14.45591336376916
 30
0.0
 10
16.34178580260448
 20
14.49458698838363
 30
0.0
 10
16.30168933254402
 20
14.5323543335534
 30
0.0
 10
16.26129506826895
 20
14.56919424947665
 30
0.0
 10
16.22062505765247
 20
14.60508607400441
 30
0.0
 10
16.17970149095135
 20
14.64000964191621
 30
0.0
 10
16.13854669038214
 20
14.67394529381238
 30
0.0
 10
16.09718310003497
 20
14.70687388463978
 30
0.0
 10
16.05563327618551
 20
14.73877679187606
 30
0.0
 10
16.01391987806825
 20
14.76963592340783
 30
0.0
 10
15.97206565917661
 20
14.7994337251491
 30
0.0
 10
15.93009345915528
 20
14.82815318846111
 30
0.0
 10
15.88802619634926
 20
14.85577785744934
 30
0.0
 10
15.84588686106926
 20
14.88229183623279
 30
0.0
 10
15.80369850962544
 20
14.90767979629986
 30
0.0
 10
15.76148425916884
 20
14.93192698408796
 30
0.0
 10
15.71926728336076
 20
14.95501922894778
 30
0.0
 10
15.67707080886719
 20
14.97694295167627
 30
0.0
 10
15.63491817080607
 20
14.99768514520506
 30
0.0
 10
15.59283279122239
 20
15.01723340280702
 30
0.0
 10
15.55083815228873
 20
15.03557594672762
 30
0.0
 10
15.5089577377836
 20
15.05270166459349
 30
0.0
 10
15.46721505187868
 20
15.06860011100326
 30
0.0
 10
15.42563364257174
 20
15.08326151318157
 30
0.0
 10
15.38423709851479
 20
15.0966767907006
 30
0.0
 10
15.34304904417712
 20
15.1088375774874
 30
0.0
 10
15.30209313262538
 20
15.11973624609531
 30
0.0
 10
15.26139303511445
 20
15.12936593406739
 30
0.0
 10
15.2209724266267
 20
15.13772057202771
 30
0.0
 10
15.180854966486
 20
15.14479491290374
 30
0.0
 10
15.14106427322586
 20
15.15058456141834
 30
0.0
 10
15.10162389302771
 20
15.15508600270105
 30
0.0
 10
15.06255726127236
 20
15.1582966286
 30
0.0
 10
15.02388765712239
 20
15.16021475996676
 30
0.0
 10
14.98563815138999
 20
15.16083966321883
 30
0.0
 10
14.94783154893606
 20
15.16017155861323
 30
0.0
 10
14.91049032582449
 20
15.15821162073297
 30
0.0
 10
14.8736365682049
 20
15.15496196083634
 30
0.0
 10
14.83729189769172
 20
15.15042562268296
 30
0.0
 10
14.80147745343084
 20
15.14460646953309
 30
0.0
 10
14.76621368457737
 20
15.13750941726011
 30
0.0
 10
14.73152088750927
 20
15.12913932102722
 30
0.0
 10
14.69741702065864
 20
15.11950483304961
 30
0.0
 10
14.66392573597095
 20
15.10860369301522
 30
0.0
 10
14.63104639790751
 20
15.09647722446245
 30
0.0
 10
14.5988659204388
 20
15.0830067891814
 30
0.0
 10
14.57512742563936
 20
15.0722807550632
 30
0.0
 10
14.56233703036949
 20
15.0656581966601
 30
0.0
 10
14.55982431727008
 20
15.06435717437736
 30
0.0
  0
ARC
  5
119
330
1F
100
AcDbEntity
  8
0
  6
Continuous
 62
     7
370
    25
100
AcDbCircle
 10
15.5284728828
 20
12.721464627
 30
0.0
 40
1.012499999999999
100
AcDbArc
 50
120.8636979963
 51
180.0
  0
ARC
  5
11A
330
1F
100
AcDbEntity
  8
0
  6
Continuous
 62
     7
370
    25
100
AcDbCircle
 10
15.5284728828
 20
12.721464627
 30
0.0
 40
1.012499999999999
100
AcDbArc
 50
180.0
 51
206.9739044095
  0
LINE
  5
11B
330
1F
100
AcDbEntity
  8
0
  6
Continuous
 62
     7
370
    25
100
AcDbLine
 10
20.0963873193
 20
15.4923675021
 30
0.0
 11
18.6360858466
 21
14.649353406
 31
0.0
  0
LINE
  5
11C
330
1F
100
AcDbEntity
  8
0
  6
Continuous
 62
     7
370
    25
100
AcDbLine
 10
18.7090686658
 20
14.5298317941
 30
0.0
 11
20.1663816306
 21
15.3711206614
 31
0.0
  0
LINE
  5
11D
330
1F
100
AcDbEntity
  8
0
  6
Continuous
 62
     7
370
    25
100
AcDbLine
 10
18.7551839436
 20
14.4421378637
 30
0.0
 11
20.1663816306
 21
15.2568049477
 31
0.0
  0
LINE
  5
11E
330
1F
100
AcDbEntity
  8
0
  6
Continuous
 62
     7
370
    25
100
AcDbLine
 10
17.5809742418
 20
15.1880313204
 30
0.0
 11
16.3558034568
 21
14.480755281
 31
0.0
  0
LINE
  5
11F
330
1F
100
AcDbEntity
  8
0
  6
Continuous
 62
     7
370
    25
100
AcDbLine
 10
17.4657704683
 20
12.558159838
 30
0.0
 11
18.690884035
 21
13.2654028459
 31
0.0
  0
LINE
  5
120
330
1F
100
AcDbEntity
  8
0
  6
Continuous
 62
     7
370
    25
100
AcDbLine
 10
18.9208176655
 20
13.7736105811
 30
0.0
 11
18.9208176655
 21
13.7981028245
 31
0.0
  0
LINE
  5
121
330
1F
100
AcDbEntity
  8
0
  6
Continuous
 62
     7
370
    25
100
AcDbLine
 10
18.1572664606
 20
15.1207556178
 30
0.0
 11
18.1360567049
 21
15.1330037298
 31
0.0
  0
LWPOLYLINE
  5
122
330
1F
100
AcDbEntity
  8
0
  6
Continuous
 62
     7
370
    25
100
AcDbPolyline
 90
      241
 70
   128
 43
0.0
 10
15.519634048
 20
10.6872581588
 10
15.5656311437
 20
10.6613999239
 10
15.6115967153
 20
10.6369500574
 10
15.6574992602
 20
10.613925316
 10
15.7033073193
 20
10.5923414798
 10
15.7489894978
 20
10.5722133412
 10
15.7945144876
 20
10.5535546951
 10
15.839851088
 20
10.536378329
 10
15.8849682277
 20
10.520696015
 10
15.9298349856
 20
10.5065185008
 10
15.9744206122
 20
10.493855503
 10
16.0186945509
 20
10.4827157002
 10
16.0626264584
 20
10.473106727
 10
16.1061862261
 20
10.465035169
 10
16.1493440001
 20
10.458506558
 10
16.1920702025
 20
10.4535253684
 10
16.2343355507
 20
10.4500950141
 10
16.2761110781
 20
10.448217846
 10
16.317368154
 20
10.4478951506
 10
16.3580785028
 20
10.4491271492
 10
16.3982142237
 20
10.4519129973
 10
16.4377478095
 20
10.4562507858
 10
16.4766521661
 20
10.4621375416
 10
16.5149006303
 20
10.4695692303
 10
16.5524669884
 20
10.4785407585
 10
16.5893254945
 20
10.4890459778
 10
16.6254508874
 20
10.5010776882
 10
16.6608184088
 20
10.5146276439
 10
16.6954038193
 20
10.5296865584
 10
16.729183416
 20
10.5462441111
 10
16.762134048
 20
10.5642889542
 10
16.7942331326
 20
10.5838087208
 10
16.8254586706
 20
10.6047900329
 10
16.8557892616
 20
10.6272185109
 10
16.8852041186
 20
10.6510787837
 10
16.9136830821
 20
10.6763544984
 10
16.941206634
 20
10.7030283325
 10
16.9677559111
 20
10.7310820049
 10
16.9933127178
 20
10.7604962891
 10
17.0178595387
 20
10.791251026
 10
17.0413795507
 20
10.8233251379
 10
17.0638566344
 20
10.8566966427
 10
17.085275385
 20
10.8913426694
 10
17.1056211233
 20
10.9272394731
 10
17.1248799053
 20
10.9643624522
 10
17.1430385319
 20
11.0026861642
 10
17.1600845582
 20
11.0421843442
 10
17.1760063016
 20
11.0828299219
 10
17.1907928503
 20
11.124595041
 10
17.2044340701
 20
11.1674510776
 10
17.2169206122
 20
11.2113686606
 10
17.2282439189
 20
11.2563176908
 10
17.2383962297
 20
11.3022673625
 10
17.2473705868
 20
11.3491861841
 10
17.2551608395
 20
11.3970419997
 10
17.2617616489
 20
11.4458020115
 10
17.267168491
 20
11.4954328016
 10
17.2713776603
 20
11.5459003557
 10
17.2743862721
 20
11.5971700858
 10
17.2761922643
 20
11.6492068541
 10
17.2767943993
 20
11.7019749974
 10
17.2761922643
 20
11.7554383508
 10
17.2743862721
 20
11.8095602734
 10
17.2713776603
 20
11.8643036727
 10
17.267168491
 20
11.9196310302
 10
17.2617616489
 20
11.9755044274
 10
17.2551608395
 20
12.0318855714
 10
17.2473705868
 20
12.0887358215
 10
17.2383962297
 20
12.1460162152
 10
17.2282439189
 20
12.2036874954
 10
17.2169206122
 20
12.2617101373
 10
17.2044340701
 20
12.3200443748
 10
17.1907928503
 20
12.3786502287
 10
17.1760063016
 20
12.4374875334
 10
17.1600845582
 20
12.4965159649
 10
17.1430385319
 20
12.5556950678
 10
17.1248799053
 20
12.6149842839
 10
17.1056211233
 20
12.6743429793
 10
17.085275385
 20
12.7337304725
 10
17.0638566344
 20
12.7931060622
 10
17.0413795507
 20
12.8524290554
 10
17.0178595387
 20
12.9116587952
 10
16.9933127178
 20
12.9707546883
 10
16.9677559111
 20
13.0296762334
 10
16.941206634
 20
13.0883830487
 10
16.9136830821
 20
13.1468348993
 10
16.8852041186
 20
13.2049917254
 10
16.8557892616
 20
13.2628136692
 10
16.8254586706
 20
13.3202611023
 10
16.7942331326
 20
13.3772946531
 10
16.762134048
 20
13.4338752339
 10
16.729183416
 20
13.4899640669
 10
16.6954038193
 20
13.5455227118
 10
16.6608184088
 20
13.6005130914
 10
16.6254508874
 20
13.654897518
 10
16.5893254945
 20
13.7086387193
 10
16.5524669884
 20
13.7616998638
 10
16.5149006303
 20
13.814044586
 10
16.4766521661
 20
13.8656370114
 10
16.4377478095
 20
13.9164417812
 10
16.3982142237
 20
13.9664240763
 10
16.3580785028
 20
14.0155496414
 10
16.317368154
 20
14.0637848082
 10
16.2761110781
 20
14.1110965187
 10
16.2343355507
 20
14.157452348
 10
16.1920702025
 20
14.2028205259
 10
16.1493440001
 20
14.2471699595
 10
16.1061862261
 20
14.2904702538
 10
16.0626264584
 20
14.332691733
 10
16.0186945509
 20
14.3738054606
 10
15.9744206122
 20
14.4137832593
 10
15.9298349856
 20
14.4525977303
 10
15.8849682277
 20
14.4902222722
 10
15.839851088
 20
14.5266310988
 10
15.7945144876
 20
14.5617992575
 10
15.7489894978
 20
14.5957026457
 10
15.7033073193
 20
14.6283180277
 10
15.6574992602
 20
14.6596230507
 10
15.6115967153
 20
14.6895962597
 10
15.5656311437
 20
14.7182171125
 10
15.519634048
 20
14.7454659938
 10
15.4736369524
 20
14.7713242287
 10
15.4276713808
 20
14.7957740952
 10
15.3817688358
 20
14.8187988366
 10
15.3359607768
 20
14.8403826728
 10
15.2902785983
 20
14.8605108114
 10
15.2447536085
 20
14.8791694575
 10
15.1994170081
 20
14.8963458236
 10
15.1542998684
 20
14.9120281376
 10
15.1094331105
 20
14.9262056518
 10
15.0648474838
 20
14.9388686496
 10
15.0205735452
 20
14.9500084524
 10
14.9766416377
 20
14.9596174256
 10
14.93308187
 20
14.9676889836
 10
14.8899240959
 20
14.9742175946
 10
14.8471978936
 20
14.9791987842
 10
14.8049325454
 20
14.9826291385
 10
14.763157018
 20
14.9845063066
 10
14.7218999421
 20
14.984829002
 10
14.6811895933
 20
14.9835970034
 10
14.6410538724
 20
14.9808111553
 10
14.6015202865
 20
14.9764733669
 10
14.56261593
 20
14.970586611
 10
14.5243674658
 20
14.9631549223
 10
14.4868011077
 20
14.9541833941
 10
14.4499426016
 20
14.9436781748
 10
14.4138172087
 20
14.9316464644
 10
14.3784496873
 20
14.9180965087
 10
14.3438642767
 20
14.9030375942
 10
14.31008468
 20
14.8864800415
 10
14.277134048
 20
14.8684351984
 10
14.2450349635
 20
14.8489154318
 10
14.2138094255
 20
14.8279341198
 10
14.1834788344
 20
14.8055056417
 10
14.1540639774
 20
14.7816453689
 10
14.1255850139
 20
14.7563696542
 10
14.098061462
 20
14.7296958201
 10
14.071512185
 20
14.7016421477
 10
14.0459553783
 20
14.6722278635
 10
14.0214085574
 20
14.6414731266
 10
13.9978885453
 20
14.6093990147
 10
13.9754114617
 20
14.5760275099
 10
13.953992711
 20
14.5413814832
 10
13.9336469728
 20
14.5054846795
 10
13.9143881908
 20
14.4683617004
 10
13.8962295642
 20
14.4300379884
 10
13.8791835379
 20
14.3905398084
 10
13.8632617945
 20
14.3498942307
 10
13.8484752458
 20
14.3081291116
 10
13.8348340259
 20
14.265273075
 10
13.8223474838
 20
14.2213554921
 10
13.8110241772
 20
14.1764064618
 10
13.8008718664
 20
14.1304567901
 10
13.7918975093
 20
14.0835379685
 10
13.7841072566
 20
14.0356821529
 10
13.7775064472
 20
13.9869221411
 10
13.7720996051
 20
13.937291351
 10
13.7678904357
 20
13.8868237969
 10
13.764881824
 20
13.8355540668
 10
13.7630758318
 20
13.7835172985
 10
13.7624736968
 20
13.7307491552
 10
13.7630758318
 20
13.6772858018
 10
13.764881824
 20
13.6231638792
 10
13.7678904357
 20
13.5684204799
 10
13.7720996051
 20
13.5130931224
 10
13.7775064472
 20
13.4572197252
 10
13.7841072566
 20
13.4008385812
 10
13.7918975093
 20
13.3439883311
 10
13.8008718664
 20
13.2867079374
 10
13.8110241772
 20
13.2290366572
 10
13.8223474838
 20
13.1710140154
 10
13.8348340259
 20
13.1126797778
 10
13.8484752458
 20
13.0540739239
 10
13.8632617945
 20
12.9952366192
 10
13.8791835379
 20
12.9362081878
 10
13.8962295642
 20
12.8770290848
 10
13.9143881908
 20
12.8177398687
 10
13.9336469728
 20
12.7583811733
 10
13.953992711
 20
12.6989936801
 10
13.9754114617
 20
12.6396180904
 10
13.9978885453
 20
12.5802950972
 10
14.0214085574
 20
12.5210653574
 10
14.0459553783
 20
12.4619694643
 10
14.071512185
 20
12.4030479192
 10
14.098061462
 20
12.3443411039
 10
14.1255850139
 20
12.2858892533
 10
14.1540639774
 20
12.2277324272
 10
14.1834788344
 20
12.1699104835
 10
14.2138094255
 20
12.1124630503
 10
14.2450349635
 20
12.0554294995
 10
14.277134048
 20
11.9988489187
 10
14.31008468
 20
11.9427600857
 10
14.3438642767
 20
11.8872014408
 10
14.3784496873
 20
11.8322110613
 10
14.4138172087
 20
11.7778266346
 10
14.4499426016
 20
11.7240854333
 10
14.4868011077
 20
11.6710242888
 10
14.5243674658
 20
11.6186795666
 10
14.56261593
 20
11.5670871412
 10
14.6015202865
 20
11.5162823714
 10
14.6410538724
 20
11.4663000763
 10
14.6811895933
 20
11.4171745112
 10
14.7218999421
 20
11.3689393444
 10
14.763157018
 20
11.3216276339
 10
14.8049325454
 20
11.2752718046
 10
14.8471978936
 20
11.2299036267
 10
14.8899240959
 20
11.1855541931
 10
14.93308187
 20
11.1422538988
 10
14.9766416377
 20
11.1000324196
 10
15.0205735452
 20
11.058918692
 10
15.0648474838
 20
11.0189408933
 10
15.1094331105
 20
10.9801264223
 10
15.1542998684
 20
10.9425018805
 10
15.1994170081
 20
10.9060930538
 10
15.2447536085
 20
10.8709248951
 10
15.2902785983
 20
10.8370215069
 10
15.3359607768
 20
10.8044061249
 10
15.3817688358
 20
10.7731011019
 10
15.4276713808
 20
10.7431278929
 10
15.4736369524
 20
10.7145070401
 10
15.519634048
 20
10.6872581588
  0
ARC
  5
123
330
1F
100
AcDbEntity
  8
0
  6
Continuous
 62
     7
370
    25
100
AcDbCircle
 10
14.7029884526
 20
14.1799801731
 30
0.0
 40
0.8391452355267778
100
AcDbArc
 50
116.4116886082
 51
123.4631081227
  0
ARC
  5
124
330
1F
100
AcDbEntity
  8
0
  6
Continuous
 62
     7
370
    25
100
AcDbCircle
 10
16.3787052988
 20
11.2772394569
 30
0.0
 40
0.8391484106348281
100
AcDbArc
 50
296.5677753466
 51
303.6335498061
  0
ARC
  5
125
330
1F
100
AcDbEntity
  8
0
  6
Continuous
 62
     7
370
    25
100
AcDbCircle
 10
16.6098795861
 20
11.4107876457
 30
0.0
 40
0.8392302813293011
100
AcDbArc
 50
299.9979699364
 51
303.3392387455
  0
LWPOLYLINE
  5
126
330
1F
100
AcDbEntity
  8
0
  6
Continuous
 62
     7
370
    25
100
AcDbPolyline
 90
        3
 70
   128
 43
0.0
 10
14.5587138534
 20
15.0639064307
 10
14.5479195953
 20
15.0584074967
 10
14.5146733626
 20
15.0402038132
  0
ARC
  5
127
330
1F
100
AcDbEntity
  8
0
  6
Continuous
 62
     7
370
    25
100
AcDbCircle
 10
15.8074690214
 20
12.2215795946
 30
0.0
 40
0.3487668704733607
100
AcDbArc
 50
255.5904299346
 51
310.959542258
  0
LWPOLYLINE
  5
128
330
1F
100
AcDbEntity
  8
0
  6
Continuous
 62
     7
370
    25
100
AcDbPolyline
 90
       71
 70
   128
 43
0.0
 10
16.184605852
 20
12.0262792206
 10
16.1945342645
 20
12.0510311132
 10
16.2034151949
 20
12.076815636
 10
16.2112348594
 20
12.1035927699
 10
16.2179811216
 20
12.1313209555
 10
16.2236435108
 20
12.1599571569
 10
16.2282132387
 20
12.1894569292
 10
16.2316832128
 20
12.2197744873
 10
16.2340480476
 20
12.2508627765
 10
16.2353040727
 20
12.2826735462
 10
16.2354493386
 20
12.3151574242
 10
16.23448362
 20
12.3482639939
 10
16.2324084156
 20
12.3819418719
 10
16.2292269464
 20
12.4161387885
 10
16.22494415
 20
12.4508016681
 10
16.2195666737
 20
12.485876712
 10
16.2131028635
 20
12.5213094818
 10
16.2055627517
 20
12.557044984
 10
16.196958041
 20
12.593027755
 10
16.1873020863
 20
12.6292019476
 10
16.1766098741
 20
12.6655114176
 10
16.1648979995
 20
12.7018998105
 10
16.1521846398
 20
12.7383106497
 10
16.1384895269
 20
12.7746874235
 10
16.1238339163
 20
12.8109736732
 10
16.1082405545
 20
12.8471130804
 10
16.091733643
 20
12.883049555
 10
16.0743388016
 20
12.9187273214
 10
16.056083028
 20
12.9540910059
 10
16.0369946562
 20
12.989085722
 10
16.0171033123
 20
13.0236571561
 10
15.9964398689
 20
13.0577516514
 10
15.9750363967
 20
13.0913162913
 10
15.952926115
 20
13.1242989817
 10
15.9301433403
 20
13.1566485317
 10
15.9067234327
 20
13.1883147329
 10
15.8827027411
 20
13.2192484378
 10
15.858118547
 20
13.2494016354
 10
15.8330090064
 20
13.2787275264
 10
15.8074130906
 20
13.3071805954
 10
15.781370526
 20
13.3347166816
 10
15.7549217321
 20
13.3612930476
 10
15.7281077587
 20
13.3868684453
 10
15.7009702227
 20
13.4114031804
 10
15.6735512431
 20
13.4348591736
 10
15.6458933755
 20
13.4572000199
 10
15.6180395465
 20
13.478391045
 10
15.5900329867
 20
13.4983993594
 10
15.561917164
 20
13.5171939091
 10
15.5337357155
 20
13.5347455238
 10
15.5055323805
 20
13.5510269626
 10
15.4773509321
 20
13.5660129557
 10
15.4492351093
 20
13.579680244
 10
15.4212285496
 20
13.5920076151
 10
15.3933747206
 20
13.6029759364
 10
15.365716853
 20
13.6125681843
 10
15.3382978733
 20
13.6207694712
 10
15.3111603374
 20
13.6275670683
 10
15.284346364
 20
13.6329504252
 10
15.2578975701
 20
13.6369111867
 10
15.2318550055
 20
13.6394432055
 10
15.2062590897
 20
13.6405425518
 10
15.1811495491
 20
13.6402075193
 10
15.156565355
 20
13.638438628
 10
15.1325446634
 20
13.6352386234
 10
15.1091247558
 20
13.6306124719
 10
15.0863419811
 20
13.6245673537
 10
15.0642316994
 20
13.6171126511
 10
15.0428282272
 20
13.6082599342
 10
15.0221647837
 20
13.5980229429
 10
15.0090629261
 20
13.5905846112
  0
LWPOLYLINE
  5
129
330
1F
100
AcDbEntity
  8
0
  6
Continuous
 62
     7
370
    25
100
AcDbPolyline
 90
       73
 70
   128
 43
0.0
 10
14.282197181
 20
13.2633283077
 10
14.2948310064
 20
13.2566719283
 10
14.3073686808
 20
13.2513401536
 10
14.3197147849
 20
13.2473735615
 10
14.3317753573
 20
13.2448023402
 10
14.3434586099
 20
13.2436460583
 10
14.354675626
 20
13.2439135157
 10
14.3653410374
 20
13.245602677
 10
14.3753736739
 20
13.2487006867
 10
14.384697181
 20
13.2531839669
 10
14.3932406011
 20
13.2590183972
 10
14.4009389139
 20
13.2661595742
 10
14.4077335303
 20
13.274553149
 10
14.4135727393
 20
13.2841352417
 10
14.418412101
 20
13.2948329265
 10
14.4222147849
 20
13.3065647877
 10
14.4249518502
 20
13.3192415388
 10
14.4266024664
 20
13.332766702
 10
14.4271540711
 20
13.3470373427
 10
14.4266024664
 20
13.3619448526
 10
14.4249518502
 20
13.3773757767
 10
14.4222147849
 20
13.3932126762
 10
14.418412101
 20
13.4093350228
 10
14.4135727393
 20
13.4256201157
 10
14.4077335303
 20
13.4419440155
 10
14.4009389139
 20
13.4581824875
 10
14.3932406011
 20
13.4742119471
 10
14.384697181
 20
13.4899104004
 10
14.3753736739
 20
13.5051583728
 10
14.3653410374
 20
13.5198398179
 10
14.354675626
 20
13.5338430011
 10
14.3434586099
 20
13.5470613497
 10
14.3317753573
 20
13.5593942641
 10
14.3197147849
 20
13.5707478834
 10
14.3073686808
 20
13.5810357997
 10
14.2948310064
 20
13.5901797156
 10
14.282197181
 20
13.5981100406
 10
14.2695633555
 20
13.60476642
 10
14.2570256812
 20
13.6100981947
 10
14.2446795771
 20
13.6140647868
 10
14.2326190046
 20
13.6166360081
 10
14.220935752
 20
13.61779229
 10
14.2097187359
 20
13.6175248326
 10
14.1990533245
 20
13.6158356713
 10
14.189020688
 20
13.6127376616
 10
14.179697181
 20
13.6082543814
 10
14.1711537608
 20
13.602419951
 10
14.1634554481
 20
13.5952787741
 10
14.1566608316
 20
13.5868851992
 10
14.1508216226
 20
13.5773031066
 10
14.145982261
 20
13.5666054218
 10
14.1421795771
 20
13.5548735606
 10
14.1394425117
 20
13.5421968095
 10
14.1377918956
 20
13.5286716463
 10
14.1372402908
 20
13.5144010056
 10
14.1377918956
 20
13.4994934957
 10
14.1394425117
 20
13.4840625716
 10
14.1421795771
 20
13.4682256721
 10
14.145982261
 20
13.4521033255
 10
14.1508216226
 20
13.4358182326
 10
14.1566608316
 20
13.4194943328
 10
14.1634554481
 20
13.4032558608
 10
14.1711537608
 20
13.3872264012
 10
14.179697181
 20
13.3715279479
 10
14.189020688
 20
13.3562799755
 10
14.1990533245
 20
13.3415985304
 10
14.2097187359
 20
13.3275953472
 10
14.220935752
 20
13.3143769986
 10
14.2326190046
 20
13.3020440842
 10
14.2446795771
 20
13.2906904649
 10
14.2570256812
 20
13.2804025486
 10
14.2695633555
 20
13.2712586327
 10
14.282197181
 20
13.2633283077
  0
LWPOLYLINE
  5
12A
330
1F
100
AcDbEntity
  8
0
  6
Continuous
 62
     7
370
    25
100
AcDbPolyline
 90
       73
 70
   128
 43
0.0
 10
16.7570709151
 20
11.834614112
 10
16.7697047405
 20
11.8279577326
 10
16.7822424149
 20
11.8226259579
 10
16.794588519
 20
11.8186593658
 10
16.8066490915
 20
11.8160881445
 10
16.8183323441
 20
11.8149318626
 10
16.8295493602
 20
11.81519932
 10
16.8402147716
 20
11.8168884813
 10
16.850247408
 20
11.819986491
 10
16.8595709151
 20
11.8244697712
 10
16.8681143353
 20
11.8303042016
 10
16.875812648
 20
11.8374453785
 10
16.8826072644
 20
11.8458389534
 10
16.8884464734
 20
11.855421046
 10
16.8932858351
 20
11.8661187308
 10
16.897088519
 20
11.877850592
 10
16.8998255844
 20
11.8905273431
 10
16.9014762005
 20
11.9040525063
 10
16.9020278053
 20
11.918323147
 10
16.9014762005
 20
11.9332306569
 10
16.8998255844
 20
11.948661581
 10
16.897088519
 20
11.9644984805
 10
16.8932858351
 20
11.9806208271
 10
16.8884464734
 20
11.99690592
 10
16.8826072644
 20
12.0132298198
 10
16.875812648
 20
12.0294682918
 10
16.8681143353
 20
12.0454977514
 10
16.8595709151
 20
12.0611962047
 10
16.850247408
 20
12.0764441771
 10
16.8402147716
 20
12.0911256222
 10
16.8295493602
 20
12.1051288054
 10
16.8183323441
 20
12.118347154
 10
16.8066490915
 20
12.1306800684
 10
16.794588519
 20
12.1420336877
 10
16.7822424149
 20
12.152321604
 10
16.7697047405
 20
12.1614655199
 10
16.7570709151
 20
12.1693958449
 10
16.7444370897
 20
12.1760522243
 10
16.7318994153
 20
12.181383999
 10
16.7195533112
 20
12.1853505911
 10
16.7074927388
 20
12.1879218124
 10
16.6958094862
 20
12.1890780943
 10
16.68459247
 20
12.1888106369
 10
16.6739270586
 20
12.1871214756
 10
16.6638944222
 20
12.1840234659
 10
16.6545709151
 20
12.1795401857
 10
16.6460274949
 20
12.1737057554
 10
16.6383291822
 20
12.1665645784
 10
16.6315345658
 20
12.1581710036
 10
16.6256953568
 20
12.1485889109
 10
16.6208559951
 20
12.1378912261
 10
16.6170533112
 20
12.1261593649
 10
16.6143162459
 20
12.1134826138
 10
16.6126656297
 20
12.0999574506
 10
16.612114025
 20
12.0856868099
 10
16.6126656297
 20
12.0707793
 10
16.6143162459
 20
12.055348376
 10
16.6170533112
 20
12.0395114764
 10
16.6208559951
 20
12.0233891298
 10
16.6256953568
 20
12.0071040369
 10
16.6315345658
 20
11.9907801371
 10
16.6383291822
 20
11.9745416651
 10
16.6460274949
 20
11.9585122055
 10
16.6545709151
 20
11.9428137522
 10
16.6638944222
 20
11.9275657798
 10
16.6739270586
 20
11.9128843347
 10
16.68459247
 20
11.8988811515
 10
16.6958094862
 20
11.8856628029
 10
16.7074927388
 20
11.8733298885
 10
16.7195533112
 20
11.8619762692
 10
16.7318994153
 20
11.8516883529
 10
16.7444370897
 20
11.842544437
 10
16.7570709151
 20
11.834614112
  0
LWPOLYLINE
  5
12B
330
1F
100
AcDbEntity
  8
0
  6
Continuous
 62
     7
370
    25
100
AcDbPolyline
 90
       52
 70
   128
 43
0.0
 10
14.6261195142
 20
12.2622101788
 10
14.6282107183
 20
12.2581596933
 10
14.6401178074
 20
12.2369962463
 10
14.653517064
 20
12.2161322314
 10
14.6683859811
 20
12.1956026939
 10
14.6846995837
 20
12.1754421171
 10
14.7024304697
 20
12.1556843648
 10
14.7215488566
 20
12.1363626239
 10
14.7420226315
 20
12.1175093493
 10
14.7638174044
 20
12.0991562085
 10
14.7868965668
 20
12.0813340294
 10
14.8112213527
 20
12.0640727477
 10
14.8367509039
 20
12.0474013574
 10
14.8634423384
 20
12.0313478611
 10
14.8912508227
 20
12.0159392239
 10
14.9201296469
 20
12.0012013278
 10
14.9500303035
 20
11.9871589277
 10
14.9809025683
 20
11.9738356109
 10
15.0126945853
 20
11.9612537563
 10
15.0453529536
 20
11.9494344977
 10
15.078822817
 20
11.9383976878
 10
15.1130479562
 20
11.9281618652
 10
15.1479708834
 20
11.9187442229
 10
15.1835329387
 20
11.9101605797
 10
15.2196743885
 20
11.9024253536
 10
15.2563345263
 20
11.8955515373
 10
15.293451774
 20
11.8895506768
 10
15.330963786
 20
11.8844328518
 10
15.3688075534
 20
11.8802066586
 10
15.4069195102
 20
11.8768791959
 10
15.4452356398
 20
11.8744560529
 10
15.4836915828
 20
11.8729412997
 10
15.5222227448
 20
11.8723374807
 10
15.5607644051
 20
11.87264561
 10
15.5992518255
 20
11.8738651702
 10
15.6376203586
 20
11.8759941127
 10
15.6758055571
 20
11.8790288615
 10
15.7137432814
 20
11.8829643192
 10
15.7513698075
 20
11.8877938754
 10
15.7886219343
 20
11.893509418
 10
15.8254370895
 20
11.9001013465
 10
15.8617534349
 20
11.9075585885
 10
15.8975099699
 20
11.915868618
 10
15.9326466344
 20
11.9250174769
 10
15.9671044095
 20
11.9349897977
 10
16.0008254166
 20
11.9457688299
 10
16.0337530145
 20
11.9573364681
 10
16.0658318949
 20
11.9696732822
 10
16.097008175
 20
11.98275855
 10
16.1272294881
 20
11.9965702922
 10
16.1564450715
 20
12.0110853094
 10
16.184605852
 20
12.0262792206
  0
ARC
  5
12C
330
1F
100
AcDbEntity
  8
0
  6
Continuous
 62
     7
370
    25
100
AcDbCircle
 10
15.8073370152
 20
12.2442533407
 30
0.0
 40
0.3700909615108478
100
AcDbArc
 50
256.7535368843
 51
297.2788111741
  0
ARC
  5
12D
330
1F
100
AcDbEntity
  8
0
  6
Continuous
 62
     7
370
    25
100
AcDbCircle
 10
16.8701809117
 20
12.0048638281
 30
0.0
 40
0.0470680951149345
100
AcDbArc
 50
232.0901020831
 51
304.3977474929
  0
LWPOLYLINE
  5
12E
330
1F
100
AcDbEntity
  8
0
  6
Continuous
 62
     7
370
    25
100
AcDbPolyline
 90
       21
 70
   128
 43
0.0
 10
16.7957756688
 20
12.1409747923
 10
16.7921303999
 20
12.1393857864
 10
16.7859604952
 20
12.1353604784
 10
16.7806627167
 20
12.1299985579
 10
16.7763206134
 20
12.1233845856
 10
16.7730026629
 20
12.1156228677
 10
16.7707611913
 20
12.1068358113
 10
16.7696315479
 20
12.0971619935
 10
16.7696315479
 20
12.0867539761
 10
16.7707611913
 20
12.0757758997
 10
16.7730026629
 20
12.0644008953
 10
16.7763206134
 20
12.0528083534
 10
16.7806627167
 20
12.0411810953
 10
16.7859604952
 20
12.0297024899
 10
16.7921303999
 20
12.0185535615
 10
16.7990751276
 20
12.0079101355
 10
16.8066851559
 20
11.9979400651
 10
16.81484047
 20
11.9888005842
 10
16.8234124558
 20
11.9806358279
 10
16.8322659279
 20
11.9735745592
 10
16.8412612618
 20
11.9677281387
  0
ARC
  5
12F
330
1F
100
AcDbEntity
  8
0
  6
Continuous
 62
     7
370
    25
100
AcDbCircle
 10
15.9023009911
 20
12.2596182104
 30
0.0
 40
0.3360876169329775
100
AcDbArc
 50
275.0746274378
 51
290.6939934475
  0
ARC
  5
130
330
1F
100
AcDbEntity
  8
0
  6
Continuous
 62
     7
370
    25
100
AcDbCircle
 10
14.3953071776
 20
13.4335780238
 30
0.0
 40
0.0470680951149253
100
AcDbArc
 50
232.0901020831
 51
304.397747493
  0
LWPOLYLINE
  5
131
330
1F
100
AcDbEntity
  8
0
  6
Continuous
 62
     7
370
    25
100
AcDbPolyline
 90
       21
 70
   128
 43
0.0
 10
14.3209019347
 20
13.569688988
 10
14.3172566658
 20
13.5680999821
 10
14.3110867611
 20
13.5640746741
 10
14.3057889825
 20
13.5587127536
 10
14.3014468792
 20
13.5520987813
 10
14.2981289287
 20
13.5443370634
 10
14.2958874571
 20
13.535550007
 10
14.2947578137
 20
13.5258761892
 10
14.2947578137
 20
13.5154681718
 10
14.2958874571
 20
13.5044900954
 10
14.2981289287
 20
13.493115091
 10
14.3014468792
 20
13.4815225491
 10
14.3057889825
 20
13.469895291
 10
14.3110867611
 20
13.4584166855
 10
14.3172566658
 20
13.4472677572
 10
14.3242013935
 20
13.4366243312
 10
14.3318114218
 20
13.4266542608
 10
14.3399667359
 20
13.4175147799
 10
14.3485387217
 20
13.4093500236
 10
14.3573921938
 20
13.4022887549
 10
14.3663875277
 20
13.3964423344
  0
LWPOLYLINE
  5
132
330
1F
100
AcDbEntity
  8
0
  6
Continuous
 62
     7
370
    25
100
AcDbPolyline
 90
       71
 70
   128
 43
0.0
 10
16.3864961202
 20
14.4509913029
 10
16.4044592653
 20
14.4519328033
 10
16.4306626818
 20
14.4520812131
 10
16.4573423888
 20
14.4508125739
 10
16.4844610722
 20
14.4481286601
 10
16.5119808043
 20
14.4440332253
 10
16.539863096
 20
14.4385319974
 10
16.5680689516
 20
14.4316326703
 10
16.5965589226
 20
14.4233448934
 10
16.6252931632
 20
14.4136802579
 10
16.654231486
 20
14.4026522806
 10
16.683333418
 20
14.3902763852
 10
16.7125582577
 20
14.3765698805
 10
16.7418651313
 20
14.3615519363
 10
16.7712130507
 20
14.3452435565
 10
16.8005609701
 20
14.3276675498
 10
16.8298678438
 20
14.3088484979
 10
16.8590926835
 20
14.288812721
 10
16.8881946155
 20
14.2675882409
 10
16.9171329383
 20
14.2452047419
 10
16.9458671788
 20
14.2216935294
 10
16.9743571498
 20
14.1970874859
 10
17.0025630054
 20
14.1714210253
 10
17.0304452972
 20
14.1447300443
 10
17.0579650293
 20
14.1170518728
 10
17.0850837127
 20
14.0884252212
 10
17.1117634197
 20
14.0588901264
 10
17.1379668362
 20
14.0284878959
 10
17.1636573143
 20
13.99726105
 10
17.1887989237
 20
13.9652532623
 10
17.2133565014
 20
13.9325092986
 10
17.2372957016
 20
13.8990749541
 10
17.260583043
 20
13.86499699
 10
17.2831859562
 20
13.8303230673
 10
17.3050728291
 20
13.7951016806
 10
17.3262130507
 20
13.7593820902
 10
17.3465770547
 20
13.7232142533
 10
17.3661363601
 20
13.6866487537
 10
17.3848636115
 20
13.6497367316
 10
17.402732617
 20
13.612529812
 10
17.4197183854
 20
13.5750800319
 10
17.4357971603
 20
13.5374397683
 10
17.4509464544
 20
13.4996616645
 10
17.4651450797
 20
13.4617985566
 10
17.4783731784
 20
13.4239033995
 10
17.4906122498
 20
13.3860291932
 10
17.5018451762
 20
13.348228908
 10
17.5120562476
 20
13.3105554112
 10
17.5212311828
 20
13.2730613924
 10
17.5293571498
 20
13.2357992905
 10
17.5364227838
 20
13.1988212199
 10
17.5424182027
 20
13.1621788978
 10
17.5473350215
 20
13.1259235717
 10
17.5511663635
 20
13.0901059481
 10
17.5539068703
 20
13.054776121
 10
17.5555527091
 20
13.0199835025
 10
17.5561015779
 20
12.9857767532
 10
17.5555527091
 20
12.9522037143
 10
17.5539068703
 20
12.9193113408
 10
17.5511663635
 20
12.8871456355
 10
17.5473350215
 20
12.8557515852
 10
17.5424182027
 20
12.8251730973
 10
17.5364227838
 20
12.7954529385
 10
17.5293571498
 20
12.7666326752
 10
17.5212311828
 20
12.7387526151
 10
17.5120562476
 20
12.711851751
 10
17.5018451762
 20
12.6859677063
 10
17.4906122498
 20
12.661136682
 10
17.4783731784
 20
12.6373934066
 10
17.4651450797
 20
12.6147710872
 10
17.4552471334
 20
12.5995314257
  0
SPLINE
  5
133
330
1F
100
AcDbEntity
  8
0
  6
Continuous
 62
     7
370
    25
100
AcDbSpline
210
0.0
220
0.0
230
1.0
 70
     8
 71
     3
 72
    15
 73
    11
 74
     0
 42
0.00000001
 43
0.00000001
 40
0.0
 40
0.0
 40
0.0
 40
0.0
 40
0.1203737527283109
 40
0.240759118471965
 40
0.3800932584521175
 40
0.5194376536465307
 40
0.6620301311420872
 40
0.804621162025296
 40
0.9483506842897002
 40
1.0
 40
1.0
 40
1.0
 40
1.0
 10
16.67786720923865
 20
14.24190651220528
 30
0.0
 10
16.67753809551647
 20
14.23940735548275
 30
0.0
 10
16.67687983632101
 20
14.23440880093242
 30
0.0
 10
16.67347948583708
 20
14.22676509634662
 30
0.0
 10
16.66800938431277
 20
14.21921125794156
 30
0.0
 10
16.66012674479205
 20
14.21199855676257
 30
0.0
 10
16.65026223330125
 20
14.2057154547049
 30
0.0
 10
16.63859771165881
 20
14.20063094109416
 30
0.0
 10
16.62847688914721
 20
14.19741243196644
 30
0.0
 10
16.62208509576576
 20
14.19641006860018
 30
0.0
 10
16.62039539509124
 20
14.19614508912493
 30
0.0
  0
SPLINE
  5
134
330
1F
100
AcDbEntity
  8
0
  6
Continuous
 62
     7
370
    25
100
AcDbSpline
210
0.0
220
0.0
230
1.0
 70
     8
 71
     3
 72
    20
 73
    16
 74
     0
 42
0.00000001
 43
0.00000001
 40
0.0
 40
0.0
 40
0.0
 40
0.0
 40
0.0456671410919891
 40
0.1267788165910639
 40
0.2074923829099653
 40
0.2881928504982996
 40
0.3669944756840171
 40
0.4457810282276728
 40
0.5217424677451605
 40
0.5976956899585908
 40
0.6712682747585639
 40
0.7448432599434958
 40
0.8177797859184872
 40
0.8907260154889541
 40
0.9999999999999999
 40
0.9999999999999999
 40
0.9999999999999999
 40
0.9999999999999999
 10
16.54820607604717
 20
14.27973845179877
 30
0.0
 10
16.55045304730545
 20
14.28070672231187
 30
0.0
 10
16.55669097572021
 20
14.28339478613314
 30
0.0
 10
16.56833500218073
 20
14.28660153438455
 30
0.0
 10
16.58257085615633
 20
14.28923504166275
 30
0.0
 10
16.59717422529859
 20
14.29043548727243
 30
0.0
 10
16.61164915777913
 20
14.29014657326007
 30
0.0
 10
16.62543092786435
 20
14.28842223575763
 30
0.0
 10
16.63818627589272
 20
14.28525417056972
 30
0.0
 10
16.64949427502158
 20
14.28086843534966
 30
0.0
 10
16.65913885317278
 20
14.27532496888352
 30
0.0
 10
16.66696755897942
 20
14.26889726458105
 30
0.0
 10
16.6727499182709
 20
14.26169346148331
 30
0.0
 10
16.67732569168264
 20
14.25269578295869
 30
0.0
 10
16.67766420766498
 20
14.24595114366239
 30
0.0
 10
16.67786720923865
 20
14.24190651220528
 30
0.0
  0
SPLINE
  5
135
330
1F
100
AcDbEntity
  8
0
  6
Continuous
 62
     7
370
    25
100
AcDbSpline
210
0.0
220
0.0
230
1.0
 70
     8
 71
     3
 72
    13
 73
     9
 74
     0
 42
0.00000001
 43
0.00000001
 40
0.0
 40
0.0
 40
0.0
 40
0.0
 40
0.177312063021425
 40
0.3762135642933651
 40
0.5751163261261864
 40
0.7740130081978789
 40
0.9729114200477177
 40
1.0
 40
1.0
 40
1.0
 40
1.0
 10
16.64879256052878
 20
14.205399419604
 30
0.0
 10
16.6466673613688
 20
14.20695686521152
 30
0.0
 10
16.64215819974051
 20
14.21026139031384
 30
0.0
 10
16.63352378910916
 20
14.2142244105383
 30
0.0
 10
16.62362590817935
 20
14.21744681772053
 30
0.0
 10
16.61284171574588
 20
14.21942626531553
 30
0.0
 10
16.6048309425839
 20
14.22034646373514
 30
0.0
 10
16.60049994792836
 20
14.22025689321059
 30
0.0
 10
16.59998080081257
 20
14.22024615658236
 30
0.0
  0
LWPOLYLINE
  5
136
330
1F
100
AcDbEntity
  8
0
  6
Continuous
 62
     7
370
    25
100
AcDbPolyline
 90
       21
 70
   128
 43
0.0
 10
16.6456058478
 20
14.2034576034
 10
16.6460592684
 20
14.2037597647
 10
16.6522107465
 20
14.2086083614
 10
16.6570080419
 20
14.2139422187
 10
16.6603387099
 20
14.2196363153
 10
16.6621246826
 20
14.2255571865
 10
16.6623240983
 20
14.2315660521
 10
16.6609322828
 20
14.2375220694
 10
16.6579818592
 20
14.2432856343
 10
16.6535419828
 20
14.2487216538
 10
16.6477167206
 20
14.2537027122
 10
16.6406426118
 20
14.2581120578
 10
16.6324854675
 20
14.2618463391
 10
16.6234364843
 20
14.2648180278
 10
16.6137077626
 20
14.26695747
 10
16.6035273355
 20
14.2682145191
 10
16.5931338235
 20
14.2685597108
 10
16.5827708418
 20
14.2679849542
 10
16.5726812898
 20
14.2665037211
 10
16.5631016581
 20
14.2641507302
 10
16.5622274345
 20
14.2638840172
  0
LWPOLYLINE
  5
137
330
1F
100
AcDbEntity
  8
0
  6
Continuous
 62
     7
370
    25
100
AcDbPolyline
 90
       23
 70
   128
 43
0.0
 10
20.1663816306
 20
15.3711206614
 10
20.167419713
 20
15.3717565822
 10
20.1720880984
 20
15.3757235475
 10
20.175841457
 20
15.3809498674
 10
20.1785954123
 20
15.387318053
 10
20.1802880547
 20
15.3946849461
 10
20.1808813334
 20
15.4028849371
 10
20.1803619112
 20
15.4117336883
 10
20.1787414648
 20
15.4210322779
 10
20.1760564224
 20
15.4305716713
 10
20.1723671442
 20
15.4401374208
 10
20.167756566
 20
15.449514486
 10
20.1623283349
 20
15.4584920684
 10
20.1562044786
 20
15.4668683499
 10
20.1495226628
 20
15.4744550297
 10
20.1424330964
 20
15.4810815575
 10
20.1350951544
 20
15.4865989674
 10
20.1276737955
 20
15.4908832267
 10
20.1203358535
 20
15.4938380243
 10
20.1132462871
 20
15.4953969357
 10
20.1065644713
 20
15.4955249161
 10
20.100440615
 20
15.4942190887
 10
20.0963873193
 20
15.4923675021
  0
LINE
  5
138
330
1F
100
AcDbEntity
  8
0
  6
Continuous
 62
     7
370
    25
100
AcDbLine
 10
18.7092848611
 20
14.529445816
 30
0.0
 11
20.1490621445
 21
15.3606115499
 31
0.0
  0
LWPOLYLINE
  5
139
330
1F
100
AcDbEntity
  8
0
  6
Continuous
 62
     7
370
    25
100
AcDbPolyline
 90
       15
 70
   128
 43
0.0
 10
20.1663816306
 20
15.2568049477
 10
20.167756566
 20
15.2576636413
 10
20.1723671442
 20
15.2617174463
 10
20.1760564224
 20
15.2670236459
 10
20.1787414648
 20
15.2734629552
 10
20.1803619112
 20
15.2808906173
 10
20.1808813334
 20
15.2891396564
 10
20.1802880547
 20
15.2980246324
 10
20.1785954123
 20
15.3073458088
 10
20.175841457
 20
15.3168936435
 10
20.1720880984
 20
15.3264534989
 10
20.167419713
 20
15.3358104673
 10
20.161941247
 20
15.3447542019
 10
20.1557758577
 20
15.3530836453
 10
20.1490621445
 20
15.3606115499
  0
LINE
  5
13A
330
1F
100
AcDbEntity
  8
0
  6
Continuous
 62
     7
370
    25
100
AcDbLine
 10
20.1490621445
 20
15.3606115499
 30
0.0
 11
20.1490621445
 21
15.3611223348
 31
0.0
  0
LWPOLYLINE
  5
13B
330
1F
100
AcDbEntity
  8
0
  6
Continuous
 62
     7
370
    25
100
AcDbPolyline
 90
        3
 70
   128
 43
0.0
 10
16.6105845899
 20
14.2201455862
 10
16.6303939868
 20
14.2097416409
 10
16.6428138403
 20
14.202895266
  0
LWPOLYLINE
  5
13C
330
1F
100
AcDbEntity
  8
0
  6
Continuous
 62
     7
370
    25
100
AcDbPolyline
 90
       86
 70
   128
 43
0.0
 10
18.690884035
 20
13.2654028459
 10
18.7018674349
 20
13.2719994836
 10
18.7218065693
 20
13.285364097
 10
18.7409263012
 20
13.3000452776
 10
18.7591998898
 20
13.3160224925
 10
18.776601778
 20
13.3332733961
 10
18.7931076275
 20
13.3517738616
 10
18.8086943534
 20
13.3714980142
 10
18.8233401564
 20
13.392418268
 10
18.8370245529
 20
13.4145053642
 10
18.8497284041
 20
13.4377284119
 10
18.8614339425
 20
13.4620549316
 10
18.8721247968
 20
13.4874509005
 10
18.8817860149
 20
13.5138808
 10
18.8904040847
 20
13.5413076655
 10
18.8979669531
 20
13.569693138
 10
18.9044640427
 20
13.5989975179
 10
18.9098862667
 20
13.6291798204
 10
18.9142260417
 20
13.6601978328
 10
18.9174772981
 20
13.6920081736
 10
18.9196354888
 20
13.7245663531
 10
18.9206975952
 20
13.7578268358
 10
18.920662132
 20
13.791743104
 10
18.9195291488
 20
13.8262677226
 10
18.91730023
 20
13.8613524058
 10
18.9139784932
 20
13.8969480846
 10
18.909568584
 20
13.9330049751
 10
18.90407667
 20
13.9694726486
 10
18.8975104323
 20
14.0063001017
 10
18.8898790543
 20
14.0434358279
 10
18.8811932091
 20
14.0808278894
 10
18.8714650448
 20
14.1184239902
 10
18.8607081669
 20
14.1561715487
 10
18.8489376201
 20
14.1940177715
 10
18.8361698664
 20
14.2319097273
 10
18.8224227628
 20
14.2697944206
 10
18.8077155357
 20
14.3076188664
 10
18.7920687546
 20
14.3453301637
 10
18.775504303
 20
14.38287557
 10
18.7580453476
 20
14.4202025744
 10
18.7397163065
 20
14.4572589719
 10
18.7205428144
 20
14.4939929358
 10
18.7005516872
 20
14.5303530901
 10
18.6797708844
 20
14.5662885821
 10
18.6582294696
 20
14.6017491526
 10
18.6359575707
 20
14.6366852069
 10
18.6129863367
 20
14.6710478837
 10
18.5893478952
 20
14.7047891236
 10
18.5650753065
 20
14.7378617366
 10
18.5402025181
 20
14.7702194676
 10
18.5147643168
 20
14.8018170613
 10
18.4887962802
 20
14.8326103257
 10
18.4623347271
 20
14.8625561937
 10
18.4354166662
 20
14.8916127831
 10
18.4080797449
 20
14.9197394558
 10
18.3803621964
 20
14.946896874
 10
18.3523027862
 20
14.9730470557
 10
18.3239407578
 20
14.9981534274
 10
18.2953157782
 20
15.0221808757
 10
18.266467882
 20
15.0450957959
 10
18.2374374155
 20
15.0668661394
 10
18.2082649806
 20
15.0874614586
 10
18.1789913774
 20
15.1068529489
 10
18.1496575478
 20
15.1250134896
 10
18.1203045177
 20
15.1419176815
 10
18.0909733401
 20
15.1575418827
 10
18.0617050373
 20
15.1718642412
 10
18.0325405435
 20
15.184864726
 10
18.0035206481
 20
15.1965251546
 10
17.9746859379
 20
15.2068292189
 10
17.9460767409
 20
15.2157625079
 10
17.9177330697
 20
15.2233125273
 10
17.8896945654
 20
15.2294687179
 10
17.8620004424
 20
15.2342224697
 10
17.8346894334
 20
15.2375671341
 10
17.8077997355
 20
15.2394980332
 10
17.7813689561
 20
15.2400124667
 10
17.7554340613
 20
15.2391097149
 10
17.7300313232
 20
15.2367910405
 10
17.7051962699
 20
15.2330596863
 10
17.6809636355
 20
15.227920871
 10
17.6573673114
 20
15.2213817817
 10
17.6344402994
 20
15.2134515638
 10
17.6122146648
 20
15.2041413086
 10
17.5907214923
 20
15.1934640372
 10
17.5809742418
 20
15.1880313204
  0
LWPOLYLINE
  5
13D
330
1F
100
AcDbEntity
  8
0
  6
Continuous
 62
     7
370
    25
100
AcDbPolyline
 90
       43
 70
   128
 43
0.0
 10
18.1572664606
 20
15.1207556178
 10
18.1829586267
 20
15.1054198168
 10
18.2119969544
 20
15.0868824509
 10
18.240955748
 20
15.0671156832
 10
18.2697930203
 20
15.0461481735
 10
18.2984669598
 20
15.0240103229
 10
18.3269359921
 20
15.0007342289
 10
18.3551588399
 20
14.9763536398
 10
18.3830945827
 20
14.9509039051
 10
18.4107027164
 20
14.9244219244
 10
18.4379432117
 20
14.896946094
 10
18.4647765726
 20
14.8685162515
 10
18.4911638933
 20
14.8391736171
 10
18.5170669147
 20
14.8089607351
 10
18.5424480799
 20
14.7779214111
 10
18.5672705885
 20
14.7461006493
 10
18.5914984505
 20
14.7135445866
 10
18.6150965376
 20
14.6803004263
 10
18.6380306348
 20
14.6464163693
 10
18.6602674901
 20
14.6119415441
 10
18.681774862
 20
14.5769259359
 10
18.7025215668
 20
14.5414203141
 10
18.722477524
 20
14.5054761584
 10
18.7416137991
 20
14.4691455845
 10
18.7599026466
 20
14.432481268
 10
18.7773175492
 20
14.3955363689
 10
18.793833257
 20
14.3583644537
 10
18.8094258239
 20
14.321019418
 10
18.8240726422
 20
14.2835554087
 10
18.8377524752
 20
14.246026745
 10
18.8504454886
 20
14.2084878398
 10
18.8621332787
 20
14.170993121
 10
18.8727988994
 20
14.1335969523
 10
18.8824268864
 20
14.0963535546
 10
18.8910032803
 20
14.0593169272
 10
18.8985156459
 20
14.0225407698
 10
18.9049530911
 20
13.9860784042
 10
18.9103062822
 20
13.9499826974
 10
18.9145674576
 20
13.9143059847
 10
18.917730439
 20
13.879099994
 10
18.9197906403
 20
13.8444157705
 10
18.9207450746
 20
13.810303603
 10
18.9208176655
 20
13.7981028245
  0
LWPOLYLINE
  5
13E
330
1F
100
AcDbEntity
  8
0
  6
Continuous
 62
     7
370
    25
100
AcDbPolyline
 90
      119
 70
   128
 43
0.0
 10
14.3297216316
 20
14.9315362965
 10
14.3508830765
 20
14.9416822131
 10
14.3858860172
 20
14.9569229253
 10
14.4216805106
 20
14.970636462
 10
14.458242025
 20
14.9828134244
 10
14.495545503
 20
14.9934454673
 10
14.5335653785
 20
15.0025253037
 10
14.5722755948
 20
15.010046711
 10
14.6116496216
 20
15.0160045343
 10
14.6516604741
 20
15.0203946904
 10
14.6922807308
 20
15.0232141705
 10
14.7334825527
 20
15.0244610423
 10
14.7752377019
 20
15.0241344512
 10
14.8175175617
 20
15.0222346211
 10
14.8602931555
 20
15.018762854
 10
14.9035351672
 20
15.0137215293
 10
14.9472139606
 20
15.0071141021
 10
14.9912996007
 20
14.9989451008
 10
15.0357618733
 20
14.9892201239
 10
15.0805703062
 20
14.9779458366
 10
15.1256941899
 20
14.9651299655
 10
15.1711025988
 20
14.9507812942
 10
15.2167644122
 20
14.9349096565
 10
15.2626483358
 20
14.9175259299
 10
15.308722923
 20
14.8986420285
 10
15.3549565967
 20
14.8782708942
 10
15.4013176705
 20
14.8564264886
 10
15.4477743709
 20
14.8331237825
 10
15.4942948589
 20
14.8083787466
 10
15.5408472515
 20
14.7822083399
 10
15.5873996441
 20
14.7546304982
 10
15.633920132
 20
14.725664122
 10
15.6803768324
 20
14.6953290634
 10
15.7267379063
 20
14.6636461126
 10
15.7729715799
 20
14.6306369835
 10
15.8190461671
 20
14.5963242988
 10
15.8649300907
 20
14.5607315749
 10
15.9105919041
 20
14.523883205
 10
15.956000313
 20
14.4858044434
 10
16.0011241967
 20
14.4465213873
 10
16.0459326296
 20
14.4060609592
 10
16.0903949022
 20
14.3644508888
 10
16.1344805423
 20
14.3217196936
 10
16.1781593358
 20
14.2778966593
 10
16.2214013474
 20
14.23301182
 10
16.2641769412
 20
14.1870959377
 10
16.306456801
 20
14.1401804808
 10
16.3482119503
 20
14.0922976027
 10
16.3894137721
 20
14.04348012
 10
16.4300340288
 20
13.9937614898
 10
16.4700448813
 20
13.9431757867
 10
16.5094189082
 20
13.8917576796
 10
16.5481291244
 20
13.839542408
 10
16.586149
 20
13.7865657576
 10
16.6234524779
 20
13.7328640359
 10
16.6600139923
 20
13.6784740474
 10
16.6958084858
 20
13.6234330683
 10
16.7308114265
 20
13.567778821
 10
16.7649988251
 20
13.511549448
 10
16.7983472515
 20
13.4547834862
 10
16.8308338501
 20
13.3975198401
 10
16.8624363564
 20
13.3397977554
 10
16.8931331115
 20
13.281656792
 10
16.9229030775
 20
13.2231367966
 10
16.9517258514
 20
13.164277876
 10
16.9795816796
 20
13.1051203692
 10
17.006451471
 20
13.0457048198
 10
17.0323168106
 20
12.9860719481
 10
17.0571599714
 20
12.9262626237
 10
17.0809639273
 20
12.8663178368
 10
17.103712364
 20
12.8062786706
 10
17.1253896911
 20
12.746186273
 10
17.145981052
 20
12.6860818282
 10
17.1654723343
 20
12.6260065288
 10
17.1838501798
 20
12.5660015475
 10
17.2011019931
 20
12.5061080087
 10
17.2172159508
 20
12.4463669604
 10
17.2321810091
 20
12.3868193462
 10
17.2459869117
 20
12.3275059769
 10
17.2586241967
 20
12.2684675031
 10
17.2700842033
 20
12.2097443868
 10
17.2803590772
 20
12.1513768737
 10
17.2894417766
 20
12.0934049662
 10
17.2973260767
 20
12.0358683953
 10
17.3040065739
 20
11.9788065936
 10
17.3094786898
 20
11.9222586685
 10
17.313738674
 20
11.866263375
 10
17.316783607
 20
11.8108590897
 10
17.318611402
 20
11.7560837837
 10
17.3192208062
 20
11.7019749974
 10
17.318611402
 20
11.6485698142
 10
17.316783607
 20
11.5959048353
 10
17.313738674
 20
11.5440161548
 10
17.3094786898
 20
11.4929393345
 10
17.3040065739
 20
11.4427093798
 10
17.2973260767
 20
11.3933607161
 10
17.2894417766
 20
11.3449271642
 10
17.2803590772
 20
11.2974419182
 10
17.2700842033
 20
11.2509375221
 10
17.2586241967
 20
11.2054458476
 10
17.2459869117
 20
11.1609980726
 10
17.2321810091
 20
11.1176246592
 10
17.2172159508
 20
11.0753553335
 10
17.2011019931
 20
11.0342190647
 10
17.1838501798
 20
10.9942440455
 10
17.1654723343
 20
10.955457673
 10
17.145981052
 20
10.9178865292
 10
17.1253896911
 20
10.8815563636
 10
17.103712364
 20
10.8464920751
 10
17.0809639273
 20
10.8127176949
 10
17.0571599714
 20
10.7802563704
 10
17.0323168106
 20
10.749130349
 10
17.006451471
 20
10.7193609627
 10
16.9795816796
 20
10.6909686142
 10
16.9517258514
 20
10.663972762
 10
16.9229030775
 20
10.6383919079
 10
16.8931331115
 20
10.6142435835
 10
16.8624363564
 20
10.5915443391
 10
16.8434921283
 20
10.5785669598
  0
LWPOLYLINE
  5
13F
330
1F
100
AcDbEntity
  8
0
  6
Continuous
 62
     7
370
    25
100
AcDbPolyline
 90
      119
 70
   128
 43
0.0
 10
17.0711164264
 20
10.7096685101
 10
17.0936602739
 20
10.7250270654
 10
17.124357029
 20
10.7477263098
 10
17.1541269949
 20
10.7718746341
 10
17.1829497688
 20
10.7974554883
 10
17.210805597
 20
10.8244513405
 10
17.2376753885
 20
10.852843689
 10
17.263540728
 20
10.8826130752
 10
17.2883838889
 20
10.9137390967
 10
17.3121878447
 20
10.9462004212
 10
17.3349362815
 20
10.9799748014
 10
17.3566136086
 20
11.0150390899
 10
17.3772049695
 20
11.0513692555
 10
17.3966962518
 20
11.0889403992
 10
17.4150740973
 20
11.1277267718
 10
17.4323259106
 20
11.1677017909
 10
17.4484398682
 20
11.2088380597
 10
17.4634049265
 20
11.2511073855
 10
17.4772108291
 20
11.2944807989
 10
17.4898481142
 20
11.3389285739
 10
17.5013081207
 20
11.3844202484
 10
17.5115829946
 20
11.4309246445
 10
17.520665694
 20
11.4784098905
 10
17.5285499941
 20
11.5268434423
 10
17.5352304913
 20
11.5761921061
 10
17.5407026072
 20
11.6264220607
 10
17.5449625914
 20
11.6774988811
 10
17.5480075245
 20
11.7293875616
 10
17.5498353194
 20
11.7820525404
 10
17.5504447236
 20
11.8354577236
 10
17.5498353194
 20
11.88956651
 10
17.5480075245
 20
11.9443418159
 10
17.5449625914
 20
11.9997461013
 10
17.5407026072
 20
12.0557413947
 10
17.5352304913
 20
12.1122893199
 10
17.5285499941
 20
12.1693511215
 10
17.520665694
 20
12.2268876925
 10
17.5115829946
 20
12.2848596
 10
17.5013081207
 20
12.343227113
 10
17.4898481142
 20
12.4019502294
 10
17.4772108291
 20
12.4609887032
 10
17.4634049265
 20
12.5203020725
 10
17.4484398682
 20
12.5798496867
 10
17.4323259106
 20
12.639590735
 10
17.4150740973
 20
12.6994842738
 10
17.3966962518
 20
12.7594892551
 10
17.3772049695
 20
12.8195645545
 10
17.3566136086
 20
12.8796689992
 10
17.3349362815
 20
12.9397613969
 10
17.3121878447
 20
12.9998005631
 10
17.2883838889
 20
13.05974535
 10
17.263540728
 20
13.1195546744
 10
17.2376753885
 20
13.179187546
 10
17.210805597
 20
13.2386030955
 10
17.1829497688
 20
13.2977606023
 10
17.1541269949
 20
13.3566195229
 10
17.124357029
 20
13.4151395182
 10
17.0936602739
 20
13.4732804817
 10
17.0620577676
 20
13.5310025664
 10
17.0295711689
 20
13.5882662125
 10
16.9962227426
 20
13.6450321743
 10
16.9620353439
 20
13.7012615473
 10
16.9270324032
 20
13.7569157946
 10
16.8912379098
 20
13.8119567737
 10
16.8546763954
 20
13.8663467622
 10
16.8173729174
 20
13.9200484839
 10
16.7793530419
 20
13.9730251343
 10
16.7406428256
 20
14.0252404059
 10
16.7012687988
 20
14.076658513
 10
16.6612579463
 20
14.127244216
 10
16.6206376896
 20
14.1769628463
 10
16.5794358677
 20
14.225780329
 10
16.5376807185
 20
14.2736632071
 10
16.4954008587
 20
14.320578664
 10
16.4526252649
 20
14.3664945463
 10
16.4093832532
 20
14.4113793855
 10
16.3657044598
 20
14.4552024198
 10
16.3216188197
 20
14.4979336151
 10
16.2771565471
 20
14.5395436855
 10
16.2323481142
 20
14.5800041135
 10
16.1872242305
 20
14.6192871697
 10
16.1418158216
 20
14.6573659313
 10
16.0961540082
 20
14.6942143012
 10
16.0502700846
 20
14.7298070251
 10
16.0041954974
 20
14.7641197098
 10
15.9579618237
 20
14.7971288389
 10
15.9116007499
 20
14.8288117897
 10
15.8651440495
 20
14.8591468483
 10
15.8186235615
 20
14.8881132245
 10
15.7720711689
 20
14.9156910662
 10
15.7255187763
 20
14.9418614729
 10
15.6789982884
 20
14.9666065088
 10
15.632541588
 20
14.9899092148
 10
15.5861805141
 20
15.0117536205
 10
15.5399468405
 20
15.0321247547
 10
15.4938722533
 20
15.0510086562
 10
15.4479883297
 20
15.0683923828
 10
15.4023265163
 20
15.0842640205
 10
15.3569181074
 20
15.0986126918
 10
15.3117942237
 20
15.1114285628
 10
15.2669857908
 20
15.1227028502
 10
15.2225235182
 20
15.1324278271
 10
15.1784378781
 20
15.1405968284
 10
15.1347590846
 20
15.1472042556
 10
15.091517073
 20
15.1522455803
 10
15.0487414792
 20
15.1557173474
 10
15.0064616194
 20
15.1576171775
 10
14.9647064701
 20
15.1579437686
 10
14.9235046483
 20
15.1566968968
 10
14.8828843916
 20
15.1538774167
 10
14.8428735391
 20
15.1494872606
 10
14.8034995122
 20
15.1435294373
 10
14.764789296
 20
15.13600803
 10
14.7267694204
 20
15.1269281935
 10
14.6894659425
 20
15.1162961507
 10
14.6529044281
 20
15.1041191883
 10
14.6171099346
 20
15.0904056516
 10
14.5821069939
 20
15.0751649393
 10
14.5587138534
 20
15.0639064307
  0
LWPOLYLINE
  5
140
330
1F
100
AcDbEntity
  8
0
  6
Continuous
 62
     7
370
    25
100
AcDbPolyline
 90
       72
 70
   128
 43
0.0
 10
16.3833830934
 20
14.454223071
 10
16.3977890414
 20
14.4553579276
 10
16.4237239363
 20
14.4562606793
 10
16.4501547156
 20
14.4557462459
 10
16.4770444136
 20
14.4538153467
 10
16.5043554225
 20
14.4504706823
 10
16.5320495455
 20
14.4457169305
 10
16.5600880498
 20
14.4395607399
 10
16.5884317211
 20
14.4320107205
 10
16.6170409181
 20
14.4230774316
 10
16.6458756282
 20
14.4127733672
 10
16.6748955237
 20
14.4011129386
 10
16.7040600174
 20
14.3881124539
 10
16.7333283202
 20
14.3737900953
 10
16.7626594978
 20
14.3581658942
 10
16.7920125279
 20
14.3412617022
 10
16.8213463575
 20
14.3231011615
 10
16.8506199607
 20
14.3037096712
 10
16.8797923957
 20
14.2831143521
 10
16.9088228621
 20
14.2613440085
 10
16.9376707583
 20
14.2384290883
 10
16.9662957379
 20
14.2144016401
 10
16.9946577663
 20
14.1892952684
 10
17.0227171765
 20
14.1631450867
 10
17.050434725
 20
14.1359876685
 10
17.0777716463
 20
14.1078609958
 10
17.1046897072
 20
14.0788044063
 10
17.1311512603
 20
14.0488585384
 10
17.1571192969
 20
14.018065274
 10
17.1825574982
 20
13.9864676802
 10
17.2074302866
 20
13.9541099493
 10
17.2317028753
 20
13.9210373363
 10
17.2553413169
 20
13.8872960963
 10
17.2783125508
 20
13.8529334195
 10
17.3005844498
 20
13.8179973653
 10
17.3221258645
 20
13.7825367948
 10
17.3429066673
 20
13.7466013028
 10
17.3628977945
 20
13.7102411484
 10
17.3820712866
 20
13.6735071846
 10
17.4004003277
 20
13.6364507871
 10
17.4178592831
 20
13.5991237826
 10
17.4344237348
 20
13.5615783764
 10
17.4500705158
 20
13.5238670791
 10
17.4647777429
 20
13.4860426333
 10
17.4785248465
 20
13.4481579399
 10
17.4912926002
 20
13.4102659842
 10
17.503063147
 20
13.3724197614
 10
17.5138200249
 20
13.3346722029
 10
17.5235481892
 20
13.2970761021
 10
17.5322340344
 20
13.2596840405
 10
17.5398654124
 20
13.2225483144
 10
17.5464316501
 20
13.1857208613
 10
17.5519235641
 20
13.1492531878
 10
17.5563334733
 20
13.1131962973
 10
17.5596552102
 20
13.0776006185
 10
17.5618841289
 20
13.0425159352
 10
17.5630171121
 20
13.0079913167
 10
17.5630525753
 20
12.9740750485
 10
17.5619904689
 20
12.9408145658
 10
17.5598322783
 20
12.9082563862
 10
17.5565810218
 20
12.8764460454
 10
17.5522412468
 20
12.845428033
 10
17.5468190228
 20
12.8152457306
 10
17.5403219332
 20
12.7859413506
 10
17.5327590648
 20
12.7575558781
 10
17.524140995
 20
12.7301290126
 10
17.5144797769
 20
12.7036991132
 10
17.5037889226
 20
12.6783031443
 10
17.4920833842
 20
12.6539766246
 10
17.4793795331
 20
12.6307535769
 10
17.4656951365
 20
12.6086664807
 10
17.4564173347
 20
12.5951215877
  0
ARC
  5
141
330
1F
100
AcDbEntity
  8
0
  6
Continuous
 62
     7
370
    25
100
AcDbCircle
 10
5.00277869
 20
3.4494990116
 30
0.0
 40
0.4450000000000002
100
AcDbArc
 50
224.6075756536
 51
315.3924243464
  0
LINE
  5
142
330
1F
100
AcDbEntity
  8
0
  6
Continuous
 62
     7
370
    25
100
AcDbLine
 10
4.75277869
 20
3.1369990116
 30
0.0
 11
4.75277869
 21
3.0813618089
 31
0.0
  0
LINE
  5
143
330
1F
100
AcDbEntity
  8
0
  6
Continuous
 62
     7
370
    25
100
AcDbLine
 10
4.72152869
 20
3.1369990116
 30
0.0
 11
4.72152869
 21
3.104646235
 31
0.0
  0
LINE
  5
144
330
1F
100
AcDbEntity
  8
0
  6
Continuous
 62
     7
370
    25
100
AcDbLine
 10
5.00277869
 20
3.1369990116
 30
0.0
 11
5.00277869
 21
3.0044990116
 31
0.0
  0
LINE
  5
145
330
1F
100
AcDbEntity
  8
0
  6
Continuous
 62
     7
370
    25
100
AcDbLine
 10
4.97152869
 20
3.1369990116
 30
0.0
 11
4.97152869
 21
3.0055976289
 31
0.0
  0
LINE
  5
146
330
1F
100
AcDbEntity
  8
0
  6
Continuous
 62
     7
370
    25
100
AcDbLine
 10
5.12777869
 20
3.1369990116
 30
0.0
 11
5.12777869
 21
3.0224158815
 31
0.0
  0
LINE
  5
147
330
1F
100
AcDbEntity
  8
0
  6
Continuous
 62
     7
370
    25
100
AcDbLine
 10
5.09652869
 20
3.1369990116
 30
0.0
 11
5.09652869
 21
3.0144864399
 31
0.0
  0
LINE
  5
148
330
1F
100
AcDbEntity
  8
0
  6
Continuous
 62
     7
370
    25
100
AcDbLine
 10
4.81527869
 20
3.1369990116
 30
0.0
 11
4.81527869
 21
3.0459290053
 31
0.0
  0
LINE
  5
149
330
1F
100
AcDbEntity
  8
0
  6
Continuous
 62
     7
370
    25
100
AcDbLine
 10
4.78402869
 20
3.1369990116
 30
0.0
 11
4.78402869
 21
3.0619768348
 31
0.0
  0
LINE
  5
14A
330
1F
100
AcDbEntity
  8
0
  6
Continuous
 62
     7
370
    25
100
AcDbLine
 10
5.25277869
 20
3.1369990116
 30
0.0
 11
5.25277869
 21
3.0813618089
 31
0.0
  0
LINE
  5
14B
330
1F
100
AcDbEntity
  8
0
  6
Continuous
 62
     7
370
    25
100
AcDbLine
 10
5.22152869
 20
3.1369990116
 30
0.0
 11
5.22152869
 21
3.0619768348
 31
0.0
  0
LINE
  5
14C
330
1F
100
AcDbEntity
  8
0
  6
Continuous
 62
     7
370
    25
100
AcDbLine
 10
5.06527869
 20
3.1369990116
 30
0.0
 11
5.06527869
 21
3.0089099173
 31
0.0
  0
LINE
  5
14D
330
1F
100
AcDbEntity
  8
0
  6
Continuous
 62
     7
370
    25
100
AcDbLine
 10
5.03402869
 20
3.1369990116
 30
0.0
 11
5.03402869
 21
3.0055976289
 31
0.0
  0
LINE
  5
14E
330
1F
100
AcDbEntity
  8
0
  6
Continuous
 62
     7
370
    25
100
AcDbLine
 10
4.94027869
 20
3.1369990116
 30
0.0
 11
4.94027869
 21
3.0089099173
 31
0.0
  0
LINE
  5
14F
330
1F
100
AcDbEntity
  8
0
  6
Continuous
 62
     7
370
    25
100
AcDbLine
 10
4.90902869
 20
3.1369990116
 30
0.0
 11
4.90902869
 21
3.0144864399
 31
0.0
  0
LINE
  5
150
330
1F
100
AcDbEntity
  8
0
  6
Continuous
 62
     7
370
    25
100
AcDbLine
 10
4.69027869
 20
3.1369990116
 30
0.0
 11
4.69027869
 21
3.1326887371
 31
0.0
  0
LINE
  5
151
330
1F
100
AcDbEntity
  8
0
  6
Continuous
 62
     7
370
    25
100
AcDbLine
 10
4.87777869
 20
3.1369990116
 30
0.0
 11
4.87777869
 21
3.0224158815
 31
0.0
  0
LINE
  5
152
330
1F
100
AcDbEntity
  8
0
  6
Continuous
 62
     7
370
    25
100
AcDbLine
 10
4.84652869
 20
3.1369990116
 30
0.0
 11
4.84652869
 21
3.0328325532
 31
0.0
  0
LINE
  5
153
330
1F
100
AcDbEntity
  8
0
  6
Continuous
 62
     7
370
    25
100
AcDbLine
 10
5.19027869
 20
3.1369990116
 30
0.0
 11
5.19027869
 21
3.0459290053
 31
0.0
  0
LINE
  5
154
330
1F
100
AcDbEntity
  8
0
  6
Continuous
 62
     7
370
    25
100
AcDbLine
 10
5.15902869
 20
3.1369990116
 30
0.0
 11
5.15902869
 21
3.0328325532
 31
0.0
  0
LINE
  5
155
330
1F
100
AcDbEntity
  8
0
  6
Continuous
 62
     7
370
    25
100
AcDbLine
 10
5.31527869
 20
3.1369990116
 30
0.0
 11
5.31527869
 21
3.1326887371
 31
0.0
  0
LINE
  5
156
330
1F
100
AcDbEntity
  8
0
  6
Continuous
 62
     7
370
    25
100
AcDbLine
 10
5.28402869
 20
3.1369990116
 30
0.0
 11
5.28402869
 21
3.104646235
 31
0.0
  0
LINE
  5
157
330
1F
100
AcDbEntity
  8
0
  6
Continuous
 62
     7
370
    25
100
AcDbLine
 10
4.604650256
 20
3.1369990116
 30
0.0
 11
5.4009071241
 21
3.1369990116
 31
0.0
  0
ARC
  5
158
330
1F
100
AcDbEntity
  8
0
  6
Continuous
 62
     7
370
    25
100
AcDbCircle
 10
5.00277869
 20
3.4494990116
 30
0.0
 40
0.5061249845640893
100
AcDbArc
 50
218.1291692158
 51
321.8708307842
  0
CIRCLE
  5
159
330
1F
100
AcDbEntity
  8
0
  6
Continuous
 62
     7
370
    25
100
AcDbCircle
 10
5.00277869
 20
3.4494990116
 30
0.0
 40
0.5062114182829149
  0
ARC
  5
15A
330
1F
100
AcDbEntity
  8
0
  6
Continuous
 62
     7
370
    25
100
AcDbCircle
 10
5.00277869
 20
3.4494990116
 30
0.0
 40
0.4611127844681823
100
AcDbArc
 50
222.664826585
 51
317.335173415
  0
CIRCLE
  5
15B
330
1F
100
AcDbEntity
  8
0
  6
Continuous
 62
     7
370
    25
100
AcDbCircle
 10
5.00277869
 20
3.4494990116
 30
0.0
 40
1.2575
  0
CIRCLE
  5
15C
330
1F
100
AcDbEntity
  8
0
  6
Continuous
 62
     7
370
    25
100
AcDbCircle
 10
4.12777869
 20
3.4494990116
 30
0.0
 40
0.1025
  0
CIRCLE
  5
15D
330
1F
100
AcDbEntity
  8
0
  6
Continuous
 62
     7
370
    25
100
AcDbCircle
 10
5.87777869
 20
3.4494990116
 30
0.0
 40
0.1025000000000005
  0
CIRCLE
  5
15E
330
1F
100
AcDbEntity
  8
0
  6
Continuous
 62
     7
370
    25
100
AcDbCircle
 10
4.12777869
 20
3.4494990116
 30
0.0
 40
0.0507500000000003
  0
CIRCLE
  5
15F
330
1F
100
AcDbEntity
  8
0
  6
Continuous
 62
     7
370
    25
100
AcDbCircle
 10
5.87777869
 20
3.4494990116
 30
0.0
 40
0.0507499999999999
  0
INSERT
  5
160
330
1F
100
AcDbEntity
  8
0
  6
Continuous
 62
     7
100
AcDbBlockReference
  2
Block1
 10
5.7580907282
 20
1.3098721616
 30
0.0
 41
0.5
 42
0.5
 43
0.5
  0
DIMENSION
  5
161
330
1F
100
AcDbEntity
  8
0
  6
Continuous
 62
     7
370
    18
100
AcDbDimension
  2
_D_3
 10
5.87777869
 20
5.4944005864
 30
0.0
 11
5.00277869
 21
5.4944005864
 31
0.0
 70
   160
  1
<>
 71
     2
 42
-1.0
  3
SLDDIMSTYLE2
100
AcDbAlignedDimension
 13
4.12777869
 23
3.4494990116
 33
0.0
 14
5.87777869
 24
3.4494990116
 34
0.0
 50
0.0
100
AcDbRotatedDimension
  0
DIMENSION
  5
176
330
1F
100
AcDbEntity
  8
0
  6
Continuous
 62
     7
370
    18
100
AcDbDimension
  2
_D_4
 10
5.8919654674
 20
4.3386857889
 30
0.0
 11
2.4185903193
 21
2.1072376967
 31
0.0
 70
   163
  1
<>
 71
     1
 42
-1.0
  3
SLDDIMSTYLE3
100
AcDbDiametricDimension
 15
4.1135919127
 25
2.5603122342
 35
0.0
 40
0.0
  0
LINE
  5
187
330
1F
100
AcDbEntity
  8
0
  6
Continuous
 62
     7
370
    25
100
AcDbLine
 10
14.3715044038
 20
3.2619990116
 30
0.0
 11
15.3119165475
 21
3.2619990116
 31
0.0
  0
ARC
  5
188
330
1F
100
AcDbEntity
  8
0
  6
Continuous
 62
     7
370
    25
100
AcDbCircle
 10
14.8417104756
 20
3.4494990116
 30
0.0
 40
0.5062114182829153
100
AcDbArc
 50
338.2597980049
 51
201.7402019951
  0
CIRCLE
  5
189
330
1F
100
AcDbEntity
  8
0
  6
Continuous
 62
     7
370
    25
100
AcDbCircle
 10
13.9667104756
 20
3.4494990116
 30
0.0
 40
0.1024999999999996
  0
CIRCLE
  5
18A
330
1F
100
AcDbEntity
  8
0
  6
Continuous
 62
     7
370
    25
100
AcDbCircle
 10
15.7167104756
 20
3.4494990116
 30
0.0
 40
0.1025000000000005
  0
CIRCLE
  5
18B
330
1F
100
AcDbEntity
  8
0
  6
Continuous
 62
     7
370
    25
100
AcDbCircle
 10
14.8417104756
 20
3.4494990116
 30
0.0
 40
1.2425
  0
ARC
  5
18C
330
1F
100
AcDbEntity
  8
0
  6
Continuous
 62
     7
370
    25
100
AcDbCircle
 10
14.8417104756
 20
3.4494990116
 30
0.0
 40
0.4612076538827173
100
AcDbArc
 50
203.9877545989
 51
336.0122454011
  0
CIRCLE
  5
18D
330
1F
100
AcDbEntity
  8
0
  6
Continuous
 62
     7
370
    25
100
AcDbCircle
 10
13.9667104756
 20
3.4494990116
 30
0.0
 40
0.0507499999999999
  0
CIRCLE
  5
18E
330
1F
100
AcDbEntity
  8
0
  6
Continuous
 62
     7
370
    25
100
AcDbCircle
 10
15.7167104756
 20
3.4494990116
 30
0.0
 40
0.0507499999999999
  0
CIRCLE
  5
18F
330
1F
100
AcDbEntity
  8
0
  6
Continuous
 62
     7
370
    25
100
AcDbCircle
 10
14.8417104756
 20
3.4494990116
 30
0.0
 40
1.2575
  0
ARC
  5
190
330
1F
100
AcDbEntity
  8
0
  6
Continuous
 62
     7
370
    25
100
AcDbCircle
 10
14.8417104756
 20
3.4494990116
 30
0.0
 40
0.4450000000000002
100
AcDbArc
 50
204.9197415276
 51
335.0802584724
  0
LINE
  5
191
330
1F
100
AcDbEntity
  8
0
  6
Continuous
 62
     7
370
    25
100
AcDbLine
 10
14.8417104756
 20
3.2619990116
 30
0.0
 11
14.8417104756
 21
3.0044990116
 31
0.0
  0
LINE
  5
192
330
1F
100
AcDbEntity
  8
0
  6
Continuous
 62
     7
370
    25
100
AcDbLine
 10
14.8104604756
 20
3.2619990116
 30
0.0
 11
14.8104604756
 21
3.0055976289
 31
0.0
  0
LINE
  5
193
330
1F
100
AcDbEntity
  8
0
  6
Continuous
 62
     7
370
    25
100
AcDbLine
 10
14.9667104756
 20
3.2619990116
 30
0.0
 11
14.9667104756
 21
3.0224158815
 31
0.0
  0
LINE
  5
194
330
1F
100
AcDbEntity
  8
0
  6
Continuous
 62
     7
370
    25
100
AcDbLine
 10
14.9354604756
 20
3.2619990116
 30
0.0
 11
14.9354604756
 21
3.0144864399
 31
0.0
  0
LINE
  5
195
330
1F
100
AcDbEntity
  8
0
  6
Continuous
 62
     7
370
    25
100
AcDbLine
 10
15.2167104756
 20
3.2619990116
 30
0.0
 11
15.2167104756
 21
3.2099160406
 31
0.0
  0
LINE
  5
196
330
1F
100
AcDbEntity
  8
0
  6
Continuous
 62
     7
370
    25
100
AcDbLine
 10
15.1854604756
 20
3.2619990116
 30
0.0
 11
15.1854604756
 21
3.1669022361
 31
0.0
  0
LINE
  5
197
330
1F
100
AcDbEntity
  8
0
  6
Continuous
 62
     7
370
    25
100
AcDbLine
 10
14.5917104756
 20
3.2619990116
 30
0.0
 11
14.5917104756
 21
3.0813618089
 31
0.0
  0
LINE
  5
198
330
1F
100
AcDbEntity
  8
0
  6
Continuous
 62
     7
370
    25
100
AcDbLine
 10
14.5604604756
 20
3.2619990116
 30
0.0
 11
14.5604604756
 21
3.104646235
 31
0.0
  0
LINE
  5
199
330
1F
100
AcDbEntity
  8
0
  6
Continuous
 62
     7
370
    25
100
AcDbLine
 10
14.4667104756
 20
3.2619990116
 30
0.0
 11
14.4667104756
 21
3.2099160406
 31
0.0
  0
LINE
  5
19A
330
1F
100
AcDbEntity
  8
0
  6
Continuous
 62
     7
370
    25
100
AcDbLine
 10
15.0917104756
 20
3.2619990116
 30
0.0
 11
15.0917104756
 21
3.0813618089
 31
0.0
  0
LINE
  5
19B
330
1F
100
AcDbEntity
  8
0
  6
Continuous
 62
     7
370
    25
100
AcDbLine
 10
15.0604604756
 20
3.2619990116
 30
0.0
 11
15.0604604756
 21
3.0619768348
 31
0.0
  0
LINE
  5
19C
330
1F
100
AcDbEntity
  8
0
  6
Continuous
 62
     7
370
    25
100
AcDbLine
 10
14.7792104756
 20
3.2619990116
 30
0.0
 11
14.7792104756
 21
3.0089099173
 31
0.0
  0
LINE
  5
19D
330
1F
100
AcDbEntity
  8
0
  6
Continuous
 62
     7
370
    25
100
AcDbLine
 10
14.7479604756
 20
3.2619990116
 30
0.0
 11
14.7479604756
 21
3.0144864399
 31
0.0
  0
LINE
  5
19E
330
1F
100
AcDbEntity
  8
0
  6
Continuous
 62
     7
370
    25
100
AcDbLine
 10
14.6542104756
 20
3.2619990116
 30
0.0
 11
14.6542104756
 21
3.0459290053
 31
0.0
  0
LINE
  5
19F
330
1F
100
AcDbEntity
  8
0
  6
Continuous
 62
     7
370
    25
100
AcDbLine
 10
14.6229604756
 20
3.2619990116
 30
0.0
 11
14.6229604756
 21
3.0619768348
 31
0.0
  0
LINE
  5
1A0
330
1F
100
AcDbEntity
  8
0
  6
Continuous
 62
     7
370
    25
100
AcDbLine
 10
14.9042104756
 20
3.2619990116
 30
0.0
 11
14.9042104756
 21
3.0089099173
 31
0.0
  0
LINE
  5
1A1
330
1F
100
AcDbEntity
  8
0
  6
Continuous
 62
     7
370
    25
100
AcDbLine
 10
14.8729604756
 20
3.2619990116
 30
0.0
 11
14.8729604756
 21
3.0055976289
 31
0.0
  0
LINE
  5
1A2
330
1F
100
AcDbEntity
  8
0
  6
Continuous
 62
     7
370
    25
100
AcDbLine
 10
14.7167104756
 20
3.2619990116
 30
0.0
 11
14.7167104756
 21
3.0224158815
 31
0.0
  0
LINE
  5
1A3
330
1F
100
AcDbEntity
  8
0
  6
Continuous
 62
     7
370
    25
100
AcDbLine
 10
14.6854604756
 20
3.2619990116
 30
0.0
 11
14.6854604756
 21
3.0328325532
 31
0.0
  0
LINE
  5
1A4
330
1F
100
AcDbEntity
  8
0
  6
Continuous
 62
     7
370
    25
100
AcDbLine
 10
15.1542104756
 20
3.2619990116
 30
0.0
 11
15.1542104756
 21
3.1326887371
 31
0.0
  0
LINE
  5
1A5
330
1F
100
AcDbEntity
  8
0
  6
Continuous
 62
     7
370
    25
100
AcDbLine
 10
15.1229604756
 20
3.2619990116
 30
0.0
 11
15.1229604756
 21
3.104646235
 31
0.0
  0
LINE
  5
1A6
330
1F
100
AcDbEntity
  8
0
  6
Continuous
 62
     7
370
    25
100
AcDbLine
 10
14.5292104756
 20
3.2619990116
 30
0.0
 11
14.5292104756
 21
3.1326887371
 31
0.0
  0
LINE
  5
1A7
330
1F
100
AcDbEntity
  8
0
  6
Continuous
 62
     7
370
    25
100
AcDbLine
 10
14.4979604756
 20
3.2619990116
 30
0.0
 11
14.4979604756
 21
3.1669022361
 31
0.0
  0
LINE
  5
1A8
330
1F
100
AcDbEntity
  8
0
  6
Continuous
 62
     7
370
    25
100
AcDbLine
 10
15.0292104756
 20
3.2619990116
 30
0.0
 11
15.0292104756
 21
3.0459290053
 31
0.0
  0
LINE
  5
1A9
330
1F
100
AcDbEntity
  8
0
  6
Continuous
 62
     7
370
    25
100
AcDbLine
 10
14.9979604756
 20
3.2619990116
 30
0.0
 11
14.9979604756
 21
3.0328325532
 31
0.0
  0
INSERT
  5
1AA
330
1F
100
AcDbEntity
  8
0
  6
Continuous
 62
     7
100
AcDbBlockReference
  2
Block2
 10
15.9267441518
 20
0.961324719
 30
0.0
 41
0.5
 42
0.5
 43
0.5
  0
DIMENSION
  5
1AB
330
1F
100
AcDbEntity
  8
0
  6
Continuous
 62
     7
370
    18
100
AcDbDimension
  2
_D_5
 10
15.7167104756
 20
5.4944005864
 30
0.0
 11
14.8417104756
 21
5.4944005864
 31
0.0
 70
   160
  1
<>
 71
     2
 42
-1.0
  3
SLDDIMSTYLE2
100
AcDbAlignedDimension
 13
13.9667104756
 23
3.4494990116
 33
0.0
 14
15.7167104756
 24
3.4494990116
 34
0.0
 50
0.0
100
AcDbRotatedDimension
  0
DIMENSION
  5
1BF
330
1F
100
AcDbEntity
  8
0
  6
Continuous
 62
     7
370
    18
100
AcDbDimension
  2
_D_6
 10
15.730897253
 20
4.3386857889
 30
0.0
 11
12.2408461651
 21
2.0905617569
 31
0.0
 70
   163
  1
<>
 71
     1
 42
-1.0
  3
SLDDIMSTYLE3
100
AcDbDiametricDimension
 15
13.9525236983
 25
2.5603122342
 35
0.0
 40
0.0
  0
LINE
  5
1CF
330
1F
100
AcDbEntity
  8
0
  6
Continuous
 62
     7
370
    25
100
AcDbLine
 10
7.9190959967
 20
2.8944990116
 30
0.0
 11
8.2886711399
 21
2.8944990116
 31
0.0
  0
LINE
  5
1D0
330
1F
100
AcDbEntity
  8
0
  6
Continuous
 62
     7
370
    25
100
AcDbLine
 10
7.7516568196
 20
2.8944990116
 30
0.0
 11
7.8342945643
 21
2.8944990116
 31
0.0
  0
LINE
  5
1D1
330
1F
100
AcDbEntity
  8
0
  6
Continuous
 62
     7
370
    25
100
AcDbLine
 10
8.2886711399
 20
4.0044990116
 30
0.0
 11
7.7516568196
 21
4.0044990116
 31
0.0
  0
ARC
  5
1D2
330
1F
100
AcDbEntity
  8
0
  6
Continuous
 62
     7
370
    25
100
AcDbCircle
 10
8.3110318196
 20
2.8744990116
 30
0.0
 40
0.0300000000000001
100
AcDbArc
 50
41.8103148958
 51
138.1896851042
  0
ARC
  5
1D3
330
1F
100
AcDbEntity
  8
0
  6
Continuous
 62
     7
370
    25
100
AcDbCircle
 10
8.3110318196
 20
4.0244990116
 30
0.0
 40
0.0300000000000004
100
AcDbArc
 50
221.8103148958
 51
318.1896851042
  0
LINE
  5
1D4
330
1F
100
AcDbEntity
  8
0
  6
Continuous
 62
     7
370
    25
100
AcDbLine
 10
8.3333924994
 20
2.8944990116
 30
0.0
 11
8.4416568196
 21
2.8944990116
 31
0.0
  0
LINE
  5
1D5
330
1F
100
AcDbEntity
  8
0
  6
Continuous
 62
     7
370
    25
100
AcDbLine
 10
8.4416568196
 20
4.0044990116
 30
0.0
 11
8.3333924994
 21
4.0044990116
 31
0.0
  0
LINE
  5
1D6
330
1F
100
AcDbEntity
  8
0
  6
Continuous
 62
     7
370
    25
100
AcDbLine
 10
8.4491568196
 20
2.1919990116
 30
0.0
 11
8.6366568196
 21
2.1919990116
 31
0.0
  0
LINE
  5
1D7
330
1F
100
AcDbEntity
  8
0
  6
Continuous
 62
     7
370
    25
100
AcDbLine
 10
8.6366568196
 20
4.7069990116
 30
0.0
 11
8.4491568196
 21
4.7069990116
 31
0.0
  0
LINE
  5
1D8
330
1F
100
AcDbEntity
  8
0
  6
Continuous
 62
     7
370
    25
100
AcDbLine
 10
8.4491568196
 20
4.0380577634
 30
0.0
 11
8.4416568196
 21
4.0379923118
 31
0.0
  0
LINE
  5
1D9
330
1F
100
AcDbEntity
  8
0
  6
Continuous
 62
     7
370
    25
100
AcDbLine
 10
8.4416568196
 20
2.8610057113
 30
0.0
 11
8.4491568196
 21
2.8609402598
 31
0.0
  0
ARC
  5
1DA
330
1F
100
AcDbEntity
  8
0
  6
Continuous
 62
     7
370
    25
100
AcDbCircle
 10
8.6304068196
 20
3.4494990116
 30
0.0
 40
0.5062500000000003
100
AcDbArc
 50
321.8819356939
 51
89.2926267275
  0
ARC
  5
1DB
330
1F
100
AcDbEntity
  8
0
  6
Continuous
 62
     7
370
    25
100
AcDbCircle
 10
8.6304068196
 20
3.4494990116
 30
0.0
 40
0.5062500000000004
100
AcDbArc
 50
270.7073732726
 51
271.2733443614
  0
LINE
  5
1DC
330
1F
100
AcDbEntity
  8
0
  6
Continuous
 62
     7
370
    25
100
AcDbLine
 10
8.2886711399
 20
2.8944990116
 30
0.0
 11
8.2886711399
 21
4.0044990116
 31
0.0
  0
LINE
  5
1DD
330
1F
100
AcDbEntity
  8
0
  6
Continuous
 62
     7
370
    25
100
AcDbLine
 10
7.7516568196
 20
2.8944990116
 30
0.0
 11
7.7516568196
 21
4.0044990116
 31
0.0
  0
SPLINE
  5
1DE
330
1F
100
AcDbEntity
  8
0
  6
Continuous
 62
     7
370
    25
100
AcDbSpline
210
0.0
220
0.0
230
1.0
 70
     8
 71
     3
 72
    21
 73
    17
 74
     0
 42
0.00000001
 43
0.00000001
 40
0.0
 40
0.0
 40
0.0
 40
0.0
 40
0.0625763532083491
 40
0.1265035522581489
 40
0.1987179559887436
 40
0.2729336853926604
 40
0.3468040294902199
 40
0.4227821782272106
 40
0.4971988772879151
 40
0.5738190519484891
 40
0.6473702073296511
 40
0.7231773256259926
 40
0.7945918410702071
 40
0.868233862579089
 40
0.9370455568131524
 40
1.0
 40
1.0
 40
1.0
 40
1.0
 10
7.847162472811504
 20
2.89528358447728
 30
0.0
 10
7.848716961489127
 20
2.895357265627504
 30
0.0
 10
7.851859495842474
 20
2.89550621849484
 30
0.0
 10
7.85750540526387
 20
2.895715752520481
 30
0.0
 10
7.863905329103564
 20
2.895891005137921
 30
0.0
 10
7.870967938038407
 20
2.89600177449731
 30
0.0
 10
7.878302828665411
 20
2.89602732358391
 30
0.0
 10
7.885602642748293
 20
2.895961774214634
 30
0.0
 10
7.892735332810708
 20
2.895810423367383
 30
0.0
 10
7.899336779644173
 20
2.895593146886411
 30
0.0
 10
7.905317561033822
 20
2.895332800370296
 30
0.0
 10
7.910335442032064
 20
2.895067564370145
 30
0.0
 10
7.914378229879557
 20
2.894823201559481
 30
0.0
 10
7.917189634870954
 20
2.894637116171616
 30
0.0
 10
7.918884577062215
 20
2.894518493576796
 30
0.0
 10
7.91902764331939
 20
2.894508223218112
 30
0.0
 10
7.919095996666735
 20
2.894503316307087
 30
0.0
  0
SPLINE
  5
1DF
330
1F
100
AcDbEntity
  8
0
  6
Continuous
 62
     7
370
    25
100
AcDbSpline
210
0.0
220
0.0
230
1.0
 70
     8
 71
     3
 72
    13
 73
     9
 74
     0
 42
0.00000001
 43
0.00000001
 40
0.0
 40
0.0
 40
0.0
 40
0.0
 40
0.0931735833767406
 40
0.2982980077226341
 40
0.4959724107542958
 40
0.6991839199547943
 40
0.8484928612262631
 40
1.0
 40
1.0
 40
1.0
 40
1.0
 10
7.834294564338354
 20
2.89450879333558
 30
0.0
 10
7.834265290391351
 20
2.894506717501012
 30
0.0
 10
7.834171568976414
 20
2.894500071654693
 30
0.0
 10
7.835226604636773
 20
2.894574888083625
 30
0.0
 10
7.837371202459492
 20
2.894721123703202
 30
0.0
 10
7.840309894409551
 20
2.894907777100047
 30
0.0
 10
7.843620061302222
 20
2.895101749304434
 30
0.0
 10
7.845975930512101
 20
2.895222678192525
 30
0.0
 10
7.847162472811504
 20
2.89528358447728
 30
0.0
  0
SPLINE
  5
1E0
330
1F
100
AcDbEntity
  8
0
  6
Continuous
 62
     7
370
    25
100
AcDbSpline
210
0.0
220
0.0
230
1.0
 70
    11
 71
     3
 72
    45
 73
    41
 74
     0
 42
0.00000001
 43
0.00000001
 40
0.0
 40
0.0
 40
0.0
 40
0.0
 40
0.0241082832578816
 40
0.0482188899796301
 40
0.0738454176449399
 40
0.0994759773969297
 40
0.1258909503469015
 40
0.1523094731858017
 40
0.1796529962458201
 40
0.206998409133837
 40
0.2350092503307523
 40
0.2630196752528086
 40
0.2912259374907569
 40
0.3194291371889557
 40
0.347294502746743
 40
0.3751547349970681
 40
0.4021959954177147
 40
0.4292325688917423
 40
0.4552801931632627
 40
0.4813263356663395
 40
0.506731979345073
 40
0.5321396062819266
 40
0.5575936281237303
 40
0.5830514827549624
 40
0.6091771677778224
 40
0.635306711327565
 40
0.6623680059530194
 40
0.6894318084863262
 40
0.7172757288805608
 40
0.7451200155648608
 40
0.7733210565283025
 40
0.8015198844911093
 40
0.8295519839817224
 40
0.8575794303070454
 40
0.8849223608802677
 40
0.9122601029120543
 40
0.938610440984327
 40
0.964958110632931
 40
0.9824790027327753
 40
1.0
 40
1.0
 40
1.0
 40
1.0
 10
7.834671244154855
 20
3.732483405977122
 30
0.0
 10
7.835108195907019
 20
3.734255712614787
 30
0.0
 10
7.835982141523082
 20
3.737800496698233
 30
0.0
 10
7.838551813436792
 20
3.742875098431952
 30
0.0
 10
7.842061982303499
 20
3.747611149155234
 30
0.0
 10
7.846572616663023
 20
3.751908311235627
 30
0.0
 10
7.851915008180517
 20
3.755538217607509
 30
0.0
 10
7.858009782776542
 20
3.758460137545262
 30
0.0
 10
7.864679623419024
 20
3.760519271628655
 30
0.0
 10
7.871797999068829
 20
3.761682188165229
 30
0.0
 10
7.879111612891293
 20
3.761842115242456
 30
0.0
 10
7.886433283487201
 20
3.761002516452981
 30
0.0
 10
7.893490136540914
 20
3.759131939491468
 30
0.0
 10
7.900062110688221
 20
3.756308363852726
 30
0.0
 10
7.905915342738503
 20
3.752571588839032
 30
0.0
 10
7.910858525542777
 20
3.748096653988703
 30
0.0
 10
7.914737288855823
 20
3.742973248160451
 30
0.0
 10
7.91746671280516
 20
3.73745067103834
 30
0.0
 10
7.91898135384937
 20
3.731633498049536
 30
0.0
 10
7.919328094067178
 20
3.725761772700792
 30
0.0
 10
7.918494167328127
 20
3.719934892945817
 30
0.0
 10
7.916591063804487
 20
3.714313498308087
 30
0.0
 10
7.913628739632794
 20
3.709018219298419
 30
0.0
 10
7.909708122346244
 20
3.70413861531308
 30
0.0
 10
7.904886964944621
 20
3.699843190991642
 30
0.0
 10
7.89924881017476
 20
3.696196528583592
 30
0.0
 10
7.892939263800076
 20
3.693390391067841
 30
0.0
 10
7.886068168150716
 20
3.691481238833239
 30
0.0
 10
7.878869186499242
 20
3.690622073788405
 30
0.0
 10
7.871511378909869
 20
3.690829771630701
 30
0.0
 10
7.864268352585682
 20
3.692167322873868
 30
0.0
 10
7.857354994179926
 20
3.694566087032176
 30
0.0
 10
7.851022844905203
 20
3.69799016636038
 30
0.0
 10
7.845480895930113
 20
3.702261587113981
 30
0.0
 10
7.840911272921763
 20
3.707272521008083
 30
0.0
 10
7.837441733182476
 20
3.712758520881627
 30
0.0
 10
7.835156930313891
 20
3.718589929507924
 30
0.0
 10
7.834184906377995
 20
3.723894270618782
 30
0.0
 10
7.83408688572202
 20
3.728555763893179
 30
0.0
 10
7.83447645762085
 20
3.731174189329676
 30
0.0
 10
7.834671244154855
 20
3.732483405977122
 30
0.0
  0
LINE
  5
1E1
330
1F
100
AcDbEntity
  8
0
  6
Continuous
 62
     7
370
    25
100
AcDbLine
 10
8.3333924994
 20
2.8944990116
 30
0.0
 11
8.3333924994
 21
4.0044990116
 31
0.0
  0
SPLINE
  5
1E2
330
1F
100
AcDbEntity
  8
0
  6
Continuous
 62
     7
370
    25
100
AcDbSpline
210
0.0
220
0.0
230
1.0
 70
     8
 71
     3
 72
    24
 73
    20
 74
     0
 42
0.00000001
 43
0.00000001
 40
0.0
 40
0.0
 40
0.0
 40
0.0
 40
0.0102108264047585
 40
0.074100529683957
 40
0.1380398132874965
 40
0.2019794828630637
 40
0.2660403663159513
 40
0.3301008493943904
 40
0.3941654823696843
 40
0.4582295469019853
 40
0.5221735094545
 40
0.5861176252363705
 40
0.65000504647356
 40
0.7138930956499574
 40
0.7778761162532792
 40
0.8418592623253904
 40
0.9059409519044805
 40
0.9700220647173569
 40
1.0
 40
1.0
 40
1.0
 40
1.0
 10
7.909479220340413
 20
3.715666264098395
 30
0.0
 10
7.909421812152143
 20
3.715923548401462
 30
0.0
 10
7.909005197767534
 20
3.717790674761357
 30
0.0
 10
7.90734033772927
 20
3.721048082484398
 30
0.0
 10
7.904468031353211
 20
3.725252505810358
 30
0.0
 10
7.900735062375359
 20
3.72895400452954
 30
0.0
 10
7.896326502073174
 20
3.732056234390798
 30
0.0
 10
7.891361140070911
 20
3.734497177934884
 30
0.0
 10
7.885970059638178
 20
3.736185617823458
 30
0.0
 10
7.880321799304335
 20
3.7371079012405
 30
0.0
 10
7.874570782516918
 20
3.737210561167315
 30
0.0
 10
7.868883049677703
 20
3.736525116802448
 30
0.0
 10
7.863422611628423
 20
3.735038018308693
 30
0.0
 10
7.858327512135715
 20
3.732817728554132
 30
0.0
 10
7.853763465802446
 20
3.729888843776723
 30
0.0
 10
7.849816599866791
 20
3.726354469993924
 30
0.0
 10
7.846696375014658
 20
3.722266556625732
 30
0.0
 10
7.844654887347208
 20
3.718603896574866
 30
0.0
 10
7.84403769756771
 20
3.716250200698467
 30
0.0
 10
7.843840990545455
 20
3.715500044875222
 30
0.0
  0
LWPOLYLINE
  5
1E3
330
1F
100
AcDbEntity
  8
0
  6
Continuous
 62
     7
370
    25
100
AcDbPolyline
 90
       60
 70
   128
 43
0.0
 10
7.8766568196
 20
3.6933041478
 10
7.8802707982
 20
3.6934709589
 10
7.8838438288
 20
3.693969502
 10
7.8873354279
 20
3.6947941284
 10
7.890706034
 20
3.6959354948
 10
7.8939174569
 20
3.6973806691
 10
7.8969333098
 20
3.6991132768
 10
7.8997194221
 20
3.7011136868
 10
7.9022442258
 20
3.7033592338
 10
7.904479114
 20
3.7058244746
 10
7.9063987645
 20
3.7084814772
 10
7.9079814269
 20
3.7113001367
 10
7.9092091689
 20
3.7142485165
 10
7.9100680799
 20
3.7172932103
 10
7.9105484279
 20
3.7203997206
 10
7.9106447704
 20
3.7235328492
 10
7.9103560159
 20
3.7266570966
 10
7.909685436
 20
3.7297370639
 10
7.9086406287
 20
3.7327378538
 10
7.9072334321
 20
3.735625466
 10
7.9054797902
 20
3.7383671829
 10
7.9033995725
 20
3.7409319397
 10
7.9010163488
 20
3.7432906767
 10
7.8983571219
 20
3.7454166683
 10
7.8954520219
 20
3.7472858264
 10
7.8923339647
 20
3.7488769725
 10
7.8890382792
 20
3.7501720784
 10
7.8856023068
 20
3.75115647
 10
7.8820649785
 20
3.7518189937
 10
7.8784663736
 20
3.752152143
 10
7.8748472657
 20
3.752152143
 10
7.8712486608
 20
3.7518189937
 10
7.8677113325
 20
3.75115647
 10
7.8642753601
 20
3.7501720784
 10
7.8609796746
 20
3.7488769725
 10
7.8578616174
 20
3.7472858264
 10
7.8549565174
 20
3.7454166683
 10
7.8522972905
 20
3.7432906767
 10
7.8499140667
 20
3.7409319397
 10
7.8478338491
 20
3.7383671829
 10
7.8460802072
 20
3.735625466
 10
7.8446730106
 20
3.7327378538
 10
7.8436282033
 20
3.7297370639
 10
7.8429576234
 20
3.7266570966
 10
7.8426688689
 20
3.7235328492
 10
7.8427652114
 20
3.7203997206
 10
7.8432455594
 20
3.7172932103
 10
7.8441044703
 20
3.7142485165
 10
7.8453322124
 20
3.7113001367
 10
7.8469148748
 20
3.7084814772
 10
7.8488345253
 20
3.7058244746
 10
7.8510694135
 20
3.7033592338
 10
7.8535942172
 20
3.7011136868
 10
7.8563803295
 20
3.6991132768
 10
7.8593961824
 20
3.6973806691
 10
7.8626076053
 20
3.6959354948
 10
7.8659782114
 20
3.6947941284
 10
7.8694698104
 20
3.693969502
 10
7.8730428411
 20
3.6934709589
 10
7.8766568196
 20
3.6933041478
  0
LINE
  5
1E4
330
1F
100
AcDbEntity
  8
0
  6
Continuous
 62
     7
370
    25
100
AcDbLine
 10
8.6366568196
 20
4.7069990116
 30
0.0
 11
8.6366568196
 21
2.1919990116
 31
0.0
  0
LINE
  5
1E5
330
1F
100
AcDbEntity
  8
0
  6
Continuous
 62
     7
370
    25
100
AcDbLine
 10
8.4491568196
 20
4.7069990116
 30
0.0
 11
8.4491568196
 21
2.1919990116
 31
0.0
  0
LINE
  5
1E6
330
1F
100
AcDbEntity
  8
0
  6
Continuous
 62
     7
370
    25
100
AcDbLine
 10
8.4416568196
 20
4.0379923118
 30
0.0
 11
8.4416568196
 21
2.8610057113
 31
0.0
  0
LINE
  5
1E7
330
1F
100
AcDbEntity
  8
0
  6
Continuous
 62
     7
370
    25
100
AcDbLine
 10
8.6416568196
 20
3.1369990116
 30
0.0
 11
9.0286941688
 21
3.1369990116
 31
0.0
  0
LINE
  5
1E8
330
1F
100
AcDbEntity
  8
0
  6
Continuous
 62
     7
370
    25
100
AcDbLine
 10
8.6416568196
 20
2.943374027
 30
0.0
 11
8.6416568196
 21
3.1369990116
 31
0.0
  0
LINE
  5
1E9
330
1F
100
AcDbEntity
  8
VP
100
AcDbLine
 10
8.6366568196
 20
3.2953923821
 30
0.0
 11
9.0286941688
 21
3.1369990116
 31
0.0
  0
DIMENSION
  5
1EA
330
1F
100
AcDbEntity
  8
0
  6
Continuous
 62
     7
370
    18
100
AcDbDimension
  2
_D_7
 10
9.0286941688
 20
3.1369990116
 30
0.0
 11
9.4719286205
 21
2.0570510121
 31
0.0
 70
   162
  1
<>
 71
     1
 42
-1.0
  3
SLDDIMSTYLE4
100
AcDb2LineAngularDimension
 13
8.6366568196
 23
2.1919990116
 33
0.0
 14
8.6366568196
 24
4.7069990116
 34
0.0
 15
8.6366568196
 25
3.2953923821
 35
0.0
 16
8.9345845321
 26
1.8316958944
 36
0.0
  0
ARC
  5
1F6
330
1F
100
AcDbEntity
  8
0
  6
Continuous
 62
     7
370
    25
100
AcDbCircle
 10
18.3070385395
 20
4.6919990116
 30
0.0
 40
0.0150000000000006
100
AcDbArc
 50
90.0
 51
180.0
  0
ARC
  5
1F7
330
1F
100
AcDbEntity
  8
0
  6
Continuous
 62
     7
370
    25
100
AcDbCircle
 10
18.3070385395
 20
2.2069990116
 30
0.0
 40
0.0150000000000006
100
AcDbArc
 50
180.0
 51
270.0
  0
LINE
  5
1F8
330
1F
100
AcDbEntity
  8
0
  6
Continuous
 62
     7
370
    25
100
AcDbLine
 10
18.3070385395
 20
2.1919990116
 30
0.0
 11
18.4705385395
 21
2.1919990116
 31
0.0
  0
LINE
  5
1F9
330
1F
100
AcDbEntity
  8
0
  6
Continuous
 62
     7
370
    25
100
AcDbLine
 10
18.4705385395
 20
4.7069990116
 30
0.0
 11
18.3070385395
 21
4.7069990116
 31
0.0
  0
ARC
  5
1FA
330
1F
100
AcDbEntity
  8
0
  6
Continuous
 62
     7
370
    25
100
AcDbCircle
 10
18.4705385395
 20
4.6919990116
 30
0.0
 40
0.0150000000000006
100
AcDbArc
 50
0.0
 51
90.0
  0
ARC
  5
1FB
330
1F
100
AcDbEntity
  8
0
  6
Continuous
 62
     7
370
    25
100
AcDbCircle
 10
18.4705385395
 20
2.2069990116
 30
0.0
 40
0.0150000000000006
100
AcDbArc
 50
270.0
 51
0.0
  0
LINE
  5
1FC
330
1F
100
AcDbEntity
  8
0
  6
Continuous
 62
     7
370
    25
100
AcDbLine
 10
18.2920385395
 20
4.0290603627
 30
0.0
 11
18.2905385395
 21
4.0290472724
 31
0.0
  0
LINE
  5
1FD
330
1F
100
AcDbEntity
  8
0
  6
Continuous
 62
     7
370
    25
100
AcDbLine
 10
18.2905385395
 20
2.8699507508
 30
0.0
 11
18.2920385395
 21
2.8699376605
 31
0.0
  0
ARC
  5
1FE
330
1F
100
AcDbEntity
  8
0
  6
Continuous
 62
     7
370
    25
100
AcDbCircle
 10
18.4792885395
 20
3.4494990116
 30
0.0
 40
0.5062500000000021
100
AcDbArc
 50
338.2615392085
 51
89.2926267275
  0
LINE
  5
1FF
330
1F
100
AcDbEntity
  8
0
  6
Continuous
 62
     7
370
    25
100
AcDbLine
 10
17.6005385395
 20
2.8944990116
 30
0.0
 11
18.1375528598
 21
2.8944990116
 31
0.0
  0
LINE
  5
200
330
1F
100
AcDbEntity
  8
0
  6
Continuous
 62
     7
370
    25
100
AcDbLine
 10
17.6831762842
 20
4.0044990116
 30
0.0
 11
17.6005385395
 21
4.0044990116
 31
0.0
  0
LINE
  5
201
330
1F
100
AcDbEntity
  8
0
  6
Continuous
 62
     7
370
    25
100
AcDbLine
 10
18.1375528598
 20
4.0044990116
 30
0.0
 11
17.7679777166
 21
4.0044990116
 31
0.0
  0
ARC
  5
202
330
1F
100
AcDbEntity
  8
0
  6
Continuous
 62
     7
370
    25
100
AcDbCircle
 10
18.1599135395
 20
2.8744990116
 30
0.0
 40
0.0300000000000004
100
AcDbArc
 50
41.8103148958
 51
138.1896851042
  0
ARC
  5
203
330
1F
100
AcDbEntity
  8
0
  6
Continuous
 62
     7
370
    25
100
AcDbCircle
 10
18.1599135395
 20
4.0244990116
 30
0.0
 40
0.0300000000000004
100
AcDbArc
 50
221.8103148958
 51
318.1896851042
  0
LINE
  5
204
330
1F
100
AcDbEntity
  8
0
  6
Continuous
 62
     7
370
    25
100
AcDbLine
 10
18.1822742193
 20
2.8944990116
 30
0.0
 11
18.2905385395
 21
2.8944990116
 31
0.0
  0
LINE
  5
205
330
1F
100
AcDbEntity
  8
0
  6
Continuous
 62
     7
370
    25
100
AcDbLine
 10
18.2905385395
 20
4.0044990116
 30
0.0
 11
18.1822742193
 21
4.0044990116
 31
0.0
  0
LINE
  5
206
330
1F
100
AcDbEntity
  8
0
  6
Continuous
 62
     7
370
    25
100
AcDbLine
 10
18.2920385395
 20
2.2069990116
 30
0.0
 11
18.2920385395
 21
4.6919990116
 31
0.0
  0
LINE
  5
207
330
1F
100
AcDbEntity
  8
0
  6
Continuous
 62
     7
370
    25
100
AcDbLine
 10
18.4855385395
 20
2.2069990116
 30
0.0
 11
18.4855385395
 21
4.6919990116
 31
0.0
  0
LINE
  5
208
330
1F
100
AcDbEntity
  8
0
  6
Continuous
 62
     7
370
    25
100
AcDbLine
 10
18.2905385395
 20
4.0290472724
 30
0.0
 11
18.2905385395
 21
2.8699507508
 31
0.0
  0
LINE
  5
209
330
1F
100
AcDbEntity
  8
0
  6
Continuous
 62
     7
370
    25
100
AcDbLine
 10
18.4855385395
 20
3.2619990116
 30
0.0
 11
18.9495361472
 21
3.2619990116
 31
0.0
  0
LINE
  5
20A
330
1F
100
AcDbEntity
  8
0
  6
Continuous
 62
     7
370
    25
100
AcDbLine
 10
18.1375528598
 20
3.4494990116
 30
0.0
 11
18.1375528598
 21
4.0044990116
 31
0.0
  0
LINE
  5
20B
330
1F
100
AcDbEntity
  8
0
  6
Continuous
 62
     7
370
    25
100
AcDbLine
 10
18.1375528598
 20
2.8944990116
 30
0.0
 11
18.1375528598
 21
3.4494990116
 31
0.0
  0
LINE
  5
20C
330
1F
100
AcDbEntity
  8
0
  6
Continuous
 62
     7
370
    25
100
AcDbLine
 10
17.6005385395
 20
3.4494990116
 30
0.0
 11
17.6005385395
 21
4.0044990116
 31
0.0
  0
LINE
  5
20D
330
1F
100
AcDbEntity
  8
0
  6
Continuous
 62
     7
370
    25
100
AcDbLine
 10
17.6005385395
 20
2.8944990116
 30
0.0
 11
17.6005385395
 21
3.4494990116
 31
0.0
  0
SPLINE
  5
20E
330
1F
100
AcDbEntity
  8
0
  6
Continuous
 62
     7
370
    25
100
AcDbSpline
210
0.0
220
0.0
230
1.0
 70
     8
 71
     3
 72
    27
 73
    23
 74
     0
 42
0.00000001
 43
0.00000001
 40
0.0
 40
0.0
 40
0.0
 40
0.0
 40
0.0059455175350006
 40
0.0560678251881031
 40
0.1076445621294722
 40
0.1578226559594866
 40
0.2093879747034108
 40
0.26085497156288
 40
0.31371617429408
 40
0.3670144043204651
 40
0.4217723857668084
 40
0.4766230708723685
 40
0.5330215391256466
 40
0.58859689833239
 40
0.6457983357985415
 40
0.701064721828729
 40
0.7580088771398631
 40
0.811945019283866
 40
0.8675603875582937
 40
0.9195613469234482
 40
0.9731680482807422
 40
1.0
 40
1.0
 40
1.0
 40
1.0
 10
17.76797771656248
 20
4.004494706849585
 30
0.0
 10
17.76799756881811
 20
4.004496111625917
 30
0.0
 10
17.76818478091391
 20
4.004509359043547
 30
0.0
 10
17.76745396863604
 20
4.004457309668976
 30
0.0
 10
17.7657618703576
 20
4.004339969202213
 30
0.0
 10
17.76288401712672
 20
4.004151344300072
 30
0.0
 10
17.75908310760917
 20
4.003923524667041
 30
0.0
 10
17.75434283915804
 20
4.00367333737864
 30
0.0
 10
17.74880794639521
 20
4.003428975403605
 30
0.0
 10
17.74254644516874
 20
4.003214842882418
 30
0.0
 10
17.73575362584174
 20
4.003057597494625
 30
0.0
 10
17.7285545875806
 20
4.002976320751506
 30
0.0
 10
17.72123422310911
 20
4.002984131472838
 30
0.0
 10
17.71393365946431
 20
4.003082497862812
 30
0.0
 10
17.70700709349629
 20
4.003259784366833
 30
0.0
 10
17.7005628275357
 20
4.003497563535791
 30
0.0
 10
17.6949568995183
 20
4.003761847914957
 30
0.0
 10
17.69024031398622
 20
4.004024952630046
 30
0.0
 10
17.68665704557915
 20
4.00425011851788
 30
0.0
 10
17.68426206067865
 20
4.004412286435304
 30
0.0
 10
17.68308571365082
 20
4.004495646986091
 30
0.0
 10
17.68315362951408
 20
4.004490834967831
 30
0.0
 10
17.6831762842341
 20
4.004489229821092
 30
0.0
  0
SPLINE
  5
20F
330
1F
100
AcDbEntity
  8
0
  6
Continuous
 62
     7
370
    25
100
AcDbSpline
210
0.0
220
0.0
230
1.0
 70
    11
 71
     3
 72
    45
 73
    41
 74
     0
 42
0.00000001
 43
0.00000001
 40
0.0
 40
0.0
 40
0.0
 40
0.0
 40
0.0237175399948469
 40
0.0474321274804074
 40
0.0737704074114312
 40
0.1001058302052731
 40
0.12568319261926
 40
0.1512613530838355
 40
0.1766109339556009
 40
0.2019638704002144
 40
0.2277790104241772
 40
0.253598192345984
 40
0.2802998405742476
 40
0.30700463446969
 40
0.334590109763829
 40
0.362176830766878
 40
0.3903008030868579
 40
0.4184235803193764
 40
0.446583929802946
 40
0.474740451268068
 40
0.5024000164995934
 40
0.5300542399531954
 40
0.5567908251397581
 40
0.5835234845596513
 40
0.6093175702390956
 40
0.6351113171116093
 40
0.6604538350684863
 40
0.6857990961317764
 40
0.7114024556147779
 40
0.7370098334383351
 40
0.7634096901586936
 40
0.7898131155645025
 40
0.8171426391285821
 40
0.8444740854076959
 40
0.8724773226205985
 40
0.9004801841984602
 40
0.9286871977639626
 40
0.9568911912208141
 40
0.9784464809507005
 40
1.0
 40
1.0
 40
1.0
 40
1.0
 10
17.69375328986642
 20
3.148778535310871
 30
0.0
 10
17.69241731631373
 20
3.150115606156959
 30
0.0
 10
17.68974553551877
 20
3.152789581402104
 30
0.0
 10
17.68658202848347
 20
3.15758476589076
 30
0.0
 10
17.68425759565793
 20
3.162946858232246
 30
0.0
 10
17.68301559307521
 20
3.168755873129685
 30
0.0
 10
17.68297447022501
 20
3.174644359044927
 30
0.0
 10
17.68404606419182
 20
3.180422702951857
 30
0.0
 10
17.6862276863776
 20
3.185976523069614
 30
0.0
 10
17.68940982982921
 20
3.191194553566537
 30
0.0
 10
17.69355823514703
 20
3.195926614667076
 30
0.0
 10
17.69858640342115
 20
3.200103293862931
 30
0.0
 10
17.70438513160465
 20
3.203535463961317
 30
0.0
 10
17.71086039400093
 20
3.206162152139416
 30
0.0
 10
17.71780856630426
 20
3.207807871233239
 30
0.0
 10
17.72508419883396
 20
3.208434988638758
 30
0.0
 10
17.73242137116826
 20
3.207942700641586
 30
0.0
 10
17.73961828993749
 20
3.206362562465968
 30
0.0
 10
17.74640841075614
 20
3.203694426301687
 30
0.0
 10
17.75257250733626
 20
3.200074123972604
 30
0.0
 10
17.75789737115464
 20
3.195586966910052
 30
0.0
 10
17.76221615699814
 20
3.190471350709915
 30
0.0
 10
17.76540248950755
 20
3.184855538193743
 30
0.0
 10
17.76741316007111
 20
3.179016589694681
 30
0.0
 10
17.76820380308296
 20
3.173074673721143
 30
0.0
 10
17.76785058017755
 20
3.167246664802146
 30
0.0
 10
17.76634832113527
 20
3.161634956286873
 30
0.0
 10
17.76381070833332
 20
3.156356553343868
 30
0.0
 10
17.76025744932368
 20
3.151532556005789
 30
0.0
 10
17.75578161240031
 20
3.147217394168432
 30
0.0
 10
17.75046429984951
 20
3.143566246200038
 30
0.0
 10
17.74439166821361
 20
3.140618897855782
 30
0.0
 10
17.73773836418873
 20
3.138531548102737
 30
0.0
 10
17.7306306499476
 20
3.137337884736269
 30
0.0
 10
17.7233204221125
 20
3.137145435021365
 30
0.0
 10
17.71599547817579
 20
3.137952990364021
 30
0.0
 10
17.70892347319573
 20
3.139788151807432
 30
0.0
 10
17.70283778120126
 20
3.142383090356971
 30
0.0
 10
17.69774396967511
 20
3.145413890742717
 30
0.0
 10
17.69508348004306
 20
3.147657017833397
 30
0.0
 10
17.69375328986642
 20
3.148778535310871
 30
0.0
  0
LINE
  5
210
330
1F
100
AcDbEntity
  8
0
  6
Continuous
 62
     7
370
    25
100
AcDbLine
 10
18.1822742193
 20
3.4494990116
 30
0.0
 11
18.1822742193
 21
4.0044990116
 31
0.0
  0
LINE
  5
211
330
1F
100
AcDbEntity
  8
0
  6
Continuous
 62
     7
370
    25
100
AcDbLine
 10
18.1822742193
 20
2.8944990116
 30
0.0
 11
18.1822742193
 21
3.4494990116
 31
0.0
  0
SPLINE
  5
212
330
1F
100
AcDbEntity
  8
0
  6
Continuous
 62
     7
370
    25
100
AcDbSpline
210
0.0
220
0.0
230
1.0
 70
     8
 71
     3
 72
    15
 73
    11
 74
     0
 42
0.00000001
 43
0.00000001
 40
0.0
 40
0.0
 40
0.0
 40
0.0
 40
0.1280993572887724
 40
0.2561995053534403
 40
0.3842902776354981
 40
0.5123821832912705
 40
0.6406480560186675
 40
0.7689136410542564
 40
0.8972958858846818
 40
1.0
 40
1.0
 40
1.0
 40
1.0
 10
17.72553853953896
 20
3.161863205909403
 30
0.0
 10
17.72744762135691
 20
3.16194229490302
 30
0.0
 10
17.73126579677786
 20
3.162100473378481
 30
0.0
 10
17.73683329632804
 20
3.163337464938608
 30
0.0
 10
17.74207390419877
 20
3.165295645825728
 30
0.0
 10
17.74685544937796
 20
3.167971846467136
 30
0.0
 10
17.75103014412056
 20
3.171303883214061
 30
0.0
 10
17.75447153568643
 20
3.175198065614785
 30
0.0
 10
17.75700074199276
 20
3.179245913644598
 30
0.0
 10
17.75793894931864
 20
3.182088292417925
 30
0.0
 10
17.75835592655909
 20
3.183351560380719
 30
0.0
  0
SPLINE
  5
213
330
1F
100
AcDbEntity
  8
0
  6
Continuous
 62
     7
370
    25
100
AcDbSpline
210
0.0
220
0.0
230
1.0
 70
     8
 71
     3
 72
    16
 73
    12
 74
     0
 42
0.00000001
 43
0.00000001
 40
0.0
 40
0.0
 40
0.0
 40
0.0
 40
0.0704396925092351
 40
0.1979867892236179
 40
0.3255349951982367
 40
0.4533222128680817
 40
0.5811091142256875
 40
0.7090066032464267
 40
0.8369028241809366
 40
0.9184514572447655
 40
1.0
 40
1.0
 40
1.0
 40
1.0
 10
17.69272225495729
 20
3.183495962008592
 30
0.0
 10
17.69296592798583
 20
3.182615419649827
 30
0.0
 10
17.69365082649722
 20
3.180140454922169
 30
0.0
 10
17.69579974399182
 20
3.176384548362664
 30
0.0
 10
17.69898482610483
 20
3.172342595035759
 30
0.0
 10
17.70298350697804
 20
3.168854782798213
 30
0.0
 10
17.7076010511984
 20
3.165974801822382
 30
0.0
 10
17.71274321529288
 20
3.163805781582496
 30
0.0
 10
17.717580754235
 20
3.16256099548812
 30
0.0
 10
17.72188080117581
 20
3.161959074748124
 30
0.0
 10
17.72431929386798
 20
3.16189516217718
 30
0.0
 10
17.72553853953896
 20
3.161863205909403
 30
0.0
  0
LWPOLYLINE
  5
214
330
1F
100
AcDbEntity
  8
0
  6
Continuous
 62
     7
370
    25
100
AcDbPolyline
 90
       60
 70
   128
 43
0.0
 10
17.7255385395
 20
3.1468041478
 10
17.7291525181
 20
3.1469709589
 10
17.7327255487
 20
3.147469502
 10
17.7362171477
 20
3.1482941284
 10
17.7395877539
 20
3.1494354948
 10
17.7427991768
 20
3.1508806691
 10
17.7458150297
 20
3.1526132768
 10
17.748601142
 20
3.1546136868
 10
17.7511259457
 20
3.1568592338
 10
17.7533608339
 20
3.1593244746
 10
17.7552804844
 20
3.1619814772
 10
17.7568631468
 20
3.1648001367
 10
17.7580908888
 20
3.1677485165
 10
17.7589497998
 20
3.1707932103
 10
17.7594301478
 20
3.1738997206
 10
17.7595264903
 20
3.1770328492
 10
17.7592377358
 20
3.1801570966
 10
17.7585671559
 20
3.1832370639
 10
17.7575223486
 20
3.1862378538
 10
17.756115152
 20
3.189125466
 10
17.7543615101
 20
3.1918671829
 10
17.7522812924
 20
3.1944319397
 10
17.7498980687
 20
3.1967906767
 10
17.7472388418
 20
3.1989166683
 10
17.7443337418
 20
3.2007858264
 10
17.7412156846
 20
3.2023769725
 10
17.7379199991
 20
3.2036720784
 10
17.7344840267
 20
3.20465647
 10
17.7309466984
 20
3.2053189937
 10
17.7273480935
 20
3.205652143
 10
17.7237289856
 20
3.205652143
 10
17.7201303807
 20
3.2053189937
 10
17.7165930524
 20
3.20465647
 10
17.71315708
 20
3.2036720784
 10
17.7098613945
 20
3.2023769725
 10
17.7067433373
 20
3.2007858264
 10
17.7038382373
 20
3.1989166683
 10
17.7011790104
 20
3.1967906767
 10
17.6987957866
 20
3.1944319397
 10
17.696715569
 20
3.1918671829
 10
17.6949619271
 20
3.189125466
 10
17.6935547305
 20
3.1862378538
 10
17.6925099232
 20
3.1832370639
 10
17.6918393433
 20
3.1801570966
 10
17.6915505888
 20
3.1770328492
 10
17.6916469313
 20
3.1738997206
 10
17.6921272793
 20
3.1707932103
 10
17.6929861902
 20
3.1677485165
 10
17.6942139323
 20
3.1648001367
 10
17.6957965947
 20
3.1619814772
 10
17.6977162452
 20
3.1593244746
 10
17.6999511334
 20
3.1568592338
 10
17.7024759371
 20
3.1546136868
 10
17.7052620493
 20
3.1526132768
 10
17.7082779023
 20
3.1508806691
 10
17.7114893252
 20
3.1494354948
 10
17.7148599313
 20
3.1482941284
 10
17.7183515303
 20
3.147469502
 10
17.721924561
 20
3.1469709589
 10
17.7255385395
 20
3.1468041478
  0
LINE
  5
215
330
1F
100
AcDbEntity
  8
0
  6
Continuous
 62
     7
370
    25
100
AcDbLine
 10
18.3070385395
 20
4.7069990116
 30
0.0
 11
18.3070385395
 21
2.1919990116
 31
0.0
  0
LINE
  5
216
330
1F
100
AcDbEntity
  8
0
  6
Continuous
 62
     7
370
    25
100
AcDbLine
 10
18.4705385395
 20
2.1919990116
 30
0.0
 11
18.4705385395
 21
4.7069990116
 31
0.0
  0
DIMENSION
  5
217
330
1F
100
AcDbEntity
  8
0
  6
Continuous
 62
     7
370
    18
100
AcDbDimension
  2
_D_8
 10
18.4855385395
 20
4.6919990116
 30
0.0
 11
19.4656072428
 21
2.2819303083
 31
0.0
 70
   162
  1
<>
 71
     1
 42
-1.0
  3
SLDDIMSTYLE4
100
AcDb2LineAngularDimension
 13
18.9495361472
 23
3.2619990116
 33
0.0
 14
18.4855385395
 24
3.2619990116
 34
0.0
 15
18.4855385395
 25
2.2069990116
 35
0.0
 16
18.8647670631
 26
1.9288617144
 36
0.0
  0
ENDSEC
  0
SECTION
  2
OBJECTS
  0
DICTIONARY
  5
C
330
0
100
AcDbDictionary
281
     1
  3
ACAD_GROUP
350
D
  3
ACAD_LAYOUT
350
1A
  3
ACAD_MLINESTYLE
350
17
  3
ACAD_PLOTSETTINGS
350
19
  3
ACAD_PLOTSTYLENAME
350
E
  3
ACAD_SCALELIST
350
47
  3
DWGPROPS
350
222
  0
DICTIONARY
  5
D
102
{ACAD_REACTORS
330
C
102
}
330
C
100
AcDbDictionary
281
     1
  0
DICTIONARY
  5
1A
102
{ACAD_REACTORS
330
C
102
}
330
C
100
AcDbDictionary
281
     1
  3
Layout1
350
1E
  3
Layout2
350
26
  3
Model
350
22
  0
DICTIONARY
  5
17
102
{ACAD_REACTORS
330
C
102
}
330
C
100
AcDbDictionary
281
     1
  3
Standard
350
18
  0
DICTIONARY
  5
19
102
{ACAD_REACTORS
330
C
102
}
330
C
100
AcDbDictionary
281
     1
  0
ACDBDICTIONARYWDFLT
  5
E
102
{ACAD_REACTORS
330
C
102
}
330
C
100
AcDbDictionary
281
     1
  3
Normal
350
F
100
AcDbDictionaryWithDefault
340
F
  0
DICTIONARY
  5
47
102
{ACAD_REACTORS
330
C
102
}
330
C
100
AcDbDictionary
281
     1
  3
A0
350
48
  3
A1
350
49
  3
A2
350
4A
  3
A3
350
4B
  3
A4
350
4C
  3
A5
350
4D
  3
A6
350
4E
  3
A7
350
4F
  3
A8
350
50
  3
A9
350
51
  3
B1
350
52
  3
B2
350
53
  3
B3
350
54
  3
B4
350
55
  3
B5
350
56
  3
B6
350
57
  3
B7
350
58
  0
XRECORD
  5
222
102
{ACAD_REACTORS
330
C
102
}
330
C
100
AcDbXrecord
280
     1
  1
DWGPROPS COOKIE
  2

  3

  4

  6

  7

  8
alekseyb
  9

300
=
301
=
302
=
303
=
304
=
305
=
306
=
307
=
308
=
309
=
 40
0.0
 41
2460629.784037685
 42
2460629.784038484
  1

 90
        0
  0
LAYOUT
  5
1E
102
{ACAD_REACTORS
330
1A
102
}
330
1A
100
AcDbPlotSettings
  1

  2
none_device
  4

  6

 40
0.0
 41
0.0
 42
0.0
 43
0.0
 44
0.0
 45
0.0
 46
0.0
 47
0.0
 48
0.0
 49
0.0
140
0.0
141
0.0
142
1.0
143
1.0
 70
   688
 72
     0
 73
     0
 74
     5
  7

 75
    16
147
1.0
148
0.0
149
0.0
100
AcDbLayout
  1
Layout1
 70
     1
 71
     1
 10
0.0
 20
0.0
 11
12.0
 21
9.0
 12
0.0
 22
0.0
 32
0.0
 14
1.0000000000E+20
 24
1.0000000000E+20
 34
1.0000000000E+20
 15
-1.0000000000E+20
 25
-1.0000000000E+20
 35
-1.0000000000E+20
146
0.0
 13
0.0
 23
0.0
 33
0.0
 16
1.0
 26
0.0
 36
0.0
 17
0.0
 27
1.0
 37
0.0
 76
     0
330
1B
  0
LAYOUT
  5
26
102
{ACAD_REACTORS
330
1A
102
}
330
1A
100
AcDbPlotSettings
  1

  2
none_device
  4

  6

 40
0.0
 41
0.0
 42
0.0
 43
0.0
 44
0.0
 45
0.0
 46
0.0
 47
0.0
 48
0.0
 49
0.0
140
0.0
141
0.0
142
1.0
143
1.0
 70
   688
 72
     0
 73
     0
 74
     5
  7

 75
    16
147
1.0
148
0.0
149
0.0
100
AcDbLayout
  1
Layout2
 70
     1
 71
     2
 10
0.0
 20
0.0
 11
0.0
 21
0.0
 12
0.0
 22
0.0
 32
0.0
 14
0.0
 24
0.0
 34
0.0
 15
0.0
 25
0.0
 35
0.0
146
0.0
 13
0.0
 23
0.0
 33
0.0
 16
1.0
 26
0.0
 36
0.0
 17
0.0
 27
1.0
 37
0.0
 76
     0
330
23
  0
LAYOUT
  5
22
102
{ACAD_REACTORS
330
1A
102
}
330
1A
100
AcDbPlotSettings
  1

  2
none_device
  4
Letter_(8.50_x_11.00_Inches)
  6

 40
6.35
 41
6.35
 42
6.35000508
 43
6.35000508
 44
215.9
 45
279.4
 46
0.0
 47
0.0
 48
0.0
 49
0.0
140
0.0
141
0.0
142
1.0
143
1.0
 70
  1712
 72
     0
 73
     0
 74
     0
  7

 75
     0
147
1.0
148
0.0
149
0.0
100
AcDbLayout
  1
Model
 70
     1
 71
     0
 10
0.0
 20
0.0
 11
22.0
 21
17.0
 12
0.0
 22
0.0
 32
0.0
 14
0.0
 24
0.0
 34
0.0
 15
22.0
 25
17.0
 35
0.0
146
0.0
 13
0.0
 23
0.0
 33
0.0
 16
1.0
 26
0.0
 36
0.0
 17
0.0
 27
1.0
 37
0.0
 76
     0
330
1F
331
29
  0
MLINESTYLE
  5
18
102
{ACAD_REACTORS
330
17
102
}
330
17
100
AcDbMlineStyle
  2
Standard
 70
     0
  3

 62
   256
 51
90.0
 52
90.0
 71
     2
 49
0.5
 62
   256
  6
BYLAYER
 49
-0.5
 62
   256
  6
BYLAYER
  0
ACDBPLACEHOLDER
  5
F
102
{ACAD_REACTORS
330
E
102
}
330
E
  0
SCALE
  5
48
102
{ACAD_REACTORS
330
47
102
}
330
47
100
AcDbScale
 70
     0
300
1:1
140
1.0
141
1.0
290
     1
  0
SCALE
  5
49
102
{ACAD_REACTORS
330
47
102
}
330
47
100
AcDbScale
 70
     0
300
1/128" = 1'-0"
140
0.0078125
141
12.0
290
     0
  0
SCALE
  5
4A
102
{ACAD_REACTORS
330
47
102
}
330
47
100
AcDbScale
 70
     0
300
1/64" = 1'-0"
140
0.015625
141
12.0
290
     0
  0
SCALE
  5
4B
102
{ACAD_REACTORS
330
47
102
}
330
47
100
AcDbScale
 70
     0
300
1/32" = 1'-0"
140
0.03125
141
12.0
290
     0
  0
SCALE
  5
4C
102
{ACAD_REACTORS
330
47
102
}
330
47
100
AcDbScale
 70
     0
300
1/16" = 1'-0"
140
0.0625
141
12.0
290
     0
  0
SCALE
  5
4D
102
{ACAD_REACTORS
330
47
102
}
330
47
100
AcDbScale
 70
     0
300
3/32" = 1'-0"
140
0.09375
141
12.0
290
     0
  0
SCALE
  5
4E
102
{ACAD_REACTORS
330
47
102
}
330
47
100
AcDbScale
 70
     0
300
1/8" = 1'-0"
140
0.125
141
12.0
290
     0
  0
SCALE
  5
4F
102
{ACAD_REACTORS
330
47
102
}
330
47
100
AcDbScale
 70
     0
300
3/16" = 1'-0"
140
0.1875
141
12.0
290
     0
  0
SCALE
  5
50
102
{ACAD_REACTORS
330
47
102
}
330
47
100
AcDbScale
 70
     0
300
1/4" = 1'-0"
140
0.25
141
12.0
290
     0
  0
SCALE
  5
51
102
{ACAD_REACTORS
330
47
102
}
330
47
100
AcDbScale
 70
     0
300
3/8" = 1'-0"
140
0.375
141
12.0
290
     0
  0
SCALE
  5
52
102
{ACAD_REACTORS
330
47
102
}
330
47
100
AcDbScale
 70
     0
300
1/2" = 1'-0"
140
0.5
141
12.0
290
     0
  0
SCALE
  5
53
102
{ACAD_REACTORS
330
47
102
}
330
47
100
AcDbScale
 70
     0
300
3/4" = 1'-0"
140
0.75
141
12.0
290
     0
  0
SCALE
  5
54
102
{ACAD_REACTORS
330
47
102
}
330
47
100
AcDbScale
 70
     0
300
1" = 1'-0"
140
1.0
141
12.0
290
     0
  0
SCALE
  5
55
102
{ACAD_REACTORS
330
47
102
}
330
47
100
AcDbScale
 70
     0
300
1-1/2" = 1'-0"
140
1.5
141
12.0
290
     0
  0
SCALE
  5
56
102
{ACAD_REACTORS
330
47
102
}
330
47
100
AcDbScale
 70
     0
300
3" = 1'-0"
140
3.0
141
12.0
290
     0
  0
SCALE
  5
57
102
{ACAD_REACTORS
330
47
102
}
330
47
100
AcDbScale
 70
     0
300
6" = 1'-0"
140
6.0
141
12.0
290
     0
  0
SCALE
  5
58
102
{ACAD_REACTORS
330
47
102
}
330
47
100
AcDbScale
 70
     0
300
1'-0" = 1'-0"
140
12.0
141
12.0
290
     0
  0
ENDSEC
  0
EOF
