  0
SECTION
  2
HEADER
  9
$ACADVER
  1
AC1015
  9
$ACADMAINTVER
 70
     6
  9
$DWGCODEPAGE
  3
ANSI_1252
  9
$INSBASE
 10
0.0
 20
0.0
 30
0.0
  9
$EXTMIN
 10
0.0
 20
0.0
 30
0.0
  9
$EXTMAX
 10
22.0
 20
17.0
 30
0.0
  9
$LIMMIN
 10
0.0
 20
0.0
  9
$LIMMAX
 10
22.0
 20
17.0
  9
$ORTHOMODE
 70
     0
  9
$REGENMODE
 70
     1
  9
$FILLMODE
 70
     1
  9
$QTEXTMODE
 70
     0
  9
$MIRRTEXT
 70
     1
  9
$LTSCALE
 40
2.0
  9
$ATTMODE
 70
     1
  9
$TEXTSIZE
 40
0.25
  9
$TRACEWID
 40
0.05
  9
$TEXTSTYLE
  7
Standard
  9
$CLAYER
  8
0
  9
$CELTYPE
  6
ByLayer
  9
$CECOLOR
 62
   256
  9
$CELTSCALE
 40
1.0
  9
$DISPSILH
 70
     0
  9
$DIMSCALE
 40
1.0
  9
$DIMASZ
 40
0.26
  9
$DIMEXO
 40
0.1
  9
$DIMDLI
 40
0.38
  9
$DIMRND
 40
0.0
  9
$DIMDLE
 40
0.0
  9
$DIMEXE
 40
0.25
  9
$DIMTP
 40
0.0
  9
$DIMTM
 40
0.0
  9
$DIMTXT
 40
0.25
  9
$DIMCEN
 40
0.09
  9
$DIMTSZ
 40
0.0
  9
$DIMTOL
 70
     0
  9
$DIMLIM
 70
     0
  9
$DIMTIH
 70
     1
  9
$DIMTOH
 70
     1
  9
$DIMSE1
 70
     0
  9
$DIMSE2
 70
     0
  9
$DIMTAD
 70
     0
  9
$DIMZIN
 70
     1
  9
$DIMBLK
  1

  9
$DIMASO
 70
     1
  9
$DIMSHO
 70
     1
  9
$DIMPOST
  1

  9
$DIMAPOST
  1

  9
$DIMALT
 70
     0
  9
$DIMALTD
 70
     2
  9
$DIMALTF
 40
25.4
  9
$DIMLFAC
 40
1.0
  9
$DIMTOFL
 70
     0
  9
$DIMTVP
 40
0.0
  9
$DIMTIX
 70
     0
  9
$DIMSOXD
 70
     0
  9
$DIMSAH
 70
     0
  9
$DIMBLK1
  1

  9
$DIMBLK2
  1

  9
$DIMSTYLE
  2
Standard
  9
$DIMCLRD
 70
     0
  9
$DIMCLRE
 70
     0
  9
$DIMCLRT
 70
     0
  9
$DIMTFAC
 40
1.0
  9
$DIMGAP
 40
0.12
  9
$DIMJUST
 70
     0
  9
$DIMSD1
 70
     0
  9
$DIMSD2
 70
     0
  9
$DIMTOLJ
 70
     1
  9
$DIMTZIN
 70
     1
  9
$DIMALTZ
 70
     0
  9
$DIMALTTZ
 70
     0
  9
$DIMUPT
 70
     0
  9
$DIMDEC
 70
     0
  9
$DIMTDEC
 70
     0
  9
$DIMALTU
 70
     2
  9
$DIMALTTD
 70
     2
  9
$DIMTXSTY
  7
Standard
  9
$DIMAUNIT
 70
     0
  9
$DIMADEC
 70
     0
  9
$DIMALTRND
 40
0.0
  9
$DIMAZIN
 70
     0
  9
$DIMDSEP
 70
    46
  9
$DIMATFIT
 70
     3
  9
$DIMFRAC
 70
     0
  9
$DIMLDRBLK
  1

  9
$DIMLUNIT
 70
     2
  9
$DIMLWD
 70
    -2
  9
$DIMLWE
 70
    -2
  9
$DIMTMOVE
 70
     0
  9
$LUNITS
 70
     2
  9
$LUPREC
 70
     6
  9
$SKETCHINC
 40
0.1
  9
$FILLETRAD
 40
0.0
  9
$AUNITS
 70
     0
  9
$AUPREC
 70
     2
  9
$MENU
  1
.
  9
$ELEVATION
 40
0.0
  9
$PELEVATION
 40
0.0
  9
$THICKNESS
 40
0.0
  9
$LIMCHECK
 70
     0
  9
$CHAMFERA
 40
0.0
  9
$CHAMFERB
 40
0.0
  9
$CHAMFERC
 40
0.0
  9
$CHAMFERD
 40
0.0
  9
$SKPOLY
 70
     0
  9
$TDCREATE
 40
2460481.868468831
  9
$TDUCREATE
 40
2460482.160135498
  9
$TDUPDATE
 40
2460481.868469236
  9
$TDUUPDATE
 40
2460482.160135903
  9
$TDINDWG
 40
0.0000000116
  9
$TDUSRTIMER
 40
0.0000000116
  9
$USRTIMER
 70
     1
  9
$ANGBASE
 50
0.0
  9
$ANGDIR
 70
     0
  9
$PDMODE
 70
     0
  9
$PDSIZE
 40
-1.0
  9
$PLINEWID
 40
0.0
  9
$SPLFRAME
 70
     0
  9
$SPLINETYPE
 70
     6
  9
$SPLINESEGS
 70
     8
  9
$HANDSEED
  5
1F4
  9
$SURFTAB1
 70
     6
  9
$SURFTAB2
 70
     6
  9
$SURFTYPE
 70
     6
  9
$SURFU
 70
     6
  9
$SURFV
 70
     6
  9
$UCSBASE
  2

  9
$UCSNAME
  2

  9
$UCSORG
 10
0.0
 20
0.0
 30
0.0
  9
$UCSXDIR
 10
1.0
 20
0.0
 30
0.0
  9
$UCSYDIR
 10
0.0
 20
1.0
 30
0.0
  9
$UCSORTHOREF
  2

  9
$UCSORTHOVIEW
 70
     0
  9
$UCSORGTOP
 10
0.0
 20
0.0
 30
0.0
  9
$UCSORGBOTTOM
 10
0.0
 20
0.0
 30
0.0
  9
$UCSORGLEFT
 10
0.0
 20
0.0
 30
0.0
  9
$UCSORGRIGHT
 10
0.0
 20
0.0
 30
0.0
  9
$UCSORGFRONT
 10
0.0
 20
0.0
 30
0.0
  9
$UCSORGBACK
 10
0.0
 20
0.0
 30
0.0
  9
$PUCSBASE
  2

  9
$PUCSNAME
  2

  9
$PUCSORG
 10
0.0
 20
0.0
 30
0.0
  9
$PUCSXDIR
 10
1.0
 20
0.0
 30
0.0
  9
$PUCSYDIR
 10
0.0
 20
1.0
 30
0.0
  9
$PUCSORTHOREF
  2

  9
$PUCSORTHOVIEW
 70
     0
  9
$PUCSORGTOP
 10
0.0
 20
0.0
 30
0.0
  9
$PUCSORGBOTTOM
 10
0.0
 20
0.0
 30
0.0
  9
$PUCSORGLEFT
 10
0.0
 20
0.0
 30
0.0
  9
$PUCSORGRIGHT
 10
0.0
 20
0.0
 30
0.0
  9
$PUCSORGFRONT
 10
0.0
 20
0.0
 30
0.0
  9
$PUCSORGBACK
 10
0.0
 20
0.0
 30
0.0
  9
$USERI1
 70
     0
  9
$USERI2
 70
     0
  9
$USERI3
 70
     0
  9
$USERI4
 70
     0
  9
$USERI5
 70
     0
  9
$USERR1
 40
0.0
  9
$USERR2
 40
0.0
  9
$USERR3
 40
0.0
  9
$USERR4
 40
0.0
  9
$USERR5
 40
0.0
  9
$WORLDVIEW
 70
     1
  9
$SHADEDGE
 70
     3
  9
$SHADEDIF
 70
    70
  9
$TILEMODE
 70
     1
  9
$MAXACTVP
 70
    64
  9
$PINSBASE
 10
0.0
 20
0.0
 30
0.0
  9
$PLIMCHECK
 70
     0
  9
$PEXTMIN
 10
1.0000000000E+20
 20
1.0000000000E+20
 30
1.0000000000E+20
  9
$PEXTMAX
 10
-1.0000000000E+20
 20
-1.0000000000E+20
 30
-1.0000000000E+20
  9
$PLIMMIN
 10
0.0
 20
0.0
  9
$PLIMMAX
 10
12.0
 20
9.0
  9
$UNITMODE
 70
     0
  9
$VISRETAIN
 70
     1
  9
$PLINEGEN
 70
     0
  9
$PSLTSCALE
 70
     1
  9
$TREEDEPTH
 70
  3020
  9
$CMLSTYLE
  2
Standard
  9
$CMLJUST
 70
     0
  9
$CMLSCALE
 40
1.0
  9
$PROXYGRAPHICS
 70
     1
  9
$MEASUREMENT
 70
     0
  9
$CELWEIGHT
370
    -1
  9
$ENDCAPS
280
     0
  9
$JOINSTYLE
280
     0
  9
$LWDISPLAY
290
     1
  9
$INSUNITS
 70
     1
  9
$HYPERLINKBASE
  1

  9
$STYLESHEET
  1

  9
$XEDIT
290
     1
  9
$CEPSNTYPE
380
     0
  9
$PSTYLEMODE
290
     1
  9
$FINGERPRINTGUID
  2
{be99479d-2faf-4791-b7ac-6037e193c08f}
  9
$VERSIONGUID
  2
{FAEB1C32-E019-11D5-929B-00C0DF256EC4}
  9
$EXTNAMES
290
     1
  9
$PSVPSCALE
 40
0.0
  9
$OLESTARTUP
290
     0
  0
ENDSEC
  0
SECTION
  2
CLASSES
  0
CLASS
  1
ACDBDICTIONARYWDFLT
  2
AcDbDictionaryWithDefault
  3
ObjectDBX Classes
 90
        0
280
     0
281
     0
  0
CLASS
  1
VISUALSTYLE
  2
AcDbVisualStyle
  3
ObjectDBX Classes
 90
     4095
280
     0
281
     0
  0
CLASS
  1
MATERIAL
  2
AcDbMaterial
  3
ObjectDBX Classes
 90
     1153
280
     0
281
     0
  0
CLASS
  1
SCALE
  2
AcDbScale
  3
ObjectDBX Classes
 90
     1153
280
     0
281
     0
  0
CLASS
  1
TABLESTYLE
  2
AcDbTableStyle
  3
ObjectDBX Classes
 90
     4095
280
     0
281
     0
  0
CLASS
  1
MLEADERSTYLE
  2
AcDbMLeaderStyle
  3
ACDB_MLEADERSTYLE_CLASS
 90
     4095
280
     0
281
     0
  0
CLASS
  1
SUN
  2
AcDbSun
  3
SCENEOE
 90
     1153
280
     0
281
     0
  0
CLASS
  1
ACDBPLACEHOLDER
  2
AcDbPlaceHolder
  3
ObjectDBX Classes
 90
        0
280
     0
281
     0
  0
CLASS
  1
LAYOUT
  2
AcDbLayout
  3
ObjectDBX Classes
 90
        0
280
     0
281
     0
  0
ENDSEC
  0
SECTION
  2
TABLES
  0
TABLE
  2
VPORT
  5
8
330
0
100
AcDbSymbolTable
 70
     1
  0
VPORT
  5
29
330
8
100
AcDbSymbolTableRecord
100
AcDbViewportTableRecord
  2
*Active
 70
     0
 10
0.0
 20
0.0
 11
1.0
 21
1.0
 12
11.0
 22
8.5
 13
0.0
 23
0.0
 14
0.5
 24
0.5
 15
0.5
 25
0.5
 16
0.0
 26
0.0
 36
1.0
 17
0.0
 27
0.0
 37
0.0
 40
17.0
 41
1.2941176471
 42
50.0
 43
0.0
 44
0.0
 50
0.0
 51
0.0
 71
     0
 72
  2000
 73
     1
 74
     3
 75
     0
 76
     0
 77
     0
 78
     0
281
     0
 65
     1
110
0.0
120
0.0
130
0.0
111
1.0
121
0.0
131
0.0
112
0.0
122
1.0
132
0.0
 79
     0
146
0.0
  0
ENDTAB
  0
TABLE
  2
LTYPE
  5
5
330
0
100
AcDbSymbolTable
 70
     6
  0
LTYPE
  5
14
330
5
100
AcDbSymbolTableRecord
100
AcDbLinetypeTableRecord
  2
ByBlock
 70
     0
  3

 72
    65
 73
     0
 40
0.0
  0
LTYPE
  5
15
330
5
100
AcDbSymbolTableRecord
100
AcDbLinetypeTableRecord
  2
ByLayer
 70
     0
  3

 72
    65
 73
     0
 40
0.0
  0
LTYPE
  5
16
330
5
100
AcDbSymbolTableRecord
100
AcDbLinetypeTableRecord
  2
Continuous
 70
     0
  3
Solid line
 72
    65
 73
     0
 40
0.0
  0
LTYPE
  5
5E
330
5
100
AcDbSymbolTableRecord
100
AcDbLinetypeTableRecord
  2
HIDDEN
 70
     0
  3
Hidden __ __ __ __ __ __ __ __ __ __ __ __ __ __
 72
    65
 73
     2
 40
0.075
 49
0.05
 74
     0
 49
-0.025
 74
     0
  0
LTYPE
  5
5F
330
5
100
AcDbSymbolTableRecord
100
AcDbLinetypeTableRecord
  2
PHANTOM
 70
     0
  3
Phantom ______  __  __  ______  __  __  ______
 72
    65
 73
     6
 40
0.5
 49
0.25
 74
     0
 49
-0.05
 74
     0
 49
0.05
 74
     0
 49
-0.05
 74
     0
 49
0.05
 74
     0
 49
-0.05
 74
     0
  0
LTYPE
  5
60
330
5
100
AcDbSymbolTableRecord
100
AcDbLinetypeTableRecord
  2
CENTER
 70
     0
  3
Center ____ _ ____ _ ____ _ ____ _ ____ _ ____
 72
    65
 73
     4
 40
0.4
 49
0.25
 74
     0
 49
-0.05
 74
     0
 49
0.05
 74
     0
 49
-0.05
 74
     0
  0
LTYPE
  5
61
330
5
100
AcDbSymbolTableRecord
100
AcDbLinetypeTableRecord
  2
CENTERX2
 70
     0
  3
Center (2x) ________  __  ________  __  _____
 72
    65
 73
     4
 40
0.8
 49
0.5
 74
     0
 49
-0.1
 74
     0
 49
0.1
 74
     0
 49
-0.1
 74
     0
  0
LTYPE
  5
62
330
5
100
AcDbSymbolTableRecord
100
AcDbLinetypeTableRecord
  2
DOT2
 70
     0
  3
Dot (.5x) ........................................
 72
    65
 73
     2
 40
0.025
 49
0.0
 74
     0
 49
-0.025
 74
     0
  0
ENDTAB
  0
TABLE
  2
LAYER
  5
2
330
0
100
AcDbSymbolTable
 70
    12
  0
LAYER
  5
10
330
2
100
AcDbSymbolTableRecord
100
AcDbLayerTableRecord
  2
0
 70
     0
 62
     7
  6
Continuous
370
    -3
390
F
  0
LAYER
  5
63
330
2
100
AcDbSymbolTableRecord
100
AcDbLayerTableRecord
  2
SLD-0
 70
     0
 62
     7
  6
Continuous
370
    -3
390
F
  0
LAYER
  5
64
330
2
100
AcDbSymbolTableRecord
100
AcDbLayerTableRecord
  2
DIM
 70
     0
 62
     7
  6
Continuous
370
    -3
390
F
  0
LAYER
  5
65
330
2
100
AcDbSymbolTableRecord
100
AcDbLayerTableRecord
  2
CEN
 70
     0
 62
     1
  6
CENTER
370
    -3
390
F
  0
LAYER
  5
66
330
2
100
AcDbSymbolTableRecord
100
AcDbLayerTableRecord
  2
HAT
 70
     0
 62
     4
  6
Continuous
370
    -3
390
F
  0
LAYER
  5
67
330
2
100
AcDbSymbolTableRecord
100
AcDbLayerTableRecord
  2
OBJ
 70
     0
 62
     5
  6
Continuous
370
    -3
390
F
  0
LAYER
  5
68
330
2
100
AcDbSymbolTableRecord
100
AcDbLayerTableRecord
  2
SLD-DEFPOINTS
 70
     0
 62
     7
  6
Continuous
370
    -3
390
F
  0
LAYER
  5
69
330
2
100
AcDbSymbolTableRecord
100
AcDbLayerTableRecord
  2
HID
 70
     0
 62
     4
  6
HIDDEN
370
    -3
390
F
  0
LAYER
  5
6A
330
2
100
AcDbSymbolTableRecord
100
AcDbLayerTableRecord
  2
NOTE
 70
     0
 62
     7
  6
Continuous
370
    -3
390
F
  0
LAYER
  5
6B
330
2
100
AcDbSymbolTableRecord
100
AcDbLayerTableRecord
  2
VP
 70
     0
 62
    -5
  6
Continuous
290
     0
370
    -3
390
F
  0
LAYER
  5
6C
330
2
100
AcDbSymbolTableRecord
100
AcDbLayerTableRecord
  2
TITLE
 70
     0
 62
     7
  6
Continuous
370
    -3
390
F
  0
LAYER
  5
6D
330
2
100
AcDbSymbolTableRecord
100
AcDbLayerTableRecord
  2
THICK_TITLE
 70
     0
 62
     7
  6
Continuous
370
   100
390
F
  0
ENDTAB
  0
TABLE
  2
STYLE
  5
3
330
0
100
AcDbSymbolTable
 70
     2
  0
STYLE
  5
11
330
3
100
AcDbSymbolTableRecord
100
AcDbTextStyleTableRecord
  2
Standard
 70
     0
 40
0.0
 41
1.0
 50
0.0
 71
     0
 42
0.25
  3
txt
  4

  0
STYLE
  5
DB
330
3
100
AcDbSymbolTableRecord
100
AcDbTextStyleTableRecord
  2
SLDTEXTSTYLE0
 70
     0
 40
0.0
 41
0.75
 50
0.0
 71
     0
 42
0.25
  3
TXT
  4

  0
ENDTAB
  0
TABLE
  2
VIEW
  5
6
330
0
100
AcDbSymbolTable
 70
     0
  0
ENDTAB
  0
TABLE
  2
UCS
  5
7
330
0
100
AcDbSymbolTable
 70
     0
  0
ENDTAB
  0
TABLE
  2
APPID
  5
9
330
0
100
AcDbSymbolTable
 70
     1
  0
APPID
  5
12
330
9
100
AcDbSymbolTableRecord
100
AcDbRegAppTableRecord
  2
ACAD
 70
     0
  0
ENDTAB
  0
TABLE
  2
DIMSTYLE
  5
A
330
0
100
AcDbSymbolTable
 70
     4
100
AcDbDimStyleTable
  0
DIMSTYLE
105
27
330
A
100
AcDbSymbolTableRecord
100
AcDbDimStyleTableRecord
  2
Standard
 70
     0
178
     0
340
11
  0
DIMSTYLE
105
DC
102
{ACAD_REACTORS
330
DA
330
F1
330
1CC
102
}
330
A
100
AcDbSymbolTableRecord
100
AcDbDimStyleTableRecord
  2
SLDDIMSTYLE0
 70
     0
 41
0.26
 44
0.0
 45
0.000000001
 78
    12
 79
     3
140
0.25
147
0.0625
148
0.000000001
170
     1
173
     1
178
     0
271
     6
272
     0
276
     2
277
     5
284
    12
340
DB
  0
DIMSTYLE
105
105
102
{ACAD_REACTORS
330
104
102
}
330
A
100
AcDbSymbolTableRecord
100
AcDbDimStyleTableRecord
  2
SLDDIMSTYLE1
 70
     0
 41
0.26
 44
0.0
 45
0.000000001
 78
    12
 79
     3
140
0.25
147
0.0625
148
0.000000001
170
     1
172
     1
173
     1
178
     0
271
     6
272
     0
276
     2
277
     5
284
    12
289
     0
340
DB
  0
DIMSTYLE
105
1E0
102
{ACAD_REACTORS
330
1DF
102
}
330
A
100
AcDbSymbolTableRecord
100
AcDbDimStyleTableRecord
  2
SLDDIMSTYLE2
 70
     0
 41
0.26
 44
0.0
 45
0.000000001
 78
    12
 79
     3
140
0.25
147
0.0625
148
0.000000001
170
     1
173
     1
178
     0
271
     0
272
     0
276
     2
277
     5
284
    12
340
DB
  0
ENDTAB
  0
TABLE
  2
BLOCK_RECORD
  5
1
330
0
100
AcDbSymbolTable
 70
     6
  0
BLOCK_RECORD
  5
1F
330
1
100
AcDbSymbolTableRecord
100
AcDbBlockTableRecord
  2
*Model_Space
340
22
  0
BLOCK_RECORD
  5
1B
330
1
100
AcDbSymbolTableRecord
100
AcDbBlockTableRecord
  2
*Paper_Space
340
1E
  0
BLOCK_RECORD
  5
23
330
1
100
AcDbSymbolTableRecord
100
AcDbBlockTableRecord
  2
*Paper_Space0
340
26
  0
BLOCK_RECORD
  5
DD
330
1
100
AcDbSymbolTableRecord
100
AcDbBlockTableRecord
  2
_D
340
0
  0
BLOCK_RECORD
  5
F2
330
1
100
AcDbSymbolTableRecord
100
AcDbBlockTableRecord
  2
_D_1
340
0
  0
BLOCK_RECORD
  5
106
330
1
100
AcDbSymbolTableRecord
100
AcDbBlockTableRecord
  2
_D_2
340
0
  0
BLOCK_RECORD
  5
1CD
330
1
100
AcDbSymbolTableRecord
100
AcDbBlockTableRecord
  2
_D_3
340
0
  0
BLOCK_RECORD
  5
1E1
330
1
100
AcDbSymbolTableRecord
100
AcDbBlockTableRecord
  2
_D_4
340
0
  0
ENDTAB
  0
ENDSEC
  0
SECTION
  2
BLOCKS
  0
BLOCK
  5
20
330
1F
100
AcDbEntity
  8
0
100
AcDbBlockBegin
  2
*Model_Space
 70
     0
 10
0.0
 20
0.0
 30
0.0
  3
*Model_Space
  1

  0
ENDBLK
  5
21
330
1F
100
AcDbEntity
  8
0
100
AcDbBlockEnd
  0
BLOCK
  5
1C
330
1B
100
AcDbEntity
 67
     1
  8
0
100
AcDbBlockBegin
  2
*Paper_Space
 70
     0
 10
0.0
 20
0.0
 30
0.0
  3
*Paper_Space
  1

  0
ENDBLK
  5
1D
330
1B
100
AcDbEntity
 67
     1
  8
0
100
AcDbBlockEnd
  0
BLOCK
  5
24
330
23
100
AcDbEntity
  8
0
100
AcDbBlockBegin
  2
*Paper_Space0
 70
     0
 10
0.0
 20
0.0
 30
0.0
  3
*Paper_Space0
  1

  0
ENDBLK
  5
25
330
23
100
AcDbEntity
  8
0
100
AcDbBlockEnd
  0
BLOCK
  5
DE
330
DD
100
AcDbEntity
  8
0
100
AcDbBlockBegin
  2
_D
 70
     0
 10
0.0
 20
0.0
 30
0.0
  3
_D
  1

  0
SOLID
  5
E0
330
DD
100
AcDbEntity
  8
SLD-0
100
AcDbTrace
 10
4.331510736
 20
7.658466658
 30
0.0
 11
4.591510736
 21
7.618466658
 31
0.0
 12
4.591510736
 22
7.698466658
 32
0.0
 13
4.591510736
 23
7.698466658
 33
0.0
  0
SOLID
  5
E1
330
DD
100
AcDbEntity
  8
SLD-0
100
AcDbTrace
 10
8.069010736
 20
7.658466658
 30
0.0
 11
7.809010736
 21
7.698466658
 31
0.0
 12
7.809010736
 22
7.618466658
 32
0.0
 13
7.809010736
 23
7.618466658
 33
0.0
  0
LINE
  5
E2
330
DD
100
AcDbEntity
  8
SLD-0
100
AcDbLine
 10
5.70303854
 20
7.6565568967
 30
0.0
 11
5.6268666657
 21
7.6565568967
 31
0.0
  0
LINE
  5
E3
330
DD
100
AcDbEntity
  8
SLD-0
100
AcDbLine
 10
5.6268666657
 20
7.6565568967
 30
0.0
 11
5.6268666657
 21
7.2596818847
 31
0.0
  0
LINE
  5
E4
330
DD
100
AcDbEntity
  8
SLD-0
100
AcDbLine
 10
5.6268666657
 20
7.2596818847
 30
0.0
 11
5.70303854
 21
7.2596818847
 31
0.0
  0
LINE
  5
E5
330
DD
100
AcDbEntity
  8
SLD-0
100
AcDbLine
 10
6.6974830054
 20
7.6565568967
 30
0.0
 11
6.7736548796
 21
7.6565568967
 31
0.0
  0
LINE
  5
E6
330
DD
100
AcDbEntity
  8
SLD-0
100
AcDbLine
 10
6.7736548796
 20
7.6565568967
 30
0.0
 11
6.7736548796
 21
7.2596818847
 31
0.0
  0
LINE
  5
E7
330
DD
100
AcDbEntity
  8
SLD-0
100
AcDbLine
 10
6.7736548796
 20
7.2596818847
 30
0.0
 11
6.6974830054
 21
7.2596818847
 31
0.0
  0
LINE
  5
E8
330
DD
100
AcDbEntity
  8
SLD-0
100
AcDbLine
 10
4.331510736
 20
4.7390451907
 30
0.0
 11
4.331510736
 21
5.4077951907
 31
0.0
  0
LINE
  5
E9
330
DD
100
AcDbEntity
  8
SLD-0
100
AcDbLine
 10
4.331510736
 20
5.5277951907
 30
0.0
 11
4.331510736
 21
7.908466658
 31
0.0
  0
LINE
  5
EA
330
DD
100
AcDbEntity
  8
SLD-0
100
AcDbLine
 10
8.069010736
 20
6.9410833583
 30
0.0
 11
8.069010736
 21
7.908466658
 31
0.0
  0
LINE
  5
EB
330
DD
100
AcDbEntity
  8
SLD-0
100
AcDbLine
 10
4.331510736
 20
7.658466658
 30
0.0
 11
5.4076380736
 21
7.658466658
 31
0.0
  0
LINE
  5
EC
330
DD
100
AcDbEntity
  8
SLD-0
100
AcDbLine
 10
8.069010736
 20
7.658466658
 30
0.0
 11
6.9928833984
 21
7.658466658
 31
0.0
  0
MTEXT
  5
ED
330
DD
100
AcDbEntity
  8
SLD-0
100
AcDbMText
 10
5.5520836802
 20
8.0334245517
 30
0.0
 40
0.25
 41
0.0
 71
     1
 72
     1
  1

  7
SLDTEXTSTYLE0
 73
     1
 44
1.0
  0
MTEXT
  5
EE
330
DD
100
AcDbEntity
  8
SLD-0
100
AcDbMText
 10
5.7525177101
 20
8.0296050887
 30
0.0
 40
0.25
 41
0.0
 71
     1
 72
     1
  1
3 3/4"
  7
SLDTEXTSTYLE0
 73
     1
 44
1.0
  0
MTEXT
  5
EF
330
DD
100
AcDbEntity
  8
SLD-0
100
AcDbMText
 10
5.70303854
 20
7.5819488472
 30
0.0
 40
0.25
 41
0.0
 71
     1
 72
     1
  1
95mm
  7
SLDTEXTSTYLE0
 73
     1
 44
1.0
  0
MTEXT
  5
F0
330
DD
100
AcDbEntity
  8
SLD-0
100
AcDbMText
 10
6.9435766988
 20
8.0334245517
 30
0.0
 40
0.25
 41
0.0
 71
     1
 72
     1
  1

  7
SLDTEXTSTYLE0
 73
     1
 44
1.0
  0
ENDBLK
  5
DF
330
DD
100
AcDbEntity
  8
0
100
AcDbBlockEnd
  0
BLOCK
  5
F3
330
F2
100
AcDbEntity
  8
0
100
AcDbBlockBegin
  2
_D_1
 70
     0
 10
0.0
 20
0.0
 30
0.0
  3
_D_1
  1

  0
SOLID
  5
F5
330
F2
100
AcDbEntity
  8
SLD-0
100
AcDbTrace
 10
1.1396091612
 20
5.4677951907
 30
0.0
 11
1.0996091612
 21
5.2077951907
 31
0.0
 12
1.1796091612
 22
5.2077951907
 32
0.0
 13
1.1796091612
 23
5.2077951907
 33
0.0
  0
SOLID
  5
F6
330
F2
100
AcDbEntity
  8
SLD-0
100
AcDbTrace
 10
1.1396091612
 20
3.2477951907
 30
0.0
 11
1.1796091612
 21
3.5077951907
 31
0.0
 12
1.0996091612
 22
3.5077951907
 32
0.0
 13
1.0996091612
 23
3.5077951907
 33
0.0
  0
LINE
  5
F7
330
F2
100
AcDbEntity
  8
SLD-0
100
AcDbLine
 10
0.6423869468
 20
4.3577951541
 30
0.0
 11
0.5662150726
 21
4.3577951541
 31
0.0
  0
LINE
  5
F8
330
F2
100
AcDbEntity
  8
SLD-0
100
AcDbLine
 10
0.5662150726
 20
4.3577951541
 30
0.0
 11
0.5662150726
 21
3.9609201421
 31
0.0
  0
LINE
  5
F9
330
F2
100
AcDbEntity
  8
SLD-0
100
AcDbLine
 10
0.5662150726
 20
3.9609201421
 30
0.0
 11
0.6423869468
 21
3.9609201421
 31
0.0
  0
LINE
  5
FA
330
F2
100
AcDbEntity
  8
SLD-0
100
AcDbLine
 10
1.6368314123
 20
4.3577951541
 30
0.0
 11
1.7130032865
 21
4.3577951541
 31
0.0
  0
LINE
  5
FB
330
F2
100
AcDbEntity
  8
SLD-0
100
AcDbLine
 10
1.7130032865
 20
4.3577951541
 30
0.0
 11
1.7130032865
 21
3.9609201421
 31
0.0
  0
LINE
  5
FC
330
F2
100
AcDbEntity
  8
SLD-0
100
AcDbLine
 10
1.7130032865
 20
3.9609201421
 30
0.0
 11
1.6368314123
 21
3.9609201421
 31
0.0
  0
LINE
  5
FD
330
F2
100
AcDbEntity
  8
SLD-0
100
AcDbLine
 10
4.649010736
 20
5.4677951907
 30
0.0
 11
0.8896091612
 21
5.4677951907
 31
0.0
  0
LINE
  5
FE
330
F2
100
AcDbEntity
  8
SLD-0
100
AcDbLine
 10
4.649010736
 20
3.2477951907
 30
0.0
 11
0.8896091612
 21
3.2477951907
 31
0.0
  0
LINE
  5
FF
330
F2
100
AcDbEntity
  8
SLD-0
100
AcDbLine
 10
1.1396091612
 20
5.4677951907
 30
0.0
 11
1.1396091612
 21
4.805451446
 31
0.0
  0
LINE
  5
100
330
F2
100
AcDbEntity
  8
SLD-0
100
AcDbLine
 10
1.1396091612
 20
3.2477951907
 30
0.0
 11
1.1396091612
 21
3.9101389354
 31
0.0
  0
MTEXT
  5
101
330
F2
100
AcDbEntity
  8
SLD-0
100
AcDbMText
 10
0.503350478
 20
4.7308433645
 30
0.0
 40
0.25
 41
0.0
 71
     1
 72
     1
  1
%%c
  7
SLDTEXTSTYLE0
 73
     1
 44
1.0
  0
MTEXT
  5
102
330
F2
100
AcDbEntity
  8
SLD-0
100
AcDbMText
 10
0.8803817192
 20
4.7308433645
 30
0.0
 40
0.25
 41
0.0
 71
     1
 72
     1
  1
2 1/4"
  7
SLDTEXTSTYLE0
 73
     1
 44
1.0
  0
MTEXT
  5
103
330
F2
100
AcDbEntity
  8
SLD-0
100
AcDbMText
 10
0.6423869468
 20
4.2831871046
 30
0.0
 40
0.25
 41
0.0
 71
     1
 72
     1
  1
56mm
  7
SLDTEXTSTYLE0
 73
     1
 44
1.0
  0
ENDBLK
  5
F4
330
F2
100
AcDbEntity
  8
0
100
AcDbBlockEnd
  0
BLOCK
  5
107
330
106
100
AcDbEntity
  8
0
100
AcDbBlockBegin
  2
_D_2
 70
     0
 10
0.0
 20
0.0
 30
0.0
  3
_D_2
  1

  0
SOLID
  5
109
330
106
100
AcDbEntity
  8
SLD-0
100
AcDbTrace
 10
8.069010736
 20
7.658466658
 30
0.0
 11
7.809010736
 21
7.698466658
 31
0.0
 12
7.809010736
 22
7.618466658
 32
0.0
 13
7.809010736
 23
7.618466658
 33
0.0
  0
SOLID
  5
10A
330
106
100
AcDbEntity
  8
SLD-0
100
AcDbTrace
 10
9.769010736
 20
7.658466658
 30
0.0
 11
10.029010736
 21
7.618466658
 31
0.0
 12
10.029010736
 22
7.698466658
 32
0.0
 13
10.029010736
 23
7.698466658
 33
0.0
  0
LINE
  5
10B
330
106
100
AcDbEntity
  8
SLD-0
100
AcDbLine
 10
8.42178854
 20
7.6565568967
 30
0.0
 11
8.3456166657
 21
7.6565568967
 31
0.0
  0
LINE
  5
10C
330
106
100
AcDbEntity
  8
SLD-0
100
AcDbLine
 10
8.3456166657
 20
7.6565568967
 30
0.0
 11
8.3456166657
 21
7.2596818847
 31
0.0
  0
LINE
  5
10D
330
106
100
AcDbEntity
  8
SLD-0
100
AcDbLine
 10
8.3456166657
 20
7.2596818847
 30
0.0
 11
8.42178854
 21
7.2596818847
 31
0.0
  0
LINE
  5
10E
330
106
100
AcDbEntity
  8
SLD-0
100
AcDbLine
 10
9.4162330054
 20
7.6565568967
 30
0.0
 11
9.4924048796
 21
7.6565568967
 31
0.0
  0
LINE
  5
10F
330
106
100
AcDbEntity
  8
SLD-0
100
AcDbLine
 10
9.4924048796
 20
7.6565568967
 30
0.0
 11
9.4924048796
 21
7.2596818847
 31
0.0
  0
LINE
  5
110
330
106
100
AcDbEntity
  8
SLD-0
100
AcDbLine
 10
9.4924048796
 20
7.2596818847
 30
0.0
 11
9.4162330054
 21
7.2596818847
 31
0.0
  0
LINE
  5
111
330
106
100
AcDbEntity
  8
SLD-0
100
AcDbLine
 10
8.069010736
 20
6.9410833583
 30
0.0
 11
8.069010736
 21
7.908466658
 31
0.0
  0
LINE
  5
112
330
106
100
AcDbEntity
  8
SLD-0
100
AcDbLine
 10
9.769010736
 20
3.9877951907
 30
0.0
 11
9.769010736
 21
7.908466658
 31
0.0
  0
LINE
  5
113
330
106
100
AcDbEntity
  8
SLD-0
100
AcDbLine
 10
8.069010736
 20
7.658466658
 30
0.0
 11
7.569010736
 21
7.658466658
 31
0.0
  0
LINE
  5
114
330
106
100
AcDbEntity
  8
SLD-0
100
AcDbLine
 10
9.769010736
 20
7.658466658
 30
0.0
 11
10.269010736
 21
7.658466658
 31
0.0
  0
MTEXT
  5
115
330
106
100
AcDbEntity
  8
SLD-0
100
AcDbMText
 10
8.2708336802
 20
8.0334245517
 30
0.0
 40
0.25
 41
0.0
 71
     1
 72
     1
  1

  7
SLDTEXTSTYLE0
 73
     1
 44
1.0
  0
MTEXT
  5
116
330
106
100
AcDbEntity
  8
SLD-0
100
AcDbMText
 10
8.2865454873
 20
8.0296050887
 30
0.0
 40
0.25
 41
0.0
 71
     1
 72
     1
  1
1 11/16"
  7
SLDTEXTSTYLE0
 73
     1
 44
1.0
  0
MTEXT
  5
117
330
106
100
AcDbEntity
  8
SLD-0
100
AcDbMText
 10
8.42178854
 20
7.5819488472
 30
0.0
 40
0.25
 41
0.0
 71
     1
 72
     1
  1
43mm
  7
SLDTEXTSTYLE0
 73
     1
 44
1.0
  0
MTEXT
  5
118
330
106
100
AcDbEntity
  8
SLD-0
100
AcDbMText
 10
9.6623266988
 20
8.0334245517
 30
0.0
 40
0.25
 41
0.0
 71
     1
 72
     1
  1

  7
SLDTEXTSTYLE0
 73
     1
 44
1.0
  0
ENDBLK
  5
108
330
106
100
AcDbEntity
  8
0
100
AcDbBlockEnd
  0
BLOCK
  5
1CE
330
1CD
100
AcDbEntity
  8
0
100
AcDbBlockBegin
  2
_D_3
 70
     0
 10
0.0
 20
0.0
 30
0.0
  3
_D_3
  1

  0
SOLID
  5
1D0
330
1CD
100
AcDbEntity
  8
SLD-0
100
AcDbTrace
 10
13.7567322739
 20
7.658466658
 30
0.0
 11
14.0167322739
 21
7.618466658
 31
0.0
 12
14.0167322739
 22
7.698466658
 32
0.0
 13
14.0167322739
 23
7.698466658
 33
0.0
  0
SOLID
  5
1D1
330
1CD
100
AcDbEntity
  8
SLD-0
100
AcDbTrace
 10
17.0667322739
 20
7.658466658
 30
0.0
 11
16.8067322739
 21
7.698466658
 31
0.0
 12
16.8067322739
 22
7.618466658
 32
0.0
 13
16.8067322739
 23
7.618466658
 33
0.0
  0
LINE
  5
1D2
330
1CD
100
AcDbEntity
  8
SLD-0
100
AcDbLine
 10
14.5419406235
 20
7.6565568967
 30
0.0
 11
14.4657687493
 21
7.6565568967
 31
0.0
  0
LINE
  5
1D3
330
1CD
100
AcDbEntity
  8
SLD-0
100
AcDbLine
 10
14.4657687493
 20
7.6565568967
 30
0.0
 11
14.4657687493
 21
7.2596818847
 31
0.0
  0
LINE
  5
1D4
330
1CD
100
AcDbEntity
  8
SLD-0
100
AcDbLine
 10
14.4657687493
 20
7.2596818847
 30
0.0
 11
14.5419406235
 21
7.2596818847
 31
0.0
  0
LINE
  5
1D5
330
1CD
100
AcDbEntity
  8
SLD-0
100
AcDbLine
 10
15.5363850889
 20
7.6565568967
 30
0.0
 11
15.6125569631
 21
7.6565568967
 31
0.0
  0
LINE
  5
1D6
330
1CD
100
AcDbEntity
  8
SLD-0
100
AcDbLine
 10
15.6125569631
 20
7.6565568967
 30
0.0
 11
15.6125569631
 21
7.2596818847
 31
0.0
  0
LINE
  5
1D7
330
1CD
100
AcDbEntity
  8
SLD-0
100
AcDbLine
 10
15.6125569631
 20
7.2596818847
 30
0.0
 11
15.5363850889
 21
7.2596818847
 31
0.0
  0
LINE
  5
1D8
330
1CD
100
AcDbEntity
  8
SLD-0
100
AcDbLine
 10
13.7567322739
 20
4.4577951907
 30
0.0
 11
13.7567322739
 21
7.908466658
 31
0.0
  0
LINE
  5
1D9
330
1CD
100
AcDbEntity
  8
SLD-0
100
AcDbLine
 10
17.0667322739
 20
4.4577951907
 30
0.0
 11
17.0667322739
 21
7.908466658
 31
0.0
  0
LINE
  5
1DA
330
1CD
100
AcDbEntity
  8
SLD-0
100
AcDbLine
 10
13.7567322739
 20
7.658466658
 30
0.0
 11
14.3389012685
 21
7.658466658
 31
0.0
  0
LINE
  5
1DB
330
1CD
100
AcDbEntity
  8
SLD-0
100
AcDbLine
 10
17.0667322739
 20
7.658466658
 30
0.0
 11
16.4845632793
 21
7.658466658
 31
0.0
  0
MTEXT
  5
1DC
330
1CD
100
AcDbEntity
  8
SLD-0
100
AcDbMText
 10
14.4990586639
 20
8.0296050887
 30
0.0
 40
0.25
 41
0.0
 71
     1
 72
     1
  1
3 5/16"
  7
SLDTEXTSTYLE0
 73
     1
 44
1.0
  0
MTEXT
  5
1DD
330
1CD
100
AcDbEntity
  8
SLD-0
100
AcDbMText
 10
14.5419406235
 20
7.5819488472
 30
0.0
 40
0.25
 41
0.0
 71
     1
 72
     1
  1
84mm
  7
SLDTEXTSTYLE0
 73
     1
 44
1.0
  0
MTEXT
  5
1DE
330
1CD
100
AcDbEntity
  8
SLD-0
100
AcDbMText
 10
15.6887288007
 20
8.0334245517
 30
0.0
 40
0.25
 41
0.0
 71
     1
 72
     1
  1
O.C.
  7
SLDTEXTSTYLE0
 73
     1
 44
1.0
  0
ENDBLK
  5
1CF
330
1CD
100
AcDbEntity
  8
0
100
AcDbBlockEnd
  0
BLOCK
  5
1E2
330
1E1
100
AcDbEntity
  8
0
100
AcDbBlockBegin
  2
_D_4
 70
     0
 10
0.0
 20
0.0
 30
0.0
  3
_D_4
  1

  0
SOLID
  5
1E4
330
1E1
100
AcDbEntity
  8
SLD-0
100
AcDbTrace
 10
12.8984623815
 20
8.6033485477
 30
0.0
 11
13.1584623815
 21
8.5633485477
 31
0.0
 12
13.1584623815
 22
8.6433485477
 32
0.0
 13
13.1584623815
 23
8.6433485477
 33
0.0
  0
SOLID
  5
1E5
330
1E1
100
AcDbEntity
  8
SLD-0
100
AcDbTrace
 10
17.9250021663
 20
8.6033485477
 30
0.0
 11
17.6650021663
 21
8.6433485477
 31
0.0
 12
17.6650021663
 22
8.5633485477
 32
0.0
 13
17.6650021663
 23
8.5633485477
 33
0.0
  0
LINE
  5
1E6
330
1E1
100
AcDbEntity
  8
SLD-0
100
AcDbLine
 10
14.1709336094
 20
8.6014387864
 30
0.0
 11
14.0947617352
 21
8.6014387864
 31
0.0
  0
LINE
  5
1E7
330
1E1
100
AcDbEntity
  8
SLD-0
100
AcDbLine
 10
14.0947617352
 20
8.6014387864
 30
0.0
 11
14.0947617352
 21
8.2045637745
 31
0.0
  0
LINE
  5
1E8
330
1E1
100
AcDbEntity
  8
SLD-0
100
AcDbLine
 10
14.0947617352
 20
8.2045637745
 30
0.0
 11
14.1709336094
 21
8.2045637745
 31
0.0
  0
LINE
  5
1E9
330
1E1
100
AcDbEntity
  8
SLD-0
100
AcDbLine
 10
15.3501002609
 20
8.6014387864
 30
0.0
 11
15.4262721351
 21
8.6014387864
 31
0.0
  0
LINE
  5
1EA
330
1E1
100
AcDbEntity
  8
SLD-0
100
AcDbLine
 10
15.4262721351
 20
8.6014387864
 30
0.0
 11
15.4262721351
 21
8.2045637745
 31
0.0
  0
LINE
  5
1EB
330
1E1
100
AcDbEntity
  8
SLD-0
100
AcDbLine
 10
15.4262721351
 20
8.2045637745
 30
0.0
 11
15.3501002609
 21
8.2045637745
 31
0.0
  0
LINE
  5
1EC
330
1E1
100
AcDbEntity
  8
SLD-0
100
AcDbLine
 10
12.8984623815
 20
6.9410833583
 30
0.0
 11
12.8984623815
 21
8.8533485477
 31
0.0
  0
LINE
  5
1ED
330
1E1
100
AcDbEntity
  8
SLD-0
100
AcDbLine
 10
17.9250021663
 20
6.9410833583
 30
0.0
 11
17.9250021663
 21
8.8533485477
 31
0.0
  0
LINE
  5
1EE
330
1E1
100
AcDbEntity
  8
SLD-0
100
AcDbLine
 10
12.8984623815
 20
8.6033485477
 30
0.0
 11
13.9678942544
 21
8.6033485477
 31
0.0
  0
LINE
  5
1EF
330
1E1
100
AcDbEntity
  8
SLD-0
100
AcDbLine
 10
17.9250021663
 20
8.6033485477
 30
0.0
 11
16.8555702934
 21
8.6033485477
 31
0.0
  0
MTEXT
  5
1F0
330
1E1
100
AcDbEntity
  8
SLD-0
100
AcDbMText
 10
14.6165933053
 20
8.9744869785
 30
0.0
 40
0.25
 41
0.0
 71
     1
 72
     1
  1
5"
  7
SLDTEXTSTYLE0
 73
     1
 44
1.0
  0
MTEXT
  5
1F1
330
1E1
100
AcDbEntity
  8
SLD-0
100
AcDbMText
 10
14.1709336094
 20
8.526830737
 30
0.0
 40
0.25
 41
0.0
 71
     1
 72
     1
  1
128mm
  7
SLDTEXTSTYLE0
 73
     1
 44
1.0
  0
MTEXT
  5
1F2
330
1E1
100
AcDbEntity
  8
SLD-0
100
AcDbMText
 10
15.5024439727
 20
8.9783064415
 30
0.0
 40
0.25
 41
0.0
 71
     1
 72
     1
  1
SQUARE
  7
SLDTEXTSTYLE0
 73
     1
 44
1.0
  0
ENDBLK
  5
1E3
330
1E1
100
AcDbEntity
  8
0
100
AcDbBlockEnd
  0
ENDSEC
  0
SECTION
  2
ENTITIES
  0
LINE
  5
6E
330
1F
100
AcDbEntity
  8
0
  6
Continuous
 62
     7
370
    25
100
AcDbLine
 10
4.331510736
 20
4.4927951907
 30
0.0
 11
1.927010736
 21
4.4927951907
 31
0.0
  0
LINE
  5
6F
330
1F
100
AcDbEntity
  8
0
  6
Continuous
 62
     7
370
    25
100
AcDbLine
 10
1.927010736
 20
4.2127951907
 30
0.0
 11
4.331510736
 21
4.2127951907
 31
0.0
  0
LINE
  5
70
330
1F
100
AcDbEntity
  8
0
  6
Continuous
 62
     7
370
    25
100
AcDbLine
 10
4.594010736
 20
3.8627951907
 30
0.0
 11
4.719010736
 21
3.8627951907
 31
0.0
  0
LINE
  5
71
330
1F
100
AcDbEntity
  8
0
  6
Continuous
 62
     7
370
    25
100
AcDbLine
 10
4.719010736
 20
4.8527951907
 30
0.0
 11
4.594010736
 21
4.8527951907
 31
0.0
  0
LINE
  5
72
330
1F
100
AcDbEntity
  8
0
  6
Continuous
 62
     7
370
    25
100
AcDbLine
 10
4.594010736
 20
4.7015451907
 30
0.0
 11
4.581010736
 21
4.7015451907
 31
0.0
  0
LINE
  5
73
330
1F
100
AcDbEntity
  8
0
  6
Continuous
 62
     7
370
    25
100
AcDbLine
 10
4.581010736
 20
4.0140451907
 30
0.0
 11
4.594010736
 21
4.0140451907
 31
0.0
  0
LINE
  5
74
330
1F
100
AcDbEntity
  8
0
  6
Continuous
 62
     7
370
    25
100
AcDbLine
 10
4.749010736
 20
5.4677951907
 30
0.0
 11
4.719010736
 21
5.4377951907
 31
0.0
  0
LINE
  5
75
330
1F
100
AcDbEntity
  8
0
  6
Continuous
 62
     7
370
    25
100
AcDbLine
 10
4.719010736
 20
3.2777951907
 30
0.0
 11
4.749010736
 21
3.2477951907
 31
0.0
  0
LINE
  5
76
330
1F
100
AcDbEntity
  8
0
  6
Continuous
 62
     7
370
    25
100
AcDbLine
 10
4.749010736
 20
3.2477951907
 30
0.0
 11
6.669010736
 21
3.2477951907
 31
0.0
  0
LINE
  5
77
330
1F
100
AcDbEntity
  8
0
  6
Continuous
 62
     7
370
    25
100
AcDbLine
 10
6.669010736
 20
5.4677951907
 30
0.0
 11
4.749010736
 21
5.4677951907
 31
0.0
  0
ARC
  5
78
330
1F
100
AcDbEntity
  8
0
  6
Continuous
 62
     7
370
    25
100
AcDbCircle
 10
6.669010736
 20
5.4577951907
 30
0.0
 40
0.0100000000000007
100
AcDbArc
 50
0.0
 51
90.0
  0
ARC
  5
79
330
1F
100
AcDbEntity
  8
0
  6
Continuous
 62
     7
370
    25
100
AcDbCircle
 10
6.669010736
 20
3.2577951907
 30
0.0
 40
0.0100000000000007
100
AcDbArc
 50
270.0
 51
360.0
  0
LINE
  5
7A
330
1F
100
AcDbEntity
  8
0
  6
Continuous
 62
     7
370
    25
100
AcDbLine
 10
7.8424820956
 20
3.2477951907
 30
0.0
 11
8.059010736
 21
3.2477951907
 31
0.0
  0
LINE
  5
7B
330
1F
100
AcDbEntity
  8
0
  6
Continuous
 62
     7
370
    25
100
AcDbLine
 10
8.059010736
 20
5.4677951907
 30
0.0
 11
7.8424820956
 21
5.4677951907
 31
0.0
  0
ARC
  5
7C
330
1F
100
AcDbEntity
  8
0
  6
Continuous
 62
     7
370
    25
100
AcDbCircle
 10
7.797760736
 20
3.2077951907
 30
0.0
 40
0.0599999999999997
100
AcDbArc
 50
41.8103148958
 51
138.1896851042
  0
ARC
  5
7D
330
1F
100
AcDbEntity
  8
0
  6
Continuous
 62
     7
370
    25
100
AcDbCircle
 10
7.797760736
 20
5.5077951907
 30
0.0
 40
0.0600000000000003
100
AcDbArc
 50
221.8103148958
 51
318.1896851042
  0
LINE
  5
7E
330
1F
100
AcDbEntity
  8
0
  6
Continuous
 62
     7
370
    25
100
AcDbLine
 10
6.679010736
 20
3.2477951907
 30
0.0
 11
7.7530393765
 21
3.2477951907
 31
0.0
  0
LINE
  5
7F
330
1F
100
AcDbEntity
  8
0
  6
Continuous
 62
     7
370
    25
100
AcDbLine
 10
6.8442862254
 20
5.4677951907
 30
0.0
 11
6.679010736
 21
5.4677951907
 31
0.0
  0
LINE
  5
80
330
1F
100
AcDbEntity
  8
0
  6
Continuous
 62
     7
370
    25
100
AcDbLine
 10
7.7530393765
 20
5.4677951907
 30
0.0
 11
7.0138890901
 21
5.4677951907
 31
0.0
  0
LINE
  5
81
330
1F
100
AcDbEntity
  8
0
  6
Continuous
 62
     7
370
    25
100
AcDbLine
 10
8.069010736
 20
6.0302951907
 30
0.0
 11
8.054010736
 21
6.0302951907
 31
0.0
  0
LINE
  5
82
330
1F
100
AcDbEntity
  8
0
  6
Continuous
 62
     7
370
    25
100
AcDbLine
 10
8.054010736
 20
2.6852951907
 30
0.0
 11
8.069010736
 21
2.6852951907
 31
0.0
  0
LINE
  5
83
330
1F
100
AcDbEntity
  8
0
  6
Continuous
 62
     7
370
    25
100
AcDbLine
 10
8.069010736
 20
5.5341814245
 30
0.0
 11
8.059010736
 21
5.5340068739
 31
0.0
  0
LINE
  5
84
330
1F
100
AcDbEntity
  8
0
  6
Continuous
 62
     7
370
    25
100
AcDbLine
 10
8.059010736
 20
3.1815835076
 30
0.0
 11
8.069010736
 21
3.181408957
 31
0.0
  0
LINE
  5
85
330
1F
100
AcDbEntity
  8
0
  6
Continuous
 62
     7
370
    25
100
AcDbLine
 10
4.331510736
 20
4.3574117066
 30
0.0
 11
1.927010736
 21
4.3574117066
 31
0.0
  0
LINE
  5
86
330
1F
100
AcDbEntity
  8
0
  6
Continuous
 62
     7
370
    25
100
AcDbLine
 10
1.927010736
 20
4.4927951907
 30
0.0
 11
1.927010736
 21
4.3574117066
 31
0.0
  0
LINE
  5
87
330
1F
100
AcDbEntity
  8
0
  6
Continuous
 62
     7
370
    25
100
AcDbLine
 10
4.331510736
 20
4.3481786749
 30
0.0
 11
1.927010736
 21
4.3481786749
 31
0.0
  0
LINE
  5
88
330
1F
100
AcDbEntity
  8
0
  6
Continuous
 62
     7
370
    25
100
AcDbLine
 10
1.927010736
 20
4.3481786749
 30
0.0
 11
1.927010736
 21
4.2127951907
 31
0.0
  0
LINE
  5
89
330
1F
100
AcDbEntity
  8
0
  6
Continuous
 62
     7
370
    25
100
AcDbLine
 10
1.927010736
 20
4.3574117066
 30
0.0
 11
1.927010736
 21
4.3481786749
 31
0.0
  0
LINE
  5
8A
330
1F
100
AcDbEntity
  8
0
  6
Continuous
 62
     7
370
    25
100
AcDbLine
 10
4.594010736
 20
4.8527951907
 30
0.0
 11
4.594010736
 21
3.8627951907
 31
0.0
  0
LINE
  5
8B
330
1F
100
AcDbEntity
  8
0
  6
Continuous
 62
     7
370
    25
100
AcDbLine
 10
4.581010736
 20
4.7015451907
 30
0.0
 11
4.581010736
 21
4.0140451907
 31
0.0
  0
LINE
  5
8C
330
1F
100
AcDbEntity
  8
0
  6
Continuous
 62
     7
370
    25
100
AcDbLine
 10
4.391510736
 20
4.0765451907
 30
0.0
 11
4.391510736
 21
4.6390451907
 31
0.0
  0
SPLINE
  5
8D
330
1F
100
AcDbEntity
  8
0
  6
Continuous
 62
     7
370
    25
100
AcDbSpline
210
0.0
220
0.0
230
1.0
 70
    24
 71
     3
 72
     9
 73
     5
 74
     0
 42
0.00000001
 43
0.00000001
 40
0.0
 40
0.0
 40
0.0
 40
0.0
 40
0.4995107894512417
 40
1.0
 40
1.0
 40
1.0
 40
1.0
 10
4.391510736017884
 20
4.076545190740198
 30
0.0
 10
4.387770577236907
 20
4.076545190740207
 30
0.0
 10
4.380282933606454
 20
4.076545190740226
 30
0.0
 10
4.374436708570714
 20
4.076545190740202
 30
0.0
 10
4.371510736017886
 20
4.076545190740188
 30
0.0
  0
LINE
  5
8E
330
1F
100
AcDbEntity
  8
0
  6
Continuous
 62
     7
370
    25
100
AcDbLine
 10
4.371510736
 20
4.6390451907
 30
0.0
 11
4.371510736
 21
4.0765451907
 31
0.0
  0
SPLINE
  5
8F
330
1F
100
AcDbEntity
  8
0
  6
Continuous
 62
     7
370
    25
100
AcDbSpline
210
0.0
220
0.0
230
1.0
 70
    24
 71
     3
 72
    10
 73
     6
 74
     0
 42
0.00000001
 43
0.00000001
 40
0.0
 40
0.0
 40
0.0
 40
0.0
 40
0.466149210778213
 40
0.9332262706969401
 40
1.0
 40
1.0
 40
1.0
 40
1.0
 10
4.371510736017886
 20
4.639045190740189
 30
0.0
 10
4.374238628531404
 20
4.639045190740171
 30
0.0
 10
4.379699843306395
 20
4.639045190740132
 30
0.0
 10
4.386919179691681
 20
4.639045190740146
 30
0.0
 10
4.391000275106375
 20
4.639045190740146
 30
0.0
 10
4.391510736017893
 20
4.639045190740146
 30
0.0
  0
LINE
  5
90
330
1F
100
AcDbEntity
  8
0
  6
Continuous
 62
     7
370
    25
100
AcDbLine
 10
4.411510736
 20
4.6390451907
 30
0.0
 11
4.411510736
 21
4.0765451907
 31
0.0
  0
SPLINE
  5
91
330
1F
100
AcDbEntity
  8
0
  6
Continuous
 62
     7
370
    25
100
AcDbSpline
210
0.0
220
0.0
230
1.0
 70
    24
 71
     3
 72
    10
 73
     6
 74
     0
 42
0.00000001
 43
0.00000001
 40
0.0
 40
0.0
 40
0.0
 40
0.0
 40
0.4661492107781595
 40
0.9332262706968663
 40
0.9999999999999999
 40
0.9999999999999999
 40
0.9999999999999999
 40
0.9999999999999999
 10
4.411510736017883
 20
4.076545190740188
 30
0.0
 10
4.408782843504385
 20
4.076545190740197
 30
0.0
 10
4.403321628729431
 20
4.076545190740212
 30
0.0
 10
4.396102292344058
 20
4.07654519074024
 30
0.0
 10
4.392021196929399
 20
4.076545190740203
 30
0.0
 10
4.391510736017884
 20
4.076545190740198
 30
0.0
  0
SPLINE
  5
92
330
1F
100
AcDbEntity
  8
0
  6
Continuous
 62
     7
370
    25
100
AcDbSpline
210
0.0
220
0.0
230
1.0
 70
    24
 71
     3
 72
     9
 73
     5
 74
     0
 42
0.00000001
 43
0.00000001
 40
0.0
 40
0.0
 40
0.0
 40
0.0
 40
0.4995107894512582
 40
1.0
 40
1.0
 40
1.0
 40
1.0
 10
4.391510736017892
 20
4.639045190740146
 30
0.0
 10
4.395250894798854
 20
4.639045190740142
 30
0.0
 10
4.402738538429275
 20
4.639045190740134
 30
0.0
 10
4.408584763465041
 20
4.639045190740171
 30
0.0
 10
4.411510736017883
 20
4.639045190740189
 30
0.0
  0
LINE
  5
93
330
1F
100
AcDbEntity
  8
0
  6
Continuous
 62
     7
370
    25
100
AcDbLine
 10
4.431510736
 20
4.0765451907
 30
0.0
 11
4.431510736
 21
4.6390451907
 31
0.0
  0
SPLINE
  5
94
330
1F
100
AcDbEntity
  8
0
  6
Continuous
 62
     7
370
    25
100
AcDbSpline
210
0.0
220
0.0
230
1.0
 70
    24
 71
     3
 72
     9
 73
     5
 74
     0
 42
0.00000001
 43
0.00000001
 40
0.0
 40
0.0
 40
0.0
 40
0.0
 40
0.4995107894512417
 40
1.0
 40
1.0
 40
1.0
 40
1.0
 10
4.431510736017881
 20
4.076545190740198
 30
0.0
 10
4.427770577236902
 20
4.076545190740207
 30
0.0
 10
4.42028293360645
 20
4.076545190740226
 30
0.0
 10
4.414436708570711
 20
4.076545190740202
 30
0.0
 10
4.411510736017883
 20
4.076545190740188
 30
0.0
  0
SPLINE
  5
95
330
1F
100
AcDbEntity
  8
0
  6
Continuous
 62
     7
370
    25
100
AcDbSpline
210
0.0
220
0.0
230
1.0
 70
    24
 71
     3
 72
    10
 73
     6
 74
     0
 42
0.00000001
 43
0.00000001
 40
0.0
 40
0.0
 40
0.0
 40
0.0
 40
0.4661492107782262
 40
0.9332262706969757
 40
1.0
 40
1.0
 40
1.0
 40
1.0
 10
4.411510736017883
 20
4.639045190740189
 30
0.0
 10
4.414238628531398
 20
4.639045190740171
 30
0.0
 10
4.41969984330638
 20
4.639045190740132
 30
0.0
 10
4.426919179691708
 20
4.639045190740146
 30
0.0
 10
4.431000275106373
 20
4.639045190740146
 30
0.0
 10
4.431510736017889
 20
4.639045190740146
 30
0.0
  0
LINE
  5
96
330
1F
100
AcDbEntity
  8
0
  6
Continuous
 62
     7
370
    25
100
AcDbLine
 10
4.351510736
 20
4.0765451907
 30
0.0
 11
4.351510736
 21
4.6390451907
 31
0.0
  0
SPLINE
  5
97
330
1F
100
AcDbEntity
  8
0
  6
Continuous
 62
     7
370
    25
100
AcDbSpline
210
0.0
220
0.0
230
1.0
 70
    24
 71
     3
 72
     9
 73
     5
 74
     0
 42
0.00000001
 43
0.00000001
 40
0.0
 40
0.0
 40
0.0
 40
0.0
 40
0.4995107894512409
 40
1.0
 40
1.0
 40
1.0
 40
1.0
 10
4.35151073601788
 20
4.076545190740198
 30
0.0
 10
4.347770577236905
 20
4.076545190740207
 30
0.0
 10
4.340282933606458
 20
4.076545190740226
 30
0.0
 10
4.334436708570719
 20
4.076545190740202
 30
0.0
 10
4.33151073601789
 20
4.076545190740188
 30
0.0
  0
LINE
  5
98
330
1F
100
AcDbEntity
  8
0
  6
Continuous
 62
     7
370
    25
100
AcDbLine
 10
4.331510736
 20
4.6390451907
 30
0.0
 11
4.331510736
 21
4.0765451907
 31
0.0
  0
SPLINE
  5
99
330
1F
100
AcDbEntity
  8
0
  6
Continuous
 62
     7
370
    25
100
AcDbSpline
210
0.0
220
0.0
230
1.0
 70
    24
 71
     3
 72
    10
 73
     6
 74
     0
 42
0.00000001
 43
0.00000001
 40
0.0
 40
0.0
 40
0.0
 40
0.0
 40
0.4661492107782298
 40
0.9332262706969736
 40
1.0
 40
1.0
 40
1.0
 40
1.0
 10
4.33151073601789
 20
4.639045190740189
 30
0.0
 10
4.334238628531406
 20
4.639045190740171
 30
0.0
 10
4.339699843306394
 20
4.639045190740132
 30
0.0
 10
4.346919179691698
 20
4.639045190740147
 30
0.0
 10
4.351000275106374
 20
4.639045190740146
 30
0.0
 10
4.351510736017888
 20
4.639045190740146
 30
0.0
  0
LINE
  5
9A
330
1F
100
AcDbEntity
  8
0
  6
Continuous
 62
     7
370
    25
100
AcDbLine
 10
4.491510736
 20
4.6390451907
 30
0.0
 11
4.491510736
 21
4.0765451907
 31
0.0
  0
SPLINE
  5
9B
330
1F
100
AcDbEntity
  8
0
  6
Continuous
 62
     7
370
    25
100
AcDbSpline
210
0.0
220
0.0
230
1.0
 70
    24
 71
     3
 72
    10
 73
     6
 74
     0
 42
0.00000001
 43
0.00000001
 40
0.0
 40
0.0
 40
0.0
 40
0.0
 40
0.4661492107781726
 40
0.9332262706969021
 40
1.0
 40
1.0
 40
1.0
 40
1.0
 10
4.491510736017884
 20
4.076545190740188
 30
0.0
 10
4.488782843504387
 20
4.076545190740197
 30
0.0
 10
4.483321628729438
 20
4.076545190740212
 30
0.0
 10
4.476102292344041
 20
4.07654519074024
 30
0.0
 10
4.472021196929397
 20
4.076545190740203
 30
0.0
 10
4.471510736017886
 20
4.076545190740198
 30
0.0
  0
LINE
  5
9C
330
1F
100
AcDbEntity
  8
0
  6
Continuous
 62
     7
370
    25
100
AcDbLine
 10
4.471510736
 20
4.0765451907
 30
0.0
 11
4.471510736
 21
4.6390451907
 31
0.0
  0
SPLINE
  5
9D
330
1F
100
AcDbEntity
  8
0
  6
Continuous
 62
     7
370
    25
100
AcDbSpline
210
0.0
220
0.0
230
1.0
 70
    24
 71
     3
 72
     9
 73
     5
 74
     0
 42
0.00000001
 43
0.00000001
 40
0.0
 40
0.0
 40
0.0
 40
0.0
 40
0.4995107894512582
 40
1.0
 40
1.0
 40
1.0
 40
1.0
 10
4.471510736017894
 20
4.639045190740146
 30
0.0
 10
4.475250894798855
 20
4.639045190740142
 30
0.0
 10
4.482738538429276
 20
4.639045190740134
 30
0.0
 10
4.488584763465043
 20
4.639045190740171
 30
0.0
 10
4.491510736017884
 20
4.639045190740189
 30
0.0
  0
LINE
  5
9E
330
1F
100
AcDbEntity
  8
0
  6
Continuous
 62
     7
370
    25
100
AcDbLine
 10
4.451510736
 20
4.6390451907
 30
0.0
 11
4.451510736
 21
4.0765451907
 31
0.0
  0
SPLINE
  5
9F
330
1F
100
AcDbEntity
  8
0
  6
Continuous
 62
     7
370
    25
100
AcDbSpline
210
0.0
220
0.0
230
1.0
 70
    24
 71
     3
 72
    10
 73
     6
 74
     0
 42
0.00000001
 43
0.00000001
 40
0.0
 40
0.0
 40
0.0
 40
0.0
 40
0.4661492107781558
 40
0.9332262706968686
 40
1.0
 40
1.0
 40
1.0
 40
1.0
 10
4.451510736017887
 20
4.076545190740188
 30
0.0
 10
4.448782843504389
 20
4.076545190740197
 30
0.0
 10
4.443321628729439
 20
4.076545190740212
 30
0.0
 10
4.436102292344055
 20
4.07654519074024
 30
0.0
 10
4.432021196929395
 20
4.076545190740203
 30
0.0
 10
4.431510736017881
 20
4.076545190740198
 30
0.0
  0
SPLINE
  5
A0
330
1F
100
AcDbEntity
  8
0
  6
Continuous
 62
     7
370
    25
100
AcDbSpline
210
0.0
220
0.0
230
1.0
 70
    24
 71
     3
 72
     9
 73
     5
 74
     0
 42
0.00000001
 43
0.00000001
 40
0.0
 40
0.0
 40
0.0
 40
0.0
 40
0.4995107894512588
 40
1.0
 40
1.0
 40
1.0
 40
1.0
 10
4.431510736017889
 20
4.639045190740146
 30
0.0
 10
4.435250894798854
 20
4.639045190740142
 30
0.0
 10
4.442738538429283
 20
4.639045190740134
 30
0.0
 10
4.448584763465046
 20
4.639045190740171
 30
0.0
 10
4.451510736017887
 20
4.639045190740189
 30
0.0
  0
SPLINE
  5
A1
330
1F
100
AcDbEntity
  8
0
  6
Continuous
 62
     7
370
    25
100
AcDbSpline
210
0.0
220
0.0
230
1.0
 70
    24
 71
     3
 72
     9
 73
     5
 74
     0
 42
0.00000001
 43
0.00000001
 40
0.0
 40
0.0
 40
0.0
 40
0.0
 40
0.4995107894512417
 40
1.0
 40
1.0
 40
1.0
 40
1.0
 10
4.471510736017886
 20
4.076545190740198
 30
0.0
 10
4.467770577236909
 20
4.076545190740207
 30
0.0
 10
4.460282933606456
 20
4.076545190740226
 30
0.0
 10
4.454436708570715
 20
4.076545190740202
 30
0.0
 10
4.451510736017887
 20
4.076545190740188
 30
0.0
  0
SPLINE
  5
A2
330
1F
100
AcDbEntity
  8
0
  6
Continuous
 62
     7
370
    25
100
AcDbSpline
210
0.0
220
0.0
230
1.0
 70
    24
 71
     3
 72
    10
 73
     6
 74
     0
 42
0.00000001
 43
0.00000001
 40
0.0
 40
0.0
 40
0.0
 40
0.0
 40
0.466149210778213
 40
0.9332262706969401
 40
1.0
 40
1.0
 40
1.0
 40
1.0
 10
4.451510736017887
 20
4.639045190740189
 30
0.0
 10
4.454238628531407
 20
4.639045190740171
 30
0.0
 10
4.459699843306399
 20
4.639045190740132
 30
0.0
 10
4.46691917969168
 20
4.639045190740146
 30
0.0
 10
4.471000275106377
 20
4.639045190740146
 30
0.0
 10
4.471510736017894
 20
4.639045190740146
 30
0.0
  0
SPLINE
  5
A3
330
1F
100
AcDbEntity
  8
0
  6
Continuous
 62
     7
370
    25
100
AcDbSpline
210
0.0
220
0.0
230
1.0
 70
    24
 71
     3
 72
    10
 73
     6
 74
     0
 42
0.00000001
 43
0.00000001
 40
0.0
 40
0.0
 40
0.0
 40
0.0
 40
0.4661492107781558
 40
0.9332262706968686
 40
1.0
 40
1.0
 40
1.0
 40
1.0
 10
4.371510736017886
 20
4.076545190740188
 30
0.0
 10
4.368782843504389
 20
4.076545190740197
 30
0.0
 10
4.363321628729437
 20
4.076545190740212
 30
0.0
 10
4.356102292344056
 20
4.07654519074024
 30
0.0
 10
4.352021196929393
 20
4.076545190740203
 30
0.0
 10
4.35151073601788
 20
4.076545190740198
 30
0.0
  0
SPLINE
  5
A4
330
1F
100
AcDbEntity
  8
0
  6
Continuous
 62
     7
370
    25
100
AcDbSpline
210
0.0
220
0.0
230
1.0
 70
    24
 71
     3
 72
     9
 73
     5
 74
     0
 42
0.00000001
 43
0.00000001
 40
0.0
 40
0.0
 40
0.0
 40
0.0
 40
0.4995107894512584
 40
0.9999999999999999
 40
0.9999999999999999
 40
0.9999999999999999
 40
0.9999999999999999
 10
4.351510736017888
 20
4.639045190740146
 30
0.0
 10
4.355250894798852
 20
4.639045190740142
 30
0.0
 10
4.36273853842928
 20
4.639045190740134
 30
0.0
 10
4.368584763465045
 20
4.639045190740171
 30
0.0
 10
4.371510736017886
 20
4.639045190740189
 30
0.0
  0
SPLINE
  5
A5
330
1F
100
AcDbEntity
  8
0
  6
Continuous
 62
     7
370
    25
100
AcDbSpline
210
0.0
220
0.0
230
1.0
 70
    24
 71
     3
 72
     9
 73
     5
 74
     0
 42
0.00000001
 43
0.00000001
 40
0.0
 40
0.0
 40
0.0
 40
0.0
 40
0.4995271105052342
 40
1.0
 40
1.0
 40
1.0
 40
1.0
 10
4.511010736017887
 20
4.076545190740206
 30
0.0
 10
4.507369571680588
 20
4.076545190740212
 30
0.0
 10
4.50008034901234
 20
4.076545190740224
 30
0.0
 10
4.49436907421727
 20
4.076545190740201
 30
0.0
 10
4.491510736017884
 20
4.076545190740188
 30
0.0
  0
SPLINE
  5
A6
330
1F
100
AcDbEntity
  8
0
  6
Continuous
 62
     7
370
    25
100
AcDbSpline
210
0.0
220
0.0
230
1.0
 70
    24
 71
     3
 72
    10
 73
     6
 74
     0
 42
0.00000001
 43
0.00000001
 40
0.0
 40
0.0
 40
0.0
 40
0.0
 40
0.4765077511737013
 40
0.9539639696989639
 40
1.0
 40
1.0
 40
1.0
 40
1.0
 10
4.491510736017884
 20
4.639045190740189
 30
0.0
 10
4.494238163276933
 20
4.639045190740171
 30
0.0
 10
4.499698446616915
 20
4.639045190740132
 30
0.0
 10
4.50676573356157
 20
4.639045190740147
 30
0.0
 10
4.510667604572323
 20
4.639045190740146
 30
0.0
 10
4.511010736017887
 20
4.639045190740146
 30
0.0
  0
LINE
  5
A7
330
1F
100
AcDbEntity
  8
0
  6
Continuous
 62
     7
370
    25
100
AcDbLine
 10
4.511010736
 20
4.6390451907
 30
0.0
 11
4.511010736
 21
4.0765451907
 31
0.0
  0
LINE
  5
A8
330
1F
100
AcDbEntity
  8
0
  6
Continuous
 62
     7
370
    25
100
AcDbLine
 10
4.581010736
 20
4.0765451907
 30
0.0
 11
4.511010736
 21
4.0765451907
 31
0.0
  0
LINE
  5
A9
330
1F
100
AcDbEntity
  8
0
  6
Continuous
 62
     7
370
    25
100
AcDbLine
 10
4.511010736
 20
4.6390451907
 30
0.0
 11
4.581010736
 21
4.6390451907
 31
0.0
  0
LINE
  5
AA
330
1F
100
AcDbEntity
  8
0
  6
Continuous
 62
     7
370
    25
100
AcDbLine
 10
4.719010736
 20
5.0458301004
 30
0.0
 11
4.719010736
 21
5.4377951907
 31
0.0
  0
LINE
  5
AB
330
1F
100
AcDbEntity
  8
0
  6
Continuous
 62
     7
370
    25
100
AcDbLine
 10
4.719010736
 20
3.2777951907
 30
0.0
 11
4.719010736
 21
5.0458301004
 31
0.0
  0
LINE
  5
AC
330
1F
100
AcDbEntity
  8
0
  6
Continuous
 62
     7
370
    25
100
AcDbLine
 10
4.749010736
 20
5.0649421812
 30
0.0
 11
4.749010736
 21
3.2477951907
 31
0.0
  0
LINE
  5
AD
330
1F
100
AcDbEntity
  8
0
  6
Continuous
 62
     7
370
    25
100
AcDbLine
 10
4.749010736
 20
5.4677951907
 30
0.0
 11
4.749010736
 21
5.0649421812
 31
0.0
  0
LINE
  5
AE
330
1F
100
AcDbEntity
  8
0
  6
Continuous
 62
     7
370
    25
100
AcDbLine
 10
7.8424820956
 20
4.3577951907
 30
0.0
 11
7.8424820956
 21
5.4677951907
 31
0.0
  0
LINE
  5
AF
330
1F
100
AcDbEntity
  8
0
  6
Continuous
 62
     7
370
    25
100
AcDbLine
 10
7.8424820956
 20
3.2477951907
 30
0.0
 11
7.8424820956
 21
4.3577951907
 31
0.0
  0
LINE
  5
B0
330
1F
100
AcDbEntity
  8
0
  6
Continuous
 62
     7
370
    25
100
AcDbLine
 10
7.7530393765
 20
4.3577951907
 30
0.0
 11
7.7530393765
 21
5.4677951907
 31
0.0
  0
LINE
  5
B1
330
1F
100
AcDbEntity
  8
0
  6
Continuous
 62
     7
370
    25
100
AcDbLine
 10
7.7530393765
 20
3.2477951907
 30
0.0
 11
7.7530393765
 21
4.3577951907
 31
0.0
  0
LINE
  5
B2
330
1F
100
AcDbEntity
  8
0
  6
Continuous
 62
     7
370
    25
100
AcDbLine
 10
6.679010736
 20
4.3577951907
 30
0.0
 11
6.679010736
 21
5.4677951907
 31
0.0
  0
LINE
  5
B3
330
1F
100
AcDbEntity
  8
0
  6
Continuous
 62
     7
370
    25
100
AcDbLine
 10
6.679010736
 20
3.2477951907
 30
0.0
 11
6.679010736
 21
4.3577951907
 31
0.0
  0
SPLINE
  5
B4
330
1F
100
AcDbEntity
  8
0
  6
Continuous
 62
     7
370
    25
100
AcDbSpline
210
0.0
220
0.0
230
1.0
 70
     8
 71
     3
 72
    27
 73
    23
 74
     0
 42
0.00000001
 43
0.00000001
 40
0.0
 40
0.0
 40
0.0
 40
0.0
 40
0.0059455175349494
 40
0.056067825188057
 40
0.1076445621294316
 40
0.1578226559594516
 40
0.209387974703381
 40
0.2608549715628556
 40
0.313716174294061
 40
0.3670144043204508
 40
0.4217723857668004
 40
0.4766230708723656
 40
0.5330215391256505
 40
0.5885968983323999
 40
0.6457983357985576
 40
0.7010647218287495
 40
0.7580088771398897
 40
0.8119450192838982
 40
0.8675603875583315
 40
0.9195613469234911
 40
0.973168048280791
 40
1.0
 40
1.0
 40
1.0
 40
1.0
 10
7.013889090064933
 20
5.467786581282649
 30
0.0
 10
7.013928794576193
 20
5.467789390835312
 30
0.0
 10
7.014303218767773
 20
5.467815885670571
 30
0.0
 10
7.012841594212051
 20
5.467711786921429
 30
0.0
 10
7.009457397655162
 20
5.467477105987903
 30
0.0
 10
7.003701691193404
 20
5.467099856183623
 30
0.0
 10
6.996099872158301
 20
5.46664421691756
 30
0.0
 10
6.986619335256051
 20
5.466143842340756
 30
0.0
 10
6.975549549730379
 20
5.465655118390689
 30
0.0
 10
6.963026547277441
 20
5.465226853348313
 30
0.0
 10
6.949440908623446
 20
5.464912362572727
 30
0.0
 10
6.935042832101167
 20
5.46474980908649
 30
0.0
 10
6.920402103158186
 20
5.464765430529154
 30
0.0
 10
6.905800975868588
 20
5.464962163309102
 30
0.0
 10
6.891947843932543
 20
5.465316736317143
 30
0.0
 10
6.879059312011367
 20
5.465792294655059
 30
0.0
 10
6.867847455976569
 20
5.466320863413391
 30
0.0
 10
6.858414284912413
 20
5.46684707284357
 30
0.0
 10
6.851247748098259
 20
5.467297404619237
 30
0.0
 10
6.846457778297271
 20
5.467621740454085
 30
0.0
 10
6.844105084241607
 20
5.467788461555658
 30
0.0
 10
6.844240915968134
 20
5.467778837519138
 30
0.0
 10
6.844286225408169
 20
5.467775627225662
 30
0.0
  0
SPLINE
  5
B5
330
1F
100
AcDbEntity
  8
0
  6
Continuous
 62
     7
370
    25
100
AcDbSpline
210
0.0
220
0.0
230
1.0
 70
    11
 71
     3
 72
    45
 73
    41
 74
     0
 42
0.00000001
 43
0.00000001
 40
0.0
 40
0.0
 40
0.0
 40
0.0
 40
0.0237175399948469
 40
0.0474321274804076
 40
0.0737704074114314
 40
0.1001058302052728
 40
0.1256831926192596
 40
0.1512613530838348
 40
0.1766109339556002
 40
0.2019638704002132
 40
0.2277790104241764
 40
0.2535981923459832
 40
0.2802998405742471
 40
0.307004634469689
 40
0.3345901097638281
 40
0.3621768307668772
 40
0.3903008030868569
 40
0.4184235803193754
 40
0.4465839298029449
 40
0.4747404512680668
 40
0.5024000164995924
 40
0.5300542399531946
 40
0.5567908251397572
 40
0.5835234845596505
 40
0.6093175702390948
 40
0.6351113171116081
 40
0.6604538350684848
 40
0.6857990961317748
 40
0.7114024556147764
 40
0.737009833438334
 40
0.7634096901586931
 40
0.7898131155645025
 40
0.8171426391285826
 40
0.8444740854076958
 40
0.8724773226205984
 40
0.9004801841984595
 40
0.9286871977639621
 40
0.9568911912208139
 40
0.9784464809507003
 40
1.0
 40
1.0
 40
1.0
 40
1.0
 10
6.865440236672805
 20
3.756354238205227
 30
0.0
 10
6.862768289567424
 20
3.759028379897403
 30
0.0
 10
6.857424727977522
 20
3.764376330387694
 30
0.0
 10
6.85109771390692
 20
3.773966699365006
 30
0.0
 10
6.846448848255827
 20
3.784690884047978
 30
0.0
 10
6.843964843090398
 20
3.796308913842856
 30
0.0
 10
6.843882597389991
 20
3.80808588567334
 30
0.0
 10
6.846025785323615
 20
3.8196425734872
 30
0.0
 10
6.850389029695177
 20
3.830750213722714
 30
0.0
 10
6.856753316598388
 20
3.84118627471656
 30
0.0
 10
6.865050127234028
 20
3.850650396917638
 30
0.0
 10
6.875106463782263
 20
3.859003755309347
 30
0.0
 10
6.886703920149262
 20
3.86586809550612
 30
0.0
 10
6.899654444941829
 20
3.871121471862317
 30
0.0
 10
6.913550789548478
 20
3.874412910049964
 30
0.0
 10
6.928102054607898
 20
3.875667144861
 30
0.0
 10
6.942776399276484
 20
3.874682568866659
 30
0.0
 10
6.957170236814958
 20
3.871522292515423
 30
0.0
 10
6.970750478452238
 20
3.86618602018686
 30
0.0
 10
6.983078671612501
 20
3.858945415528694
 30
0.0
 10
6.993728399249242
 20
3.84997110140359
 30
0.0
 10
7.002365970936247
 20
3.839739869003316
 30
0.0
 10
7.008738635955064
 20
3.828508243970971
 30
0.0
 10
7.012759977082192
 20
3.816830346972848
 30
0.0
 10
7.014341263105885
 20
3.804946515025771
 30
0.0
 10
7.013634817295064
 20
3.793290497187778
 30
0.0
 10
7.010630299210507
 20
3.782067080157232
 30
0.0
 10
7.005555073606606
 20
3.771510274271221
 30
0.0
 10
6.998448555587326
 20
3.761862279595062
 30
0.0
 10
6.989496881740588
 20
3.75323195592035
 30
0.0
 10
6.978862256638989
 20
3.745929659983562
 30
0.0
 10
6.966716993367178
 20
3.740034963295048
 30
0.0
 10
6.953410385317427
 20
3.735860263788959
 30
0.0
 10
6.93919495683517
 20
3.733472937056022
 30
0.0
 10
6.924574501164971
 20
3.733088037626216
 30
0.0
 10
6.909924613291548
 20
3.734703148311527
 30
0.0
 10
6.895780603331434
 20
3.73837347119835
 30
0.0
 10
6.883609219342501
 20
3.743563348297428
 30
0.0
 10
6.873421596290189
 20
3.749624949068921
 30
0.0
 10
6.86810061702609
 20
3.754111203250278
 30
0.0
 10
6.865440236672805
 20
3.756354238205227
 30
0.0
  0
SPLINE
  5
B6
330
1F
100
AcDbEntity
  8
0
  6
Continuous
 62
     7
370
    25
100
AcDbSpline
210
0.0
220
0.0
230
1.0
 70
     8
 71
     3
 72
    15
 73
    11
 74
     0
 42
0.00000001
 43
0.00000001
 40
0.0
 40
0.0
 40
0.0
 40
0.0
 40
0.1284016325351932
 40
0.2568040577122662
 40
0.3851970849827567
 40
0.5135912483013727
 40
0.6421597892006193
 40
0.7707280417291915
 40
0.8994132293339845
 40
1.0
 40
1.0
 40
1.0
 40
1.0
 10
6.92901073601789
 20
3.782523579402291
 30
0.0
 10
6.932828900193409
 20
3.782681757201858
 30
0.0
 10
6.94046525211453
 20
3.782998113777447
 30
0.0
 10
6.951600243120808
 20
3.785472099712643
 30
0.0
 10
6.962081489617726
 20
3.789388450790816
 30
0.0
 10
6.971644464996574
 20
3.794740892060969
 30
0.0
 10
6.979994284195366
 20
3.801404816109955
 30
0.0
 10
6.986875462666105
 20
3.809193738976933
 30
0.0
 10
6.991906294765648
 20
3.817234466818727
 30
0.0
 10
6.993766025530824
 20
3.822860466542374
 30
0.0
 10
6.99458193129352
 20
3.825328719303145
 30
0.0
  0
SPLINE
  5
B7
330
1F
100
AcDbEntity
  8
0
  6
Continuous
 62
     7
370
    25
100
AcDbSpline
210
0.0
220
0.0
230
1.0
 70
     8
 71
     3
 72
    15
 73
    11
 74
     0
 42
0.00000001
 43
0.00000001
 40
0.0
 40
0.0
 40
0.0
 40
0.0
 40
0.0760798512861934
 40
0.202885169320861
 40
0.329691590164612
 40
0.4567356326776001
 40
0.5837793607179301
 40
0.7109330332740998
 40
0.838085445118879
 40
1.0
 40
1.0
 40
1.0
 40
1.0
 10
6.86323825873943
 20
3.826241336199621
 30
0.0
 10
6.863764795554515
 20
3.824327216412844
 30
0.0
 10
6.865168932248743
 20
3.819222756947223
 30
0.0
 10
6.869528648688306
 20
3.811565014792885
 30
0.0
 10
6.875904496133687
 20
3.803482246804621
 30
0.0
 10
6.883900428514971
 20
3.796508432538957
 30
0.0
 10
6.893135540996324
 20
3.790740083371977
 30
0.0
 10
6.903421204635757
 20
3.786433806294545
 30
0.0
 10
6.915422509800366
 20
3.783214652078293
 30
0.0
 10
6.924132195558417
 20
3.782771693170515
 30
0.0
 10
6.92901073601789
 20
3.782523579402291
 30
0.0
  0
LWPOLYLINE
  5
B8
330
1F
100
AcDbEntity
  8
0
  6
Continuous
 62
     7
370
    25
100
AcDbPolyline
 90
       51
 70
   128
 43
0.0
 10
6.929010736
 20
3.7524054633
 10
6.9375333959
 20
3.7528698264
 10
6.9459216483
 20
3.7542555924
 10
6.9540432056
 20
3.7565409069
 10
6.9617699859
 20
3.7596897292
 10
6.9689801332
 20
3.7636524004
 10
6.9755599392
 20
3.7683664269
 10
6.9814056365
 20
3.7737574657
 10
6.986425035
 20
3.7797404968
 10
6.9905389756
 20
3.7862211643
 10
6.9936825791
 20
3.7930972642
 10
6.9958062691
 20
3.8002603562
 10
6.9968765536
 20
3.8075974742
 10
6.9968765536
 20
3.8149929073
 10
6.9958062691
 20
3.8223300253
 10
6.9936825791
 20
3.8294931173
 10
6.9905389756
 20
3.8363692172
 10
6.986425035
 20
3.8428498847
 10
6.9814056365
 20
3.8488329158
 10
6.9755599392
 20
3.8542239545
 10
6.9689801332
 20
3.858937981
 10
6.9617699859
 20
3.8629006523
 10
6.9540432056
 20
3.8660494746
 10
6.9459216483
 20
3.8683347891
 10
6.9375333959
 20
3.8697205551
 10
6.929010736
 20
3.8701849182
 10
6.9204880761
 20
3.8697205551
 10
6.9120998237
 20
3.8683347891
 10
6.9039782664
 20
3.8660494746
 10
6.8962514862
 20
3.8629006523
 10
6.8890413389
 20
3.858937981
 10
6.8824615328
 20
3.8542239545
 10
6.8766158355
 20
3.8488329158
 10
6.8715964371
 20
3.8428498847
 10
6.8674824965
 20
3.8363692172
 10
6.8643388929
 20
3.8294931173
 10
6.862215203
 20
3.8223300253
 10
6.8611449185
 20
3.8149929073
 10
6.8611449185
 20
3.8075974742
 10
6.862215203
 20
3.8002603562
 10
6.8643388929
 20
3.7930972642
 10
6.8674824965
 20
3.7862211643
 10
6.8715964371
 20
3.7797404968
 10
6.8766158355
 20
3.7737574657
 10
6.8824615328
 20
3.7683664269
 10
6.8890413389
 20
3.7636524004
 10
6.8962514862
 20
3.7596897292
 10
6.9039782664
 20
3.7565409069
 10
6.9120998237
 20
3.7542555924
 10
6.9204880761
 20
3.7528698264
 10
6.929010736
 20
3.7524054633
  0
LINE
  5
B9
330
1F
100
AcDbEntity
  8
0
  6
Continuous
 62
     7
370
    25
100
AcDbLine
 10
8.069010736
 20
6.8710650831
 30
0.0
 11
8.4200577209
 21
6.8588062523
 31
0.0
  0
ARC
  5
BA
330
1F
100
AcDbEntity
  8
0
  6
Continuous
 62
     7
370
    25
100
AcDbCircle
 10
8.2049826111
 20
6.8438153899
 30
0.0
 40
0.215596912824118
100
AcDbArc
 50
356.0128986004
 51
3.9871013996
  0
LINE
  5
BB
330
1F
100
AcDbEntity
  8
0
  6
Continuous
 62
     7
370
    25
100
AcDbLine
 10
8.4200577209
 20
6.8288245275
 30
0.0
 11
8.069010736
 21
6.8410833583
 31
0.0
  0
LINE
  5
BC
330
1F
100
AcDbEntity
  8
0
  6
Continuous
 62
     7
370
    25
100
AcDbLine
 10
8.069010736
 20
6.8410833583
 30
0.0
 11
8.069010736
 21
6.8710650831
 31
0.0
  0
LINE
  5
BD
330
1F
100
AcDbEntity
  8
0
  6
Continuous
 62
     7
370
    25
100
AcDbLine
 10
8.4200577209
 20
1.886765854
 30
0.0
 11
8.4200577209
 21
6.8288245275
 31
0.0
  0
LINE
  5
BE
330
1F
100
AcDbEntity
  8
0
  6
Continuous
 62
     7
370
    25
100
AcDbLine
 10
8.069010736
 20
1.8745070231
 30
0.0
 11
8.4200577209
 21
1.886765854
 31
0.0
  0
LINE
  5
BF
330
1F
100
AcDbEntity
  8
0
  6
Continuous
 62
     7
370
    25
100
AcDbLine
 10
8.069010736
 20
1.8745070231
 30
0.0
 11
8.069010736
 21
6.8410833583
 31
0.0
  0
ARC
  5
C0
330
1F
100
AcDbEntity
  8
0
  6
Continuous
 62
     7
370
    25
100
AcDbCircle
 10
8.2049826111
 20
1.8717749916
 30
0.0
 40
0.2155969128238593
100
AcDbArc
 50
356.0128986004
 51
3.9871013996
  0
LINE
  5
C1
330
1F
100
AcDbEntity
  8
0
  6
Continuous
 62
     7
370
    25
100
AcDbLine
 10
8.4200577209
 20
1.8567841292
 30
0.0
 11
8.069010736
 21
1.8445252983
 31
0.0
  0
LINE
  5
C2
330
1F
100
AcDbEntity
  8
0
  6
Continuous
 62
     7
370
    25
100
AcDbLine
 10
8.069010736
 20
1.8445252983
 30
0.0
 11
8.069010736
 21
1.8745070231
 31
0.0
  0
LINE
  5
C3
330
1F
100
AcDbEntity
  8
0
  6
Continuous
 62
     7
370
    25
100
AcDbLine
 10
8.449010736
 20
6.8288245275
 30
0.0
 11
8.449010736
 21
1.886765854
 31
0.0
  0
LINE
  5
C4
330
1F
100
AcDbEntity
  8
0
  6
Continuous
 62
     7
370
    25
100
AcDbLine
 10
8.449010736
 20
1.886765854
 30
0.0
 11
8.4200577209
 21
1.886765854
 31
0.0
  0
LINE
  5
C5
330
1F
100
AcDbEntity
  8
0
  6
Continuous
 62
     7
370
    25
100
AcDbLine
 10
8.449010736
 20
6.8288245275
 30
0.0
 11
8.4200577209
 21
6.8288245275
 31
0.0
  0
ARC
  5
C6
330
1F
100
AcDbEntity
  8
0
  6
Continuous
 62
     7
370
    25
100
AcDbCircle
 10
8.419010736
 20
6.8288245275
 30
0.0
 40
0.0299999999999998
100
AcDbArc
 50
0.0
 51
88.0
  0
ARC
  5
C7
330
1F
100
AcDbEntity
  8
0
  6
Continuous
 62
     7
370
    25
100
AcDbCircle
 10
8.419010736
 20
1.886765854
 30
0.0
 40
0.0300000000000005
100
AcDbArc
 50
272.0
 51
360.0
  0
LINE
  5
C8
330
1F
100
AcDbEntity
  8
0
  6
Continuous
 62
     7
370
    25
100
AcDbLine
 10
8.054010736
 20
5.8577951907
 30
0.0
 11
8.054010736
 21
6.0302951907
 31
0.0
  0
LINE
  5
C9
330
1F
100
AcDbEntity
  8
0
  6
Continuous
 62
     7
370
    25
100
AcDbLine
 10
8.054010736
 20
5.8577951907
 30
0.0
 11
8.069010736
 21
5.8577951907
 31
0.0
  0
LINE
  5
CA
330
1F
100
AcDbEntity
  8
0
  6
Continuous
 62
     7
370
    25
100
AcDbLine
 10
8.054010736
 20
2.6852951907
 30
0.0
 11
8.054010736
 21
2.8577951907
 31
0.0
  0
LINE
  5
CB
330
1F
100
AcDbEntity
  8
0
  6
Continuous
 62
     7
370
    25
100
AcDbLine
 10
8.069010736
 20
2.8577951907
 30
0.0
 11
8.054010736
 21
2.8577951907
 31
0.0
  0
SPLINE
  5
CC
330
1F
100
AcDbEntity
  8
0
  6
Continuous
 62
     7
370
    25
100
AcDbSpline
210
0.0
220
0.0
230
1.0
 70
     8
 71
     3
 72
    18
 73
    14
 74
     0
 42
0.00000001
 43
0.00000001
 40
0.0
 40
0.0
 40
0.0
 40
0.0
 40
0.0033356994780564
 40
0.101021327132173
 40
0.1987047001995579
 40
0.2981675484349997
 40
0.3976220567245204
 40
0.4863686741925283
 40
0.5751037698284479
 40
0.6660306802836807
 40
0.7569313346976451
 40
0.8769917086439301
 40
1.0
 40
1.0
 40
1.0
 40
1.0
 10
8.44901073601789
 20
3.761679048083651
 30
0.0
 10
8.449010867340366
 20
3.761768230500862
 30
0.0
 10
8.449014844428506
 20
3.764469111141566
 30
0.0
 10
8.449388077152824
 20
3.769782459820259
 30
0.0
 10
8.450970166678047
 20
3.777576375957724
 30
0.0
 10
8.453625655774957
 20
3.7852387846653
 30
0.0
 10
8.457262313444966
 20
3.792391790520651
 30
0.0
 10
8.461757125347553
 20
3.798922730710502
 30
0.0
 10
8.467049809823118
 20
3.804816418937029
 30
0.0
 10
8.473366197842987
 20
3.810204941320662
 30
0.0
 10
8.481577946781858
 20
3.815341849493194
 30
0.0
 10
8.49206472817157
 20
3.819889588099893
 30
0.0
 10
8.501231570242599
 20
3.821023160188585
 30
0.0
 10
8.505870578643313
 20
3.821596820168926
 30
0.0
  0
LINE
  5
CD
330
1F
100
AcDbEntity
  8
0
  6
Continuous
 62
     7
370
    25
100
AcDbLine
 10
8.449010736
 20
5.0055047974
 30
0.0
 11
8.6201690343
 21
5.0055047974
 31
0.0
  0
LINE
  5
CE
330
1F
100
AcDbEntity
  8
0
  6
Continuous
 62
     7
370
    25
100
AcDbLine
 10
8.6201690343
 20
5.0055047974
 30
0.0
 11
8.6201690343
 21
3.8275869484
 31
0.0
  0
LINE
  5
CF
330
1F
100
AcDbEntity
  8
0
  6
Continuous
 62
     7
370
    25
100
AcDbLine
 10
8.6201690343
 20
3.8275869484
 30
0.0
 11
8.5058705786
 21
3.8215968202
 31
0.0
  0
ARC
  5
D0
330
1F
100
AcDbEntity
  8
0
  6
Continuous
 62
     7
370
    25
100
AcDbCircle
 10
8.636510736
 20
5.5551563763
 30
0.0
 40
0.1874999999999982
100
AcDbArc
 50
180.0
 51
219.5226312712
  0
ELLIPSE
  5
D1
330
1F
100
AcDbEntity
  8
0
  6
Continuous
 62
     7
370
    25
100
AcDbEllipse
 10
8.636510736
 20
4.9658885507
 30
0.0
 11
-0.1447346925070328
 21
0.470013339576978
 31
0.0
210
0.0
220
0.0
230
1.0
 40
0.0080804497
 41
6.263590043485616
 42
7.767106011670116
  0
LINE
  5
D2
330
1F
100
AcDbEntity
  8
0
  6
Continuous
 62
     7
370
    25
100
AcDbLine
 10
8.059010736
 20
4.3577951907
 30
0.0
 11
8.059010736
 21
5.5340068739
 31
0.0
  0
LINE
  5
D3
330
1F
100
AcDbEntity
  8
0
  6
Continuous
 62
     7
370
    25
100
AcDbLine
 10
8.059010736
 20
3.1815835076
 30
0.0
 11
8.059010736
 21
4.3577951907
 31
0.0
  0
LINE
  5
D4
330
1F
100
AcDbEntity
  8
0
  6
Continuous
 62
     7
370
    25
100
AcDbLine
 10
9.5516762255
 20
3.8764051717
 30
0.0
 11
8.6201690343
 21
5.0055047974
 31
0.0
  0
LINE
  5
D5
330
1F
100
AcDbEntity
  8
0
  6
Continuous
 62
     7
370
    25
100
AcDbLine
 10
8.4918782463
 20
5.4358345722
 30
0.0
 11
9.769010736
 21
3.8877951907
 31
0.0
  0
LINE
  5
D6
330
1F
100
AcDbEntity
  8
0
  6
Continuous
 62
     7
370
    25
100
AcDbLine
 10
9.769010736
 20
3.8877951907
 30
0.0
 11
9.5516762255
 21
3.8764051717
 31
0.0
  0
LINE
  5
D7
330
1F
100
AcDbEntity
  8
0
  6
Continuous
 62
     7
370
    25
100
AcDbLine
 10
8.6201690343
 20
3.8275869484
 30
0.0
 11
9.5516762255
 21
3.8764051717
 31
0.0
  0
LINE
  5
D8
330
1F
100
AcDbEntity
  8
0
  6
Continuous
 62
     7
370
    25
100
AcDbLine
 10
6.669010736
 20
3.2477951907
 30
0.0
 11
6.669010736
 21
5.4677951907
 31
0.0
  0
LINE
  5
D9
330
1F
100
AcDbEntity
  8
VP
100
AcDbLine
 10
9.2330854343
 20
3.7327951907
 30
0.0
 11
8.449010736
 21
4.0495819319
 31
0.0
  0
DIMENSION
  5
DA
330
1F
100
AcDbEntity
  8
SLD-0
100
AcDbDimension
  2
_D
 10
8.069010736
 20
7.658466658
 30
0.0
 11
6.200260736
 21
7.658466658
 31
0.0
 70
   160
  1
<>
 71
     2
 42
-1.0
  3
SLDDIMSTYLE0
100
AcDbAlignedDimension
 13
4.331510736
 23
4.6390451907
 33
0.0
 14
8.069010736
 24
6.8410833583
 34
0.0
 50
0.0
100
AcDbRotatedDimension
  0
DIMENSION
  5
F1
330
1F
100
AcDbEntity
  8
SLD-0
100
AcDbDimension
  2
_D_1
 10
1.1396091612
 20
3.2477951907
 30
0.0
 11
1.1396091612
 21
4.3577951907
 31
0.0
 70
   160
  1
%%c<>
 71
     2
 42
-1.0
  3
SLDDIMSTYLE0
100
AcDbAlignedDimension
 13
4.749010736
 23
5.4677951907
 33
0.0
 14
4.749010736
 24
3.2477951907
 34
0.0
 50
90.0
100
AcDbRotatedDimension
  0
DIMENSION
  5
104
330
1F
100
AcDbEntity
  8
SLD-0
100
AcDbDimension
  2
_D_2
 10
9.769010736
 20
7.658466658
 30
0.0
 11
8.919010736
 21
7.658466658
 31
0.0
 70
   160
  1
<>
 71
     2
 42
-1.0
  3
SLDDIMSTYLE1
100
AcDbAlignedDimension
 13
8.069010736
 23
6.8410833583
 33
0.0
 14
9.769010736
 24
3.8877951907
 34
0.0
 50
0.0
100
AcDbRotatedDimension
  0
LINE
  5
119
330
1F
100
AcDbEntity
  8
0
  6
Continuous
 62
     7
370
    25
100
AcDbLine
 10
20.8789776394
 20
15.4178897219
 30
0.0
 11
19.4186761668
 21
14.5748756257
 31
0.0
  0
LINE
  5
11A
330
1F
100
AcDbEntity
  8
0
  6
Continuous
 62
     7
370
    25
100
AcDbLine
 10
19.491658986
 20
14.4553540139
 30
0.0
 11
20.9489719507
 21
15.2966428811
 31
0.0
  0
LINE
  5
11B
330
1F
100
AcDbEntity
  8
0
  6
Continuous
 62
     7
370
    25
100
AcDbLine
 10
19.5377742637
 20
14.3676600834
 30
0.0
 11
20.9489719507
 21
15.1823271675
 31
0.0
  0
LINE
  5
11C
330
1F
100
AcDbEntity
  8
0
  6
Continuous
 62
     7
370
    25
100
AcDbLine
 10
18.363564562
 20
15.1135535402
 30
0.0
 11
17.2382737752
 21
14.4639369964
 31
0.0
  0
LINE
  5
11D
330
1F
100
AcDbEntity
  8
0
  6
Continuous
 62
     7
370
    25
100
AcDbLine
 10
18.3480751289
 20
12.5412459212
 30
0.0
 11
19.4734743552
 21
13.1909250657
 31
0.0
  0
LINE
  5
11E
330
1F
100
AcDbEntity
  8
0
  6
Continuous
 62
     7
370
    25
100
AcDbLine
 10
19.7034079857
 20
13.6991328009
 30
0.0
 11
19.7034079857
 21
13.7236250442
 31
0.0
  0
LINE
  5
11F
330
1F
100
AcDbEntity
  8
0
  6
Continuous
 62
     7
370
    25
100
AcDbLine
 10
18.9398567807
 20
15.0462778376
 30
0.0
 11
18.918647025
 21
15.0585259496
 31
0.0
  0
LINE
  5
120
330
1F
100
AcDbEntity
  8
0
  6
Continuous
 62
     7
370
    25
100
AcDbLine
 10
17.4934533388
 20
12.0478832633
 30
0.0
 11
17.5403991292
 21
12.0749844912
 31
0.0
  0
LINE
  5
121
330
1F
100
AcDbEntity
  8
0
  6
Continuous
 62
     7
370
    25
100
AcDbLine
 10
15.5305141098
 20
13.7323507214
 30
0.0
 11
14.8049631788
 21
12.1202509041
 31
0.0
  0
ARC
  5
122
330
1F
100
AcDbEntity
  8
0
  6
Continuous
 62
     7
370
    25
100
AcDbCircle
 10
18.0707191721
 20
9.6277499194
 30
0.0
 40
0.0300000000000023
100
AcDbArc
 50
240.0026882664
 51
296.5359355438
  0
ARC
  5
123
330
1F
100
AcDbEntity
  8
0
  6
Continuous
 62
     7
370
    25
100
AcDbCircle
 10
14.5761559711
 20
15.6805109161
 30
0.0
 40
0.0300000000000003
100
AcDbArc
 50
123.4587075228
 51
180.0
  0
LINE
  5
124
330
1F
100
AcDbEntity
  8
0
  6
Continuous
 62
     7
370
    25
100
AcDbLine
 10
18.0841219428
 20
9.6009102894
 30
0.0
 11
18.3413339917
 21
9.729352973
 31
0.0
  0
LINE
  5
125
330
1F
100
AcDbEntity
  8
0
  6
Continuous
 62
     7
370
    25
100
AcDbLine
 10
14.7994700166
 20
15.8640469267
 30
0.0
 11
14.559615895
 21
15.7055394175
 31
0.0
  0
LINE
  5
126
330
1F
100
AcDbEntity
  8
0
  6
Continuous
 62
     7
370
    25
100
AcDbLine
 10
14.5611571901
 20
11.6191368486
 30
0.0
 11
18.0557203912
 21
9.6017684535
 31
0.0
  0
LINE
  5
127
330
1F
100
AcDbEntity
  8
0
  6
Continuous
 62
     7
370
    25
100
AcDbLine
 10
14.5461559711
 20
15.6805109161
 30
0.0
 11
14.5461559711
 21
11.6451183145
 31
0.0
  0
ARC
  5
128
330
1F
100
AcDbEntity
  8
0
  6
Continuous
 62
     7
370
    25
100
AcDbCircle
 10
14.5761559711
 20
11.6451183145
 30
0.0
 40
0.0300000000000029
100
AcDbArc
 50
180.0
 51
240.0026882663
  0
LWPOLYLINE
  5
129
330
1F
100
AcDbEntity
  8
0
  6
Continuous
 62
     7
370
    25
100
AcDbPolyline
 90
       23
 70
   128
 43
0.0
 10
20.9489719507
 20
15.2966428811
 10
20.9504315807
 20
15.2975589102
 10
20.9551423736
 20
15.301766192
 10
20.9588756848
 20
15.3072912667
 10
20.9615428707
 20
15.314002947
 10
20.9630806017
 20
15.321741871
 10
20.963452366
 20
15.3303242859
 10
20.9626493364
 20
15.3395464112
 10
20.96069058
 20
15.3491892771
 10
20.9576226056
 20
15.3590239235
 10
20.9535182589
 20
15.3688168371
 10
20.9484749934
 20
15.378335495
 10
20.9426125564
 20
15.3873538867
 10
20.9360701452
 20
15.3956578798
 10
20.9290031027
 20
15.4030503044
 10
20.9215792286
 20
15.4093556351
 10
20.9139747951
 20
15.4144241583
 10
20.9063703615
 20
15.4181355272
 10
20.8989464874
 20
15.4204016191
 10
20.8918794449
 20
15.421168628
 10
20.8853370338
 20
15.4204183421
 10
20.8794745967
 20
15.4181685762
 10
20.8789776394
 20
15.4178897219
  0
LINE
  5
12A
330
1F
100
AcDbEntity
  8
0
  6
Continuous
 62
     7
370
    25
100
AcDbLine
 10
19.4918751812
 20
14.4549680358
 30
0.0
 11
20.9316524646
 21
15.2861337697
 31
0.0
  0
LWPOLYLINE
  5
12B
330
1F
100
AcDbEntity
  8
0
  6
Continuous
 62
     7
370
    25
100
AcDbPolyline
 90
       14
 70
   128
 43
0.0
 10
20.9489719507
 20
15.1823271675
 10
20.9535182589
 20
15.1857441408
 10
20.9576226056
 20
15.1907982765
 10
20.96069058
 20
15.197090715
 10
20.9626493364
 20
15.2044720489
 10
20.963452366
 20
15.212767016
 10
20.9630806017
 20
15.2217786609
 10
20.9615428707
 20
15.2312930113
 10
20.9588756848
 20
15.2410841589
 10
20.9551423736
 20
15.2509196229
 10
20.9504315807
 20
15.2605658704
 10
20.9448551591
 20
15.2697938611
 10
20.938545515
 20
15.2783844861
 10
20.9316524646
 20
15.2861337697
  0
LINE
  5
12C
330
1F
100
AcDbEntity
  8
0
  6
Continuous
 62
     7
370
    25
100
AcDbLine
 10
20.9316524646
 20
15.2861337697
 30
0.0
 11
20.9316524646
 21
15.2866445546
 31
0.0
  0
LWPOLYLINE
  5
12D
330
1F
100
AcDbEntity
  8
0
  6
Continuous
 62
     7
370
    25
100
AcDbPolyline
 90
       85
 70
   128
 43
0.0
 10
19.4734743552
 20
13.1909250657
 10
19.4839674136
 20
13.1972160684
 10
19.5041614807
 20
13.2107174223
 10
19.5235166213
 20
13.2255674973
 10
19.5420051093
 20
13.2417450207
 10
19.5596004601
 20
13.2592268185
 10
19.5762774685
 20
13.277987848
 10
19.5920122449
 20
13.2980012342
 10
19.6067822494
 20
13.3192383083
 10
19.6205663241
 20
13.3416686483
 10
19.6333447234
 20
13.365260123
 10
19.6450991423
 20
13.3899789377
 10
19.6558127429
 20
13.4157896831
 10
19.665470178
 20
13.4426553854
 10
19.6740576133
 20
13.4705375599
 10
19.6815627476
 20
13.4993962656
 10
19.6879748296
 20
13.5291901626
 10
19.6932846743
 20
13.5598765715
 10
19.6974846752
 20
13.5914115343
 10
19.700568816
 20
13.6237498775
 10
19.7025326786
 20
13.6568452768
 10
19.7033734498
 20
13.6906503231
 10
19.7030899253
 20
13.7251165913
 10
19.7016825111
 20
13.7601947086
 10
19.6991532233
 20
13.795834426
 10
19.6955056852
 20
13.83198469
 10
19.6907451219
 20
13.8685937156
 10
19.6848783527
 20
13.9056090608
 10
19.6779137818
 20
13.9429777015
 10
19.6698613858
 20
13.9806461074
 10
19.6607326998
 20
14.0185603188
 10
19.6505408004
 20
14.0566660242
 10
19.6393002875
 20
14.0949086373
 10
19.627027263
 20
14.133233376
 10
19.6137393079
 20
14.1715853406
 10
19.5994554571
 20
14.2099095922
 10
19.584196172
 20
14.2481512316
 10
19.5679833115
 20
14.2862554781
 10
19.5508401002
 20
14.3241677477
 10
19.5327910957
 20
14.3618337315
 10
19.513862153
 20
14.3991994733
 10
19.4940803876
 20
14.436211447
 10
19.4734741367
 20
14.4728166333
 10
19.4520729186
 20
14.5089625958
 10
19.4299073904
 20
14.5445975555
 10
19.4070093038
 20
14.5796704658
 10
19.3834114602
 20
14.6141310851
 10
19.3591476633
 20
14.6479300489
 10
19.3342526708
 20
14.6810189404
 10
19.3087621444
 20
14.7133503602
 10
19.2827125991
 20
14.7448779939
 10
19.2561413507
 20
14.7755566783
 10
19.2290864622
 20
14.8053424666
 10
19.2015866894
 20
14.8341926908
 10
19.1736814256
 20
14.8620660235
 10
19.1454106446
 20
14.8889225361
 10
19.1168148443
 20
14.9147237572
 10
19.0879349877
 20
14.9394327266
 10
19.058812445
 20
14.963014049
 10
19.029488934
 20
14.9854339444
 10
19.0000064602
 20
15.0066602965
 10
18.9704072571
 20
15.0266626988
 10
18.9407337252
 20
15.045412498
 10
18.9110283716
 20
15.0628828352
 10
18.881333749
 20
15.0790486842
 10
18.8516923945
 20
15.0938868878
 10
18.8221467691
 20
15.1073761903
 10
18.7927391966
 20
15.1194972684
 10
18.7635118032
 20
15.1302327588
 10
18.7345064568
 20
15.1395672829
 10
18.7057647072
 20
15.1474874693
 10
18.6773277267
 20
15.1539819722
 10
18.6492362511
 20
15.1590414884
 10
18.621530521
 20
15.1626587702
 10
18.5942502248
 20
15.1648286358
 10
18.5674344411
 20
15.165547977
 10
18.5411215833
 20
15.1648157632
 10
18.5153493444
 20
15.1626330434
 10
18.4901546427
 20
15.1590029443
 10
18.4655735695
 20
15.153930666
 10
18.441641337
 20
15.1474234745
 10
18.4183922277
 20
15.1394906912
 10
18.3958595459
 20
15.1301436799
 10
18.3740755694
 20
15.1193958299
 10
18.363564562
 20
15.1135535402
  0
LWPOLYLINE
  5
12E
330
1F
100
AcDbEntity
  8
0
  6
Continuous
 62
     7
370
    25
100
AcDbPolyline
 90
       43
 70
   128
 43
0.0
 10
18.9398567807
 20
15.0462778376
 10
18.9446799636
 20
15.0434749797
 10
18.974105888
 20
15.0256125129
 10
19.0034807441
 20
15.0064706707
 10
19.0327608897
 20
14.9860778921
 10
19.0619028234
 20
14.9644644746
 10
19.0908632491
 20
14.9416625292
 10
19.1195991402
 20
14.9177059328
 10
19.148067804
 20
14.8926302776
 10
19.1762269445
 20
14.8664728186
 10
19.2040347257
 20
14.8392724178
 10
19.2314498337
 20
14.8110694868
 10
19.2584315379
 20
14.7819059267
 10
19.2849397515
 20
14.7518250657
 10
19.3109350914
 20
14.720871595
 10
19.3363789364
 20
14.6890915021
 10
19.3612334845
 20
14.6565320025
 10
19.3854618093
 20
14.62324147
 10
19.4090279149
 20
14.5892693643
 10
19.4318967892
 20
14.5546661575
 10
19.4540344558
 20
14.5194832598
 10
19.4754080249
 20
14.4837729422
 10
19.4959857418
 20
14.4475882596
 10
19.5157370342
 20
14.4109829714
 10
19.5346325577
 20
14.3740114621
 10
19.5526442391
 20
14.3367286603
 10
19.5697453186
 20
14.2991899569
 10
19.5859103891
 20
14.2614511232
 10
19.6011154342
 20
14.2235682277
 10
19.6153378637
 20
14.1855975529
 10
19.6285565474
 20
14.1475955118
 10
19.6407518464
 20
14.1096185641
 10
19.651905642
 20
14.071723132
 10
19.6620013632
 20
14.0339655167
 10
19.6710240106
 20
13.9964018147
 10
19.6789601795
 20
13.9590878342
 10
19.6857980789
 20
13.9220790128
 10
19.69152755
 20
13.8854303342
 10
19.6961400803
 20
13.8491962474
 10
19.699628817
 20
13.8134305853
 10
19.7019885771
 20
13.778186485
 10
19.7032158544
 20
13.7435163085
 10
19.7034079857
 20
13.7236250442
  0
ARC
  5
12F
330
1F
100
AcDbEntity
  8
0
  6
Continuous
 62
     7
370
    25
100
AcDbCircle
 10
18.0707595852
 20
13.6920733751
 30
0.0
 40
0.0463385319619775
100
AcDbArc
 50
242.6993467637
 51
296.1459996425
  0
ARC
  5
130
330
1F
100
AcDbEntity
  8
0
  6
Continuous
 62
     7
370
    25
100
AcDbCircle
 10
18.0957867868
 20
13.6487177351
 30
0.0
 40
0.0463320698909724
100
AcDbArc
 50
123.8500425738
 51
177.3047974538
  0
ARC
  5
131
330
1F
100
AcDbEntity
  8
0
  6
Continuous
 62
     7
370
    25
100
AcDbCircle
 10
18.0421387155
 20
13.6466429591
 30
0.0
 40
0.0491900133594105
100
AcDbArc
 50
4.4697543709
 51
55.5302457747
  0
ELLIPSE
  5
132
330
1F
100
AcDbEntity
  8
0
  6
Continuous
 62
     7
370
    25
100
AcDbEllipse
 10
18.3268489951
 20
13.8110047424
 30
0.0
 11
-0.01499877652418746
 21
0.02598146844949056
 31
0.0
210
0.0
220
0.0
230
1.0
 40
0.5780852102
 41
3.927681267029196
 42
5.497259618653065
  0
LINE
  5
133
330
1F
100
AcDbEntity
  8
0
  6
Continuous
 62
     7
370
    25
100
AcDbLine
 10
18.3480751289
 20
13.7987810101
 30
0.0
 11
18.0911791229
 21
13.6504764759
 31
0.0
  0
LINE
  5
134
330
1F
100
AcDbEntity
  8
0
  6
Continuous
 62
     7
370
    25
100
AcDbLine
 10
18.069978842
 20
13.6871964395
 30
0.0
 11
18.326874848
 21
13.8355009737
 31
0.0
  0
LINE
  5
135
330
1F
100
AcDbEntity
  8
0
  6
Continuous
 62
     7
370
    25
100
AcDbLine
 10
18.0911791229
 20
13.6504764759
 30
0.0
 11
18.0911791229
 21
9.6150838742
 31
0.0
  0
ARC
  5
136
330
1F
100
AcDbEntity
  8
0
  6
Continuous
 62
     7
370
    25
100
AcDbCircle
 10
18.0707595852
 20
9.6566807734
 30
0.0
 40
0.0463385319619732
100
AcDbArc
 50
242.6993467637
 51
296.1459996425
  0
LINE
  5
137
330
1F
100
AcDbEntity
  8
0
  6
Continuous
 62
     7
370
    25
100
AcDbLine
 10
18.0495059687
 20
9.6155037977
 30
0.0
 11
18.0495059687
 21
13.6508963994
 31
0.0
  0
LINE
  5
138
330
1F
100
AcDbEntity
  8
0
  6
Continuous
 62
     7
370
    25
100
AcDbLine
 10
14.575415641
 20
15.7045648345
 30
0.0
 11
18.069978842
 21
13.6871964395
 31
0.0
  0
LINE
  5
139
330
1F
100
AcDbEntity
  8
0
  6
Continuous
 62
     7
370
    25
100
AcDbLine
 10
18.0495059687
 20
13.6508963994
 30
0.0
 11
14.5549427676
 21
15.6682647944
 31
0.0
  0
ARC
  5
13A
330
1F
100
AcDbEntity
  8
0
  6
Continuous
 62
     7
370
    25
100
AcDbCircle
 10
14.6012235857
 20
15.6660861302
 30
0.0
 40
0.0463320698909739
100
AcDbArc
 50
123.8500425738
 51
177.3047974538
  0
LINE
  5
13B
330
1F
100
AcDbEntity
  8
0
  6
Continuous
 62
     7
370
    25
100
AcDbLine
 10
18.3480751289
 20
13.7987810101
 30
0.0
 11
18.3480751289
 21
9.7433687371
 31
0.0
  0
LINE
  5
13C
330
1F
100
AcDbEntity
  8
0
  6
Continuous
 62
     7
370
    25
100
AcDbLine
 10
18.0911791229
 20
9.6150838742
 30
0.0
 11
18.3480751289
 21
9.7433687371
 31
0.0
  0
LINE
  5
13D
330
1F
100
AcDbEntity
  8
0
  6
Continuous
 62
     7
370
    25
100
AcDbLine
 10
14.8149750421
 20
15.8628775778
 30
0.0
 11
18.326874848
 21
13.8355009737
 31
0.0
  0
LINE
  5
13E
330
1F
100
AcDbEntity
  8
0
  6
Continuous
 62
     7
370
    25
100
AcDbLine
 10
14.8149750421
 20
15.8628775778
 30
0.0
 11
14.575415641
 21
15.7045648345
 31
0.0
  0
LWPOLYLINE
  5
13F
330
1F
100
AcDbEntity
  8
0
  6
Continuous
 62
     7
370
    25
100
AcDbPolyline
 90
       72
 70
   128
 43
0.0
 10
15.2769195355
 20
13.2337801771
 10
15.2763522934
 20
13.2489016613
 10
15.2746550065
 20
13.2645597232
 10
15.2718409584
 20
13.2806318171
 10
15.2679321729
 20
13.2969921573
 10
15.2629592415
 20
13.3135127018
 10
15.2569610841
 20
13.3300641549
 10
15.2499846444
 20
13.3465169792
 10
15.2420845226
 20
13.362742409
 10
15.2333225478
 20
13.3786134582
 10
15.2237672943
 20
13.3940059144
 10
15.2134935449
 20
13.4087993108
 10
15.2025817057
 20
13.4228778689
 10
15.1911171767
 20
13.4361314051
 10
15.1791896832
 20
13.4484561922
 10
15.1668925741
 20
13.4597557723
 10
15.1543220909
 20
13.4699417108
 10
15.1415766148
 20
13.4789342888
 10
15.1287558964
 20
13.4866631274
 10
15.115960275
 20
13.4930677377
 10
15.103289894
 20
13.4980979951
 10
15.0908439161
 20
13.5017145311
 10
15.078719748
 20
13.5038890412
 10
15.0670122777
 20
13.504604507
 10
15.0558131322
 20
13.503855329
 10
15.0452099598
 20
13.5016473706
 10
15.0352857448
 20
13.497997912
 10
15.0261181577
 20
13.4929355152
 10
15.0177789472
 20
13.4864998002
 10
15.0103333789
 20
13.4787411354
 10
15.0038397245
 20
13.4697202427
 10
14.9983488058
 20
13.4595077229
 10
14.9939035964
 20
13.4481835028
 10
14.9905388864
 20
13.4358362097
 10
14.9882810089
 20
13.4225624781
 10
14.9871476351
 20
13.4084661927
 10
14.9871476351
 20
13.3936576763
 10
14.9882810089
 20
13.3782528254
 10
14.9905388864
 20
13.3623722039
 10
14.9939035964
 20
13.3461400993
 10
14.9983488058
 20
13.3296835498
 10
15.0038397245
 20
13.3131313501
 10
15.0103333789
 20
13.2966130437
 10
15.0177789472
 20
13.2802579087
 10
15.0261181577
 20
13.2641939462
 10
15.0352857448
 20
13.2485468786
 10
15.0452099598
 20
13.2334391652
 10
15.0558131322
 20
13.2189890446
 10
15.0670122777
 20
13.2053096084
 10
15.078719748
 20
13.1925079168
 10
15.0908439161
 20
13.1806841604
 10
15.103289894
 20
13.1699308761
 10
15.115960275
 20
13.1603322229
 10
15.1287558964
 20
13.1519633234
 10
15.1415766148
 20
13.1448896754
 10
15.1543220909
 20
13.13916664
 10
15.1668925741
 20
13.1348390075
 10
15.1791896832
 20
13.1319406477
 10
15.1911171767
 20
13.130494244
 10
15.2025817057
 20
13.1305111166
 10
15.2134935449
 20
13.1319911334
 10
15.2237672943
 20
13.1349227113
 10
15.2333225478
 20
13.1392829066
 10
15.2420845226
 20
13.1450375951
 10
15.2499846444
 20
13.1521417383
 10
15.2569610841
 20
13.1605397368
 10
15.2629592415
 20
13.1701658648
 10
15.2679321729
 20
13.1809447849
 10
15.2718409584
 20
13.1927921374
 10
15.2746550065
 20
13.2056152006
 10
15.2763522934
 20
13.2193136167
 10
15.2769195355
 20
13.2337801771
  0
ELLIPSE
  5
140
330
1F
100
AcDbEntity
  8
0
  6
Continuous
 62
     7
370
    25
100
AcDbEllipse
 10
16.88585592
 20
12.8014940186
 30
0.0
 11
-0.08840013007984382
 21
0.4931133015601876
 31
0.0
210
0.0
220
0.0
230
1.0
 40
0.5091526124
 41
4.373850200410326
 42
5.877366168597199
  0
LINE
  5
141
330
1F
100
AcDbEntity
  8
0
  6
Continuous
 62
     7
370
    25
100
AcDbLine
 10
15.7006977776
 20
13.9668324798
 30
0.0
 11
16.9037509587
 21
13.2723246614
 31
0.0
  0
ELLIPSE
  5
142
330
1F
100
AcDbEntity
  8
0
  6
Continuous
 62
     7
370
    25
100
AcDbEllipse
 10
15.7185928163
 20
13.4753406652
 30
0.0
 11
-0.1229227706222478
 21
0.5117155364485592
 31
0.0
210
0.0
220
0.0
230
1.0
 40
0.4613786991
 41
5.870434553913108
 42
7.37395052209993
  0
LINE
  5
143
330
1F
100
AcDbEntity
  8
0
  6
Continuous
 62
     7
370
    25
100
AcDbLine
 10
17.1520338504
 20
12.6801810525
 30
0.0
 11
17.1520338504
 21
11.6645465653
 31
0.0
  0
LINE
  5
144
330
1F
100
AcDbEntity
  8
0
  6
Continuous
 62
     7
370
    25
100
AcDbLine
 10
14.5549427676
 20
15.6682647944
 30
0.0
 11
14.5549427676
 21
11.6328721928
 31
0.0
  0
LINE
  5
145
330
1F
100
AcDbEntity
  8
0
  6
Continuous
 62
     7
370
    25
100
AcDbLine
 10
14.5549427676
 20
11.6328721928
 30
0.0
 11
18.0495059687
 21
9.6155037977
 31
0.0
  0
LWPOLYLINE
  5
146
330
1F
100
AcDbEntity
  8
0
  6
Continuous
 62
     7
370
    25
100
AcDbPolyline
 90
       72
 70
   128
 43
0.0
 10
17.6174429812
 20
11.8826247521
 10
17.6168757391
 20
11.8977462362
 10
17.6151784522
 20
11.9134042981
 10
17.6123644041
 20
11.9294763921
 10
17.6084556186
 20
11.9458367322
 10
17.6034826872
 20
11.9623572767
 10
17.5974845298
 20
11.9789087299
 10
17.5905080901
 20
11.9953615542
 10
17.5826079683
 20
12.0115869839
 10
17.5738459935
 20
12.0274580331
 10
17.56429074
 20
12.0428504894
 10
17.5540169906
 20
12.0576438857
 10
17.5431051515
 20
12.0717224439
 10
17.5316406224
 20
12.08497598
 10
17.5197131289
 20
12.0973007672
 10
17.5074160198
 20
12.1086003473
 10
17.4948455367
 20
12.1187862857
 10
17.4821000606
 20
12.1277788638
 10
17.4692793421
 20
12.1355077023
 10
17.4564837208
 20
12.1419123126
 10
17.4438133397
 20
12.1469425701
 10
17.4313673618
 20
12.150559106
 10
17.4192431937
 20
12.1527336161
 10
17.4075357235
 20
12.1534490819
 10
17.3963365779
 20
12.152699904
 10
17.3857334055
 20
12.1504919455
 10
17.3758091906
 20
12.1468424869
 10
17.3666416034
 20
12.1417800901
 10
17.3583023929
 20
12.1353443752
 10
17.3508568246
 20
12.1275857103
 10
17.3443631703
 20
12.1185648176
 10
17.3388722515
 20
12.1083522978
 10
17.3344270422
 20
12.0970280777
 10
17.3310623321
 20
12.0846807847
 10
17.3288044547
 20
12.071407053
 10
17.3276710809
 20
12.0573107677
 10
17.3276710809
 20
12.0425022512
 10
17.3288044547
 20
12.0270974003
 10
17.3310623321
 20
12.0112167789
 10
17.3344270422
 20
11.9949846743
 10
17.3388722515
 20
11.9785281247
 10
17.3443631703
 20
11.961975925
 10
17.3508568246
 20
11.9454576186
 10
17.3583023929
 20
11.9291024836
 10
17.3666416034
 20
11.9130385212
 10
17.3758091906
 20
11.8973914535
 10
17.3857334055
 20
11.8822837402
 10
17.3963365779
 20
11.8678336195
 10
17.4075357235
 20
11.8541541833
 10
17.4192431937
 20
11.8413524917
 10
17.4313673618
 20
11.8295287353
 10
17.4438133397
 20
11.818775451
 10
17.4564837208
 20
11.8091767979
 10
17.4692793421
 20
11.8008078983
 10
17.4821000606
 20
11.7937342504
 10
17.4948455367
 20
11.7880112149
 10
17.5074160198
 20
11.7836835825
 10
17.5197131289
 20
11.7807852226
 10
17.5316406224
 20
11.7793388189
 10
17.5431051515
 20
11.7793556915
 10
17.5540169906
 20
11.7808357083
 10
17.56429074
 20
11.7837672862
 10
17.5738459935
 20
11.7881274816
 10
17.5826079683
 20
11.79388217
 10
17.5905080901
 20
11.8009863132
 10
17.5974845298
 20
11.8093843117
 10
17.6034826872
 20
11.8190104398
 10
17.6084556186
 20
11.8297893599
 10
17.6123644041
 20
11.8416367123
 10
17.6151784522
 20
11.8544597755
 10
17.6168757391
 20
11.8681581917
 10
17.6174429812
 20
11.8826247521
  0
LINE
  5
147
330
1F
100
AcDbEntity
  8
0
  6
Continuous
 62
     7
370
    25
100
AcDbLine
 10
15.8913617039
 20
11.4176373743
 30
0.0
 11
16.8734390515
 21
13.1573948471
 31
0.0
  0
ELLIPSE
  5
148
330
1F
100
AcDbEntity
  8
0
  6
Continuous
 62
     7
370
    25
100
AcDbEllipse
 10
16.7532733986
 20
12.7249557581
 30
0.0
 11
0.1101140289543707
 21
0.4361383188991628
 31
0.0
210
0.0
220
0.0
230
1.0
 40
0.3348498656
 41
4.708895207425688
 42
6.212411175612569
  0
LINE
  5
149
330
1F
100
AcDbEntity
  8
0
  6
Continuous
 62
     7
370
    25
100
AcDbLine
 10
16.8989286521
 20
12.6865605502
 30
0.0
 11
16.1826270005
 21
11.4176267396
 31
0.0
  0
ELLIPSE
  5
14A
330
1F
100
AcDbEntity
  8
0
  6
Continuous
 62
     7
370
    25
100
AcDbEllipse
 10
16.06158352
 20
11.4996218903
 30
0.0
 11
0.2155532466428873
 21
0.02364668110022983
 31
0.0
210
0.0
220
0.0
230
1.0
 40
0.5090174845
 41
3.748290699989852
 42
5.251806668176701
  0
LINE
  5
14B
330
1F
100
AcDbEntity
  8
0
  6
Continuous
 62
     7
370
    25
100
AcDbLine
 10
15.6703858704
 20
13.8519026655
 30
0.0
 11
14.8463251302
 21
12.020924147
 31
0.0
  0
LINE
  5
14C
330
1F
100
AcDbEntity
  8
0
  6
Continuous
 62
     7
370
    25
100
AcDbLine
 10
16.8734390515
 20
13.1573948471
 30
0.0
 11
15.6703858704
 21
13.8519026655
 31
0.0
  0
LINE
  5
14D
330
1F
100
AcDbEntity
  8
0
  6
Continuous
 62
     7
370
    25
100
AcDbLine
 10
14.8463251302
 20
12.020924147
 30
0.0
 11
15.8913617039
 21
11.4176373743
 31
0.0
  0
LINE
  5
14E
330
1F
100
AcDbEntity
  8
0
  6
Continuous
 62
     7
370
    25
100
AcDbLine
 10
16.8989286521
 20
11.7247425535
 30
0.0
 11
16.1826270005
 21
11.4176267396
 31
0.0
  0
LINE
  5
14F
330
1F
100
AcDbEntity
  8
0
  6
Continuous
 62
     7
370
    25
100
AcDbLine
 10
16.8989286521
 20
11.7247425535
 30
0.0
 11
16.8989286521
 21
12.6865605502
 31
0.0
  0
ARC
  5
150
330
1F
100
AcDbEntity
  8
0
  6
Continuous
 62
     7
370
    25
100
AcDbCircle
 10
17.0188685059
 20
12.4210115575
 30
0.0
 40
0.2913791963805883
100
AcDbArc
 50
62.8051914431
 51
114.3071482052
  0
ARC
  5
151
330
1F
100
AcDbEntity
  8
0
  6
Continuous
 62
     7
370
    25
100
AcDbCircle
 10
16.6420663442
 20
13.2798799054
 30
0.0
 40
0.2617936576762277
100
AcDbArc
 50
332.1039620547
 51
358.3462406651
  0
ARC
  5
152
330
1F
100
AcDbEntity
  8
0
  6
Continuous
 62
     7
370
    25
100
AcDbCircle
 10
15.4390131631
 20
13.9743877238
 30
0.0
 40
0.2617936576762941
100
AcDbArc
 50
332.1039620547
 51
358.3462406651
  0
LWPOLYLINE
  5
153
330
1F
100
AcDbEntity
  8
0
  6
Continuous
 62
     7
370
    25
100
AcDbPolyline
 90
       29
 70
   128
 43
0.0
 10
17.5111908447
 20
12.1052763974
 10
17.510927665
 20
12.1051781247
 10
17.5043573838
 20
12.1018462891
 10
17.4986122054
 20
12.0971433947
 10
17.4937827346
 20
12.0911436091
 10
17.4899451351
 20
12.0839415524
 10
17.487159928
 20
12.0756508054
 10
17.4854710379
 20
12.0664021181
 10
17.4849050995
 20
12.0563413478
 10
17.4854710379
 20
12.045627159
 10
17.487159928
 20
12.0344285206
 10
17.4899451351
 20
12.022922042
 10
17.4937827346
 20
12.0112891873
 10
17.4986122054
 20
11.9997134134
 10
17.5043573838
 20
11.9883772772
 10
17.510927665
 20
11.9774595564
 10
17.5182194316
 20
11.96713243
 10
17.5261176882
 20
11.9575587629
 10
17.5344978745
 20
11.9488895375
 10
17.54322783
 20
11.9412614728
 10
17.5521698781
 20
11.9347948678
 10
17.5611829974
 20
11.9295917048
 10
17.5701250455
 20
11.9257340408
 10
17.578855001
 20
11.9232827134
 10
17.5872351873
 20
11.9222763816
 10
17.5951334439
 20
11.9227309158
 10
17.6024252106
 20
11.9246391476
 10
17.6089954917
 20
11.9279709833
 10
17.6121864815
 20
11.9303278672
  0
SPLINE
  5
154
330
1F
100
AcDbEntity
  8
0
  6
Continuous
 62
     7
370
    25
100
AcDbSpline
210
0.0
220
0.0
230
1.0
 70
     8
 71
     3
 72
    14
 73
    10
 74
     0
 42
0.00000001
 43
0.00000001
 40
0.0
 40
0.0
 40
0.0
 40
0.0
 40
0.1214924034792126
 40
0.2431920092697043
 40
0.422653061173973
 40
0.6023989109220241
 40
0.7994905337371763
 40
0.9966625772531604
 40
1.0
 40
1.0
 40
1.0
 40
1.0
 10
17.01672424425607
 20
11.74516360772179
 30
0.0
 10
17.02330954336733
 20
11.7446395847154
 30
0.0
 10
17.03649137265578
 20
11.74359064499426
 30
0.0
 10
17.05859817215523
 20
11.73700956875378
 30
0.0
 10
17.08234869323333
 20
11.72593245916718
 30
0.0
 10
17.10749654656817
 20
11.70909654631321
 30
0.0
 10
17.13090051000085
 20
11.68869436467125
 30
0.0
 10
17.14521917900148
 20
11.67292182074211
 30
0.0
 10
17.15192227916902
 20
11.66468368667173
 30
0.0
 10
17.15203385035511
 20
11.66454656528514
 30
0.0
  0
ELLIPSE
  5
155
330
1F
100
AcDbEntity
  8
0
  6
Continuous
 62
     7
370
    25
100
AcDbEllipse
 10
17.0194513289
 20
11.6425241072
 30
0.0
 11
0.1874479079146809
 21
-0.008089621709411077
 31
0.0
210
0.0
220
0.0
230
1.0
 40
0.5463150007
 41
1.608914043060468
 42
2.29250077967624
  0
ARC
  5
156
330
1F
100
AcDbEntity
  8
0
  6
Continuous
 62
     7
370
    25
100
AcDbCircle
 10
17.5459631881
 20
12.0652207211
 30
0.0
 40
0.0535070029824996
100
AcDbArc
 50
132.3108422836
 51
184.7328938149
  0
LWPOLYLINE
  5
157
330
1F
100
AcDbEntity
  8
0
  6
Continuous
 62
     7
370
    25
100
AcDbPolyline
 90
       20
 70
   128
 43
0.0
 10
17.6111415932
 20
11.9294923978
 10
17.6101587454
 20
11.9291036223
 10
17.6028669788
 20
11.9271953904
 10
17.5949687222
 20
11.9267408562
 10
17.5865885358
 20
11.9277471881
 10
17.5778585803
 20
11.9301985155
 10
17.5689165322
 20
11.9340561795
 10
17.559903413
 20
11.9392593424
 10
17.5509613649
 20
11.9457259474
 10
17.5422314094
 20
11.9533540121
 10
17.533851223
 20
11.9620232375
 10
17.5259529664
 20
11.9715969046
 10
17.5186611998
 20
11.981924031
 10
17.5120909186
 20
11.9928417518
 10
17.5063457402
 20
12.004177888
 10
17.5015162694
 20
12.0157536619
 10
17.4976786699
 20
12.0273865167
 10
17.4948934629
 20
12.0388929952
 10
17.4932045727
 20
12.0500916336
 10
17.4926386343
 20
12.0608058225
  0
ELLIPSE
  5
158
330
1F
100
AcDbEntity
  8
0
  6
Continuous
 62
     7
370
    25
100
AcDbEllipse
 10
15.0056135729
 20
12.1092203651
 30
0.0
 11
0.206847511855532
 21
0.02693468436084957
 31
0.0
210
0.0
220
0.0
230
1.0
 40
0.5500908635
 41
2.814679850955492
 42
3.764998797839872
  0
ELLIPSE
  5
159
330
1F
100
AcDbEntity
  8
0
  6
Continuous
 62
     7
370
    25
100
AcDbEllipse
 10
18.3268489951
 20
9.7556521773
 30
0.0
 11
-0.01501706471556119
 21
0.02601312737003348
 31
0.0
210
0.0
220
0.0
230
1.0
 40
0.5766787367
 41
3.106725692913963
 42
3.926462895913578
  0
ELLIPSE
  5
15A
330
1F
100
AcDbEntity
  8
0
  6
Continuous
 62
     7
370
    25
100
AcDbEllipse
 10
14.815000895
 20
15.8383514973
 30
0.0
 11
-0.01501706471556119
 21
0.02601312737003348
 31
0.0
210
0.0
220
0.0
230
1.0
 40
0.5766787367
 41
5.498477197879502
 42
6.31805226785531
  0
LWPOLYLINE
  5
15B
330
1F
100
AcDbEntity
  8
0
  6
Continuous
 62
     7
370
    25
100
AcDbPolyline
 90
       29
 70
   128
 43
0.0
 10
15.170667399
 20
13.4564318224
 10
15.1704042192
 20
13.4563335498
 10
15.1638339381
 20
13.4530017141
 10
15.1580887596
 20
13.4482988198
 10
15.1532592889
 20
13.4422990342
 10
15.1494216893
 20
13.4350969775
 10
15.1466364823
 20
13.4268062305
 10
15.1449475922
 20
13.4175575432
 10
15.1443816537
 20
13.4074967729
 10
15.1449475922
 20
13.396782584
 10
15.1466364823
 20
13.3855839457
 10
15.1494216893
 20
13.3740774671
 10
15.1532592889
 20
13.3624446123
 10
15.1580887596
 20
13.3508688384
 10
15.1638339381
 20
13.3395327023
 10
15.1704042192
 20
13.3286149815
 10
15.1776959859
 20
13.318287855
 10
15.1855942425
 20
13.3087141879
 10
15.1939744288
 20
13.3000449626
 10
15.2027043843
 20
13.2924168978
 10
15.2116464324
 20
13.2859502929
 10
15.2206595516
 20
13.2807471299
 10
15.2296015997
 20
13.2768894659
 10
15.2383315553
 20
13.2744381385
 10
15.2467117416
 20
13.2734318067
 10
15.2546099982
 20
13.2738863408
 10
15.2619017648
 20
13.2757945727
 10
15.268472046
 20
13.2791264083
 10
15.2716630358
 20
13.2814832922
  0
ARC
  5
15C
330
1F
100
AcDbEntity
  8
0
  6
Continuous
 62
     7
370
    25
100
AcDbCircle
 10
15.2054397424
 20
13.4163761462
 30
0.0
 40
0.0535070029825321
100
AcDbArc
 50
132.3108422837
 51
184.7328938149
  0
LWPOLYLINE
  5
15D
330
1F
100
AcDbEntity
  8
0
  6
Continuous
 62
     7
370
    25
100
AcDbPolyline
 90
       20
 70
   128
 43
0.0
 10
15.2706181474
 20
13.2806478229
 10
15.2696352997
 20
13.2802590473
 10
15.262343533
 20
13.2783508155
 10
15.2544452764
 20
13.2778962813
 10
15.2460650901
 20
13.2789026131
 10
15.2373351346
 20
13.2813539405
 10
15.2283930865
 20
13.2852116045
 10
15.2193799672
 20
13.2904147675
 10
15.2104379191
 20
13.2968813725
 10
15.2017079636
 20
13.3045094372
 10
15.1933277773
 20
13.3131786626
 10
15.1854295207
 20
13.3227523297
 10
15.1781377541
 20
13.3330794561
 10
15.1715674729
 20
13.3439971769
 10
15.1658222945
 20
13.355333313
 10
15.1609928237
 20
13.366909087
 10
15.1571552242
 20
13.3785419417
 10
15.1543700171
 20
13.3900484203
 10
15.152681127
 20
13.4012470587
 10
15.1521151886
 20
13.4119612475
  0
LINE
  5
15E
330
1F
100
AcDbEntity
  8
0
  6
Continuous
 62
     7
370
    25
100
AcDbLine
 10
15.452414886
 20
13.5588222494
 30
0.0
 11
15.452414886
 21
13.6613501958
 31
0.0
  0
LINE
  5
15F
330
1F
100
AcDbEntity
  8
0
  6
Continuous
 62
     7
370
    25
100
AcDbLine
 10
17.1520338504
 20
11.6645465653
 30
0.0
 11
17.0122639025
 21
11.7452340387
 31
0.0
  0
ELLIPSE
  5
160
330
1F
100
AcDbEntity
  8
0
  6
Continuous
 62
     7
370
    25
100
AcDbEllipse
 10
15.5860102949
 20
13.3988024047
 30
0.0
 11
0.06486966595169719
 21
0.4608031458886365
 31
0.0
210
0.0
220
0.0
230
1.0
 40
0.3024614216
 41
6.137811832249432
 42
7.088130779133778
  0
ARC
  5
161
330
1F
100
AcDbEntity
  8
0
  6
Continuous
 62
     7
370
    25
100
AcDbCircle
 10
15.386485824
 20
13.5429372825
 30
0.0
 40
0.1355295511853137
100
AcDbArc
 50
42.4722864103
 51
60.8921393769
  0
ARC
  5
162
330
1F
100
AcDbEntity
  8
0
  6
Continuous
 62
     7
370
    25
100
AcDbCircle
 10
18.0764073977
 20
9.6135951596
 30
0.0
 40
0.0148465530793298
100
AcDbArc
 50
301.3066714145
 51
5.7549154105
  0
ARC
  5
163
330
1F
100
AcDbEntity
  8
0
  6
Continuous
 62
     7
370
    25
100
AcDbCircle
 10
18.063837998
 20
9.613714685
 30
0.0
 40
0.0144432679200933
100
AcDbArc
 50
172.8843952802
 51
235.8034243264
  0
ARC
  5
164
330
1F
100
AcDbEntity
  8
0
  6
Continuous
 62
     7
370
    25
100
AcDbCircle
 10
14.5605568485
 20
15.6815683884
 30
0.0
 40
0.0144396508728709
100
AcDbArc
 50
184.199754696
 51
247.1203862616
  0
ARC
  5
165
330
1F
100
AcDbEntity
  8
0
  6
Continuous
 62
     7
370
    25
100
AcDbCircle
 10
14.5667114752
 20
15.6920130909
 30
0.0
 40
0.0152744482541326
100
AcDbArc
 50
55.260135717
 51
117.680404833
  0
ARC
  5
166
330
1F
100
AcDbEntity
  8
0
  6
Continuous
 62
     7
370
    25
100
AcDbCircle
 10
14.569274797
 20
11.6310830801
 30
0.0
 40
0.014443267920134
100
AcDbArc
 50
172.8843952803
 51
235.8034243263
  0
ARC
  5
167
330
1F
100
AcDbEntity
  8
0
  6
Continuous
 62
     7
370
    25
100
AcDbCircle
 10
14.5605568485
 20
11.6461757868
 30
0.0
 40
0.0144396508729138
100
AcDbArc
 50
184.1997546961
 51
247.1203862615
  0
LINE
  5
168
330
1F
100
AcDbEntity
  8
0
  6
Continuous
 62
     7
370
    25
100
AcDbLine
 10
15.4117322739
 20
3.8796545528
 30
0.0
 11
15.4117322739
 21
3.4873348908
 31
0.0
  0
LINE
  5
169
330
1F
100
AcDbEntity
  8
0
  6
Continuous
 62
     7
370
    25
100
AcDbLine
 10
15.3492322739
 20
3.8796545528
 30
0.0
 11
15.3492322739
 21
3.4895815743
 31
0.0
  0
LINE
  5
16A
330
1F
100
AcDbEntity
  8
0
  6
Continuous
 62
     7
370
    25
100
AcDbLine
 10
14.9117322739
 20
3.8796545528
 30
0.0
 11
14.9117322739
 21
3.645263694
 31
0.0
  0
LINE
  5
16B
330
1F
100
AcDbEntity
  8
0
  6
Continuous
 62
     7
370
    25
100
AcDbLine
 10
14.8492322739
 20
3.8796545528
 30
0.0
 11
14.8492322739
 21
3.6934948943
 31
0.0
  0
LINE
  5
16C
330
1F
100
AcDbEntity
  8
0
  6
Continuous
 62
     7
370
    25
100
AcDbLine
 10
15.6617322739
 20
3.8796545528
 30
0.0
 11
15.6617322739
 21
3.5240079674
 31
0.0
  0
LINE
  5
16D
330
1F
100
AcDbEntity
  8
0
  6
Continuous
 62
     7
370
    25
100
AcDbLine
 10
15.5992322739
 20
3.8796545528
 30
0.0
 11
15.5992322739
 21
3.5077687889
 31
0.0
  0
LINE
  5
16E
330
1F
100
AcDbEntity
  8
0
  6
Continuous
 62
     7
370
    25
100
AcDbLine
 10
15.2867322739
 20
3.8796545528
 30
0.0
 11
15.2867322739
 21
3.496356781
 31
0.0
  0
LINE
  5
16F
330
1F
100
AcDbEntity
  8
0
  6
Continuous
 62
     7
370
    25
100
AcDbLine
 10
15.2242322739
 20
3.8796545528
 30
0.0
 11
15.2242322739
 21
3.5077687889
 31
0.0
  0
LINE
  5
170
330
1F
100
AcDbEntity
  8
0
  6
Continuous
 62
     7
370
    25
100
AcDbLine
 10
15.1617322739
 20
3.8796545528
 30
0.0
 11
15.1617322739
 21
3.5240079674
 31
0.0
  0
LINE
  5
171
330
1F
100
AcDbEntity
  8
0
  6
Continuous
 62
     7
370
    25
100
AcDbLine
 10
15.0992322739
 20
3.8796545528
 30
0.0
 11
15.0992322739
 21
3.5453637267
 31
0.0
  0
LINE
  5
172
330
1F
100
AcDbEntity
  8
0
  6
Continuous
 62
     7
370
    25
100
AcDbLine
 10
15.0367322739
 20
3.8796545528
 30
0.0
 11
15.0367322739
 21
3.5722532544
 31
0.0
  0
LINE
  5
173
330
1F
100
AcDbEntity
  8
0
  6
Continuous
 62
     7
370
    25
100
AcDbLine
 10
14.9742322739
 20
3.8796545528
 30
0.0
 11
14.9742322739
 21
3.6052695209
 31
0.0
  0
LINE
  5
174
330
1F
100
AcDbEntity
  8
0
  6
Continuous
 62
     7
370
    25
100
AcDbLine
 10
15.5367322739
 20
3.8796545528
 30
0.0
 11
15.5367322739
 21
3.496356781
 31
0.0
  0
LINE
  5
175
330
1F
100
AcDbEntity
  8
0
  6
Continuous
 62
     7
370
    25
100
AcDbLine
 10
15.4742322739
 20
3.8796545528
 30
0.0
 11
15.4742322739
 21
3.4895815743
 31
0.0
  0
LINE
  5
176
330
1F
100
AcDbEntity
  8
0
  6
Continuous
 62
     7
370
    25
100
AcDbLine
 10
14.7867322739
 20
3.8786929673
 30
0.0
 11
14.7867322739
 21
3.7519271079
 31
0.0
  0
LINE
  5
177
330
1F
100
AcDbEntity
  8
0
  6
Continuous
 62
     7
370
    25
100
AcDbLine
 10
15.7867322739
 20
3.8796545528
 30
0.0
 11
15.7867322739
 21
3.5722532544
 31
0.0
  0
LINE
  5
178
330
1F
100
AcDbEntity
  8
0
  6
Continuous
 62
     7
370
    25
100
AcDbLine
 10
15.7242322739
 20
3.8796545528
 30
0.0
 11
15.7242322739
 21
3.5453637267
 31
0.0
  0
LINE
  5
179
330
1F
100
AcDbEntity
  8
0
  6
Continuous
 62
     7
370
    25
100
AcDbLine
 10
15.9117322739
 20
3.8796545528
 30
0.0
 11
15.9117322739
 21
3.645263694
 31
0.0
  0
LINE
  5
17A
330
1F
100
AcDbEntity
  8
0
  6
Continuous
 62
     7
370
    25
100
AcDbLine
 10
15.8492322739
 20
3.8796545528
 30
0.0
 11
15.8492322739
 21
3.6052695209
 31
0.0
  0
LINE
  5
17B
330
1F
100
AcDbEntity
  8
0
  6
Continuous
 62
     7
370
    25
100
AcDbLine
 10
16.0367322739
 20
3.8786780042
 30
0.0
 11
16.0367322739
 21
3.7519271079
 31
0.0
  0
LINE
  5
17C
330
1F
100
AcDbEntity
  8
0
  6
Continuous
 62
     7
370
    25
100
AcDbLine
 10
15.9742322739
 20
3.8796545528
 30
0.0
 11
15.9742322739
 21
3.6934948943
 31
0.0
  0
LINE
  5
17D
330
1F
100
AcDbEntity
  8
0
  6
Continuous
 62
     7
370
    25
100
AcDbLine
 10
14.5610452114
 20
5.4358345722
 30
0.0
 11
14.6727798261
 21
3.8877951907
 31
0.0
  0
LINE
  5
17E
330
1F
100
AcDbEntity
  8
0
  6
Continuous
 62
     7
370
    25
100
AcDbLine
 10
16.2624193364
 20
5.4358345722
 30
0.0
 11
14.5610452114
 21
5.4358345722
 31
0.0
  0
LINE
  5
17F
330
1F
100
AcDbEntity
  8
0
  6
Continuous
 62
     7
370
    25
100
AcDbLine
 10
16.1506847218
 20
3.8877951907
 30
0.0
 11
16.2624193364
 21
5.4358345722
 31
0.0
  0
LINE
  5
180
330
1F
100
AcDbEntity
  8
0
  6
Continuous
 62
     7
370
    25
100
AcDbLine
 10
14.6727798261
 20
3.8877951907
 30
0.0
 11
16.1506847218
 21
3.8877951907
 31
0.0
  0
LINE
  5
181
330
1F
100
AcDbEntity
  8
0
  6
Continuous
 62
     7
370
    25
100
AcDbLine
 10
14.4782030039
 20
3.8764051717
 30
0.0
 11
14.3967066847
 21
5.0055047974
 31
0.0
  0
ELLIPSE
  5
182
330
1F
100
AcDbEntity
  8
0
  6
Continuous
 62
     7
370
    25
100
AcDbEllipse
 10
14.5863526179
 20
4.9658885507
 30
0.0
 11
-0.03391080412099079
 21
0.4698209269474001
 31
0.0
210
0.0
220
0.0
230
1.0
 40
0.3980527077
 41
6.237355505486641
 42
7.740871473673454
  0
ELLIPSE
  5
183
330
1F
100
AcDbEntity
  8
0
  6
Continuous
 62
     7
370
    25
100
AcDbEllipse
 10
14.6650487636
 20
3.8755842338
 30
0.0
 11
0.1879494542362821
 21
0.0005044077137164039
 31
0.0
210
0.0
220
0.0
230
1.0
 40
0.064913913
 41
1.529476774672283
 42
3.032992742859172
  0
SPLINE
  5
184
330
1F
100
AcDbEntity
  8
0
  6
Continuous
 62
     7
370
    25
100
AcDbSpline
210
0.0
220
0.0
230
1.0
 70
     8
 71
     3
 72
    17
 73
    13
 74
     0
 42
0.00000001
 43
0.00000001
 40
0.0
 40
0.0
 40
0.0
 40
0.0
 40
0.0567536053495267
 40
0.1135414026571111
 40
0.2108342400853196
 40
0.3082431531935779
 40
0.4338723759568857
 40
0.5595719520099709
 40
0.6836533873973358
 40
0.8076472052926009
 40
0.9039079963072052
 40
1.0
 40
1.0
 40
1.0
 40
1.0
 10
16.09050470542029
 20
3.874191694526719
 30
0.0
 10
16.09036170271874
 20
3.874355810254744
 30
0.0
 10
16.09007561116179
 20
3.874684140584478
 30
0.0
 10
16.08772645254458
 20
3.875283162953356
 30
0.0
 10
16.08308119370919
 20
3.875971746134659
 30
0.0
 10
16.07458756942517
 20
3.876787866473033
 30
0.0
 10
16.06275656234491
 20
3.877589812665703
 30
0.0
 10
16.04752322938819
 20
3.878332516833285
 30
0.0
 10
16.03032442562711
 20
3.878939166405621
 30
0.0
 10
16.01294294831708
 20
3.879352229521285
 30
0.0
 10
15.99603239579479
 20
3.87960513477063
 30
0.0
 10
15.98539781652522
 20
3.879638089747044
 30
0.0
 10
15.98008519274974
 20
3.879654552776449
 30
0.0
  0
LINE
  5
185
330
1F
100
AcDbEntity
  8
0
  6
Continuous
 62
     7
370
    25
100
AcDbLine
 10
14.8433793551
 20
3.8796545528
 30
0.0
 11
15.9800851927
 21
3.8796545528
 31
0.0
  0
SPLINE
  5
186
330
1F
100
AcDbEntity
  8
0
  6
Continuous
 62
     7
370
    25
100
AcDbSpline
210
0.0
220
0.0
230
1.0
 70
     8
 71
     3
 72
    17
 73
    13
 74
     0
 42
0.00000001
 43
0.00000001
 40
0.0
 40
0.0
 40
0.0
 40
0.0
 40
0.0859223598659863
 40
0.1737593353502099
 40
0.2620584018686155
 40
0.3500691870355137
 40
0.4654377939790851
 40
0.580800310957923
 40
0.6936963756470342
 40
0.8064755477894637
 40
0.9033517808576745
 40
1.0
 40
1.0
 40
1.0
 40
1.0
 10
14.84337935508648
 20
3.879654552776449
 30
0.0
 10
14.83862974537741
 20
3.879641330737047
 30
0.0
 10
14.82902468998195
 20
3.879614592030357
 30
0.0
 10
14.81493171406542
 20
3.879423348882521
 30
0.0
 10
14.80133089815897
 20
3.879143375673877
 30
0.0
 10
14.78714590026345
 20
3.878739227423388
 30
0.0
 10
14.77285913597113
 20
3.878195015702695
 30
0.0
 10
14.75925582017016
 20
3.877497351336376
 30
0.0
 10
14.74785472709353
 20
3.87670707680845
 30
0.0
 10
14.7395724164473
 20
3.875877917574232
 30
0.0
 10
14.73414445564462
 20
3.875031177499679
 30
0.0
 10
14.73335440320764
 20
3.874471302299409
 30
0.0
 10
14.73295984241602
 20
3.874191694526696
 30
0.0
  0
ELLIPSE
  5
187
330
1F
100
AcDbEntity
  8
0
  6
Continuous
 62
     7
370
    25
100
AcDbEllipse
 10
15.4117322739
 20
3.7451757981
 30
0.0
 11
1.776356839400250E-15
 21
0.9193961754804465
 31
0.0
210
0.0
220
0.0
230
1.0
 40
0.7456587883
 41
1.430004883296258
 42
1.487579429976946
  0
LINE
  5
188
330
1F
100
AcDbEntity
  8
0
  6
Continuous
 62
     7
370
    25
100
AcDbLine
 10
14.3444170162
 20
3.8215968202
 30
0.0
 11
14.7285488211
 21
3.8215968202
 31
0.0
  0
ELLIPSE
  5
189
330
1F
100
AcDbEntity
  8
0
  6
Continuous
 62
     7
370
    25
100
AcDbEllipse
 10
14.2099201788
 20
3.8284433807
 30
0.0
 11
0.1875
 21
0.0
 31
0.0
210
0.0
220
0.0
230
1.0
 40
0.0524077793
 41
5.512332107964214
 42
6.195918844580077
  0
LINE
  5
18A
330
1F
100
AcDbEntity
  8
0
  6
Continuous
 62
     7
370
    25
100
AcDbLine
 10
14.3967066847
 20
3.8275869484
 30
0.0
 11
14.4782030039
 21
3.8764051717
 31
0.0
  0
ELLIPSE
  5
18B
330
1F
100
AcDbEntity
  8
0
  6
Continuous
 62
     7
370
    25
100
AcDbEllipse
 10
16.1584157843
 20
3.8755842338
 30
0.0
 11
0.1879494542362785
 21
-0.000504407713716848
 31
0.0
210
0.0
220
0.0
230
1.0
 40
0.064913913
 41
0.1085999107306253
 42
1.612115878917483
  0
LINE
  5
18C
330
1F
100
AcDbEntity
  8
0
  6
Continuous
 62
     7
370
    25
100
AcDbLine
 10
16.4267578632
 20
3.8275869484
 30
0.0
 11
16.3452615439
 21
3.8764051717
 31
0.0
  0
ELLIPSE
  5
18D
330
1F
100
AcDbEntity
  8
0
  6
Continuous
 62
     7
370
    25
100
AcDbEllipse
 10
16.613544369
 20
3.8284433807
 30
0.0
 11
0.1875
 21
0.0
 31
0.0
210
0.0
220
0.0
230
1.0
 40
0.0524077793
 41
3.228859116189834
 42
3.912445852805441
  0
LINE
  5
18E
330
1F
100
AcDbEntity
  8
0
  6
Continuous
 62
     7
370
    25
100
AcDbLine
 10
16.0949157267
 20
3.8215968202
 30
0.0
 11
16.4790475316
 21
3.8215968202
 31
0.0
  0
ELLIPSE
  5
18F
330
1F
100
AcDbEntity
  8
0
  6
Continuous
 62
     7
370
    25
100
AcDbEllipse
 10
15.4117322739
 20
3.7451757981
 30
0.0
 11
1.776356839400250E-15
 21
0.9193961754804465
 31
0.0
210
0.0
220
0.0
230
1.0
 40
0.7456587883
 41
4.795605877202654
 42
4.85318042388335
  0
ELLIPSE
  5
190
330
1F
100
AcDbEntity
  8
0
  6
Continuous
 62
     7
370
    25
100
AcDbEllipse
 10
16.23711193
 20
4.9658885507
 30
0.0
 11
0.03391080412099257
 21
0.4698209269474
 31
0.0
210
0.0
220
0.0
230
1.0
 40
0.3980527077
 41
4.825499140685726
 42
6.329015108872566
  0
LINE
  5
191
330
1F
100
AcDbEntity
  8
0
  6
Continuous
 62
     7
370
    25
100
AcDbLine
 10
16.4267578632
 20
5.0055047974
 30
0.0
 11
16.3452615439
 21
3.8764051717
 31
0.0
  0
LINE
  5
192
330
1F
100
AcDbEntity
  8
0
  6
Continuous
 62
     7
370
    25
100
AcDbLine
 10
14.3967066847
 20
5.0055047974
 30
0.0
 11
14.3967066847
 21
3.8275869484
 31
0.0
  0
LINE
  5
193
330
1F
100
AcDbEntity
  8
0
  6
Continuous
 62
     7
370
    25
100
AcDbLine
 10
16.4267578632
 20
3.8275869484
 30
0.0
 11
16.4267578632
 21
5.0055047974
 31
0.0
  0
LINE
  5
194
330
1F
100
AcDbEntity
  8
0
  6
Continuous
 62
     7
370
    25
100
AcDbLine
 10
16.4267578632
 20
5.0055047974
 30
0.0
 11
16.613544369
 21
5.0055047974
 31
0.0
  0
LINE
  5
195
330
1F
100
AcDbEntity
  8
0
  6
Continuous
 62
     7
370
    25
100
AcDbLine
 10
16.613544369
 20
5.0055047974
 30
0.0
 11
16.613544369
 21
3.7616790481
 31
0.0
  0
SPLINE
  5
196
330
1F
100
AcDbEntity
  8
0
  6
Continuous
 62
     7
370
    25
100
AcDbSpline
210
0.0
220
0.0
230
1.0
 70
     8
 71
     3
 72
    16
 73
    12
 74
     0
 42
0.00000001
 43
0.00000001
 40
0.0
 40
0.0
 40
0.0
 40
0.0
 40
0.1214459706307847
 40
0.2430990643827656
 40
0.3626454402063817
 40
0.4826397991921768
 40
0.6023830711461285
 40
0.7336917461124349
 40
0.8652995849505097
 40
0.9966638527736054
 40
1.0
 40
1.0
 40
1.0
 40
1.0
 10
16.47904753160718
 20
3.821596820168925
 30
0.0
 10
16.48378265707711
 20
3.821034757526792
 30
0.0
 10
16.49326098365719
 20
3.819909673658487
 30
0.0
 10
16.50868560360342
 20
3.814981965791601
 30
0.0
 10
16.52460237598869
 20
3.808656525541716
 30
0.0
 10
16.5408809944553
 20
3.80109488555292
 30
0.0
 10
16.55798516282878
 20
3.792416016320677
 30
0.0
 10
16.57586731210651
 20
3.782822886644597
 30
0.0
 10
16.59443198086083
 20
3.772493202643644
 30
0.0
 10
16.60702127926869
 20
3.765369047508809
 30
0.0
 10
16.61338671525154
 20
3.761768230117343
 30
0.0
 10
16.61354436904638
 20
3.761679048083651
 30
0.0
  0
SPLINE
  5
197
330
1F
100
AcDbEntity
  8
0
  6
Continuous
 62
     7
370
    25
100
AcDbSpline
210
0.0
220
0.0
230
1.0
 70
     8
 71
     3
 72
    16
 73
    12
 74
     0
 42
0.00000001
 43
0.00000001
 40
0.0
 40
0.0
 40
0.0
 40
0.0
 40
0.0033361472264154
 40
0.1347004150495096
 40
0.2663082538875732
 40
0.3976169288538486
 40
0.5173602008078046
 40
0.6373545597936059
 40
0.7569009356172247
 40
0.8785540293692113
 40
1.0
 40
1.0
 40
1.0
 40
1.0
 10
14.20992017878984
 20
3.76167904808365
 30
0.0
 10
14.21007783258468
 20
3.761768230117346
 30
0.0
 10
14.21644326856745
 20
3.765369047508941
 30
0.0
 10
14.22903256697574
 20
3.772493202643036
 30
0.0
 10
14.24759723572978
 20
3.782822886644484
 30
0.0
 10
14.26547938500743
 20
3.792416016320705
 30
0.0
 10
14.28258355338092
 20
3.80109488555291
 30
0.0
 10
14.29886217184753
 20
3.808656525541718
 30
0.0
 10
14.3147789442328
 20
3.8149819657916
 30
0.0
 10
14.33020356417903
 20
3.819909673658487
 30
0.0
 10
14.33968189075911
 20
3.821034757526791
 30
0.0
 10
14.34441701622904
 20
3.821596820168925
 30
0.0
  0
LINE
  5
198
330
1F
100
AcDbEntity
  8
0
  6
Continuous
 62
     7
370
    25
100
AcDbLine
 10
14.2099201788
 20
3.7616790481
 30
0.0
 11
14.2099201788
 21
5.0055047974
 31
0.0
  0
LINE
  5
199
330
1F
100
AcDbEntity
  8
0
  6
Continuous
 62
     7
370
    25
100
AcDbLine
 10
14.2099201788
 20
5.0055047974
 30
0.0
 11
14.3967066847
 21
5.0055047974
 31
0.0
  0
ELLIPSE
  5
19A
330
1F
100
AcDbEntity
  8
0
  6
Continuous
 62
     7
370
    25
100
AcDbEllipse
 10
14.5863526179
 20
4.9658885507
 30
0.0
 11
0.04248760103774708
 21
-0.5886490934306884
 31
1.776356839400251E-15
210
-2.166819820548384E-16
220
3.002044106609524E-15
230
1.0
 40
0.6353988963
 41
3.095762851896817
 42
4.599278820083669
  0
LINE
  5
19B
330
1F
100
AcDbEntity
  8
0
  6
Continuous
 62
     7
370
    25
100
AcDbLine
 10
14.5610452114
 20
5.5551563763
 30
0.0
 11
14.5610452114
 21
5.4358345722
 31
0.0
  0
LINE
  5
19C
330
1F
100
AcDbEntity
  8
0
  6
Continuous
 62
     7
370
    25
100
AcDbLine
 10
16.2624193364
 20
5.5551563763
 30
0.0
 11
16.2624193364
 21
5.4358345722
 31
0.0
  0
ELLIPSE
  5
19D
330
1F
100
AcDbEntity
  8
0
  6
Continuous
 62
     7
370
    25
100
AcDbEllipse
 10
16.23711193
 20
4.9658885507
 30
0.0
 11
-0.0424876010377453
 21
-0.5886490934306893
 31
1.776356839400251E-15
210
2.166819820548287E-16
220
3.002044106609521E-15
230
1.0
 40
0.6353988963
 41
1.683906487095922
 42
3.187422455282782
  0
LINE
  5
19E
330
1F
100
AcDbEntity
  8
0
  6
Continuous
 62
     7
370
    25
100
AcDbLine
 10
14.7774242428
 20
3.7616790481
 30
0.0
 11
14.2099201788
 21
3.7616790481
 31
0.0
  0
SPLINE
  5
19F
330
1F
100
AcDbEntity
  8
0
  6
Continuous
 62
     7
370
    25
100
AcDbSpline
210
0.0
220
0.0
230
1.0
 70
     8
 71
     3
 72
    17
 73
    13
 74
     0
 42
0.00000001
 43
0.00000001
 40
0.0
 40
0.0
 40
0.0
 40
0.0
 40
0.0801022235642672
 40
0.1602290590881709
 40
0.2400244853561798
 40
0.3198707314545222
 40
0.4048731968776633
 40
0.4899315022913595
 40
0.617406410889605
 40
0.745036953611381
 40
0.8724873160539276
 40
1.0
 40
1.0
 40
1.0
 40
1.0
 10
14.72854882111109
 20
3.821596820168925
 30
0.0
 10
14.72863351072093
 20
3.821329112164082
 30
0.0
 10
14.72880291596207
 20
3.82079361389927
 30
0.0
 10
14.730217743681
 20
3.818540772578279
 30
0.0
 10
14.73243150092466
 20
3.815329828880717
 30
0.0
 10
14.73545395454664
 20
3.811174308979895
 30
0.0
 10
14.73923130422873
 20
3.806185794118955
 30
0.0
 10
14.74440437472714
 20
3.79957817254523
 30
0.0
 10
14.75112506614166
 20
3.791319292908907
 30
0.0
 10
14.7594216651804
 20
3.781549211217815
 30
0.0
 10
14.7682318070083
 20
3.771575368575436
 30
0.0
 10
14.7743595982883
 20
3.764978359090898
 30
0.0
 10
14.77742424284696
 20
3.76167904808365
 30
0.0
  0
LINE
  5
1A0
330
1F
100
AcDbEntity
  8
0
  6
Continuous
 62
     7
370
    25
100
AcDbLine
 10
16.613544369
 20
3.7616790481
 30
0.0
 11
16.046040305
 21
3.7616790481
 31
0.0
  0
SPLINE
  5
1A1
330
1F
100
AcDbEntity
  8
0
  6
Continuous
 62
     7
370
    25
100
AcDbSpline
210
0.0
220
0.0
230
1.0
 70
     8
 71
     3
 72
    16
 73
    12
 74
     0
 42
0.00000001
 43
0.00000001
 40
0.0
 40
0.0
 40
0.0
 40
0.0
 40
0.1436550458136307
 40
0.2872028912027102
 40
0.4081468147244419
 40
0.5289547107663037
 40
0.6250911171799239
 40
0.7211313244626611
 40
0.8025421879391811
 40
0.8839013801503257
 40
1.0
 40
1.0
 40
1.0
 40
1.0
 10
16.04604030498926
 20
3.761679048083651
 30
0.0
 10
16.04948969076726
 20
3.765398314189944
 30
0.0
 10
16.05638588827084
 20
3.772834070955951
 30
0.0
 10
16.06570287392484
 20
3.783466687596437
 30
0.0
 10
16.07390408836409
 20
3.793216247384114
 30
0.0
 10
16.08043304484499
 20
3.801301552262227
 30
0.0
 10
16.08568387886616
 20
3.808072856653212
 30
0.0
 10
16.08953132218291
 20
3.813234837353603
 30
0.0
 10
16.09229947410795
 20
3.817140921282268
 30
0.0
 10
16.0944431822346
 20
3.820368574660012
 30
0.0
 10
16.09474076057045
 20
3.821142045226015
 30
0.0
 10
16.09491572672513
 20
3.821596820168925
 30
0.0
  0
LINE
  5
1A2
330
1F
100
AcDbEntity
  8
0
  6
Continuous
 62
     7
370
    25
100
AcDbLine
 10
14.5610452114
 20
5.5551563763
 30
0.0
 11
16.2624193364
 21
5.5551563763
 31
0.0
  0
CIRCLE
  5
1A3
330
1F
100
AcDbEntity
  8
0
  6
Continuous
 62
     7
370
    25
100
AcDbCircle
 10
13.7567322739
 20
4.3577951907
 30
0.0
 40
0.2050000000000001
  0
LINE
  5
1A4
330
1F
100
AcDbEntity
  8
0
  6
Continuous
 62
     7
370
    25
100
AcDbLine
 10
12.9407029372
 20
6.8288245275
 30
0.0
 11
12.9407029372
 21
1.886765854
 31
0.0
  0
LINE
  5
1A5
330
1F
100
AcDbEntity
  8
0
  6
Continuous
 62
     7
370
    25
100
AcDbLine
 10
17.8827616107
 20
6.8288245275
 30
0.0
 11
12.9407029372
 21
6.8288245275
 31
0.0
  0
LINE
  5
1A6
330
1F
100
AcDbEntity
  8
0
  6
Continuous
 62
     7
370
    25
100
AcDbLine
 10
17.8827616107
 20
1.886765854
 30
0.0
 11
17.8827616107
 21
6.8288245275
 31
0.0
  0
LINE
  5
1A7
330
1F
100
AcDbEntity
  8
0
  6
Continuous
 62
     7
370
    25
100
AcDbLine
 10
12.9407029372
 20
1.886765854
 30
0.0
 11
17.8827616107
 21
1.886765854
 31
0.0
  0
CIRCLE
  5
1A8
330
1F
100
AcDbEntity
  8
0
  6
Continuous
 62
     7
370
    25
100
AcDbCircle
 10
17.0667322739
 20
4.3577951907
 30
0.0
 40
0.2049999999999983
  0
ARC
  5
1A9
330
1F
100
AcDbEntity
  8
0
  6
Continuous
 62
     7
370
    25
100
AcDbCircle
 10
15.4117322739
 20
4.3577951907
 30
0.0
 40
0.8704602999660738
100
AcDbArc
 50
223.2221320796
 51
316.7778679204
  0
LINE
  5
1AA
330
1F
100
AcDbEntity
  8
0
  6
Continuous
 62
     7
370
    25
100
AcDbLine
 10
17.9127433355
 20
6.8288245275
 30
0.0
 11
17.9127433355
 21
1.886765854
 31
0.0
  0
LINE
  5
1AB
330
1F
100
AcDbEntity
  8
0
  6
Continuous
 62
     7
370
    25
100
AcDbLine
 10
17.9127433355
 20
1.886765854
 30
0.0
 11
17.8827616107
 21
1.886765854
 31
0.0
  0
LINE
  5
1AC
330
1F
100
AcDbEntity
  8
0
  6
Continuous
 62
     7
370
    25
100
AcDbLine
 10
17.9127433355
 20
6.8288245275
 30
0.0
 11
17.8827616107
 21
6.8288245275
 31
0.0
  0
LINE
  5
1AD
330
1F
100
AcDbEntity
  8
0
  6
Continuous
 62
     7
370
    25
100
AcDbLine
 10
12.9407029372
 20
1.886765854
 30
0.0
 11
12.9107212124
 21
1.886765854
 31
0.0
  0
LINE
  5
1AE
330
1F
100
AcDbEntity
  8
0
  6
Continuous
 62
     7
370
    25
100
AcDbLine
 10
12.9107212124
 20
1.886765854
 30
0.0
 11
12.9107212124
 21
6.8288245275
 31
0.0
  0
LINE
  5
1AF
330
1F
100
AcDbEntity
  8
0
  6
Continuous
 62
     7
370
    25
100
AcDbLine
 10
12.9407029372
 20
6.8288245275
 30
0.0
 11
12.9107212124
 21
6.8288245275
 31
0.0
  0
LINE
  5
1B0
330
1F
100
AcDbEntity
  8
0
  6
Continuous
 62
     7
370
    25
100
AcDbLine
 10
17.8827616107
 20
1.886765854
 30
0.0
 11
17.8827616107
 21
1.8567841292
 31
0.0
  0
LINE
  5
1B1
330
1F
100
AcDbEntity
  8
0
  6
Continuous
 62
     7
370
    25
100
AcDbLine
 10
17.8827616107
 20
1.8567841292
 30
0.0
 11
12.9407029372
 21
1.8567841292
 31
0.0
  0
LINE
  5
1B2
330
1F
100
AcDbEntity
  8
0
  6
Continuous
 62
     7
370
    25
100
AcDbLine
 10
12.9407029372
 20
1.886765854
 30
0.0
 11
12.9407029372
 21
1.8567841292
 31
0.0
  0
ARC
  5
1B3
330
1F
100
AcDbEntity
  8
0
  6
Continuous
 62
     7
370
    25
100
AcDbCircle
 10
12.9407457459
 20
1.8868086628
 30
0.0
 40
0.0300245641040238
100
AcDbArc
 50
180.0816918763
 51
269.9183081237
  0
ARC
  5
1B4
330
1F
100
AcDbEntity
  8
0
  6
Continuous
 62
     7
370
    25
100
AcDbCircle
 10
17.8827188019
 20
1.8868086628
 30
0.0
 40
0.0300245641040238
100
AcDbArc
 50
270.0816918764
 51
359.9183081237
  0
CIRCLE
  5
1B5
330
1F
100
AcDbEntity
  8
0
  6
Continuous
 62
     7
370
    25
100
AcDbCircle
 10
13.7567322739
 20
4.3577951907
 30
0.0
 40
0.1015000000000015
  0
CIRCLE
  5
1B6
330
1F
100
AcDbEntity
  8
0
  6
Continuous
 62
     7
370
    25
100
AcDbCircle
 10
17.0667322739
 20
4.3577951907
 30
0.0
 40
0.1014999999999979
  0
LINE
  5
1B7
330
1F
100
AcDbEntity
  8
0
  6
Continuous
 62
     7
370
    25
100
AcDbLine
 10
12.9407029372
 20
6.8588062523
 30
0.0
 11
17.8827616107
 21
6.8588062523
 31
0.0
  0
LINE
  5
1B8
330
1F
100
AcDbEntity
  8
0
  6
Continuous
 62
     7
370
    25
100
AcDbLine
 10
17.8827616107
 20
6.8588062523
 30
0.0
 11
17.8827616107
 21
6.8288245275
 31
0.0
  0
LINE
  5
1B9
330
1F
100
AcDbEntity
  8
0
  6
Continuous
 62
     7
370
    25
100
AcDbLine
 10
12.9407029372
 20
6.8588062523
 30
0.0
 11
12.9407029372
 21
6.8288245275
 31
0.0
  0
ARC
  5
1BA
330
1F
100
AcDbEntity
  8
0
  6
Continuous
 62
     7
370
    25
100
AcDbCircle
 10
17.8827188019
 20
6.8287817187
 30
0.0
 40
0.0300245641040202
100
AcDbArc
 50
0.0816918763
 51
89.9183081237
  0
ARC
  5
1BB
330
1F
100
AcDbEntity
  8
0
  6
Continuous
 62
     7
370
    25
100
AcDbCircle
 10
12.9407457459
 20
6.8287817187
 30
0.0
 40
0.0300245641040255
100
AcDbArc
 50
90.0816918763
 51
179.9183081237
  0
ELLIPSE
  5
1BC
330
1F
100
AcDbEntity
  8
0
  6
Continuous
 62
     7
370
    25
100
AcDbEllipse
 10
12.9284806678
 20
1.8745435847
 30
0.0
 11
0.02123905633797563
 21
0.02123905633797585
 31
0.0
210
0.0
220
0.0
230
1.0
 40
0.998782766
 41
2.356803477777924
 42
3.926381829401732
  0
LINE
  5
1BD
330
1F
100
AcDbEntity
  8
0
  6
Continuous
 62
     7
370
    25
100
AcDbLine
 10
12.8984623815
 20
1.8745070231
 30
0.0
 11
12.9107212124
 21
1.886765854
 31
0.0
  0
LINE
  5
1BE
330
1F
100
AcDbEntity
  8
0
  6
Continuous
 62
     7
370
    25
100
AcDbLine
 10
12.9407029372
 20
1.8567841292
 30
0.0
 11
12.9284441063
 21
1.8445252983
 31
0.0
  0
ELLIPSE
  5
1BF
330
1F
100
AcDbEntity
  8
0
  6
Continuous
 62
     7
370
    25
100
AcDbEllipse
 10
17.89498388
 20
1.8745435847
 30
0.0
 11
-0.02123905633797563
 21
0.02123905633797585
 31
0.0
210
0.0
220
0.0
230
1.0
 40
0.998782766
 41
2.356803477777865
 42
3.926381829401753
  0
LINE
  5
1C0
330
1F
100
AcDbEntity
  8
0
  6
Continuous
 62
     7
370
    25
100
AcDbLine
 10
17.8950204415
 20
1.8445252983
 30
0.0
 11
17.8827616107
 21
1.8567841292
 31
0.0
  0
LINE
  5
1C1
330
1F
100
AcDbEntity
  8
0
  6
Continuous
 62
     7
370
    25
100
AcDbLine
 10
17.9127433355
 20
1.886765854
 30
0.0
 11
17.9250021663
 21
1.8745070231
 31
0.0
  0
ELLIPSE
  5
1C2
330
1F
100
AcDbEntity
  8
0
  6
Continuous
 62
     7
370
    25
100
AcDbEllipse
 10
17.89498388
 20
6.8410467968
 30
0.0
 11
-0.02123905633797563
 21
-0.02123905633797651
 31
0.0
210
0.0
220
0.0
230
1.0
 40
0.998782766
 41
2.356803477777945
 42
3.926381829401614
  0
LINE
  5
1C3
330
1F
100
AcDbEntity
  8
0
  6
Continuous
 62
     7
370
    25
100
AcDbLine
 10
17.9250021663
 20
6.8410833583
 30
0.0
 11
17.9127433355
 21
6.8288245275
 31
0.0
  0
LINE
  5
1C4
330
1F
100
AcDbEntity
  8
0
  6
Continuous
 62
     7
370
    25
100
AcDbLine
 10
17.8827616107
 20
6.8588062523
 30
0.0
 11
17.8950204415
 21
6.8710650831
 31
0.0
  0
ELLIPSE
  5
1C5
330
1F
100
AcDbEntity
  8
0
  6
Continuous
 62
     7
370
    25
100
AcDbEllipse
 10
12.9284806678
 20
6.8410467968
 30
0.0
 11
0.02123905633797563
 21
-0.02123905633797651
 31
0.0
210
0.0
220
0.0
230
1.0
 40
0.998782766
 41
2.356803477777906
 42
3.926381829401676
  0
LINE
  5
1C6
330
1F
100
AcDbEntity
  8
0
  6
Continuous
 62
     7
370
    25
100
AcDbLine
 10
12.9284441063
 20
6.8710650831
 30
0.0
 11
12.9407029372
 21
6.8588062523
 31
0.0
  0
LINE
  5
1C7
330
1F
100
AcDbEntity
  8
0
  6
Continuous
 62
     7
370
    25
100
AcDbLine
 10
12.9107212124
 20
6.8288245275
 30
0.0
 11
12.8984623815
 21
6.8410833583
 31
0.0
  0
LINE
  5
1C8
330
1F
100
AcDbEntity
  8
0
  6
Continuous
 62
     7
370
    25
100
AcDbLine
 10
12.8984623815
 20
1.8745070231
 30
0.0
 11
12.8984623815
 21
6.8410833583
 31
0.0
  0
LINE
  5
1C9
330
1F
100
AcDbEntity
  8
0
  6
Continuous
 62
     7
370
    25
100
AcDbLine
 10
17.9250021663
 20
6.8410833583
 30
0.0
 11
17.9250021663
 21
1.8745070231
 31
0.0
  0
LINE
  5
1CA
330
1F
100
AcDbEntity
  8
0
  6
Continuous
 62
     7
370
    25
100
AcDbLine
 10
17.8950204415
 20
1.8445252983
 30
0.0
 11
12.9284441063
 21
1.8445252983
 31
0.0
  0
LINE
  5
1CB
330
1F
100
AcDbEntity
  8
0
  6
Continuous
 62
     7
370
    25
100
AcDbLine
 10
12.9284441063
 20
6.8710650831
 30
0.0
 11
17.8950204415
 21
6.8710650831
 31
0.0
  0
DIMENSION
  5
1CC
330
1F
100
AcDbEntity
  8
SLD-0
100
AcDbDimension
  2
_D_3
 10
17.0667322739
 20
7.658466658
 30
0.0
 11
15.4117322739
 21
7.658466658
 31
0.0
 70
   160
  1
<>O.C.
 71
     2
 42
-1.0
  3
SLDDIMSTYLE0
100
AcDbAlignedDimension
 13
13.7567322739
 23
4.3577951907
 33
0.0
 14
17.0667322739
 24
4.3577951907
 34
0.0
 50
0.0
100
AcDbRotatedDimension
  0
DIMENSION
  5
1DF
330
1F
100
AcDbEntity
  8
SLD-0
100
AcDbDimension
  2
_D_4
 10
17.9250021663
 20
8.6033485477
 30
0.0
 11
15.4117322739
 21
8.6033485477
 31
0.0
 70
   160
  1
<>SQUARE
 71
     2
 42
-1.0
  3
SLDDIMSTYLE2
100
AcDbAlignedDimension
 13
12.8984623815
 23
6.8410833583
 33
0.0
 14
17.9250021663
 24
6.8410833583
 34
0.0
 50
0.0
100
AcDbRotatedDimension
  0
ENDSEC
  0
SECTION
  2
OBJECTS
  0
DICTIONARY
  5
C
330
0
100
AcDbDictionary
281
     1
  3
ACAD_GROUP
350
D
  3
ACAD_LAYOUT
350
1A
  3
ACAD_MLINESTYLE
350
17
  3
ACAD_PLOTSETTINGS
350
19
  3
ACAD_PLOTSTYLENAME
350
E
  3
ACAD_SCALELIST
350
47
  3
DWGPROPS
350
1F3
  0
DICTIONARY
  5
D
102
{ACAD_REACTORS
330
C
102
}
330
C
100
AcDbDictionary
281
     1
  0
DICTIONARY
  5
1A
102
{ACAD_REACTORS
330
C
102
}
330
C
100
AcDbDictionary
281
     1
  3
Layout1
350
1E
  3
Layout2
350
26
  3
Model
350
22
  0
DICTIONARY
  5
17
102
{ACAD_REACTORS
330
C
102
}
330
C
100
AcDbDictionary
281
     1
  3
Standard
350
18
  0
DICTIONARY
  5
19
102
{ACAD_REACTORS
330
C
102
}
330
C
100
AcDbDictionary
281
     1
  0
ACDBDICTIONARYWDFLT
  5
E
102
{ACAD_REACTORS
330
C
102
}
330
C
100
AcDbDictionary
281
     1
  3
Normal
350
F
100
AcDbDictionaryWithDefault
340
F
  0
DICTIONARY
  5
47
102
{ACAD_REACTORS
330
C
102
}
330
C
100
AcDbDictionary
281
     1
  3
A0
350
48
  3
A1
350
49
  3
A2
350
4A
  3
A3
350
4B
  3
A4
350
4C
  3
A5
350
4D
  3
A6
350
4E
  3
A7
350
4F
  3
A8
350
50
  3
A9
350
51
  3
B1
350
52
  3
B2
350
53
  3
B3
350
54
  3
B4
350
55
  3
B5
350
56
  3
B6
350
57
  3
B7
350
58
  0
XRECORD
  5
1F3
102
{ACAD_REACTORS
330
C
102
}
330
C
100
AcDbXrecord
280
     1
  1
DWGPROPS COOKIE
  2

  3

  4

  6

  7

  8
alekseyb
  9

300
=
301
=
302
=
303
=
304
=
305
=
306
=
307
=
308
=
309
=
 40
0.0
 41
2460482.160135498
 42
2460482.160135903
  1

 90
        0
  0
LAYOUT
  5
1E
102
{ACAD_REACTORS
330
1A
102
}
330
1A
100
AcDbPlotSettings
  1

  2
none_device
  4

  6

 40
0.0
 41
0.0
 42
0.0
 43
0.0
 44
0.0
 45
0.0
 46
0.0
 47
0.0
 48
0.0
 49
0.0
140
0.0
141
0.0
142
1.0
143
1.0
 70
   688
 72
     0
 73
     0
 74
     5
  7

 75
    16
147
1.0
148
0.0
149
0.0
100
AcDbLayout
  1
Layout1
 70
     1
 71
     1
 10
0.0
 20
0.0
 11
12.0
 21
9.0
 12
0.0
 22
0.0
 32
0.0
 14
1.0000000000E+20
 24
1.0000000000E+20
 34
1.0000000000E+20
 15
-1.0000000000E+20
 25
-1.0000000000E+20
 35
-1.0000000000E+20
146
0.0
 13
0.0
 23
0.0
 33
0.0
 16
1.0
 26
0.0
 36
0.0
 17
0.0
 27
1.0
 37
0.0
 76
     0
330
1B
  0
LAYOUT
  5
26
102
{ACAD_REACTORS
330
1A
102
}
330
1A
100
AcDbPlotSettings
  1

  2
none_device
  4

  6

 40
0.0
 41
0.0
 42
0.0
 43
0.0
 44
0.0
 45
0.0
 46
0.0
 47
0.0
 48
0.0
 49
0.0
140
0.0
141
0.0
142
1.0
143
1.0
 70
   688
 72
     0
 73
     0
 74
     5
  7

 75
    16
147
1.0
148
0.0
149
0.0
100
AcDbLayout
  1
Layout2
 70
     1
 71
     2
 10
0.0
 20
0.0
 11
0.0
 21
0.0
 12
0.0
 22
0.0
 32
0.0
 14
0.0
 24
0.0
 34
0.0
 15
0.0
 25
0.0
 35
0.0
146
0.0
 13
0.0
 23
0.0
 33
0.0
 16
1.0
 26
0.0
 36
0.0
 17
0.0
 27
1.0
 37
0.0
 76
     0
330
23
  0
LAYOUT
  5
22
102
{ACAD_REACTORS
330
1A
102
}
330
1A
100
AcDbPlotSettings
  1

  2
none_device
  4
Letter_(8.50_x_11.00_Inches)
  6

 40
6.35
 41
6.35
 42
6.35000508
 43
6.35000508
 44
215.9
 45
279.4
 46
0.0
 47
0.0
 48
0.0
 49
0.0
140
0.0
141
0.0
142
1.0
143
1.0
 70
  1712
 72
     0
 73
     0
 74
     0
  7

 75
     0
147
1.0
148
0.0
149
0.0
100
AcDbLayout
  1
Model
 70
     1
 71
     0
 10
0.0
 20
0.0
 11
22.0
 21
17.0
 12
0.0
 22
0.0
 32
0.0
 14
0.0
 24
0.0
 34
0.0
 15
22.0
 25
17.0
 35
0.0
146
0.0
 13
0.0
 23
0.0
 33
0.0
 16
1.0
 26
0.0
 36
0.0
 17
0.0
 27
1.0
 37
0.0
 76
     0
330
1F
331
29
  0
MLINESTYLE
  5
18
102
{ACAD_REACTORS
330
17
102
}
330
17
100
AcDbMlineStyle
  2
Standard
 70
     0
  3

 62
   256
 51
90.0
 52
90.0
 71
     2
 49
0.5
 62
   256
  6
BYLAYER
 49
-0.5
 62
   256
  6
BYLAYER
  0
ACDBPLACEHOLDER
  5
F
102
{ACAD_REACTORS
330
E
102
}
330
E
  0
SCALE
  5
48
102
{ACAD_REACTORS
330
47
102
}
330
47
100
AcDbScale
 70
     0
300
1:1
140
1.0
141
1.0
290
     1
  0
SCALE
  5
49
102
{ACAD_REACTORS
330
47
102
}
330
47
100
AcDbScale
 70
     0
300
1/128" = 1'-0"
140
0.0078125
141
12.0
290
     0
  0
SCALE
  5
4A
102
{ACAD_REACTORS
330
47
102
}
330
47
100
AcDbScale
 70
     0
300
1/64" = 1'-0"
140
0.015625
141
12.0
290
     0
  0
SCALE
  5
4B
102
{ACAD_REACTORS
330
47
102
}
330
47
100
AcDbScale
 70
     0
300
1/32" = 1'-0"
140
0.03125
141
12.0
290
     0
  0
SCALE
  5
4C
102
{ACAD_REACTORS
330
47
102
}
330
47
100
AcDbScale
 70
     0
300
1/16" = 1'-0"
140
0.0625
141
12.0
290
     0
  0
SCALE
  5
4D
102
{ACAD_REACTORS
330
47
102
}
330
47
100
AcDbScale
 70
     0
300
3/32" = 1'-0"
140
0.09375
141
12.0
290
     0
  0
SCALE
  5
4E
102
{ACAD_REACTORS
330
47
102
}
330
47
100
AcDbScale
 70
     0
300
1/8" = 1'-0"
140
0.125
141
12.0
290
     0
  0
SCALE
  5
4F
102
{ACAD_REACTORS
330
47
102
}
330
47
100
AcDbScale
 70
     0
300
3/16" = 1'-0"
140
0.1875
141
12.0
290
     0
  0
SCALE
  5
50
102
{ACAD_REACTORS
330
47
102
}
330
47
100
AcDbScale
 70
     0
300
1/4" = 1'-0"
140
0.25
141
12.0
290
     0
  0
SCALE
  5
51
102
{ACAD_REACTORS
330
47
102
}
330
47
100
AcDbScale
 70
     0
300
3/8" = 1'-0"
140
0.375
141
12.0
290
     0
  0
SCALE
  5
52
102
{ACAD_REACTORS
330
47
102
}
330
47
100
AcDbScale
 70
     0
300
1/2" = 1'-0"
140
0.5
141
12.0
290
     0
  0
SCALE
  5
53
102
{ACAD_REACTORS
330
47
102
}
330
47
100
AcDbScale
 70
     0
300
3/4" = 1'-0"
140
0.75
141
12.0
290
     0
  0
SCALE
  5
54
102
{ACAD_REACTORS
330
47
102
}
330
47
100
AcDbScale
 70
     0
300
1" = 1'-0"
140
1.0
141
12.0
290
     0
  0
SCALE
  5
55
102
{ACAD_REACTORS
330
47
102
}
330
47
100
AcDbScale
 70
     0
300
1-1/2" = 1'-0"
140
1.5
141
12.0
290
     0
  0
SCALE
  5
56
102
{ACAD_REACTORS
330
47
102
}
330
47
100
AcDbScale
 70
     0
300
3" = 1'-0"
140
3.0
141
12.0
290
     0
  0
SCALE
  5
57
102
{ACAD_REACTORS
330
47
102
}
330
47
100
AcDbScale
 70
     0
300
6" = 1'-0"
140
6.0
141
12.0
290
     0
  0
SCALE
  5
58
102
{ACAD_REACTORS
330
47
102
}
330
47
100
AcDbScale
 70
     0
300
1'-0" = 1'-0"
140
12.0
141
12.0
290
     0
  0
ENDSEC
  0
EOF
