  0
SECTION
  2
HEADER
  9
$ACADVER
  1
AC1015
  9
$ACADMAINTVER
 70
     6
  9
$DWGCODEPAGE
  3
ANSI_1252
  9
$INSBASE
 10
0.0
 20
0.0
 30
0.0
  9
$EXTMIN
 10
0.0
 20
0.0
 30
0.0
  9
$EXTMAX
 10
22.0
 20
17.0
 30
0.0
  9
$LIMMIN
 10
0.0
 20
0.0
  9
$LIMMAX
 10
22.0
 20
17.0
  9
$ORTHOMODE
 70
     0
  9
$REGENMODE
 70
     1
  9
$FILLMODE
 70
     1
  9
$QTEXTMODE
 70
     0
  9
$MIRRTEXT
 70
     1
  9
$LTSCALE
 40
2.0
  9
$ATTMODE
 70
     1
  9
$TEXTSIZE
 40
0.25
  9
$TRACEWID
 40
0.05
  9
$TEXTSTYLE
  7
Standard
  9
$CLAYER
  8
0
  9
$CELTYPE
  6
ByLayer
  9
$CECOLOR
 62
   256
  9
$CELTSCALE
 40
1.0
  9
$DISPSILH
 70
     0
  9
$DIMSCALE
 40
1.0
  9
$DIMASZ
 40
0.26
  9
$DIMEXO
 40
0.1
  9
$DIMDLI
 40
0.38
  9
$DIMRND
 40
0.0
  9
$DIMDLE
 40
0.0
  9
$DIMEXE
 40
0.25
  9
$DIMTP
 40
0.0
  9
$DIMTM
 40
0.0
  9
$DIMTXT
 40
0.25
  9
$DIMCEN
 40
0.09
  9
$DIMTSZ
 40
0.0
  9
$DIMTOL
 70
     0
  9
$DIMLIM
 70
     0
  9
$DIMTIH
 70
     1
  9
$DIMTOH
 70
     1
  9
$DIMSE1
 70
     0
  9
$DIMSE2
 70
     0
  9
$DIMTAD
 70
     0
  9
$DIMZIN
 70
     1
  9
$DIMBLK
  1

  9
$DIMASO
 70
     1
  9
$DIMSHO
 70
     1
  9
$DIMPOST
  1

  9
$DIMAPOST
  1

  9
$DIMALT
 70
     0
  9
$DIMALTD
 70
     2
  9
$DIMALTF
 40
25.4
  9
$DIMLFAC
 40
1.0
  9
$DIMTOFL
 70
     0
  9
$DIMTVP
 40
0.0
  9
$DIMTIX
 70
     0
  9
$DIMSOXD
 70
     0
  9
$DIMSAH
 70
     0
  9
$DIMBLK1
  1

  9
$DIMBLK2
  1

  9
$DIMSTYLE
  2
Standard
  9
$DIMCLRD
 70
     0
  9
$DIMCLRE
 70
     0
  9
$DIMCLRT
 70
     0
  9
$DIMTFAC
 40
1.0
  9
$DIMGAP
 40
0.12
  9
$DIMJUST
 70
     0
  9
$DIMSD1
 70
     0
  9
$DIMSD2
 70
     0
  9
$DIMTOLJ
 70
     1
  9
$DIMTZIN
 70
     1
  9
$DIMALTZ
 70
     0
  9
$DIMALTTZ
 70
     0
  9
$DIMUPT
 70
     0
  9
$DIMDEC
 70
     0
  9
$DIMTDEC
 70
     0
  9
$DIMALTU
 70
     2
  9
$DIMALTTD
 70
     2
  9
$DIMTXSTY
  7
Standard
  9
$DIMAUNIT
 70
     0
  9
$DIMADEC
 70
     0
  9
$DIMALTRND
 40
0.0
  9
$DIMAZIN
 70
     0
  9
$DIMDSEP
 70
    46
  9
$DIMATFIT
 70
     3
  9
$DIMFRAC
 70
     0
  9
$DIMLDRBLK
  1

  9
$DIMLUNIT
 70
     2
  9
$DIMLWD
 70
    -2
  9
$DIMLWE
 70
    -2
  9
$DIMTMOVE
 70
     0
  9
$LUNITS
 70
     2
  9
$LUPREC
 70
     6
  9
$SKETCHINC
 40
0.1
  9
$FILLETRAD
 40
0.0
  9
$AUNITS
 70
     0
  9
$AUPREC
 70
     2
  9
$MENU
  1
.
  9
$ELEVATION
 40
0.0
  9
$PELEVATION
 40
0.0
  9
$THICKNESS
 40
0.0
  9
$LIMCHECK
 70
     0
  9
$CHAMFERA
 40
0.0
  9
$CHAMFERB
 40
0.0
  9
$CHAMFERC
 40
0.0
  9
$CHAMFERD
 40
0.0
  9
$SKPOLY
 70
     0
  9
$TDCREATE
 40
2460538.144197801
  9
$TDUCREATE
 40
2460538.435864468
  9
$TDUPDATE
 40
2460538.144198438
  9
$TDUUPDATE
 40
2460538.435865104
  9
$TDINDWG
 40
0.0000000116
  9
$TDUSRTIMER
 40
0.0000000116
  9
$USRTIMER
 70
     1
  9
$ANGBASE
 50
0.0
  9
$ANGDIR
 70
     0
  9
$PDMODE
 70
     0
  9
$PDSIZE
 40
-1.0
  9
$PLINEWID
 40
0.0
  9
$SPLFRAME
 70
     0
  9
$SPLINETYPE
 70
     6
  9
$SPLINESEGS
 70
     8
  9
$HANDSEED
  5
323
  9
$SURFTAB1
 70
     6
  9
$SURFTAB2
 70
     6
  9
$SURFTYPE
 70
     6
  9
$SURFU
 70
     6
  9
$SURFV
 70
     6
  9
$UCSBASE
  2

  9
$UCSNAME
  2

  9
$UCSORG
 10
0.0
 20
0.0
 30
0.0
  9
$UCSXDIR
 10
1.0
 20
0.0
 30
0.0
  9
$UCSYDIR
 10
0.0
 20
1.0
 30
0.0
  9
$UCSORTHOREF
  2

  9
$UCSORTHOVIEW
 70
     0
  9
$UCSORGTOP
 10
0.0
 20
0.0
 30
0.0
  9
$UCSORGBOTTOM
 10
0.0
 20
0.0
 30
0.0
  9
$UCSORGLEFT
 10
0.0
 20
0.0
 30
0.0
  9
$UCSORGRIGHT
 10
0.0
 20
0.0
 30
0.0
  9
$UCSORGFRONT
 10
0.0
 20
0.0
 30
0.0
  9
$UCSORGBACK
 10
0.0
 20
0.0
 30
0.0
  9
$PUCSBASE
  2

  9
$PUCSNAME
  2

  9
$PUCSORG
 10
0.0
 20
0.0
 30
0.0
  9
$PUCSXDIR
 10
1.0
 20
0.0
 30
0.0
  9
$PUCSYDIR
 10
0.0
 20
1.0
 30
0.0
  9
$PUCSORTHOREF
  2

  9
$PUCSORTHOVIEW
 70
     0
  9
$PUCSORGTOP
 10
0.0
 20
0.0
 30
0.0
  9
$PUCSORGBOTTOM
 10
0.0
 20
0.0
 30
0.0
  9
$PUCSORGLEFT
 10
0.0
 20
0.0
 30
0.0
  9
$PUCSORGRIGHT
 10
0.0
 20
0.0
 30
0.0
  9
$PUCSORGFRONT
 10
0.0
 20
0.0
 30
0.0
  9
$PUCSORGBACK
 10
0.0
 20
0.0
 30
0.0
  9
$USERI1
 70
     0
  9
$USERI2
 70
     0
  9
$USERI3
 70
     0
  9
$USERI4
 70
     0
  9
$USERI5
 70
     0
  9
$USERR1
 40
0.0
  9
$USERR2
 40
0.0
  9
$USERR3
 40
0.0
  9
$USERR4
 40
0.0
  9
$USERR5
 40
0.0
  9
$WORLDVIEW
 70
     1
  9
$SHADEDGE
 70
     3
  9
$SHADEDIF
 70
    70
  9
$TILEMODE
 70
     1
  9
$MAXACTVP
 70
    64
  9
$PINSBASE
 10
0.0
 20
0.0
 30
0.0
  9
$PLIMCHECK
 70
     0
  9
$PEXTMIN
 10
1.0000000000E+20
 20
1.0000000000E+20
 30
1.0000000000E+20
  9
$PEXTMAX
 10
-1.0000000000E+20
 20
-1.0000000000E+20
 30
-1.0000000000E+20
  9
$PLIMMIN
 10
0.0
 20
0.0
  9
$PLIMMAX
 10
12.0
 20
9.0
  9
$UNITMODE
 70
     0
  9
$VISRETAIN
 70
     1
  9
$PLINEGEN
 70
     0
  9
$PSLTSCALE
 70
     1
  9
$TREEDEPTH
 70
  3020
  9
$CMLSTYLE
  2
Standard
  9
$CMLJUST
 70
     0
  9
$CMLSCALE
 40
1.0
  9
$PROXYGRAPHICS
 70
     1
  9
$MEASUREMENT
 70
     0
  9
$CELWEIGHT
370
    -1
  9
$ENDCAPS
280
     0
  9
$JOINSTYLE
280
     0
  9
$LWDISPLAY
290
     1
  9
$INSUNITS
 70
     1
  9
$HYPERLINKBASE
  1

  9
$STYLESHEET
  1

  9
$XEDIT
290
     1
  9
$CEPSNTYPE
380
     0
  9
$PSTYLEMODE
290
     1
  9
$FINGERPRINTGUID
  2
{e66969fc-5941-43c7-9571-270fa3146924}
  9
$VERSIONGUID
  2
{FAEB1C32-E019-11D5-929B-00C0DF256EC4}
  9
$EXTNAMES
290
     1
  9
$PSVPSCALE
 40
0.0
  9
$OLESTARTUP
290
     0
  0
ENDSEC
  0
SECTION
  2
CLASSES
  0
CLASS
  1
ACDBDICTIONARYWDFLT
  2
AcDbDictionaryWithDefault
  3
ObjectDBX Classes
 90
        0
280
     0
281
     0
  0
CLASS
  1
VISUALSTYLE
  2
AcDbVisualStyle
  3
ObjectDBX Classes
 90
     4095
280
     0
281
     0
  0
CLASS
  1
MATERIAL
  2
AcDbMaterial
  3
ObjectDBX Classes
 90
     1153
280
     0
281
     0
  0
CLASS
  1
SCALE
  2
AcDbScale
  3
ObjectDBX Classes
 90
     1153
280
     0
281
     0
  0
CLASS
  1
TABLESTYLE
  2
AcDbTableStyle
  3
ObjectDBX Classes
 90
     4095
280
     0
281
     0
  0
CLASS
  1
MLEADERSTYLE
  2
AcDbMLeaderStyle
  3
ACDB_MLEADERSTYLE_CLASS
 90
     4095
280
     0
281
     0
  0
CLASS
  1
SUN
  2
AcDbSun
  3
SCENEOE
 90
     1153
280
     0
281
     0
  0
CLASS
  1
ACDBPLACEHOLDER
  2
AcDbPlaceHolder
  3
ObjectDBX Classes
 90
        0
280
     0
281
     0
  0
CLASS
  1
LAYOUT
  2
AcDbLayout
  3
ObjectDBX Classes
 90
        0
280
     0
281
     0
  0
ENDSEC
  0
SECTION
  2
TABLES
  0
TABLE
  2
VPORT
  5
8
330
0
100
AcDbSymbolTable
 70
     1
  0
VPORT
  5
29
330
8
100
AcDbSymbolTableRecord
100
AcDbViewportTableRecord
  2
*Active
 70
     0
 10
0.0
 20
0.0
 11
1.0
 21
1.0
 12
11.0
 22
8.5
 13
0.0
 23
0.0
 14
0.5
 24
0.5
 15
0.5
 25
0.5
 16
0.0
 26
0.0
 36
1.0
 17
0.0
 27
0.0
 37
0.0
 40
17.0
 41
1.2941176471
 42
50.0
 43
0.0
 44
0.0
 50
0.0
 51
0.0
 71
     0
 72
  2000
 73
     1
 74
     3
 75
     0
 76
     0
 77
     0
 78
     0
281
     0
 65
     1
110
0.0
120
0.0
130
0.0
111
1.0
121
0.0
131
0.0
112
0.0
122
1.0
132
0.0
 79
     0
146
0.0
  0
ENDTAB
  0
TABLE
  2
LTYPE
  5
5
330
0
100
AcDbSymbolTable
 70
     6
  0
LTYPE
  5
14
330
5
100
AcDbSymbolTableRecord
100
AcDbLinetypeTableRecord
  2
ByBlock
 70
     0
  3

 72
    65
 73
     0
 40
0.0
  0
LTYPE
  5
15
330
5
100
AcDbSymbolTableRecord
100
AcDbLinetypeTableRecord
  2
ByLayer
 70
     0
  3

 72
    65
 73
     0
 40
0.0
  0
LTYPE
  5
16
330
5
100
AcDbSymbolTableRecord
100
AcDbLinetypeTableRecord
  2
Continuous
 70
     0
  3
Solid line
 72
    65
 73
     0
 40
0.0
  0
LTYPE
  5
5E
330
5
100
AcDbSymbolTableRecord
100
AcDbLinetypeTableRecord
  2
HIDDEN
 70
     0
  3
Hidden __ __ __ __ __ __ __ __ __ __ __ __ __ __
 72
    65
 73
     2
 40
0.075
 49
0.05
 74
     0
 49
-0.025
 74
     0
  0
LTYPE
  5
5F
330
5
100
AcDbSymbolTableRecord
100
AcDbLinetypeTableRecord
  2
PHANTOM
 70
     0
  3
Phantom ______  __  __  ______  __  __  ______
 72
    65
 73
     6
 40
0.5
 49
0.25
 74
     0
 49
-0.05
 74
     0
 49
0.05
 74
     0
 49
-0.05
 74
     0
 49
0.05
 74
     0
 49
-0.05
 74
     0
  0
LTYPE
  5
60
330
5
100
AcDbSymbolTableRecord
100
AcDbLinetypeTableRecord
  2
CENTER
 70
     0
  3
Center ____ _ ____ _ ____ _ ____ _ ____ _ ____
 72
    65
 73
     4
 40
0.4
 49
0.25
 74
     0
 49
-0.05
 74
     0
 49
0.05
 74
     0
 49
-0.05
 74
     0
  0
LTYPE
  5
61
330
5
100
AcDbSymbolTableRecord
100
AcDbLinetypeTableRecord
  2
CENTERX2
 70
     0
  3
Center (2x) ________  __  ________  __  _____
 72
    65
 73
     4
 40
0.8
 49
0.5
 74
     0
 49
-0.1
 74
     0
 49
0.1
 74
     0
 49
-0.1
 74
     0
  0
LTYPE
  5
62
330
5
100
AcDbSymbolTableRecord
100
AcDbLinetypeTableRecord
  2
DOT2
 70
     0
  3
Dot (.5x) ........................................
 72
    65
 73
     2
 40
0.025
 49
0.0
 74
     0
 49
-0.025
 74
     0
  0
ENDTAB
  0
TABLE
  2
LAYER
  5
2
330
0
100
AcDbSymbolTable
 70
    12
  0
LAYER
  5
10
330
2
100
AcDbSymbolTableRecord
100
AcDbLayerTableRecord
  2
0
 70
     0
 62
     7
  6
Continuous
370
    -3
390
F
  0
LAYER
  5
63
330
2
100
AcDbSymbolTableRecord
100
AcDbLayerTableRecord
  2
SLD-0
 70
     0
 62
     7
  6
Continuous
370
    -3
390
F
  0
LAYER
  5
64
330
2
100
AcDbSymbolTableRecord
100
AcDbLayerTableRecord
  2
DIM
 70
     0
 62
     7
  6
Continuous
370
    -3
390
F
  0
LAYER
  5
65
330
2
100
AcDbSymbolTableRecord
100
AcDbLayerTableRecord
  2
CEN
 70
     0
 62
     1
  6
CENTER
370
    -3
390
F
  0
LAYER
  5
66
330
2
100
AcDbSymbolTableRecord
100
AcDbLayerTableRecord
  2
HAT
 70
     0
 62
     4
  6
Continuous
370
    -3
390
F
  0
LAYER
  5
67
330
2
100
AcDbSymbolTableRecord
100
AcDbLayerTableRecord
  2
OBJ
 70
     0
 62
     5
  6
Continuous
370
    -3
390
F
  0
LAYER
  5
68
330
2
100
AcDbSymbolTableRecord
100
AcDbLayerTableRecord
  2
SLD-DEFPOINTS
 70
     0
 62
     7
  6
Continuous
370
    -3
390
F
  0
LAYER
  5
69
330
2
100
AcDbSymbolTableRecord
100
AcDbLayerTableRecord
  2
HID
 70
     0
 62
     4
  6
HIDDEN
370
    -3
390
F
  0
LAYER
  5
6A
330
2
100
AcDbSymbolTableRecord
100
AcDbLayerTableRecord
  2
NOTE
 70
     0
 62
     7
  6
Continuous
370
    -3
390
F
  0
LAYER
  5
6B
330
2
100
AcDbSymbolTableRecord
100
AcDbLayerTableRecord
  2
VP
 70
     0
 62
    -5
  6
Continuous
290
     0
370
    -3
390
F
  0
LAYER
  5
6C
330
2
100
AcDbSymbolTableRecord
100
AcDbLayerTableRecord
  2
TITLE
 70
     0
 62
     7
  6
Continuous
370
    -3
390
F
  0
LAYER
  5
6D
330
2
100
AcDbSymbolTableRecord
100
AcDbLayerTableRecord
  2
THICK_TITLE
 70
     0
 62
     7
  6
Continuous
370
   100
390
F
  0
ENDTAB
  0
TABLE
  2
STYLE
  5
3
330
0
100
AcDbSymbolTable
 70
     2
  0
STYLE
  5
11
330
3
100
AcDbSymbolTableRecord
100
AcDbTextStyleTableRecord
  2
Standard
 70
     0
 40
0.0
 41
1.0
 50
0.0
 71
     0
 42
0.25
  3
txt
  4

  0
STYLE
  5
D5
330
3
100
AcDbSymbolTableRecord
100
AcDbTextStyleTableRecord
  2
SLDTEXTSTYLE0
 70
     0
 40
0.0
 41
0.75
 50
0.0
 71
     0
 42
0.25
  3
TXT
  4

  0
ENDTAB
  0
TABLE
  2
VIEW
  5
6
330
0
100
AcDbSymbolTable
 70
     0
  0
ENDTAB
  0
TABLE
  2
UCS
  5
7
330
0
100
AcDbSymbolTable
 70
     0
  0
ENDTAB
  0
TABLE
  2
APPID
  5
9
330
0
100
AcDbSymbolTable
 70
     1
  0
APPID
  5
12
330
9
100
AcDbSymbolTableRecord
100
AcDbRegAppTableRecord
  2
ACAD
 70
     0
  0
ENDTAB
  0
TABLE
  2
DIMSTYLE
  5
A
330
0
100
AcDbSymbolTable
 70
     5
100
AcDbDimStyleTable
  0
DIMSTYLE
105
27
330
A
100
AcDbSymbolTableRecord
100
AcDbDimStyleTableRecord
  2
Standard
 70
     0
178
     0
340
11
  0
DIMSTYLE
105
D6
102
{ACAD_REACTORS
330
D4
330
E9
330
21D
330
231
330
2F9
330
30D
102
}
330
A
100
AcDbSymbolTableRecord
100
AcDbDimStyleTableRecord
  2
SLDDIMSTYLE0
 70
     0
 41
0.26
 44
0.0
 45
0.000000001
 78
    12
 79
     3
140
0.25
147
0.0625
148
0.000000001
170
     1
173
     1
178
     0
271
     6
272
     0
276
     2
277
     5
284
    12
340
D5
  0
DIMSTYLE
105
FE
102
{ACAD_REACTORS
330
FD
102
}
330
A
100
AcDbSymbolTableRecord
100
AcDbDimStyleTableRecord
  2
SLDDIMSTYLE1
 70
     0
 41
0.26
 44
0.0
 45
0.000000001
 78
    12
 79
     3
140
0.25
147
0.0625
148
0.000000001
170
     1
173
     1
178
     0
271
     0
272
     0
276
     2
277
     5
284
    12
340
D5
  0
DIMSTYLE
105
1CA
330
A
100
AcDbSymbolTableRecord
100
AcDbDimStyleTableRecord
  2
SLDDIMSTYLE2
 70
     0
 41
0.26
 44
0.0
 45
0.000000001
146
0.26
147
0.0
173
     1
178
     0
271
     0
272
     0
276
     2
277
     5
340
11
  0
DIMSTYLE
105
246
102
{ACAD_REACTORS
330
245
102
}
330
A
100
AcDbSymbolTableRecord
100
AcDbDimStyleTableRecord
  2
SLDDIMSTYLE3
 70
     0
 41
0.26
 44
0.0
 45
0.000000001
 78
    12
 79
     3
140
0.25
147
0.0625
148
0.000000001
170
     1
172
     1
173
     1
178
     0
271
     6
272
     0
276
     2
277
     5
284
    12
289
     0
340
D5
  0
ENDTAB
  0
TABLE
  2
BLOCK_RECORD
  5
1
330
0
100
AcDbSymbolTable
 70
     9
  0
BLOCK_RECORD
  5
1F
330
1
100
AcDbSymbolTableRecord
100
AcDbBlockTableRecord
  2
*Model_Space
340
22
  0
BLOCK_RECORD
  5
1B
330
1
100
AcDbSymbolTableRecord
100
AcDbBlockTableRecord
  2
*Paper_Space
340
1E
  0
BLOCK_RECORD
  5
23
330
1
100
AcDbSymbolTableRecord
100
AcDbBlockTableRecord
  2
*Paper_Space0
340
26
  0
BLOCK_RECORD
  5
D7
330
1
100
AcDbSymbolTableRecord
100
AcDbBlockTableRecord
  2
_D
340
0
  0
BLOCK_RECORD
  5
EA
330
1
100
AcDbSymbolTableRecord
100
AcDbBlockTableRecord
  2
_D_1
340
0
  0
BLOCK_RECORD
  5
FF
330
1
100
AcDbSymbolTableRecord
100
AcDbBlockTableRecord
  2
_D_2
340
0
  0
BLOCK_RECORD
  5
21E
330
1
100
AcDbSymbolTableRecord
100
AcDbBlockTableRecord
  2
_D_3
340
0
  0
BLOCK_RECORD
  5
232
330
1
100
AcDbSymbolTableRecord
100
AcDbBlockTableRecord
  2
_D_4
340
0
  0
BLOCK_RECORD
  5
247
330
1
100
AcDbSymbolTableRecord
100
AcDbBlockTableRecord
  2
_D_5
340
0
  0
BLOCK_RECORD
  5
2FA
330
1
100
AcDbSymbolTableRecord
100
AcDbBlockTableRecord
  2
_D_6
340
0
  0
BLOCK_RECORD
  5
30E
330
1
100
AcDbSymbolTableRecord
100
AcDbBlockTableRecord
  2
_D_7
340
0
  0
ENDTAB
  0
ENDSEC
  0
SECTION
  2
BLOCKS
  0
BLOCK
  5
20
330
1F
100
AcDbEntity
  8
0
100
AcDbBlockBegin
  2
*Model_Space
 70
     0
 10
0.0
 20
0.0
 30
0.0
  3
*Model_Space
  1

  0
ENDBLK
  5
21
330
1F
100
AcDbEntity
  8
0
100
AcDbBlockEnd
  0
BLOCK
  5
1C
330
1B
100
AcDbEntity
 67
     1
  8
0
100
AcDbBlockBegin
  2
*Paper_Space
 70
     0
 10
0.0
 20
0.0
 30
0.0
  3
*Paper_Space
  1

  0
ENDBLK
  5
1D
330
1B
100
AcDbEntity
 67
     1
  8
0
100
AcDbBlockEnd
  0
BLOCK
  5
24
330
23
100
AcDbEntity
  8
0
100
AcDbBlockBegin
  2
*Paper_Space0
 70
     0
 10
0.0
 20
0.0
 30
0.0
  3
*Paper_Space0
  1

  0
ENDBLK
  5
25
330
23
100
AcDbEntity
  8
0
100
AcDbBlockEnd
  0
BLOCK
  5
D8
330
D7
100
AcDbEntity
  8
0
100
AcDbBlockBegin
  2
_D
 70
     0
 10
0.0
 20
0.0
 30
0.0
  3
_D
  1

  0
SOLID
  5
DA
330
D7
100
AcDbEntity
  8
0
  6
Continuous
 62
     7
370
    18
100
AcDbTrace
 10
19.2124250415
 20
5.8999192804
 30
0.0
 11
19.1724250415
 21
5.6399192804
 31
0.0
 12
19.2524250415
 22
5.6399192804
 32
0.0
 13
19.2524250415
 23
5.6399192804
 33
0.0
  0
SOLID
  5
DB
330
D7
100
AcDbEntity
  8
0
  6
Continuous
 62
     7
370
    18
100
AcDbTrace
 10
19.2124250415
 20
2.5899192804
 30
0.0
 11
19.2524250415
 21
2.8499192804
 31
0.0
 12
19.1724250415
 22
2.8499192804
 32
0.0
 13
19.1724250415
 23
2.8499192804
 33
0.0
  0
LINE
  5
DC
330
D7
100
AcDbEntity
  8
0
  6
Continuous
 62
     7
370
     0
100
AcDbLine
 10
18.7152028271
 20
4.4801622879
 30
0.0
 11
18.6390309529
 21
4.4801622879
 31
0.0
  0
LINE
  5
DD
330
D7
100
AcDbEntity
  8
0
  6
Continuous
 62
     7
370
     0
100
AcDbLine
 10
18.6390309529
 20
4.4801622879
 30
0.0
 11
18.6390309529
 21
4.083287276
 31
0.0
  0
LINE
  5
DE
330
D7
100
AcDbEntity
  8
0
  6
Continuous
 62
     7
370
     0
100
AcDbLine
 10
18.6390309529
 20
4.083287276
 30
0.0
 11
18.7152028271
 21
4.083287276
 31
0.0
  0
LINE
  5
DF
330
D7
100
AcDbEntity
  8
0
  6
Continuous
 62
     7
370
     0
100
AcDbLine
 10
19.7096472926
 20
4.4801622879
 30
0.0
 11
19.7858191668
 21
4.4801622879
 31
0.0
  0
LINE
  5
E0
330
D7
100
AcDbEntity
  8
0
  6
Continuous
 62
     7
370
     0
100
AcDbLine
 10
19.7858191668
 20
4.4801622879
 30
0.0
 11
19.7858191668
 21
4.083287276
 31
0.0
  0
LINE
  5
E1
330
D7
100
AcDbEntity
  8
0
  6
Continuous
 62
     7
370
     0
100
AcDbLine
 10
19.7858191668
 20
4.083287276
 30
0.0
 11
19.7096472926
 21
4.083287276
 31
0.0
  0
LINE
  5
E2
330
D7
100
AcDbEntity
  8
0
  6
Continuous
 62
     7
370
     0
100
AcDbLine
 10
16.9000234667
 20
5.8999192804
 30
0.0
 11
19.4624250415
 21
5.8999192804
 31
0.0
  0
LINE
  5
E3
330
D7
100
AcDbEntity
  8
0
  6
Continuous
 62
     7
370
     0
100
AcDbLine
 10
16.9000234667
 20
2.5899192804
 30
0.0
 11
19.4624250415
 21
2.5899192804
 31
0.0
  0
LINE
  5
E4
330
D7
100
AcDbEntity
  8
0
  6
Continuous
 62
     7
370
     0
100
AcDbLine
 10
19.2124250415
 20
5.8999192804
 30
0.0
 11
19.2124250415
 21
4.8542074486
 31
0.0
  0
LINE
  5
E5
330
D7
100
AcDbEntity
  8
0
  6
Continuous
 62
     7
370
     0
100
AcDbLine
 10
19.2124250415
 20
2.5899192804
 30
0.0
 11
19.2124250415
 21
3.6356311123
 31
0.0
  0
MTEXT
  5
E6
330
D7
100
AcDbEntity
  8
0
  6
Continuous
 62
     7
370
    18
100
AcDbMText
 10
18.6723208675
 20
4.85321048
 30
0.0
 40
0.25
 41
0.0
 71
     1
 72
     1
  1
3 5/16"
  7
SLDTEXTSTYLE0
 73
     1
 44
1.0
  0
MTEXT
  5
E7
330
D7
100
AcDbEntity
  8
0
  6
Continuous
 62
     7
370
    18
100
AcDbMText
 10
18.7152028271
 20
4.4055542384
 30
0.0
 40
0.25
 41
0.0
 71
     1
 72
     1
  1
84mm
  7
SLDTEXTSTYLE0
 73
     1
 44
1.0
  0
MTEXT
  5
E8
330
D7
100
AcDbEntity
  8
0
  6
Continuous
 62
     7
370
    18
100
AcDbMText
 10
18.8398556055
 20
3.9578980381
 30
0.0
 40
0.25
 41
0.0
 71
     1
 72
     1
  1
O.C.
  7
SLDTEXTSTYLE0
 73
     1
 44
1.0
  0
ENDBLK
  5
D9
330
D7
100
AcDbEntity
  8
0
100
AcDbBlockEnd
  0
BLOCK
  5
EB
330
EA
100
AcDbEntity
  8
0
100
AcDbBlockBegin
  2
_D_1
 70
     0
 10
0.0
 20
0.0
 30
0.0
  3
_D_1
  1

  0
SOLID
  5
ED
330
EA
100
AcDbEntity
  8
0
  6
Continuous
 62
     7
370
    18
100
AcDbTrace
 10
15.2000234667
 20
7.5455907476
 30
0.0
 11
15.4600234667
 21
7.5055907476
 31
0.0
 12
15.4600234667
 22
7.5855907476
 32
0.0
 13
15.4600234667
 23
7.5855907476
 33
0.0
  0
SOLID
  5
EE
330
EA
100
AcDbEntity
  8
0
  6
Continuous
 62
     7
370
    18
100
AcDbTrace
 10
18.4000234667
 20
7.5455907476
 30
0.0
 11
18.1400234667
 21
7.5855907476
 31
0.0
 12
18.1400234667
 22
7.5055907476
 32
0.0
 13
18.1400234667
 23
7.5055907476
 33
0.0
  0
LINE
  5
EF
330
EA
100
AcDbEntity
  8
0
  6
Continuous
 62
     7
370
     0
100
AcDbLine
 10
16.3028012707
 20
7.5436809864
 30
0.0
 11
16.2266293965
 21
7.5436809864
 31
0.0
  0
LINE
  5
F0
330
EA
100
AcDbEntity
  8
0
  6
Continuous
 62
     7
370
     0
100
AcDbLine
 10
16.2266293965
 20
7.5436809864
 30
0.0
 11
16.2266293965
 21
7.1468059744
 31
0.0
  0
LINE
  5
F1
330
EA
100
AcDbEntity
  8
0
  6
Continuous
 62
     7
370
     0
100
AcDbLine
 10
16.2266293965
 20
7.1468059744
 30
0.0
 11
16.3028012707
 21
7.1468059744
 31
0.0
  0
LINE
  5
F2
330
EA
100
AcDbEntity
  8
0
  6
Continuous
 62
     7
370
     0
100
AcDbLine
 10
17.2972457361
 20
7.5436809864
 30
0.0
 11
17.3734176103
 21
7.5436809864
 31
0.0
  0
LINE
  5
F3
330
EA
100
AcDbEntity
  8
0
  6
Continuous
 62
     7
370
     0
100
AcDbLine
 10
17.3734176103
 20
7.5436809864
 30
0.0
 11
17.3734176103
 21
7.1468059744
 31
0.0
  0
LINE
  5
F4
330
EA
100
AcDbEntity
  8
0
  6
Continuous
 62
     7
370
     0
100
AcDbLine
 10
17.3734176103
 20
7.1468059744
 30
0.0
 11
17.2972457361
 21
7.1468059744
 31
0.0
  0
LINE
  5
F5
330
EA
100
AcDbEntity
  8
0
  6
Continuous
 62
     7
370
     0
100
AcDbLine
 10
15.2000234667
 20
6.8581891728
 30
0.0
 11
15.2000234667
 21
7.7955907476
 31
0.0
  0
LINE
  5
F6
330
EA
100
AcDbEntity
  8
0
  6
Continuous
 62
     7
370
     0
100
AcDbLine
 10
18.4000234667
 20
6.8581891728
 30
0.0
 11
18.4000234667
 21
7.7955907476
 31
0.0
  0
LINE
  5
F7
330
EA
100
AcDbEntity
  8
0
  6
Continuous
 62
     7
370
     0
100
AcDbLine
 10
15.2000234667
 20
7.5455907476
 30
0.0
 11
16.0073896787
 21
7.5455907476
 31
0.0
  0
LINE
  5
F8
330
EA
100
AcDbEntity
  8
0
  6
Continuous
 62
     7
370
     0
100
AcDbLine
 10
18.4000234667
 20
7.5455907476
 30
0.0
 11
17.5926572547
 21
7.5455907476
 31
0.0
  0
MTEXT
  5
F9
330
EA
100
AcDbEntity
  8
0
  6
Continuous
 62
     7
370
    18
100
AcDbMText
 10
16.1518464109
 20
7.9205486414
 30
0.0
 40
0.25
 41
0.0
 71
     1
 72
     1
  1

  7
SLDTEXTSTYLE0
 73
     1
 44
1.0
  0
MTEXT
  5
FA
330
EA
100
AcDbEntity
  8
0
  6
Continuous
 62
     7
370
    18
100
AcDbMText
 10
16.2599193111
 20
7.9167291784
 30
0.0
 40
0.25
 41
0.0
 71
     1
 72
     1
  1
3 3/16"
  7
SLDTEXTSTYLE0
 73
     1
 44
1.0
  0
MTEXT
  5
FB
330
EA
100
AcDbEntity
  8
0
  6
Continuous
 62
     7
370
    18
100
AcDbMText
 10
16.3028012707
 20
7.4690729369
 30
0.0
 40
0.25
 41
0.0
 71
     1
 72
     1
  1
81mm
  7
SLDTEXTSTYLE0
 73
     1
 44
1.0
  0
MTEXT
  5
FC
330
EA
100
AcDbEntity
  8
0
  6
Continuous
 62
     7
370
    18
100
AcDbMText
 10
17.5433394295
 20
7.9205486414
 30
0.0
 40
0.25
 41
0.0
 71
     1
 72
     1
  1

  7
SLDTEXTSTYLE0
 73
     1
 44
1.0
  0
ENDBLK
  5
EC
330
EA
100
AcDbEntity
  8
0
100
AcDbBlockEnd
  0
BLOCK
  5
100
330
FF
100
AcDbEntity
  8
0
100
AcDbBlockBegin
  2
_D_2
 70
     0
 10
0.0
 20
0.0
 30
0.0
  3
_D_2
  1

  0
SOLID
  5
102
330
FF
100
AcDbEntity
  8
0
  6
Continuous
 62
     7
370
    18
100
AcDbTrace
 10
20.6047478762
 20
6.7581891728
 30
0.0
 11
20.5647478762
 21
6.4981891728
 31
0.0
 12
20.6447478762
 22
6.4981891728
 32
0.0
 13
20.6447478762
 23
6.4981891728
 33
0.0
  0
SOLID
  5
103
330
FF
100
AcDbEntity
  8
0
  6
Continuous
 62
     7
370
    18
100
AcDbTrace
 10
20.6047478762
 20
1.731649388
 30
0.0
 11
20.6447478762
 21
1.991649388
 31
0.0
 12
20.5647478762
 22
1.991649388
 32
0.0
 13
20.5647478762
 23
1.991649388
 33
0.0
  0
LINE
  5
104
330
FF
100
AcDbEntity
  8
0
  6
Continuous
 62
     7
370
     0
100
AcDbLine
 10
20.0151645871
 20
4.2430095192
 30
0.0
 11
19.9389927129
 21
4.2430095192
 31
0.0
  0
LINE
  5
105
330
FF
100
AcDbEntity
  8
0
  6
Continuous
 62
     7
370
     0
100
AcDbLine
 10
19.9389927129
 20
4.2430095192
 30
0.0
 11
19.9389927129
 21
3.8461345072
 31
0.0
  0
LINE
  5
106
330
FF
100
AcDbEntity
  8
0
  6
Continuous
 62
     7
370
     0
100
AcDbLine
 10
19.9389927129
 20
3.8461345072
 30
0.0
 11
20.0151645871
 21
3.8461345072
 31
0.0
  0
LINE
  5
107
330
FF
100
AcDbEntity
  8
0
  6
Continuous
 62
     7
370
     0
100
AcDbLine
 10
21.1943312386
 20
4.2430095192
 30
0.0
 11
21.2705031128
 21
4.2430095192
 31
0.0
  0
LINE
  5
108
330
FF
100
AcDbEntity
  8
0
  6
Continuous
 62
     7
370
     0
100
AcDbLine
 10
21.2705031128
 20
4.2430095192
 30
0.0
 11
21.2705031128
 21
3.8461345072
 31
0.0
  0
LINE
  5
109
330
FF
100
AcDbEntity
  8
0
  6
Continuous
 62
     7
370
     0
100
AcDbLine
 10
21.2705031128
 20
3.8461345072
 30
0.0
 11
21.1943312386
 21
3.8461345072
 31
0.0
  0
LINE
  5
10A
330
FF
100
AcDbEntity
  8
0
  6
Continuous
 62
     7
370
     0
100
AcDbLine
 10
18.5000234667
 20
6.7581891728
 30
0.0
 11
20.8547478762
 21
6.7581891728
 31
0.0
  0
LINE
  5
10B
330
FF
100
AcDbEntity
  8
0
  6
Continuous
 62
     7
370
     0
100
AcDbLine
 10
18.5000234667
 20
1.731649388
 30
0.0
 11
20.8547478762
 21
1.731649388
 31
0.0
  0
LINE
  5
10C
330
FF
100
AcDbEntity
  8
0
  6
Continuous
 62
     7
370
     0
100
AcDbLine
 10
20.6047478762
 20
6.7581891728
 30
0.0
 11
20.6047478762
 21
4.6944852237
 31
0.0
  0
LINE
  5
10D
330
FF
100
AcDbEntity
  8
0
  6
Continuous
 62
     7
370
     0
100
AcDbLine
 10
20.6047478762
 20
1.731649388
 30
0.0
 11
20.6047478762
 21
3.7953533372
 31
0.0
  0
MTEXT
  5
10E
330
FF
100
AcDbEntity
  8
0
  6
Continuous
 62
     7
370
    18
100
AcDbMText
 10
19.8642097273
 20
4.6198771742
 30
0.0
 40
0.25
 41
0.0
 71
     1
 72
     1
  1

  7
SLDTEXTSTYLE0
 73
     1
 44
1.0
  0
MTEXT
  5
10F
330
FF
100
AcDbEntity
  8
0
  6
Continuous
 62
     7
370
    18
100
AcDbMText
 10
20.460824283
 20
4.6160577112
 30
0.0
 40
0.25
 41
0.0
 71
     1
 72
     1
  1
5"
  7
SLDTEXTSTYLE0
 73
     1
 44
1.0
  0
MTEXT
  5
110
330
FF
100
AcDbEntity
  8
0
  6
Continuous
 62
     7
370
    18
100
AcDbMText
 10
20.0151645871
 20
4.1684014697
 30
0.0
 40
0.25
 41
0.0
 71
     1
 72
     1
  1
128mm
  7
SLDTEXTSTYLE0
 73
     1
 44
1.0
  0
MTEXT
  5
111
330
FF
100
AcDbEntity
  8
0
  6
Continuous
 62
     7
370
    18
100
AcDbMText
 10
21.440424932
 20
4.6198771742
 30
0.0
 40
0.25
 41
0.0
 71
     1
 72
     1
  1

  7
SLDTEXTSTYLE0
 73
     1
 44
1.0
  0
ENDBLK
  5
101
330
FF
100
AcDbEntity
  8
0
100
AcDbBlockEnd
  0
BLOCK
  5
21F
330
21E
100
AcDbEntity
  8
0
100
AcDbBlockBegin
  2
_D_3
 70
     0
 10
0.0
 20
0.0
 30
0.0
  3
_D_3
  1

  0
SOLID
  5
221
330
21E
100
AcDbEntity
  8
0
  6
Continuous
 62
     7
370
    18
100
AcDbTrace
 10
11.085174745
 20
7.5323208552
 30
0.0
 11
10.825174745
 21
7.5723208552
 31
0.0
 12
10.825174745
 22
7.4923208552
 32
0.0
 13
10.825174745
 23
7.4923208552
 33
0.0
  0
SOLID
  5
222
330
21E
100
AcDbEntity
  8
0
  6
Continuous
 62
     7
370
    18
100
AcDbTrace
 10
8.137674745
 20
7.5323208552
 30
0.0
 11
8.397674745
 21
7.4923208552
 31
0.0
 12
8.397674745
 22
7.5723208552
 32
0.0
 13
8.397674745
 23
7.5723208552
 33
0.0
  0
LINE
  5
223
330
21E
100
AcDbEntity
  8
0
  6
Continuous
 62
     7
370
     0
100
AcDbLine
 10
9.1142025489
 20
7.530411094
 30
0.0
 11
9.0380306747
 21
7.530411094
 31
0.0
  0
LINE
  5
224
330
21E
100
AcDbEntity
  8
0
  6
Continuous
 62
     7
370
     0
100
AcDbLine
 10
9.0380306747
 20
7.530411094
 30
0.0
 11
9.0380306747
 21
7.133536082
 31
0.0
  0
LINE
  5
225
330
21E
100
AcDbEntity
  8
0
  6
Continuous
 62
     7
370
     0
100
AcDbLine
 10
9.0380306747
 20
7.133536082
 30
0.0
 11
9.1142025489
 21
7.133536082
 31
0.0
  0
LINE
  5
226
330
21E
100
AcDbEntity
  8
0
  6
Continuous
 62
     7
370
     0
100
AcDbLine
 10
10.1086470143
 20
7.530411094
 30
0.0
 11
10.1848188886
 21
7.530411094
 31
0.0
  0
LINE
  5
227
330
21E
100
AcDbEntity
  8
0
  6
Continuous
 62
     7
370
     0
100
AcDbLine
 10
10.1848188886
 20
7.530411094
 30
0.0
 11
10.1848188886
 21
7.133536082
 31
0.0
  0
LINE
  5
228
330
21E
100
AcDbEntity
  8
0
  6
Continuous
 62
     7
370
     0
100
AcDbLine
 10
10.1848188886
 20
7.133536082
 30
0.0
 11
10.1086470143
 21
7.133536082
 31
0.0
  0
LINE
  5
229
330
21E
100
AcDbEntity
  8
0
  6
Continuous
 62
     7
370
     0
100
AcDbLine
 10
11.085174745
 20
6.8581891728
 30
0.0
 11
11.085174745
 21
7.7823208552
 31
0.0
  0
LINE
  5
22A
330
21E
100
AcDbEntity
  8
0
  6
Continuous
 62
     7
370
     0
100
AcDbLine
 10
8.137674745
 20
6.5900777415
 30
0.0
 11
8.137674745
 21
7.7823208552
 31
0.0
  0
LINE
  5
22B
330
21E
100
AcDbEntity
  8
0
  6
Continuous
 62
     7
370
     0
100
AcDbLine
 10
11.085174745
 20
7.5323208552
 30
0.0
 11
10.4040585329
 21
7.5323208552
 31
0.0
  0
LINE
  5
22C
330
21E
100
AcDbEntity
  8
0
  6
Continuous
 62
     7
370
     0
100
AcDbLine
 10
8.137674745
 20
7.5323208552
 30
0.0
 11
8.818790957
 21
7.5323208552
 31
0.0
  0
MTEXT
  5
22D
330
21E
100
AcDbEntity
  8
0
  6
Continuous
 62
     7
370
    18
100
AcDbMText
 10
8.9632476891
 20
7.907278749
 30
0.0
 40
0.25
 41
0.0
 71
     1
 72
     1
  1

  7
SLDTEXTSTYLE0
 73
     1
 44
1.0
  0
MTEXT
  5
22E
330
21E
100
AcDbEntity
  8
0
  6
Continuous
 62
     7
370
    18
100
AcDbMText
 10
8.9789594962
 20
7.903459286
 30
0.0
 40
0.25
 41
0.0
 71
     1
 72
     1
  1
2 15/16"
  7
SLDTEXTSTYLE0
 73
     1
 44
1.0
  0
MTEXT
  5
22F
330
21E
100
AcDbEntity
  8
0
  6
Continuous
 62
     7
370
    18
100
AcDbMText
 10
9.1142025489
 20
7.4558030445
 30
0.0
 40
0.25
 41
0.0
 71
     1
 72
     1
  1
75mm
  7
SLDTEXTSTYLE0
 73
     1
 44
1.0
  0
MTEXT
  5
230
330
21E
100
AcDbEntity
  8
0
  6
Continuous
 62
     7
370
    18
100
AcDbMText
 10
10.3547407078
 20
7.907278749
 30
0.0
 40
0.25
 41
0.0
 71
     1
 72
     1
  1

  7
SLDTEXTSTYLE0
 73
     1
 44
1.0
  0
ENDBLK
  5
220
330
21E
100
AcDbEntity
  8
0
100
AcDbBlockEnd
  0
BLOCK
  5
233
330
232
100
AcDbEntity
  8
0
100
AcDbBlockBegin
  2
_D_4
 70
     0
 10
0.0
 20
0.0
 30
0.0
  3
_D_4
  1

  0
SOLID
  5
235
330
232
100
AcDbEntity
  8
0
  6
Continuous
 62
     7
370
    18
100
AcDbTrace
 10
7.2979037377
 20
6.4900777415
 30
0.0
 11
7.2579037377
 21
6.2300777415
 31
0.0
 12
7.3379037377
 22
6.2300777415
 32
0.0
 13
7.3379037377
 23
6.2300777415
 33
0.0
  0
SOLID
  5
236
330
232
100
AcDbEntity
  8
0
  6
Continuous
 62
     7
370
    18
100
AcDbTrace
 10
7.2979037377
 20
1.9997608194
 30
0.0
 11
7.3379037377
 21
2.2597608194
 31
0.0
 12
7.2579037377
 22
2.2597608194
 32
0.0
 13
7.2579037377
 23
2.2597608194
 33
0.0
  0
LINE
  5
237
330
232
100
AcDbEntity
  8
0
  6
Continuous
 62
     7
370
     0
100
AcDbLine
 10
6.7083204486
 20
4.2430095192
 30
0.0
 11
6.6321485744
 21
4.2430095192
 31
0.0
  0
LINE
  5
238
330
232
100
AcDbEntity
  8
0
  6
Continuous
 62
     7
370
     0
100
AcDbLine
 10
6.6321485744
 20
4.2430095192
 30
0.0
 11
6.6321485744
 21
3.8461345072
 31
0.0
  0
LINE
  5
239
330
232
100
AcDbEntity
  8
0
  6
Continuous
 62
     7
370
     0
100
AcDbLine
 10
6.6321485744
 20
3.8461345072
 30
0.0
 11
6.7083204486
 21
3.8461345072
 31
0.0
  0
LINE
  5
23A
330
232
100
AcDbEntity
  8
0
  6
Continuous
 62
     7
370
     0
100
AcDbLine
 10
7.8874871001
 20
4.2430095192
 30
0.0
 11
7.9636589743
 21
4.2430095192
 31
0.0
  0
LINE
  5
23B
330
232
100
AcDbEntity
  8
0
  6
Continuous
 62
     7
370
     0
100
AcDbLine
 10
7.9636589743
 20
4.2430095192
 30
0.0
 11
7.9636589743
 21
3.8461345072
 31
0.0
  0
LINE
  5
23C
330
232
100
AcDbEntity
  8
0
  6
Continuous
 62
     7
370
     0
100
AcDbLine
 10
7.9636589743
 20
3.8461345072
 30
0.0
 11
7.8874871001
 21
3.8461345072
 31
0.0
  0
LINE
  5
23D
330
232
100
AcDbEntity
  8
0
  6
Continuous
 62
     7
370
     0
100
AcDbLine
 10
8.037674745
 20
6.4900777415
 30
0.0
 11
7.0479037377
 21
6.4900777415
 31
0.0
  0
LINE
  5
23E
330
232
100
AcDbEntity
  8
0
  6
Continuous
 62
     7
370
     0
100
AcDbLine
 10
8.037674745
 20
1.9997608194
 30
0.0
 11
7.0479037377
 21
1.9997608194
 31
0.0
  0
LINE
  5
23F
330
232
100
AcDbEntity
  8
0
  6
Continuous
 62
     7
370
     0
100
AcDbLine
 10
7.2979037377
 20
6.4900777415
 30
0.0
 11
7.2979037377
 21
4.6944852237
 31
0.0
  0
LINE
  5
240
330
232
100
AcDbEntity
  8
0
  6
Continuous
 62
     7
370
     0
100
AcDbLine
 10
7.2979037377
 20
1.9997608194
 30
0.0
 11
7.2979037377
 21
3.7953533372
 31
0.0
  0
MTEXT
  5
241
330
232
100
AcDbEntity
  8
0
  6
Continuous
 62
     7
370
    18
100
AcDbMText
 10
6.5573655888
 20
4.6198771742
 30
0.0
 40
0.25
 41
0.0
 71
     1
 72
     1
  1

  7
SLDTEXTSTYLE0
 73
     1
 44
1.0
  0
MTEXT
  5
242
330
232
100
AcDbEntity
  8
0
  6
Continuous
 62
     7
370
    18
100
AcDbMText
 10
6.8501607117
 20
4.6160577112
 30
0.0
 40
0.25
 41
0.0
 71
     1
 72
     1
  1
4 1/2"
  7
SLDTEXTSTYLE0
 73
     1
 44
1.0
  0
MTEXT
  5
243
330
232
100
AcDbEntity
  8
0
  6
Continuous
 62
     7
370
    18
100
AcDbMText
 10
6.7083204486
 20
4.1684014697
 30
0.0
 40
0.25
 41
0.0
 71
     1
 72
     1
  1
114mm
  7
SLDTEXTSTYLE0
 73
     1
 44
1.0
  0
MTEXT
  5
244
330
232
100
AcDbEntity
  8
0
  6
Continuous
 62
     7
370
    18
100
AcDbMText
 10
8.1335807936
 20
4.6198771742
 30
0.0
 40
0.25
 41
0.0
 71
     1
 72
     1
  1

  7
SLDTEXTSTYLE0
 73
     1
 44
1.0
  0
ENDBLK
  5
234
330
232
100
AcDbEntity
  8
0
100
AcDbBlockEnd
  0
BLOCK
  5
248
330
247
100
AcDbEntity
  8
0
100
AcDbBlockBegin
  2
_D_5
 70
     0
 10
0.0
 20
0.0
 30
0.0
  3
_D_5
  1

  0
SOLID
  5
24A
330
247
100
AcDbEntity
  8
0
  6
Continuous
 62
     7
370
    18
100
AcDbTrace
 10
11.085174745
 20
7.5323208552
 30
0.0
 11
10.825174745
 21
7.5723208552
 31
0.0
 12
10.825174745
 22
7.4923208552
 32
0.0
 13
10.825174745
 23
7.4923208552
 33
0.0
  0
SOLID
  5
24B
330
247
100
AcDbEntity
  8
0
  6
Continuous
 62
     7
370
    18
100
AcDbTrace
 10
12.785174745
 20
7.5323208552
 30
0.0
 11
13.045174745
 21
7.4923208552
 31
0.0
 12
13.045174745
 22
7.5723208552
 32
0.0
 13
13.045174745
 23
7.5723208552
 33
0.0
  0
LINE
  5
24C
330
247
100
AcDbEntity
  8
0
  6
Continuous
 62
     7
370
     0
100
AcDbLine
 10
11.4379525489
 20
7.530411094
 30
0.0
 11
11.3617806747
 21
7.530411094
 31
0.0
  0
LINE
  5
24D
330
247
100
AcDbEntity
  8
0
  6
Continuous
 62
     7
370
     0
100
AcDbLine
 10
11.3617806747
 20
7.530411094
 30
0.0
 11
11.3617806747
 21
7.133536082
 31
0.0
  0
LINE
  5
24E
330
247
100
AcDbEntity
  8
0
  6
Continuous
 62
     7
370
     0
100
AcDbLine
 10
11.3617806747
 20
7.133536082
 30
0.0
 11
11.4379525489
 21
7.133536082
 31
0.0
  0
LINE
  5
24F
330
247
100
AcDbEntity
  8
0
  6
Continuous
 62
     7
370
     0
100
AcDbLine
 10
12.4323970143
 20
7.530411094
 30
0.0
 11
12.5085688886
 21
7.530411094
 31
0.0
  0
LINE
  5
250
330
247
100
AcDbEntity
  8
0
  6
Continuous
 62
     7
370
     0
100
AcDbLine
 10
12.5085688886
 20
7.530411094
 30
0.0
 11
12.5085688886
 21
7.133536082
 31
0.0
  0
LINE
  5
251
330
247
100
AcDbEntity
  8
0
  6
Continuous
 62
     7
370
     0
100
AcDbLine
 10
12.5085688886
 20
7.133536082
 30
0.0
 11
12.4323970143
 21
7.133536082
 31
0.0
  0
LINE
  5
252
330
247
100
AcDbEntity
  8
0
  6
Continuous
 62
     7
370
     0
100
AcDbLine
 10
11.085174745
 20
6.8581891728
 30
0.0
 11
11.085174745
 21
7.7823208552
 31
0.0
  0
LINE
  5
253
330
247
100
AcDbEntity
  8
0
  6
Continuous
 62
     7
370
     0
100
AcDbLine
 10
12.785174745
 20
3.8749192804
 30
0.0
 11
12.785174745
 21
7.7823208552
 31
0.0
  0
LINE
  5
254
330
247
100
AcDbEntity
  8
0
  6
Continuous
 62
     7
370
     0
100
AcDbLine
 10
11.085174745
 20
7.5323208552
 30
0.0
 11
10.585174745
 21
7.5323208552
 31
0.0
  0
LINE
  5
255
330
247
100
AcDbEntity
  8
0
  6
Continuous
 62
     7
370
     0
100
AcDbLine
 10
12.785174745
 20
7.5323208552
 30
0.0
 11
13.285174745
 21
7.5323208552
 31
0.0
  0
MTEXT
  5
256
330
247
100
AcDbEntity
  8
0
  6
Continuous
 62
     7
370
    18
100
AcDbMText
 10
11.2869976891
 20
7.907278749
 30
0.0
 40
0.25
 41
0.0
 71
     1
 72
     1
  1

  7
SLDTEXTSTYLE0
 73
     1
 44
1.0
  0
MTEXT
  5
257
330
247
100
AcDbEntity
  8
0
  6
Continuous
 62
     7
370
    18
100
AcDbMText
 10
11.3027094962
 20
7.903459286
 30
0.0
 40
0.25
 41
0.0
 71
     1
 72
     1
  1
1 11/16"
  7
SLDTEXTSTYLE0
 73
     1
 44
1.0
  0
MTEXT
  5
258
330
247
100
AcDbEntity
  8
0
  6
Continuous
 62
     7
370
    18
100
AcDbMText
 10
11.4379525489
 20
7.4558030445
 30
0.0
 40
0.25
 41
0.0
 71
     1
 72
     1
  1
43mm
  7
SLDTEXTSTYLE0
 73
     1
 44
1.0
  0
MTEXT
  5
259
330
247
100
AcDbEntity
  8
0
  6
Continuous
 62
     7
370
    18
100
AcDbMText
 10
12.6784907078
 20
7.907278749
 30
0.0
 40
0.25
 41
0.0
 71
     1
 72
     1
  1

  7
SLDTEXTSTYLE0
 73
     1
 44
1.0
  0
ENDBLK
  5
249
330
247
100
AcDbEntity
  8
0
100
AcDbBlockEnd
  0
BLOCK
  5
2FB
330
2FA
100
AcDbEntity
  8
0
100
AcDbBlockBegin
  2
_D_6
 70
     0
 10
0.0
 20
0.0
 30
0.0
  3
_D_6
  1

  0
SOLID
  5
2FD
330
2FA
100
AcDbEntity
  8
0
  6
Continuous
 62
     7
370
    18
100
AcDbTrace
 10
1.4231264849
 20
1.8888397956
 30
0.0
 11
1.4631264849
 21
2.1488397956
 31
0.0
 12
1.3831264849
 22
2.1488397956
 32
0.0
 13
1.3831264849
 23
2.1488397956
 33
0.0
  0
SOLID
  5
2FE
330
2FA
100
AcDbEntity
  8
0
  6
Continuous
 62
     7
370
    18
100
AcDbTrace
 10
1.4231264849
 20
6.6009987653
 30
0.0
 11
1.3831264849
 21
6.3409987653
 31
0.0
 12
1.4631264849
 22
6.3409987653
 32
0.0
 13
1.4631264849
 23
6.3409987653
 33
0.0
  0
LINE
  5
2FF
330
2FA
100
AcDbEntity
  8
0
  6
Continuous
 62
     7
370
     0
100
AcDbLine
 10
0.8335431958
 20
4.2430095192
 30
0.0
 11
0.7573713216
 21
4.2430095192
 31
0.0
  0
LINE
  5
300
330
2FA
100
AcDbEntity
  8
0
  6
Continuous
 62
     7
370
     0
100
AcDbLine
 10
0.7573713216
 20
4.2430095192
 30
0.0
 11
0.7573713216
 21
3.8461345072
 31
0.0
  0
LINE
  5
301
330
2FA
100
AcDbEntity
  8
0
  6
Continuous
 62
     7
370
     0
100
AcDbLine
 10
0.7573713216
 20
3.8461345072
 30
0.0
 11
0.8335431958
 21
3.8461345072
 31
0.0
  0
LINE
  5
302
330
2FA
100
AcDbEntity
  8
0
  6
Continuous
 62
     7
370
     0
100
AcDbLine
 10
2.0127098473
 20
4.2430095192
 30
0.0
 11
2.0888817215
 21
4.2430095192
 31
0.0
  0
LINE
  5
303
330
2FA
100
AcDbEntity
  8
0
  6
Continuous
 62
     7
370
     0
100
AcDbLine
 10
2.0888817215
 20
4.2430095192
 30
0.0
 11
2.0888817215
 21
3.8461345072
 31
0.0
  0
LINE
  5
304
330
2FA
100
AcDbEntity
  8
0
  6
Continuous
 62
     7
370
     0
100
AcDbLine
 10
2.0888817215
 20
3.8461345072
 30
0.0
 11
2.0127098473
 21
3.8461345072
 31
0.0
  0
LINE
  5
305
330
2FA
100
AcDbEntity
  8
0
  6
Continuous
 62
     7
370
     0
100
AcDbLine
 10
2.5829690046
 20
1.8888397956
 30
0.0
 11
1.1731264849
 21
1.8888397956
 31
0.0
  0
LINE
  5
306
330
2FA
100
AcDbEntity
  8
0
  6
Continuous
 62
     7
370
     0
100
AcDbLine
 10
2.5829690046
 20
6.6009987653
 30
0.0
 11
1.1731264849
 21
6.6009987653
 31
0.0
  0
LINE
  5
307
330
2FA
100
AcDbEntity
  8
0
  6
Continuous
 62
     7
370
     0
100
AcDbLine
 10
1.4231264849
 20
1.8888397956
 30
0.0
 11
1.4231264849
 21
3.7953533372
 31
0.0
  0
LINE
  5
308
330
2FA
100
AcDbEntity
  8
0
  6
Continuous
 62
     7
370
     0
100
AcDbLine
 10
1.4231264849
 20
6.6009987653
 30
0.0
 11
1.4231264849
 21
4.6944852237
 31
0.0
  0
MTEXT
  5
309
330
2FA
100
AcDbEntity
  8
0
  6
Continuous
 62
     7
370
    18
100
AcDbMText
 10
0.682588336
 20
4.6198771742
 30
0.0
 40
0.25
 41
0.0
 71
     1
 72
     1
  1

  7
SLDTEXTSTYLE0
 73
     1
 44
1.0
  0
MTEXT
  5
30A
330
2FA
100
AcDbEntity
  8
0
  6
Continuous
 62
     7
370
    18
100
AcDbMText
 10
0.7906612362
 20
4.6160577112
 30
0.0
 40
0.25
 41
0.0
 71
     1
 72
     1
  1
4 11/16"
  7
SLDTEXTSTYLE0
 73
     1
 44
1.0
  0
MTEXT
  5
30B
330
2FA
100
AcDbEntity
  8
0
  6
Continuous
 62
     7
370
    18
100
AcDbMText
 10
0.8335431958
 20
4.1684014697
 30
0.0
 40
0.25
 41
0.0
 71
     1
 72
     1
  1
120mm
  7
SLDTEXTSTYLE0
 73
     1
 44
1.0
  0
MTEXT
  5
30C
330
2FA
100
AcDbEntity
  8
0
  6
Continuous
 62
     7
370
    18
100
AcDbMText
 10
2.2588035407
 20
4.6198771742
 30
0.0
 40
0.25
 41
0.0
 71
     1
 72
     1
  1

  7
SLDTEXTSTYLE0
 73
     1
 44
1.0
  0
ENDBLK
  5
2FC
330
2FA
100
AcDbEntity
  8
0
100
AcDbBlockEnd
  0
BLOCK
  5
30F
330
30E
100
AcDbEntity
  8
0
100
AcDbBlockBegin
  2
_D_7
 70
     0
 10
0.0
 20
0.0
 30
0.0
  3
_D_7
  1

  0
SOLID
  5
311
330
30E
100
AcDbEntity
  8
0
  6
Continuous
 62
     7
370
    18
100
AcDbTrace
 10
2.6829690046
 20
7.3884003401
 30
0.0
 11
2.9429690046
 21
7.3484003401
 31
0.0
 12
2.9429690046
 22
7.4284003401
 32
0.0
 13
2.9429690046
 23
7.4284003401
 33
0.0
  0
SOLID
  5
312
330
30E
100
AcDbEntity
  8
0
  6
Continuous
 62
     7
370
    18
100
AcDbTrace
 10
5.6351279743
 20
7.3884003401
 30
0.0
 11
5.3751279743
 21
7.4284003401
 31
0.0
 12
5.3751279743
 22
7.3484003401
 32
0.0
 13
5.3751279743
 23
7.3484003401
 33
0.0
  0
LINE
  5
313
330
30E
100
AcDbEntity
  8
0
  6
Continuous
 62
     7
370
     0
100
AcDbLine
 10
3.6618262934
 20
7.3864905788
 30
0.0
 11
3.5856544191
 21
7.3864905788
 31
0.0
  0
LINE
  5
314
330
30E
100
AcDbEntity
  8
0
  6
Continuous
 62
     7
370
     0
100
AcDbLine
 10
3.5856544191
 20
7.3864905788
 30
0.0
 11
3.5856544191
 21
6.9896155669
 31
0.0
  0
LINE
  5
315
330
30E
100
AcDbEntity
  8
0
  6
Continuous
 62
     7
370
     0
100
AcDbLine
 10
3.5856544191
 20
6.9896155669
 30
0.0
 11
3.6618262934
 21
6.9896155669
 31
0.0
  0
LINE
  5
316
330
30E
100
AcDbEntity
  8
0
  6
Continuous
 62
     7
370
     0
100
AcDbLine
 10
4.6562707588
 20
7.3864905788
 30
0.0
 11
4.732442633
 21
7.3864905788
 31
0.0
  0
LINE
  5
317
330
30E
100
AcDbEntity
  8
0
  6
Continuous
 62
     7
370
     0
100
AcDbLine
 10
4.732442633
 20
7.3864905788
 30
0.0
 11
4.732442633
 21
6.9896155669
 31
0.0
  0
LINE
  5
318
330
30E
100
AcDbEntity
  8
0
  6
Continuous
 62
     7
370
     0
100
AcDbLine
 10
4.732442633
 20
6.9896155669
 30
0.0
 11
4.6562707588
 21
6.9896155669
 31
0.0
  0
LINE
  5
319
330
30E
100
AcDbEntity
  8
0
  6
Continuous
 62
     7
370
     0
100
AcDbLine
 10
2.6829690046
 20
6.7009987653
 30
0.0
 11
2.6829690046
 21
7.6384003401
 31
0.0
  0
LINE
  5
31A
330
30E
100
AcDbEntity
  8
0
  6
Continuous
 62
     7
370
     0
100
AcDbLine
 10
5.6351279743
 20
6.7009987653
 30
0.0
 11
5.6351279743
 21
7.6384003401
 31
0.0
  0
LINE
  5
31B
330
30E
100
AcDbEntity
  8
0
  6
Continuous
 62
     7
370
     0
100
AcDbLine
 10
2.6829690046
 20
7.3884003401
 30
0.0
 11
3.3664147014
 21
7.3884003401
 31
0.0
  0
LINE
  5
31C
330
30E
100
AcDbEntity
  8
0
  6
Continuous
 62
     7
370
     0
100
AcDbLine
 10
5.6351279743
 20
7.3884003401
 30
0.0
 11
4.9516822774
 21
7.3884003401
 31
0.0
  0
MTEXT
  5
31D
330
30E
100
AcDbEntity
  8
0
  6
Continuous
 62
     7
370
    18
100
AcDbMText
 10
3.5108714335
 20
7.7633582338
 30
0.0
 40
0.25
 41
0.0
 71
     1
 72
     1
  1

  7
SLDTEXTSTYLE0
 73
     1
 44
1.0
  0
MTEXT
  5
31E
330
30E
100
AcDbEntity
  8
0
  6
Continuous
 62
     7
370
    18
100
AcDbMText
 10
3.5265832407
 20
7.7595387709
 30
0.0
 40
0.25
 41
0.0
 71
     1
 72
     1
  1
2 15/16"
  7
SLDTEXTSTYLE0
 73
     1
 44
1.0
  0
MTEXT
  5
31F
330
30E
100
AcDbEntity
  8
0
  6
Continuous
 62
     7
370
    18
100
AcDbMText
 10
3.6618262934
 20
7.3118825293
 30
0.0
 40
0.25
 41
0.0
 71
     1
 72
     1
  1
75mm
  7
SLDTEXTSTYLE0
 73
     1
 44
1.0
  0
MTEXT
  5
320
330
30E
100
AcDbEntity
  8
0
  6
Continuous
 62
     7
370
    18
100
AcDbMText
 10
4.9023644522
 20
7.7633582338
 30
0.0
 40
0.25
 41
0.0
 71
     1
 72
     1
  1

  7
SLDTEXTSTYLE0
 73
     1
 44
1.0
  0
ENDBLK
  5
310
330
30E
100
AcDbEntity
  8
0
100
AcDbBlockEnd
  0
ENDSEC
  0
SECTION
  2
ENTITIES
  0
LINE
  5
6E
330
1F
100
AcDbEntity
  8
0
  6
Continuous
 62
     7
370
    25
100
AcDbLine
 10
15.8664941967
 20
3.7635292614
 30
0.0
 11
15.7849978775
 21
4.8926288871
 31
0.0
  0
ELLIPSE
  5
6F
330
1F
100
AcDbEntity
  8
0
  6
Continuous
 62
     7
370
    25
100
AcDbEllipse
 10
15.9746438107
 20
4.8530126404
 30
0.0
 11
-0.0339108041209908
 21
0.4698209269473992
 31
0.0
210
0.0
220
0.0
230
1.0
 40
0.3980527077
 41
6.23735550548663
 42
7.740871473673454
  0
LINE
  5
70
330
1F
100
AcDbEntity
  8
0
  6
Continuous
 62
     7
370
    25
100
AcDbLine
 10
15.9493364042
 20
5.3229586619
 30
0.0
 11
16.0610710189
 21
3.7749192804
 31
0.0
  0
ELLIPSE
  5
71
330
1F
100
AcDbEntity
  8
0
  6
Continuous
 62
     7
370
    25
100
AcDbEllipse
 10
16.0533399564
 20
3.7627083235
 30
0.0
 11
0.1879494542362785
 21
0.0005044077137159597
 31
0.0
210
0.0
220
0.0
230
1.0
 40
0.064913913
 41
1.529476774672295
 42
3.03299274285917
  0
LINE
  5
72
330
1F
100
AcDbEntity
  8
0
  6
Continuous
 62
     7
370
    25
100
AcDbLine
 10
17.6507105292
 20
5.3229586619
 30
0.0
 11
15.9493364042
 21
5.3229586619
 31
0.0
  0
LINE
  5
73
330
1F
100
AcDbEntity
  8
0
  6
Continuous
 62
     7
370
    25
100
AcDbLine
 10
17.5389759146
 20
3.7749192804
 30
0.0
 11
17.6507105292
 21
5.3229586619
 31
0.0
  0
LINE
  5
74
330
1F
100
AcDbEntity
  8
0
  6
Continuous
 62
     7
370
    25
100
AcDbLine
 10
16.0610710189
 20
3.7749192804
 30
0.0
 11
17.5389759146
 21
3.7749192804
 31
0.0
  0
SPLINE
  5
75
330
1F
100
AcDbEntity
  8
0
  6
Continuous
 62
     7
370
    25
100
AcDbSpline
210
0.0
220
0.0
230
1.0
 70
     8
 71
     3
 72
    12
 73
     8
 74
     0
 42
0.00000001
 43
0.00000001
 40
0.0
 40
0.0
 40
0.0
 40
0.0
 40
0.1136951600544258
 40
0.3084101736815797
 40
0.5596870108849095
 40
0.8077104287747711
 40
1.0
 40
1.0
 40
1.0
 40
1.0
 10
17.4787958982249
 20
3.761315784222516
 30
0.0
 10
17.47824313115713
 20
3.761643530383177
 30
0.0
 10
17.47674369189079
 20
3.762532576586063
 30
0.0
 10
17.46304580710601
 20
3.764025624472064
 30
0.0
 10
17.43693047820774
 20
3.765507702370233
 30
0.0
 10
17.40323259992622
 20
3.766561738268365
 30
0.0
 10
17.37897148417757
 20
3.766712711002828
 30
0.0
 10
17.36837638555436
 20
3.766778642472247
 30
0.0
  0
LINE
  5
76
330
1F
100
AcDbEntity
  8
0
  6
Continuous
 62
     7
370
    25
100
AcDbLine
 10
16.2316705479
 20
3.7667786425
 30
0.0
 11
17.3683763856
 21
3.7667786425
 31
0.0
  0
SPLINE
  5
77
330
1F
100
AcDbEntity
  8
0
  6
Continuous
 62
     7
370
    25
100
AcDbSpline
210
0.0
220
0.0
230
1.0
 70
     8
 71
     3
 72
    12
 73
     8
 74
     0
 42
0.00000001
 43
0.00000001
 40
0.0
 40
0.0
 40
0.0
 40
0.0
 40
0.0862419471497791
 40
0.3499188471355697
 40
0.5808813424221121
 40
0.8066438175405654
 40
1.0
 40
1.0
 40
1.0
 40
1.0
 10
16.2316705478911
 20
3.766778642472247
 30
0.0
 10
16.22692432597002
 20
3.766764403849227
 30
0.0
 10
16.20766696272905
 20
3.766706631932929
 30
0.0
 10
16.17716272046344
 20
3.766025389246171
 30
0.0
 10
16.14685520413803
 20
3.764677964658211
 30
0.0
 10
16.12602887365721
 20
3.763080593575135
 30
0.0
 10
16.12275938224179
 20
3.761872928413387
 30
0.0
 10
16.12125103522063
 20
3.761315784222493
 30
0.0
  0
ELLIPSE
  5
78
330
1F
100
AcDbEntity
  8
0
  6
Continuous
 62
     7
370
    25
100
AcDbEllipse
 10
16.8000234667
 20
3.6322998878
 30
0.0
 11
1.065814103640150E-14
 21
0.9193961754804234
 31
0.0
210
0.0
220
0.0
230
1.0
 40
0.7456587883
 41
1.430004883296265
 42
1.487579429976953
  0
LINE
  5
79
330
1F
100
AcDbEntity
  8
0
  6
Continuous
 62
     7
370
    25
100
AcDbLine
 10
15.732708209
 20
3.7087209099
 30
0.0
 11
16.1168400139
 21
3.7087209099
 31
0.0
  0
ELLIPSE
  5
7A
330
1F
100
AcDbEntity
  8
0
  6
Continuous
 62
     7
370
    25
100
AcDbEllipse
 10
15.5982113716
 20
3.7155674704
 30
0.0
 11
0.1875
 21
0.0
 31
0.0
210
0.0
220
0.0
230
1.0
 40
0.0524077793
 41
5.512332107964196
 42
6.195918844580204
  0
LINE
  5
7B
330
1F
100
AcDbEntity
  8
0
  6
Continuous
 62
     7
370
    25
100
AcDbLine
 10
15.7849978775
 20
3.7147110381
 30
0.0
 11
15.8664941967
 21
3.7635292614
 31
0.0
  0
ELLIPSE
  5
7C
330
1F
100
AcDbEntity
  8
0
  6
Continuous
 62
     7
370
    25
100
AcDbEllipse
 10
17.5467069771
 20
3.7627083235
 30
0.0
 11
0.1879494542362821
 21
-0.0005044077137164039
 31
0.0
210
0.0
220
0.0
230
1.0
 40
0.064913913
 41
0.1085999107305905
 42
1.612115878917497
  0
LINE
  5
7D
330
1F
100
AcDbEntity
  8
0
  6
Continuous
 62
     7
370
    25
100
AcDbLine
 10
17.815049056
 20
3.7147110381
 30
0.0
 11
17.7335527367
 21
3.7635292614
 31
0.0
  0
ELLIPSE
  5
7E
330
1F
100
AcDbEntity
  8
0
  6
Continuous
 62
     7
370
    25
100
AcDbEllipse
 10
18.0018355619
 20
3.7155674704
 30
0.0
 11
0.1875
 21
0.0
 31
0.0
210
0.0
220
0.0
230
1.0
 40
0.0524077793
 41
3.228859116189799
 42
3.912445852805456
  0
LINE
  5
7F
330
1F
100
AcDbEntity
  8
0
  6
Continuous
 62
     7
370
    25
100
AcDbLine
 10
17.4832069195
 20
3.7087209099
 30
0.0
 11
17.8673387244
 21
3.7087209099
 31
0.0
  0
ELLIPSE
  5
80
330
1F
100
AcDbEntity
  8
0
  6
Continuous
 62
     7
370
    25
100
AcDbEllipse
 10
16.8000234667
 20
3.6322998878
 30
0.0
 11
1.065814103640150E-14
 21
0.9193961754804234
 31
0.0
210
0.0
220
0.0
230
1.0
 40
0.7456587883
 41
4.795605877202662
 42
4.853180423883357
  0
ELLIPSE
  5
81
330
1F
100
AcDbEntity
  8
0
  6
Continuous
 62
     7
370
    25
100
AcDbEllipse
 10
17.6254031228
 20
4.8530126404
 30
0.0
 11
0.03391080412098901
 21
0.4698209269473992
 31
0.0
210
0.0
220
0.0
230
1.0
 40
0.3980527077
 41
4.825499140685723
 42
6.329015108872567
  0
LINE
  5
82
330
1F
100
AcDbEntity
  8
0
  6
Continuous
 62
     7
370
    25
100
AcDbLine
 10
17.815049056
 20
4.8926288871
 30
0.0
 11
17.7335527367
 21
3.7635292614
 31
0.0
  0
LINE
  5
83
330
1F
100
AcDbEntity
  8
0
  6
Continuous
 62
     7
370
    25
100
AcDbLine
 10
15.7849978775
 20
4.8926288871
 30
0.0
 11
15.7849978775
 21
3.7147110381
 31
0.0
  0
LINE
  5
84
330
1F
100
AcDbEntity
  8
0
  6
Continuous
 62
     7
370
    25
100
AcDbLine
 10
17.815049056
 20
3.7147110381
 30
0.0
 11
17.815049056
 21
4.8926288871
 31
0.0
  0
ELLIPSE
  5
85
330
1F
100
AcDbEntity
  8
0
  6
Continuous
 62
     7
370
    25
100
AcDbEllipse
 10
15.9746438107
 20
4.8530126404
 30
0.0
 11
0.04248760103774885
 21
-0.5886490934306893
 31
0.0
210
0.0
220
0.0
230
1.0
 40
0.6353988963
 41
3.095762851896801
 42
4.59927882008367
  0
LINE
  5
86
330
1F
100
AcDbEntity
  8
0
  6
Continuous
 62
     7
370
    25
100
AcDbLine
 10
15.9493364042
 20
5.4422804659
 30
0.0
 11
15.9493364042
 21
5.3229586619
 31
0.0
  0
LINE
  5
87
330
1F
100
AcDbEntity
  8
0
  6
Continuous
 62
     7
370
    25
100
AcDbLine
 10
15.5982113716
 20
4.8926288871
 30
0.0
 11
15.7849978775
 21
4.8926288871
 31
0.0
  0
SPLINE
  5
88
330
1F
100
AcDbEntity
  8
0
  6
Continuous
 62
     7
370
    25
100
AcDbSpline
210
0.0
220
0.0
230
1.0
 70
     8
 71
     3
 72
    12
 73
     8
 74
     0
 42
0.00000001
 43
0.00000001
 40
0.0
 40
0.0
 40
0.0
 40
0.0
 40
0.0033430257113474
 40
0.3973713279391151
 40
0.577418940361317
 40
0.7571812768126518
 40
1.0
 40
1.0
 40
1.0
 40
1.0
 10
15.59821137159446
 20
3.64880313777945
 30
0.0
 10
15.59836902203246
 20
3.648892317252359
 30
0.0
 10
15.61710826286028
 20
3.659492704038102
 30
0.0
 10
15.64457405862341
 20
3.675086884804891
 30
0.0
 10
15.67907998423425
 20
3.692237078689731
 30
0.0
 10
15.70607622667023
 20
3.704026856264295
 30
0.0
 10
15.72298962462719
 20
3.707007948527423
 30
0.0
 10
15.73270820903365
 20
3.708720909864724
 30
0.0
  0
LINE
  5
89
330
1F
100
AcDbEntity
  8
0
  6
Continuous
 62
     7
370
    25
100
AcDbLine
 10
15.5982113716
 20
3.6488031378
 30
0.0
 11
15.5982113716
 21
4.8926288871
 31
0.0
  0
LINE
  5
8A
330
1F
100
AcDbEntity
  8
0
  6
Continuous
 62
     7
370
    25
100
AcDbLine
 10
17.815049056
 20
4.8926288871
 30
0.0
 11
18.0018355619
 21
4.8926288871
 31
0.0
  0
LINE
  5
8B
330
1F
100
AcDbEntity
  8
0
  6
Continuous
 62
     7
370
    25
100
AcDbLine
 10
18.0018355619
 20
4.8926288871
 30
0.0
 11
18.0018355619
 21
3.6488031378
 31
0.0
  0
SPLINE
  5
8C
330
1F
100
AcDbEntity
  8
0
  6
Continuous
 62
     7
370
    25
100
AcDbSpline
210
0.0
220
0.0
230
1.0
 70
     8
 71
     3
 72
    12
 73
     8
 74
     0
 42
0.00000001
 43
0.00000001
 40
0.0
 40
0.0
 40
0.0
 40
0.0
 40
0.2428187231873473
 40
0.4225810596386818
 40
0.6026286720608812
 40
0.9966569742886698
 40
1.0
 40
1.0
 40
1.0
 40
1.0
 10
17.86733872441179
 20
3.708720909864724
 30
0.0
 10
17.87705730881826
 20
3.707007948527425
 30
0.0
 10
17.89397070677522
 20
3.704026856264299
 30
0.0
 10
17.92096694921119
 20
3.69223707868972
 30
0.0
 10
17.95547287482207
 20
3.675086884804958
 30
0.0
 10
17.98293867058499
 20
3.659492704037765
 30
0.0
 10
18.00167791141299
 20
3.648892317252356
 30
0.0
 10
18.00183556185099
 20
3.64880313777945
 30
0.0
  0
LINE
  5
8D
330
1F
100
AcDbEntity
  8
0
  6
Continuous
 62
     7
370
    25
100
AcDbLine
 10
17.6507105292
 20
5.4422804659
 30
0.0
 11
17.6507105292
 21
5.3229586619
 31
0.0
  0
ELLIPSE
  5
8E
330
1F
100
AcDbEntity
  8
0
  6
Continuous
 62
     7
370
    25
100
AcDbEllipse
 10
17.6254031228
 20
4.8530126404
 30
0.0
 11
-0.0424876010377453
 21
-0.5886490934306893
 31
0.0
210
0.0
220
0.0
230
1.0
 40
0.6353988963
 41
1.68390648709592
 42
3.187422455282784
  0
LINE
  5
8F
330
1F
100
AcDbEntity
  8
0
  6
Continuous
 62
     7
370
    25
100
AcDbLine
 10
16.1657154357
 20
3.6488031378
 30
0.0
 11
15.5982113716
 21
3.6488031378
 31
0.0
  0
SPLINE
  5
90
330
1F
100
AcDbEntity
  8
0
  6
Continuous
 62
     7
370
    25
100
AcDbSpline
210
0.0
220
0.0
230
1.0
 70
     8
 71
     3
 72
    12
 73
     8
 74
     0
 42
0.00000001
 43
0.00000001
 40
0.0
 40
0.0
 40
0.0
 40
0.0
 40
0.1600790803384807
 40
0.3196958662549103
 40
0.4898401585225088
 40
0.7448367427095682
 40
1.0
 40
1.0
 40
1.0
 40
1.0
 10
16.1168400139157
 20
3.708720909864724
 30
0.0
 10
16.11719330125558
 20
3.707951022696908
 30
0.0
 10
16.11789885567232
 20
3.706413471728268
 30
0.0
 10
16.12353294332475
 20
3.69849452034421
 30
0.0
 10
16.13310721858
 20
3.686060516688609
 30
0.0
 10
16.14745169747873
 20
3.668687114416797
 30
0.0
 10
16.1596261970934
 20
3.655432573445041
 30
0.0
 10
16.16571543565157
 20
3.64880313777945
 30
0.0
  0
LINE
  5
91
330
1F
100
AcDbEntity
  8
0
  6
Continuous
 62
     7
370
    25
100
AcDbLine
 10
18.0018355619
 20
3.6488031378
 30
0.0
 11
17.4343314978
 21
3.6488031378
 31
0.0
  0
SPLINE
  5
92
330
1F
100
AcDbEntity
  8
0
  6
Continuous
 62
     7
370
    25
100
AcDbSpline
210
0.0
220
0.0
230
1.0
 70
     8
 71
     3
 72
    12
 73
     8
 74
     0
 42
0.00000001
 43
0.00000001
 40
0.0
 40
0.0
 40
0.0
 40
0.0
 40
0.2872006750251416
 40
0.5288528268930297
 40
0.7209229923002605
 40
0.8835817970509431
 40
1.0
 40
1.0
 40
1.0
 40
1.0
 10
17.43433149779388
 20
3.64880313777945
 30
0.0
 10
17.44118638906992
 20
3.656287612085016
 30
0.0
 10
17.45380902176067
 20
3.670069562263096
 30
0.0
 10
17.46867589004484
 20
3.688232244405118
 30
0.0
 10
17.47801246181644
 20
3.700512142001326
 30
0.0
 10
17.48258103582285
 20
3.707137140387951
 30
0.0
 10
17.48302268403346
 20
3.708254710549519
 30
0.0
 10
17.48320691952975
 20
3.708720909864724
 30
0.0
  0
LINE
  5
93
330
1F
100
AcDbEntity
  8
0
  6
Continuous
 62
     7
370
    25
100
AcDbLine
 10
15.9493364042
 20
5.4422804659
 30
0.0
 11
17.6507105292
 21
5.4422804659
 31
0.0
  0
LINE
  5
94
330
1F
100
AcDbEntity
  8
0
  6
Continuous
 62
     7
370
    25
100
AcDbLine
 10
15.2000234667
 20
1.7738899437
 30
0.0
 11
18.4000234667
 21
1.7738899437
 31
0.0
  0
LINE
  5
95
330
1F
100
AcDbEntity
  8
0
  6
Continuous
 62
     7
370
    25
100
AcDbLine
 10
18.4000234667
 20
1.7439082189
 30
0.0
 11
18.4000234667
 21
1.7738899437
 31
0.0
  0
LINE
  5
96
330
1F
100
AcDbEntity
  8
0
  6
Continuous
 62
     7
370
    25
100
AcDbLine
 10
18.4000234667
 20
1.7439082189
 30
0.0
 11
15.2000234667
 21
1.7439082189
 31
0.0
  0
LINE
  5
97
330
1F
100
AcDbEntity
  8
0
  6
Continuous
 62
     7
370
    25
100
AcDbLine
 10
15.2000234667
 20
1.7738899437
 30
0.0
 11
15.2000234667
 21
1.7439082189
 31
0.0
  0
LINE
  5
98
330
1F
100
AcDbEntity
  8
0
  6
Continuous
 62
     7
370
    25
100
AcDbLine
 10
15.2000234667
 20
6.745930342
 30
0.0
 11
18.4000234667
 21
6.745930342
 31
0.0
  0
LINE
  5
99
330
1F
100
AcDbEntity
  8
0
  6
Continuous
 62
     7
370
    25
100
AcDbLine
 10
18.4000234667
 20
6.7159486172
 30
0.0
 11
18.4000234667
 21
6.745930342
 31
0.0
  0
LINE
  5
9A
330
1F
100
AcDbEntity
  8
0
  6
Continuous
 62
     7
370
    25
100
AcDbLine
 10
18.4000234667
 20
6.7159486172
 30
0.0
 11
15.2000234667
 21
6.7159486172
 31
0.0
  0
LINE
  5
9B
330
1F
100
AcDbEntity
  8
0
  6
Continuous
 62
     7
370
    25
100
AcDbLine
 10
15.2000234667
 20
6.745930342
 30
0.0
 11
15.2000234667
 21
6.7159486172
 31
0.0
  0
LINE
  5
9C
330
1F
100
AcDbEntity
  8
0
  6
Continuous
 62
     7
370
    25
100
AcDbLine
 10
18.4000234667
 20
6.7159486172
 30
0.0
 11
18.4000234667
 21
1.7738899437
 31
0.0
  0
LINE
  5
9D
330
1F
100
AcDbEntity
  8
0
  6
Continuous
 62
     7
370
    25
100
AcDbLine
 10
15.2000234667
 20
1.7738899437
 30
0.0
 11
15.2000234667
 21
6.7159486172
 31
0.0
  0
ARC
  5
9E
330
1F
100
AcDbEntity
  8
0
  6
Continuous
 62
     7
370
    25
100
AcDbCircle
 10
16.8000234667
 20
4.2449192804
 30
0.0
 40
0.8704602999660779
100
AcDbArc
 50
223.2221320796
 51
316.7778679204
  0
LINE
  5
9F
330
1F
100
AcDbEntity
  8
0
  6
Continuous
 62
     7
370
    25
100
AcDbLine
 10
15.2000234667
 20
6.7581891728
 30
0.0
 11
18.4000234667
 21
6.7581891728
 31
0.0
  0
LINE
  5
A0
330
1F
100
AcDbEntity
  8
0
  6
Continuous
 62
     7
370
    25
100
AcDbLine
 10
18.4000234667
 20
6.7581891728
 30
0.0
 11
18.4000234667
 21
6.745930342
 31
0.0
  0
LINE
  5
A1
330
1F
100
AcDbEntity
  8
0
  6
Continuous
 62
     7
370
    25
100
AcDbLine
 10
15.2000234667
 20
6.745930342
 30
0.0
 11
15.2000234667
 21
6.7581891728
 31
0.0
  0
LINE
  5
A2
330
1F
100
AcDbEntity
  8
0
  6
Continuous
 62
     7
370
    25
100
AcDbLine
 10
18.4000234667
 20
1.731649388
 30
0.0
 11
15.2000234667
 21
1.731649388
 31
0.0
  0
LINE
  5
A3
330
1F
100
AcDbEntity
  8
0
  6
Continuous
 62
     7
370
    25
100
AcDbLine
 10
18.4000234667
 20
1.7439082189
 30
0.0
 11
18.4000234667
 21
1.731649388
 31
0.0
  0
LINE
  5
A4
330
1F
100
AcDbEntity
  8
0
  6
Continuous
 62
     7
370
    25
100
AcDbLine
 10
15.2000234667
 20
1.731649388
 30
0.0
 11
15.2000234667
 21
1.7439082189
 31
0.0
  0
LINE
  5
A5
330
1F
100
AcDbEntity
  8
0
  6
Continuous
 62
     7
370
    25
100
AcDbLine
 10
16.5500234667
 20
3.4111320571
 30
0.0
 11
16.5500234667
 21
3.7667786425
 31
0.0
  0
LINE
  5
A6
330
1F
100
AcDbEntity
  8
0
  6
Continuous
 62
     7
370
    25
100
AcDbLine
 10
16.6125234667
 20
3.3948928786
 30
0.0
 11
16.6125234667
 21
3.7667786425
 31
0.0
  0
LINE
  5
A7
330
1F
100
AcDbEntity
  8
0
  6
Continuous
 62
     7
370
    25
100
AcDbLine
 10
16.8000234667
 20
3.3744589805
 30
0.0
 11
16.8000234667
 21
3.7667786425
 31
0.0
  0
LINE
  5
A8
330
1F
100
AcDbEntity
  8
0
  6
Continuous
 62
     7
370
    25
100
AcDbLine
 10
16.8625234667
 20
3.376705664
 30
0.0
 11
16.8625234667
 21
3.7667786425
 31
0.0
  0
LINE
  5
A9
330
1F
100
AcDbEntity
  8
0
  6
Continuous
 62
     7
370
    25
100
AcDbLine
 10
17.3000234667
 20
3.5323877837
 30
0.0
 11
17.3000234667
 21
3.7667786425
 31
0.0
  0
LINE
  5
AA
330
1F
100
AcDbEntity
  8
0
  6
Continuous
 62
     7
370
    25
100
AcDbLine
 10
17.3625234667
 20
3.580618984
 30
0.0
 11
17.3625234667
 21
3.7667786425
 31
0.0
  0
LINE
  5
AB
330
1F
100
AcDbEntity
  8
0
  6
Continuous
 62
     7
370
    25
100
AcDbLine
 10
16.4250234667
 20
3.4593773441
 30
0.0
 11
16.4250234667
 21
3.7667786425
 31
0.0
  0
LINE
  5
AC
330
1F
100
AcDbEntity
  8
0
  6
Continuous
 62
     7
370
    25
100
AcDbLine
 10
16.4875234667
 20
3.4324878164
 30
0.0
 11
16.4875234667
 21
3.7667786425
 31
0.0
  0
LINE
  5
AD
330
1F
100
AcDbEntity
  8
0
  6
Continuous
 62
     7
370
    25
100
AcDbLine
 10
17.0500234667
 20
3.4111320571
 30
0.0
 11
17.0500234667
 21
3.7667786425
 31
0.0
  0
LINE
  5
AE
330
1F
100
AcDbEntity
  8
0
  6
Continuous
 62
     7
370
    25
100
AcDbLine
 10
17.1125234667
 20
3.4324878164
 30
0.0
 11
17.1125234667
 21
3.7667786425
 31
0.0
  0
LINE
  5
AF
330
1F
100
AcDbEntity
  8
0
  6
Continuous
 62
     7
370
    25
100
AcDbLine
 10
17.1750234667
 20
3.4593773441
 30
0.0
 11
17.1750234667
 21
3.7667786425
 31
0.0
  0
LINE
  5
B0
330
1F
100
AcDbEntity
  8
0
  6
Continuous
 62
     7
370
    25
100
AcDbLine
 10
17.2375234667
 20
3.4923936106
 30
0.0
 11
17.2375234667
 21
3.7667786425
 31
0.0
  0
LINE
  5
B1
330
1F
100
AcDbEntity
  8
0
  6
Continuous
 62
     7
370
    25
100
AcDbLine
 10
16.9250234667
 20
3.3834808707
 30
0.0
 11
16.9250234667
 21
3.7667786425
 31
0.0
  0
LINE
  5
B2
330
1F
100
AcDbEntity
  8
0
  6
Continuous
 62
     7
370
    25
100
AcDbLine
 10
16.9875234667
 20
3.3948928786
 30
0.0
 11
16.9875234667
 21
3.7667786425
 31
0.0
  0
LINE
  5
B3
330
1F
100
AcDbEntity
  8
0
  6
Continuous
 62
     7
370
    25
100
AcDbLine
 10
16.1750234667
 20
3.6390511976
 30
0.0
 11
16.1750234667
 21
3.7658052804
 31
0.0
  0
LINE
  5
B4
330
1F
100
AcDbEntity
  8
0
  6
Continuous
 62
     7
370
    25
100
AcDbLine
 10
16.2375234667
 20
3.580618984
 30
0.0
 11
16.2375234667
 21
3.7667786425
 31
0.0
  0
LINE
  5
B5
330
1F
100
AcDbEntity
  8
0
  6
Continuous
 62
     7
370
    25
100
AcDbLine
 10
16.6750234667
 20
3.3834808707
 30
0.0
 11
16.6750234667
 21
3.7667786425
 31
0.0
  0
LINE
  5
B6
330
1F
100
AcDbEntity
  8
0
  6
Continuous
 62
     7
370
    25
100
AcDbLine
 10
16.7375234667
 20
3.376705664
 30
0.0
 11
16.7375234667
 21
3.7667786425
 31
0.0
  0
LINE
  5
B7
330
1F
100
AcDbEntity
  8
0
  6
Continuous
 62
     7
370
    25
100
AcDbLine
 10
17.4250234667
 20
3.6390511976
 30
0.0
 11
17.4250234667
 21
3.7657403499
 31
0.0
  0
LINE
  5
B8
330
1F
100
AcDbEntity
  8
0
  6
Continuous
 62
     7
370
    25
100
AcDbLine
 10
16.3000234667
 20
3.5323877837
 30
0.0
 11
16.3000234667
 21
3.7667786425
 31
0.0
  0
LINE
  5
B9
330
1F
100
AcDbEntity
  8
0
  6
Continuous
 62
     7
370
    25
100
AcDbLine
 10
16.3625234667
 20
3.4923936106
 30
0.0
 11
16.3625234667
 21
3.7667786425
 31
0.0
  0
LINE
  5
BA
330
1F
100
AcDbEntity
  8
0
  6
Continuous
 62
     7
370
    25
100
AcDbLine
 10
16.8405907962
 20
5.9596070104
 30
0.0
 11
16.8719982219
 21
5.8946308075
 31
0.0
  0
LINE
  5
BB
330
1F
100
AcDbEntity
  8
0
  6
Continuous
 62
     7
370
    25
100
AcDbLine
 10
16.768616041
 20
5.9648954833
 30
0.0
 11
16.8405907962
 21
5.9596070104
 31
0.0
  0
LINE
  5
BC
330
1F
100
AcDbEntity
  8
0
  6
Continuous
 62
     7
370
    25
100
AcDbLine
 10
16.7280487115
 20
5.9052077533
 30
0.0
 11
16.768616041
 21
5.9648954833
 31
0.0
  0
LINE
  5
BD
330
1F
100
AcDbEntity
  8
0
  6
Continuous
 62
     7
370
    25
100
AcDbLine
 10
16.7594561372
 20
5.8402315504
 30
0.0
 11
16.7280487115
 21
5.9052077533
 31
0.0
  0
LINE
  5
BE
330
1F
100
AcDbEntity
  8
0
  6
Continuous
 62
     7
370
    25
100
AcDbLine
 10
16.8314308925
 20
5.8349430775
 30
0.0
 11
16.7594561372
 21
5.8402315504
 31
0.0
  0
LINE
  5
BF
330
1F
100
AcDbEntity
  8
0
  6
Continuous
 62
     7
370
    25
100
AcDbLine
 10
16.8719982219
 20
5.8946308075
 30
0.0
 11
16.8314308925
 21
5.8349430775
 31
0.0
  0
CIRCLE
  5
C0
330
1F
100
AcDbEntity
  8
0
  6
Continuous
 62
     7
370
    25
100
AcDbCircle
 10
16.8000234667
 20
5.8999192804
 30
0.0
 40
0.2055000000000005
  0
ARC
  5
C1
330
1F
100
AcDbEntity
  8
0
  6
Continuous
 62
     7
370
    25
100
AcDbCircle
 10
16.8000234667
 20
5.8999192804
 30
0.0
 40
0.0625000000000016
100
AcDbArc
 50
25.7976426584
 51
85.7976426584
  0
ARC
  5
C2
330
1F
100
AcDbEntity
  8
0
  6
Continuous
 62
     7
370
    25
100
AcDbCircle
 10
16.8000234667
 20
5.8999192804
 30
0.0
 40
0.062499999999998
100
AcDbArc
 50
85.7976426584
 51
145.7976426584
  0
ARC
  5
C3
330
1F
100
AcDbEntity
  8
0
  6
Continuous
 62
     7
370
    25
100
AcDbCircle
 10
16.8000234667
 20
5.8999192804
 30
0.0
 40
0.0625000000000084
100
AcDbArc
 50
325.7976426584
 51
25.7976426584
  0
ARC
  5
C4
330
1F
100
AcDbEntity
  8
0
  6
Continuous
 62
     7
370
    25
100
AcDbCircle
 10
16.8000234667
 20
5.8999192804
 30
0.0
 40
0.0625000000000084
100
AcDbArc
 50
265.7976426584
 51
325.7976426584
  0
ARC
  5
C5
330
1F
100
AcDbEntity
  8
0
  6
Continuous
 62
     7
370
    25
100
AcDbCircle
 10
16.8000234667
 20
5.8999192804
 30
0.0
 40
0.0625000000000006
100
AcDbArc
 50
205.7976426584
 51
265.7976426584
  0
ARC
  5
C6
330
1F
100
AcDbEntity
  8
0
  6
Continuous
 62
     7
370
    25
100
AcDbCircle
 10
16.8000234667
 20
5.8999192804
 30
0.0
 40
0.062499999999998
100
AcDbArc
 50
145.7976426584
 51
205.7976426584
  0
LINE
  5
C7
330
1F
100
AcDbEntity
  8
0
  6
Continuous
 62
     7
370
    25
100
AcDbLine
 10
16.8281023987
 20
2.5234369
 30
0.0
 11
16.7564875023
 21
2.5323610218
 31
0.0
  0
LINE
  5
C8
330
1F
100
AcDbEntity
  8
0
  6
Continuous
 62
     7
370
    25
100
AcDbLine
 10
16.8716383631
 20
2.5809951586
 30
0.0
 11
16.8281023987
 21
2.5234369
 31
0.0
  0
LINE
  5
C9
330
1F
100
AcDbEntity
  8
0
  6
Continuous
 62
     7
370
    25
100
AcDbLine
 10
16.8435594311
 20
2.6474775391
 30
0.0
 11
16.8716383631
 21
2.5809951586
 31
0.0
  0
LINE
  5
CA
330
1F
100
AcDbEntity
  8
0
  6
Continuous
 62
     7
370
    25
100
AcDbLine
 10
16.7719445347
 20
2.6564016609
 30
0.0
 11
16.8435594311
 21
2.6474775391
 31
0.0
  0
LINE
  5
CB
330
1F
100
AcDbEntity
  8
0
  6
Continuous
 62
     7
370
    25
100
AcDbLine
 10
16.7284085703
 20
2.5988434023
 30
0.0
 11
16.7719445347
 21
2.6564016609
 31
0.0
  0
LINE
  5
CC
330
1F
100
AcDbEntity
  8
0
  6
Continuous
 62
     7
370
    25
100
AcDbLine
 10
16.7564875023
 20
2.5323610218
 30
0.0
 11
16.7284085703
 21
2.5988434023
 31
0.0
  0
CIRCLE
  5
CD
330
1F
100
AcDbEntity
  8
0
  6
Continuous
 62
     7
370
    25
100
AcDbCircle
 10
16.8000234667
 20
2.5899192804
 30
0.0
 40
0.2055000000000009
  0
ARC
  5
CE
330
1F
100
AcDbEntity
  8
0
  6
Continuous
 62
     7
370
    25
100
AcDbCircle
 10
16.8000234667
 20
2.5899192804
 30
0.0
 40
0.0625000000000054
100
AcDbArc
 50
142.8968369208
 51
202.8968369208
  0
ARC
  5
CF
330
1F
100
AcDbEntity
  8
0
  6
Continuous
 62
     7
370
    25
100
AcDbCircle
 10
16.8000234667
 20
2.5899192804
 30
0.0
 40
0.0625000000000054
100
AcDbArc
 50
202.8968369208
 51
262.8968369208
  0
ARC
  5
D0
330
1F
100
AcDbEntity
  8
0
  6
Continuous
 62
     7
370
    25
100
AcDbCircle
 10
16.8000234667
 20
2.5899192804
 30
0.0
 40
0.0624999999999981
100
AcDbArc
 50
82.8968369208
 51
142.8968369208
  0
ARC
  5
D1
330
1F
100
AcDbEntity
  8
0
  6
Continuous
 62
     7
370
    25
100
AcDbCircle
 10
16.8000234667
 20
2.5899192804
 30
0.0
 40
0.0624999999999977
100
AcDbArc
 50
22.8968369208
 51
82.8968369208
  0
ARC
  5
D2
330
1F
100
AcDbEntity
  8
0
  6
Continuous
 62
     7
370
    25
100
AcDbCircle
 10
16.8000234667
 20
2.5899192804
 30
0.0
 40
0.0624999999999977
100
AcDbArc
 50
322.8968369208
 51
22.8968369208
  0
ARC
  5
D3
330
1F
100
AcDbEntity
  8
0
  6
Continuous
 62
     7
370
    25
100
AcDbCircle
 10
16.8000234667
 20
2.5899192804
 30
0.0
 40
0.0625000000000034
100
AcDbArc
 50
262.8968369208
 51
322.8968369208
  0
DIMENSION
  5
D4
330
1F
100
AcDbEntity
  8
0
  6
Continuous
 62
     7
370
    18
100
AcDbDimension
  2
_D
 10
19.2124250415
 20
2.5899192804
 30
0.0
 11
19.2124250415
 21
4.2449192804
 31
0.0
 70
   160
  1
<>\PO.C.
 71
     2
 42
-1.0
  3
SLDDIMSTYLE0
100
AcDbAlignedDimension
 13
16.8000234667
 23
5.8999192804
 33
0.0
 14
16.8000234667
 24
2.5899192804
 34
0.0
 50
90.0
100
AcDbRotatedDimension
  0
DIMENSION
  5
E9
330
1F
100
AcDbEntity
  8
0
  6
Continuous
 62
     7
370
    18
100
AcDbDimension
  2
_D_1
 10
18.4000234667
 20
7.5455907476
 30
0.0
 11
16.8000234667
 21
7.5455907476
 31
0.0
 70
   160
  1
<>
 71
     2
 42
-1.0
  3
SLDDIMSTYLE0
100
AcDbAlignedDimension
 13
15.2000234667
 23
6.7581891728
 33
0.0
 14
18.4000234667
 24
6.7581891728
 34
0.0
 50
0.0
100
AcDbRotatedDimension
  0
DIMENSION
  5
FD
330
1F
100
AcDbEntity
  8
0
  6
Continuous
 62
     7
370
    18
100
AcDbDimension
  2
_D_2
 10
20.6047478762
 20
1.731649388
 30
0.0
 11
20.6047478762
 21
4.2449192804
 31
0.0
 70
   160
  1
<>
 71
     2
 42
-1.0
  3
SLDDIMSTYLE1
100
AcDbAlignedDimension
 13
18.4000234667
 23
6.7581891728
 33
0.0
 14
18.4000234667
 24
1.731649388
 34
0.0
 50
90.0
100
AcDbRotatedDimension
  0
LINE
  5
112
330
1F
100
AcDbEntity
  8
0
  6
Continuous
 62
     7
370
    25
100
AcDbLine
 10
14.3527312556
 20
12.643737408
 30
0.0
 11
13.6271803246
 21
11.0316375907
 31
0.0
  0
LINE
  5
113
330
1F
100
AcDbEntity
  8
0
  6
Continuous
 62
     7
370
    25
100
AcDbLine
 10
13.9992850866
 20
10.1749658271
 30
0.0
 11
16.2620267864
 21
8.8687128482
 31
0.0
  0
LINE
  5
114
330
1F
100
AcDbEntity
  8
0
  6
Continuous
 62
     7
370
    25
100
AcDbLine
 10
16.3128583428
 20
15.1950260182
 30
0.0
 11
15.122631987
 21
14.5741785459
 31
0.0
  0
LINE
  5
115
330
1F
100
AcDbEntity
  8
0
  6
Continuous
 62
     7
370
    25
100
AcDbLine
 10
17.1174781811
 20
9.6822878019
 30
0.0
 11
18.2432598554
 21
10.3980298839
 31
0.0
  0
LINE
  5
116
330
1F
100
AcDbEntity
  8
0
  6
Continuous
 62
     7
370
    25
100
AcDbLine
 10
16.3128583428
 20
15.1950260182
 30
0.0
 11
15.122631987
 21
14.5741785459
 31
0.0
  0
LINE
  5
117
330
1F
100
AcDbEntity
  8
0
  6
Continuous
 62
     7
370
    25
100
AcDbLine
 10
17.1174781811
 20
9.6822878019
 30
0.0
 11
18.2432598554
 21
10.3980298839
 31
0.0
  0
LINE
  5
118
330
1F
100
AcDbEntity
  8
0
  6
Continuous
 62
     7
370
    25
100
AcDbLine
 10
15.2232409132
 20
12.7243971723
 30
0.0
 11
15.2267764471
 21
12.7264381926
 31
0.0
  0
LINE
  5
119
330
1F
100
AcDbEntity
  8
0
  6
Continuous
 62
     7
370
    25
100
AcDbLine
 10
15.0212931476
 20
13.082384275
 30
0.0
 11
15.0177576137
 21
13.0803432548
 31
0.0
  0
LINE
  5
11A
330
1F
100
AcDbEntity
  8
0
  6
Continuous
 62
     7
370
    25
100
AcDbLine
 10
15.2682396074
 20
12.8005033836
 30
0.0
 11
15.2682954608
 21
12.8009909933
 31
0.0
  0
LINE
  5
11B
330
1F
100
AcDbEntity
  8
0
  6
Continuous
 62
     7
370
    25
100
AcDbLine
 10
15.1066171495
 20
13.0810563886
 30
0.0
 11
15.1061669587
 21
13.0812518652
 31
0.0
  0
LINE
  5
11C
330
1F
100
AcDbEntity
  8
0
  6
Continuous
 62
     7
370
    25
100
AcDbLine
 10
15.2232409132
 20
10.021647085
 30
0.0
 11
15.2267764471
 21
10.0236881053
 31
0.0
  0
LINE
  5
11D
330
1F
100
AcDbEntity
  8
0
  6
Continuous
 62
     7
370
    25
100
AcDbLine
 10
15.2682396074
 20
10.0977532962
 30
0.0
 11
15.2682954608
 21
10.0982409059
 31
0.0
  0
LINE
  5
11E
330
1F
100
AcDbEntity
  8
0
  6
Continuous
 62
     7
370
    25
100
AcDbLine
 10
16.5351195425
 20
12.2527911472
 30
0.0
 11
16.5351195425
 21
12.4216690805
 31
0.0
  0
LINE
  5
11F
330
1F
100
AcDbEntity
  8
0
  6
Continuous
 62
     7
370
    25
100
AcDbLine
 10
16.5245129408
 20
12.2466680864
 30
0.0
 11
16.5351195425
 21
12.2527911472
 31
0.0
  0
LINE
  5
120
330
1F
100
AcDbEntity
  8
0
  6
Continuous
 62
     7
370
    25
100
AcDbLine
 10
16.5245129408
 20
12.2466680864
 30
0.0
 11
16.5245129408
 21
9.8638559825
 31
0.0
  0
LINE
  5
121
330
1F
100
AcDbEntity
  8
0
  6
Continuous
 62
     7
370
    25
100
AcDbLine
 10
16.5351195425
 20
9.8699790434
 30
0.0
 11
16.5245129408
 21
9.8638559825
 31
0.0
  0
LINE
  5
122
330
1F
100
AcDbEntity
  8
0
  6
Continuous
 62
     7
370
    25
100
AcDbLine
 10
16.5351195425
 20
9.7011011101
 30
0.0
 11
16.5351195425
 21
9.8699790434
 31
0.0
  0
LINE
  5
123
330
1F
100
AcDbEntity
  8
0
  6
Continuous
 62
     7
370
    25
100
AcDbLine
 10
16.5245129408
 20
9.6949780493
 30
0.0
 11
16.5351195425
 21
9.7011011101
 31
0.0
  0
LINE
  5
124
330
1F
100
AcDbEntity
  8
0
  6
Continuous
 62
     7
370
    25
100
AcDbLine
 10
16.5245129408
 20
9.6949780493
 30
0.0
 11
16.5245129408
 21
9.003074596
 31
0.0
  0
LINE
  5
125
330
1F
100
AcDbEntity
  8
0
  6
Continuous
 62
     7
370
    25
100
AcDbLine
 10
16.2762852372
 20
8.8697856287
 30
0.0
 11
16.5245129408
 21
9.003074596
 31
0.0
  0
ARC
  5
126
330
1F
100
AcDbEntity
  8
0
  6
Continuous
 62
     7
370
    25
100
AcDbCircle
 10
16.2686160397
 20
8.8802676309
 30
0.0
 40
0.0129880314645151
100
AcDbArc
 50
170.3348340738
 51
306.1912130969
  0
LINE
  5
127
330
1F
100
AcDbEntity
  8
0
  6
Continuous
 62
     7
370
    25
100
AcDbLine
 10
16.2558123639
 20
12.917840794
 30
0.0
 11
16.2558123639
 21
8.8824481924
 31
0.0
  0
ARC
  5
128
330
1F
100
AcDbEntity
  8
0
  6
Continuous
 62
     7
370
    25
100
AcDbCircle
 10
16.302093182
 20
12.9156621298
 30
0.0
 40
0.0463320698909877
100
AcDbArc
 50
123.8500425738
 51
177.3047974537
  0
LINE
  5
129
330
1F
100
AcDbEntity
  8
0
  6
Continuous
 62
     7
370
    25
100
AcDbLine
 10
16.5245129408
 20
13.1074494729
 30
0.0
 11
16.2762852372
 21
12.9541408342
 31
0.0
  0
LINE
  5
12A
330
1F
100
AcDbEntity
  8
0
  6
Continuous
 62
     7
370
    25
100
AcDbLine
 10
16.5245129408
 20
13.1074494729
 30
0.0
 11
16.5245129408
 21
12.4155460197
 31
0.0
  0
LINE
  5
12B
330
1F
100
AcDbEntity
  8
0
  6
Continuous
 62
     7
370
    25
100
AcDbLine
 10
16.5351195425
 20
12.4216690805
 30
0.0
 11
16.5245129408
 21
12.4155460197
 31
0.0
  0
LINE
  5
12C
330
1F
100
AcDbEntity
  8
0
  6
Continuous
 62
     7
370
    25
100
AcDbLine
 10
14.0135435374
 20
14.2603938131
 30
0.0
 11
16.2762852372
 21
12.9541408342
 31
0.0
  0
LINE
  5
12D
330
1F
100
AcDbEntity
  8
0
  6
Continuous
 62
     7
370
    25
100
AcDbLine
 10
16.2558123639
 20
12.917840794
 30
0.0
 11
13.9930706641
 21
14.224093773
 31
0.0
  0
ARC
  5
12E
330
1F
100
AcDbEntity
  8
0
  6
Continuous
 62
     7
370
    25
100
AcDbCircle
 10
14.0393514822
 20
14.2219151087
 30
0.0
 40
0.0463320698909709
100
AcDbArc
 50
123.8500425738
 51
177.3047974538
  0
LINE
  5
12F
330
1F
100
AcDbEntity
  8
0
  6
Continuous
 62
     7
370
    25
100
AcDbLine
 10
14.0135435374
 20
14.2603938131
 30
0.0
 11
14.261771241
 21
14.4137024518
 31
0.0
  0
LINE
  5
130
330
1F
100
AcDbEntity
  8
0
  6
Continuous
 62
     7
370
    25
100
AcDbLine
 10
14.261771241
 20
14.4137024518
 30
0.0
 11
16.5245129408
 21
13.1074494729
 31
0.0
  0
LWPOLYLINE
  5
131
330
1F
100
AcDbEntity
  8
0
  6
Continuous
 62
     7
370
    25
100
AcDbPolyline
 90
       13
 70
   128
 43
0.0
 10
15.2693984042
 20
12.8209641949
 10
15.2664311281
 20
12.8563727006
 10
15.2576507806
 20
12.8937575219
 10
15.24341683
 20
12.9315881199
 10
15.224312016
 20
12.9683157054
 10
15.201118492
 20
13.0024366467
 10
15.1747858034
 20
13.0325540286
 10
15.1463920137
 20
13.0574348418
 10
15.117099568
 20
13.076060463
 10
15.0881077024
 20
13.087668357
 10
15.0606033474
 20
13.0917832953
 10
15.0357125344
 20
13.0882368118
 10
15.0313210234
 20
13.0866864207
  0
ARC
  5
132
330
1F
100
AcDbEntity
  8
0
  6
Continuous
 62
     7
370
    25
100
AcDbCircle
 10
15.1607113212
 20
12.8118498916
 30
0.0
 40
0.1090685680162876
100
AcDbArc
 50
316.1133844148
 51
4.7935057321
  0
ELLIPSE
  5
133
330
1F
100
AcDbEntity
  8
0
  6
Continuous
 62
     7
370
    25
100
AcDbEllipse
 10
15.7080730659
 20
11.7128807052
 30
0.0
 11
-0.08840013007984382
 21
0.4931133015601894
 31
0.0
210
0.0
220
0.0
230
1.0
 40
0.5091526124
 41
4.373850200410338
 42
5.877366168597191
  0
LINE
  5
134
330
1F
100
AcDbEntity
  8
0
  6
Continuous
 62
     7
370
    25
100
AcDbLine
 10
14.5229149235
 20
12.8782191664
 30
0.0
 11
15.7259681046
 21
12.183711348
 31
0.0
  0
ELLIPSE
  5
135
330
1F
100
AcDbEntity
  8
0
  6
Continuous
 62
     7
370
    25
100
AcDbEllipse
 10
14.5408099622
 20
12.3867273518
 30
0.0
 11
-0.1229227706222478
 21
0.5117155364485573
 31
0.0
210
0.0
220
0.0
230
1.0
 40
0.4613786991
 41
5.870434553913102
 42
7.373950522099927
  0
LINE
  5
136
330
1F
100
AcDbEntity
  8
0
  6
Continuous
 62
     7
370
    25
100
AcDbLine
 10
15.9742509962
 20
11.5915677391
 30
0.0
 11
15.9742509962
 21
10.5759332519
 31
0.0
  0
LINE
  5
137
330
1F
100
AcDbEntity
  8
0
  6
Continuous
 62
     7
370
    25
100
AcDbLine
 10
13.9930706641
 20
10.1887011713
 30
0.0
 11
16.2558123639
 21
8.8824481924
 31
0.0
  0
LINE
  5
138
330
1F
100
AcDbEntity
  8
0
  6
Continuous
 62
     7
370
    25
100
AcDbLine
 10
13.9930706641
 20
10.1887011713
 30
0.0
 11
13.9930706641
 21
10.7449645829
 31
0.0
  0
LINE
  5
139
330
1F
100
AcDbEntity
  8
0
  6
Continuous
 62
     7
370
    25
100
AcDbLine
 10
13.9930706641
 20
11.8446084302
 30
0.0
 11
13.9930706641
 21
14.224093773
 31
0.0
  0
ARC
  5
13A
330
1F
100
AcDbEntity
  8
0
  6
Continuous
 62
     7
370
    25
100
AcDbCircle
 10
14.9635129049
 20
10.1083021215
 30
0.0
 40
0.3060460523126393
100
AcDbArc
 50
1.8559765624
 51
60.8007249991
  0
ARC
  5
13B
330
1F
100
AcDbEntity
  8
0
  6
Continuous
 62
     7
370
    25
100
AcDbCircle
 10
15.1667701248
 20
10.107958594
 30
0.0
 40
0.1031394167718933
100
AcDbArc
 50
306.5394356711
 51
5.7065500392
  0
LINE
  5
13C
330
1F
100
AcDbEntity
  8
0
  6
Continuous
 62
     7
370
    25
100
AcDbLine
 10
14.7135788497
 20
10.329024061
 30
0.0
 11
15.6956561974
 21
12.0687815337
 31
0.0
  0
ELLIPSE
  5
13D
330
1F
100
AcDbEntity
  8
0
  6
Continuous
 62
     7
370
    25
100
AcDbEllipse
 10
15.5754905444
 20
11.6363424448
 30
0.0
 11
0.1101140289543761
 21
0.4361383188991645
 31
0.0
210
0.0
220
0.0
230
1.0
 40
0.3348498656
 41
4.708895207425702
 42
6.212411175612597
  0
LINE
  5
13E
330
1F
100
AcDbEntity
  8
0
  6
Continuous
 62
     7
370
    25
100
AcDbLine
 10
15.7211457979
 20
11.5979472368
 30
0.0
 11
15.0048441463
 21
10.3290134262
 31
0.0
  0
ELLIPSE
  5
13F
330
1F
100
AcDbEntity
  8
0
  6
Continuous
 62
     7
370
    25
100
AcDbEllipse
 10
14.8838006659
 20
10.4110085769
 30
0.0
 11
0.2155532466428873
 21
0.02364668110022983
 31
0.0
210
0.0
220
0.0
230
1.0
 40
0.5090174845
 41
3.748290699989839
 42
5.251806668176701
  0
LINE
  5
140
330
1F
100
AcDbEntity
  8
0
  6
Continuous
 62
     7
370
    25
100
AcDbLine
 10
14.4926030162
 20
12.7632893521
 30
0.0
 11
13.668542276
 21
10.9323108336
 31
0.0
  0
LINE
  5
141
330
1F
100
AcDbEntity
  8
0
  6
Continuous
 62
     7
370
    25
100
AcDbLine
 10
15.6956561974
 20
12.0687815337
 30
0.0
 11
14.4926030162
 21
12.7632893521
 31
0.0
  0
LINE
  5
142
330
1F
100
AcDbEntity
  8
0
  6
Continuous
 62
     7
370
    25
100
AcDbLine
 10
13.668542276
 20
10.9323108336
 30
0.0
 11
14.7135788497
 21
10.329024061
 31
0.0
  0
LWPOLYLINE
  5
143
330
1F
100
AcDbEntity
  8
0
  6
Continuous
 62
     7
370
    25
100
AcDbPolyline
 90
        3
 70
   128
 43
0.0
 10
16.5245129408
 20
12.4312736165
 10
16.5262492896
 20
12.4298282776
 10
16.5351195425
 20
12.4216690805
  0
LINE
  5
144
330
1F
100
AcDbEntity
  8
0
  6
Continuous
 62
     7
370
    25
100
AcDbLine
 10
15.7211457979
 20
10.6361292401
 30
0.0
 11
15.0048441463
 21
10.3290134262
 31
0.0
  0
LINE
  5
145
330
1F
100
AcDbEntity
  8
0
  6
Continuous
 62
     7
370
    25
100
AcDbLine
 10
15.7211457979
 20
10.6361292401
 30
0.0
 11
15.7211457979
 21
11.5979472368
 31
0.0
  0
ARC
  5
146
330
1F
100
AcDbEntity
  8
0
  6
Continuous
 62
     7
370
    25
100
AcDbCircle
 10
15.8410856518
 20
11.3323982441
 30
0.0
 40
0.2913791963806241
100
AcDbArc
 50
62.8051914431
 51
114.3071482052
  0
ARC
  5
147
330
1F
100
AcDbEntity
  8
0
  6
Continuous
 62
     7
370
    25
100
AcDbCircle
 10
15.46428349
 20
12.191266592
 30
0.0
 40
0.2617936576762492
100
AcDbArc
 50
332.1039620547
 51
358.3462406651
  0
ARC
  5
148
330
1F
100
AcDbEntity
  8
0
  6
Continuous
 62
     7
370
    25
100
AcDbCircle
 10
14.2612303089
 20
12.8857744104
 30
0.0
 40
0.2617936576762728
100
AcDbArc
 50
332.1039620547
 51
358.3462406651
  0
SPLINE
  5
149
330
1F
100
AcDbEntity
  8
0
  6
Continuous
 62
     7
370
    25
100
AcDbSpline
210
0.0
220
0.0
230
1.0
 70
     8
 71
     3
 72
    11
 73
     7
 74
     0
 42
0.00000001
 43
0.00000001
 40
0.0
 40
0.0
 40
0.0
 40
0.0
 40
0.2430944773810594
 40
0.6021774020405879
 40
0.9966531778212991
 40
1.0
 40
1.0
 40
1.0
 40
1.0
 10
15.83894139009668
 20
10.6565502943344
 30
0.0
 10
15.85206168230232
 20
10.65472353525753
 30
0.0
 10
15.88456239379328
 20
10.65019840968943
 30
0.0
 10
15.93173566570601
 20
10.62096125685735
 30
0.0
 10
15.96087750909262
 20
10.59236986546924
 30
0.0
 10
15.97413942566966
 20
10.57607037706254
 30
0.0
 10
15.97425099619572
 20
10.57593325189776
 30
0.0
  0
ELLIPSE
  5
14A
330
1F
100
AcDbEntity
  8
0
  6
Continuous
 62
     7
370
    25
100
AcDbEllipse
 10
15.8416684747
 20
10.5539107938
 30
0.0
 11
0.1874479079146809
 21
-0.008089621709411077
 31
0.0
210
0.0
220
0.0
230
1.0
 40
0.5463150007
 41
1.608914043060459
 42
2.292500779676232
  0
ELLIPSE
  5
14B
330
1F
100
AcDbEntity
  8
0
  6
Continuous
 62
     7
370
    25
100
AcDbEllipse
 10
13.8278307188
 20
11.0206070517
 30
0.0
 11
0.206847511855532
 21
0.02693468436084957
 31
0.0
210
0.0
220
0.0
230
1.0
 40
0.5500908635
 41
2.814679850955492
 42
3.764998797839872
  0
LWPOLYLINE
  5
14C
330
1F
100
AcDbEntity
  8
0
  6
Continuous
 62
     7
370
    25
100
AcDbPolyline
 90
        3
 70
   128
 43
0.0
 10
16.5245129408
 20
9.8795835794
 10
16.5262492896
 20
9.8781382404
 10
16.5351195425
 20
9.8699790434
  0
ARC
  5
14D
330
1F
100
AcDbEntity
  8
0
  6
Continuous
 62
     7
370
    25
100
AcDbCircle
 10
14.0074026934
 20
10.1869120586
 30
0.0
 40
0.0144432679201136
100
AcDbArc
 50
172.8843952803
 51
235.8034243264
  0
LINE
  5
14E
330
1F
100
AcDbEntity
  8
0
  6
Continuous
 62
     7
370
    25
100
AcDbLine
 10
16.9073908718
 20
13.3094507074
 30
0.0
 11
16.5245129408
 21
13.088417558
 31
0.0
  0
LINE
  5
14F
330
1F
100
AcDbEntity
  8
0
  6
Continuous
 62
     7
370
    25
100
AcDbLine
 10
14.9502290035
 20
14.4392962045
 30
0.0
 11
14.6085609651
 21
14.2135050054
 31
0.0
  0
LINE
  5
150
330
1F
100
AcDbEntity
  8
0
  6
Continuous
 62
     7
370
    25
100
AcDbLine
 10
14.9497175912
 20
14.4480355129
 30
0.0
 11
14.9502290035
 21
14.4392962045
 31
0.0
  0
LINE
  5
151
330
1F
100
AcDbEntity
  8
0
  6
Continuous
 62
     7
370
    25
100
AcDbLine
 10
16.9220358047
 20
13.3094404439
 30
0.0
 11
14.9497175912
 21
14.4480355129
 31
0.0
  0
LINE
  5
152
330
1F
100
AcDbEntity
  8
0
  6
Continuous
 62
     7
370
    25
100
AcDbLine
 10
16.9073908718
 20
13.3094507074
 30
0.0
 11
16.9220358047
 21
13.3094404439
 31
0.0
  0
LINE
  5
153
330
1F
100
AcDbEntity
  8
0
  6
Continuous
 62
     7
370
    25
100
AcDbLine
 10
16.9073908718
 20
9.5959497748
 30
0.0
 11
16.9073908718
 21
13.3094507074
 31
0.0
  0
LINE
  5
154
330
1F
100
AcDbEntity
  8
0
  6
Continuous
 62
     7
370
    25
100
AcDbLine
 10
16.9073908718
 20
9.5959497748
 30
0.0
 11
16.5245129408
 21
9.4047539533
 31
0.0
  0
LINE
  5
155
330
1F
100
AcDbEntity
  8
0
  6
Continuous
 62
     7
370
    25
100
AcDbLine
 10
17.0245503353
 20
13.3686307779
 30
0.0
 11
16.9220358047
 21
13.3094404439
 31
0.0
  0
LINE
  5
156
330
1F
100
AcDbEntity
  8
0
  6
Continuous
 62
     7
370
    25
100
AcDbLine
 10
17.0245503353
 20
13.3686307779
 30
0.0
 11
17.0245503353
 21
9.5320459914
 31
0.0
  0
LINE
  5
157
330
1F
100
AcDbEntity
  8
0
  6
Continuous
 62
     7
370
    25
100
AcDbLine
 10
16.9220358047
 20
9.5953695741
 30
0.0
 11
17.0245503353
 21
9.5320459914
 31
0.0
  0
LINE
  5
158
330
1F
100
AcDbEntity
  8
0
  6
Continuous
 62
     7
370
    25
100
AcDbLine
 10
16.9220358047
 20
9.5953695741
 30
0.0
 11
16.9073908718
 21
9.5959497748
 31
0.0
  0
LINE
  5
159
330
1F
100
AcDbEntity
  8
0
  6
Continuous
 62
     7
370
    25
100
AcDbLine
 10
14.9461377049
 20
14.5684728501
 30
0.0
 11
17.0245503353
 21
13.3686307779
 31
0.0
  0
LINE
  5
15A
330
1F
100
AcDbEntity
  8
0
  6
Continuous
 62
     7
370
    25
100
AcDbLine
 10
14.9497175912
 20
14.4480355129
 30
0.0
 11
14.9461377049
 21
14.5684728501
 31
0.0
  0
LINE
  5
15B
330
1F
100
AcDbEntity
  8
0
  6
Continuous
 62
     7
370
    25
100
AcDbLine
 10
17.1174781811
 20
13.4225783506
 30
0.0
 11
17.0260032443
 21
13.3697704144
 31
0.0
  0
LINE
  5
15C
330
1F
100
AcDbEntity
  8
0
  6
Continuous
 62
     7
370
    25
100
AcDbLine
 10
17.1174781811
 20
13.4225783506
 30
0.0
 11
17.1174781811
 21
9.5749082397
 31
0.0
  0
LINE
  5
15D
330
1F
100
AcDbEntity
  8
0
  6
Continuous
 62
     7
370
    25
100
AcDbLine
 10
17.1174781811
 20
9.5749082397
 30
0.0
 11
17.0260032443
 21
9.5292288619
 31
0.0
  0
LINE
  5
15E
330
1F
100
AcDbEntity
  8
0
  6
Continuous
 62
     7
370
    25
100
AcDbLine
 10
17.0260032443
 20
13.3697704144
 30
0.0
 11
17.0260032443
 21
9.5292288619
 31
0.0
  0
LINE
  5
15F
330
1F
100
AcDbEntity
  8
0
  6
Continuous
 62
     7
370
    25
100
AcDbLine
 10
15.0299865545
 20
14.6276616157
 30
0.0
 11
14.9446847959
 21
14.5712899796
 31
0.0
  0
LINE
  5
160
330
1F
100
AcDbEntity
  8
0
  6
Continuous
 62
     7
370
    25
100
AcDbLine
 10
15.0299865545
 20
14.6276616157
 30
0.0
 11
17.1174781811
 21
13.4225783506
 31
0.0
  0
LINE
  5
161
330
1F
100
AcDbEntity
  8
0
  6
Continuous
 62
     7
370
    25
100
AcDbLine
 10
14.9446847959
 20
14.5712899796
 30
0.0
 11
17.0260032443
 21
13.3697704144
 31
0.0
  0
LINE
  5
162
330
1F
100
AcDbEntity
  8
0
  6
Continuous
 62
     7
370
    25
100
AcDbLine
 10
14.9461377049
 20
14.4365924713
 30
0.0
 11
14.9461377049
 21
14.5684728501
 31
0.0
  0
LINE
  5
163
330
1F
100
AcDbEntity
  8
0
  6
Continuous
 62
     7
370
    25
100
AcDbLine
 10
17.0245503353
 20
9.5320459914
 30
0.0
 11
16.9143299537
 21
9.5956748633
 31
0.0
  0
LINE
  5
164
330
1F
100
AcDbEntity
  8
0
  6
Continuous
 62
     7
370
    25
100
AcDbLine
 10
17.0260032443
 20
9.5292288619
 30
0.0
 11
16.910650404
 21
9.5958206391
 31
0.0
  0
LINE
  5
165
330
1F
100
AcDbEntity
  8
0
  6
Continuous
 62
     7
370
    25
100
AcDbLine
 10
14.9446847959
 20
14.4356323169
 30
0.0
 11
14.9446847959
 21
14.5712899796
 31
0.0
  0
LINE
  5
166
330
1F
100
AcDbEntity
  8
0
  6
Continuous
 62
     7
370
    25
100
AcDbLine
 10
17.7178726339
 20
14.2447072934
 30
0.0
 11
17.5102270154
 21
14.1889630062
 31
0.0
  0
LINE
  5
167
330
1F
100
AcDbEntity
  8
0
  6
Continuous
 62
     7
370
    25
100
AcDbLine
 10
17.5102270154
 20
14.1889630062
 30
0.0
 11
17.4136646152
 21
14.3088342702
 31
0.0
  0
LINE
  5
168
330
1F
100
AcDbEntity
  8
0
  6
Continuous
 62
     7
370
    25
100
AcDbLine
 10
17.4136646152
 20
14.3088342702
 30
0.0
 11
17.3501921554
 21
14.2917945318
 31
0.0
  0
LINE
  5
169
330
1F
100
AcDbEntity
  8
0
  6
Continuous
 62
     7
370
    25
100
AcDbLine
 10
17.3501921554
 20
14.2917945318
 30
0.0
 11
17.4467545556
 21
14.1719232678
 31
0.0
  0
LINE
  5
16A
330
1F
100
AcDbEntity
  8
0
  6
Continuous
 62
     7
370
    25
100
AcDbLine
 10
17.4467545556
 20
14.1719232678
 30
0.0
 11
17.2391089372
 21
14.1161789807
 31
0.0
  0
LINE
  5
16B
330
1F
100
AcDbEntity
  8
0
  6
Continuous
 62
     7
370
    25
100
AcDbLine
 10
17.2391089372
 20
14.1161789807
 30
0.0
 11
17.2686258281
 21
14.0795371096
 31
0.0
  0
LINE
  5
16C
330
1F
100
AcDbEntity
  8
0
  6
Continuous
 62
     7
370
    25
100
AcDbLine
 10
17.2686258281
 20
14.0795371096
 30
0.0
 11
17.4762714466
 21
14.1352813967
 31
0.0
  0
LINE
  5
16D
330
1F
100
AcDbEntity
  8
0
  6
Continuous
 62
     7
370
    25
100
AcDbLine
 10
17.4762714466
 20
14.1352813967
 30
0.0
 11
17.5728338468
 21
14.0154101327
 31
0.0
  0
LINE
  5
16E
330
1F
100
AcDbEntity
  8
0
  6
Continuous
 62
     7
370
    25
100
AcDbLine
 10
17.5728338468
 20
14.0154101327
 30
0.0
 11
17.6363063066
 21
14.0324498712
 31
0.0
  0
LINE
  5
16F
330
1F
100
AcDbEntity
  8
0
  6
Continuous
 62
     7
370
    25
100
AcDbLine
 10
17.6363063066
 20
14.0324498712
 30
0.0
 11
17.5397439063
 21
14.1523211351
 31
0.0
  0
LINE
  5
170
330
1F
100
AcDbEntity
  8
0
  6
Continuous
 62
     7
370
    25
100
AcDbLine
 10
17.5397439063
 20
14.1523211351
 30
0.0
 11
17.7473895248
 21
14.2080654223
 31
0.0
  0
LINE
  5
171
330
1F
100
AcDbEntity
  8
0
  6
Continuous
 62
     7
370
    25
100
AcDbLine
 10
17.7473895248
 20
14.2080654223
 30
0.0
 11
17.7178726339
 21
14.2447072934
 31
0.0
  0
LINE
  5
172
330
1F
100
AcDbEntity
  8
0
  6
Continuous
 62
     7
370
    25
100
AcDbLine
 10
17.5984495431
 20
14.022286891
 30
0.0
 11
17.5397439063
 21
14.0951632783
 31
0.0
  0
LINE
  5
173
330
1F
100
AcDbEntity
  8
0
  6
Continuous
 62
     7
370
    25
100
AcDbLine
 10
17.4136646152
 20
14.2516764134
 30
0.0
 11
17.3880489189
 21
14.2447996551
 31
0.0
  0
LINE
  5
174
330
1F
100
AcDbEntity
  8
0
  6
Continuous
 62
     7
370
    25
100
AcDbLine
 10
17.5102270154
 20
14.1318051494
 30
0.0
 11
17.4136646152
 21
14.2516764134
 31
0.0
  0
LINE
  5
175
330
1F
100
AcDbEntity
  8
0
  6
Continuous
 62
     7
370
    25
100
AcDbLine
 10
17.5397439063
 20
14.1397292176
 30
0.0
 11
17.5102270154
 21
14.1318051494
 31
0.0
  0
LINE
  5
176
330
1F
100
AcDbEntity
  8
0
  6
Continuous
 62
     7
370
    25
100
AcDbLine
 10
17.5397439063
 20
14.0951632783
 30
0.0
 11
17.5397439063
 21
14.1523211351
 31
0.0
  0
LINE
  5
177
330
1F
100
AcDbEntity
  8
0
  6
Continuous
 62
     7
370
    25
100
AcDbLine
 10
17.4467545556
 20
14.1273573285
 30
0.0
 11
17.4467545556
 21
14.1719232678
 31
0.0
  0
LINE
  5
178
330
1F
100
AcDbEntity
  8
0
  6
Continuous
 62
     7
370
    25
100
AcDbLine
 10
17.7178726339
 20
14.2001413541
 30
0.0
 11
17.7178726339
 21
14.2447072934
 31
0.0
  0
LINE
  5
179
330
1F
100
AcDbEntity
  8
0
  6
Continuous
 62
     7
370
    25
100
AcDbLine
 10
17.5102270154
 20
14.1318051494
 30
0.0
 11
17.5102270154
 21
14.1889630062
 31
0.0
  0
LINE
  5
17A
330
1F
100
AcDbEntity
  8
0
  6
Continuous
 62
     7
370
    25
100
AcDbLine
 10
17.4136646152
 20
14.2516764134
 30
0.0
 11
17.4136646152
 21
14.3088342702
 31
0.0
  0
LINE
  5
17B
330
1F
100
AcDbEntity
  8
0
  6
Continuous
 62
     7
370
    25
100
AcDbLine
 10
16.2261275169
 20
14.8184202021
 30
0.0
 11
16.4196545306
 21
14.747744777
 31
0.0
  0
LINE
  5
17C
330
1F
100
AcDbEntity
  8
0
  6
Continuous
 62
     7
370
    25
100
AcDbLine
 10
16.4196545306
 20
14.747744777
 30
0.0
 11
16.2972278382
 21
14.6360240101
 31
0.0
  0
LINE
  5
17D
330
1F
100
AcDbEntity
  8
0
  6
Continuous
 62
     7
370
    25
100
AcDbLine
 10
16.2972278382
 20
14.6360240101
 30
0.0
 11
16.3563845673
 21
14.6144201684
 31
0.0
  0
LINE
  5
17E
330
1F
100
AcDbEntity
  8
0
  6
Continuous
 62
     7
370
    25
100
AcDbLine
 10
16.3563845673
 20
14.6144201684
 30
0.0
 11
16.4788112596
 21
14.7261409353
 31
0.0
  0
LINE
  5
17F
330
1F
100
AcDbEntity
  8
0
  6
Continuous
 62
     7
370
    25
100
AcDbLine
 10
16.4788112596
 20
14.7261409353
 30
0.0
 11
16.6723382733
 21
14.6554655102
 31
0.0
  0
LINE
  5
180
330
1F
100
AcDbEntity
  8
0
  6
Continuous
 62
     7
370
    25
100
AcDbLine
 10
16.6723382733
 20
14.6554655102
 30
0.0
 11
16.7097612796
 21
14.689615963
 31
0.0
  0
LINE
  5
181
330
1F
100
AcDbEntity
  8
0
  6
Continuous
 62
     7
370
    25
100
AcDbLine
 10
16.7097612796
 20
14.689615963
 30
0.0
 11
16.516234266
 21
14.7602913881
 31
0.0
  0
LINE
  5
182
330
1F
100
AcDbEntity
  8
0
  6
Continuous
 62
     7
370
    25
100
AcDbLine
 10
16.516234266
 20
14.7602913881
 30
0.0
 11
16.6386609583
 21
14.872012155
 31
0.0
  0
LINE
  5
183
330
1F
100
AcDbEntity
  8
0
  6
Continuous
 62
     7
370
    25
100
AcDbLine
 10
16.6386609583
 20
14.872012155
 30
0.0
 11
16.5795042292
 21
14.8936159967
 31
0.0
  0
LINE
  5
184
330
1F
100
AcDbEntity
  8
0
  6
Continuous
 62
     7
370
    25
100
AcDbLine
 10
16.5795042292
 20
14.8936159967
 30
0.0
 11
16.4570775369
 21
14.7818952298
 31
0.0
  0
LINE
  5
185
330
1F
100
AcDbEntity
  8
0
  6
Continuous
 62
     7
370
    25
100
AcDbLine
 10
16.4570775369
 20
14.7818952298
 30
0.0
 11
16.2635505233
 21
14.8525706549
 31
0.0
  0
LINE
  5
186
330
1F
100
AcDbEntity
  8
0
  6
Continuous
 62
     7
370
    25
100
AcDbLine
 10
16.2635505233
 20
14.8525706549
 30
0.0
 11
16.2261275169
 21
14.8184202021
 31
0.0
  0
LINE
  5
187
330
1F
100
AcDbEntity
  8
0
  6
Continuous
 62
     7
370
    25
100
AcDbLine
 10
16.4570775369
 20
14.724737373
 30
0.0
 11
16.4196545306
 21
14.7384041311
 31
0.0
  0
LINE
  5
188
330
1F
100
AcDbEntity
  8
0
  6
Continuous
 62
     7
370
    25
100
AcDbLine
 10
16.5795042292
 20
14.8364581399
 30
0.0
 11
16.4570775369
 21
14.724737373
 31
0.0
  0
LINE
  5
189
330
1F
100
AcDbEntity
  8
0
  6
Continuous
 62
     7
370
    25
100
AcDbLine
 10
16.5939277168
 20
14.83119073
 30
0.0
 11
16.5795042292
 21
14.8364581399
 31
0.0
  0
LINE
  5
18A
330
1F
100
AcDbEntity
  8
0
  6
Continuous
 62
     7
370
    25
100
AcDbLine
 10
16.4196545306
 20
14.6905869202
 30
0.0
 11
16.3419610797
 21
14.6196875783
 31
0.0
  0
LINE
  5
18B
330
1F
100
AcDbEntity
  8
0
  6
Continuous
 62
     7
370
    25
100
AcDbLine
 10
16.4196545306
 20
14.6905869202
 30
0.0
 11
16.4196545306
 21
14.747744777
 31
0.0
  0
LINE
  5
18C
330
1F
100
AcDbEntity
  8
0
  6
Continuous
 62
     7
370
    25
100
AcDbLine
 10
16.516234266
 20
14.7124741772
 30
0.0
 11
16.516234266
 21
14.7602913881
 31
0.0
  0
LINE
  5
18D
330
1F
100
AcDbEntity
  8
0
  6
Continuous
 62
     7
370
    25
100
AcDbLine
 10
16.4570775369
 20
14.724737373
 30
0.0
 11
16.4570775369
 21
14.7818952298
 31
0.0
  0
LINE
  5
18E
330
1F
100
AcDbEntity
  8
0
  6
Continuous
 62
     7
370
    25
100
AcDbLine
 10
16.2635505233
 20
14.804753444
 30
0.0
 11
16.2635505233
 21
14.8525706549
 31
0.0
  0
LINE
  5
18F
330
1F
100
AcDbEntity
  8
0
  6
Continuous
 62
     7
370
    25
100
AcDbLine
 10
16.5795042292
 20
14.8364581399
 30
0.0
 11
16.5795042292
 21
14.8936159967
 31
0.0
  0
LINE
  5
190
330
1F
100
AcDbEntity
  8
0
  6
Continuous
 62
     7
370
    25
100
AcDbLine
 10
18.4355810658
 20
14.1916523111
 30
0.0
 11
18.2432598554
 21
14.0806289456
 31
0.0
  0
LINE
  5
191
330
1F
100
AcDbEntity
  8
0
  6
Continuous
 62
     7
370
    25
100
AcDbLine
 10
18.4355810658
 20
13.8199968518
 30
0.0
 11
18.4355810658
 21
14.1916523111
 31
0.0
  0
LINE
  5
192
330
1F
100
AcDbEntity
  8
0
  6
Continuous
 62
     7
370
    25
100
AcDbLine
 10
18.4355810658
 20
13.8199968518
 30
0.0
 11
18.4355810658
 21
13.7689630511
 31
0.0
  0
LINE
  5
193
330
1F
100
AcDbEntity
  8
0
  6
Continuous
 62
     7
370
    25
100
AcDbLine
 10
18.4355810658
 20
10.947814546
 30
0.0
 11
18.4355810658
 21
13.7689630511
 31
0.0
  0
LINE
  5
194
330
1F
100
AcDbEntity
  8
0
  6
Continuous
 62
     7
370
    25
100
AcDbLine
 10
18.4355810658
 20
10.947814546
 30
0.0
 11
18.4355810658
 21
10.8967807453
 31
0.0
  0
LINE
  5
195
330
1F
100
AcDbEntity
  8
0
  6
Continuous
 62
     7
370
    25
100
AcDbLine
 10
18.4355810658
 20
10.525125286
 30
0.0
 11
18.4355810658
 21
10.8967807453
 31
0.0
  0
LINE
  5
196
330
1F
100
AcDbEntity
  8
0
  6
Continuous
 62
     7
370
    25
100
AcDbLine
 10
18.4355810658
 20
10.525125286
 30
0.0
 11
18.2432598554
 21
10.3980298839
 31
0.0
  0
ELLIPSE
  5
197
330
1F
100
AcDbEntity
  8
0
  6
Continuous
 62
     7
370
    25
100
AcDbEllipse
 10
17.4929016118
 20
14.181966792
 30
0.0
 11
0.4030819992666714
 21
-0.01178179606421281
 31
0.0
210
0.0
220
0.0
230
1.0
 40
0.5567969691
 41
0.0
 42
6.283185307179586
  0
LINE
  5
198
330
1F
100
AcDbEntity
  8
0
  6
Continuous
 62
     7
370
    25
100
AcDbLine
 10
16.519097591
 20
15.2980146715
 30
0.0
 11
16.3128583428
 21
15.1950260182
 31
0.0
  0
LINE
  5
199
330
1F
100
AcDbEntity
  8
0
  6
Continuous
 62
     7
370
    25
100
AcDbLine
 10
18.4355810658
 20
14.1916523111
 30
0.0
 11
16.519097591
 21
15.2980146715
 31
0.0
  0
ELLIPSE
  5
19A
330
1F
100
AcDbEntity
  8
0
  6
Continuous
 62
     7
370
    25
100
AcDbEllipse
 10
16.4675967791
 20
14.7738626731
 30
0.0
 11
0.4030819992666714
 21
-0.01178179606421281
 31
0.0
210
0.0
220
0.0
230
1.0
 40
0.5567969691
 41
0.0
 42
6.283185307179586
  0
LINE
  5
19B
330
1F
100
AcDbEntity
  8
0
  6
Continuous
 62
     7
370
    25
100
AcDbLine
 10
18.4355810658
 20
13.8455096053
 30
0.0
 11
18.4576781527
 21
13.8327532286
 31
0.0
  0
LINE
  5
19C
330
1F
100
AcDbEntity
  8
0
  6
Continuous
 62
     7
370
    25
100
AcDbLine
 10
18.4576781527
 20
13.8327532286
 30
0.0
 11
18.4355810658
 21
13.8199968518
 31
0.0
  0
LINE
  5
19D
330
1F
100
AcDbEntity
  8
0
  6
Continuous
 62
     7
370
    25
100
AcDbLine
 10
18.4576781527
 20
13.8327532286
 30
0.0
 11
18.4576781527
 21
13.7817194278
 31
0.0
  0
LINE
  5
19E
330
1F
100
AcDbEntity
  8
0
  6
Continuous
 62
     7
370
    25
100
AcDbLine
 10
18.4576781527
 20
13.7817194278
 30
0.0
 11
18.4355810658
 21
13.7689630511
 31
0.0
  0
LINE
  5
19F
330
1F
100
AcDbEntity
  8
0
  6
Continuous
 62
     7
370
    25
100
AcDbLine
 10
18.4355810658
 20
10.9733272995
 30
0.0
 11
18.4576781527
 21
10.9605709227
 31
0.0
  0
LINE
  5
1A0
330
1F
100
AcDbEntity
  8
0
  6
Continuous
 62
     7
370
    25
100
AcDbLine
 10
18.4576781527
 20
10.9605709227
 30
0.0
 11
18.4355810658
 21
10.947814546
 31
0.0
  0
LINE
  5
1A1
330
1F
100
AcDbEntity
  8
0
  6
Continuous
 62
     7
370
    25
100
AcDbLine
 10
18.4576781527
 20
10.9605709227
 30
0.0
 11
18.4576781527
 21
10.909537122
 31
0.0
  0
LINE
  5
1A2
330
1F
100
AcDbEntity
  8
0
  6
Continuous
 62
     7
370
    25
100
AcDbLine
 10
18.4576781527
 20
10.909537122
 30
0.0
 11
18.4355810658
 21
10.8967807453
 31
0.0
  0
LWPOLYLINE
  5
1A3
330
1F
100
AcDbEntity
  8
0
  6
Continuous
 62
     7
370
    25
100
AcDbPolyline
 90
       32
 70
   128
 43
0.0
 10
15.2513275854
 20
12.899869818
 10
15.2359197576
 20
12.9376810561
 10
15.2157866011
 20
12.9740466642
 10
15.1917523699
 20
13.00747783
 10
15.1648010281
 20
13.0366058776
 10
15.1360359669
 20
13.0602383014
 10
15.1066348312
 20
13.0774075871
 10
15.077801307
 20
13.0874108221
 10
15.0507158421
 20
13.0898384729
 10
15.0264873187
 20
13.0845911512
 10
15.0061076554
 20
13.0718836828
 10
14.990411198
 20
13.0522363131
 10
14.9800405612
 20
13.0264534076
 10
14.9754203202
 20
12.9955905217
 10
14.9767396282
 20
12.9609111853
 10
14.9839444726
 20
12.9238351747
 10
14.9967398861
 20
12.885880386
 10
15.0146020231
 20
12.8486006929
 10
15.0367996055
 20
12.8135223302
 10
15.0624238618
 20
12.7820814103
 10
15.0904257319
 20
12.7555651282
 10
15.1196588158
 20
12.7350590634
 10
15.1489263078
 20
12.7214027369
 10
15.1770299933
 20
12.7151552401
 10
15.202819304
 20
12.7165723463
 10
15.2252384226
 20
12.725596039
 10
15.2433695077
 20
12.7418568872
 10
15.2564702706
 20
12.7646891698
 10
15.2640043645
 20
12.7931581306
 10
15.2656633427
 20
12.8260982468
 10
15.2613792864
 20
12.8621609463
 10
15.2513275854
 20
12.899869818
  0
LWPOLYLINE
  5
1A4
330
1F
100
AcDbEntity
  8
0
  6
Continuous
 62
     7
370
    25
100
AcDbPolyline
 90
       11
 70
   128
 43
0.0
 10
15.2548631193
 20
12.9019108383
 10
15.2394552915
 20
12.9397220764
 10
15.219322135
 20
12.9760876845
 10
15.1952879038
 20
13.0095188503
 10
15.168336562
 20
13.0386468979
 10
15.1395715008
 20
13.0622793217
 10
15.1101703651
 20
13.0794486074
 10
15.0813368409
 20
13.0894518424
 10
15.054251376
 20
13.0918794932
 10
15.0300228526
 20
13.0866321714
 10
15.0212931476
 20
13.082384275
  0
ARC
  5
1A5
330
1F
100
AcDbEntity
  8
0
  6
Continuous
 62
     7
370
    25
100
AcDbCircle
 10
15.1247026077
 20
12.832760575
 30
0.0
 40
0.1473890012715969
100
AcDbArc
 50
313.8320812099
 51
27.9803297207
  0
LINE
  5
1A6
330
1F
100
AcDbEntity
  8
0
  6
Continuous
 62
     7
370
    25
100
AcDbLine
 10
15.1491846972
 20
12.9345479326
 30
0.0
 11
15.1713931009
 21
12.8686715726
 31
0.0
  0
LINE
  5
1A7
330
1F
100
AcDbEntity
  8
0
  6
Continuous
 62
     7
370
    25
100
AcDbLine
 10
15.0982908597
 20
12.9682465736
 30
0.0
 11
15.1491846972
 21
12.9345479326
 31
0.0
  0
LINE
  5
1A8
330
1F
100
AcDbEntity
  8
0
  6
Continuous
 62
     7
370
    25
100
AcDbLine
 10
15.069605426
 20
12.9360688545
 30
0.0
 11
15.0982908597
 21
12.9682465736
 31
0.0
  0
LINE
  5
1A9
330
1F
100
AcDbEntity
  8
0
  6
Continuous
 62
     7
370
    25
100
AcDbLine
 10
15.0918138297
 20
12.8701924945
 30
0.0
 11
15.069605426
 21
12.9360688545
 31
0.0
  0
LINE
  5
1AA
330
1F
100
AcDbEntity
  8
0
  6
Continuous
 62
     7
370
    25
100
AcDbLine
 10
15.1427076672
 20
12.8364938535
 30
0.0
 11
15.0918138297
 21
12.8701924945
 31
0.0
  0
LINE
  5
1AB
330
1F
100
AcDbEntity
  8
0
  6
Continuous
 62
     7
370
    25
100
AcDbLine
 10
15.1713931009
 20
12.8686715726
 30
0.0
 11
15.1427076672
 21
12.8364938535
 31
0.0
  0
LINE
  5
1AC
330
1F
100
AcDbEntity
  8
0
  6
Continuous
 62
     7
370
    25
100
AcDbLine
 10
15.1108918539
 20
12.959903002
 30
0.0
 11
15.069605426
 21
12.9360688545
 31
0.0
  0
ARC
  5
1AD
330
1F
100
AcDbEntity
  8
0
  6
Continuous
 62
     7
370
    25
100
AcDbCircle
 10
15.2428147453
 20
12.9729475216
 30
0.0
 40
0.1062751718034674
100
AcDbArc
 50
198.8308999938
 51
216.7739649799
  0
LINE
  5
1AE
330
1F
100
AcDbEntity
  8
0
  6
Continuous
 62
     7
370
    25
100
AcDbLine
 10
15.1533321197
 20
12.9057062473
 30
0.0
 11
15.0918138297
 21
12.8701924945
 31
0.0
  0
LINE
  5
1AF
330
1F
100
AcDbEntity
  8
0
  6
Continuous
 62
     7
370
    25
100
AcDbLine
 10
15.1605101696
 20
12.9009534022
 30
0.0
 11
15.1533321197
 21
12.9057062473
 31
0.0
  0
LINE
  5
1B0
330
1F
100
AcDbEntity
  8
0
  6
Continuous
 62
     7
370
    25
100
AcDbLine
 10
15.1422279178
 20
12.9386444273
 30
0.0
 11
15.1420066473
 21
12.9393007777
 31
0.0
  0
LINE
  5
1B1
330
1F
100
AcDbEntity
  8
0
  6
Continuous
 62
     7
370
    25
100
AcDbLine
 10
15.1533321197
 20
12.9057062473
 30
0.0
 11
15.1422279178
 21
12.9386444273
 31
0.0
  0
LINE
  5
1B2
330
1F
100
AcDbEntity
  8
0
  6
Continuous
 62
     7
370
    25
100
AcDbLine
 10
15.1403540667
 20
10.1338726154
 30
0.0
 11
15.0897146878
 21
10.1703930162
 31
0.0
  0
LINE
  5
1B3
330
1F
100
AcDbEntity
  8
0
  6
Continuous
 62
     7
370
    25
100
AcDbLine
 10
15.1711386423
 20
10.1630997254
 30
0.0
 11
15.1403540667
 21
10.1338726154
 31
0.0
  0
LINE
  5
1B4
330
1F
100
AcDbEntity
  8
0
  6
Continuous
 62
     7
370
    25
100
AcDbLine
 10
15.1512838391
 20
10.2288472362
 30
0.0
 11
15.1711386423
 21
10.1630997254
 31
0.0
  0
LINE
  5
1B5
330
1F
100
AcDbEntity
  8
0
  6
Continuous
 62
     7
370
    25
100
AcDbLine
 10
15.1006444603
 20
10.265367637
 30
0.0
 11
15.1512838391
 21
10.2288472362
 31
0.0
  0
LINE
  5
1B6
330
1F
100
AcDbEntity
  8
0
  6
Continuous
 62
     7
370
    25
100
AcDbLine
 10
15.0698598846
 20
10.236140527
 30
0.0
 11
15.1006444603
 21
10.265367637
 31
0.0
  0
LINE
  5
1B7
330
1F
100
AcDbEntity
  8
0
  6
Continuous
 62
     7
370
    25
100
AcDbLine
 10
15.0897146878
 20
10.1703930162
 30
0.0
 11
15.0698598846
 21
10.236140527
 31
0.0
  0
LWPOLYLINE
  5
1B8
330
1F
100
AcDbEntity
  8
0
  6
Continuous
 62
     7
370
    25
100
AcDbPolyline
 90
       18
 70
   128
 43
0.0
 10
15.1025307176
 20
10.0434818496
 10
15.1319248156
 20
10.0257446678
 10
15.1608511501
 20
10.0151259677
 10
15.1881254737
 20
10.0120604801
 10
15.2126311723
 20
10.0166737065
 10
15.2333649797
 20
10.0287767808
 10
15.2494780515
 20
10.0478742017
 10
15.2603107165
 20
10.0731841186
 10
15.2654194841
 20
10.1036703405
 10
15.264595201
 20
10.1380847579
 10
15.2578716132
 20
10.1750184406
 10
15.2455239852
 20
10.2129593191
 10
15.2280578305
 20
10.2503540895
 10
15.2061882154
 20
10.2856718055
 10
15.1808104846
 20
10.3174665556
 10
15.1529636052
 20
10.3444366591
 10
15.1237876319
 20
10.3654779566
 10
15.1088478133
 20
10.3736052135
  0
ARC
  5
1B9
330
1F
100
AcDbEntity
  8
0
  6
Continuous
 62
     7
370
    25
100
AcDbCircle
 10
15.2749393041
 20
10.2863289359
 30
0.0
 40
0.29782449205354
100
AcDbArc
 50
173.6646348748
 51
234.6272630392
  0
LWPOLYLINE
  5
1BA
330
1F
100
AcDbEntity
  8
0
  6
Continuous
 62
     7
370
    25
100
AcDbPolyline
 90
       14
 70
   128
 43
0.0
 10
15.2267764471
 20
10.0236881053
 10
15.2369005136
 20
10.030817801
 10
15.2530135854
 20
10.049915222
 10
15.2638462504
 20
10.0752251389
 10
15.268955018
 20
10.1057113608
 10
15.2681307349
 20
10.1401257782
 10
15.2614071471
 20
10.1770594608
 10
15.2490595191
 20
10.2150003394
 10
15.2315933644
 20
10.2523951098
 10
15.2097237493
 20
10.2877128258
 10
15.1843460185
 20
10.3195075759
 10
15.1564991391
 20
10.3464776793
 10
15.1273231658
 20
10.3675189769
 10
15.1129570033
 20
10.3753670371
  0
LINE
  5
1BB
330
1F
100
AcDbEntity
  8
0
  6
Continuous
 62
     7
370
    25
100
AcDbLine
 10
15.1094667833
 20
10.259005103
 30
0.0
 11
15.0698598846
 21
10.236140527
 31
0.0
  0
ARC
  5
1BC
330
1F
100
AcDbEntity
  8
0
  6
Continuous
 62
     7
370
    25
100
AcDbCircle
 10
15.2427670293
 20
10.2701795581
 30
0.0
 40
0.1062265305356577
100
AcDbArc
 50
199.2202511135
 51
217.262899993
  0
LINE
  5
1BD
330
1F
100
AcDbEntity
  8
0
  6
Continuous
 62
     7
370
    25
100
AcDbLine
 10
15.1512329778
 20
10.2059067691
 30
0.0
 11
15.1423622803
 21
10.2352813377
 31
0.0
  0
LINE
  5
1BE
330
1F
100
AcDbEntity
  8
0
  6
Continuous
 62
     7
370
    25
100
AcDbLine
 10
15.1512329778
 20
10.2059067691
 30
0.0
 11
15.0897146878
 21
10.1703930162
 31
0.0
  0
LINE
  5
1BF
330
1F
100
AcDbEntity
  8
0
  6
Continuous
 62
     7
370
    25
100
AcDbLine
 10
15.1601545366
 20
10.1994726675
 30
0.0
 11
15.1512329778
 21
10.2059067691
 31
0.0
  0
LINE
  5
1C0
330
1F
100
AcDbEntity
  8
0
  6
Continuous
 62
     7
370
    25
100
AcDbLine
 10
14.2746320318
 20
12.470208936
 30
0.0
 11
14.2746320318
 21
12.5727368824
 31
0.0
  0
LINE
  5
1C1
330
1F
100
AcDbEntity
  8
0
  6
Continuous
 62
     7
370
    25
100
AcDbLine
 10
15.9742509962
 20
10.5759332519
 30
0.0
 11
15.8344810484
 21
10.6566207253
 31
0.0
  0
ELLIPSE
  5
1C2
330
1F
100
AcDbEntity
  8
0
  6
Continuous
 62
     7
370
    25
100
AcDbEllipse
 10
14.4082274407
 20
12.3101890913
 30
0.0
 11
0.06486966595169541
 21
0.4608031458886366
 31
0.0
210
0.0
220
0.0
230
1.0
 40
0.3024614216
 41
6.137811832249421
 42
7.088130779133758
  0
LWPOLYLINE
  5
1C3
330
1F
100
AcDbEntity
  8
0
  6
Continuous
 62
     7
370
    25
100
AcDbPolyline
 90
        3
 70
   128
 43
0.0
 10
14.2746320318
 20
12.5727368824
 10
14.2968044978
 20
12.557312492
 10
14.3086701129
 20
12.545838064
  0
LINE
  5
1C4
330
1F
100
AcDbEntity
  8
0
  6
Continuous
 62
     7
370
    25
100
AcDbLine
 10
18.2432598554
 20
14.0806289456
 30
0.0
 11
17.0694207014
 21
13.4503213431
 31
0.0
  0
LINE
  5
1C5
330
1F
100
AcDbEntity
  8
0
  6
Continuous
 62
     7
370
    25
100
AcDbLine
 10
18.2432598554
 20
14.0806289456
 30
0.0
 11
17.1174781811
 21
13.3836965991
 31
0.0
  0
LINE
  5
1C6
330
1F
100
AcDbEntity
  8
0
  6
Continuous
 62
     7
370
    25
100
AcDbLine
 10
18.2432598554
 20
10.3980298839
 30
0.0
 11
17.1174781811
 21
9.7010975375
 31
0.0
  0
LINE
  5
1C7
330
1F
100
AcDbEntity
  8
0
  6
Continuous
 62
     7
370
    25
100
AcDbLine
 10
16.3128583428
 20
15.1950260182
 30
0.0
 11
15.1390191888
 21
14.5647184157
 31
0.0
  0
MTEXT
  5
1C8
330
1F
100
AcDbEntity
  8
0
  6
Continuous
 62
     7
370
     0
100
AcDbMText
 10
19.3994809402
 20
15.4444002153
 30
0.0
 40
0.25
 41
0.0
 71
     2
 72
     1
  1
5X 1/2" NPT
  7
SLDTEXTSTYLE0
 73
     1
 44
1.0
  0
MTEXT
  5
1C9
330
1F
100
AcDbEntity
  8
0
  6
Continuous
 62
     7
370
     0
100
AcDbMText
 10
19.4092030609
 20
15.1156600663
 30
0.0
 40
0.25
 41
0.0
 71
     2
 72
     1
  1
CONDUIT ENTRIES
  7
SLDTEXTSTYLE0
 73
     1
 44
1.0
  0
LEADER
  5
1CB
330
1F
100
AcDbEntity
  8
0
  6
Continuous
 62
     7
370
     0
100
AcDbLeader
  3
SLDDIMSTYLE2
 76
     3
 10
17.4856624299
 20
14.4066733743
 30
0.0
 10
17.4791075142
 20
15.3194416418
 30
0.0
 10
18.4771978935
 20
15.3194416418
 30
0.0
  0
LINE
  5
1CC
330
1F
100
AcDbEntity
  8
0
  6
Continuous
 62
     7
370
    25
100
AcDbLine
 10
11.085174745
 20
2.7924192804
 30
0.0
 11
11.070174745
 21
2.7924192804
 31
0.0
  0
LINE
  5
1CD
330
1F
100
AcDbEntity
  8
0
  6
Continuous
 62
     7
370
    25
100
AcDbLine
 10
11.070174745
 20
2.5724192804
 30
0.0
 11
11.085174745
 21
2.5724192804
 31
0.0
  0
LINE
  5
1CE
330
1F
100
AcDbEntity
  8
0
  6
Continuous
 62
     7
370
    25
100
AcDbLine
 10
11.070174745
 20
5.6974192804
 30
0.0
 11
11.085174745
 21
5.6974192804
 31
0.0
  0
LINE
  5
1CF
330
1F
100
AcDbEntity
  8
0
  6
Continuous
 62
     7
370
    25
100
AcDbLine
 10
11.085174745
 20
5.9174192804
 30
0.0
 11
11.070174745
 21
5.9174192804
 31
0.0
  0
LINE
  5
1D0
330
1F
100
AcDbEntity
  8
0
  6
Continuous
 62
     7
370
    25
100
AcDbLine
 10
11.4657499292
 20
6.1054192804
 30
0.0
 11
11.465174745
 21
6.1049192804
 31
0.0
  0
LINE
  5
1D1
330
1F
100
AcDbEntity
  8
0
  6
Continuous
 62
     7
370
    25
100
AcDbLine
 10
11.465174745
 20
5.6949192804
 30
0.0
 11
11.4657499292
 21
5.6944192804
 31
0.0
  0
LINE
  5
1D2
330
1F
100
AcDbEntity
  8
0
  6
Continuous
 62
     7
370
    25
100
AcDbLine
 10
11.4707499292
 20
6.1054192804
 30
0.0
 11
11.4657499292
 21
6.1054192804
 31
0.0
  0
LINE
  5
1D3
330
1F
100
AcDbEntity
  8
0
  6
Continuous
 62
     7
370
    25
100
AcDbLine
 10
11.4657499292
 20
5.6944192804
 30
0.0
 11
11.4707499292
 21
5.6944192804
 31
0.0
  0
LINE
  5
1D4
330
1F
100
AcDbEntity
  8
0
  6
Continuous
 62
     7
370
    25
100
AcDbLine
 10
11.4657499292
 20
2.7954192804
 30
0.0
 11
11.465174745
 21
2.7949192804
 31
0.0
  0
LINE
  5
1D5
330
1F
100
AcDbEntity
  8
0
  6
Continuous
 62
     7
370
    25
100
AcDbLine
 10
11.465174745
 20
2.3849192804
 30
0.0
 11
11.4657499292
 21
2.3844192804
 31
0.0
  0
LINE
  5
1D6
330
1F
100
AcDbEntity
  8
0
  6
Continuous
 62
     7
370
    25
100
AcDbLine
 10
11.4707499292
 20
2.7954192804
 30
0.0
 11
11.4657499292
 21
2.7954192804
 31
0.0
  0
LINE
  5
1D7
330
1F
100
AcDbEntity
  8
0
  6
Continuous
 62
     7
370
    25
100
AcDbLine
 10
11.4657499292
 20
2.3844192804
 30
0.0
 11
11.4707499292
 21
2.3844192804
 31
0.0
  0
LINE
  5
1D8
330
1F
100
AcDbEntity
  8
0
  6
Continuous
 62
     7
370
    25
100
AcDbLine
 10
11.070174745
 20
5.9108298698
 30
0.0
 11
11.070174745
 21
5.704008691
 31
0.0
  0
LINE
  5
1D9
330
1F
100
AcDbEntity
  8
0
  6
Continuous
 62
     7
370
    25
100
AcDbLine
 10
11.085174745
 20
5.9108298698
 30
0.0
 11
11.070174745
 21
5.9108298698
 31
0.0
  0
LINE
  5
1DA
330
1F
100
AcDbEntity
  8
0
  6
Continuous
 62
     7
370
    25
100
AcDbLine
 10
11.085174745
 20
5.9108298698
 30
0.0
 11
11.085174745
 21
6.7581891728
 31
0.0
  0
LINE
  5
1DB
330
1F
100
AcDbEntity
  8
0
  6
Continuous
 62
     7
370
    25
100
AcDbLine
 10
11.4362217299
 20
6.745930342
 30
0.0
 11
11.085174745
 21
6.7581891728
 31
0.0
  0
ARC
  5
1DC
330
1F
100
AcDbEntity
  8
0
  6
Continuous
 62
     7
370
    25
100
AcDbCircle
 10
11.435174745
 20
6.7159486172
 30
0.0
 40
0.0300000000000011
100
AcDbArc
 50
0.0
 51
88.0
  0
LINE
  5
1DD
330
1F
100
AcDbEntity
  8
0
  6
Continuous
 62
     7
370
    25
100
AcDbLine
 10
11.465174745
 20
1.7738899437
 30
0.0
 11
11.465174745
 21
6.7159486172
 31
0.0
  0
ARC
  5
1DE
330
1F
100
AcDbEntity
  8
0
  6
Continuous
 62
     7
370
    25
100
AcDbCircle
 10
11.435174745
 20
1.7738899437
 30
0.0
 40
0.0300000000000011
100
AcDbArc
 50
272.0
 51
0.0
  0
LINE
  5
1DF
330
1F
100
AcDbEntity
  8
0
  6
Continuous
 62
     7
370
    25
100
AcDbLine
 10
11.085174745
 20
1.731649388
 30
0.0
 11
11.4362217299
 21
1.7439082189
 31
0.0
  0
LINE
  5
1E0
330
1F
100
AcDbEntity
  8
0
  6
Continuous
 62
     7
370
    25
100
AcDbLine
 10
11.085174745
 20
1.731649388
 30
0.0
 11
11.085174745
 21
2.579008691
 31
0.0
  0
LINE
  5
1E1
330
1F
100
AcDbEntity
  8
0
  6
Continuous
 62
     7
370
    25
100
AcDbLine
 10
11.070174745
 20
2.579008691
 30
0.0
 11
11.085174745
 21
2.579008691
 31
0.0
  0
LINE
  5
1E2
330
1F
100
AcDbEntity
  8
0
  6
Continuous
 62
     7
370
    25
100
AcDbLine
 10
11.070174745
 20
2.7858298698
 30
0.0
 11
11.070174745
 21
2.579008691
 31
0.0
  0
LINE
  5
1E3
330
1F
100
AcDbEntity
  8
0
  6
Continuous
 62
     7
370
    25
100
AcDbLine
 10
11.085174745
 20
2.7858298698
 30
0.0
 11
11.070174745
 21
2.7858298698
 31
0.0
  0
LINE
  5
1E4
330
1F
100
AcDbEntity
  8
0
  6
Continuous
 62
     7
370
    25
100
AcDbLine
 10
11.085174745
 20
2.7858298698
 30
0.0
 11
11.085174745
 21
5.704008691
 31
0.0
  0
LINE
  5
1E5
330
1F
100
AcDbEntity
  8
0
  6
Continuous
 62
     7
370
    25
100
AcDbLine
 10
11.070174745
 20
5.704008691
 30
0.0
 11
11.085174745
 21
5.704008691
 31
0.0
  0
LINE
  5
1E6
330
1F
100
AcDbEntity
  8
0
  6
Continuous
 62
     7
370
    25
100
AcDbLine
 10
11.070174745
 20
2.7858298698
 30
0.0
 11
11.070174745
 21
2.7924192804
 31
0.0
  0
LINE
  5
1E7
330
1F
100
AcDbEntity
  8
0
  6
Continuous
 62
     7
370
    25
100
AcDbLine
 10
11.070174745
 20
2.5724192804
 30
0.0
 11
11.070174745
 21
2.579008691
 31
0.0
  0
LINE
  5
1E8
330
1F
100
AcDbEntity
  8
0
  6
Continuous
 62
     7
370
    25
100
AcDbLine
 10
11.070174745
 20
5.6974192804
 30
0.0
 11
11.070174745
 21
5.704008691
 31
0.0
  0
LINE
  5
1E9
330
1F
100
AcDbEntity
  8
0
  6
Continuous
 62
     7
370
    25
100
AcDbLine
 10
11.070174745
 20
5.9108298698
 30
0.0
 11
11.070174745
 21
5.9174192804
 31
0.0
  0
ARC
  5
1EA
330
1F
100
AcDbEntity
  8
0
  6
Continuous
 62
     7
370
    25
100
AcDbCircle
 10
11.652674745
 20
5.4422804659
 30
0.0
 40
0.1875000000000007
100
AcDbArc
 50
180.0
 51
219.5226312712
  0
ELLIPSE
  5
1EB
330
1F
100
AcDbEntity
  8
0
  6
Continuous
 62
     7
370
    25
100
AcDbEllipse
 10
11.652674745
 20
4.8530126404
 30
0.0
 11
-0.1447346925069972
 21
0.4700133395768633
 31
0.0
210
0.0
220
0.0
230
1.0
 40
0.0080804497
 41
6.263590043485298
 42
7.767106011669999
  0
LINE
  5
1EC
330
1F
100
AcDbEntity
  8
0
  6
Continuous
 62
     7
370
    25
100
AcDbLine
 10
11.465174745
 20
4.8926288871
 30
0.0
 11
11.6363330432
 21
4.8926288871
 31
0.0
  0
SPLINE
  5
1ED
330
1F
100
AcDbEntity
  8
0
  6
Continuous
 62
     7
370
    25
100
AcDbSpline
210
0.0
220
0.0
230
1.0
 70
     8
 71
     3
 72
    12
 73
     8
 74
     0
 42
0.00000001
 43
0.00000001
 40
0.0
 40
0.0
 40
0.0
 40
0.0
 40
0.0033430364700912
 40
0.3973726067854927
 40
0.5751307696749386
 40
0.7571804953575666
 40
1.0
 40
1.0
 40
1.0
 40
1.0
 10
11.46517474495715
 20
3.64880313777945
 30
0.0
 10
11.465174877918
 20
3.648892317063314
 30
0.0
 10
11.4651906824116
 20
3.659492681378121
 30
0.0
 10
11.46925509497203
 20
3.675036581288057
 30
0.0
 10
11.48281897477833
 20
3.692170541441606
 30
0.0
 10
11.49769557981964
 20
3.704014135958402
 30
0.0
 10
11.51318317898606
 20
3.707009189345053
 30
0.0
 10
11.52203458758257
 20
3.708720909864724
 30
0.0
  0
LINE
  5
1EE
330
1F
100
AcDbEntity
  8
0
  6
Continuous
 62
     7
370
    25
100
AcDbLine
 10
11.6363330432
 20
4.8926288871
 30
0.0
 11
11.6363330432
 21
3.7147110381
 31
0.0
  0
LINE
  5
1EF
330
1F
100
AcDbEntity
  8
0
  6
Continuous
 62
     7
370
    25
100
AcDbLine
 10
11.6363330432
 20
3.7147110381
 30
0.0
 11
11.5220345876
 21
3.7087209099
 31
0.0
  0
LINE
  5
1F0
330
1F
100
AcDbEntity
  8
0
  6
Continuous
 62
     7
370
    25
100
AcDbLine
 10
12.5678402344
 20
3.7635292614
 30
0.0
 11
11.6363330432
 21
4.8926288871
 31
0.0
  0
LINE
  5
1F1
330
1F
100
AcDbEntity
  8
0
  6
Continuous
 62
     7
370
    25
100
AcDbLine
 10
11.5080422552
 20
5.3229586619
 30
0.0
 11
12.785174745
 21
3.7749192804
 31
0.0
  0
LINE
  5
1F2
330
1F
100
AcDbEntity
  8
0
  6
Continuous
 62
     7
370
    25
100
AcDbLine
 10
12.785174745
 20
3.7749192804
 30
0.0
 11
12.5678402344
 21
3.7635292614
 31
0.0
  0
LINE
  5
1F3
330
1F
100
AcDbEntity
  8
0
  6
Continuous
 62
     7
370
    25
100
AcDbLine
 10
11.6363330432
 20
3.7147110381
 30
0.0
 11
12.5678402344
 21
3.7635292614
 31
0.0
  0
LINE
  5
1F4
330
1F
100
AcDbEntity
  8
0
  6
Continuous
 62
     7
370
    25
100
AcDbLine
 10
10.122674745
 20
1.8888397956
 30
0.0
 11
10.247674745
 21
1.8932048918
 31
0.0
  0
LINE
  5
1F5
330
1F
100
AcDbEntity
  8
0
  6
Continuous
 62
     7
370
    25
100
AcDbLine
 10
10.122674745
 20
1.8888397956
 30
0.0
 11
10.122674745
 21
6.6009987653
 31
0.0
  0
LINE
  5
1F6
330
1F
100
AcDbEntity
  8
0
  6
Continuous
 62
     7
370
    25
100
AcDbLine
 10
10.247674745
 20
1.8932048918
 30
0.0
 11
10.247674745
 21
6.5966336691
 31
0.0
  0
LINE
  5
1F7
330
1F
100
AcDbEntity
  8
0
  6
Continuous
 62
     7
370
    25
100
AcDbLine
 10
10.122674745
 20
6.6009987653
 30
0.0
 11
10.247674745
 21
6.5966336691
 31
0.0
  0
LINE
  5
1F8
330
1F
100
AcDbEntity
  8
0
  6
Continuous
 62
     7
370
    25
100
AcDbLine
 10
10.247674745
 20
1.8956277749
 30
0.0
 11
10.3176321028
 21
1.9706478565
 31
0.0
  0
LINE
  5
1F9
330
1F
100
AcDbEntity
  8
0
  6
Continuous
 62
     7
370
    25
100
AcDbLine
 10
10.3176321028
 20
6.5191907043
 30
0.0
 11
10.247674745
 21
6.594210786
 31
0.0
  0
LINE
  5
1FA
330
1F
100
AcDbEntity
  8
0
  6
Continuous
 62
     7
370
    25
100
AcDbLine
 10
10.3176321028
 20
6.5191907043
 30
0.0
 11
10.3276260111
 21
6.5188417094
 31
0.0
  0
LINE
  5
1FB
330
1F
100
AcDbEntity
  8
0
  6
Continuous
 62
     7
370
    25
100
AcDbLine
 10
10.3276260111
 20
6.5188417094
 30
0.0
 11
10.3276260111
 21
1.9709968515
 31
0.0
  0
LINE
  5
1FC
330
1F
100
AcDbEntity
  8
0
  6
Continuous
 62
     7
370
    25
100
AcDbLine
 10
10.3276260111
 20
1.9709968515
 30
0.0
 11
10.3176321028
 21
1.9706478565
 31
0.0
  0
LINE
  5
1FD
330
1F
100
AcDbEntity
  8
0
  6
Continuous
 62
     7
370
    25
100
AcDbLine
 10
10.3276260111
 20
1.9709968515
 30
0.0
 11
10.960174745
 21
1.99308594
 31
0.0
  0
LINE
  5
1FE
330
1F
100
AcDbEntity
  8
0
  6
Continuous
 62
     7
370
    25
100
AcDbLine
 10
10.3276260111
 20
6.5188417094
 30
0.0
 11
10.960174745
 21
6.4967526208
 31
0.0
  0
LINE
  5
1FF
330
1F
100
AcDbEntity
  8
0
  6
Continuous
 62
     7
370
    25
100
AcDbLine
 10
8.137674745
 20
1.9997608194
 30
0.0
 11
8.419499548
 21
1.9899192804
 31
0.0
  0
LINE
  5
200
330
1F
100
AcDbEntity
  8
0
  6
Continuous
 62
     7
370
    25
100
AcDbLine
 10
8.137674745
 20
2.4549192804
 30
0.0
 11
8.137674745
 21
1.9997608194
 31
0.0
  0
LINE
  5
201
330
1F
100
AcDbEntity
  8
0
  6
Continuous
 62
     7
370
    25
100
AcDbLine
 10
8.137674745
 20
2.4549192804
 30
0.0
 11
8.137674745
 21
2.5174192804
 31
0.0
  0
LINE
  5
202
330
1F
100
AcDbEntity
  8
0
  6
Continuous
 62
     7
370
    25
100
AcDbLine
 10
8.137674745
 20
5.9724192804
 30
0.0
 11
8.137674745
 21
2.5174192804
 31
0.0
  0
LINE
  5
203
330
1F
100
AcDbEntity
  8
0
  6
Continuous
 62
     7
370
    25
100
AcDbLine
 10
8.137674745
 20
5.9724192804
 30
0.0
 11
8.137674745
 21
6.0349192804
 31
0.0
  0
LINE
  5
204
330
1F
100
AcDbEntity
  8
0
  6
Continuous
 62
     7
370
    25
100
AcDbLine
 10
8.137674745
 20
6.4900777415
 30
0.0
 11
8.137674745
 21
6.0349192804
 31
0.0
  0
LINE
  5
205
330
1F
100
AcDbEntity
  8
0
  6
Continuous
 62
     7
370
    25
100
AcDbLine
 10
8.137674745
 20
6.4900777415
 30
0.0
 11
8.419499548
 21
6.4999192804
 31
0.0
  0
LINE
  5
206
330
1F
100
AcDbEntity
  8
0
  6
Continuous
 62
     7
370
    25
100
AcDbLine
 10
8.419499548
 20
6.4999192804
 30
0.0
 11
10.122674745
 21
6.5593954689
 31
0.0
  0
LINE
  5
207
330
1F
100
AcDbEntity
  8
0
  6
Continuous
 62
     7
370
    25
100
AcDbLine
 10
8.419499548
 20
1.9899192804
 30
0.0
 11
10.122674745
 21
1.930443092
 31
0.0
  0
LINE
  5
208
330
1F
100
AcDbEntity
  8
0
  6
Continuous
 62
     7
370
    25
100
AcDbLine
 10
8.106424745
 20
5.9724192804
 30
0.0
 11
8.137674745
 21
5.9724192804
 31
0.0
  0
LINE
  5
209
330
1F
100
AcDbEntity
  8
0
  6
Continuous
 62
     7
370
    25
100
AcDbLine
 10
8.106424745
 20
5.9724192804
 30
0.0
 11
8.106424745
 21
6.0349192804
 31
0.0
  0
LINE
  5
20A
330
1F
100
AcDbEntity
  8
0
  6
Continuous
 62
     7
370
    25
100
AcDbLine
 10
8.106424745
 20
6.0349192804
 30
0.0
 11
8.137674745
 21
6.0349192804
 31
0.0
  0
LINE
  5
20B
330
1F
100
AcDbEntity
  8
0
  6
Continuous
 62
     7
370
    25
100
AcDbLine
 10
8.106424745
 20
2.4549192804
 30
0.0
 11
8.137674745
 21
2.4549192804
 31
0.0
  0
LINE
  5
20C
330
1F
100
AcDbEntity
  8
0
  6
Continuous
 62
     7
370
    25
100
AcDbLine
 10
8.106424745
 20
2.4549192804
 30
0.0
 11
8.106424745
 21
2.5174192804
 31
0.0
  0
LINE
  5
20D
330
1F
100
AcDbEntity
  8
0
  6
Continuous
 62
     7
370
    25
100
AcDbLine
 10
8.106424745
 20
2.5174192804
 30
0.0
 11
8.137674745
 21
2.5174192804
 31
0.0
  0
LINE
  5
20E
330
1F
100
AcDbEntity
  8
0
  6
Continuous
 62
     7
370
    25
100
AcDbLine
 10
10.960174745
 20
6.5589192804
 30
0.0
 11
11.085174745
 21
6.5589192804
 31
0.0
  0
LINE
  5
20F
330
1F
100
AcDbEntity
  8
0
  6
Continuous
 62
     7
370
    25
100
AcDbLine
 10
10.960174745
 20
6.3089192804
 30
0.0
 11
10.960174745
 21
6.5589192804
 31
0.0
  0
LINE
  5
210
330
1F
100
AcDbEntity
  8
0
  6
Continuous
 62
     7
370
    25
100
AcDbLine
 10
10.960174745
 20
1.9289192804
 30
0.0
 11
11.085174745
 21
1.9289192804
 31
0.0
  0
LINE
  5
211
330
1F
100
AcDbEntity
  8
0
  6
Continuous
 62
     7
370
    25
100
AcDbLine
 10
10.960174745
 20
1.9289192804
 30
0.0
 11
10.960174745
 21
2.1789192804
 31
0.0
  0
LINE
  5
212
330
1F
100
AcDbEntity
  8
0
  6
Continuous
 62
     7
370
    25
100
AcDbLine
 10
10.960174745
 20
2.1789192804
 30
0.0
 11
10.960174745
 21
6.3089192804
 31
0.0
  0
LINE
  5
213
330
1F
100
AcDbEntity
  8
0
  6
Continuous
 62
     7
370
    25
100
AcDbLine
 10
11.4657499292
 20
6.1054192804
 30
0.0
 11
11.4657499292
 21
5.6944192804
 31
0.0
  0
LINE
  5
214
330
1F
100
AcDbEntity
  8
0
  6
Continuous
 62
     7
370
    25
100
AcDbLine
 10
11.4707499292
 20
6.1054192804
 30
0.0
 11
11.4707499292
 21
5.6944192804
 31
0.0
  0
LINE
  5
215
330
1F
100
AcDbEntity
  8
0
  6
Continuous
 62
     7
370
    25
100
AcDbLine
 10
11.4657499292
 20
2.3859964698
 30
0.0
 11
11.4657499292
 21
2.3844192804
 31
0.0
  0
LINE
  5
216
330
1F
100
AcDbEntity
  8
0
  6
Continuous
 62
     7
370
    25
100
AcDbLine
 10
11.4657499292
 20
2.7954192804
 30
0.0
 11
11.4657499292
 21
2.3859964698
 31
0.0
  0
LINE
  5
217
330
1F
100
AcDbEntity
  8
0
  6
Continuous
 62
     7
370
    25
100
AcDbLine
 10
11.4707499292
 20
2.3859964698
 30
0.0
 11
11.4707499292
 21
2.3844192804
 31
0.0
  0
LINE
  5
218
330
1F
100
AcDbEntity
  8
0
  6
Continuous
 62
     7
370
    25
100
AcDbLine
 10
11.4707499292
 20
2.7954192804
 30
0.0
 11
11.4707499292
 21
2.3859964698
 31
0.0
  0
LINE
  5
219
330
1F
100
AcDbEntity
  8
0
  6
Continuous
 62
     7
370
    25
100
AcDbLine
 10
8.419499548
 20
1.9899192804
 30
0.0
 11
10.122674745
 21
1.9899192804
 31
0.0
  0
LINE
  5
21A
330
1F
100
AcDbEntity
  8
0
  6
Continuous
 62
     7
370
    25
100
AcDbLine
 10
8.419499548
 20
6.4999192804
 30
0.0
 11
10.122674745
 21
6.4999192804
 31
0.0
  0
LINE
  5
21B
330
1F
100
AcDbEntity
  8
0
  6
Continuous
 62
     7
370
    25
100
AcDbLine
 10
10.960174745
 20
6.3089192804
 30
0.0
 11
11.085174745
 21
6.3089192804
 31
0.0
  0
LINE
  5
21C
330
1F
100
AcDbEntity
  8
0
  6
Continuous
 62
     7
370
    25
100
AcDbLine
 10
10.960174745
 20
2.1789192804
 30
0.0
 11
11.085174745
 21
2.1789192804
 31
0.0
  0
DIMENSION
  5
21D
330
1F
100
AcDbEntity
  8
0
  6
Continuous
 62
     7
370
    18
100
AcDbDimension
  2
_D_3
 10
8.137674745
 20
7.5323208552
 30
0.0
 11
9.611424745
 21
7.5323208552
 31
0.0
 70
   160
  1
<>
 71
     2
 42
-1.0
  3
SLDDIMSTYLE0
100
AcDbAlignedDimension
 13
11.085174745
 23
6.7581891728
 33
0.0
 14
8.137674745
 24
6.4900777415
 34
0.0
100
AcDbRotatedDimension
  0
DIMENSION
  5
231
330
1F
100
AcDbEntity
  8
0
  6
Continuous
 62
     7
370
    18
100
AcDbDimension
  2
_D_4
 10
7.2979037377
 20
1.9997608194
 30
0.0
 11
7.2979037377
 21
4.2449192804
 31
0.0
 70
   160
  1
<>
 71
     2
 42
-1.0
  3
SLDDIMSTYLE0
100
AcDbAlignedDimension
 13
8.137674745
 23
6.4900777415
 33
0.0
 14
8.137674745
 24
1.9997608194
 34
0.0
 50
90.0
100
AcDbRotatedDimension
  0
DIMENSION
  5
245
330
1F
100
AcDbEntity
  8
0
  6
Continuous
 62
     7
370
    18
100
AcDbDimension
  2
_D_5
 10
12.785174745
 20
7.5323208552
 30
0.0
 11
11.935174745
 21
7.5323208552
 31
0.0
 70
   160
  1
<>
 71
     2
 42
-1.0
  3
SLDDIMSTYLE3
100
AcDbAlignedDimension
 13
11.085174745
 23
6.7581891728
 33
0.0
 14
12.785174745
 24
3.7749192804
 34
0.0
 50
0.0
100
AcDbRotatedDimension
  0
LINE
  5
25A
330
1F
100
AcDbEntity
  8
0
  6
Continuous
 62
     7
370
    25
100
AcDbLine
 10
3.0363618968
 20
6.1769192804
 30
0.0
 11
3.281735082
 21
6.1769192804
 31
0.0
  0
ARC
  5
25B
330
1F
100
AcDbEntity
  8
0
  6
Continuous
 62
     7
370
    25
100
AcDbCircle
 10
3.1590484894
 20
6.1949192804
 30
0.0
 40
0.1239999999999985
100
AcDbArc
 50
188.3466192632
 51
351.6533807368
  0
LINE
  5
25C
330
1F
100
AcDbEntity
  8
0
  6
Continuous
 62
     7
370
    25
100
AcDbLine
 10
3.281735082
 20
6.2129192804
 30
0.0
 11
3.0363618968
 21
6.2129192804
 31
0.0
  0
ARC
  5
25D
330
1F
100
AcDbEntity
  8
0
  6
Continuous
 62
     7
370
    25
100
AcDbCircle
 10
3.1590484894
 20
6.1949192804
 30
0.0
 40
0.1239999999999994
100
AcDbArc
 50
8.3466192632
 51
171.6533807368
  0
ARC
  5
25E
330
1F
100
AcDbEntity
  8
0
  6
Continuous
 62
     7
370
    25
100
AcDbCircle
 10
3.1590484894
 20
6.1949192804
 30
0.0
 40
0.0848820967982637
100
AcDbArc
 50
347.756966423
 51
12.243033577
  0
ARC
  5
25F
330
1F
100
AcDbEntity
  8
0
  6
Continuous
 62
     7
370
    25
100
AcDbCircle
 10
3.1590484894
 20
6.1949192804
 30
0.0
 40
0.0848820967982675
100
AcDbArc
 50
167.756966423
 51
192.243033577
  0
LINE
  5
260
330
1F
100
AcDbEntity
  8
0
  6
Continuous
 62
     7
370
    25
100
AcDbLine
 10
3.0363618968
 20
2.2769192804
 30
0.0
 11
3.281735082
 21
2.2769192804
 31
0.0
  0
ARC
  5
261
330
1F
100
AcDbEntity
  8
0
  6
Continuous
 62
     7
370
    25
100
AcDbCircle
 10
3.1590484894
 20
2.2949192804
 30
0.0
 40
0.1239999999999984
100
AcDbArc
 50
188.3466192632
 51
351.6533807368
  0
LINE
  5
262
330
1F
100
AcDbEntity
  8
0
  6
Continuous
 62
     7
370
    25
100
AcDbLine
 10
3.281735082
 20
2.3129192804
 30
0.0
 11
3.0363618968
 21
2.3129192804
 31
0.0
  0
ARC
  5
263
330
1F
100
AcDbEntity
  8
0
  6
Continuous
 62
     7
370
    25
100
AcDbCircle
 10
3.1590484894
 20
2.2949192804
 30
0.0
 40
0.1239999999999995
100
AcDbArc
 50
8.3466192632
 51
171.6533807368
  0
ARC
  5
264
330
1F
100
AcDbEntity
  8
0
  6
Continuous
 62
     7
370
    25
100
AcDbCircle
 10
3.1590484894
 20
2.2949192804
 30
0.0
 40
0.0848820967982636
100
AcDbArc
 50
347.756966423
 51
12.243033577
  0
ARC
  5
265
330
1F
100
AcDbEntity
  8
0
  6
Continuous
 62
     7
370
    25
100
AcDbCircle
 10
3.1590484894
 20
2.2949192804
 30
0.0
 40
0.0848820967982675
100
AcDbArc
 50
167.756966423
 51
192.243033577
  0
ARC
  5
266
330
1F
100
AcDbEntity
  8
0
  6
Continuous
 62
     7
370
    25
100
AcDbCircle
 10
5.1590484894
 20
2.2949192804
 30
0.0
 40
0.1239999999999989
100
AcDbArc
 50
188.3466192632
 51
351.6533807368
  0
LINE
  5
267
330
1F
100
AcDbEntity
  8
0
  6
Continuous
 62
     7
370
    25
100
AcDbLine
 10
5.0363618968
 20
2.2769192804
 30
0.0
 11
5.281735082
 21
2.2769192804
 31
0.0
  0
LINE
  5
268
330
1F
100
AcDbEntity
  8
0
  6
Continuous
 62
     7
370
    25
100
AcDbLine
 10
5.281735082
 20
2.3129192804
 30
0.0
 11
5.0363618968
 21
2.3129192804
 31
0.0
  0
ARC
  5
269
330
1F
100
AcDbEntity
  8
0
  6
Continuous
 62
     7
370
    25
100
AcDbCircle
 10
5.1590484894
 20
2.2949192804
 30
0.0
 40
0.1239999999999995
100
AcDbArc
 50
8.3466192632
 51
171.6533807368
  0
ARC
  5
26A
330
1F
100
AcDbEntity
  8
0
  6
Continuous
 62
     7
370
    25
100
AcDbCircle
 10
5.1590484894
 20
2.2949192804
 30
0.0
 40
0.084882096798264
100
AcDbArc
 50
347.756966423
 51
12.243033577
  0
ARC
  5
26B
330
1F
100
AcDbEntity
  8
0
  6
Continuous
 62
     7
370
    25
100
AcDbCircle
 10
5.1590484894
 20
2.2949192804
 30
0.0
 40
0.0848820967982676
100
AcDbArc
 50
167.756966423
 51
192.243033577
  0
ARC
  5
26C
330
1F
100
AcDbEntity
  8
0
  6
Continuous
 62
     7
370
    25
100
AcDbCircle
 10
5.1590484894
 20
6.1949192804
 30
0.0
 40
0.1239999999999989
100
AcDbArc
 50
188.3466192632
 51
351.6533807368
  0
LINE
  5
26D
330
1F
100
AcDbEntity
  8
0
  6
Continuous
 62
     7
370
    25
100
AcDbLine
 10
5.0363618968
 20
6.1769192804
 30
0.0
 11
5.281735082
 21
6.1769192804
 31
0.0
  0
LINE
  5
26E
330
1F
100
AcDbEntity
  8
0
  6
Continuous
 62
     7
370
    25
100
AcDbLine
 10
5.281735082
 20
6.2129192804
 30
0.0
 11
5.0363618968
 21
6.2129192804
 31
0.0
  0
ARC
  5
26F
330
1F
100
AcDbEntity
  8
0
  6
Continuous
 62
     7
370
    25
100
AcDbCircle
 10
5.1590484894
 20
6.1949192804
 30
0.0
 40
0.1239999999999994
100
AcDbArc
 50
8.3466192632
 51
171.6533807368
  0
ARC
  5
270
330
1F
100
AcDbEntity
  8
0
  6
Continuous
 62
     7
370
    25
100
AcDbCircle
 10
5.1590484894
 20
6.1949192804
 30
0.0
 40
0.0848820967982641
100
AcDbArc
 50
347.756966423
 51
12.243033577
  0
ARC
  5
271
330
1F
100
AcDbEntity
  8
0
  6
Continuous
 62
     7
370
    25
100
AcDbCircle
 10
5.1590484894
 20
6.1949192804
 30
0.0
 40
0.0848820967982677
100
AcDbArc
 50
167.756966423
 51
192.243033577
  0
LINE
  5
272
330
1F
100
AcDbEntity
  8
0
  6
Continuous
 62
     7
370
    25
100
AcDbLine
 10
2.7751260605
 20
1.9709968515
 30
0.0
 11
2.8037627933
 21
1.9996335843
 31
0.0
  0
LINE
  5
273
330
1F
100
AcDbEntity
  8
0
  6
Continuous
 62
     7
370
    25
100
AcDbLine
 10
5.5143341855
 20
1.9996335843
 30
0.0
 11
2.8037627933
 21
1.9996335843
 31
0.0
  0
LINE
  5
274
330
1F
100
AcDbEntity
  8
0
  6
Continuous
 62
     7
370
    25
100
AcDbLine
 10
5.5429709183
 20
1.9709968515
 30
0.0
 11
5.5143341855
 21
1.9996335843
 31
0.0
  0
LINE
  5
275
330
1F
100
AcDbEntity
  8
0
  6
Continuous
 62
     7
370
    25
100
AcDbLine
 10
5.5536880729
 20
1.9706478565
 30
0.0
 11
5.5429709183
 21
1.9709968515
 31
0.0
  0
LINE
  5
276
330
1F
100
AcDbEntity
  8
0
  6
Continuous
 62
     7
370
    25
100
AcDbLine
 10
2.764408906
 20
1.9706478565
 30
0.0
 11
5.5536880729
 21
1.9706478565
 31
0.0
  0
LINE
  5
277
330
1F
100
AcDbEntity
  8
0
  6
Continuous
 62
     7
370
    25
100
AcDbLine
 10
2.7751260605
 20
1.9709968515
 30
0.0
 11
2.764408906
 21
1.9706478565
 31
0.0
  0
LINE
  5
278
330
1F
100
AcDbEntity
  8
0
  6
Continuous
 62
     7
370
    25
100
AcDbLine
 10
5.5143341855
 20
6.4902049766
 30
0.0
 11
5.5143341855
 21
1.9996335843
 31
0.0
  0
LINE
  5
279
330
1F
100
AcDbEntity
  8
0
  6
Continuous
 62
     7
370
    25
100
AcDbLine
 10
5.5429709183
 20
6.5188417094
 30
0.0
 11
5.5143341855
 21
6.4902049766
 31
0.0
  0
LINE
  5
27A
330
1F
100
AcDbEntity
  8
0
  6
Continuous
 62
     7
370
    25
100
AcDbLine
 10
5.5429709183
 20
1.9709968515
 30
0.0
 11
5.5429709183
 21
6.5188417094
 31
0.0
  0
LINE
  5
27B
330
1F
100
AcDbEntity
  8
0
  6
Continuous
 62
     7
370
    25
100
AcDbLine
 10
5.4193341855
 20
5.7099192804
 30
0.0
 11
5.4193341855
 21
6.3949192804
 31
0.0
  0
LINE
  5
27C
330
1F
100
AcDbEntity
  8
0
  6
Continuous
 62
     7
370
    25
100
AcDbLine
 10
5.4193341855
 20
6.3949192804
 30
0.0
 11
2.8987627933
 21
6.3949192804
 31
0.0
  0
LINE
  5
27D
330
1F
100
AcDbEntity
  8
0
  6
Continuous
 62
     7
370
    25
100
AcDbLine
 10
2.8987627933
 20
6.3949192804
 30
0.0
 11
2.8987627933
 21
5.7099192804
 31
0.0
  0
LINE
  5
27E
330
1F
100
AcDbEntity
  8
0
  6
Continuous
 62
     7
370
    25
100
AcDbLine
 10
2.8987627933
 20
2.7799192804
 30
0.0
 11
2.8987627933
 21
5.7099192804
 31
0.0
  0
LINE
  5
27F
330
1F
100
AcDbEntity
  8
0
  6
Continuous
 62
     7
370
    25
100
AcDbLine
 10
2.8987627933
 20
2.7799192804
 30
0.0
 11
2.8987627933
 21
2.0949192804
 31
0.0
  0
LINE
  5
280
330
1F
100
AcDbEntity
  8
0
  6
Continuous
 62
     7
370
    25
100
AcDbLine
 10
2.8987627933
 20
2.0949192804
 30
0.0
 11
5.4193341855
 21
2.0949192804
 31
0.0
  0
LINE
  5
281
330
1F
100
AcDbEntity
  8
0
  6
Continuous
 62
     7
370
    25
100
AcDbLine
 10
5.4193341855
 20
2.0949192804
 30
0.0
 11
5.4193341855
 21
2.7799192804
 31
0.0
  0
LINE
  5
282
330
1F
100
AcDbEntity
  8
0
  6
Continuous
 62
     7
370
    25
100
AcDbLine
 10
5.4193341855
 20
5.7099192804
 30
0.0
 11
5.4193341855
 21
2.7799192804
 31
0.0
  0
LINE
  5
283
330
1F
100
AcDbEntity
  8
0
  6
Continuous
 62
     7
370
    25
100
AcDbLine
 10
2.8037627933
 20
1.9996335843
 30
0.0
 11
2.8037627933
 21
6.4902049766
 31
0.0
  0
LINE
  5
284
330
1F
100
AcDbEntity
  8
0
  6
Continuous
 62
     7
370
    25
100
AcDbLine
 10
2.8037627933
 20
6.4902049766
 30
0.0
 11
5.5143341855
 21
6.4902049766
 31
0.0
  0
LINE
  5
285
330
1F
100
AcDbEntity
  8
0
  6
Continuous
 62
     7
370
    25
100
AcDbLine
 10
2.7751260605
 20
6.5188417094
 30
0.0
 11
2.7751260605
 21
1.9709968515
 31
0.0
  0
LINE
  5
286
330
1F
100
AcDbEntity
  8
0
  6
Continuous
 62
     7
370
    25
100
AcDbLine
 10
2.7751260605
 20
6.5188417094
 30
0.0
 11
2.8037627933
 21
6.4902049766
 31
0.0
  0
LINE
  5
287
330
1F
100
AcDbEntity
  8
0
  6
Continuous
 62
     7
370
    25
100
AcDbLine
 10
2.764408906
 20
6.5191907043
 30
0.0
 11
2.7751260605
 21
6.5188417094
 31
0.0
  0
LINE
  5
288
330
1F
100
AcDbEntity
  8
0
  6
Continuous
 62
     7
370
    25
100
AcDbLine
 10
5.5536880729
 20
6.5191907043
 30
0.0
 11
2.764408906
 21
6.5191907043
 31
0.0
  0
LINE
  5
289
330
1F
100
AcDbEntity
  8
0
  6
Continuous
 62
     7
370
    25
100
AcDbLine
 10
5.5429709183
 20
6.5188417094
 30
0.0
 11
5.5536880729
 21
6.5191907043
 31
0.0
  0
CIRCLE
  5
28A
330
1F
100
AcDbEntity
  8
0
  6
Continuous
 62
     7
370
    25
100
AcDbCircle
 10
5.1590484894
 20
2.2949192804
 30
0.0
 40
0.1395
  0
CIRCLE
  5
28B
330
1F
100
AcDbEntity
  8
0
  6
Continuous
 62
     7
370
    25
100
AcDbCircle
 10
3.1590484894
 20
2.2949192804
 30
0.0
 40
0.1395
  0
CIRCLE
  5
28C
330
1F
100
AcDbEntity
  8
0
  6
Continuous
 62
     7
370
    25
100
AcDbCircle
 10
4.1590484894
 20
2.3399192804
 30
0.0
 40
0.0979999999999999
  0
CIRCLE
  5
28D
330
1F
100
AcDbEntity
  8
0
  6
Continuous
 62
     7
370
    25
100
AcDbCircle
 10
5.0965484894
 20
2.5899192804
 30
0.0
 40
0.0689999999999982
  0
CIRCLE
  5
28E
330
1F
100
AcDbEntity
  8
0
  6
Continuous
 62
     7
370
    25
100
AcDbCircle
 10
4.1590484894
 20
2.5899192804
 30
0.0
 40
0.0689999999999991
  0
CIRCLE
  5
28F
330
1F
100
AcDbEntity
  8
0
  6
Continuous
 62
     7
370
    25
100
AcDbCircle
 10
3.2215484894
 20
2.5899192804
 30
0.0
 40
0.069
  0
LINE
  5
290
330
1F
100
AcDbEntity
  8
0
  6
Continuous
 62
     7
370
    25
100
AcDbLine
 10
2.8987627933
 20
2.7799192804
 30
0.0
 11
5.4193341855
 21
2.7799192804
 31
0.0
  0
CIRCLE
  5
291
330
1F
100
AcDbEntity
  8
0
  6
Continuous
 62
     7
370
    25
100
AcDbCircle
 10
3.1590484894
 20
6.1949192804
 30
0.0
 40
0.1395
  0
CIRCLE
  5
292
330
1F
100
AcDbEntity
  8
0
  6
Continuous
 62
     7
370
    25
100
AcDbCircle
 10
5.1590484894
 20
6.1949192804
 30
0.0
 40
0.1395
  0
CIRCLE
  5
293
330
1F
100
AcDbEntity
  8
0
  6
Continuous
 62
     7
370
    25
100
AcDbCircle
 10
4.1590484894
 20
6.1499192804
 30
0.0
 40
0.0979999999999999
  0
CIRCLE
  5
294
330
1F
100
AcDbEntity
  8
0
  6
Continuous
 62
     7
370
    25
100
AcDbCircle
 10
4.1590484894
 20
5.8999192804
 30
0.0
 40
0.0689999999999991
  0
CIRCLE
  5
295
330
1F
100
AcDbEntity
  8
0
  6
Continuous
 62
     7
370
    25
100
AcDbCircle
 10
5.0965484894
 20
5.8999192804
 30
0.0
 40
0.069
  0
CIRCLE
  5
296
330
1F
100
AcDbEntity
  8
0
  6
Continuous
 62
     7
370
    25
100
AcDbCircle
 10
3.2215484894
 20
5.8999192804
 30
0.0
 40
0.0689999999999991
  0
LINE
  5
297
330
1F
100
AcDbEntity
  8
0
  6
Continuous
 62
     7
370
    25
100
AcDbLine
 10
5.4193341855
 20
5.7099192804
 30
0.0
 11
2.8987627933
 21
5.7099192804
 31
0.0
  0
LINE
  5
298
330
1F
100
AcDbEntity
  8
0
  6
Continuous
 62
     7
370
    25
100
AcDbLine
 10
5.6287081545
 20
6.594210786
 30
0.0
 11
5.5536880729
 21
6.5191907043
 31
0.0
  0
LINE
  5
299
330
1F
100
AcDbEntity
  8
0
  6
Continuous
 62
     7
370
    25
100
AcDbLine
 10
5.6287081545
 20
6.594210786
 30
0.0
 11
5.6287081545
 21
1.8956277749
 31
0.0
  0
LINE
  5
29A
330
1F
100
AcDbEntity
  8
0
  6
Continuous
 62
     7
370
    25
100
AcDbLine
 10
5.5536880729
 20
1.9706478565
 30
0.0
 11
5.6287081545
 21
1.8956277749
 31
0.0
  0
LINE
  5
29B
330
1F
100
AcDbEntity
  8
0
  6
Continuous
 62
     7
370
    25
100
AcDbLine
 10
2.6893888243
 20
1.8956277749
 30
0.0
 11
2.764408906
 21
1.9706478565
 31
0.0
  0
LINE
  5
29C
330
1F
100
AcDbEntity
  8
0
  6
Continuous
 62
     7
370
    25
100
AcDbLine
 10
2.6893888243
 20
1.8956277749
 30
0.0
 11
2.6893888243
 21
6.594210786
 31
0.0
  0
LINE
  5
29D
330
1F
100
AcDbEntity
  8
0
  6
Continuous
 62
     7
370
    25
100
AcDbLine
 10
2.764408906
 20
6.5191907043
 30
0.0
 11
2.6893888243
 21
6.594210786
 31
0.0
  0
LINE
  5
29E
330
1F
100
AcDbEntity
  8
0
  6
Continuous
 62
     7
370
    25
100
AcDbLine
 10
5.6287081545
 20
1.8956277749
 30
0.0
 11
2.6893888243
 21
1.8956277749
 31
0.0
  0
LINE
  5
29F
330
1F
100
AcDbEntity
  8
0
  6
Continuous
 62
     7
370
    25
100
AcDbLine
 10
2.6893888243
 20
6.594210786
 30
0.0
 11
5.6287081545
 21
6.594210786
 31
0.0
  0
LINE
  5
2A0
330
1F
100
AcDbEntity
  8
0
  6
Continuous
 62
     7
370
    25
100
AcDbLine
 10
5.6351279743
 20
1.8888397956
 30
0.0
 11
5.6307628781
 21
1.8932048918
 31
0.0
  0
LINE
  5
2A1
330
1F
100
AcDbEntity
  8
0
  6
Continuous
 62
     7
370
    25
100
AcDbLine
 10
5.6351279743
 20
1.8888397956
 30
0.0
 11
2.6829690046
 21
1.8888397956
 31
0.0
  0
LINE
  5
2A2
330
1F
100
AcDbEntity
  8
0
  6
Continuous
 62
     7
370
    25
100
AcDbLine
 10
2.6829690046
 20
1.8888397956
 30
0.0
 11
2.6873341008
 21
1.8932048918
 31
0.0
  0
LINE
  5
2A3
330
1F
100
AcDbEntity
  8
0
  6
Continuous
 62
     7
370
    25
100
AcDbLine
 10
5.6307628781
 20
1.8932048918
 30
0.0
 11
2.6873341008
 21
1.8932048918
 31
0.0
  0
LINE
  5
2A4
330
1F
100
AcDbEntity
  8
0
  6
Continuous
 62
     7
370
    25
100
AcDbLine
 10
2.6873341008
 20
1.8932048918
 30
0.0
 11
2.6873341008
 21
6.5966336691
 31
0.0
  0
LINE
  5
2A5
330
1F
100
AcDbEntity
  8
0
  6
Continuous
 62
     7
370
    25
100
AcDbLine
 10
2.6873341008
 20
6.5966336691
 30
0.0
 11
5.6307628781
 21
6.5966336691
 31
0.0
  0
LINE
  5
2A6
330
1F
100
AcDbEntity
  8
0
  6
Continuous
 62
     7
370
    25
100
AcDbLine
 10
5.6307628781
 20
6.5966336691
 30
0.0
 11
5.6307628781
 21
1.8932048918
 31
0.0
  0
LINE
  5
2A7
330
1F
100
AcDbEntity
  8
0
  6
Continuous
 62
     7
370
    25
100
AcDbLine
 10
5.6351279743
 20
6.6009987653
 30
0.0
 11
5.6307628781
 21
6.5966336691
 31
0.0
  0
LINE
  5
2A8
330
1F
100
AcDbEntity
  8
0
  6
Continuous
 62
     7
370
    25
100
AcDbLine
 10
5.6351279743
 20
6.6009987653
 30
0.0
 11
5.6351279743
 21
1.8888397956
 31
0.0
  0
LINE
  5
2A9
330
1F
100
AcDbEntity
  8
0
  6
Continuous
 62
     7
370
    25
100
AcDbLine
 10
2.6829690046
 20
1.8888397956
 30
0.0
 11
2.6829690046
 21
6.6009987653
 31
0.0
  0
LINE
  5
2AA
330
1F
100
AcDbEntity
  8
0
  6
Continuous
 62
     7
370
    25
100
AcDbLine
 10
2.6829690046
 20
6.6009987653
 30
0.0
 11
2.6873341008
 21
6.5966336691
 31
0.0
  0
LINE
  5
2AB
330
1F
100
AcDbEntity
  8
0
  6
Continuous
 62
     7
370
    25
100
AcDbLine
 10
2.6829690046
 20
6.6009987653
 30
0.0
 11
5.6351279743
 21
6.6009987653
 31
0.0
  0
CIRCLE
  5
2AC
330
1F
100
AcDbEntity
  8
0
  6
Continuous
 62
     7
370
    25
100
AcDbCircle
 10
4.1590484894
 20
6.1524192804
 30
0.0
 40
0.0700000000000003
  0
CIRCLE
  5
2AD
330
1F
100
AcDbEntity
  8
0
  6
Continuous
 62
     7
370
    25
100
AcDbCircle
 10
4.1590484894
 20
2.3399192804
 30
0.0
 40
0.0700000000000003
  0
ARC
  5
2AE
330
1F
100
AcDbEntity
  8
0
  6
Continuous
 62
     7
370
    25
100
AcDbCircle
 10
3.2215484894
 20
5.9024192804
 30
0.0
 40
0.0699999999999999
100
AcDbArc
 50
204.5193058652
 51
335.4806916047
  0
ARC
  5
2AF
330
1F
100
AcDbEntity
  8
0
  6
Continuous
 62
     7
370
    25
100
AcDbCircle
 10
5.0965484894
 20
5.9024192804
 30
0.0
 40
0.0700000000000005
100
AcDbArc
 50
204.5193153035
 51
335.4806850654
  0
ARC
  5
2B0
330
1F
100
AcDbEntity
  8
0
  6
Continuous
 62
     7
370
    25
100
AcDbCircle
 10
4.1590484894
 20
5.9024192804
 30
0.0
 40
0.0700000000000003
100
AcDbArc
 50
204.5193165471
 51
335.4806834528
  0
LINE
  5
2B1
330
1F
100
AcDbEntity
  8
0
  6
Continuous
 62
     7
370
    25
100
AcDbLine
 10
2.9590484894
 20
5.5711692804
 30
0.0
 11
2.9590484894
 21
2.9211692804
 31
0.0
  0
LINE
  5
2B2
330
1F
100
AcDbEntity
  8
0
  6
Continuous
 62
     7
370
    25
100
AcDbLine
 10
2.9590484894
 20
2.9211692804
 30
0.0
 11
5.3590484894
 21
2.9211692804
 31
0.0
  0
LINE
  5
2B3
330
1F
100
AcDbEntity
  8
0
  6
Continuous
 62
     7
370
    25
100
AcDbLine
 10
5.3590484894
 20
2.9211692804
 30
0.0
 11
5.3590484894
 21
5.5711692804
 31
0.0
  0
LINE
  5
2B4
330
1F
100
AcDbEntity
  8
0
  6
Continuous
 62
     7
370
    25
100
AcDbLine
 10
5.3590484894
 20
5.5711692804
 30
0.0
 11
2.9590484894
 21
5.5711692804
 31
0.0
  0
LINE
  5
2B5
330
1F
100
AcDbEntity
  8
0
  6
Continuous
 62
     7
370
    25
100
AcDbLine
 10
3.3652480626
 20
3.4378192804
 30
0.0
 11
3.3813071834
 21
3.4378192804
 31
0.0
  0
ARC
  5
2B6
330
1F
100
AcDbEntity
  8
0
  6
Continuous
 62
     7
370
    25
100
AcDbCircle
 10
3.259258013
 20
3.4648192804
 30
0.0
 40
0.1250000004096757
100
AcDbArc
 50
300.0000001084
 51
347.5257982895
  0
ARC
  5
2B7
330
1F
100
AcDbEntity
  8
0
  6
Continuous
 62
     7
370
    25
100
AcDbCircle
 10
3.259258013
 20
3.4648192804
 30
0.0
 40
0.1250000004096757
100
AcDbArc
 50
239.9999998916
 51
300.0000001084
  0
ARC
  5
2B8
330
1F
100
AcDbEntity
  8
0
  6
Continuous
 62
     7
370
    25
100
AcDbCircle
 10
3.259258013
 20
3.4648192804
 30
0.0
 40
0.1250000004096463
100
AcDbArc
 50
192.4742017105
 51
239.9999998916
  0
LINE
  5
2B9
330
1F
100
AcDbEntity
  8
0
  6
Continuous
 62
     7
370
    25
100
AcDbLine
 10
3.1372088426
 20
3.4378192804
 30
0.0
 11
3.1532679633
 21
3.4378192804
 31
0.0
  0
ARC
  5
2BA
330
1F
100
AcDbEntity
  8
0
  6
Continuous
 62
     7
370
    25
100
AcDbCircle
 10
3.259258013
 20
3.4648192804
 30
0.0
 40
0.109375000000025
100
AcDbArc
 50
194.2916117018
 51
345.7083882982
  0
SPLINE
  5
2BB
330
1F
100
AcDbEntity
  8
0
  6
Continuous
 62
     7
370
    25
100
AcDbSpline
210
0.0
220
0.0
230
1.0
 70
    24
 71
     3
 72
     9
 73
     5
 74
     0
 42
0.00000001
 43
0.00000001
 40
0.0
 40
0.0
 40
0.0
 40
0.0
 40
0.4078861665961748
 40
1.0
 40
1.0
 40
1.0
 40
1.0
 10
3.384258012994106
 20
3.392650496471921
 30
0.0
 10
3.384258012994084
 20
3.398707870618002
 30
0.0
 10
3.384258012994031
 20
3.413558519260072
 30
0.0
 10
3.384258012994056
 20
3.428796601278394
 30
0.0
 10
3.384258012994072
 20
3.437819280435985
 30
0.0
  0
SPLINE
  5
2BC
330
1F
100
AcDbEntity
  8
0
  6
Continuous
 62
     7
370
    25
100
AcDbSpline
210
0.0
220
0.0
230
1.0
 70
    24
 71
     3
 72
    10
 73
     6
 74
     0
 42
0.00000001
 43
0.00000001
 40
0.0
 40
0.0
 40
0.0
 40
0.0
 40
0.0700274472314726
 40
0.5307521380675413
 40
1.0
 40
1.0
 40
1.0
 40
1.0
 10
3.321758013403768
 20
3.3565661047264
 30
0.0
 10
3.323238141935109
 20
3.357420657336133
 30
0.0
 10
3.334456334425084
 20
3.363897483818294
 30
0.0
 10
3.355609012530799
 20
3.376109988270138
 30
0.0
 10
3.37465017560647
 20
3.387103408945599
 30
0.0
 10
3.384258012994107
 20
3.392650496471922
 30
0.0
  0
LINE
  5
2BD
330
1F
100
AcDbEntity
  8
0
  6
Continuous
 62
     7
370
    25
100
AcDbLine
 10
3.3813071834
 20
3.4378192804
 30
0.0
 11
3.384258013
 21
3.4378192804
 31
0.0
  0
ARC
  5
2BE
330
1F
100
AcDbEntity
  8
0
  6
Continuous
 62
     7
370
    25
100
AcDbCircle
 10
3.259258013
 20
3.4648192804
 30
0.0
 40
0.1250000004097044
100
AcDbArc
 50
12.4742017105
 51
59.9999998916
  0
SPLINE
  5
2BF
330
1F
100
AcDbEntity
  8
0
  6
Continuous
 62
     7
370
    25
100
AcDbSpline
210
0.0
220
0.0
230
1.0
 70
    24
 71
     3
 72
     9
 73
     5
 74
     0
 42
0.00000001
 43
0.00000001
 40
0.0
 40
0.0
 40
0.0
 40
0.0
 40
0.4954579638440885
 40
1.0
 40
1.0
 40
1.0
 40
1.0
 10
3.384258012994047
 20
3.536988064400054
 30
0.0
 10
3.374107738281312
 20
3.542848328263398
 30
0.0
 10
3.353621086630822
 20
3.554676302160267
 30
0.0
 10
3.332443165069728
 20
3.566903380927897
 30
0.0
 10
3.321758013403743
 20
3.573072456145557
 30
0.0
  0
LINE
  5
2C0
330
1F
100
AcDbEntity
  8
0
  6
Continuous
 62
     7
370
    25
100
AcDbLine
 10
3.384258013
 20
3.4918192804
 30
0.0
 11
3.384258013
 21
3.5369880644
 31
0.0
  0
LINE
  5
2C1
330
1F
100
AcDbEntity
  8
0
  6
Continuous
 62
     7
370
    25
100
AcDbLine
 10
3.384258013
 20
3.4918192804
 30
0.0
 11
3.3813071834
 21
3.4918192804
 31
0.0
  0
ARC
  5
2C2
330
1F
100
AcDbEntity
  8
0
  6
Continuous
 62
     7
370
    25
100
AcDbCircle
 10
3.259258013
 20
3.4648192804
 30
0.0
 40
0.125000000409685
100
AcDbArc
 50
120.0000001084
 51
167.5257982895
  0
ARC
  5
2C3
330
1F
100
AcDbEntity
  8
0
  6
Continuous
 62
     7
370
    25
100
AcDbCircle
 10
3.259258013
 20
3.4648192804
 30
0.0
 40
0.1250000004097044
100
AcDbArc
 50
59.9999998916
 51
120.0000001084
  0
ARC
  5
2C4
330
1F
100
AcDbEntity
  8
0
  6
Continuous
 62
     7
370
    25
100
AcDbCircle
 10
3.259258013
 20
3.4648192804
 30
0.0
 40
0.1093750000000415
100
AcDbArc
 50
14.2916117018
 51
165.7083882982
  0
LINE
  5
2C5
330
1F
100
AcDbEntity
  8
0
  6
Continuous
 62
     7
370
    25
100
AcDbLine
 10
3.3813071834
 20
3.4918192804
 30
0.0
 11
3.3652480626
 21
3.4918192804
 31
0.0
  0
LINE
  5
2C6
330
1F
100
AcDbEntity
  8
0
  6
Continuous
 62
     7
370
    25
100
AcDbLine
 10
3.1532679633
 20
3.4918192804
 30
0.0
 11
3.1372088426
 21
3.4918192804
 31
0.0
  0
SPLINE
  5
2C7
330
1F
100
AcDbEntity
  8
0
  6
Continuous
 62
     7
370
    25
100
AcDbSpline
210
0.0
220
0.0
230
1.0
 70
    24
 71
     3
 72
     9
 73
     5
 74
     0
 42
0.00000001
 43
0.00000001
 40
0.0
 40
0.0
 40
0.0
 40
0.0
 40
0.4954579637694505
 40
1.0
 40
1.0
 40
1.0
 40
1.0
 10
3.259258012994056
 20
3.609156848364125
 30
0.0
 10
3.249107738153366
 20
3.603296584426891
 30
0.0
 10
3.228621086241533
 20
3.591468610379106
 30
0.0
 10
3.207443164395644
 20
3.579241531447075
 30
0.0
 10
3.196758012584388
 20
3.573072456145557
 30
0.0
  0
SPLINE
  5
2C8
330
1F
100
AcDbEntity
  8
0
  6
Continuous
 62
     7
370
    25
100
AcDbSpline
210
0.0
220
0.0
230
1.0
 70
    24
 71
     3
 72
    10
 73
     6
 74
     0
 42
0.00000001
 43
0.00000001
 40
0.0
 40
0.0
 40
0.0
 40
0.0
 40
0.0700274563532683
 40
0.5307521426902447
 40
1.0
 40
1.0
 40
1.0
 40
1.0
 10
3.321758013403743
 20
3.573072456145557
 30
0.0
 10
3.32027788465971
 20
3.573927008878099
 30
0.0
 10
3.30905969192128
 20
3.580403835503796
 30
0.0
 10
3.287907013539491
 20
3.592616340114864
 30
0.0
 10
3.268865850408964
 20
3.603609760822037
 30
0.0
 10
3.259258012994056
 20
3.609156848364125
 30
0.0
  0
LINE
  5
2C9
330
1F
100
AcDbEntity
  8
0
  6
Continuous
 62
     7
370
    25
100
AcDbLine
 10
3.134258013
 20
3.5369880644
 30
0.0
 11
3.134258013
 21
3.4918192804
 31
0.0
  0
SPLINE
  5
2CA
330
1F
100
AcDbEntity
  8
0
  6
Continuous
 62
     7
370
    25
100
AcDbSpline
210
0.0
220
0.0
230
1.0
 70
    24
 71
     3
 72
    10
 73
     6
 74
     0
 42
0.00000001
 43
0.00000001
 40
0.0
 40
0.0
 40
0.0
 40
0.0
 40
0.0700274472315515
 40
0.5307521380675426
 40
0.9999999999999999
 40
0.9999999999999999
 40
0.9999999999999999
 40
0.9999999999999999
 10
3.196758012584388
 20
3.573072456145557
 30
0.0
 10
3.195277884053045
 20
3.572217903535823
 30
0.0
 10
3.184059691563068
 20
3.565741077053667
 30
0.0
 10
3.162907013457361
 20
3.553528572601802
 30
0.0
 10
3.143865850381689
 20
3.542535151926355
 30
0.0
 10
3.13425801299405
 20
3.53698806440004
 30
0.0
  0
LINE
  5
2CB
330
1F
100
AcDbEntity
  8
0
  6
Continuous
 62
     7
370
    25
100
AcDbLine
 10
3.1372088426
 20
3.4918192804
 30
0.0
 11
3.134258013
 21
3.4918192804
 31
0.0
  0
SPLINE
  5
2CC
330
1F
100
AcDbEntity
  8
0
  6
Continuous
 62
     7
370
    25
100
AcDbSpline
210
0.0
220
0.0
230
1.0
 70
    24
 71
     3
 72
     9
 73
     5
 74
     0
 42
0.00000001
 43
0.00000001
 40
0.0
 40
0.0
 40
0.0
 40
0.0
 40
0.4954579637694244
 40
1.0
 40
1.0
 40
1.0
 40
1.0
 10
3.259258012994088
 20
3.320481712507818
 30
0.0
 10
3.269408287834782
 20
3.326341976445052
 30
0.0
 10
3.289894939746621
 20
3.338169950492837
 30
0.0
 10
3.311072861592511
 20
3.350397029424877
 30
0.0
 10
3.321758013403768
 20
3.3565661047264
 30
0.0
  0
SPLINE
  5
2CD
330
1F
100
AcDbEntity
  8
0
  6
Continuous
 62
     7
370
    25
100
AcDbSpline
210
0.0
220
0.0
230
1.0
 70
    24
 71
     3
 72
    10
 73
     6
 74
     0
 42
0.00000001
 43
0.00000001
 40
0.0
 40
0.0
 40
0.0
 40
0.0
 40
0.070027456352581
 40
0.5307521426899399
 40
0.9999999999999999
 40
0.9999999999999999
 40
0.9999999999999999
 40
0.9999999999999999
 10
3.196758012584406
 20
3.356566104726387
 30
0.0
 10
3.198238141328426
 20
3.355711551993856
 30
0.0
 10
3.20945633406686
 20
3.349234725368182
 30
0.0
 10
3.230609012448581
 20
3.337022220757009
 30
0.0
 10
3.249650175579157
 20
3.326028800049881
 30
0.0
 10
3.259258012994088
 20
3.320481712507818
 30
0.0
  0
SPLINE
  5
2CE
330
1F
100
AcDbEntity
  8
0
  6
Continuous
 62
     7
370
    25
100
AcDbSpline
210
0.0
220
0.0
230
1.0
 70
    24
 71
     3
 72
     9
 73
     5
 74
     0
 42
0.00000001
 43
0.00000001
 40
0.0
 40
0.0
 40
0.0
 40
0.0
 40
0.4954579638440487
 40
1.0
 40
1.0
 40
1.0
 40
1.0
 10
3.134258012994061
 20
3.392650496471882
 30
0.0
 10
3.14440828770679
 20
3.386790232608523
 30
0.0
 10
3.164894939357271
 20
3.374962258711622
 30
0.0
 10
3.186072860918402
 20
3.362735179944028
 30
0.0
 10
3.196758012584406
 20
3.356566104726387
 30
0.0
  0
SPLINE
  5
2CF
330
1F
100
AcDbEntity
  8
0
  6
Continuous
 62
     7
370
    25
100
AcDbSpline
210
0.0
220
0.0
230
1.0
 70
    24
 71
     3
 72
     9
 73
     5
 74
     0
 42
0.00000001
 43
0.00000001
 40
0.0
 40
0.0
 40
0.0
 40
0.0
 40
0.5921138334028517
 40
1.0
 40
1.0
 40
1.0
 40
1.0
 10
3.134258012994059
 20
3.437819280435974
 30
0.0
 10
3.134258012994054
 20
3.428796601278394
 30
0.0
 10
3.134258012994044
 20
3.413558519260067
 30
0.0
 10
3.134258012994056
 20
3.398707870617983
 30
0.0
 10
3.134258012994061
 20
3.392650496471882
 30
0.0
  0
LINE
  5
2D0
330
1F
100
AcDbEntity
  8
0
  6
Continuous
 62
     7
370
    25
100
AcDbLine
 10
3.134258013
 20
3.4378192804
 30
0.0
 11
3.1372088426
 21
3.4378192804
 31
0.0
  0
LINE
  5
2D1
330
1F
100
AcDbEntity
  8
0
  6
Continuous
 62
     7
370
    25
100
AcDbLine
 10
3.3652480626
 20
3.4378192804
 30
0.0
 11
3.1532679633
 21
3.4378192804
 31
0.0
  0
LINE
  5
2D2
330
1F
100
AcDbEntity
  8
0
  6
Continuous
 62
     7
370
    25
100
AcDbLine
 10
3.1532679633
 20
3.4918192804
 30
0.0
 11
3.3652480626
 21
3.4918192804
 31
0.0
  0
LINE
  5
2D3
330
1F
100
AcDbEntity
  8
0
  6
Continuous
 62
     7
370
    25
100
AcDbLine
 10
3.134258013
 20
3.4918192804
 30
0.0
 11
3.134258013
 21
3.4378192804
 31
0.0
  0
LINE
  5
2D4
330
1F
100
AcDbEntity
  8
0
  6
Continuous
 62
     7
370
    25
100
AcDbLine
 10
3.384258013
 20
3.4378192804
 30
0.0
 11
3.384258013
 21
3.4918192804
 31
0.0
  0
CIRCLE
  5
2D5
330
1F
100
AcDbEntity
  8
0
  6
Continuous
 62
     7
370
    25
100
AcDbCircle
 10
3.259258013
 20
3.4648192804
 30
0.0
 40
0.1740000000000101
  0
LINE
  5
2D6
330
1F
100
AcDbEntity
  8
0
  6
Continuous
 62
     7
370
    25
100
AcDbLine
 10
4.1590484894
 20
3.8949192804
 30
0.0
 11
4.1590484894
 21
3.8349192804
 31
0.0
  0
LWPOLYLINE
  5
2D7
330
1F
100
AcDbEntity
  8
0
  6
Continuous
 62
     7
370
    25
100
AcDbPolyline
 90
       34
 70
   128
 43
0.0
 10
4.1590484894
 20
3.8349192804
 10
4.0809151757
 20
3.8424330257
 10
4.0032379693
 20
3.865679143
 10
3.9307493672
 20
3.9043616336
 10
3.8678146549
 20
3.9563315925
 10
3.8175905036
 20
4.0179689689
 10
3.7808792427
 20
4.0865272956
 10
3.757244801
 20
4.1633484769
 10
3.7490484894
 20
4.2449192804
 10
3.757244801
 20
4.326490084
 10
3.7808792427
 20
4.4033112653
 10
3.8175905036
 20
4.471869592
 10
3.8678146549
 20
4.5335069684
 10
3.9307493672
 20
4.5854769273
 10
4.0032379693
 20
4.6241594179
 10
4.0809151757
 20
4.6474055352
 10
4.1590484894
 20
4.6549192804
 10
4.2371818031
 20
4.6474055352
 10
4.3148590095
 20
4.6241594179
 10
4.3873476116
 20
4.5854769273
 10
4.4502823239
 20
4.5335069684
 10
4.5005064752
 20
4.471869592
 10
4.5372177361
 20
4.4033112653
 10
4.5608521778
 20
4.326490084
 10
4.5690484894
 20
4.2449192804
 10
4.5608521778
 20
4.1633484769
 10
4.5372177361
 20
4.0865272956
 10
4.5005064752
 20
4.0179689689
 10
4.4502823239
 20
3.9563315925
 10
4.3873476116
 20
3.9043616336
 10
4.3148590095
 20
3.865679143
 10
4.2371818031
 20
3.8424330257
 10
4.1590484894
 20
3.8349192804
 10
4.1590484894
 20
3.8349192804
  0
CIRCLE
  5
2D8
330
1F
100
AcDbEntity
  8
0
  6
Continuous
 62
     7
370
    25
100
AcDbCircle
 10
4.1590484894
 20
4.2449192804
 30
0.0
 40
0.3125
  0
CIRCLE
  5
2D9
330
1F
100
AcDbEntity
  8
0
  6
Continuous
 62
     7
370
    25
100
AcDbCircle
 10
4.1590484894
 20
4.2449192804
 30
0.0
 40
0.3500000000000005
  0
CIRCLE
  5
2DA
330
1F
100
AcDbEntity
  8
0
  6
Continuous
 62
     7
370
    25
100
AcDbCircle
 10
4.1590484894
 20
4.2449192804
 30
0.0
 40
0.4125000000000005
  0
CIRCLE
  5
2DB
330
1F
100
AcDbEntity
  8
0
  6
Continuous
 62
     7
370
    25
100
AcDbCircle
 10
4.1590484894
 20
5.9011692804
 30
0.0
 40
0.0625
  0
ELLIPSE
  5
2DC
330
1F
100
AcDbEntity
  8
0
  6
Continuous
 62
     7
370
    25
100
AcDbEllipse
 10
3.4340484894
 20
2.6451840322
 30
0.0
 11
0.3125
 21
0.0
 31
0.0
210
0.0
220
0.0
230
1.0
 40
0.0349207695
 41
2.212951335296964
 42
2.457292991299288
  0
ELLIPSE
  5
2DD
330
1F
100
AcDbEntity
  8
0
  6
Continuous
 62
     7
370
    25
100
AcDbEllipse
 10
3.4340484894
 20
2.6451840322
 30
0.0
 11
0.3125
 21
0.0
 31
0.0
210
0.0
220
0.0
230
1.0
 40
0.0349207695
 41
3.724111335158976
 42
4.172014952604446
  0
ELLIPSE
  5
2DE
330
1F
100
AcDbEntity
  8
0
  6
Continuous
 62
     7
370
    25
100
AcDbEllipse
 10
4.8840484894
 20
2.6451840322
 30
0.0
 11
0.3125
 21
0.0
 31
0.0
210
0.0
220
0.0
230
1.0
 40
0.0349207695
 41
5.252763008165076
 42
5.700666625611106
  0
ELLIPSE
  5
2DF
330
1F
100
AcDbEntity
  8
0
  6
Continuous
 62
     7
370
    25
100
AcDbEllipse
 10
4.8840484894
 20
2.6451840322
 30
0.0
 11
0.3125
 21
0.0
 31
0.0
210
0.0
220
0.0
230
1.0
 40
0.0349207695
 41
0.6842996622903675
 42
0.9286413182930012
  0
ELLIPSE
  5
2E0
330
1F
100
AcDbEntity
  8
0
  6
Continuous
 62
     7
370
    25
100
AcDbEllipse
 10
3.4340484894
 20
2.6451320521
 30
0.0
 11
0.5680388654535036
 21
4.440892098500626E-16
 31
0.0
210
0.0
220
0.0
230
1.0
 40
0.0349207955
 41
4.215832065253043
 42
4.439115648991081
  0
ELLIPSE
  5
2E1
330
1F
100
AcDbEntity
  8
0
  6
Continuous
 62
     7
370
    25
100
AcDbEllipse
 10
4.8840484894
 20
2.6451320521
 30
0.0
 11
0.568038865453504
 21
4.440892098500626E-16
 31
0.0
210
0.0
220
0.0
230
1.0
 40
0.0349207955
 41
4.985662311691884
 42
5.208945895611224
  0
ELLIPSE
  5
2E2
330
1F
100
AcDbEntity
  8
0
  6
Continuous
 62
     7
370
    25
100
AcDbEllipse
 10
3.4340484894
 20
5.8446545286
 30
0.0
 11
0.3125
 21
1.776356839400250E-15
 31
0.0
210
0.0
220
0.0
230
1.0
 40
0.0349207695
 41
3.841731579854155
 42
4.05725617988247
  0
ELLIPSE
  5
2E3
330
1F
100
AcDbEntity
  8
0
  6
Continuous
 62
     7
370
    25
100
AcDbEllipse
 10
3.4340484894
 20
5.8446545286
 30
0.0
 11
0.3125
 21
1.776356839400250E-15
 31
0.0
210
0.0
220
0.0
230
1.0
 40
0.0349207695
 41
2.111170354575063
 42
2.551759228342034
  0
ELLIPSE
  5
2E4
330
1F
100
AcDbEntity
  8
0
  6
Continuous
 62
     7
370
    25
100
AcDbEllipse
 10
4.8840484894
 20
5.8446545286
 30
0.0
 11
0.3125
 21
1.776356839400250E-15
 31
0.0
210
0.0
220
0.0
230
1.0
 40
0.0349207695
 41
0.5898334252476504
 42
1.030422299014593
  0
ELLIPSE
  5
2E5
330
1F
100
AcDbEntity
  8
0
  6
Continuous
 62
     7
370
    25
100
AcDbEllipse
 10
4.8840484894
 20
5.8446545286
 30
0.0
 11
0.3125
 21
1.776356839400250E-15
 31
0.0
210
0.0
220
0.0
230
1.0
 40
0.0349207695
 41
5.367521780887278
 42
5.583046380915248
  0
ELLIPSE
  5
2E6
330
1F
100
AcDbEntity
  8
0
  6
Continuous
 62
     7
370
    25
100
AcDbEllipse
 10
3.4340484894
 20
5.8447065088
 30
0.0
 11
0.5680388654535036
 21
0.0
 31
0.0
210
0.0
220
0.0
230
1.0
 40
0.0349207955
 41
1.844069658104876
 42
2.067353242018229
  0
ELLIPSE
  5
2E7
330
1F
100
AcDbEntity
  8
0
  6
Continuous
 62
     7
370
    25
100
AcDbEllipse
 10
4.8840484894
 20
5.8447065088
 30
0.0
 11
0.568038865453504
 21
1.776356839400250E-15
 31
0.0
210
0.0
220
0.0
230
1.0
 40
0.0349207955
 41
1.074239411666236
 42
1.297522995398426
  0
LINE
  5
2E8
330
1F
100
AcDbEntity
  8
0
  6
Continuous
 62
     7
370
    25
100
AcDbLine
 10
3.1383200537
 20
3.5899192804
 30
0.0
 11
2.9590484894
 21
3.5899192804
 31
0.0
  0
LINE
  5
2E9
330
1F
100
AcDbEntity
  8
0
  6
Continuous
 62
     7
370
    25
100
AcDbLine
 10
2.9590484894
 20
3.3399192804
 30
0.0
 11
3.1381135125
 21
3.3399192804
 31
0.0
  0
CIRCLE
  5
2EA
330
1F
100
AcDbEntity
  8
0
  6
Continuous
 62
     7
370
    25
100
AcDbCircle
 10
4.1590484894
 20
4.2449192804
 30
0.0
 40
0.5250000000000004
  0
CIRCLE
  5
2EB
330
1F
100
AcDbEntity
  8
0
  6
Continuous
 62
     7
370
    25
100
AcDbCircle
 10
4.1590484894
 20
4.2449192804
 30
0.0
 40
0.519761884576238
  0
CIRCLE
  5
2EC
330
1F
100
AcDbEntity
  8
0
  6
Continuous
 62
     7
370
    25
100
AcDbCircle
 10
4.1590484894
 20
4.2449192804
 30
0.0
 40
0.4249999999999998
  0
CIRCLE
  5
2ED
330
1F
100
AcDbEntity
  8
0
  6
Continuous
 62
     7
370
    25
100
AcDbCircle
 10
4.1590484894
 20
2.5886692804
 30
0.0
 40
0.0625
  0
ARC
  5
2EE
330
1F
100
AcDbEntity
  8
0
  6
Continuous
 62
     7
370
    25
100
AcDbCircle
 10
5.0965484894
 20
2.5886692804
 30
0.0
 40
0.0700000000000005
100
AcDbArc
 50
53.4382158225
 51
126.5617949704
  0
ARC
  5
2EF
330
1F
100
AcDbEntity
  8
0
  6
Continuous
 62
     7
370
    25
100
AcDbCircle
 10
3.2215484894
 20
2.5886692804
 30
0.0
 40
0.0700000000000003
100
AcDbArc
 50
53.4382936257
 51
126.5616783183
  0
SPLINE
  5
2F0
330
1F
100
AcDbEntity
  8
0
  6
Continuous
 62
     7
370
    25
100
AcDbSpline
210
0.0
220
0.0
230
1.0
 70
     8
 71
     3
 72
    11
 73
     7
 74
     0
 42
0.00000001
 43
0.00000001
 40
0.0
 40
0.0
 40
0.0
 40
0.0
 40
0.0120985134171376
 40
0.4096683761390433
 40
0.9061788796325333
 40
1.0
 40
1.0
 40
1.0
 40
1.0
 10
3.284564728162233
 20
2.561220304172308
 30
0.0
 10
3.284028659068723
 20
2.561223688812071
 30
0.0
 10
3.26587679631794
 20
2.561338296270662
 30
0.0
 10
3.226938464697629
 20
2.5617464447085
 30
0.0
 10
3.184703980886905
 20
2.562217932871965
 30
0.0
 10
3.161241052099881
 20
2.562617833119433
 30
0.0
 10
3.15751210013979
 20
2.562681389072962
 30
0.0
  0
SPLINE
  5
2F1
330
1F
100
AcDbEntity
  8
0
  6
Continuous
 62
     7
370
    25
100
AcDbSpline
210
0.0
220
0.0
230
1.0
 70
     8
 71
     3
 72
    11
 73
     7
 74
     0
 42
0.00000001
 43
0.00000001
 40
0.0
 40
0.0
 40
0.0
 40
0.0
 40
0.0158314250117633
 40
0.4165044181093124
 40
0.916890307968026
 40
0.9999999999999999
 40
0.9999999999999999
 40
0.9999999999999999
 40
0.9999999999999999
 10
5.033052490529933
 20
5.928621304911253
 30
0.0
 10
5.033748587778934
 20
5.928616917894349
 30
0.0
 10
5.052062010571074
 20
5.928501501125385
 30
0.0
 10
5.091153984704939
 20
5.928091926016839
 30
0.0
 10
5.132925541801031
 20
5.927627241422561
 30
0.0
 10
5.15594654067963
 20
5.9272356613418
 30
0.0
 10
5.159225516881762
 20
5.92717988696933
 30
0.0
  0
SPLINE
  5
2F2
330
1F
100
AcDbEntity
  8
0
  6
Continuous
 62
     7
370
    25
100
AcDbSpline
210
0.0
220
0.0
230
1.0
 70
     8
 71
     3
 72
    11
 73
     7
 74
     0
 42
0.00000001
 43
0.00000001
 40
0.0
 40
0.0
 40
0.0
 40
0.0
 40
0.0497704376214509
 40
0.5155268526892165
 40
0.9015127315646877
 40
0.9999999999999999
 40
0.9999999999999999
 40
0.9999999999999999
 40
0.9999999999999999
 10
5.160306459934075
 20
2.562668023114124
 30
0.0
 10
5.158327653895491
 20
2.562634238207471
 30
0.0
 10
5.137830995680178
 20
2.562284290981205
 30
0.0
 10
5.099444620736351
 20
2.561836569072258
 30
0.0
 10
5.05870386999881
 20
2.561399787141164
 30
0.0
 10
5.037263949885917
 20
2.561255900386207
 30
0.0
 10
5.032905485068803
 20
2.561226650027259
 30
0.0
  0
SPLINE
  5
2F3
330
1F
100
AcDbEntity
  8
0
  6
Continuous
 62
     7
370
    25
100
AcDbSpline
210
0.0
220
0.0
230
1.0
 70
     8
 71
     3
 72
    11
 73
     7
 74
     0
 42
0.00000001
 43
0.00000001
 40
0.0
 40
0.0
 40
0.0
 40
0.0
 40
0.0542904942833032
 40
0.515219059933639
 40
0.8972039596702773
 40
0.9999999999999999
 40
0.9999999999999999
 40
0.9999999999999999
 40
0.9999999999999999
 10
3.157182172514226
 20
5.927160264395009
 30
0.0
 10
3.159362855435057
 20
5.927197531995178
 30
0.0
 10
3.180057627499961
 20
5.927551203078467
 30
0.0
 10
3.21864753870969
 20
5.928002398506696
 30
0.0
 10
3.259627759792119
 20
5.928440814963897
 30
0.0
 10
3.281307798135815
 20
5.928586083633725
 30
0.0
 10
3.285904971646027
 20
5.928616887328359
 30
0.0
  0
LINE
  5
2F4
330
1F
100
AcDbEntity
  8
0
  6
Continuous
 62
     7
370
    25
100
AcDbLine
 10
4.0966320425
 20
5.8979386212
 30
0.0
 11
4.2214649363
 21
5.8979386212
 31
0.0
  0
SPLINE
  5
2F5
330
1F
100
AcDbEntity
  8
0
  6
Continuous
 62
     7
370
    25
100
AcDbSpline
210
0.0
220
0.0
230
1.0
 70
     8
 71
     3
 72
    11
 73
     7
 74
     0
 42
0.00000001
 43
0.00000001
 40
0.0
 40
0.0
 40
0.0
 40
0.0
 40
0.0120985134171376
 40
0.4096683761390433
 40
0.9061788796325333
 40
1.0
 40
1.0
 40
1.0
 40
1.0
 10
3.284564728162233
 20
2.561220304172308
 30
0.0
 10
3.284028659068723
 20
2.561223688812071
 30
0.0
 10
3.26587679631794
 20
2.561338296270662
 30
0.0
 10
3.226938464697629
 20
2.5617464447085
 30
0.0
 10
3.184703980886905
 20
2.562217932871965
 30
0.0
 10
3.161241052099881
 20
2.562617833119433
 30
0.0
 10
3.15751210013979
 20
2.562681389072962
 30
0.0
  0
SPLINE
  5
2F6
330
1F
100
AcDbEntity
  8
0
  6
Continuous
 62
     7
370
    25
100
AcDbSpline
210
0.0
220
0.0
230
1.0
 70
     8
 71
     3
 72
    11
 73
     7
 74
     0
 42
0.00000001
 43
0.00000001
 40
0.0
 40
0.0
 40
0.0
 40
0.0
 40
0.0158314250117633
 40
0.4165044181093124
 40
0.916890307968026
 40
0.9999999999999999
 40
0.9999999999999999
 40
0.9999999999999999
 40
0.9999999999999999
 10
5.033052490529933
 20
5.928621304911253
 30
0.0
 10
5.033748587778934
 20
5.928616917894349
 30
0.0
 10
5.052062010571074
 20
5.928501501125385
 30
0.0
 10
5.091153984704939
 20
5.928091926016839
 30
0.0
 10
5.132925541801031
 20
5.927627241422561
 30
0.0
 10
5.15594654067963
 20
5.9272356613418
 30
0.0
 10
5.159225516881762
 20
5.92717988696933
 30
0.0
  0
SPLINE
  5
2F7
330
1F
100
AcDbEntity
  8
0
  6
Continuous
 62
     7
370
    25
100
AcDbSpline
210
0.0
220
0.0
230
1.0
 70
     8
 71
     3
 72
    11
 73
     7
 74
     0
 42
0.00000001
 43
0.00000001
 40
0.0
 40
0.0
 40
0.0
 40
0.0
 40
0.0497704376214509
 40
0.5155268526892165
 40
0.9015127315646877
 40
0.9999999999999999
 40
0.9999999999999999
 40
0.9999999999999999
 40
0.9999999999999999
 10
5.160306459934075
 20
2.562668023114124
 30
0.0
 10
5.158327653895491
 20
2.562634238207471
 30
0.0
 10
5.137830995680178
 20
2.562284290981205
 30
0.0
 10
5.099444620736351
 20
2.561836569072258
 30
0.0
 10
5.05870386999881
 20
2.561399787141164
 30
0.0
 10
5.037263949885917
 20
2.561255900386207
 30
0.0
 10
5.032905485068803
 20
2.561226650027259
 30
0.0
  0
SPLINE
  5
2F8
330
1F
100
AcDbEntity
  8
0
  6
Continuous
 62
     7
370
    25
100
AcDbSpline
210
0.0
220
0.0
230
1.0
 70
     8
 71
     3
 72
    11
 73
     7
 74
     0
 42
0.00000001
 43
0.00000001
 40
0.0
 40
0.0
 40
0.0
 40
0.0
 40
0.0542904942833032
 40
0.515219059933639
 40
0.8972039596702773
 40
0.9999999999999999
 40
0.9999999999999999
 40
0.9999999999999999
 40
0.9999999999999999
 10
3.157182172514226
 20
5.927160264395009
 30
0.0
 10
3.159362855435057
 20
5.927197531995178
 30
0.0
 10
3.180057627499961
 20
5.927551203078467
 30
0.0
 10
3.21864753870969
 20
5.928002398506696
 30
0.0
 10
3.259627759792119
 20
5.928440814963897
 30
0.0
 10
3.281307798135815
 20
5.928586083633725
 30
0.0
 10
3.285904971646027
 20
5.928616887328359
 30
0.0
  0
DIMENSION
  5
2F9
330
1F
100
AcDbEntity
  8
0
  6
Continuous
 62
     7
370
    18
100
AcDbDimension
  2
_D_6
 10
1.4231264849
 20
6.6009987653
 30
0.0
 11
1.4231264849
 21
4.2449192804
 31
0.0
 70
   160
  1
<>
 71
     2
 42
-1.0
  3
SLDDIMSTYLE0
100
AcDbAlignedDimension
 13
2.6829690046
 23
1.8888397956
 33
0.0
 14
2.6829690046
 24
6.6009987653
 34
0.0
 50
90.0
100
AcDbRotatedDimension
  0
DIMENSION
  5
30D
330
1F
100
AcDbEntity
  8
0
  6
Continuous
 62
     7
370
    18
100
AcDbDimension
  2
_D_7
 10
5.6351279743
 20
7.3884003401
 30
0.0
 11
4.1590484894
 21
7.3884003401
 31
0.0
 70
   160
  1
<>
 71
     2
 42
-1.0
  3
SLDDIMSTYLE0
100
AcDbAlignedDimension
 13
2.6829690046
 23
6.6009987653
 33
0.0
 14
5.6351279743
 24
6.6009987653
 34
0.0
 50
0.0
100
AcDbRotatedDimension
  0
MTEXT
  5
321
330
1F
100
AcDbEntity
  8
0
  6
Continuous
 62
     7
370
     0
100
AcDbMText
 10
4.1657069222
 20
1.1763211061
 30
0.0
 40
0.25
 41
0.0
 71
     2
 72
     1
  1
BACK BOX DETAIL
  7
SLDTEXTSTYLE0
 73
     1
 44
1.0
  0
ENDSEC
  0
SECTION
  2
OBJECTS
  0
DICTIONARY
  5
C
330
0
100
AcDbDictionary
281
     1
  3
ACAD_GROUP
350
D
  3
ACAD_LAYOUT
350
1A
  3
ACAD_MLINESTYLE
350
17
  3
ACAD_PLOTSETTINGS
350
19
  3
ACAD_PLOTSTYLENAME
350
E
  3
ACAD_SCALELIST
350
47
  3
DWGPROPS
350
322
  0
DICTIONARY
  5
D
102
{ACAD_REACTORS
330
C
102
}
330
C
100
AcDbDictionary
281
     1
  0
DICTIONARY
  5
1A
102
{ACAD_REACTORS
330
C
102
}
330
C
100
AcDbDictionary
281
     1
  3
Layout1
350
1E
  3
Layout2
350
26
  3
Model
350
22
  0
DICTIONARY
  5
17
102
{ACAD_REACTORS
330
C
102
}
330
C
100
AcDbDictionary
281
     1
  3
Standard
350
18
  0
DICTIONARY
  5
19
102
{ACAD_REACTORS
330
C
102
}
330
C
100
AcDbDictionary
281
     1
  0
ACDBDICTIONARYWDFLT
  5
E
102
{ACAD_REACTORS
330
C
102
}
330
C
100
AcDbDictionary
281
     1
  3
Normal
350
F
100
AcDbDictionaryWithDefault
340
F
  0
DICTIONARY
  5
47
102
{ACAD_REACTORS
330
C
102
}
330
C
100
AcDbDictionary
281
     1
  3
A0
350
48
  3
A1
350
49
  3
A2
350
4A
  3
A3
350
4B
  3
A4
350
4C
  3
A5
350
4D
  3
A6
350
4E
  3
A7
350
4F
  3
A8
350
50
  3
A9
350
51
  3
B1
350
52
  3
B2
350
53
  3
B3
350
54
  3
B4
350
55
  3
B5
350
56
  3
B6
350
57
  3
B7
350
58
  0
XRECORD
  5
322
102
{ACAD_REACTORS
330
C
102
}
330
C
100
AcDbXrecord
280
     1
  1
DWGPROPS COOKIE
  2

  3

  4

  6

  7

  8
alekseyb
  9

300
=
301
=
302
=
303
=
304
=
305
=
306
=
307
=
308
=
309
=
 40
0.0
 41
2460538.435864468
 42
2460538.435865104
  1

 90
        0
  0
LAYOUT
  5
1E
102
{ACAD_REACTORS
330
1A
102
}
330
1A
100
AcDbPlotSettings
  1

  2
none_device
  4

  6

 40
0.0
 41
0.0
 42
0.0
 43
0.0
 44
0.0
 45
0.0
 46
0.0
 47
0.0
 48
0.0
 49
0.0
140
0.0
141
0.0
142
1.0
143
1.0
 70
   688
 72
     0
 73
     0
 74
     5
  7

 75
    16
147
1.0
148
0.0
149
0.0
100
AcDbLayout
  1
Layout1
 70
     1
 71
     1
 10
0.0
 20
0.0
 11
12.0
 21
9.0
 12
0.0
 22
0.0
 32
0.0
 14
1.0000000000E+20
 24
1.0000000000E+20
 34
1.0000000000E+20
 15
-1.0000000000E+20
 25
-1.0000000000E+20
 35
-1.0000000000E+20
146
0.0
 13
0.0
 23
0.0
 33
0.0
 16
1.0
 26
0.0
 36
0.0
 17
0.0
 27
1.0
 37
0.0
 76
     0
330
1B
  0
LAYOUT
  5
26
102
{ACAD_REACTORS
330
1A
102
}
330
1A
100
AcDbPlotSettings
  1

  2
none_device
  4

  6

 40
0.0
 41
0.0
 42
0.0
 43
0.0
 44
0.0
 45
0.0
 46
0.0
 47
0.0
 48
0.0
 49
0.0
140
0.0
141
0.0
142
1.0
143
1.0
 70
   688
 72
     0
 73
     0
 74
     5
  7

 75
    16
147
1.0
148
0.0
149
0.0
100
AcDbLayout
  1
Layout2
 70
     1
 71
     2
 10
0.0
 20
0.0
 11
0.0
 21
0.0
 12
0.0
 22
0.0
 32
0.0
 14
0.0
 24
0.0
 34
0.0
 15
0.0
 25
0.0
 35
0.0
146
0.0
 13
0.0
 23
0.0
 33
0.0
 16
1.0
 26
0.0
 36
0.0
 17
0.0
 27
1.0
 37
0.0
 76
     0
330
23
  0
LAYOUT
  5
22
102
{ACAD_REACTORS
330
1A
102
}
330
1A
100
AcDbPlotSettings
  1

  2
none_device
  4
Letter_(8.50_x_11.00_Inches)
  6

 40
6.35
 41
6.35
 42
6.35000508
 43
6.35000508
 44
215.9
 45
279.4
 46
0.0
 47
0.0
 48
0.0
 49
0.0
140
0.0
141
0.0
142
1.0
143
1.0
 70
  1712
 72
     0
 73
     0
 74
     0
  7

 75
     0
147
1.0
148
0.0
149
0.0
100
AcDbLayout
  1
Model
 70
     1
 71
     0
 10
0.0
 20
0.0
 11
22.0
 21
17.0
 12
0.0
 22
0.0
 32
0.0
 14
0.0
 24
0.0
 34
0.0
 15
22.0
 25
17.0
 35
0.0
146
0.0
 13
0.0
 23
0.0
 33
0.0
 16
1.0
 26
0.0
 36
0.0
 17
0.0
 27
1.0
 37
0.0
 76
     0
330
1F
331
29
  0
MLINESTYLE
  5
18
102
{ACAD_REACTORS
330
17
102
}
330
17
100
AcDbMlineStyle
  2
Standard
 70
     0
  3

 62
   256
 51
90.0
 52
90.0
 71
     2
 49
0.5
 62
   256
  6
BYLAYER
 49
-0.5
 62
   256
  6
BYLAYER
  0
ACDBPLACEHOLDER
  5
F
102
{ACAD_REACTORS
330
E
102
}
330
E
  0
SCALE
  5
48
102
{ACAD_REACTORS
330
47
102
}
330
47
100
AcDbScale
 70
     0
300
1:1
140
1.0
141
1.0
290
     1
  0
SCALE
  5
49
102
{ACAD_REACTORS
330
47
102
}
330
47
100
AcDbScale
 70
     0
300
1/128" = 1'-0"
140
0.0078125
141
12.0
290
     0
  0
SCALE
  5
4A
102
{ACAD_REACTORS
330
47
102
}
330
47
100
AcDbScale
 70
     0
300
1/64" = 1'-0"
140
0.015625
141
12.0
290
     0
  0
SCALE
  5
4B
102
{ACAD_REACTORS
330
47
102
}
330
47
100
AcDbScale
 70
     0
300
1/32" = 1'-0"
140
0.03125
141
12.0
290
     0
  0
SCALE
  5
4C
102
{ACAD_REACTORS
330
47
102
}
330
47
100
AcDbScale
 70
     0
300
1/16" = 1'-0"
140
0.0625
141
12.0
290
     0
  0
SCALE
  5
4D
102
{ACAD_REACTORS
330
47
102
}
330
47
100
AcDbScale
 70
     0
300
3/32" = 1'-0"
140
0.09375
141
12.0
290
     0
  0
SCALE
  5
4E
102
{ACAD_REACTORS
330
47
102
}
330
47
100
AcDbScale
 70
     0
300
1/8" = 1'-0"
140
0.125
141
12.0
290
     0
  0
SCALE
  5
4F
102
{ACAD_REACTORS
330
47
102
}
330
47
100
AcDbScale
 70
     0
300
3/16" = 1'-0"
140
0.1875
141
12.0
290
     0
  0
SCALE
  5
50
102
{ACAD_REACTORS
330
47
102
}
330
47
100
AcDbScale
 70
     0
300
1/4" = 1'-0"
140
0.25
141
12.0
290
     0
  0
SCALE
  5
51
102
{ACAD_REACTORS
330
47
102
}
330
47
100
AcDbScale
 70
     0
300
3/8" = 1'-0"
140
0.375
141
12.0
290
     0
  0
SCALE
  5
52
102
{ACAD_REACTORS
330
47
102
}
330
47
100
AcDbScale
 70
     0
300
1/2" = 1'-0"
140
0.5
141
12.0
290
     0
  0
SCALE
  5
53
102
{ACAD_REACTORS
330
47
102
}
330
47
100
AcDbScale
 70
     0
300
3/4" = 1'-0"
140
0.75
141
12.0
290
     0
  0
SCALE
  5
54
102
{ACAD_REACTORS
330
47
102
}
330
47
100
AcDbScale
 70
     0
300
1" = 1'-0"
140
1.0
141
12.0
290
     0
  0
SCALE
  5
55
102
{ACAD_REACTORS
330
47
102
}
330
47
100
AcDbScale
 70
     0
300
1-1/2" = 1'-0"
140
1.5
141
12.0
290
     0
  0
SCALE
  5
56
102
{ACAD_REACTORS
330
47
102
}
330
47
100
AcDbScale
 70
     0
300
3" = 1'-0"
140
3.0
141
12.0
290
     0
  0
SCALE
  5
57
102
{ACAD_REACTORS
330
47
102
}
330
47
100
AcDbScale
 70
     0
300
6" = 1'-0"
140
6.0
141
12.0
290
     0
  0
SCALE
  5
58
102
{ACAD_REACTORS
330
47
102
}
330
47
100
AcDbScale
 70
     0
300
1'-0" = 1'-0"
140
12.0
141
12.0
290
     0
  0
ENDSEC
  0
EOF
