  0
SECTION
  2
HEADER
  9
$ACADVER
  1
AC1015
  9
$ACADMAINTVER
 70
     6
  9
$DWGCODEPAGE
  3
ANSI_1252
  9
$INSBASE
 10
0.0
 20
0.0
 30
0.0
  9
$EXTMIN
 10
0.0
 20
0.0
 30
0.0
  9
$EXTMAX
 10
22.0
 20
17.0
 30
0.0
  9
$LIMMIN
 10
0.0
 20
0.0
  9
$LIMMAX
 10
22.0
 20
17.0
  9
$ORTHOMODE
 70
     0
  9
$REGENMODE
 70
     1
  9
$FILLMODE
 70
     1
  9
$QTEXTMODE
 70
     0
  9
$MIRRTEXT
 70
     1
  9
$LTSCALE
 40
2.0
  9
$ATTMODE
 70
     1
  9
$TEXTSIZE
 40
0.25
  9
$TRACEWID
 40
0.05
  9
$TEXTSTYLE
  7
Standard
  9
$CLAYER
  8
0
  9
$CELTYPE
  6
ByLayer
  9
$CECOLOR
 62
   256
  9
$CELTSCALE
 40
1.0
  9
$DISPSILH
 70
     0
  9
$DIMSCALE
 40
1.0
  9
$DIMASZ
 40
0.26
  9
$DIMEXO
 40
0.1
  9
$DIMDLI
 40
0.38
  9
$DIMRND
 40
0.0
  9
$DIMDLE
 40
0.0
  9
$DIMEXE
 40
0.25
  9
$DIMTP
 40
0.0
  9
$DIMTM
 40
0.0
  9
$DIMTXT
 40
0.25
  9
$DIMCEN
 40
0.09
  9
$DIMTSZ
 40
0.0
  9
$DIMTOL
 70
     0
  9
$DIMLIM
 70
     0
  9
$DIMTIH
 70
     1
  9
$DIMTOH
 70
     1
  9
$DIMSE1
 70
     0
  9
$DIMSE2
 70
     0
  9
$DIMTAD
 70
     0
  9
$DIMZIN
 70
     1
  9
$DIMBLK
  1

  9
$DIMASO
 70
     1
  9
$DIMSHO
 70
     1
  9
$DIMPOST
  1

  9
$DIMAPOST
  1

  9
$DIMALT
 70
     0
  9
$DIMALTD
 70
     2
  9
$DIMALTF
 40
25.4
  9
$DIMLFAC
 40
1.0
  9
$DIMTOFL
 70
     0
  9
$DIMTVP
 40
0.0
  9
$DIMTIX
 70
     0
  9
$DIMSOXD
 70
     0
  9
$DIMSAH
 70
     0
  9
$DIMBLK1
  1

  9
$DIMBLK2
  1

  9
$DIMSTYLE
  2
Standard
  9
$DIMCLRD
 70
     0
  9
$DIMCLRE
 70
     0
  9
$DIMCLRT
 70
     0
  9
$DIMTFAC
 40
1.0
  9
$DIMGAP
 40
0.12
  9
$DIMJUST
 70
     0
  9
$DIMSD1
 70
     0
  9
$DIMSD2
 70
     0
  9
$DIMTOLJ
 70
     1
  9
$DIMTZIN
 70
     1
  9
$DIMALTZ
 70
     0
  9
$DIMALTTZ
 70
     0
  9
$DIMUPT
 70
     0
  9
$DIMDEC
 70
     0
  9
$DIMTDEC
 70
     0
  9
$DIMALTU
 70
     2
  9
$DIMALTTD
 70
     2
  9
$DIMTXSTY
  7
Standard
  9
$DIMAUNIT
 70
     0
  9
$DIMADEC
 70
     0
  9
$DIMALTRND
 40
0.0
  9
$DIMAZIN
 70
     0
  9
$DIMDSEP
 70
    46
  9
$DIMATFIT
 70
     3
  9
$DIMFRAC
 70
     0
  9
$DIMLDRBLK
  1

  9
$DIMLUNIT
 70
     2
  9
$DIMLWD
 70
    -2
  9
$DIMLWE
 70
    -2
  9
$DIMTMOVE
 70
     0
  9
$LUNITS
 70
     2
  9
$LUPREC
 70
     6
  9
$SKETCHINC
 40
0.1
  9
$FILLETRAD
 40
0.0
  9
$AUNITS
 70
     0
  9
$AUPREC
 70
     2
  9
$MENU
  1
.
  9
$ELEVATION
 40
0.0
  9
$PELEVATION
 40
0.0
  9
$THICKNESS
 40
0.0
  9
$LIMCHECK
 70
     0
  9
$CHAMFERA
 40
0.0
  9
$CHAMFERB
 40
0.0
  9
$CHAMFERC
 40
0.0
  9
$CHAMFERD
 40
0.0
  9
$SKPOLY
 70
     0
  9
$TDCREATE
 40
2460476.14240235
  9
$TDUCREATE
 40
2460476.434069016
  9
$TDUPDATE
 40
2460476.14240316
  9
$TDUUPDATE
 40
2460476.434069827
  9
$TDINDWG
 40
0.0000000116
  9
$TDUSRTIMER
 40
0.0000000116
  9
$USRTIMER
 70
     1
  9
$ANGBASE
 50
0.0
  9
$ANGDIR
 70
     0
  9
$PDMODE
 70
     0
  9
$PDSIZE
 40
-1.0
  9
$PLINEWID
 40
0.0
  9
$SPLFRAME
 70
     0
  9
$SPLINETYPE
 70
     6
  9
$SPLINESEGS
 70
     8
  9
$HANDSEED
  5
239
  9
$SURFTAB1
 70
     6
  9
$SURFTAB2
 70
     6
  9
$SURFTYPE
 70
     6
  9
$SURFU
 70
     6
  9
$SURFV
 70
     6
  9
$UCSBASE
  2

  9
$UCSNAME
  2

  9
$UCSORG
 10
0.0
 20
0.0
 30
0.0
  9
$UCSXDIR
 10
1.0
 20
0.0
 30
0.0
  9
$UCSYDIR
 10
0.0
 20
1.0
 30
0.0
  9
$UCSORTHOREF
  2

  9
$UCSORTHOVIEW
 70
     0
  9
$UCSORGTOP
 10
0.0
 20
0.0
 30
0.0
  9
$UCSORGBOTTOM
 10
0.0
 20
0.0
 30
0.0
  9
$UCSORGLEFT
 10
0.0
 20
0.0
 30
0.0
  9
$UCSORGRIGHT
 10
0.0
 20
0.0
 30
0.0
  9
$UCSORGFRONT
 10
0.0
 20
0.0
 30
0.0
  9
$UCSORGBACK
 10
0.0
 20
0.0
 30
0.0
  9
$PUCSBASE
  2

  9
$PUCSNAME
  2

  9
$PUCSORG
 10
0.0
 20
0.0
 30
0.0
  9
$PUCSXDIR
 10
1.0
 20
0.0
 30
0.0
  9
$PUCSYDIR
 10
0.0
 20
1.0
 30
0.0
  9
$PUCSORTHOREF
  2

  9
$PUCSORTHOVIEW
 70
     0
  9
$PUCSORGTOP
 10
0.0
 20
0.0
 30
0.0
  9
$PUCSORGBOTTOM
 10
0.0
 20
0.0
 30
0.0
  9
$PUCSORGLEFT
 10
0.0
 20
0.0
 30
0.0
  9
$PUCSORGRIGHT
 10
0.0
 20
0.0
 30
0.0
  9
$PUCSORGFRONT
 10
0.0
 20
0.0
 30
0.0
  9
$PUCSORGBACK
 10
0.0
 20
0.0
 30
0.0
  9
$USERI1
 70
     0
  9
$USERI2
 70
     0
  9
$USERI3
 70
     0
  9
$USERI4
 70
     0
  9
$USERI5
 70
     0
  9
$USERR1
 40
0.0
  9
$USERR2
 40
0.0
  9
$USERR3
 40
0.0
  9
$USERR4
 40
0.0
  9
$USERR5
 40
0.0
  9
$WORLDVIEW
 70
     1
  9
$SHADEDGE
 70
     3
  9
$SHADEDIF
 70
    70
  9
$TILEMODE
 70
     1
  9
$MAXACTVP
 70
    64
  9
$PINSBASE
 10
0.0
 20
0.0
 30
0.0
  9
$PLIMCHECK
 70
     0
  9
$PEXTMIN
 10
1.0000000000E+20
 20
1.0000000000E+20
 30
1.0000000000E+20
  9
$PEXTMAX
 10
-1.0000000000E+20
 20
-1.0000000000E+20
 30
-1.0000000000E+20
  9
$PLIMMIN
 10
0.0
 20
0.0
  9
$PLIMMAX
 10
12.0
 20
9.0
  9
$UNITMODE
 70
     0
  9
$VISRETAIN
 70
     1
  9
$PLINEGEN
 70
     0
  9
$PSLTSCALE
 70
     1
  9
$TREEDEPTH
 70
  3020
  9
$CMLSTYLE
  2
Standard
  9
$CMLJUST
 70
     0
  9
$CMLSCALE
 40
1.0
  9
$PROXYGRAPHICS
 70
     1
  9
$MEASUREMENT
 70
     0
  9
$CELWEIGHT
370
    -1
  9
$ENDCAPS
280
     0
  9
$JOINSTYLE
280
     0
  9
$LWDISPLAY
290
     1
  9
$INSUNITS
 70
     1
  9
$HYPERLINKBASE
  1

  9
$STYLESHEET
  1

  9
$XEDIT
290
     1
  9
$CEPSNTYPE
380
     0
  9
$PSTYLEMODE
290
     1
  9
$FINGERPRINTGUID
  2
{41c5226c-2cd4-4216-b749-f09ab352bf9a}
  9
$VERSIONGUID
  2
{FAEB1C32-E019-11D5-929B-00C0DF256EC4}
  9
$EXTNAMES
290
     1
  9
$PSVPSCALE
 40
0.0
  9
$OLESTARTUP
290
     0
  0
ENDSEC
  0
SECTION
  2
CLASSES
  0
CLASS
  1
ACDBDICTIONARYWDFLT
  2
AcDbDictionaryWithDefault
  3
ObjectDBX Classes
 90
        0
280
     0
281
     0
  0
CLASS
  1
VISUALSTYLE
  2
AcDbVisualStyle
  3
ObjectDBX Classes
 90
     4095
280
     0
281
     0
  0
CLASS
  1
MATERIAL
  2
AcDbMaterial
  3
ObjectDBX Classes
 90
     1153
280
     0
281
     0
  0
CLASS
  1
SCALE
  2
AcDbScale
  3
ObjectDBX Classes
 90
     1153
280
     0
281
     0
  0
CLASS
  1
TABLESTYLE
  2
AcDbTableStyle
  3
ObjectDBX Classes
 90
     4095
280
     0
281
     0
  0
CLASS
  1
MLEADERSTYLE
  2
AcDbMLeaderStyle
  3
ACDB_MLEADERSTYLE_CLASS
 90
     4095
280
     0
281
     0
  0
CLASS
  1
SUN
  2
AcDbSun
  3
SCENEOE
 90
     1153
280
     0
281
     0
  0
CLASS
  1
ACDBPLACEHOLDER
  2
AcDbPlaceHolder
  3
ObjectDBX Classes
 90
        0
280
     0
281
     0
  0
CLASS
  1
LAYOUT
  2
AcDbLayout
  3
ObjectDBX Classes
 90
        0
280
     0
281
     0
  0
ENDSEC
  0
SECTION
  2
TABLES
  0
TABLE
  2
VPORT
  5
8
330
0
100
AcDbSymbolTable
 70
     1
  0
VPORT
  5
29
330
8
100
AcDbSymbolTableRecord
100
AcDbViewportTableRecord
  2
*Active
 70
     0
 10
0.0
 20
0.0
 11
1.0
 21
1.0
 12
11.0
 22
8.5
 13
0.0
 23
0.0
 14
0.5
 24
0.5
 15
0.5
 25
0.5
 16
0.0
 26
0.0
 36
1.0
 17
0.0
 27
0.0
 37
0.0
 40
17.0
 41
1.2941176471
 42
50.0
 43
0.0
 44
0.0
 50
0.0
 51
0.0
 71
     0
 72
  2000
 73
     1
 74
     3
 75
     0
 76
     0
 77
     0
 78
     0
281
     0
 65
     1
110
0.0
120
0.0
130
0.0
111
1.0
121
0.0
131
0.0
112
0.0
122
1.0
132
0.0
 79
     0
146
0.0
  0
ENDTAB
  0
TABLE
  2
LTYPE
  5
5
330
0
100
AcDbSymbolTable
 70
     6
  0
LTYPE
  5
14
330
5
100
AcDbSymbolTableRecord
100
AcDbLinetypeTableRecord
  2
ByBlock
 70
     0
  3

 72
    65
 73
     0
 40
0.0
  0
LTYPE
  5
15
330
5
100
AcDbSymbolTableRecord
100
AcDbLinetypeTableRecord
  2
ByLayer
 70
     0
  3

 72
    65
 73
     0
 40
0.0
  0
LTYPE
  5
16
330
5
100
AcDbSymbolTableRecord
100
AcDbLinetypeTableRecord
  2
Continuous
 70
     0
  3
Solid line
 72
    65
 73
     0
 40
0.0
  0
LTYPE
  5
5E
330
5
100
AcDbSymbolTableRecord
100
AcDbLinetypeTableRecord
  2
HIDDEN
 70
     0
  3
Hidden __ __ __ __ __ __ __ __ __ __ __ __ __ __
 72
    65
 73
     2
 40
0.075
 49
0.05
 74
     0
 49
-0.025
 74
     0
  0
LTYPE
  5
5F
330
5
100
AcDbSymbolTableRecord
100
AcDbLinetypeTableRecord
  2
PHANTOM
 70
     0
  3
Phantom ______  __  __  ______  __  __  ______
 72
    65
 73
     6
 40
0.5
 49
0.25
 74
     0
 49
-0.05
 74
     0
 49
0.05
 74
     0
 49
-0.05
 74
     0
 49
0.05
 74
     0
 49
-0.05
 74
     0
  0
LTYPE
  5
60
330
5
100
AcDbSymbolTableRecord
100
AcDbLinetypeTableRecord
  2
CENTER
 70
     0
  3
Center ____ _ ____ _ ____ _ ____ _ ____ _ ____
 72
    65
 73
     4
 40
0.4
 49
0.25
 74
     0
 49
-0.05
 74
     0
 49
0.05
 74
     0
 49
-0.05
 74
     0
  0
LTYPE
  5
61
330
5
100
AcDbSymbolTableRecord
100
AcDbLinetypeTableRecord
  2
CENTERX2
 70
     0
  3
Center (2x) ________  __  ________  __  _____
 72
    65
 73
     4
 40
0.8
 49
0.5
 74
     0
 49
-0.1
 74
     0
 49
0.1
 74
     0
 49
-0.1
 74
     0
  0
LTYPE
  5
62
330
5
100
AcDbSymbolTableRecord
100
AcDbLinetypeTableRecord
  2
DOT2
 70
     0
  3
Dot (.5x) ........................................
 72
    65
 73
     2
 40
0.025
 49
0.0
 74
     0
 49
-0.025
 74
     0
  0
ENDTAB
  0
TABLE
  2
LAYER
  5
2
330
0
100
AcDbSymbolTable
 70
    12
  0
LAYER
  5
10
330
2
100
AcDbSymbolTableRecord
100
AcDbLayerTableRecord
  2
0
 70
     0
 62
     7
  6
Continuous
370
    -3
390
F
  0
LAYER
  5
63
330
2
100
AcDbSymbolTableRecord
100
AcDbLayerTableRecord
  2
SLD-0
 70
     0
 62
     7
  6
Continuous
370
    -3
390
F
  0
LAYER
  5
64
330
2
100
AcDbSymbolTableRecord
100
AcDbLayerTableRecord
  2
DIM
 70
     0
 62
     7
  6
Continuous
370
    -3
390
F
  0
LAYER
  5
65
330
2
100
AcDbSymbolTableRecord
100
AcDbLayerTableRecord
  2
CEN
 70
     0
 62
     1
  6
CENTER
370
    -3
390
F
  0
LAYER
  5
66
330
2
100
AcDbSymbolTableRecord
100
AcDbLayerTableRecord
  2
HAT
 70
     0
 62
     4
  6
Continuous
370
    -3
390
F
  0
LAYER
  5
67
330
2
100
AcDbSymbolTableRecord
100
AcDbLayerTableRecord
  2
OBJ
 70
     0
 62
     5
  6
Continuous
370
    -3
390
F
  0
LAYER
  5
68
330
2
100
AcDbSymbolTableRecord
100
AcDbLayerTableRecord
  2
SLD-DEFPOINTS
 70
     0
 62
     7
  6
Continuous
370
    -3
390
F
  0
LAYER
  5
69
330
2
100
AcDbSymbolTableRecord
100
AcDbLayerTableRecord
  2
HID
 70
     0
 62
     4
  6
HIDDEN
370
    -3
390
F
  0
LAYER
  5
6A
330
2
100
AcDbSymbolTableRecord
100
AcDbLayerTableRecord
  2
NOTE
 70
     0
 62
     7
  6
Continuous
370
    -3
390
F
  0
LAYER
  5
6B
330
2
100
AcDbSymbolTableRecord
100
AcDbLayerTableRecord
  2
VP
 70
     0
 62
    -5
  6
Continuous
290
     0
370
    -3
390
F
  0
LAYER
  5
6C
330
2
100
AcDbSymbolTableRecord
100
AcDbLayerTableRecord
  2
TITLE
 70
     0
 62
     7
  6
Continuous
370
    -3
390
F
  0
LAYER
  5
6D
330
2
100
AcDbSymbolTableRecord
100
AcDbLayerTableRecord
  2
THICK_TITLE
 70
     0
 62
     7
  6
Continuous
370
   100
390
F
  0
ENDTAB
  0
TABLE
  2
STYLE
  5
3
330
0
100
AcDbSymbolTable
 70
     2
  0
STYLE
  5
11
330
3
100
AcDbSymbolTableRecord
100
AcDbTextStyleTableRecord
  2
Standard
 70
     0
 40
0.0
 41
1.0
 50
0.0
 71
     0
 42
0.25
  3
txt
  4

  0
STYLE
  5
FF
330
3
100
AcDbSymbolTableRecord
100
AcDbTextStyleTableRecord
  2
SLDTEXTSTYLE0
 70
     0
 40
0.0
 41
0.75
 50
0.0
 71
     0
 42
0.25
  3
TXT
  4

  0
ENDTAB
  0
TABLE
  2
VIEW
  5
6
330
0
100
AcDbSymbolTable
 70
     0
  0
ENDTAB
  0
TABLE
  2
UCS
  5
7
330
0
100
AcDbSymbolTable
 70
     0
  0
ENDTAB
  0
TABLE
  2
APPID
  5
9
330
0
100
AcDbSymbolTable
 70
     1
  0
APPID
  5
12
330
9
100
AcDbSymbolTableRecord
100
AcDbRegAppTableRecord
  2
ACAD
 70
     0
  0
ENDTAB
  0
TABLE
  2
DIMSTYLE
  5
A
330
0
100
AcDbSymbolTable
 70
     5
100
AcDbDimStyleTable
  0
DIMSTYLE
105
27
330
A
100
AcDbSymbolTableRecord
100
AcDbDimStyleTableRecord
  2
Standard
 70
     0
178
     0
340
11
  0
DIMSTYLE
105
100
102
{ACAD_REACTORS
330
FE
330
129
330
225
102
}
330
A
100
AcDbSymbolTableRecord
100
AcDbDimStyleTableRecord
  2
SLDDIMSTYLE0
 70
     0
 41
0.26
 44
0.0
 45
0.000000001
 78
    12
 79
     3
140
0.25
147
0.0625
148
0.000000001
170
     1
173
     1
178
     0
271
     6
272
     0
276
     2
277
     5
284
    12
340
FF
  0
DIMSTYLE
105
114
102
{ACAD_REACTORS
330
113
102
}
330
A
100
AcDbSymbolTableRecord
100
AcDbDimStyleTableRecord
  2
SLDDIMSTYLE1
 70
     0
 41
0.26
 44
0.0
 45
0.000000001
 78
    12
 79
     3
140
0.25
147
0.0625
148
0.000000001
170
     1
172
     1
173
     1
178
     0
271
     6
272
     0
276
     2
277
     5
284
    12
289
     0
340
FF
  0
DIMSTYLE
105
13F
330
A
100
AcDbSymbolTableRecord
100
AcDbDimStyleTableRecord
  2
SLDDIMSTYLE2
 70
     0
 41
0.26
 44
0.0
 45
0.000000001
146
0.26
147
0.0
173
     1
178
     0
271
     0
272
     0
276
     2
277
     5
340
11
  0
DIMSTYLE
105
215
102
{ACAD_REACTORS
330
214
102
}
330
A
100
AcDbSymbolTableRecord
100
AcDbDimStyleTableRecord
  2
SLDDIMSTYLE3
 70
     0
 41
0.26
 44
0.0
 45
0.000000001
 78
    12
 79
     3
140
0.25
141
0.0
147
0.0625
148
0.000000001
170
     1
173
     1
178
     0
271
     0
272
     0
276
     2
277
     5
284
    12
340
FF
  0
ENDTAB
  0
TABLE
  2
BLOCK_RECORD
  5
1
330
0
100
AcDbSymbolTable
 70
     6
  0
BLOCK_RECORD
  5
1F
330
1
100
AcDbSymbolTableRecord
100
AcDbBlockTableRecord
  2
*Model_Space
340
22
  0
BLOCK_RECORD
  5
1B
330
1
100
AcDbSymbolTableRecord
100
AcDbBlockTableRecord
  2
*Paper_Space
340
1E
  0
BLOCK_RECORD
  5
23
330
1
100
AcDbSymbolTableRecord
100
AcDbBlockTableRecord
  2
*Paper_Space0
340
26
  0
BLOCK_RECORD
  5
101
330
1
100
AcDbSymbolTableRecord
100
AcDbBlockTableRecord
  2
_D
340
0
  0
BLOCK_RECORD
  5
115
330
1
100
AcDbSymbolTableRecord
100
AcDbBlockTableRecord
  2
_D_1
340
0
  0
BLOCK_RECORD
  5
12A
330
1
100
AcDbSymbolTableRecord
100
AcDbBlockTableRecord
  2
_D_2
340
0
  0
BLOCK_RECORD
  5
216
330
1
100
AcDbSymbolTableRecord
100
AcDbBlockTableRecord
  2
_D_3
340
0
  0
BLOCK_RECORD
  5
226
330
1
100
AcDbSymbolTableRecord
100
AcDbBlockTableRecord
  2
_D_4
340
0
  0
ENDTAB
  0
ENDSEC
  0
SECTION
  2
BLOCKS
  0
BLOCK
  5
20
330
1F
100
AcDbEntity
  8
0
100
AcDbBlockBegin
  2
*Model_Space
 70
     0
 10
0.0
 20
0.0
 30
0.0
  3
*Model_Space
  1

  0
ENDBLK
  5
21
330
1F
100
AcDbEntity
  8
0
100
AcDbBlockEnd
  0
BLOCK
  5
1C
330
1B
100
AcDbEntity
 67
     1
  8
0
100
AcDbBlockBegin
  2
*Paper_Space
 70
     0
 10
0.0
 20
0.0
 30
0.0
  3
*Paper_Space
  1

  0
ENDBLK
  5
1D
330
1B
100
AcDbEntity
 67
     1
  8
0
100
AcDbBlockEnd
  0
BLOCK
  5
24
330
23
100
AcDbEntity
  8
0
100
AcDbBlockBegin
  2
*Paper_Space0
 70
     0
 10
0.0
 20
0.0
 30
0.0
  3
*Paper_Space0
  1

  0
ENDBLK
  5
25
330
23
100
AcDbEntity
  8
0
100
AcDbBlockEnd
  0
BLOCK
  5
102
330
101
100
AcDbEntity
  8
0
100
AcDbBlockBegin
  2
_D
 70
     0
 10
0.0
 20
0.0
 30
0.0
  3
_D
  1

  0
SOLID
  5
104
330
101
100
AcDbEntity
  8
SLD-0
100
AcDbTrace
 10
5.2780046537
 20
14.6069034342
 30
0.0
 11
5.5380046537
 21
14.5669034342
 31
0.0
 12
5.5380046537
 22
14.6469034342
 32
0.0
 13
5.5380046537
 23
14.6469034342
 33
0.0
  0
SOLID
  5
105
330
101
100
AcDbEntity
  8
SLD-0
100
AcDbTrace
 10
9.4630046537
 20
14.6069034342
 30
0.0
 11
9.2030046537
 21
14.6469034342
 31
0.0
 12
9.2030046537
 22
14.5669034342
 32
0.0
 13
9.2030046537
 23
14.5669034342
 33
0.0
  0
LINE
  5
106
330
101
100
AcDbEntity
  8
SLD-0
100
AcDbLine
 10
6.7809213462
 20
14.6069033975
 30
0.0
 11
6.704749472
 21
14.6069033975
 31
0.0
  0
LINE
  5
107
330
101
100
AcDbEntity
  8
SLD-0
100
AcDbLine
 10
6.704749472
 20
14.6069033975
 30
0.0
 11
6.704749472
 21
14.2100283856
 31
0.0
  0
LINE
  5
108
330
101
100
AcDbEntity
  8
SLD-0
100
AcDbLine
 10
6.704749472
 20
14.2100283856
 30
0.0
 11
6.7809213462
 21
14.2100283856
 31
0.0
  0
LINE
  5
109
330
101
100
AcDbEntity
  8
SLD-0
100
AcDbLine
 10
7.9600879977
 20
14.6069033975
 30
0.0
 11
8.036259872
 21
14.6069033975
 31
0.0
  0
LINE
  5
10A
330
101
100
AcDbEntity
  8
SLD-0
100
AcDbLine
 10
8.036259872
 20
14.6069033975
 30
0.0
 11
8.036259872
 21
14.2100283856
 31
0.0
  0
LINE
  5
10B
330
101
100
AcDbEntity
  8
SLD-0
100
AcDbLine
 10
8.036259872
 20
14.2100283856
 30
0.0
 11
7.9600879977
 21
14.2100283856
 31
0.0
  0
LINE
  5
10C
330
101
100
AcDbEntity
  8
SLD-0
100
AcDbLine
 10
5.2780046537
 20
13.9195018594
 30
0.0
 11
5.2780046537
 21
14.8569034342
 31
0.0
  0
LINE
  5
10D
330
101
100
AcDbEntity
  8
SLD-0
100
AcDbLine
 10
9.4630046537
 20
13.9195018594
 30
0.0
 11
9.4630046537
 21
14.8569034342
 31
0.0
  0
LINE
  5
10E
330
101
100
AcDbEntity
  8
SLD-0
100
AcDbLine
 10
5.2780046537
 20
14.6069034342
 30
0.0
 11
6.5778779278
 21
14.6069034342
 31
0.0
  0
LINE
  5
10F
330
101
100
AcDbEntity
  8
SLD-0
100
AcDbLine
 10
9.4630046537
 20
14.6069034342
 30
0.0
 11
8.1631313795
 21
14.6069034342
 31
0.0
  0
MTEXT
  5
110
330
101
100
AcDbEntity
  8
SLD-0
100
AcDbMText
 10
6.6418848774
 20
14.9799516079
 30
0.0
 40
0.25
 41
0.0
 71
     1
 72
     1
  1
%%c
  7
SLDTEXTSTYLE0
 73
     1
 44
1.0
  0
MTEXT
  5
111
330
101
100
AcDbEntity
  8
SLD-0
100
AcDbMText
 10
7.0189161186
 20
14.9799516079
 30
0.0
 40
0.25
 41
0.0
 71
     1
 72
     1
  1
4 3/16"
  7
SLDTEXTSTYLE0
 73
     1
 44
1.0
  0
MTEXT
  5
112
330
101
100
AcDbEntity
  8
SLD-0
100
AcDbMText
 10
6.7809213462
 20
14.532295348
 30
0.0
 40
0.25
 41
0.0
 71
     1
 72
     1
  1
106mm
  7
SLDTEXTSTYLE0
 73
     1
 44
1.0
  0
ENDBLK
  5
103
330
101
100
AcDbEntity
  8
0
100
AcDbBlockEnd
  0
BLOCK
  5
116
330
115
100
AcDbEntity
  8
0
100
AcDbBlockBegin
  2
_D_1
 70
     0
 10
0.0
 20
0.0
 30
0.0
  3
_D_1
  1

  0
SOLID
  5
118
330
115
100
AcDbEntity
  8
SLD-0
100
AcDbTrace
 10
11.7570820418
 20
10.2155018594
 30
0.0
 11
11.7170820418
 21
9.9555018594
 31
0.0
 12
11.7970820418
 22
9.9555018594
 32
0.0
 13
11.7970820418
 23
9.9555018594
 33
0.0
  0
SOLID
  5
119
330
115
100
AcDbEntity
  8
SLD-0
100
AcDbTrace
 10
11.7570820418
 20
10.5905018594
 30
0.0
 11
11.7970820418
 21
10.8505018594
 31
0.0
 12
11.7170820418
 22
10.8505018594
 32
0.0
 13
11.7170820418
 23
10.8505018594
 33
0.0
  0
LINE
  5
11A
330
115
100
AcDbEntity
  8
SLD-0
100
AcDbLine
 10
12.6538859116
 20
9.2640261549
 30
0.0
 11
12.5777140374
 21
9.2640261549
 31
0.0
  0
LINE
  5
11B
330
115
100
AcDbEntity
  8
SLD-0
100
AcDbLine
 10
12.5777140374
 20
9.2640261549
 30
0.0
 11
12.5777140374
 21
8.8671511429
 31
0.0
  0
LINE
  5
11C
330
115
100
AcDbEntity
  8
SLD-0
100
AcDbLine
 10
12.5777140374
 20
8.8671511429
 30
0.0
 11
12.6538859116
 21
8.8671511429
 31
0.0
  0
LINE
  5
11D
330
115
100
AcDbEntity
  8
SLD-0
100
AcDbLine
 10
13.648330377
 20
9.2640261549
 30
0.0
 11
13.7245022513
 21
9.2640261549
 31
0.0
  0
LINE
  5
11E
330
115
100
AcDbEntity
  8
SLD-0
100
AcDbLine
 10
13.7245022513
 20
9.2640261549
 30
0.0
 11
13.7245022513
 21
8.8671511429
 31
0.0
  0
LINE
  5
11F
330
115
100
AcDbEntity
  8
SLD-0
100
AcDbLine
 10
13.7245022513
 20
8.8671511429
 30
0.0
 11
13.648330377
 21
8.8671511429
 31
0.0
  0
LINE
  5
120
330
115
100
AcDbEntity
  8
SLD-0
100
AcDbLine
 10
9.9555046537
 20
10.2155018594
 30
0.0
 11
12.0070820418
 21
10.2155018594
 31
0.0
  0
LINE
  5
121
330
115
100
AcDbEntity
  8
SLD-0
100
AcDbLine
 10
9.9555046537
 20
10.5905018594
 30
0.0
 11
12.0070820418
 21
10.5905018594
 31
0.0
  0
LINE
  5
122
330
115
100
AcDbEntity
  8
SLD-0
100
AcDbLine
 10
12.2570820418
 20
9.2659359161
 30
0.0
 11
11.7570820418
 21
9.2659359161
 31
0.0
  0
LINE
  5
123
330
115
100
AcDbEntity
  8
SLD-0
100
AcDbLine
 10
11.7570820418
 20
9.2659359161
 30
0.0
 11
11.7570820418
 21
10.2155018594
 31
0.0
  0
LINE
  5
124
330
115
100
AcDbEntity
  8
SLD-0
100
AcDbLine
 10
11.7570820418
 20
10.5905018594
 30
0.0
 11
11.7570820418
 21
11.0905018594
 31
0.0
  0
MTEXT
  5
125
330
115
100
AcDbEntity
  8
SLD-0
100
AcDbMText
 10
12.5029310518
 20
9.6408938099
 30
0.0
 40
0.25
 41
0.0
 71
     1
 72
     1
  1

  7
SLDTEXTSTYLE0
 73
     1
 44
1.0
  0
MTEXT
  5
126
330
115
100
AcDbEntity
  8
SLD-0
100
AcDbMText
 10
12.8419067212
 20
9.6370743469
 30
0.0
 40
0.25
 41
0.0
 71
     1
 72
     1
  1
3/8"
  7
SLDTEXTSTYLE0
 73
     1
 44
1.0
  0
MTEXT
  5
127
330
115
100
AcDbEntity
  8
SLD-0
100
AcDbMText
 10
12.6538859116
 20
9.1894181054
 30
0.0
 40
0.25
 41
0.0
 71
     1
 72
     1
  1
10mm
  7
SLDTEXTSTYLE0
 73
     1
 44
1.0
  0
MTEXT
  5
128
330
115
100
AcDbEntity
  8
SLD-0
100
AcDbMText
 10
13.8944240705
 20
9.6408938099
 30
0.0
 40
0.25
 41
0.0
 71
     1
 72
     1
  1

  7
SLDTEXTSTYLE0
 73
     1
 44
1.0
  0
ENDBLK
  5
117
330
115
100
AcDbEntity
  8
0
100
AcDbBlockEnd
  0
BLOCK
  5
12B
330
12A
100
AcDbEntity
  8
0
100
AcDbBlockBegin
  2
_D_2
 70
     0
 10
0.0
 20
0.0
 30
0.0
  3
_D_2
  1

  0
SOLID
  5
12D
330
12A
100
AcDbEntity
  8
SLD-0
100
AcDbTrace
 10
11.7570820418
 20
10.5905018594
 30
0.0
 11
11.7970820418
 21
10.8505018594
 31
0.0
 12
11.7170820418
 22
10.8505018594
 32
0.0
 13
11.7170820418
 23
10.8505018594
 33
0.0
  0
SOLID
  5
12E
330
12A
100
AcDbEntity
  8
SLD-0
100
AcDbTrace
 10
11.7570820418
 20
13.8195018594
 30
0.0
 11
11.7170820418
 21
13.5595018594
 31
0.0
 12
11.7970820418
 22
13.5595018594
 32
0.0
 13
11.7970820418
 23
13.5595018594
 33
0.0
  0
LINE
  5
12F
330
12A
100
AcDbEntity
  8
SLD-0
100
AcDbLine
 10
11.2598598458
 20
12.2030920981
 30
0.0
 11
11.1836879715
 21
12.2030920981
 31
0.0
  0
LINE
  5
130
330
12A
100
AcDbEntity
  8
SLD-0
100
AcDbLine
 10
11.1836879715
 20
12.2030920981
 30
0.0
 11
11.1836879715
 21
11.8062170862
 31
0.0
  0
LINE
  5
131
330
12A
100
AcDbEntity
  8
SLD-0
100
AcDbLine
 10
11.1836879715
 20
11.8062170862
 30
0.0
 11
11.2598598458
 21
11.8062170862
 31
0.0
  0
LINE
  5
132
330
12A
100
AcDbEntity
  8
SLD-0
100
AcDbLine
 10
12.2543043112
 20
12.2030920981
 30
0.0
 11
12.3304761854
 21
12.2030920981
 31
0.0
  0
LINE
  5
133
330
12A
100
AcDbEntity
  8
SLD-0
100
AcDbLine
 10
12.3304761854
 20
12.2030920981
 30
0.0
 11
12.3304761854
 21
11.8062170862
 31
0.0
  0
LINE
  5
134
330
12A
100
AcDbEntity
  8
SLD-0
100
AcDbLine
 10
12.3304761854
 20
11.8062170862
 30
0.0
 11
12.2543043112
 21
11.8062170862
 31
0.0
  0
LINE
  5
135
330
12A
100
AcDbEntity
  8
SLD-0
100
AcDbLine
 10
9.9555046537
 20
10.5905018594
 30
0.0
 11
12.0070820418
 21
10.5905018594
 31
0.0
  0
LINE
  5
136
330
12A
100
AcDbEntity
  8
SLD-0
100
AcDbLine
 10
9.5630046537
 20
13.8195018594
 30
0.0
 11
12.0070820418
 21
13.8195018594
 31
0.0
  0
LINE
  5
137
330
12A
100
AcDbEntity
  8
SLD-0
100
AcDbLine
 10
11.7570820418
 20
10.5905018594
 30
0.0
 11
11.7570820418
 21
11.7554359161
 31
0.0
  0
LINE
  5
138
330
12A
100
AcDbEntity
  8
SLD-0
100
AcDbLine
 10
11.7570820418
 20
13.8195018594
 30
0.0
 11
11.7570820418
 21
12.6545678026
 31
0.0
  0
MTEXT
  5
139
330
12A
100
AcDbEntity
  8
SLD-0
100
AcDbMText
 10
11.1089049859
 20
12.5799597531
 30
0.0
 40
0.25
 41
0.0
 71
     1
 72
     1
  1

  7
SLDTEXTSTYLE0
 73
     1
 44
1.0
  0
MTEXT
  5
13A
330
12A
100
AcDbEntity
  8
SLD-0
100
AcDbMText
 10
11.3093390158
 20
12.5761402902
 30
0.0
 40
0.25
 41
0.0
 71
     1
 72
     1
  1
3 1/4"
  7
SLDTEXTSTYLE0
 73
     1
 44
1.0
  0
MTEXT
  5
13B
330
12A
100
AcDbEntity
  8
SLD-0
100
AcDbMText
 10
11.2598598458
 20
12.1284840486
 30
0.0
 40
0.25
 41
0.0
 71
     1
 72
     1
  1
82mm
  7
SLDTEXTSTYLE0
 73
     1
 44
1.0
  0
MTEXT
  5
13C
330
12A
100
AcDbEntity
  8
SLD-0
100
AcDbMText
 10
12.5003980046
 20
12.5799597531
 30
0.0
 40
0.25
 41
0.0
 71
     1
 72
     1
  1

  7
SLDTEXTSTYLE0
 73
     1
 44
1.0
  0
ENDBLK
  5
12C
330
12A
100
AcDbEntity
  8
0
100
AcDbBlockEnd
  0
BLOCK
  5
217
330
216
100
AcDbEntity
  8
0
100
AcDbBlockBegin
  2
_D_3
 70
     0
 10
0.0
 20
0.0
 30
0.0
  3
_D_3
  1

  0
SOLID
  5
219
330
216
100
AcDbEntity
  8
SLD-0
100
AcDbTrace
 10
9.1488782083
 20
2.2330549071
 30
0.0
 11
9.3044417002
 21
2.0209228727
 31
0.0
 12
9.3610102427
 22
2.0774914152
 32
0.0
 13
9.3610102427
 23
2.0774914152
 33
0.0
  0
LINE
  5
21A
330
216
100
AcDbEntity
  8
SLD-0
100
AcDbLine
 10
10.5655471253
 20
1.4687297019
 30
0.0
 11
10.4893752511
 21
1.4687297019
 31
0.0
  0
LINE
  5
21B
330
216
100
AcDbEntity
  8
SLD-0
100
AcDbLine
 10
10.4893752511
 20
1.4687297019
 30
0.0
 11
10.4893752511
 21
1.07185469
 31
0.0
  0
LINE
  5
21C
330
216
100
AcDbEntity
  8
SLD-0
100
AcDbLine
 10
10.4893752511
 20
1.07185469
 30
0.0
 11
10.5655471253
 21
1.07185469
 31
0.0
  0
LINE
  5
21D
330
216
100
AcDbEntity
  8
SLD-0
100
AcDbLine
 10
11.7447137768
 20
1.4687297019
 30
0.0
 11
11.820885651
 21
1.4687297019
 31
0.0
  0
LINE
  5
21E
330
216
100
AcDbEntity
  8
SLD-0
100
AcDbLine
 10
11.820885651
 20
1.4687297019
 30
0.0
 11
11.820885651
 21
1.07185469
 31
0.0
  0
LINE
  5
21F
330
216
100
AcDbEntity
  8
SLD-0
100
AcDbLine
 10
11.820885651
 20
1.07185469
 30
0.0
 11
11.7447137768
 21
1.07185469
 31
0.0
  0
LINE
  5
220
330
216
100
AcDbEntity
  8
SLD-0
100
AcDbLine
 10
9.1488782083
 20
2.2330549071
 30
0.0
 11
9.9132033768
 21
1.4687297386
 31
0.0
  0
LINE
  5
221
330
216
100
AcDbEntity
  8
SLD-0
100
AcDbLine
 10
9.9132033768
 20
1.4687297386
 30
0.0
 11
10.4132033768
 21
1.4687297386
 31
0.0
  0
MTEXT
  5
222
330
216
100
AcDbEntity
  8
SLD-0
100
AcDbMText
 10
10.8226912097
 20
1.8417779123
 30
0.0
 40
0.25
 41
0.0
 71
     1
 72
     1
  1
%%c
  7
SLDTEXTSTYLE0
 73
     1
 44
1.0
  0
MTEXT
  5
223
330
216
100
AcDbEntity
  8
SLD-0
100
AcDbMText
 10
11.1997224509
 20
1.8417779123
 30
0.0
 40
0.25
 41
0.0
 71
     1
 72
     1
  1
5"
  7
SLDTEXTSTYLE0
 73
     1
 44
1.0
  0
MTEXT
  5
224
330
216
100
AcDbEntity
  8
SLD-0
100
AcDbMText
 10
10.5655471253
 20
1.3941216524
 30
0.0
 40
0.25
 41
0.0
 71
     1
 72
     1
  1
128mm
  7
SLDTEXTSTYLE0
 73
     1
 44
1.0
  0
ENDBLK
  5
218
330
216
100
AcDbEntity
  8
0
100
AcDbBlockEnd
  0
BLOCK
  5
227
330
226
100
AcDbEntity
  8
0
100
AcDbBlockBegin
  2
_D_4
 70
     0
 10
0.0
 20
0.0
 30
0.0
  3
_D_4
  1

  0
SOLID
  5
229
330
226
100
AcDbEntity
  8
SLD-0
100
AcDbTrace
 10
5.6205046537
 20
7.8877068473
 30
0.0
 11
5.8805046537
 21
7.8477068473
 31
0.0
 12
5.8805046537
 22
7.9277068473
 32
0.0
 13
5.8805046537
 23
7.9277068473
 33
0.0
  0
SOLID
  5
22A
330
226
100
AcDbEntity
  8
SLD-0
100
AcDbTrace
 10
9.1205046537
 20
7.8877068473
 30
0.0
 11
8.8605046537
 21
7.9277068473
 31
0.0
 12
8.8605046537
 22
7.8477068473
 32
0.0
 13
8.8605046537
 23
7.8477068473
 33
0.0
  0
LINE
  5
22B
330
226
100
AcDbEntity
  8
SLD-0
100
AcDbLine
 10
6.4545324567
 20
7.885797086
 30
0.0
 11
6.3783605825
 21
7.885797086
 31
0.0
  0
LINE
  5
22C
330
226
100
AcDbEntity
  8
SLD-0
100
AcDbLine
 10
6.3783605825
 20
7.885797086
 30
0.0
 11
6.3783605825
 21
7.4889220741
 31
0.0
  0
LINE
  5
22D
330
226
100
AcDbEntity
  8
SLD-0
100
AcDbLine
 10
6.3783605825
 20
7.4889220741
 30
0.0
 11
6.4545324567
 21
7.4889220741
 31
0.0
  0
LINE
  5
22E
330
226
100
AcDbEntity
  8
SLD-0
100
AcDbLine
 10
7.4489769221
 20
7.885797086
 30
0.0
 11
7.5251487964
 21
7.885797086
 31
0.0
  0
LINE
  5
22F
330
226
100
AcDbEntity
  8
SLD-0
100
AcDbLine
 10
7.5251487964
 20
7.885797086
 30
0.0
 11
7.5251487964
 21
7.4889220741
 31
0.0
  0
LINE
  5
230
330
226
100
AcDbEntity
  8
SLD-0
100
AcDbLine
 10
7.5251487964
 20
7.4889220741
 30
0.0
 11
7.4489769221
 21
7.4889220741
 31
0.0
  0
LINE
  5
231
330
226
100
AcDbEntity
  8
SLD-0
100
AcDbLine
 10
5.6205046537
 20
4.1114284617
 30
0.0
 11
5.6205046537
 21
8.1377068473
 31
0.0
  0
LINE
  5
232
330
226
100
AcDbEntity
  8
SLD-0
100
AcDbLine
 10
9.1205046537
 20
4.1114284617
 30
0.0
 11
9.1205046537
 21
8.1377068473
 31
0.0
  0
LINE
  5
233
330
226
100
AcDbEntity
  8
SLD-0
100
AcDbLine
 10
5.6205046537
 20
7.8877068473
 30
0.0
 11
6.2514890383
 21
7.8877068473
 31
0.0
  0
LINE
  5
234
330
226
100
AcDbEntity
  8
SLD-0
100
AcDbLine
 10
9.1205046537
 20
7.8877068473
 30
0.0
 11
8.4895202691
 21
7.8877068473
 31
0.0
  0
MTEXT
  5
235
330
226
100
AcDbEntity
  8
SLD-0
100
AcDbMText
 10
6.5040116268
 20
8.2588452781
 30
0.0
 40
0.25
 41
0.0
 71
     1
 72
     1
  1
3 1/2"
  7
SLDTEXTSTYLE0
 73
     1
 44
1.0
  0
MTEXT
  5
236
330
226
100
AcDbEntity
  8
SLD-0
100
AcDbMText
 10
6.4545324567
 20
7.8111890365
 30
0.0
 40
0.25
 41
0.0
 71
     1
 72
     1
  1
89mm
  7
SLDTEXTSTYLE0
 73
     1
 44
1.0
  0
MTEXT
  5
237
330
226
100
AcDbEntity
  8
SLD-0
100
AcDbMText
 10
7.6950706339
 20
8.2626647411
 30
0.0
 40
0.25
 41
0.0
 71
     1
 72
     1
  1
O.C.
  7
SLDTEXTSTYLE0
 73
     1
 44
1.0
  0
ENDBLK
  5
228
330
226
100
AcDbEntity
  8
0
100
AcDbBlockEnd
  0
ENDSEC
  0
SECTION
  2
ENTITIES
  0
LINE
  5
6E
330
1F
100
AcDbEntity
  8
0
  6
Continuous
 62
     7
370
    25
100
AcDbLine
 10
4.8555046537
 20
10.5605018594
 30
0.0
 11
4.8555046537
 21
10.2455018594
 31
0.0
  0
LINE
  5
6F
330
1F
100
AcDbEntity
  8
0
  6
Continuous
 62
     7
370
    25
100
AcDbLine
 10
9.8855046537
 20
10.2455018594
 30
0.0
 11
9.8855046537
 21
10.5605018594
 31
0.0
  0
ARC
  5
70
330
1F
100
AcDbEntity
  8
0
  6
Continuous
 62
     7
370
    25
100
AcDbCircle
 10
9.8555046537
 20
10.5605018594
 30
0.0
 40
0.0300000000000011
100
AcDbArc
 50
0.0
 51
90.0
  0
ARC
  5
71
330
1F
100
AcDbEntity
  8
0
  6
Continuous
 62
     7
370
    25
100
AcDbCircle
 10
4.8855046537
 20
10.5605018594
 30
0.0
 40
0.0300000000000011
100
AcDbArc
 50
90.0
 51
180.0
  0
ARC
  5
72
330
1F
100
AcDbEntity
  8
0
  6
Continuous
 62
     7
370
    25
100
AcDbCircle
 10
9.8555046537
 20
10.2455018594
 30
0.0
 40
0.0299999999999994
100
AcDbArc
 50
270.0
 51
0.0
  0
ARC
  5
73
330
1F
100
AcDbEntity
  8
0
  6
Continuous
 62
     7
370
    25
100
AcDbCircle
 10
4.8855046537
 20
10.2455018594
 30
0.0
 40
0.0300000000000002
100
AcDbArc
 50
180.0
 51
270.0
  0
LINE
  5
74
330
1F
100
AcDbEntity
  8
0
  6
Continuous
 62
     7
370
    25
100
AcDbLine
 10
5.2780046537
 20
13.8195018594
 30
0.0
 11
5.3118340811
 21
12.2045018594
 31
0.0
  0
LINE
  5
75
330
1F
100
AcDbEntity
  8
0
  6
Continuous
 62
     7
370
    25
100
AcDbLine
 10
9.4291752262
 20
12.2045018594
 30
0.0
 11
9.4630046537
 21
13.8195018594
 31
0.0
  0
LINE
  5
76
330
1F
100
AcDbEntity
  8
0
  6
Continuous
 62
     7
370
    25
100
AcDbLine
 10
5.2205046537
 20
12.2045018594
 30
0.0
 11
5.2205046537
 21
12.1545018594
 31
0.0
  0
LINE
  5
77
330
1F
100
AcDbEntity
  8
0
  6
Continuous
 62
     7
370
    25
100
AcDbLine
 10
9.5205046537
 20
12.1545018594
 30
0.0
 11
9.5205046537
 21
12.2045018594
 31
0.0
  0
LINE
  5
78
330
1F
100
AcDbEntity
  8
0
  6
Continuous
 62
     7
370
    25
100
AcDbLine
 10
5.2533134498
 20
12.1349531337
 30
0.0
 11
5.2208258342
 21
10.6955018594
 31
0.0
  0
LINE
  5
79
330
1F
100
AcDbEntity
  8
0
  6
Continuous
 62
     7
370
    25
100
AcDbLine
 10
9.5201834731
 20
10.6955018594
 30
0.0
 11
9.4876958575
 21
12.1349531337
 31
0.0
  0
ARC
  5
7A
330
1F
100
AcDbEntity
  8
0
  6
Continuous
 62
     7
370
    25
100
AcDbCircle
 10
5.2733083596
 20
12.1345018594
 30
0.0
 40
0.0200000000000002
100
AcDbArc
 50
90.0009624145
 51
178.7461731628
  0
ARC
  5
7B
330
1F
100
AcDbEntity
  8
0
  6
Continuous
 62
     7
370
    25
100
AcDbCircle
 10
9.467700922
 20
12.1345018595
 30
0.0
 40
0.0199999998644257
100
AcDbArc
 50
1.0674767663
 51
90.0001558957
  0
LINE
  5
7C
330
1F
100
AcDbEntity
  8
0
  6
Continuous
 62
     7
370
    25
100
AcDbLine
 10
8.9035121553
 20
11.9875018594
 30
0.0
 11
8.869860813
 21
11.9875018594
 31
0.0
  0
LINE
  5
7D
330
1F
100
AcDbEntity
  8
0
  6
Continuous
 62
     7
370
    25
100
AcDbLine
 10
5.8711484943
 20
11.9875018594
 30
0.0
 11
5.8374971521
 21
11.9875018594
 31
0.0
  0
LINE
  5
7E
330
1F
100
AcDbEntity
  8
0
  6
Continuous
 62
     7
370
    25
100
AcDbLine
 10
8.8321663154
 20
12.6070018594
 30
0.0
 11
8.8325241502
 21
12.6070018594
 31
0.0
  0
LINE
  5
7F
330
1F
100
AcDbEntity
  8
0
  6
Continuous
 62
     7
370
    25
100
AcDbLine
 10
5.9084851571
 20
12.6070018594
 30
0.0
 11
5.9088429919
 21
12.6070018594
 31
0.0
  0
LINE
  5
80
330
1F
100
AcDbEntity
  8
0
  6
Continuous
 62
     7
370
    25
100
AcDbLine
 10
5.0205046537
 20
10.6955018594
 30
0.0
 11
5.0205046537
 21
10.5905018594
 31
0.0
  0
LINE
  5
81
330
1F
100
AcDbEntity
  8
0
  6
Continuous
 62
     7
370
    25
100
AcDbLine
 10
9.7205046537
 20
10.5905018594
 30
0.0
 11
9.7205046537
 21
10.6955018594
 31
0.0
  0
LINE
  5
82
330
1F
100
AcDbEntity
  8
0
  6
Continuous
 62
     7
370
    25
100
AcDbLine
 10
9.3260046537
 20
10.2099266752
 30
0.0
 11
9.3260046537
 21
10.2149266752
 31
0.0
  0
LINE
  5
83
330
1F
100
AcDbEntity
  8
0
  6
Continuous
 62
     7
370
    25
100
AcDbLine
 10
8.9150046537
 20
10.2149266752
 30
0.0
 11
8.9150046537
 21
10.2099266752
 31
0.0
  0
LINE
  5
84
330
1F
100
AcDbEntity
  8
0
  6
Continuous
 62
     7
370
    25
100
AcDbLine
 10
9.3260046537
 20
10.2149266752
 30
0.0
 11
9.3255046537
 21
10.2155018594
 31
0.0
  0
LINE
  5
85
330
1F
100
AcDbEntity
  8
0
  6
Continuous
 62
     7
370
    25
100
AcDbLine
 10
8.9155046537
 20
10.2155018594
 30
0.0
 11
8.9150046537
 21
10.2149266752
 31
0.0
  0
LINE
  5
86
330
1F
100
AcDbEntity
  8
0
  6
Continuous
 62
     7
370
    25
100
AcDbLine
 10
5.8260046537
 20
10.2149266752
 30
0.0
 11
5.8255046537
 21
10.2155018594
 31
0.0
  0
LINE
  5
87
330
1F
100
AcDbEntity
  8
0
  6
Continuous
 62
     7
370
    25
100
AcDbLine
 10
5.4155046537
 20
10.2155018594
 30
0.0
 11
5.4150046537
 21
10.2149266752
 31
0.0
  0
LINE
  5
88
330
1F
100
AcDbEntity
  8
0
  6
Continuous
 62
     7
370
    25
100
AcDbLine
 10
5.8260046537
 20
10.2099266752
 30
0.0
 11
5.8260046537
 21
10.2149266752
 31
0.0
  0
LINE
  5
89
330
1F
100
AcDbEntity
  8
0
  6
Continuous
 62
     7
370
    25
100
AcDbLine
 10
5.4150046537
 20
10.2149266752
 30
0.0
 11
5.4150046537
 21
10.2099266752
 31
0.0
  0
LINE
  5
8A
330
1F
100
AcDbEntity
  8
0
  6
Continuous
 62
     7
370
    25
100
AcDbLine
 10
4.8855046537
 20
10.5905018594
 30
0.0
 11
9.8555046537
 21
10.5905018594
 31
0.0
  0
LINE
  5
8B
330
1F
100
AcDbEntity
  8
0
  6
Continuous
 62
     7
370
    25
100
AcDbLine
 10
9.8555046537
 20
10.2155018594
 30
0.0
 11
4.8855046537
 21
10.2155018594
 31
0.0
  0
LINE
  5
8C
330
1F
100
AcDbEntity
  8
0
  6
Continuous
 62
     7
370
    25
100
AcDbLine
 10
7.5793072342
 20
13.6045018594
 30
0.0
 11
7.5835719977
 21
13.8195018594
 31
0.0
  0
LINE
  5
8D
330
1F
100
AcDbEntity
  8
0
  6
Continuous
 62
     7
370
    25
100
AcDbLine
 10
7.1617020731
 20
13.6045018594
 30
0.0
 11
7.5793072342
 21
13.6045018594
 31
0.0
  0
LINE
  5
8E
330
1F
100
AcDbEntity
  8
0
  6
Continuous
 62
     7
370
    25
100
AcDbLine
 10
7.1617020731
 20
13.6045018594
 30
0.0
 11
7.1574373096
 21
13.8195018594
 31
0.0
  0
LINE
  5
8F
330
1F
100
AcDbEntity
  8
0
  6
Continuous
 62
     7
370
    25
100
AcDbLine
 10
7.1574373096
 20
13.8195018594
 30
0.0
 11
7.5835719977
 21
13.8195018594
 31
0.0
  0
LINE
  5
90
330
1F
100
AcDbEntity
  8
0
  6
Continuous
 62
     7
370
    25
100
AcDbLine
 10
7.7433865951
 20
13.6045018594
 30
0.0
 11
7.7476513586
 21
13.8195018594
 31
0.0
  0
LINE
  5
91
330
1F
100
AcDbEntity
  8
0
  6
Continuous
 62
     7
370
    25
100
AcDbLine
 10
7.5793072342
 20
13.6045018594
 30
0.0
 11
7.7433865951
 21
13.6045018594
 31
0.0
  0
LINE
  5
92
330
1F
100
AcDbEntity
  8
0
  6
Continuous
 62
     7
370
    25
100
AcDbLine
 10
7.5835719977
 20
13.8195018594
 30
0.0
 11
7.7476513586
 21
13.8195018594
 31
0.0
  0
LINE
  5
93
330
1F
100
AcDbEntity
  8
0
  6
Continuous
 62
     7
370
    25
100
AcDbLine
 10
6.9933579487
 20
13.8195018594
 30
0.0
 11
6.9976227122
 21
13.6045018594
 31
0.0
  0
LINE
  5
94
330
1F
100
AcDbEntity
  8
0
  6
Continuous
 62
     7
370
    25
100
AcDbLine
 10
6.9976227122
 20
13.6045018594
 30
0.0
 11
7.1617020731
 21
13.6045018594
 31
0.0
  0
LINE
  5
95
330
1F
100
AcDbEntity
  8
0
  6
Continuous
 62
     7
370
    25
100
AcDbLine
 10
6.9933579487
 20
13.8195018594
 30
0.0
 11
7.1574373096
 21
13.8195018594
 31
0.0
  0
LINE
  5
96
330
1F
100
AcDbEntity
  8
0
  6
Continuous
 62
     7
370
    25
100
AcDbLine
 10
7.8380898927
 20
13.8195018594
 30
0.0
 11
7.8370835268
 21
13.6045018594
 31
0.0
  0
LINE
  5
97
330
1F
100
AcDbEntity
  8
0
  6
Continuous
 62
     7
370
    25
100
AcDbLine
 10
7.8370835268
 20
13.6045018594
 30
0.0
 11
7.7433865951
 21
13.6045018594
 31
0.0
  0
LINE
  5
98
330
1F
100
AcDbEntity
  8
0
  6
Continuous
 62
     7
370
    25
100
AcDbLine
 10
7.7476513586
 20
13.8195018594
 30
0.0
 11
7.8380898927
 21
13.8195018594
 31
0.0
  0
LINE
  5
99
330
1F
100
AcDbEntity
  8
0
  6
Continuous
 62
     7
370
    25
100
AcDbLine
 10
6.9039257805
 20
13.6045018594
 30
0.0
 11
6.9029194146
 21
13.8195018594
 31
0.0
  0
LINE
  5
9A
330
1F
100
AcDbEntity
  8
0
  6
Continuous
 62
     7
370
    25
100
AcDbLine
 10
6.9976227122
 20
13.6045018594
 30
0.0
 11
6.9039257805
 21
13.6045018594
 31
0.0
  0
LINE
  5
9B
330
1F
100
AcDbEntity
  8
0
  6
Continuous
 62
     7
370
    25
100
AcDbLine
 10
6.9029194146
 20
13.8195018594
 30
0.0
 11
6.9933579487
 21
13.8195018594
 31
0.0
  0
SPLINE
  5
9C
330
1F
100
AcDbEntity
  8
0
  6
Continuous
 62
     7
370
    25
100
AcDbSpline
210
0.0
220
0.0
230
1.0
 70
     8
 71
     3
 72
    30
 73
    26
 74
     0
 42
0.00000001
 43
0.00000001
 40
0.0
 40
0.0
 40
0.0
 40
0.0
 40
0.0274441974840316
 40
0.0548884120208159
 40
0.1002608938963326
 40
0.1457934378610166
 40
0.1913288898317725
 40
0.2367053511117853
 40
0.2824177289592387
 40
0.3282871085747864
 40
0.3741586300561808
 40
0.4198739386356661
 40
0.4665654726187882
 40
0.5134236530823536
 40
0.5602792660670071
 40
0.6069672864107944
 40
0.6536800186109453
 40
0.7005676585085833
 40
0.7474514234711424
 40
0.7941588518019395
 40
0.8310075404655467
 40
0.8678561996435142
 40
0.9118786362655015
 40
0.9559760075282036
 40
1.0
 40
1.0
 40
1.0
 40
1.0
 10
5.910139022285199
 20
12.51950185938086
 30
0.0
 10
5.916026921248683
 20
12.51962203365548
 30
0.0
 10
5.927802722834159
 20
12.5198623822794
 30
0.0
 10
5.949551347799037
 20
12.52219933410473
 30
0.0
 10
5.975408240649048
 20
12.52722356461353
 30
0.0
 10
6.005258166689798
 20
12.53639541514387
 30
0.0
 10
6.034905819058699
 20
12.54877444341315
 30
0.0
 10
6.064157848603958
 20
12.56433899790365
 30
0.0
 10
6.092784170969431
 20
12.58309601723527
 30
0.0
 10
6.120569373258844
 20
12.60487391944208
 30
0.0
 10
6.147178180993222
 20
12.62943682122336
 30
0.0
 10
6.172519119240176
 20
12.65680750851096
 30
0.0
 10
6.196298535889144
 20
12.68696946546612
 30
0.0
 10
6.218298542289071
 20
12.71974391560436
 30
0.0
 10
6.238119278705679
 20
12.754650219202
 30
0.0
 10
6.255514010802217
 20
12.79143816565756
 30
0.0
 10
6.270213330489815
 20
12.82994900137381
 30
0.0
 10
6.282137766782189
 20
12.86990360695721
 30
0.0
 10
6.291162046325661
 20
12.9109511692362
 30
0.0
 10
6.296700803666433
 20
12.94982196553529
 30
0.0
 10
6.299350255779277
 20
12.98607754340379
 30
0.0
 10
6.299875833937491
 20
13.02168285996918
 30
0.0
 10
6.297906286880046
 20
13.05945560190445
 30
0.0
 10
6.293241391469834
 20
13.09916700965537
 30
0.0
 10
6.287837555366838
 20
13.12514012506432
 30
0.0
 10
6.285137887206529
 20
13.13811586884284
 30
0.0
  0
LINE
  5
9D
330
1F
100
AcDbEntity
  8
0
  6
Continuous
 62
     7
370
    25
100
AcDbLine
 10
6.2851378872
 20
13.1381158688
 30
0.0
 11
6.2872984523
 21
13.8195018594
 31
0.0
  0
LINE
  5
9E
330
1F
100
AcDbEntity
  8
0
  6
Continuous
 62
     7
370
    25
100
AcDbLine
 10
8.453710855
 20
13.8195018594
 30
0.0
 11
8.4558714201
 21
13.1381158688
 31
0.0
  0
SPLINE
  5
9F
330
1F
100
AcDbEntity
  8
0
  6
Continuous
 62
     7
370
    25
100
AcDbSpline
210
0.0
220
0.0
230
1.0
 70
     8
 71
     3
 72
    30
 73
    26
 74
     0
 42
0.00000001
 43
0.00000001
 40
0.0
 40
0.0
 40
0.0
 40
0.0
 40
0.0294967122566409
 40
0.0589933061337859
 40
0.0955771940890986
 40
0.1321609299966694
 40
0.1776525062427408
 40
0.2233091380672254
 40
0.2689677226005235
 40
0.3144619712712876
 40
0.3599192384128021
 40
0.4055342815960421
 40
0.4511529567604496
 40
0.4966151937198992
 40
0.5428217691864863
 40
0.5891888487651957
 40
0.6355556980542737
 40
0.6817619583984278
 40
0.7286574763617624
 40
0.7757252505546172
 40
0.8227893274345747
 40
0.8696797850138566
 40
0.9130967068586939
 40
0.9565839198433737
 40
0.9999999999999999
 40
0.9999999999999999
 40
0.9999999999999999
 40
0.9999999999999999
 10
8.455871420118601
 20
13.13811586884265
 30
0.0
 10
8.454004033531032
 20
13.1294409479129
 30
0.0
 10
8.450269267850297
 20
13.11209114086856
 30
0.0
 10
8.44586917571795
 20
13.08357194706974
 30
0.0
 10
8.442659393518207
 20
13.05269433272754
 30
0.0
 10
8.44105499885032
 20
13.01681911170988
 30
0.0
 10
8.4419100257052
 20
12.97818080276819
 30
0.0
 10
8.445831976628329
 20
12.93708559117749
 30
0.0
 10
8.452660126611516
 20
12.89655960352396
 30
0.0
 10
8.462339881470895
 20
12.85694979754212
 30
0.0
 10
8.47485103825991
 20
12.81852501147551
 30
0.0
 10
8.48996472884642
 20
12.78146772065557
 30
0.0
 10
8.507483503464746
 20
12.74603778213655
 30
0.0
 10
8.527332647811635
 20
12.71233040764029
 30
0.0
 10
8.549426445430015
 20
12.68062077142931
 30
0.0
 10
8.573540867277018
 20
12.65106859982994
 30
0.0
 10
8.599289559937409
 20
12.62405247557836
 30
0.0
 10
8.626550062419675
 20
12.59967606597726
 30
0.0
 10
8.655148869073336
 20
12.57821164599304
 30
0.0
 10
8.68484275766703
 20
12.55976584641009
 30
0.0
 10
8.715191225285336
 20
12.54458077222114
 30
0.0
 10
8.745142331439276
 20
12.53309312047762
 30
0.0
 10
8.774408730758557
 20
12.52524360072874
 30
0.0
 10
8.802852704519228
 20
12.52041101157538
 30
0.0
 10
8.82153618918837
 20
12.51980474469678
 30
0.0
 10
8.83087028503997
 20
12.51950185938086
 30
0.0
  0
LINE
  5
A0
330
1F
100
AcDbEntity
  8
0
  6
Continuous
 62
     7
370
    25
100
AcDbLine
 10
9.4630046537
 20
13.8195018594
 30
0.0
 11
9.2036789839
 21
13.8195018594
 31
0.0
  0
LINE
  5
A1
330
1F
100
AcDbEntity
  8
0
  6
Continuous
 62
     7
370
    25
100
AcDbLine
 10
8.453710855
 20
13.8195018594
 30
0.0
 11
7.8380898927
 21
13.8195018594
 31
0.0
  0
LINE
  5
A2
330
1F
100
AcDbEntity
  8
0
  6
Continuous
 62
     7
370
    25
100
AcDbLine
 10
6.9029194146
 20
13.8195018594
 30
0.0
 11
6.2872984523
 21
13.8195018594
 31
0.0
  0
LINE
  5
A3
330
1F
100
AcDbEntity
  8
0
  6
Continuous
 62
     7
370
    25
100
AcDbLine
 10
5.5373303234
 20
13.8195018594
 30
0.0
 11
5.2780046537
 21
13.8195018594
 31
0.0
  0
LINE
  5
A4
330
1F
100
AcDbEntity
  8
0
  6
Continuous
 62
     7
370
    25
100
AcDbLine
 10
8.4965722027
 20
13.1381158688
 30
0.0
 11
8.4965722027
 21
13.8195018594
 31
0.0
  0
LINE
  5
A5
330
1F
100
AcDbEntity
  8
0
  6
Continuous
 62
     7
370
    25
100
AcDbLine
 10
8.4558714201
 20
13.1381158688
 30
0.0
 11
8.4965722027
 21
13.1381158688
 31
0.0
  0
LINE
  5
A6
330
1F
100
AcDbEntity
  8
0
  6
Continuous
 62
     7
370
    25
100
AcDbLine
 10
8.453710855
 20
13.8195018594
 30
0.0
 11
8.4965722027
 21
13.8195018594
 31
0.0
  0
LINE
  5
A7
330
1F
100
AcDbEntity
  8
0
  6
Continuous
 62
     7
370
    25
100
AcDbLine
 10
9.2036789839
 20
13.8195018594
 30
0.0
 11
9.1834939111
 21
13.1381158688
 31
0.0
  0
ELLIPSE
  5
A8
330
1F
100
AcDbEntity
  8
0
  6
Continuous
 62
     7
370
    25
100
AcDbEllipse
 10
8.8382761728
 20
13.0195018594
 30
0.0
 11
0.01480204369346794
 21
0.4998905337994355
 31
0.0
210
0.0
220
0.0
230
1.0
 40
0.7067967906
 41
3.162518254664175
 42
4.972825998532223
  0
ELLIPSE
  5
A9
330
1F
100
AcDbEntity
  8
0
  6
Continuous
 62
     7
370
    25
100
AcDbEllipse
 10
8.8382761728
 20
13.0195018594
 30
0.0
 11
0.01480204369346794
 21
0.4998905337994355
 31
0.0
210
0.0
220
0.0
230
1.0
 40
0.7067967906
 41
1.352210510796036
 42
3.162518254664175
  0
ELLIPSE
  5
AA
330
1F
100
AcDbEntity
  8
0
  6
Continuous
 62
     7
370
    25
100
AcDbEllipse
 10
8.8382797827
 20
13.0197455727
 30
0.0
 11
0.01150369704373588
 21
0.3884998338074546
 31
0.0
210
0.0
220
0.0
230
1.0
 40
0.7067966517
 41
0.0
 42
6.283185307179586
  0
LINE
  5
AB
330
1F
100
AcDbEntity
  8
0
  6
Continuous
 62
     7
370
    25
100
AcDbLine
 10
8.4965722027
 20
13.8195018594
 30
0.0
 11
9.2036789839
 21
13.8195018594
 31
0.0
  0
LINE
  5
AC
330
1F
100
AcDbEntity
  8
0
  6
Continuous
 62
     7
370
    25
100
AcDbLine
 10
6.2444371046
 20
13.8195018594
 30
0.0
 11
6.2444371046
 21
13.1381158688
 31
0.0
  0
ELLIPSE
  5
AD
330
1F
100
AcDbEntity
  8
0
  6
Continuous
 62
     7
370
    25
100
AcDbEllipse
 10
5.9027331345
 20
13.0195018594
 30
0.0
 11
-0.01480204369346527
 21
0.4998905337994373
 31
0.0
210
0.0
220
0.0
230
1.0
 40
0.7067967906
 41
3.120667052515509
 42
4.930974796383588
  0
ELLIPSE
  5
AE
330
1F
100
AcDbEntity
  8
0
  6
Continuous
 62
     7
370
    25
100
AcDbEllipse
 10
5.9027331345
 20
13.0195018594
 30
0.0
 11
-0.01480204369346527
 21
0.4998905337994373
 31
0.0
210
0.0
220
0.0
230
1.0
 40
0.7067967906
 41
1.310359308647382
 42
3.120667052515509
  0
LINE
  5
AF
330
1F
100
AcDbEntity
  8
0
  6
Continuous
 62
     7
370
    25
100
AcDbLine
 10
5.5575153962
 20
13.1381158688
 30
0.0
 11
5.5373303234
 21
13.8195018594
 31
0.0
  0
ELLIPSE
  5
B0
330
1F
100
AcDbEntity
  8
0
  6
Continuous
 62
     7
370
    25
100
AcDbEllipse
 10
5.9027295247
 20
13.0197455727
 30
0.0
 11
-0.01150369704373677
 21
0.3884998338074547
 31
0.0
210
0.0
220
0.0
230
1.0
 40
0.7067966517
 41
0.0
 42
6.283185307179586
  0
LINE
  5
B1
330
1F
100
AcDbEntity
  8
0
  6
Continuous
 62
     7
370
    25
100
AcDbLine
 10
5.5373303234
 20
13.8195018594
 30
0.0
 11
6.2444371046
 21
13.8195018594
 31
0.0
  0
LINE
  5
B2
330
1F
100
AcDbEntity
  8
0
  6
Continuous
 62
     7
370
    25
100
AcDbLine
 10
6.2851378872
 20
13.1381158688
 30
0.0
 11
6.2444371046
 21
13.1381158688
 31
0.0
  0
LINE
  5
B3
330
1F
100
AcDbEntity
  8
0
  6
Continuous
 62
     7
370
    25
100
AcDbLine
 10
6.2872984523
 20
13.8195018594
 30
0.0
 11
6.2444371046
 21
13.8195018594
 31
0.0
  0
LINE
  5
B4
330
1F
100
AcDbEntity
  8
0
  6
Continuous
 62
     7
370
    25
100
AcDbLine
 10
9.5205046537
 20
12.1545018594
 30
0.0
 11
5.2205046537
 21
12.1545018594
 31
0.0
  0
LINE
  5
B5
330
1F
100
AcDbEntity
  8
0
  6
Continuous
 62
     7
370
    25
100
AcDbLine
 10
9.5205046537
 20
12.2045018594
 30
0.0
 11
5.2205046537
 21
12.2045018594
 31
0.0
  0
SPLINE
  5
B6
330
1F
100
AcDbEntity
  8
0
  6
Continuous
 62
     7
370
    25
100
AcDbSpline
210
0.0
220
0.0
230
1.0
 70
     8
 71
     3
 72
    29
 73
    25
 74
     0
 42
0.00000001
 43
0.00000001
 40
0.0
 40
0.0
 40
0.0
 40
0.0
 40
0.0434926636036503
 40
0.0871365281771252
 40
0.13083455596954
 40
0.1744837799985336
 40
0.217980954299271
 40
0.2723061016900462
 40
0.3268173025340643
 40
0.3813336667528073
 40
0.4356658790983139
 40
0.480148109947086
 40
0.5247790028982932
 40
0.5694592238056995
 40
0.6140879020200164
 40
0.6585682691467848
 40
0.7036169777639734
 40
0.748828406380946
 40
0.7940914383775535
 40
0.8392958560563876
 40
0.8843386633633421
 40
0.9282694535951976
 40
0.9723563451199907
 40
1.0
 40
1.0
 40
1.0
 40
1.0
 10
8.398276720917305
 20
11.42782343176615
 30
0.0
 10
8.399025162115167
 20
11.44088107657951
 30
0.0
 10
8.400524646444769
 20
11.46704176072558
 30
0.0
 10
8.405780643848763
 20
11.50593456294756
 30
0.0
 10
8.413139115578419
 20
11.54436787942394
 30
0.0
 10
8.42274437231328
 20
11.58206793238602
 30
0.0
 10
8.435457810702943
 20
11.6218951723046
 30
0.0
 10
8.451935496724392
 20
11.66340771988659
 30
0.0
 10
8.472589145783983
 20
11.70603081729881
 30
0.0
 10
8.495977721722262
 20
11.74651704453308
 30
0.0
 10
8.520288060546546
 20
11.78226406128119
 30
0.0
 10
8.544866582871052
 20
11.81353636728684
 30
0.0
 10
8.569144761783052
 20
11.84080524976024
 30
0.0
 10
8.594641506661107
 20
11.86610816413551
 30
0.0
 10
8.621144841046053
 20
11.88928311959659
 30
0.0
 10
8.64860964131562
 20
11.91029553163638
 30
0.0
 10
8.676934243182734
 20
11.92899063315823
 30
0.0
 10
8.70598563540151
 20
11.94531801076887
 30
0.0
 10
8.735465664844597
 20
11.95913764804683
 30
0.0
 10
8.765134533957058
 20
11.97033425762858
 30
0.0
 10
8.79457451201432
 20
11.97878861016116
 30
0.0
 10
8.823625215898591
 20
11.98433288552787
 30
0.0
 10
8.848712850999984
 20
11.98720363362465
 30
0.0
 10
8.863979531296385
 20
11.98715050251176
 30
0.0
 10
8.86986303368734
 20
11.98713002674207
 30
0.0
  0
SPLINE
  5
B7
330
1F
100
AcDbEntity
  8
0
  6
Continuous
 62
     7
370
    25
100
AcDbSpline
210
0.0
220
0.0
230
1.0
 70
     8
 71
     3
 72
     9
 73
     5
 74
     0
 42
0.00000001
 43
0.00000001
 40
0.0
 40
0.0
 40
0.0
 40
0.0
 40
0.4286183048010651
 40
1.0
 40
1.0
 40
1.0
 40
1.0
 10
8.36920398725822
 20
10.69550185938086
 30
0.0
 10
8.373396434496271
 20
10.80013094507482
 30
0.0
 10
8.383177741526533
 20
11.04423877836608
 30
0.0
 10
8.392786469588534
 20
11.28834538503716
 30
0.0
 10
8.398276720917305
 20
11.42782343176615
 30
0.0
  0
SPLINE
  5
B8
330
1F
100
AcDbEntity
  8
0
  6
Continuous
 62
     7
370
    25
100
AcDbSpline
210
0.0
220
0.0
230
1.0
 70
     8
 71
     3
 72
     9
 73
     5
 74
     0
 42
0.00000001
 43
0.00000001
 40
0.0
 40
0.0
 40
0.0
 40
0.0
 40
0.5713814424075239
 40
1.0
 40
1.0
 40
1.0
 40
1.0
 10
6.342732586407862
 20
11.42782343176615
 30
0.0
 10
6.348222835301372
 20
11.28834544674528
 30
0.0
 10
6.35783156335242
 20
11.04423884007432
 30
0.0
 10
6.367612870371815
 20
10.80013100678315
 30
0.0
 10
6.371805320077836
 20
10.69550185938086
 30
0.0
  0
SPLINE
  5
B9
330
1F
100
AcDbEntity
  8
0
  6
Continuous
 62
     7
370
    25
100
AcDbSpline
210
0.0
220
0.0
230
1.0
 70
     8
 71
     3
 72
    28
 73
    24
 74
     0
 42
0.00000001
 43
0.00000001
 40
0.0
 40
0.0
 40
0.0
 40
0.0
 40
0.0164966704070428
 40
0.060584802929841
 40
0.1045168642590665
 40
0.1583665235953324
 40
0.2124031839834321
 40
0.2664448356480181
 40
0.3203013247885746
 40
0.3750156055816067
 40
0.4299156811383162
 40
0.4848182735768669
 40
0.5395359981065795
 40
0.5844951997346977
 40
0.6296108538513224
 40
0.6747764382515663
 40
0.7198859294087671
 40
0.7648399441709977
 40
0.811748295271727
 40
0.8588470981415179
 40
0.9060067737766286
 40
0.9530980158661223
 40
1.0
 40
1.0
 40
1.0
 40
1.0
 10
5.871150714956677
 20
11.98713002674207
 30
0.0
 10
5.874648261292871
 20
11.98721089019261
 30
0.0
 10
5.887493165766799
 20
11.9875078650423
 30
0.0
 10
5.910120366218573
 20
11.985303715592
 30
0.0
 10
5.941027836060518
 20
11.98015388701829
 30
0.0
 10
5.974348897549032
 20
11.97101686978515
 30
0.0
 10
6.009803473872525
 20
11.95750784542465
 30
0.0
 10
6.044905712475637
 20
11.9402901794834
 30
0.0
 10
6.079510777228125
 20
11.91939179148429
 30
0.0
 10
6.113330482747342
 20
11.89477770971871
 30
0.0
 10
6.146090475637119
 20
11.86662607799038
 30
0.0
 10
6.177291451925193
 20
11.83530121566013
 30
0.0
 10
6.204865795725547
 20
11.80305154426939
 30
0.0
 10
6.228923903453327
 20
11.770559246489
 30
0.0
 10
6.249779736196635
 20
11.73845332381986
 30
0.0
 10
6.268917045091934
 20
11.7047066749071
 30
0.0
 10
6.286150018417309
 20
11.66953630249608
 30
0.0
 10
6.301548634301136
 20
11.63256894578057
 30
0.0
 10
6.314822381416378
 20
11.59380738561795
 30
0.0
 10
6.325831853223474
 20
11.55336677468934
 30
0.0
 10
6.334253544594933
 20
11.51202424311924
 30
0.0
 10
6.340243931965288
 20
11.47011966373993
 30
0.0
 10
6.341904149224764
 20
11.44190323757308
 30
0.0
 10
6.342732586407862
 20
11.42782343176615
 30
0.0
  0
LINE
  5
BA
330
1F
100
AcDbEntity
  8
0
  6
Continuous
 62
     7
370
    25
100
AcDbLine
 10
8.3982767209
 20
11.4278234318
 30
0.0
 11
8.4827836205
 21
11.4278234318
 31
0.0
  0
LINE
  5
BB
330
1F
100
AcDbEntity
  8
0
  6
Continuous
 62
     7
370
    25
100
AcDbLine
 10
8.4510731722
 20
10.6955018594
 30
0.0
 11
8.4827836205
 21
11.4278234318
 31
0.0
  0
LINE
  5
BC
330
1F
100
AcDbEntity
  8
0
  6
Continuous
 62
     7
370
    25
100
AcDbLine
 10
6.2582256869
 20
11.4278234318
 30
0.0
 11
6.2899361351
 21
10.6955018594
 31
0.0
  0
LINE
  5
BD
330
1F
100
AcDbEntity
  8
0
  6
Continuous
 62
     7
370
    25
100
AcDbLine
 10
6.3427325864
 20
11.4278234318
 30
0.0
 11
6.2582256869
 21
11.4278234318
 31
0.0
  0
LINE
  5
BE
330
1F
100
AcDbEntity
  8
0
  6
Continuous
 62
     7
370
    25
100
AcDbLine
 10
5.385058169
 20
10.6955018594
 30
0.0
 11
5.4167686172
 21
11.4278234318
 31
0.0
  0
LWPOLYLINE
  5
BF
330
1F
100
AcDbEntity
  8
0
  6
Continuous
 62
     7
370
    25
100
AcDbPolyline
 90
       72
 70
   128
 43
0.0
 10
5.4167686172
 20
11.4278234318
 10
5.4182442696
 20
11.4530852073
 10
5.4204779724
 20
11.478235427
 10
5.4234656868
 20
11.5032286167
 10
5.4272020108
 20
11.5280195862
 10
5.4316801888
 20
11.5525635112
 10
5.4368921237
 20
11.5768160136
 10
5.4428283918
 20
11.6007332427
 10
5.4494782598
 20
11.6242719537
 10
5.4568297042
 20
11.6473895863
 10
5.4648694326
 20
11.6700443416
 10
5.4735829086
 20
11.6921952576
 10
5.4829543773
 20
11.7138022831
 10
5.4929668942
 20
11.7348263507
 10
5.5036023557
 20
11.7552294467
 10
5.5148415317
 20
11.7749746802
 10
5.5266641008
 20
11.7940263501
 10
5.5390486866
 20
11.812350009
 10
5.5519728966
 20
11.8299125259
 10
5.5654133625
 20
11.846682146
 10
5.5793457826
 20
11.8626285483
 10
5.5937449657
 20
11.8777229001
 10
5.6085848768
 20
11.8919379092
 10
5.6238386837
 20
11.9052478737
 10
5.6394788061
 20
11.9176287277
 10
5.6554769652
 20
11.9290580855
 10
5.6718042346
 20
11.9395152816
 10
5.6884310932
 20
11.9489814084
 10
5.7053274778
 20
11.9574393502
 10
5.7224628381
 20
11.9648738143
 10
5.7398061918
 20
11.9712713584
 10
5.7573261804
 20
11.9766204151
 10
5.7749911259
 20
11.9809113127
 10
5.7927690885
 20
11.984136293
 10
5.8106279238
 20
11.9862895248
 10
5.8285353414
 20
11.9873671149
 10
5.8464589627
 20
11.9873671149
 10
5.8643663803
 20
11.9862895248
 10
5.8822252156
 20
11.984136293
 10
5.9000031782
 20
11.9809113127
 10
5.9176681237
 20
11.9766204151
 10
5.9351881123
 20
11.9712713584
 10
5.952531466
 20
11.9648738143
 10
5.9696668263
 20
11.9574393502
 10
5.9865632109
 20
11.9489814084
 10
6.0031900695
 20
11.9395152816
 10
6.0195173389
 20
11.9290580855
 10
6.035515498
 20
11.9176287277
 10
6.0511556204
 20
11.9052478737
 10
6.0664094273
 20
11.8919379092
 10
6.0812493384
 20
11.8777229001
 10
6.0956485215
 20
11.8626285483
 10
6.1095809416
 20
11.846682146
 10
6.1230214075
 20
11.8299125259
 10
6.1359456175
 20
11.812350009
 10
6.1483302033
 20
11.7940263501
 10
6.1601527724
 20
11.7749746802
 10
6.1713919484
 20
11.7552294467
 10
6.1820274099
 20
11.7348263507
 10
6.1920399268
 20
11.7138022831
 10
6.2014113955
 20
11.6921952576
 10
6.2101248715
 20
11.6700443416
 10
6.2181645999
 20
11.6473895863
 10
6.2255160443
 20
11.6242719537
 10
6.2321659123
 20
11.6007332427
 10
6.2381021804
 20
11.5768160136
 10
6.2433141153
 20
11.5525635112
 10
6.2477922933
 20
11.5280195862
 10
6.2515286173
 20
11.5032286167
 10
6.2545163317
 20
11.478235427
 10
6.2567500345
 20
11.4530852073
 10
6.2582256869
 20
11.4278234318
  0
LWPOLYLINE
  5
C0
330
1F
100
AcDbEntity
  8
0
  6
Continuous
 62
     7
370
    25
100
AcDbPolyline
 90
       72
 70
   128
 43
0.0
 10
8.4827836205
 20
11.4278234318
 10
8.4842592728
 20
11.4530852073
 10
8.4864929756
 20
11.478235427
 10
8.4894806901
 20
11.5032286167
 10
8.4932170141
 20
11.5280195862
 10
8.497695192
 20
11.5525635112
 10
8.5029071269
 20
11.5768160136
 10
8.508843395
 20
11.6007332427
 10
8.5154932631
 20
11.6242719537
 10
8.5228447074
 20
11.6473895863
 10
8.5308844359
 20
11.6700443416
 10
8.5395979119
 20
11.6921952576
 10
8.5489693806
 20
11.7138022831
 10
8.5589818975
 20
11.7348263507
 10
8.5696173589
 20
11.7552294467
 10
8.5808565349
 20
11.7749746802
 10
8.5926791041
 20
11.7940263501
 10
8.6050636899
 20
11.812350009
 10
8.6179878998
 20
11.8299125259
 10
8.6314283657
 20
11.846682146
 10
8.6453607858
 20
11.8626285483
 10
8.6597599689
 20
11.8777229001
 10
8.67459988
 20
11.8919379092
 10
8.6898536869
 20
11.9052478737
 10
8.7054938093
 20
11.9176287277
 10
8.7214919684
 20
11.9290580855
 10
8.7378192379
 20
11.9395152816
 10
8.7544460964
 20
11.9489814084
 10
8.771342481
 20
11.9574393502
 10
8.7884778413
 20
11.9648738143
 10
8.805821195
 20
11.9712713584
 10
8.8233411836
 20
11.9766204151
 10
8.8410061292
 20
11.9809113127
 10
8.8587840917
 20
11.984136293
 10
8.8766429271
 20
11.9862895248
 10
8.8945503446
 20
11.9873671149
 10
8.912473966
 20
11.9873671149
 10
8.9303813835
 20
11.9862895248
 10
8.9482402188
 20
11.984136293
 10
8.9660181814
 20
11.9809113127
 10
8.983683127
 20
11.9766204151
 10
9.0012031155
 20
11.9712713584
 10
9.0185464692
 20
11.9648738143
 10
9.0356818296
 20
11.9574393502
 10
9.0525782142
 20
11.9489814084
 10
9.0692050727
 20
11.9395152816
 10
9.0855323421
 20
11.9290580855
 10
9.1015305012
 20
11.9176287277
 10
9.1171706236
 20
11.9052478737
 10
9.1324244306
 20
11.8919379092
 10
9.1472643416
 20
11.8777229001
 10
9.1616635247
 20
11.8626285483
 10
9.1755959448
 20
11.846682146
 10
9.1890364107
 20
11.8299125259
 10
9.2019606207
 20
11.812350009
 10
9.2143452065
 20
11.7940263501
 10
9.2261677756
 20
11.7749746802
 10
9.2374069516
 20
11.7552294467
 10
9.2480424131
 20
11.7348263507
 10
9.25805493
 20
11.7138022831
 10
9.2674263987
 20
11.6921952576
 10
9.2761398747
 20
11.6700443416
 10
9.2841796032
 20
11.6473895863
 10
9.2915310475
 20
11.6242719537
 10
9.2981809155
 20
11.6007332427
 10
9.3041171837
 20
11.5768160136
 10
9.3093291185
 20
11.5525635112
 10
9.3138072965
 20
11.5280195862
 10
9.3175436205
 20
11.5032286167
 10
9.3205313349
 20
11.478235427
 10
9.3227650377
 20
11.4530852073
 10
9.3242406901
 20
11.4278234318
  0
LINE
  5
C1
330
1F
100
AcDbEntity
  8
0
  6
Continuous
 62
     7
370
    25
100
AcDbLine
 10
9.3242406901
 20
11.4278234318
 30
0.0
 11
9.3559511383
 21
10.6955018594
 31
0.0
  0
ARC
  5
C2
330
1F
100
AcDbEntity
  8
0
  6
Continuous
 62
     7
370
    25
100
AcDbCircle
 10
8.8325241502
 20
12.8207613827
 30
0.0
 40
0.2135933414576019
100
AcDbArc
 50
242.5820889096
 51
297.4179110903
  0
LINE
  5
C3
330
1F
100
AcDbEntity
  8
0
  6
Continuous
 62
     7
370
    25
100
AcDbLine
 10
8.867305372
 20
13.0142312938
 30
0.0
 11
8.9920349914
 21
13.1566462472
 31
0.0
  0
ARC
  5
C4
330
1F
100
AcDbEntity
  8
0
  6
Continuous
 62
     7
370
    25
100
AcDbCircle
 10
8.7452578884
 20
13.0518703437
 30
0.0
 40
0.2680987290416117
100
AcDbArc
 50
23.0049648876
 51
36.4386676137
  0
LINE
  5
C5
330
1F
100
AcDbEntity
  8
0
  6
Continuous
 62
     7
370
    25
100
AcDbLine
 10
8.9609414738
 20
13.2111107892
 30
0.0
 11
8.8362118545
 21
13.0686958358
 31
0.0
  0
LINE
  5
C6
330
1F
100
AcDbEntity
  8
0
  6
Continuous
 62
     7
370
    25
100
AcDbLine
 10
8.8362118545
 20
13.0686958358
 30
0.0
 11
8.7355244254
 21
13.2450636176
 31
0.0
  0
ARC
  5
C7
330
1F
100
AcDbEntity
  8
0
  6
Continuous
 62
     7
370
    25
100
AcDbCircle
 10
8.8783258555
 20
13.0811858465
 30
0.0
 40
0.2173664470451668
100
AcDbArc
 50
131.0685642056
 51
146.5239820517
  0
LINE
  5
C8
330
1F
100
AcDbEntity
  8
0
  6
Continuous
 62
     7
370
    25
100
AcDbLine
 10
8.6970168566
 20
13.2010825488
 30
0.0
 11
8.7976996075
 21
13.0247229616
 31
0.0
  0
LINE
  5
C9
330
1F
100
AcDbEntity
  8
0
  6
Continuous
 62
     7
370
    25
100
AcDbLine
 10
8.7976996075
 20
13.0247229616
 30
0.0
 11
8.6730133091
 21
12.8823574715
 31
0.0
  0
ARC
  5
CA
330
1F
100
AcDbEntity
  8
0
  6
Continuous
 62
     7
370
    25
100
AcDbCircle
 10
8.9197904121
 20
12.987133375
 30
0.0
 40
0.2680987290434832
100
AcDbArc
 50
203.0049648876
 51
216.4386676136
  0
LINE
  5
CB
330
1F
100
AcDbEntity
  8
0
  6
Continuous
 62
     7
370
    25
100
AcDbLine
 10
8.7041068266
 20
12.8278929295
 30
0.0
 11
8.8287931251
 21
12.9702584196
 31
0.0
  0
LINE
  5
CC
330
1F
100
AcDbEntity
  8
0
  6
Continuous
 62
     7
370
    25
100
AcDbLine
 10
8.8287931251
 20
12.9702584196
 30
0.0
 11
8.929475876
 21
12.7938988325
 31
0.0
  0
ARC
  5
CD
330
1F
100
AcDbEntity
  8
0
  6
Continuous
 62
     7
370
    25
100
AcDbCircle
 10
8.7867739499
 20
12.9577727142
 30
0.0
 40
0.2172981564991936
100
AcDbArc
 50
311.0494575215
 51
326.5081219083
  0
LINE
  5
CE
330
1F
100
AcDbEntity
  8
0
  6
Continuous
 62
     7
370
    25
100
AcDbLine
 10
8.9679928012
 20
12.8378635121
 30
0.0
 11
8.867305372
 21
13.0142312938
 31
0.0
  0
LWPOLYLINE
  5
CF
330
1F
100
AcDbEntity
  8
0
  6
Continuous
 62
     7
370
    25
100
AcDbPolyline
 90
        3
 70
   128
 43
0.0
 10
8.9106630239
 20
12.826852112
 10
8.9141517705
 20
12.8315965137
 10
8.9184953265
 20
12.8378635121
  0
LINE
  5
D0
330
1F
100
AcDbEntity
  8
0
  6
Continuous
 62
     7
370
    25
100
AcDbLine
 10
8.6833761908
 20
12.8607386004
 30
0.0
 11
8.7792956504
 21
12.9702584196
 31
0.0
  0
LINE
  5
D1
330
1F
100
AcDbEntity
  8
0
  6
Continuous
 62
     7
370
    25
100
AcDbLine
 10
8.7867143798
 20
13.0686958358
 30
0.0
 11
8.7048470668
 21
13.2120976141
 31
0.0
  0
ARC
  5
D2
330
1F
100
AcDbEntity
  8
0
  6
Continuous
 62
     7
370
    25
100
AcDbCircle
 10
8.677284369
 20
13.0427918037
 30
0.0
 40
0.288655619466699
100
AcDbArc
 50
23.2304309854
 51
27.9904933495
  0
LINE
  5
D3
330
1F
100
AcDbEntity
  8
0
  6
Continuous
 62
     7
370
    25
100
AcDbLine
 10
8.8178078974
 20
13.0142312938
 30
0.0
 11
8.9425375167
 21
13.1566462472
 31
0.0
  0
LINE
  5
D4
330
1F
100
AcDbEntity
  8
0
  6
Continuous
 62
     7
370
    25
100
AcDbLine
 10
8.9184953265
 20
12.8378635121
 30
0.0
 11
8.8178078974
 21
13.0142312938
 31
0.0
  0
LINE
  5
D5
330
1F
100
AcDbEntity
  8
0
  6
Continuous
 62
     7
370
    25
100
AcDbLine
 10
8.7792956504
 20
12.9702584196
 30
0.0
 11
8.8287931251
 21
12.9702584196
 31
0.0
  0
LINE
  5
D6
330
1F
100
AcDbEntity
  8
0
  6
Continuous
 62
     7
370
    25
100
AcDbLine
 10
8.7867143798
 20
13.0686958358
 30
0.0
 11
8.8362118545
 21
13.0686958358
 31
0.0
  0
LINE
  5
D7
330
1F
100
AcDbEntity
  8
0
  6
Continuous
 62
     7
370
    25
100
AcDbLine
 10
8.8178078974
 20
13.0142312938
 30
0.0
 11
8.867305372
 21
13.0142312938
 31
0.0
  0
LINE
  5
D8
330
1F
100
AcDbEntity
  8
0
  6
Continuous
 62
     7
370
    25
100
AcDbLine
 10
8.9425375167
 20
13.1566462472
 30
0.0
 11
8.9920349914
 21
13.1566462472
 31
0.0
  0
LINE
  5
D9
330
1F
100
AcDbEntity
  8
0
  6
Continuous
 62
     7
370
    25
100
AcDbLine
 10
8.9184953265
 20
12.8378635121
 30
0.0
 11
8.9679928012
 21
12.8378635121
 31
0.0
  0
ARC
  5
DA
330
1F
100
AcDbEntity
  8
0
  6
Continuous
 62
     7
370
    25
100
AcDbCircle
 10
5.9084851571
 20
12.8207223606
 30
0.0
 40
0.2135587034127285
100
AcDbArc
 50
242.5772680536
 51
297.4227319463
  0
LINE
  5
DB
330
1F
100
AcDbEntity
  8
0
  6
Continuous
 62
     7
370
    25
100
AcDbLine
 10
5.9314870469
 20
12.9822316062
 30
0.0
 11
6.0914321485
 21
12.9669966531
 31
0.0
  0
ARC
  5
DC
330
1F
100
AcDbEntity
  8
0
  6
Continuous
 62
     7
370
    25
100
AcDbCircle
 10
5.7240300205
 20
13.0194944783
 30
0.0
 40
0.3711338644148366
100
AcDbArc
 50
351.8680932076
 51
2.6785391408
  0
LINE
  5
DD
330
1F
100
AcDbEntity
  8
0
  6
Continuous
 62
     7
370
    25
100
AcDbLine
 10
6.0947584023
 20
13.0368384176
 30
0.0
 11
5.9348133007
 21
13.0520733707
 31
0.0
  0
LINE
  5
DE
330
1F
100
AcDbEntity
  8
0
  6
Continuous
 62
     7
370
    25
100
AcDbLine
 10
5.9348133007
 20
13.0520733707
 30
0.0
 11
5.9455844187
 21
13.2782358726
 31
0.0
  0
ARC
  5
DF
330
1F
100
AcDbEntity
  8
0
  6
Continuous
 62
     7
370
    25
100
AcDbCircle
 10
5.9084749939
 20
13.1499353079
 30
0.0
 40
0.1335595159531071
100
AcDbArc
 50
73.8681108986
 51
95.2740170277
  0
LINE
  5
E0
330
1F
100
AcDbEntity
  8
0
  6
Continuous
 62
     7
370
    25
100
AcDbLine
 10
5.8961983329
 20
13.2829293976
 30
0.0
 11
5.8854277154
 21
13.056777404
 31
0.0
  0
LINE
  5
E1
330
1F
100
AcDbEntity
  8
0
  6
Continuous
 62
     7
370
    25
100
AcDbLine
 10
5.8854277154
 20
13.056777404
 30
0.0
 11
5.7255381657
 21
13.0720070657
 31
0.0
  0
ARC
  5
E2
330
1F
100
AcDbEntity
  8
0
  6
Continuous
 62
     7
370
    25
100
AcDbCircle
 10
6.0929402937
 20
13.0195092405
 30
0.0
 40
0.3711338644147182
100
AcDbArc
 50
171.8680932076
 51
182.6785391408
  0
LINE
  5
E3
330
1F
100
AcDbEntity
  8
0
  6
Continuous
 62
     7
370
    25
100
AcDbLine
 10
5.7222119119
 20
13.0021653012
 30
0.0
 11
5.8821014616
 21
12.9869356394
 31
0.0
  0
LINE
  5
E4
330
1F
100
AcDbEntity
  8
0
  6
Continuous
 62
     7
370
    25
100
AcDbLine
 10
5.8821014616
 20
12.9869356394
 30
0.0
 11
5.8713308441
 21
12.7607836458
 31
0.0
  0
ARC
  5
E5
330
1F
100
AcDbEntity
  8
0
  6
Continuous
 62
     7
370
    25
100
AcDbCircle
 10
5.9084958724
 20
12.8890763609
 30
0.0
 40
0.1335674364501677
100
AcDbArc
 50
253.8442625535
 51
275.2493193392
  0
LINE
  5
E6
330
1F
100
AcDbEntity
  8
0
  6
Continuous
 62
     7
370
    25
100
AcDbLine
 10
5.920715929
 20
12.7560691043
 30
0.0
 11
5.9314870469
 21
12.9822316062
 31
0.0
  0
LINE
  5
E7
330
1F
100
AcDbEntity
  8
0
  6
Continuous
 62
     7
370
    25
100
AcDbLine
 10
5.9809845216
 20
12.9822316062
 30
0.0
 11
5.9314870469
 21
12.9822316062
 31
0.0
  0
LINE
  5
E8
330
1F
100
AcDbEntity
  8
0
  6
Continuous
 62
     7
370
    25
100
AcDbLine
 10
5.9809845216
 20
12.9822316062
 30
0.0
 11
6.0920692827
 21
12.9716506562
 31
0.0
  0
LINE
  5
E9
330
1F
100
AcDbEntity
  8
0
  6
Continuous
 62
     7
370
    25
100
AcDbLine
 10
5.9315989363
 20
12.9869356394
 30
0.0
 11
5.9208283188
 21
12.7607836458
 31
0.0
  0
LINE
  5
EA
330
1F
100
AcDbEntity
  8
0
  6
Continuous
 62
     7
370
    25
100
AcDbLine
 10
5.7717093866
 20
13.0021653012
 30
0.0
 11
5.9315989363
 21
12.9869356394
 31
0.0
  0
ARC
  5
EB
330
1F
100
AcDbEntity
  8
0
  6
Continuous
 62
     7
370
    25
100
AcDbCircle
 10
6.1427573618
 20
13.0195082103
 30
0.0
 40
0.3714530608651317
100
AcDbArc
 50
172.5994814661
 51
182.6760766769
  0
LINE
  5
EC
330
1F
100
AcDbEntity
  8
0
  6
Continuous
 62
     7
370
    25
100
AcDbLine
 10
5.9454737845
 20
13.2782675505
 30
0.0
 11
5.9349251901
 21
13.056777404
 31
0.0
  0
LINE
  5
ED
330
1F
100
AcDbEntity
  8
0
  6
Continuous
 62
     7
370
    25
100
AcDbLine
 10
5.9207719813
 20
13.2829293976
 30
0.0
 11
5.8961983329
 21
13.2829293976
 31
0.0
  0
LINE
  5
EE
330
1F
100
AcDbEntity
  8
0
  6
Continuous
 62
     7
370
    25
100
AcDbLine
 10
5.9208283188
 20
12.7607836458
 30
0.0
 11
5.8713308441
 21
12.7607836458
 31
0.0
  0
LINE
  5
EF
330
1F
100
AcDbEntity
  8
0
  6
Continuous
 62
     7
370
    25
100
AcDbLine
 10
5.9349251901
 20
13.056777404
 30
0.0
 11
5.8854277154
 21
13.056777404
 31
0.0
  0
LINE
  5
F0
330
1F
100
AcDbEntity
  8
0
  6
Continuous
 62
     7
370
    25
100
AcDbLine
 10
5.7717093866
 20
13.0021653012
 30
0.0
 11
5.7222119119
 21
13.0021653012
 31
0.0
  0
LINE
  5
F1
330
1F
100
AcDbEntity
  8
0
  6
Continuous
 62
     7
370
    25
100
AcDbLine
 10
5.9315989363
 20
12.9869356394
 30
0.0
 11
5.8821014616
 21
12.9869356394
 31
0.0
  0
LINE
  5
F2
330
1F
100
AcDbEntity
  8
0
  6
Continuous
 62
     7
370
    25
100
AcDbLine
 10
9.7205046537
 20
10.6955018594
 30
0.0
 11
5.0205046537
 21
10.6955018594
 31
0.0
  0
LINE
  5
F3
330
1F
100
AcDbEntity
  8
0
  6
Continuous
 62
     7
370
    25
100
AcDbLine
 10
9.3260046537
 20
10.2149266752
 30
0.0
 11
8.9150046537
 21
10.2149266752
 31
0.0
  0
LINE
  5
F4
330
1F
100
AcDbEntity
  8
0
  6
Continuous
 62
     7
370
    25
100
AcDbLine
 10
9.3260046537
 20
10.2099266752
 30
0.0
 11
8.9150046537
 21
10.2099266752
 31
0.0
  0
LINE
  5
F5
330
1F
100
AcDbEntity
  8
0
  6
Continuous
 62
     7
370
    25
100
AcDbLine
 10
5.416581843
 20
10.2149266752
 30
0.0
 11
5.4150046537
 21
10.2149266752
 31
0.0
  0
LINE
  5
F6
330
1F
100
AcDbEntity
  8
0
  6
Continuous
 62
     7
370
    25
100
AcDbLine
 10
5.8260046537
 20
10.2149266752
 30
0.0
 11
5.416581843
 21
10.2149266752
 31
0.0
  0
LINE
  5
F7
330
1F
100
AcDbEntity
  8
0
  6
Continuous
 62
     7
370
    25
100
AcDbLine
 10
5.416581843
 20
10.2099266752
 30
0.0
 11
5.4150046537
 21
10.2099266752
 31
0.0
  0
LINE
  5
F8
330
1F
100
AcDbEntity
  8
0
  6
Continuous
 62
     7
370
    25
100
AcDbLine
 10
5.8260046537
 20
10.2099266752
 30
0.0
 11
5.416581843
 21
10.2099266752
 31
0.0
  0
LINE
  5
F9
330
1F
100
AcDbEntity
  8
0
  6
Continuous
 62
     7
370
    25
100
AcDbLine
 10
9.8855046537
 20
10.5605018594
 30
0.0
 11
4.8555046537
 21
10.5605018594
 31
0.0
  0
LINE
  5
FA
330
1F
100
AcDbEntity
  8
0
  6
Continuous
 62
     7
370
    25
100
AcDbLine
 10
4.8555046537
 20
10.2455018594
 30
0.0
 11
9.8855046537
 21
10.2455018594
 31
0.0
  0
SPLINE
  5
FB
330
1F
100
AcDbEntity
  8
0
  6
Continuous
 62
     7
370
    25
100
AcDbSpline
210
0.0
220
0.0
230
1.0
 70
     8
 71
     3
 72
    64
 73
    60
 74
     0
 42
0.00000001
 43
0.00000001
 40
0.0
 40
0.0
 40
0.0
 40
0.0
 40
0.0172476779157215
 40
0.0345096225122697
 40
0.0517715444762583
 40
0.0690191915038625
 40
0.0867450732360004
 40
0.1044864523926504
 40
0.122227844041554
 40
0.1399537428234744
 40
0.157587180452873
 40
0.1752358571087982
 40
0.1928845311019933
 40
0.2105179650972583
 40
0.228663291202926
 40
0.24682524457827
 40
0.2649871871248219
 40
0.283132498450422
 40
0.3007697992339595
 40
0.3184223548177784
 40
0.3360749313163953
 40
0.3537122606447732
 40
0.3718618611787287
 40
0.3900281041622812
 40
0.4081943420208453
 40
0.4263439355597717
 40
0.4439774206705153
 40
0.4616261532955214
 40
0.4792748962231902
 40
0.4969083953951661
 40
0.515053674355001
 40
0.5332155639784857
 40
0.5513774432389982
 40
0.5695227080545701
 40
0.5871566951828088
 40
0.6048059462883374
 40
0.6224551983508178
 40
0.6400891867851202
 40
0.6582353002974732
 40
0.6763980215633081
 40
0.6945607273731063
 40
0.7127068197897529
 40
0.7303393326892362
 40
0.7479871053548119
 40
0.7656348862783913
 40
0.7832674104485331
 40
0.8014119515701703
 40
0.8195730998267321
 40
0.8377342528019311
 40
0.8558788003639629
 40
0.8735116377253429
 40
0.8911597233267224
 40
0.9088077966420344
 40
0.9264406172351958
 40
0.9445856034224356
 40
0.9627472154120624
 40
0.9809088520104742
 40
0.9990538717858872
 40
1.0
 40
1.0
 40
1.0
 40
1.0
 10
8.867584910998968
 20
12.13495313334945
 30
0.0
 10
8.847065947806211
 20
12.1349531334093
 30
0.0
 10
8.806011048846175
 20
12.13495313352905
 30
0.0
 10
8.741385487109167
 20
12.13495313416768
 30
0.0
 10
8.674679952671607
 20
12.13495313474253
 30
0.0
 10
8.605154659715835
 20
12.13495313494252
 30
0.0
 10
8.532881948461911
 20
12.13495313457896
 30
0.0
 10
8.457902158546197
 20
12.13495313398749
 30
0.0
 10
8.381031336447936
 20
12.13495313330236
 30
0.0
 10
8.302557410137297
 20
12.13495313269661
 30
0.0
 10
8.222594923807636
 20
12.13495313239776
 30
0.0
 10
8.141279949929936
 20
12.13495313242569
 30
0.0
 10
8.05863826264835
 20
12.1349531327194
 30
0.0
 10
7.974022486507766
 20
12.13495313327759
 30
0.0
 10
7.887507026445816
 20
12.13495313396884
 30
0.0
 10
7.799199924686766
 20
12.13495313454658
 30
0.0
 10
7.710111085373988
 20
12.13495313489137
 30
0.0
 10
7.621264490121901
 20
12.13495313482033
 30
0.0
 10
7.532812279412576
 20
12.1349531343056
 30
0.0
 10
7.444896228820464
 20
12.13495313377231
 30
0.0
 10
7.356852128747629
 20
12.13495313343445
 30
0.0
 10
7.268004632684542
 20
12.13495313376432
 30
0.0
 10
7.178485040291233
 20
12.13495313443664
 30
0.0
 10
7.088439933735992
 20
12.13495313474212
 30
0.0
 10
6.998909368265583
 20
12.13495313479058
 30
0.0
 10
6.910926325837417
 20
12.13495313442389
 30
0.0
 10
6.824608123783683
 20
12.1349531337601
 30
0.0
 10
6.740041597992469
 20
12.13495313311325
 30
0.0
 10
6.656560551313337
 20
12.13495313257956
 30
0.0
 10
6.573538866934842
 20
12.13495313231063
 30
0.0
 10
6.491149462830712
 20
12.13495313247209
 30
0.0
 10
6.40955997617704
 20
12.13495313294825
 30
0.0
 10
6.329721723127342
 20
12.13495313358244
 30
0.0
 10
6.252539394850809
 20
12.13495313426734
 30
0.0
 10
6.178083151964486
 20
12.13495313472022
 30
0.0
 10
6.106377032563959
 20
12.13495313480457
 30
0.0
 10
6.036848362619886
 20
12.13495313462138
 30
0.0
 10
5.968990729275214
 20
12.13495313400562
 30
0.0
 10
5.902998036105895
 20
12.13495313358232
 30
0.0
 10
5.839038879490852
 20
12.13495313377132
 30
0.0
 10
5.777870810511856
 20
12.13495313418259
 30
0.0
 10
5.720178944046777
 20
12.13495313470949
 30
0.0
 10
5.665978196562281
 20
12.13495313490368
 30
0.0
 10
5.615225593727664
 20
12.13495313466388
 30
0.0
 10
5.56749589748751
 20
12.13495313417724
 30
0.0
 10
5.522458426870515
 20
12.13495313350704
 30
0.0
 10
5.480308237121993
 20
12.13495313288551
 30
0.0
 10
5.441197917423326
 20
12.13495313249201
 30
0.0
 10
5.405603055674066
 20
12.13495313236238
 30
0.0
 10
5.373906655820785
 20
12.13495313258222
 30
0.0
 10
5.346065224928171
 20
12.13495313314835
 30
0.0
 10
5.321974237868552
 20
12.13495313382718
 30
0.0
 10
5.301412500814242
 20
12.13495313445171
 30
0.0
 10
5.284253679223834
 20
12.13495313490124
 30
0.0
 10
5.270712005874605
 20
12.13495313479222
 30
0.0
 10
5.260761848166136
 20
12.13495313421685
 30
0.0
 10
5.255084550115515
 20
12.13495313364906
 30
0.0
 10
5.252755007764395
 20
12.13495313327214
 30
0.0
 10
5.253375776893047
 20
12.13495313335884
 30
0.0
 10
5.253406541265488
 20
12.13495313336313
 30
0.0
  0
SPLINE
  5
FC
330
1F
100
AcDbEntity
  8
0
  6
Continuous
 62
     7
370
    25
100
AcDbSpline
210
0.0
220
0.0
230
1.0
 70
     8
 71
     3
 72
    27
 73
    23
 74
     0
 42
0.00000001
 43
0.00000001
 40
0.0
 40
0.0
 40
0.0
 40
0.0
 40
0.0223300106542435
 40
0.0768170853896582
 40
0.1312543252851941
 40
0.1841508242328859
 40
0.2370931012748058
 40
0.2900354007414842
 40
0.3429319302948536
 40
0.397364491522028
 40
0.4518468732015338
 40
0.5063292712796369
 40
0.5607618548890012
 40
0.6060521710245886
 40
0.6513711946023105
 40
0.6966902144045768
 40
0.7422409704566557
 40
0.7877917232055945
 40
0.8406592039841299
 40
0.8935266877314103
 40
0.9467633313791177
 40
1.0
 40
1.0
 40
1.0
 40
1.0
 10
9.487217381930146
 20
12.13495313377909
 30
0.0
 10
9.487331164366477
 20
12.13495313378209
 30
0.0
 10
9.487722585367694
 20
12.13495313379245
 30
0.0
 10
9.484337233735303
 20
12.13495313412811
 30
0.0
 10
9.477215842114843
 20
12.13495313464066
 30
0.0
 10
9.466178862191946
 20
12.13495313489962
 30
0.0
 10
9.4516882860629
 20
12.13495313470476
 30
0.0
 10
9.433597362913986
 20
12.13495313425601
 30
0.0
 10
9.411747454157382
 20
12.13495313359842
 30
0.0
 10
9.386017652159682
 20
12.13495313295818
 30
0.0
 10
9.356354771605007
 20
12.13495313252828
 30
0.0
 10
9.323074297150335
 20
12.13495313235316
 30
0.0
 10
9.2882974533406
 20
12.13495313252346
 30
0.0
 10
9.252731182236062
 20
12.13495313298033
 30
0.0
 10
9.217018244057531
 20
12.1349531335327
 30
0.0
 10
9.178895134002817
 20
12.13495313411571
 30
0.0
 10
9.13840086895184
 20
12.13495313460095
 30
0.0
 10
9.093281315948445
 20
12.13495313490518
 30
0.0
 10
9.043235098019812
 20
12.13495313484028
 30
0.0
 10
8.987708668004776
 20
12.13495313442151
 30
0.0
 10
8.929425177170463
 20
12.13495313361861
 30
0.0
 10
8.888198336279366
 20
12.13495313343917
 30
0.0
 10
8.867584910998968
 20
12.13495313334945
 30
0.0
  0
LINE
  5
FD
330
1F
100
AcDbEntity
  8
VP
100
AcDbLine
 10
10.6365362933
 20
10.8218910409
 30
0.0
 11
10.6365362933
 21
10.5383861214
 31
0.0
  0
DIMENSION
  5
FE
330
1F
100
AcDbEntity
  8
SLD-0
100
AcDbDimension
  2
_D
 10
9.4630046537
 20
14.6069034342
 30
0.0
 11
7.3705046537
 21
14.6069034342
 31
0.0
 70
   160
  1
%%c<>
 71
     2
 42
-1.0
  3
SLDDIMSTYLE0
100
AcDbAlignedDimension
 13
5.2780046537
 23
13.8195018594
 33
0.0
 14
9.4630046537
 24
13.8195018594
 34
0.0
100
AcDbRotatedDimension
  0
DIMENSION
  5
113
330
1F
100
AcDbEntity
  8
SLD-0
100
AcDbDimension
  2
_D_1
 10
11.7570820418
 20
10.5905018594
 30
0.0
 11
11.7570820418
 21
9.2659359161
 31
0.0
 70
   160
  1
<>
 71
     2
 42
-1.0
  3
SLDDIMSTYLE1
100
AcDbAlignedDimension
 13
9.8555046537
 23
10.2155018594
 33
0.0
 14
9.8555046537
 24
10.5905018594
 34
0.0
 50
90.0
100
AcDbRotatedDimension
  0
DIMENSION
  5
129
330
1F
100
AcDbEntity
  8
SLD-0
100
AcDbDimension
  2
_D_2
 10
11.7570820418
 20
13.8195018594
 30
0.0
 11
11.7570820418
 21
12.2050018594
 31
0.0
 70
   160
  1
<>
 71
     2
 42
-1.0
  3
SLDDIMSTYLE0
100
AcDbAlignedDimension
 13
9.8555046537
 23
10.5905018594
 33
0.0
 14
9.4630046537
 24
13.8195018594
 34
0.0
 50
90.0
100
AcDbRotatedDimension
  0
MTEXT
  5
13D
330
1F
100
AcDbEntity
  8
SLD-0
100
AcDbMText
 10
3.0551563113
 20
12.794527043
 30
0.0
 40
0.25
 41
0.0
 71
     2
 72
     1
  1
5X 1/2" NPT
  7
SLDTEXTSTYLE0
 73
     1
 44
1.0
  0
MTEXT
  5
13E
330
1F
100
AcDbEntity
  8
SLD-0
100
AcDbMText
 10
3.0186978855
 20
12.465786894
 30
0.0
 40
0.25
 41
0.0
 71
     2
 72
     1
  1
CONDUIT ENTRIES
  7
SLDTEXTSTYLE0
 73
     1
 44
1.0
  0
LEADER
  5
140
330
1F
100
AcDbEntity
  8
SLD-0
100
AcDbLeader
  3
SLDDIMSTYLE2
 76
     3
 10
5.6927902901
 20
12.775242408
 30
0.0
 10
5.0390972803
 20
12.3387973088
 30
0.0
 10
4.5390972803
 20
12.3387973088
 30
0.0
  0
SPLINE
  5
141
330
1F
100
AcDbEntity
  8
0
  6
Continuous
 62
     7
370
    25
100
AcDbSpline
210
0.0
220
0.0
230
1.0
 70
     8
 71
     3
 72
   104
 73
   100
 74
     0
 42
0.00000001
 43
0.00000001
 40
0.0
 40
0.0
 40
0.0
 40
0.0
 40
0.0051011342019043
 40
0.0153740558797297
 40
0.02564940014556
 40
0.0359284093197723
 40
0.0462122152766244
 40
0.056501810439386
 40
0.0667980258108559
 40
0.0771015167537254
 40
0.087412756687026
 40
0.0977320383463985
 40
0.1080594818113868
 40
0.1183950481660502
 40
0.1287385574483494
 40
0.1390897094623601
 40
0.1494481060642495
 40
0.1598132736662238
 40
0.1701846849039601
 40
0.1805617786520055
 40
0.1909439778201686
 40
0.201330704599166
 40
0.2117213930291603
 40
0.2221154989312574
 40
0.2325125073658445
 40
0.2429119378647838
 40
0.2533133477315194
 40
0.2637163337207371
 40
0.274120532404545
 40
0.2845256195118416
 40
0.2949313084976647
 40
0.305337348564718
 40
0.315743510787226
 40
0.3261495643158223
 40
0.3365553597106834
 40
0.3469607722332319
 40
0.3573656993104604
 40
0.3677700581280248
 40
0.3781737833796172
 40
0.3885768251879911
 40
0.3989791472039831
 40
0.4093807248834116
 40
0.4197815439369099
 40
0.4301815989445361
 40
0.4405808921248349
 40
0.4509794322470604
 40
0.4613772336744941
 40
0.4717743155269708
 40
0.482170700950924
 40
0.492566416485868
 40
0.5029614915168511
 40
0.5133559578032831
 40
0.523749849075213
 40
0.5341432006890651
 40
0.544536049335487
 40
0.5549284327927765
 40
0.5653203897200079
 40
0.5757119594846011
 40
0.5861031820196423
 40
0.5964940977067709
 40
0.6068847472808983
 40
0.6172751717534305
 40
0.6276654123509768
 40
0.6380555104668325
 40
0.6484455076227974
 40
0.6588354454390473
 40
0.6692253656099285
 40
0.6796153065766353
 40
0.6900052995123751
 40
0.7003953862255373
 40
0.7107856085296033
 40
0.721176008220611
 40
0.7315666270502106
 40
0.7419575066917008
 40
0.7523486886968455
 40
0.7627402144411235
 40
0.7731321250547807
 40
0.783524461336819
 40
0.7939172636486985
 40
0.8043105717842637
 40
0.8147044248117483
 40
0.825098860883534
 40
0.8354939170085175
 40
0.8458896287815034
 40
0.8562860300632944
 40
0.8666831526044653
 40
0.8770810256050182
 40
0.8874796752013104
 40
0.8978791238708133
 40
0.9082793897444961
 40
0.9186804858157227
 40
0.9290824190340782
 40
0.939485189271867
 40
0.9498887881509409
 40
0.960293197717612
 40
0.9706983889542301
 40
0.9811043201174404
 40
0.9915109348957253
 40
1.0
 40
1.0
 40
1.0
 40
1.0
 10
15.02530213205158
 20
11.37988655230101
 30
0.0
 10
15.02564902931148
 20
11.37405220381098
 30
0.0
 10
15.02669452579269
 20
11.35646834968027
 30
0.0
 10
15.03000412582061
 20
11.32717988835924
 30
0.0
 10
15.03514064441673
 20
11.2920438323841
 30
0.0
 10
15.04179675750576
 20
11.25699264102942
 30
0.0
 10
15.0498723282782
 20
11.22204274878371
 30
0.0
 10
15.05938979112177
 20
11.18721393736946
 30
0.0
 10
15.07033789486107
 20
11.15252534380061
 30
0.0
 10
15.08271350751812
 20
11.11799656005496
 30
0.0
 10
15.0965103125824
 20
11.08364734278651
 30
0.0
 10
15.11172175218555
 20
11.04949767175692
 30
0.0
 10
15.12834015972754
 20
11.01556769315291
 30
0.0
 10
15.14635692950312
 20
10.98187767598055
 30
0.0
 10
15.16576242588271
 20
10.94844795180659
 30
0.0
 10
15.18654598129674
 20
10.91529885083944
 30
0.0
 10
15.20869588905624
 20
10.88245063577329
 30
0.0
 10
15.23219941470661
 20
10.84992343742599
 30
0.0
 10
15.25704281714531
 20
10.81773719473009
 30
0.0
 10
15.2832113789003
 20
10.78591160110795
 30
0.0
 10
15.31068944257003
 20
10.75446605844409
 30
0.0
 10
15.33946045114927
 20
10.72341963918734
 30
0.0
 10
15.36950699006617
 20
10.69279105652425
 30
0.0
 10
15.40081082916231
 20
10.66259864211495
 30
0.0
 10
15.43335296323895
 20
10.63286033057078
 30
0.0
 10
15.46711365019638
 20
10.60359364967228
 30
0.0
 10
15.5020724461581
 20
10.57481571525488
 30
0.0
 10
15.53820823728415
 20
10.54654322970544
 30
0.0
 10
15.57549926822749
 20
10.51879248308846
 30
0.0
 10
15.61392316737391
 20
10.49157935603617
 30
0.0
 10
15.65345696913515
 20
10.46491932366997
 30
0.0
 10
15.69407711863286
 20
10.43882746960153
 30
0.0
 10
15.73575944325616
 20
10.41331851586916
 30
0.0
 10
15.7784792331209
 20
10.38840677974107
 30
0.0
 10
15.82221127298739
 20
10.36410616975289
 30
0.0
 10
15.86692990645183
 20
10.34043016708771
 30
0.0
 10
15.91260897567984
 20
10.31739187134857
 30
0.0
 10
15.95922183295167
 20
10.29500400125693
 30
0.0
 10
16.0067413520344
 20
10.27327889449794
 30
0.0
 10
16.05513993955831
 20
10.25222850677322
 30
0.0
 10
16.10438954654162
 20
10.23186441013589
 30
0.0
 10
16.15446168017504
 20
10.21219779069272
 30
0.0
 10
16.20532741595026
 20
10.1932394457619
 30
0.0
 10
16.25695741019295
 20
10.17499978057518
 30
0.0
 10
16.30932191304127
 20
10.15748880461055
 30
0.0
 10
16.36239078189477
 20
10.14071612763673
 30
0.0
 10
16.41613349534582
 20
10.12469095554565
 30
0.0
 10
16.47051916759496
 20
10.10942208604221
 30
0.0
 10
16.525516563344
 20
10.09491790425458
 30
0.0
 10
16.58109411315393
 20
10.08118637832145
 30
0.0
 10
16.63721992925068
 20
10.06823505500676
 30
0.0
 10
16.69386182175779
 20
10.0560710553863
 30
0.0
 10
16.75098731533306
 20
10.04470107064531
 30
0.0
 10
16.80856366618462
 20
10.03413135802136
 30
0.0
 10
16.86655787944058
 20
10.02436773692196
 30
0.0
 10
16.92493672684628
 20
10.01541558524279
 30
0.0
 10
16.9836667647628
 20
10.00727983590869
 30
0.0
 10
17.04271435244056
 20
9.99996497365631
 30
0.0
 10
17.10204567054197
 20
9.9934750320747
 30
0.0
 10
17.16162673988768
 20
9.987813590917701
 30
0.0
 10
17.22142344040135
 20
9.982983773699777
 30
0.0
 10
17.28140153022811
 20
9.978988245585075
 30
0.0
 10
17.34152666500277
 20
9.975829211578008
 30
0.0
 10
17.40176441724391
 20
9.973508415021977
 30
0.0
 10
17.46208029585062
 20
9.972027136411784
 30
0.0
 10
17.52243976567885
 20
9.971386192524072
 30
0.0
 10
17.58280826076978
 20
9.97158593584782
 30
0.0
 10
17.64315118989274
 20
9.972626253625453
 30
0.0
 10
17.70343397691827
 20
9.97450656702169
 30
0.0
 10
17.76362208708113
 20
9.97722583198081
 30
0.0
 10
17.823681060722
 20
9.980782541608109
 30
0.0
 10
17.88357651233455
 20
9.9851747269014
 30
0.0
 10
17.94327415007786
 20
9.990399958159768
 30
0.0
 10
18.0027397951931
 20
9.996455346713022
 30
0.0
 10
18.06193940129927
 20
10.00333754696814
 30
0.0
 10
18.12083907354469
 20
10.01104275876792
 30
0.0
 10
18.17940508759016
 20
10.01956673005581
 30
0.0
 10
18.2376039083989
 20
10.02890475983949
 30
0.0
 10
18.29540220880826
 20
10.03905170144401
 30
0.0
 10
18.35276688785716
 20
10.05000196604358
 30
0.0
 10
18.40966508884275
 20
10.06174952645877
 30
0.0
 10
18.46606421707936
 20
10.07428792120354
 30
0.0
 10
18.52193195733162
 20
10.08761025876381
 30
0.0
 10
18.5772362908957
 20
10.10170922208463
 30
0.0
 10
18.63194551229252
 20
10.1165770732451
 30
0.0
 10
18.68602824557469
 20
10.13220565827356
 30
0.0
 10
18.73945346010796
 20
10.14858641213438
 30
0.0
 10
18.79219048621602
 20
10.16571036360038
 30
0.0
 10
18.84420902911369
 20
10.18356814088164
 30
0.0
 10
18.89547918688996
 20
10.20214997453613
 30
0.0
 10
18.945971450935
 20
10.22144571037224
 30
0.0
 10
18.99565676937076
 20
10.24144478461016
 30
0.0
 10
19.04450637273959
 20
10.26213633913381
 30
0.0
 10
19.09249248446131
 20
10.28350881270603
 30
0.0
 10
19.13958572631739
 20
10.30555148658596
 30
0.0
 10
19.18576485719274
 20
10.32824873335969
 30
0.0
 10
19.23098047600063
 20
10.35160149828165
 30
0.0
 10
19.27256811271319
 20
10.37407590042347
 30
0.0
 10
19.29870064506846
 20
10.3889889513483
 30
0.0
 10
19.31044093543548
 20
10.39568878226157
 30
0.0
  0
SPLINE
  5
142
330
1F
100
AcDbEntity
  8
0
  6
Continuous
 62
     7
370
    25
100
AcDbSpline
210
0.0
220
0.0
230
1.0
 70
     8
 71
     3
 72
    39
 73
    35
 74
     0
 42
0.00000001
 43
0.00000001
 40
0.0
 40
0.0
 40
0.0
 40
0.0
 40
0.0169016845462307
 40
0.0489835339009967
 40
0.0810674782389877
 40
0.1131520908607678
 40
0.1452367118306877
 40
0.177320614793729
 40
0.2094030389219843
 40
0.2414831121222513
 40
0.273559844332449
 40
0.3056321223778127
 40
0.3376987070521005
 40
0.3697582332102692
 40
0.401809213759927
 40
0.4338500485149298
 40
0.4658790389054355
 40
0.4978944095053228
 40
0.5298943372149382
 40
0.5618769887039565
 40
0.5938405663566588
 40
0.6257833624618218
 40
0.6577038207575211
 40
0.6896006037033229
 40
0.7214726630554962
 40
0.7533193105377313
 40
0.7851402847197575
 40
0.8169358097394321
 40
0.8487066413274863
 40
0.8804540957955443
 40
0.9121800582683182
 40
0.9438869674762398
 40
0.9755777758141139
 40
1.0
 40
1.0
 40
1.0
 40
1.0
 10
19.31044093543548
 20
10.39568878226157
 30
0.0
 10
19.31795249807865
 20
10.40005851065159
 30
0.0
 10
19.33972209639146
 20
10.41272261748338
 30
0.0
 10
19.37496289002669
 20
10.43414163632759
 30
0.0
 10
19.41579736258357
 20
10.46012713284597
 30
0.0
 10
19.45553796661987
 20
10.48669363576123
 30
0.0
 10
19.49417806510063
 20
10.5138155441771
 30
0.0
 10
19.53168988793952
 20
10.54148048293035
 30
0.0
 10
19.56805219789462
 20
10.56967213776621
 30
0.0
 10
19.60324278167231
 20
10.5983747794579
 30
0.0
 10
19.63724045161056
 20
10.62757202115207
 30
0.0
 10
19.67002452706169
 20
10.65724713628861
 30
0.0
 10
19.70157500232649
 20
10.68738296390292
 30
0.0
 10
19.73187253500098
 20
10.71796192563756
 30
0.0
 10
19.76089848717077
 20
10.74896601507455
 30
0.0
 10
19.7886349573745
 20
10.78037679803043
 30
0.0
 10
19.81506481988454
 20
10.81217541494758
 30
0.0
 10
19.84017176642572
 20
10.84434258937396
 30
0.0
 10
19.86394035075017
 20
10.87685864312338
 30
0.0
 10
19.88635603452225
 20
10.90970351953899
 30
0.0
 10
19.90740523302378
 20
10.94285681581623
 30
0.0
 10
19.92707535827304
 20
10.97629782504337
 30
0.0
 10
19.94535485819859
 20
11.01000558802815
 30
0.0
 10
19.9622332450841
 20
11.04395895442346
 30
0.0
 10
19.97770112576069
 20
11.07813665136776
 30
0.0
 10
19.99175017427826
 20
11.1125173587997
 30
0.0
 10
20.00437325652378
 20
11.14707978300944
 30
0.0
 10
20.01556391721163
 20
11.18180274446255
 30
0.0
 10
20.02531816782738
 20
11.21666520159184
 30
0.0
 10
20.03362762192252
 20
11.25164648204768
 30
0.0
 10
20.04050481904866
 20
11.28672568869039
 30
0.0
 10
20.0458884833773
 20
11.32188411170299
 30
0.0
 10
20.04968293451124
 20
11.35440905996743
 30
0.0
 10
20.05101279508157
 20
11.37522703925086
 30
0.0
 10
20.0515915938298
 20
11.38428770366855
 30
0.0
  0
LINE
  5
143
330
1F
100
AcDbEntity
  8
0
  6
Continuous
 62
     7
370
    25
100
AcDbLine
 10
15.0232818032
 20
11.6932676828
 30
0.0
 11
15.0232818032
 21
11.4360573271
 31
0.0
  0
LINE
  5
144
330
1F
100
AcDbEntity
  8
0
  6
Continuous
 62
     7
370
    25
100
AcDbLine
 10
20.0532818032
 20
11.4360573271
 30
0.0
 11
20.0532818032
 21
11.6932676828
 31
0.0
  0
SPLINE
  5
145
330
1F
100
AcDbEntity
  8
0
  6
Continuous
 62
     7
370
    25
100
AcDbSpline
210
0.0
220
0.0
230
1.0
 70
     8
 71
     3
 72
   136
 73
   132
 74
     0
 42
0.00000001
 43
0.00000001
 40
0.0
 40
0.0
 40
0.0
 40
0.0
 40
0.0017600077674418
 40
0.009520526297051
 40
0.0172825526009278
 40
0.0250470470867618
 40
0.0328148949396977
 40
0.0405868826490626
 40
0.0483636795839857
 40
0.0561458252920312
 40
0.0639337227820069
 40
0.0717276376489095
 40
0.0795277025415259
 40
0.0873339261898249
 40
0.0951462060178089
 40
0.102964343274351
 40
0.1107880596144549
 40
0.118617014142349
 40
0.126450820065525
 40
0.1342890602825079
 40
0.1421313014146428
 40
0.1499771059748193
 40
0.1578260425297343
 40
0.1656776938480788
 40
0.1735316631312263
 40
0.1813875784956424
 40
0.189245095920168
 40
0.1971039008913771
 40
0.2049637089816203
 40
0.2128242655823221
 40
0.2206853449946134
 40
0.2285467490538378
 40
0.2364083054375875
 40
0.2442698279691448
 40
0.2521311904492353
 40
0.2599922927216496
 40
0.2678530519960279
 40
0.2757134009946979
 40
0.2835732862119101
 40
0.2914326662997764
 40
0.2992915105877141
 40
0.3071497977367859
 40
0.3150075145262259
 40
0.3228646547666587
 40
0.3307212183327549
 40
0.3385772103068485
 40
0.346432640224639
 40
0.354287521413888
 40
0.3621418704171981
 40
0.369995706490358
 40
0.377849051168157
 40
0.3857019278902364
 40
0.3935543616800333
 40
0.4014063788705683
 40
0.4092580068713553
 40
0.4171092739713317
 40
0.4249602091731513
 40
0.4328108420547974
 40
0.440661202654745
 40
0.4485113213774818
 40
0.4563612289163834
 40
0.4642109561913885
 40
0.4720605342990668
 40
0.4799099944730252
 40
0.4877593680526808
 40
0.4956086864586811
 40
0.5034579811733213
 40
0.5113072837244163
 40
0.5191566161147301
 40
0.5270060089661632
 40
0.5348554938681351
 40
0.54270510240275
 40
0.5505548661257789
 40
0.558404816542912
 40
0.5662549850796268
 40
0.5741054030429061
 40
0.5819561015729002
 40
0.5898071115824387
 40
0.5976584636820602
 40
0.6055101880879464
 40
0.6133623145098699
 40
0.6212148720158671
 40
0.6290678888700056
 40
0.6369213923391269
 40
0.6447754084639595
 40
0.6526299617894983
 40
0.6604850750489586
 40
0.6683407687949654
 40
0.6761970609711213
 40
0.6840539664163473
 40
0.6919114962938886
 40
0.69976965743631
 40
0.7076284515973648
 40
0.7154878746014091
 40
0.7233479153810788
 40
0.7312085548942828
 40
0.7390697649125731
 40
0.7469315066745786
 40
0.7547937294006807
 40
0.7626563686689111
 40
0.7705193446572196
 40
0.7783825602642221
 40
0.7862458991298218
 40
0.7941091747474632
 40
0.8019722159893029
 40
0.80983482762585
 40
0.8176967865845228
 40
0.825557840416963
 40
0.8334177061980717
 40
0.8412760700307751
 40
0.8491325873577786
 40
0.8569868843048752
 40
0.8648385602957842
 40
0.8726871921815953
 40
0.8805323401130428
 40
0.8883735553454911
 40
0.8962103900992625
 40
0.9040424094981228
 40
0.911869205475234
 40
0.9196904123714726
 40
0.9275057237638431
 40
0.9353149098654264
 40
0.9431178346519382
 40
0.9509144717170314
 40
0.9587049177632689
 40
0.9664894026212689
 40
0.9742682947718808
 40
0.9820421015326628
 40
0.9898114633542782
 40
0.9975771420364241
 40
0.9999999999999999
 40
0.9999999999999999
 40
0.9999999999999999
 40
0.9999999999999999
 10
20.05144904508315
 20
11.74736278175465
 30
0.0
 10
20.05131984625022
 20
11.75002789738777
 30
0.0
 10
20.05062096246731
 20
11.76444448346155
 30
0.0
 10
20.04792466168683
 20
11.79057894663637
 30
0.0
 10
20.04329828712023
 20
11.82573869948662
 30
0.0
 10
20.03710684159111
 20
11.86081907353655
 30
0.0
 10
20.02950684310951
 20
11.89580458280348
 30
0.0
 10
20.02046049172476
 20
11.93067526394151
 30
0.0
 10
20.00998287814314
 20
11.96541211614713
 30
0.0
 10
19.99807579400542
 20
11.99999560537543
 30
0.0
 10
19.98474557409251
 20
12.03440605268491
 30
0.0
 10
19.96999840199438
 20
12.06862354180354
 30
0.0
 10
19.95384165115919
 20
12.1026279781951
 30
0.0
 10
19.93628359350432
 20
12.13639912665519
 30
0.0
 10
19.91733352893698
 20
12.16991666940645
 30
0.0
 10
19.8970017832513
 20
12.20316026848175
 30
0.0
 10
19.87529972243427
 20
12.23610963175179
 30
0.0
 10
19.85223974480834
 20
12.26874457815774
 30
0.0
 10
19.82783526351343
 20
12.30104509942274
 30
0.0
 10
19.80210067879047
 20
12.33299141594329
 30
0.0
 10
19.7750513433388
 20
12.36456402540616
 30
0.0
 10
19.7467035230038
 20
12.39574374337844
 30
0.0
 10
19.7170743550906
 20
12.42651173575067
 30
0.0
 10
19.68618180619273
 20
12.45684954340909
 30
0.0
 10
19.65404463104815
 20
12.48673909987036
 30
0.0
 10
19.6206823335246
 20
12.51616274283381
 30
0.0
 10
19.58611513045747
 20
12.54510322071149
 30
0.0
 10
19.55036391873199
 20
12.5735436952058
 30
0.0
 10
19.51345024573087
 20
12.60146774094606
 30
0.0
 10
19.47539628306159
 20
12.62885934309072
 30
0.0
 10
19.43622480332952
 20
12.65570289367301
 30
0.0
 10
19.39595915963256
 20
12.68198318732732
 30
0.0
 10
19.35462333365751
 20
12.70768537570045
 30
0.0
 10
19.312241860417
 20
12.73279500899693
 30
0.0
 10
19.26883980180418
 20
12.75729803898626
 30
0.0
 10
19.22444265889409
 20
12.78118085156411
 30
0.0
 10
19.17907642595902
 20
12.8044302217992
 30
0.0
 10
19.13276759092337
 20
12.82703330577496
 30
0.0
 10
19.08554312395582
 20
12.84897764046957
 30
0.0
 10
19.03743046611202
 20
12.87025114445021
 30
0.0
 10
18.98845751787235
 20
12.89084211931107
 30
0.0
 10
18.93865262745337
 20
12.91073925177286
 30
0.0
 10
18.88804457880012
 20
12.92993161635584
 30
0.0
 10
18.83666257919151
 20
12.94840867853761
 30
0.0
 10
18.78453624641178
 20
12.96616029830822
 30
0.0
 10
18.73169559545808
 20
12.98317673403959
 30
0.0
 10
18.6781710247684
 20
12.99944864659129
 30
0.0
 10
18.62399330196489
 20
13.01496710358116
 30
0.0
 10
18.56919354911669
 20
13.02972358375546
 30
0.0
 10
18.51380322753318
 20
13.04370998139988
 30
0.0
 10
18.45785412210326
 20
13.05691861073902
 30
0.0
 10
18.40137832520064
 20
13.06934221027801
 30
0.0
 10
18.34440822017729
 20
13.08097394704538
 30
0.0
 10
18.28697646446936
 20
13.09180742070147
 30
0.0
 10
18.22911597234089
 20
13.10183666748122
 30
0.0
 10
18.17085989729138
 20
13.11105616394458
 30
0.0
 10
18.11224161415337
 20
13.11946083051091
 30
0.0
 10
18.05329470090647
 20
13.12704603475778
 30
0.0
 10
17.99405292023369
 20
13.13380759446678
 30
0.0
 10
17.93455020084595
 20
13.13974178040186
 30
0.0
 10
17.87482061859981
 20
13.14484531880788
 30
0.0
 10
17.81489837743343
 20
13.1491153936189
 30
0.0
 10
17.75481779014495
 20
13.15254964836758
 30
0.0
 10
17.69461325903718
 20
13.15514618778838
 30
0.0
 10
17.63431925645212
 20
13.15690357910884
 30
0.0
 10
17.57397030521805
 20
13.15782085302405
 30
0.0
 10
17.51360095903318
 20
13.157897504351
 30
0.0
 10
17.45324580729812
 20
13.1571334926697
 30
0.0
 10
17.39293943330989
 20
13.15552924361957
 30
0.0
 10
17.33271639189724
 20
13.15308564866217
 30
0.0
 10
17.27261116527766
 20
13.14980406258213
 30
0.0
 10
17.21265816549293
 20
13.14568630259889
 30
0.0
 10
17.15289171732503
 20
13.14073464712931
 30
0.0
 10
17.0933460388451
 20
13.13495183416327
 30
0.0
 10
17.03405522207536
 20
13.12834105932098
 30
0.0
 10
16.97505321378755
 20
13.12090597359636
 30
0.0
 10
16.91637379646175
 20
13.11265068079214
 30
0.0
 10
16.85805056943013
 20
13.10357973465354
 30
0.0
 10
16.80011693023074
 20
13.09369813570925
 30
0.0
 10
16.74260605619677
 20
13.08301132782989
 30
0.0
 10
16.68555088630801
 20
13.07152519451646
 30
0.0
 10
16.62898410333095
 20
13.05924605493355
 30
0.0
 10
16.57293811627531
 20
13.04618065970477
 30
0.0
 10
16.51744504319479
 20
13.03233618649106
 30
0.0
 10
16.46253669436024
 20
13.01772023537617
 30
0.0
 10
16.40824455583345
 20
13.0023408240876
 30
0.0
 10
16.35459977346967
 20
12.98620638308594
 30
0.0
 10
16.30163313737548
 20
12.96932575056099
 30
0.0
 10
16.24937506684833
 20
12.95170816737864
 30
0.0
 10
16.19785559582051
 20
12.93336327202921
 30
0.0
 10
16.14710435882805
 20
12.91430109563512
 30
0.0
 10
16.09715057751987
 20
12.89453205708341
 30
0.0
 10
16.04802304771618
 20
12.87406695835689
 30
0.0
 10
15.99975012701709
 20
12.85291698014651
 30
0.0
 10
15.95235972295126
 20
12.83109367783578
 30
0.0
 10
15.90587928164112
 20
12.80860897795675
 30
0.0
 10
15.86033577694364
 20
12.78547517522427
 30
0.0
 10
15.81575570000508
 20
12.76170493026138
 30
0.0
 10
15.77216504914229
 20
12.73731126813149
 30
0.0
 10
15.72958931993367
 20
12.71230757779331
 30
0.0
 10
15.68805349536621
 20
12.68670761258717
 30
0.0
 10
15.64758203584952
 20
12.66052549185196
 30
0.0
 10
15.60819895038701
 20
12.63377575912049
 30
0.0
 10
15.56992771006204
 20
12.60647334764758
 30
0.0
 10
15.5327912306671
 20
12.57863358500278
 30
0.0
 10
15.49681178635267
 20
12.55027214051243
 30
0.0
 10
15.46201105977822
 20
12.52140507689441
 30
0.0
 10
15.42841012669898
 20
12.49204886017547
 30
0.0
 10
15.39602943459087
 20
12.46222036742731
 30
0.0
 10
15.3648887780115
 20
12.43193689393853
 30
0.0
 10
15.33500727034107
 20
12.40121615904349
 30
0.0
 10
15.30640331167019
 20
12.37007630965796
 30
0.0
 10
15.27909455278601
 20
12.3385359204117
 30
0.0
 10
15.25309785546054
 20
12.30661398913915
 30
0.0
 10
15.22842924957334
 20
12.27432992641673
 30
0.0
 10
15.20510388797245
 20
12.24170353784788
 30
0.0
 10
15.18313600047276
 20
12.20875499792178
 30
0.0
 10
15.16253884861456
 20
12.17550481454506
 30
0.0
 10
15.14332468406911
 20
12.14197378375196
 30
0.0
 10
15.12550471076931
 20
12.10818293476435
 30
0.0
 10
15.10908906274343
 20
12.07415346602477
 30
0.0
 10
15.09408676591467
 20
12.0399066747181
 30
0.0
 10
15.08050581465632
 20
12.00546387923477
 30
0.0
 10
15.0683528863026
 20
11.9708463494983
 30
0.0
 10
15.05763447849435
 20
11.93607520607646
 30
0.0
 10
15.04835281897934
 20
11.90117145306243
 30
0.0
 10
15.04052133653203
 20
11.86615555036782
 30
0.0
 10
15.03410727089715
 20
11.83104876148088
 30
0.0
 10
15.02924599193519
 20
11.79586795765813
 30
0.0
 10
15.02631402288382
 20
11.76871822175348
 30
0.0
 10
15.02548574151718
 20
11.75329162252631
 30
0.0
 10
15.02528877426123
 20
11.74962314096825
 30
0.0
  0
LINE
  5
146
330
1F
100
AcDbEntity
  8
0
  6
Continuous
 62
     7
370
    25
100
AcDbLine
 10
18.0382818032
 20
14.8641587701
 30
0.0
 11
18.0382818032
 21
14.8994421138
 31
0.0
  0
LINE
  5
147
330
1F
100
AcDbEntity
  8
0
  6
Continuous
 62
     7
370
    25
100
AcDbLine
 10
17.0382818032
 20
14.8994421138
 30
0.0
 11
17.0382818032
 21
14.864158796
 31
0.0
  0
LINE
  5
148
330
1F
100
AcDbEntity
  8
0
  6
Continuous
 62
     7
370
    25
100
AcDbLine
 10
15.5225585544
 20
15.3862273754
 30
0.0
 11
15.5270616685
 21
15.2107096034
 31
0.0
  0
LINE
  5
149
330
1F
100
AcDbEntity
  8
0
  6
Continuous
 62
     7
370
    25
100
AcDbLine
 10
15.3882818032
 20
13.0356607776
 30
0.0
 11
15.3882818032
 21
12.994833737
 31
0.0
  0
LINE
  5
14A
330
1F
100
AcDbEntity
  8
0
  6
Continuous
 62
     7
370
    25
100
AcDbLine
 10
19.6882818032
 20
12.994833737
 30
0.0
 11
19.6882818032
 21
13.0356607776
 31
0.0
  0
LINE
  5
14B
330
1F
100
AcDbEntity
  8
0
  6
Continuous
 62
     7
370
    25
100
AcDbLine
 10
15.4213604386
 20
12.9983960259
 30
0.0
 11
15.4205155902
 21
12.9678341184
 31
0.0
  0
LINE
  5
14C
330
1F
100
AcDbEntity
  8
0
  6
Continuous
 62
     7
370
    25
100
AcDbLine
 10
19.6560480162
 20
12.9678341184
 30
0.0
 11
19.6552031678
 21
12.9983960259
 31
0.0
  0
SPLINE
  5
14D
330
1F
100
AcDbEntity
  8
0
  6
Continuous
 62
     7
370
    25
100
AcDbSpline
210
0.0
220
0.0
230
1.0
 70
     8
 71
     3
 72
    65
 73
    61
 74
     0
 42
0.00000001
 43
0.00000001
 40
0.0
 40
0.0
 40
0.0
 40
0.0
 40
0.0078493764371555
 40
0.0252782341508912
 40
0.0427194382925377
 40
0.0601904784459005
 40
0.0777114054637745
 40
0.0952544722886299
 40
0.1126966033909572
 40
0.130176192310802
 40
0.1476842744096354
 40
0.1652115260292684
 40
0.1827480695471487
 40
0.2002815736277816
 40
0.2178072101680705
 40
0.2353632988109847
 40
0.2529574603375297
 40
0.2705871882135314
 40
0.2882369216042237
 40
0.3058908502325099
 40
0.3235295865149892
 40
0.3411389106765856
 40
0.358672924038156
 40
0.3762719605443676
 40
0.3938401463051852
 40
0.4113966906191698
 40
0.4289591486570672
 40
0.4465393094610138
 40
0.4641547300719548
 40
0.4818297499439843
 40
0.4993979965041576
 40
0.5170014869411551
 40
0.5346821652854242
 40
0.552397764084548
 40
0.5700995556600627
 40
0.5877367507410817
 40
0.6052678101884893
 40
0.6226666233417372
 40
0.6402928766677496
 40
0.6578858264481463
 40
0.6754637331886573
 40
0.6930445807073123
 40
0.7106413891370414
 40
0.728271103666532
 40
0.745950009364272
 40
0.7635114600968326
 40
0.7810828691394277
 40
0.7987135350015284
 40
0.8163724135729684
 40
0.8340239511322385
 40
0.8516293647650919
 40
0.8691567672716498
 40
0.8866335239516387
 40
0.904271497140841
 40
0.9218762118027497
 40
0.9394660614505228
 40
0.9570596134254241
 40
0.9746699752823224
 40
0.9923149200512414
 40
1.0
 40
1.0
 40
1.0
 40
1.0
 10
19.64956358305731
 20
13.06944182228855
 30
0.0
 10
19.64899212769881
 20
13.07427196265428
 30
0.0
 10
19.64715180541658
 20
13.08982700962193
 30
0.0
 10
19.64249959971016
 20
13.11603450377353
 30
0.0
 10
19.63566591894184
 20
13.14805268407761
 30
0.0
 10
19.62729809322297
 20
13.179992527253
 30
0.0
 10
19.61751057315456
 20
13.21183632827261
 30
0.0
 10
19.60629447412708
 20
13.24349521505144
 30
0.0
 10
19.59367227444729
 20
13.27492492677927
 30
0.0
 10
19.57966104496516
 20
13.30611329801449
 30
0.0
 10
19.56423817369011
 20
13.33710936214003
 30
0.0
 10
19.54741916908916
 20
13.3678753141784
 30
0.0
 10
19.5292229273101
 20
13.39837163768716
 30
0.0
 10
19.50966985627231
 20
13.42856185039584
 30
0.0
 10
19.48876135442876
 20
13.45843834212489
 30
0.0
 10
19.46649308553333
 20
13.48799987854437
 30
0.0
 10
19.44286400930563
 20
13.51725206740883
 30
0.0
 10
19.41789103010383
 20
13.54616968847325
 30
0.0
 10
19.39160361143138
 20
13.57471478349388
 30
0.0
 10
19.36404175124034
 20
13.60284104129769
 30
0.0
 10
19.33525008962012
 20
13.63050379554567
 30
0.0
 10
19.30528802529676
 20
13.65764453099446
 30
0.0
 10
19.27414924959229
 20
13.68428593381775
 30
0.0
 10
19.24185778184655
 20
13.71041943071919
 30
0.0
 10
19.20838914761628
 20
13.7360537954326
 30
0.0
 10
19.17380369515259
 20
13.76114367869661
 30
0.0
 10
19.13809380072293
 20
13.78569548324016
 30
0.0
 10
19.10125211153381
 20
13.80971506560487
 30
0.0
 10
19.0632654916923
 20
13.83320946965338
 30
0.0
 10
19.02425027867993
 20
13.85611286743605
 30
0.0
 10
18.984210280304
 20
13.8783949814073
 30
0.0
 10
18.94318235826577
 20
13.90005919420581
 30
0.0
 10
18.90108346185078
 20
13.92115114782186
 30
0.0
 10
18.85797682048193
 20
13.94163529050729
 30
0.0
 10
18.814002624885
 20
13.96144158360747
 30
0.0
 10
18.76930896507463
 20
13.980505483947
 30
0.0
 10
18.72402280267764
 20
13.99877060267129
 30
0.0
 10
18.67794335323874
 20
14.01633532136185
 30
0.0
 10
18.63104119827138
 20
14.03322205242685
 30
0.0
 10
18.58322978019526
 20
14.04944221982169
 30
0.0
 10
18.53474342170608
 20
14.06491451158011
 30
0.0
 10
18.48557054099726
 20
14.0796431214649
 30
0.0
 10
18.43570039228985
 20
14.09363177912881
 30
0.0
 10
18.38512313592691
 20
14.10688247136755
 30
0.0
 10
18.33400209740853
 20
14.11935646270043
 30
0.0
 10
18.28238557046459
 20
14.13102640371332
 30
0.0
 10
18.23030991361602
 20
14.14190144123587
 30
0.0
 10
18.17766720111816
 20
14.15200607721604
 30
0.0
 10
18.12450883046521
 20
14.16132800299999
 30
0.0
 10
18.07097511769962
 20
14.16983992269716
 30
0.0
 10
18.0172101565527
 20
14.17751990759501
 30
0.0
 10
17.96329354177443
 20
14.18435307151924
 30
0.0
 10
17.90905456969451
 20
14.19037212108854
 30
0.0
 10
17.85448386120149
 20
14.19558048896549
 30
0.0
 10
17.79957821493529
 20
14.19996547220491
 30
0.0
 10
17.74453897995046
 20
14.20350902842826
 30
0.0
 10
17.68935205861426
 20
14.20621592331487
 30
0.0
 10
17.63400401680293
 20
14.20807433583429
 30
0.0
 10
17.58897969179308
 20
14.20893181034459
 30
0.0
 10
17.5624113809918
 20
14.20910172225025
 30
0.0
 10
17.55435060746761
 20
14.20915327319005
 30
0.0
  0
SPLINE
  5
14E
330
1F
100
AcDbEntity
  8
0
  6
Continuous
 62
     7
370
    25
100
AcDbSpline
210
0.0
220
0.0
230
1.0
 70
     8
 71
     3
 72
    65
 73
    61
 74
     0
 42
0.00000001
 43
0.00000001
 40
0.0
 40
0.0
 40
0.0
 40
0.0
 40
0.0092123969215685
 40
0.0266485584684522
 40
0.0440319913564771
 40
0.0613880586515721
 40
0.0787349428349769
 40
0.0960897705597138
 40
0.1134656973680636
 40
0.1308810331341194
 40
0.1483789200241775
 40
0.165736854238096
 40
0.1831755524320408
 40
0.2006632685293239
 40
0.2181683954303173
 40
0.2356517066408991
 40
0.253079097176746
 40
0.270416865168845
 40
0.2877365299257625
 40
0.3051545164845728
 40
0.3225474371911431
 40
0.3399331125231296
 40
0.3573277916414817
 40
0.3747448161970919
 40
0.3922023508530292
 40
0.4097317000830236
 40
0.4270582968850805
 40
0.4444914367500405
 40
0.4619896652972003
 40
0.479511557664209
 40
0.4970054213102553
 40
0.5144246520166315
 40
0.5317351789303658
 40
0.5490529910760922
 40
0.5665152111152781
 40
0.5839496938184779
 40
0.6013739730185549
 40
0.6188051921021993
 40
0.6362554607993932
 40
0.6537418829978808
 40
0.6712402345572164
 40
0.6886146453865003
 40
0.706023941512173
 40
0.7234540615447501
 40
0.7408906415402174
 40
0.7583140155402955
 40
0.7757086136005994
 40
0.7930723270570034
 40
0.8104531934671327
 40
0.8278598074582763
 40
0.8452770681966624
 40
0.8626928499182269
 40
0.8800952561380073
 40
0.8974746405097764
 40
0.9148211474626267
 40
0.9320800131689162
 40
0.9493776482383931
 40
0.9666302170415263
 40
0.9838568569544413
 40
0.9999999999999999
 40
0.9999999999999999
 40
0.9999999999999999
 40
0.9999999999999999
 10
17.55435060746761
 20
14.20915327319005
 30
0.0
 10
17.5445868380514
 20
14.20917279755319
 30
0.0
 10
17.51634333287294
 20
14.2092292753773
 30
0.0
 10
17.46967873902381
 20
14.20868339313191
 30
0.0
 10
17.41443132515077
 20
14.20724151380198
 30
0.0
 10
17.35936243449301
 20
14.20495480060216
 30
0.0
 10
17.30444598980454
 20
14.2018376584305
 30
0.0
 10
17.2496682923877
 20
14.19788625192569
 30
0.0
 10
17.19501613624675
 20
14.19309945174567
 30
0.0
 10
17.1404476521306
 20
14.18747648367695
 30
0.0
 10
17.08617222324781
 20
14.18102360627168
 30
0.0
 10
17.03218562167373
 20
14.17373999573887
 30
0.0
 10
16.97855479215238
 20
14.1656461386773
 30
0.0
 10
16.9251556644289
 20
14.15672076156753
 30
0.0
 10
16.87213051580042
 20
14.14698369390719
 30
0.0
 10
16.81962251900065
 20
14.13645878117667
 30
0.0
 10
16.76777395804133
 20
14.125175074864
 30
0.0
 10
16.71661878185682
 20
14.11313820700864
 30
0.0
 10
16.66602531230265
 20
14.10034215410048
 30
0.0
 10
16.61597113497489
 20
14.08676970652054
 30
0.0
 10
16.56648464486618
 20
14.07242193588162
 30
0.0
 10
16.51768557583075
 20
14.05733168692207
 30
0.0
 10
16.4695624593234
 20
14.0414962165247
 30
0.0
 10
16.42210566456678
 20
14.02491025987753
 30
0.0
 10
16.37528673757279
 20
14.00756926143394
 30
0.0
 10
16.32935344369256
 20
13.98954122931448
 30
0.0
 10
16.28427827538059
 20
13.97082340145778
 30
0.0
 10
16.24008074860917
 20
13.95144228591708
 30
0.0
 10
16.19660183766543
 20
13.93132437286475
 30
0.0
 10
16.1539870893346
 20
13.9105299714976
 30
0.0
 10
16.11238176818634
 20
13.88912546322088
 30
0.0
 10
16.0719170315499
 20
13.86717784266493
 30
0.0
 10
16.03260017996594
 20
13.84468722121692
 30
0.0
 10
15.99425968902234
 20
13.82159283328341
 30
0.0
 10
15.95687813487151
 20
13.79786127967698
 30
0.0
 10
15.92050535985989
 20
13.77351082798333
 30
0.0
 10
15.88526462126079
 20
13.74862008183565
 30
0.0
 10
15.85114775237611
 20
13.72318404562255
 30
0.0
 10
15.81814905453109
 20
13.69719654918508
 30
0.0
 10
15.78628418497612
 20
13.67067516261575
 30
0.0
 10
15.75566797815294
 20
13.64370033919569
 30
0.0
 10
15.72632174800806
 20
13.61629750258444
 30
0.0
 10
15.69824631919249
 20
13.58848285335131
 30
0.0
 10
15.67139123652142
 20
13.56020477001242
 30
0.0
 10
15.64580185548594
 20
13.53150610168455
 30
0.0
 10
15.62152140351416
 20
13.50243176440237
 30
0.0
 10
15.59858337125991
 20
13.47302064892773
 30
0.0
 10
15.57699405084548
 20
13.44327445418607
 30
0.0
 10
15.5567431950565
 20
13.41318598268574
 30
0.0
 10
15.53782839874679
 20
13.38275003170802
 30
0.0
 10
15.52027261179047
 20
13.35199722487396
 30
0.0
 10
15.50410289192418
 20
13.32097072195119
 30
0.0
 10
15.48934173603535
 20
13.28971121650771
 30
0.0
 10
15.47600709741203
 20
13.25825952933009
 30
0.0
 10
15.4641275489176
 20
13.22668060808518
 30
0.0
 10
15.45368329917242
 20
13.19497242767806
 30
0.0
 10
15.44466492414958
 20
13.16315337178076
 30
0.0
 10
15.43711695518978
 20
13.13121092045434
 30
0.0
 10
15.43102607742465
 20
13.09987125704879
 30
0.0
 10
15.42819406054124
 20
13.07914150771175
 30
0.0
 10
15.42682402904559
 20
13.06911317431615
 30
0.0
  0
LINE
  5
14F
330
1F
100
AcDbEntity
  8
0
  6
Continuous
 62
     7
370
    25
100
AcDbLine
 10
19.7062818032
 20
12.9678341184
 30
0.0
 11
19.6331782265
 21
12.9678341184
 31
0.0
  0
LINE
  5
150
330
1F
100
AcDbEntity
  8
0
  6
Continuous
 62
     7
370
    25
100
AcDbLine
 10
15.4434037715
 20
12.9678341184
 30
0.0
 11
15.3702818032
 21
12.9678341184
 31
0.0
  0
LINE
  5
151
330
1F
100
AcDbEntity
  8
0
  6
Continuous
 62
     7
370
    25
100
AcDbLine
 10
18.9812186703
 20
12.1213658351
 30
0.0
 11
18.9812186703
 21
12.1254485392
 31
0.0
  0
LINE
  5
152
330
1F
100
AcDbEntity
  8
0
  6
Continuous
 62
     7
370
    25
100
AcDbLine
 10
18.5702186703
 20
12.1254485392
 30
0.0
 11
18.5702186703
 21
12.1213658351
 31
0.0
  0
LINE
  5
153
330
1F
100
AcDbEntity
  8
0
  6
Continuous
 62
     7
370
    25
100
AcDbLine
 10
18.9378284859
 20
12.1983576179
 30
0.0
 11
18.9374340581
 21
12.1986498849
 31
0.0
  0
LINE
  5
154
330
1F
100
AcDbEntity
  8
0
  6
Continuous
 62
     7
370
    25
100
AcDbLine
 10
18.6140032824
 20
12.1986498849
 30
0.0
 11
18.6136088546
 21
12.1983576179
 31
0.0
  0
LINE
  5
155
330
1F
100
AcDbEntity
  8
0
  6
Continuous
 62
     7
370
    25
100
AcDbLine
 10
16.5063449361
 20
10.6926516394
 30
0.0
 11
16.5063449361
 21
10.6967343435
 31
0.0
  0
LINE
  5
156
330
1F
100
AcDbEntity
  8
0
  6
Continuous
 62
     7
370
    25
100
AcDbLine
 10
16.0953449361
 20
10.6967343435
 30
0.0
 11
16.0953449361
 21
10.6926516394
 31
0.0
  0
LINE
  5
157
330
1F
100
AcDbEntity
  8
0
  6
Continuous
 62
     7
370
    25
100
AcDbLine
 10
16.4629547518
 20
10.7696434222
 30
0.0
 11
16.462560324
 21
10.7699356893
 31
0.0
  0
LINE
  5
158
330
1F
100
AcDbEntity
  8
0
  6
Continuous
 62
     7
370
    25
100
AcDbLine
 10
16.1391295483
 20
10.7699356893
 30
0.0
 11
16.1387351205
 21
10.7696434222
 31
0.0
  0
LWPOLYLINE
  5
159
330
1F
100
AcDbEntity
  8
0
  6
Continuous
 62
     7
370
    25
100
AcDbPolyline
 90
      241
 70
   128
 43
0.0
 10
19.2954421544
 20
10.3971740238
 10
19.3408371152
 20
10.424075187
 10
19.3849966945
 20
10.4516531238
 10
19.4278906277
 20
10.4798889335
 10
19.4694895174
 20
10.5087632649
 10
19.5097648538
 20
10.5382563287
 10
19.5486890342
 20
10.568347912
 10
19.5862353819
 20
10.5990173916
 10
19.6223781645
 20
10.630243748
 10
19.6570926116
 20
10.6620055802
 10
19.6903549316
 20
10.6942811204
 10
19.7221423282
 20
10.7270482485
 10
19.7524330158
 20
10.7602845075
 10
19.7812062348
 20
10.7939671189
 10
19.8084422654
 20
10.8280729985
 10
19.8341224415
 20
10.8625787716
 10
19.858229163
 20
10.8974607897
 10
19.8807459086
 20
10.9326951466
 10
19.9016572462
 20
10.9682576942
 10
19.9209488443
 20
11.0041240599
 10
19.9386074815
 20
11.0402696626
 10
19.9546210554
 20
11.0766697298
 10
19.968978591
 20
11.1132993149
 10
19.9816702485
 20
11.1501333137
 10
19.9926873296
 20
11.1871464821
 10
20.0020222837
 20
11.224313453
 10
20.0096687132
 20
11.2616087542
 10
20.0156213775
 20
11.2990068251
 10
20.0198761971
 20
11.3364820352
 10
20.0224302558
 20
11.3740087007
 10
20.0232818032
 20
11.4115611027
 10
20.0224302558
 20
11.4491135048
 10
20.0198761971
 20
11.4866401702
 10
20.0156213775
 20
11.5241153803
 10
20.0096687132
 20
11.5615134513
 10
20.0020222837
 20
11.5988087524
 10
19.9926873296
 20
11.6359757233
 10
19.9816702485
 20
11.6729888917
 10
19.968978591
 20
11.7098228905
 10
19.9546210554
 20
11.7464524756
 10
19.9386074815
 20
11.7828525429
 10
19.9209488443
 20
11.8189981455
 10
19.9016572462
 20
11.8548645112
 10
19.8807459086
 20
11.8904270589
 10
19.858229163
 20
11.9256614157
 10
19.8341224415
 20
11.9605434339
 10
19.8084422654
 20
11.995049207
 10
19.7812062348
 20
12.0291550865
 10
19.7524330158
 20
12.0628376979
 10
19.7221423282
 20
12.0960739569
 10
19.6903549316
 20
12.128841085
 10
19.6570926116
 20
12.1611166252
 10
19.6223781645
 20
12.1928784575
 10
19.5862353819
 20
12.2241048139
 10
19.5486890342
 20
12.2547742934
 10
19.5097648538
 20
12.2848658767
 10
19.4694895174
 20
12.3143589406
 10
19.4278906277
 20
12.3432332719
 10
19.3849966945
 20
12.3714690816
 10
19.3408371152
 20
12.3990470184
 10
19.2954421544
 20
12.4259481817
 10
19.2488429238
 20
12.4521541347
 10
19.20107136
 20
12.4776469172
 10
19.1521602033
 20
12.5024090578
 10
19.102142975
 20
12.5264235856
 10
19.0510539543
 20
12.5496740424
 10
18.9989281551
 20
12.5721444935
 10
18.945801302
 20
12.5938195386
 10
18.8917098052
 20
12.6146843229
 10
18.8366907365
 20
12.6347245467
 10
18.7807818032
 20
12.6539264753
 10
18.7240213224
 20
12.6722769487
 10
18.6664481951
 20
12.6897633905
 10
18.6081018788
 20
12.7063738162
 10
18.5490223612
 20
12.722096842
 10
18.4892501326
 20
12.7369216921
 10
18.4288261578
 20
12.7508382062
 10
18.3677918484
 20
12.7638368467
 10
18.3061890342
 20
12.775908705
 10
18.2440599348
 20
12.7870455076
 10
18.1814471303
 20
12.7972396218
 10
18.1183935324
 20
12.8064840612
 10
18.0549423549
 20
12.8147724901
 10
17.991137084
 20
12.822099228
 10
17.9270214488
 20
12.8284592536
 10
17.8626393909
 20
12.8338482079
 10
17.7980350344
 20
12.8382623977
 10
17.7332526561
 20
12.8416987976
 10
17.6683366545
 20
12.8441550527
 10
17.6033315197
 20
12.8456294794
 10
17.5382818032
 20
12.8461210672
 10
17.4732320867
 20
12.8456294794
 10
17.4082269519
 20
12.8441550527
 10
17.3433109503
 20
12.8416987976
 10
17.278528572
 20
12.8382623977
 10
17.2139242155
 20
12.8338482079
 10
17.1495421576
 20
12.8284592536
 10
17.0854265223
 20
12.822099228
 10
17.0216212515
 20
12.8147724901
 10
16.958170074
 20
12.8064840612
 10
16.8951164761
 20
12.7972396218
 10
16.8325036716
 20
12.7870455076
 10
16.7703745722
 20
12.775908705
 10
16.708771758
 20
12.7638368467
 10
16.6477374486
 20
12.7508382062
 10
16.5873134738
 20
12.7369216921
 10
16.5275412452
 20
12.722096842
 10
16.4684617276
 20
12.7063738162
 10
16.4101154113
 20
12.6897633905
 10
16.352542284
 20
12.6722769487
 10
16.2957818032
 20
12.6539264753
 10
16.2398728699
 20
12.6347245467
 10
16.1848538012
 20
12.6146843229
 10
16.1307623044
 20
12.5938195386
 10
16.0776354513
 20
12.5721444935
 10
16.0255096521
 20
12.5496740424
 10
15.9744206314
 20
12.5264235856
 10
15.9244034031
 20
12.5024090578
 10
15.8754922464
 20
12.4776469172
 10
15.8277206826
 20
12.4521541347
 10
15.7811214519
 20
12.4259481817
 10
15.7357264912
 20
12.3990470184
 10
15.6915669119
 20
12.3714690816
 10
15.6486729787
 20
12.3432332719
 10
15.607074089
 20
12.3143589406
 10
15.5667987526
 20
12.2848658767
 10
15.5278745722
 20
12.2547742934
 10
15.4903282245
 20
12.2241048139
 10
15.4541854419
 20
12.1928784575
 10
15.4194709948
 20
12.1611166252
 10
15.3862086748
 20
12.128841085
 10
15.3544212782
 20
12.0960739569
 10
15.3241305906
 20
12.0628376979
 10
15.2953573716
 20
12.0291550865
 10
15.268121341
 20
11.995049207
 10
15.2424411649
 20
11.9605434339
 10
15.2183344434
 20
11.9256614157
 10
15.1958176978
 20
11.8904270589
 10
15.1749063602
 20
11.8548645112
 10
15.155614762
 20
11.8189981455
 10
15.1379561249
 20
11.7828525429
 10
15.121942551
 20
11.7464524756
 10
15.1075850154
 20
11.7098228905
 10
15.0948933579
 20
11.6729888917
 10
15.0838762768
 20
11.6359757233
 10
15.0745413227
 20
11.5988087524
 10
15.0668948932
 20
11.5615134513
 10
15.0609422289
 20
11.5241153803
 10
15.0566874093
 20
11.4866401702
 10
15.0541333506
 20
11.4491135048
 10
15.0532818032
 20
11.4115611027
 10
15.0541333506
 20
11.3740087007
 10
15.0566874093
 20
11.3364820352
 10
15.0609422289
 20
11.2990068251
 10
15.0668948932
 20
11.2616087542
 10
15.0745413227
 20
11.224313453
 10
15.0838762768
 20
11.1871464821
 10
15.0948933579
 20
11.1501333137
 10
15.1075850154
 20
11.1132993149
 10
15.121942551
 20
11.0766697298
 10
15.1379561249
 20
11.0402696626
 10
15.155614762
 20
11.0041240599
 10
15.1749063602
 20
10.9682576942
 10
15.1958176978
 20
10.9326951466
 10
15.2183344434
 20
10.8974607897
 10
15.2424411649
 20
10.8625787716
 10
15.268121341
 20
10.8280729985
 10
15.2953573716
 20
10.7939671189
 10
15.3241305906
 20
10.7602845075
 10
15.3544212782
 20
10.7270482485
 10
15.3862086748
 20
10.6942811204
 10
15.4194709948
 20
10.6620055802
 10
15.4541854419
 20
10.630243748
 10
15.4903282245
 20
10.5990173916
 10
15.5278745722
 20
10.568347912
 10
15.5667987526
 20
10.5382563287
 10
15.607074089
 20
10.5087632649
 10
15.6486729787
 20
10.4798889335
 10
15.6915669119
 20
10.4516531238
 10
15.7357264912
 20
10.424075187
 10
15.7811214519
 20
10.3971740238
 10
15.8277206826
 20
10.3709680708
 10
15.8754922464
 20
10.3454752882
 10
15.9244034031
 20
10.3207131477
 10
15.9744206314
 20
10.2966986198
 10
16.0255096521
 20
10.273448163
 10
16.0776354513
 20
10.250977712
 10
16.1307623044
 20
10.2293026668
 10
16.1848538012
 20
10.2084378825
 10
16.2398728699
 20
10.1883976588
 10
16.2957818032
 20
10.1691957302
 10
16.352542284
 20
10.1508452567
 10
16.4101154113
 20
10.133358815
 10
16.4684617276
 20
10.1167483892
 10
16.5275412452
 20
10.1010253634
 10
16.5873134738
 20
10.0862005133
 10
16.6477374486
 20
10.0722839992
 10
16.708771758
 20
10.0592853587
 10
16.7703745722
 20
10.0472135004
 10
16.8325036716
 20
10.0360766979
 10
16.8951164761
 20
10.0258825836
 10
16.958170074
 20
10.0166381442
 10
17.0216212515
 20
10.0083497153
 10
17.0854265223
 20
10.0010229774
 10
17.1495421576
 20
9.9946629519
 10
17.2139242155
 20
9.9892739975
 10
17.278528572
 20
9.9848598078
 10
17.3433109503
 20
9.9814234078
 10
17.4082269519
 20
9.9789671528
 10
17.4732320867
 20
9.9774927261
 10
17.5382818032
 20
9.9770011382
 10
17.6033315197
 20
9.9774927261
 10
17.6683366545
 20
9.9789671528
 10
17.7332526561
 20
9.9814234078
 10
17.7980350344
 20
9.9848598078
 10
17.8626393909
 20
9.9892739975
 10
17.9270214488
 20
9.9946629519
 10
17.991137084
 20
10.0010229774
 10
18.0549423549
 20
10.0083497153
 10
18.1183935324
 20
10.0166381442
 10
18.1814471303
 20
10.0258825836
 10
18.2440599348
 20
10.0360766979
 10
18.3061890342
 20
10.0472135004
 10
18.3677918484
 20
10.0592853587
 10
18.4288261578
 20
10.0722839992
 10
18.4892501326
 20
10.0862005133
 10
18.5490223612
 20
10.1010253634
 10
18.6081018788
 20
10.1167483892
 10
18.6664481951
 20
10.133358815
 10
18.7240213224
 20
10.1508452567
 10
18.7807818032
 20
10.1691957302
 10
18.8366907365
 20
10.1883976588
 10
18.8917098052
 20
10.2084378825
 10
18.945801302
 20
10.2293026668
 10
18.9989281551
 20
10.250977712
 10
19.0510539543
 20
10.273448163
 10
19.102142975
 20
10.2966986198
 10
19.1521602033
 20
10.3207131477
 10
19.20107136
 20
10.3454752882
 10
19.2488429238
 20
10.3709680708
 10
19.2954421544
 20
10.3971740238
  0
ARC
  5
15A
330
1F
100
AcDbEntity
  8
0
  6
Continuous
 62
     7
370
    25
100
AcDbCircle
 10
15.8621973964
 20
11.4360567487
 30
0.0
 40
0.8389152020445882
100
AcDbArc
 50
176.424497759
 51
183.7501095984
  0
ARC
  5
15B
330
1F
100
AcDbEntity
  8
0
  6
Continuous
 62
     7
370
    25
100
AcDbCircle
 10
19.214381144
 20
11.4360582892
 30
0.0
 40
0.8389002801614295
100
AcDbArc
 50
356.5441143597
 51
3.7604743959
  0
LWPOLYLINE
  5
15C
330
1F
100
AcDbEntity
  8
0
  6
Continuous
 62
     7
370
    25
100
AcDbPolyline
 90
        3
 70
   128
 43
0.0
 10
20.0532818032
 20
11.6932676828
 10
20.0524199755
 20
11.7312734338
 10
20.0516156814
 20
11.7461070662
  0
LWPOLYLINE
  5
15D
330
1F
100
AcDbEntity
  8
0
  6
Continuous
 62
     7
370
    25
100
AcDbPolyline
 90
        3
 70
   128
 43
0.0
 10
15.0250903279
 20
11.7483180779
 10
15.0241436309
 20
11.7312734338
 10
15.0232818032
 20
11.6932676828
  0
LWPOLYLINE
  5
15E
330
1F
100
AcDbEntity
  8
0
  6
Continuous
 62
     7
370
    25
100
AcDbPolyline
 90
      152
 70
   128
 43
0.0
 10
18.1958911097
 20
11.0319313307
 10
18.222677444
 20
11.0480519613
 10
18.2482789636
 20
11.0648018929
 10
18.2726513476
 20
11.0821521285
 10
18.295752403
 20
11.1000726316
 10
18.3175421376
 20
11.1185323785
 10
18.3379828293
 20
11.1374994119
 10
18.3570390915
 20
11.1569408965
 10
18.3746779344
 20
11.1768231755
 10
18.3908688219
 20
11.197111829
 10
18.4055837245
 20
11.2177717336
 10
18.4187971681
 20
11.2387671232
 10
18.4304862778
 20
11.2600616509
 10
18.4406308175
 20
11.2816184521
 10
18.4492132252
 20
11.3034002078
 10
18.4562186433
 20
11.3253692099
 10
18.4616349439
 20
11.3474874261
 10
18.4654527506
 20
11.3697165655
 10
18.4676654539
 20
11.3920181456
 10
18.4682692233
 20
11.4143535581
 10
18.4672630135
 20
11.4366841363
 10
18.4646485666
 20
11.458971222
 10
18.4604304085
 20
11.481176232
 10
18.4546158417
 20
11.5032607254
 10
18.4472149322
 20
11.5251864699
 10
18.4382404924
 20
11.5469155081
 10
18.4277080588
 20
11.5684102229
 10
18.4156358648
 20
11.589633403
 10
18.4020448097
 20
11.6105483072
 10
18.386958422
 20
11.6311187281
 10
18.3704028192
 20
11.6513090543
 10
18.3524066619
 20
11.6710843327
 10
18.3330011049
 20
11.6904103288
 10
18.3122197426
 20
11.7092535856
 10
18.2900985516
 20
11.7275814819
 10
18.2666758276
 20
11.745362289
 10
18.2419921197
 20
11.7625652248
 10
18.2160901598
 20
11.7791605079
 10
18.1890147891
 20
11.795119409
 10
18.1608128801
 20
11.8104143001
 10
18.1315332553
 20
11.825018703
 10
18.1012266032
 20
11.8389073348
 10
18.0699453901
 20
11.8520561517
 10
18.0377437697
 20
11.8644423908
 10
18.0046774889
 20
11.8760446091
 10
17.9708037914
 20
11.8868427211
 10
17.9361813188
 20
11.8968180332
 10
17.900870009
 20
11.9059532764
 10
17.8649309924
 20
11.9142326359
 10
17.828426486
 20
11.9216417786
 10
17.7914196859
 20
11.9281678779
 10
17.7539746575
 20
11.9337996359
 10
17.7161562252
 20
11.938527303
 10
17.6780298596
 20
11.9423426948
 10
17.6396615644
 20
11.945239206
 10
17.6011177621
 20
11.9472118224
 10
17.5624651793
 20
11.948257129
 10
17.5237707307
 20
11.948373316
 10
17.4851014033
 20
11.9475601825
 10
17.446524141
 20
11.9458191361
 10
17.4081057281
 20
11.9431531908
 10
17.3699126739
 20
11.9395669619
 10
17.3320110976
 20
11.9350666578
 10
17.2944666138
 20
11.9296600693
 10
17.2573442189
 20
11.9233565564
 10
17.2207081786
 20
11.9161670314
 10
17.1846219166
 20
11.9081039408
 10
17.1491479049
 20
11.8991812433
 10
17.1143475555
 20
11.8894143858
 10
17.0802811142
 20
11.8788202763
 10
17.0470075562
 20
11.8674172554
 10
17.0145844843
 20
11.8552250636
 10
16.9830680287
 20
11.8422648081
 10
16.9525127501
 20
11.8285589252
 10
16.9229715455
 20
11.8141311425
 10
16.894495556
 20
11.799006437
 10
16.8671340788
 20
11.7832109924
 10
16.8409344817
 20
11.7667721536
 10
16.815942121
 20
11.7497183792
 10
16.792200263
 20
11.7320791923
 10
16.7697500094
 20
11.7138851298
 10
16.7486302254
 20
11.6951676888
 10
16.7288774736
 20
11.6759592726
 10
16.7105259493
 20
11.6562931347
 10
16.6936074226
 20
11.6362033206
 10
16.6781511825
 20
11.6157246095
 10
16.6641839866
 20
11.5948924539
 10
16.6517300147
 20
11.573742918
 10
16.6408108268
 20
11.5523126156
 10
16.6314453262
 20
11.5306386464
 10
16.6236497262
 20
11.5087585322
 10
16.6174375224
 20
11.4867101513
 10
16.6128194693
 20
11.4645316736
 10
16.6098035616
 20
11.4422614941
 10
16.6083950204
 20
11.4199381666
 10
16.6085962842
 20
11.3976003368
 10
16.6104070044
 20
11.3752866757
 10
16.6138240464
 20
11.3530358123
 10
16.6188414948
 20
11.330886267
 10
16.6254506633
 20
11.3088763846
 10
16.6336401103
 20
11.2870442683
 10
16.6433956583
 20
11.2654277136
 10
16.6547004187
 20
11.2440641426
 10
16.6675348209
 20
11.2229905396
 10
16.6818766462
 20
11.2022433869
 10
16.6977010662
 20
11.1818586017
 10
16.7149806859
 20
11.1618714737
 10
16.7336855912
 20
11.1423166044
 10
16.7537834004
 20
11.1232278468
 10
16.7752393206
 20
11.104638247
 10
16.7980162075
 20
11.0865799871
 10
16.8220746302
 20
11.0690843293
 10
16.8473729392
 20
11.0521815617
 10
16.8738673384
 20
11.0359009461
 10
16.9015119612
 20
11.0202706673
 10
16.9302589496
 20
11.0053177842
 10
16.9600585373
 20
10.9910681829
 10
16.9908591358
 20
10.9775465321
 10
17.0226074235
 20
10.9647762404
 10
17.0552484383
 20
10.9527794153
 10
17.0887256727
 20
10.9415768257
 10
17.1229811714
 20
10.9311878652
 10
17.1579556318
 20
10.9216305191
 10
17.1935885067
 20
10.9129213329
 10
17.229818109
 20
10.9050753838
 10
17.2665817187
 20
10.8981062546
 10
17.3038156912
 20
10.89202601
 10
17.3414555676
 20
10.8868451762
 10
17.3794361864
 20
10.8825727222
 10
17.4176917962
 20
10.8792160442
 10
17.4561561694
 20
10.8767809533
 10
17.4947627172
 20
10.8752716652
 10
17.5334446045
 20
10.8746907927
 10
17.5721348659
 20
10.8750393414
 10
17.6107665215
 20
10.8763167078
 10
17.6492726927
 20
10.8785206807
 10
17.6875867182
 20
10.8816474445
 10
17.7256422695
 20
10.8856915862
 10
17.7633734654
 20
10.8906461047
 10
17.8007149862
 20
10.8965024229
 10
17.837602187
 20
10.9032504022
 10
17.8739712092
 20
10.9108783609
 10
17.9097590913
 20
10.9193730933
 10
17.9449038779
 20
10.9287198937
 10
17.979344727
 20
10.938902581
 10
18.0130220152
 20
10.949903527
 10
18.0458774407
 20
10.9617036871
 10
18.0778541249
 20
10.9742826332
 10
18.1088967103
 20
10.9876185886
 10
18.1389514564
 20
11.0016884664
 10
18.1679663329
 20
11.0164679091
 10
18.1958911097
 20
11.0319313307
  0
ARC
  5
15F
330
1F
100
AcDbEntity
  8
0
  6
Continuous
 62
     7
370
    25
100
AcDbCircle
 10
18.7757186703
 20
11.9443108917
 30
0.0
 40
0.3013970639183519
100
AcDbArc
 50
57.5507315322
 51
122.4492684678
  0
ARC
  5
160
330
1F
100
AcDbEntity
  8
0
  6
Continuous
 62
     7
370
    25
100
AcDbCircle
 10
16.3008449361
 20
10.515596696
 30
0.0
 40
0.3013970639183564
100
AcDbArc
 50
57.5507315322
 51
122.4492684678
  0
LWPOLYLINE
  5
161
330
1F
100
AcDbEntity
  8
0
  6
Continuous
 62
     7
370
    25
100
AcDbPolyline
 90
       74
 70
   128
 43
0.0
 10
16.6115412607
 20
11.4564708474
 10
16.6119150398
 20
11.4539704728
 10
16.6161331979
 20
11.4317654628
 10
16.6219477647
 20
11.4096809693
 10
16.6293486742
 20
11.3877552248
 10
16.638323114
 20
11.3660261867
 10
16.6488555476
 20
11.3445314719
 10
16.6609277416
 20
11.3233082917
 10
16.6745187967
 20
11.3023933875
 10
16.6896051844
 20
11.2818229667
 10
16.7061607872
 20
11.2616326405
 10
16.7241569445
 20
11.241857362
 10
16.7435625015
 20
11.222531366
 10
16.7643438638
 20
11.2036881092
 10
16.7864650548
 20
11.1853602128
 10
16.8098877788
 20
11.1675794058
 10
16.8345714867
 20
11.15037647
 10
16.8604734466
 20
11.1337811868
 10
16.8875488173
 20
11.1178222858
 10
16.9157507263
 20
11.1025273947
 10
16.9450303511
 20
11.0879229918
 10
16.9753370032
 20
11.0740343599
 10
17.0066182162
 20
11.060885543
 10
17.0388198366
 20
11.0484993039
 10
17.0718861175
 20
11.0368970856
 10
17.105759815
 20
11.0260989737
 10
17.1403822876
 20
11.0161236615
 10
17.1756935974
 20
11.0069884183
 10
17.211632614
 20
10.9987090588
 10
17.2481371203
 20
10.9912999161
 10
17.2851439205
 20
10.9847738169
 10
17.3225889489
 20
10.9791420589
 10
17.3604073812
 20
10.9744143917
 10
17.3985337468
 20
10.970599
 10
17.436902042
 20
10.9677024887
 10
17.4754458443
 20
10.9657298723
 10
17.5140984271
 20
10.9646845658
 10
17.5527928757
 20
10.9645683787
 10
17.5914622031
 20
10.9653815122
 10
17.6300394654
 20
10.9671225587
 10
17.6684578783
 20
10.969788504
 10
17.7066509325
 20
10.9733747329
 10
17.7445525088
 20
10.977875037
 10
17.7820969926
 20
10.9832816254
 10
17.8192193875
 20
10.9895851384
 10
17.8558554278
 20
10.9967746633
 10
17.8919416898
 20
11.0048377539
 10
17.9274157015
 20
11.0137604514
 10
17.9622160509
 20
11.023527309
 10
17.9962824922
 20
11.0341214184
 10
18.0295560502
 20
11.0455244394
 10
18.0619791221
 20
11.0577166311
 10
18.0934955777
 20
11.0706768867
 10
18.1240508563
 20
11.0843827695
 10
18.1535920609
 20
11.0988105523
 10
18.1820680504
 20
11.1139352578
 10
18.2094295276
 20
11.1297307023
 10
18.2356291247
 20
11.1461695411
 10
18.2606214854
 20
11.1632233156
 10
18.2843633433
 20
11.1808625024
 10
18.306813597
 20
11.199056565
 10
18.3279333809
 20
11.217774006
 10
18.3476861328
 20
11.2369824221
 10
18.3660376571
 20
11.2566485601
 10
18.3829561838
 20
11.2767383742
 10
18.3984124239
 20
11.2972170852
 10
18.4123796198
 20
11.3180492409
 10
18.4248335917
 20
11.3391987767
 10
18.4357527796
 20
11.3606290792
 10
18.4451182802
 20
11.3823030483
 10
18.4529138802
 20
11.4041831626
 10
18.459126084
 20
11.4262315435
 10
18.4637441371
 20
11.4484100212
 10
18.4650223457
 20
11.4564708474
  0
SPLINE
  5
162
330
1F
100
AcDbEntity
  8
0
  6
Continuous
 62
     7
370
    25
100
AcDbSpline
210
0.0
220
0.0
230
1.0
 70
     8
 71
     3
 72
    27
 73
    23
 74
     0
 42
0.00000001
 43
0.00000001
 40
0.0
 40
0.0
 40
0.0
 40
0.0
 40
0.0447910598366501
 40
0.099191936005707
 40
0.1524903180777154
 40
0.2057893122981479
 40
0.2605726085068281
 40
0.3153561787356393
 40
0.3697670120094502
 40
0.4241775683388855
 40
0.4801656852955793
 40
0.5361529671693461
 40
0.590553055141838
 40
0.6449522385856599
 40
0.7010105258553454
 40
0.7570681017364046
 40
0.8004495777099389
 40
0.8440374583630311
 40
0.8827321800322804
 40
0.9214270109890534
 40
0.9607133946300098
 40
1.0
 40
1.0
 40
1.0
 40
1.0
 10
15.47718713791935
 20
13.38747925003503
 30
0.0
 10
15.47787691385353
 20
13.39648261731539
 30
0.0
 10
15.47940445552302
 20
13.41642100310858
 30
0.0
 10
15.48246709849317
 20
13.44946776479682
 30
0.0
 10
15.48611542569156
 20
13.48581008233027
 30
0.0
 10
15.49015716194254
 20
13.52370712884334
 30
0.0
 10
15.49449622618799
 20
13.56313853318172
 30
0.0
 10
15.49900080797504
 20
13.60379063603772
 30
0.0
 10
15.50349512072552
 20
13.64502886810614
 30
0.0
 10
15.50788604910817
 20
13.68697556703663
 30
0.0
 10
15.51203645839865
 20
13.72945830752366
 30
0.0
 10
15.51576623759454
 20
13.77177303224459
 30
0.0
 10
15.51891311979007
 20
13.81321867980758
 30
0.0
 10
15.52142423205871
 20
13.85394041085068
 30
0.0
 10
15.52319779000335
 20
13.89400193913384
 30
0.0
 10
15.5240739428888
 20
13.93012096237361
 30
0.0
 10
15.5241949701154
 20
13.96204043412347
 30
0.0
 10
15.52376797215279
 20
13.98896077057855
 30
0.0
 10
15.52287032017061
 20
14.01373921666313
 30
0.0
 10
15.52156446481154
 20
14.03649085470366
 30
0.0
 10
15.51985027201811
 20
14.05823285045474
 30
0.0
 10
15.51835969457337
 20
14.07167690171038
 30
0.0
 10
15.51761440374784
 20
14.07839894630743
 30
0.0
  0
LINE
  5
163
330
1F
100
AcDbEntity
  8
0
  6
Continuous
 62
     7
370
    25
100
AcDbLine
 10
15.5176144037
 20
14.0783989463
 30
0.0
 11
15.5063969024
 21
14.6430180448
 31
0.0
  0
ARC
  5
164
330
1F
100
AcDbEntity
  8
0
  6
Continuous
 62
     7
370
    25
100
AcDbCircle
 10
16.4316382812
 20
14.232303578
 30
0.0
 40
1.012303305469777
100
AcDbArc
 50
134.4892767052
 51
156.0635745684
  0
ARC
  5
165
330
1F
100
AcDbEntity
  8
0
  6
Continuous
 62
     7
370
    25
100
AcDbCircle
 10
17.0585289337
 20
13.3477715236
 30
0.0
 40
1.956305042967958
100
AcDbArc
 50
108.768406498
 51
131.2262169693
  0
LINE
  5
166
330
1F
100
AcDbEntity
  8
0
  6
Continuous
 62
     7
370
    25
100
AcDbLine
 10
16.4267078029
 20
15.3778125823
 30
0.0
 11
16.4291002012
 21
15.2000536003
 31
0.0
  0
ARC
  5
167
330
1F
100
AcDbEntity
  8
0
  6
Continuous
 62
     7
370
    25
100
AcDbCircle
 10
17.4556335362
 20
12.495237725
 30
0.0
 40
3.060706776662621
100
AcDbArc
 50
97.8371514791
 51
109.6438584923
  0
LINE
  5
168
330
1F
100
AcDbEntity
  8
0
  6
Continuous
 62
     7
370
    25
100
AcDbLine
 10
17.0382818032
 20
15.5273563743
 30
0.0
 11
17.0517974617
 21
14.9943669773
 31
0.0
  0
SPLINE
  5
169
330
1F
100
AcDbEntity
  8
0
  6
Continuous
 62
     7
370
    25
100
AcDbSpline
210
0.0
220
0.0
230
1.0
 70
     8
 71
     3
 72
    23
 73
    19
 74
     0
 42
0.00000001
 43
0.00000001
 40
0.0
 40
0.0
 40
0.0
 40
0.0
 40
0.0699279054687981
 40
0.1400940242957107
 40
0.2100364574747845
 40
0.2799198363468244
 40
0.3500229750972574
 40
0.4199147974734164
 40
0.4909507301988034
 40
0.5622066704991022
 40
0.6332420678465395
 40
0.6872874708063504
 40
0.7415313928942375
 40
0.7957710539615818
 40
0.849810625010218
 40
0.8998470706725403
 40
0.9499645243531611
 40
1.0
 40
1.0
 40
1.0
 40
1.0
 10
17.03828224174061
 20
14.86415881599076
 30
0.0
 10
17.03888211105101
 20
14.84902909022887
 30
0.0
 10
17.04008389316047
 20
14.81871809844004
 30
0.0
 10
17.04953051298782
 20
14.77491110113198
 30
0.0
 10
17.06438009665214
 20
14.73293554487284
 30
0.0
 10
17.08519549806745
 20
14.69343199628911
 30
0.0
 10
17.11133771944536
 20
14.65663573647707
 30
0.0
 10
17.14270940733111
 20
14.62265359304966
 30
0.0
 10
17.17917271433367
 20
14.59191335057657
 30
0.0
 10
17.2202159332712
 20
14.56457924773968
 30
0.0
 10
17.26160426481047
 20
14.54286434979335
 30
0.0
 10
17.30199313236506
 20
14.52601047304272
 30
0.0
 10
17.34032704847991
 20
14.51306148644614
 30
0.0
 10
17.38010617492228
 20
14.50247495334867
 30
0.0
 10
17.42001234286836
 20
14.49450981157783
 30
0.0
 10
17.45970118864506
 20
14.48908179893155
 30
0.0
 10
17.49886278807169
 20
14.48575017401478
 30
0.0
 10
17.52514930357675
 20
14.48533359833488
 30
0.0
 10
17.53828180319735
 20
14.48512548098448
 30
0.0
  0
SPLINE
  5
16A
330
1F
100
AcDbEntity
  8
0
  6
Continuous
 62
     7
370
    25
100
AcDbSpline
210
0.0
220
0.0
230
1.0
 70
     8
 71
     3
 72
    24
 73
    20
 74
     0
 42
0.00000001
 43
0.00000001
 40
0.0
 40
0.0
 40
0.0
 40
0.0
 40
0.0632333304127092
 40
0.1329836325166397
 40
0.2029561478244245
 40
0.272713210378305
 40
0.3429852406337311
 40
0.4134745985451095
 40
0.4837516077650795
 40
0.5375593101013195
 40
0.5915590571927888
 40
0.645555845500743
 40
0.6993594986905249
 40
0.7531916300239425
 40
0.8072253264060923
 40
0.8612545572816396
 40
0.91508057639301
 40
0.9575453039774326
 40
1.0
 40
1.0
 40
1.0
 40
1.0
 10
17.53828180319735
 20
14.48512548098448
 30
0.0
 10
17.55488194055851
 20
14.4854547470653
 30
0.0
 10
17.58979306341341
 20
14.48614721414248
 30
0.0
 10
17.64248925079786
 20
14.49206255516072
 30
0.0
 10
17.69556812179841
 20
14.5019672206311
 30
0.0
 10
17.74684899270196
 20
14.51598592133547
 30
0.0
 10
17.79560572990912
 20
14.53408421144787
 30
0.0
 10
17.84133079119131
 20
14.55608571542328
 30
0.0
 10
17.88012350838885
 20
14.57980177190388
 30
0.0
 10
17.91242948929162
 20
14.60423739946427
 30
0.0
 10
17.93913769700248
 20
14.62845658665068
 30
0.0
 10
17.963039883706
 20
14.65457554439132
 30
0.0
 10
17.98392546681779
 20
14.68247038852214
 30
0.0
 10
18.00156988292833
 20
14.71210063234051
 30
0.0
 10
18.01593714180973
 20
14.74328659297797
 30
0.0
 10
18.02694908569459
 20
14.77578362531789
 30
0.0
 10
18.03386180101722
 20
14.80702494334885
 30
0.0
 10
18.03763213111413
 20
14.83654218368334
 30
0.0
 10
18.03806508733909
 20
14.85495397111965
 30
0.0
 10
18.03828153987893
 20
14.86415877734229
 30
0.0
  0
LINE
  5
16B
330
1F
100
AcDbEntity
  8
0
  6
Continuous
 62
     7
370
    25
100
AcDbLine
 10
18.0247654296
 20
14.9943387806
 30
0.0
 11
18.0382818032
 21
15.5273563743
 31
0.0
  0
LWPOLYLINE
  5
16C
330
1F
100
AcDbEntity
  8
0
  6
Continuous
 62
     7
370
    25
100
AcDbPolyline
 90
       40
 70
   128
 43
0.0
 10
19.570166704
 20
14.6430180448
 10
19.5554258847
 20
14.6756315611
 10
19.5391146259
 20
14.7079949637
 10
19.5212456265
 20
14.7400830563
 10
19.5018327985
 20
14.7718708568
 10
19.4808912556
 20
14.8033336169
 10
19.4584373018
 20
14.8344468414
 10
19.4344884185
 20
14.8651863072
 10
19.4090632511
 20
14.8955280823
 10
19.3821815941
 20
14.9254485441
 10
19.3538643762
 20
14.9549243983
 10
19.3241336437
 20
14.9839326964
 10
19.2930125432
 20
15.0124508543
 10
19.2605253041
 20
15.0404566692
 10
19.2266972191
 20
15.0679283373
 10
19.1915546249
 20
15.0948444706
 10
19.1551248817
 20
15.1211841136
 10
19.1174363517
 20
15.1469267599
 10
19.0785183772
 20
15.1720523675
 10
19.0384012576
 20
15.1965413749
 10
18.9971162258
 20
15.2203747164
 10
18.9546954243
 20
15.2435338366
 10
18.9111718796
 20
15.2660007051
 10
18.8665794767
 20
15.2877578304
 10
18.8209529329
 20
15.3087882735
 10
18.7743277705
 20
15.3290756613
 10
18.7267402894
 20
15.3486041991
 10
18.6782275387
 20
15.367358683
 10
18.6288272877
 20
15.3853245119
 10
18.5785779969
 20
15.4024876984
 10
18.5275187875
 20
15.4188348804
 10
18.4756894116
 20
15.4343533306
 10
18.4231302207
 20
15.4490309674
 10
18.3698821345
 20
15.4628563634
 10
18.3159866092
 20
15.475818755
 10
18.2614856049
 20
15.4879080504
 10
18.2064215531
 20
15.4991148375
 10
18.1508373238
 20
15.5094303912
 10
18.0947761917
 20
15.5188466805
 10
18.0382818032
 20
15.5273563743
  0
LINE
  5
16D
330
1F
100
AcDbEntity
  8
0
  6
Continuous
 62
     7
370
    25
100
AcDbLine
 10
19.570166704
 20
14.6430180448
 30
0.0
 11
19.5589492026
 21
14.0783989463
 31
0.0
  0
SPLINE
  5
16E
330
1F
100
AcDbEntity
  8
0
  6
Continuous
 62
     7
370
    25
100
AcDbSpline
210
0.0
220
0.0
230
1.0
 70
     8
 71
     3
 72
    26
 73
    22
 74
     0
 42
0.00000001
 43
0.00000001
 40
0.0
 40
0.0
 40
0.0
 40
0.0
 40
0.0695727325218235
 40
0.1126329077907607
 40
0.1558939710607079
 40
0.2088834782710099
 40
0.2618731151402826
 40
0.3164260981651016
 40
0.3709797927353981
 40
0.4239607908172666
 40
0.4769426063873506
 40
0.5314154813473707
 40
0.5858890667107637
 40
0.6397403125649592
 40
0.6935917777245082
 40
0.748960900862212
 40
0.8043296900665963
 40
0.8589422257110093
 40
0.913554058827597
 40
0.9697983404098302
 40
1.0
 40
1.0
 40
1.0
 40
1.0
 10
19.55894920264686
 20
14.07839894630729
 30
0.0
 10
19.55767522213858
 20
14.06631766395207
 30
0.0
 10
19.55561274559188
 20
14.04675899617827
 30
0.0
 10
19.55381191288424
 20
14.01645905773818
 30
0.0
 10
19.55273613280295
 20
13.98802823242835
 30
0.0
 10
19.55230417671228
 20
13.95586853604485
 30
0.0
 10
19.55265805794849
 20
13.91958998395346
 30
0.0
 10
19.55384678528085
 20
13.88145541263577
 30
0.0
 10
19.55580598120509
 20
13.84210328449211
 30
0.0
 10
19.55843758420785
 20
13.8022120406195
 30
0.0
 10
19.5616459776656
 20
13.76171142107731
 30
0.0
 10
19.56537950225933
 20
13.7204577088856
 30
0.0
 10
19.56950648396439
 20
13.67888549122478
 30
0.0
 10
19.5738628557253
 20
13.63765183306473
 30
0.0
 10
19.57835317367441
 20
13.59663552059232
 30
0.0
 10
19.58286229872622
 20
13.55596473462966
 30
0.0
 10
19.58722862333307
 20
13.51612853926848
 30
0.0
 10
19.59128652895854
 20
13.47773290878943
 30
0.0
 10
19.59492305674506
 20
13.44077906732604
 30
0.0
 10
19.59767176813078
 20
13.41049074499617
 30
0.0
 10
19.59891503713392
 20
13.39340285295037
 30
0.0
 10
19.59934939861698
 20
13.38743284797753
 30
0.0
  0
LINE
  5
16F
330
1F
100
AcDbEntity
  8
0
  6
Continuous
 62
     7
370
    25
100
AcDbLine
 10
17.0382818032
 20
15.5623487263
 30
0.0
 11
18.0382818032
 21
15.5623487263
 31
0.0
  0
LINE
  5
170
330
1F
100
AcDbEntity
  8
0
  6
Continuous
 62
     7
370
    25
100
AcDbLine
 10
18.0382818032
 20
15.5623487263
 30
0.0
 11
18.0240088014
 21
14.9977296278
 31
0.0
  0
ELLIPSE
  5
171
330
1F
100
AcDbEntity
  8
0
  6
Continuous
 62
     7
370
    25
100
AcDbEllipse
 10
17.5382818032
 20
14.8994421138
 30
0.0
 11
0.5000000000000036
 21
7.105427357601002E-15
 31
0.0
210
0.0
220
0.0
230
1.0
 40
0.8286332656
 41
4.712388980384711
 42
6.522696724252792
  0
ELLIPSE
  5
172
330
1F
100
AcDbEntity
  8
0
  6
Continuous
 62
     7
370
    25
100
AcDbEllipse
 10
17.5382818032
 20
14.8994421138
 30
0.0
 11
0.5000000000000036
 21
7.105427357601002E-15
 31
0.0
210
0.0
220
0.0
230
1.0
 40
0.8286332656
 41
2.90208123651659
 42
4.712388980384711
  0
LINE
  5
173
330
1F
100
AcDbEntity
  8
0
  6
Continuous
 62
     7
370
    25
100
AcDbLine
 10
17.052554805
 20
14.9977296278
 30
0.0
 11
17.0382818032
 21
15.5623487263
 31
0.0
  0
ELLIPSE
  5
174
330
1F
100
AcDbEntity
  8
0
  6
Continuous
 62
     7
370
    25
100
AcDbEllipse
 10
17.5382818032
 20
14.8996440628
 30
0.0
 11
0.3885848311077922
 21
3.552713678800501E-15
 31
0.0
210
0.0
220
0.0
230
1.0
 40
0.8286334286
 41
0.0
 42
6.283185307179586
  0
LINE
  5
175
330
1F
100
AcDbEntity
  8
0
  6
Continuous
 62
     7
370
    25
100
AcDbLine
 10
17.0382818032
 20
15.5273563743
 30
0.0
 11
17.0382818032
 21
15.5623487263
 31
0.0
  0
LINE
  5
176
330
1F
100
AcDbEntity
  8
0
  6
Continuous
 62
     7
370
    25
100
AcDbLine
 10
18.0382818032
 20
15.5273563743
 30
0.0
 11
18.0382818032
 21
15.5623487263
 31
0.0
  0
LINE
  5
177
330
1F
100
AcDbEntity
  8
0
  6
Continuous
 62
     7
370
    25
100
AcDbLine
 10
15.8450789954
 20
15.3267512097
 30
0.0
 11
16.3030145981
 21
15.1963463346
 31
0.0
  0
ARC
  5
178
330
1F
100
AcDbEntity
  8
0
  6
Continuous
 62
     7
370
    25
100
AcDbCircle
 10
16.3600931877
 20
15.4010452207
 30
0.0
 40
0.212507880726534
100
AcDbArc
 50
254.4193118389
 51
288.9490267654
  0
ARC
  5
179
330
1F
100
AcDbEntity
  8
0
  6
Continuous
 62
     7
370
    25
100
AcDbCircle
 10
15.7388374876
 20
14.8584958767
 30
0.0
 40
0.0497463764706015
100
AcDbArc
 50
307.6989650089
 51
42.2170278663
  0
LINE
  5
17A
330
1F
100
AcDbEntity
  8
0
  6
Continuous
 62
     7
370
    25
100
AcDbLine
 10
15.7756798994
 20
14.8919224928
 30
0.0
 11
15.5497875541
 21
15.1562830892
 31
0.0
  0
LWPOLYLINE
  5
17B
330
1F
100
AcDbEntity
  8
0
  6
Continuous
 62
     7
370
    25
100
AcDbPolyline
 90
       30
 70
   128
 43
0.0
 10
15.5497875541
 20
15.1562830892
 10
15.542158313
 20
15.1662692427
 10
15.5360389743
 20
15.1765959766
 10
15.5314745268
 20
15.1871873698
 10
15.528498528
 20
15.1979655552
 10
15.5271328572
 20
15.2088512926
 10
15.5273875545
 20
15.2197645511
 10
15.5292607476
 20
15.2306250975
 10
15.5327386648
 20
15.2413530859
 10
15.5377957369
 20
15.2518696451
 10
15.5443947846
 20
15.2620974584
 10
15.5524872925
 20
15.2719613319
 10
15.562013765
 20
15.2813887472
 10
15.5729041646
 20
15.2903103948
 10
15.5850784259
 20
15.2986606837
 10
15.5984470449
 20
15.3063782231
 10
15.6129117366
 20
15.3134062746
 10
15.6283661581
 20
15.3196931684
 10
15.6446966899
 20
15.325192684
 10
15.6617832712
 20
15.3298643893
 10
15.6795002833
 20
15.3336739385
 10
15.6977174721
 20
15.3365933241
 10
15.7163009066
 20
15.3386010829
 10
15.7351139631
 20
15.3396824543
 10
15.7540183296
 20
15.3398294879
 10
15.7728750231
 20
15.3390411029
 10
15.7915454108
 20
15.3373230954
 10
15.8098922298
 20
15.3346880959
 10
15.8277805958
 20
15.3311554769
 10
15.8450789954
 20
15.3267512097
  0
LWPOLYLINE
  5
17C
330
1F
100
AcDbEntity
  8
0
  6
Continuous
 62
     7
370
    25
100
AcDbPolyline
 90
       50
 70
   128
 43
0.0
 10
15.6969403896
 20
15.1588954422
 10
15.7067123578
 20
15.1539348642
 10
15.7175029344
 20
15.1497363979
 10
15.7291349385
 20
15.1463689819
 10
15.741417373
 20
15.1438879092
 10
15.7541485605
 20
15.1423339189
 10
15.7671194554
 20
15.1417325274
 10
15.7801170758
 20
15.1420936096
 10
15.7929280013
 20
15.1434112366
 10
15.8053418768
 20
15.145663773
 10
15.8171548669
 20
15.148814232
 10
15.8281730024
 20
15.1528108834
 10
15.838215366
 20
15.1575881022
 10
15.8471170623
 20
15.1630674466
 10
15.8547319257
 20
15.1691589459
 10
15.8609349204
 20
15.1757625779
 10
15.8656241933
 20
15.1827699111
 10
15.8687227468
 20
15.1900658853
 10
15.8701797027
 20
15.1975307008
 10
15.8699711377
 20
15.2050417856
 10
15.8681004766
 20
15.2124758077
 10
15.8645984355
 20
15.2197107009
 10
15.8595225178
 20
15.2266276683
 10
15.85295607
 20
15.2331131335
 10
15.845006913
 20
15.2390606055
 10
15.8358055717
 20
15.2443724267
 10
15.8255031319
 20
15.2489613774
 10
15.8142687593
 20
15.252752107
 10
15.802286922
 20
15.2556823719
 10
15.7897543615
 20
15.2577040572
 10
15.7768768621
 20
15.2587839669
 10
15.763865872
 20
15.2589043689
 10
15.7509350312
 20
15.2580632862
 10
15.7382966638
 20
15.2562745293
 10
15.7261582915
 20
15.2535674697
 10
15.7147192259
 20
15.2499865571
 10
15.7041672963
 20
15.24559059
 10
15.694675765
 20
15.2404517501
 10
15.6864004826
 20
15.234654417
 10
15.6794773292
 20
15.2282937827
 10
15.6740199827
 20
15.2214742888
 10
15.6701180526
 20
15.214307911
 10
15.6678356084
 20
15.2069123211
 10
15.6672101278
 20
15.1994089545
 10
15.6682518812
 20
15.1919210163
 10
15.6709437631
 20
15.1845714582
 10
15.6752415728
 20
15.1774809597
 10
15.6810747404
 20
15.1707659466
 10
15.6883474854
 20
15.1645366794
 10
15.6969403896
 20
15.1588954422
  0
LINE
  5
17D
330
1F
100
AcDbEntity
  8
0
  6
Continuous
 62
     7
370
    25
100
AcDbLine
 10
15.8450789954
 20
15.3267512097
 30
0.0
 11
15.8470713407
 21
15.5046391153
 31
0.0
  0
LINE
  5
17E
330
1F
100
AcDbEntity
  8
0
  6
Continuous
 62
     7
370
    25
100
AcDbLine
 10
16.3030145981
 20
15.1963463346
 30
0.0
 11
16.3050069435
 21
15.3742342402
 31
0.0
  0
LINE
  5
17F
330
1F
100
AcDbEntity
  8
0
  6
Continuous
 62
     7
370
    25
100
AcDbLine
 10
15.8470713407
 20
15.5046391153
 30
0.0
 11
16.3050069435
 21
15.3742342402
 31
0.0
  0
LWPOLYLINE
  5
180
330
1F
100
AcDbEntity
  8
0
  6
Continuous
 62
     7
370
    25
100
AcDbPolyline
 90
       25
 70
   128
 43
0.0
 10
15.5225585544
 20
15.3862273754
 10
15.5228910966
 20
15.3954672692
 10
15.5248025494
 20
15.4065496407
 10
15.5283515025
 20
15.4174967467
 10
15.5335118646
 20
15.4282281052
 10
15.540245697
 20
15.4386648202
 10
15.5485034932
 20
15.4487301619
 10
15.5582245426
 20
15.4583501309
 10
15.5693373771
 20
15.4674540019
 10
15.5817602959
 20
15.4759748442
 10
15.5954019671
 20
15.4838500133
 10
15.6101620982
 20
15.4910216117
 10
15.6259321741
 20
15.4974369145
 10
15.6425962546
 20
15.5030487569
 10
15.660031827
 20
15.5078158812
 10
15.6781107066
 20
15.5117032399
 10
15.6966999789
 20
15.5146822535
 10
15.7156629775
 20
15.5167310205
 10
15.734860288
 20
15.5178344787
 10
15.7541507736
 20
15.5179845155
 10
15.7733926124
 20
15.5171800279
 10
15.7924443402
 20
15.5154269303
 10
15.8111658904
 20
15.5127381113
 10
15.8294196238
 20
15.509133339
 10
15.8470713407
 20
15.5046391153
  0
ARC
  5
181
330
1F
100
AcDbEntity
  8
0
  6
Continuous
 62
     7
370
    25
100
AcDbCircle
 10
16.3600929498
 20
15.5720737756
 30
0.0
 40
0.2053654056884814
100
AcDbArc
 50
254.4407870642
 51
288.92755154
  0
LINE
  5
182
330
1F
100
AcDbEntity
  8
0
  6
Continuous
 62
     7
370
    25
100
AcDbLine
 10
15.5176144037
 20
14.0783989463
 30
0.0
 11
15.460054805
 21
14.0783989463
 31
0.0
  0
ELLIPSE
  5
183
330
1F
100
AcDbEntity
  8
0
  6
Continuous
 62
     7
370
    25
100
AcDbEllipse
 10
15.4625394143
 20
13.7011415392
 30
0.0
 11
-0.008553296050038739
 21
0.4999999893084226
 31
0.0
210
0.0
220
0.0
230
1.0
 40
0.0120889166
 41
4.014643856421618
 42
5.567096691544634
  0
ELLIPSE
  5
184
330
1F
100
AcDbEntity
  8
0
  6
Continuous
 62
     7
370
    25
100
AcDbEllipse
 10
19.6140241921
 20
13.7011415392
 30
0.0
 11
0.008553296050035186
 21
0.4999999893084262
 31
0.0
210
0.0
220
0.0
230
1.0
 40
0.0120889166
 41
0.7160886156353573
 42
2.268541450758792
  0
LINE
  5
185
330
1F
100
AcDbEntity
  8
0
  6
Continuous
 62
     7
370
    25
100
AcDbLine
 10
19.5589492026
 20
14.0783989463
 30
0.0
 11
19.6165088014
 21
14.0783989463
 31
0.0
  0
LINE
  5
186
330
1F
100
AcDbEntity
  8
0
  6
Continuous
 62
     7
370
    25
100
AcDbLine
 10
19.6307818032
 20
14.0657303327
 30
0.0
 11
19.6165088014
 21
13.5175904914
 31
0.0
  0
ELLIPSE
  5
187
330
1F
100
AcDbEntity
  8
0
  6
Continuous
 62
     7
370
    25
100
AcDbEllipse
 10
19.6140241921
 20
13.7011415392
 30
0.0
 11
0.008553296050035186
 21
0.4999999893084262
 31
0.0
210
0.0
220
0.0
230
1.0
 40
0.0120889166
 41
3.966999180946698
 42
4.336704103371776
  0
LINE
  5
188
330
1F
100
AcDbEntity
  8
0
  6
Continuous
 62
     7
370
    25
100
AcDbLine
 10
19.6165088014
 20
14.0783989463
 30
0.0
 11
19.6307818032
 21
14.6430180448
 31
0.0
  0
ELLIPSE
  5
189
330
1F
100
AcDbEntity
  8
0
  6
Continuous
 62
     7
370
    25
100
AcDbEllipse
 10
19.6140292971
 20
13.7013405411
 30
0.0
 11
0.006647363945003093
 21
0.3885848737549846
 31
0.0
210
0.0
220
0.0
230
1.0
 40
0.0120889158
 41
5.667989105817556
 42
8.846626758183453
  0
ELLIPSE
  5
18A
330
1F
100
AcDbEntity
  8
0
  6
Continuous
 62
     7
370
    25
100
AcDbEllipse
 10
19.6140292971
 20
13.7013405411
 30
0.0
 11
0.006647363945003093
 21
0.3885848737549846
 31
0.0
210
0.0
220
0.0
230
1.0
 40
0.0120889158
 41
3.67211094753404
 42
5.667989105817556
  0
LINE
  5
18B
330
1F
100
AcDbEntity
  8
0
  6
Continuous
 62
     7
370
    25
100
AcDbLine
 10
19.6307818032
 20
14.6430180448
 30
0.0
 11
19.6307818032
 21
14.0657303327
 31
0.0
  0
LINE
  5
18C
330
1F
100
AcDbEntity
  8
0
  6
Continuous
 62
     7
370
    25
100
AcDbLine
 10
15.4457818032
 20
14.6430180448
 30
0.0
 11
15.460054805
 21
14.0783989463
 31
0.0
  0
ELLIPSE
  5
18D
330
1F
100
AcDbEntity
  8
0
  6
Continuous
 62
     7
370
    25
100
AcDbEllipse
 10
15.4625394143
 20
13.7011415392
 30
0.0
 11
-0.008553296050038739
 21
0.4999999893084226
 31
0.0
210
0.0
220
0.0
230
1.0
 40
0.0120889166
 41
1.946481203808022
 42
2.316186126233176
  0
LINE
  5
18E
330
1F
100
AcDbEntity
  8
0
  6
Continuous
 62
     7
370
    25
100
AcDbLine
 10
15.460054805
 20
13.5175904914
 30
0.0
 11
15.4457818032
 21
14.0657303327
 31
0.0
  0
ELLIPSE
  5
18F
330
1F
100
AcDbEntity
  8
0
  6
Continuous
 62
     7
370
    25
100
AcDbEllipse
 10
15.4625343093
 20
13.7013405411
 30
0.0
 11
-0.006647363945006646
 21
0.3885848737549882
 31
0.0
210
0.0
220
0.0
230
1.0
 40
0.0120889158
 41
0.6151962013624891
 42
2.611074359646702
  0
ELLIPSE
  5
190
330
1F
100
AcDbEntity
  8
0
  6
Continuous
 62
     7
370
    25
100
AcDbEllipse
 10
15.4625343093
 20
13.7013405411
 30
0.0
 11
-0.006647363945006646
 21
0.3885848737549882
 31
0.0
210
0.0
220
0.0
230
1.0
 40
0.0120889158
 41
3.719743856176204
 42
6.898381508542066
  0
LINE
  5
191
330
1F
100
AcDbEntity
  8
0
  6
Continuous
 62
     7
370
    25
100
AcDbLine
 10
15.4457818032
 20
14.0657303327
 30
0.0
 11
15.4457818032
 21
14.6430180448
 31
0.0
  0
LINE
  5
192
330
1F
100
AcDbEntity
  8
0
  6
Continuous
 62
     7
370
    25
100
AcDbLine
 10
19.570166704
 20
14.6430180448
 30
0.0
 11
19.6307818032
 21
14.6430180448
 31
0.0
  0
LINE
  5
193
330
1F
100
AcDbEntity
  8
0
  6
Continuous
 62
     7
370
    25
100
AcDbLine
 10
15.5063969024
 20
14.6430180448
 30
0.0
 11
15.4457818032
 21
14.6430180448
 31
0.0
  0
LWPOLYLINE
  5
194
330
1F
100
AcDbEntity
  8
0
  6
Continuous
 62
     7
370
    25
100
AcDbPolyline
 90
      118
 70
   128
 43
0.0
 10
19.6877730425
 20
12.9678341184
 10
19.6882691583
 20
12.9990905475
 10
19.6872576432
 20
13.0331390235
 10
19.6846284465
 20
13.0671586644
 10
19.6803835474
 20
13.1011238614
 10
19.6745261412
 20
13.1350090465
 10
19.6670606372
 20
13.1687887121
 10
19.6579926552
 20
13.2024374298
 10
19.6473290214
 20
13.2359298699
 10
19.6350777629
 20
13.2692408204
 10
19.6212481022
 20
13.3023452059
 10
19.6058504497
 20
13.3352181064
 10
19.5888963963
 20
13.3678347762
 10
19.5703987046
 20
13.4001706625
 10
19.5503712989
 20
13.4322014239
 10
19.5288292554
 20
13.4639029486
 10
19.5057887901
 20
13.4952513727
 10
19.4812672472
 20
13.526223098
 10
19.4552830858
 20
13.5567948102
 10
19.4278558659
 20
13.5869434956
 10
19.3990062339
 20
13.6166464594
 10
19.3687559069
 20
13.6458813421
 10
19.3371276563
 20
13.6746261365
 10
19.304145291
 20
13.7028592045
 10
19.269833639
 20
13.7305592931
 10
19.234218529
 20
13.7577055506
 10
19.1973267711
 20
13.7842775422
 10
19.159186136
 20
13.8102552651
 10
19.1198253351
 20
13.8356191643
 10
19.0792739977
 20
13.8603501466
 10
19.0375626497
 20
13.8844295953
 10
18.99472269
 20
13.907839384
 10
18.9507863674
 20
13.9305618908
 10
18.9057867555
 20
13.9525800107
 10
18.8597577288
 20
13.9738771693
 10
18.8127339365
 20
13.9944373346
 10
18.7647507765
 20
14.0142450297
 10
18.7158443691
 20
14.0332853439
 10
18.6660515296
 20
14.0515439443
 10
18.6154097403
 20
14.0690070864
 10
18.5639571229
 20
14.0856616244
 10
18.5117324093
 20
14.1014950215
 10
18.4587749125
 20
14.1164953586
 10
18.4051244974
 20
14.1306513439
 10
18.3508215503
 20
14.1439523214
 10
18.2959069488
 20
14.1563882785
 10
18.2404220308
 20
14.1679498536
 10
18.1844085636
 20
14.1786283438
 10
18.1279087125
 20
14.1884157105
 10
18.0709650087
 20
14.197304586
 10
18.0136203176
 20
14.2052882793
 10
17.9559178067
 20
14.2123607802
 10
17.8979009124
 20
14.218516765
 10
17.8396133082
 20
14.2237515996
 10
17.781098871
 20
14.2280613433
 10
17.7224016488
 20
14.2314427519
 10
17.6635658269
 20
14.23389328
 10
17.6046356952
 20
14.235411083
 10
17.5456556143
 20
14.2359950182
 10
17.4866699826
 20
14.2356446461
 10
17.4277232027
 20
14.2343602304
 10
17.3688596479
 20
14.232142738
 10
17.3101236287
 20
14.2289938383
 10
17.2515593599
 20
14.2249159014
 10
17.1932109267
 20
14.2199119973
 10
17.135122252
 20
14.2139858927
 10
17.0773370633
 20
14.2071420485
 10
17.0198988593
 20
14.1993856166
 10
16.9628508777
 20
14.1907224359
 10
16.9062360625
 20
14.1811590276
 10
16.8500970315
 20
14.1707025908
 10
16.7944760444
 20
14.1593609968
 10
16.739414971
 20
14.1471427832
 10
16.6849552595
 20
14.1340571475
 10
16.6311379054
 20
14.1201139401
 10
16.5780034209
 20
14.105323657
 10
16.5255918038
 20
14.0896974319
 10
16.473942508
 20
14.0732470277
 10
16.4230944135
 20
14.0559848279
 10
16.3730857971
 20
14.0379238267
 10
16.3239543037
 20
14.01907762
 10
16.275736918
 20
13.9994603947
 10
16.2284699365
 20
13.9790869178
 10
16.1821889403
 20
13.9579725261
 10
16.1369287684
 20
13.9361331136
 10
16.092723491
 20
13.9135851205
 10
16.0496063847
 20
13.8903455201
 10
16.0076099065
 20
13.8664318066
 10
15.9667656702
 20
13.8418619813
 10
15.9271044219
 20
13.8166545397
 10
15.8886560175
 20
13.7908284572
 10
15.8514493997
 20
13.7644031748
 10
15.8155125764
 20
13.7373985847
 10
15.7808725998
 20
13.709835015
 10
15.7475555457
 20
13.6817332147
 10
15.7155864943
 20
13.6531143381
 10
15.6849895107
 20
13.6239999285
 10
15.6557876275
 20
13.5944119023
 10
15.6280028269
 20
13.5643725324
 10
15.6016560244
 20
13.5339044316
 10
15.5767670531
 20
13.5030305352
 10
15.5533546486
 20
13.4717740843
 10
15.5314364351
 20
13.4401586075
 10
15.5110289119
 20
13.4082079042
 10
15.4921474411
 20
13.3759460258
 10
15.4748062361
 20
13.343397258
 10
15.4590183508
 20
13.3105861025
 10
15.4447956699
 20
13.2775372585
 10
15.4321488997
 20
13.2442756042
 10
15.4210875603
 20
13.2108261778
 10
15.4116199784
 20
13.1772141591
 10
15.4037532809
 20
13.1434648502
 10
15.3974933895
 20
13.1096036564
 10
15.3928450166
 20
13.0756560674
 10
15.3898116612
 20
13.0416476378
 10
15.3883956068
 20
13.0076039683
 10
15.3885979193
 20
12.9735506857
 10
15.3887905639
 20
12.9678341184
  0
LWPOLYLINE
  5
195
330
1F
100
AcDbEntity
  8
0
  6
Continuous
 62
     7
370
    25
100
AcDbPolyline
 90
      117
 70
   128
 43
0.0
 10
19.6882818032
 20
13.0356607776
 10
19.6882691583
 20
13.0399175881
 10
19.6872576432
 20
13.0739660641
 10
19.6846284465
 20
13.107985705
 10
19.6803835474
 20
13.141950902
 10
19.6745261412
 20
13.1758360871
 10
19.6670606372
 20
13.2096157527
 10
19.6579926552
 20
13.2432644704
 10
19.6473290214
 20
13.2767569105
 10
19.6350777629
 20
13.310067861
 10
19.6212481022
 20
13.3431722465
 10
19.6058504497
 20
13.376045147
 10
19.5888963963
 20
13.4086618168
 10
19.5703987046
 20
13.4409977031
 10
19.5503712989
 20
13.4730284645
 10
19.5288292554
 20
13.5047299892
 10
19.5057887901
 20
13.5360784133
 10
19.4812672472
 20
13.5670501386
 10
19.4552830858
 20
13.5976218508
 10
19.4278558659
 20
13.6277705362
 10
19.3990062339
 20
13.6574735
 10
19.3687559069
 20
13.6867083827
 10
19.3371276563
 20
13.7154531771
 10
19.304145291
 20
13.7436862451
 10
19.269833639
 20
13.7713863337
 10
19.234218529
 20
13.7985325912
 10
19.1973267711
 20
13.8251045828
 10
19.159186136
 20
13.8510823057
 10
19.1198253351
 20
13.8764462049
 10
19.0792739977
 20
13.9011771872
 10
19.0375626497
 20
13.9252566358
 10
18.99472269
 20
13.9486664246
 10
18.9507863674
 20
13.9713889314
 10
18.9057867555
 20
13.9934070513
 10
18.8597577288
 20
14.0147042098
 10
18.8127339365
 20
14.0352643752
 10
18.7647507765
 20
14.0550720703
 10
18.7158443691
 20
14.0741123845
 10
18.6660515296
 20
14.0923709849
 10
18.6154097403
 20
14.109834127
 10
18.5639571229
 20
14.126488665
 10
18.5117324093
 20
14.1423220621
 10
18.4587749125
 20
14.1573223991
 10
18.4051244974
 20
14.1714783845
 10
18.3508215503
 20
14.184779362
 10
18.2959069488
 20
14.1972153191
 10
18.2404220308
 20
14.2087768942
 10
18.1844085636
 20
14.2194553844
 10
18.1279087125
 20
14.2292427511
 10
18.0709650087
 20
14.2381316266
 10
18.0136203176
 20
14.2461153199
 10
17.9559178067
 20
14.2531878208
 10
17.8979009124
 20
14.2593438056
 10
17.8396133082
 20
14.2645786402
 10
17.781098871
 20
14.2688883839
 10
17.7224016488
 20
14.2722697925
 10
17.6635658269
 20
14.2747203206
 10
17.6046356952
 20
14.2762381236
 10
17.5456556143
 20
14.2768220588
 10
17.4866699826
 20
14.2764716867
 10
17.4277232027
 20
14.275187271
 10
17.3688596479
 20
14.2729697786
 10
17.3101236287
 20
14.2698208788
 10
17.2515593599
 20
14.265742942
 10
17.1932109267
 20
14.2607390379
 10
17.135122252
 20
14.2548129333
 10
17.0773370633
 20
14.2479690891
 10
17.0198988593
 20
14.2402126572
 10
16.9628508777
 20
14.2315494765
 10
16.9062360625
 20
14.2219860682
 10
16.8500970315
 20
14.2115296314
 10
16.7944760444
 20
14.2001880374
 10
16.739414971
 20
14.1879698238
 10
16.6849552595
 20
14.1748841881
 10
16.6311379054
 20
14.1609409806
 10
16.5780034209
 20
14.1461506976
 10
16.5255918038
 20
14.1305244725
 10
16.473942508
 20
14.1140740683
 10
16.4230944135
 20
14.0968118685
 10
16.3730857971
 20
14.0787508673
 10
16.3239543037
 20
14.0599046606
 10
16.275736918
 20
14.0402874353
 10
16.2284699365
 20
14.0199139584
 10
16.1821889403
 20
13.9987995667
 10
16.1369287684
 20
13.9769601542
 10
16.092723491
 20
13.9544121611
 10
16.0496063847
 20
13.9311725607
 10
16.0076099065
 20
13.9072588472
 10
15.9667656702
 20
13.8826890219
 10
15.9271044219
 20
13.8574815803
 10
15.8886560175
 20
13.8316554978
 10
15.8514493997
 20
13.8052302154
 10
15.8155125764
 20
13.7782256253
 10
15.7808725998
 20
13.7506620556
 10
15.7475555457
 20
13.7225602553
 10
15.7155864943
 20
13.6939413787
 10
15.6849895107
 20
13.6648269691
 10
15.6557876275
 20
13.6352389429
 10
15.6280028269
 20
13.605199573
 10
15.6016560244
 20
13.5747314722
 10
15.5767670531
 20
13.5438575758
 10
15.5533546486
 20
13.5126011249
 10
15.5314364351
 20
13.4809856481
 10
15.5110289119
 20
13.4490349448
 10
15.4921474411
 20
13.4167730664
 10
15.4748062361
 20
13.3842242986
 10
15.4590183508
 20
13.3514131431
 10
15.4447956699
 20
13.3183642991
 10
15.4321488997
 20
13.2851026448
 10
15.4210875603
 20
13.2516532184
 10
15.4116199784
 20
13.2180411997
 10
15.4037532809
 20
13.1842918908
 10
15.3974933895
 20
13.150430697
 10
15.3928450166
 20
13.116483108
 10
15.3898116612
 20
13.0824746784
 10
15.3883956068
 20
13.0484310089
 10
15.3882818032
 20
13.0356607776
  0
LINE
  5
196
330
1F
100
AcDbEntity
  8
0
  6
Continuous
 62
     7
370
    25
100
AcDbLine
 10
15.4897926067
 20
12.7449573324
 30
0.0
 11
15.4884022326
 21
12.5430491907
 31
0.0
  0
SPLINE
  5
197
330
1F
100
AcDbEntity
  8
0
  6
Continuous
 62
     7
370
    25
100
AcDbSpline
210
0.0
220
0.0
230
1.0
 70
     8
 71
     3
 72
    18
 73
    14
 74
     0
 42
0.00000001
 43
0.00000001
 40
0.0
 40
0.0
 40
0.0
 40
0.0
 40
0.0356841948873917
 40
0.1294161491364458
 40
0.2231483629253466
 40
0.3168022953396892
 40
0.4104551932609345
 40
0.5068576862139845
 40
0.6032579311397341
 40
0.7007664701202294
 40
0.7982725500132981
 40
0.8991369684609942
 40
0.9999999999999999
 40
0.9999999999999999
 40
0.9999999999999999
 40
0.9999999999999999
 10
15.44340377146494
 20
12.96736310257644
 30
0.0
 10
15.44415844720964
 20
12.96748217223179
 30
0.0
 10
15.44689543564481
 20
12.96791400308359
 30
0.0
 10
15.45192131340836
 20
12.9643920348849
 30
0.0
 10
15.45824919073494
 20
12.95680930115927
 30
0.0
 10
15.46448212286848
 20
12.94487203020553
 30
0.0
 10
15.47046312598264
 20
12.92886661436886
 30
0.0
 10
15.475990997931
 20
12.90862028714477
 30
0.0
 10
15.48088054709056
 20
12.88409449192407
 30
0.0
 10
15.48488192401731
 20
12.85556136737884
 30
0.0
 10
15.4878462107212
 20
12.82277867102882
 30
0.0
 10
15.48968381310094
 20
12.78618464877125
 30
0.0
 10
15.48975634230486
 20
12.75869970819536
 30
0.0
 10
15.4897926066575
 20
12.74495733238911
 30
0.0
  0
SPLINE
  5
198
330
1F
100
AcDbEntity
  8
0
  6
Continuous
 62
     7
370
    25
100
AcDbSpline
210
0.0
220
0.0
230
1.0
 70
     8
 71
     3
 72
    18
 73
    14
 74
     0
 42
0.00000001
 43
0.00000001
 40
0.0
 40
0.0
 40
0.0
 40
0.0
 40
0.0905894371385622
 40
0.1811797089237022
 40
0.2744668279908641
 40
0.3677559400294798
 40
0.4583210321735584
 40
0.5488879623146978
 40
0.6419669058200903
 40
0.7350471119677923
 40
0.8277500582151416
 40
0.9204530405279889
 40
1.0
 40
1.0
 40
1.0
 40
1.0
 10
19.58677099973721
 20
12.74495733238911
 30
0.0
 10
19.58679057567738
 20
12.75732705610974
 30
0.0
 10
19.58682972773809
 20
12.78206661751956
 30
0.0
 10
19.58832009613209
 20
12.81613162981744
 30
0.0
 10
19.59084191556049
 20
12.84762894873647
 30
0.0
 10
19.59437984567677
 20
12.87575873821179
 30
0.0
 10
19.59873674383343
 20
12.90017044783169
 30
0.0
 10
19.6037813729979
 20
12.92105240941865
 30
0.0
 10
19.6094266749459
 20
12.93836996445817
 30
0.0
 10
19.61549750587341
 20
12.95195734813699
 30
0.0
 10
19.62174837962636
 20
12.96141311314689
 30
0.0
 10
19.6277365102371
 20
12.96700650501749
 30
0.0
 10
19.6314590949947
 20
12.96736721098894
 30
0.0
 10
19.63317822648336
 20
12.96753378906146
 30
0.0
  0
LINE
  5
199
330
1F
100
AcDbEntity
  8
0
  6
Continuous
 62
     7
370
    25
100
AcDbLine
 10
19.5881607341
 20
12.5431420879
 30
0.0
 11
19.5867709997
 21
12.7449573324
 31
0.0
  0
SPLINE
  5
19A
330
1F
100
AcDbEntity
  8
0
  6
Continuous
 62
     7
370
    25
100
AcDbSpline
210
0.0
220
0.0
230
1.0
 70
     8
 71
     3
 72
    10
 73
     6
 74
     0
 42
0.00000001
 43
0.00000001
 40
0.0
 40
0.0
 40
0.0
 40
0.0
 40
0.1796652839518743
 40
0.9315712438045584
 40
0.9999999999999999
 40
0.9999999999999999
 40
0.9999999999999999
 40
0.9999999999999999
 10
15.42704018601678
 20
13.06780303798985
 30
0.0
 10
15.42641993111587
 20
13.06365670995464
 30
0.0
 10
15.42320388616382
 20
13.04215784339554
 30
0.0
 10
15.42142424409529
 20
13.0189839879806
 30
0.0
 10
15.42151992275573
 20
12.99998130058098
 30
0.0
 10
15.42152790385369
 20
12.99839617899867
 30
0.0
  0
SPLINE
  5
19B
330
1F
100
AcDbEntity
  8
0
  6
Continuous
 62
     7
370
    25
100
AcDbSpline
210
0.0
220
0.0
230
1.0
 70
     8
 71
     3
 72
     9
 73
     5
 74
     0
 42
0.00000001
 43
0.00000001
 40
0.0
 40
0.0
 40
0.0
 40
0.0
 40
0.466519172484359
 40
1.0
 40
1.0
 40
1.0
 40
1.0
 10
19.65477902159332
 20
12.99839069844736
 30
0.0
 10
19.65455529012663
 20
13.00925072485184
 30
0.0
 10
19.65407571398081
 20
13.03252956749113
 30
0.0
 10
19.65103983344974
 20
13.05574504389429
 30
0.0
 10
19.64942024939179
 20
13.06813005545701
 30
0.0
  0
LWPOLYLINE
  5
19C
330
1F
100
AcDbEntity
  8
0
  6
Continuous
 62
     7
370
    25
100
AcDbPolyline
 90
       59
 70
   128
 43
0.0
 10
16.9432818032
 20
13.6530309035
 10
16.9459836852
 20
13.6782703521
 10
16.9502902548
 20
13.7033608158
 10
16.9561898442
 20
13.7282343181
 10
16.9636664699
 20
13.7528234704
 10
16.972699876
 20
13.7770616543
 10
16.9832655885
 20
13.8008832023
 10
16.9953349823
 20
13.8242235759
 10
17.0088753582
 20
13.8470195398
 10
17.0238500319
 20
13.8692093341
 10
17.0402184332
 20
13.8907328408
 10
17.0579362159
 20
13.9115317473
 10
17.076955378
 20
13.931549704
 10
17.0972243916
 20
13.9507324772
 10
17.1186883429
 20
13.9690280957
 10
17.1412890804
 20
13.986386992
 10
17.1649653731
 20
14.0027621365
 10
17.1896530756
 20
14.0181091647
 10
17.2152853028
 20
14.0323864976
 10
17.2417926103
 20
14.0455554541
 10
17.2691031831
 20
14.0575803562
 10
17.2971430297
 20
14.0684286254
 10
17.3258361832
 20
14.0780708709
 10
17.3551049063
 20
14.0864809695
 10
17.3848699025
 20
14.0936361359
 10
17.415050531
 20
14.0995169851
 10
17.4455650246
 20
14.1041075842
 10
17.4763307117
 20
14.1073954962
 10
17.5072642402
 20
14.1093718133
 10
17.5382818032
 20
14.1100311812
 10
17.5692993662
 20
14.1093718133
 10
17.6002328947
 20
14.1073954962
 10
17.6309985818
 20
14.1041075842
 10
17.6615130754
 20
14.0995169851
 10
17.6916937039
 20
14.0936361359
 10
17.7214587001
 20
14.0864809695
 10
17.7507274232
 20
14.0780708709
 10
17.7794205767
 20
14.0684286254
 10
17.8074604233
 20
14.0575803562
 10
17.8347709961
 20
14.0455554541
 10
17.8612783036
 20
14.0323864976
 10
17.8869105308
 20
14.0181091647
 10
17.9115982333
 20
14.0027621365
 10
17.935274526
 20
13.986386992
 10
17.9578752635
 20
13.9690280957
 10
17.9793392148
 20
13.9507324772
 10
17.9996082284
 20
13.931549704
 10
18.0186273905
 20
13.9115317473
 10
18.0363451732
 20
13.8907328408
 10
18.0527135745
 20
13.8692093341
 10
18.0676882482
 20
13.8470195398
 10
18.0812286241
 20
13.8242235759
 10
18.0932980179
 20
13.8008832023
 10
18.1038637304
 20
13.7770616543
 10
18.1128971365
 20
13.7528234704
 10
18.1203737622
 20
13.7282343181
 10
18.1262733516
 20
13.7033608158
 10
18.1305799212
 20
13.6782703521
 10
18.1332818032
 20
13.6530309035
  0
LINE
  5
19D
330
1F
100
AcDbEntity
  8
0
  6
Continuous
 62
     7
370
    25
100
AcDbLine
 10
18.1332818032
 20
13.6530309035
 30
0.0
 11
18.1739755803
 21
13.1104177133
 31
0.0
  0
LINE
  5
19E
330
1F
100
AcDbEntity
  8
0
  6
Continuous
 62
     7
370
    25
100
AcDbLine
 10
16.9025837536
 20
13.1103607439
 30
0.0
 11
16.9432818032
 21
13.6530309035
 31
0.0
  0
LINE
  5
19F
330
1F
100
AcDbEntity
  8
0
  6
Continuous
 62
     7
370
    25
100
AcDbLine
 10
19.5867709997
 20
12.7449573324
 30
0.0
 11
19.7062818032
 21
12.7449573324
 31
0.0
  0
LINE
  5
1A0
330
1F
100
AcDbEntity
  8
0
  6
Continuous
 62
     7
370
    25
100
AcDbLine
 10
19.7062818032
 20
12.4368319673
 30
0.0
 11
19.7062818032
 21
12.7449573324
 31
0.0
  0
LINE
  5
1A1
330
1F
100
AcDbEntity
  8
0
  6
Continuous
 62
     7
370
    25
100
AcDbLine
 10
15.3702818032
 20
12.7449573324
 30
0.0
 11
15.3702818032
 21
12.436904463
 31
0.0
  0
LINE
  5
1A2
330
1F
100
AcDbEntity
  8
0
  6
Continuous
 62
     7
370
    25
100
AcDbLine
 10
15.4897926067
 20
12.7449573324
 30
0.0
 11
15.3702818032
 21
12.7449573324
 31
0.0
  0
LINE
  5
1A3
330
1F
100
AcDbEntity
  8
0
  6
Continuous
 62
     7
370
    25
100
AcDbLine
 10
19.7062818032
 20
12.7449573324
 30
0.0
 11
19.7062818032
 21
12.9678341184
 31
0.0
  0
LINE
  5
1A4
330
1F
100
AcDbEntity
  8
0
  6
Continuous
 62
     7
370
    25
100
AcDbLine
 10
15.3702818032
 20
12.9678341184
 30
0.0
 11
15.3702818032
 21
12.7449573324
 31
0.0
  0
LINE
  5
1A5
330
1F
100
AcDbEntity
  8
0
  6
Continuous
 62
     7
370
    25
100
AcDbLine
 10
19.6058896037
 20
13.4643428313
 30
0.0
 11
19.6058896037
 21
13.3759658775
 31
0.0
  0
ARC
  5
1A6
330
1F
100
AcDbEntity
  8
0
  6
Continuous
 62
     7
370
    25
100
AcDbCircle
 10
17.5382818032
 20
15.0571729204
 30
0.0
 40
0.4992893982366338
100
AcDbArc
 50
253.8241958456
 51
286.1758041543
  0
LINE
  5
1A7
330
1F
100
AcDbEntity
  8
0
  6
Continuous
 62
     7
370
    25
100
AcDbLine
 10
17.5874698788
 20
14.890442484
 30
0.0
 11
17.7638641981
 21
15.0067301057
 31
0.0
  0
ARC
  5
1A8
330
1F
100
AcDbEntity
  8
0
  6
Continuous
 62
     7
370
    25
100
AcDbCircle
 10
17.5794105993
 20
14.8683245173
 30
0.0
 40
0.2306062379822209
100
AcDbArc
 50
36.882894804
 51
52.4697596108
  0
LINE
  5
1A9
330
1F
100
AcDbEntity
  8
0
  6
Continuous
 62
     7
370
    25
100
AcDbLine
 10
17.7198913239
 20
15.051202627
 30
0.0
 11
17.5434970046
 21
14.9349150053
 31
0.0
  0
LINE
  5
1AA
330
1F
100
AcDbEntity
  8
0
  6
Continuous
 62
     7
370
    25
100
AcDbLine
 10
17.5434970046
 20
14.9349150053
 30
0.0
 11
17.4011034768
 21
15.078926497
 31
0.0
  0
ARC
  5
1AB
330
1F
100
AcDbEntity
  8
0
  6
Continuous
 62
     7
370
    25
100
AcDbCircle
 10
17.5166953509
 20
14.8443949925
 30
0.0
 40
0.261469898776475
100
AcDbArc
 50
116.236976935
 51
130.5688181177
  0
LINE
  5
1AC
330
1F
100
AcDbEntity
  8
0
  6
Continuous
 62
     7
370
    25
100
AcDbLine
 10
17.3466455508
 20
15.0430141594
 30
0.0
 11
17.4890324626
 21
14.8990093589
 31
0.0
  0
LINE
  5
1AD
330
1F
100
AcDbEntity
  8
0
  6
Continuous
 62
     7
370
    25
100
AcDbLine
 10
17.4890324626
 20
14.8990093589
 30
0.0
 11
17.3126994083
 21
14.7827621261
 31
0.0
  0
ARC
  5
1AE
330
1F
100
AcDbEntity
  8
0
  6
Continuous
 62
     7
370
    25
100
AcDbCircle
 10
17.4971530071
 20
14.9211677145
 30
0.0
 40
0.2306062379832843
100
AcDbArc
 50
216.8828948041
 51
232.4697596108
  0
LINE
  5
1AF
330
1F
100
AcDbEntity
  8
0
  6
Continuous
 62
     7
370
    25
100
AcDbLine
 10
17.3566722825
 20
14.7382896047
 30
0.0
 11
17.5330053368
 21
14.8545368376
 31
0.0
  0
LINE
  5
1B0
330
1F
100
AcDbEntity
  8
0
  6
Continuous
 62
     7
370
    25
100
AcDbLine
 10
17.5330053368
 20
14.8545368376
 30
0.0
 11
17.6753922487
 21
14.7105320371
 31
0.0
  0
ARC
  5
1B1
330
1F
100
AcDbEntity
  8
0
  6
Continuous
 62
     7
370
    25
100
AcDbCircle
 10
17.5598439811
 20
14.9451341006
 30
0.0
 40
0.2615139199472455
100
AcDbArc
 50
296.2215731938
 51
310.5518021904
  0
LINE
  5
1B2
330
1F
100
AcDbEntity
  8
0
  6
Continuous
 62
     7
370
    25
100
AcDbLine
 10
17.7298634067
 20
14.7464309923
 30
0.0
 11
17.5874698788
 21
14.890442484
 31
0.0
  0
LINE
  5
1B3
330
1F
100
AcDbEntity
  8
0
  6
Continuous
 62
     7
370
    25
100
AcDbLine
 10
17.4890324626
 20
14.8585992191
 30
0.0
 11
17.3350931931
 21
14.7571150465
 31
0.0
  0
ARC
  5
1B4
330
1F
100
AcDbEntity
  8
0
  6
Continuous
 62
     7
370
    25
100
AcDbCircle
 10
17.5207075288
 20
14.7970287009
 30
0.0
 40
0.2694836125288909
100
AcDbArc
 50
116.3483028
 51
124.1613229434
  0
LINE
  5
1B5
330
1F
100
AcDbEntity
  8
0
  6
Continuous
 62
     7
370
    25
100
AcDbLine
 10
17.5434970046
 20
14.8945048655
 30
0.0
 11
17.4011034768
 21
15.0385163572
 31
0.0
  0
LINE
  5
1B6
330
1F
100
AcDbEntity
  8
0
  6
Continuous
 62
     7
370
    25
100
AcDbLine
 10
17.7198913239
 20
15.0107924872
 30
0.0
 11
17.5434970046
 21
14.8945048655
 31
0.0
  0
ARC
  5
1B7
330
1F
100
AcDbEntity
  8
0
  6
Continuous
 62
     7
370
    25
100
AcDbCircle
 10
17.57267512
 20
14.8202620949
 30
0.0
 40
0.2407788218952041
100
AcDbArc
 50
45.4895944181
 51
52.3079863994
  0
LINE
  5
1B8
330
1F
100
AcDbEntity
  8
0
  6
Continuous
 62
     7
370
    25
100
AcDbLine
 10
17.7071173138
 20
14.7290254006
 30
0.0
 11
17.5874698788
 21
14.8500323442
 31
0.0
  0
LINE
  5
1B9
330
1F
100
AcDbEntity
  8
0
  6
Continuous
 62
     7
370
    25
100
AcDbLine
 10
17.5874698788
 20
14.8500323442
 30
0.0
 11
17.5874698788
 21
14.890442484
 31
0.0
  0
LINE
  5
1BA
330
1F
100
AcDbEntity
  8
0
  6
Continuous
 62
     7
370
    25
100
AcDbLine
 10
17.4890324626
 20
14.8585992191
 30
0.0
 11
17.4890324626
 21
14.8990093589
 31
0.0
  0
LINE
  5
1BB
330
1F
100
AcDbEntity
  8
0
  6
Continuous
 62
     7
370
    25
100
AcDbLine
 10
17.5434970046
 20
14.8945048655
 30
0.0
 11
17.5434970046
 21
14.9349150053
 31
0.0
  0
LINE
  5
1BC
330
1F
100
AcDbEntity
  8
0
  6
Continuous
 62
     7
370
    25
100
AcDbLine
 10
17.4011034768
 20
15.0385163572
 30
0.0
 11
17.4011034768
 21
15.078926497
 31
0.0
  0
LINE
  5
1BD
330
1F
100
AcDbEntity
  8
0
  6
Continuous
 62
     7
370
    25
100
AcDbLine
 10
17.7198913239
 20
15.0107924872
 30
0.0
 11
17.7198913239
 21
15.051202627
 31
0.0
  0
LINE
  5
1BE
330
1F
100
AcDbEntity
  8
0
  6
Continuous
 62
     7
370
    25
100
AcDbLine
 10
15.4706740027
 20
13.3759658775
 30
0.0
 11
15.4706740027
 21
13.4643428313
 31
0.0
  0
LWPOLYLINE
  5
1BF
330
1F
100
AcDbEntity
  8
0
  6
Continuous
 62
     7
370
    25
100
AcDbPolyline
 90
       72
 70
   128
 43
0.0
 10
18.9697852336
 20
12.0823469122
 10
18.974999435
 20
12.0924010215
 10
18.9786539942
 20
12.1026818197
 10
18.9807203094
 20
12.1131088457
 10
18.9811822088
 20
12.1236004938
 10
18.9800360774
 20
12.1340746527
 10
18.9772908853
 20
12.1444493478
 10
18.9729681173
 20
12.1546433832
 10
18.9671016049
 20
12.1645769766
 10
18.9597372616
 20
12.1741723843
 10
18.9509327233
 20
12.1833545091
 10
18.9407568974
 20
12.1920514885
 10
18.9292894237
 20
12.2001952568
 10
18.9166200506
 20
12.2077220781
 10
18.9028479332
 20
12.2145730446
 10
18.8880808569
 20
12.2206945383
 10
18.8724343942
 20
12.2260386503
 10
18.8560309998
 20
12.2305635555
 10
18.8389990525
 20
12.2342338406
 10
18.8214718504
 20
12.2370207805
 10
18.8035865677
 20
12.2389025636
 10
18.7854831809
 20
12.2398644624
 10
18.7673033735
 20
12.2398989489
 10
18.7491894273
 20
12.239005753
 10
18.7312831083
 20
12.2371918652
 10
18.7137245579
 20
12.2344714817
 10
18.6966511954
 20
12.2308658932
 10
18.6801966432
 20
12.2264033182
 10
18.6644896803
 20
12.2211186826
 10
18.6496532351
 20
12.2150533456
 10
18.6358034228
 20
12.2082547769
 10
18.6230486371
 20
12.2007761843
 10
18.6114887013
 20
12.1926760982
 10
18.6012140878
 20
12.1840179125
 10
18.5923052092
 20
12.1748693894
 10
18.5848317896
 20
12.1653021284
 10
18.5788523186
 20
12.1553910064
 10
18.5744135938
 20
12.1452135912
 10
18.5715503542
 20
12.1348495351
 10
18.5702850084
 20
12.1243799507
 10
18.5706274596
 20
12.1138867767
 10
18.5725750276
 20
12.1034521366
 10
18.57611247
 20
12.0931576954
 10
18.5812121016
 20
12.0830840211
 10
18.5878340108
 20
12.073309954
 10
18.5959263722
 20
12.0639119892
 10
18.6054258521
 20
12.0549636788
 10
18.6162581042
 20
12.0465350552
 10
18.6283383514
 20
12.0386920839
 10
18.6415720495
 20
12.0314961469
 10
18.6558556267
 20
12.025003562
 10
18.6710772948
 20
12.0192651425
 10
18.6871179235
 20
12.0143257994
 10
18.7038519732
 20
12.0102241897
 10
18.7211484772
 20
12.006992414
 10
18.738872067
 20
12.0046557655
 10
18.7568840314
 20
12.0032325315
 10
18.7750434024
 20
12.0027338508
 10
18.7932080583
 20
12.0031636262
 10
18.811235836
 20
12.0045184941
 10
18.8289856437
 20
12.0067878509
 10
18.8463185652
 20
12.0099539358
 10
18.8630989467
 20
12.0139919699
 10
18.8791954591
 20
12.01887035
 10
18.8944821254
 20
12.0245508963
 10
18.9088393065
 20
12.0309891507
 10
18.9221546382
 20
12.0381347252
 10
18.9343239099
 20
12.0459316961
 10
18.9452518806
 20
12.0543190413
 10
18.954853024
 20
12.0632311186
 10
18.9630521983
 20
12.0725981789
 10
18.9697852336
 20
12.0823469122
  0
LWPOLYLINE
  5
1C0
330
1F
100
AcDbEntity
  8
0
  6
Continuous
 62
     7
370
    25
100
AcDbPolyline
 90
       38
 70
   128
 43
0.0
 10
18.9812186703
 20
12.1254485392
 10
18.9811822088
 20
12.1276831978
 10
18.9800360774
 20
12.1381573567
 10
18.9772908853
 20
12.1485320519
 10
18.9729681173
 20
12.1587260873
 10
18.9671016049
 20
12.1686596807
 10
18.9597372616
 20
12.1782550884
 10
18.9509327233
 20
12.1874372132
 10
18.9407568974
 20
12.1961341926
 10
18.9292894237
 20
12.2042779609
 10
18.9166200506
 20
12.2118047821
 10
18.9028479332
 20
12.2186557486
 10
18.8880808569
 20
12.2247772424
 10
18.8724343942
 20
12.2301213543
 10
18.8560309998
 20
12.2346462596
 10
18.8389990525
 20
12.2383165447
 10
18.8214718504
 20
12.2411034845
 10
18.8035865677
 20
12.2429852676
 10
18.7854831809
 20
12.2439471665
 10
18.7673033735
 20
12.2439816529
 10
18.7491894273
 20
12.243088457
 10
18.7312831083
 20
12.2412745692
 10
18.7137245579
 20
12.2385541858
 10
18.6966511954
 20
12.2349485972
 10
18.6801966432
 20
12.2304860223
 10
18.6644896803
 20
12.2252013866
 10
18.6496532351
 20
12.2191360497
 10
18.6358034228
 20
12.2123374809
 10
18.6230486371
 20
12.2048588884
 10
18.6114887013
 20
12.1967588022
 10
18.6012140878
 20
12.1881006166
 10
18.5923052092
 20
12.1789520934
 10
18.5848317896
 20
12.1693848325
 10
18.5788523186
 20
12.1594737104
 10
18.5744135938
 20
12.1492962953
 10
18.5715503542
 20
12.1389322391
 10
18.5702850084
 20
12.1284626547
 10
18.5702186703
 20
12.1254485392
  0
LINE
  5
1C1
330
1F
100
AcDbEntity
  8
0
  6
Continuous
 62
     7
370
    25
100
AcDbLine
 10
18.8466097027
 20
12.1291708602
 30
0.0
 11
18.8228729927
 21
12.089826672
 31
0.0
  0
LINE
  5
1C2
330
1F
100
AcDbEntity
  8
0
  6
Continuous
 62
     7
370
    25
100
AcDbLine
 10
18.7994553802
 20
12.1607100233
 30
0.0
 11
18.8466097027
 21
12.1291708602
 31
0.0
  0
LINE
  5
1C3
330
1F
100
AcDbEntity
  8
0
  6
Continuous
 62
     7
370
    25
100
AcDbLine
 10
18.7285643478
 20
12.1529049982
 30
0.0
 11
18.7994553802
 21
12.1607100233
 31
0.0
  0
LINE
  5
1C4
330
1F
100
AcDbEntity
  8
0
  6
Continuous
 62
     7
370
    25
100
AcDbLine
 10
18.7048276379
 20
12.1135608101
 30
0.0
 11
18.7285643478
 21
12.1529049982
 31
0.0
  0
LINE
  5
1C5
330
1F
100
AcDbEntity
  8
0
  6
Continuous
 62
     7
370
    25
100
AcDbLine
 10
18.7519819603
 20
12.082021647
 30
0.0
 11
18.7048276379
 21
12.1135608101
 31
0.0
  0
LINE
  5
1C6
330
1F
100
AcDbEntity
  8
0
  6
Continuous
 62
     7
370
    25
100
AcDbLine
 10
18.8228729927
 20
12.089826672
 30
0.0
 11
18.7519819603
 21
12.082021647
 31
0.0
  0
LWPOLYLINE
  5
1C7
330
1F
100
AcDbEntity
  8
0
  6
Continuous
 62
     7
370
    25
100
AcDbPolyline
 90
        3
 70
   128
 43
0.0
 10
18.7874274765
 20
12.1569632102
 10
18.7953407573
 20
12.1581486908
 10
18.8012904824
 20
12.1594826154
  0
ARC
  5
1C8
330
1F
100
AcDbEntity
  8
0
  6
Continuous
 62
     7
370
    25
100
AcDbCircle
 10
18.7757169064
 20
12.2639106386
 30
0.0
 40
0.107586662320548
100
AcDbArc
 50
264.1377707827
 51
276.248899826
  0
LINE
  5
1C9
330
1F
100
AcDbEntity
  8
0
  6
Continuous
 62
     7
370
    25
100
AcDbLine
 10
18.8228729927
 20
12.1450471559
 30
0.0
 11
18.8228729927
 21
12.089826672
 31
0.0
  0
LINE
  5
1CA
330
1F
100
AcDbEntity
  8
0
  6
Continuous
 62
     7
370
    25
100
AcDbLine
 10
18.7519819603
 20
12.1530606976
 30
0.0
 11
18.7488719304
 21
12.1551408408
 31
0.0
  0
LINE
  5
1CB
330
1F
100
AcDbEntity
  8
0
  6
Continuous
 62
     7
370
    25
100
AcDbLine
 10
18.7519819603
 20
12.1530606976
 30
0.0
 11
18.7519819603
 21
12.082021647
 31
0.0
  0
LINE
  5
1CC
330
1F
100
AcDbEntity
  8
0
  6
Continuous
 62
     7
370
    25
100
AcDbLine
 10
18.7874274765
 20
12.1569632102
 30
0.0
 11
18.7519819603
 21
12.1530606976
 31
0.0
  0
LINE
  5
1CD
330
1F
100
AcDbEntity
  8
0
  6
Continuous
 62
     7
370
    25
100
AcDbLine
 10
18.8025654102
 20
12.1586298801
 30
0.0
 11
18.7874274765
 21
12.1569632102
 31
0.0
  0
LWPOLYLINE
  5
1CE
330
1F
100
AcDbEntity
  8
0
  6
Continuous
 62
     7
370
    25
100
AcDbPolyline
 90
       72
 70
   128
 43
0.0
 10
16.138681188
 20
10.6197825418
 10
16.1504716886
 20
10.6117939757
 10
16.1634390639
 20
10.6044382305
 10
16.1774818264
 20
10.5977728749
 10
16.1924900725
 20
10.5918500742
 10
16.2083463423
 20
10.5867161824
 10
16.224926539
 20
10.5824113792
 10
16.2421009001
 20
10.5789693555
 10
16.2597350129
 20
10.5764170498
 10
16.2776908667
 20
10.5747744374
 10
16.2958279324
 20
10.5740543739
 10
16.3140042629
 20
10.5742624949
 10
16.3320776039
 20
10.5753971713
 10
16.349906507
 20
10.577449523
 10
16.3673514367
 20
10.5804034875
 10
16.3842758629
 20
10.5842359459
 10
16.4005473289
 20
10.5889169041
 10
16.4160384885
 20
10.5944097273
 10
16.4306281025
 20
10.6006714266
 10
16.4442019871
 20
10.6076529958
 10
16.4566539085
 20
10.6152997947
 10
16.4678864134
 20
10.6235519766
 10
16.4778115923
 20
10.632344957
 10
16.4863517671
 20
10.641609919
 10
16.4934400995
 20
10.6512743517
 10
16.4990211136
 20
10.6612626178
 10
16.5030511304
 20
10.6714965455
 10
16.5054986096
 20
10.6818960405
 10
16.5063443963
 20
10.6923797126
 10
16.5055818711
 20
10.702865513
 10
16.5032170017
 20
10.7132713759
 10
16.4992682966
 20
10.7235158615
 10
16.4937666597
 20
10.7335187926
 10
16.4867551487
 20
10.7432018829
 10
16.4782886382
 20
10.752489349
 10
16.4684333902
 20
10.7613085038
 10
16.4572665353
 20
10.7695903257
 10
16.4448754692
 20
10.777269998
 10
16.431357169
 20
10.7842874168
 10
16.4168174336
 20
10.7905876615
 10
16.4013700562
 20
10.7961214241
 10
16.3851359334
 20
10.8008453953
 10
16.3682421193
 20
10.8047226036
 10
16.3508208308
 20
10.8077227047
 10
16.3330084132
 20
10.8098222187
 10
16.3149442728
 20
10.811004714
 10
16.2967697859
 20
10.8112609361
 10
16.2786271927
 20
10.8105888796
 10
16.2606584834
 20
10.8089938043
 10
16.2430042875
 20
10.8064881938
 10
16.2258027732
 20
10.803091658
 10
16.2091885655
 20
10.7988307792
 10
16.1932916933
 20
10.7937389047
 10
16.1782365709
 20
10.7878558853
 10
16.1641410253
 20
10.7812277636
 10
16.1511153731
 20
10.7739064136
 10
16.1392615578
 20
10.7659491349
 10
16.1286723514
 20
10.7574182039
 10
16.119430629
 20
10.7483803867
 10
16.1116087195
 20
10.7389064164
 10
16.10526784
 20
10.7290704399
 10
16.1004576165
 20
10.7189494368
 10
16.0972156954
 20
10.7086226178
 10
16.0955674492
 20
10.6981708043
 10
16.0955257776
 20
10.6876757958
 10
16.0970910069
 20
10.6772197301
 10
16.1002508869
 20
10.6668844399
 10
16.1049806873
 20
10.656750813
 10
16.1112433911
 20
10.6468981588
 10
16.118989984
 20
10.6374035876
 10
16.1281598385
 20
10.6283414073
 10
16.138681188
 20
10.6197825418
  0
LWPOLYLINE
  5
1CF
330
1F
100
AcDbEntity
  8
0
  6
Continuous
 62
     7
370
    25
100
AcDbPolyline
 90
       37
 70
   128
 43
0.0
 10
16.5063449361
 20
10.6967343435
 10
16.5055818711
 20
10.7069482171
 10
16.5032170017
 20
10.71735408
 10
16.4992682966
 20
10.7275985655
 10
16.4937666597
 20
10.7376014967
 10
16.4867551487
 20
10.747284587
 10
16.4782886382
 20
10.756572053
 10
16.4684333902
 20
10.7653912079
 10
16.4572665353
 20
10.7736730297
 10
16.4448754692
 20
10.781352702
 10
16.431357169
 20
10.7883701209
 10
16.4168174336
 20
10.7946703656
 10
16.4013700562
 20
10.8002041281
 10
16.3851359334
 20
10.8049280993
 10
16.3682421193
 20
10.8088053077
 10
16.3508208308
 20
10.8118054088
 10
16.3330084132
 20
10.8139049228
 10
16.3149442728
 20
10.8150874181
 10
16.2967697859
 20
10.8153436402
 10
16.2786271927
 20
10.8146715837
 10
16.2606584834
 20
10.8130765084
 10
16.2430042875
 20
10.8105708979
 10
16.2258027732
 20
10.807174362
 10
16.2091885655
 20
10.8029134833
 10
16.1932916933
 20
10.7978216088
 10
16.1782365709
 20
10.7919385894
 10
16.1641410253
 20
10.7853104677
 10
16.1511153731
 20
10.7779891177
 10
16.1392615578
 20
10.770031839
 10
16.1286723514
 20
10.7615009079
 10
16.119430629
 20
10.7524630907
 10
16.1116087195
 20
10.7429891205
 10
16.10526784
 20
10.7331531439
 10
16.1004576165
 20
10.7230321409
 10
16.0972156954
 20
10.7127053219
 10
16.0955674492
 20
10.7022535084
 10
16.0953449361
 20
10.6967343435
  0
LINE
  5
1D0
330
1F
100
AcDbEntity
  8
0
  6
Continuous
 62
     7
370
    25
100
AcDbLine
 10
16.2736895973
 20
10.6540513282
 30
0.0
 11
16.2293605255
 21
10.6869276821
 31
0.0
  0
LINE
  5
1D1
330
1F
100
AcDbEntity
  8
0
  6
Continuous
 62
     7
370
    25
100
AcDbLine
 10
16.3451740079
 20
10.6597752855
 30
0.0
 11
16.2736895973
 21
10.6540513282
 31
0.0
  0
LINE
  5
1D2
330
1F
100
AcDbEntity
  8
0
  6
Continuous
 62
     7
370
    25
100
AcDbLine
 10
16.3723293468
 20
10.6983755968
 30
0.0
 11
16.3451740079
 21
10.6597752855
 31
0.0
  0
LINE
  5
1D3
330
1F
100
AcDbEntity
  8
0
  6
Continuous
 62
     7
370
    25
100
AcDbLine
 10
16.328000275
 20
10.7312519507
 30
0.0
 11
16.3723293468
 21
10.6983755968
 31
0.0
  0
LINE
  5
1D4
330
1F
100
AcDbEntity
  8
0
  6
Continuous
 62
     7
370
    25
100
AcDbLine
 10
16.2565158643
 20
10.7255279933
 30
0.0
 11
16.328000275
 21
10.7312519507
 31
0.0
  0
LINE
  5
1D5
330
1F
100
AcDbEntity
  8
0
  6
Continuous
 62
     7
370
    25
100
AcDbLine
 10
16.2293605255
 20
10.6869276821
 30
0.0
 11
16.2565158643
 21
10.7255279933
 31
0.0
  0
ARC
  5
1D6
330
1F
100
AcDbEntity
  8
0
  6
Continuous
 62
     7
370
    25
100
AcDbCircle
 10
16.3019354702
 20
10.8256964804
 30
0.0
 40
0.0980311612201643
100
AcDbArc
 50
274.385624942
 51
285.4539921346
  0
ARC
  5
1D7
330
1F
100
AcDbEntity
  8
0
  6
Continuous
 62
     7
370
    25
100
AcDbCircle
 10
16.3008480481
 20
10.8352182037
 30
0.0
 40
0.1076087478180761
100
AcDbArc
 50
264.0632877568
 51
274.5752411086
  0
LINE
  5
1D8
330
1F
100
AcDbEntity
  8
0
  6
Continuous
 62
     7
370
    25
100
AcDbLine
 10
16.3451740079
 20
10.7185151687
 30
0.0
 11
16.3451740079
 21
10.6597752855
 31
0.0
  0
LINE
  5
1D9
330
1F
100
AcDbEntity
  8
0
  6
Continuous
 62
     7
370
    25
100
AcDbLine
 10
16.2736895973
 20
10.7250903788
 30
0.0
 11
16.2714835266
 21
10.7267264961
 31
0.0
  0
LINE
  5
1DA
330
1F
100
AcDbEntity
  8
0
  6
Continuous
 62
     7
370
    25
100
AcDbLine
 10
16.2736895973
 20
10.7250903788
 30
0.0
 11
16.2736895973
 21
10.6540513282
 31
0.0
  0
LINE
  5
1DB
330
1F
100
AcDbEntity
  8
0
  6
Continuous
 62
     7
370
    25
100
AcDbLine
 10
16.3094318026
 20
10.7279523575
 30
0.0
 11
16.2736895973
 21
10.7250903788
 31
0.0
  0
LINE
  5
1DC
330
1F
100
AcDbEntity
  8
0
  6
Continuous
 62
     7
370
    25
100
AcDbLine
 10
16.3302063456
 20
10.7296158335
 30
0.0
 11
16.3094318026
 21
10.7279523575
 31
0.0
  0
LWPOLYLINE
  5
1DD
330
1F
100
AcDbEntity
  8
0
  6
Continuous
 62
     7
370
    25
100
AcDbPolyline
 90
       84
 70
   128
 43
0.0
 10
16.6620880952
 20
11.5915273282
 10
16.6620795329
 20
11.5914995888
 10
16.6562093594
 20
11.5698036869
 10
16.6519504369
 20
11.547982799
 10
16.6493105451
 20
11.5260767844
 10
16.6482945061
 20
11.5041256581
 10
16.6489041759
 20
11.4821695175
 10
16.6511384409
 20
11.4602484691
 10
16.6549932197
 20
11.4384025553
 10
16.660461471
 20
11.4166716814
 10
16.6675332061
 20
11.3950955422
 10
16.6761955074
 20
11.3737135502
 10
16.6864325516
 20
11.3525647632
 10
16.6982256392
 20
11.3316878128
 10
16.7115532282
 20
11.3111208344
 10
16.7263909734
 20
11.2909013968
 10
16.7427117713
 20
11.2710664342
 10
16.7604858093
 20
11.2516521785
 10
16.7796806202
 20
11.232694093
 10
16.8002611414
 20
11.2142268077
 10
16.8221897792
 20
11.1962840563
 10
16.8454264774
 20
11.1788986141
 10
16.8699287903
 20
11.1621022384
 10
16.8956519603
 20
11.1459256108
 10
16.9225489999
 20
11.1303982803
 10
16.9505707772
 20
11.1155486103
 10
16.9796661057
 20
11.1014037262
 10
17.009781838
 20
11.0879894659
 10
17.0408629629
 20
11.0753303327
 10
17.0728527054
 20
11.0634494507
 10
17.105692631
 20
11.0523685223
 10
17.1393227522
 20
11.0421077885
 10
17.173681638
 20
11.0326859924
 10
17.2087065262
 20
11.0241203444
 10
17.2443334381
 20
11.0164264911
 10
17.2804972952
 20
11.0096184865
 10
17.3171320383
 20
11.0037087667
 10
17.354170748
 20
10.9987081266
 10
17.3915457669
 20
10.9946257008
 10
17.4291888234
 20
10.9914689465
 10
17.4670311563
 20
10.9892436301
 10
17.5050036403
 20
10.9879538164
 10
17.5430369123
 20
10.9876018615
 10
17.5810614983
 20
10.9881884083
 10
17.6190079402
 20
10.9897123854
 10
17.6568069224
 20
10.992171009
 10
17.6943893989
 20
10.9955597881
 10
17.7316867191
 20
10.9998725323
 10
17.7686307533
 20
11.0051013639
 10
17.8051540171
 20
11.0112367314
 10
17.8411897947
 20
11.0182674276
 10
17.8766722609
 20
11.0261806099
 10
17.9115366009
 20
11.0349618234
 10
17.9457191295
 20
11.0445950278
 10
17.9791574064
 20
11.0550626264
 10
18.0117903513
 20
11.0663454986
 10
18.0435583546
 20
11.0784230342
 10
18.0744033868
 20
11.0912731717
 10
18.1042691044
 20
11.1048724381
 10
18.1331009527
 20
11.1191959921
 10
18.1608462656
 20
11.1342176694
 10
18.1874543616
 20
11.1499100305
 10
18.2128766368
 20
11.1662444105
 10
18.2370666531
 20
11.1831909722
 10
18.2599802234
 20
11.2007187598
 10
18.2815754924
 20
11.2187957558
 10
18.3018130127
 20
11.2373889397
 10
18.3206558171
 20
11.256464348
 10
18.3380694862
 20
11.2759871363
 10
18.3540222109
 20
11.2959216429
 10
18.3684848511
 20
11.3162314543
 10
18.3814309883
 20
11.3368794711
 10
18.3928369742
 20
11.3578279764
 10
18.402681974
 20
11.3790387042
 10
18.4109480041
 20
11.4004729097
 10
18.4176199652
 20
11.4220914398
 10
18.42268567
 20
11.4438548046
 10
18.426135865
 20
11.4657232497
 10
18.427964248
 20
11.4876568289
 10
18.428167479
 20
11.5096154768
 10
18.4267451868
 20
11.5315590823
 10
18.4236999695
 20
11.5534475618
 10
18.4190373897
 20
11.5752409324
 10
18.4144755112
 20
11.5915273282
  0
LWPOLYLINE
  5
1DE
330
1F
100
AcDbEntity
  8
0
  6
Continuous
 62
     7
370
    25
100
AcDbPolyline
 90
       72
 70
   128
 43
0.0
 10
16.651096155
 20
11.5422076326
 10
16.6511384409
 20
11.5419025503
 10
16.6549932197
 20
11.5200566365
 10
16.660461471
 20
11.4983257625
 10
16.6675332061
 20
11.4767496234
 10
16.6761955074
 20
11.4553676314
 10
16.6864325516
 20
11.4342188444
 10
16.6982256392
 20
11.413341894
 10
16.7115532282
 20
11.3927749156
 10
16.7263909734
 20
11.372555478
 10
16.7427117713
 20
11.3527205154
 10
16.7604858093
 20
11.3333062597
 10
16.7796806202
 20
11.3143481742
 10
16.8002611414
 20
11.2958808889
 10
16.8221897792
 20
11.2779381375
 10
16.8454264774
 20
11.2605526953
 10
16.8699287903
 20
11.2437563196
 10
16.8956519603
 20
11.2275796919
 10
16.9225489999
 20
11.2120523615
 10
16.9505707772
 20
11.1972026915
 10
16.9796661057
 20
11.1830578074
 10
17.009781838
 20
11.169643547
 10
17.0408629629
 20
11.1569844139
 10
17.0728527054
 20
11.1451035319
 10
17.105692631
 20
11.1340226034
 10
17.1393227522
 20
11.1237618697
 10
17.173681638
 20
11.1143400736
 10
17.2087065262
 20
11.1057744256
 10
17.2443334381
 20
11.0980805723
 10
17.2804972952
 20
11.0912725677
 10
17.3171320383
 20
11.0853628479
 10
17.354170748
 20
11.0803622078
 10
17.3915457669
 20
11.076279782
 10
17.4291888234
 20
11.0731230277
 10
17.4670311563
 20
11.0708977113
 10
17.5050036403
 20
11.0696078976
 10
17.5430369123
 20
11.0692559427
 10
17.5810614983
 20
11.0698424895
 10
17.6190079402
 20
11.0713664666
 10
17.6568069224
 20
11.0738250902
 10
17.6943893989
 20
11.0772138692
 10
17.7316867191
 20
11.0815266135
 10
17.7686307533
 20
11.086755445
 10
17.8051540171
 20
11.0928908126
 10
17.8411897947
 20
11.0999215088
 10
17.8766722609
 20
11.1078346911
 10
17.9115366009
 20
11.1166159045
 10
17.9457191295
 20
11.126249109
 10
17.9791574064
 20
11.1367167076
 10
18.0117903513
 20
11.1479995798
 10
18.0435583546
 20
11.1600771154
 10
18.0744033868
 20
11.1729272529
 10
18.1042691044
 20
11.1865265193
 10
18.1331009527
 20
11.2008500733
 10
18.1608462656
 20
11.2158717506
 10
18.1874543616
 20
11.2315641117
 10
18.2128766368
 20
11.2478984917
 10
18.2370666531
 20
11.2648450534
 10
18.2599802234
 20
11.282372841
 10
18.2815754924
 20
11.300449837
 10
18.3018130127
 20
11.3190430209
 10
18.3206558171
 20
11.3381184292
 10
18.3380694862
 20
11.3576412175
 10
18.3540222109
 20
11.3775757241
 10
18.3684848511
 20
11.3978855354
 10
18.3814309883
 20
11.4185335523
 10
18.3928369742
 20
11.4394820575
 10
18.402681974
 20
11.4606927854
 10
18.4109480041
 20
11.4821269909
 10
18.4176199652
 20
11.503745521
 10
18.42268567
 20
11.5255088858
 10
18.4254674514
 20
11.5422076326
  0
LWPOLYLINE
  5
1DF
330
1F
100
AcDbEntity
  8
0
  6
Continuous
 62
     7
370
    25
100
AcDbPolyline
 90
      119
 70
   128
 43
0.0
 10
15.0249151559
 20
11.488374681
 10
15.0267285233
 20
11.5120427817
 10
15.0310347089
 20
11.5499704088
 10
15.0370592363
 20
11.5878199656
 10
15.0447979768
 20
11.6255655118
 10
15.0542456266
 20
11.6631811785
 10
15.0653957107
 20
11.7006411859
 10
15.0782405874
 20
11.7379198608
 10
15.0927714534
 20
11.7749916542
 10
15.1089783501
 20
11.8118311589
 10
15.12685017
 20
11.848413127
 10
15.1463746647
 20
11.884712487
 10
15.1675384531
 20
11.9207043612
 10
15.1903270306
 20
11.9563640825
 10
15.2147247789
 20
11.9916672115
 10
15.2407149772
 20
12.0265895533
 10
15.2682798131
 20
12.0611071738
 10
15.2974003949
 20
12.0951964164
 10
15.3280567649
 20
12.1288339179
 10
15.3602279127
 20
12.161996625
 10
15.3938917898
 20
12.1946618096
 10
15.4290253248
 20
12.2268070845
 10
15.4656044388
 20
12.258410419
 10
15.5036040623
 20
12.2894501539
 10
15.5429981524
 20
12.3199050159
 10
15.5837597101
 20
12.3497541328
 10
15.6258607997
 20
12.3789770476
 10
15.6692725671
 20
12.4075537323
 10
15.7139652601
 20
12.4354646019
 10
15.7599082485
 20
12.4626905277
 10
15.8070700453
 20
12.4892128504
 10
15.8554183282
 20
12.5150133928
 10
15.9049199616
 20
12.5400744727
 10
15.9555410197
 20
12.5643789144
 10
16.0072468092
 20
12.5879100608
 10
16.0600018937
 20
12.6106517849
 10
16.1137701173
 20
12.6325885006
 10
16.1685146301
 20
12.6537051737
 10
16.2241979129
 20
12.6739873317
 10
16.2807818032
 20
12.6934210743
 10
16.3382275211
 20
12.7119930827
 10
16.3964956964
 20
12.7296906283
 10
16.4555463947
 20
12.7465015824
 10
16.5153391459
 20
12.7624144234
 10
16.5758329708
 20
12.7774182455
 10
16.6369864101
 20
12.7915027659
 10
16.6987575522
 20
12.8046583316
 10
16.7611040623
 20
12.8168759266
 10
16.8239832113
 20
12.8281471774
 10
16.8873519048
 20
12.8384643595
 10
16.9511667131
 20
12.8478204018
 10
17.0153839008
 20
12.8562088922
 10
17.0799594566
 20
12.8636240817
 10
17.1448491236
 20
12.8700608882
 10
17.2100084298
 20
12.8755149003
 10
17.2753927181
 20
12.8799823801
 10
17.3409571774
 20
12.8834602658
 10
17.4066568732
 20
12.8859461738
 10
17.4724467782
 20
12.8874384004
 10
17.5382818032
 20
12.887935923
 10
17.6041168282
 20
12.8874384004
 10
17.6699067331
 20
12.8859461738
 10
17.735606429
 20
12.8834602658
 10
17.8011708883
 20
12.8799823801
 10
17.8665551766
 20
12.8755149003
 10
17.9317144828
 20
12.8700608882
 10
17.9966041498
 20
12.8636240817
 10
18.0611797056
 20
12.8562088922
 10
18.1253968933
 20
12.8478204018
 10
18.1892117016
 20
12.8384643595
 10
18.2525803951
 20
12.8281471774
 10
18.3154595441
 20
12.8168759266
 10
18.3778060542
 20
12.8046583316
 10
18.4395771963
 20
12.7915027659
 10
18.5007306356
 20
12.7774182455
 10
18.5612244605
 20
12.7624144234
 10
18.6210172117
 20
12.7465015824
 10
18.68006791
 20
12.7296906283
 10
18.7383360853
 20
12.7119930827
 10
18.7957818032
 20
12.6934210743
 10
18.8523656935
 20
12.6739873317
 10
18.9080489763
 20
12.6537051737
 10
18.9627934891
 20
12.6325885006
 10
19.0165617127
 20
12.6106517849
 10
19.0693167972
 20
12.5879100608
 10
19.1210225867
 20
12.5643789144
 10
19.1716436447
 20
12.5400744727
 10
19.2211452782
 20
12.5150133928
 10
19.2694935611
 20
12.4892128504
 10
19.3166553579
 20
12.4626905277
 10
19.3625983463
 20
12.4354646019
 10
19.4072910393
 20
12.4075537323
 10
19.4507028067
 20
12.3789770476
 10
19.4928038963
 20
12.3497541328
 10
19.533565454
 20
12.3199050159
 10
19.5729595441
 20
12.2894501539
 10
19.6109591676
 20
12.258410419
 10
19.6475382816
 20
12.2268070845
 10
19.6826718165
 20
12.1946618096
 10
19.7163356937
 20
12.161996625
 10
19.7485068415
 20
12.1288339179
 10
19.7791632115
 20
12.0951964164
 10
19.8082837933
 20
12.0611071738
 10
19.8358486292
 20
12.0265895533
 10
19.8618388275
 20
11.9916672115
 10
19.8862365758
 20
11.9563640825
 10
19.9090251533
 20
11.9207043612
 10
19.9301889417
 20
11.884712487
 10
19.9497134364
 20
11.848413127
 10
19.9675852563
 20
11.8118311589
 10
19.983792153
 20
11.7749916542
 10
19.998323019
 20
11.7379198608
 10
20.0111678957
 20
11.7006411859
 10
20.0223179798
 20
11.6631811785
 10
20.0317656296
 20
11.6255655118
 10
20.03950437
 20
11.5878199656
 10
20.0455288975
 20
11.5499704088
 10
20.0498350831
 20
11.5120427817
 10
20.0514752299
 20
11.491078025
  0
LWPOLYLINE
  5
1E0
330
1F
100
AcDbEntity
  8
0
  6
Continuous
 62
     7
370
    25
100
AcDbPolyline
 90
      119
 70
   128
 43
0.0
 10
20.0516156814
 20
11.7461070662
 10
20.0498350831
 20
11.7692531375
 10
20.0455288975
 20
11.8071807646
 10
20.03950437
 20
11.8450303213
 10
20.0317656296
 20
11.8827758675
 10
20.0223179798
 20
11.9203915343
 10
20.0111678957
 20
11.9578515417
 10
19.998323019
 20
11.9951302166
 10
19.983792153
 20
12.0322020099
 10
19.9675852563
 20
12.0690415146
 10
19.9497134364
 20
12.1056234827
 10
19.9301889417
 20
12.1419228427
 10
19.9090251533
 20
12.1779147169
 10
19.8862365758
 20
12.2135744382
 10
19.8618388275
 20
12.2488775673
 10
19.8358486292
 20
12.2837999091
 10
19.8082837933
 20
12.3183175296
 10
19.7791632115
 20
12.3524067721
 10
19.7485068415
 20
12.3860442737
 10
19.7163356937
 20
12.4192069808
 10
19.6826718165
 20
12.4518721653
 10
19.6475382816
 20
12.4840174402
 10
19.6109591676
 20
12.5156207748
 10
19.5729595441
 20
12.5466605096
 10
19.533565454
 20
12.5771153716
 10
19.4928038963
 20
12.6069644885
 10
19.4507028067
 20
12.6361874033
 10
19.4072910393
 20
12.664764088
 10
19.3625983463
 20
12.6926749577
 10
19.3166553579
 20
12.7199008834
 10
19.2694935611
 20
12.7464232061
 10
19.2211452782
 20
12.7722237486
 10
19.1716436447
 20
12.7972848285
 10
19.1210225867
 20
12.8215892701
 10
19.0693167972
 20
12.8451204166
 10
19.0165617127
 20
12.8678621407
 10
18.9627934891
 20
12.8897988564
 10
18.9080489763
 20
12.9109155294
 10
18.8523656935
 20
12.9311976874
 10
18.7957818032
 20
12.9506314301
 10
18.7383360853
 20
12.9692034384
 10
18.68006791
 20
12.9869009841
 10
18.6210172117
 20
13.0037119381
 10
18.5612244605
 20
13.0196247791
 10
18.5007306356
 20
13.0346286013
 10
18.4395771963
 20
13.0487131216
 10
18.3778060542
 20
13.0618686873
 10
18.3154595441
 20
13.0740862823
 10
18.2525803951
 20
13.0853575332
 10
18.1892117016
 20
13.0956747152
 10
18.1253968933
 20
13.1050307575
 10
18.0611797056
 20
13.1134192479
 10
17.9966041498
 20
13.1208344374
 10
17.9317144828
 20
13.1272712439
 10
17.8665551766
 20
13.1327252561
 10
17.8011708883
 20
13.1371927359
 10
17.735606429
 20
13.1406706215
 10
17.6699067331
 20
13.1431565296
 10
17.6041168282
 20
13.1446487562
 10
17.5382818032
 20
13.1451462787
 10
17.4724467782
 20
13.1446487562
 10
17.4066568732
 20
13.1431565296
 10
17.3409571774
 20
13.1406706215
 10
17.2753927181
 20
13.1371927359
 10
17.2100084298
 20
13.1327252561
 10
17.1448491236
 20
13.1272712439
 10
17.0799594566
 20
13.1208344374
 10
17.0153839008
 20
13.1134192479
 10
16.9511667131
 20
13.1050307575
 10
16.8873519048
 20
13.0956747152
 10
16.8239832113
 20
13.0853575332
 10
16.7611040623
 20
13.0740862823
 10
16.6987575522
 20
13.0618686873
 10
16.6369864101
 20
13.0487131216
 10
16.5758329708
 20
13.0346286013
 10
16.5153391459
 20
13.0196247791
 10
16.4555463947
 20
13.0037119381
 10
16.3964956964
 20
12.9869009841
 10
16.3382275211
 20
12.9692034384
 10
16.2807818032
 20
12.9506314301
 10
16.2241979129
 20
12.9311976874
 10
16.1685146301
 20
12.9109155294
 10
16.1137701173
 20
12.8897988564
 10
16.0600018937
 20
12.8678621407
 10
16.0072468092
 20
12.8451204166
 10
15.9555410197
 20
12.8215892701
 10
15.9049199616
 20
12.7972848285
 10
15.8554183282
 20
12.7722237486
 10
15.8070700453
 20
12.7464232061
 10
15.7599082485
 20
12.7199008834
 10
15.7139652601
 20
12.6926749577
 10
15.6692725671
 20
12.664764088
 10
15.6258607997
 20
12.6361874033
 10
15.5837597101
 20
12.6069644885
 10
15.5429981524
 20
12.5771153716
 10
15.5036040623
 20
12.5466605096
 10
15.4656044388
 20
12.5156207748
 10
15.4290253248
 20
12.4840174402
 10
15.3938917898
 20
12.4518721653
 10
15.3602279127
 20
12.4192069808
 10
15.3280567649
 20
12.3860442737
 10
15.2974003949
 20
12.3524067721
 10
15.2682798131
 20
12.3183175296
 10
15.2407149772
 20
12.2837999091
 10
15.2147247789
 20
12.2488775673
 10
15.1903270306
 20
12.2135744382
 10
15.1675384531
 20
12.1779147169
 10
15.1463746647
 20
12.1419228427
 10
15.12685017
 20
12.1056234827
 10
15.1089783501
 20
12.0690415146
 10
15.0927714534
 20
12.0322020099
 10
15.0782405874
 20
11.9951302166
 10
15.0653957107
 20
11.9578515417
 10
15.0542456266
 20
11.9203915343
 10
15.0447979768
 20
11.8827758675
 10
15.0370592363
 20
11.8450303213
 10
15.0310347089
 20
11.8071807646
 10
15.0267285233
 20
11.7692531375
 10
15.0250903279
 20
11.7483180779
  0
LINE
  5
1E1
330
1F
100
AcDbEntity
  8
0
  6
Continuous
 62
     7
370
    25
100
AcDbLine
 10
15.7692580309
 20
14.8191348235
 30
0.0
 11
15.7674814765
 21
14.901517063
 31
0.0
  0
SPLINE
  5
1E2
330
1F
100
AcDbEntity
  8
0
  6
Continuous
 62
     7
370
    25
100
AcDbSpline
210
0.0
220
0.0
230
1.0
 70
     8
 71
     3
 72
    42
 73
    38
 74
     0
 42
0.00000001
 43
0.00000001
 40
0.0
 40
0.0
 40
0.0
 40
0.0
 40
0.0361770523165781
 40
0.072380700284333
 40
0.1085576809507308
 40
0.1364395441451055
 40
0.1643457839587446
 40
0.1922520434220301
 40
0.2201339334348
 40
0.247870387003597
 40
0.2756308107454579
 40
0.3033912302989869
 40
0.3311276781514863
 40
0.3596693048948417
 40
0.3882370854434304
 40
0.4168048489589086
 40
0.4453464524540088
 40
0.4730889825574925
 40
0.5008555076453123
 40
0.5286220656309899
 40
0.55636464063398
 40
0.5849129908242451
 40
0.6134875186969462
 40
0.642062038508315
 40
0.6706103776957737
 40
0.698346905950185
 40
0.7261074177284145
 40
0.753867945712181
 40
0.781604496084158
 40
0.8101460486696418
 40
0.8387137289399681
 40
0.8672813929098938
 40
0.895822923247209
 40
0.9235602411482697
 40
0.9513215684686097
 40
0.9790828972941836
 40
0.9999999999999999
 40
0.9999999999999999
 40
0.9999999999999999
 40
0.9999999999999999
 10
17.53828180319734
 20
14.20109987047664
 30
0.0
 10
17.50003553431238
 20
14.20075264197404
 30
0.0
 10
17.42351487970151
 20
14.20005792970294
 30
0.0
 10
17.30908597137904
 20
14.19447223005251
 30
0.0
 10
17.20401705993639
 20
14.1862645690966
 30
0.0
 10
17.10841207464826
 20
14.17600181562275
 30
0.0
 10
17.02215405817226
 20
14.16458638477791
 30
0.0
 10
16.93679466405671
 20
14.15110455077768
 30
0.0
 10
16.85265425028374
 20
14.13561124119451
 30
0.0
 10
16.7698573873635
 20
14.11812677299877
 30
0.0
 10
16.68850714786298
 20
14.09870307764212
 30
0.0
 10
16.60861949279352
 20
14.077351891539
 30
0.0
 10
16.52960019361732
 20
14.05388775749925
 30
0.0
 10
16.45163238515821
 20
14.02826569212927
 30
0.0
 10
16.37488718801962
 20
14.00047511774522
 30
0.0
 10
16.30026320549108
 20
13.97082177505752
 30
0.0
 10
16.22859860223523
 20
13.93965778878483
 30
0.0
 10
16.15994587019861
 20
13.90707706463709
 30
0.0
 10
16.0943059857113
 20
13.87319478607651
 30
0.0
 10
16.03115285832781
 20
13.83777239272106
 30
0.0
 10
15.97003010602132
 20
13.80052199032528
 30
0.0
 10
15.91113709131734
 20
13.76143568319164
 30
0.0
 10
15.85464314493851
 20
13.72053538907844
 30
0.0
 10
15.80122058410825
 20
13.67828209710018
 30
0.0
 10
15.75146583574621
 20
13.6351748322072
 30
0.0
 10
15.70537238398181
 20
13.59131313425761
 30
0.0
 10
15.66287378463322
 20
13.5468062566215
 30
0.0
 10
15.62360386409394
 20
13.50132169002919
 30
0.0
 10
15.58729880170918
 20
13.45450059862599
 30
0.0
 10
15.55414876562932
 20
13.40637425649196
 30
0.0
 10
15.52429898022337
 20
13.35699612642127
 30
0.0
 10
15.49811720964842
 20
13.30692892189105
 30
0.0
 10
15.47588921867205
 20
13.2567523647252
 30
0.0
 10
15.45751292019731
 20
13.20656038845035
 30
0.0
 10
15.4430202156112
 20
13.15643628170765
 30
0.0
 10
15.43261346080934
 20
13.11015559725289
 30
0.0
 10
15.42871524696029
 20
13.08053220002114
 30
0.0
 10
15.42704018601678
 20
13.06780303798985
 30
0.0
  0
SPLINE
  5
1E3
330
1F
100
AcDbEntity
  8
0
  6
Continuous
 62
     7
370
    25
100
AcDbSpline
210
0.0
220
0.0
230
1.0
 70
     8
 71
     3
 72
    44
 73
    40
 74
     0
 42
0.00000001
 43
0.00000001
 40
0.0
 40
0.0
 40
0.0
 40
0.0
 40
0.0082025501746334
 40
0.0367819220105147
 40
0.06536128280068
 40
0.0939144589122368
 40
0.1216558277020379
 40
0.1494211855929172
 40
0.177186560310445
 40
0.204927952065515
 40
0.233474504301591
 40
0.262047188144069
 40
0.290619856564003
 40
0.3191663877500836
 40
0.3469080714238608
 40
0.3746737674194316
 40
0.4024394627237399
 40
0.4301811454540709
 40
0.4587284985877948
 40
0.4873019786088172
 40
0.5158754397078273
 40
0.5444227670151893
 40
0.5721621173527717
 40
0.5999254740918899
 40
0.6276888425907323
 40
0.6554282089781787
 40
0.6839730827541468
 40
0.7125440827768172
 40
0.7411150913990443
 40
0.7696599769124132
 40
0.7934105836856001
 40
0.8171762448727936
 40
0.8409419040801078
 40
0.864829087644371
 40
0.8887162694764409
 40
0.9164404024522621
 40
0.9441645369849172
 40
0.9720822619443916
 40
1.0
 40
1.0
 40
1.0
 40
1.0
 10
19.64942024939179
 20
13.06813005545701
 30
0.0
 10
19.64890152405439
 20
13.07312599994255
 30
0.0
 10
19.64657545295471
 20
13.09552884253709
 30
0.0
 10
19.63854871139825
 20
13.13516640818879
 30
0.0
 10
19.62528264918374
 20
13.18690301326518
 30
0.0
 10
19.60807652790792
 20
13.2377462279816
 30
0.0
 10
19.58742567891504
 20
13.2876423915939
 30
0.0
 10
19.56341282332331
 20
13.33653698546807
 30
0.0
 10
19.53591887460137
 20
13.38481597050365
 30
0.0
 10
19.50468745286506
 20
13.43284131986207
 30
0.0
 10
19.46962318094315
 20
13.48051358872051
 30
0.0
 10
19.43068813287259
 20
13.52773611146753
 30
0.0
 10
19.38830421026902
 20
13.57395838927207
 30
0.0
 10
19.34298351070621
 20
13.61865630421278
 30
0.0
 10
19.29488119993151
 20
13.66178891268419
 30
0.0
 10
19.24419379931735
 20
13.70334173264122
 30
0.0
 10
19.19056803833788
 20
13.74364668865281
 30
0.0
 10
19.13355928926857
 20
13.78299748931016
 30
0.0
 10
19.07313441970312
 20
13.82128221676119
 30
0.0
 10
19.00931533570134
 20
13.85840350652855
 30
0.0
 10
18.94281534537272
 20
13.89392190868596
 30
0.0
 10
18.87442090943835
 20
13.92743958981579
 30
0.0
 10
18.80430166194031
 20
13.95894739609228
 30
0.0
 10
18.73265159010686
 20
13.98846938555927
 30
0.0
 10
18.65894470440438
 20
14.01625269924089
 30
0.0
 10
18.58259365943649
 20
14.04249001885821
 30
0.0
 10
18.50363051039018
 20
14.06706866345987
 30
0.0
 10
18.4221311038195
 20
14.0899001962942
 30
0.0
 10
18.3390217990703
 20
14.1107077423891
 30
0.0
 10
18.25920518786595
 20
14.12839279008928
 30
0.0
 10
18.18306625226839
 20
14.1433102710323
 30
0.0
 10
18.11089504314553
 20
14.15581749103048
 30
0.0
 10
18.0378594939785
 20
14.16685600034847
 30
0.0
 10
17.964061916959
 20
14.17639858865396
 30
0.0
 10
17.8856078381846
 20
14.18485319547244
 30
0.0
 10
17.8026253267367
 20
14.19189984131198
 30
0.0
 10
17.71497147028404
 20
14.19716910733261
 30
0.0
 10
17.62680588279971
 20
14.20048290225795
 30
0.0
 10
17.56778983434551
 20
14.20089421437158
 30
0.0
 10
17.53828180319734
 20
14.20109987047664
 30
0.0
  0
CIRCLE
  5
1E4
330
1F
100
AcDbEntity
  8
0
  6
Continuous
 62
     7
370
    25
100
AcDbCircle
 10
7.3705046537
 20
4.0114284617
 30
0.0
 40
0.9300000000000002
  0
CIRCLE
  5
1E5
330
1F
100
AcDbEntity
  8
0
  6
Continuous
 62
     7
370
    25
100
AcDbCircle
 10
7.3705046537
 20
4.0114284617
 30
0.0
 40
2.485
  0
CIRCLE
  5
1E6
330
1F
100
AcDbEntity
  8
0
  6
Continuous
 62
     7
370
    25
100
AcDbCircle
 10
7.3705046537
 20
4.0114284617
 30
0.0
 40
2.515000000000001
  0
ARC
  5
1E7
330
1F
100
AcDbEntity
  8
0
  6
Continuous
 62
     7
370
    25
100
AcDbCircle
 10
7.3705046537
 20
1.5089284617
 30
0.0
 40
0.101550000000001
100
AcDbArc
 50
185.9182741043
 51
354.0817258957
  0
LINE
  5
1E8
330
1F
100
AcDbEntity
  8
0
  6
Continuous
 62
     7
370
    25
100
AcDbLine
 10
7.6132732716
 20
1.5081729018
 30
0.0
 11
7.5793072342
 21
1.4080755065
 31
0.0
  0
ARC
  5
1E9
330
1F
100
AcDbEntity
  8
0
  6
Continuous
 62
     7
370
    25
100
AcDbCircle
 10
7.3705046537
 20
1.4789284617
 30
0.0
 40
0.2204963920094242
100
AcDbArc
 50
198.743609846
 51
341.256390154
  0
LINE
  5
1EA
330
1F
100
AcDbEntity
  8
0
  6
Continuous
 62
     7
370
    25
100
AcDbLine
 10
7.1617020731
 20
1.4080755065
 30
0.0
 11
7.1277360357
 21
1.5081729018
 31
0.0
  0
LINE
  5
1EB
330
1F
100
AcDbEntity
  8
0
  6
Continuous
 62
     7
370
    25
100
AcDbLine
 10
7.1617020731
 20
1.4080755065
 30
0.0
 11
7.1574373096
 21
1.4066283448
 31
0.0
  0
LINE
  5
1EC
330
1F
100
AcDbEntity
  8
0
  6
Continuous
 62
     7
370
    25
100
AcDbLine
 10
7.5793072342
 20
1.4080755065
 30
0.0
 11
7.5835719977
 21
1.4066283448
 31
0.0
  0
ARC
  5
1ED
330
1F
100
AcDbEntity
  8
0
  6
Continuous
 62
     7
370
    25
100
AcDbCircle
 10
7.3705046537
 20
1.4789284617
 30
0.0
 40
0.2250000000000009
100
AcDbArc
 50
198.743609846
 51
341.256390154
  0
LINE
  5
1EE
330
1F
100
AcDbEntity
  8
0
  6
Continuous
 62
     7
370
    25
100
AcDbLine
 10
7.6181926461
 20
1.5086548686
 30
0.0
 11
7.5835719977
 21
1.4066283448
 31
0.0
  0
LINE
  5
1EF
330
1F
100
AcDbEntity
  8
0
  6
Continuous
 62
     7
370
    25
100
AcDbLine
 10
7.1574373096
 20
1.4066283448
 30
0.0
 11
7.1228166613
 21
1.5086548686
 31
0.0
  0
LINE
  5
1F0
330
1F
100
AcDbEntity
  8
0
  6
Continuous
 62
     7
370
    25
100
AcDbLine
 10
7.5793072342
 20
6.6147814169
 30
0.0
 11
7.6132732716
 21
6.5146840216
 31
0.0
  0
LINE
  5
1F1
330
1F
100
AcDbEntity
  8
0
  6
Continuous
 62
     7
370
    25
100
AcDbLine
 10
7.1277360357
 20
6.5146840216
 30
0.0
 11
7.1617020731
 21
6.6147814169
 31
0.0
  0
ARC
  5
1F2
330
1F
100
AcDbEntity
  8
0
  6
Continuous
 62
     7
370
    25
100
AcDbCircle
 10
7.3705046537
 20
6.5439284617
 30
0.0
 40
0.2204963920094242
100
AcDbArc
 50
18.743609846
 51
161.256390154
  0
ARC
  5
1F3
330
1F
100
AcDbEntity
  8
0
  6
Continuous
 62
     7
370
    25
100
AcDbCircle
 10
7.3705046537
 20
6.5139284617
 30
0.0
 40
0.1015500000000007
100
AcDbArc
 50
5.9182741043
 51
174.0817258957
  0
LINE
  5
1F4
330
1F
100
AcDbEntity
  8
0
  6
Continuous
 62
     7
370
    25
100
AcDbLine
 10
7.1617020731
 20
6.6147814169
 30
0.0
 11
7.1574373096
 21
6.6162285786
 31
0.0
  0
LINE
  5
1F5
330
1F
100
AcDbEntity
  8
0
  6
Continuous
 62
     7
370
    25
100
AcDbLine
 10
7.1228166613
 20
6.5142020549
 30
0.0
 11
7.1574373096
 21
6.6162285786
 31
0.0
  0
LINE
  5
1F6
330
1F
100
AcDbEntity
  8
0
  6
Continuous
 62
     7
370
    25
100
AcDbLine
 10
7.5793072342
 20
6.6147814169
 30
0.0
 11
7.5835719977
 21
6.6162285786
 31
0.0
  0
LINE
  5
1F7
330
1F
100
AcDbEntity
  8
0
  6
Continuous
 62
     7
370
    25
100
AcDbLine
 10
7.5835719977
 20
6.6162285786
 30
0.0
 11
7.6181926461
 21
6.5142020549
 31
0.0
  0
ARC
  5
1F8
330
1F
100
AcDbEntity
  8
0
  6
Continuous
 62
     7
370
    25
100
AcDbCircle
 10
7.3705046537
 20
6.5439284617
 30
0.0
 40
0.2250000000000006
100
AcDbArc
 50
18.743609846
 51
161.256390154
  0
LINE
  5
1F9
330
1F
100
AcDbEntity
  8
0
  6
Continuous
 62
     7
370
    25
100
AcDbLine
 10
9.1801923837
 20
3.9708611323
 30
0.0
 11
9.1152161808
 21
3.9394537065
 31
0.0
  0
LINE
  5
1FA
330
1F
100
AcDbEntity
  8
0
  6
Continuous
 62
     7
370
    25
100
AcDbLine
 10
9.1854808566
 20
4.0428358875
 30
0.0
 11
9.1801923837
 21
3.9708611323
 31
0.0
  0
LINE
  5
1FB
330
1F
100
AcDbEntity
  8
0
  6
Continuous
 62
     7
370
    25
100
AcDbLine
 10
9.1257931266
 20
4.0834032169
 30
0.0
 11
9.1854808566
 21
4.0428358875
 31
0.0
  0
LINE
  5
1FC
330
1F
100
AcDbEntity
  8
0
  6
Continuous
 62
     7
370
    25
100
AcDbLine
 10
9.0608169237
 20
4.0519957912
 30
0.0
 11
9.1257931266
 21
4.0834032169
 31
0.0
  0
LINE
  5
1FD
330
1F
100
AcDbEntity
  8
0
  6
Continuous
 62
     7
370
    25
100
AcDbLine
 10
9.0555284508
 20
3.980021036
 30
0.0
 11
9.0608169237
 21
4.0519957912
 31
0.0
  0
LINE
  5
1FE
330
1F
100
AcDbEntity
  8
0
  6
Continuous
 62
     7
370
    25
100
AcDbLine
 10
9.1152161808
 20
3.9394537065
 30
0.0
 11
9.0555284508
 21
3.980021036
 31
0.0
  0
CIRCLE
  5
1FF
330
1F
100
AcDbEntity
  8
0
  6
Continuous
 62
     7
370
    25
100
AcDbCircle
 10
9.1205046537
 20
4.0114284617
 30
0.0
 40
0.2055000000000088
  0
ARC
  5
200
330
1F
100
AcDbEntity
  8
0
  6
Continuous
 62
     7
370
    25
100
AcDbCircle
 10
9.1205046537
 20
4.0114284617
 30
0.0
 40
0.062500000000007
100
AcDbArc
 50
235.7976426584
 51
295.7976426584
  0
ARC
  5
201
330
1F
100
AcDbEntity
  8
0
  6
Continuous
 62
     7
370
    25
100
AcDbCircle
 10
9.1205046537
 20
4.0114284617
 30
0.0
 40
0.0625000000000086
100
AcDbArc
 50
175.7976426583
 51
235.7976426584
  0
ARC
  5
202
330
1F
100
AcDbEntity
  8
0
  6
Continuous
 62
     7
370
    25
100
AcDbCircle
 10
9.1205046537
 20
4.0114284617
 30
0.0
 40
0.0625000000000086
100
AcDbArc
 50
115.7976426584
 51
175.7976426583
  0
ARC
  5
203
330
1F
100
AcDbEntity
  8
0
  6
Continuous
 62
     7
370
    25
100
AcDbCircle
 10
9.1205046537
 20
4.0114284617
 30
0.0
 40
0.0625000000000039
100
AcDbArc
 50
55.7976426584
 51
115.7976426584
  0
ARC
  5
204
330
1F
100
AcDbEntity
  8
0
  6
Continuous
 62
     7
370
    25
100
AcDbCircle
 10
9.1205046537
 20
4.0114284617
 30
0.0
 40
0.0625000000000039
100
AcDbArc
 50
355.7976426584
 51
55.7976426584
  0
ARC
  5
205
330
1F
100
AcDbEntity
  8
0
  6
Continuous
 62
     7
370
    25
100
AcDbCircle
 10
9.1205046537
 20
4.0114284617
 30
0.0
 40
0.0624999999999972
100
AcDbArc
 50
295.7976426584
 51
355.7976426584
  0
LINE
  5
206
330
1F
100
AcDbEntity
  8
0
  6
Continuous
 62
     7
370
    25
100
AcDbLine
 10
5.5540222732
 20
3.9833495298
 30
0.0
 11
5.562946395
 21
4.0549644261
 31
0.0
  0
LINE
  5
207
330
1F
100
AcDbEntity
  8
0
  6
Continuous
 62
     7
370
    25
100
AcDbLine
 10
5.6115805318
 20
3.9398135654
 30
0.0
 11
5.5540222732
 21
3.9833495298
 31
0.0
  0
LINE
  5
208
330
1F
100
AcDbEntity
  8
0
  6
Continuous
 62
     7
370
    25
100
AcDbLine
 10
5.6780629123
 20
3.9678924973
 30
0.0
 11
5.6115805318
 21
3.9398135654
 31
0.0
  0
LINE
  5
209
330
1F
100
AcDbEntity
  8
0
  6
Continuous
 62
     7
370
    25
100
AcDbLine
 10
5.6869870341
 20
4.0395073937
 30
0.0
 11
5.6780629123
 21
3.9678924973
 31
0.0
  0
LINE
  5
20A
330
1F
100
AcDbEntity
  8
0
  6
Continuous
 62
     7
370
    25
100
AcDbLine
 10
5.6294287755
 20
4.0830433581
 30
0.0
 11
5.6869870341
 21
4.0395073937
 31
0.0
  0
LINE
  5
20B
330
1F
100
AcDbEntity
  8
0
  6
Continuous
 62
     7
370
    25
100
AcDbLine
 10
5.562946395
 20
4.0549644261
 30
0.0
 11
5.6294287755
 21
4.0830433581
 31
0.0
  0
CIRCLE
  5
20C
330
1F
100
AcDbEntity
  8
0
  6
Continuous
 62
     7
370
    25
100
AcDbCircle
 10
5.6205046537
 20
4.0114284617
 30
0.0
 40
0.205500000000009
  0
ARC
  5
20D
330
1F
100
AcDbEntity
  8
0
  6
Continuous
 62
     7
370
    25
100
AcDbCircle
 10
5.6205046537
 20
4.0114284617
 30
0.0
 40
0.0625000000000076
100
AcDbArc
 50
52.8968369208
 51
112.8968369208
  0
ARC
  5
20E
330
1F
100
AcDbEntity
  8
0
  6
Continuous
 62
     7
370
    25
100
AcDbCircle
 10
5.6205046537
 20
4.0114284617
 30
0.0
 40
0.0625000000000066
100
AcDbArc
 50
112.8968369208
 51
172.8968369208
  0
ARC
  5
20F
330
1F
100
AcDbEntity
  8
0
  6
Continuous
 62
     7
370
    25
100
AcDbCircle
 10
5.6205046537
 20
4.0114284617
 30
0.0
 40
0.0625000000000076
100
AcDbArc
 50
352.8968369208
 51
52.8968369208
  0
ARC
  5
210
330
1F
100
AcDbEntity
  8
0
  6
Continuous
 62
     7
370
    25
100
AcDbCircle
 10
5.6205046537
 20
4.0114284617
 30
0.0
 40
0.0625000000000036
100
AcDbArc
 50
292.8968369208
 51
352.8968369208
  0
ARC
  5
211
330
1F
100
AcDbEntity
  8
0
  6
Continuous
 62
     7
370
    25
100
AcDbCircle
 10
5.6205046537
 20
4.0114284617
 30
0.0
 40
0.0625000000000036
100
AcDbArc
 50
232.8968369208
 51
292.8968369208
  0
ARC
  5
212
330
1F
100
AcDbEntity
  8
0
  6
Continuous
 62
     7
370
    25
100
AcDbCircle
 10
5.6205046537
 20
4.0114284617
 30
0.0
 40
0.0624999999999975
100
AcDbArc
 50
172.8968369208
 51
232.8968369208
  0
CIRCLE
  5
213
330
1F
100
AcDbEntity
  8
0
  6
Continuous
 62
     7
370
    25
100
AcDbCircle
 10
7.3705046537
 20
4.0114284617
 30
0.0
 40
0.8899999999999997
  0
DIMENSION
  5
214
330
1F
100
AcDbEntity
  8
SLD-0
100
AcDbDimension
  2
_D_3
 10
5.592131099
 20
5.7898020164
 30
0.0
 11
11.1551304327
 21
1.4687297386
 31
0.0
 70
   163
  1
<>
 71
     1
 42
-1.0
  3
SLDDIMSTYLE3
100
AcDbDiametricDimension
 15
9.1488782083
 25
2.2330549071
 35
0.0
 40
0.0
  0
DIMENSION
  5
225
330
1F
100
AcDbEntity
  8
SLD-0
100
AcDbDimension
  2
_D_4
 10
9.1205046537
 20
7.8877068473
 30
0.0
 11
7.3705046537
 21
7.8877068473
 31
0.0
 70
   160
  1
<> O.C.
 71
     2
 42
-1.0
  3
SLDDIMSTYLE0
100
AcDbAlignedDimension
 13
5.6205046537
 23
4.0114284617
 33
0.0
 14
9.1205046537
 24
4.0114284617
 34
0.0
 50
0.0
100
AcDbRotatedDimension
  0
ENDSEC
  0
SECTION
  2
OBJECTS
  0
DICTIONARY
  5
C
330
0
100
AcDbDictionary
281
     1
  3
ACAD_GROUP
350
D
  3
ACAD_LAYOUT
350
1A
  3
ACAD_MLINESTYLE
350
17
  3
ACAD_PLOTSETTINGS
350
19
  3
ACAD_PLOTSTYLENAME
350
E
  3
ACAD_SCALELIST
350
47
  3
DWGPROPS
350
238
  0
DICTIONARY
  5
D
102
{ACAD_REACTORS
330
C
102
}
330
C
100
AcDbDictionary
281
     1
  0
DICTIONARY
  5
1A
102
{ACAD_REACTORS
330
C
102
}
330
C
100
AcDbDictionary
281
     1
  3
Layout1
350
1E
  3
Layout2
350
26
  3
Model
350
22
  0
DICTIONARY
  5
17
102
{ACAD_REACTORS
330
C
102
}
330
C
100
AcDbDictionary
281
     1
  3
Standard
350
18
  0
DICTIONARY
  5
19
102
{ACAD_REACTORS
330
C
102
}
330
C
100
AcDbDictionary
281
     1
  0
ACDBDICTIONARYWDFLT
  5
E
102
{ACAD_REACTORS
330
C
102
}
330
C
100
AcDbDictionary
281
     1
  3
Normal
350
F
100
AcDbDictionaryWithDefault
340
F
  0
DICTIONARY
  5
47
102
{ACAD_REACTORS
330
C
102
}
330
C
100
AcDbDictionary
281
     1
  3
A0
350
48
  3
A1
350
49
  3
A2
350
4A
  3
A3
350
4B
  3
A4
350
4C
  3
A5
350
4D
  3
A6
350
4E
  3
A7
350
4F
  3
A8
350
50
  3
A9
350
51
  3
B1
350
52
  3
B2
350
53
  3
B3
350
54
  3
B4
350
55
  3
B5
350
56
  3
B6
350
57
  3
B7
350
58
  0
XRECORD
  5
238
102
{ACAD_REACTORS
330
C
102
}
330
C
100
AcDbXrecord
280
     1
  1
DWGPROPS COOKIE
  2

  3

  4

  6

  7

  8
alekseyb
  9

300
=
301
=
302
=
303
=
304
=
305
=
306
=
307
=
308
=
309
=
 40
0.0
 41
2460476.434069016
 42
2460476.434069827
  1

 90
        0
  0
LAYOUT
  5
1E
102
{ACAD_REACTORS
330
1A
102
}
330
1A
100
AcDbPlotSettings
  1

  2
none_device
  4

  6

 40
0.0
 41
0.0
 42
0.0
 43
0.0
 44
0.0
 45
0.0
 46
0.0
 47
0.0
 48
0.0
 49
0.0
140
0.0
141
0.0
142
1.0
143
1.0
 70
   688
 72
     0
 73
     0
 74
     5
  7

 75
    16
147
1.0
148
0.0
149
0.0
100
AcDbLayout
  1
Layout1
 70
     1
 71
     1
 10
0.0
 20
0.0
 11
12.0
 21
9.0
 12
0.0
 22
0.0
 32
0.0
 14
1.0000000000E+20
 24
1.0000000000E+20
 34
1.0000000000E+20
 15
-1.0000000000E+20
 25
-1.0000000000E+20
 35
-1.0000000000E+20
146
0.0
 13
0.0
 23
0.0
 33
0.0
 16
1.0
 26
0.0
 36
0.0
 17
0.0
 27
1.0
 37
0.0
 76
     0
330
1B
  0
LAYOUT
  5
26
102
{ACAD_REACTORS
330
1A
102
}
330
1A
100
AcDbPlotSettings
  1

  2
none_device
  4

  6

 40
0.0
 41
0.0
 42
0.0
 43
0.0
 44
0.0
 45
0.0
 46
0.0
 47
0.0
 48
0.0
 49
0.0
140
0.0
141
0.0
142
1.0
143
1.0
 70
   688
 72
     0
 73
     0
 74
     5
  7

 75
    16
147
1.0
148
0.0
149
0.0
100
AcDbLayout
  1
Layout2
 70
     1
 71
     2
 10
0.0
 20
0.0
 11
0.0
 21
0.0
 12
0.0
 22
0.0
 32
0.0
 14
0.0
 24
0.0
 34
0.0
 15
0.0
 25
0.0
 35
0.0
146
0.0
 13
0.0
 23
0.0
 33
0.0
 16
1.0
 26
0.0
 36
0.0
 17
0.0
 27
1.0
 37
0.0
 76
     0
330
23
  0
LAYOUT
  5
22
102
{ACAD_REACTORS
330
1A
102
}
330
1A
100
AcDbPlotSettings
  1

  2
none_device
  4
Letter_(8.50_x_11.00_Inches)
  6

 40
6.35
 41
6.35
 42
6.35000508
 43
6.35000508
 44
215.9
 45
279.4
 46
0.0
 47
0.0
 48
0.0
 49
0.0
140
0.0
141
0.0
142
1.0
143
1.0
 70
  1712
 72
     0
 73
     0
 74
     0
  7

 75
     0
147
1.0
148
0.0
149
0.0
100
AcDbLayout
  1
Model
 70
     1
 71
     0
 10
0.0
 20
0.0
 11
22.0
 21
17.0
 12
0.0
 22
0.0
 32
0.0
 14
0.0
 24
0.0
 34
0.0
 15
22.0
 25
17.0
 35
0.0
146
0.0
 13
0.0
 23
0.0
 33
0.0
 16
1.0
 26
0.0
 36
0.0
 17
0.0
 27
1.0
 37
0.0
 76
     0
330
1F
331
29
  0
MLINESTYLE
  5
18
102
{ACAD_REACTORS
330
17
102
}
330
17
100
AcDbMlineStyle
  2
Standard
 70
     0
  3

 62
   256
 51
90.0
 52
90.0
 71
     2
 49
0.5
 62
   256
  6
BYLAYER
 49
-0.5
 62
   256
  6
BYLAYER
  0
ACDBPLACEHOLDER
  5
F
102
{ACAD_REACTORS
330
E
102
}
330
E
  0
SCALE
  5
48
102
{ACAD_REACTORS
330
47
102
}
330
47
100
AcDbScale
 70
     0
300
1:1
140
1.0
141
1.0
290
     1
  0
SCALE
  5
49
102
{ACAD_REACTORS
330
47
102
}
330
47
100
AcDbScale
 70
     0
300
1/128" = 1'-0"
140
0.0078125
141
12.0
290
     0
  0
SCALE
  5
4A
102
{ACAD_REACTORS
330
47
102
}
330
47
100
AcDbScale
 70
     0
300
1/64" = 1'-0"
140
0.015625
141
12.0
290
     0
  0
SCALE
  5
4B
102
{ACAD_REACTORS
330
47
102
}
330
47
100
AcDbScale
 70
     0
300
1/32" = 1'-0"
140
0.03125
141
12.0
290
     0
  0
SCALE
  5
4C
102
{ACAD_REACTORS
330
47
102
}
330
47
100
AcDbScale
 70
     0
300
1/16" = 1'-0"
140
0.0625
141
12.0
290
     0
  0
SCALE
  5
4D
102
{ACAD_REACTORS
330
47
102
}
330
47
100
AcDbScale
 70
     0
300
3/32" = 1'-0"
140
0.09375
141
12.0
290
     0
  0
SCALE
  5
4E
102
{ACAD_REACTORS
330
47
102
}
330
47
100
AcDbScale
 70
     0
300
1/8" = 1'-0"
140
0.125
141
12.0
290
     0
  0
SCALE
  5
4F
102
{ACAD_REACTORS
330
47
102
}
330
47
100
AcDbScale
 70
     0
300
3/16" = 1'-0"
140
0.1875
141
12.0
290
     0
  0
SCALE
  5
50
102
{ACAD_REACTORS
330
47
102
}
330
47
100
AcDbScale
 70
     0
300
1/4" = 1'-0"
140
0.25
141
12.0
290
     0
  0
SCALE
  5
51
102
{ACAD_REACTORS
330
47
102
}
330
47
100
AcDbScale
 70
     0
300
3/8" = 1'-0"
140
0.375
141
12.0
290
     0
  0
SCALE
  5
52
102
{ACAD_REACTORS
330
47
102
}
330
47
100
AcDbScale
 70
     0
300
1/2" = 1'-0"
140
0.5
141
12.0
290
     0
  0
SCALE
  5
53
102
{ACAD_REACTORS
330
47
102
}
330
47
100
AcDbScale
 70
     0
300
3/4" = 1'-0"
140
0.75
141
12.0
290
     0
  0
SCALE
  5
54
102
{ACAD_REACTORS
330
47
102
}
330
47
100
AcDbScale
 70
     0
300
1" = 1'-0"
140
1.0
141
12.0
290
     0
  0
SCALE
  5
55
102
{ACAD_REACTORS
330
47
102
}
330
47
100
AcDbScale
 70
     0
300
1-1/2" = 1'-0"
140
1.5
141
12.0
290
     0
  0
SCALE
  5
56
102
{ACAD_REACTORS
330
47
102
}
330
47
100
AcDbScale
 70
     0
300
3" = 1'-0"
140
3.0
141
12.0
290
     0
  0
SCALE
  5
57
102
{ACAD_REACTORS
330
47
102
}
330
47
100
AcDbScale
 70
     0
300
6" = 1'-0"
140
6.0
141
12.0
290
     0
  0
SCALE
  5
58
102
{ACAD_REACTORS
330
47
102
}
330
47
100
AcDbScale
 70
     0
300
1'-0" = 1'-0"
140
12.0
141
12.0
290
     0
  0
ENDSEC
  0
EOF
