  0
SECTION
  2
HEADER
  9
$ACADVER
  1
AC1015
  9
$ACADMAINTVER
 70
     6
  9
$DWGCODEPAGE
  3
ANSI_1252
  9
$INSBASE
 10
0.0
 20
0.0
 30
0.0
  9
$EXTMIN
 10
0.0
 20
0.0
 30
0.0
  9
$EXTMAX
 10
16.5
 20
12.75
 30
0.0
  9
$LIMMIN
 10
0.0
 20
0.0
  9
$LIMMAX
 10
16.5
 20
12.75
  9
$ORTHOMODE
 70
     0
  9
$REGENMODE
 70
     1
  9
$FILLMODE
 70
     1
  9
$QTEXTMODE
 70
     0
  9
$MIRRTEXT
 70
     1
  9
$LTSCALE
 40
1.5
  9
$ATTMODE
 70
     1
  9
$TEXTSIZE
 40
0.1875
  9
$TRACEWID
 40
0.05
  9
$TEXTSTYLE
  7
STANDARD
  9
$CLAYER
  8
0
  9
$CELTYPE
  6
ByLayer
  9
$CECOLOR
 62
   256
  9
$CELTSCALE
 40
1.0
  9
$DISPSILH
 70
     0
  9
$DIMSCALE
 40
1.0
  9
$DIMASZ
 40
0.195
  9
$DIMEXO
 40
0.075
  9
$DIMDLI
 40
0.38
  9
$DIMRND
 40
0.0
  9
$DIMDLE
 40
0.0
  9
$DIMEXE
 40
0.1875
  9
$DIMTP
 40
0.0
  9
$DIMTM
 40
0.0
  9
$DIMTXT
 40
0.1875
  9
$DIMCEN
 40
0.09
  9
$DIMTSZ
 40
0.0
  9
$DIMTOL
 70
     0
  9
$DIMLIM
 70
     0
  9
$DIMTIH
 70
     1
  9
$DIMTOH
 70
     1
  9
$DIMSE1
 70
     0
  9
$DIMSE2
 70
     0
  9
$DIMTAD
 70
     0
  9
$DIMZIN
 70
     1
  9
$DIMBLK
  1

  9
$DIMASO
 70
     1
  9
$DIMSHO
 70
     1
  9
$DIMPOST
  1

  9
$DIMAPOST
  1

  9
$DIMALT
 70
     0
  9
$DIMALTD
 70
     2
  9
$DIMALTF
 40
25.4
  9
$DIMLFAC
 40
1.0
  9
$DIMTOFL
 70
     0
  9
$DIMTVP
 40
0.0
  9
$DIMTIX
 70
     0
  9
$DIMSOXD
 70
     0
  9
$DIMSAH
 70
     0
  9
$DIMBLK1
  1

  9
$DIMBLK2
  1

  9
$DIMSTYLE
  2
Standard
  9
$DIMCLRD
 70
     0
  9
$DIMCLRE
 70
     0
  9
$DIMCLRT
 70
     0
  9
$DIMTFAC
 40
1.0
  9
$DIMGAP
 40
0.09
  9
$DIMJUST
 70
     0
  9
$DIMSD1
 70
     0
  9
$DIMSD2
 70
     0
  9
$DIMTOLJ
 70
     1
  9
$DIMTZIN
 70
     1
  9
$DIMALTZ
 70
     0
  9
$DIMALTTZ
 70
     0
  9
$DIMUPT
 70
     0
  9
$DIMDEC
 70
     0
  9
$DIMTDEC
 70
     0
  9
$DIMALTU
 70
     2
  9
$DIMALTTD
 70
     2
  9
$DIMTXSTY
  7
STANDARD
  9
$DIMAUNIT
 70
     0
  9
$DIMADEC
 70
     0
  9
$DIMALTRND
 40
0.0
  9
$DIMAZIN
 70
     0
  9
$DIMDSEP
 70
    46
  9
$DIMATFIT
 70
     3
  9
$DIMFRAC
 70
     0
  9
$DIMLDRBLK
  1

  9
$DIMLUNIT
 70
     2
  9
$DIMLWD
 70
    -2
  9
$DIMLWE
 70
    -2
  9
$DIMTMOVE
 70
     0
  9
$LUNITS
 70
     2
  9
$LUPREC
 70
     6
  9
$SKETCHINC
 40
0.1
  9
$FILLETRAD
 40
0.0
  9
$AUNITS
 70
     0
  9
$AUPREC
 70
     2
  9
$MENU
  1
.
  9
$ELEVATION
 40
0.0
  9
$PELEVATION
 40
0.0
  9
$THICKNESS
 40
0.0
  9
$LIMCHECK
 70
     0
  9
$CHAMFERA
 40
0.0
  9
$CHAMFERB
 40
0.0
  9
$CHAMFERC
 40
0.0
  9
$CHAMFERD
 40
0.0
  9
$SKPOLY
 70
     0
  9
$TDCREATE
 40
2460476.943745567
  9
$TDUCREATE
 40
2460477.235412234
  9
$TDUPDATE
 40
2460476.943746516
  9
$TDUUPDATE
 40
2460477.235413183
  9
$TDINDWG
 40
0.0000000116
  9
$TDUSRTIMER
 40
0.0000000116
  9
$USRTIMER
 70
     1
  9
$ANGBASE
 50
0.0
  9
$ANGDIR
 70
     0
  9
$PDMODE
 70
     0
  9
$PDSIZE
 40
-1.0
  9
$PLINEWID
 40
0.0
  9
$SPLFRAME
 70
     0
  9
$SPLINETYPE
 70
     6
  9
$SPLINESEGS
 70
     8
  9
$HANDSEED
  5
1A8
  9
$SURFTAB1
 70
     6
  9
$SURFTAB2
 70
     6
  9
$SURFTYPE
 70
     6
  9
$SURFU
 70
     6
  9
$SURFV
 70
     6
  9
$UCSBASE
  2

  9
$UCSNAME
  2

  9
$UCSORG
 10
0.0
 20
0.0
 30
0.0
  9
$UCSXDIR
 10
1.0
 20
0.0
 30
0.0
  9
$UCSYDIR
 10
0.0
 20
1.0
 30
0.0
  9
$UCSORTHOREF
  2

  9
$UCSORTHOVIEW
 70
     0
  9
$UCSORGTOP
 10
0.0
 20
0.0
 30
0.0
  9
$UCSORGBOTTOM
 10
0.0
 20
0.0
 30
0.0
  9
$UCSORGLEFT
 10
0.0
 20
0.0
 30
0.0
  9
$UCSORGRIGHT
 10
0.0
 20
0.0
 30
0.0
  9
$UCSORGFRONT
 10
0.0
 20
0.0
 30
0.0
  9
$UCSORGBACK
 10
0.0
 20
0.0
 30
0.0
  9
$PUCSBASE
  2

  9
$PUCSNAME
  2

  9
$PUCSORG
 10
0.0
 20
0.0
 30
0.0
  9
$PUCSXDIR
 10
1.0
 20
0.0
 30
0.0
  9
$PUCSYDIR
 10
0.0
 20
1.0
 30
0.0
  9
$PUCSORTHOREF
  2

  9
$PUCSORTHOVIEW
 70
     0
  9
$PUCSORGTOP
 10
0.0
 20
0.0
 30
0.0
  9
$PUCSORGBOTTOM
 10
0.0
 20
0.0
 30
0.0
  9
$PUCSORGLEFT
 10
0.0
 20
0.0
 30
0.0
  9
$PUCSORGRIGHT
 10
0.0
 20
0.0
 30
0.0
  9
$PUCSORGFRONT
 10
0.0
 20
0.0
 30
0.0
  9
$PUCSORGBACK
 10
0.0
 20
0.0
 30
0.0
  9
$USERI1
 70
     0
  9
$USERI2
 70
     0
  9
$USERI3
 70
     0
  9
$USERI4
 70
     0
  9
$USERI5
 70
     0
  9
$USERR1
 40
0.0
  9
$USERR2
 40
0.0
  9
$USERR3
 40
0.0
  9
$USERR4
 40
0.0
  9
$USERR5
 40
0.0
  9
$WORLDVIEW
 70
     1
  9
$SHADEDGE
 70
     3
  9
$SHADEDIF
 70
    70
  9
$TILEMODE
 70
     1
  9
$MAXACTVP
 70
    64
  9
$PINSBASE
 10
0.0
 20
0.0
 30
0.0
  9
$PLIMCHECK
 70
     0
  9
$PEXTMIN
 10
1.0000000000E+20
 20
1.0000000000E+20
 30
1.0000000000E+20
  9
$PEXTMAX
 10
-1.0000000000E+20
 20
-1.0000000000E+20
 30
-1.0000000000E+20
  9
$PLIMMIN
 10
0.0
 20
0.0
  9
$PLIMMAX
 10
12.0
 20
9.0
  9
$UNITMODE
 70
     0
  9
$VISRETAIN
 70
     1
  9
$PLINEGEN
 70
     0
  9
$PSLTSCALE
 70
     1
  9
$TREEDEPTH
 70
  3020
  9
$CMLSTYLE
  2
Standard
  9
$CMLJUST
 70
     0
  9
$CMLSCALE
 40
1.0
  9
$PROXYGRAPHICS
 70
     1
  9
$MEASUREMENT
 70
     0
  9
$CELWEIGHT
370
    -1
  9
$ENDCAPS
280
     0
  9
$JOINSTYLE
280
     0
  9
$LWDISPLAY
290
     1
  9
$INSUNITS
 70
     1
  9
$HYPERLINKBASE
  1

  9
$STYLESHEET
  1

  9
$XEDIT
290
     1
  9
$CEPSNTYPE
380
     0
  9
$PSTYLEMODE
290
     1
  9
$FINGERPRINTGUID
  2
{1b4ef964-00de-43ff-bcde-292c0964c83d}
  9
$VERSIONGUID
  2
{FAEB1C32-E019-11D5-929B-00C0DF256EC4}
  9
$EXTNAMES
290
     1
  9
$PSVPSCALE
 40
0.0
  9
$OLESTARTUP
290
     0
  0
ENDSEC
  0
SECTION
  2
CLASSES
  0
CLASS
  1
ACDBDICTIONARYWDFLT
  2
AcDbDictionaryWithDefault
  3
ObjectDBX Classes
 90
        0
280
     0
281
     0
  0
CLASS
  1
VISUALSTYLE
  2
AcDbVisualStyle
  3
ObjectDBX Classes
 90
     4095
280
     0
281
     0
  0
CLASS
  1
MATERIAL
  2
AcDbMaterial
  3
ObjectDBX Classes
 90
     1153
280
     0
281
     0
  0
CLASS
  1
SCALE
  2
AcDbScale
  3
ObjectDBX Classes
 90
     1153
280
     0
281
     0
  0
CLASS
  1
TABLESTYLE
  2
AcDbTableStyle
  3
ObjectDBX Classes
 90
     4095
280
     0
281
     0
  0
CLASS
  1
MLEADERSTYLE
  2
AcDbMLeaderStyle
  3
ACDB_MLEADERSTYLE_CLASS
 90
     4095
280
     0
281
     0
  0
CLASS
  1
SUN
  2
AcDbSun
  3
SCENEOE
 90
     1153
280
     0
281
     0
  0
CLASS
  1
ACDBPLACEHOLDER
  2
AcDbPlaceHolder
  3
ObjectDBX Classes
 90
        0
280
     0
281
     0
  0
CLASS
  1
LAYOUT
  2
AcDbLayout
  3
ObjectDBX Classes
 90
        0
280
     0
281
     0
  0
ENDSEC
  0
SECTION
  2
TABLES
  0
TABLE
  2
VPORT
  5
8
330
0
100
AcDbSymbolTable
 70
     1
  0
VPORT
  5
29
330
8
100
AcDbSymbolTableRecord
100
AcDbViewportTableRecord
  2
*Active
 70
     0
 10
0.0
 20
0.0
 11
1.0
 21
1.0
 12
8.25
 22
6.375
 13
0.0
 23
0.0
 14
0.5
 24
0.5
 15
0.5
 25
0.5
 16
0.0
 26
0.0
 36
1.0
 17
0.0
 27
0.0
 37
0.0
 40
12.75
 41
1.2941176471
 42
50.0
 43
0.0
 44
0.0
 50
0.0
 51
0.0
 71
     0
 72
  2000
 73
     1
 74
     3
 75
     0
 76
     0
 77
     0
 78
     0
281
     0
 65
     1
110
0.0
120
0.0
130
0.0
111
1.0
121
0.0
131
0.0
112
0.0
122
1.0
132
0.0
 79
     0
146
0.0
  0
ENDTAB
  0
TABLE
  2
LTYPE
  5
5
330
0
100
AcDbSymbolTable
 70
     6
  0
LTYPE
  5
14
330
5
100
AcDbSymbolTableRecord
100
AcDbLinetypeTableRecord
  2
ByBlock
 70
     0
  3

 72
    65
 73
     0
 40
0.0
  0
LTYPE
  5
15
330
5
100
AcDbSymbolTableRecord
100
AcDbLinetypeTableRecord
  2
ByLayer
 70
     0
  3

 72
    65
 73
     0
 40
0.0
  0
LTYPE
  5
16
330
5
100
AcDbSymbolTableRecord
100
AcDbLinetypeTableRecord
  2
Continuous
 70
     0
  3
Solid line
 72
    65
 73
     0
 40
0.0
  0
LTYPE
  5
5E
330
5
100
AcDbSymbolTableRecord
100
AcDbLinetypeTableRecord
  2
HIDDEN
 70
     0
  3
Hidden __ __ __ __ __ __ __ __ __ __ __ __ __ __
 72
    65
 73
     2
 40
0.075
 49
0.05
 74
     0
 49
-0.025
 74
     0
  0
LTYPE
  5
5F
330
5
100
AcDbSymbolTableRecord
100
AcDbLinetypeTableRecord
  2
PHANTOM
 70
     0
  3
Phantom ______  __  __  ______  __  __  ______
 72
    65
 73
     6
 40
0.5
 49
0.25
 74
     0
 49
-0.05
 74
     0
 49
0.05
 74
     0
 49
-0.05
 74
     0
 49
0.05
 74
     0
 49
-0.05
 74
     0
  0
LTYPE
  5
60
330
5
100
AcDbSymbolTableRecord
100
AcDbLinetypeTableRecord
  2
CENTER
 70
     0
  3
Center ____ _ ____ _ ____ _ ____ _ ____ _ ____
 72
    65
 73
     4
 40
0.4
 49
0.25
 74
     0
 49
-0.05
 74
     0
 49
0.05
 74
     0
 49
-0.05
 74
     0
  0
LTYPE
  5
61
330
5
100
AcDbSymbolTableRecord
100
AcDbLinetypeTableRecord
  2
CENTERX2
 70
     0
  3
Center (2x) ________  __  ________  __  _____
 72
    65
 73
     4
 40
0.8
 49
0.5
 74
     0
 49
-0.1
 74
     0
 49
0.1
 74
     0
 49
-0.1
 74
     0
  0
LTYPE
  5
62
330
5
100
AcDbSymbolTableRecord
100
AcDbLinetypeTableRecord
  2
DOT2
 70
     0
  3
Dot (.5x) ........................................
 72
    65
 73
     2
 40
0.025
 49
0.0
 74
     0
 49
-0.025
 74
     0
  0
ENDTAB
  0
TABLE
  2
LAYER
  5
2
330
0
100
AcDbSymbolTable
 70
    12
  0
LAYER
  5
10
330
2
100
AcDbSymbolTableRecord
100
AcDbLayerTableRecord
  2
0
 70
     0
 62
     7
  6
Continuous
370
    -3
390
F
  0
LAYER
  5
63
330
2
100
AcDbSymbolTableRecord
100
AcDbLayerTableRecord
  2
SLD-0
 70
     0
 62
     7
  6
Continuous
370
    -3
390
F
  0
LAYER
  5
64
330
2
100
AcDbSymbolTableRecord
100
AcDbLayerTableRecord
  2
DIM
 70
     0
 62
     7
  6
Continuous
370
    -3
390
F
  0
LAYER
  5
65
330
2
100
AcDbSymbolTableRecord
100
AcDbLayerTableRecord
  2
CEN
 70
     0
 62
     1
  6
CENTER
370
    -3
390
F
  0
LAYER
  5
66
330
2
100
AcDbSymbolTableRecord
100
AcDbLayerTableRecord
  2
HAT
 70
     0
 62
     4
  6
Continuous
370
    -3
390
F
  0
LAYER
  5
67
330
2
100
AcDbSymbolTableRecord
100
AcDbLayerTableRecord
  2
OBJ
 70
     0
 62
     5
  6
Continuous
370
    -3
390
F
  0
LAYER
  5
68
330
2
100
AcDbSymbolTableRecord
100
AcDbLayerTableRecord
  2
SLD-DEFPOINTS
 70
     0
 62
     7
  6
Continuous
370
    -3
390
F
  0
LAYER
  5
69
330
2
100
AcDbSymbolTableRecord
100
AcDbLayerTableRecord
  2
HID
 70
     0
 62
     4
  6
HIDDEN
370
    -3
390
F
  0
LAYER
  5
6A
330
2
100
AcDbSymbolTableRecord
100
AcDbLayerTableRecord
  2
NOTE
 70
     0
 62
     7
  6
Continuous
370
    -3
390
F
  0
LAYER
  5
6B
330
2
100
AcDbSymbolTableRecord
100
AcDbLayerTableRecord
  2
VP
 70
     0
 62
    -5
  6
Continuous
290
     0
370
    -3
390
F
  0
LAYER
  5
6C
330
2
100
AcDbSymbolTableRecord
100
AcDbLayerTableRecord
  2
TITLE
 70
     0
 62
     7
  6
Continuous
370
    -3
390
F
  0
LAYER
  5
6D
330
2
100
AcDbSymbolTableRecord
100
AcDbLayerTableRecord
  2
THICK_TITLE
 70
     0
 62
     7
  6
Continuous
370
   100
390
F
  0
ENDTAB
  0
TABLE
  2
STYLE
  5
3
330
0
100
AcDbSymbolTable
 70
     2
  0
STYLE
  5
11
330
3
100
AcDbSymbolTableRecord
100
AcDbTextStyleTableRecord
  2
STANDARD
 70
     0
 40
0.0
 41
1.0
 50
0.0
 71
     0
 42
0.1875
  3
GOTHIC.TTF
  4

1001
ACAD
1000
CENTURY GOTHIC
1071
       34
  0
STYLE
  5
74
330
3
100
AcDbSymbolTableRecord
100
AcDbTextStyleTableRecord
  2
SLDTEXTSTYLE0
 70
     0
 40
0.0
 41
0.913
 50
0.0
 71
     0
 42
0.1875
  3
GOTHIC.TTF
  4

1001
ACAD
1000
Century Gothic
1071
      290
  0
ENDTAB
  0
TABLE
  2
VIEW
  5
6
330
0
100
AcDbSymbolTable
 70
     0
  0
ENDTAB
  0
TABLE
  2
UCS
  5
7
330
0
100
AcDbSymbolTable
 70
     0
  0
ENDTAB
  0
TABLE
  2
APPID
  5
9
330
0
100
AcDbSymbolTable
 70
     1
  0
APPID
  5
12
330
9
100
AcDbSymbolTableRecord
100
AcDbRegAppTableRecord
  2
ACAD
 70
     0
  0
ENDTAB
  0
TABLE
  2
DIMSTYLE
  5
A
330
0
100
AcDbSymbolTable
 70
     4
100
AcDbDimStyleTable
  0
DIMSTYLE
105
27
330
A
100
AcDbSymbolTableRecord
100
AcDbDimStyleTableRecord
  2
Standard
 70
     0
178
     0
340
11
  0
DIMSTYLE
105
BB
102
{ACAD_REACTORS
330
BA
330
CF
102
}
330
A
100
AcDbSymbolTableRecord
100
AcDbDimStyleTableRecord
  2
SLDDIMSTYLE0
 70
     0
 41
0.195
 44
0.0
 45
0.000000001
 78
    12
 79
     3
140
0.1875
147
0.046875
148
0.000000001
170
     1
173
     1
178
     0
271
     6
272
     0
276
     2
277
     5
284
    12
340
74
  0
DIMSTYLE
105
E4
102
{ACAD_REACTORS
330
E3
102
}
330
A
100
AcDbSymbolTableRecord
100
AcDbDimStyleTableRecord
  2
SLDDIMSTYLE1
 70
     0
 41
0.195
 44
0.0
 45
0.000000001
 78
    12
 79
     3
140
0.1875
147
0.046875
148
0.000000001
170
     1
172
     1
173
     1
178
     0
271
     0
272
     0
276
     2
277
     5
284
    12
289
     0
340
74
  0
DIMSTYLE
105
159
102
{ACAD_REACTORS
330
158
330
176
330
193
102
}
330
A
100
AcDbSymbolTableRecord
100
AcDbDimStyleTableRecord
  2
SLDDIMSTYLE2
 70
     0
 41
0.195
 44
0.0
 45
0.000000001
 78
    12
 79
     3
140
0.1875
144
2.0
147
0.046875
148
0.000000001
170
     1
173
     1
178
     0
271
     6
272
     0
276
     2
277
     5
284
    12
340
74
  0
ENDTAB
  0
TABLE
  2
BLOCK_RECORD
  5
1
330
0
100
AcDbSymbolTable
 70
    13
  0
BLOCK_RECORD
  5
1F
330
1
100
AcDbSymbolTableRecord
100
AcDbBlockTableRecord
  2
*Model_Space
340
22
  0
BLOCK_RECORD
  5
1B
330
1
100
AcDbSymbolTableRecord
100
AcDbBlockTableRecord
  2
*Paper_Space
340
1E
  0
BLOCK_RECORD
  5
23
330
1
100
AcDbSymbolTableRecord
100
AcDbBlockTableRecord
  2
*Paper_Space0
340
26
  0
BLOCK_RECORD
  5
6E
330
1
100
AcDbSymbolTableRecord
100
AcDbBlockTableRecord
  2
Block1
340
0
102
{BLKREFS
331
87
102
}
  0
BLOCK_RECORD
  5
71
330
1
100
AcDbSymbolTableRecord
100
AcDbBlockTableRecord
  2
SW_NOTE_0
340
0
102
{BLKREFS
331
76
102
}
  0
BLOCK_RECORD
  5
77
330
1
100
AcDbSymbolTableRecord
100
AcDbBlockTableRecord
  2
Block2
340
0
102
{BLKREFS
331
89
102
}
  0
BLOCK_RECORD
  5
7A
330
1
100
AcDbSymbolTableRecord
100
AcDbBlockTableRecord
  2
SW_NOTE_0_1
340
0
102
{BLKREFS
331
7E
102
}
  0
BLOCK_RECORD
  5
7F
330
1
100
AcDbSymbolTableRecord
100
AcDbBlockTableRecord
  2
Block3
340
0
102
{BLKREFS
331
88
102
}
  0
BLOCK_RECORD
  5
82
330
1
100
AcDbSymbolTableRecord
100
AcDbBlockTableRecord
  2
SW_NOTE_0_2
340
0
102
{BLKREFS
331
86
102
}
  0
BLOCK_RECORD
  5
BC
330
1
100
AcDbSymbolTableRecord
100
AcDbBlockTableRecord
  2
_D
340
0
  0
BLOCK_RECORD
  5
D0
330
1
100
AcDbSymbolTableRecord
100
AcDbBlockTableRecord
  2
_D_1
340
0
  0
BLOCK_RECORD
  5
E5
330
1
100
AcDbSymbolTableRecord
100
AcDbBlockTableRecord
  2
_D_2
340
0
  0
BLOCK_RECORD
  5
15A
330
1
100
AcDbSymbolTableRecord
100
AcDbBlockTableRecord
  2
_D_3
340
0
  0
BLOCK_RECORD
  5
177
330
1
100
AcDbSymbolTableRecord
100
AcDbBlockTableRecord
  2
_D_4
340
0
  0
BLOCK_RECORD
  5
194
330
1
100
AcDbSymbolTableRecord
100
AcDbBlockTableRecord
  2
_D_5
340
0
  0
ENDTAB
  0
ENDSEC
  0
SECTION
  2
BLOCKS
  0
BLOCK
  5
20
330
1F
100
AcDbEntity
  8
0
100
AcDbBlockBegin
  2
*Model_Space
 70
     0
 10
0.0
 20
0.0
 30
0.0
  3
*Model_Space
  1

  0
ENDBLK
  5
21
330
1F
100
AcDbEntity
  8
0
100
AcDbBlockEnd
  0
BLOCK
  5
1C
330
1B
100
AcDbEntity
 67
     1
  8
0
100
AcDbBlockBegin
  2
*Paper_Space
 70
     0
 10
0.0
 20
0.0
 30
0.0
  3
*Paper_Space
  1

  0
ENDBLK
  5
1D
330
1B
100
AcDbEntity
 67
     1
  8
0
100
AcDbBlockEnd
  0
BLOCK
  5
24
330
23
100
AcDbEntity
  8
0
100
AcDbBlockBegin
  2
*Paper_Space0
 70
     0
 10
0.0
 20
0.0
 30
0.0
  3
*Paper_Space0
  1

  0
ENDBLK
  5
25
330
23
100
AcDbEntity
  8
0
100
AcDbBlockEnd
  0
BLOCK
  5
6F
330
6E
100
AcDbEntity
  8
0
100
AcDbBlockBegin
  2
Block1
 70
     0
 10
0.0
 20
0.0
 30
0.0
  3
Block1
  1

  0
INSERT
  5
76
330
6E
100
AcDbEntity
  8
0
  6
Continuous
 62
     7
370
     0
100
AcDbBlockReference
  2
SW_NOTE_0
 10
0.245841782
 20
-0.0260731451
 30
0.0
  0
ENDBLK
  5
70
330
6E
100
AcDbEntity
  8
0
100
AcDbBlockEnd
  0
BLOCK
  5
72
330
71
100
AcDbEntity
  8
0
100
AcDbBlockBegin
  2
SW_NOTE_0
 70
     0
 10
0.0
 20
0.0
 30
0.0
  3
SW_NOTE_0
  1

  0
MTEXT
  5
75
330
71
100
AcDbEntity
  8
0
  6
Continuous
 62
     0
370
     0
100
AcDbMText
 10
0.6396484375
 20
0.3991699219
 30
0.0
 40
0.3125
 41
0.0
 71
     2
 72
     1
  1
D CAP
  7
SLDTEXTSTYLE0
 73
     1
 44
1.0
  0
ENDBLK
  5
73
330
71
100
AcDbEntity
  8
0
100
AcDbBlockEnd
  0
BLOCK
  5
78
330
77
100
AcDbEntity
  8
0
100
AcDbBlockBegin
  2
Block2
 70
     0
 10
0.0
 20
0.0
 30
0.0
  3
Block2
  1

  0
INSERT
  5
7E
330
77
100
AcDbEntity
  8
0
  6
Continuous
 62
     7
370
     0
100
AcDbBlockReference
  2
SW_NOTE_0_1
 10
0.2166326521
 20
0.426271171
 30
0.0
  0
ENDBLK
  5
79
330
77
100
AcDbEntity
  8
0
100
AcDbBlockEnd
  0
BLOCK
  5
7B
330
7A
100
AcDbEntity
  8
0
100
AcDbBlockBegin
  2
SW_NOTE_0_1
 70
     0
 10
0.0
 20
0.0
 30
0.0
  3
SW_NOTE_0_1
  1

  0
MTEXT
  5
7D
330
7A
100
AcDbEntity
  8
0
  6
Continuous
 62
     0
370
     0
100
AcDbMText
 10
0.6005859375
 20
0.3991699219
 30
0.0
 40
0.3125
 41
0.0
 71
     2
 72
     1
  1
E CAP
  7
SLDTEXTSTYLE0
 73
     1
 44
1.0
  0
ENDBLK
  5
7C
330
7A
100
AcDbEntity
  8
0
100
AcDbBlockEnd
  0
BLOCK
  5
80
330
7F
100
AcDbEntity
  8
0
100
AcDbBlockBegin
  2
Block3
 70
     0
 10
0.0
 20
0.0
 30
0.0
  3
Block3
  1

  0
INSERT
  5
86
330
7F
100
AcDbEntity
  8
0
  6
Continuous
 62
     7
370
     0
100
AcDbBlockReference
  2
SW_NOTE_0_2
 10
0.0169700748
 20
-0.0139119947
 30
0.0
  0
ENDBLK
  5
81
330
7F
100
AcDbEntity
  8
0
100
AcDbBlockEnd
  0
BLOCK
  5
83
330
82
100
AcDbEntity
  8
0
100
AcDbBlockBegin
  2
SW_NOTE_0_2
 70
     0
 10
0.0
 20
0.0
 30
0.0
  3
SW_NOTE_0_2
  1

  0
MTEXT
  5
85
330
82
100
AcDbEntity
  8
0
  6
Continuous
 62
     0
370
     0
100
AcDbMText
 10
0.654296875
 20
0.3991699219
 30
0.0
 40
0.3125
 41
0.0
 71
     2
 72
     1
  1
C CAP
  7
SLDTEXTSTYLE0
 73
     1
 44
1.0
  0
ENDBLK
  5
84
330
82
100
AcDbEntity
  8
0
100
AcDbBlockEnd
  0
BLOCK
  5
BD
330
BC
100
AcDbEntity
  8
0
100
AcDbBlockBegin
  2
_D
 70
     0
 10
0.0
 20
0.0
 30
0.0
  3
_D
  1

  0
SOLID
  5
BF
330
BC
100
AcDbEntity
  8
0
  6
Continuous
 62
     7
370
    18
100
AcDbTrace
 10
6.5651826167
 20
9.0200828917
 30
0.0
 11
6.5951826167
 21
9.2150828917
 31
0.0
 12
6.5351826167
 22
9.2150828917
 32
0.0
 13
6.5351826167
 23
9.2150828917
 33
0.0
  0
SOLID
  5
C0
330
BC
100
AcDbEntity
  8
0
  6
Continuous
 62
     7
370
    18
100
AcDbTrace
 10
6.5651826167
 20
10.5150828917
 30
0.0
 11
6.5351826167
 21
10.3200828917
 31
0.0
 12
6.5951826167
 22
10.3200828917
 32
0.0
 13
6.5951826167
 23
10.3200828917
 33
0.0
  0
LINE
  5
C1
330
BC
100
AcDbEntity
  8
0
  6
Continuous
 62
     7
370
     0
100
AcDbLine
 10
6.1922659697
 20
9.7661505708
 30
0.0
 11
6.135137064
 21
9.7661505708
 31
0.0
  0
LINE
  5
C2
330
BC
100
AcDbEntity
  8
0
  6
Continuous
 62
     7
370
     0
100
AcDbLine
 10
6.135137064
 20
9.7661505708
 30
0.0
 11
6.135137064
 21
9.4684943118
 31
0.0
  0
LINE
  5
C3
330
BC
100
AcDbEntity
  8
0
  6
Continuous
 62
     7
370
     0
100
AcDbLine
 10
6.135137064
 20
9.4684943118
 30
0.0
 11
6.1922659697
 21
9.4684943118
 31
0.0
  0
LINE
  5
C4
330
BC
100
AcDbEntity
  8
0
  6
Continuous
 62
     7
370
     0
100
AcDbLine
 10
6.9380993187
 20
9.7661505708
 30
0.0
 11
6.9952282244
 21
9.7661505708
 31
0.0
  0
LINE
  5
C5
330
BC
100
AcDbEntity
  8
0
  6
Continuous
 62
     7
370
     0
100
AcDbLine
 10
6.9952282244
 20
9.7661505708
 30
0.0
 11
6.9952282244
 21
9.4684943118
 31
0.0
  0
LINE
  5
C6
330
BC
100
AcDbEntity
  8
0
  6
Continuous
 62
     7
370
     0
100
AcDbLine
 10
6.9952282244
 20
9.4684943118
 30
0.0
 11
6.9380993187
 21
9.4684943118
 31
0.0
  0
LINE
  5
C7
330
BC
100
AcDbEntity
  8
0
  6
Continuous
 62
     7
370
     0
100
AcDbLine
 10
5.9546314356
 20
9.0200828917
 30
0.0
 11
6.7526826167
 21
9.0200828917
 31
0.0
  0
LINE
  5
C8
330
BC
100
AcDbEntity
  8
0
  6
Continuous
 62
     7
370
     0
100
AcDbLine
 10
5.9246314356
 20
10.5150828917
 30
0.0
 11
6.7526826167
 21
10.5150828917
 31
0.0
  0
LINE
  5
C9
330
BC
100
AcDbEntity
  8
0
  6
Continuous
 62
     7
370
     0
100
AcDbLine
 10
6.5651826167
 20
9.0200828917
 30
0.0
 11
6.5651826167
 21
9.4304084343
 31
0.0
  0
LINE
  5
CA
330
BC
100
AcDbEntity
  8
0
  6
Continuous
 62
     7
370
     0
100
AcDbLine
 10
6.5651826167
 20
10.5150828917
 30
0.0
 11
6.5651826167
 21
10.1047573491
 31
0.0
  0
MTEXT
  5
CB
330
BC
100
AcDbEntity
  8
0
  6
Continuous
 62
     7
370
    18
100
AcDbMText
 10
6.0087373248
 20
10.0466030639
 30
0.0
 40
0.1875
 41
0.0
 71
     1
 72
     1
  1
 
  7
SLDTEXTSTYLE0
 73
     1
 44
1.0
  0
MTEXT
  5
CC
330
BC
100
AcDbEntity
  8
0
  6
Continuous
 62
     7
370
    18
100
AcDbMText
 10
6.2293753472
 20
10.0437384667
 30
0.0
 40
0.1875
 41
0.0
 71
     1
 72
     1
  1
1 1/2"
  7
SLDTEXTSTYLE0
 73
     1
 44
1.0
  0
MTEXT
  5
CD
330
BC
100
AcDbEntity
  8
0
  6
Continuous
 62
     7
370
    18
100
AcDbMText
 10
6.1922659697
 20
9.7079962856
 30
0.0
 40
0.1875
 41
0.0
 71
     1
 72
     1
  1
38mm
  7
SLDTEXTSTYLE0
 73
     1
 44
1.0
  0
MTEXT
  5
CE
330
BC
100
AcDbEntity
  8
0
  6
Continuous
 62
     7
370
    18
100
AcDbMText
 10
7.0523570888
 20
10.0466030639
 30
0.0
 40
0.1875
 41
0.0
 71
     1
 72
     1
  1
 
  7
SLDTEXTSTYLE0
 73
     1
 44
1.0
  0
ENDBLK
  5
BE
330
BC
100
AcDbEntity
  8
0
100
AcDbBlockEnd
  0
BLOCK
  5
D1
330
D0
100
AcDbEntity
  8
0
100
AcDbBlockBegin
  2
_D_1
 70
     0
 10
0.0
 20
0.0
 30
0.0
  3
_D_1
  1

  0
SOLID
  5
D3
330
D0
100
AcDbEntity
  8
0
  6
Continuous
 62
     7
370
    18
100
AcDbTrace
 10
4.2040802545
 20
9.0200828917
 30
0.0
 11
4.2340802545
 21
9.2150828917
 31
0.0
 12
4.1740802545
 22
9.2150828917
 32
0.0
 13
4.1740802545
 23
9.2150828917
 33
0.0
  0
SOLID
  5
D4
330
D0
100
AcDbEntity
  8
0
  6
Continuous
 62
     7
370
    18
100
AcDbTrace
 10
4.2040802545
 20
11.2619647929
 30
0.0
 11
4.1740802545
 21
11.0669647929
 31
0.0
 12
4.2340802545
 22
11.0669647929
 32
0.0
 13
4.2340802545
 23
11.0669647929
 33
0.0
  0
LINE
  5
D5
330
D0
100
AcDbEntity
  8
0
  6
Continuous
 62
     7
370
     0
100
AcDbLine
 10
3.8311636075
 20
10.1395915213
 30
0.0
 11
3.7740347018
 21
10.1395915213
 31
0.0
  0
LINE
  5
D6
330
D0
100
AcDbEntity
  8
0
  6
Continuous
 62
     7
370
     0
100
AcDbLine
 10
3.7740347018
 20
10.1395915213
 30
0.0
 11
3.7740347018
 21
9.8419352624
 31
0.0
  0
LINE
  5
D7
330
D0
100
AcDbEntity
  8
0
  6
Continuous
 62
     7
370
     0
100
AcDbLine
 10
3.7740347018
 20
9.8419352624
 30
0.0
 11
3.8311636075
 21
9.8419352624
 31
0.0
  0
LINE
  5
D8
330
D0
100
AcDbEntity
  8
0
  6
Continuous
 62
     7
370
     0
100
AcDbLine
 10
4.5769969565
 20
10.1395915213
 30
0.0
 11
4.6341258622
 21
10.1395915213
 31
0.0
  0
LINE
  5
D9
330
D0
100
AcDbEntity
  8
0
  6
Continuous
 62
     7
370
     0
100
AcDbLine
 10
4.6341258622
 20
10.1395915213
 30
0.0
 11
4.6341258622
 21
9.8419352624
 31
0.0
  0
LINE
  5
DA
330
D0
100
AcDbEntity
  8
0
  6
Continuous
 62
     7
370
     0
100
AcDbLine
 10
4.6341258622
 20
9.8419352624
 30
0.0
 11
4.5769969565
 21
9.8419352624
 31
0.0
  0
LINE
  5
DB
330
D0
100
AcDbEntity
  8
0
  6
Continuous
 62
     7
370
     0
100
AcDbLine
 10
4.8146314356
 20
9.0200828917
 30
0.0
 11
4.0165802545
 21
9.0200828917
 31
0.0
  0
LINE
  5
DC
330
D0
100
AcDbEntity
  8
0
  6
Continuous
 62
     7
370
     0
100
AcDbLine
 10
5.3096314356
 20
11.2619647929
 30
0.0
 11
4.0165802545
 21
11.2619647929
 31
0.0
  0
LINE
  5
DD
330
D0
100
AcDbEntity
  8
0
  6
Continuous
 62
     7
370
     0
100
AcDbLine
 10
4.2040802545
 20
9.0200828917
 30
0.0
 11
4.2040802545
 21
9.8038493849
 31
0.0
  0
LINE
  5
DE
330
D0
100
AcDbEntity
  8
0
  6
Continuous
 62
     7
370
     0
100
AcDbLine
 10
4.2040802545
 20
11.2619647929
 30
0.0
 11
4.2040802545
 21
10.4781982997
 31
0.0
  0
MTEXT
  5
DF
330
D0
100
AcDbEntity
  8
0
  6
Continuous
 62
     7
370
    18
100
AcDbMText
 10
3.6476349626
 20
10.4200440145
 30
0.0
 40
0.1875
 41
0.0
 71
     1
 72
     1
  1
 
  7
SLDTEXTSTYLE0
 73
     1
 44
1.0
  0
MTEXT
  5
E0
330
D0
100
AcDbEntity
  8
0
  6
Continuous
 62
     7
370
    18
100
AcDbMText
 10
3.868272985
 20
10.4171794173
 30
0.0
 40
0.1875
 41
0.0
 71
     1
 72
     1
  1
2 1/4"
  7
SLDTEXTSTYLE0
 73
     1
 44
1.0
  0
MTEXT
  5
E1
330
D0
100
AcDbEntity
  8
0
  6
Continuous
 62
     7
370
    18
100
AcDbMText
 10
3.8311636075
 20
10.0814372361
 30
0.0
 40
0.1875
 41
0.0
 71
     1
 72
     1
  1
57mm
  7
SLDTEXTSTYLE0
 73
     1
 44
1.0
  0
MTEXT
  5
E2
330
D0
100
AcDbEntity
  8
0
  6
Continuous
 62
     7
370
    18
100
AcDbMText
 10
4.6912547266
 20
10.4200440145
 30
0.0
 40
0.1875
 41
0.0
 71
     1
 72
     1
  1
 
  7
SLDTEXTSTYLE0
 73
     1
 44
1.0
  0
ENDBLK
  5
D2
330
D0
100
AcDbEntity
  8
0
100
AcDbBlockEnd
  0
BLOCK
  5
E6
330
E5
100
AcDbEntity
  8
0
100
AcDbBlockBegin
  2
_D_2
 70
     0
 10
0.0
 20
0.0
 30
0.0
  3
_D_2
  1

  0
SOLID
  5
E8
330
E5
100
AcDbEntity
  8
0
  6
Continuous
 62
     7
370
    18
100
AcDbTrace
 10
4.8896314356
 20
4.3725317106
 30
0.0
 11
4.6946314356
 21
4.4025317106
 31
0.0
 12
4.6946314356
 22
4.3425317106
 32
0.0
 13
4.6946314356
 23
4.3425317106
 33
0.0
  0
SOLID
  5
E9
330
E5
100
AcDbEntity
  8
0
  6
Continuous
 62
     7
370
    18
100
AcDbTrace
 10
5.8796314356
 20
4.3725317106
 30
0.0
 11
6.0746314356
 21
4.3425317106
 31
0.0
 12
6.0746314356
 22
4.4025317106
 32
0.0
 13
6.0746314356
 23
4.4025317106
 33
0.0
  0
LINE
  5
EA
330
E5
100
AcDbEntity
  8
0
  6
Continuous
 62
     7
370
     0
100
AcDbLine
 10
5.0117147748
 20
4.3725316831
 30
0.0
 11
4.9545858691
 21
4.3725316831
 31
0.0
  0
LINE
  5
EB
330
E5
100
AcDbEntity
  8
0
  6
Continuous
 62
     7
370
     0
100
AcDbLine
 10
4.9545858691
 20
4.3725316831
 30
0.0
 11
4.9545858691
 21
4.0748754242
 31
0.0
  0
LINE
  5
EC
330
E5
100
AcDbEntity
  8
0
  6
Continuous
 62
     7
370
     0
100
AcDbLine
 10
4.9545858691
 20
4.0748754242
 30
0.0
 11
5.0117147748
 21
4.0748754242
 31
0.0
  0
LINE
  5
ED
330
E5
100
AcDbEntity
  8
0
  6
Continuous
 62
     7
370
     0
100
AcDbLine
 10
5.7575481239
 20
4.3725316831
 30
0.0
 11
5.8146770296
 21
4.3725316831
 31
0.0
  0
LINE
  5
EE
330
E5
100
AcDbEntity
  8
0
  6
Continuous
 62
     7
370
     0
100
AcDbLine
 10
5.8146770296
 20
4.3725316831
 30
0.0
 11
5.8146770296
 21
4.0748754242
 31
0.0
  0
LINE
  5
EF
330
E5
100
AcDbEntity
  8
0
  6
Continuous
 62
     7
370
     0
100
AcDbLine
 10
5.8146770296
 20
4.0748754242
 30
0.0
 11
5.7575481239
 21
4.0748754242
 31
0.0
  0
LINE
  5
F0
330
E5
100
AcDbEntity
  8
0
  6
Continuous
 62
     7
370
     0
100
AcDbLine
 10
4.8896314356
 20
4.8880828917
 30
0.0
 11
4.8896314356
 21
4.1850317106
 31
0.0
  0
LINE
  5
F1
330
E5
100
AcDbEntity
  8
0
  6
Continuous
 62
     7
370
     0
100
AcDbLine
 10
5.8796314356
 20
5.8780828917
 30
0.0
 11
5.8796314356
 21
4.1850317106
 31
0.0
  0
LINE
  5
F2
330
E5
100
AcDbEntity
  8
0
  6
Continuous
 62
     7
370
     0
100
AcDbLine
 10
4.8896314356
 20
4.3725317106
 30
0.0
 11
4.5146314356
 21
4.3725317106
 31
0.0
  0
LINE
  5
F3
330
E5
100
AcDbEntity
  8
0
  6
Continuous
 62
     7
370
     0
100
AcDbLine
 10
5.8796314356
 20
4.3725317106
 30
0.0
 11
6.2546314356
 21
4.3725317106
 31
0.0
  0
MTEXT
  5
F4
330
E5
100
AcDbEntity
  8
0
  6
Continuous
 62
     7
370
    18
100
AcDbMText
 10
5.1353020184
 20
4.6501195928
 30
0.0
 40
0.1875
 41
0.0
 71
     1
 72
     1
  1
%%c
  7
SLDTEXTSTYLE0
 73
     1
 44
1.0
  0
MTEXT
  5
F5
330
E5
100
AcDbEntity
  8
0
  6
Continuous
 62
     7
370
    18
100
AcDbMText
 10
5.4180754493
 20
4.6501195928
 30
0.0
 40
0.1875
 41
0.0
 71
     1
 72
     1
  1
1"
  7
SLDTEXTSTYLE0
 73
     1
 44
1.0
  0
MTEXT
  5
F6
330
E5
100
AcDbEntity
  8
0
  6
Continuous
 62
     7
370
    18
100
AcDbMText
 10
5.0117147748
 20
4.3143773979
 30
0.0
 40
0.1875
 41
0.0
 71
     1
 72
     1
  1
25mm
  7
SLDTEXTSTYLE0
 73
     1
 44
1.0
  0
ENDBLK
  5
E7
330
E5
100
AcDbEntity
  8
0
100
AcDbBlockEnd
  0
BLOCK
  5
15B
330
15A
100
AcDbEntity
  8
0
100
AcDbBlockBegin
  2
_D_3
 70
     0
 10
0.0
 20
0.0
 30
0.0
  3
_D_3
  1

  0
SOLID
  5
15D
330
15A
100
AcDbEntity
  8
0
  6
Continuous
 62
     7
370
    18
100
AcDbTrace
 10
2.8654348177
 20
1.4838813731
 30
0.0
 11
2.8954348177
 21
1.6788813731
 31
0.0
 12
2.8354348177
 22
1.6788813731
 32
0.0
 13
2.8354348177
 23
1.6788813731
 33
0.0
  0
SOLID
  5
15E
330
15A
100
AcDbEntity
  8
0
  6
Continuous
 62
     7
370
    18
100
AcDbTrace
 10
2.8654348177
 20
3.5123813731
 30
0.0
 11
2.8354348177
 21
3.3173813731
 31
0.0
 12
2.8954348177
 22
3.3173813731
 32
0.0
 13
2.8954348177
 23
3.3173813731
 33
0.0
  0
LINE
  5
15F
330
15A
100
AcDbEntity
  8
0
  6
Continuous
 62
     7
370
     0
100
AcDbLine
 10
2.4232473509
 20
2.4966990522
 30
0.0
 11
2.3661184452
 21
2.4966990522
 31
0.0
  0
LINE
  5
160
330
15A
100
AcDbEntity
  8
0
  6
Continuous
 62
     7
370
     0
100
AcDbLine
 10
2.3661184452
 20
2.4966990522
 30
0.0
 11
2.3661184452
 21
2.1990427932
 31
0.0
  0
LINE
  5
161
330
15A
100
AcDbEntity
  8
0
  6
Continuous
 62
     7
370
     0
100
AcDbLine
 10
2.3661184452
 20
2.1990427932
 30
0.0
 11
2.4232473509
 21
2.1990427932
 31
0.0
  0
LINE
  5
162
330
15A
100
AcDbEntity
  8
0
  6
Continuous
 62
     7
370
     0
100
AcDbLine
 10
3.3076223395
 20
2.4966990522
 30
0.0
 11
3.3647512452
 21
2.4966990522
 31
0.0
  0
LINE
  5
163
330
15A
100
AcDbEntity
  8
0
  6
Continuous
 62
     7
370
     0
100
AcDbLine
 10
3.3647512452
 20
2.4966990522
 30
0.0
 11
3.3647512452
 21
2.1990427932
 31
0.0
  0
LINE
  5
164
330
15A
100
AcDbEntity
  8
0
  6
Continuous
 62
     7
370
     0
100
AcDbLine
 10
3.3647512452
 20
2.1990427932
 30
0.0
 11
3.3076223395
 21
2.1990427932
 31
0.0
  0
LINE
  5
165
330
15A
100
AcDbEntity
  8
0
  6
Continuous
 62
     7
370
     0
100
AcDbLine
 10
3.7353167075
 20
1.4838813731
 30
0.0
 11
2.6779348177
 21
1.4838813731
 31
0.0
  0
LINE
  5
166
330
15A
100
AcDbEntity
  8
0
  6
Continuous
 62
     7
370
     0
100
AcDbLine
 10
3.7353167075
 20
3.5123813731
 30
0.0
 11
2.6779348177
 21
3.5123813731
 31
0.0
  0
LINE
  5
167
330
15A
100
AcDbEntity
  8
0
  6
Continuous
 62
     7
370
     0
100
AcDbLine
 10
2.8654348177
 20
1.4838813731
 30
0.0
 11
2.8654348177
 21
2.1609569157
 31
0.0
  0
LINE
  5
168
330
15A
100
AcDbEntity
  8
0
  6
Continuous
 62
     7
370
     0
100
AcDbLine
 10
2.8654348177
 20
3.5123813731
 30
0.0
 11
2.8654348177
 21
2.8353058306
 31
0.0
  0
MTEXT
  5
169
330
15A
100
AcDbEntity
  8
0
  6
Continuous
 62
     7
370
    18
100
AcDbMText
 10
2.239718706
 20
2.7771515454
 30
0.0
 40
0.1875
 41
0.0
 71
     1
 72
     1
  1
 
  7
SLDTEXTSTYLE0
 73
     1
 44
1.0
  0
MTEXT
  5
16A
330
15A
100
AcDbEntity
  8
0
  6
Continuous
 62
     7
370
    18
100
AcDbMText
 10
2.460356701
 20
2.7742869482
 30
0.0
 40
0.1875
 41
0.0
 71
     1
 72
     1
  1
4 1/16"
  7
SLDTEXTSTYLE0
 73
     1
 44
1.0
  0
MTEXT
  5
16B
330
15A
100
AcDbEntity
  8
0
  6
Continuous
 62
     7
370
    18
100
AcDbMText
 10
2.4232473509
 20
2.438544767
 30
0.0
 40
0.1875
 41
0.0
 71
     1
 72
     1
  1
103mm
  7
SLDTEXTSTYLE0
 73
     1
 44
1.0
  0
MTEXT
  5
16C
330
15A
100
AcDbEntity
  8
0
  6
Continuous
 62
     7
370
    18
100
AcDbMText
 10
3.4218801096
 20
2.7771515454
 30
0.0
 40
0.1875
 41
0.0
 71
     1
 72
     1
  1
 
  7
SLDTEXTSTYLE0
 73
     1
 44
1.0
  0
ENDBLK
  5
15C
330
15A
100
AcDbEntity
  8
0
100
AcDbBlockEnd
  0
BLOCK
  5
178
330
177
100
AcDbEntity
  8
0
100
AcDbBlockBegin
  2
_D_4
 70
     0
 10
0.0
 20
0.0
 30
0.0
  3
_D_4
  1

  0
SOLID
  5
17A
330
177
100
AcDbEntity
  8
0
  6
Continuous
 62
     7
370
    18
100
AcDbTrace
 10
7.3068622822
 20
1.4838813731
 30
0.0
 11
7.3368622822
 21
1.6788813731
 31
0.0
 12
7.2768622822
 22
1.6788813731
 32
0.0
 13
7.2768622822
 23
1.6788813731
 33
0.0
  0
SOLID
  5
17B
330
177
100
AcDbEntity
  8
0
  6
Continuous
 62
     7
370
    18
100
AcDbTrace
 10
7.3068622822
 20
3.0728813731
 30
0.0
 11
7.2768622822
 21
2.8778813731
 31
0.0
 12
7.3368622822
 22
2.8778813731
 32
0.0
 13
7.3368622822
 23
2.8778813731
 33
0.0
  0
LINE
  5
17C
330
177
100
AcDbEntity
  8
0
  6
Continuous
 62
     7
370
     0
100
AcDbLine
 10
6.9339456352
 20
2.2769490522
 30
0.0
 11
6.8768167295
 21
2.2769490522
 31
0.0
  0
LINE
  5
17D
330
177
100
AcDbEntity
  8
0
  6
Continuous
 62
     7
370
     0
100
AcDbLine
 10
6.8768167295
 20
2.2769490522
 30
0.0
 11
6.8768167295
 21
1.9792927932
 31
0.0
  0
LINE
  5
17E
330
177
100
AcDbEntity
  8
0
  6
Continuous
 62
     7
370
     0
100
AcDbLine
 10
6.8768167295
 20
1.9792927932
 30
0.0
 11
6.9339456352
 21
1.9792927932
 31
0.0
  0
LINE
  5
17F
330
177
100
AcDbEntity
  8
0
  6
Continuous
 62
     7
370
     0
100
AcDbLine
 10
7.6797789843
 20
2.2769490522
 30
0.0
 11
7.7369078899
 21
2.2769490522
 31
0.0
  0
LINE
  5
180
330
177
100
AcDbEntity
  8
0
  6
Continuous
 62
     7
370
     0
100
AcDbLine
 10
7.7369078899
 20
2.2769490522
 30
0.0
 11
7.7369078899
 21
1.9792927932
 31
0.0
  0
LINE
  5
181
330
177
100
AcDbEntity
  8
0
  6
Continuous
 62
     7
370
     0
100
AcDbLine
 10
7.7369078899
 20
1.9792927932
 30
0.0
 11
7.6797789843
 21
1.9792927932
 31
0.0
  0
LINE
  5
182
330
177
100
AcDbEntity
  8
0
  6
Continuous
 62
     7
370
     0
100
AcDbLine
 10
7.8224134633
 20
1.4838813731
 30
0.0
 11
7.1193622822
 21
1.4838813731
 31
0.0
  0
LINE
  5
183
330
177
100
AcDbEntity
  8
0
  6
Continuous
 62
     7
370
     0
100
AcDbLine
 10
7.8299134633
 20
3.0728813731
 30
0.0
 11
7.1193622822
 21
3.0728813731
 31
0.0
  0
LINE
  5
184
330
177
100
AcDbEntity
  8
0
  6
Continuous
 62
     7
370
     0
100
AcDbLine
 10
7.3068622822
 20
1.4838813731
 30
0.0
 11
7.3068622822
 21
1.9412069157
 31
0.0
  0
LINE
  5
185
330
177
100
AcDbEntity
  8
0
  6
Continuous
 62
     7
370
     0
100
AcDbLine
 10
7.3068622822
 20
3.0728813731
 30
0.0
 11
7.3068622822
 21
2.6155558306
 31
0.0
  0
MTEXT
  5
186
330
177
100
AcDbEntity
  8
0
  6
Continuous
 62
     7
370
    18
100
AcDbMText
 10
6.7504169903
 20
2.5574015454
 30
0.0
 40
0.1875
 41
0.0
 71
     1
 72
     1
  1
 
  7
SLDTEXTSTYLE0
 73
     1
 44
1.0
  0
MTEXT
  5
187
330
177
100
AcDbEntity
  8
0
  6
Continuous
 62
     7
370
    18
100
AcDbMText
 10
6.9017841655
 20
2.5545369482
 30
0.0
 40
0.1875
 41
0.0
 71
     1
 72
     1
  1
3 3/16"
  7
SLDTEXTSTYLE0
 73
     1
 44
1.0
  0
MTEXT
  5
188
330
177
100
AcDbEntity
  8
0
  6
Continuous
 62
     7
370
    18
100
AcDbMText
 10
6.9339456352
 20
2.218794767
 30
0.0
 40
0.1875
 41
0.0
 71
     1
 72
     1
  1
81mm
  7
SLDTEXTSTYLE0
 73
     1
 44
1.0
  0
MTEXT
  5
189
330
177
100
AcDbEntity
  8
0
  6
Continuous
 62
     7
370
    18
100
AcDbMText
 10
7.7940367543
 20
2.5574015454
 30
0.0
 40
0.1875
 41
0.0
 71
     1
 72
     1
  1
 
  7
SLDTEXTSTYLE0
 73
     1
 44
1.0
  0
ENDBLK
  5
179
330
177
100
AcDbEntity
  8
0
100
AcDbBlockEnd
  0
BLOCK
  5
195
330
194
100
AcDbEntity
  8
0
100
AcDbBlockBegin
  2
_D_5
 70
     0
 10
0.0
 20
0.0
 30
0.0
  3
_D_5
  1

  0
SOLID
  5
197
330
194
100
AcDbEntity
  8
0
  6
Continuous
 62
     7
370
    18
100
AcDbTrace
 10
11.131712147
 20
1.4838813731
 30
0.0
 11
11.161712147
 21
1.6788813731
 31
0.0
 12
11.101712147
 22
1.6788813731
 32
0.0
 13
11.101712147
 23
1.6788813731
 33
0.0
  0
SOLID
  5
198
330
194
100
AcDbEntity
  8
0
  6
Continuous
 62
     7
370
    18
100
AcDbTrace
 10
11.131712147
 20
2.9106313731
 30
0.0
 11
11.101712147
 21
2.7156313731
 31
0.0
 12
11.161712147
 22
2.7156313731
 32
0.0
 13
11.161712147
 23
2.7156313731
 33
0.0
  0
LINE
  5
199
330
194
100
AcDbEntity
  8
0
  6
Continuous
 62
     7
370
     0
100
AcDbLine
 10
10.7587955
 20
2.1958240522
 30
0.0
 11
10.7016665943
 21
2.1958240522
 31
0.0
  0
LINE
  5
19A
330
194
100
AcDbEntity
  8
0
  6
Continuous
 62
     7
370
     0
100
AcDbLine
 10
10.7016665943
 20
2.1958240522
 30
0.0
 11
10.7016665943
 21
1.8981677932
 31
0.0
  0
LINE
  5
19B
330
194
100
AcDbEntity
  8
0
  6
Continuous
 62
     7
370
     0
100
AcDbLine
 10
10.7016665943
 20
1.8981677932
 30
0.0
 11
10.7587955
 21
1.8981677932
 31
0.0
  0
LINE
  5
19C
330
194
100
AcDbEntity
  8
0
  6
Continuous
 62
     7
370
     0
100
AcDbLine
 10
11.5046288491
 20
2.1958240522
 30
0.0
 11
11.5617577547
 21
2.1958240522
 31
0.0
  0
LINE
  5
19D
330
194
100
AcDbEntity
  8
0
  6
Continuous
 62
     7
370
     0
100
AcDbLine
 10
11.5617577547
 20
2.1958240522
 30
0.0
 11
11.5617577547
 21
1.8981677932
 31
0.0
  0
LINE
  5
19E
330
194
100
AcDbEntity
  8
0
  6
Continuous
 62
     7
370
     0
100
AcDbLine
 10
11.5617577547
 20
1.8981677932
 30
0.0
 11
11.5046288491
 21
1.8981677932
 31
0.0
  0
LINE
  5
19F
330
194
100
AcDbEntity
  8
0
  6
Continuous
 62
     7
370
     0
100
AcDbLine
 10
11.6472633281
 20
1.4838813731
 30
0.0
 11
10.944212147
 21
1.4838813731
 31
0.0
  0
LINE
  5
1A0
330
194
100
AcDbEntity
  8
0
  6
Continuous
 62
     7
370
     0
100
AcDbLine
 10
11.6547633281
 20
2.9106313731
 30
0.0
 11
10.944212147
 21
2.9106313731
 31
0.0
  0
LINE
  5
1A1
330
194
100
AcDbEntity
  8
0
  6
Continuous
 62
     7
370
     0
100
AcDbLine
 10
11.131712147
 20
1.4838813731
 30
0.0
 11
11.131712147
 21
1.8600819157
 31
0.0
  0
LINE
  5
1A2
330
194
100
AcDbEntity
  8
0
  6
Continuous
 62
     7
370
     0
100
AcDbLine
 10
11.131712147
 20
2.9106313731
 30
0.0
 11
11.131712147
 21
2.5344308306
 31
0.0
  0
MTEXT
  5
1A3
330
194
100
AcDbEntity
  8
0
  6
Continuous
 62
     7
370
    18
100
AcDbMText
 10
10.5752668551
 20
2.4762765454
 30
0.0
 40
0.1875
 41
0.0
 71
     1
 72
     1
  1
 
  7
SLDTEXTSTYLE0
 73
     1
 44
1.0
  0
MTEXT
  5
1A4
330
194
100
AcDbEntity
  8
0
  6
Continuous
 62
     7
370
    18
100
AcDbMText
 10
10.7959048775
 20
2.4734119482
 30
0.0
 40
0.1875
 41
0.0
 71
     1
 72
     1
  1
2 7/8"
  7
SLDTEXTSTYLE0
 73
     1
 44
1.0
  0
MTEXT
  5
1A5
330
194
100
AcDbEntity
  8
0
  6
Continuous
 62
     7
370
    18
100
AcDbMText
 10
10.7587955
 20
2.137669767
 30
0.0
 40
0.1875
 41
0.0
 71
     1
 72
     1
  1
72mm
  7
SLDTEXTSTYLE0
 73
     1
 44
1.0
  0
MTEXT
  5
1A6
330
194
100
AcDbEntity
  8
0
  6
Continuous
 62
     7
370
    18
100
AcDbMText
 10
11.6188866191
 20
2.4762765454
 30
0.0
 40
0.1875
 41
0.0
 71
     1
 72
     1
  1
 
  7
SLDTEXTSTYLE0
 73
     1
 44
1.0
  0
ENDBLK
  5
196
330
194
100
AcDbEntity
  8
0
100
AcDbBlockEnd
  0
ENDSEC
  0
SECTION
  2
ENTITIES
  0
INSERT
  5
87
330
1F
100
AcDbEntity
  8
0
  6
Continuous
 62
     7
100
AcDbBlockReference
  2
Block1
 10
3.6501119625
 20
1.068518219
 30
0.0
 41
0.5
 42
0.5
 43
0.5
  0
INSERT
  5
88
330
1F
100
AcDbEntity
  8
0
  6
Continuous
 62
     7
100
AcDbBlockReference
  2
Block3
 10
11.6191896477
 20
1.0498522691
 30
0.0
 41
0.5
 42
0.5
 43
0.5
  0
INSERT
  5
89
330
1F
100
AcDbEntity
  8
0
  6
Continuous
 62
     7
100
AcDbBlockReference
  2
Block2
 10
7.7392936883
 20
0.8485740906
 30
0.0
 41
0.5
 42
0.5
 43
0.5
  0
LINE
  5
8A
330
1F
100
AcDbEntity
  8
0
  6
Continuous
 62
     7
370
    25
100
AcDbLine
 10
5.87909157
 20
8.7811430261
 30
0.0
 11
5.8796314356
 21
8.7816828917
 31
0.0
  0
LINE
  5
8B
330
1F
100
AcDbEntity
  8
0
  6
Continuous
 62
     7
370
    25
100
AcDbLine
 10
5.8796314356
 20
8.9084828917
 30
0.0
 11
5.8790927395
 21
8.9090215878
 31
0.0
  0
LINE
  5
8C
330
1F
100
AcDbEntity
  8
0
  6
Continuous
 62
     7
370
    25
100
AcDbLine
 10
4.8896314356
 20
9.0200828917
 30
0.0
 11
4.8896314356
 21
4.9630828917
 31
0.0
  0
LINE
  5
8D
330
1F
100
AcDbEntity
  8
0
  6
Continuous
 62
     7
370
    25
100
AcDbLine
 10
5.8796314356
 20
8.9130828917
 30
0.0
 11
5.8796314356
 21
9.0200828917
 31
0.0
  0
LINE
  5
8E
330
1F
100
AcDbEntity
  8
0
  6
Continuous
 62
     7
370
    25
100
AcDbLine
 10
5.8796314356
 20
5.9530828917
 30
0.0
 11
5.8796314356
 21
8.7770828917
 31
0.0
  0
ARC
  5
8F
330
1F
100
AcDbEntity
  8
0
  6
Continuous
 62
     7
370
    25
100
AcDbCircle
 10
5.3846314356
 20
10.9094647929
 30
0.0
 40
0.2725
100
AcDbArc
 50
75.0
 51
231.5653491823
  0
ARC
  5
90
330
1F
100
AcDbEntity
  8
0
  6
Continuous
 62
     7
370
    25
100
AcDbCircle
 10
5.3846314356
 20
10.9094647929
 30
0.0
 40
0.2724999999999998
100
AcDbArc
 50
308.4346508177
 51
75.0
  0
ARC
  5
91
330
1F
100
AcDbEntity
  8
0
  6
Continuous
 62
     7
370
    25
100
AcDbCircle
 10
5.3846314356
 20
10.9094647929
 30
0.0
 40
0.3525000000000008
100
AcDbArc
 50
308.4346508177
 51
231.5653491823
  0
ARC
  5
92
330
1F
100
AcDbEntity
  8
0
  6
Continuous
 62
     7
370
    25
100
AcDbCircle
 10
5.6721314356
 20
10.5471803742
 30
0.0
 40
0.1100000000000003
100
AcDbArc
 50
128.4346508177
 51
180.0
  0
ARC
  5
93
330
1F
100
AcDbEntity
  8
0
  6
Continuous
 62
     7
370
    25
100
AcDbCircle
 10
5.6721314356
 20
10.5471803742
 30
0.0
 40
0.1900000000000004
100
AcDbArc
 50
128.4346508177
 51
180.0
  0
LINE
  5
94
330
1F
100
AcDbEntity
  8
0
  6
Continuous
 62
     7
370
    25
100
AcDbLine
 10
5.5621314356
 20
10.5150828917
 30
0.0
 11
5.5621314356
 21
10.5471803742
 31
0.0
  0
LINE
  5
95
330
1F
100
AcDbEntity
  8
0
  6
Continuous
 62
     7
370
    25
100
AcDbLine
 10
5.4821314356
 20
10.5471803742
 30
0.0
 11
5.4821314356
 21
10.5150828917
 31
0.0
  0
ARC
  5
96
330
1F
100
AcDbEntity
  8
0
  6
Continuous
 62
     7
370
    25
100
AcDbCircle
 10
5.0971314356
 20
10.5471803742
 30
0.0
 40
0.1100000000000003
100
AcDbArc
 50
0.0
 51
51.5653491823
  0
ARC
  5
97
330
1F
100
AcDbEntity
  8
0
  6
Continuous
 62
     7
370
    25
100
AcDbCircle
 10
5.0971314356
 20
10.5471803742
 30
0.0
 40
0.1900000000000004
100
AcDbArc
 50
0.0
 51
51.5653491823
  0
LINE
  5
98
330
1F
100
AcDbEntity
  8
0
  6
Continuous
 62
     7
370
    25
100
AcDbLine
 10
5.2071314356
 20
10.5471803742
 30
0.0
 11
5.2071314356
 21
10.5150828917
 31
0.0
  0
LINE
  5
99
330
1F
100
AcDbEntity
  8
0
  6
Continuous
 62
     7
370
    25
100
AcDbLine
 10
5.2871314356
 20
10.5150828917
 30
0.0
 11
5.2871314356
 21
10.5471803742
 31
0.0
  0
ARC
  5
9A
330
1F
100
AcDbEntity
  8
0
  6
Continuous
 62
     7
370
    25
100
AcDbCircle
 10
5.8696314356
 20
10.0500828917
 30
0.0
 40
0.0099999999999998
100
AcDbArc
 50
270.0
 51
0.0
  0
ARC
  5
9B
330
1F
100
AcDbEntity
  8
0
  6
Continuous
 62
     7
370
    25
100
AcDbCircle
 10
4.8996314356
 20
10.0500828917
 30
0.0
 40
0.0099999999999998
100
AcDbArc
 50
180.0
 51
270.0
  0
LINE
  5
9C
330
1F
100
AcDbEntity
  8
0
  6
Continuous
 62
     7
370
    25
100
AcDbLine
 10
5.8796314356
 20
10.4850828917
 30
0.0
 11
5.8496314356
 21
10.5150828917
 31
0.0
  0
LINE
  5
9D
330
1F
100
AcDbEntity
  8
0
  6
Continuous
 62
     7
370
    25
100
AcDbLine
 10
4.9196314356
 20
10.5150828917
 30
0.0
 11
4.8896314356
 21
10.4850828917
 31
0.0
  0
LINE
  5
9E
330
1F
100
AcDbEntity
  8
0
  6
Continuous
 62
     7
370
    25
100
AcDbLine
 10
5.8796314356
 20
10.0500828917
 30
0.0
 11
5.8796314356
 21
10.4850828917
 31
0.0
  0
LINE
  5
9F
330
1F
100
AcDbEntity
  8
0
  6
Continuous
 62
     7
370
    25
100
AcDbLine
 10
4.8896314356
 20
10.4850828917
 30
0.0
 11
4.8896314356
 21
10.0500828917
 31
0.0
  0
LINE
  5
A0
330
1F
100
AcDbEntity
  8
0
  6
Continuous
 62
     7
370
    25
100
AcDbLine
 10
4.8896314356
 20
10.0400828917
 30
0.0
 11
4.8896314356
 21
9.9150828917
 31
0.0
  0
LINE
  5
A1
330
1F
100
AcDbEntity
  8
0
  6
Continuous
 62
     7
370
    25
100
AcDbLine
 10
5.8796314356
 20
9.9150828917
 30
0.0
 11
5.8796314356
 21
10.0400828917
 31
0.0
  0
ARC
  5
A2
330
1F
100
AcDbEntity
  8
0
  6
Continuous
 62
     7
370
    25
100
AcDbCircle
 10
5.8696314356
 20
9.0300828917
 30
0.0
 40
0.0099999999999998
100
AcDbArc
 50
270.0
 51
0.0
  0
ARC
  5
A3
330
1F
100
AcDbEntity
  8
0
  6
Continuous
 62
     7
370
    25
100
AcDbCircle
 10
4.8996314356
 20
9.0300828917
 30
0.0
 40
0.0099999999999998
100
AcDbArc
 50
180.0
 51
270.0
  0
LINE
  5
A4
330
1F
100
AcDbEntity
  8
0
  6
Continuous
 62
     7
370
    25
100
AcDbLine
 10
5.8796314356
 20
9.0300828917
 30
0.0
 11
5.8796314356
 21
9.9050828917
 31
0.0
  0
LINE
  5
A5
330
1F
100
AcDbEntity
  8
0
  6
Continuous
 62
     7
370
    25
100
AcDbLine
 10
4.8896314356
 20
9.9050828917
 30
0.0
 11
4.8896314356
 21
9.0300828917
 31
0.0
  0
ARC
  5
A6
330
1F
100
AcDbEntity
  8
0
  6
Continuous
 62
     7
370
    25
100
AcDbCircle
 10
5.8696314356
 20
9.9050828917
 30
0.0
 40
0.0099999999999998
100
AcDbArc
 50
0.0
 51
90.0
  0
ARC
  5
A7
330
1F
100
AcDbEntity
  8
0
  6
Continuous
 62
     7
370
    25
100
AcDbCircle
 10
4.8996314356
 20
9.9050828917
 30
0.0
 40
0.0099999999999998
100
AcDbArc
 50
90.0
 51
180.0
  0
LINE
  5
A8
330
1F
100
AcDbEntity
  8
0
  6
Continuous
 62
     7
370
    25
100
AcDbLine
 10
5.8796314356
 20
8.7819915257
 30
0.0
 11
5.8796314356
 21
8.7816828917
 31
0.0
  0
LINE
  5
A9
330
1F
100
AcDbEntity
  8
0
  6
Continuous
 62
     7
370
    25
100
AcDbLine
 10
5.8796314356
 20
8.9084828917
 30
0.0
 11
5.8796314356
 21
8.7819915257
 31
0.0
  0
LINE
  5
AA
330
1F
100
AcDbEntity
  8
0
  6
Continuous
 62
     7
370
    25
100
AcDbLine
 10
4.8896314356
 20
9.0200828917
 30
0.0
 11
5.8796314356
 21
9.0200828917
 31
0.0
  0
SPLINE
  5
AB
330
1F
100
AcDbEntity
  8
0
  6
Continuous
 62
     7
370
    25
100
AcDbSpline
210
0.0
220
0.0
230
1.0
 70
     8
 71
     3
 72
    27
 73
    23
 74
     0
 42
0.00000001
 43
0.00000001
 40
0.0
 40
0.0
 40
0.0
 40
0.0
 40
0.0518571297901396
 40
0.1051834519313504
 40
0.1576438879301167
 40
0.2116024862604367
 40
0.2644783714851643
 40
0.31887415583131
 40
0.3719593739770533
 40
0.4266021358112139
 40
0.4630529797627595
 40
0.500001658356158
 40
0.5525783450837078
 40
0.6066887210474355
 40
0.6592628744177399
 40
0.7133446798348017
 40
0.766230403686423
 40
0.8206369802752966
 40
0.8737195656452329
 40
0.9283600935710917
 40
0.9639486812858296
 40
1.0
 40
1.0
 40
1.0
 40
1.0
 10
5.879631435599029
 20
8.777082891707115
 30
0.0
 10
5.879607265717153
 20
8.777257707093305
 30
0.0
 10
5.879558241183425
 20
8.777612290654803
 30
0.0
 10
5.879172409692878
 20
8.780474578003039
 30
0.0
 10
5.87859301465174
 20
8.785029243720944
 30
0.0
 10
5.87786563424537
 20
8.791274355369138
 30
0.0
 10
5.877066121251688
 20
8.799098021958589
 30
0.0
 10
5.87629337286713
 20
8.808182253532902
 30
0.0
 10
5.875624585296431
 20
8.818420770986458
 30
0.0
 10
5.875197083237513
 20
8.828221741585219
 30
0.0
 10
5.874980858407255
 20
8.837219714246334
 30
0.0
 10
5.874908068116254
 20
8.846195394631351
 30
0.0
 10
5.875026493799894
 20
8.85643850365848
 30
0.0
 10
5.875409914022224
 20
8.867474075538237
 30
0.0
 10
5.876006221957502
 20
8.877970324382305
 30
0.0
 10
5.876739835220736
 20
8.887465529042084
 30
0.0
 10
5.877541568801259
 20
8.895865671153532
 30
0.0
 10
5.87830976738794
 20
8.90278582438769
 30
0.0
 10
5.878970668949206
 20
8.908143235938143
 30
0.0
 10
5.879382881611918
 20
8.911259821457557
 30
0.0
 10
5.879596726322843
 20
8.912831097849349
 30
0.0
 10
5.879619816127001
 20
8.912998599782638
 30
0.0
 10
5.879631435599028
 20
8.913082891707116
 30
0.0
  0
LINE
  5
AC
330
1F
100
AcDbEntity
  8
0
  6
Continuous
 62
     7
370
    25
100
AcDbLine
 10
4.8896314356
 20
4.9630828917
 30
0.0
 11
5.8796314356
 21
5.9530828917
 31
0.0
  0
LINE
  5
AD
330
1F
100
AcDbEntity
  8
0
  6
Continuous
 62
     7
370
    25
100
AcDbLine
 10
5.8796314356
 20
10.4850828917
 30
0.0
 11
4.8896314356
 21
10.4850828917
 31
0.0
  0
LINE
  5
AE
330
1F
100
AcDbEntity
  8
0
  6
Continuous
 62
     7
370
    25
100
AcDbLine
 10
4.9196314356
 20
10.5150828917
 30
0.0
 11
5.8496314356
 21
10.5150828917
 31
0.0
  0
LINE
  5
AF
330
1F
100
AcDbEntity
  8
0
  6
Continuous
 62
     7
370
    25
100
AcDbLine
 10
5.3846314356
 20
9.9150828917
 30
0.0
 11
4.8896314356
 21
9.9150828917
 31
0.0
  0
LINE
  5
B0
330
1F
100
AcDbEntity
  8
0
  6
Continuous
 62
     7
370
    25
100
AcDbLine
 10
5.8796314356
 20
9.9150828917
 30
0.0
 11
5.3846314356
 21
9.9150828917
 31
0.0
  0
LINE
  5
B1
330
1F
100
AcDbEntity
  8
0
  6
Continuous
 62
     7
370
    25
100
AcDbLine
 10
5.3846314356
 20
10.0400828917
 30
0.0
 11
4.8896314356
 21
10.0400828917
 31
0.0
  0
LINE
  5
B2
330
1F
100
AcDbEntity
  8
0
  6
Continuous
 62
     7
370
    25
100
AcDbLine
 10
5.8796314356
 20
10.0400828917
 30
0.0
 11
5.3846314356
 21
10.0400828917
 31
0.0
  0
LINE
  5
B3
330
1F
100
AcDbEntity
  8
0
  6
Continuous
 62
     7
370
    25
100
AcDbLine
 10
5.6037530572
 20
10.633345317
 30
0.0
 11
5.5540233275
 21
10.69601073
 31
0.0
  0
LINE
  5
B4
330
1F
100
AcDbEntity
  8
0
  6
Continuous
 62
     7
370
    25
100
AcDbLine
 10
5.165509814
 20
10.633345317
 30
0.0
 11
5.2152395437
 21
10.69601073
 31
0.0
  0
LINE
  5
B5
330
1F
100
AcDbEntity
  8
0
  6
Continuous
 62
     7
370
    25
100
AcDbLine
 10
5.5621314356
 20
10.5471803742
 30
0.0
 11
5.4821314356
 21
10.5471803742
 31
0.0
  0
LINE
  5
B6
330
1F
100
AcDbEntity
  8
0
  6
Continuous
 62
     7
370
    25
100
AcDbLine
 10
5.2071314356
 20
10.5471803742
 30
0.0
 11
5.2871314356
 21
10.5471803742
 31
0.0
  0
LINE
  5
B7
330
1F
100
AcDbEntity
  8
0
  6
Continuous
 62
     7
370
    25
100
AcDbLine
 10
4.8896314356
 20
10.0500828917
 30
0.0
 11
5.8796314356
 21
10.0500828917
 31
0.0
  0
LINE
  5
B8
330
1F
100
AcDbEntity
  8
0
  6
Continuous
 62
     7
370
    25
100
AcDbLine
 10
4.8896314356
 20
9.0300828917
 30
0.0
 11
5.8796314356
 21
9.0300828917
 31
0.0
  0
LINE
  5
B9
330
1F
100
AcDbEntity
  8
0
  6
Continuous
 62
     7
370
    25
100
AcDbLine
 10
5.8796314356
 20
9.9050828917
 30
0.0
 11
4.8896314356
 21
9.9050828917
 31
0.0
  0
DIMENSION
  5
BA
330
1F
100
AcDbEntity
  8
0
  6
Continuous
 62
     7
370
    18
100
AcDbDimension
  2
_D
 10
6.5651826167
 20
10.5150828917
 30
0.0
 11
6.5651826167
 21
9.7675828917
 31
0.0
 70
   160
  1
<>
 71
     2
 42
-1.0
  3
SLDDIMSTYLE0
100
AcDbAlignedDimension
 13
5.8796314356
 23
9.0200828917
 33
0.0
 14
5.8496314356
 24
10.5150828917
 34
0.0
 50
90.0
100
AcDbRotatedDimension
  0
DIMENSION
  5
CF
330
1F
100
AcDbEntity
  8
0
  6
Continuous
 62
     7
370
    18
100
AcDbDimension
  2
_D_1
 10
4.2040802545
 20
11.2619647929
 30
0.0
 11
4.2040802545
 21
10.1410238423
 31
0.0
 70
   160
  1
<>
 71
     2
 42
-1.0
  3
SLDDIMSTYLE0
100
AcDbAlignedDimension
 13
4.8896314356
 23
9.0200828917
 33
0.0
 14
5.3846314356
 24
11.2619647929
 34
0.0
 50
90.0
100
AcDbRotatedDimension
  0
DIMENSION
  5
E3
330
1F
100
AcDbEntity
  8
0
  6
Continuous
 62
     7
370
    18
100
AcDbDimension
  2
_D_2
 10
5.8796314356
 20
4.3725317106
 30
0.0
 11
5.3846314356
 21
4.3725317106
 31
0.0
 70
   160
  1
%%c<>
 71
     2
 42
-1.0
  3
SLDDIMSTYLE1
100
AcDbAlignedDimension
 13
4.8896314356
 23
4.9630828917
 33
0.0
 14
5.8796314356
 24
5.9530828917
 34
0.0
100
AcDbRotatedDimension
  0
LINE
  5
F7
330
1F
100
AcDbEntity
  8
0
  6
Continuous
 62
     7
370
    25
100
AcDbLine
 10
11.4010334784
 20
9.6888638404
 30
0.0
 11
11.4042856409
 21
9.6907418843
 31
0.0
  0
LINE
  5
F8
330
1F
100
AcDbEntity
  8
0
  6
Continuous
 62
     7
370
    25
100
AcDbLine
 10
11.4491089246
 20
9.768386502
 30
0.0
 11
11.4491089246
 21
9.7722300981
 31
0.0
  0
LINE
  5
F9
330
1F
100
AcDbEntity
  8
0
  6
Continuous
 62
     7
370
    25
100
AcDbLine
 10
10.559260498
 20
10.0874620146
 30
0.0
 11
10.559260498
 21
6.8931397778
 31
0.0
  0
LINE
  5
FA
330
1F
100
AcDbEntity
  8
0
  6
Continuous
 62
     7
370
    25
100
AcDbLine
 10
11.549260498
 20
7.4647475075
 30
0.0
 11
11.549260498
 21
10.0874620146
 31
0.0
  0
SPLINE
  5
FB
330
1F
100
AcDbEntity
  8
0
  6
Continuous
 62
     7
370
    25
100
AcDbSpline
210
0.0
220
0.0
230
1.0
 70
     8
 71
     3
 72
    94
 73
    90
 74
     0
 42
0.00000001
 43
0.00000001
 40
0.0
 40
0.0
 40
0.0
 40
0.0
 40
0.0059327101366067
 40
0.0173461930944023
 40
0.028762949197418
 40
0.0401800299403017
 40
0.0515936752390661
 40
0.0630009779927808
 40
0.0743990799850641
 40
0.0857851345862563
 40
0.0971563251225094
 40
0.1085098958765828
 40
0.1198432009495629
 40
0.1311537777043167
 40
0.1424394534600821
 40
0.1536984966205657
 40
0.1649298266067813
 40
0.17613330096569
 40
0.1873101030043207
 40
0.1984632594737582
 40
0.2095983254788771
 40
0.2207242832389306
 40
0.2318513089058437
 40
0.2429953492227479
 40
0.254181225388056
 40
0.2654432754224126
 40
0.2768280182410408
 40
0.2883970889805664
 40
0.3002296215427171
 40
0.3124213744733698
 40
0.3250729270496308
 40
0.3382491314257152
 40
0.351887686486218
 40
0.3656607818044014
 40
0.3790623439264061
 40
0.39191063738398
 40
0.4042429840099438
 40
0.4161747693151879
 40
0.427819893886013
 40
0.439269339662213
 40
0.4505909718469001
 40
0.4618340657582873
 40
0.4730338542386903
 40
0.484215159749902
 40
0.4953936971828874
 40
0.5065789945693198
 40
0.517779664944661
 40
0.5290009528735695
 40
0.5402456522789648
 40
0.551514790277818
 40
0.5628081332309903
 40
0.5741245597225231
 40
0.5854623335236288
 40
0.5968193013138311
 40
0.6081930338986429
 40
0.6195809251786903
 40
0.6309802597506402
 40
0.6423882574700899
 40
0.653802101389199
 40
0.66521895406269
 40
0.6766359581499897
 40
0.6880493143194631
 40
0.6994561623728012
 40
0.7108536444428801
 40
0.7222389150326111
 40
0.7336091600064842
 40
0.7449616284700283
 40
0.7562936828548018
 40
0.7676028740288633
 40
0.7788870502311965
 40
0.7901445111774518
 40
0.8013742219162211
 40
0.8125761050665667
 40
0.8237514351089292
 40
0.8349033646533809
 40
0.8460376203560861
 40
0.8571634157166587
 40
0.8682908875914743
 40
0.8794365925982088
 40
0.8906258381386716
 40
0.9018935906499648
 40
0.9132871635689759
 40
0.9248691531512463
 40
0.9367197346560712
 40
0.9489354361815677
 40
0.9616162774635475
 40
0.9748227751827779
 40
0.9884816029191105
 40
1.0
 40
1.0
 40
1.0
 40
1.0
 10
10.95013889826761
 20
11.53189033764849
 30
0.0
 10
10.94861175696676
 20
11.5341965752153
 30
0.0
 10
10.9441466664302
 20
11.5409396051686
 30
0.0
 10
10.93704278255295
 20
11.55237455959898
 30
0.0
 10
10.92899488734652
 20
11.56625390447209
 30
0.0
 10
10.92140877389763
 20
11.58037350308988
 30
0.0
 10
10.91430567685536
 20
11.59467470703439
 30
0.0
 10
10.90771248555001
 20
11.60910582397973
 30
0.0
 10
10.90165125379777
 20
11.62361256371086
 30
0.0
 10
10.89614201063148
 20
11.63814058455591
 30
0.0
 10
10.89120190016771
 20
11.65263494914156
 30
0.0
 10
10.8868452347844
 20
11.66704053159599
 30
0.0
 10
10.88308329059753
 20
11.68130219785298
 30
0.0
 10
10.87992416247936
 20
11.69536507753824
 30
0.0
 10
10.87737259700596
 20
11.70917485227266
 30
0.0
 10
10.87542983138366
 20
11.72267809228493
 30
0.0
 10
10.87409344141506
 20
11.73582264638734
 30
0.0
 10
10.87335721444606
 20
11.74855809915182
 30
0.0
 10
10.8732110685179
 20
11.76083630784502
 30
0.0
 10
10.87364104968949
 20
11.7726120321556
 30
0.0
 10
10.87462945326202
 20
11.78384366765252
 30
0.0
 10
10.8761549785955
 20
11.79449300500982
 30
0.0
 10
10.87819301090498
 20
11.80452642639485
 30
0.0
 10
10.88071642717221
 20
11.8139166484281
 30
0.0
 10
10.8836973467857
 20
11.82264475524616
 30
0.0
 10
10.8871095404258
 20
11.83070110599132
 30
0.0
 10
10.89093170686273
 20
11.83808575981402
 30
0.0
 10
10.89515222365226
 20
11.84480870843179
 30
0.0
 10
10.89977535421402
 20
11.85088860966548
 30
0.0
 10
10.90482801564404
 20
11.85634840204809
 30
0.0
 10
10.91036321009683
 20
11.86120515827944
 30
0.0
 10
10.91645023845373
 20
11.86545248255275
 30
0.0
 10
10.92313410482951
 20
11.86904029350762
 30
0.0
 10
10.93038049435434
 20
11.87188491193369
 30
0.0
 10
10.9380880387221
 20
11.87392772945611
 30
0.0
 10
10.94614147443496
 20
11.87516236581163
 30
0.0
 10
10.95449163567594
 20
11.87561826451868
 30
0.0
 10
10.96313272434358
 20
11.87532331267501
 30
0.0
 10
10.9720714742398
 20
11.87429133189722
 30
0.0
 10
10.98130928244582
 20
11.87252429341076
 30
0.0
 10
10.99083742151688
 20
11.87001783487597
 30
0.0
 10
11.00063747807877
 20
11.86676571933226
 30
0.0
 10
11.01068310575462
 20
11.86276275971585
 30
0.0
 10
11.02094140209
 20
11.85800679127049
 30
0.0
 10
11.03137426689285
 20
11.85249993696489
 30
0.0
 10
11.04194069702253
 20
11.84624873879696
 30
0.0
 10
11.05259826014754
 20
11.83926388832007
 30
0.0
 10
11.06330405054965
 20
11.83155983261215
 30
0.0
 10
11.07401425374349
 20
11.82315527878748
 30
0.0
 10
11.08468472312901
 20
11.81407300156218
 30
0.0
 10
11.09527144731732
 20
11.80433959858229
 30
0.0
 10
11.10573092842484
 20
11.79398522086201
 30
0.0
 10
11.11602048974489
 20
11.78304329554408
 30
0.0
 10
11.12609852799694
 20
11.77155025182983
 30
0.0
 10
11.1359247227786
 20
11.75954525639238
 30
0.0
 10
11.14546021362613
 20
11.74706996144555
 30
0.0
 10
11.15466775320663
 20
11.73416826650621
 30
0.0
 10
11.16351184357019
 20
11.72088609349951
 30
0.0
 10
11.17195886109394
 20
11.70727117393137
 30
0.0
 10
11.17997717274214
 20
11.69337284969864
 30
0.0
 10
11.18753704564212
 20
11.67924226430486
 30
0.0
 10
11.19461103015067
 20
11.66493180829717
 30
0.0
 10
11.20117408896538
 20
11.65049490895995
 30
0.0
 10
11.20720386735036
 20
11.63598542851469
 30
0.0
 10
11.21268061294566
 20
11.62145786050455
 30
0.0
 10
11.21758731119708
 20
11.60696712925549
 30
0.0
 10
11.22190982938061
 20
11.59256837566382
 30
0.0
 10
11.22563706895894
 20
11.57831672371269
 30
0.0
 10
11.2287611249831
 20
11.56426702073054
 30
0.0
 10
11.2312774494895
 20
11.55047354312935
 30
0.0
 10
11.23318501327229
 20
11.5369896579353
 30
0.0
 10
11.23448645667259
 20
11.5238674290217
 30
0.0
 10
11.23518821469643
 20
11.51115715573919
 30
0.0
 10
11.23530059430449
 20
11.49890683093841
 30
0.0
 10
11.2348377713221
 20
11.48716150550947
 30
0.0
 10
11.23381766027851
 20
11.47596254864634
 30
0.0
 10
11.23226176542054
 20
11.46534798925175
 30
0.0
 10
11.23019487407009
 20
11.45535111182385
 30
0.0
 10
11.22764421824138
 20
11.4459987954512
 30
0.0
 10
11.22463764742727
 20
11.43730940179933
 30
0.0
 10
11.22120120582909
 20
11.42929203550829
 30
0.0
 10
11.2173557926659
 20
11.42194604126324
 30
0.0
 10
11.21311223824172
 20
11.41526093978397
 30
0.0
 10
11.20846535718497
 20
11.4092173982833
 30
0.0
 10
11.20338593114303
 20
11.40379350742098
 30
0.0
 10
11.1978227664772
 20
11.3989689322633
 30
0.0
 10
11.19169371227915
 20
11.39476815698375
 30
0.0
 10
11.18537663163674
 20
11.39137933108835
 30
0.0
 10
11.18084725079675
 20
11.38969601231784
 30
0.0
 10
11.17877509203325
 20
11.38892590623374
 30
0.0
  0
SPLINE
  5
FC
330
1F
100
AcDbEntity
  8
0
  6
Continuous
 62
     7
370
    25
100
AcDbSpline
210
0.0
220
0.0
230
1.0
 70
     8
 71
     3
 72
   103
 73
    99
 74
     0
 42
0.00000001
 43
0.00000001
 40
0.0
 40
0.0
 40
0.0
 40
0.0
 40
0.0060437181230481
 40
0.0158933547901604
 40
0.0257018011932996
 40
0.0354841663014545
 40
0.0452624970519077
 40
0.0550619308828283
 40
0.0649092588495784
 40
0.0748283916844821
 40
0.0848390364286723
 40
0.0949554901201003
 40
0.1051857033867653
 40
0.1155308187873133
 40
0.1259853748196221
 40
0.1365382565281526
 40
0.1471742869485984
 40
0.1578761669223231
 40
0.168626379397793
 40
0.1794087247547877
 40
0.1902093094093484
 40
0.2010165231644277
 40
0.211820222276193
 40
0.2226152392468999
 40
0.2333983407959714
 40
0.2441678118958604
 40
0.2549230842825395
 40
0.2656644301847509
 40
0.2763927222399101
 40
0.2871092522429975
 40
0.2978155984197472
 40
0.3085135308307863
 40
0.3192049457061721
 40
0.3298918210838301
 40
0.3405761876320577
 40
0.3512601097830552
 40
0.3619454057590757
 40
0.372633745324424
 40
0.3833272319171373
 40
0.394027962982907
 40
0.4047380131918236
 40
0.4154594084935712
 40
0.4261940861558633
 40
0.4369438347552894
 40
0.4477102064720845
 40
0.4584943921845446
 40
0.4692970480735392
 40
0.4801180614154379
 40
0.4909562442806101
 40
0.5018089492312329
 40
0.5126716142466596
 40
0.5235353740974549
 40
0.5343883407534592
 40
0.5452164919792934
 40
0.5560028451009269
 40
0.5667282673556384
 40
0.5773729816630458
 40
0.5879186639676114
 40
0.5983507890075727
 40
0.6086607216750975
 40
0.6188470852729503
 40
0.6289161648515541
 40
0.638881397489703
 40
0.6487622107133025
 40
0.658582525746279
 40
0.6683691743738701
 40
0.6781466265494334
 40
0.6879376173090512
 40
0.697769480146902
 40
0.7076670381059949
 40
0.7176512619156175
 40
0.7277380197429418
 40
0.7379370489202786
 40
0.7482513447601329
 40
0.7586771700671866
 40
0.7692048055337791
 40
0.7798199898325168
 40
0.7905058017087436
 40
0.8012446114075897
 40
0.812019741000797
 40
0.8228166080167787
 40
0.8336233048679611
 40
0.8444285559894735
 40
0.8552263146023511
 40
0.8660128659887323
 40
0.8767861234288351
 40
0.8875452414121534
 40
0.8982902910987497
 40
0.9090220028245825
 40
0.9197415698926847
 40
0.9304505037708579
 40
0.9411505301475246
 40
0.9518435162573305
 40
0.9625314214178569
 40
0.97321626427071
 40
0.9839001015471935
 40
0.9945849350736421
 40
0.9999999999999999
 40
0.9999999999999999
 40
0.9999999999999999
 40
0.9999999999999999
 10
11.20446644393297
 20
11.31316341922621
 30
0.0
 10
11.20673063724019
 20
11.31396811361822
 30
0.0
 10
11.21268485727703
 20
11.3160842436576
 30
0.0
 10
11.22200203489088
 20
11.3202387512965
 30
0.0
 10
11.23226430900479
 20
11.32578971365485
 30
0.0
 10
11.24201841073077
 20
11.33214892977836
 30
0.0
 10
11.2512462780207
 20
11.33927574403324
 30
0.0
 10
11.25992792767092
 20
11.34715411707841
 30
0.0
 10
11.26804798773382
 20
11.35576614744952
 30
0.0
 10
11.27559077092758
 20
11.36509811549213
 30
0.0
 10
11.28253935530981
 20
11.37513657903586
 30
0.0
 10
11.28887510161706
 20
11.38586720466971
 30
0.0
 10
11.29457788481738
 20
11.39727273302412
 30
0.0
 10
11.29962677768701
 20
11.4093312211846
 30
0.0
 10
11.30400120532074
 20
11.42201471870079
 30
0.0
 10
11.30768234755435
 20
11.43528875601145
 30
0.0
 10
11.31065450336668
 20
11.44911275980458
 30
0.0
 10
11.31290612585891
 20
11.46344127587571
 30
0.0
 10
11.31443034369517
 20
11.47822566093351
 30
0.0
 10
11.31522494430162
 20
11.4934158270203
 30
0.0
 10
11.31529193489511
 20
11.50896147302259
 30
0.0
 10
11.31463695338805
 20
11.52481241568746
 30
0.0
 10
11.31326864920973
 20
11.54092025727062
 30
0.0
 10
11.31119790155807
 20
11.55723872540622
 30
0.0
 10
11.30843703983651
 20
11.57372417998184
 30
0.0
 10
11.30499958336232
 20
11.59033404858377
 30
0.0
 10
11.30090004899959
 20
11.60702654568971
 30
0.0
 10
11.29615384704076
 20
11.62376043417781
 30
0.0
 10
11.29077723449896
 20
11.64049484716473
 30
0.0
 10
11.28478730124471
 20
11.65718917172361
 30
0.0
 10
11.27820197111261
 20
11.67380298796189
 30
0.0
 10
11.27104000589311
 20
11.69029605371077
 30
0.0
 10
11.26332100459541
 20
11.70662832449337
 30
0.0
 10
11.25506539359144
 20
11.72275999915722
 30
0.0
 10
11.2462944055028
 20
11.73865158271949
 30
0.0
 10
11.23703012348874
 20
11.75426382899248
 30
0.0
 10
11.22729550712201
 20
11.76955775541559
 30
0.0
 10
11.21711423061953
 20
11.78449495036986
 30
0.0
 10
11.20651051753575
 20
11.79903777105736
 30
0.0
 10
11.19550898930147
 20
11.81314945774924
 30
0.0
 10
11.18413472271964
 20
11.82679397430736
 30
0.0
 10
11.17241317986565
 20
11.8399360348889
 30
0.0
 10
11.16037014695062
 20
11.85254110875803
 30
0.0
 10
11.14803169106499
 20
11.86457539975522
 30
0.0
 10
11.13542414656533
 20
11.87600579816234
 30
0.0
 10
11.12257414638088
 20
11.88679980483811
 30
0.0
 10
11.10950871733393
 20
11.89692543139496
 30
0.0
 10
11.09625546193947
 20
11.90635108672485
 30
0.0
 10
11.08284285037546
 20
11.91504547043369
 30
0.0
 10
11.0693006427358
 20
11.92297750838435
 30
0.0
 10
11.05566124131702
 20
11.93011596948901
 30
0.0
 10
11.04196045150139
 20
11.93642990135109
 30
0.0
 10
11.02823776088296
 20
11.94188957730089
 30
0.0
 10
11.01453607043518
 20
11.94646769431779
 30
0.0
 10
11.00090177875263
 20
11.9501404775064
 30
0.0
 10
10.98738475696184
 20
11.95288895289095
 30
0.0
 10
10.97403719421179
 20
11.95470041425002
 30
0.0
 10
10.96091181966236
 20
11.95556954315181
 30
0.0
 10
10.94805979500573
 20
11.95549885360302
 30
0.0
 10
10.93552872114909
 20
11.95449828334956
 30
0.0
 10
10.92336118673898
 20
11.95258399152355
 30
0.0
 10
10.91159410189614
 20
11.94977663415819
 30
0.0
 10
10.90025880699844
 20
11.94609947751646
 30
0.0
 10
10.88938175230492
 20
11.94157665860461
 30
0.0
 10
10.87898548101294
 20
11.93623177669995
 30
0.0
 10
10.8690909557814
 20
11.9300876629955
 30
0.0
 10
10.85971876231123
 20
11.92316671219267
 30
0.0
 10
10.85088760250492
 20
11.91548977895247
 30
0.0
 10
10.84261407427837
 20
11.90707485046315
 30
0.0
 10
10.83491346937172
 20
11.89793638128573
 30
0.0
 10
10.82780232118464
 20
11.88808776153169
 30
0.0
 10
10.82129880307792
 20
11.87754289421982
 30
0.0
 10
10.81542268464729
 20
11.86631806043986
 30
0.0
 10
10.81019477339297
 20
11.85443377871321
 30
0.0
 10
10.80563587226391
 20
11.841916285419
 30
0.0
 10
10.8017654182303
 20
11.82879828822292
 30
0.0
 10
10.79860007680873
 20
11.8151188003945
 30
0.0
 10
10.79615259378805
 20
11.80092211016587
 30
0.0
 10
10.7944311254342
 20
11.78625617510667
 30
0.0
 10
10.7934391162775
 20
11.77117085253833
 30
0.0
 10
10.79317564022738
 20
11.75571634257162
 30
0.0
 10
10.79363599774489
 20
11.73994311736922
 30
0.0
 10
10.79481227567302
 20
11.72390008348812
 30
0.0
 10
10.79669410170114
 20
11.70763425292042
 30
0.0
 10
10.79926950623988
 20
11.69118974439276
 30
0.0
 10
10.80252526850674
 20
11.67460939057325
 30
0.0
 10
10.80644712816164
 20
11.65793516404811
 30
0.0
 10
10.81101991035892
 20
11.64120843028323
 30
0.0
 10
10.81622758412729
 20
11.62447014171531
 30
0.0
 10
10.82205328738545
 20
11.60776097423635
 30
0.0
 10
10.82847931245687
 20
11.59112138777297
 30
0.0
 10
10.83548716163925
 20
11.5745917067068
 30
0.0
 10
10.84305732359239
 20
11.55821190793012
 30
0.0
 10
10.85117011014106
 20
11.54202232897892
 30
0.0
 10
10.85980257970254
 20
11.52606082038938
 30
0.0
 10
10.86894008935753
 20
11.51037311744663
 30
0.0
 10
10.87695532703921
 20
11.49750685257667
 30
0.0
 10
10.88197367780749
 20
11.48993223161184
 30
0.0
 10
10.88366155772258
 20
11.48738457179664
 30
0.0
  0
SPLINE
  5
FD
330
1F
100
AcDbEntity
  8
0
  6
Continuous
 62
     7
370
    25
100
AcDbSpline
210
0.0
220
0.0
230
1.0
 70
     8
 71
     3
 72
    22
 73
    18
 74
     0
 42
0.00000001
 43
0.00000001
 40
0.0
 40
0.0
 40
0.0
 40
0.0
 40
0.047877723941888
 40
0.1165500621584896
 40
0.1847723314853733
 40
0.2527534023306992
 40
0.3207791363621779
 40
0.3892181699009501
 40
0.4584184589917917
 40
0.5286899434645339
 40
0.6002805461704074
 40
0.6733468220371192
 40
0.747925738507974
 40
0.8239195650902703
 40
0.9011068607907485
 40
0.9791838132300456
 40
1.0
 40
1.0
 40
1.0
 40
1.0
 10
11.17877509203324
 20
11.38892590623373
 30
0.0
 10
11.17675012919933
 20
11.38819189679533
 30
0.0
 10
11.17182070639618
 20
11.38640507740151
 30
0.0
 10
11.16433923329021
 20
11.38275940728332
 30
0.0
 10
11.15648041175088
 20
11.37794005332635
 30
0.0
 10
11.14917866467131
 20
11.37234952447653
 30
0.0
 10
11.14245836338779
 20
11.36604804812237
 30
0.0
 10
11.13634119246084
 20
11.35906430821707
 30
0.0
 10
11.13084253523687
 20
11.35142368989542
 30
0.0
 10
11.12597930811872
 20
11.34314438310196
 30
0.0
 10
11.12177104920519
 20
11.33424247230993
 30
0.0
 10
11.11824065628028
 20
11.32473623653905
 30
0.0
 10
11.11541432772281
 20
11.3146518786817
 30
0.0
 10
11.11331552527309
 20
11.30402942795475
 30
0.0
 10
11.11197347601435
 20
11.29292197303341
 30
0.0
 10
11.11152005940434
 20
11.28425299135718
 30
0.0
 10
11.11149331076856
 20
11.27931151494845
 30
0.0
 10
11.11148768040226
 20
11.27827137508975
 30
0.0
  0
SPLINE
  5
FE
330
1F
100
AcDbEntity
  8
0
  6
Continuous
 62
     7
370
    25
100
AcDbSpline
210
0.0
220
0.0
230
1.0
 70
     8
 71
     3
 72
    18
 73
    14
 74
     0
 42
0.00000001
 43
0.00000001
 40
0.0
 40
0.0
 40
0.0
 40
0.0
 40
0.0463939332262869
 40
0.1342599953800072
 40
0.2216778492657827
 40
0.3089997502090159
 40
0.3966500910580275
 40
0.4855245676218135
 40
0.577102040120257
 40
0.6738837826283571
 40
0.7805432755126867
 40
0.9077121744595175
 40
1.0
 40
1.0
 40
1.0
 40
1.0
 10
11.19148768040226
 20
11.27827137508974
 30
0.0
 10
11.19150085709949
 20
11.2794709428603
 30
0.0
 10
11.19153898931174
 20
11.28294238733876
 30
0.0
 10
11.19194803721962
 20
11.2882186063251
 30
0.0
 10
11.19279994309459
 20
11.29380753064859
 30
0.0
 10
11.19397006250374
 20
11.29862565349497
 30
0.0
 10
11.19536109810902
 20
11.30265817691214
 30
0.0
 10
11.1968791302349
 20
11.30590873022657
 30
0.0
 10
11.19843373600235
 20
11.30842203842226
 30
0.0
 10
11.19995747968582
 20
11.31028733684449
 30
0.0
 10
11.2014734576674
 20
11.31164690819197
 30
0.0
 10
11.2028201891693
 20
11.31252529904511
 30
0.0
 10
11.20397909211749
 20
11.31297451223829
 30
0.0
 10
11.20446644393297
 20
11.31316341922622
 30
0.0
  0
LINE
  5
FF
330
1F
100
AcDbEntity
  8
0
  6
Continuous
 62
     7
370
    25
100
AcDbLine
 10
11.1914876804
 20
11.1993967326
 30
0.0
 11
11.1914876804
 21
11.2782713751
 31
0.0
  0
LINE
  5
100
330
1F
100
AcDbEntity
  8
0
  6
Continuous
 62
     7
370
    25
100
AcDbLine
 10
11.1114876804
 20
11.2782713751
 30
0.0
 11
11.1114876804
 21
11.1966172939
 31
0.0
  0
SPLINE
  5
101
330
1F
100
AcDbEntity
  8
0
  6
Continuous
 62
     7
370
    25
100
AcDbSpline
210
0.0
220
0.0
230
1.0
 70
     8
 71
     3
 72
    10
 73
     6
 74
     0
 42
0.00000001
 43
0.00000001
 40
0.0
 40
0.0
 40
0.0
 40
0.0
 40
0.3151960464961285
 40
0.8633505704034853
 40
1.0
 40
1.0
 40
1.0
 40
1.0
 10
11.11148768040225
 20
11.19661729390118
 30
0.0
 10
11.11151977005421
 20
11.19470704046468
 30
0.0
 10
11.11160766652256
 20
11.18947468297686
 30
0.0
 10
11.1120433860244
 20
11.18333823088598
 30
0.0
 10
11.11275074619449
 20
11.17909277514961
 30
0.0
 10
11.11289189661172
 20
11.1782456142917
 30
0.0
  0
SPLINE
  5
102
330
1F
100
AcDbEntity
  8
0
  6
Continuous
 62
     7
370
    25
100
AcDbSpline
210
0.0
220
0.0
230
1.0
 70
     8
 71
     3
 72
    20
 73
    16
 74
     0
 42
0.00000001
 43
0.00000001
 40
0.0
 40
0.0
 40
0.0
 40
0.0
 40
0.0472923784380573
 40
0.1334305751309028
 40
0.219449874848278
 40
0.3053385707332397
 40
0.3910156667328658
 40
0.4764532459904567
 40
0.5616594273553976
 40
0.6466654314619934
 40
0.7315166080291998
 40
0.8162666613825826
 40
0.9009741365212341
 40
0.9812434711719095
 40
1.0
 40
1.0
 40
1.0
 40
1.0
 10
10.99703331557595
 20
11.39052749046538
 30
0.0
 10
10.99700984200781
 20
11.39270679115325
 30
0.0
 10
10.99694361375284
 20
11.39885546359838
 30
0.0
 10
10.99623219239585
 20
11.40914693917028
 30
0.0
 10
10.99469129790068
 20
11.4214117088244
 30
0.0
 10
10.99241866549153
 20
11.43378779297881
 30
0.0
 10
10.98945236677163
 20
11.44621429061236
 30
0.0
 10
10.98581532413486
 20
11.45863449557168
 30
0.0
 10
10.98153557945519
 20
11.47099363669123
 30
0.0
 10
10.97664024967549
 20
11.48323970692908
 30
0.0
 10
10.97115656633644
 20
11.49532160258351
 30
0.0
 10
10.96511327612495
 20
11.50719042828309
 30
0.0
 10
10.95864953292153
 20
11.51858946786791
 30
0.0
 10
10.95354853881312
 20
11.52676277842045
 30
0.0
 10
10.95068187434351
 20
11.53107378764815
 30
0.0
 10
10.95013889826761
 20
11.53189033764849
 30
0.0
  0
SPLINE
  5
103
330
1F
100
AcDbEntity
  8
0
  6
Continuous
 62
     7
370
    25
100
AcDbSpline
210
0.0
220
0.0
230
1.0
 70
     8
 71
     3
 72
    19
 73
    15
 74
     0
 42
0.00000001
 43
0.00000001
 40
0.0
 40
0.0
 40
0.0
 40
0.0
 40
0.0465666055301824
 40
0.1373228057965107
 40
0.2281291702458138
 40
0.3188618766542189
 40
0.4093948885140206
 40
0.4996179981340805
 40
0.5894231315668698
 40
0.6787067951854512
 40
0.767374476842024
 40
0.8553479268084356
 40
0.942576574957816
 40
1.0
 40
1.0
 40
1.0
 40
1.0
 10
10.88366155772258
 20
11.48738457179664
 30
0.0
 10
10.88462377243146
 20
11.48592436090963
 30
0.0
 10
10.88746129992776
 20
11.48161826529076
 30
0.0
 10
10.89189738284498
 20
11.47422745624681
 30
0.0
 10
10.89678814779492
 20
11.4651907268808
 30
0.0
 10
10.90121020921283
 20
11.45599879374529
 30
0.0
 10
10.90513040434014
 20
11.44674864385933
 30
0.0
 10
10.90851642988707
 20
11.43753141185301
 30
0.0
 10
10.91134681959678
 20
11.42844099618386
 30
0.0
 10
10.91360790931099
 20
11.41957233192405
 30
0.0
 10
10.91529962145247
 20
11.41101576049434
 30
0.0
 10
10.91642053971768
 20
11.40287461940632
 30
0.0
 10
10.91695956790934
 20
11.39604569933307
 30
0.0
 10
10.91701235883631
 20
11.39209558979483
 30
0.0
 10
10.91703331557595
 20
11.39052749046537
 30
0.0
  0
LINE
  5
104
330
1F
100
AcDbEntity
  8
0
  6
Continuous
 62
     7
370
    25
100
AcDbLine
 10
10.9170333156
 20
11.3905274905
 30
0.0
 11
10.9170333156
 21
11.3088734093
 31
0.0
  0
LINE
  5
105
330
1F
100
AcDbEntity
  8
0
  6
Continuous
 62
     7
370
    25
100
AcDbLine
 10
10.9970333156
 20
11.3088734093
 30
0.0
 11
10.9970333156
 21
11.3905274905
 31
0.0
  0
SPLINE
  5
106
330
1F
100
AcDbEntity
  8
0
  6
Continuous
 62
     7
370
    25
100
AcDbSpline
210
0.0
220
0.0
230
1.0
 70
     8
 71
     3
 72
    29
 73
    25
 74
     0
 42
0.00000001
 43
0.00000001
 40
0.0
 40
0.0
 40
0.0
 40
0.0
 40
0.0496363141190987
 40
0.1003404937457193
 40
0.1512707491696223
 40
0.2020276206862656
 40
0.2521542927485045
 40
0.2961347782932224
 40
0.3389481993714782
 40
0.3853238485578935
 40
0.4304005760843783
 40
0.4742459589090827
 40
0.5171022991897521
 40
0.5592374892030127
 40
0.6009266978017448
 40
0.6423916933708481
 40
0.6838898101828808
 40
0.7257092139844898
 40
0.7681342993295796
 40
0.8114328875740926
 40
0.8558302839172182
 40
0.9014688208396555
 40
0.9483608468073027
 40
0.9999999999999999
 40
0.9999999999999999
 40
0.9999999999999999
 40
0.9999999999999999
 10
10.85935069325681
 20
11.25174044380116
 30
0.0
 10
10.86205859510013
 20
11.2496154946271
 30
0.0
 10
10.86753265603305
 20
11.24531988055716
 30
0.0
 10
10.87617542781232
 20
11.23980687016403
 30
0.0
 10
10.88513585274682
 20
11.23503837496743
 30
0.0
 10
10.89432127892244
 20
11.23120052969348
 30
0.0
 10
10.90329582121686
 20
11.22845166873054
 30
0.0
 10
10.91192705653954
 20
11.2267295134539
 30
0.0
 10
10.92041087671893
 20
11.22589493848054
 30
0.0
 10
10.92899372905043
 20
11.22598001501783
 30
0.0
 10
10.93757333011212
 20
11.22707524444215
 30
0.0
 10
10.94575157686018
 20
11.22912679270395
 30
0.0
 10
10.95345866345878
 20
11.23207294751554
 30
0.0
 10
10.96064286754898
 20
11.23585044040254
 30
0.0
 10
10.96725879872783
 20
11.24039487497338
 30
0.0
 10
10.97326958144012
 20
11.24564327315131
 30
0.0
 10
10.97864820614721
 20
11.25153824094574
 30
0.0
 10
10.98337717604847
 20
11.25803449121436
 30
0.0
 10
10.98744335931839
 20
11.26509946926748
 30
0.0
 10
10.99083104319533
 20
11.27271117051101
 30
0.0
 10
10.99352595497238
 20
11.28085176942083
 30
0.0
 10
10.99548558515759
 20
11.28950480448029
 30
0.0
 10
10.99678391730387
 20
11.29885657428444
 30
0.0
 10
10.9969475548576
 20
11.30542891482456
 30
0.0
 10
10.99703331557595
 20
11.30887340927676
 30
0.0
  0
SPLINE
  5
107
330
1F
100
AcDbEntity
  8
0
  6
Continuous
 62
     7
370
    25
100
AcDbSpline
210
0.0
220
0.0
230
1.0
 70
     8
 71
     3
 72
    12
 73
     8
 74
     0
 42
0.00000001
 43
0.00000001
 40
0.0
 40
0.0
 40
0.0
 40
0.0
 40
0.1290227955033127
 40
0.366780392606426
 40
0.6048379981654775
 40
0.8457502149376345
 40
1.0
 40
1.0
 40
1.0
 40
1.0
 10
10.91703331557595
 20
11.30887340927678
 30
0.0
 10
10.91702419219197
 20
11.30825530590334
 30
0.0
 10
10.91699825663271
 20
11.30649818851105
 30
0.0
 10
10.91674512382998
 20
11.30419835695258
 30
0.0
 10
10.91636251056897
 20
11.30236780527894
 30
0.0
 10
10.91603375656195
 20
11.30147719170259
 30
0.0
 10
10.91604212974091
 20
11.3014994231552
 30
0.0
 10
10.91604539817524
 20
11.30150810110695
 30
0.0
  0
SPLINE
  5
108
330
1F
100
AcDbEntity
  8
0
  6
Continuous
 62
     7
370
    25
100
AcDbSpline
210
0.0
220
0.0
230
1.0
 70
     8
 71
     3
 72
    10
 73
     6
 74
     0
 42
0.00000001
 43
0.00000001
 40
0.0
 40
0.0
 40
0.0
 40
0.0
 40
0.3063491287012734
 40
0.6899003010885743
 40
1.0
 40
1.0
 40
1.0
 40
1.0
 10
10.91703097903415
 20
11.30877544136967
 30
0.0
 10
10.91619800790833
 20
11.30926428780838
 30
0.0
 10
10.91432215132295
 20
11.31036517328071
 30
0.0
 10
10.91118834827654
 20
11.31263448394896
 30
0.0
 10
10.90892363877513
 20
11.31457247824781
 30
0.0
 10
10.90791119034672
 20
11.31543886719566
 30
0.0
  0
LINE
  5
109
330
1F
100
AcDbEntity
  8
0
  6
Continuous
 62
     7
370
    25
100
AcDbLine
 10
10.9079111903
 20
11.3154388672
 30
0.0
 11
10.9064711602
 21
11.3167157499
 31
0.0
  0
SPLINE
  5
10A
330
1F
100
AcDbEntity
  8
0
  6
Continuous
 62
     7
370
    25
100
AcDbSpline
210
0.0
220
0.0
230
1.0
 70
     8
 71
     3
 72
     9
 73
     5
 74
     0
 42
0.00000001
 43
0.00000001
 40
0.0
 40
0.0
 40
0.0
 40
0.0
 40
0.7945614738888663
 40
1.0
 40
1.0
 40
1.0
 40
1.0
 10
10.90640429483096
 20
11.31661202643119
 30
0.0
 10
10.90594693323295
 20
11.31710497939911
 30
0.0
 10
10.90537131811312
 20
11.31772538824615
 30
0.0
 10
10.90464422199814
 20
11.3181377468722
 30
0.0
 10
10.90449484844393
 20
11.31822246122056
 30
0.0
  0
LINE
  5
10B
330
1F
100
AcDbEntity
  8
0
  6
Continuous
 62
     7
370
    25
100
AcDbLine
 10
11.4043352286
 20
11.4857224737
 30
0.0
 11
11.3831185782
 21
11.4979745666
 31
0.0
  0
LINE
  5
10C
330
1F
100
AcDbEntity
  8
0
  6
Continuous
 62
     7
370
    25
100
AcDbLine
 10
10.7254024178
 20
11.4979745666
 30
0.0
 11
10.7041857674
 21
11.4857224737
 31
0.0
  0
LINE
  5
10D
330
1F
100
AcDbEntity
  8
0
  6
Continuous
 62
     7
370
    25
100
AcDbLine
 10
11.549260498
 20
10.9284990508
 30
0.0
 11
11.549260498
 21
11.283694304
 31
0.0
  0
LINE
  5
10E
330
1F
100
AcDbEntity
  8
0
  6
Continuous
 62
     7
370
    25
100
AcDbLine
 10
10.559260498
 20
11.283694304
 30
0.0
 11
10.559260498
 21
10.9284990508
 31
0.0
  0
SPLINE
  5
10F
330
1F
100
AcDbEntity
  8
0
  6
Continuous
 62
     7
370
    25
100
AcDbSpline
210
0.0
220
0.0
230
1.0
 70
     8
 71
     3
 72
    60
 73
    56
 74
     0
 42
0.00000001
 43
0.00000001
 40
0.0
 40
0.0
 40
0.0
 40
0.0
 40
0.0143960561142197
 40
0.0331876172950909
 40
0.0520046401505565
 40
0.0708561391280719
 40
0.0897482781719234
 40
0.1086841815542584
 40
0.1276641069029253
 40
0.1466858994659187
 40
0.1657456124263389
 40
0.1848381738280463
 40
0.2039580017766175
 40
0.2230995048922789
 40
0.2422574420439649
 40
0.2614271450138766
 40
0.280604625990265
 40
0.2997865992223724
 40
0.3189704458029194
 40
0.3381535992814726
 40
0.357334703756131
 40
0.3765128154624352
 40
0.395687318216884
 40
0.4148578561410929
 40
0.4340242767949024
 40
0.4531865843655685
 40
0.4723449019357787
 40
0.4914994415975607
 40
0.5106504811433941
 40
0.5297983461491137
 40
0.5489433964010488
 40
0.5680860157740334
 40
0.5872266048158105
 40
0.6063655754264033
 40
0.6255033471338572
 40
0.6446403445595552
 40
0.663776995738094
 40
0.6829137310099601
 40
0.7020508599639934
 40
0.7211887939825739
 40
0.7403279662979966
 40
0.7594688094868476
 40
0.778611753966674
 40
0.7977572257169019
 40
0.8169056428964345
 40
0.8360574109648533
 40
0.8552129158250202
 40
0.8743725143937119
 40
0.8935365218737307
 40
0.9127051948481877
 40
0.9318787091530469
 40
0.9510571313245687
 40
0.9702403822957844
 40
0.9894281919850607
 40
1.0
 40
1.0
 40
1.0
 40
1.0
 10
10.56058961724064
 20
10.90783873683468
 30
0.0
 10
10.56099916070974
 20
10.90460869704698
 30
0.0
 10
10.56194329233928
 20
10.89716239901426
 30
0.0
 10
10.56452168050904
 20
10.88557088108986
 30
0.0
 10
10.56813167329249
 20
10.87307956666404
 30
0.0
 10
10.57269355858013
 20
10.86069423669122
 30
0.0
 10
10.57816275705931
 20
10.84843482421459
 30
0.0
 10
10.58454159054338
 20
10.83632466906586
 30
0.0
 10
10.59181727319506
 20
10.82438703890328
 30
0.0
 10
10.59997820503104
 20
10.81264580264786
 30
0.0
 10
10.60900939671787
 20
10.80112486850674
 30
0.0
 10
10.61889368753372
 20
10.78984791443886
 30
0.0
 10
10.62961155742814
 20
10.77883806959755
 30
0.0
 10
10.64114141720683
 20
10.76811768470124
 30
0.0
 10
10.65345981584028
 20
10.75770817391273
 30
0.0
 10
10.66654167049165
 20
10.74762993035359
 30
0.0
 10
10.68036046106405
 20
10.7379022980227
 30
0.0
 10
10.69488839045278
 20
10.72854358231975
 30
0.0
 10
10.71009636348176
 20
10.71957116717868
 30
0.0
 10
10.72595423625379
 20
10.71100143090995
 30
0.0
 10
10.74243089191954
 20
10.70284979194201
 30
0.0
 10
10.75949446538808
 20
10.69513068244534
 30
0.0
 10
10.7771121918961
 20
10.68785768269891
 30
0.0
 10
10.79525044113468
 20
10.68104353439355
 30
0.0
 10
10.81387475400196
 20
10.67470014462475
 30
0.0
 10
10.83294988187584
 20
10.66883858328887
 30
0.0
 10
10.85243982957753
 20
10.66346907550046
 30
0.0
 10
10.87230790255762
 20
10.65860099054705
 30
0.0
 10
10.89251675841215
 20
10.65424282870569
 30
0.0
 10
10.913028462563
 20
10.65040220702819
 30
0.0
 10
10.93380454777562
 20
10.64708584499133
 30
0.0
 10
10.95480607709988
 20
10.64429955072105
 30
0.0
 10
10.97599370978165
 20
10.64204820834023
 30
0.0
 10
10.99732776968404
 20
10.64033576685957
 30
0.0
 10
11.01876831576423
 20
10.63916523092713
 30
0.0
 10
11.04027521416909
 20
10.63853865366935
 30
0.0
 10
11.06180821152189
 20
10.6384571317913
 30
0.0
 10
11.08332696318626
 20
10.6389208020665
 30
0.0
 10
11.10479114606976
 20
10.63992883665651
 30
0.0
 10
11.12616054266885
 20
10.64147944506354
 30
0.0
 10
11.14739516116202
 20
10.64356988537308
 30
0.0
 10
11.16845527099889
 20
10.64619647206635
 30
0.0
 10
11.18930146714699
 20
10.64935458560766
 30
0.0
 10
11.20989474101531
 20
10.65303868464703
 30
0.0
 10
11.23019654875662
 20
10.65724232078889
 30
0.0
 10
11.25016887948913
 20
10.66195815392866
 30
0.0
 10
11.26977431167951
 20
10.66717797449284
 30
0.0
 10
11.28897609917605
 20
10.67289270735392
 30
0.0
 10
11.30773812949497
 20
10.67909248943556
 30
0.0
 10
11.32602533941824
 20
10.68576647455635
 30
0.0
 10
11.34380240118408
 20
10.69290365505808
 30
0.0
 10
11.36103884108583
 20
10.7004898806949
 30
0.0
 10
11.3776901171844
 20
10.7085190617623
 30
0.0
 10
11.39136069983327
 20
10.71568865360089
 30
0.0
 10
11.39936384341829
 20
10.72024204728111
 30
0.0
 10
11.40220688052776
 20
10.7218595950696
 30
0.0
  0
SPLINE
  5
110
330
1F
100
AcDbEntity
  8
0
  6
Continuous
 62
     7
370
    25
100
AcDbSpline
210
0.0
220
0.0
230
1.0
 70
     8
 71
     3
 72
    24
 73
    20
 74
     0
 42
0.00000001
 43
0.00000001
 40
0.0
 40
0.0
 40
0.0
 40
0.0
 40
0.0323082633611243
 40
0.0936009427259842
 40
0.154905738735511
 40
0.2162091581267224
 40
0.2775027288838132
 40
0.3387762117661869
 40
0.4000170158379283
 40
0.4612101915213908
 40
0.522338680995814
 40
0.5833839291342355
 40
0.644326943302002
 40
0.7051498395716171
 40
0.7658378198897635
 40
0.8263813976262488
 40
0.8867785565512715
 40
0.947036436690377
 40
1.0
 40
1.0
 40
1.0
 40
1.0
 10
11.40220688052776
 20
10.7218595950696
 30
0.0
 10
11.40489007694841
 20
10.72343034157846
 30
0.0
 10
11.41266362118643
 20
10.72798098400606
 30
0.0
 10
11.42501666393603
 20
10.73581292898528
 30
0.0
 10
11.43901386623506
 20
10.74546575356374
 30
0.0
 10
11.45227487599841
 20
10.75548335749611
 30
0.0
 10
11.46478341081998
 20
10.7658402389863
 30
0.0
 10
11.47651074265201
 20
10.77651911336326
 30
0.0
 10
11.48743320533948
 20
10.78749926446052
 30
0.0
 10
11.49752750535162
 20
10.79875945319677
 30
0.0
 10
11.50677218069346
 20
10.81027706796581
 30
0.0
 10
11.51514755997603
 20
10.82202833865156
 30
0.0
 10
11.52263586530581
 20
10.83398837061389
 30
0.0
 10
11.52922241248612
 20
10.8461312802217
 30
0.0
 10
11.53489230067955
 20
10.85843067032288
 30
0.0
 10
11.53964375718802
 20
10.87085926309311
 30
0.0
 10
11.54343904355036
 20
10.88339209375189
 30
0.0
 10
11.54626996313551
 20
10.89549662898055
 30
0.0
 10
11.54736901409599
 20
10.90344648284625
 30
0.0
 10
11.5478831362742
 20
10.90716532422199
 30
0.0
  0
LINE
  5
111
330
1F
100
AcDbEntity
  8
0
  6
Continuous
 62
     7
370
    25
100
AcDbLine
 10
10.559260498
 20
10.9203336427
 30
0.0
 11
10.559260498
 21
10.8182660412
 31
0.0
  0
LINE
  5
112
330
1F
100
AcDbEntity
  8
0
  6
Continuous
 62
     7
370
    25
100
AcDbLine
 10
11.549260498
 20
10.8182660412
 30
0.0
 11
11.549260498
 21
10.9203336427
 31
0.0
  0
LINE
  5
113
330
1F
100
AcDbEntity
  8
0
  6
Continuous
 62
     7
370
    25
100
AcDbLine
 10
11.549260498
 20
10.0956274227
 30
0.0
 11
11.549260498
 21
10.8101006331
 31
0.0
  0
LINE
  5
114
330
1F
100
AcDbEntity
  8
0
  6
Continuous
 62
     7
370
    25
100
AcDbLine
 10
10.559260498
 20
10.8101006331
 30
0.0
 11
10.559260498
 21
10.0956274227
 31
0.0
  0
SPLINE
  5
115
330
1F
100
AcDbEntity
  8
0
  6
Continuous
 62
     7
370
    25
100
AcDbSpline
210
0.0
220
0.0
230
1.0
 70
     8
 71
     3
 72
    77
 73
    73
 74
     0
 42
0.00000001
 43
0.00000001
 40
0.0
 40
0.0
 40
0.0
 40
0.0
 40
0.0009647591708491
 40
0.0152545362074208
 40
0.0295572509341344
 40
0.0438811397256345
 40
0.0582325775112988
 40
0.0726157095492205
 40
0.0870323760768943
 40
0.1014823014872592
 40
0.1159634782791807
 40
0.1304726553300318
 40
0.1450058419230986
 40
0.1595587584515394
 40
0.1741271927122257
 40
0.1887072480480814
 40
0.2032954902117698
 40
0.2178890116272972
 40
0.2324854357384237
 40
0.2470827771476315
 40
0.2616793115294131
 40
0.2762740914214253
 40
0.2908664626846419
 40
0.3054560076330853
 40
0.3200424957005523
 40
0.334625842027207
 40
0.3492060735524089
 40
0.3637833018036372
 40
0.3783577014252374
 40
0.3929294934906277
 40
0.407498932718371
 40
0.4220662978224468
 40
0.4366318843444826
 40
0.4511959994267006
 40
0.4657589580820573
 40
0.4803210806001613
 40
0.4948826907936806
 40
0.509444114841123
 40
0.5240056709966643
 40
0.5385675882126583
 40
0.5531301959900192
 40
0.5676938239467824
 40
0.5822588009714982
 40
0.5968254539616591
 40
0.6113941059148987
 40
0.6259650731152011
 40
0.6405386611004302
 40
0.655115159025752
 40
0.669694831949004
 40
0.6842779104588765
 40
0.6988645769476347
 40
0.7134549477043637
 40
0.7280490498872719
 40
0.7426467923522594
 40
0.7572479293165646
 40
0.7718520159958118
 40
0.786458355782267
 40
0.8010659393892084
 40
0.8156728477720423
 40
0.8302770583387971
 40
0.8448760443492568
 40
0.8594667153112714
 40
0.8740454234698016
 40
0.888608035470809
 40
0.9031500936984014
 40
0.9176670870466158
 40
0.9321548372307211
 40
0.9466099830424908
 40
0.9610305138786267
 40
0.9754162730702939
 40
0.9897693323600607
 40
1.0
 40
1.0
 40
1.0
 40
1.0
 10
10.56043938913239
 20
10.0757771384573
 30
0.0
 10
10.56046269594925
 20
10.07549212778194
 30
0.0
 10
10.56083121764087
 20
10.07098560864406
 30
0.0
 10
10.56241639555112
 20
10.06229350426544
 30
0.0
 10
10.56526173122011
 20
10.04973491417247
 30
0.0
 10
10.56913585279152
 20
10.03726853080184
 30
0.0
 10
10.57390263494673
 20
10.02491048023825
 30
0.0
 10
10.57959056293295
 20
10.01268442015556
 30
0.0
 10
10.58618177327695
 20
10.00061290346189
 30
0.0
 10
10.59366825388645
 20
9.988719576348364
 30
0.0
 10
10.60203640554606
 20
9.977028290655113
 30
0.0
 10
10.611271042007
 20
9.965562945091591
 30
0.0
 10
10.62135434211423
 20
9.954347108764539
 30
0.0
 10
10.63226629970295
 20
9.943403746116603
 30
0.0
 10
10.64398485788907
 20
9.932754997338371
 30
0.0
 10
10.65648616192194
 20
9.922422040412235
 30
0.0
 10
10.66974477212053
 20
9.912425021076107
 30
0.0
 10
10.68373385342611
 20
9.90278303566683
 30
0.0
 10
10.69842529048764
 20
9.89351417046567
 30
0.0
 10
10.71378973098402
 20
9.884635568040206
 30
0.0
 10
10.72979679518809
 20
9.876163375500354
 30
0.0
 10
10.74641518695598
 20
9.868112772606452
 30
0.0
 10
10.76361282666548
 20
9.860497987573517
 30
0.0
 10
10.78135674157451
 20
9.85333240155738
 30
0.0
 10
10.79961310195198
 20
9.846628558751856
 30
0.0
 10
10.81834725827936
 20
9.840398168674573
 30
0.0
 10
10.83752378131844
 20
9.834652102240964
 30
0.0
 10
10.8571065060444
 20
9.829400383231956
 30
0.0
 10
10.87705857985868
 20
9.82465217663145
 30
0.0
 10
10.89734251511251
 20
9.820415775107042
 30
0.0
 10
10.9179202457288
 20
9.81669858468982
 30
0.0
 10
10.93875318756893
 20
9.813507110502778
 30
0.0
 10
10.95980230211788
 20
9.8108469432064
 30
0.0
 10
10.98102816303092
 20
9.808722746677812
 30
0.0
 10
11.00239102508162
 20
9.807138247316276
 30
0.0
 10
11.02385089506024
 20
9.806096225269004
 30
0.0
 10
11.04536760418952
 20
9.805598507793569
 30
0.0
 10
11.06690087694151
 20
9.805645964901016
 30
0.0
 10
11.08841036080585
 20
9.806238505528679
 30
0.0
 10
11.10985575078633
 20
9.80737507381589
 30
0.0
 10
11.13119687000763
 20
9.809053652753615
 30
0.0
 10
11.15239378798359
 20
9.811271276752695
 30
0.0
 10
11.17340684468106
 20
9.814024038382
 30
0.0
 10
11.19419672251058
 20
9.817307098875125
 30
0.0
 10
11.21472451668906
 20
9.821114700946287
 30
0.0
 10
11.23495180350672
 20
9.825440183751445
 30
0.0
 10
11.25484070601912
 20
9.830275999757209
 30
0.0
 10
11.27435395665478
 20
9.83561373318401
 30
0.0
 10
11.29345495620642
 20
9.841444119564919
 30
0.0
 10
11.31210782866376
 20
9.847757065800348
 30
0.0
 10
11.33027747136301
 20
9.854541669884682
 30
0.0
 10
11.34792959999167
 20
9.861786239228023
 30
0.0
 10
11.36503078812486
 20
9.869478306193718
 30
0.0
 10
11.38154850122187
 20
9.87760463912837
 30
0.0
 10
11.39745112542697
 20
9.88615124679696
 30
0.0
 10
11.41270799216876
 20
9.895103373812711
 30
0.0
 10
11.42728940046857
 20
9.904445484425688
 30
0.0
 10
11.44116647236943
 20
9.914161114660835
 30
0.0
 10
11.45431133399885
 20
9.924232881215788
 30
0.0
 10
11.46669718113223
 20
9.934642415046586
 30
0.0
 10
11.47829848841871
 20
9.945370413315352
 30
0.0
 10
11.48909099727254
 20
9.956396481044798
 30
0.0
 10
11.49905186582668
 20
9.967699056224236
 30
0.0
 10
11.50815984041771
 20
9.979255371011298
 30
0.0
 10
11.51639559333185
 20
9.991041458944425
 30
0.0
 10
11.52374163342307
 20
10.00303226656493
 30
0.0
 10
11.53018391099831
 20
10.01520176814223
 30
0.0
 10
11.53570706569999
 20
10.0275235436726
 30
0.0
 10
11.54031305218813
 20
10.03997011799784
 30
0.0
 10
11.54395231882219
 20
10.05251729249585
 30
0.0
 10
11.54651072447373
 20
10.06393095263079
 30
0.0
 10
11.54743820696536
 20
10.07117936789886
 30
0.0
 10
11.54782418445123
 20
10.07419584004467
 30
0.0
  0
LWPOLYLINE
  5
116
330
1F
100
AcDbEntity
  8
0
  6
Continuous
 62
     7
370
    25
100
AcDbPolyline
 90
       50
 70
   128
 43
0.0
 10
11.3998602366
 20
9.6884391643
 10
11.4056014078
 20
9.6915240092
 10
11.4113208545
 20
9.6954459829
 10
11.4169246635
 20
9.7001406869
 10
11.4223208205
 20
9.705531034
 10
11.4274207207
 20
9.7115285151
 10
11.4321406239
 20
9.7180346516
 10
11.4364030294
 20
9.724942613
 10
11.4401379486
 20
9.7321389707
 10
11.4432840543
 20
9.7395055607
 10
11.4457896875
 20
9.7469214239
 10
11.4476137057
 20
9.7542647919
 10
11.4487261587
 20
9.7614150868
 10
11.4491087799
 20
9.7682549011
 10
11.4487552868
 20
9.774671925
 10
11.4476714838
 20
9.7805607914
 10
11.4458751667
 20
9.7858248052
 10
11.4433958311
 20
9.7903775314
 10
11.4402741877
 20
9.7941442143
 10
11.4365614937
 20
9.7970630052
 10
11.4323187114
 20
9.7990859775
 10
11.4276155072
 20
9.8001799142
 10
11.4225291077
 20
9.8003268527
 10
11.4171430312
 20
9.7995243805
 10
11.4115457172
 20
9.797785674
 10
11.4058290732
 20
9.7951392828
 10
11.4000869665
 20
9.7916286606
 10
11.3944136823
 20
9.7873114516
 10
11.3889023757
 20
9.7822585443
 10
11.3836435423
 20
9.7765529073
 10
11.3787235319
 20
9.7702882271
 10
11.374223131
 20
9.7635673694
 10
11.3702162361
 20
9.7565006906
 10
11.3667686402
 20
9.7492042254
 10
11.3639369527
 20
9.7417977815
 10
11.36176767
 20
9.7344029725
 10
11.3602964115
 20
9.727141221
 10
11.3595473354
 20
9.7201317647
 10
11.3595327413
 20
9.7134896987
 10
11.360252869
 20
9.7073240856
 10
11.3616958939
 20
9.7017361646
 10
11.3638381216
 20
9.6968176891
 10
11.3666443769
 20
9.6926494204
 10
11.370068581
 20
9.6892998013
 10
11.3740545087
 20
9.6868238326
 10
11.3785367111
 20
9.6852621695
 10
11.3834415905
 20
9.6846404545
 10
11.3886886091
 20
9.6849688961
 10
11.3941916108
 20
9.6862421014
 10
11.3998602366
 20
9.6884391643
  0
LINE
  5
117
330
1F
100
AcDbEntity
  8
0
  6
Continuous
 62
     7
370
    25
100
AcDbLine
 10
11.4332903774
 20
9.7744125383
 30
0.0
 11
11.4074165649
 21
9.780910554
 31
0.0
  0
LINE
  5
118
330
1F
100
AcDbEntity
  8
0
  6
Continuous
 62
     7
370
    25
100
AcDbLine
 10
11.3784045422
 20
9.7490043805
 30
0.0
 11
11.4074165649
 21
9.780910554
 31
0.0
  0
LINE
  5
119
330
1F
100
AcDbEntity
  8
0
  6
Continuous
 62
     7
370
    25
100
AcDbLine
 10
11.3752663319
 20
9.7106001913
 30
0.0
 11
11.3784045422
 21
9.7490043805
 31
0.0
  0
LINE
  5
11A
330
1F
100
AcDbEntity
  8
0
  6
Continuous
 62
     7
370
    25
100
AcDbLine
 10
11.3752663319
 20
9.7106001913
 30
0.0
 11
11.4011401445
 21
9.7041021756
 31
0.0
  0
LINE
  5
11B
330
1F
100
AcDbEntity
  8
0
  6
Continuous
 62
     7
370
    25
100
AcDbLine
 10
11.4301521672
 20
9.7360083491
 30
0.0
 11
11.4011401445
 21
9.7041021756
 31
0.0
  0
LINE
  5
11C
330
1F
100
AcDbEntity
  8
0
  6
Continuous
 62
     7
370
    25
100
AcDbLine
 10
11.4301521672
 20
9.7360083491
 30
0.0
 11
11.4332903774
 21
9.7744125383
 31
0.0
  0
LINE
  5
11D
330
1F
100
AcDbEntity
  8
0
  6
Continuous
 62
     7
370
    25
100
AcDbLine
 10
11.3759248326
 20
9.7186586653
 30
0.0
 11
11.4011401445
 21
9.7041021756
 31
0.0
  0
LINE
  5
11E
330
1F
100
AcDbEntity
  8
0
  6
Continuous
 62
     7
370
    25
100
AcDbLine
 10
11.3884682197
 20
9.7600719798
 30
0.0
 11
11.4301521672
 21
9.7360083491
 31
0.0
  0
LWPOLYLINE
  5
11F
330
1F
100
AcDbEntity
  8
0
  6
Continuous
 62
     7
370
    25
100
AcDbPolyline
 90
       71
 70
   128
 43
0.0
 10
10.559311022
 20
10.0915447186
 10
10.5594638386
 20
10.079272138
 10
10.5606345384
 20
10.0661851282
 10
10.5628433413
 20
10.053142864
 10
10.5660856021
 20
10.0401727735
 10
10.5703545023
 20
10.0273021331
 10
10.5756410642
 20
10.0145580098
 10
10.5819341703
 20
10.0019672048
 10
10.589220586
 20
9.9895561966
 10
10.5974849878
 20
9.9773510859
 10
10.6067099956
 20
9.9653775403
 10
10.6168762091
 20
9.9536607401
 10
10.6279622485
 20
9.9422253261
 10
10.6399447998
 20
9.9310953472
 10
10.6527986634
 20
9.9202942097
 10
10.6664968074
 20
9.9098446288
 10
10.6810104245
 20
9.8997685799
 10
10.6963089923
 20
9.8900872533
 10
10.7123603377
 20
9.8808210088
 10
10.7291307044
 20
9.8719893336
 10
10.7465848242
 20
9.8636108008
 10
10.7646859906
 20
9.8557030306
 10
10.7833961367
 20
9.8482826531
 10
10.8026759148
 20
9.8413652735
 10
10.8224847791
 20
9.8349654391
 10
10.8427810714
 20
9.829096609
 10
10.8635221082
 20
9.8237711254
 10
10.8846642708
 20
9.8190001877
 10
10.9061630969
 20
9.8147938295
 10
10.9279733742
 20
9.8111608967
 10
10.9500492352
 20
9.8081090294
 10
10.9723442541
 20
9.8056446458
 10
10.9948115441
 20
9.8037729285
 10
11.0174038563
 20
9.8024978137
 10
11.0400736785
 20
9.8018219831
 10
11.0627733358
 20
9.8017468579
 10
11.0854550905
 20
9.8022725961
 10
11.1080712424
 20
9.8033980921
 10
11.1305742296
 20
9.8051209789
 10
11.1529167277
 20
9.8074376333
 10
11.1750517503
 20
9.8103431833
 10
11.196932747
 20
9.8138315185
 10
11.2185137018
 20
9.8178953029
 10
11.2397492295
 20
9.8225259902
 10
11.2605946716
 20
9.8277138422
 10
11.2810061896
 20
9.8334479486
 10
11.300940858
 20
9.8397162505
 10
11.3203567538
 20
9.8465055655
 10
11.3392130449
 20
9.8538016158
 10
11.3574700765
 20
9.8615890574
 10
11.3750894536
 20
9.8698515135
 10
11.3920341224
 20
9.8785716077
 10
11.4082684481
 20
9.8877310018
 10
11.4237582896
 20
9.8973104332
 10
11.4384710714
 20
9.9072897564
 10
11.4523758525
 20
9.9176479846
 10
11.4654433908
 20
9.9283633344
 10
11.4776462051
 20
9.9394132712
 10
11.4889586327
 20
9.9507745568
 10
11.4993568833
 20
9.9624232982
 10
11.5088190894
 20
9.974334998
 10
11.5173253517
 20
9.9864846056
 10
11.5248577814
 20
9.9988465703
 10
11.5314005377
 20
10.0113948947
 10
11.5369398611
 20
10.0241031894
 10
11.5414641024
 20
10.0369447287
 10
11.5449637469
 20
10.0498925066
 10
11.5474314348
 20
10.0629192938
 10
11.5488619766
 20
10.0759976947
 10
11.5492523638
 20
10.0891002052
 10
11.5492099739
 20
10.0915447186
  0
ELLIPSE
  5
120
330
1F
100
AcDbEntity
  8
0
  6
Continuous
 62
     7
370
    25
100
AcDbEllipse
 10
11.054260498
 20
7.1789436426
 30
0.0
 11
0.4949999971177411
 21
0.285803865097078
 31
0.0
210
0.0
220
0.0
230
1.0
 40
0.0000703729
 41
0.0
 42
6.283185307179586
  0
SPLINE
  5
121
330
1F
100
AcDbEntity
  8
0
  6
Continuous
 62
     7
370
    25
100
AcDbSpline
210
0.0
220
0.0
230
1.0
 70
     8
 71
     3
 72
    16
 73
    12
 74
     0
 42
0.00000001
 43
0.00000001
 40
0.0
 40
0.0
 40
0.0
 40
0.0
 40
0.077925323368735
 40
0.1947018147454696
 40
0.311482696744965
 40
0.428639789540284
 40
0.5458000490366409
 40
0.6639304281871748
 40
0.7820577108654614
 40
0.9002537050868706
 40
1.0
 40
1.0
 40
1.0
 40
1.0
 10
11.40427835467645
 20
9.798031140020187
 30
0.0
 10
11.40605728160445
 20
9.798999492861793
 30
0.0
 10
11.41050205367867
 20
9.801418989469875
 30
0.0
 10
11.41733730203965
 20
9.803914525108759
 30
0.0
 10
11.42451965750821
 20
9.805215753693425
 30
0.0
 10
11.43098721855712
 20
9.804791494720684
 30
0.0
 10
11.43664927791787
 20
9.80271171531326
 30
0.0
 10
11.44135432375108
 20
9.798929202071646
 30
0.0
 10
11.44500742073034
 20
9.793532692012647
 30
0.0
 10
11.4475082403597
 20
9.787092764210716
 30
0.0
 10
11.44822627102996
 20
9.78194108149426
 30
0.0
 10
11.44855489425988
 20
9.779583295561228
 30
0.0
  0
SPLINE
  5
122
330
1F
100
AcDbEntity
  8
0
  6
Continuous
 62
     7
370
    25
100
AcDbSpline
210
0.0
220
0.0
230
1.0
 70
     8
 71
     3
 72
    15
 73
    11
 74
     0
 42
0.00000001
 43
0.00000001
 40
0.0
 40
0.0
 40
0.0
 40
0.0
 40
0.0512955867519087
 40
0.208223135915981
 40
0.3651522772148199
 40
0.5231730941645978
 40
0.681187789131025
 40
0.8386978359209449
 40
0.9962035492788623
 40
1.0
 40
1.0
 40
1.0
 40
1.0
 10
11.44379636012274
 20
9.74169853792248
 30
0.0
 10
11.44345917971526
 20
9.74053493784813
 30
0.0
 10
11.44209047011932
 20
9.735811559643983
 30
0.0
 10
11.43858047370184
 20
9.727583479566022
 30
0.0
 10
11.43335452820286
 20
9.717385276315119
 30
0.0
 10
11.42711710942637
 20
9.707930626548135
 30
0.0
 10
11.42013171727513
 20
9.699490505388107
 30
0.0
 10
11.41251989955979
 20
9.69240065534623
 30
0.0
 10
11.40711110908783
 20
9.688621839051459
 30
0.0
 10
11.40434349400267
 20
9.68701930721999
 30
0.0
 10
11.40427835467645
 20
9.686981589603725
 30
0.0
  0
SPLINE
  5
123
330
1F
100
AcDbEntity
  8
0
  6
Continuous
 62
     7
370
    25
100
AcDbSpline
210
0.0
220
0.0
230
1.0
 70
     8
 71
     3
 72
    25
 73
    21
 74
     0
 42
0.00000001
 43
0.00000001
 40
0.0
 40
0.0
 40
0.0
 40
0.0
 40
0.0526033268543183
 40
0.1052079674684333
 40
0.1584289146773847
 40
0.2116519023073344
 40
0.2653005098324778
 40
0.3189486991200912
 40
0.3728263177863971
 40
0.4267015506432824
 40
0.4999975033329763
 40
0.5533525879083621
 40
0.6067091256874275
 40
0.6600485385561481
 40
0.7133900058064033
 40
0.7670489725330217
 40
0.8207074320056568
 40
0.8745825904658964
 40
0.9284554066226046
 40
1.0
 40
1.0
 40
1.0
 40
1.0
 10
11.40427835467645
 20
9.686981589603725
 30
0.0
 10
11.40160923380811
 20
9.685611340491269
 30
0.0
 10
11.39627092541058
 20
9.682870808044598
 30
0.0
 10
11.38823212336612
 20
9.680888814023088
 30
0.0
 10
11.38047254443354
 20
9.680609828217206
 30
0.0
 10
11.37319696661359
 20
9.682123439407324
 30
0.0
 10
11.36671189343296
 20
9.685409443997083
 30
0.0
 10
11.36120767656738
 20
9.690314427693973
 30
0.0
 10
11.35695367534433
 20
9.69673619802673
 30
0.0
 10
11.35372375425536
 20
9.705346416787698
 30
0.0
 10
11.35251785181326
 20
9.715352122836324
 30
0.0
 10
11.35340340099559
 20
9.72620676026643
 30
0.0
 10
11.35567586595572
 20
9.736261147560237
 30
0.0
 10
11.35940247061862
 20
9.746443391035761
 30
0.0
 10
11.36439193698317
 20
9.756515128770923
 30
0.0
 10
11.37051942045385
 20
9.766208080053444
 30
0.0
 10
11.37754454404678
 20
9.775321008278087
 30
0.0
 10
11.3852439451007
 20
9.783534727578974
 30
0.0
 10
11.39424963486791
 20
9.79161103903678
 30
0.0
 10
11.40063551661534
 20
9.79569909877614
 30
0.0
 10
11.40427835467645
 20
9.798031140020187
 30
0.0
  0
ELLIPSE
  5
124
330
1F
100
AcDbEntity
  8
0
  6
Continuous
 62
     7
370
    25
100
AcDbEllipse
 10
11.054260498
 20
7.1789436426
 30
0.0
 11
0.4375000023022562
 21
0.2526044290222957
 31
0.0
210
0.0
220
0.0
230
1.0
 40
0.0000703729
 41
0.0
 42
6.283185307179586
  0
LWPOLYLINE
  5
125
330
1F
100
AcDbEntity
  8
0
  6
Continuous
 62
     7
370
    25
100
AcDbPolyline
 90
      105
 70
   128
 43
0.0
 10
11.4043352286
 20
11.4857224737
 10
11.4161085028
 20
11.4786868668
 10
11.4312137859
 20
11.4689049177
 10
11.4455263303
 20
11.4587334678
 10
11.4590160365
 20
11.4481939079
 10
11.4716545356
 20
11.4373084027
 10
11.4834152486
 20
11.4260998446
 10
11.4942734425
 20
11.4145918055
 10
11.5042062823
 20
11.402808487
 10
11.5131928791
 20
11.3907746694
 10
11.5212143341
 20
11.3785156602
 10
11.5282537778
 20
11.3660572402
 10
11.5342964064
 20
11.3534256097
 10
11.539329512
 20
11.3406473331
 10
11.5433425099
 20
11.3277492835
 10
11.5463269608
 20
11.3147585855
 10
11.5482765882
 20
11.3017025589
 10
11.5491872922
 20
11.2886086606
 10
11.5490571574
 20
11.2755044274
 10
11.5478864576
 20
11.2624174176
 10
11.5456776547
 20
11.2493751534
 10
11.5424353939
 20
11.236405063
 10
11.5381664937
 20
11.2235344225
 10
11.5328799317
 20
11.2107902992
 10
11.5265868257
 20
11.1981994942
 10
11.51930041
 20
11.185788486
 10
11.5110360081
 20
11.1735833754
 10
11.5018110003
 20
11.1616098297
 10
11.4916447869
 20
11.1498930295
 10
11.4805587475
 20
11.1384576156
 10
11.4685761962
 20
11.1273276366
 10
11.4557223326
 20
11.1165264991
 10
11.4420241886
 20
11.1060769182
 10
11.4275105715
 20
11.0960008693
 10
11.4122120036
 20
11.0863195427
 10
11.3961606583
 20
11.0770532982
 10
11.3793902915
 20
11.068221623
 10
11.3619361718
 20
11.0598430902
 10
11.3438350054
 20
11.05193532
 10
11.3251248593
 20
11.0445149425
 10
11.3058450812
 20
11.0375975629
 10
11.2860362168
 20
11.0311977286
 10
11.2657399245
 20
11.0253288984
 10
11.2449988877
 20
11.0200034148
 10
11.2238567251
 20
11.0152324772
 10
11.202357899
 20
11.0110261189
 10
11.1805476218
 20
11.0073931861
 10
11.1584717608
 20
11.0043413188
 10
11.1361767419
 20
11.0018769352
 10
11.1137094518
 20
11.0000052179
 10
11.0911171397
 20
10.9987301032
 10
11.0684473175
 20
10.9980542725
 10
11.0457476602
 20
10.9979791473
 10
11.0230659055
 20
10.9985048855
 10
11.0004497536
 20
10.9996303815
 10
10.9779467664
 20
11.0013532683
 10
10.9556042683
 20
11.0036699227
 10
10.9334692457
 20
11.0065754727
 10
10.9115882489
 20
11.0100638079
 10
10.8900072942
 20
11.0141275923
 10
10.8687717665
 20
11.0187582797
 10
10.8479263244
 20
11.0239461316
 10
10.8275148063
 20
11.029680238
 10
10.807580138
 20
11.0359485399
 10
10.7881642422
 20
11.0427378549
 10
10.769307951
 20
11.0500339052
 10
10.7510509195
 20
11.0578213469
 10
10.7334315424
 20
11.0660838029
 10
10.7164868735
 20
11.0748038971
 10
10.7002525479
 20
11.0839632912
 10
10.6847627064
 20
11.0935427226
 10
10.6700499245
 20
11.1035220458
 10
10.6561451435
 20
11.113880274
 10
10.6430776052
 20
11.1245956238
 10
10.6308747909
 20
11.1356455606
 10
10.6195623633
 20
11.1470068462
 10
10.6091641126
 20
11.1586555876
 10
10.5997019066
 20
11.1705672874
 10
10.5911956443
 20
11.182716895
 10
10.5836632146
 20
11.1950788597
 10
10.5771204583
 20
11.2076271841
 10
10.5715811348
 20
11.2203354788
 10
10.5670568936
 20
11.2331770181
 10
10.5635572491
 20
11.246124796
 10
10.5610895612
 20
11.2591515832
 10
10.5596590194
 20
11.2722299841
 10
10.5592686321
 20
11.2853324946
 10
10.5599192205
 20
11.2984315601
 10
10.5616094162
 20
11.3114996328
 10
10.5643356648
 20
11.3245092305
 10
10.5680922329
 20
11.3374329938
 10
10.5728712205
 20
11.3502437437
 10
10.5786625771
 20
11.3629145392
 10
10.5854541236
 20
11.3754187333
 10
10.5932315771
 20
11.3877300295
 10
10.6019785816
 20
11.3998225369
 10
10.611676742
 20
11.4116708249
 10
10.6223056629
 20
11.4232499762
 10
10.6338429915
 20
11.4345356398
 10
10.6462644647
 20
11.4455040818
 10
10.6595439599
 20
11.4561322352
 10
10.67365355
 20
11.466397749
 10
10.6885635625
 20
11.4762790347
 10
10.7042426413
 20
11.4857553117
 10
10.7042426413
 20
11.4857553117
  0
LWPOLYLINE
  5
126
330
1F
100
AcDbEntity
  8
0
  6
Continuous
 62
     7
370
    25
100
AcDbPolyline
 90
      105
 70
   128
 43
0.0
 10
10.7254558447
 20
11.4980054143
 10
10.7101831136
 20
11.4887586625
 10
10.6956898283
 20
11.4791028658
 10
10.682008821
 20
11.4690598977
 10
10.6691710834
 20
11.4586525087
 10
10.6572056972
 20
11.4479042749
 10
10.6461397678
 20
11.4368395446
 10
10.6359983632
 20
11.4254833828
 10
10.6268044568
 20
11.4138615151
 10
10.6185788759
 20
11.4020002685
 10
10.6113402539
 20
11.3899265127
 10
10.6051049888
 20
11.3776675986
 10
10.5998872053
 20
11.3652512966
 10
10.5956987235
 20
11.3527057337
 10
10.5925490316
 20
11.3400593294
 10
10.5904452647
 20
11.3273407321
 10
10.5893921885
 20
11.3145787534
 10
10.5893921885
 20
11.3018023033
 10
10.5904452647
 20
11.2890403246
 10
10.5925490316
 20
11.2763217273
 10
10.5956987235
 20
11.263675323
 10
10.5998872053
 20
11.25112976
 10
10.6051049888
 20
11.238713458
 10
10.6113402539
 20
11.226454544
 10
10.6185788759
 20
11.2143807882
 10
10.6268044568
 20
11.2025195416
 10
10.6359983632
 20
11.1908976738
 10
10.6461397678
 20
11.1795415121
 10
10.6572056972
 20
11.1684767818
 10
10.6691710834
 20
11.157728548
 10
10.682008821
 20
11.147321159
 10
10.6956898283
 20
11.1372781909
 10
10.7101831136
 20
11.1276223942
 10
10.7254558447
 20
11.1183756423
 10
10.7414734242
 20
11.1095588823
 10
10.758199567
 20
11.1011920868
 10
10.7755963831
 20
11.0932942094
 10
10.7936244629
 20
11.0858831412
 10
10.8122429673
 20
11.0789756708
 10
10.8314097192
 20
11.0725874458
 10
10.8510812997
 20
11.0667329375
 10
10.8712131465
 20
11.0614254083
 10
10.8917596545
 20
11.0566768815
 10
10.9126742791
 20
11.052498114
 10
10.933909642
 20
11.048898572
 10
10.9554176383
 20
11.0458864098
 10
10.9771495455
 20
11.0434684507
 10
10.9990561339
 20
11.0416501723
 10
11.0210877778
 20
11.0404356935
 10
11.0431945686
 20
11.0398277655
 10
11.0653264273
 20
11.0398277655
 10
11.0874332182
 20
11.0404356935
 10
11.1094648621
 20
11.0416501723
 10
11.1313714504
 20
11.0434684507
 10
11.1531033576
 20
11.0458864098
 10
11.174611354
 20
11.048898572
 10
11.1958467169
 20
11.052498114
 10
11.2167613415
 20
11.0566768815
 10
11.2373078494
 20
11.0614254083
 10
11.2574396962
 20
11.0667329375
 10
11.2771112768
 20
11.0725874458
 10
11.2962780287
 20
11.0789756708
 10
11.314896533
 20
11.0858831412
 10
11.3329246129
 20
11.0932942094
 10
11.350321429
 20
11.1011920868
 10
11.3670475718
 20
11.1095588823
 10
11.3830651512
 20
11.1183756423
 10
11.3983378824
 20
11.1276223942
 10
11.4128311677
 20
11.1372781909
 10
11.426512175
 20
11.147321159
 10
11.4393499126
 20
11.157728548
 10
11.4513152988
 20
11.1684767818
 10
11.4623812281
 20
11.1795415121
 10
11.4725226328
 20
11.1908976738
 10
11.4817165392
 20
11.2025195416
 10
11.4899421201
 20
11.2143807882
 10
11.4971807421
 20
11.226454544
 10
11.5034160072
 20
11.238713458
 10
11.5086337907
 20
11.25112976
 10
11.5128222725
 20
11.263675323
 10
11.5159719644
 20
11.2763217273
 10
11.5180757313
 20
11.2890403246
 10
11.5191288075
 20
11.3018023033
 10
11.5191288075
 20
11.3145787534
 10
11.5180757313
 20
11.3273407321
 10
11.5159719644
 20
11.3400593294
 10
11.5128222725
 20
11.3527057337
 10
11.5086337907
 20
11.3652512966
 10
11.5034160072
 20
11.3776675986
 10
11.4971807421
 20
11.3899265127
 10
11.4899421201
 20
11.4020002685
 10
11.4817165392
 20
11.4138615151
 10
11.4725226328
 20
11.4254833828
 10
11.4623812281
 20
11.4368395446
 10
11.4513152988
 20
11.4479042749
 10
11.4393499126
 20
11.4586525087
 10
11.426512175
 20
11.4690598977
 10
11.4128311677
 20
11.4791028658
 10
11.3983378824
 20
11.4887586625
 10
11.3830651512
 20
11.4980054143
 10
11.3670475718
 20
11.5068221744
 10
11.350321429
 20
11.5151889699
 10
11.3329246129
 20
11.5230868473
 10
11.314896533
 20
11.5304979154
 10
11.3141287159
 20
11.5307972732
  0
ARC
  5
127
330
1F
100
AcDbEntity
  8
0
  6
Continuous
 62
     7
370
    25
100
AcDbCircle
 10
11.0539155434
 20
10.7906280051
 30
0.0
 40
0.78606707185855
100
AcDbArc
 50
77.0470925789
 51
99.1539257821
  0
ARC
  5
128
330
1F
100
AcDbEntity
  8
0
  6
Continuous
 62
     7
370
    25
100
AcDbCircle
 10
10.99216926
 20
11.0275089311
 30
0.0
 40
0.540835452426319
100
AcDbArc
 50
105.4722395489
 51
119.547883222
  0
ARC
  5
129
330
1F
100
AcDbEntity
  8
0
  6
Continuous
 62
     7
370
    25
100
AcDbCircle
 10
11.383589793
 20
10.9285165273
 30
0.0
 40
0.1656707058990587
100
AcDbArc
 50
352.8812689552
 51
359.9939559102
  0
ARC
  5
12A
330
1F
100
AcDbEntity
  8
0
  6
Continuous
 62
     7
370
    25
100
AcDbCircle
 10
10.7250301418
 20
10.9285235335
 30
0.0
 40
0.1657696456386349
100
AcDbArc
 50
180.0084620678
 51
186.8920160332
  0
ARC
  5
12B
330
1F
100
AcDbEntity
  8
0
  6
Continuous
 62
     7
370
    25
100
AcDbCircle
 10
11.0120941667
 20
11.1895124508
 30
0.0
 40
0.2465313347687888
100
AcDbArc
 50
113.3907425216
 51
119.8424008677
  0
ARC
  5
12C
330
1F
100
AcDbEntity
  8
0
  6
Continuous
 62
     7
370
    25
100
AcDbCircle
 10
11.0541909901
 20
11.0770259277
 30
0.0
 40
0.366184813148428
100
AcDbArc
 50
65.1002098047
 51
99.8882460507
  0
LWPOLYLINE
  5
12D
330
1F
100
AcDbEntity
  8
0
  6
Continuous
 62
     7
370
    25
100
AcDbPolyline
 90
       67
 70
   128
 43
0.0
 10
11.2704116709
 20
11.3586031047
 10
11.2731779189
 20
11.3544543974
 10
11.2780418151
 20
11.3459099426
 10
11.2819062496
 20
11.3371970237
 10
11.2847539629
 20
11.3283545548
 10
11.2865722364
 20
11.3194220284
 10
11.2873529494
 20
11.3104393394
 10
11.2870926148
 20
11.3014466067
 10
11.2857923955
 20
11.292483994
 10
11.2834580985
 20
11.2835915305
 10
11.2801001494
 20
11.2748089321
 10
11.2757335456
 20
11.2661754239
 10
11.2703777894
 20
11.2577295655
 10
11.2640568009
 20
11.2495090779
 10
11.2567988112
 20
11.241550676
 10
11.2486362363
 20
11.2338899038
 10
11.2396055321
 20
11.2265609763
 10
11.2297470319
 20
11.2195966261
 10
11.2191047664
 20
11.2130279578
 10
11.2077262663
 20
11.2068843087
 10
11.1956623508
 20
11.2011931177
 10
11.1829669003
 20
11.1959798031
 10
11.1696966158
 20
11.1912676489
 10
11.1559107655
 20
11.1870777006
 10
11.1416709205
 20
11.1834286716
 10
11.1270406794
 20
11.1803368594
 10
11.1120853842
 20
11.1778160727
 10
11.0968718291
 20
11.1758775699
 10
11.0814679615
 20
11.174530009
 10
11.0659425787
 20
11.1737794083
 10
11.0503650208
 20
11.1736291204
 10
11.0348048612
 20
11.1740798164
 10
11.0193315951
 20
11.1751294833
 10
11.00401433
 20
11.1767734332
 10
10.9889214765
 20
11.1790043238
 10
10.9741204429
 20
11.1818121913
 10
10.9596773343
 20
11.1851844951
 10
10.945656657
 20
11.1891061737
 10
10.9321210308
 20
11.193559712
 10
10.9191309092
 20
11.1985252193
 10
10.9067443091
 20
11.2039805185
 10
10.8950165521
 20
11.2099012449
 10
10.8840000172
 20
11.2162609551
 10
10.873743907
 20
11.2230312451
 10
10.8642940277
 20
11.2301818772
 10
10.8556925847
 20
11.2376809148
 10
10.8479779943
 20
11.2454948654
 10
10.8411847116
 20
11.2535888302
 10
10.835343077
 20
11.2619266593
 10
10.8304791809
 20
11.2704711141
 10
10.8266147464
 20
11.279184033
 10
10.8237670331
 20
11.2880265019
 10
10.8219487595
 20
11.2969590283
 10
10.8211680466
 20
11.3059417173
 10
10.8214283812
 20
11.31493445
 10
10.8227286005
 20
11.3238970627
 10
10.8250628975
 20
11.3327895262
 10
10.8284208466
 20
11.3415721246
 10
10.8327874504
 20
11.3502056327
 10
10.8381432066
 20
11.3586514912
 10
10.844464195
 20
11.3668719787
 10
10.8517221847
 20
11.3748303807
 10
10.8598847597
 20
11.3824911529
 10
10.8689154639
 20
11.3898200804
 10
10.878773964
 20
11.3967844306
 10
10.8894162296
 20
11.4033530989
 10
10.8894162296
 20
11.4033530989
  0
ARC
  5
12E
330
1F
100
AcDbEntity
  8
0
  6
Continuous
 62
     7
370
    25
100
AcDbCircle
 10
10.9406584812
 20
11.2845955355
 30
0.0
 40
0.0873397939068581
100
AcDbArc
 50
110.1096971111
 51
242.7952874242
  0
ARC
  5
12F
330
1F
100
AcDbEntity
  8
0
  6
Continuous
 62
     7
370
    25
100
AcDbCircle
 10
11.1730685778
 20
11.2822192472
 30
0.0
 40
0.0829220711214114
100
AcDbArc
 50
294.7553506771
 51
35.9943642421
  0
ARC
  5
130
330
1F
100
AcDbEntity
  8
0
  6
Continuous
 62
     7
370
    25
100
AcDbCircle
 10
11.0538832371
 20
11.0678648717
 30
0.0
 40
0.333227143030924
100
AcDbArc
 50
70.7199232727
 51
99.8653297147
  0
LINE
  5
131
330
1F
100
AcDbEntity
  8
0
  6
Continuous
 62
     7
370
    25
100
AcDbLine
 10
10.9170333156
 20
11.3701496989
 30
0.0
 11
10.9106294331
 21
11.3666107528
 31
0.0
  0
ARC
  5
132
330
1F
100
AcDbEntity
  8
0
  6
Continuous
 62
     7
370
    25
100
AcDbCircle
 10
11.1516533867
 20
11.2221267872
 30
0.0
 40
0.1094141790480526
100
AcDbArc
 50
21.109816657
 51
58.1194161072
  0
ARC
  5
133
330
1F
100
AcDbEntity
  8
0
  6
Continuous
 62
     7
370
    25
100
AcDbCircle
 10
11.0541514399
 20
11.0137220106
 30
0.0
 40
0.3429512810296418
100
AcDbArc
 50
77.3537953231
 51
99.5872192354
  0
ARC
  5
134
330
1F
100
AcDbEntity
  8
0
  6
Continuous
 62
     7
370
    25
100
AcDbCircle
 10
10.9687930937
 20
11.2134530115
 30
0.0
 40
0.1237215519105972
100
AcDbArc
 50
114.7309018254
 51
157.1316675917
  0
ARC
  5
135
330
1F
100
AcDbEntity
  8
0
  6
Continuous
 62
     7
370
    25
100
AcDbCircle
 10
10.8043340455
 20
10.9426627509
 30
0.0
 40
0.2457014719241726
100
AcDbArc
 50
184.2588481641
 51
245.9602720808
  0
LWPOLYLINE
  5
136
330
1F
100
AcDbEntity
  8
0
  6
Continuous
 62
     7
370
    25
100
AcDbPolyline
 90
       53
 70
   128
 43
0.0
 10
11.5492099739
 20
10.9244163467
 10
11.5491872922
 20
10.915419286
 10
11.5482765882
 20
10.9023253878
 10
11.5463269608
 20
10.8892693612
 10
11.5433425099
 20
10.8762786632
 10
11.539329512
 20
10.8633806135
 10
11.5342964064
 20
10.850602337
 10
11.5282537778
 20
10.8379707065
 10
11.5212143341
 20
10.8255122865
 10
11.5131928791
 20
10.8132532772
 10
11.5042062823
 20
10.8012194597
 10
11.4942734425
 20
10.7894361411
 10
11.4834152486
 20
10.777928102
 10
11.4716545356
 20
10.766719544
 10
11.4590160365
 20
10.7558340388
 10
11.4455263303
 20
10.7452944788
 10
11.4312137859
 20
10.7351230289
 10
11.4161085028
 20
10.7253410798
 10
11.4002422479
 20
10.7159692031
 10
11.3836483879
 20
10.707027108
 10
11.3663618201
 20
10.6985335998
 10
11.3484188983
 20
10.6905065405
 10
11.3298573569
 20
10.6829628113
 10
11.310716231
 20
10.6759182765
 10
11.2910357748
 20
10.6693877511
 10
11.2708573764
 20
10.6633849687
 10
11.2502234715
 20
10.6579225534
 10
11.2291774533
 20
10.6530119928
 10
11.2077635821
 20
10.6486636136
 10
11.1860268916
 20
10.6448865608
 10
11.1640130942
 20
10.6416887775
 10
11.1417684855
 20
10.6390769886
 10
11.1193398461
 20
10.6370566868
 10
11.0967743438
 20
10.6356321209
 10
11.0741194343
 20
10.6348062867
 10
11.051422761
 20
10.634580921
 10
11.0287320556
 20
10.6349564976
 10
11.0060950369
 20
10.6359322268
 10
10.983559311
 20
10.6375060567
 10
10.9611722707
 20
10.6396746773
 10
10.9389809964
 20
10.6424335281
 10
10.9170321566
 20
10.6457768071
 10
10.8953719103
 20
10.6496974834
 10
10.874045809
 20
10.6541873118
 10
10.8530987021
 20
10.65923685
 10
10.8325746415
 20
10.6648354788
 10
10.8125167898
 20
10.6709714242
 10
10.7929673288
 20
10.6776317823
 10
10.7739673714
 20
10.6848025461
 10
10.7555568748
 20
10.6924686355
 10
10.7377745565
 20
10.7006139285
 10
10.7206578131
 20
10.7092212955
 10
10.7042426413
 20
10.718272635
  0
ARC
  5
137
330
1F
100
AcDbEntity
  8
0
  6
Continuous
 62
     7
370
    25
100
AcDbCircle
 10
10.8053832872
 20
10.8418191908
 30
0.0
 40
0.2472472005970535
100
AcDbArc
 50
185.4663733377
 51
245.8537676199
  0
LWPOLYLINE
  5
138
330
1F
100
AcDbEntity
  8
0
  6
Continuous
 62
     7
370
    25
100
AcDbPolyline
 90
       53
 70
   128
 43
0.0
 10
11.549260498
 20
10.8182660412
 10
11.5491872922
 20
10.8133516846
 10
11.5482765882
 20
10.8002577863
 10
11.5463269608
 20
10.7872017597
 10
11.5433425099
 20
10.7742110617
 10
11.539329512
 20
10.7613130121
 10
11.5342964064
 20
10.7485347355
 10
11.5282537778
 20
10.735903105
 10
11.5212143341
 20
10.723444685
 10
11.5131928791
 20
10.7111856758
 10
11.5042062823
 20
10.6991518582
 10
11.4942734425
 20
10.6873685396
 10
11.4834152486
 20
10.6758605006
 10
11.4716545356
 20
10.6646519425
 10
11.4590160365
 20
10.6537664373
 10
11.4455263303
 20
10.6432268773
 10
11.4312137859
 20
10.6330554274
 10
11.4161085028
 20
10.6232734783
 10
11.4002422479
 20
10.6139016016
 10
11.3836483879
 20
10.6049595065
 10
11.3663618201
 20
10.5964659983
 10
11.3484188983
 20
10.5884389391
 10
11.3298573569
 20
10.5808952098
 10
11.310716231
 20
10.573850675
 10
11.2910357748
 20
10.5673201496
 10
11.2708573764
 20
10.5613173672
 10
11.2502234715
 20
10.555854952
 10
11.2291774533
 20
10.5509443913
 10
11.2077635821
 20
10.5465960122
 10
11.1860268916
 20
10.5428189593
 10
11.1640130942
 20
10.539621176
 10
11.1417684855
 20
10.5370093871
 10
11.1193398461
 20
10.5349890854
 10
11.0967743438
 20
10.5335645194
 10
11.0741194343
 20
10.5327386852
 10
11.051422761
 20
10.5325133195
 10
11.0287320556
 20
10.5328888961
 10
11.0060950369
 20
10.5338646254
 10
10.983559311
 20
10.5354384552
 10
10.9611722707
 20
10.5376070758
 10
10.9389809964
 20
10.5403659266
 10
10.9170321566
 20
10.5437092056
 10
10.8953719103
 20
10.5476298819
 10
10.874045809
 20
10.5521197103
 10
10.8530987021
 20
10.5571692485
 10
10.8325746415
 20
10.5627678773
 10
10.8125167898
 20
10.5689038227
 10
10.7929673288
 20
10.5755641808
 10
10.7739673714
 20
10.5827349446
 10
10.7555568748
 20
10.590401034
 10
10.7377745565
 20
10.598546327
 10
10.7206578131
 20
10.607153694
 10
10.7042426413
 20
10.6162050335
  0
ARC
  5
139
330
1F
100
AcDbEntity
  8
0
  6
Continuous
 62
     7
370
    25
100
AcDbCircle
 10
11.0542544258
 20
10.7856894303
 30
0.0
 40
0.5255264584563407
100
AcDbArc
 50
83.4454993879
 51
96.2598266154
  0
LINE
  5
13A
330
1F
100
AcDbEntity
  8
0
  6
Continuous
 62
     7
370
    25
100
AcDbLine
 10
11.1917760054
 20
11.2849043746
 30
0.0
 11
11.2495933279
 21
11.2515271448
 31
0.0
  0
LINE
  5
13B
330
1F
100
AcDbEntity
  8
0
  6
Continuous
 62
     7
370
    25
100
AcDbLine
 10
11.2345727272
 20
11.2387676401
 30
0.0
 11
11.2396381167
 21
11.235758896
 31
0.0
  0
LINE
  5
13C
330
1F
100
AcDbEntity
  8
0
  6
Continuous
 62
     7
370
    25
100
AcDbLine
 10
10.8688828792
 20
11.235758896
 30
0.0
 11
10.8761145705
 21
11.2400033721
 31
0.0
  0
ARC
  5
13D
330
1F
100
AcDbEntity
  8
0
  6
Continuous
 62
     7
370
    25
100
AcDbCircle
 10
11.054276693
 20
10.8455518447
 30
0.0
 40
0.4363441209167144
100
AcDbArc
 50
82.4792759892
 51
98.1860057364
  0
ARC
  5
13E
330
1F
100
AcDbEntity
  8
0
  6
Continuous
 62
     7
370
    25
100
AcDbCircle
 10
11.0947157534
 20
10.993660422
 30
0.0
 40
0.2822012073842304
100
AcDbArc
 50
60.2911317707
 51
69.9452340199
  0
LWPOLYLINE
  5
13F
330
1F
100
AcDbEntity
  8
0
  6
Continuous
 62
     7
370
    25
100
AcDbPolyline
 90
        3
 70
   128
 43
0.0
 10
11.2062940703
 20
11.2059305024
 10
11.2021313257
 20
11.2080789667
 10
11.1914876804
 20
11.2131143301
  0
ARC
  5
140
330
1F
100
AcDbEntity
  8
0
  6
Continuous
 62
     7
370
    25
100
AcDbCircle
 10
11.0540201351
 20
10.8903050982
 30
0.0
 40
0.3502393010853644
100
AcDbArc
 50
80.5561594662
 51
115.6415024957
  0
ARC
  5
141
330
1F
100
AcDbEntity
  8
0
  6
Continuous
 62
     7
370
    25
100
AcDbCircle
 10
11.383810598
 20
10.8101037367
 30
0.0
 40
0.165449680221359
100
AcDbArc
 50
353.0568747736
 51
1.4129225348
  0
LWPOLYLINE
  5
142
330
1F
100
AcDbEntity
  8
0
  6
Continuous
 62
     7
370
    25
100
AcDbPolyline
 90
        3
 70
   128
 43
0.0
 10
10.5606108008
 20
10.7890080813
 10
10.5594638386
 20
10.8019107565
 10
10.559311022
 20
10.8141833371
  0
LWPOLYLINE
  5
143
330
1F
100
AcDbEntity
  8
0
  6
Continuous
 62
     7
370
    25
100
AcDbPolyline
 90
        3
 70
   128
 43
0.0
 10
10.559260498
 20
10.0956274227
 10
10.5594638386
 20
10.0874375461
 10
10.5603657418
 20
10.0765422371
  0
LWPOLYLINE
  5
144
330
1F
100
AcDbEntity
  8
0
  6
Continuous
 62
     7
370
    25
100
AcDbPolyline
 90
        3
 70
   128
 43
0.0
 10
11.5479713753
 20
10.0750176076
 10
11.5488619766
 20
10.0841631028
 10
11.549260498
 20
10.0956274227
  0
LWPOLYLINE
  5
145
330
1F
100
AcDbEntity
  8
0
  6
Continuous
 62
     7
370
    25
100
AcDbPolyline
 90
       21
 70
   128
 43
0.0
 10
11.2044731389
 20
11.3131656905
 10
11.2017214964
 20
11.3123954259
 10
11.1963603372
 20
11.3117611297
 10
11.1908698948
 20
11.3121983859
 10
11.1853999344
 20
11.3136952672
 10
11.180099662
 20
11.3162109427
 10
11.1751136554
 20
11.3196767913
 10
11.1705779198
 20
11.3239982737
 10
11.1666161783
 20
11.329057511
 10
11.1633364967
 20
11.3347165005
 10
11.1608283364
 20
11.3408208797
 10
11.1591601133
 20
11.3472041371
 10
11.1583773323
 20
11.353692154
 10
11.1585013455
 20
11.3601079542
 10
11.1595287702
 20
11.3662765315
 10
11.161431581
 20
11.3720296231
 10
11.1641578741
 20
11.3772102996
 10
11.1676332833
 20
11.3816772459
 10
11.1717630087
 20
11.3853086151
 10
11.1764344019
 20
11.388005353
 10
11.1787684253
 20
11.3889236445
  0
ARC
  5
146
330
1F
100
AcDbEntity
  8
0
  6
Continuous
 62
     7
370
    25
100
AcDbCircle
 10
11.0095005742
 20
11.3713181087
 30
0.0
 40
0.1711934919050593
100
AcDbArc
 50
110.2887551934
 51
137.3133122298
  0
LWPOLYLINE
  5
147
330
1F
100
AcDbEntity
  8
0
  6
Continuous
 62
     7
370
    25
100
AcDbPolyline
 90
       21
 70
   128
 43
0.0
 10
11.1914875998
 20
11.2782250238
 10
11.1914535107
 20
11.2773171191
 10
11.1906363542
 20
11.2735326433
 10
11.1887513239
 20
11.2698774277
 10
11.1858498386
 20
11.2664511771
 10
11.1820110431
 20
11.2633473508
 10
11.1773396499
 20
11.2606506129
 10
11.1719630824
 20
11.2584345234
 10
11.1660279992
 20
11.2567595316
 10
11.1596962941
 20
11.2556713268
 10
11.1531406794
 20
11.2551995923
 10
11.1465399752
 20
11.255357196
 10
11.1400742314
 20
11.2561398387
 10
11.1339198168
 20
11.2575261721
 10
11.1282446078
 20
11.2594783805
 10
11.1232034092
 20
11.2619432129
 10
11.1189337317
 20
11.2648534349
 10
11.1155520411
 20
11.2681296633
 10
11.1131505811
 20
11.2716825312
 10
11.1117948572
 20
11.2754151256
 10
11.1114877035
 20
11.2782962061
  0
ARC
  5
148
330
1F
100
AcDbEntity
  8
0
  6
Continuous
 62
     7
370
    25
100
AcDbCircle
 10
11.1325835937
 20
11.1992865269
 30
0.0
 40
0.021264109703739
100
AcDbArc
 50
187.2112258676
 51
246.4704996133
  0
LWPOLYLINE
  5
149
330
1F
100
AcDbEntity
  8
0
  6
Continuous
 62
     7
370
    25
100
AcDbPolyline
 90
       21
 70
   128
 43
0.0
 10
10.9170333517
 20
11.3904964655
 10
10.9173404924
 20
11.387671241
 10
10.9186962163
 20
11.3839386466
 10
10.9210976763
 20
11.3803857787
 10
10.9244793669
 20
11.3771095503
 10
10.9287490443
 20
11.3741993282
 10
10.933790243
 20
11.3717344959
 10
10.939465452
 20
11.3697822875
 10
10.9456198666
 20
11.3683959541
 10
10.9520856103
 20
11.3676133114
 10
10.9586863145
 20
11.3674557077
 10
10.9652419293
 20
11.3679274421
 10
10.9715736344
 20
11.369015647
 10
10.9775087175
 20
11.3706906388
 10
10.9828852851
 20
11.3729067282
 10
10.9875566783
 20
11.3756034661
 10
10.9913954738
 20
11.3787072925
 10
10.9942969591
 20
11.3821335431
 10
10.9961819894
 20
11.3857887587
 10
10.9969991459
 20
11.3895732345
 10
10.9970332709
 20
11.3905619864
  0
LWPOLYLINE
  5
14A
330
1F
100
AcDbEntity
  8
0
  6
Continuous
 62
     7
370
    25
100
AcDbPolyline
 90
       21
 70
   128
 43
0.0
 10
10.9170333156
 20
11.3088734093
 10
10.9173404924
 20
11.3060171598
 10
10.9186962163
 20
11.3022845654
 10
10.9210976763
 20
11.2987316975
 10
10.9244793669
 20
11.2954554691
 10
10.9287490443
 20
11.292545247
 10
10.933790243
 20
11.2900804147
 10
10.939465452
 20
11.2881282063
 10
10.9456198666
 20
11.2867418729
 10
10.9520856103
 20
11.2859592302
 10
10.9586863145
 20
11.2858016265
 10
10.9652419293
 20
11.2862733609
 10
10.9715736344
 20
11.2873615658
 10
10.9775087175
 20
11.2890365576
 10
10.9828852851
 20
11.291252647
 10
10.9875566783
 20
11.2939493849
 10
10.9913954738
 20
11.2970532113
 10
10.9942969591
 20
11.3004794619
 10
10.9961819894
 20
11.3041346775
 10
10.9969991459
 20
11.3079191533
 10
10.9970333156
 20
11.3088734093
  0
ARC
  5
14B
330
1F
100
AcDbEntity
  8
0
  6
Continuous
 62
     7
370
    25
100
AcDbCircle
 10
10.9025110585
 20
11.3086856629
 30
0.0
 40
0.0086490760684696
100
AcDbArc
 50
51.6530897375
 51
89.8527751477
  0
LWPOLYLINE
  5
14C
330
1F
100
AcDbEntity
  8
0
  6
Continuous
 62
     7
370
    25
100
AcDbPolyline
 90
        3
 70
   128
 43
0.0
 10
10.9064711602
 20
11.3167157499
 10
10.9044754179
 20
11.3179476611
 10
10.9038427814
 20
11.3181758156
  0
ARC
  5
14D
330
1F
100
AcDbEntity
  8
0
  6
Continuous
 62
     7
370
    25
100
AcDbCircle
 10
11.2931687968
 20
10.9620365615
 30
0.0
 40
0.2604841562979695
100
AcDbArc
 50
295.2488228304
 51
348.0240106017
  0
LWPOLYLINE
  5
14E
330
1F
100
AcDbEntity
  8
0
  6
Continuous
 62
     7
370
    25
100
AcDbPolyline
 90
       51
 70
   128
 43
0.0
 10
10.5604583355
 20
10.9086314246
 10
10.5621940352
 20
10.8974347693
 10
10.5651784861
 20
10.8844440713
 10
10.569191484
 20
10.8715460217
 10
10.5742245896
 20
10.8587677451
 10
10.5802672181
 20
10.8461361146
 10
10.5873066619
 20
10.8336776946
 10
10.5953281168
 20
10.8214186854
 10
10.6043147137
 20
10.8093848678
 10
10.6142475535
 20
10.7976015493
 10
10.6251057474
 20
10.7860935102
 10
10.6368664603
 20
10.7748849521
 10
10.6495049594
 20
10.7639994469
 10
10.6629946657
 20
10.753459887
 10
10.6773072101
 20
10.743288437
 10
10.6924124931
 20
10.7335064879
 10
10.7082787481
 20
10.7241346112
 10
10.7248726081
 20
10.7151925161
 10
10.7421591759
 20
10.7066990079
 10
10.7601020976
 20
10.6986719487
 10
10.7786636391
 20
10.6911282194
 10
10.7978047649
 20
10.6840836846
 10
10.8174852212
 20
10.6775531592
 10
10.8376636196
 20
10.6715503769
 10
10.8582975245
 20
10.6660879616
 10
10.8793435426
 20
10.6611774009
 10
10.9007574138
 20
10.6568290218
 10
10.9224941044
 20
10.6530519689
 10
10.9445079017
 20
10.6498541856
 10
10.9667525105
 20
10.6472423967
 10
10.9891811499
 20
10.645222095
 10
11.0117466522
 20
10.643797529
 10
11.0344015617
 20
10.6429716948
 10
11.0570982349
 20
10.6427463291
 10
11.0797889403
 20
10.6431219057
 10
11.102425959
 20
10.644097635
 10
11.124961685
 20
10.6456714648
 10
11.1473487253
 20
10.6478400854
 10
11.1695399996
 20
10.6505989362
 10
11.1914888393
 20
10.6539422152
 10
11.2131490857
 20
10.6578628915
 10
11.2344751869
 20
10.6623527199
 10
11.2554222939
 20
10.6674022581
 10
11.2759463544
 20
10.6730008869
 10
11.2960042062
 20
10.6791368324
 10
11.3155536672
 20
10.6857971904
 10
11.3345536246
 20
10.6929679542
 10
11.3529641212
 20
10.7006340436
 10
11.3707464395
 20
10.7087793366
 10
11.3878631829
 20
10.7173867036
 10
11.4042783547
 20
10.7264380431
  0
LWPOLYLINE
  5
14F
330
1F
100
AcDbEntity
  8
0
  6
Continuous
 62
     7
370
    25
100
AcDbPolyline
 90
       68
 70
   128
 43
0.0
 10
11.5480469756
 20
10.7901035125
 10
11.5474314348
 20
10.7855579123
 10
11.5449637469
 20
10.7725311251
 10
11.5414641024
 20
10.7595833472
 10
11.5369398611
 20
10.7467418079
 10
11.5314005377
 20
10.7340335132
 10
11.5248577814
 20
10.7214851888
 10
11.5173253517
 20
10.7091232241
 10
11.5088190894
 20
10.6969736165
 10
11.4993568833
 20
10.6850619167
 10
11.4889586327
 20
10.6734131753
 10
11.4776462051
 20
10.6620518897
 10
11.4654433908
 20
10.6510019529
 10
11.4523758525
 20
10.6402866032
 10
11.4384710714
 20
10.6299283749
 10
11.4237582896
 20
10.6199490517
 10
11.4082684481
 20
10.6103696203
 10
11.3920341224
 20
10.6012102262
 10
11.3750894536
 20
10.592490132
 10
11.3574700765
 20
10.584227676
 10
11.3392130449
 20
10.5764402343
 10
11.3203567538
 20
10.5691441841
 10
11.300940858
 20
10.562354869
 10
11.2810061896
 20
10.5560865671
 10
11.2605946716
 20
10.5503524607
 10
11.2397492295
 20
10.5451646088
 10
11.2185137018
 20
10.5405339214
 10
11.196932747
 20
10.536470137
 10
11.1750517503
 20
10.5329818018
 10
11.1529167277
 20
10.5300762518
 10
11.1305742296
 20
10.5277595974
 10
11.1080712424
 20
10.5260367106
 10
11.0854550905
 20
10.5249112146
 10
11.0627733358
 20
10.5243854764
 10
11.0400736785
 20
10.5244606016
 10
11.0174038563
 20
10.5251364323
 10
10.9948115441
 20
10.526411547
 10
10.9723442541
 20
10.5282832643
 10
10.9500492352
 20
10.5307476479
 10
10.9279733742
 20
10.5337995152
 10
10.9061630969
 20
10.537432448
 10
10.8846642708
 20
10.5416388063
 10
10.8635221082
 20
10.5464097439
 10
10.8427810714
 20
10.5517352275
 10
10.8224847791
 20
10.5576040577
 10
10.8026759148
 20
10.564003892
 10
10.7833961367
 20
10.5709212716
 10
10.7646859906
 20
10.5783416491
 10
10.7465848242
 20
10.5862494193
 10
10.7291307044
 20
10.5946279521
 10
10.7123603377
 20
10.6034596273
 10
10.6963089923
 20
10.6127258718
 10
10.6810104245
 20
10.6224071984
 10
10.6664968074
 20
10.6324832473
 10
10.6527986634
 20
10.6429328282
 10
10.6399447998
 20
10.6537339657
 10
10.6279622485
 20
10.6648639447
 10
10.6168762091
 20
10.6762993586
 10
10.6067099956
 20
10.6880161588
 10
10.5974849878
 20
10.6999897045
 10
10.589220586
 20
10.7121948151
 10
10.5819341703
 20
10.7246058233
 10
10.5756410642
 20
10.7371966283
 10
10.5703545023
 20
10.7499407516
 10
10.5660856021
 20
10.7628113921
 10
10.5628433413
 20
10.7757814825
 10
10.5606345384
 20
10.7888237467
 10
10.5606108008
 20
10.7890080813
  0
LWPOLYLINE
  5
150
330
1F
100
AcDbEntity
  8
0
  6
Continuous
 62
     7
370
    25
100
AcDbPolyline
 90
       68
 70
   128
 43
0.0
 10
10.5603657418
 20
10.0765422371
 10
10.5606345384
 20
10.0743505363
 10
10.5628433413
 20
10.0613082721
 10
10.5660856021
 20
10.0483381817
 10
10.5703545023
 20
10.0354675412
 10
10.5756410642
 20
10.0227234179
 10
10.5819341703
 20
10.0101326129
 10
10.589220586
 20
9.9977216047
 10
10.5974849878
 20
9.9855164941
 10
10.6067099956
 20
9.9735429484
 10
10.6168762091
 20
9.9618261482
 10
10.6279622485
 20
9.9503907343
 10
10.6399447998
 20
9.9392607553
 10
10.6527986634
 20
9.9284596178
 10
10.6664968074
 20
9.9180100369
 10
10.6810104245
 20
9.907933988
 10
10.6963089923
 20
9.8982526614
 10
10.7123603377
 20
9.8889864169
 10
10.7291307044
 20
9.8801547417
 10
10.7465848242
 20
9.8717762089
 10
10.7646859906
 20
9.8638684387
 10
10.7833961367
 20
9.8564480612
 10
10.8026759148
 20
9.8495306816
 10
10.8224847791
 20
9.8431308473
 10
10.8427810714
 20
9.8372620171
 10
10.8635221082
 20
9.8319365335
 10
10.8846642708
 20
9.8271655959
 10
10.9061630969
 20
9.8229592376
 10
10.9279733742
 20
9.8193263048
 10
10.9500492352
 20
9.8162744375
 10
10.9723442541
 20
9.8138100539
 10
10.9948115441
 20
9.8119383366
 10
11.0174038563
 20
9.8106632219
 10
11.0400736785
 20
9.8099873912
 10
11.0627733358
 20
9.809912266
 10
11.0854550905
 20
9.8104380042
 10
11.1080712424
 20
9.8115635002
 10
11.1305742296
 20
9.813286387
 10
11.1529167277
 20
9.8156030414
 10
11.1750517503
 20
9.8185085914
 10
11.196932747
 20
9.8219969266
 10
11.2185137018
 20
9.826060711
 10
11.2397492295
 20
9.8306913984
 10
11.2605946716
 20
9.8358792503
 10
11.2810061896
 20
9.8416133567
 10
11.300940858
 20
9.8478816586
 10
11.3203567538
 20
9.8546709737
 10
11.3392130449
 20
9.8619670239
 10
11.3574700765
 20
9.8697544656
 10
11.3750894536
 20
9.8780169216
 10
11.3920341224
 20
9.8867370158
 10
11.4082684481
 20
9.8958964099
 10
11.4237582896
 20
9.9054758413
 10
11.4384710714
 20
9.9154551645
 10
11.4523758525
 20
9.9258133928
 10
11.4654433908
 20
9.9365287425
 10
11.4776462051
 20
9.9475786793
 10
11.4889586327
 20
9.9589399649
 10
11.4993568833
 20
9.9705887063
 10
11.5088190894
 20
9.9825004061
 10
11.5173253517
 20
9.9946500137
 10
11.5248577814
 20
10.0070119784
 10
11.5314005377
 20
10.0195603028
 10
11.5369398611
 20
10.0322685975
 10
11.5414641024
 20
10.0451101368
 10
11.5449637469
 20
10.0580579147
 10
11.5474314348
 20
10.0710847019
 10
11.5479713753
 20
10.0750176076
  0
LINE
  5
151
330
1F
100
AcDbEntity
  8
0
  6
Continuous
 62
     7
370
    25
100
AcDbLine
 10
4.3053167075
 20
1.6053813731
 30
0.0
 11
4.3053167075
 21
3.0173813731
 31
0.0
  0
LINE
  5
152
330
1F
100
AcDbEntity
  8
0
  6
Continuous
 62
     7
370
    25
100
AcDbLine
 10
4.3053167075
 20
1.4838813731
 30
0.0
 11
4.3053167075
 21
1.5373813731
 31
0.0
  0
LINE
  5
153
330
1F
100
AcDbEntity
  8
0
  6
Continuous
 62
     7
370
    25
100
AcDbLine
 10
3.8103167075
 20
3.5123813731
 30
0.0
 11
3.8103167075
 21
1.4838813731
 31
0.0
  0
LINE
  5
154
330
1F
100
AcDbEntity
  8
0
  6
Continuous
 62
     7
370
    25
100
AcDbLine
 10
4.0578167075
 20
1.4838813731
 30
0.0
 11
3.8103167075
 21
1.4838813731
 31
0.0
  0
LINE
  5
155
330
1F
100
AcDbEntity
  8
0
  6
Continuous
 62
     7
370
    25
100
AcDbLine
 10
4.3053167075
 20
1.4838813731
 30
0.0
 11
4.0578167075
 21
1.4838813731
 31
0.0
  0
SPLINE
  5
156
330
1F
100
AcDbEntity
  8
0
  6
Continuous
 62
     7
370
    25
100
AcDbSpline
210
0.0
220
0.0
230
1.0
 70
     8
 71
     3
 72
    34
 73
    30
 74
     0
 42
0.00000001
 43
0.00000001
 40
0.0
 40
0.0
 40
0.0
 40
0.0
 40
0.0625
 40
0.0625
 40
0.1250000000000001
 40
0.1250000000000001
 40
0.1875000000000001
 40
0.1875000000000001
 40
0.2500000000000001
 40
0.2500000000000001
 40
0.3125
 40
0.3125
 40
0.375
 40
0.375
 40
0.4374999999999999
 40
0.4374999999999999
 40
0.4999999999999999
 40
0.4999999999999999
 40
0.6249999999999999
 40
0.6249999999999999
 40
0.7499999999999999
 40
0.7499999999999999
 40
0.8124999999999999
 40
0.8124999999999999
 40
0.8749999999999999
 40
0.8749999999999999
 40
0.9375
 40
0.9375
 40
1.0
 40
1.0
 40
1.0
 40
1.0
 10
4.305316707478184
 20
1.537381373146407
 30
0.0
 10
4.305316707478184
 20
1.537381373146407
 30
0.0
 10
4.305285843987285
 20
1.537604017594855
 30
0.0
 10
4.305168462734009
 20
1.538475035586086
 30
0.0
 10
4.305082561652441
 20
1.53911886098865
 30
0.0
 10
4.30486558249572
 20
1.540826280319932
 30
0.0
 10
4.304734592631669
 20
1.541890912285283
 30
0.0
 10
4.304452678166772
 20
1.54435273443422
 30
0.0
 10
4.304300301748124
 20
1.545761023164425
 30
0.0
 10
4.303990888082297
 20
1.548932157456824
 30
0.0
 10
4.303838620287256
 20
1.550647367603414
 30
0.0
 10
4.303555772872465
 20
1.55432834806354
 30
0.0
 10
4.303423973405611
 20
1.556318085425093
 30
0.0
 10
4.303205926204699
 20
1.560434125645844
 30
0.0
 10
4.303119415227296
 20
1.562553923018674
 30
0.0
 10
4.303001180622442
 20
1.566916922705597
 30
0.0
 10
4.302970128445486
 20
1.569172450173432
 30
0.0
 10
4.302970436312383
 20
1.575833212792058
 30
0.0
 10
4.303098798230585
 20
1.580311811489217
 30
0.0
 10
4.303532939195668
 20
1.588496139126874
 30
0.0
 10
4.303839941884569
 20
1.592283943029783
 30
0.0
 10
4.304298851162947
 20
1.596986666455093
 30
0.0
 10
4.304453943445863
 20
1.598421632781521
 30
0.0
 10
4.304736387205677
 20
1.600886927065722
 30
0.0
 10
4.304864990712365
 20
1.60193170027228
 30
0.0
 10
4.30508212151674
 20
1.603640530268078
 30
0.0
 10
4.305169407150763
 20
1.604294771999493
 30
0.0
 10
4.30528603324903
 20
1.605160079252859
 30
0.0
 10
4.305316707478184
 20
1.605381373146407
 30
0.0
 10
4.305316707478184
 20
1.605381373146407
 30
0.0
  0
LINE
  5
157
330
1F
100
AcDbEntity
  8
0
  6
Continuous
 62
     7
370
    25
100
AcDbLine
 10
4.3053167075
 20
3.0173813731
 30
0.0
 11
3.8103167075
 21
3.5123813731
 31
0.0
  0
DIMENSION
  5
158
330
1F
100
AcDbEntity
  8
0
  6
Continuous
 62
     7
370
    18
100
AcDbDimension
  2
_D_3
 10
2.8654348177
 20
3.5123813731
 30
0.0
 11
2.8654348177
 21
2.4981313731
 31
0.0
 70
   160
  1
<>
 71
     2
 42
-1.0
  3
SLDDIMSTYLE2
100
AcDbAlignedDimension
 13
3.8103167075
 23
1.4838813731
 33
0.0
 14
3.8103167075
 24
3.5123813731
 34
0.0
 50
90.0
100
AcDbRotatedDimension
  0
LINE
  5
16D
330
1F
100
AcDbEntity
  8
0
  6
Continuous
 62
     7
370
    25
100
AcDbLine
 10
8.3924134633
 20
1.6053813731
 30
0.0
 11
8.3924134633
 21
3.0653813731
 31
0.0
  0
LINE
  5
16E
330
1F
100
AcDbEntity
  8
0
  6
Continuous
 62
     7
370
    25
100
AcDbLine
 10
8.3924134633
 20
1.4838813731
 30
0.0
 11
8.3924134633
 21
1.5373813731
 31
0.0
  0
LINE
  5
16F
330
1F
100
AcDbEntity
  8
0
  6
Continuous
 62
     7
370
    25
100
AcDbLine
 10
7.8974134633
 20
3.0653813731
 30
0.0
 11
7.8974134633
 21
1.4838813731
 31
0.0
  0
ARC
  5
170
330
1F
100
AcDbEntity
  8
0
  6
Continuous
 62
     7
370
    25
100
AcDbCircle
 10
8.3849134633
 20
3.0653813731
 30
0.0
 40
0.0075000000000003
100
AcDbArc
 50
0.0
 51
90.0
  0
ARC
  5
171
330
1F
100
AcDbEntity
  8
0
  6
Continuous
 62
     7
370
    25
100
AcDbCircle
 10
7.9049134633
 20
3.0653813731
 30
0.0
 40
0.0075000000000003
100
AcDbArc
 50
90.0
 51
180.0
  0
LINE
  5
172
330
1F
100
AcDbEntity
  8
0
  6
Continuous
 62
     7
370
    25
100
AcDbLine
 10
8.3924134633
 20
1.4838813731
 30
0.0
 11
7.8974134633
 21
1.4838813731
 31
0.0
  0
SPLINE
  5
173
330
1F
100
AcDbEntity
  8
0
  6
Continuous
 62
     7
370
    25
100
AcDbSpline
210
0.0
220
0.0
230
1.0
 70
     8
 71
     3
 72
    30
 73
    26
 74
     0
 42
0.00000001
 43
0.00000001
 40
0.0
 40
0.0
 40
0.0
 40
0.0
 40
0.1250000000000001
 40
0.1250000000000001
 40
0.2500000000000003
 40
0.2500000000000003
 40
0.3125000000000003
 40
0.3125000000000003
 40
0.3750000000000003
 40
0.3750000000000003
 40
0.4375000000000003
 40
0.4375000000000003
 40
0.5000000000000003
 40
0.5000000000000003
 40
0.5625000000000004
 40
0.5625000000000004
 40
0.6250000000000004
 40
0.6250000000000004
 40
0.6875000000000006
 40
0.6875000000000006
 40
0.7500000000000006
 40
0.7500000000000006
 40
0.8750000000000003
 40
0.8750000000000003
 40
1.0
 40
1.0
 40
1.0
 40
1.0
 10
8.392413463327069
 20
1.537381373146407
 30
0.0
 10
8.392413463327069
 20
1.537381373146407
 30
0.0
 10
8.392286700751388
 20
1.538274059013106
 30
0.0
 10
8.39185592091625
 20
1.541663482650658
 30
0.0
 10
8.391550426779252
 20
1.54419210585247
 30
0.0
 10
8.391091636833385
 20
1.548889780502206
 30
0.0
 10
8.390936248651473
 20
1.550636673100573
 30
0.0
 10
8.390652700333169
 20
1.554325456708001
 30
0.0
 10
8.390523315800355
 20
1.556275921935242
 30
0.0
 10
8.39030453007243
 20
1.56039271250145
 30
0.0
 10
8.390216359553621
 20
1.562550720970338
 30
0.0
 10
8.39009836938683
 20
1.566897214334062
 30
0.0
 10
8.39006720158147
 20
1.569110532944269
 30
0.0
 10
8.390066773946923
 20
1.573605568054919
 30
0.0
 10
8.390097454084
 20
1.57581602300438
 30
0.0
 10
8.390214686521011
 20
1.580165842186235
 30
0.0
 10
8.390302663385915
 20
1.582328125406739
 30
0.0
 10
8.39052065201331
 20
1.586443345589864
 30
0.0
 10
8.390649796223624
 20
1.588395839836939
 30
0.0
 10
8.390933414730528
 20
1.592092801389692
 30
0.0
 10
8.391088604518735
 20
1.5938398118899
 30
0.0
 10
8.39154703315706
 20
1.598540038196747
 30
0.0
 10
8.391853060687883
 20
1.601075776411367
 30
0.0
 10
8.392284895993182
 20
1.60447545932244
 30
0.0
 10
8.392413463327069
 20
1.605381373146406
 30
0.0
 10
8.392413463327069
 20
1.605381373146406
 30
0.0
  0
LINE
  5
174
330
1F
100
AcDbEntity
  8
0
  6
Continuous
 62
     7
370
    25
100
AcDbLine
 10
7.9049134633
 20
3.0728813731
 30
0.0
 11
8.3849134633
 21
3.0728813731
 31
0.0
  0
LINE
  5
175
330
1F
100
AcDbEntity
  8
0
  6
Continuous
 62
     7
370
    25
100
AcDbLine
 10
8.3924134633
 20
3.0653813731
 30
0.0
 11
7.8974134633
 21
3.0653813731
 31
0.0
  0
DIMENSION
  5
176
330
1F
100
AcDbEntity
  8
0
  6
Continuous
 62
     7
370
    18
100
AcDbDimension
  2
_D_4
 10
7.3068622822
 20
3.0728813731
 30
0.0
 11
7.3068622822
 21
2.2783813731
 31
0.0
 70
   160
  1
<>
 71
     2
 42
-1.0
  3
SLDDIMSTYLE2
100
AcDbAlignedDimension
 13
7.8974134633
 23
1.4838813731
 33
0.0
 14
7.9049134633
 24
3.0728813731
 34
0.0
 50
90.0
100
AcDbRotatedDimension
  0
LINE
  5
18A
330
1F
100
AcDbEntity
  8
0
  6
Continuous
 62
     7
370
    25
100
AcDbLine
 10
12.2172633281
 20
1.6053813731
 30
0.0
 11
12.2172633281
 21
2.9031313731
 31
0.0
  0
LINE
  5
18B
330
1F
100
AcDbEntity
  8
0
  6
Continuous
 62
     7
370
    25
100
AcDbLine
 10
12.2172633281
 20
1.4838813731
 30
0.0
 11
12.2172633281
 21
1.5373813731
 31
0.0
  0
LINE
  5
18C
330
1F
100
AcDbEntity
  8
0
  6
Continuous
 62
     7
370
    25
100
AcDbLine
 10
11.7222633281
 20
2.9031313731
 30
0.0
 11
11.7222633281
 21
1.4838813731
 31
0.0
  0
ARC
  5
18D
330
1F
100
AcDbEntity
  8
0
  6
Continuous
 62
     7
370
    25
100
AcDbCircle
 10
11.7297633281
 20
2.9031313731
 30
0.0
 40
0.0075000000000003
100
AcDbArc
 50
90.0
 51
180.0
  0
ARC
  5
18E
330
1F
100
AcDbEntity
  8
0
  6
Continuous
 62
     7
370
    25
100
AcDbCircle
 10
12.2097633281
 20
2.9031313731
 30
0.0
 40
0.0075000000000003
100
AcDbArc
 50
0.0
 51
90.0
  0
SPLINE
  5
18F
330
1F
100
AcDbEntity
  8
0
  6
Continuous
 62
     7
370
    25
100
AcDbSpline
210
0.0
220
0.0
230
1.0
 70
     8
 71
     3
 72
    30
 73
    26
 74
     0
 42
0.00000001
 43
0.00000001
 40
0.0
 40
0.0
 40
0.0
 40
0.0
 40
0.1249999999999999
 40
0.1249999999999999
 40
0.2499999999999998
 40
0.2499999999999998
 40
0.3124999999999998
 40
0.3124999999999998
 40
0.3749999999999998
 40
0.3749999999999998
 40
0.4374999999999997
 40
0.4374999999999997
 40
0.4999999999999997
 40
0.4999999999999997
 40
0.5624999999999997
 40
0.5624999999999997
 40
0.6249999999999996
 40
0.6249999999999996
 40
0.6874999999999996
 40
0.6874999999999996
 40
0.7499999999999996
 40
0.7499999999999996
 40
0.8749999999999998
 40
0.8749999999999998
 40
1.0
 40
1.0
 40
1.0
 40
1.0
 10
12.21726332812207
 20
1.537381373146407
 30
0.0
 10
12.21726332812207
 20
1.537381373146407
 30
0.0
 10
12.21713656554639
 20
1.538274059013107
 30
0.0
 10
12.21670578571125
 20
1.541663482650659
 30
0.0
 10
12.21640029157425
 20
1.54419210585247
 30
0.0
 10
12.21594150162838
 20
1.548889780502206
 30
0.0
 10
12.21578611344647
 20
1.550636673100573
 30
0.0
 10
12.21550256512817
 20
1.554325456708001
 30
0.0
 10
12.21537318059536
 20
1.556275921935242
 30
0.0
 10
12.21515439486743
 20
1.560392712501451
 30
0.0
 10
12.21506622434862
 20
1.562550720970338
 30
0.0
 10
12.21494823418183
 20
1.566897214334062
 30
0.0
 10
12.21491706637647
 20
1.569110532944269
 30
0.0
 10
12.21491663874192
 20
1.573605568054919
 30
0.0
 10
12.214947318879
 20
1.57581602300438
 30
0.0
 10
12.21506455131601
 20
1.580165842186235
 30
0.0
 10
12.21515252818091
 20
1.582328125406739
 30
0.0
 10
12.21537051680831
 20
1.586443345589864
 30
0.0
 10
12.21549966101862
 20
1.588395839836939
 30
0.0
 10
12.21578327952553
 20
1.592092801389692
 30
0.0
 10
12.21593846931374
 20
1.5938398118899
 30
0.0
 10
12.21639689795206
 20
1.598540038196748
 30
0.0
 10
12.21670292548288
 20
1.601075776411368
 30
0.0
 10
12.21713476078818
 20
1.60447545932244
 30
0.0
 10
12.21726332812207
 20
1.605381373146407
 30
0.0
 10
12.21726332812207
 20
1.605381373146407
 30
0.0
  0
LINE
  5
190
330
1F
100
AcDbEntity
  8
0
  6
Continuous
 62
     7
370
    25
100
AcDbLine
 10
12.2172633281
 20
1.4838813731
 30
0.0
 11
11.7222633281
 21
1.4838813731
 31
0.0
  0
LINE
  5
191
330
1F
100
AcDbEntity
  8
0
  6
Continuous
 62
     7
370
    25
100
AcDbLine
 10
11.7297633281
 20
2.9106313731
 30
0.0
 11
12.2097633281
 21
2.9106313731
 31
0.0
  0
LINE
  5
192
330
1F
100
AcDbEntity
  8
0
  6
Continuous
 62
     7
370
    25
100
AcDbLine
 10
12.2172633281
 20
2.9031313731
 30
0.0
 11
11.7222633281
 21
2.9031313731
 31
0.0
  0
DIMENSION
  5
193
330
1F
100
AcDbEntity
  8
0
  6
Continuous
 62
     7
370
    18
100
AcDbDimension
  2
_D_5
 10
11.131712147
 20
2.9106313731
 30
0.0
 11
11.131712147
 21
2.1972563731
 31
0.0
 70
   160
  1
<>
 71
     2
 42
-1.0
  3
SLDDIMSTYLE2
100
AcDbAlignedDimension
 13
11.7222633281
 23
1.4838813731
 33
0.0
 14
11.7297633281
 24
2.9106313731
 34
0.0
 50
90.0
100
AcDbRotatedDimension
  0
ENDSEC
  0
SECTION
  2
OBJECTS
  0
DICTIONARY
  5
C
330
0
100
AcDbDictionary
281
     1
  3
ACAD_GROUP
350
D
  3
ACAD_LAYOUT
350
1A
  3
ACAD_MLINESTYLE
350
17
  3
ACAD_PLOTSETTINGS
350
19
  3
ACAD_PLOTSTYLENAME
350
E
  3
ACAD_SCALELIST
350
47
  3
DWGPROPS
350
1A7
  0
DICTIONARY
  5
D
102
{ACAD_REACTORS
330
C
102
}
330
C
100
AcDbDictionary
281
     1
  0
DICTIONARY
  5
1A
102
{ACAD_REACTORS
330
C
102
}
330
C
100
AcDbDictionary
281
     1
  3
Layout1
350
1E
  3
Layout2
350
26
  3
Model
350
22
  0
DICTIONARY
  5
17
102
{ACAD_REACTORS
330
C
102
}
330
C
100
AcDbDictionary
281
     1
  3
Standard
350
18
  0
DICTIONARY
  5
19
102
{ACAD_REACTORS
330
C
102
}
330
C
100
AcDbDictionary
281
     1
  0
ACDBDICTIONARYWDFLT
  5
E
102
{ACAD_REACTORS
330
C
102
}
330
C
100
AcDbDictionary
281
     1
  3
Normal
350
F
100
AcDbDictionaryWithDefault
340
F
  0
DICTIONARY
  5
47
102
{ACAD_REACTORS
330
C
102
}
330
C
100
AcDbDictionary
281
     1
  3
A0
350
48
  3
A1
350
49
  3
A2
350
4A
  3
A3
350
4B
  3
A4
350
4C
  3
A5
350
4D
  3
A6
350
4E
  3
A7
350
4F
  3
A8
350
50
  3
A9
350
51
  3
B1
350
52
  3
B2
350
53
  3
B3
350
54
  3
B4
350
55
  3
B5
350
56
  3
B6
350
57
  3
B7
350
58
  0
XRECORD
  5
1A7
102
{ACAD_REACTORS
330
C
102
}
330
C
100
AcDbXrecord
280
     1
  1
DWGPROPS COOKIE
  2

  3

  4

  6

  7

  8
stevend
  9

300
=
301
=
302
=
303
=
304
=
305
=
306
=
307
=
308
=
309
=
 40
0.0
 41
2460477.235412234
 42
2460477.235413183
  1

 90
        0
  0
LAYOUT
  5
1E
102
{ACAD_REACTORS
330
1A
102
}
330
1A
100
AcDbPlotSettings
  1

  2
none_device
  4

  6

 40
0.0
 41
0.0
 42
0.0
 43
0.0
 44
0.0
 45
0.0
 46
0.0
 47
0.0
 48
0.0
 49
0.0
140
0.0
141
0.0
142
1.0
143
1.0
 70
   688
 72
     0
 73
     0
 74
     5
  7

 75
    16
147
1.0
148
0.0
149
0.0
100
AcDbLayout
  1
Layout1
 70
     1
 71
     1
 10
0.0
 20
0.0
 11
12.0
 21
9.0
 12
0.0
 22
0.0
 32
0.0
 14
1.0000000000E+20
 24
1.0000000000E+20
 34
1.0000000000E+20
 15
-1.0000000000E+20
 25
-1.0000000000E+20
 35
-1.0000000000E+20
146
0.0
 13
0.0
 23
0.0
 33
0.0
 16
1.0
 26
0.0
 36
0.0
 17
0.0
 27
1.0
 37
0.0
 76
     0
330
1B
  0
LAYOUT
  5
26
102
{ACAD_REACTORS
330
1A
102
}
330
1A
100
AcDbPlotSettings
  1

  2
none_device
  4

  6

 40
0.0
 41
0.0
 42
0.0
 43
0.0
 44
0.0
 45
0.0
 46
0.0
 47
0.0
 48
0.0
 49
0.0
140
0.0
141
0.0
142
1.0
143
1.0
 70
   688
 72
     0
 73
     0
 74
     5
  7

 75
    16
147
1.0
148
0.0
149
0.0
100
AcDbLayout
  1
Layout2
 70
     1
 71
     2
 10
0.0
 20
0.0
 11
0.0
 21
0.0
 12
0.0
 22
0.0
 32
0.0
 14
0.0
 24
0.0
 34
0.0
 15
0.0
 25
0.0
 35
0.0
146
0.0
 13
0.0
 23
0.0
 33
0.0
 16
1.0
 26
0.0
 36
0.0
 17
0.0
 27
1.0
 37
0.0
 76
     0
330
23
  0
LAYOUT
  5
22
102
{ACAD_REACTORS
330
1A
102
}
330
1A
100
AcDbPlotSettings
  1

  2
none_device
  4
Letter_(8.50_x_11.00_Inches)
  6

 40
6.35
 41
6.35
 42
6.35000508
 43
6.35000508
 44
215.9
 45
279.4
 46
0.0
 47
0.0
 48
0.0
 49
0.0
140
0.0
141
0.0
142
1.0
143
1.0
 70
  1712
 72
     0
 73
     0
 74
     0
  7

 75
     0
147
1.0
148
0.0
149
0.0
100
AcDbLayout
  1
Model
 70
     1
 71
     0
 10
0.0
 20
0.0
 11
16.5
 21
12.75
 12
0.0
 22
0.0
 32
0.0
 14
0.0
 24
0.0
 34
0.0
 15
16.5
 25
12.75
 35
0.0
146
0.0
 13
0.0
 23
0.0
 33
0.0
 16
1.0
 26
0.0
 36
0.0
 17
0.0
 27
1.0
 37
0.0
 76
     0
330
1F
331
29
  0
MLINESTYLE
  5
18
102
{ACAD_REACTORS
330
17
102
}
330
17
100
AcDbMlineStyle
  2
Standard
 70
     0
  3

 62
   256
 51
90.0
 52
90.0
 71
     2
 49
0.5
 62
   256
  6
BYLAYER
 49
-0.5
 62
   256
  6
BYLAYER
  0
ACDBPLACEHOLDER
  5
F
102
{ACAD_REACTORS
330
E
102
}
330
E
  0
SCALE
  5
48
102
{ACAD_REACTORS
330
47
102
}
330
47
100
AcDbScale
 70
     0
300
1:1
140
1.0
141
1.0
290
     1
  0
SCALE
  5
49
102
{ACAD_REACTORS
330
47
102
}
330
47
100
AcDbScale
 70
     0
300
1/128" = 1'-0"
140
0.0078125
141
12.0
290
     0
  0
SCALE
  5
4A
102
{ACAD_REACTORS
330
47
102
}
330
47
100
AcDbScale
 70
     0
300
1/64" = 1'-0"
140
0.015625
141
12.0
290
     0
  0
SCALE
  5
4B
102
{ACAD_REACTORS
330
47
102
}
330
47
100
AcDbScale
 70
     0
300
1/32" = 1'-0"
140
0.03125
141
12.0
290
     0
  0
SCALE
  5
4C
102
{ACAD_REACTORS
330
47
102
}
330
47
100
AcDbScale
 70
     0
300
1/16" = 1'-0"
140
0.0625
141
12.0
290
     0
  0
SCALE
  5
4D
102
{ACAD_REACTORS
330
47
102
}
330
47
100
AcDbScale
 70
     0
300
3/32" = 1'-0"
140
0.09375
141
12.0
290
     0
  0
SCALE
  5
4E
102
{ACAD_REACTORS
330
47
102
}
330
47
100
AcDbScale
 70
     0
300
1/8" = 1'-0"
140
0.125
141
12.0
290
     0
  0
SCALE
  5
4F
102
{ACAD_REACTORS
330
47
102
}
330
47
100
AcDbScale
 70
     0
300
3/16" = 1'-0"
140
0.1875
141
12.0
290
     0
  0
SCALE
  5
50
102
{ACAD_REACTORS
330
47
102
}
330
47
100
AcDbScale
 70
     0
300
1/4" = 1'-0"
140
0.25
141
12.0
290
     0
  0
SCALE
  5
51
102
{ACAD_REACTORS
330
47
102
}
330
47
100
AcDbScale
 70
     0
300
3/8" = 1'-0"
140
0.375
141
12.0
290
     0
  0
SCALE
  5
52
102
{ACAD_REACTORS
330
47
102
}
330
47
100
AcDbScale
 70
     0
300
1/2" = 1'-0"
140
0.5
141
12.0
290
     0
  0
SCALE
  5
53
102
{ACAD_REACTORS
330
47
102
}
330
47
100
AcDbScale
 70
     0
300
3/4" = 1'-0"
140
0.75
141
12.0
290
     0
  0
SCALE
  5
54
102
{ACAD_REACTORS
330
47
102
}
330
47
100
AcDbScale
 70
     0
300
1" = 1'-0"
140
1.0
141
12.0
290
     0
  0
SCALE
  5
55
102
{ACAD_REACTORS
330
47
102
}
330
47
100
AcDbScale
 70
     0
300
1-1/2" = 1'-0"
140
1.5
141
12.0
290
     0
  0
SCALE
  5
56
102
{ACAD_REACTORS
330
47
102
}
330
47
100
AcDbScale
 70
     0
300
3" = 1'-0"
140
3.0
141
12.0
290
     0
  0
SCALE
  5
57
102
{ACAD_REACTORS
330
47
102
}
330
47
100
AcDbScale
 70
     0
300
6" = 1'-0"
140
6.0
141
12.0
290
     0
  0
SCALE
  5
58
102
{ACAD_REACTORS
330
47
102
}
330
47
100
AcDbScale
 70
     0
300
1'-0" = 1'-0"
140
12.0
141
12.0
290
     0
  0
ENDSEC
  0
EOF
