  0
SECTION
  2
HEADER
  9
$ACADVER
  1
AC1015
  9
$ACADMAINTVER
 70
     6
  9
$DWGCODEPAGE
  3
ANSI_1252
  9
$INSBASE
 10
0.0
 20
0.0
 30
0.0
  9
$EXTMIN
 10
0.0
 20
0.0
 30
0.0
  9
$EXTMAX
 10
22.0
 20
17.0
 30
0.0
  9
$LIMMIN
 10
0.0
 20
0.0
  9
$LIMMAX
 10
22.0
 20
17.0
  9
$ORTHOMODE
 70
     0
  9
$REGENMODE
 70
     1
  9
$FILLMODE
 70
     1
  9
$QTEXTMODE
 70
     0
  9
$MIRRTEXT
 70
     1
  9
$LTSCALE
 40
2.0
  9
$ATTMODE
 70
     1
  9
$TEXTSIZE
 40
0.25
  9
$TRACEWID
 40
0.05
  9
$TEXTSTYLE
  7
STANDARD
  9
$CLAYER
  8
0
  9
$CELTYPE
  6
ByLayer
  9
$CECOLOR
 62
   256
  9
$CELTSCALE
 40
1.0
  9
$DISPSILH
 70
     0
  9
$DIMSCALE
 40
1.0
  9
$DIMASZ
 40
0.26
  9
$DIMEXO
 40
0.3
  9
$DIMDLI
 40
0.38
  9
$DIMRND
 40
0.0
  9
$DIMDLE
 40
0.0
  9
$DIMEXE
 40
0.2
  9
$DIMTP
 40
0.0
  9
$DIMTM
 40
0.0
  9
$DIMTXT
 40
0.25
  9
$DIMCEN
 40
0.09
  9
$DIMTSZ
 40
0.0
  9
$DIMTOL
 70
     0
  9
$DIMLIM
 70
     0
  9
$DIMTIH
 70
     1
  9
$DIMTOH
 70
     1
  9
$DIMSE1
 70
     0
  9
$DIMSE2
 70
     0
  9
$DIMTAD
 70
     0
  9
$DIMZIN
 70
     0
  9
$DIMBLK
  1

  9
$DIMASO
 70
     1
  9
$DIMSHO
 70
     1
  9
$DIMPOST
  1

  9
$DIMAPOST
  1

  9
$DIMALT
 70
     0
  9
$DIMALTD
 70
     2
  9
$DIMALTF
 40
25.4
  9
$DIMLFAC
 40
1.0
  9
$DIMTOFL
 70
     0
  9
$DIMTVP
 40
0.0
  9
$DIMTIX
 70
     0
  9
$DIMSOXD
 70
     0
  9
$DIMSAH
 70
     0
  9
$DIMBLK1
  1

  9
$DIMBLK2
  1

  9
$DIMSTYLE
  2
Standard
  9
$DIMCLRD
 70
     0
  9
$DIMCLRE
 70
     0
  9
$DIMCLRT
 70
     0
  9
$DIMTFAC
 40
1.0
  9
$DIMGAP
 40
0.12
  9
$DIMJUST
 70
     0
  9
$DIMSD1
 70
     0
  9
$DIMSD2
 70
     0
  9
$DIMTOLJ
 70
     1
  9
$DIMTZIN
 70
     0
  9
$DIMALTZ
 70
     0
  9
$DIMALTTZ
 70
     0
  9
$DIMUPT
 70
     0
  9
$DIMDEC
 70
     0
  9
$DIMTDEC
 70
     0
  9
$DIMALTU
 70
     2
  9
$DIMALTTD
 70
     2
  9
$DIMTXSTY
  7
STANDARD
  9
$DIMAUNIT
 70
     0
  9
$DIMADEC
 70
     0
  9
$DIMALTRND
 40
0.0
  9
$DIMAZIN
 70
     0
  9
$DIMDSEP
 70
    46
  9
$DIMATFIT
 70
     3
  9
$DIMFRAC
 70
     0
  9
$DIMLDRBLK
  1

  9
$DIMLUNIT
 70
     2
  9
$DIMLWD
 70
    -2
  9
$DIMLWE
 70
    -2
  9
$DIMTMOVE
 70
     0
  9
$LUNITS
 70
     2
  9
$LUPREC
 70
     0
  9
$SKETCHINC
 40
0.1
  9
$FILLETRAD
 40
0.0
  9
$AUNITS
 70
     0
  9
$AUPREC
 70
     0
  9
$MENU
  1
.
  9
$ELEVATION
 40
0.0
  9
$PELEVATION
 40
0.0
  9
$THICKNESS
 40
0.0
  9
$LIMCHECK
 70
     0
  9
$CHAMFERA
 40
0.0
  9
$CHAMFERB
 40
0.0
  9
$CHAMFERC
 40
0.0
  9
$CHAMFERD
 40
0.0
  9
$SKPOLY
 70
     0
  9
$TDCREATE
 40
2460475.986973414
  9
$TDUCREATE
 40
2460476.278640081
  9
$TDUPDATE
 40
2460475.986974444
  9
$TDUUPDATE
 40
2460476.278641111
  9
$TDINDWG
 40
0.0000000116
  9
$TDUSRTIMER
 40
0.0000000116
  9
$USRTIMER
 70
     1
  9
$ANGBASE
 50
0.0
  9
$ANGDIR
 70
     0
  9
$PDMODE
 70
     0
  9
$PDSIZE
 40
-1.0
  9
$PLINEWID
 40
0.0
  9
$SPLFRAME
 70
     0
  9
$SPLINETYPE
 70
     6
  9
$SPLINESEGS
 70
     8
  9
$HANDSEED
  5
2B4
  9
$SURFTAB1
 70
     6
  9
$SURFTAB2
 70
     6
  9
$SURFTYPE
 70
     6
  9
$SURFU
 70
     6
  9
$SURFV
 70
     6
  9
$UCSBASE
  2

  9
$UCSNAME
  2

  9
$UCSORG
 10
0.0
 20
0.0
 30
0.0
  9
$UCSXDIR
 10
1.0
 20
0.0
 30
0.0
  9
$UCSYDIR
 10
0.0
 20
1.0
 30
0.0
  9
$UCSORTHOREF
  2

  9
$UCSORTHOVIEW
 70
     0
  9
$UCSORGTOP
 10
0.0
 20
0.0
 30
0.0
  9
$UCSORGBOTTOM
 10
0.0
 20
0.0
 30
0.0
  9
$UCSORGLEFT
 10
0.0
 20
0.0
 30
0.0
  9
$UCSORGRIGHT
 10
0.0
 20
0.0
 30
0.0
  9
$UCSORGFRONT
 10
0.0
 20
0.0
 30
0.0
  9
$UCSORGBACK
 10
0.0
 20
0.0
 30
0.0
  9
$PUCSBASE
  2

  9
$PUCSNAME
  2

  9
$PUCSORG
 10
0.0
 20
0.0
 30
0.0
  9
$PUCSXDIR
 10
1.0
 20
0.0
 30
0.0
  9
$PUCSYDIR
 10
0.0
 20
1.0
 30
0.0
  9
$PUCSORTHOREF
  2

  9
$PUCSORTHOVIEW
 70
     0
  9
$PUCSORGTOP
 10
0.0
 20
0.0
 30
0.0
  9
$PUCSORGBOTTOM
 10
0.0
 20
0.0
 30
0.0
  9
$PUCSORGLEFT
 10
0.0
 20
0.0
 30
0.0
  9
$PUCSORGRIGHT
 10
0.0
 20
0.0
 30
0.0
  9
$PUCSORGFRONT
 10
0.0
 20
0.0
 30
0.0
  9
$PUCSORGBACK
 10
0.0
 20
0.0
 30
0.0
  9
$USERI1
 70
     0
  9
$USERI2
 70
     0
  9
$USERI3
 70
     0
  9
$USERI4
 70
     0
  9
$USERI5
 70
     0
  9
$USERR1
 40
0.0
  9
$USERR2
 40
0.0
  9
$USERR3
 40
0.0
  9
$USERR4
 40
0.0
  9
$USERR5
 40
0.0
  9
$WORLDVIEW
 70
     1
  9
$SHADEDGE
 70
     3
  9
$SHADEDIF
 70
    70
  9
$TILEMODE
 70
     1
  9
$MAXACTVP
 70
    64
  9
$PINSBASE
 10
0.0
 20
0.0
 30
0.0
  9
$PLIMCHECK
 70
     0
  9
$PEXTMIN
 10
1.0000000000E+20
 20
1.0000000000E+20
 30
1.0000000000E+20
  9
$PEXTMAX
 10
-1.0000000000E+20
 20
-1.0000000000E+20
 30
-1.0000000000E+20
  9
$PLIMMIN
 10
0.0
 20
0.0
  9
$PLIMMAX
 10
12.0
 20
9.0
  9
$UNITMODE
 70
     0
  9
$VISRETAIN
 70
     1
  9
$PLINEGEN
 70
     0
  9
$PSLTSCALE
 70
     1
  9
$TREEDEPTH
 70
  3020
  9
$CMLSTYLE
  2
Standard
  9
$CMLJUST
 70
     0
  9
$CMLSCALE
 40
1.0
  9
$PROXYGRAPHICS
 70
     1
  9
$MEASUREMENT
 70
     0
  9
$CELWEIGHT
370
    -1
  9
$ENDCAPS
280
     0
  9
$JOINSTYLE
280
     0
  9
$LWDISPLAY
290
     1
  9
$INSUNITS
 70
     1
  9
$HYPERLINKBASE
  1

  9
$STYLESHEET
  1

  9
$XEDIT
290
     1
  9
$CEPSNTYPE
380
     0
  9
$PSTYLEMODE
290
     1
  9
$FINGERPRINTGUID
  2
{af85bff9-cb3f-4009-9518-074f7ee3e7ce}
  9
$VERSIONGUID
  2
{FAEB1C32-E019-11D5-929B-00C0DF256EC4}
  9
$EXTNAMES
290
     1
  9
$PSVPSCALE
 40
0.0
  9
$OLESTARTUP
290
     0
  0
ENDSEC
  0
SECTION
  2
CLASSES
  0
CLASS
  1
ACDBDICTIONARYWDFLT
  2
AcDbDictionaryWithDefault
  3
ObjectDBX Classes
 90
        0
280
     0
281
     0
  0
CLASS
  1
VISUALSTYLE
  2
AcDbVisualStyle
  3
ObjectDBX Classes
 90
     4095
280
     0
281
     0
  0
CLASS
  1
MATERIAL
  2
AcDbMaterial
  3
ObjectDBX Classes
 90
     1153
280
     0
281
     0
  0
CLASS
  1
SCALE
  2
AcDbScale
  3
ObjectDBX Classes
 90
     1153
280
     0
281
     0
  0
CLASS
  1
TABLESTYLE
  2
AcDbTableStyle
  3
ObjectDBX Classes
 90
     4095
280
     0
281
     0
  0
CLASS
  1
MLEADERSTYLE
  2
AcDbMLeaderStyle
  3
ACDB_MLEADERSTYLE_CLASS
 90
     4095
280
     0
281
     0
  0
CLASS
  1
SUN
  2
AcDbSun
  3
SCENEOE
 90
     1153
280
     0
281
     0
  0
CLASS
  1
ACDBPLACEHOLDER
  2
AcDbPlaceHolder
  3
ObjectDBX Classes
 90
        0
280
     0
281
     0
  0
CLASS
  1
LAYOUT
  2
AcDbLayout
  3
ObjectDBX Classes
 90
        0
280
     0
281
     0
  0
ENDSEC
  0
SECTION
  2
TABLES
  0
TABLE
  2
VPORT
  5
8
330
0
100
AcDbSymbolTable
 70
     1
  0
VPORT
  5
29
330
8
100
AcDbSymbolTableRecord
100
AcDbViewportTableRecord
  2
*Active
 70
     0
 10
0.0
 20
0.0
 11
1.0
 21
1.0
 12
11.0
 22
8.5
 13
0.0
 23
0.0
 14
0.5
 24
0.5
 15
0.5
 25
0.5
 16
0.0
 26
0.0
 36
1.0
 17
0.0
 27
0.0
 37
0.0
 40
17.0
 41
1.2941176471
 42
50.0
 43
0.0
 44
0.0
 50
0.0
 51
0.0
 71
     0
 72
  2000
 73
     1
 74
     3
 75
     0
 76
     0
 77
     0
 78
     0
281
     0
 65
     1
110
0.0
120
0.0
130
0.0
111
1.0
121
0.0
131
0.0
112
0.0
122
1.0
132
0.0
 79
     0
146
0.0
  0
ENDTAB
  0
TABLE
  2
LTYPE
  5
5
330
0
100
AcDbSymbolTable
 70
     6
  0
LTYPE
  5
14
330
5
100
AcDbSymbolTableRecord
100
AcDbLinetypeTableRecord
  2
ByBlock
 70
     0
  3

 72
    65
 73
     0
 40
0.0
  0
LTYPE
  5
15
330
5
100
AcDbSymbolTableRecord
100
AcDbLinetypeTableRecord
  2
ByLayer
 70
     0
  3

 72
    65
 73
     0
 40
0.0
  0
LTYPE
  5
16
330
5
100
AcDbSymbolTableRecord
100
AcDbLinetypeTableRecord
  2
Continuous
 70
     0
  3
Solid line
 72
    65
 73
     0
 40
0.0
  0
LTYPE
  5
5E
330
5
100
AcDbSymbolTableRecord
100
AcDbLinetypeTableRecord
  2
HIDDEN
 70
     0
  3
Hidden __ __ __ __ __ __ __ __ __ __ __ __ __ __
 72
    65
 73
     2
 40
0.075
 49
0.05
 74
     0
 49
-0.025
 74
     0
  0
LTYPE
  5
5F
330
5
100
AcDbSymbolTableRecord
100
AcDbLinetypeTableRecord
  2
PHANTOM
 70
     0
  3
Phantom ______  __  __  ______  __  __  ______
 72
    65
 73
     6
 40
0.5
 49
0.25
 74
     0
 49
-0.05
 74
     0
 49
0.05
 74
     0
 49
-0.05
 74
     0
 49
0.05
 74
     0
 49
-0.05
 74
     0
  0
LTYPE
  5
60
330
5
100
AcDbSymbolTableRecord
100
AcDbLinetypeTableRecord
  2
CENTER
 70
     0
  3
Center ____ _ ____ _ ____ _ ____ _ ____ _ ____
 72
    65
 73
     4
 40
0.4
 49
0.25
 74
     0
 49
-0.05
 74
     0
 49
0.05
 74
     0
 49
-0.05
 74
     0
  0
LTYPE
  5
61
330
5
100
AcDbSymbolTableRecord
100
AcDbLinetypeTableRecord
  2
CENTERX2
 70
     0
  3
Center (2x) ________  __  ________  __  _____
 72
    65
 73
     4
 40
0.8
 49
0.5
 74
     0
 49
-0.1
 74
     0
 49
0.1
 74
     0
 49
-0.1
 74
     0
  0
LTYPE
  5
62
330
5
100
AcDbSymbolTableRecord
100
AcDbLinetypeTableRecord
  2
DOT2
 70
     0
  3
Dot (.5x) ........................................
 72
    65
 73
     2
 40
0.025
 49
0.0
 74
     0
 49
-0.025
 74
     0
  0
ENDTAB
  0
TABLE
  2
LAYER
  5
2
330
0
100
AcDbSymbolTable
 70
    12
  0
LAYER
  5
10
330
2
100
AcDbSymbolTableRecord
100
AcDbLayerTableRecord
  2
0
 70
     0
 62
     7
  6
Continuous
370
    -3
390
F
  0
LAYER
  5
63
330
2
100
AcDbSymbolTableRecord
100
AcDbLayerTableRecord
  2
SLD-0
 70
     0
 62
     7
  6
Continuous
370
    -3
390
F
  0
LAYER
  5
64
330
2
100
AcDbSymbolTableRecord
100
AcDbLayerTableRecord
  2
DIM
 70
     0
 62
     7
  6
Continuous
370
    -3
390
F
  0
LAYER
  5
65
330
2
100
AcDbSymbolTableRecord
100
AcDbLayerTableRecord
  2
CEN
 70
     0
 62
     1
  6
CENTER
370
    -3
390
F
  0
LAYER
  5
66
330
2
100
AcDbSymbolTableRecord
100
AcDbLayerTableRecord
  2
HAT
 70
     0
 62
     4
  6
Continuous
370
    -3
390
F
  0
LAYER
  5
67
330
2
100
AcDbSymbolTableRecord
100
AcDbLayerTableRecord
  2
OBJ
 70
     0
 62
     5
  6
Continuous
370
    -3
390
F
  0
LAYER
  5
68
330
2
100
AcDbSymbolTableRecord
100
AcDbLayerTableRecord
  2
SLD-DEFPOINTS
 70
     0
 62
     7
  6
Continuous
370
    -3
390
F
  0
LAYER
  5
69
330
2
100
AcDbSymbolTableRecord
100
AcDbLayerTableRecord
  2
HID
 70
     0
 62
     4
  6
HIDDEN
370
    -3
390
F
  0
LAYER
  5
6A
330
2
100
AcDbSymbolTableRecord
100
AcDbLayerTableRecord
  2
NOTE
 70
     0
 62
     7
  6
Continuous
370
    -3
390
F
  0
LAYER
  5
6B
330
2
100
AcDbSymbolTableRecord
100
AcDbLayerTableRecord
  2
VP
 70
     0
 62
    -5
  6
Continuous
290
     0
370
    -3
390
F
  0
LAYER
  5
6C
330
2
100
AcDbSymbolTableRecord
100
AcDbLayerTableRecord
  2
TITLE
 70
     0
 62
     7
  6
Continuous
370
    -3
390
F
  0
LAYER
  5
6D
330
2
100
AcDbSymbolTableRecord
100
AcDbLayerTableRecord
  2
THICK_TITLE
 70
     0
 62
     7
  6
Continuous
370
   100
390
F
  0
ENDTAB
  0
TABLE
  2
STYLE
  5
3
330
0
100
AcDbSymbolTable
 70
     2
  0
STYLE
  5
11
330
3
100
AcDbSymbolTableRecord
100
AcDbTextStyleTableRecord
  2
STANDARD
 70
     0
 40
0.0
 41
1.0
 50
0.0
 71
     0
 42
0.25
  3
Acumin Pro
  4

1001
ACAD
1000
ACUMIN PRO
1071
      256
  0
STYLE
  5
163
330
3
100
AcDbSymbolTableRecord
100
AcDbTextStyleTableRecord
  2
SLDTEXTSTYLE0
 70
     0
 40
0.0
 41
1.0
 50
0.0
 71
     0
 42
0.25
  3
Acumin Pro
  4

1001
ACAD
1000
Acumin Pro
1071
      256
  0
ENDTAB
  0
TABLE
  2
VIEW
  5
6
330
0
100
AcDbSymbolTable
 70
     0
  0
ENDTAB
  0
TABLE
  2
UCS
  5
7
330
0
100
AcDbSymbolTable
 70
     0
  0
ENDTAB
  0
TABLE
  2
APPID
  5
9
330
0
100
AcDbSymbolTable
 70
     1
  0
APPID
  5
12
330
9
100
AcDbSymbolTableRecord
100
AcDbRegAppTableRecord
  2
ACAD
 70
     0
  0
ENDTAB
  0
TABLE
  2
DIMSTYLE
  5
A
330
0
100
AcDbSymbolTable
 70
     5
100
AcDbDimStyleTable
  0
DIMSTYLE
105
27
330
A
100
AcDbSymbolTableRecord
100
AcDbDimStyleTableRecord
  2
Standard
 70
     0
178
     0
340
11
  0
DIMSTYLE
105
164
102
{ACAD_REACTORS
330
162
330
179
330
28F
102
}
330
A
100
AcDbSymbolTableRecord
100
AcDbDimStyleTableRecord
  2
SLDDIMSTYLE0
 70
     0
 41
0.26
 44
0.0
 45
0.000000001
 78
    12
 79
     3
140
0.25
147
0.0625
148
0.000000001
170
     1
171
     0
172
     1
173
     1
178
     0
271
     6
272
     0
274
     0
276
     2
277
     5
284
    12
289
     0
340
163
  0
DIMSTYLE
105
18F
102
{ACAD_REACTORS
330
18E
330
23D
330
258
330
276
102
}
330
A
100
AcDbSymbolTableRecord
100
AcDbDimStyleTableRecord
  2
SLDDIMSTYLE1
 70
     0
 41
0.26
 44
0.0
 45
0.000000001
 78
    12
 79
     3
140
0.25
147
0.0625
148
0.000000001
170
     1
171
     0
173
     1
178
     0
271
     6
272
     0
274
     0
276
     2
277
     5
284
    12
340
163
  0
DIMSTYLE
105
1A4
102
{ACAD_REACTORS
330
1A3
102
}
330
A
100
AcDbSymbolTableRecord
100
AcDbDimStyleTableRecord
  2
SLDDIMSTYLE2
 70
     0
 41
0.26
 44
0.0
 45
0.000000001
 78
    12
 79
     3
140
0.25
147
0.0625
148
0.000000001
170
     1
171
     0
173
     1
178
     0
271
     0
272
     0
274
     0
276
     2
277
     5
284
    12
340
163
  0
DIMSTYLE
105
2A3
102
{ACAD_REACTORS
330
2A2
102
}
330
A
100
AcDbSymbolTableRecord
100
AcDbDimStyleTableRecord
  2
SLDDIMSTYLE3
 70
     0
 41
0.26
 44
0.0
 45
0.000000001
 78
    12
 79
     3
140
0.25
141
0.0
147
0.0625
148
0.000000001
170
     1
171
     0
173
     1
178
     0
271
     0
272
     0
274
     0
276
     2
277
     5
284
    12
340
163
  0
ENDTAB
  0
TABLE
  2
BLOCK_RECORD
  5
1
330
0
100
AcDbSymbolTable
 70
    10
  0
BLOCK_RECORD
  5
1F
330
1
100
AcDbSymbolTableRecord
100
AcDbBlockTableRecord
  2
*Model_Space
340
22
  0
BLOCK_RECORD
  5
1B
330
1
100
AcDbSymbolTableRecord
100
AcDbBlockTableRecord
  2
*Paper_Space
340
1E
  0
BLOCK_RECORD
  5
23
330
1
100
AcDbSymbolTableRecord
100
AcDbBlockTableRecord
  2
*Paper_Space0
340
26
  0
BLOCK_RECORD
  5
165
330
1
100
AcDbSymbolTableRecord
100
AcDbBlockTableRecord
  2
_D
340
0
  0
BLOCK_RECORD
  5
17A
330
1
100
AcDbSymbolTableRecord
100
AcDbBlockTableRecord
  2
_D_1
340
0
  0
BLOCK_RECORD
  5
190
330
1
100
AcDbSymbolTableRecord
100
AcDbBlockTableRecord
  2
_D_2
340
0
  0
BLOCK_RECORD
  5
1A5
330
1
100
AcDbSymbolTableRecord
100
AcDbBlockTableRecord
  2
_D_3
340
0
  0
BLOCK_RECORD
  5
23E
330
1
100
AcDbSymbolTableRecord
100
AcDbBlockTableRecord
  2
_D_4
340
0
  0
BLOCK_RECORD
  5
259
330
1
100
AcDbSymbolTableRecord
100
AcDbBlockTableRecord
  2
_D_5
340
0
  0
BLOCK_RECORD
  5
277
330
1
100
AcDbSymbolTableRecord
100
AcDbBlockTableRecord
  2
_D_6
340
0
  0
BLOCK_RECORD
  5
290
330
1
100
AcDbSymbolTableRecord
100
AcDbBlockTableRecord
  2
_D_7
340
0
  0
BLOCK_RECORD
  5
2A4
330
1
100
AcDbSymbolTableRecord
100
AcDbBlockTableRecord
  2
_D_8
340
0
  0
ENDTAB
  0
ENDSEC
  0
SECTION
  2
BLOCKS
  0
BLOCK
  5
20
330
1F
100
AcDbEntity
  8
0
100
AcDbBlockBegin
  2
*Model_Space
 70
     0
 10
0.0
 20
0.0
 30
0.0
  3
*Model_Space
  1

  0
ENDBLK
  5
21
330
1F
100
AcDbEntity
  8
0
100
AcDbBlockEnd
  0
BLOCK
  5
1C
330
1B
100
AcDbEntity
 67
     1
  8
0
100
AcDbBlockBegin
  2
*Paper_Space
 70
     0
 10
0.0
 20
0.0
 30
0.0
  3
*Paper_Space
  1

  0
ENDBLK
  5
1D
330
1B
100
AcDbEntity
 67
     1
  8
0
100
AcDbBlockEnd
  0
BLOCK
  5
24
330
23
100
AcDbEntity
  8
0
100
AcDbBlockBegin
  2
*Paper_Space0
 70
     0
 10
0.0
 20
0.0
 30
0.0
  3
*Paper_Space0
  1

  0
ENDBLK
  5
25
330
23
100
AcDbEntity
  8
0
100
AcDbBlockEnd
  0
BLOCK
  5
166
330
165
100
AcDbEntity
  8
0
100
AcDbBlockBegin
  2
_D
 70
     0
 10
0.0
 20
0.0
 30
0.0
  3
_D
  1

  0
SOLID
  5
168
330
165
100
AcDbEntity
  8
SLD-0
100
AcDbTrace
 10
2.8358725348
 20
13.5886392262
 30
0.0
 11
2.7958725348
 21
13.3286392262
 31
0.0
 12
2.8758725348
 22
13.3286392262
 32
0.0
 13
2.8758725348
 23
13.3286392262
 33
0.0
  0
SOLID
  5
169
330
165
100
AcDbEntity
  8
SLD-0
100
AcDbTrace
 10
2.8358725348
 20
13.9636392262
 30
0.0
 11
2.8758725348
 21
14.2236392262
 31
0.0
 12
2.7958725348
 22
14.2236392262
 32
0.0
 13
2.7958725348
 23
14.2236392262
 33
0.0
  0
LINE
  5
16A
330
165
100
AcDbEntity
  8
SLD-0
100
AcDbLine
 10
1.1926788135
 20
15.3756935716
 30
0.0
 11
1.1067413163
 21
15.3756935716
 31
0.0
  0
LINE
  5
16B
330
165
100
AcDbEntity
  8
SLD-0
100
AcDbLine
 10
1.1067413163
 20
15.3756935716
 30
0.0
 11
1.1067413163
 21
14.9920130173
 31
0.0
  0
LINE
  5
16C
330
165
100
AcDbEntity
  8
SLD-0
100
AcDbLine
 10
1.1067413163
 20
14.9920130173
 30
0.0
 11
1.1926788135
 21
14.9920130173
 31
0.0
  0
LINE
  5
16D
330
165
100
AcDbEntity
  8
SLD-0
100
AcDbLine
 10
2.1468454843
 20
15.3756935716
 30
0.0
 11
2.2327829815
 21
15.3756935716
 31
0.0
  0
LINE
  5
16E
330
165
100
AcDbEntity
  8
SLD-0
100
AcDbLine
 10
2.2327829815
 20
15.3756935716
 30
0.0
 11
2.2327829815
 21
14.9920130173
 31
0.0
  0
LINE
  5
16F
330
165
100
AcDbEntity
  8
SLD-0
100
AcDbLine
 10
2.2327829815
 20
14.9920130173
 30
0.0
 11
2.1468454843
 21
14.9920130173
 31
0.0
  0
LINE
  5
170
330
165
100
AcDbEntity
  8
SLD-0
100
AcDbLine
 10
4.0028407501
 20
13.5886392262
 30
0.0
 11
2.6358725348
 21
13.5886392262
 31
0.0
  0
LINE
  5
171
330
165
100
AcDbEntity
  8
SLD-0
100
AcDbLine
 10
3.9528407501
 20
13.9636392262
 30
0.0
 11
2.6358725348
 21
13.9636392262
 31
0.0
  0
LINE
  5
172
330
165
100
AcDbEntity
  8
SLD-0
100
AcDbLine
 10
2.5858725348
 20
15.376040801
 30
0.0
 11
2.8358725348
 21
15.376040801
 31
0.0
  0
LINE
  5
173
330
165
100
AcDbEntity
  8
SLD-0
100
AcDbLine
 10
2.8358725348
 20
15.376040801
 30
0.0
 11
2.8358725348
 21
13.9636392262
 31
0.0
  0
LINE
  5
174
330
165
100
AcDbEntity
  8
SLD-0
100
AcDbLine
 10
2.8358725348
 20
13.5886392262
 30
0.0
 11
2.8358725348
 21
13.0886392262
 31
0.0
  0
MTEXT
  5
175
330
165
100
AcDbEntity
  8
SLD-0
100
AcDbMText
 10
0.9253177079
 20
15.7559466392
 30
0.0
 40
0.25
 41
0.0
 71
     1
 72
     1
  1
 
  7
SLDTEXTSTYLE0
 73
     1
 44
1.0
  0
MTEXT
  5
176
330
165
100
AcDbEntity
  8
SLD-0
100
AcDbMText
 10
1.3701093672
 20
15.755252176
 30
0.0
 40
0.25
 41
0.0
 71
     1
 72
     1
  1
3/8"
  7
SLDTEXTSTYLE0
 73
     1
 44
1.0
  0
MTEXT
  5
177
330
165
100
AcDbEntity
  8
SLD-0
100
AcDbMText
 10
1.1926788135
 20
15.3142799614
 30
0.0
 40
0.25
 41
0.0
 71
     1
 72
     1
  1
10mm
  7
SLDTEXTSTYLE0
 73
     1
 44
1.0
  0
MTEXT
  5
178
330
165
100
AcDbEntity
  8
SLD-0
100
AcDbMText
 10
2.3187204512
 20
15.7559466392
 30
0.0
 40
0.25
 41
0.0
 71
     1
 72
     1
  1
 
  7
SLDTEXTSTYLE0
 73
     1
 44
1.0
  0
ENDBLK
  5
167
330
165
100
AcDbEntity
  8
0
100
AcDbBlockEnd
  0
BLOCK
  5
17B
330
17A
100
AcDbEntity
  8
0
100
AcDbBlockBegin
  2
_D_1
 70
     0
 10
0.0
 20
0.0
 30
0.0
  3
_D_1
  1

  0
SOLID
  5
17D
330
17A
100
AcDbEntity
  8
SLD-0
100
AcDbTrace
 10
3.7094450107
 20
13.5886392262
 30
0.0
 11
3.7494450107
 21
13.8486392262
 31
0.0
 12
3.6694450107
 22
13.8486392262
 32
0.0
 13
3.6694450107
 23
13.8486392262
 33
0.0
  0
SOLID
  5
17E
330
17A
100
AcDbEntity
  8
SLD-0
100
AcDbTrace
 10
3.7094450107
 20
13.4636392262
 30
0.0
 11
3.6694450107
 21
13.2036392262
 31
0.0
 12
3.7494450107
 22
13.2036392262
 32
0.0
 13
3.7494450107
 23
13.2036392262
 33
0.0
  0
LINE
  5
17F
330
17A
100
AcDbEntity
  8
SLD-0
100
AcDbLine
 10
2.3853971103
 20
12.2998174533
 30
0.0
 11
2.299459613
 21
12.2998174533
 31
0.0
  0
LINE
  5
180
330
17A
100
AcDbEntity
  8
SLD-0
100
AcDbLine
 10
2.299459613
 20
12.2998174533
 30
0.0
 11
2.299459613
 21
11.9161368989
 31
0.0
  0
LINE
  5
181
330
17A
100
AcDbEntity
  8
SLD-0
100
AcDbLine
 10
2.299459613
 20
11.9161368989
 30
0.0
 11
2.3853971103
 21
11.9161368989
 31
0.0
  0
LINE
  5
182
330
17A
100
AcDbEntity
  8
SLD-0
100
AcDbLine
 10
3.1485915405
 20
12.2998174533
 30
0.0
 11
3.2345290377
 21
12.2998174533
 31
0.0
  0
LINE
  5
183
330
17A
100
AcDbEntity
  8
SLD-0
100
AcDbLine
 10
3.2345290377
 20
12.2998174533
 30
0.0
 11
3.2345290377
 21
11.9161368989
 31
0.0
  0
LINE
  5
184
330
17A
100
AcDbEntity
  8
SLD-0
100
AcDbLine
 10
3.2345290377
 20
11.9161368989
 30
0.0
 11
3.1485915405
 21
11.9161368989
 31
0.0
  0
LINE
  5
185
330
17A
100
AcDbEntity
  8
SLD-0
100
AcDbLine
 10
4.0028407501
 20
13.5886392262
 30
0.0
 11
3.5094450107
 21
13.5886392262
 31
0.0
  0
LINE
  5
186
330
17A
100
AcDbEntity
  8
SLD-0
100
AcDbLine
 10
5.2078407501
 20
13.4636392262
 30
0.0
 11
3.5094450107
 21
13.4636392262
 31
0.0
  0
LINE
  5
187
330
17A
100
AcDbEntity
  8
SLD-0
100
AcDbLine
 10
3.5876186644
 20
12.3001646826
 30
0.0
 11
3.7094450107
 21
12.3001646826
 31
0.0
  0
LINE
  5
188
330
17A
100
AcDbEntity
  8
SLD-0
100
AcDbLine
 10
3.7094450107
 20
12.3001646826
 30
0.0
 11
3.7094450107
 21
13.4636392262
 31
0.0
  0
LINE
  5
189
330
17A
100
AcDbEntity
  8
SLD-0
100
AcDbLine
 10
3.7094450107
 20
13.5886392262
 30
0.0
 11
3.7094450107
 21
14.0886392262
 31
0.0
  0
MTEXT
  5
18A
330
17A
100
AcDbEntity
  8
SLD-0
100
AcDbMText
 10
2.1180360047
 20
12.6800705209
 30
0.0
 40
0.25
 41
0.0
 71
     1
 72
     1
  1
 
  7
SLDTEXTSTYLE0
 73
     1
 44
1.0
  0
MTEXT
  5
18B
330
17A
100
AcDbEntity
  8
SLD-0
100
AcDbMText
 10
2.4673415436
 20
12.6793760576
 30
0.0
 40
0.25
 41
0.0
 71
     1
 72
     1
  1
1/8"
  7
SLDTEXTSTYLE0
 73
     1
 44
1.0
  0
MTEXT
  5
18C
330
17A
100
AcDbEntity
  8
SLD-0
100
AcDbMText
 10
2.3853971103
 20
12.238403843
 30
0.0
 40
0.25
 41
0.0
 71
     1
 72
     1
  1
3mm
  7
SLDTEXTSTYLE0
 73
     1
 44
1.0
  0
MTEXT
  5
18D
330
17A
100
AcDbEntity
  8
SLD-0
100
AcDbMText
 10
3.3204665074
 20
12.6800705209
 30
0.0
 40
0.25
 41
0.0
 71
     1
 72
     1
  1
 
  7
SLDTEXTSTYLE0
 73
     1
 44
1.0
  0
ENDBLK
  5
17C
330
17A
100
AcDbEntity
  8
0
100
AcDbBlockEnd
  0
BLOCK
  5
191
330
190
100
AcDbEntity
  8
0
100
AcDbBlockBegin
  2
_D_2
 70
     0
 10
0.0
 20
0.0
 30
0.0
  3
_D_2
  1

  0
SOLID
  5
193
330
190
100
AcDbEntity
  8
SLD-0
100
AcDbTrace
 10
8.2571272727
 20
13.5886392262
 30
0.0
 11
8.2171272727
 21
13.3286392262
 31
0.0
 12
8.2971272727
 22
13.3286392262
 32
0.0
 13
8.2971272727
 23
13.3286392262
 33
0.0
  0
SOLID
  5
194
330
190
100
AcDbEntity
  8
SLD-0
100
AcDbTrace
 10
8.2571272727
 20
9.4066392262
 30
0.0
 11
8.2971272727
 21
9.6666392262
 31
0.0
 12
8.2171272727
 22
9.6666392262
 32
0.0
 13
8.2171272727
 23
9.6666392262
 33
0.0
  0
LINE
  5
195
330
190
100
AcDbEntity
  8
SLD-0
100
AcDbLine
 10
7.6845578813
 20
11.4972919968
 30
0.0
 11
7.598620384
 21
11.4972919968
 31
0.0
  0
LINE
  5
196
330
190
100
AcDbEntity
  8
SLD-0
100
AcDbLine
 10
7.598620384
 20
11.4972919968
 30
0.0
 11
7.598620384
 21
11.1136114425
 31
0.0
  0
LINE
  5
197
330
190
100
AcDbEntity
  8
SLD-0
100
AcDbLine
 10
7.598620384
 20
11.1136114425
 30
0.0
 11
7.6845578813
 21
11.1136114425
 31
0.0
  0
LINE
  5
198
330
190
100
AcDbEntity
  8
SLD-0
100
AcDbLine
 10
8.8296967192
 20
11.4972919968
 30
0.0
 11
8.9156342164
 21
11.4972919968
 31
0.0
  0
LINE
  5
199
330
190
100
AcDbEntity
  8
SLD-0
100
AcDbLine
 10
8.9156342164
 20
11.4972919968
 30
0.0
 11
8.9156342164
 21
11.1136114425
 31
0.0
  0
LINE
  5
19A
330
190
100
AcDbEntity
  8
SLD-0
100
AcDbLine
 10
8.9156342164
 20
11.1136114425
 30
0.0
 11
8.8296967192
 21
11.1136114425
 31
0.0
  0
LINE
  5
19B
330
190
100
AcDbEntity
  8
SLD-0
100
AcDbLine
 10
8.0028407501
 20
13.5886392262
 30
0.0
 11
8.4571272727
 21
13.5886392262
 31
0.0
  0
LINE
  5
19C
330
190
100
AcDbEntity
  8
SLD-0
100
AcDbLine
 10
6.7978407501
 20
9.4066392262
 30
0.0
 11
8.4571272727
 21
9.4066392262
 31
0.0
  0
LINE
  5
19D
330
190
100
AcDbEntity
  8
SLD-0
100
AcDbLine
 10
8.2571272727
 20
13.5886392262
 30
0.0
 11
8.2571272727
 21
11.9389586747
 31
0.0
  0
LINE
  5
19E
330
190
100
AcDbEntity
  8
SLD-0
100
AcDbLine
 10
8.2571272727
 20
9.4066392262
 30
0.0
 11
8.2571272727
 21
11.0563197776
 31
0.0
  0
MTEXT
  5
19F
330
190
100
AcDbEntity
  8
SLD-0
100
AcDbMText
 10
7.4171967757
 20
11.8775450644
 30
0.0
 40
0.25
 41
0.0
 71
     1
 72
     1
  1
 
  7
SLDTEXTSTYLE0
 73
     1
 44
1.0
  0
MTEXT
  5
1A0
330
190
100
AcDbEntity
  8
SLD-0
100
AcDbMText
 10
7.7187592362
 20
11.8768506012
 30
0.0
 40
0.25
 41
0.0
 71
     1
 72
     1
  1
4 3/16"
  7
SLDTEXTSTYLE0
 73
     1
 44
1.0
  0
MTEXT
  5
1A1
330
190
100
AcDbEntity
  8
SLD-0
100
AcDbMText
 10
7.6845578813
 20
11.4358783866
 30
0.0
 40
0.25
 41
0.0
 71
     1
 72
     1
  1
106mm
  7
SLDTEXTSTYLE0
 73
     1
 44
1.0
  0
MTEXT
  5
1A2
330
190
100
AcDbEntity
  8
SLD-0
100
AcDbMText
 10
9.0015716862
 20
11.8775450644
 30
0.0
 40
0.25
 41
0.0
 71
     1
 72
     1
  1
 
  7
SLDTEXTSTYLE0
 73
     1
 44
1.0
  0
ENDBLK
  5
192
330
190
100
AcDbEntity
  8
0
100
AcDbBlockEnd
  0
BLOCK
  5
1A6
330
1A5
100
AcDbEntity
  8
0
100
AcDbBlockBegin
  2
_D_3
 70
     0
 10
0.0
 20
0.0
 30
0.0
  3
_D_3
  1

  0
SOLID
  5
1A8
330
1A5
100
AcDbEntity
  8
SLD-0
100
AcDbTrace
 10
5.5078407501
 20
8.7455036324
 30
0.0
 11
5.7678407501
 21
8.7055036324
 31
0.0
 12
5.7678407501
 22
8.7855036324
 32
0.0
 13
5.7678407501
 23
8.7855036324
 33
0.0
  0
SOLID
  5
1A9
330
1A5
100
AcDbEntity
  8
SLD-0
100
AcDbTrace
 10
6.4978407501
 20
8.7455036324
 30
0.0
 11
6.2378407501
 21
8.7855036324
 31
0.0
 12
6.2378407501
 22
8.7055036324
 32
0.0
 13
6.2378407501
 23
8.7055036324
 33
0.0
  0
LINE
  5
1AA
330
1A5
100
AcDbEntity
  8
SLD-0
100
AcDbLine
 10
7.6303493649
 20
8.7455036324
 30
0.0
 11
7.5444118677
 21
8.7455036324
 31
0.0
  0
LINE
  5
1AB
330
1A5
100
AcDbEntity
  8
SLD-0
100
AcDbLine
 10
7.5444118677
 20
8.7455036324
 30
0.0
 11
7.5444118677
 21
8.361823078
 31
0.0
  0
LINE
  5
1AC
330
1A5
100
AcDbEntity
  8
SLD-0
100
AcDbLine
 10
7.5444118677
 20
8.361823078
 30
0.0
 11
7.6303493649
 21
8.361823078
 31
0.0
  0
LINE
  5
1AD
330
1A5
100
AcDbEntity
  8
SLD-0
100
AcDbLine
 10
8.5845160357
 20
8.7455036324
 30
0.0
 11
8.6704535329
 21
8.7455036324
 31
0.0
  0
LINE
  5
1AE
330
1A5
100
AcDbEntity
  8
SLD-0
100
AcDbLine
 10
8.6704535329
 20
8.7455036324
 30
0.0
 11
8.6704535329
 21
8.361823078
 31
0.0
  0
LINE
  5
1AF
330
1A5
100
AcDbEntity
  8
SLD-0
100
AcDbLine
 10
8.6704535329
 20
8.361823078
 30
0.0
 11
8.5845160357
 21
8.361823078
 31
0.0
  0
LINE
  5
1B0
330
1A5
100
AcDbEntity
  8
SLD-0
100
AcDbLine
 10
5.5078407501
 20
10.0966392262
 30
0.0
 11
5.5078407501
 21
8.5455036324
 31
0.0
  0
LINE
  5
1B1
330
1A5
100
AcDbEntity
  8
SLD-0
100
AcDbLine
 10
6.4978407501
 20
9.1066392262
 30
0.0
 11
6.4978407501
 21
8.5455036324
 31
0.0
  0
LINE
  5
1B2
330
1A5
100
AcDbEntity
  8
SLD-0
100
AcDbLine
 10
5.5078407501
 20
8.7455036324
 30
0.0
 11
6.4978407501
 21
8.7455036324
 31
0.0
  0
LINE
  5
1B3
330
1A5
100
AcDbEntity
  8
SLD-0
100
AcDbLine
 10
6.4978407501
 20
8.7455036324
 30
0.0
 11
7.4012523704
 21
8.7455036324
 31
0.0
  0
MTEXT
  5
1B4
330
1A5
100
AcDbEntity
  8
SLD-0
100
AcDbMText
 10
7.7687608393
 20
9.1250622184
 30
0.0
 40
0.25
 41
0.0
 71
     1
 72
     1
  1
%%c
  7
SLDTEXTSTYLE0
 73
     1
 44
1.0
  0
MTEXT
  5
1B5
330
1A5
100
AcDbEntity
  8
SLD-0
100
AcDbMText
 10
8.1332573586
 20
9.1250622184
 30
0.0
 40
0.25
 41
0.0
 71
     1
 72
     1
  1
1"
  7
SLDTEXTSTYLE0
 73
     1
 44
1.0
  0
MTEXT
  5
1B6
330
1A5
100
AcDbEntity
  8
SLD-0
100
AcDbMText
 10
7.6303493649
 20
8.6840900221
 30
0.0
 40
0.25
 41
0.0
 71
     1
 72
     1
  1
25mm
  7
SLDTEXTSTYLE0
 73
     1
 44
1.0
  0
ENDBLK
  5
1A7
330
1A5
100
AcDbEntity
  8
0
100
AcDbBlockEnd
  0
BLOCK
  5
23F
330
23E
100
AcDbEntity
  8
0
100
AcDbBlockBegin
  2
_D_4
 70
     0
 10
0.0
 20
0.0
 30
0.0
  3
_D_4
  1

  0
SOLID
  5
241
330
23E
100
AcDbEntity
  8
SLD-0
100
AcDbTrace
 10
6.7340460314
 20
4.6259462496
 30
0.0
 11
6.6940460314
 21
4.3659462496
 31
0.0
 12
6.7740460314
 22
4.3659462496
 32
0.0
 13
6.7740460314
 23
4.3659462496
 33
0.0
  0
SOLID
  5
242
330
23E
100
AcDbEntity
  8
SLD-0
100
AcDbTrace
 10
6.7340460314
 20
1.4479462496
 30
0.0
 11
6.7740460314
 21
1.7079462496
 31
0.0
 12
6.6940460314
 22
1.7079462496
 32
0.0
 13
6.6940460314
 23
1.7079462496
 33
0.0
  0
LINE
  5
243
330
23E
100
AcDbEntity
  8
SLD-0
100
AcDbLine
 10
6.2569627235
 20
3.0365990203
 30
0.0
 11
6.1710252263
 21
3.0365990203
 31
0.0
  0
LINE
  5
244
330
23E
100
AcDbEntity
  8
SLD-0
100
AcDbLine
 10
6.1710252263
 20
3.0365990203
 30
0.0
 11
6.1710252263
 21
2.6529184659
 31
0.0
  0
LINE
  5
245
330
23E
100
AcDbEntity
  8
SLD-0
100
AcDbLine
 10
6.1710252263
 20
2.6529184659
 30
0.0
 11
6.2569627235
 21
2.6529184659
 31
0.0
  0
LINE
  5
246
330
23E
100
AcDbEntity
  8
SLD-0
100
AcDbLine
 10
7.2111293943
 20
3.0365990203
 30
0.0
 11
7.2970668915
 21
3.0365990203
 31
0.0
  0
LINE
  5
247
330
23E
100
AcDbEntity
  8
SLD-0
100
AcDbLine
 10
7.2970668915
 20
3.0365990203
 30
0.0
 11
7.2970668915
 21
2.6529184659
 31
0.0
  0
LINE
  5
248
330
23E
100
AcDbEntity
  8
SLD-0
100
AcDbLine
 10
7.2970668915
 20
2.6529184659
 30
0.0
 11
7.2111293943
 21
2.6529184659
 31
0.0
  0
LINE
  5
249
330
23E
100
AcDbEntity
  8
SLD-0
100
AcDbLine
 10
7.8747432991
 20
4.6259462496
 30
0.0
 11
6.5340460314
 21
4.6259462496
 31
0.0
  0
LINE
  5
24A
330
23E
100
AcDbEntity
  8
SLD-0
100
AcDbLine
 10
7.8172432991
 20
1.4479462496
 30
0.0
 11
6.5340460314
 21
1.4479462496
 31
0.0
  0
LINE
  5
24B
330
23E
100
AcDbEntity
  8
SLD-0
100
AcDbLine
 10
6.7340460314
 20
4.6259462496
 30
0.0
 11
6.7340460314
 21
3.4782656981
 31
0.0
  0
LINE
  5
24C
330
23E
100
AcDbEntity
  8
SLD-0
100
AcDbLine
 10
6.7340460314
 20
1.4479462496
 30
0.0
 11
6.7340460314
 21
2.5956268011
 31
0.0
  0
MTEXT
  5
24D
330
23E
100
AcDbEntity
  8
SLD-0
100
AcDbMText
 10
5.9896016179
 20
3.4168520879
 30
0.0
 40
0.25
 41
0.0
 71
     1
 72
     1
  1
 
  7
SLDTEXTSTYLE0
 73
     1
 44
1.0
  0
MTEXT
  5
24E
330
23E
100
AcDbEntity
  8
SLD-0
100
AcDbMText
 10
6.1956779948
 20
3.4161576246
 30
0.0
 40
0.25
 41
0.0
 71
     1
 72
     1
  1
3 3/16"
  7
SLDTEXTSTYLE0
 73
     1
 44
1.0
  0
MTEXT
  5
24F
330
23E
100
AcDbEntity
  8
SLD-0
100
AcDbMText
 10
6.2569627235
 20
2.97518541
 30
0.0
 40
0.25
 41
0.0
 71
     1
 72
     1
  1
81mm
  7
SLDTEXTSTYLE0
 73
     1
 44
1.0
  0
MTEXT
  5
250
330
23E
100
AcDbEntity
  8
SLD-0
100
AcDbMText
 10
7.3830043612
 20
3.4168520879
 30
0.0
 40
0.25
 41
0.0
 71
     1
 72
     1
  1
 
  7
SLDTEXTSTYLE0
 73
     1
 44
1.0
  0
ENDBLK
  5
240
330
23E
100
AcDbEntity
  8
0
100
AcDbBlockEnd
  0
BLOCK
  5
25A
330
259
100
AcDbEntity
  8
0
100
AcDbBlockBegin
  2
_D_5
 70
     0
 10
0.0
 20
0.0
 30
0.0
  3
_D_5
  1

  0
SOLID
  5
25C
330
259
100
AcDbEntity
  8
SLD-0
100
AcDbTrace
 10
2.16526271
 20
5.5074718923
 30
0.0
 11
2.12526271
 21
5.2474718923
 31
0.0
 12
2.20526271
 22
5.2474718923
 32
0.0
 13
2.20526271
 23
5.2474718923
 33
0.0
  0
SOLID
  5
25D
330
259
100
AcDbEntity
  8
SLD-0
100
AcDbTrace
 10
2.16526271
 20
1.4504718923
 30
0.0
 11
2.20526271
 21
1.7104718923
 31
0.0
 12
2.12526271
 22
1.7104718923
 32
0.0
 13
2.12526271
 23
1.7104718923
 33
0.0
  0
LINE
  5
25E
330
259
100
AcDbEntity
  8
SLD-0
100
AcDbLine
 10
1.5926933185
 20
3.478624663
 30
0.0
 11
1.5067558213
 21
3.478624663
 31
0.0
  0
LINE
  5
25F
330
259
100
AcDbEntity
  8
SLD-0
100
AcDbLine
 10
1.5067558213
 20
3.478624663
 30
0.0
 11
1.5067558213
 21
3.0949441086
 31
0.0
  0
LINE
  5
260
330
259
100
AcDbEntity
  8
SLD-0
100
AcDbLine
 10
1.5067558213
 20
3.0949441086
 30
0.0
 11
1.5926933185
 21
3.0949441086
 31
0.0
  0
LINE
  5
261
330
259
100
AcDbEntity
  8
SLD-0
100
AcDbLine
 10
2.7378321565
 20
3.478624663
 30
0.0
 11
2.8237696537
 21
3.478624663
 31
0.0
  0
LINE
  5
262
330
259
100
AcDbEntity
  8
SLD-0
100
AcDbLine
 10
2.8237696537
 20
3.478624663
 30
0.0
 11
2.8237696537
 21
3.0949441086
 31
0.0
  0
LINE
  5
263
330
259
100
AcDbEntity
  8
SLD-0
100
AcDbLine
 10
2.8237696537
 20
3.0949441086
 30
0.0
 11
2.7378321565
 21
3.0949441086
 31
0.0
  0
LINE
  5
264
330
259
100
AcDbEntity
  8
SLD-0
100
AcDbLine
 10
3.5975461746
 20
5.5074718923
 30
0.0
 11
1.96526271
 21
5.5074718923
 31
0.0
  0
LINE
  5
265
330
259
100
AcDbEntity
  8
SLD-0
100
AcDbLine
 10
3.5975461746
 20
1.4504718923
 30
0.0
 11
1.96526271
 21
1.4504718923
 31
0.0
  0
LINE
  5
266
330
259
100
AcDbEntity
  8
SLD-0
100
AcDbLine
 10
2.16526271
 20
5.5074718923
 30
0.0
 11
2.16526271
 21
3.9202913408
 31
0.0
  0
LINE
  5
267
330
259
100
AcDbEntity
  8
SLD-0
100
AcDbLine
 10
2.16526271
 20
1.4504718923
 30
0.0
 11
2.16526271
 21
3.0376524438
 31
0.0
  0
MTEXT
  5
268
330
259
100
AcDbEntity
  8
SLD-0
100
AcDbMText
 10
1.3253322129
 20
3.8588777306
 30
0.0
 40
0.25
 41
0.0
 71
     1
 72
     1
  1
 
  7
SLDTEXTSTYLE0
 73
     1
 44
1.0
  0
MTEXT
  5
269
330
259
100
AcDbEntity
  8
SLD-0
100
AcDbMText
 10
1.6268946734
 20
3.8581832673
 30
0.0
 40
0.25
 41
0.0
 71
     1
 72
     1
  1
4 1/16"
  7
SLDTEXTSTYLE0
 73
     1
 44
1.0
  0
MTEXT
  5
26A
330
259
100
AcDbEntity
  8
SLD-0
100
AcDbMText
 10
1.5926933185
 20
3.4172110527
 30
0.0
 40
0.25
 41
0.0
 71
     1
 72
     1
  1
103mm
  7
SLDTEXTSTYLE0
 73
     1
 44
1.0
  0
MTEXT
  5
26B
330
259
100
AcDbEntity
  8
SLD-0
100
AcDbMText
 10
2.9097071234
 20
3.8588777306
 30
0.0
 40
0.25
 41
0.0
 71
     1
 72
     1
  1
 
  7
SLDTEXTSTYLE0
 73
     1
 44
1.0
  0
ENDBLK
  5
25B
330
259
100
AcDbEntity
  8
0
100
AcDbBlockEnd
  0
BLOCK
  5
278
330
277
100
AcDbEntity
  8
0
100
AcDbBlockBegin
  2
_D_6
 70
     0
 10
0.0
 20
0.0
 30
0.0
  3
_D_6
  1

  0
SOLID
  5
27A
330
277
100
AcDbEntity
  8
SLD-0
100
AcDbTrace
 10
10.9068998743
 20
4.3174139402
 30
0.0
 11
10.8668998743
 21
4.0574139402
 31
0.0
 12
10.9468998743
 22
4.0574139402
 32
0.0
 13
10.9468998743
 23
4.0574139402
 33
0.0
  0
SOLID
  5
27B
330
277
100
AcDbEntity
  8
SLD-0
100
AcDbTrace
 10
10.9068998743
 20
1.4639139402
 30
0.0
 11
10.9468998743
 21
1.7239139402
 31
0.0
 12
10.8668998743
 22
1.7239139402
 32
0.0
 13
10.8668998743
 23
1.7239139402
 33
0.0
  0
LINE
  5
27C
330
277
100
AcDbEntity
  8
SLD-0
100
AcDbLine
 10
10.4298165664
 20
2.8903167109
 30
0.0
 11
10.3438790692
 21
2.8903167109
 31
0.0
  0
LINE
  5
27D
330
277
100
AcDbEntity
  8
SLD-0
100
AcDbLine
 10
10.3438790692
 20
2.8903167109
 30
0.0
 11
10.3438790692
 21
2.5066361565
 31
0.0
  0
LINE
  5
27E
330
277
100
AcDbEntity
  8
SLD-0
100
AcDbLine
 10
10.3438790692
 20
2.5066361565
 30
0.0
 11
10.4298165664
 21
2.5066361565
 31
0.0
  0
LINE
  5
27F
330
277
100
AcDbEntity
  8
SLD-0
100
AcDbLine
 10
11.3839832371
 20
2.8903167109
 30
0.0
 11
11.4699207344
 21
2.8903167109
 31
0.0
  0
LINE
  5
280
330
277
100
AcDbEntity
  8
SLD-0
100
AcDbLine
 10
11.4699207344
 20
2.8903167109
 30
0.0
 11
11.4699207344
 21
2.5066361565
 31
0.0
  0
LINE
  5
281
330
277
100
AcDbEntity
  8
SLD-0
100
AcDbLine
 10
11.4699207344
 20
2.5066361565
 30
0.0
 11
11.3839832371
 21
2.5066361565
 31
0.0
  0
LINE
  5
282
330
277
100
AcDbEntity
  8
SLD-0
100
AcDbLine
 10
11.924242394
 20
4.3174139402
 30
0.0
 11
10.7068998743
 21
4.3174139402
 31
0.0
  0
LINE
  5
283
330
277
100
AcDbEntity
  8
SLD-0
100
AcDbLine
 10
11.866742394
 20
1.4639139402
 30
0.0
 11
10.7068998743
 21
1.4639139402
 31
0.0
  0
LINE
  5
284
330
277
100
AcDbEntity
  8
SLD-0
100
AcDbLine
 10
10.9068998743
 20
4.3174139402
 30
0.0
 11
10.9068998743
 21
3.3319833887
 31
0.0
  0
LINE
  5
285
330
277
100
AcDbEntity
  8
SLD-0
100
AcDbLine
 10
10.9068998743
 20
1.4639139402
 30
0.0
 11
10.9068998743
 21
2.4493444917
 31
0.0
  0
MTEXT
  5
286
330
277
100
AcDbEntity
  8
SLD-0
100
AcDbMText
 10
10.1624554608
 20
3.2705697785
 30
0.0
 40
0.25
 41
0.0
 71
     1
 72
     1
  1
 
  7
SLDTEXTSTYLE0
 73
     1
 44
1.0
  0
MTEXT
  5
287
330
277
100
AcDbEntity
  8
SLD-0
100
AcDbMText
 10
10.464017958
 20
3.2698753153
 30
0.0
 40
0.25
 41
0.0
 71
     1
 72
     1
  1
2 7/8"
  7
SLDTEXTSTYLE0
 73
     1
 44
1.0
  0
MTEXT
  5
288
330
277
100
AcDbEntity
  8
SLD-0
100
AcDbMText
 10
10.4298165664
 20
2.8289031007
 30
0.0
 40
0.25
 41
0.0
 71
     1
 72
     1
  1
72mm
  7
SLDTEXTSTYLE0
 73
     1
 44
1.0
  0
MTEXT
  5
289
330
277
100
AcDbEntity
  8
SLD-0
100
AcDbMText
 10
11.5558582041
 20
3.2705697785
 30
0.0
 40
0.25
 41
0.0
 71
     1
 72
     1
  1
 
  7
SLDTEXTSTYLE0
 73
     1
 44
1.0
  0
ENDBLK
  5
279
330
277
100
AcDbEntity
  8
0
100
AcDbBlockEnd
  0
BLOCK
  5
291
330
290
100
AcDbEntity
  8
0
100
AcDbBlockBegin
  2
_D_7
 70
     0
 10
0.0
 20
0.0
 30
0.0
  3
_D_7
  1

  0
SOLID
  5
293
330
290
100
AcDbEntity
  8
SLD-0
100
AcDbTrace
 10
16.3263717886
 20
5.7574261214
 30
0.0
 11
16.0663717886
 21
5.7974261214
 31
0.0
 12
16.0663717886
 22
5.7174261214
 32
0.0
 13
16.0663717886
 23
5.7174261214
 33
0.0
  0
SOLID
  5
294
330
290
100
AcDbEntity
  8
SLD-0
100
AcDbTrace
 10
19.0763717886
 20
5.7574261214
 30
0.0
 11
19.3363717886
 21
5.7174261214
 31
0.0
 12
19.3363717886
 22
5.7974261214
 32
0.0
 13
19.3363717886
 23
5.7974261214
 33
0.0
  0
LINE
  5
295
330
290
100
AcDbEntity
  8
SLD-0
100
AcDbLine
 10
17.2242884533
 20
5.5959677682
 30
0.0
 11
17.138350956
 21
5.5959677682
 31
0.0
  0
LINE
  5
296
330
290
100
AcDbEntity
  8
SLD-0
100
AcDbLine
 10
17.138350956
 20
5.5959677682
 30
0.0
 11
17.138350956
 21
5.2122872139
 31
0.0
  0
LINE
  5
297
330
290
100
AcDbEntity
  8
SLD-0
100
AcDbLine
 10
17.138350956
 20
5.2122872139
 30
0.0
 11
17.2242884533
 21
5.2122872139
 31
0.0
  0
LINE
  5
298
330
290
100
AcDbEntity
  8
SLD-0
100
AcDbLine
 10
18.178455124
 20
5.5959677682
 30
0.0
 11
18.2643926212
 21
5.5959677682
 31
0.0
  0
LINE
  5
299
330
290
100
AcDbEntity
  8
SLD-0
100
AcDbLine
 10
18.2643926212
 20
5.5959677682
 30
0.0
 11
18.2643926212
 21
5.2122872139
 31
0.0
  0
LINE
  5
29A
330
290
100
AcDbEntity
  8
SLD-0
100
AcDbLine
 10
18.2643926212
 20
5.2122872139
 30
0.0
 11
18.178455124
 21
5.2122872139
 31
0.0
  0
LINE
  5
29B
330
290
100
AcDbEntity
  8
SLD-0
100
AcDbLine
 10
16.3263717886
 20
3.5200245466
 30
0.0
 11
16.3263717886
 21
5.9574261214
 31
0.0
  0
LINE
  5
29C
330
290
100
AcDbEntity
  8
SLD-0
100
AcDbLine
 10
19.0763717886
 20
3.5200245466
 30
0.0
 11
19.0763717886
 21
5.9574261214
 31
0.0
  0
LINE
  5
29D
330
290
100
AcDbEntity
  8
SLD-0
100
AcDbLine
 10
16.3263717886
 20
5.7574261214
 30
0.0
 11
15.8263717886
 21
5.7574261214
 31
0.0
  0
LINE
  5
29E
330
290
100
AcDbEntity
  8
SLD-0
100
AcDbLine
 10
19.0763717886
 20
5.7574261214
 30
0.0
 11
19.5763717886
 21
5.7574261214
 31
0.0
  0
MTEXT
  5
29F
330
290
100
AcDbEntity
  8
SLD-0
100
AcDbMText
 10
16.6902607557
 20
6.2984430651
 30
0.0
 40
0.25
 41
0.0
 71
     1
 72
     1
  1
ON CENTER
  7
SLDTEXTSTYLE0
 73
     1
 44
1.0
  0
MTEXT
  5
2A0
330
290
100
AcDbEntity
  8
SLD-0
100
AcDbMText
 10
17.2584898448
 20
5.9755263726
 30
0.0
 40
0.25
 41
0.0
 71
     1
 72
     1
  1
2 3/4"
  7
SLDTEXTSTYLE0
 73
     1
 44
1.0
  0
MTEXT
  5
2A1
330
290
100
AcDbEntity
  8
SLD-0
100
AcDbMText
 10
17.2242884533
 20
5.534554158
 30
0.0
 40
0.25
 41
0.0
 71
     1
 72
     1
  1
70mm
  7
SLDTEXTSTYLE0
 73
     1
 44
1.0
  0
ENDBLK
  5
292
330
290
100
AcDbEntity
  8
0
100
AcDbBlockEnd
  0
BLOCK
  5
2A5
330
2A4
100
AcDbEntity
  8
0
100
AcDbBlockBegin
  2
_D_8
 70
     0
 10
0.0
 20
0.0
 30
0.0
  3
_D_8
  1

  0
SOLID
  5
2A7
330
2A4
100
AcDbEntity
  8
SLD-0
100
AcDbTrace
 10
19.2169162453
 20
4.0950245466
 30
0.0
 11
19.4620828502
 21
4.1903835304
 31
0.0
 12
19.4220828502
 22
4.2596655627
 32
0.0
 13
19.4220828502
 23
4.2596655627
 33
0.0
  0
LINE
  5
2A8
330
2A4
100
AcDbEntity
  8
SLD-0
100
AcDbLine
 10
20.3517008814
 20
4.5370050441
 30
0.0
 11
20.2657633841
 21
4.5370050441
 31
0.0
  0
LINE
  5
2A9
330
2A4
100
AcDbEntity
  8
SLD-0
100
AcDbLine
 10
20.2657633841
 20
4.5370050441
 30
0.0
 11
20.2657633841
 21
4.1533244897
 31
0.0
  0
LINE
  5
2AA
330
2A4
100
AcDbEntity
  8
SLD-0
100
AcDbLine
 10
20.2657633841
 20
4.1533244897
 30
0.0
 11
20.3517008814
 21
4.1533244897
 31
0.0
  0
LINE
  5
2AB
330
2A4
100
AcDbEntity
  8
SLD-0
100
AcDbLine
 10
21.3058675521
 20
4.5370050441
 30
0.0
 11
21.3918050493
 21
4.5370050441
 31
0.0
  0
LINE
  5
2AC
330
2A4
100
AcDbEntity
  8
SLD-0
100
AcDbLine
 10
21.3918050493
 20
4.5370050441
 30
0.0
 11
21.3918050493
 21
4.1533244897
 31
0.0
  0
LINE
  5
2AD
330
2A4
100
AcDbEntity
  8
SLD-0
100
AcDbLine
 10
21.3918050493
 20
4.1533244897
 30
0.0
 11
21.3058675521
 21
4.1533244897
 31
0.0
  0
LINE
  5
2AE
330
2A4
100
AcDbEntity
  8
SLD-0
100
AcDbLine
 10
19.2169162453
 20
4.0950245466
 30
0.0
 11
19.9298258869
 21
4.5066231201
 31
0.0
  0
LINE
  5
2AF
330
2A4
100
AcDbEntity
  8
SLD-0
100
AcDbLine
 10
19.9298258869
 20
4.5066231201
 30
0.0
 11
20.1798258869
 21
4.5066231201
 31
0.0
  0
MTEXT
  5
2B0
330
2A4
100
AcDbEntity
  8
SLD-0
100
AcDbMText
 10
20.2036540316
 20
4.9165636484
 30
0.0
 40
0.25
 41
0.0
 71
     1
 72
     1
  1
%%c
  7
SLDTEXTSTYLE0
 73
     1
 44
1.0
  0
MTEXT
  5
2B1
330
2A4
100
AcDbEntity
  8
SLD-0
100
AcDbMText
 10
20.5681505509
 20
4.9165636484
 30
0.0
 40
0.25
 41
0.0
 71
     1
 72
     1
  1
3 1/2"
  7
SLDTEXTSTYLE0
 73
     1
 44
1.0
  0
MTEXT
  5
2B2
330
2A4
100
AcDbEntity
  8
SLD-0
100
AcDbMText
 10
20.3517008814
 20
4.4755914338
 30
0.0
 40
0.25
 41
0.0
 71
     1
 72
     1
  1
89mm
  7
SLDTEXTSTYLE0
 73
     1
 44
1.0
  0
ENDBLK
  5
2A6
330
2A4
100
AcDbEntity
  8
0
100
AcDbBlockEnd
  0
ENDSEC
  0
SECTION
  2
ENTITIES
  0
LINE
  5
6E
330
1F
100
AcDbEntity
  8
0
  6
Continuous
 62
     7
370
    25
100
AcDbLine
 10
6.1378407501
 20
13.4406392262
 30
0.0
 11
6.1378407501
 21
13.5886392262
 31
0.0
  0
LINE
  5
6F
330
1F
100
AcDbEntity
  8
0
  6
Continuous
 62
     7
370
    25
100
AcDbLine
 10
5.8678407501
 20
13.5886392262
 30
0.0
 11
5.8678407501
 21
13.4406392262
 31
0.0
  0
LINE
  5
70
330
1F
100
AcDbEntity
  8
0
  6
Continuous
 62
     7
370
    25
100
AcDbLine
 10
5.8678407501
 20
13.4406392262
 30
0.0
 11
5.8838407501
 21
13.4246392262
 31
0.0
  0
LINE
  5
71
330
1F
100
AcDbEntity
  8
0
  6
Continuous
 62
     7
370
    25
100
AcDbLine
 10
6.1218407501
 20
13.4246392262
 30
0.0
 11
6.1378407501
 21
13.4406392262
 31
0.0
  0
LINE
  5
72
330
1F
100
AcDbEntity
  8
0
  6
Continuous
 62
     7
370
    25
100
AcDbLine
 10
6.0848407501
 20
14.5453403659
 30
0.0
 11
6.0662407501
 21
14.5583642262
 31
0.0
  0
LINE
  5
73
330
1F
100
AcDbEntity
  8
0
  6
Continuous
 62
     7
370
    25
100
AcDbLine
 10
5.9394407501
 20
14.5583642262
 30
0.0
 11
5.9208407501
 21
14.5453403659
 31
0.0
  0
LINE
  5
74
330
1F
100
AcDbEntity
  8
0
  6
Continuous
 62
     7
370
    25
100
AcDbLine
 10
5.9208407501
 20
14.5411130864
 30
0.0
 11
5.9394407501
 21
14.5280892262
 31
0.0
  0
LINE
  5
75
330
1F
100
AcDbEntity
  8
0
  6
Continuous
 62
     7
370
    25
100
AcDbLine
 10
6.0662407501
 20
14.5280892262
 30
0.0
 11
6.0848407501
 21
14.5411130864
 31
0.0
  0
LINE
  5
76
330
1F
100
AcDbEntity
  8
0
  6
Continuous
 62
     7
370
    25
100
AcDbLine
 10
6.0848407501
 20
14.5411130864
 30
0.0
 11
6.0848407501
 21
14.5453403659
 31
0.0
  0
LINE
  5
77
330
1F
100
AcDbEntity
  8
0
  6
Continuous
 62
     7
370
    25
100
AcDbLine
 10
5.9208407501
 20
14.5453403659
 30
0.0
 11
5.9208407501
 21
14.5411130864
 31
0.0
  0
LINE
  5
78
330
1F
100
AcDbEntity
  8
0
  6
Continuous
 62
     7
370
    25
100
AcDbLine
 10
6.0848407501
 20
14.4847903659
 30
0.0
 11
6.0662407501
 21
14.4978142262
 31
0.0
  0
LINE
  5
79
330
1F
100
AcDbEntity
  8
0
  6
Continuous
 62
     7
370
    25
100
AcDbLine
 10
5.9394407501
 20
14.4978142262
 30
0.0
 11
5.9208407501
 21
14.4847903659
 31
0.0
  0
LINE
  5
7A
330
1F
100
AcDbEntity
  8
0
  6
Continuous
 62
     7
370
    25
100
AcDbLine
 10
5.9208407501
 20
14.5108380864
 30
0.0
 11
5.9394407501
 21
14.4978142262
 31
0.0
  0
LINE
  5
7B
330
1F
100
AcDbEntity
  8
0
  6
Continuous
 62
     7
370
    25
100
AcDbLine
 10
6.0662407501
 20
14.4978142262
 30
0.0
 11
6.0848407501
 21
14.5108380864
 31
0.0
  0
LINE
  5
7C
330
1F
100
AcDbEntity
  8
0
  6
Continuous
 62
     7
370
    25
100
AcDbLine
 10
6.0848407501
 20
14.5108380864
 30
0.0
 11
6.0848407501
 21
14.5150653659
 31
0.0
  0
LINE
  5
7D
330
1F
100
AcDbEntity
  8
0
  6
Continuous
 62
     7
370
    25
100
AcDbLine
 10
5.9208407501
 20
14.5150653659
 30
0.0
 11
5.9208407501
 21
14.5108380864
 31
0.0
  0
LINE
  5
7E
330
1F
100
AcDbEntity
  8
0
  6
Continuous
 62
     7
370
    25
100
AcDbLine
 10
6.0848407501
 20
14.5150653659
 30
0.0
 11
6.0662407501
 21
14.5280892262
 31
0.0
  0
LINE
  5
7F
330
1F
100
AcDbEntity
  8
0
  6
Continuous
 62
     7
370
    25
100
AcDbLine
 10
5.9394407501
 20
14.5280892262
 30
0.0
 11
5.9208407501
 21
14.5150653659
 31
0.0
  0
LINE
  5
80
330
1F
100
AcDbEntity
  8
0
  6
Continuous
 62
     7
370
    25
100
AcDbLine
 10
6.0848407501
 20
14.4545153659
 30
0.0
 11
6.0662407501
 21
14.4675392262
 31
0.0
  0
LINE
  5
81
330
1F
100
AcDbEntity
  8
0
  6
Continuous
 62
     7
370
    25
100
AcDbLine
 10
5.9394407501
 20
14.4675392262
 30
0.0
 11
5.9208407501
 21
14.4545153659
 31
0.0
  0
LINE
  5
82
330
1F
100
AcDbEntity
  8
0
  6
Continuous
 62
     7
370
    25
100
AcDbLine
 10
5.9208407501
 20
14.4805630864
 30
0.0
 11
5.9394407501
 21
14.4675392262
 31
0.0
  0
LINE
  5
83
330
1F
100
AcDbEntity
  8
0
  6
Continuous
 62
     7
370
    25
100
AcDbLine
 10
6.0662407501
 20
14.4675392262
 30
0.0
 11
6.0848407501
 21
14.4805630864
 31
0.0
  0
LINE
  5
84
330
1F
100
AcDbEntity
  8
0
  6
Continuous
 62
     7
370
    25
100
AcDbLine
 10
6.0848407501
 20
14.4805630864
 30
0.0
 11
6.0848407501
 21
14.4847903659
 31
0.0
  0
LINE
  5
85
330
1F
100
AcDbEntity
  8
0
  6
Continuous
 62
     7
370
    25
100
AcDbLine
 10
5.9208407501
 20
14.4847903659
 30
0.0
 11
5.9208407501
 21
14.4805630864
 31
0.0
  0
LINE
  5
86
330
1F
100
AcDbEntity
  8
0
  6
Continuous
 62
     7
370
    25
100
AcDbLine
 10
6.0848407501
 20
14.4502880864
 30
0.0
 11
6.0848407501
 21
14.4545153659
 31
0.0
  0
LINE
  5
87
330
1F
100
AcDbEntity
  8
0
  6
Continuous
 62
     7
370
    25
100
AcDbLine
 10
5.9208407501
 20
14.4545153659
 30
0.0
 11
5.9208407501
 21
14.4502880864
 31
0.0
  0
LINE
  5
88
330
1F
100
AcDbEntity
  8
0
  6
Continuous
 62
     7
370
    25
100
AcDbLine
 10
6.0848407501
 20
14.4200130864
 30
0.0
 11
6.0848407501
 21
14.4242403659
 31
0.0
  0
LINE
  5
89
330
1F
100
AcDbEntity
  8
0
  6
Continuous
 62
     7
370
    25
100
AcDbLine
 10
5.9208407501
 20
14.4242403659
 30
0.0
 11
5.9208407501
 21
14.4200130864
 31
0.0
  0
LINE
  5
8A
330
1F
100
AcDbEntity
  8
0
  6
Continuous
 62
     7
370
    25
100
AcDbLine
 10
6.0848407501
 20
14.4242403659
 30
0.0
 11
6.0662407501
 21
14.4372642262
 31
0.0
  0
LINE
  5
8B
330
1F
100
AcDbEntity
  8
0
  6
Continuous
 62
     7
370
    25
100
AcDbLine
 10
5.9394407501
 20
14.4372642262
 30
0.0
 11
5.9208407501
 21
14.4242403659
 31
0.0
  0
LINE
  5
8C
330
1F
100
AcDbEntity
  8
0
  6
Continuous
 62
     7
370
    25
100
AcDbLine
 10
5.9208407501
 20
14.4502880864
 30
0.0
 11
5.9394407501
 21
14.4372642262
 31
0.0
  0
LINE
  5
8D
330
1F
100
AcDbEntity
  8
0
  6
Continuous
 62
     7
370
    25
100
AcDbLine
 10
6.0662407501
 20
14.4372642262
 30
0.0
 11
6.0848407501
 21
14.4502880864
 31
0.0
  0
LINE
  5
8E
330
1F
100
AcDbEntity
  8
0
  6
Continuous
 62
     7
370
    25
100
AcDbLine
 10
5.9208407501
 20
14.4200130864
 30
0.0
 11
5.9394407501
 21
14.4069892262
 31
0.0
  0
LINE
  5
8F
330
1F
100
AcDbEntity
  8
0
  6
Continuous
 62
     7
370
    25
100
AcDbLine
 10
6.0662407501
 20
14.4069892262
 30
0.0
 11
6.0848407501
 21
14.4200130864
 31
0.0
  0
LINE
  5
90
330
1F
100
AcDbEntity
  8
0
  6
Continuous
 62
     7
370
    25
100
AcDbLine
 10
6.0848407501
 20
14.3897380864
 30
0.0
 11
6.0848407501
 21
14.3939653659
 31
0.0
  0
LINE
  5
91
330
1F
100
AcDbEntity
  8
0
  6
Continuous
 62
     7
370
    25
100
AcDbLine
 10
5.9208407501
 20
14.3939653659
 30
0.0
 11
5.9208407501
 21
14.3897380864
 31
0.0
  0
LINE
  5
92
330
1F
100
AcDbEntity
  8
0
  6
Continuous
 62
     7
370
    25
100
AcDbLine
 10
5.9208407501
 20
14.3897380864
 30
0.0
 11
5.9394407501
 21
14.3767142262
 31
0.0
  0
LINE
  5
93
330
1F
100
AcDbEntity
  8
0
  6
Continuous
 62
     7
370
    25
100
AcDbLine
 10
6.0662407501
 20
14.3767142262
 30
0.0
 11
6.0848407501
 21
14.3897380864
 31
0.0
  0
LINE
  5
94
330
1F
100
AcDbEntity
  8
0
  6
Continuous
 62
     7
370
    25
100
AcDbLine
 10
6.0848407501
 20
14.3636903659
 30
0.0
 11
6.0662407501
 21
14.3767142262
 31
0.0
  0
LINE
  5
95
330
1F
100
AcDbEntity
  8
0
  6
Continuous
 62
     7
370
    25
100
AcDbLine
 10
5.9394407501
 20
14.3767142262
 30
0.0
 11
5.9208407501
 21
14.3636903659
 31
0.0
  0
LINE
  5
96
330
1F
100
AcDbEntity
  8
0
  6
Continuous
 62
     7
370
    25
100
AcDbLine
 10
6.0848407501
 20
14.3939653659
 30
0.0
 11
6.0662407501
 21
14.4069892262
 31
0.0
  0
LINE
  5
97
330
1F
100
AcDbEntity
  8
0
  6
Continuous
 62
     7
370
    25
100
AcDbLine
 10
5.9394407501
 20
14.4069892262
 30
0.0
 11
5.9208407501
 21
14.3939653659
 31
0.0
  0
LINE
  5
98
330
1F
100
AcDbEntity
  8
0
  6
Continuous
 62
     7
370
    25
100
AcDbLine
 10
6.0848407501
 20
14.3594630864
 30
0.0
 11
6.0848407501
 21
14.3636903659
 31
0.0
  0
LINE
  5
99
330
1F
100
AcDbEntity
  8
0
  6
Continuous
 62
     7
370
    25
100
AcDbLine
 10
5.9208407501
 20
14.3636903659
 30
0.0
 11
5.9208407501
 21
14.3594630864
 31
0.0
  0
LINE
  5
9A
330
1F
100
AcDbEntity
  8
0
  6
Continuous
 62
     7
370
    25
100
AcDbLine
 10
5.9208407501
 20
14.3594630864
 30
0.0
 11
5.9394407501
 21
14.3464392262
 31
0.0
  0
LINE
  5
9B
330
1F
100
AcDbEntity
  8
0
  6
Continuous
 62
     7
370
    25
100
AcDbLine
 10
6.0662407501
 20
14.3464392262
 30
0.0
 11
6.0848407501
 21
14.3594630864
 31
0.0
  0
LINE
  5
9C
330
1F
100
AcDbEntity
  8
0
  6
Continuous
 62
     7
370
    25
100
AcDbLine
 10
6.0848407501
 20
14.3291880864
 30
0.0
 11
6.0848407501
 21
14.3334153659
 31
0.0
  0
LINE
  5
9D
330
1F
100
AcDbEntity
  8
0
  6
Continuous
 62
     7
370
    25
100
AcDbLine
 10
5.9208407501
 20
14.3334153659
 30
0.0
 11
5.9208407501
 21
14.3291880864
 31
0.0
  0
LINE
  5
9E
330
1F
100
AcDbEntity
  8
0
  6
Continuous
 62
     7
370
    25
100
AcDbLine
 10
6.0848407501
 20
14.3334153659
 30
0.0
 11
6.0662407501
 21
14.3464392262
 31
0.0
  0
LINE
  5
9F
330
1F
100
AcDbEntity
  8
0
  6
Continuous
 62
     7
370
    25
100
AcDbLine
 10
5.9394407501
 20
14.3464392262
 30
0.0
 11
5.9208407501
 21
14.3334153659
 31
0.0
  0
LINE
  5
A0
330
1F
100
AcDbEntity
  8
0
  6
Continuous
 62
     7
370
    25
100
AcDbLine
 10
6.0848407501
 20
14.2989130864
 30
0.0
 11
6.0848407501
 21
14.3031403659
 31
0.0
  0
LINE
  5
A1
330
1F
100
AcDbEntity
  8
0
  6
Continuous
 62
     7
370
    25
100
AcDbLine
 10
5.9208407501
 20
14.3031403659
 30
0.0
 11
5.9208407501
 21
14.2989130864
 31
0.0
  0
LINE
  5
A2
330
1F
100
AcDbEntity
  8
0
  6
Continuous
 62
     7
370
    25
100
AcDbLine
 10
5.9208407501
 20
14.3291880864
 30
0.0
 11
5.9394407501
 21
14.3161642262
 31
0.0
  0
LINE
  5
A3
330
1F
100
AcDbEntity
  8
0
  6
Continuous
 62
     7
370
    25
100
AcDbLine
 10
6.0662407501
 20
14.3161642262
 30
0.0
 11
6.0848407501
 21
14.3291880864
 31
0.0
  0
LINE
  5
A4
330
1F
100
AcDbEntity
  8
0
  6
Continuous
 62
     7
370
    25
100
AcDbLine
 10
6.0848407501
 20
14.3031403659
 30
0.0
 11
6.0662407501
 21
14.3161642262
 31
0.0
  0
LINE
  5
A5
330
1F
100
AcDbEntity
  8
0
  6
Continuous
 62
     7
370
    25
100
AcDbLine
 10
5.9394407501
 20
14.3161642262
 30
0.0
 11
5.9208407501
 21
14.3031403659
 31
0.0
  0
LINE
  5
A6
330
1F
100
AcDbEntity
  8
0
  6
Continuous
 62
     7
370
    25
100
AcDbLine
 10
5.9208407501
 20
14.2989130864
 30
0.0
 11
5.9394407501
 21
14.2858892262
 31
0.0
  0
LINE
  5
A7
330
1F
100
AcDbEntity
  8
0
  6
Continuous
 62
     7
370
    25
100
AcDbLine
 10
6.0662407501
 20
14.2858892262
 30
0.0
 11
6.0848407501
 21
14.2989130864
 31
0.0
  0
LINE
  5
A8
330
1F
100
AcDbEntity
  8
0
  6
Continuous
 62
     7
370
    25
100
AcDbLine
 10
6.0848407501
 20
14.2686380864
 30
0.0
 11
6.0848407501
 21
14.2728653659
 31
0.0
  0
LINE
  5
A9
330
1F
100
AcDbEntity
  8
0
  6
Continuous
 62
     7
370
    25
100
AcDbLine
 10
5.9208407501
 20
14.2728653659
 30
0.0
 11
5.9208407501
 21
14.2686380864
 31
0.0
  0
LINE
  5
AA
330
1F
100
AcDbEntity
  8
0
  6
Continuous
 62
     7
370
    25
100
AcDbLine
 10
6.0848407501
 20
14.2425903659
 30
0.0
 11
6.0662407501
 21
14.2556142262
 31
0.0
  0
LINE
  5
AB
330
1F
100
AcDbEntity
  8
0
  6
Continuous
 62
     7
370
    25
100
AcDbLine
 10
5.9394407501
 20
14.2556142262
 30
0.0
 11
5.9208407501
 21
14.2425903659
 31
0.0
  0
LINE
  5
AC
330
1F
100
AcDbEntity
  8
0
  6
Continuous
 62
     7
370
    25
100
AcDbLine
 10
6.0848407501
 20
14.2728653659
 30
0.0
 11
6.0662407501
 21
14.2858892262
 31
0.0
  0
LINE
  5
AD
330
1F
100
AcDbEntity
  8
0
  6
Continuous
 62
     7
370
    25
100
AcDbLine
 10
5.9394407501
 20
14.2858892262
 30
0.0
 11
5.9208407501
 21
14.2728653659
 31
0.0
  0
LINE
  5
AE
330
1F
100
AcDbEntity
  8
0
  6
Continuous
 62
     7
370
    25
100
AcDbLine
 10
5.9208407501
 20
14.2686380864
 30
0.0
 11
5.9394407501
 21
14.2556142262
 31
0.0
  0
LINE
  5
AF
330
1F
100
AcDbEntity
  8
0
  6
Continuous
 62
     7
370
    25
100
AcDbLine
 10
6.0662407501
 20
14.2556142262
 30
0.0
 11
6.0848407501
 21
14.2686380864
 31
0.0
  0
LINE
  5
B0
330
1F
100
AcDbEntity
  8
0
  6
Continuous
 62
     7
370
    25
100
AcDbLine
 10
6.0848407501
 20
14.2383630864
 30
0.0
 11
6.0848407501
 21
14.2425903659
 31
0.0
  0
LINE
  5
B1
330
1F
100
AcDbEntity
  8
0
  6
Continuous
 62
     7
370
    25
100
AcDbLine
 10
5.9208407501
 20
14.2425903659
 30
0.0
 11
5.9208407501
 21
14.2383630864
 31
0.0
  0
LINE
  5
B2
330
1F
100
AcDbEntity
  8
0
  6
Continuous
 62
     7
370
    25
100
AcDbLine
 10
5.9208407501
 20
14.2383630864
 30
0.0
 11
5.9394407501
 21
14.2253392262
 31
0.0
  0
LINE
  5
B3
330
1F
100
AcDbEntity
  8
0
  6
Continuous
 62
     7
370
    25
100
AcDbLine
 10
6.0662407501
 20
14.2253392262
 30
0.0
 11
6.0848407501
 21
14.2383630864
 31
0.0
  0
LINE
  5
B4
330
1F
100
AcDbEntity
  8
0
  6
Continuous
 62
     7
370
    25
100
AcDbLine
 10
6.0848407501
 20
14.2123153659
 30
0.0
 11
6.0662407501
 21
14.2253392262
 31
0.0
  0
LINE
  5
B5
330
1F
100
AcDbEntity
  8
0
  6
Continuous
 62
     7
370
    25
100
AcDbLine
 10
5.9394407501
 20
14.2253392262
 30
0.0
 11
5.9208407501
 21
14.2123153659
 31
0.0
  0
LINE
  5
B6
330
1F
100
AcDbEntity
  8
0
  6
Continuous
 62
     7
370
    25
100
AcDbLine
 10
5.9208407501
 20
14.1778130864
 30
0.0
 11
5.9394407501
 21
14.1647892262
 31
0.0
  0
LINE
  5
B7
330
1F
100
AcDbEntity
  8
0
  6
Continuous
 62
     7
370
    25
100
AcDbLine
 10
6.0662407501
 20
14.1647892262
 30
0.0
 11
6.0848407501
 21
14.1778130864
 31
0.0
  0
LINE
  5
B8
330
1F
100
AcDbEntity
  8
0
  6
Continuous
 62
     7
370
    25
100
AcDbLine
 10
6.0848407501
 20
14.2080880864
 30
0.0
 11
6.0848407501
 21
14.2123153659
 31
0.0
  0
LINE
  5
B9
330
1F
100
AcDbEntity
  8
0
  6
Continuous
 62
     7
370
    25
100
AcDbLine
 10
5.9208407501
 20
14.2123153659
 30
0.0
 11
5.9208407501
 21
14.2080880864
 31
0.0
  0
LINE
  5
BA
330
1F
100
AcDbEntity
  8
0
  6
Continuous
 62
     7
370
    25
100
AcDbLine
 10
6.0848407501
 20
14.1778130864
 30
0.0
 11
6.0848407501
 21
14.1820403659
 31
0.0
  0
LINE
  5
BB
330
1F
100
AcDbEntity
  8
0
  6
Continuous
 62
     7
370
    25
100
AcDbLine
 10
5.9208407501
 20
14.1820403659
 30
0.0
 11
5.9208407501
 21
14.1778130864
 31
0.0
  0
LINE
  5
BC
330
1F
100
AcDbEntity
  8
0
  6
Continuous
 62
     7
370
    25
100
AcDbLine
 10
6.0848407501
 20
14.1820403659
 30
0.0
 11
6.0662407501
 21
14.1950642262
 31
0.0
  0
LINE
  5
BD
330
1F
100
AcDbEntity
  8
0
  6
Continuous
 62
     7
370
    25
100
AcDbLine
 10
5.9394407501
 20
14.1950642262
 30
0.0
 11
5.9208407501
 21
14.1820403659
 31
0.0
  0
LINE
  5
BE
330
1F
100
AcDbEntity
  8
0
  6
Continuous
 62
     7
370
    25
100
AcDbLine
 10
5.9208407501
 20
14.2080880864
 30
0.0
 11
5.9394407501
 21
14.1950642262
 31
0.0
  0
LINE
  5
BF
330
1F
100
AcDbEntity
  8
0
  6
Continuous
 62
     7
370
    25
100
AcDbLine
 10
6.0662407501
 20
14.1950642262
 30
0.0
 11
6.0848407501
 21
14.2080880864
 31
0.0
  0
LINE
  5
C0
330
1F
100
AcDbEntity
  8
0
  6
Continuous
 62
     7
370
    25
100
AcDbLine
 10
6.0848407501
 20
14.1475380864
 30
0.0
 11
6.0848407501
 21
14.1517653659
 31
0.0
  0
LINE
  5
C1
330
1F
100
AcDbEntity
  8
0
  6
Continuous
 62
     7
370
    25
100
AcDbLine
 10
5.9208407501
 20
14.1517653659
 30
0.0
 11
5.9208407501
 21
14.1475380864
 31
0.0
  0
LINE
  5
C2
330
1F
100
AcDbEntity
  8
0
  6
Continuous
 62
     7
370
    25
100
AcDbLine
 10
6.0848407501
 20
14.1517653659
 30
0.0
 11
6.0662407501
 21
14.1647892262
 31
0.0
  0
LINE
  5
C3
330
1F
100
AcDbEntity
  8
0
  6
Continuous
 62
     7
370
    25
100
AcDbLine
 10
5.9394407501
 20
14.1647892262
 30
0.0
 11
5.9208407501
 21
14.1517653659
 31
0.0
  0
LINE
  5
C4
330
1F
100
AcDbEntity
  8
0
  6
Continuous
 62
     7
370
    25
100
AcDbLine
 10
5.9208407501
 20
14.1475380864
 30
0.0
 11
5.9394407501
 21
14.1345142262
 31
0.0
  0
LINE
  5
C5
330
1F
100
AcDbEntity
  8
0
  6
Continuous
 62
     7
370
    25
100
AcDbLine
 10
6.0662407501
 20
14.1345142262
 30
0.0
 11
6.0848407501
 21
14.1475380864
 31
0.0
  0
LINE
  5
C6
330
1F
100
AcDbEntity
  8
0
  6
Continuous
 62
     7
370
    25
100
AcDbLine
 10
6.0848407501
 20
14.0912153659
 30
0.0
 11
6.0662407501
 21
14.1042392262
 31
0.0
  0
LINE
  5
C7
330
1F
100
AcDbEntity
  8
0
  6
Continuous
 62
     7
370
    25
100
AcDbLine
 10
5.9394407501
 20
14.1042392262
 30
0.0
 11
5.9208407501
 21
14.0912153659
 31
0.0
  0
LINE
  5
C8
330
1F
100
AcDbEntity
  8
0
  6
Continuous
 62
     7
370
    25
100
AcDbLine
 10
6.0848407501
 20
14.1214903659
 30
0.0
 11
6.0662407501
 21
14.1345142262
 31
0.0
  0
LINE
  5
C9
330
1F
100
AcDbEntity
  8
0
  6
Continuous
 62
     7
370
    25
100
AcDbLine
 10
5.9394407501
 20
14.1345142262
 30
0.0
 11
5.9208407501
 21
14.1214903659
 31
0.0
  0
LINE
  5
CA
330
1F
100
AcDbEntity
  8
0
  6
Continuous
 62
     7
370
    25
100
AcDbLine
 10
6.0848407501
 20
14.1172630864
 30
0.0
 11
6.0848407501
 21
14.1214903659
 31
0.0
  0
LINE
  5
CB
330
1F
100
AcDbEntity
  8
0
  6
Continuous
 62
     7
370
    25
100
AcDbLine
 10
5.9208407501
 20
14.1214903659
 30
0.0
 11
5.9208407501
 21
14.1172630864
 31
0.0
  0
LINE
  5
CC
330
1F
100
AcDbEntity
  8
0
  6
Continuous
 62
     7
370
    25
100
AcDbLine
 10
5.9208407501
 20
14.1172630864
 30
0.0
 11
5.9394407501
 21
14.1042392262
 31
0.0
  0
LINE
  5
CD
330
1F
100
AcDbEntity
  8
0
  6
Continuous
 62
     7
370
    25
100
AcDbLine
 10
6.0662407501
 20
14.1042392262
 30
0.0
 11
6.0848407501
 21
14.1172630864
 31
0.0
  0
LINE
  5
CE
330
1F
100
AcDbEntity
  8
0
  6
Continuous
 62
     7
370
    25
100
AcDbLine
 10
6.0848407501
 20
14.0609403659
 30
0.0
 11
6.0662407501
 21
14.0739642262
 31
0.0
  0
LINE
  5
CF
330
1F
100
AcDbEntity
  8
0
  6
Continuous
 62
     7
370
    25
100
AcDbLine
 10
5.9394407501
 20
14.0739642262
 30
0.0
 11
5.9208407501
 21
14.0609403659
 31
0.0
  0
LINE
  5
D0
330
1F
100
AcDbEntity
  8
0
  6
Continuous
 62
     7
370
    25
100
AcDbLine
 10
6.0848407501
 20
14.0869880864
 30
0.0
 11
6.0848407501
 21
14.0912153659
 31
0.0
  0
LINE
  5
D1
330
1F
100
AcDbEntity
  8
0
  6
Continuous
 62
     7
370
    25
100
AcDbLine
 10
5.9208407501
 20
14.0912153659
 30
0.0
 11
5.9208407501
 21
14.0869880864
 31
0.0
  0
LINE
  5
D2
330
1F
100
AcDbEntity
  8
0
  6
Continuous
 62
     7
370
    25
100
AcDbLine
 10
5.9208407501
 20
14.0869880864
 30
0.0
 11
5.9394407501
 21
14.0739642262
 31
0.0
  0
LINE
  5
D3
330
1F
100
AcDbEntity
  8
0
  6
Continuous
 62
     7
370
    25
100
AcDbLine
 10
6.0662407501
 20
14.0739642262
 30
0.0
 11
6.0848407501
 21
14.0869880864
 31
0.0
  0
LINE
  5
D4
330
1F
100
AcDbEntity
  8
0
  6
Continuous
 62
     7
370
    25
100
AcDbLine
 10
6.0848407501
 20
14.0567130864
 30
0.0
 11
6.0848407501
 21
14.0609403659
 31
0.0
  0
LINE
  5
D5
330
1F
100
AcDbEntity
  8
0
  6
Continuous
 62
     7
370
    25
100
AcDbLine
 10
5.9208407501
 20
14.0609403659
 30
0.0
 11
5.9208407501
 21
14.0567130864
 31
0.0
  0
LINE
  5
D6
330
1F
100
AcDbEntity
  8
0
  6
Continuous
 62
     7
370
    25
100
AcDbLine
 10
6.0848407501
 20
14.0264380864
 30
0.0
 11
6.0848407501
 21
14.0306653659
 31
0.0
  0
LINE
  5
D7
330
1F
100
AcDbEntity
  8
0
  6
Continuous
 62
     7
370
    25
100
AcDbLine
 10
5.9208407501
 20
14.0306653659
 30
0.0
 11
5.9208407501
 21
14.0264380864
 31
0.0
  0
LINE
  5
D8
330
1F
100
AcDbEntity
  8
0
  6
Continuous
 62
     7
370
    25
100
AcDbLine
 10
5.9208407501
 20
14.0264380864
 30
0.0
 11
5.9394407501
 21
14.0134142262
 31
0.0
  0
LINE
  5
D9
330
1F
100
AcDbEntity
  8
0
  6
Continuous
 62
     7
370
    25
100
AcDbLine
 10
6.0662407501
 20
14.0134142262
 30
0.0
 11
6.0848407501
 21
14.0264380864
 31
0.0
  0
LINE
  5
DA
330
1F
100
AcDbEntity
  8
0
  6
Continuous
 62
     7
370
    25
100
AcDbLine
 10
5.9208407501
 20
14.0567130864
 30
0.0
 11
5.9394407501
 21
14.0436892262
 31
0.0
  0
LINE
  5
DB
330
1F
100
AcDbEntity
  8
0
  6
Continuous
 62
     7
370
    25
100
AcDbLine
 10
6.0662407501
 20
14.0436892262
 30
0.0
 11
6.0848407501
 21
14.0567130864
 31
0.0
  0
LINE
  5
DC
330
1F
100
AcDbEntity
  8
0
  6
Continuous
 62
     7
370
    25
100
AcDbLine
 10
6.0848407501
 20
14.0306653659
 30
0.0
 11
6.0662407501
 21
14.0436892262
 31
0.0
  0
LINE
  5
DD
330
1F
100
AcDbEntity
  8
0
  6
Continuous
 62
     7
370
    25
100
AcDbLine
 10
5.9394407501
 20
14.0436892262
 30
0.0
 11
5.9208407501
 21
14.0306653659
 31
0.0
  0
LINE
  5
DE
330
1F
100
AcDbEntity
  8
0
  6
Continuous
 62
     7
370
    25
100
AcDbLine
 10
6.0848407501
 20
13.9701153659
 30
0.0
 11
6.0662407501
 21
13.9831392262
 31
0.0
  0
LINE
  5
DF
330
1F
100
AcDbEntity
  8
0
  6
Continuous
 62
     7
370
    25
100
AcDbLine
 10
5.9394407501
 20
13.9831392262
 30
0.0
 11
5.9208407501
 21
13.9701153659
 31
0.0
  0
LINE
  5
E0
330
1F
100
AcDbEntity
  8
0
  6
Continuous
 62
     7
370
    25
100
AcDbLine
 10
6.0848407501
 20
14.0003903659
 30
0.0
 11
6.0662407501
 21
14.0134142262
 31
0.0
  0
LINE
  5
E1
330
1F
100
AcDbEntity
  8
0
  6
Continuous
 62
     7
370
    25
100
AcDbLine
 10
5.9394407501
 20
14.0134142262
 30
0.0
 11
5.9208407501
 21
14.0003903659
 31
0.0
  0
LINE
  5
E2
330
1F
100
AcDbEntity
  8
0
  6
Continuous
 62
     7
370
    25
100
AcDbLine
 10
6.0848407501
 20
13.9961630864
 30
0.0
 11
6.0848407501
 21
14.0003903659
 31
0.0
  0
LINE
  5
E3
330
1F
100
AcDbEntity
  8
0
  6
Continuous
 62
     7
370
    25
100
AcDbLine
 10
5.9208407501
 20
14.0003903659
 30
0.0
 11
5.9208407501
 21
13.9961630864
 31
0.0
  0
LINE
  5
E4
330
1F
100
AcDbEntity
  8
0
  6
Continuous
 62
     7
370
    25
100
AcDbLine
 10
5.9208407501
 20
13.9961630864
 30
0.0
 11
5.9394407501
 21
13.9831392262
 31
0.0
  0
LINE
  5
E5
330
1F
100
AcDbEntity
  8
0
  6
Continuous
 62
     7
370
    25
100
AcDbLine
 10
6.0662407501
 20
13.9831392262
 30
0.0
 11
6.0848407501
 21
13.9961630864
 31
0.0
  0
LINE
  5
E6
330
1F
100
AcDbEntity
  8
0
  6
Continuous
 62
     7
370
    25
100
AcDbLine
 10
5.9208407501
 20
13.9658880864
 30
0.0
 11
5.9240524553
 21
13.9636392262
 31
0.0
  0
LINE
  5
E7
330
1F
100
AcDbEntity
  8
0
  6
Continuous
 62
     7
370
    25
100
AcDbLine
 10
6.0816290449
 20
13.9636392262
 30
0.0
 11
6.0848407501
 21
13.9658880864
 31
0.0
  0
LINE
  5
E8
330
1F
100
AcDbEntity
  8
0
  6
Continuous
 62
     7
370
    25
100
AcDbLine
 10
6.0848407501
 20
13.9658880864
 30
0.0
 11
6.0848407501
 21
13.9701153659
 31
0.0
  0
LINE
  5
E9
330
1F
100
AcDbEntity
  8
0
  6
Continuous
 62
     7
370
    25
100
AcDbLine
 10
5.9208407501
 20
13.9701153659
 30
0.0
 11
5.9208407501
 21
13.9658880864
 31
0.0
  0
LINE
  5
EA
330
1F
100
AcDbEntity
  8
0
  6
Continuous
 62
     7
370
    25
100
AcDbLine
 10
5.9216341004
 20
14.5708325765
 30
0.0
 11
5.9394407501
 21
14.5583642262
 31
0.0
  0
LINE
  5
EB
330
1F
100
AcDbEntity
  8
0
  6
Continuous
 62
     7
370
    25
100
AcDbLine
 10
6.0662407501
 20
14.5583642262
 30
0.0
 11
6.0840473998
 21
14.5708325765
 31
0.0
  0
LINE
  5
EC
330
1F
100
AcDbEntity
  8
0
  6
Continuous
 62
     7
370
    25
100
AcDbLine
 10
6.0840473998
 20
14.5708325765
 30
0.0
 11
6.0662407501
 21
14.5886392262
 31
0.0
  0
LINE
  5
ED
330
1F
100
AcDbEntity
  8
0
  6
Continuous
 62
     7
370
    25
100
AcDbLine
 10
5.9394407501
 20
14.5886392262
 30
0.0
 11
5.9216341004
 21
14.5708325765
 31
0.0
  0
LINE
  5
EE
330
1F
100
AcDbEntity
  8
0
  6
Continuous
 62
     7
370
    25
100
AcDbLine
 10
5.5028407501
 20
14.1286392262
 30
0.0
 11
5.4254904809
 21
14.0839810274
 31
0.0
  0
LINE
  5
EF
330
1F
100
AcDbEntity
  8
0
  6
Continuous
 62
     7
370
    25
100
AcDbLine
 10
6.5801910193
 20
14.0839810274
 30
0.0
 11
6.5028407501
 21
14.1286392262
 31
0.0
  0
LINE
  5
F0
330
1F
100
AcDbEntity
  8
0
  6
Continuous
 62
     7
370
    25
100
AcDbLine
 10
5.5078407501
 20
13.2206392262
 30
0.0
 11
5.5078407501
 21
10.3966392262
 31
0.0
  0
LINE
  5
F1
330
1F
100
AcDbEntity
  8
0
  6
Continuous
 62
     7
370
    25
100
AcDbLine
 10
5.5078407501
 20
13.4636392262
 30
0.0
 11
5.5078407501
 21
13.3566392262
 31
0.0
  0
LINE
  5
F2
330
1F
100
AcDbEntity
  8
0
  6
Continuous
 62
     7
370
    25
100
AcDbLine
 10
6.4978407501
 20
9.4066392262
 30
0.0
 11
6.4978407501
 21
13.4636392262
 31
0.0
  0
LINE
  5
F3
330
1F
100
AcDbEntity
  8
0
  6
Continuous
 62
     7
370
    25
100
AcDbLine
 10
6.4978407501
 20
13.4636392262
 30
0.0
 11
6.4978407501
 21
13.5886392262
 31
0.0
  0
LINE
  5
F4
330
1F
100
AcDbEntity
  8
0
  6
Continuous
 62
     7
370
    25
100
AcDbLine
 10
5.5078407501
 20
13.5886392262
 30
0.0
 11
5.5078407501
 21
13.4636392262
 31
0.0
  0
LINE
  5
F5
330
1F
100
AcDbEntity
  8
0
  6
Continuous
 62
     7
370
    25
100
AcDbLine
 10
6.4073407501
 20
14.1588475597
 30
0.0
 11
6.3778407501
 21
14.1836392262
 31
0.0
  0
LINE
  5
F6
330
1F
100
AcDbEntity
  8
0
  6
Continuous
 62
     7
370
    25
100
AcDbLine
 10
5.6278407501
 20
14.1836392262
 30
0.0
 11
5.5983407501
 21
14.1588475597
 31
0.0
  0
LINE
  5
F7
330
1F
100
AcDbEntity
  8
0
  6
Continuous
 62
     7
370
    25
100
AcDbLine
 10
5.5983407501
 20
14.1588475597
 30
0.0
 11
5.6278407501
 21
14.1340558932
 31
0.0
  0
LINE
  5
F8
330
1F
100
AcDbEntity
  8
0
  6
Continuous
 62
     7
370
    25
100
AcDbLine
 10
6.3778407501
 20
14.1340558932
 30
0.0
 11
6.4073407501
 21
14.1588475597
 31
0.0
  0
LINE
  5
F9
330
1F
100
AcDbEntity
  8
0
  6
Continuous
 62
     7
370
    25
100
AcDbLine
 10
6.3842861287
 20
14.1286392262
 30
0.0
 11
6.3778407501
 21
14.1340558932
 31
0.0
  0
LINE
  5
FA
330
1F
100
AcDbEntity
  8
0
  6
Continuous
 62
     7
370
    25
100
AcDbLine
 10
5.6278407501
 20
14.1340558932
 30
0.0
 11
5.6213953715
 21
14.1286392262
 31
0.0
  0
LINE
  5
FB
330
1F
100
AcDbEntity
  8
0
  6
Continuous
 62
     7
370
    25
100
AcDbLine
 10
6.3778407501
 20
14.1836392262
 30
0.0
 11
6.3478407501
 21
14.2136392262
 31
0.0
  0
LINE
  5
FC
330
1F
100
AcDbEntity
  8
0
  6
Continuous
 62
     7
370
    25
100
AcDbLine
 10
5.6578407501
 20
14.2136392262
 30
0.0
 11
5.6278407501
 21
14.1836392262
 31
0.0
  0
LINE
  5
FD
330
1F
100
AcDbEntity
  8
0
  6
Continuous
 62
     7
370
    25
100
AcDbLine
 10
4.2528407501
 20
13.9636392262
 30
0.0
 11
4.2528407501
 21
13.6386392262
 31
0.0
  0
LINE
  5
FE
330
1F
100
AcDbEntity
  8
0
  6
Continuous
 62
     7
370
    25
100
AcDbLine
 10
7.7528407501
 20
13.6386392262
 30
0.0
 11
7.7528407501
 21
13.9636392262
 31
0.0
  0
LINE
  5
FF
330
1F
100
AcDbEntity
  8
0
  6
Continuous
 62
     7
370
    25
100
AcDbLine
 10
4.2528407501
 20
13.6386392262
 30
0.0
 11
4.3028407501
 21
13.5886392262
 31
0.0
  0
LINE
  5
100
330
1F
100
AcDbEntity
  8
0
  6
Continuous
 62
     7
370
    25
100
AcDbLine
 10
7.7028407501
 20
13.5886392262
 30
0.0
 11
7.7528407501
 21
13.6386392262
 31
0.0
  0
LINE
  5
101
330
1F
100
AcDbEntity
  8
0
  6
Continuous
 62
     7
370
    25
100
AcDbLine
 10
5.981299753
 20
13.4406392262
 30
0.0
 11
5.8678407501
 21
13.4406392262
 31
0.0
  0
LINE
  5
102
330
1F
100
AcDbEntity
  8
0
  6
Continuous
 62
     7
370
    25
100
AcDbLine
 10
6.1378407501
 20
13.4406392262
 30
0.0
 11
5.981299753
 21
13.4406392262
 31
0.0
  0
LINE
  5
103
330
1F
100
AcDbEntity
  8
0
  6
Continuous
 62
     7
370
    25
100
AcDbLine
 10
5.9838527601
 20
13.4246392262
 30
0.0
 11
5.8838407501
 21
13.4246392262
 31
0.0
  0
LINE
  5
104
330
1F
100
AcDbEntity
  8
0
  6
Continuous
 62
     7
370
    25
100
AcDbLine
 10
6.1218407501
 20
13.4246392262
 30
0.0
 11
5.9838527601
 21
13.4246392262
 31
0.0
  0
LINE
  5
105
330
1F
100
AcDbEntity
  8
0
  6
Continuous
 62
     7
370
    25
100
AcDbLine
 10
6.0662407501
 20
14.5583642262
 30
0.0
 11
5.9394407501
 21
14.5583642262
 31
0.0
  0
LINE
  5
106
330
1F
100
AcDbEntity
  8
0
  6
Continuous
 62
     7
370
    25
100
AcDbLine
 10
6.0848407501
 20
14.5453403659
 30
0.0
 11
5.9208407501
 21
14.5453403659
 31
0.0
  0
LINE
  5
107
330
1F
100
AcDbEntity
  8
0
  6
Continuous
 62
     7
370
    25
100
AcDbLine
 10
6.0848407501
 20
14.5411130864
 30
0.0
 11
5.9208407501
 21
14.5411130864
 31
0.0
  0
LINE
  5
108
330
1F
100
AcDbEntity
  8
0
  6
Continuous
 62
     7
370
    25
100
AcDbLine
 10
6.0662407501
 20
14.5280892262
 30
0.0
 11
5.9394407501
 21
14.5280892262
 31
0.0
  0
LINE
  5
109
330
1F
100
AcDbEntity
  8
0
  6
Continuous
 62
     7
370
    25
100
AcDbLine
 10
6.0662407501
 20
14.4978142262
 30
0.0
 11
5.9394407501
 21
14.4978142262
 31
0.0
  0
LINE
  5
10A
330
1F
100
AcDbEntity
  8
0
  6
Continuous
 62
     7
370
    25
100
AcDbLine
 10
6.0848407501
 20
14.4847903659
 30
0.0
 11
5.9208407501
 21
14.4847903659
 31
0.0
  0
LINE
  5
10B
330
1F
100
AcDbEntity
  8
0
  6
Continuous
 62
     7
370
    25
100
AcDbLine
 10
6.0848407501
 20
14.5108380864
 30
0.0
 11
5.9208407501
 21
14.5108380864
 31
0.0
  0
LINE
  5
10C
330
1F
100
AcDbEntity
  8
0
  6
Continuous
 62
     7
370
    25
100
AcDbLine
 10
6.0848407501
 20
14.5150653659
 30
0.0
 11
5.9208407501
 21
14.5150653659
 31
0.0
  0
LINE
  5
10D
330
1F
100
AcDbEntity
  8
0
  6
Continuous
 62
     7
370
    25
100
AcDbLine
 10
6.0662407501
 20
14.4675392262
 30
0.0
 11
5.9394407501
 21
14.4675392262
 31
0.0
  0
LINE
  5
10E
330
1F
100
AcDbEntity
  8
0
  6
Continuous
 62
     7
370
    25
100
AcDbLine
 10
6.0848407501
 20
14.4545153659
 30
0.0
 11
5.9208407501
 21
14.4545153659
 31
0.0
  0
LINE
  5
10F
330
1F
100
AcDbEntity
  8
0
  6
Continuous
 62
     7
370
    25
100
AcDbLine
 10
6.0848407501
 20
14.4805630864
 30
0.0
 11
5.9208407501
 21
14.4805630864
 31
0.0
  0
LINE
  5
110
330
1F
100
AcDbEntity
  8
0
  6
Continuous
 62
     7
370
    25
100
AcDbLine
 10
6.0848407501
 20
14.4502880864
 30
0.0
 11
5.9208407501
 21
14.4502880864
 31
0.0
  0
LINE
  5
111
330
1F
100
AcDbEntity
  8
0
  6
Continuous
 62
     7
370
    25
100
AcDbLine
 10
6.0848407501
 20
14.4200130864
 30
0.0
 11
5.9208407501
 21
14.4200130864
 31
0.0
  0
LINE
  5
112
330
1F
100
AcDbEntity
  8
0
  6
Continuous
 62
     7
370
    25
100
AcDbLine
 10
6.0848407501
 20
14.4242403659
 30
0.0
 11
5.9208407501
 21
14.4242403659
 31
0.0
  0
LINE
  5
113
330
1F
100
AcDbEntity
  8
0
  6
Continuous
 62
     7
370
    25
100
AcDbLine
 10
6.0662407501
 20
14.4372642262
 30
0.0
 11
5.9394407501
 21
14.4372642262
 31
0.0
  0
LINE
  5
114
330
1F
100
AcDbEntity
  8
0
  6
Continuous
 62
     7
370
    25
100
AcDbLine
 10
6.0662407501
 20
14.4069892262
 30
0.0
 11
5.9394407501
 21
14.4069892262
 31
0.0
  0
LINE
  5
115
330
1F
100
AcDbEntity
  8
0
  6
Continuous
 62
     7
370
    25
100
AcDbLine
 10
6.0848407501
 20
14.3897380864
 30
0.0
 11
5.9208407501
 21
14.3897380864
 31
0.0
  0
LINE
  5
116
330
1F
100
AcDbEntity
  8
0
  6
Continuous
 62
     7
370
    25
100
AcDbLine
 10
6.0848407501
 20
14.3939653659
 30
0.0
 11
5.9208407501
 21
14.3939653659
 31
0.0
  0
LINE
  5
117
330
1F
100
AcDbEntity
  8
0
  6
Continuous
 62
     7
370
    25
100
AcDbLine
 10
6.0662407501
 20
14.3767142262
 30
0.0
 11
5.9394407501
 21
14.3767142262
 31
0.0
  0
LINE
  5
118
330
1F
100
AcDbEntity
  8
0
  6
Continuous
 62
     7
370
    25
100
AcDbLine
 10
6.0848407501
 20
14.3636903659
 30
0.0
 11
5.9208407501
 21
14.3636903659
 31
0.0
  0
LINE
  5
119
330
1F
100
AcDbEntity
  8
0
  6
Continuous
 62
     7
370
    25
100
AcDbLine
 10
6.0848407501
 20
14.3594630864
 30
0.0
 11
5.9208407501
 21
14.3594630864
 31
0.0
  0
LINE
  5
11A
330
1F
100
AcDbEntity
  8
0
  6
Continuous
 62
     7
370
    25
100
AcDbLine
 10
6.0662407501
 20
14.3464392262
 30
0.0
 11
5.9394407501
 21
14.3464392262
 31
0.0
  0
LINE
  5
11B
330
1F
100
AcDbEntity
  8
0
  6
Continuous
 62
     7
370
    25
100
AcDbLine
 10
6.0848407501
 20
14.3291880864
 30
0.0
 11
5.9208407501
 21
14.3291880864
 31
0.0
  0
LINE
  5
11C
330
1F
100
AcDbEntity
  8
0
  6
Continuous
 62
     7
370
    25
100
AcDbLine
 10
6.0848407501
 20
14.3334153659
 30
0.0
 11
5.9208407501
 21
14.3334153659
 31
0.0
  0
LINE
  5
11D
330
1F
100
AcDbEntity
  8
0
  6
Continuous
 62
     7
370
    25
100
AcDbLine
 10
6.0848407501
 20
14.2989130864
 30
0.0
 11
5.9208407501
 21
14.2989130864
 31
0.0
  0
LINE
  5
11E
330
1F
100
AcDbEntity
  8
0
  6
Continuous
 62
     7
370
    25
100
AcDbLine
 10
6.0848407501
 20
14.3031403659
 30
0.0
 11
5.9208407501
 21
14.3031403659
 31
0.0
  0
LINE
  5
11F
330
1F
100
AcDbEntity
  8
0
  6
Continuous
 62
     7
370
    25
100
AcDbLine
 10
6.0662407501
 20
14.3161642262
 30
0.0
 11
5.9394407501
 21
14.3161642262
 31
0.0
  0
LINE
  5
120
330
1F
100
AcDbEntity
  8
0
  6
Continuous
 62
     7
370
    25
100
AcDbLine
 10
6.0662407501
 20
14.2858892262
 30
0.0
 11
5.9394407501
 21
14.2858892262
 31
0.0
  0
LINE
  5
121
330
1F
100
AcDbEntity
  8
0
  6
Continuous
 62
     7
370
    25
100
AcDbLine
 10
6.0848407501
 20
14.2686380864
 30
0.0
 11
5.9208407501
 21
14.2686380864
 31
0.0
  0
LINE
  5
122
330
1F
100
AcDbEntity
  8
0
  6
Continuous
 62
     7
370
    25
100
AcDbLine
 10
6.0848407501
 20
14.2728653659
 30
0.0
 11
5.9208407501
 21
14.2728653659
 31
0.0
  0
LINE
  5
123
330
1F
100
AcDbEntity
  8
0
  6
Continuous
 62
     7
370
    25
100
AcDbLine
 10
6.0662407501
 20
14.2556142262
 30
0.0
 11
5.9394407501
 21
14.2556142262
 31
0.0
  0
LINE
  5
124
330
1F
100
AcDbEntity
  8
0
  6
Continuous
 62
     7
370
    25
100
AcDbLine
 10
6.0848407501
 20
14.2425903659
 30
0.0
 11
5.9208407501
 21
14.2425903659
 31
0.0
  0
LINE
  5
125
330
1F
100
AcDbEntity
  8
0
  6
Continuous
 62
     7
370
    25
100
AcDbLine
 10
6.0848407501
 20
14.2383630864
 30
0.0
 11
5.9208407501
 21
14.2383630864
 31
0.0
  0
LINE
  5
126
330
1F
100
AcDbEntity
  8
0
  6
Continuous
 62
     7
370
    25
100
AcDbLine
 10
6.0662407501
 20
14.2253392262
 30
0.0
 11
5.9394407501
 21
14.2253392262
 31
0.0
  0
LINE
  5
127
330
1F
100
AcDbEntity
  8
0
  6
Continuous
 62
     7
370
    25
100
AcDbLine
 10
6.0848407501
 20
14.2123153659
 30
0.0
 11
5.9208407501
 21
14.2123153659
 31
0.0
  0
LINE
  5
128
330
1F
100
AcDbEntity
  8
0
  6
Continuous
 62
     7
370
    25
100
AcDbLine
 10
6.0848407501
 20
14.1778130864
 30
0.0
 11
5.9208407501
 21
14.1778130864
 31
0.0
  0
LINE
  5
129
330
1F
100
AcDbEntity
  8
0
  6
Continuous
 62
     7
370
    25
100
AcDbLine
 10
6.0662407501
 20
14.1647892262
 30
0.0
 11
5.9394407501
 21
14.1647892262
 31
0.0
  0
LINE
  5
12A
330
1F
100
AcDbEntity
  8
0
  6
Continuous
 62
     7
370
    25
100
AcDbLine
 10
6.0848407501
 20
14.2080880864
 30
0.0
 11
5.9208407501
 21
14.2080880864
 31
0.0
  0
LINE
  5
12B
330
1F
100
AcDbEntity
  8
0
  6
Continuous
 62
     7
370
    25
100
AcDbLine
 10
6.0848407501
 20
14.1820403659
 30
0.0
 11
5.9208407501
 21
14.1820403659
 31
0.0
  0
LINE
  5
12C
330
1F
100
AcDbEntity
  8
0
  6
Continuous
 62
     7
370
    25
100
AcDbLine
 10
6.0662407501
 20
14.1950642262
 30
0.0
 11
5.9394407501
 21
14.1950642262
 31
0.0
  0
LINE
  5
12D
330
1F
100
AcDbEntity
  8
0
  6
Continuous
 62
     7
370
    25
100
AcDbLine
 10
6.0848407501
 20
14.1475380864
 30
0.0
 11
5.9208407501
 21
14.1475380864
 31
0.0
  0
LINE
  5
12E
330
1F
100
AcDbEntity
  8
0
  6
Continuous
 62
     7
370
    25
100
AcDbLine
 10
6.0848407501
 20
14.1517653659
 30
0.0
 11
5.9208407501
 21
14.1517653659
 31
0.0
  0
LINE
  5
12F
330
1F
100
AcDbEntity
  8
0
  6
Continuous
 62
     7
370
    25
100
AcDbLine
 10
6.0662407501
 20
14.1345142262
 30
0.0
 11
5.9394407501
 21
14.1345142262
 31
0.0
  0
LINE
  5
130
330
1F
100
AcDbEntity
  8
0
  6
Continuous
 62
     7
370
    25
100
AcDbLine
 10
6.0662407501
 20
14.1042392262
 30
0.0
 11
5.9394407501
 21
14.1042392262
 31
0.0
  0
LINE
  5
131
330
1F
100
AcDbEntity
  8
0
  6
Continuous
 62
     7
370
    25
100
AcDbLine
 10
6.0848407501
 20
14.0912153659
 30
0.0
 11
5.9208407501
 21
14.0912153659
 31
0.0
  0
LINE
  5
132
330
1F
100
AcDbEntity
  8
0
  6
Continuous
 62
     7
370
    25
100
AcDbLine
 10
6.0848407501
 20
14.1214903659
 30
0.0
 11
5.9208407501
 21
14.1214903659
 31
0.0
  0
LINE
  5
133
330
1F
100
AcDbEntity
  8
0
  6
Continuous
 62
     7
370
    25
100
AcDbLine
 10
6.0848407501
 20
14.1172630864
 30
0.0
 11
5.9208407501
 21
14.1172630864
 31
0.0
  0
LINE
  5
134
330
1F
100
AcDbEntity
  8
0
  6
Continuous
 62
     7
370
    25
100
AcDbLine
 10
6.0662407501
 20
14.0739642262
 30
0.0
 11
5.9394407501
 21
14.0739642262
 31
0.0
  0
LINE
  5
135
330
1F
100
AcDbEntity
  8
0
  6
Continuous
 62
     7
370
    25
100
AcDbLine
 10
6.0848407501
 20
14.0609403659
 30
0.0
 11
5.9208407501
 21
14.0609403659
 31
0.0
  0
LINE
  5
136
330
1F
100
AcDbEntity
  8
0
  6
Continuous
 62
     7
370
    25
100
AcDbLine
 10
6.0848407501
 20
14.0869880864
 30
0.0
 11
5.9208407501
 21
14.0869880864
 31
0.0
  0
LINE
  5
137
330
1F
100
AcDbEntity
  8
0
  6
Continuous
 62
     7
370
    25
100
AcDbLine
 10
6.0848407501
 20
14.0567130864
 30
0.0
 11
5.9208407501
 21
14.0567130864
 31
0.0
  0
LINE
  5
138
330
1F
100
AcDbEntity
  8
0
  6
Continuous
 62
     7
370
    25
100
AcDbLine
 10
6.0848407501
 20
14.0264380864
 30
0.0
 11
5.9208407501
 21
14.0264380864
 31
0.0
  0
LINE
  5
139
330
1F
100
AcDbEntity
  8
0
  6
Continuous
 62
     7
370
    25
100
AcDbLine
 10
6.0848407501
 20
14.0306653659
 30
0.0
 11
5.9208407501
 21
14.0306653659
 31
0.0
  0
LINE
  5
13A
330
1F
100
AcDbEntity
  8
0
  6
Continuous
 62
     7
370
    25
100
AcDbLine
 10
6.0662407501
 20
14.0134142262
 30
0.0
 11
5.9394407501
 21
14.0134142262
 31
0.0
  0
LINE
  5
13B
330
1F
100
AcDbEntity
  8
0
  6
Continuous
 62
     7
370
    25
100
AcDbLine
 10
6.0662407501
 20
14.0436892262
 30
0.0
 11
5.9394407501
 21
14.0436892262
 31
0.0
  0
LINE
  5
13C
330
1F
100
AcDbEntity
  8
0
  6
Continuous
 62
     7
370
    25
100
AcDbLine
 10
6.0662407501
 20
13.9831392262
 30
0.0
 11
5.9394407501
 21
13.9831392262
 31
0.0
  0
LINE
  5
13D
330
1F
100
AcDbEntity
  8
0
  6
Continuous
 62
     7
370
    25
100
AcDbLine
 10
6.0848407501
 20
13.9701153659
 30
0.0
 11
5.9208407501
 21
13.9701153659
 31
0.0
  0
LINE
  5
13E
330
1F
100
AcDbEntity
  8
0
  6
Continuous
 62
     7
370
    25
100
AcDbLine
 10
6.0848407501
 20
14.0003903659
 30
0.0
 11
5.9208407501
 21
14.0003903659
 31
0.0
  0
LINE
  5
13F
330
1F
100
AcDbEntity
  8
0
  6
Continuous
 62
     7
370
    25
100
AcDbLine
 10
6.0848407501
 20
13.9961630864
 30
0.0
 11
5.9208407501
 21
13.9961630864
 31
0.0
  0
LINE
  5
140
330
1F
100
AcDbEntity
  8
0
  6
Continuous
 62
     7
370
    25
100
AcDbLine
 10
6.0848407501
 20
13.9658880864
 30
0.0
 11
5.9208407501
 21
13.9658880864
 31
0.0
  0
LINE
  5
141
330
1F
100
AcDbEntity
  8
0
  6
Continuous
 62
     7
370
    25
100
AcDbLine
 10
5.9216341004
 20
14.5708325765
 30
0.0
 11
6.0840473998
 21
14.5708325765
 31
0.0
  0
LINE
  5
142
330
1F
100
AcDbEntity
  8
0
  6
Continuous
 62
     7
370
    25
100
AcDbLine
 10
5.9927244596
 20
14.5886392262
 30
0.0
 11
5.9394407501
 21
14.5886392262
 31
0.0
  0
LINE
  5
143
330
1F
100
AcDbEntity
  8
0
  6
Continuous
 62
     7
370
    25
100
AcDbLine
 10
6.0662407501
 20
14.5886392262
 30
0.0
 11
5.9927244596
 21
14.5886392262
 31
0.0
  0
SPLINE
  5
144
330
1F
100
AcDbEntity
  8
0
  6
Continuous
 62
     7
370
    25
100
AcDbSpline
210
0.0
220
0.0
230
1.0
 70
     8
 71
     3
 72
     9
 73
     5
 74
     0
 42
0.00000001
 43
0.00000001
 40
0.0
 40
0.0
 40
0.0
 40
0.0
 40
0.4954579634770151
 40
1.0
 40
1.0
 40
1.0
 40
1.0
 10
5.714165615500624
 20
14.08398102741487
 30
0.0
 10
5.690724560028603
 20
14.09646290532
 30
0.0
 10
5.643412664368443
 20
14.12165551261514
 30
0.0
 10
5.594504349160924
 20
14.12629726629747
 30
0.0
 10
5.569828048203214
 20
14.12863922615339
 30
0.0
  0
SPLINE
  5
145
330
1F
100
AcDbEntity
  8
0
  6
Continuous
 62
     7
370
    25
100
AcDbSpline
210
0.0
220
0.0
230
1.0
 70
     8
 71
     3
 72
    10
 73
     6
 74
     0
 42
0.00000001
 43
0.00000001
 40
0.0
 40
0.0
 40
0.0
 40
0.0
 40
0.0084723648609595
 40
0.5017554823837633
 40
1.0
 40
1.0
 40
1.0
 40
1.0
 10
5.926110394827301
 20
14.12518021090762
 30
0.0
 10
5.925500468379644
 20
14.12515316248296
 30
0.0
 10
5.889379037824543
 20
14.12355128442616
 30
0.0
 10
5.81799030113912
 20
14.1110090798373
 30
0.0
 10
5.7488891001066
 20
14.09302038213527
 30
0.0
 10
5.714165615500624
 20
14.08398102741487
 30
0.0
  0
LINE
  5
146
330
1F
100
AcDbEntity
  8
0
  6
Continuous
 62
     7
370
    25
100
AcDbLine
 10
5.5698280482
 20
14.1286392262
 30
0.0
 11
5.9310503806
 21
14.1286392262
 31
0.0
  0
SPLINE
  5
147
330
1F
100
AcDbEntity
  8
0
  6
Continuous
 62
     7
370
    25
100
AcDbSpline
210
0.0
220
0.0
230
1.0
 70
     8
 71
     3
 72
    10
 73
     6
 74
     0
 42
0.00000001
 43
0.00000001
 40
0.0
 40
0.0
 40
0.0
 40
0.0
 40
0.0700999696413411
 40
0.5307895628006368
 40
1.0
 40
1.0
 40
1.0
 40
1.0
 10
6.435853451987659
 20
14.12863922615339
 30
0.0
 10
6.432431701126004
 20
14.12858588871132
 30
0.0
 10
6.406522565171112
 20
14.12818202323605
 30
0.0
 10
6.357672683811556
 20
14.11842822806112
 30
0.0
 10
6.313702453484632
 20
14.095533357592
 30
0.0
 10
6.291515884690247
 20
14.08398102741486
 30
0.0
  0
SPLINE
  5
148
330
1F
100
AcDbEntity
  8
0
  6
Continuous
 62
     7
370
    25
100
AcDbSpline
210
0.0
220
0.0
230
1.0
 70
     8
 71
     3
 72
    10
 73
     6
 74
     0
 42
0.00000001
 43
0.00000001
 40
0.0
 40
0.0
 40
0.0
 40
0.0
 40
0.3521528817434537
 40
0.8574820589068106
 40
1.0
 40
1.0
 40
1.0
 40
1.0
 10
6.291515884690247
 20
14.08398102741486
 30
0.0
 10
6.267266605596381
 20
14.090481789646
 30
0.0
 10
6.208220313936154
 20
14.106310957236
 30
0.0
 10
6.137980438725416
 20
14.12085023358979
 30
0.0
 10
6.091805158850114
 20
14.1232078667284
 30
0.0
 10
6.081647197763647
 20
14.12372651535907
 30
0.0
  0
LINE
  5
149
330
1F
100
AcDbEntity
  8
0
  6
Continuous
 62
     7
370
    25
100
AcDbLine
 10
6.0746311196
 20
14.1286392262
 30
0.0
 11
6.435853452
 21
14.1286392262
 31
0.0
  0
LINE
  5
14A
330
1F
100
AcDbEntity
  8
0
  6
Continuous
 62
     7
370
    25
100
AcDbLine
 10
5.4254904809
 20
13.9636392262
 30
0.0
 11
5.4254904809
 21
14.0839810274
 31
0.0
  0
SPLINE
  5
14B
330
1F
100
AcDbEntity
  8
0
  6
Continuous
 62
     7
370
    25
100
AcDbSpline
210
0.0
220
0.0
230
1.0
 70
     8
 71
     3
 72
    12
 73
     8
 74
     0
 42
0.00000001
 43
0.00000001
 40
0.0
 40
0.0
 40
0.0
 40
0.0
 40
0.0700655556417738
 40
0.2998201903852257
 40
0.5308364128612342
 40
0.7650281542767253
 40
1.0
 40
1.0
 40
1.0
 40
1.0
 10
5.569828048203214
 20
14.12863922615339
 30
0.0
 10
5.566405968235353
 20
14.12858863606434
 30
0.0
 10
5.551762415378605
 20
14.12837215408556
 30
0.0
 10
5.525856544692792
 20
14.12502251610026
 30
0.0
 10
5.492209028166601
 20
14.11577622251057
 30
0.0
 10
5.458662478836631
 20
14.10218637897153
 30
0.0
 10
5.436560063852999
 20
14.09005620110685
 30
0.0
 10
5.425490480905784
 20
14.08398102741487
 30
0.0
  0
LINE
  5
14C
330
1F
100
AcDbEntity
  8
0
  6
Continuous
 62
     7
370
    25
100
AcDbLine
 10
5.7141656155
 20
13.9636392262
 30
0.0
 11
5.7141656155
 21
14.0839810274
 31
0.0
  0
LINE
  5
14D
330
1F
100
AcDbEntity
  8
0
  6
Continuous
 62
     7
370
    25
100
AcDbLine
 10
6.2915158847
 20
13.9636392262
 30
0.0
 11
6.2915158847
 21
14.0839810274
 31
0.0
  0
SPLINE
  5
14E
330
1F
100
AcDbEntity
  8
0
  6
Continuous
 62
     7
370
    25
100
AcDbSpline
210
0.0
220
0.0
230
1.0
 70
     8
 71
     3
 72
    11
 73
     7
 74
     0
 42
0.00000001
 43
0.00000001
 40
0.0
 40
0.0
 40
0.0
 40
0.0
 40
0.2472686137512712
 40
0.4953625653849207
 40
0.746874005119834
 40
1.0
 40
1.0
 40
1.0
 40
1.0
 10
6.580191019285048
 20
14.08398102741487
 30
0.0
 10
6.568540125147871
 20
14.09036463424904
 30
0.0
 10
6.545199448297448
 20
14.10315315524169
 30
0.0
 10
6.509377620213781
 20
14.11718689767018
 30
0.0
 10
6.472874262721059
 20
14.12680437719878
 30
0.0
 10
6.448220015460383
 20
14.12802630667349
 30
0.0
 10
6.435853451987659
 20
14.12863922615339
 30
0.0
  0
LINE
  5
14F
330
1F
100
AcDbEntity
  8
0
  6
Continuous
 62
     7
370
    25
100
AcDbLine
 10
6.5801910193
 20
13.9636392262
 30
0.0
 11
6.5801910193
 21
14.0839810274
 31
0.0
  0
LINE
  5
150
330
1F
100
AcDbEntity
  8
0
  6
Continuous
 62
     7
370
    25
100
AcDbLine
 10
5.5028407501
 20
14.1286392262
 30
0.0
 11
5.5698280482
 21
14.1286392262
 31
0.0
  0
LINE
  5
151
330
1F
100
AcDbEntity
  8
0
  6
Continuous
 62
     7
370
    25
100
AcDbLine
 10
6.435853452
 20
14.1286392262
 30
0.0
 11
6.5028407501
 21
14.1286392262
 31
0.0
  0
LINE
  5
152
330
1F
100
AcDbEntity
  8
0
  6
Continuous
 62
     7
370
    25
100
AcDbLine
 10
5.5078407501
 20
10.3966392262
 30
0.0
 11
6.4978407501
 21
9.4066392262
 31
0.0
  0
LINE
  5
153
330
1F
100
AcDbEntity
  8
0
  6
Continuous
 62
     7
370
    25
100
AcDbLine
 10
6.1378407501
 20
13.4636392262
 30
0.0
 11
6.4978407501
 21
13.4636392262
 31
0.0
  0
LINE
  5
154
330
1F
100
AcDbEntity
  8
0
  6
Continuous
 62
     7
370
    25
100
AcDbLine
 10
5.5078407501
 20
13.4636392262
 30
0.0
 11
5.8678407501
 21
13.4636392262
 31
0.0
  0
SPLINE
  5
155
330
1F
100
AcDbEntity
  8
0
  6
Continuous
 62
     7
370
    25
100
AcDbSpline
210
0.0
220
0.0
230
1.0
 70
     8
 71
     3
 72
    18
 73
    14
 74
     0
 42
0.00000001
 43
0.00000001
 40
0.0
 40
0.0
 40
0.0
 40
0.0
 40
0.0355944504161308
 40
0.1419066884880217
 40
0.2485683721684858
 40
0.3561073256851753
 40
0.4636986868441464
 40
0.5704132487147884
 40
0.6766958792371012
 40
0.7836583456014165
 40
0.8913555951098886
 40
0.9987016797717122
 40
1.0
 40
1.0
 40
1.0
 40
1.0
 10
5.507840750095435
 20
13.35663922615339
 30
0.0
 10
5.507852597577513
 20
13.35655248010027
 30
0.0
 10
5.50789983069753
 20
13.35620664402207
 30
0.0
 10
5.508603032199239
 20
13.3510904634048
 30
0.0
 10
5.510158654631226
 20
13.337842666195
 30
0.0
 10
5.511746956014855
 20
13.31895196163803
 30
0.0
 10
5.512651833525028
 20
13.2966180624266
 30
0.0
 10
5.51247260138059
 20
13.27345854998097
 30
0.0
 10
5.511302153795495
 20
13.25207536343164
 30
0.0
 10
5.509647701748412
 20
13.23472023033331
 30
0.0
 10
5.508223428253895
 20
13.22335164836181
 30
0.0
 10
5.507842162395385
 20
13.22064965610806
 30
0.0
 10
5.50784076677337
 20
13.22063934932135
 30
0.0
 10
5.507840750095435
 20
13.22063922615339
 30
0.0
  0
LINE
  5
156
330
1F
100
AcDbEntity
  8
0
  6
Continuous
 62
     7
370
    25
100
AcDbLine
 10
5.5078407501
 20
13.2252392262
 30
0.0
 11
5.5078407501
 21
13.3520392262
 31
0.0
  0
LINE
  5
157
330
1F
100
AcDbEntity
  8
0
  6
Continuous
 62
     7
370
    25
100
AcDbLine
 10
5.5983407501
 20
14.1588475597
 30
0.0
 11
5.9309551709
 21
14.1588475597
 31
0.0
  0
LINE
  5
158
330
1F
100
AcDbEntity
  8
0
  6
Continuous
 62
     7
370
    25
100
AcDbLine
 10
6.0747263293
 20
14.1588475597
 30
0.0
 11
6.4073407501
 21
14.1588475597
 31
0.0
  0
LINE
  5
159
330
1F
100
AcDbEntity
  8
0
  6
Continuous
 62
     7
370
    25
100
AcDbLine
 10
6.3778407501
 20
14.1836392262
 30
0.0
 11
6.0825573411
 21
14.1836392262
 31
0.0
  0
LINE
  5
15A
330
1F
100
AcDbEntity
  8
0
  6
Continuous
 62
     7
370
    25
100
AcDbLine
 10
5.9231241591
 20
14.1836392262
 30
0.0
 11
5.6278407501
 21
14.1836392262
 31
0.0
  0
LINE
  5
15B
330
1F
100
AcDbEntity
  8
0
  6
Continuous
 62
     7
370
    25
100
AcDbLine
 10
5.6278407501
 20
14.1340558932
 30
0.0
 11
5.9387861827
 21
14.1340558932
 31
0.0
  0
LINE
  5
15C
330
1F
100
AcDbEntity
  8
0
  6
Continuous
 62
     7
370
    25
100
AcDbLine
 10
6.0668953175
 20
14.1340558932
 30
0.0
 11
6.3778407501
 21
14.1340558932
 31
0.0
  0
LINE
  5
15D
330
1F
100
AcDbEntity
  8
0
  6
Continuous
 62
     7
370
    25
100
AcDbLine
 10
5.6578407501
 20
14.2136392262
 30
0.0
 11
5.9227314184
 21
14.2136392262
 31
0.0
  0
LINE
  5
15E
330
1F
100
AcDbEntity
  8
0
  6
Continuous
 62
     7
370
    25
100
AcDbLine
 10
6.0829500818
 20
14.2136392262
 30
0.0
 11
6.3478407501
 21
14.2136392262
 31
0.0
  0
LINE
  5
15F
330
1F
100
AcDbEntity
  8
0
  6
Continuous
 62
     7
370
    25
100
AcDbLine
 10
4.2528407501
 20
13.6386392262
 30
0.0
 11
7.7528407501
 21
13.6386392262
 31
0.0
  0
LINE
  5
160
330
1F
100
AcDbEntity
  8
0
  6
Continuous
 62
     7
370
    25
100
AcDbLine
 10
7.7528407501
 20
13.9636392262
 30
0.0
 11
4.2528407501
 21
13.9636392262
 31
0.0
  0
LINE
  5
161
330
1F
100
AcDbEntity
  8
0
  6
Continuous
 62
     7
370
    25
100
AcDbLine
 10
7.7028407501
 20
13.5886392262
 30
0.0
 11
4.3028407501
 21
13.5886392262
 31
0.0
  0
DIMENSION
  5
162
330
1F
100
AcDbEntity
  8
SLD-0
100
AcDbDimension
  2
_D
 10
2.8358725348
 20
13.9636392262
 30
0.0
 11
2.8358725348
 21
15.376040801
 31
0.0
 70
   160
  1
<>
 71
     2
 42
-1.0
  3
SLDDIMSTYLE0
100
AcDbAlignedDimension
 13
4.3028407501
 23
13.5886392262
 33
0.0
 14
4.2528407501
 24
13.9636392262
 34
0.0
 50
90.0
100
AcDbRotatedDimension
  0
DIMENSION
  5
179
330
1F
100
AcDbEntity
  8
SLD-0
100
AcDbDimension
  2
_D_1
 10
3.7094450107
 20
13.4636392262
 30
0.0
 11
3.7094450107
 21
12.3001646826
 31
0.0
 70
   160
  1
<>
 71
     2
 42
-1.0
  3
SLDDIMSTYLE0
100
AcDbAlignedDimension
 13
4.3028407501
 23
13.5886392262
 33
0.0
 14
5.5078407501
 24
13.4636392262
 34
0.0
 50
90.0
100
AcDbRotatedDimension
  0
DIMENSION
  5
18E
330
1F
100
AcDbEntity
  8
SLD-0
100
AcDbDimension
  2
_D_2
 10
8.2571272727
 20
9.4066392262
 30
0.0
 11
8.2571272727
 21
11.4976392262
 31
0.0
 70
   160
  1
<>
 71
     2
 42
-1.0
  3
SLDDIMSTYLE1
100
AcDbAlignedDimension
 13
7.7028407501
 23
13.5886392262
 33
0.0
 14
6.4978407501
 24
9.4066392262
 34
0.0
 50
90.0
100
AcDbRotatedDimension
  0
DIMENSION
  5
1A3
330
1F
100
AcDbEntity
  8
SLD-0
100
AcDbDimension
  2
_D_3
 10
6.4978407501
 20
8.7455036324
 30
0.0
 11
8.1074327003
 21
8.7455036324
 31
0.0
 70
   160
  1
%%c<>
 71
     2
 42
-1.0
  3
SLDDIMSTYLE2
100
AcDbAlignedDimension
 13
5.5078407501
 23
10.3966392262
 33
0.0
 14
6.4978407501
 24
9.4066392262
 34
0.0
100
AcDbRotatedDimension
  0
LINE
  5
1B7
330
1F
100
AcDbEntity
  8
0
  6
Continuous
 62
     7
370
    25
100
AcDbLine
 10
18.5791238591
 20
13.8371748645
 30
0.0
 11
18.590439406
 21
13.830640415
 31
0.0
  0
LINE
  5
1B8
330
1F
100
AcDbEntity
  8
0
  6
Continuous
 62
     7
370
    25
100
AcDbLine
 10
18.7587581653
 20
13.830640415
 30
0.0
 11
18.7700737122
 21
13.8371748645
 31
0.0
  0
LINE
  5
1B9
330
1F
100
AcDbEntity
  8
0
  6
Continuous
 62
     7
370
    25
100
AcDbLine
 10
18.8095987857
 20
13.8922734563
 30
0.0
 11
18.8095987857
 21
14.0131214964
 31
0.0
  0
LINE
  5
1BA
330
1F
100
AcDbEntity
  8
0
  6
Continuous
 62
     7
370
    25
100
AcDbLine
 10
18.5395987857
 20
14.0131214964
 30
0.0
 11
18.5395987857
 21
13.8922734563
 31
0.0
  0
LINE
  5
1BB
330
1F
100
AcDbEntity
  8
0
  6
Continuous
 62
     7
370
    25
100
AcDbLine
 10
18.7565987857
 20
14.5683683178
 30
0.0
 11
18.7565987857
 21
14.5718200641
 31
0.0
  0
LINE
  5
1BC
330
1F
100
AcDbEntity
  8
0
  6
Continuous
 62
     7
370
    25
100
AcDbLine
 10
18.7565987857
 20
14.5930890909
 30
0.0
 11
18.7565987857
 21
14.5965408372
 31
0.0
  0
LINE
  5
1BD
330
1F
100
AcDbEntity
  8
0
  6
Continuous
 62
     7
370
    25
100
AcDbLine
 10
18.7565987857
 20
14.617809864
 30
0.0
 11
18.7565987857
 21
14.6212616103
 31
0.0
  0
LINE
  5
1BE
330
1F
100
AcDbEntity
  8
0
  6
Continuous
 62
     7
370
    25
100
AcDbLine
 10
18.7565987857
 20
14.6425306371
 30
0.0
 11
18.7565987857
 21
14.6459823834
 31
0.0
  0
LINE
  5
1BF
330
1F
100
AcDbEntity
  8
0
  6
Continuous
 62
     7
370
    25
100
AcDbLine
 10
18.5925987857
 20
14.6459823834
 30
0.0
 11
18.5925987857
 21
14.6425306371
 31
0.0
  0
LINE
  5
1C0
330
1F
100
AcDbEntity
  8
0
  6
Continuous
 62
     7
370
    25
100
AcDbLine
 10
18.7565987857
 20
14.6672514102
 30
0.0
 11
18.7565987857
 21
14.6707031565
 31
0.0
  0
LINE
  5
1C1
330
1F
100
AcDbEntity
  8
0
  6
Continuous
 62
     7
370
    25
100
AcDbLine
 10
18.5925987857
 20
14.6707031565
 30
0.0
 11
18.5925987857
 21
14.6672514102
 31
0.0
  0
LINE
  5
1C2
330
1F
100
AcDbEntity
  8
0
  6
Continuous
 62
     7
370
    25
100
AcDbLine
 10
18.7565987857
 20
14.6919721832
 30
0.0
 11
18.7565987857
 21
14.6954239295
 31
0.0
  0
LINE
  5
1C3
330
1F
100
AcDbEntity
  8
0
  6
Continuous
 62
     7
370
    25
100
AcDbLine
 10
18.5925987857
 20
14.6954239295
 30
0.0
 11
18.5925987857
 21
14.6919721832
 31
0.0
  0
LINE
  5
1C4
330
1F
100
AcDbEntity
  8
0
  6
Continuous
 62
     7
370
    25
100
AcDbLine
 10
18.7565987857
 20
14.7166929563
 30
0.0
 11
18.7565987857
 21
14.7201447026
 31
0.0
  0
LINE
  5
1C5
330
1F
100
AcDbEntity
  8
0
  6
Continuous
 62
     7
370
    25
100
AcDbLine
 10
18.5925987857
 20
14.7201447026
 30
0.0
 11
18.5925987857
 21
14.7166929563
 31
0.0
  0
LINE
  5
1C6
330
1F
100
AcDbEntity
  8
0
  6
Continuous
 62
     7
370
    25
100
AcDbLine
 10
18.7565987857
 20
14.7414137294
 30
0.0
 11
18.7565987857
 21
14.7448654757
 31
0.0
  0
LINE
  5
1C7
330
1F
100
AcDbEntity
  8
0
  6
Continuous
 62
     7
370
    25
100
AcDbLine
 10
18.5925987857
 20
14.7448654757
 30
0.0
 11
18.5925987857
 21
14.7414137294
 31
0.0
  0
LINE
  5
1C8
330
1F
100
AcDbEntity
  8
0
  6
Continuous
 62
     7
370
    25
100
AcDbLine
 10
18.7565987857
 20
14.7661345025
 30
0.0
 11
18.7565987857
 21
14.7695862488
 31
0.0
  0
LINE
  5
1C9
330
1F
100
AcDbEntity
  8
0
  6
Continuous
 62
     7
370
    25
100
AcDbLine
 10
18.5925987857
 20
14.7695862488
 30
0.0
 11
18.5925987857
 21
14.7661345025
 31
0.0
  0
LINE
  5
1CA
330
1F
100
AcDbEntity
  8
0
  6
Continuous
 62
     7
370
    25
100
AcDbLine
 10
18.7565987857
 20
14.7908552756
 30
0.0
 11
18.7565987857
 21
14.7943070219
 31
0.0
  0
LINE
  5
1CB
330
1F
100
AcDbEntity
  8
0
  6
Continuous
 62
     7
370
    25
100
AcDbLine
 10
18.5925987857
 20
14.7943070219
 30
0.0
 11
18.5925987857
 21
14.7908552756
 31
0.0
  0
LINE
  5
1CC
330
1F
100
AcDbEntity
  8
0
  6
Continuous
 62
     7
370
    25
100
AcDbLine
 10
18.7320298887
 20
14.8482659487
 30
0.0
 11
18.71943664
 21
14.8555382396
 31
0.0
  0
LINE
  5
1CD
330
1F
100
AcDbEntity
  8
0
  6
Continuous
 62
     7
370
    25
100
AcDbLine
 10
18.6297609313
 20
14.8555382396
 30
0.0
 11
18.6171676826
 21
14.8482659487
 31
0.0
  0
LINE
  5
1CE
330
1F
100
AcDbEntity
  8
0
  6
Continuous
 62
     7
370
    25
100
AcDbLine
 10
16.6345802109
 20
12.7146137108
 30
0.0
 11
16.6458957577
 21
12.7080792613
 31
0.0
  0
LINE
  5
1CF
330
1F
100
AcDbEntity
  8
0
  6
Continuous
 62
     7
370
    25
100
AcDbLine
 10
16.8142145171
 20
12.7080792613
 30
0.0
 11
16.8255300639
 21
12.7146137108
 31
0.0
  0
LINE
  5
1D0
330
1F
100
AcDbEntity
  8
0
  6
Continuous
 62
     7
370
    25
100
AcDbLine
 10
16.8650551374
 20
12.7697123025
 30
0.0
 11
16.8650551374
 21
12.8905603427
 31
0.0
  0
LINE
  5
1D1
330
1F
100
AcDbEntity
  8
0
  6
Continuous
 62
     7
370
    25
100
AcDbLine
 10
16.5950551374
 20
12.8905603427
 30
0.0
 11
16.5950551374
 21
12.7697123025
 31
0.0
  0
LINE
  5
1D2
330
1F
100
AcDbEntity
  8
0
  6
Continuous
 62
     7
370
    25
100
AcDbLine
 10
17.2073269615
 20
13.3497733181
 30
0.0
 11
17.2073269615
 21
10.1554510813
 31
0.0
  0
LINE
  5
1D3
330
1F
100
AcDbEntity
  8
0
  6
Continuous
 62
     7
370
    25
100
AcDbLine
 10
18.1973269615
 20
10.727058811
 30
0.0
 11
18.1973269615
 21
13.3497733181
 31
0.0
  0
LINE
  5
1D4
330
1F
100
AcDbEntity
  8
0
  6
Continuous
 62
     7
370
    25
100
AcDbLine
 10
18.1973269615
 20
13.3497733181
 30
0.0
 11
18.1973269615
 21
13.4518409196
 31
0.0
  0
LINE
  5
1D5
330
1F
100
AcDbEntity
  8
0
  6
Continuous
 62
     7
370
    25
100
AcDbLine
 10
17.2073269615
 20
13.4518409196
 30
0.0
 11
17.2073269615
 21
13.3497733181
 31
0.0
  0
LINE
  5
1D6
330
1F
100
AcDbEntity
  8
0
  6
Continuous
 62
     7
370
    25
100
AcDbLine
 10
16.4646890252
 20
12.778426956
 30
0.0
 11
16.5000501091
 21
12.7580068012
 31
0.0
  0
LINE
  5
1D7
330
1F
100
AcDbEntity
  8
0
  6
Continuous
 62
     7
370
    25
100
AcDbLine
 10
18.904603814
 20
12.7580068012
 30
0.0
 11
18.9399648979
 21
12.778426956
 31
0.0
  0
LINE
  5
1D8
330
1F
100
AcDbEntity
  8
0
  6
Continuous
 62
     7
370
    25
100
AcDbLine
 10
15.9523269615
 20
13.758043724
 30
0.0
 11
15.9523269615
 21
13.4926679602
 31
0.0
  0
LINE
  5
1D9
330
1F
100
AcDbEntity
  8
0
  6
Continuous
 62
     7
370
    25
100
AcDbLine
 10
19.4523269615
 20
13.4926679602
 30
0.0
 11
19.4523269615
 21
13.758043724
 31
0.0
  0
LWPOLYLINE
  5
1DA
330
1F
100
AcDbEntity
  8
0
  6
Continuous
 62
     7
370
    25
100
AcDbPolyline
 90
       22
 70
   128
 43
0.0
 10
18.5762019779
 20
13.8405733376
 10
18.6003002099
 20
13.8255467457
 10
18.6310001965
 20
13.8152882632
 10
18.6655741091
 20
13.8107094012
 10
18.7009499038
 20
13.8122170116
 10
18.7339842859
 20
13.8196771367
 10
18.7617420058
 20
13.8324269117
 10
18.7817566682
 20
13.849333463
 10
18.7922498824
 20
13.8688945694
 10
18.7922892804
 20
13.8893721408
 10
18.7818713614
 20
13.908946655
 10
18.7619218034
 20
13.9258788306
 10
18.734213212
 20
13.9386641694
 10
18.7012076172
 20
13.9461666381
 10
18.6658377109
 20
13.9477196093
 10
18.6312462646
 20
13.9431850947
 10
18.6005068801
 20
13.9329660059
 10
18.5763508865
 20
13.9179703537
 10
18.5609246499
 20
13.8995305677
 10
18.5555988591
 20
13.8792851037
 10
18.560846734
 20
13.8590328601
 10
18.5762019779
 20
13.8405733376
  0
LINE
  5
1DB
330
1F
100
AcDbEntity
  8
0
  6
Continuous
 62
     7
370
    25
100
AcDbLine
 10
18.562972155
 20
13.8484433061
 30
0.0
 11
18.5791238591
 21
13.8371748645
 31
0.0
  0
LWPOLYLINE
  5
1DC
330
1F
100
AcDbEntity
  8
0
  6
Continuous
 62
     7
370
    25
100
AcDbPolyline
 90
       18
 70
   128
 43
0.0
 10
18.7700737122
 20
13.8371748645
 10
18.7900333124
 20
13.8518638523
 10
18.8050784204
 20
13.8722750824
 10
18.8095528444
 20
13.8943064619
 10
18.8030940932
 20
13.9161731393
 10
18.7862254164
 20
13.9361036065
 10
18.7603134138
 20
13.9524832156
 10
18.7274573217
 20
13.9639849881
 10
18.6903189455
 20
13.9696771188
 10
18.6519070154
 20
13.9690984651
 10
18.6153334376
 20
13.962295906
 10
18.5835611858
 20
13.9498205446
 10
18.5591642589
 20
13.9326830602
 10
18.5441191509
 20
13.9122718301
 10
18.5396447269
 20
13.8902404507
 10
18.5461034781
 20
13.8683737733
 10
18.562972155
 20
13.8484433061
 10
18.562972155
 20
13.8484433061
  0
LWPOLYLINE
  5
1DD
330
1F
100
AcDbEntity
  8
0
  6
Continuous
 62
     7
370
    25
100
AcDbPolyline
 90
       13
 70
   128
 43
0.0
 10
18.8095987857
 20
14.0131214964
 10
18.8095528444
 20
14.015154502
 10
18.8030940932
 20
14.0370211794
 10
18.7862254164
 20
14.0569516466
 10
18.7603134138
 20
14.0733312558
 10
18.7274573217
 20
14.0848330283
 10
18.6903189455
 20
14.0905251589
 10
18.6519070154
 20
14.0899465052
 10
18.6153334376
 20
14.0831439462
 10
18.5835611858
 20
14.0706685847
 10
18.5591642589
 20
14.0535311004
 10
18.5441191509
 20
14.0331198703
 10
18.5395987857
 20
14.0131214964
  0
LINE
  5
1DE
330
1F
100
AcDbEntity
  8
0
  6
Continuous
 62
     7
370
    25
100
AcDbLine
 10
18.7200572003
 20
13.8406260008
 30
0.0
 11
18.7552084681
 21
13.8826441466
 31
0.0
  0
LINE
  5
1DF
330
1F
100
AcDbEntity
  8
0
  6
Continuous
 62
     7
370
    25
100
AcDbLine
 10
18.7552084681
 20
13.8826441466
 30
0.0
 11
18.7097500535
 21
13.9212269491
 31
0.0
  0
LINE
  5
1E0
330
1F
100
AcDbEntity
  8
0
  6
Continuous
 62
     7
370
    25
100
AcDbLine
 10
18.6291403711
 20
13.9177916058
 30
0.0
 11
18.7097500535
 21
13.9212269491
 31
0.0
  0
LINE
  5
1E1
330
1F
100
AcDbEntity
  8
0
  6
Continuous
 62
     7
370
    25
100
AcDbLine
 10
18.5939891032
 20
13.87577346
 30
0.0
 11
18.6291403711
 21
13.9177916058
 31
0.0
  0
LINE
  5
1E2
330
1F
100
AcDbEntity
  8
0
  6
Continuous
 62
     7
370
    25
100
AcDbLine
 10
18.5939891032
 20
13.87577346
 30
0.0
 11
18.6394475178
 21
13.8371906575
 31
0.0
  0
LINE
  5
1E3
330
1F
100
AcDbEntity
  8
0
  6
Continuous
 62
     7
370
    25
100
AcDbLine
 10
18.7200572003
 20
13.8406260008
 30
0.0
 11
18.6394475178
 21
13.8371906575
 31
0.0
  0
ARC
  5
1E4
330
1F
100
AcDbEntity
  8
0
  6
Continuous
 62
     7
370
    25
100
AcDbCircle
 10
18.6770914323
 20
14.0024515453
 30
0.0
 40
0.1007047346955175
100
AcDbArc
 50
271.5141057401
 51
295.781122434
  0
ARC
  5
1E5
330
1F
100
AcDbEntity
  8
0
  6
Continuous
 62
     7
370
    25
100
AcDbCircle
 10
18.6734257565
 20
14.0056369305
 30
0.0
 40
0.1040474813014578
100
AcDbArc
 50
242.5168918084
 51
273.4860177012
  0
LINE
  5
1E6
330
1F
100
AcDbEntity
  8
0
  6
Continuous
 62
     7
370
    25
100
AcDbLine
 10
18.7200572003
 20
13.9034996433
 30
0.0
 11
18.7200572003
 21
13.8406260008
 31
0.0
  0
LINE
  5
1E7
330
1F
100
AcDbEntity
  8
0
  6
Continuous
 62
     7
370
    25
100
AcDbLine
 10
18.7200572003
 20
13.9034996433
 30
0.0
 11
18.7244498982
 21
13.9087504646
 31
0.0
  0
LINE
  5
1E8
330
1F
100
AcDbEntity
  8
0
  6
Continuous
 62
     7
370
    25
100
AcDbLine
 10
18.6247476731
 20
13.9125407845
 30
0.0
 11
18.6394475178
 21
13.9000643
 31
0.0
  0
LINE
  5
1E9
330
1F
100
AcDbEntity
  8
0
  6
Continuous
 62
     7
370
    25
100
AcDbLine
 10
18.6394475178
 20
13.9000643
 30
0.0
 11
18.6394475178
 21
13.8371906575
 31
0.0
  0
LINE
  5
1EA
330
1F
100
AcDbEntity
  8
0
  6
Continuous
 62
     7
370
    25
100
AcDbLine
 10
18.679752359
 20
13.9017819717
 30
0.0
 11
18.6394475178
 21
13.9000643
 31
0.0
  0
LINE
  5
1EB
330
1F
100
AcDbEntity
  8
0
  6
Continuous
 62
     7
370
    25
100
AcDbLine
 10
18.7200572003
 20
13.9034996433
 30
0.0
 11
18.679752359
 21
13.9017819717
 31
0.0
  0
ARC
  5
1EC
330
1F
100
AcDbEntity
  8
0
  6
Continuous
 62
     7
370
    25
100
AcDbCircle
 10
18.6856508514
 20
14.4978086154
 30
0.0
 40
0.0920682163427175
100
AcDbArc
 50
52.4103200924
 51
82.7625202767
  0
ARC
  5
1ED
330
1F
100
AcDbEntity
  8
0
  6
Continuous
 62
     7
370
    25
100
AcDbCircle
 10
18.6820926874
 20
14.4973924774
 30
0.0
 40
0.0967152084665168
100
AcDbArc
 50
46.9451220787
 51
88.4045258341
  0
LWPOLYLINE
  5
1EE
330
1F
100
AcDbEntity
  8
0
  6
Continuous
 62
     7
370
    25
100
AcDbPolyline
 90
        8
 70
   128
 43
0.0
 10
18.7563259473
 20
14.5645099341
 10
18.7564983031
 20
14.5660255644
 10
18.752433805
 20
14.5832631214
 10
18.7378572562
 20
14.5984890526
 10
18.7147373005
 20
14.6096470117
 10
18.6861964159
 20
14.6152300545
 10
18.6560892071
 20
14.61448416
 10
18.6396103929
 20
14.6111803901
  0
LWPOLYLINE
  5
1EF
330
1F
100
AcDbEntity
  8
0
  6
Continuous
 62
     7
370
    25
100
AcDbPolyline
 90
        7
 70
   128
 43
0.0
 10
18.7565987857
 20
14.5718200641
 10
18.752433805
 20
14.5867148677
 10
18.7378572562
 20
14.6019407989
 10
18.7147373005
 20
14.613098758
 10
18.6861964159
 20
14.6186818008
 10
18.6560892071
 20
14.6179359063
 10
18.6344021107
 20
14.6130798929
  0
LINE
  5
1F0
330
1F
100
AcDbEntity
  8
0
  6
Continuous
 62
     7
370
    25
100
AcDbLine
 10
18.6284818195
 20
14.6322308387
 30
0.0
 11
18.6095781656
 21
14.6219322185
 31
0.0
  0
LWPOLYLINE
  5
1F1
330
1F
100
AcDbEntity
  8
0
  6
Continuous
 62
     7
370
    25
100
AcDbPolyline
 90
        8
 70
   128
 43
0.0
 10
18.7545027771
 20
14.5824545775
 10
18.7564983031
 20
14.5907463375
 10
18.752433805
 20
14.6079838944
 10
18.7378572562
 20
14.6232098257
 10
18.7147373005
 20
14.6343677848
 10
18.6861964159
 20
14.6399508275
 10
18.6560892071
 20
14.6392049331
 10
18.6284818195
 20
14.6322308387
  0
LWPOLYLINE
  5
1F2
330
1F
100
AcDbEntity
  8
0
  6
Continuous
 62
     7
370
    25
100
AcDbPolyline
 90
        3
 70
   128
 43
0.0
 10
18.6284818195
 20
14.635682585
 10
18.6071027837
 20
14.6234221806
 10
18.6065798269
 20
14.6229792358
  0
LWPOLYLINE
  5
1F3
330
1F
100
AcDbEntity
  8
0
  6
Continuous
 62
     7
370
    25
100
AcDbPolyline
 90
        7
 70
   128
 43
0.0
 10
18.7565987857
 20
14.5965408372
 10
18.752433805
 20
14.6114356407
 10
18.7378572562
 20
14.626661572
 10
18.7147373005
 20
14.6378195311
 10
18.6861964159
 20
14.6434025738
 10
18.6560892071
 20
14.6426566794
 10
18.6284818195
 20
14.635682585
  0
ARC
  5
1F4
330
1F
100
AcDbEntity
  8
0
  6
Continuous
 62
     7
370
    25
100
AcDbCircle
 10
18.6415449258
 20
14.6073134675
 30
0.0
 40
0.0513282584369805
100
AcDbArc
 50
104.7440343623
 51
157.1585936032
  0
LWPOLYLINE
  5
1F5
330
1F
100
AcDbEntity
  8
0
  6
Continuous
 62
     7
370
    25
100
AcDbPolyline
 90
        8
 70
   128
 43
0.0
 10
18.7545027771
 20
14.6071753506
 10
18.7564983031
 20
14.6154671105
 10
18.752433805
 20
14.6327046675
 10
18.7378572562
 20
14.6479305988
 10
18.7147373005
 20
14.6590885579
 10
18.6861964159
 20
14.6646716006
 10
18.6560892071
 20
14.6639257062
 10
18.6284818195
 20
14.6569516117
  0
ARC
  5
1F6
330
1F
100
AcDbEntity
  8
0
  6
Continuous
 62
     7
370
    25
100
AcDbCircle
 10
18.6404889219
 20
14.6123174304
 30
0.0
 40
0.0495623541001516
100
AcDbArc
 50
104.0201166027
 51
162.0995119875
  0
LWPOLYLINE
  5
1F7
330
1F
100
AcDbEntity
  8
0
  6
Continuous
 62
     7
370
    25
100
AcDbPolyline
 90
        7
 70
   128
 43
0.0
 10
18.7565987857
 20
14.6212616103
 10
18.752433805
 20
14.6361564138
 10
18.7378572562
 20
14.6513823451
 10
18.7147373005
 20
14.6625403042
 10
18.6861964159
 20
14.6681233469
 10
18.6560892071
 20
14.6673774525
 10
18.6284818195
 20
14.660403358
  0
LWPOLYLINE
  5
1F8
330
1F
100
AcDbEntity
  8
0
  6
Continuous
 62
     7
370
    25
100
AcDbPolyline
 90
        5
 70
   128
 43
0.0
 10
18.6284818195
 20
14.6816723848
 10
18.6071027837
 20
14.6694119804
 10
18.5948394569
 20
14.6535211017
 10
18.5933480695
 20
14.6361458998
 10
18.5946947943
 20
14.6318961237
  0
LWPOLYLINE
  5
1F9
330
1F
100
AcDbEntity
  8
0
  6
Continuous
 62
     7
370
    25
100
AcDbPolyline
 90
        8
 70
   128
 43
0.0
 10
18.7545027771
 20
14.6318961237
 10
18.7564983031
 20
14.6401878836
 10
18.752433805
 20
14.6574254406
 10
18.7378572562
 20
14.6726513718
 10
18.7147373005
 20
14.6838093309
 10
18.6861964159
 20
14.6893923737
 10
18.6560892071
 20
14.6886464793
 10
18.6284818195
 20
14.6816723848
  0
ARC
  5
1FA
330
1F
100
AcDbEntity
  8
0
  6
Continuous
 62
     7
370
    25
100
AcDbCircle
 10
18.6385897845
 20
14.6398390118
 30
0.0
 40
0.0463994933838383
100
AcDbArc
 50
102.5825761624
 51
172.3916007916
  0
LWPOLYLINE
  5
1FB
330
1F
100
AcDbEntity
  8
0
  6
Continuous
 62
     7
370
    25
100
AcDbPolyline
 90
        7
 70
   128
 43
0.0
 10
18.7565987857
 20
14.6459823834
 10
18.752433805
 20
14.6608771869
 10
18.7378572562
 20
14.6761031181
 10
18.7147373005
 20
14.6872610772
 10
18.6861964159
 20
14.69284412
 10
18.6560892071
 20
14.6920982256
 10
18.6284818195
 20
14.6851241311
  0
LWPOLYLINE
  5
1FC
330
1F
100
AcDbEntity
  8
0
  6
Continuous
 62
     7
370
    25
100
AcDbPolyline
 90
        5
 70
   128
 43
0.0
 10
18.6284818195
 20
14.7063931579
 10
18.6071027837
 20
14.6941327535
 10
18.5948394569
 20
14.6782418748
 10
18.5933480695
 20
14.6608666729
 10
18.5946947943
 20
14.6566168968
  0
LWPOLYLINE
  5
1FD
330
1F
100
AcDbEntity
  8
0
  6
Continuous
 62
     7
370
    25
100
AcDbPolyline
 90
        8
 70
   128
 43
0.0
 10
18.7545027771
 20
14.6566168968
 10
18.7564983031
 20
14.6649086567
 10
18.752433805
 20
14.6821462137
 10
18.7378572562
 20
14.6973721449
 10
18.7147373005
 20
14.708530104
 10
18.6861964159
 20
14.7141131468
 10
18.6560892071
 20
14.7133672524
 10
18.6284818195
 20
14.7063931579
  0
ARC
  5
1FE
330
1F
100
AcDbEntity
  8
0
  6
Continuous
 62
     7
370
    25
100
AcDbCircle
 10
18.6385897845
 20
14.6645597849
 30
0.0
 40
0.0463994933838375
100
AcDbArc
 50
102.5825761624
 51
172.3916007916
  0
LWPOLYLINE
  5
1FF
330
1F
100
AcDbEntity
  8
0
  6
Continuous
 62
     7
370
    25
100
AcDbPolyline
 90
        7
 70
   128
 43
0.0
 10
18.7565987857
 20
14.6707031565
 10
18.752433805
 20
14.68559796
 10
18.7378572562
 20
14.7008238912
 10
18.7147373005
 20
14.7119818503
 10
18.6861964159
 20
14.7175648931
 10
18.6560892071
 20
14.7168189987
 10
18.6284818195
 20
14.7098449042
  0
LWPOLYLINE
  5
200
330
1F
100
AcDbEntity
  8
0
  6
Continuous
 62
     7
370
    25
100
AcDbPolyline
 90
        5
 70
   128
 43
0.0
 10
18.6284818195
 20
14.731113931
 10
18.6071027837
 20
14.7188535266
 10
18.5948394569
 20
14.7029626478
 10
18.5933480695
 20
14.6855874459
 10
18.5946947943
 20
14.6813376699
  0
LWPOLYLINE
  5
201
330
1F
100
AcDbEntity
  8
0
  6
Continuous
 62
     7
370
    25
100
AcDbPolyline
 90
        8
 70
   128
 43
0.0
 10
18.754502777
 20
14.6813376699
 10
18.7564983031
 20
14.6896294298
 10
18.752433805
 20
14.7068669868
 10
18.7378572562
 20
14.722092918
 10
18.7147373005
 20
14.7332508771
 10
18.6861964159
 20
14.7388339199
 10
18.6560892071
 20
14.7380880254
 10
18.6284818195
 20
14.731113931
  0
ARC
  5
202
330
1F
100
AcDbEntity
  8
0
  6
Continuous
 62
     7
370
    25
100
AcDbCircle
 10
18.6385897845
 20
14.689280558
 30
0.0
 40
0.0463994933838343
100
AcDbArc
 50
102.5825761624
 51
172.3916007916
  0
LWPOLYLINE
  5
203
330
1F
100
AcDbEntity
  8
0
  6
Continuous
 62
     7
370
    25
100
AcDbPolyline
 90
        7
 70
   128
 43
0.0
 10
18.7565987857
 20
14.6954239295
 10
18.752433805
 20
14.7103187331
 10
18.7378572562
 20
14.7255446643
 10
18.7147373005
 20
14.7367026234
 10
18.6861964159
 20
14.7422856662
 10
18.6560892071
 20
14.7415397717
 10
18.6284818195
 20
14.7345656773
  0
LWPOLYLINE
  5
204
330
1F
100
AcDbEntity
  8
0
  6
Continuous
 62
     7
370
    25
100
AcDbPolyline
 90
        5
 70
   128
 43
0.0
 10
18.6284818195
 20
14.7558347041
 10
18.6071027837
 20
14.7435742997
 10
18.5948394569
 20
14.7276834209
 10
18.5933480695
 20
14.710308219
 10
18.5946947943
 20
14.7060584429
  0
LWPOLYLINE
  5
205
330
1F
100
AcDbEntity
  8
0
  6
Continuous
 62
     7
370
    25
100
AcDbPolyline
 90
        8
 70
   128
 43
0.0
 10
18.7545027771
 20
14.7060584429
 10
18.7564983031
 20
14.7143502029
 10
18.752433805
 20
14.7315877598
 10
18.7378572562
 20
14.7468136911
 10
18.7147373005
 20
14.7579716502
 10
18.6861964159
 20
14.7635546929
 10
18.6560892071
 20
14.7628087985
 10
18.6284818195
 20
14.7558347041
  0
ARC
  5
206
330
1F
100
AcDbEntity
  8
0
  6
Continuous
 62
     7
370
    25
100
AcDbCircle
 10
18.6385897845
 20
14.7140013311
 30
0.0
 40
0.0463994933838401
100
AcDbArc
 50
102.5825761624
 51
172.3916007916
  0
LWPOLYLINE
  5
207
330
1F
100
AcDbEntity
  8
0
  6
Continuous
 62
     7
370
    25
100
AcDbPolyline
 90
        7
 70
   128
 43
0.0
 10
18.7565987857
 20
14.7201447026
 10
18.752433805
 20
14.7350395061
 10
18.7378572562
 20
14.7502654374
 10
18.7147373005
 20
14.7614233965
 10
18.6861964159
 20
14.7670064392
 10
18.6560892071
 20
14.7662605448
 10
18.6284818195
 20
14.7592864504
  0
LWPOLYLINE
  5
208
330
1F
100
AcDbEntity
  8
0
  6
Continuous
 62
     7
370
    25
100
AcDbPolyline
 90
        5
 70
   128
 43
0.0
 10
18.6284818195
 20
14.7805554771
 10
18.6071027837
 20
14.7682950728
 10
18.5948394569
 20
14.752404194
 10
18.5933480695
 20
14.7350289921
 10
18.5946947943
 20
14.730779216
  0
LWPOLYLINE
  5
209
330
1F
100
AcDbEntity
  8
0
  6
Continuous
 62
     7
370
    25
100
AcDbPolyline
 90
        8
 70
   128
 43
0.0
 10
18.754502777
 20
14.730779216
 10
18.7564983031
 20
14.7390709759
 10
18.752433805
 20
14.7563085329
 10
18.7378572562
 20
14.7715344642
 10
18.7147373005
 20
14.7826924233
 10
18.6861964159
 20
14.788275466
 10
18.6560892071
 20
14.7875295716
 10
18.6284818195
 20
14.7805554771
  0
ARC
  5
20A
330
1F
100
AcDbEntity
  8
0
  6
Continuous
 62
     7
370
    25
100
AcDbCircle
 10
18.6385897845
 20
14.7387221041
 30
0.0
 40
0.0463994933838375
100
AcDbArc
 50
102.5825761624
 51
172.3916007916
  0
LWPOLYLINE
  5
20B
330
1F
100
AcDbEntity
  8
0
  6
Continuous
 62
     7
370
    25
100
AcDbPolyline
 90
        7
 70
   128
 43
0.0
 10
18.7565987857
 20
14.7448654757
 10
18.752433805
 20
14.7597602792
 10
18.7378572562
 20
14.7749862105
 10
18.7147373005
 20
14.7861441696
 10
18.6861964159
 20
14.7917272123
 10
18.6560892071
 20
14.7909813179
 10
18.6284818195
 20
14.7840072234
  0
LWPOLYLINE
  5
20C
330
1F
100
AcDbEntity
  8
0
  6
Continuous
 62
     7
370
    25
100
AcDbPolyline
 90
        5
 70
   128
 43
0.0
 10
18.6284818195
 20
14.8052762502
 10
18.6071027837
 20
14.7930158458
 10
18.5948394569
 20
14.7771249671
 10
18.5933480695
 20
14.7597497652
 10
18.5946947943
 20
14.7554999891
  0
LWPOLYLINE
  5
20D
330
1F
100
AcDbEntity
  8
0
  6
Continuous
 62
     7
370
    25
100
AcDbPolyline
 90
        8
 70
   128
 43
0.0
 10
18.7545027771
 20
14.7554999891
 10
18.7564983031
 20
14.763791749
 10
18.752433805
 20
14.781029306
 10
18.7378572562
 20
14.7962552372
 10
18.7147373005
 20
14.8074131963
 10
18.6861964159
 20
14.8129962391
 10
18.6560892071
 20
14.8122503447
 10
18.6284818195
 20
14.8052762502
  0
ARC
  5
20E
330
1F
100
AcDbEntity
  8
0
  6
Continuous
 62
     7
370
    25
100
AcDbCircle
 10
18.6385897845
 20
14.7634428772
 30
0.0
 40
0.0463994933838188
100
AcDbArc
 50
102.5825761623
 51
172.3916007916
  0
LWPOLYLINE
  5
20F
330
1F
100
AcDbEntity
  8
0
  6
Continuous
 62
     7
370
    25
100
AcDbPolyline
 90
        7
 70
   128
 43
0.0
 10
18.7565987857
 20
14.7695862488
 10
18.752433805
 20
14.7844810523
 10
18.7378572562
 20
14.7997069835
 10
18.7147373005
 20
14.8108649426
 10
18.6861964159
 20
14.8164479854
 10
18.6560892071
 20
14.815702091
 10
18.6284818195
 20
14.8087279965
  0
LWPOLYLINE
  5
210
330
1F
100
AcDbEntity
  8
0
  6
Continuous
 62
     7
370
    25
100
AcDbPolyline
 90
        5
 70
   128
 43
0.0
 10
18.6284818195
 20
14.8299970233
 10
18.6071027837
 20
14.8177366189
 10
18.5948394569
 20
14.8018457402
 10
18.5933480695
 20
14.7844705383
 10
18.5946947943
 20
14.7802207622
  0
LWPOLYLINE
  5
211
330
1F
100
AcDbEntity
  8
0
  6
Continuous
 62
     7
370
    25
100
AcDbPolyline
 90
        8
 70
   128
 43
0.0
 10
18.7545027771
 20
14.7802207622
 10
18.7564983031
 20
14.7885125221
 10
18.752433805
 20
14.8057500791
 10
18.7378572562
 20
14.8209760103
 10
18.7147373005
 20
14.8321339694
 10
18.6861964159
 20
14.8377170122
 10
18.6560892071
 20
14.8369711178
 10
18.6284818195
 20
14.8299970233
  0
ARC
  5
212
330
1F
100
AcDbEntity
  8
0
  6
Continuous
 62
     7
370
    25
100
AcDbCircle
 10
18.6385897845
 20
14.7881636503
 30
0.0
 40
0.0463994933838303
100
AcDbArc
 50
102.5825761624
 51
172.3916007916
  0
LWPOLYLINE
  5
213
330
1F
100
AcDbEntity
  8
0
  6
Continuous
 62
     7
370
    25
100
AcDbPolyline
 90
        7
 70
   128
 43
0.0
 10
18.7565987857
 20
14.7943070219
 10
18.752433805
 20
14.8092018254
 10
18.7378572562
 20
14.8244277566
 10
18.7147373005
 20
14.8355857157
 10
18.6861964159
 20
14.8411687585
 10
18.6560892071
 20
14.8404228641
 10
18.6284818195
 20
14.8334487696
  0
LWPOLYLINE
  5
214
330
1F
100
AcDbEntity
  8
0
  6
Continuous
 62
     7
370
    25
100
AcDbPolyline
 90
       11
 70
   128
 43
0.0
 10
18.5950311779
 20
14.8057512437
 10
18.5934916464
 20
14.8174425395
 10
18.600420441
 20
14.8341999824
 10
18.617367432
 20
14.8483808991
 10
18.6420438344
 20
14.8580700783
 10
18.6711169635
 20
14.8619589426
 10
18.7006603319
 20
14.8595222793
 10
18.726683944
 20
14.8510891734
 10
18.745673167
 20
14.8377985624
 10
18.7550634009
 20
14.8214454171
 10
18.7541663934
 20
14.8057512437
  0
ARC
  5
215
330
1F
100
AcDbEntity
  8
0
  6
Continuous
 62
     7
370
    25
100
AcDbCircle
 10
18.6745987857
 20
14.7715347153
 30
0.0
 40
0.0952209287331161
100
AcDbArc
 50
61.908413176
 51
118.091586824
  0
LWPOLYLINE
  5
216
330
1F
100
AcDbEntity
  8
0
  6
Continuous
 62
     7
370
    25
100
AcDbPolyline
 90
       22
 70
   128
 43
0.0
 10
16.6604140622
 20
12.7009427635
 10
16.6919501692
 20
12.6915675516
 10
16.7268720699
 20
12.687974992
 10
16.7620768001
 20
12.6904842993
 10
16.7944362651
 20
12.6988725107
 10
16.8210751843
 20
12.7123942968
 10
16.839626573
 20
12.7298481874
 10
16.8484420587
 20
12.7496833278
 10
16.8467383469
 20
12.7701372788
 10
16.8346668199
 20
12.789392617
 10
16.8133000859
 20
12.8057384212
 10
16.7845366728
 20
12.8177222949
 10
16.7509323363
 20
12.8242794183
 10
16.715472969
 20
12.8248271623
 10
16.6813092913
 20
12.8193168573
 10
16.651476896
 20
12.8082381182
 10
16.6286265223
 20
12.7925753396
 10
16.6147885262
 20
12.7737202281
 10
16.6111924742
 20
12.753348143
 10
16.6181578916
 20
12.7332692336
 10
16.6350658703
 20
12.715267599
 10
16.6604140622
 20
12.7009427635
  0
LWPOLYLINE
  5
217
330
1F
100
AcDbEntity
  8
0
  6
Continuous
 62
     7
370
    25
100
AcDbPolyline
 90
       19
 70
   128
 43
0.0
 10
16.8255300639
 20
12.7146137108
 10
16.8271655366
 20
12.7155746242
 10
16.849652585
 20
12.733561688
 10
16.8624505594
 20
12.7544774597
 10
16.8645226442
 20
12.7766274677
 10
16.8557009712
 20
12.7982172502
 10
16.8367002201
 20
12.8174977313
 10
16.8090597186
 20
12.8329069212
 10
16.7750187357
 20
12.8431964589
 10
16.7373350696
 20
12.8475327473
 10
16.6990616266
 20
12.845564486
 10
16.6632990936
 20
12.837451132
 10
16.6329447382
 20
12.8238499809
 10
16.6104576898
 20
12.805862917
 10
16.5976597154
 20
12.7849471454
 10
16.5955876306
 20
12.7627971374
 10
16.6044093036
 20
12.7412073549
 10
16.6234100547
 20
12.7219268738
 10
16.6345802109
 20
12.7146137108
  0
LWPOLYLINE
  5
218
330
1F
100
AcDbEntity
  8
0
  6
Continuous
 62
     7
370
    25
100
AcDbPolyline
 90
       13
 70
   128
 43
0.0
 10
16.8650551374
 20
12.8905603427
 10
16.8645226442
 20
12.8974755079
 10
16.8557009712
 20
12.9190652903
 10
16.8367002201
 20
12.9383457714
 10
16.8090597186
 20
12.9537549613
 10
16.7750187357
 20
12.964044499
 10
16.7373350696
 20
12.9683807874
 10
16.6990616266
 20
12.9664125262
 10
16.6632990936
 20
12.9582991722
 10
16.6329447382
 20
12.944698021
 10
16.6104576898
 20
12.9267109572
 10
16.5976597154
 20
12.9057951855
 10
16.5950551374
 20
12.8905603427
  0
LINE
  5
219
330
1F
100
AcDbEntity
  8
0
  6
Continuous
 62
     7
370
    25
100
AcDbLine
 10
16.7955973991
 20
12.7293403831
 30
0.0
 11
16.8037916066
 21
12.7757615963
 31
0.0
  0
LINE
  5
21A
330
1F
100
AcDbEntity
  8
0
  6
Continuous
 62
     7
370
    25
100
AcDbLine
 10
16.8037916066
 20
12.7757615963
 30
0.0
 11
16.7382493449
 21
12.8030688628
 31
0.0
  0
LINE
  5
21B
330
1F
100
AcDbEntity
  8
0
  6
Continuous
 62
     7
370
    25
100
AcDbLine
 10
16.6645128757
 20
12.783954916
 30
0.0
 11
16.7382493449
 21
12.8030688628
 31
0.0
  0
LINE
  5
21C
330
1F
100
AcDbEntity
  8
0
  6
Continuous
 62
     7
370
    25
100
AcDbLine
 10
16.6563186682
 20
12.7375337027
 30
0.0
 11
16.6645128757
 21
12.783954916
 31
0.0
  0
LINE
  5
21D
330
1F
100
AcDbEntity
  8
0
  6
Continuous
 62
     7
370
    25
100
AcDbLine
 10
16.6563186682
 20
12.7375337027
 30
0.0
 11
16.7218609299
 21
12.7102264363
 31
0.0
  0
LINE
  5
21E
330
1F
100
AcDbEntity
  8
0
  6
Continuous
 62
     7
370
    25
100
AcDbLine
 10
16.7955973991
 20
12.7293403831
 30
0.0
 11
16.7218609299
 21
12.7102264363
 31
0.0
  0
LINE
  5
21F
330
1F
100
AcDbEntity
  8
0
  6
Continuous
 62
     7
370
    25
100
AcDbLine
 10
16.6841087401
 20
12.7890345505
 30
0.0
 11
16.689089799
 21
12.786753712
 31
0.0
  0
LWPOLYLINE
  5
220
330
1F
100
AcDbEntity
  8
0
  6
Continuous
 62
     7
370
    25
100
AcDbPolyline
 90
        3
 70
   128
 43
0.0
 10
16.7587291645
 20
12.7826570522
 10
16.7668189508
 20
12.7851330523
 10
16.7741215
 20
12.7881232312
  0
ARC
  5
221
330
1F
100
AcDbEntity
  8
0
  6
Continuous
 62
     7
370
    25
100
AcDbCircle
 10
16.730270822
 20
12.8928421854
 30
0.0
 40
0.1138008823611298
100
AcDbArc
 50
248.7849716432
 51
284.4817354958
  0
LINE
  5
222
330
1F
100
AcDbEntity
  8
0
  6
Continuous
 62
     7
370
    25
100
AcDbLine
 10
16.7955973991
 20
12.7791755983
 30
0.0
 11
16.7955973991
 21
12.7293403831
 31
0.0
  0
LINE
  5
223
330
1F
100
AcDbEntity
  8
0
  6
Continuous
 62
     7
370
    25
100
AcDbLine
 10
16.7218609299
 20
12.7731000788
 30
0.0
 11
16.7218609299
 21
12.7102264363
 31
0.0
  0
LINE
  5
224
330
1F
100
AcDbEntity
  8
0
  6
Continuous
 62
     7
370
    25
100
AcDbLine
 10
16.7587291645
 20
12.7826570522
 30
0.0
 11
16.7218609299
 21
12.7731000788
 31
0.0
  0
LINE
  5
225
330
1F
100
AcDbEntity
  8
0
  6
Continuous
 62
     7
370
    25
100
AcDbLine
 10
16.7763056675
 20
12.7872132284
 30
0.0
 11
16.7587291645
 21
12.7826570522
 31
0.0
  0
LINE
  5
226
330
1F
100
AcDbEntity
  8
0
  6
Continuous
 62
     7
370
    25
100
AcDbLine
 10
16.6838046073
 20
12.7889557132
 30
0.0
 11
16.689089799
 21
12.786753712
 31
0.0
  0
LINE
  5
227
330
1F
100
AcDbEntity
  8
0
  6
Continuous
 62
     7
370
    25
100
AcDbLine
 10
16.689089799
 20
12.786753712
 30
0.0
 11
16.7218609299
 21
12.7731000788
 31
0.0
  0
ELLIPSE
  5
228
330
1F
100
AcDbEntity
  8
0
  6
Continuous
 62
     7
370
    25
100
AcDbEllipse
 10
17.7023269615
 20
10.4412549461
 30
0.0
 11
0.4949999997254756
 21
0.2858038666027375
 31
0.0
210
0.0
220
0.0
230
1.0
 40
0.0000703729
 41
3.141552021539726
 42
6.283144675329715
  0
LWPOLYLINE
  5
229
330
1F
100
AcDbEntity
  8
0
  6
Continuous
 62
     7
370
    25
100
AcDbPolyline
 90
       23
 70
   128
 43
0.0
 10
17.2073269615
 20
13.3497733181
 10
17.2093897571
 20
13.3758339584
 10
17.2212157166
 20
13.4169894677
 10
17.2432957269
 20
13.4567123814
 10
17.2751591911
 20
13.4941560747
 10
17.3161269947
 20
13.5285225002
 10
17.3653259801
 20
13.5590791972
 10
17.4217075563
 20
13.5851749028
 10
17.4840700479
 20
13.6062534323
 10
17.5510843067
 20
13.6218655335
 10
17.6213220401
 20
13.6316784614
 10
17.6932862528
 20
13.6354830707
 10
17.7654431525
 20
13.6331982726
 10
17.8362548402
 20
13.6248727637
 10
17.9042120876
 20
13.6106839878
 10
17.9678665041
 20
13.5909343538
 10
18.0258614063
 20
13.5660447911
 10
18.0769607334
 20
13.5365457775
 10
18.1200753922
 20
13.5030660331
 10
18.1542864684
 20
13.4663191206
 10
18.1788648124
 20
13.4270882367
 10
18.1932865795
 20
13.3862095196
 10
18.1973269615
 20
13.3497733181
  0
LWPOLYLINE
  5
22A
330
1F
100
AcDbEntity
  8
0
  6
Continuous
 62
     7
370
    25
100
AcDbPolyline
 90
       23
 70
   128
 43
0.0
 10
17.2073269615
 20
13.4518409196
 10
17.2113673436
 20
13.4882771211
 10
17.2257891107
 20
13.5291558382
 10
17.2503674547
 20
13.5683867221
 10
17.2845785309
 20
13.6051336346
 10
17.3276931896
 20
13.638613379
 10
17.3787925168
 20
13.6681123926
 10
17.4367874189
 20
13.6930019553
 10
17.5004418354
 20
13.7127515893
 10
17.5683990829
 20
13.7269403652
 10
17.6392107705
 20
13.7352658741
 10
17.7113676702
 20
13.7375506722
 10
17.7833318829
 20
13.7337460629
 10
17.8535696164
 20
13.7239331349
 10
17.9205838752
 20
13.7083210338
 10
17.9829463668
 20
13.6872425043
 10
18.039327943
 20
13.6611467987
 10
18.0885269284
 20
13.6305901017
 10
18.1294947319
 20
13.5962236762
 10
18.1613581961
 20
13.5587799829
 10
18.1834382065
 20
13.5190570691
 10
18.1952641659
 20
13.4779015599
 10
18.1973269615
 20
13.4518409196
  0
ARC
  5
22B
330
1F
100
AcDbEntity
  8
0
  6
Continuous
 62
     7
370
    25
100
AcDbCircle
 10
17.4520468799
 20
13.3272267517
 30
0.0
 40
0.245756355162419
100
AcDbArc
 50
113.9437806278
 51
174.7360784146
  0
LWPOLYLINE
  5
22C
330
1F
100
AcDbEntity
  8
0
  6
Continuous
 62
     7
370
    25
100
AcDbPolyline
 90
       18
 70
   128
 43
0.0
 10
18.1973269615
 20
13.3497733181
 10
18.1972443946
 20
13.3549924081
 10
18.190653904
 20
13.3965364638
 10
18.1736555723
 20
13.4370838443
 10
18.1466116897
 20
13.4757703524
 10
18.1100986493
 20
13.5117714525
 10
18.0648946635
 20
13.5443198436
 10
18.0119631765
 20
13.5727218133
 10
17.9524323312
 20
13.5963720229
 10
17.8875709241
 20
13.6147664093
 10
17.8187613636
 20
13.6275129279
 10
17.747470206
 20
13.634339909
 10
17.6752168984
 20
13.6351018473
 10
17.6035413948
 20
13.6297825033
 10
17.5339713341
 20
13.6184952496
 10
17.4679894813
 20
13.6014806546
 10
17.407002125
 20
13.5791013546
 10
17.3523091048
 20
13.5518343258
  0
LWPOLYLINE
  5
22D
330
1F
100
AcDbEntity
  8
0
  6
Continuous
 62
     7
370
    25
100
AcDbPolyline
 90
       48
 70
   128
 43
0.0
 10
18.9044084895
 20
14.1457878146
 10
18.8063886437
 20
14.1980950538
 10
18.7015618904
 20
14.2458013881
 10
18.5905745215
 20
14.2886126921
 10
18.4741108111
 20
14.3262650198
 10
18.3528887966
 20
14.3585262322
 10
18.227655852
 20
14.3851974282
 10
18.0991840801
 20
14.4061141709
 10
17.9682655521
 20
14.4211475016
 10
17.8357074243
 20
14.430204735
 10
17.7023269615
 20
14.4332300301
 10
17.5689464988
 20
14.430204735
 10
17.436388371
 20
14.4211475016
 10
17.305469843
 20
14.4061141709
 10
17.1769980711
 20
14.3851974282
 10
17.0517651265
 20
14.3585262322
 10
16.930543112
 20
14.3262650198
 10
16.8140794015
 20
14.2886126921
 10
16.7030920326
 20
14.2458013881
 10
16.5982652794
 20
14.1980950538
 10
16.5002454335
 20
14.1457878146
 10
16.40963682
 20
14.0892021621
 10
16.3269980711
 20
14.0286869655
 10
16.2528386821
 20
13.9646153213
 10
16.1876158704
 20
13.8973822523
 10
16.1317317563
 20
13.8274022729
 10
16.0855308838
 20
13.7551068328
 10
16.0492980969
 20
13.6809416576
 10
16.0232567825
 20
13.6053640001
 10
16.0075674942
 20
13.5288398217
 10
16.0023269615
 20
13.4518409196
 10
16.0075674942
 20
13.3748420174
 10
16.0232567825
 20
13.2983178391
 10
16.0492980969
 20
13.2227401816
 10
16.0855308838
 20
13.1485750063
 10
16.1317317563
 20
13.0762795663
 10
16.1876158704
 20
13.0062995868
 10
16.2528386821
 20
12.9390665179
 10
16.3269980711
 20
12.8749948736
 10
16.40963682
 20
12.8144796771
 10
16.5002454335
 20
12.7578940245
 10
16.5982652794
 20
12.7055867853
 10
16.7030920326
 20
12.657880451
 10
16.8140794015
 20
12.6150691471
 10
16.930543112
 20
12.5774168193
 10
17.0517651265
 20
12.5451556069
 10
17.1769980711
 20
12.518484411
 10
17.2073269615
 20
12.512976028
  0
LWPOLYLINE
  5
22E
330
1F
100
AcDbEntity
  8
0
  6
Continuous
 62
     7
370
    25
100
AcDbPolyline
 90
       28
 70
   128
 43
0.0
 10
18.1973269615
 20
12.512976028
 10
18.227655852
 20
12.518484411
 10
18.3528887966
 20
12.5451556069
 10
18.4741108111
 20
12.5774168193
 10
18.5905745215
 20
12.6150691471
 10
18.7015618904
 20
12.657880451
 10
18.8063886437
 20
12.7055867853
 10
18.9044084895
 20
12.7578940245
 10
18.9950171031
 20
12.8144796771
 10
19.077655852
 20
12.8749948736
 10
19.1518152409
 20
12.9390665179
 10
19.2170380527
 20
13.0062995868
 10
19.2729221668
 20
13.0762795663
 10
19.3191230392
 20
13.1485750063
 10
19.3553558262
 20
13.2227401816
 10
19.3813971405
 20
13.2983178391
 10
19.3970864289
 20
13.3748420174
 10
19.4023269615
 20
13.4518409196
 10
19.3970864289
 20
13.5288398217
 10
19.3813971405
 20
13.6053640001
 10
19.3553558262
 20
13.6809416576
 10
19.3191230392
 20
13.7551068328
 10
19.2729221668
 20
13.8274022729
 10
19.2170380527
 20
13.8973822523
 10
19.1518152409
 20
13.9646153213
 10
19.077655852
 20
14.0286869655
 10
18.9950171031
 20
14.0892021621
 10
18.9044084895
 20
14.1457878146
  0
LWPOLYLINE
  5
22F
330
1F
100
AcDbEntity
  8
0
  6
Continuous
 62
     7
370
    25
100
AcDbPolyline
 90
       22
 70
   128
 43
0.0
 10
18.9397638286
 20
14.207025058
 10
19.0319347614
 20
14.1495196835
 10
19.1161092764
 20
14.0880639253
 10
19.1917811383
 20
14.0230273858
 10
19.2584952475
 20
13.9548012024
 10
19.3158503775
 20
13.8837956952
 10
19.3635015878
 20
13.8104378998
 10
19.4011622984
 20
13.7351689985
 10
19.4286060135
 20
13.6584416676
 10
19.4456676832
 20
13.580717354
 10
19.4522446967
 20
13.502463501
 10
19.448297499
 20
13.4241507365
 10
19.433849829
 20
13.3462500426
 10
19.4089885768
 20
13.2692299233
 10
19.3738632609
 20
13.1935535867
 10
19.3286851289
 20
13.119676159
 10
19.2737258876
 20
13.048041948
 10
19.2093160682
 20
12.9790817701
 10
19.135843039
 20
12.91321036
 10
19.0537486755
 20
12.8508238761
 10
18.9635267027
 20
12.7922975181
 10
18.9399648979
 20
12.778426956
  0
LWPOLYLINE
  5
230
330
1F
100
AcDbEntity
  8
0
  6
Continuous
 62
     7
370
    25
100
AcDbPolyline
 90
       42
 70
   128
 43
0.0
 10
16.4646890252
 20
12.778426956
 10
16.4178386318
 20
12.8065475545
 10
16.3295995479
 20
12.8660728867
 10
16.2496162082
 20
12.9293666354
 10
16.1783696419
 20
12.9960481445
 10
16.1162883342
 20
13.0657163837
 10
16.0637456495
 20
13.1379523599
 10
16.0210575855
 20
13.2123216374
 10
15.9884808734
 20
13.2883769507
 10
15.9662114334
 20
13.3656608942
 10
15.9543831964
 20
13.4437086731
 10
15.9530672989
 20
13.522050899
 10
15.9622716548
 20
13.6002164123
 10
15.9819409081
 20
13.6777351167
 10
16.0119567655
 20
13.7541408053
 10
16.0521387082
 20
13.8289739656
 10
16.1022450772
 20
13.9017845419
 10
16.161974527
 20
13.972134643
 10
16.2309678375
 20
14.039601175
 10
16.3088100749
 20
14.1037783863
 10
16.3950330869
 20
14.1642803076
 10
16.489118318
 20
14.2207430733
 10
16.5904999287
 20
14.2728271095
 10
16.6985681979
 20
14.3202191768
 10
16.8126731905
 20
14.3626342537
 10
16.9321286655
 20
14.399817251
 10
17.0562162037
 20
14.4315445457
 10
17.1841895281
 20
14.4576253261
 10
17.3152789919
 20
14.4779027394
 10
17.4486962077
 20
14.4922548348
 10
17.5836387888
 20
14.5005952971
 10
17.7192951745
 20
14.5028739658
 10
17.8548495113
 20
14.4990771368
 10
17.9894865596
 20
14.4892276445
 10
18.1223965963
 20
14.473384725
 10
18.2527802848
 20
14.4516436595
 10
18.3798534822
 20
14.4241352013
 10
18.5028519554
 20
14.3910247896
 10
18.6210359771
 20
14.3525115541
 10
18.7336947747
 20
14.3088271181
 10
18.8401508049
 20
14.2602342049
 10
18.9397638286
 20
14.207025058
  0
LWPOLYLINE
  5
231
330
1F
100
AcDbEntity
  8
0
  6
Continuous
 62
     7
370
    25
100
AcDbPolyline
 90
       32
 70
   128
 43
0.0
 10
18.9397638286
 20
14.4724008219
 10
18.8401508049
 20
14.5256099688
 10
18.7336947747
 20
14.574202882
 10
18.6210359771
 20
14.617887318
 10
18.5028519554
 20
14.6564005534
 10
18.3798534822
 20
14.6895109652
 10
18.2527802848
 20
14.7170194234
 10
18.1223965963
 20
14.7387604889
 10
17.9894865596
 20
14.7546034083
 10
17.8548495113
 20
14.7644529006
 10
17.7192951745
 20
14.7682497297
 10
17.5836387888
 20
14.765971061
 10
17.4486962077
 20
14.7576305986
 10
17.3152789919
 20
14.7432785032
 10
17.1841895281
 20
14.7230010899
 10
17.0562162037
 20
14.6969203095
 10
16.9321286655
 20
14.6651930148
 10
16.8126731905
 20
14.6280100176
 10
16.6985681979
 20
14.5855949406
 10
16.5904999287
 20
14.5382028733
 10
16.489118318
 20
14.4861188371
 10
16.3950330869
 20
14.4296560715
 10
16.3088100749
 20
14.3691541502
 10
16.2309678375
 20
14.3049769389
 10
16.161974527
 20
14.2375104068
 10
16.1022450772
 20
14.1671603058
 10
16.0521387082
 20
14.0943497294
 10
16.0119567655
 20
14.0195165692
 10
15.9819409081
 20
13.9431108805
 10
15.9622716548
 20
13.8655921762
 10
15.9530672989
 20
13.7874266628
 10
15.9523269615
 20
13.758043724
  0
LWPOLYLINE
  5
232
330
1F
100
AcDbEntity
  8
0
  6
Continuous
 62
     7
370
    25
100
AcDbPolyline
 90
       12
 70
   128
 43
0.0
 10
19.4523269615
 20
13.758043724
 10
19.4522446967
 20
13.7678392649
 10
19.4456676832
 20
13.8460931178
 10
19.4286060135
 20
13.9238174314
 10
19.4011622984
 20
14.0005447624
 10
19.3635015878
 20
14.0758136636
 10
19.3158503775
 20
14.149171459
 10
19.2584952475
 20
14.2201769662
 10
19.1917811383
 20
14.2884031497
 10
19.1161092764
 20
14.3534396892
 10
19.0319347614
 20
14.4148954473
 10
18.9397638286
 20
14.4724008219
  0
LINE
  5
233
330
1F
100
AcDbEntity
  8
0
  6
Continuous
 62
     7
370
    25
100
AcDbLine
 10
9.1072432991
 20
1.6909462496
 30
0.0
 11
9.1072432991
 21
4.6109462496
 31
0.0
  0
LINE
  5
234
330
1F
100
AcDbEntity
  8
0
  6
Continuous
 62
     7
370
    25
100
AcDbLine
 10
9.1072432991
 20
1.4479462496
 30
0.0
 11
9.1072432991
 21
1.5549462496
 31
0.0
  0
LINE
  5
235
330
1F
100
AcDbEntity
  8
0
  6
Continuous
 62
     7
370
    25
100
AcDbLine
 10
8.1172432991
 20
4.6109462496
 30
0.0
 11
8.1172432991
 21
1.4479462496
 31
0.0
  0
ARC
  5
236
330
1F
100
AcDbEntity
  8
0
  6
Continuous
 62
     7
370
    25
100
AcDbCircle
 10
9.0922432991
 20
4.6109462496
 30
0.0
 40
0.0150000000000006
100
AcDbArc
 50
0.0
 51
90.0
  0
ARC
  5
237
330
1F
100
AcDbEntity
  8
0
  6
Continuous
 62
     7
370
    25
100
AcDbCircle
 10
8.1322432991
 20
4.6109462496
 30
0.0
 40
0.0150000000000006
100
AcDbArc
 50
90.0
 51
180.0
  0
LINE
  5
238
330
1F
100
AcDbEntity
  8
0
  6
Continuous
 62
     7
370
    25
100
AcDbLine
 10
9.1072432991
 20
1.4479462496
 30
0.0
 11
8.1172432991
 21
1.4479462496
 31
0.0
  0
LINE
  5
239
330
1F
100
AcDbEntity
  8
0
  6
Continuous
 62
     7
370
    25
100
AcDbLine
 10
9.1072432991
 20
1.6909462496
 30
0.0
 11
9.1069477867
 21
1.6887345344
 31
0.0
  0
SPLINE
  5
23A
330
1F
100
AcDbEntity
  8
0
  6
Continuous
 62
     7
370
    25
100
AcDbSpline
210
0.0
220
0.0
230
1.0
 70
     8
 71
     3
 72
    30
 73
    26
 74
     0
 42
0.00000001
 43
0.00000001
 40
0.0
 40
0.0
 40
0.0
 40
0.0
 40
0.1249999999999998
 40
0.1249999999999998
 40
0.2499999999999996
 40
0.2499999999999996
 40
0.3124999999999996
 40
0.3124999999999996
 40
0.3749999999999996
 40
0.3749999999999996
 40
0.4374999999999996
 40
0.4374999999999996
 40
0.4999999999999996
 40
0.4999999999999996
 40
0.5624999999999996
 40
0.5624999999999996
 40
0.6249999999999996
 40
0.6249999999999996
 40
0.6874999999999996
 40
0.6874999999999996
 40
0.7499999999999996
 40
0.7499999999999996
 40
0.8749999999999998
 40
0.8749999999999998
 40
1.0
 40
1.0
 40
1.0
 40
1.0
 10
9.107243299117833
 20
1.554946249592203
 30
0.0
 10
9.107243299117833
 20
1.554946249592203
 30
0.0
 10
9.106989773966474
 20
1.556731621325602
 30
0.0
 10
9.1061282142962
 20
1.563510468600706
 30
0.0
 10
9.105517226022204
 20
1.568567715004329
 30
0.0
 10
9.104599646130467
 20
1.577963064303801
 30
0.0
 10
9.104288869766643
 20
1.581456849500535
 30
0.0
 10
9.103721773130035
 20
1.588834416715391
 30
0.0
 10
9.103463004064409
 20
1.592735347169873
 30
0.0
 10
9.103025432608561
 20
1.60096892830229
 30
0.0
 10
9.102849091570937
 20
1.605284945240065
 30
0.0
 10
9.102613111237357
 20
1.613977931967514
 30
0.0
 10
9.102550775626638
 20
1.618404569187927
 30
0.0
 10
9.102549920357545
 20
1.627394639409227
 30
0.0
 10
9.102611280631699
 20
1.631815549308149
 30
0.0
 10
9.102845745505718
 20
1.640515187671858
 30
0.0
 10
9.103021699235526
 20
1.644839754112868
 30
0.0
 10
9.103457676490317
 20
1.653070194479117
 30
0.0
 10
9.103715964910945
 20
1.656975182973268
 30
0.0
 10
9.104283201924753
 20
1.664369106078773
 30
0.0
 10
9.104593581501168
 20
1.667863127079189
 30
0.0
 10
9.10551043877782
 20
1.677263579692885
 30
0.0
 10
9.106122493839463
 20
1.682335056122124
 30
0.0
 10
9.106986164450062
 20
1.689134421944269
 30
0.0
 10
9.107243299117835
 20
1.690946249592203
 30
0.0
 10
9.107243299117835
 20
1.690946249592203
 30
0.0
  0
LINE
  5
23B
330
1F
100
AcDbEntity
  8
0
  6
Continuous
 62
     7
370
    25
100
AcDbLine
 10
8.1322432991
 20
4.6259462496
 30
0.0
 11
9.0922432991
 21
4.6259462496
 31
0.0
  0
LINE
  5
23C
330
1F
100
AcDbEntity
  8
0
  6
Continuous
 62
     7
370
    25
100
AcDbLine
 10
9.1072432991
 20
4.6109462496
 30
0.0
 11
8.1172432991
 21
4.6109462496
 31
0.0
  0
DIMENSION
  5
23D
330
1F
100
AcDbEntity
  8
SLD-0
100
AcDbDimension
  2
_D_4
 10
6.7340460314
 20
1.4479462496
 30
0.0
 11
6.7340460314
 21
3.0369462496
 31
0.0
 70
   160
  1
<>
 71
     2
 42
-1.0
  3
SLDDIMSTYLE1
100
AcDbAlignedDimension
 13
8.1747432991
 23
4.6259462496
 33
0.0
 14
8.1172432991
 24
1.4479462496
 34
0.0
 50
90.0
100
AcDbRotatedDimension
  0
LINE
  5
251
330
1F
100
AcDbEntity
  8
0
  6
Continuous
 62
     7
370
    25
100
AcDbLine
 10
4.8875461746
 20
1.6934718923
 30
0.0
 11
4.8875461746
 21
4.5174718923
 31
0.0
  0
LINE
  5
252
330
1F
100
AcDbEntity
  8
0
  6
Continuous
 62
     7
370
    25
100
AcDbLine
 10
4.8875461746
 20
1.4504718923
 30
0.0
 11
4.8875461746
 21
1.5574718923
 31
0.0
  0
LINE
  5
253
330
1F
100
AcDbEntity
  8
0
  6
Continuous
 62
     7
370
    25
100
AcDbLine
 10
3.8975461746
 20
5.5074718923
 30
0.0
 11
3.8975461746
 21
1.4504718923
 31
0.0
  0
LINE
  5
254
330
1F
100
AcDbEntity
  8
0
  6
Continuous
 62
     7
370
    25
100
AcDbLine
 10
4.3925461746
 20
1.4504718923
 30
0.0
 11
3.8975461746
 21
1.4504718923
 31
0.0
  0
LINE
  5
255
330
1F
100
AcDbEntity
  8
0
  6
Continuous
 62
     7
370
    25
100
AcDbLine
 10
4.8875461746
 20
1.4504718923
 30
0.0
 11
4.3925461746
 21
1.4504718923
 31
0.0
  0
SPLINE
  5
256
330
1F
100
AcDbEntity
  8
0
  6
Continuous
 62
     7
370
    25
100
AcDbSpline
210
0.0
220
0.0
230
1.0
 70
     8
 71
     3
 72
    34
 73
    30
 74
     0
 42
0.00000001
 43
0.00000001
 40
0.0
 40
0.0
 40
0.0
 40
0.0
 40
0.0625000000000002
 40
0.0625000000000002
 40
0.1250000000000004
 40
0.1250000000000004
 40
0.1875000000000006
 40
0.1875000000000006
 40
0.2500000000000007
 40
0.2500000000000007
 40
0.3125000000000008
 40
0.3125000000000008
 40
0.3750000000000009
 40
0.3750000000000009
 40
0.4375000000000011
 40
0.4375000000000011
 40
0.5000000000000011
 40
0.5000000000000011
 40
0.6250000000000009
 40
0.6250000000000009
 40
0.7500000000000006
 40
0.7500000000000006
 40
0.8125000000000004
 40
0.8125000000000004
 40
0.8750000000000003
 40
0.8750000000000003
 40
0.9375000000000001
 40
0.9375000000000001
 40
1.0
 40
1.0
 40
1.0
 40
1.0
 10
4.887546174557142
 20
1.557471892314796
 30
0.0
 10
4.887546174557142
 20
1.557471892314796
 30
0.0
 10
4.887484447575345
 20
1.557917181211692
 30
0.0
 10
4.887249685068793
 20
1.559659217194155
 30
0.0
 10
4.887077882905655
 20
1.560946867999283
 30
0.0
 10
4.886643924592212
 20
1.564361706661845
 30
0.0
 10
4.886381944864111
 20
1.566490970592549
 30
0.0
 10
4.885818115934317
 20
1.571414614890424
 30
0.0
 10
4.88551336309702
 20
1.574231192350833
 30
0.0
 10
4.884894535765368
 20
1.580573460935629
 30
0.0
 10
4.884590000175287
 20
1.58400388122881
 30
0.0
 10
4.884024305345704
 20
1.591365842149062
 30
0.0
 10
4.883760706411995
 20
1.595345316872168
 30
0.0
 10
4.883324612010171
 20
1.603577397313671
 30
0.0
 10
4.883151590055364
 20
1.607816992059331
 30
0.0
 10
4.882915120845655
 20
1.616542991433177
 30
0.0
 10
4.882853016491744
 20
1.621054046368846
 30
0.0
 10
4.882853632225539
 20
1.634375571606099
 30
0.0
 10
4.883110356061943
 20
1.643332769000416
 30
0.0
 10
4.88397863799211
 20
1.65970142427573
 30
0.0
 10
4.88459264336991
 20
1.667277032081549
 30
0.0
 10
4.885510461926668
 20
1.676682478932168
 30
0.0
 10
4.8858206464925
 20
1.679552411585025
 30
0.0
 10
4.886385534012128
 20
1.684483000153426
 30
0.0
 10
4.886642741025502
 20
1.686572546566542
 30
0.0
 10
4.887077002634253
 20
1.689990206558138
 30
0.0
 10
4.8872515739023
 20
1.691298690020968
 30
0.0
 10
4.887484826098834
 20
1.6930293045277
 30
0.0
 10
4.887546174557142
 20
1.693471892314796
 30
0.0
 10
4.887546174557142
 20
1.693471892314796
 30
0.0
  0
LINE
  5
257
330
1F
100
AcDbEntity
  8
0
  6
Continuous
 62
     7
370
    25
100
AcDbLine
 10
4.8875461746
 20
4.5174718923
 30
0.0
 11
3.8975461746
 21
5.5074718923
 31
0.0
  0
DIMENSION
  5
258
330
1F
100
AcDbEntity
  8
SLD-0
100
AcDbDimension
  2
_D_5
 10
2.16526271
 20
1.4504718923
 30
0.0
 11
2.16526271
 21
3.4789718923
 31
0.0
 70
   160
  1
<>
 71
     2
 42
-1.0
  3
SLDDIMSTYLE1
100
AcDbAlignedDimension
 13
3.8975461746
 23
5.5074718923
 33
0.0
 14
3.8975461746
 24
1.4504718923
 34
0.0
 50
90.0
100
AcDbRotatedDimension
  0
LINE
  5
26C
330
1F
100
AcDbEntity
  8
0
  6
Continuous
 62
     7
370
    25
100
AcDbLine
 10
13.156742394
 20
1.7069139402
 30
0.0
 11
13.156742394
 21
4.3024139402
 31
0.0
  0
LINE
  5
26D
330
1F
100
AcDbEntity
  8
0
  6
Continuous
 62
     7
370
    25
100
AcDbLine
 10
13.156742394
 20
1.4639139402
 30
0.0
 11
13.156742394
 21
1.5709139402
 31
0.0
  0
LINE
  5
26E
330
1F
100
AcDbEntity
  8
0
  6
Continuous
 62
     7
370
    25
100
AcDbLine
 10
12.166742394
 20
4.3024139402
 30
0.0
 11
12.166742394
 21
1.4639139402
 31
0.0
  0
ARC
  5
26F
330
1F
100
AcDbEntity
  8
0
  6
Continuous
 62
     7
370
    25
100
AcDbCircle
 10
12.181742394
 20
4.3024139402
 30
0.0
 40
0.0150000000000006
100
AcDbArc
 50
90.0
 51
180.0
  0
ARC
  5
270
330
1F
100
AcDbEntity
  8
0
  6
Continuous
 62
     7
370
    25
100
AcDbCircle
 10
13.141742394
 20
4.3024139402
 30
0.0
 40
0.0149999999999997
100
AcDbArc
 50
0.0
 51
90.0
  0
LINE
  5
271
330
1F
100
AcDbEntity
  8
0
  6
Continuous
 62
     7
370
    25
100
AcDbLine
 10
13.156742394
 20
1.7069139402
 30
0.0
 11
13.1564468815
 21
1.704702225
 31
0.0
  0
SPLINE
  5
272
330
1F
100
AcDbEntity
  8
0
  6
Continuous
 62
     7
370
    25
100
AcDbSpline
210
0.0
220
0.0
230
1.0
 70
     8
 71
     3
 72
    30
 73
    26
 74
     0
 42
0.00000001
 43
0.00000001
 40
0.0
 40
0.0
 40
0.0
 40
0.0
 40
0.1250000000000001
 40
0.1250000000000001
 40
0.2500000000000001
 40
0.2500000000000001
 40
0.3125000000000001
 40
0.3125000000000001
 40
0.3750000000000001
 40
0.3750000000000001
 40
0.4375
 40
0.4375
 40
0.5
 40
0.5
 40
0.5625
 40
0.5625
 40
0.625
 40
0.625
 40
0.6875000000000001
 40
0.6875000000000001
 40
0.7500000000000001
 40
0.7500000000000001
 40
0.875
 40
0.875
 40
1.0
 40
1.0
 40
1.0
 40
1.0
 10
13.1567423939515
 20
1.570913940227155
 30
0.0
 10
13.1567423939515
 20
1.570913940227155
 30
0.0
 10
13.15648886880014
 20
1.572699311960554
 30
0.0
 10
13.15562730912986
 20
1.579478159235658
 30
0.0
 10
13.15501632085587
 20
1.584535405639281
 30
0.0
 10
13.15409874096413
 20
1.593930754938753
 30
0.0
 10
13.15378796460031
 20
1.597424540135487
 30
0.0
 10
13.1532208679637
 20
1.604802107350343
 30
0.0
 10
13.15296209889807
 20
1.608703037804824
 30
0.0
 10
13.15252452744222
 20
1.616936618937242
 30
0.0
 10
13.1523481864046
 20
1.621252635875017
 30
0.0
 10
13.15211220607102
 20
1.629945622602466
 30
0.0
 10
13.1520498704603
 20
1.634372259822878
 30
0.0
 10
13.15204901519121
 20
1.643362330044179
 30
0.0
 10
13.15211037546536
 20
1.647783239943101
 30
0.0
 10
13.15234484033938
 20
1.65648287830681
 30
0.0
 10
13.15252079406919
 20
1.660807444747819
 30
0.0
 10
13.15295677132398
 20
1.669037885114069
 30
0.0
 10
13.15321505974461
 20
1.67294287360822
 30
0.0
 10
13.15378229675842
 20
1.680336796713725
 30
0.0
 10
13.15409267633483
 20
1.683830817714141
 30
0.0
 10
13.15500953361148
 20
1.693231270327836
 30
0.0
 10
13.15562158867313
 20
1.698302746757076
 30
0.0
 10
13.15648525928372
 20
1.705102112579221
 30
0.0
 10
13.1567423939515
 20
1.706913940227154
 30
0.0
 10
13.1567423939515
 20
1.706913940227154
 30
0.0
  0
LINE
  5
273
330
1F
100
AcDbEntity
  8
0
  6
Continuous
 62
     7
370
    25
100
AcDbLine
 10
13.156742394
 20
1.4639139402
 30
0.0
 11
12.166742394
 21
1.4639139402
 31
0.0
  0
LINE
  5
274
330
1F
100
AcDbEntity
  8
0
  6
Continuous
 62
     7
370
    25
100
AcDbLine
 10
12.181742394
 20
4.3174139402
 30
0.0
 11
13.1417423937
 21
4.3174139402
 31
0.0
  0
LINE
  5
275
330
1F
100
AcDbEntity
  8
0
  6
Continuous
 62
     7
370
    25
100
AcDbLine
 10
13.156742394
 20
4.3024139402
 30
0.0
 11
12.166742394
 21
4.3024139402
 31
0.0
  0
DIMENSION
  5
276
330
1F
100
AcDbEntity
  8
SLD-0
100
AcDbDimension
  2
_D_6
 10
10.9068998743
 20
1.4639139402
 30
0.0
 11
10.9068998743
 21
2.8906639402
 31
0.0
 70
   160
  1
<>
 71
     2
 42
-1.0
  3
SLDDIMSTYLE1
100
AcDbAlignedDimension
 13
12.224242394
 23
4.3174139402
 33
0.0
 14
12.166742394
 24
1.4639139402
 34
0.0
 50
90.0
100
AcDbRotatedDimension
  0
CIRCLE
  5
28A
330
1F
100
AcDbEntity
  8
0
  6
Continuous
 62
     7
370
    25
100
AcDbCircle
 10
17.7013717886
 20
3.2200245466
 30
0.0
 40
0.4139999999999979
  0
CIRCLE
  5
28B
330
1F
100
AcDbEntity
  8
0
  6
Continuous
 62
     7
370
    25
100
AcDbCircle
 10
19.0763717886
 20
3.2200245466
 30
0.0
 40
0.1015000000000015
  0
CIRCLE
  5
28C
330
1F
100
AcDbEntity
  8
0
  6
Continuous
 62
     7
370
    25
100
AcDbCircle
 10
17.7013717886
 20
3.2200245466
 30
0.0
 40
1.699999999999999
  0
CIRCLE
  5
28D
330
1F
100
AcDbEntity
  8
0
  6
Continuous
 62
     7
370
    25
100
AcDbCircle
 10
16.3263717886
 20
3.2200245466
 30
0.0
 40
0.1014999999999979
  0
CIRCLE
  5
28E
330
1F
100
AcDbEntity
  8
0
  6
Continuous
 62
     7
370
    25
100
AcDbCircle
 10
17.7013717886
 20
3.2200245466
 30
0.0
 40
1.75
  0
DIMENSION
  5
28F
330
1F
100
AcDbEntity
  8
SLD-0
100
AcDbDimension
  2
_D_7
 10
19.0763717886
 20
5.7574261214
 30
0.0
 11
17.7013717886
 21
5.7574261214
 31
0.0
 70
   160
  1
ON CENTER\P<>
 71
     2
 42
-1.0
  3
SLDDIMSTYLE0
100
AcDbAlignedDimension
 13
16.3263717886
 23
3.2200245466
 33
0.0
 14
19.0763717886
 24
3.2200245466
 34
0.0
 50
0.0
100
AcDbRotatedDimension
  0
DIMENSION
  5
2A2
330
1F
100
AcDbEntity
  8
SLD-0
100
AcDbDimension
  2
_D_8
 10
16.185827332
 20
2.3450245466
 30
0.0
 11
20.8287842167
 21
4.5066231201
 31
0.0
 70
   163
  1
<>
 71
     1
 42
-1.0
  3
SLDDIMSTYLE3
100
AcDbDiametricDimension
 15
19.2169162453
 25
4.0950245466
 35
0.0
 40
0.0
  0
ENDSEC
  0
SECTION
  2
OBJECTS
  0
DICTIONARY
  5
C
330
0
100
AcDbDictionary
281
     1
  3
ACAD_GROUP
350
D
  3
ACAD_LAYOUT
350
1A
  3
ACAD_MLINESTYLE
350
17
  3
ACAD_PLOTSETTINGS
350
19
  3
ACAD_PLOTSTYLENAME
350
E
  3
ACAD_SCALELIST
350
47
  3
DWGPROPS
350
2B3
  0
DICTIONARY
  5
D
102
{ACAD_REACTORS
330
C
102
}
330
C
100
AcDbDictionary
281
     1
  0
DICTIONARY
  5
1A
102
{ACAD_REACTORS
330
C
102
}
330
C
100
AcDbDictionary
281
     1
  3
Layout1
350
1E
  3
Layout2
350
26
  3
Model
350
22
  0
DICTIONARY
  5
17
102
{ACAD_REACTORS
330
C
102
}
330
C
100
AcDbDictionary
281
     1
  3
Standard
350
18
  0
DICTIONARY
  5
19
102
{ACAD_REACTORS
330
C
102
}
330
C
100
AcDbDictionary
281
     1
  0
ACDBDICTIONARYWDFLT
  5
E
102
{ACAD_REACTORS
330
C
102
}
330
C
100
AcDbDictionary
281
     1
  3
Normal
350
F
100
AcDbDictionaryWithDefault
340
F
  0
DICTIONARY
  5
47
102
{ACAD_REACTORS
330
C
102
}
330
C
100
AcDbDictionary
281
     1
  3
A0
350
48
  3
A1
350
49
  3
A2
350
4A
  3
A3
350
4B
  3
A4
350
4C
  3
A5
350
4D
  3
A6
350
4E
  3
A7
350
4F
  3
A8
350
50
  3
A9
350
51
  3
B1
350
52
  3
B2
350
53
  3
B3
350
54
  3
B4
350
55
  3
B5
350
56
  3
B6
350
57
  3
B7
350
58
  0
XRECORD
  5
2B3
102
{ACAD_REACTORS
330
C
102
}
330
C
100
AcDbXrecord
280
     1
  1
DWGPROPS COOKIE
  2

  3

  4

  6

  7

  8
stevend
  9

300
=
301
=
302
=
303
=
304
=
305
=
306
=
307
=
308
=
309
=
 40
0.0
 41
2460476.278640081
 42
2460476.278641111
  1

 90
        0
  0
LAYOUT
  5
1E
102
{ACAD_REACTORS
330
1A
102
}
330
1A
100
AcDbPlotSettings
  1

  2
none_device
  4

  6

 40
0.0
 41
0.0
 42
0.0
 43
0.0
 44
0.0
 45
0.0
 46
0.0
 47
0.0
 48
0.0
 49
0.0
140
0.0
141
0.0
142
1.0
143
1.0
 70
   688
 72
     0
 73
     0
 74
     5
  7

 75
    16
147
1.0
148
0.0
149
0.0
100
AcDbLayout
  1
Layout1
 70
     1
 71
     1
 10
0.0
 20
0.0
 11
12.0
 21
9.0
 12
0.0
 22
0.0
 32
0.0
 14
1.0000000000E+20
 24
1.0000000000E+20
 34
1.0000000000E+20
 15
-1.0000000000E+20
 25
-1.0000000000E+20
 35
-1.0000000000E+20
146
0.0
 13
0.0
 23
0.0
 33
0.0
 16
1.0
 26
0.0
 36
0.0
 17
0.0
 27
1.0
 37
0.0
 76
     0
330
1B
  0
LAYOUT
  5
26
102
{ACAD_REACTORS
330
1A
102
}
330
1A
100
AcDbPlotSettings
  1

  2
none_device
  4

  6

 40
0.0
 41
0.0
 42
0.0
 43
0.0
 44
0.0
 45
0.0
 46
0.0
 47
0.0
 48
0.0
 49
0.0
140
0.0
141
0.0
142
1.0
143
1.0
 70
   688
 72
     0
 73
     0
 74
     5
  7

 75
    16
147
1.0
148
0.0
149
0.0
100
AcDbLayout
  1
Layout2
 70
     1
 71
     2
 10
0.0
 20
0.0
 11
0.0
 21
0.0
 12
0.0
 22
0.0
 32
0.0
 14
0.0
 24
0.0
 34
0.0
 15
0.0
 25
0.0
 35
0.0
146
0.0
 13
0.0
 23
0.0
 33
0.0
 16
1.0
 26
0.0
 36
0.0
 17
0.0
 27
1.0
 37
0.0
 76
     0
330
23
  0
LAYOUT
  5
22
102
{ACAD_REACTORS
330
1A
102
}
330
1A
100
AcDbPlotSettings
  1

  2
none_device
  4
Letter_(8.50_x_11.00_Inches)
  6

 40
6.35
 41
6.35
 42
6.35000508
 43
6.35000508
 44
215.9
 45
279.4
 46
0.0
 47
0.0
 48
0.0
 49
0.0
140
0.0
141
0.0
142
1.0
143
1.0
 70
  1712
 72
     0
 73
     0
 74
     0
  7

 75
     0
147
1.0
148
0.0
149
0.0
100
AcDbLayout
  1
Model
 70
     1
 71
     0
 10
0.0
 20
0.0
 11
22.0
 21
17.0
 12
0.0
 22
0.0
 32
0.0
 14
0.0
 24
0.0
 34
0.0
 15
22.0
 25
17.0
 35
0.0
146
0.0
 13
0.0
 23
0.0
 33
0.0
 16
1.0
 26
0.0
 36
0.0
 17
0.0
 27
1.0
 37
0.0
 76
     0
330
1F
331
29
  0
MLINESTYLE
  5
18
102
{ACAD_REACTORS
330
17
102
}
330
17
100
AcDbMlineStyle
  2
Standard
 70
     0
  3

 62
   256
 51
90.0
 52
90.0
 71
     2
 49
0.5
 62
   256
  6
BYLAYER
 49
-0.5
 62
   256
  6
BYLAYER
  0
ACDBPLACEHOLDER
  5
F
102
{ACAD_REACTORS
330
E
102
}
330
E
  0
SCALE
  5
48
102
{ACAD_REACTORS
330
47
102
}
330
47
100
AcDbScale
 70
     0
300
1:1
140
1.0
141
1.0
290
     1
  0
SCALE
  5
49
102
{ACAD_REACTORS
330
47
102
}
330
47
100
AcDbScale
 70
     0
300
1/128" = 1'-0"
140
0.0078125
141
12.0
290
     0
  0
SCALE
  5
4A
102
{ACAD_REACTORS
330
47
102
}
330
47
100
AcDbScale
 70
     0
300
1/64" = 1'-0"
140
0.015625
141
12.0
290
     0
  0
SCALE
  5
4B
102
{ACAD_REACTORS
330
47
102
}
330
47
100
AcDbScale
 70
     0
300
1/32" = 1'-0"
140
0.03125
141
12.0
290
     0
  0
SCALE
  5
4C
102
{ACAD_REACTORS
330
47
102
}
330
47
100
AcDbScale
 70
     0
300
1/16" = 1'-0"
140
0.0625
141
12.0
290
     0
  0
SCALE
  5
4D
102
{ACAD_REACTORS
330
47
102
}
330
47
100
AcDbScale
 70
     0
300
3/32" = 1'-0"
140
0.09375
141
12.0
290
     0
  0
SCALE
  5
4E
102
{ACAD_REACTORS
330
47
102
}
330
47
100
AcDbScale
 70
     0
300
1/8" = 1'-0"
140
0.125
141
12.0
290
     0
  0
SCALE
  5
4F
102
{ACAD_REACTORS
330
47
102
}
330
47
100
AcDbScale
 70
     0
300
3/16" = 1'-0"
140
0.1875
141
12.0
290
     0
  0
SCALE
  5
50
102
{ACAD_REACTORS
330
47
102
}
330
47
100
AcDbScale
 70
     0
300
1/4" = 1'-0"
140
0.25
141
12.0
290
     0
  0
SCALE
  5
51
102
{ACAD_REACTORS
330
47
102
}
330
47
100
AcDbScale
 70
     0
300
3/8" = 1'-0"
140
0.375
141
12.0
290
     0
  0
SCALE
  5
52
102
{ACAD_REACTORS
330
47
102
}
330
47
100
AcDbScale
 70
     0
300
1/2" = 1'-0"
140
0.5
141
12.0
290
     0
  0
SCALE
  5
53
102
{ACAD_REACTORS
330
47
102
}
330
47
100
AcDbScale
 70
     0
300
3/4" = 1'-0"
140
0.75
141
12.0
290
     0
  0
SCALE
  5
54
102
{ACAD_REACTORS
330
47
102
}
330
47
100
AcDbScale
 70
     0
300
1" = 1'-0"
140
1.0
141
12.0
290
     0
  0
SCALE
  5
55
102
{ACAD_REACTORS
330
47
102
}
330
47
100
AcDbScale
 70
     0
300
1-1/2" = 1'-0"
140
1.5
141
12.0
290
     0
  0
SCALE
  5
56
102
{ACAD_REACTORS
330
47
102
}
330
47
100
AcDbScale
 70
     0
300
3" = 1'-0"
140
3.0
141
12.0
290
     0
  0
SCALE
  5
57
102
{ACAD_REACTORS
330
47
102
}
330
47
100
AcDbScale
 70
     0
300
6" = 1'-0"
140
6.0
141
12.0
290
     0
  0
SCALE
  5
58
102
{ACAD_REACTORS
330
47
102
}
330
47
100
AcDbScale
 70
     0
300
1'-0" = 1'-0"
140
12.0
141
12.0
290
     0
  0
ENDSEC
  0
EOF
