  0
SECTION
  2
HEADER
  9
$ACADVER
  1
AC1015
  9
$ACADMAINTVER
 70
     6
  9
$DWGCODEPAGE
  3
ANSI_1252
  9
$INSBASE
 10
0.0
 20
0.0
 30
0.0
  9
$EXTMIN
 10
0.0
 20
0.0
 30
0.0
  9
$EXTMAX
 10
22.0
 20
17.0
 30
0.0
  9
$LIMMIN
 10
0.0
 20
0.0
  9
$LIMMAX
 10
22.0
 20
17.0
  9
$ORTHOMODE
 70
     0
  9
$REGENMODE
 70
     1
  9
$FILLMODE
 70
     1
  9
$QTEXTMODE
 70
     0
  9
$MIRRTEXT
 70
     1
  9
$LTSCALE
 40
2.0
  9
$ATTMODE
 70
     1
  9
$TEXTSIZE
 40
0.25
  9
$TRACEWID
 40
0.05
  9
$TEXTSTYLE
  7
STANDARD
  9
$CLAYER
  8
0
  9
$CELTYPE
  6
ByLayer
  9
$CECOLOR
 62
   256
  9
$CELTSCALE
 40
1.0
  9
$DISPSILH
 70
     0
  9
$DIMSCALE
 40
1.0
  9
$DIMASZ
 40
0.26
  9
$DIMEXO
 40
0.1
  9
$DIMDLI
 40
0.38
  9
$DIMRND
 40
0.0
  9
$DIMDLE
 40
0.0
  9
$DIMEXE
 40
0.25
  9
$DIMTP
 40
0.0
  9
$DIMTM
 40
0.0
  9
$DIMTXT
 40
0.25
  9
$DIMCEN
 40
0.09
  9
$DIMTSZ
 40
0.0
  9
$DIMTOL
 70
     0
  9
$DIMLIM
 70
     0
  9
$DIMTIH
 70
     1
  9
$DIMTOH
 70
     1
  9
$DIMSE1
 70
     0
  9
$DIMSE2
 70
     0
  9
$DIMTAD
 70
     0
  9
$DIMZIN
 70
     1
  9
$DIMBLK
  1

  9
$DIMASO
 70
     1
  9
$DIMSHO
 70
     1
  9
$DIMPOST
  1

  9
$DIMAPOST
  1

  9
$DIMALT
 70
     0
  9
$DIMALTD
 70
     2
  9
$DIMALTF
 40
25.4
  9
$DIMLFAC
 40
1.0
  9
$DIMTOFL
 70
     0
  9
$DIMTVP
 40
0.0
  9
$DIMTIX
 70
     0
  9
$DIMSOXD
 70
     0
  9
$DIMSAH
 70
     0
  9
$DIMBLK1
  1

  9
$DIMBLK2
  1

  9
$DIMSTYLE
  2
Standard
  9
$DIMCLRD
 70
     0
  9
$DIMCLRE
 70
     0
  9
$DIMCLRT
 70
     0
  9
$DIMTFAC
 40
1.0
  9
$DIMGAP
 40
0.12
  9
$DIMJUST
 70
     0
  9
$DIMSD1
 70
     0
  9
$DIMSD2
 70
     0
  9
$DIMTOLJ
 70
     1
  9
$DIMTZIN
 70
     1
  9
$DIMALTZ
 70
     0
  9
$DIMALTTZ
 70
     0
  9
$DIMUPT
 70
     0
  9
$DIMDEC
 70
     0
  9
$DIMTDEC
 70
     0
  9
$DIMALTU
 70
     2
  9
$DIMALTTD
 70
     2
  9
$DIMTXSTY
  7
STANDARD
  9
$DIMAUNIT
 70
     0
  9
$DIMADEC
 70
     0
  9
$DIMALTRND
 40
0.0
  9
$DIMAZIN
 70
     0
  9
$DIMDSEP
 70
    46
  9
$DIMATFIT
 70
     3
  9
$DIMFRAC
 70
     0
  9
$DIMLDRBLK
  1

  9
$DIMLUNIT
 70
     2
  9
$DIMLWD
 70
    -2
  9
$DIMLWE
 70
    -2
  9
$DIMTMOVE
 70
     0
  9
$LUNITS
 70
     2
  9
$LUPREC
 70
     6
  9
$SKETCHINC
 40
0.1
  9
$FILLETRAD
 40
0.0
  9
$AUNITS
 70
     0
  9
$AUPREC
 70
     2
  9
$MENU
  1
.
  9
$ELEVATION
 40
0.0
  9
$PELEVATION
 40
0.0
  9
$THICKNESS
 40
0.0
  9
$LIMCHECK
 70
     0
  9
$CHAMFERA
 40
0.0
  9
$CHAMFERB
 40
0.0
  9
$CHAMFERC
 40
0.0
  9
$CHAMFERD
 40
0.0
  9
$SKPOLY
 70
     0
  9
$TDCREATE
 40
2460476.895081539
  9
$TDUCREATE
 40
2460477.186748206
  9
$TDUPDATE
 40
2460476.895082489
  9
$TDUUPDATE
 40
2460477.186749155
  9
$TDINDWG
 40
0.0000000116
  9
$TDUSRTIMER
 40
0.0000000116
  9
$USRTIMER
 70
     1
  9
$ANGBASE
 50
0.0
  9
$ANGDIR
 70
     0
  9
$PDMODE
 70
     0
  9
$PDSIZE
 40
-1.0
  9
$PLINEWID
 40
0.0
  9
$SPLFRAME
 70
     0
  9
$SPLINETYPE
 70
     6
  9
$SPLINESEGS
 70
     8
  9
$HANDSEED
  5
202
  9
$SURFTAB1
 70
     6
  9
$SURFTAB2
 70
     6
  9
$SURFTYPE
 70
     6
  9
$SURFU
 70
     6
  9
$SURFV
 70
     6
  9
$UCSBASE
  2

  9
$UCSNAME
  2

  9
$UCSORG
 10
0.0
 20
0.0
 30
0.0
  9
$UCSXDIR
 10
1.0
 20
0.0
 30
0.0
  9
$UCSYDIR
 10
0.0
 20
1.0
 30
0.0
  9
$UCSORTHOREF
  2

  9
$UCSORTHOVIEW
 70
     0
  9
$UCSORGTOP
 10
0.0
 20
0.0
 30
0.0
  9
$UCSORGBOTTOM
 10
0.0
 20
0.0
 30
0.0
  9
$UCSORGLEFT
 10
0.0
 20
0.0
 30
0.0
  9
$UCSORGRIGHT
 10
0.0
 20
0.0
 30
0.0
  9
$UCSORGFRONT
 10
0.0
 20
0.0
 30
0.0
  9
$UCSORGBACK
 10
0.0
 20
0.0
 30
0.0
  9
$PUCSBASE
  2

  9
$PUCSNAME
  2

  9
$PUCSORG
 10
0.0
 20
0.0
 30
0.0
  9
$PUCSXDIR
 10
1.0
 20
0.0
 30
0.0
  9
$PUCSYDIR
 10
0.0
 20
1.0
 30
0.0
  9
$PUCSORTHOREF
  2

  9
$PUCSORTHOVIEW
 70
     0
  9
$PUCSORGTOP
 10
0.0
 20
0.0
 30
0.0
  9
$PUCSORGBOTTOM
 10
0.0
 20
0.0
 30
0.0
  9
$PUCSORGLEFT
 10
0.0
 20
0.0
 30
0.0
  9
$PUCSORGRIGHT
 10
0.0
 20
0.0
 30
0.0
  9
$PUCSORGFRONT
 10
0.0
 20
0.0
 30
0.0
  9
$PUCSORGBACK
 10
0.0
 20
0.0
 30
0.0
  9
$USERI1
 70
     0
  9
$USERI2
 70
     0
  9
$USERI3
 70
     0
  9
$USERI4
 70
     0
  9
$USERI5
 70
     0
  9
$USERR1
 40
0.0
  9
$USERR2
 40
0.0
  9
$USERR3
 40
0.0
  9
$USERR4
 40
0.0
  9
$USERR5
 40
0.0
  9
$WORLDVIEW
 70
     1
  9
$SHADEDGE
 70
     3
  9
$SHADEDIF
 70
    70
  9
$TILEMODE
 70
     1
  9
$MAXACTVP
 70
    64
  9
$PINSBASE
 10
0.0
 20
0.0
 30
0.0
  9
$PLIMCHECK
 70
     0
  9
$PEXTMIN
 10
1.0000000000E+20
 20
1.0000000000E+20
 30
1.0000000000E+20
  9
$PEXTMAX
 10
-1.0000000000E+20
 20
-1.0000000000E+20
 30
-1.0000000000E+20
  9
$PLIMMIN
 10
0.0
 20
0.0
  9
$PLIMMAX
 10
12.0
 20
9.0
  9
$UNITMODE
 70
     0
  9
$VISRETAIN
 70
     1
  9
$PLINEGEN
 70
     0
  9
$PSLTSCALE
 70
     1
  9
$TREEDEPTH
 70
  3020
  9
$CMLSTYLE
  2
Standard
  9
$CMLJUST
 70
     0
  9
$CMLSCALE
 40
1.0
  9
$PROXYGRAPHICS
 70
     1
  9
$MEASUREMENT
 70
     0
  9
$CELWEIGHT
370
    -1
  9
$ENDCAPS
280
     0
  9
$JOINSTYLE
280
     0
  9
$LWDISPLAY
290
     1
  9
$INSUNITS
 70
     1
  9
$HYPERLINKBASE
  1

  9
$STYLESHEET
  1

  9
$XEDIT
290
     1
  9
$CEPSNTYPE
380
     0
  9
$PSTYLEMODE
290
     1
  9
$FINGERPRINTGUID
  2
{06c20e8e-18c1-454e-8c6c-92e87c75d8be}
  9
$VERSIONGUID
  2
{FAEB1C32-E019-11D5-929B-00C0DF256EC4}
  9
$EXTNAMES
290
     1
  9
$PSVPSCALE
 40
0.0
  9
$OLESTARTUP
290
     0
  0
ENDSEC
  0
SECTION
  2
CLASSES
  0
CLASS
  1
ACDBDICTIONARYWDFLT
  2
AcDbDictionaryWithDefault
  3
ObjectDBX Classes
 90
        0
280
     0
281
     0
  0
CLASS
  1
VISUALSTYLE
  2
AcDbVisualStyle
  3
ObjectDBX Classes
 90
     4095
280
     0
281
     0
  0
CLASS
  1
MATERIAL
  2
AcDbMaterial
  3
ObjectDBX Classes
 90
     1153
280
     0
281
     0
  0
CLASS
  1
SCALE
  2
AcDbScale
  3
ObjectDBX Classes
 90
     1153
280
     0
281
     0
  0
CLASS
  1
TABLESTYLE
  2
AcDbTableStyle
  3
ObjectDBX Classes
 90
     4095
280
     0
281
     0
  0
CLASS
  1
MLEADERSTYLE
  2
AcDbMLeaderStyle
  3
ACDB_MLEADERSTYLE_CLASS
 90
     4095
280
     0
281
     0
  0
CLASS
  1
SUN
  2
AcDbSun
  3
SCENEOE
 90
     1153
280
     0
281
     0
  0
CLASS
  1
ACDBPLACEHOLDER
  2
AcDbPlaceHolder
  3
ObjectDBX Classes
 90
        0
280
     0
281
     0
  0
CLASS
  1
LAYOUT
  2
AcDbLayout
  3
ObjectDBX Classes
 90
        0
280
     0
281
     0
  0
ENDSEC
  0
SECTION
  2
TABLES
  0
TABLE
  2
VPORT
  5
8
330
0
100
AcDbSymbolTable
 70
     1
  0
VPORT
  5
29
330
8
100
AcDbSymbolTableRecord
100
AcDbViewportTableRecord
  2
*Active
 70
     0
 10
0.0
 20
0.0
 11
1.0
 21
1.0
 12
11.0
 22
8.5
 13
0.0
 23
0.0
 14
0.5
 24
0.5
 15
0.5
 25
0.5
 16
0.0
 26
0.0
 36
1.0
 17
0.0
 27
0.0
 37
0.0
 40
17.0
 41
1.2941176471
 42
50.0
 43
0.0
 44
0.0
 50
0.0
 51
0.0
 71
     0
 72
  2000
 73
     1
 74
     3
 75
     0
 76
     0
 77
     0
 78
     0
281
     0
 65
     1
110
0.0
120
0.0
130
0.0
111
1.0
121
0.0
131
0.0
112
0.0
122
1.0
132
0.0
 79
     0
146
0.0
  0
ENDTAB
  0
TABLE
  2
LTYPE
  5
5
330
0
100
AcDbSymbolTable
 70
     6
  0
LTYPE
  5
14
330
5
100
AcDbSymbolTableRecord
100
AcDbLinetypeTableRecord
  2
ByBlock
 70
     0
  3

 72
    65
 73
     0
 40
0.0
  0
LTYPE
  5
15
330
5
100
AcDbSymbolTableRecord
100
AcDbLinetypeTableRecord
  2
ByLayer
 70
     0
  3

 72
    65
 73
     0
 40
0.0
  0
LTYPE
  5
16
330
5
100
AcDbSymbolTableRecord
100
AcDbLinetypeTableRecord
  2
Continuous
 70
     0
  3
Solid line
 72
    65
 73
     0
 40
0.0
  0
LTYPE
  5
5E
330
5
100
AcDbSymbolTableRecord
100
AcDbLinetypeTableRecord
  2
HIDDEN
 70
     0
  3
Hidden __ __ __ __ __ __ __ __ __ __ __ __ __ __
 72
    65
 73
     2
 40
0.075
 49
0.05
 74
     0
 49
-0.025
 74
     0
  0
LTYPE
  5
5F
330
5
100
AcDbSymbolTableRecord
100
AcDbLinetypeTableRecord
  2
PHANTOM
 70
     0
  3
Phantom ______  __  __  ______  __  __  ______
 72
    65
 73
     6
 40
0.5
 49
0.25
 74
     0
 49
-0.05
 74
     0
 49
0.05
 74
     0
 49
-0.05
 74
     0
 49
0.05
 74
     0
 49
-0.05
 74
     0
  0
LTYPE
  5
60
330
5
100
AcDbSymbolTableRecord
100
AcDbLinetypeTableRecord
  2
CENTER
 70
     0
  3
Center ____ _ ____ _ ____ _ ____ _ ____ _ ____
 72
    65
 73
     4
 40
0.4
 49
0.25
 74
     0
 49
-0.05
 74
     0
 49
0.05
 74
     0
 49
-0.05
 74
     0
  0
LTYPE
  5
61
330
5
100
AcDbSymbolTableRecord
100
AcDbLinetypeTableRecord
  2
CENTERX2
 70
     0
  3
Center (2x) ________  __  ________  __  _____
 72
    65
 73
     4
 40
0.8
 49
0.5
 74
     0
 49
-0.1
 74
     0
 49
0.1
 74
     0
 49
-0.1
 74
     0
  0
LTYPE
  5
62
330
5
100
AcDbSymbolTableRecord
100
AcDbLinetypeTableRecord
  2
DOT2
 70
     0
  3
Dot (.5x) ........................................
 72
    65
 73
     2
 40
0.025
 49
0.0
 74
     0
 49
-0.025
 74
     0
  0
ENDTAB
  0
TABLE
  2
LAYER
  5
2
330
0
100
AcDbSymbolTable
 70
    12
  0
LAYER
  5
10
330
2
100
AcDbSymbolTableRecord
100
AcDbLayerTableRecord
  2
0
 70
     0
 62
     7
  6
Continuous
370
    -3
390
F
  0
LAYER
  5
63
330
2
100
AcDbSymbolTableRecord
100
AcDbLayerTableRecord
  2
SLD-0
 70
     0
 62
     7
  6
Continuous
370
    -3
390
F
  0
LAYER
  5
64
330
2
100
AcDbSymbolTableRecord
100
AcDbLayerTableRecord
  2
DIM
 70
     0
 62
     7
  6
Continuous
370
    -3
390
F
  0
LAYER
  5
65
330
2
100
AcDbSymbolTableRecord
100
AcDbLayerTableRecord
  2
CEN
 70
     0
 62
     1
  6
CENTER
370
    -3
390
F
  0
LAYER
  5
66
330
2
100
AcDbSymbolTableRecord
100
AcDbLayerTableRecord
  2
HAT
 70
     0
 62
     4
  6
Continuous
370
    -3
390
F
  0
LAYER
  5
67
330
2
100
AcDbSymbolTableRecord
100
AcDbLayerTableRecord
  2
OBJ
 70
     0
 62
     5
  6
Continuous
370
    -3
390
F
  0
LAYER
  5
68
330
2
100
AcDbSymbolTableRecord
100
AcDbLayerTableRecord
  2
SLD-DEFPOINTS
 70
     0
 62
     7
  6
Continuous
370
    -3
390
F
  0
LAYER
  5
69
330
2
100
AcDbSymbolTableRecord
100
AcDbLayerTableRecord
  2
HID
 70
     0
 62
     4
  6
HIDDEN
370
    -3
390
F
  0
LAYER
  5
6A
330
2
100
AcDbSymbolTableRecord
100
AcDbLayerTableRecord
  2
NOTE
 70
     0
 62
     7
  6
Continuous
370
    -3
390
F
  0
LAYER
  5
6B
330
2
100
AcDbSymbolTableRecord
100
AcDbLayerTableRecord
  2
VP
 70
     0
 62
    -5
  6
Continuous
290
     0
370
    -3
390
F
  0
LAYER
  5
6C
330
2
100
AcDbSymbolTableRecord
100
AcDbLayerTableRecord
  2
TITLE
 70
     0
 62
     7
  6
Continuous
370
    -3
390
F
  0
LAYER
  5
6D
330
2
100
AcDbSymbolTableRecord
100
AcDbLayerTableRecord
  2
THICK_TITLE
 70
     0
 62
     7
  6
Continuous
370
   100
390
F
  0
ENDTAB
  0
TABLE
  2
STYLE
  5
3
330
0
100
AcDbSymbolTable
 70
     2
  0
STYLE
  5
11
330
3
100
AcDbSymbolTableRecord
100
AcDbTextStyleTableRecord
  2
STANDARD
 70
     0
 40
0.0
 41
1.0
 50
0.0
 71
     0
 42
0.25
  3
GOTHIC.TTF
  4

1001
ACAD
1000
CENTURY GOTHIC
1071
       34
  0
STYLE
  5
74
330
3
100
AcDbSymbolTableRecord
100
AcDbTextStyleTableRecord
  2
SLDTEXTSTYLE0
 70
     0
 40
0.0
 41
0.913
 50
0.0
 71
     0
 42
0.25
  3
GOTHIC.TTF
  4

1001
ACAD
1000
Century Gothic
1071
      290
  0
ENDTAB
  0
TABLE
  2
VIEW
  5
6
330
0
100
AcDbSymbolTable
 70
     0
  0
ENDTAB
  0
TABLE
  2
UCS
  5
7
330
0
100
AcDbSymbolTable
 70
     0
  0
ENDTAB
  0
TABLE
  2
APPID
  5
9
330
0
100
AcDbSymbolTable
 70
     1
  0
APPID
  5
12
330
9
100
AcDbSymbolTableRecord
100
AcDbRegAppTableRecord
  2
ACAD
 70
     0
  0
ENDTAB
  0
TABLE
  2
DIMSTYLE
  5
A
330
0
100
AcDbSymbolTable
 70
     4
100
AcDbDimStyleTable
  0
DIMSTYLE
105
27
330
A
100
AcDbSymbolTableRecord
100
AcDbDimStyleTableRecord
  2
Standard
 70
     0
178
     0
340
11
  0
DIMSTYLE
105
D9
102
{ACAD_REACTORS
330
D8
330
ED
330
117
330
154
102
}
330
A
100
AcDbSymbolTableRecord
100
AcDbDimStyleTableRecord
  2
SLDDIMSTYLE0
 70
     0
 41
0.26
 44
0.0
 45
0.000000001
 78
    12
 79
     3
140
0.25
147
0.0625
148
0.000000001
170
     1
172
     1
173
     1
178
     0
271
     6
272
     0
276
     2
277
     5
284
    12
289
     0
340
74
  0
DIMSTYLE
105
102
102
{ACAD_REACTORS
330
101
330
13F
330
1AF
330
1CF
330
1ED
102
}
330
A
100
AcDbSymbolTableRecord
100
AcDbDimStyleTableRecord
  2
SLDDIMSTYLE1
 70
     0
 41
0.26
 44
0.0
 45
0.000000001
 78
    12
 79
     3
140
0.25
147
0.0625
148
0.000000001
170
     1
173
     1
178
     0
271
     6
272
     0
276
     2
277
     5
284
    12
340
74
  0
DIMSTYLE
105
168
102
{ACAD_REACTORS
330
167
102
}
330
A
100
AcDbSymbolTableRecord
100
AcDbDimStyleTableRecord
  2
SLDDIMSTYLE2
 70
     0
 41
0.26
 44
0.0
 45
0.000000001
 78
    12
 79
     3
140
0.25
147
0.0625
148
0.000000001
170
     1
173
     1
178
     0
271
     0
272
     0
276
     2
277
     5
284
    12
340
74
  0
ENDTAB
  0
TABLE
  2
BLOCK_RECORD
  5
1
330
0
100
AcDbSymbolTable
 70
    17
  0
BLOCK_RECORD
  5
1F
330
1
100
AcDbSymbolTableRecord
100
AcDbBlockTableRecord
  2
*Model_Space
340
22
  0
BLOCK_RECORD
  5
1B
330
1
100
AcDbSymbolTableRecord
100
AcDbBlockTableRecord
  2
*Paper_Space
340
1E
  0
BLOCK_RECORD
  5
23
330
1
100
AcDbSymbolTableRecord
100
AcDbBlockTableRecord
  2
*Paper_Space0
340
26
  0
BLOCK_RECORD
  5
6E
330
1
100
AcDbSymbolTableRecord
100
AcDbBlockTableRecord
  2
Block1
340
0
102
{BLKREFS
331
1AE
102
}
  0
BLOCK_RECORD
  5
71
330
1
100
AcDbSymbolTableRecord
100
AcDbBlockTableRecord
  2
SW_NOTE_0
340
0
102
{BLKREFS
331
76
102
}
  0
BLOCK_RECORD
  5
77
330
1
100
AcDbSymbolTableRecord
100
AcDbBlockTableRecord
  2
Block2
340
0
102
{BLKREFS
331
1CE
102
}
  0
BLOCK_RECORD
  5
7A
330
1
100
AcDbSymbolTableRecord
100
AcDbBlockTableRecord
  2
SW_NOTE_0_1
340
0
102
{BLKREFS
331
7E
102
}
  0
BLOCK_RECORD
  5
7F
330
1
100
AcDbSymbolTableRecord
100
AcDbBlockTableRecord
  2
Block3
340
0
102
{BLKREFS
331
1EC
102
}
  0
BLOCK_RECORD
  5
82
330
1
100
AcDbSymbolTableRecord
100
AcDbBlockTableRecord
  2
SW_NOTE_0_2
340
0
102
{BLKREFS
331
86
102
}
  0
BLOCK_RECORD
  5
DA
330
1
100
AcDbSymbolTableRecord
100
AcDbBlockTableRecord
  2
_D
340
0
  0
BLOCK_RECORD
  5
EE
330
1
100
AcDbSymbolTableRecord
100
AcDbBlockTableRecord
  2
_D_1
340
0
  0
BLOCK_RECORD
  5
103
330
1
100
AcDbSymbolTableRecord
100
AcDbBlockTableRecord
  2
_D_2
340
0
  0
BLOCK_RECORD
  5
118
330
1
100
AcDbSymbolTableRecord
100
AcDbBlockTableRecord
  2
_D_3
340
0
  0
BLOCK_RECORD
  5
140
330
1
100
AcDbSymbolTableRecord
100
AcDbBlockTableRecord
  2
_D_4
340
0
  0
BLOCK_RECORD
  5
155
330
1
100
AcDbSymbolTableRecord
100
AcDbBlockTableRecord
  2
_D_5
340
0
  0
BLOCK_RECORD
  5
169
330
1
100
AcDbSymbolTableRecord
100
AcDbBlockTableRecord
  2
_D_6
340
0
  0
BLOCK_RECORD
  5
1B0
330
1
100
AcDbSymbolTableRecord
100
AcDbBlockTableRecord
  2
_D_7
340
0
  0
BLOCK_RECORD
  5
1D0
330
1
100
AcDbSymbolTableRecord
100
AcDbBlockTableRecord
  2
_D_8
340
0
  0
BLOCK_RECORD
  5
1EE
330
1
100
AcDbSymbolTableRecord
100
AcDbBlockTableRecord
  2
_D_9
340
0
  0
ENDTAB
  0
ENDSEC
  0
SECTION
  2
BLOCKS
  0
BLOCK
  5
20
330
1F
100
AcDbEntity
  8
0
100
AcDbBlockBegin
  2
*Model_Space
 70
     0
 10
0.0
 20
0.0
 30
0.0
  3
*Model_Space
  1

  0
ENDBLK
  5
21
330
1F
100
AcDbEntity
  8
0
100
AcDbBlockEnd
  0
BLOCK
  5
1C
330
1B
100
AcDbEntity
 67
     1
  8
0
100
AcDbBlockBegin
  2
*Paper_Space
 70
     0
 10
0.0
 20
0.0
 30
0.0
  3
*Paper_Space
  1

  0
ENDBLK
  5
1D
330
1B
100
AcDbEntity
 67
     1
  8
0
100
AcDbBlockEnd
  0
BLOCK
  5
24
330
23
100
AcDbEntity
  8
0
100
AcDbBlockBegin
  2
*Paper_Space0
 70
     0
 10
0.0
 20
0.0
 30
0.0
  3
*Paper_Space0
  1

  0
ENDBLK
  5
25
330
23
100
AcDbEntity
  8
0
100
AcDbBlockEnd
  0
BLOCK
  5
6F
330
6E
100
AcDbEntity
  8
0
100
AcDbBlockBegin
  2
Block1
 70
     0
 10
0.0
 20
0.0
 30
0.0
  3
Block1
  1

  0
INSERT
  5
76
330
6E
100
AcDbEntity
  8
0
  6
Continuous
 62
     7
370
     0
100
AcDbBlockReference
  2
SW_NOTE_0
 10
0.0008214865
 20
-0.0347641935
 30
0.0
  0
ENDBLK
  5
70
330
6E
100
AcDbEntity
  8
0
100
AcDbBlockEnd
  0
BLOCK
  5
72
330
71
100
AcDbEntity
  8
0
100
AcDbBlockBegin
  2
SW_NOTE_0
 70
     0
 10
0.0
 20
0.0
 30
0.0
  3
SW_NOTE_0
  1

  0
MTEXT
  5
75
330
71
100
AcDbEntity
  8
0
  6
Continuous
 62
     0
370
     0
100
AcDbMText
 10
1.1588541667
 20
0.5322265625
 30
0.0
 40
0.4166666667
 41
0.0
 71
     2
 72
     1
  1
A/D CAP
  7
SLDTEXTSTYLE0
 73
     1
 44
1.0
  0
ENDBLK
  5
73
330
71
100
AcDbEntity
  8
0
100
AcDbBlockEnd
  0
BLOCK
  5
78
330
77
100
AcDbEntity
  8
0
100
AcDbBlockBegin
  2
Block2
 70
     0
 10
0.0
 20
0.0
 30
0.0
  3
Block2
  1

  0
INSERT
  5
7E
330
77
100
AcDbEntity
  8
0
  6
Continuous
 62
     7
370
     0
100
AcDbBlockReference
  2
SW_NOTE_0_1
 10
0.0078828751
 20
0.5683615613
 30
0.0
  0
ENDBLK
  5
79
330
77
100
AcDbEntity
  8
0
100
AcDbBlockEnd
  0
BLOCK
  5
7B
330
7A
100
AcDbEntity
  8
0
100
AcDbBlockBegin
  2
SW_NOTE_0_1
 70
     0
 10
0.0
 20
0.0
 30
0.0
  3
SW_NOTE_0_1
  1

  0
MTEXT
  5
7D
330
7A
100
AcDbEntity
  8
0
  6
Continuous
 62
     0
370
     0
100
AcDbMText
 10
1.07421875
 20
0.5322265625
 30
0.0
 40
0.4166666667
 41
0.0
 71
     2
 72
     1
  1
B/E CAP
  7
SLDTEXTSTYLE0
 73
     1
 44
1.0
  0
ENDBLK
  5
7C
330
7A
100
AcDbEntity
  8
0
100
AcDbBlockEnd
  0
BLOCK
  5
80
330
7F
100
AcDbEntity
  8
0
100
AcDbBlockBegin
  2
Block3
 70
     0
 10
0.0
 20
0.0
 30
0.0
  3
Block3
  1

  0
INSERT
  5
86
330
7F
100
AcDbEntity
  8
0
  6
Continuous
 62
     7
370
     0
100
AcDbBlockReference
  2
SW_NOTE_0_2
 10
0.0226267664
 20
-0.0185493262
 30
0.0
  0
ENDBLK
  5
81
330
7F
100
AcDbEntity
  8
0
100
AcDbBlockEnd
  0
BLOCK
  5
83
330
82
100
AcDbEntity
  8
0
100
AcDbBlockBegin
  2
SW_NOTE_0_2
 70
     0
 10
0.0
 20
0.0
 30
0.0
  3
SW_NOTE_0_2
  1

  0
MTEXT
  5
85
330
82
100
AcDbEntity
  8
0
  6
Continuous
 62
     0
370
     0
100
AcDbMText
 10
0.8723958333
 20
0.5322265625
 30
0.0
 40
0.4166666667
 41
0.0
 71
     2
 72
     1
  1
C CAP
  7
SLDTEXTSTYLE0
 73
     1
 44
1.0
  0
ENDBLK
  5
84
330
82
100
AcDbEntity
  8
0
100
AcDbBlockEnd
  0
BLOCK
  5
DB
330
DA
100
AcDbEntity
  8
0
100
AcDbBlockBegin
  2
_D
 70
     0
 10
0.0
 20
0.0
 30
0.0
  3
_D
  1

  0
SOLID
  5
DD
330
DA
100
AcDbEntity
  8
0
  6
Continuous
 62
     7
370
    18
100
AcDbTrace
 10
2.6458950458
 20
15.034445213
 30
0.0
 11
2.3858950458
 21
15.074445213
 31
0.0
 12
2.3858950458
 22
14.994445213
 32
0.0
 13
2.3858950458
 23
14.994445213
 33
0.0
  0
SOLID
  5
DE
330
DA
100
AcDbEntity
  8
0
  6
Continuous
 62
     7
370
    18
100
AcDbTrace
 10
3.0208950458
 20
15.034445213
 30
0.0
 11
3.2808950458
 21
14.994445213
 31
0.0
 12
3.2808950458
 22
15.074445213
 32
0.0
 13
3.2808950458
 23
15.074445213
 33
0.0
  0
LINE
  5
DF
330
DA
100
AcDbEntity
  8
0
  6
Continuous
 62
     7
370
     0
100
AcDbLine
 10
0.6388303301
 20
15.0325354517
 30
0.0
 11
0.5626584559
 21
15.0325354517
 31
0.0
  0
LINE
  5
E0
330
DA
100
AcDbEntity
  8
0
  6
Continuous
 62
     7
370
     0
100
AcDbLine
 10
0.5626584559
 20
15.0325354517
 30
0.0
 11
0.5626584559
 21
14.6356604398
 31
0.0
  0
LINE
  5
E1
330
DA
100
AcDbEntity
  8
0
  6
Continuous
 62
     7
370
     0
100
AcDbLine
 10
0.5626584559
 20
14.6356604398
 30
0.0
 11
0.6388303301
 21
14.6356604398
 31
0.0
  0
LINE
  5
E2
330
DA
100
AcDbEntity
  8
0
  6
Continuous
 62
     7
370
     0
100
AcDbLine
 10
1.6332747955
 20
15.0325354517
 30
0.0
 11
1.7094466697
 21
15.0325354517
 31
0.0
  0
LINE
  5
E3
330
DA
100
AcDbEntity
  8
0
  6
Continuous
 62
     7
370
     0
100
AcDbLine
 10
1.7094466697
 20
15.0325354517
 30
0.0
 11
1.7094466697
 21
14.6356604398
 31
0.0
  0
LINE
  5
E4
330
DA
100
AcDbEntity
  8
0
  6
Continuous
 62
     7
370
     0
100
AcDbLine
 10
1.7094466697
 20
14.6356604398
 30
0.0
 11
1.6332747955
 21
14.6356604398
 31
0.0
  0
LINE
  5
E5
330
DA
100
AcDbEntity
  8
0
  6
Continuous
 62
     7
370
     0
100
AcDbLine
 10
2.6458950458
 20
14.5523062015
 30
0.0
 11
2.6458950458
 21
15.284445213
 31
0.0
  0
LINE
  5
E6
330
DA
100
AcDbEntity
  8
0
  6
Continuous
 62
     7
370
     0
100
AcDbLine
 10
3.0208950458
 20
14.5023062015
 30
0.0
 11
3.0208950458
 21
15.284445213
 31
0.0
  0
LINE
  5
E7
330
DA
100
AcDbEntity
  8
0
  6
Continuous
 62
     7
370
     0
100
AcDbLine
 10
2.6458950458
 20
15.034445213
 30
0.0
 11
1.928681555
 21
15.034445213
 31
0.0
  0
LINE
  5
E8
330
DA
100
AcDbEntity
  8
0
  6
Continuous
 62
     7
370
     0
100
AcDbLine
 10
3.0208950458
 20
15.034445213
 30
0.0
 11
3.5208950458
 21
15.034445213
 31
0.0
  0
MTEXT
  5
E9
330
DA
100
AcDbEntity
  8
0
  6
Continuous
 62
     7
370
    18
100
AcDbMText
 10
0.3941254703
 20
15.4064721093
 30
0.0
 40
0.25
 41
0.0
 71
     1
 72
     1
  1
 
  7
SLDTEXTSTYLE0
 73
     1
 44
1.0
  0
MTEXT
  5
EA
330
DA
100
AcDbEntity
  8
0
  6
Continuous
 62
     7
370
    18
100
AcDbMText
 10
0.8268511397
 20
15.4026526464
 30
0.0
 40
0.25
 41
0.0
 71
     1
 72
     1
  1
3/8"
  7
SLDTEXTSTYLE0
 73
     1
 44
1.0
  0
MTEXT
  5
EB
330
DA
100
AcDbEntity
  8
0
  6
Continuous
 62
     7
370
    18
100
AcDbMText
 10
0.6388303301
 20
14.9549964048
 30
0.0
 40
0.25
 41
0.0
 71
     1
 72
     1
  1
10mm
  7
SLDTEXTSTYLE0
 73
     1
 44
1.0
  0
MTEXT
  5
EC
330
DA
100
AcDbEntity
  8
0
  6
Continuous
 62
     7
370
    18
100
AcDbMText
 10
1.785618489
 20
15.4064721093
 30
0.0
 40
0.25
 41
0.0
 71
     1
 72
     1
  1
 
  7
SLDTEXTSTYLE0
 73
     1
 44
1.0
  0
ENDBLK
  5
DC
330
DA
100
AcDbEntity
  8
0
100
AcDbBlockEnd
  0
BLOCK
  5
EF
330
EE
100
AcDbEntity
  8
0
100
AcDbBlockBegin
  2
_D_1
 70
     0
 10
0.0
 20
0.0
 30
0.0
  3
_D_1
  1

  0
SOLID
  5
F1
330
EE
100
AcDbEntity
  8
0
  6
Continuous
 62
     7
370
    18
100
AcDbTrace
 10
3.0208950458
 20
15.9424640254
 30
0.0
 11
2.7608950458
 21
15.9824640254
 31
0.0
 12
2.7608950458
 22
15.9024640254
 32
0.0
 13
2.7608950458
 23
15.9024640254
 33
0.0
  0
SOLID
  5
F2
330
EE
100
AcDbEntity
  8
0
  6
Continuous
 62
     7
370
    18
100
AcDbTrace
 10
5.2658950458
 20
15.9424640254
 30
0.0
 11
5.5258950458
 21
15.9024640254
 31
0.0
 12
5.5258950458
 22
15.9824640254
 32
0.0
 13
5.5258950458
 23
15.9824640254
 33
0.0
  0
LINE
  5
F3
330
EE
100
AcDbEntity
  8
0
  6
Continuous
 62
     7
370
     0
100
AcDbLine
 10
3.6461728498
 20
15.9405542642
 30
0.0
 11
3.5700009755
 21
15.9405542642
 31
0.0
  0
LINE
  5
F4
330
EE
100
AcDbEntity
  8
0
  6
Continuous
 62
     7
370
     0
100
AcDbLine
 10
3.5700009755
 20
15.9405542642
 30
0.0
 11
3.5700009755
 21
15.5436792522
 31
0.0
  0
LINE
  5
F5
330
EE
100
AcDbEntity
  8
0
  6
Continuous
 62
     7
370
     0
100
AcDbLine
 10
3.5700009755
 20
15.5436792522
 30
0.0
 11
3.6461728498
 21
15.5436792522
 31
0.0
  0
LINE
  5
F6
330
EE
100
AcDbEntity
  8
0
  6
Continuous
 62
     7
370
     0
100
AcDbLine
 10
4.6406173152
 20
15.9405542642
 30
0.0
 11
4.7167891894
 21
15.9405542642
 31
0.0
  0
LINE
  5
F7
330
EE
100
AcDbEntity
  8
0
  6
Continuous
 62
     7
370
     0
100
AcDbLine
 10
4.7167891894
 20
15.9405542642
 30
0.0
 11
4.7167891894
 21
15.5436792522
 31
0.0
  0
LINE
  5
F8
330
EE
100
AcDbEntity
  8
0
  6
Continuous
 62
     7
370
     0
100
AcDbLine
 10
4.7167891894
 20
15.5436792522
 30
0.0
 11
4.6406173152
 21
15.5436792522
 31
0.0
  0
LINE
  5
F9
330
EE
100
AcDbEntity
  8
0
  6
Continuous
 62
     7
370
     0
100
AcDbLine
 10
3.0208950458
 20
14.5023062015
 30
0.0
 11
3.0208950458
 21
16.1924640254
 31
0.0
  0
LINE
  5
FA
330
EE
100
AcDbEntity
  8
0
  6
Continuous
 62
     7
370
     0
100
AcDbLine
 10
5.2658950458
 20
13.5223062015
 30
0.0
 11
5.2658950458
 21
16.1924640254
 31
0.0
  0
LINE
  5
FB
330
EE
100
AcDbEntity
  8
0
  6
Continuous
 62
     7
370
     0
100
AcDbLine
 10
3.0208950458
 20
15.9424640254
 30
0.0
 11
2.5208950458
 21
15.9424640254
 31
0.0
  0
LINE
  5
FC
330
EE
100
AcDbEntity
  8
0
  6
Continuous
 62
     7
370
     0
100
AcDbLine
 10
5.2658950458
 20
15.9424640254
 30
0.0
 11
5.7658950458
 21
15.9424640254
 31
0.0
  0
MTEXT
  5
FD
330
EE
100
AcDbEntity
  8
0
  6
Continuous
 62
     7
370
    18
100
AcDbMText
 10
3.40146799
 20
16.3144909217
 30
0.0
 40
0.25
 41
0.0
 71
     1
 72
     1
  1
 
  7
SLDTEXTSTYLE0
 73
     1
 44
1.0
  0
MTEXT
  5
FE
330
EE
100
AcDbEntity
  8
0
  6
Continuous
 62
     7
370
    18
100
AcDbMText
 10
3.6956520198
 20
16.3106714588
 30
0.0
 40
0.25
 41
0.0
 71
     1
 72
     1
  1
2 1/4"
  7
SLDTEXTSTYLE0
 73
     1
 44
1.0
  0
MTEXT
  5
FF
330
EE
100
AcDbEntity
  8
0
  6
Continuous
 62
     7
370
    18
100
AcDbMText
 10
3.6461728498
 20
15.8630152172
 30
0.0
 40
0.25
 41
0.0
 71
     1
 72
     1
  1
57mm
  7
SLDTEXTSTYLE0
 73
     1
 44
1.0
  0
MTEXT
  5
100
330
EE
100
AcDbEntity
  8
0
  6
Continuous
 62
     7
370
    18
100
AcDbMText
 10
4.7929610086
 20
16.3144909217
 30
0.0
 40
0.25
 41
0.0
 71
     1
 72
     1
  1
 
  7
SLDTEXTSTYLE0
 73
     1
 44
1.0
  0
ENDBLK
  5
F0
330
EE
100
AcDbEntity
  8
0
100
AcDbBlockEnd
  0
BLOCK
  5
104
330
103
100
AcDbEntity
  8
0
100
AcDbBlockBegin
  2
_D_2
 70
     0
 10
0.0
 20
0.0
 30
0.0
  3
_D_2
  1

  0
SOLID
  5
106
330
103
100
AcDbEntity
  8
0
  6
Continuous
 62
     7
370
    18
100
AcDbTrace
 10
5.63353812
 20
12.7023062015
 30
0.0
 11
5.59353812
 21
12.4423062015
 31
0.0
 12
5.67353812
 22
12.4423062015
 32
0.0
 13
5.67353812
 23
12.4423062015
 33
0.0
  0
SOLID
  5
107
330
103
100
AcDbEntity
  8
0
  6
Continuous
 62
     7
370
    18
100
AcDbTrace
 10
5.63353812
 20
11.9523062015
 30
0.0
 11
5.67353812
 21
12.2123062015
 31
0.0
 12
5.59353812
 22
12.2123062015
 32
0.0
 13
5.59353812
 23
12.2123062015
 33
0.0
  0
LINE
  5
108
330
103
100
AcDbEntity
  8
0
  6
Continuous
 62
     7
370
     0
100
AcDbLine
 10
6.5303488989
 20
10.6386943914
 30
0.0
 11
6.4541770247
 21
10.6386943914
 31
0.0
  0
LINE
  5
109
330
103
100
AcDbEntity
  8
0
  6
Continuous
 62
     7
370
     0
100
AcDbLine
 10
6.4541770247
 20
10.6386943914
 30
0.0
 11
6.4541770247
 21
10.2418193795
 31
0.0
  0
LINE
  5
10A
330
103
100
AcDbEntity
  8
0
  6
Continuous
 62
     7
370
     0
100
AcDbLine
 10
6.4541770247
 20
10.2418193795
 30
0.0
 11
6.5303488989
 21
10.2418193795
 31
0.0
  0
LINE
  5
10B
330
103
100
AcDbEntity
  8
0
  6
Continuous
 62
     7
370
     0
100
AcDbLine
 10
7.5247933643
 20
10.6386943914
 30
0.0
 11
7.6009652386
 21
10.6386943914
 31
0.0
  0
LINE
  5
10C
330
103
100
AcDbEntity
  8
0
  6
Continuous
 62
     7
370
     0
100
AcDbLine
 10
7.6009652386
 20
10.6386943914
 30
0.0
 11
7.6009652386
 21
10.2418193795
 31
0.0
  0
LINE
  5
10D
330
103
100
AcDbEntity
  8
0
  6
Continuous
 62
     7
370
     0
100
AcDbLine
 10
7.6009652386
 20
10.2418193795
 30
0.0
 11
7.5247933643
 21
10.2418193795
 31
0.0
  0
LINE
  5
10E
330
103
100
AcDbEntity
  8
0
  6
Continuous
 62
     7
370
     0
100
AcDbLine
 10
2.5808950458
 20
12.7023062015
 30
0.0
 11
5.88353812
 21
12.7023062015
 31
0.0
  0
LINE
  5
10F
330
103
100
AcDbEntity
  8
0
  6
Continuous
 62
     7
370
     0
100
AcDbLine
 10
5.3658950458
 20
11.9523062015
 30
0.0
 11
5.88353812
 21
11.9523062015
 31
0.0
  0
LINE
  5
110
330
103
100
AcDbEntity
  8
0
  6
Continuous
 62
     7
370
     0
100
AcDbLine
 10
6.13353812
 20
10.6406041527
 30
0.0
 11
5.63353812
 21
10.6406041527
 31
0.0
  0
LINE
  5
111
330
103
100
AcDbEntity
  8
0
  6
Continuous
 62
     7
370
     0
100
AcDbLine
 10
5.63353812
 20
10.6406041527
 30
0.0
 11
5.63353812
 21
11.9523062015
 31
0.0
  0
LINE
  5
112
330
103
100
AcDbEntity
  8
0
  6
Continuous
 62
     7
370
     0
100
AcDbLine
 10
5.63353812
 20
12.7023062015
 30
0.0
 11
5.63353812
 21
11.9523062015
 31
0.0
  0
MTEXT
  5
113
330
103
100
AcDbEntity
  8
0
  6
Continuous
 62
     7
370
    18
100
AcDbMText
 10
6.2856440391
 20
11.012631049
 30
0.0
 40
0.25
 41
0.0
 71
     1
 72
     1
  1
 
  7
SLDTEXTSTYLE0
 73
     1
 44
1.0
  0
MTEXT
  5
114
330
103
100
AcDbEntity
  8
0
  6
Continuous
 62
     7
370
    18
100
AcDbMText
 10
6.7183697085
 20
11.0088115861
 30
0.0
 40
0.25
 41
0.0
 71
     1
 72
     1
  1
3/4"
  7
SLDTEXTSTYLE0
 73
     1
 44
1.0
  0
MTEXT
  5
115
330
103
100
AcDbEntity
  8
0
  6
Continuous
 62
     7
370
    18
100
AcDbMText
 10
6.5303488989
 20
10.5611553445
 30
0.0
 40
0.25
 41
0.0
 71
     1
 72
     1
  1
19mm
  7
SLDTEXTSTYLE0
 73
     1
 44
1.0
  0
MTEXT
  5
116
330
103
100
AcDbEntity
  8
0
  6
Continuous
 62
     7
370
    18
100
AcDbMText
 10
7.6771370578
 20
11.012631049
 30
0.0
 40
0.25
 41
0.0
 71
     1
 72
     1
  1
 
  7
SLDTEXTSTYLE0
 73
     1
 44
1.0
  0
ENDBLK
  5
105
330
103
100
AcDbEntity
  8
0
100
AcDbBlockEnd
  0
BLOCK
  5
119
330
118
100
AcDbEntity
  8
0
100
AcDbBlockBegin
  2
_D_3
 70
     0
 10
0.0
 20
0.0
 30
0.0
  3
_D_3
  1

  0
SOLID
  5
11B
330
118
100
AcDbEntity
  8
0
  6
Continuous
 62
     7
370
    18
100
AcDbTrace
 10
7.0174648425
 20
13.4523062015
 30
0.0
 11
7.0574648425
 21
13.7123062015
 31
0.0
 12
6.9774648425
 22
13.7123062015
 32
0.0
 13
6.9774648425
 23
13.7123062015
 33
0.0
  0
SOLID
  5
11C
330
118
100
AcDbEntity
  8
0
  6
Continuous
 62
     7
370
    18
100
AcDbTrace
 10
7.0174648425
 20
11.9523062015
 30
0.0
 11
6.9774648425
 21
11.6923062015
 31
0.0
 12
7.0574648425
 22
11.6923062015
 32
0.0
 13
7.0574648425
 23
11.6923062015
 33
0.0
  0
LINE
  5
11D
330
118
100
AcDbEntity
  8
0
  6
Continuous
 62
     7
370
     0
100
AcDbLine
 10
6.5202426464
 20
12.7003964402
 30
0.0
 11
6.4440707722
 21
12.7003964402
 31
0.0
  0
LINE
  5
11E
330
118
100
AcDbEntity
  8
0
  6
Continuous
 62
     7
370
     0
100
AcDbLine
 10
6.4440707722
 20
12.7003964402
 30
0.0
 11
6.4440707722
 21
12.3035214283
 31
0.0
  0
LINE
  5
11F
330
118
100
AcDbEntity
  8
0
  6
Continuous
 62
     7
370
     0
100
AcDbLine
 10
6.4440707722
 20
12.3035214283
 30
0.0
 11
6.5202426464
 21
12.3035214283
 31
0.0
  0
LINE
  5
120
330
118
100
AcDbEntity
  8
0
  6
Continuous
 62
     7
370
     0
100
AcDbLine
 10
7.5146871119
 20
12.7003964402
 30
0.0
 11
7.5908589861
 21
12.7003964402
 31
0.0
  0
LINE
  5
121
330
118
100
AcDbEntity
  8
0
  6
Continuous
 62
     7
370
     0
100
AcDbLine
 10
7.5908589861
 20
12.7003964402
 30
0.0
 11
7.5908589861
 21
12.3035214283
 31
0.0
  0
LINE
  5
122
330
118
100
AcDbEntity
  8
0
  6
Continuous
 62
     7
370
     0
100
AcDbLine
 10
7.5908589861
 20
12.3035214283
 30
0.0
 11
7.5146871119
 21
12.3035214283
 31
0.0
  0
LINE
  5
123
330
118
100
AcDbEntity
  8
0
  6
Continuous
 62
     7
370
     0
100
AcDbLine
 10
5.3358950458
 20
13.4523062015
 30
0.0
 11
7.2674648425
 21
13.4523062015
 31
0.0
  0
LINE
  5
124
330
118
100
AcDbEntity
  8
0
  6
Continuous
 62
     7
370
     0
100
AcDbLine
 10
5.3658950458
 20
11.9523062015
 30
0.0
 11
7.2674648425
 21
11.9523062015
 31
0.0
  0
LINE
  5
125
330
118
100
AcDbEntity
  8
0
  6
Continuous
 62
     7
370
     0
100
AcDbLine
 10
7.0174648425
 20
13.4523062015
 30
0.0
 11
7.0174648425
 21
13.9523062015
 31
0.0
  0
LINE
  5
126
330
118
100
AcDbEntity
  8
0
  6
Continuous
 62
     7
370
     0
100
AcDbLine
 10
7.0174648425
 20
11.9523062015
 30
0.0
 11
7.0174648425
 21
11.4523062015
 31
0.0
  0
MTEXT
  5
127
330
118
100
AcDbEntity
  8
0
  6
Continuous
 62
     7
370
    18
100
AcDbMText
 10
6.2755377866
 20
13.0743330978
 30
0.0
 40
0.25
 41
0.0
 71
     1
 72
     1
  1
 
  7
SLDTEXTSTYLE0
 73
     1
 44
1.0
  0
MTEXT
  5
128
330
118
100
AcDbEntity
  8
0
  6
Continuous
 62
     7
370
    18
100
AcDbMText
 10
6.5697218165
 20
13.0705136348
 30
0.0
 40
0.25
 41
0.0
 71
     1
 72
     1
  1
1 1/2"
  7
SLDTEXTSTYLE0
 73
     1
 44
1.0
  0
MTEXT
  5
129
330
118
100
AcDbEntity
  8
0
  6
Continuous
 62
     7
370
    18
100
AcDbMText
 10
6.5202426464
 20
12.6228573933
 30
0.0
 40
0.25
 41
0.0
 71
     1
 72
     1
  1
38mm
  7
SLDTEXTSTYLE0
 73
     1
 44
1.0
  0
MTEXT
  5
12A
330
118
100
AcDbEntity
  8
0
  6
Continuous
 62
     7
370
    18
100
AcDbMText
 10
7.6670308053
 20
13.0743330978
 30
0.0
 40
0.25
 41
0.0
 71
     1
 72
     1
  1
 
  7
SLDTEXTSTYLE0
 73
     1
 44
1.0
  0
ENDBLK
  5
11A
330
118
100
AcDbEntity
  8
0
100
AcDbBlockEnd
  0
BLOCK
  5
141
330
140
100
AcDbEntity
  8
0
100
AcDbBlockBegin
  2
_D_4
 70
     0
 10
0.0
 20
0.0
 30
0.0
  3
_D_4
  1

  0
SOLID
  5
143
330
140
100
AcDbEntity
  8
0
  6
Continuous
 62
     7
370
    18
100
AcDbTrace
 10
9.309787296
 20
15.9294487541
 30
0.0
 11
9.569787296
 21
15.8894487541
 31
0.0
 12
9.569787296
 22
15.9694487541
 32
0.0
 13
9.569787296
 23
15.9694487541
 33
0.0
  0
SOLID
  5
144
330
140
100
AcDbEntity
  8
0
  6
Continuous
 62
     7
370
    18
100
AcDbTrace
 10
12.809787296
 20
15.9294487541
 30
0.0
 11
12.549787296
 21
15.9694487541
 31
0.0
 12
12.549787296
 22
15.8894487541
 32
0.0
 13
12.549787296
 23
15.8894487541
 33
0.0
  0
LINE
  5
145
330
140
100
AcDbEntity
  8
0
  6
Continuous
 62
     7
370
     0
100
AcDbLine
 10
10.5625650817
 20
15.9294487174
 30
0.0
 11
10.4863932074
 21
15.9294487174
 31
0.0
  0
LINE
  5
146
330
140
100
AcDbEntity
  8
0
  6
Continuous
 62
     7
370
     0
100
AcDbLine
 10
10.4863932074
 20
15.9294487174
 30
0.0
 11
10.4863932074
 21
15.5325737055
 31
0.0
  0
LINE
  5
147
330
140
100
AcDbEntity
  8
0
  6
Continuous
 62
     7
370
     0
100
AcDbLine
 10
10.4863932074
 20
15.5325737055
 30
0.0
 11
10.5625650817
 21
15.5325737055
 31
0.0
  0
LINE
  5
148
330
140
100
AcDbEntity
  8
0
  6
Continuous
 62
     7
370
     0
100
AcDbLine
 10
11.5570095471
 20
15.9294487174
 30
0.0
 11
11.6331814213
 21
15.9294487174
 31
0.0
  0
LINE
  5
149
330
140
100
AcDbEntity
  8
0
  6
Continuous
 62
     7
370
     0
100
AcDbLine
 10
11.6331814213
 20
15.9294487174
 30
0.0
 11
11.6331814213
 21
15.5325737055
 31
0.0
  0
LINE
  5
14A
330
140
100
AcDbEntity
  8
0
  6
Continuous
 62
     7
370
     0
100
AcDbLine
 10
11.6331814213
 20
15.5325737055
 30
0.0
 11
11.5570095471
 21
15.5325737055
 31
0.0
  0
LINE
  5
14B
330
140
100
AcDbEntity
  8
0
  6
Continuous
 62
     7
370
     0
100
AcDbLine
 10
9.309787296
 20
12.8023062015
 30
0.0
 11
9.309787296
 21
14.9583797588
 31
0.0
  0
LINE
  5
14C
330
140
100
AcDbEntity
  8
0
  6
Continuous
 62
     7
370
     0
100
AcDbLine
 10
9.309787296
 20
15.0783797588
 30
0.0
 11
9.309787296
 21
16.1794487541
 31
0.0
  0
LINE
  5
14D
330
140
100
AcDbEntity
  8
0
  6
Continuous
 62
     7
370
     0
100
AcDbLine
 10
12.809787296
 20
12.8023062015
 30
0.0
 11
12.809787296
 21
14.9583797588
 31
0.0
  0
LINE
  5
14E
330
140
100
AcDbEntity
  8
0
  6
Continuous
 62
     7
370
     0
100
AcDbLine
 10
12.809787296
 20
15.0783797588
 30
0.0
 11
12.809787296
 21
16.1794487541
 31
0.0
  0
LINE
  5
14F
330
140
100
AcDbEntity
  8
0
  6
Continuous
 62
     7
370
     0
100
AcDbLine
 10
9.309787296
 20
15.9294487541
 30
0.0
 11
10.3595193602
 21
15.9294487541
 31
0.0
  0
LINE
  5
150
330
140
100
AcDbEntity
  8
0
  6
Continuous
 62
     7
370
     0
100
AcDbLine
 10
12.809787296
 20
15.9294487541
 30
0.0
 11
11.7600552319
 21
15.9294487541
 31
0.0
  0
MTEXT
  5
151
330
140
100
AcDbEntity
  8
0
  6
Continuous
 62
     7
370
    18
100
AcDbMText
 10
10.4235286128
 20
16.2995659304
 30
0.0
 40
0.25
 41
0.0
 71
     1
 72
     1
  1
%%c
  7
SLDTEXTSTYLE0
 73
     1
 44
1.0
  0
MTEXT
  5
152
330
140
100
AcDbEntity
  8
0
  6
Continuous
 62
     7
370
    18
100
AcDbMText
 10
10.800559854
 20
16.2995659304
 30
0.0
 40
0.25
 41
0.0
 71
     1
 72
     1
  1
3 1/2"
  7
SLDTEXTSTYLE0
 73
     1
 44
1.0
  0
MTEXT
  5
153
330
140
100
AcDbEntity
  8
0
  6
Continuous
 62
     7
370
    18
100
AcDbMText
 10
10.5625650817
 20
15.8519096705
 30
0.0
 40
0.25
 41
0.0
 71
     1
 72
     1
  1
89mm
  7
SLDTEXTSTYLE0
 73
     1
 44
1.0
  0
ENDBLK
  5
142
330
140
100
AcDbEntity
  8
0
100
AcDbBlockEnd
  0
BLOCK
  5
156
330
155
100
AcDbEntity
  8
0
100
AcDbBlockBegin
  2
_D_5
 70
     0
 10
0.0
 20
0.0
 30
0.0
  3
_D_5
  1

  0
SOLID
  5
158
330
155
100
AcDbEntity
  8
0
  6
Continuous
 62
     7
370
    18
100
AcDbTrace
 10
9.684787296
 20
15.0183797588
 30
0.0
 11
9.424787296
 21
15.0583797588
 31
0.0
 12
9.424787296
 22
14.9783797588
 32
0.0
 13
9.424787296
 23
14.9783797588
 33
0.0
  0
SOLID
  5
159
330
155
100
AcDbEntity
  8
0
  6
Continuous
 62
     7
370
    18
100
AcDbTrace
 10
12.434787296
 20
15.0183797588
 30
0.0
 11
12.694787296
 21
14.9783797588
 31
0.0
 12
12.694787296
 22
15.0583797588
 32
0.0
 13
12.694787296
 23
15.0583797588
 33
0.0
  0
LINE
  5
15A
330
155
100
AcDbEntity
  8
0
  6
Continuous
 62
     7
370
     0
100
AcDbLine
 10
10.1438150991
 20
15.0164699975
 30
0.0
 11
10.0676432249
 21
15.0164699975
 31
0.0
  0
LINE
  5
15B
330
155
100
AcDbEntity
  8
0
  6
Continuous
 62
     7
370
     0
100
AcDbLine
 10
10.0676432249
 20
15.0164699975
 30
0.0
 11
10.0676432249
 21
14.6195949856
 31
0.0
  0
LINE
  5
15C
330
155
100
AcDbEntity
  8
0
  6
Continuous
 62
     7
370
     0
100
AcDbLine
 10
10.0676432249
 20
14.6195949856
 30
0.0
 11
10.1438150991
 21
14.6195949856
 31
0.0
  0
LINE
  5
15D
330
155
100
AcDbEntity
  8
0
  6
Continuous
 62
     7
370
     0
100
AcDbLine
 10
11.1382595645
 20
15.0164699975
 30
0.0
 11
11.2144314387
 21
15.0164699975
 31
0.0
  0
LINE
  5
15E
330
155
100
AcDbEntity
  8
0
  6
Continuous
 62
     7
370
     0
100
AcDbLine
 10
11.2144314387
 20
15.0164699975
 30
0.0
 11
11.2144314387
 21
14.6195949856
 31
0.0
  0
LINE
  5
15F
330
155
100
AcDbEntity
  8
0
  6
Continuous
 62
     7
370
     0
100
AcDbLine
 10
11.2144314387
 20
14.6195949856
 30
0.0
 11
11.1382595645
 21
14.6195949856
 31
0.0
  0
LINE
  5
160
330
155
100
AcDbEntity
  8
0
  6
Continuous
 62
     7
370
     0
100
AcDbLine
 10
9.684787296
 20
12.8023062015
 30
0.0
 11
9.684787296
 21
15.2683797588
 31
0.0
  0
LINE
  5
161
330
155
100
AcDbEntity
  8
0
  6
Continuous
 62
     7
370
     0
100
AcDbLine
 10
12.434787296
 20
12.8023062015
 30
0.0
 11
12.434787296
 21
15.2683797588
 31
0.0
  0
LINE
  5
162
330
155
100
AcDbEntity
  8
0
  6
Continuous
 62
     7
370
     0
100
AcDbLine
 10
9.684787296
 20
15.0183797588
 30
0.0
 11
9.184787296
 21
15.0183797588
 31
0.0
  0
LINE
  5
163
330
155
100
AcDbEntity
  8
0
  6
Continuous
 62
     7
370
     0
100
AcDbLine
 10
12.434787296
 20
15.0183797588
 30
0.0
 11
12.934787296
 21
15.0183797588
 31
0.0
  0
MTEXT
  5
164
330
155
100
AcDbEntity
  8
0
  6
Continuous
 62
     7
370
    18
100
AcDbMText
 10
10.1932942692
 20
15.3865871922
 30
0.0
 40
0.25
 41
0.0
 71
     1
 72
     1
  1
2 3/4"
  7
SLDTEXTSTYLE0
 73
     1
 44
1.0
  0
MTEXT
  5
165
330
155
100
AcDbEntity
  8
0
  6
Continuous
 62
     7
370
    18
100
AcDbMText
 10
10.1438150991
 20
14.9389309506
 30
0.0
 40
0.25
 41
0.0
 71
     1
 72
     1
  1
70mm
  7
SLDTEXTSTYLE0
 73
     1
 44
1.0
  0
MTEXT
  5
166
330
155
100
AcDbEntity
  8
0
  6
Continuous
 62
     7
370
    18
100
AcDbMText
 10
11.2906032763
 20
15.3904066551
 30
0.0
 40
0.25
 41
0.0
 71
     1
 72
     1
  1
 O.C.
  7
SLDTEXTSTYLE0
 73
     1
 44
1.0
  0
ENDBLK
  5
157
330
155
100
AcDbEntity
  8
0
100
AcDbBlockEnd
  0
BLOCK
  5
16A
330
169
100
AcDbEntity
  8
0
100
AcDbBlockBegin
  2
_D_6
 70
     0
 10
0.0
 20
0.0
 30
0.0
  3
_D_6
  1

  0
SOLID
  5
16C
330
169
100
AcDbEntity
  8
0
  6
Continuous
 62
     7
370
    18
100
AcDbTrace
 10
11.554787296
 20
7.2554604054
 30
0.0
 11
11.294787296
 21
7.2954604054
 31
0.0
 12
11.294787296
 22
7.2154604054
 32
0.0
 13
11.294787296
 23
7.2154604054
 33
0.0
  0
SOLID
  5
16D
330
169
100
AcDbEntity
  8
0
  6
Continuous
 62
     7
370
    18
100
AcDbTrace
 10
10.564787296
 20
7.2554604054
 30
0.0
 11
10.824787296
 21
7.2154604054
 31
0.0
 12
10.824787296
 22
7.2954604054
 32
0.0
 13
10.824787296
 23
7.2954604054
 33
0.0
  0
LINE
  5
16E
330
169
100
AcDbEntity
  8
0
  6
Continuous
 62
     7
370
     0
100
AcDbLine
 10
12.043560879
 20
7.2554603688
 30
0.0
 11
11.9673890047
 21
7.2554603688
 31
0.0
  0
LINE
  5
16F
330
169
100
AcDbEntity
  8
0
  6
Continuous
 62
     7
370
     0
100
AcDbLine
 10
11.9673890047
 20
7.2554603688
 30
0.0
 11
11.9673890047
 21
6.8585853568
 31
0.0
  0
LINE
  5
170
330
169
100
AcDbEntity
  8
0
  6
Continuous
 62
     7
370
     0
100
AcDbLine
 10
11.9673890047
 20
6.8585853568
 30
0.0
 11
12.043560879
 21
6.8585853568
 31
0.0
  0
LINE
  5
171
330
169
100
AcDbEntity
  8
0
  6
Continuous
 62
     7
370
     0
100
AcDbLine
 10
13.0380053444
 20
7.2554603688
 30
0.0
 11
13.1141772186
 21
7.2554603688
 31
0.0
  0
LINE
  5
172
330
169
100
AcDbEntity
  8
0
  6
Continuous
 62
     7
370
     0
100
AcDbLine
 10
13.1141772186
 20
7.2554603688
 30
0.0
 11
13.1141772186
 21
6.8585853568
 31
0.0
  0
LINE
  5
173
330
169
100
AcDbEntity
  8
0
  6
Continuous
 62
     7
370
     0
100
AcDbLine
 10
13.1141772186
 20
6.8585853568
 30
0.0
 11
13.0380053444
 21
6.8585853568
 31
0.0
  0
LINE
  5
174
330
169
100
AcDbEntity
  8
0
  6
Continuous
 62
     7
370
     0
100
AcDbLine
 10
11.554787296
 20
8.2903062015
 30
0.0
 11
11.554787296
 21
7.0054604054
 31
0.0
  0
LINE
  5
175
330
169
100
AcDbEntity
  8
0
  6
Continuous
 62
     7
370
     0
100
AcDbLine
 10
10.564787296
 20
8.2903062015
 30
0.0
 11
10.564787296
 21
7.0054604054
 31
0.0
  0
LINE
  5
176
330
169
100
AcDbEntity
  8
0
  6
Continuous
 62
     7
370
     0
100
AcDbLine
 10
11.554787296
 20
7.2554604054
 30
0.0
 11
11.8405151575
 21
7.2554604054
 31
0.0
  0
LINE
  5
177
330
169
100
AcDbEntity
  8
0
  6
Continuous
 62
     7
370
     0
100
AcDbLine
 10
10.564787296
 20
7.2554604054
 30
0.0
 11
11.554787296
 21
7.2554604054
 31
0.0
  0
MTEXT
  5
178
330
169
100
AcDbEntity
  8
0
  6
Continuous
 62
     7
370
    18
100
AcDbMText
 10
12.2083438704
 20
7.6255775817
 30
0.0
 40
0.25
 41
0.0
 71
     1
 72
     1
  1
%%c
  7
SLDTEXTSTYLE0
 73
     1
 44
1.0
  0
MTEXT
  5
179
330
169
100
AcDbEntity
  8
0
  6
Continuous
 62
     7
370
    18
100
AcDbMText
 10
12.5853751115
 20
7.6255775817
 30
0.0
 40
0.25
 41
0.0
 71
     1
 72
     1
  1
1"
  7
SLDTEXTSTYLE0
 73
     1
 44
1.0
  0
MTEXT
  5
17A
330
169
100
AcDbEntity
  8
0
  6
Continuous
 62
     7
370
    18
100
AcDbMText
 10
12.043560879
 20
7.1779213218
 30
0.0
 40
0.25
 41
0.0
 71
     1
 72
     1
  1
25mm
  7
SLDTEXTSTYLE0
 73
     1
 44
1.0
  0
ENDBLK
  5
16B
330
169
100
AcDbEntity
  8
0
100
AcDbBlockEnd
  0
BLOCK
  5
1B1
330
1B0
100
AcDbEntity
  8
0
100
AcDbBlockBegin
  2
_D_7
 70
     0
 10
0.0
 20
0.0
 30
0.0
  3
_D_7
  1

  0
SOLID
  5
1B3
330
1B0
100
AcDbEntity
  8
0
  6
Continuous
 62
     7
370
    18
100
AcDbTrace
 10
4.6769536146
 20
1.4432140383
 30
0.0
 11
4.7169536146
 21
1.7032140383
 31
0.0
 12
4.6369536146
 22
1.7032140383
 32
0.0
 13
4.6369536146
 23
1.7032140383
 33
0.0
  0
SOLID
  5
1B4
330
1B0
100
AcDbEntity
  8
0
  6
Continuous
 62
     7
370
    18
100
AcDbTrace
 10
4.6769536146
 20
5.5002140383
 30
0.0
 11
4.6369536146
 21
5.2402140383
 31
0.0
 12
4.7169536146
 22
5.2402140383
 32
0.0
 13
4.7169536146
 23
5.2402140383
 33
0.0
  0
LINE
  5
1B5
330
1B0
100
AcDbEntity
  8
0
  6
Continuous
 62
     7
370
     0
100
AcDbLine
 10
4.0873703256
 20
3.4698042771
 30
0.0
 11
4.0111984513
 21
3.4698042771
 31
0.0
  0
LINE
  5
1B6
330
1B0
100
AcDbEntity
  8
0
  6
Continuous
 62
     7
370
     0
100
AcDbLine
 10
4.0111984513
 20
3.4698042771
 30
0.0
 11
4.0111984513
 21
3.0729292651
 31
0.0
  0
LINE
  5
1B7
330
1B0
100
AcDbEntity
  8
0
  6
Continuous
 62
     7
370
     0
100
AcDbLine
 10
4.0111984513
 20
3.0729292651
 30
0.0
 11
4.0873703256
 21
3.0729292651
 31
0.0
  0
LINE
  5
1B8
330
1B0
100
AcDbEntity
  8
0
  6
Continuous
 62
     7
370
     0
100
AcDbLine
 10
5.2665369771
 20
3.4698042771
 30
0.0
 11
5.3427088513
 21
3.4698042771
 31
0.0
  0
LINE
  5
1B9
330
1B0
100
AcDbEntity
  8
0
  6
Continuous
 62
     7
370
     0
100
AcDbLine
 10
5.3427088513
 20
3.4698042771
 30
0.0
 11
5.3427088513
 21
3.0729292651
 31
0.0
  0
LINE
  5
1BA
330
1B0
100
AcDbEntity
  8
0
  6
Continuous
 62
     7
370
     0
100
AcDbLine
 10
5.3427088513
 20
3.0729292651
 30
0.0
 11
5.2665369771
 21
3.0729292651
 31
0.0
  0
LINE
  5
1BB
330
1B0
100
AcDbEntity
  8
0
  6
Continuous
 62
     7
370
     0
100
AcDbLine
 10
5.5129665024
 20
1.4432140383
 30
0.0
 11
4.4269536146
 21
1.4432140383
 31
0.0
  0
LINE
  5
1BC
330
1B0
100
AcDbEntity
  8
0
  6
Continuous
 62
     7
370
     0
100
AcDbLine
 10
5.5129665024
 20
5.5002140383
 30
0.0
 11
4.4269536146
 21
5.5002140383
 31
0.0
  0
LINE
  5
1BD
330
1B0
100
AcDbEntity
  8
0
  6
Continuous
 62
     7
370
     0
100
AcDbLine
 10
4.6769536146
 20
1.4432140383
 30
0.0
 11
4.6769536146
 21
3.0221480951
 31
0.0
  0
LINE
  5
1BE
330
1B0
100
AcDbEntity
  8
0
  6
Continuous
 62
     7
370
     0
100
AcDbLine
 10
4.6769536146
 20
5.5002140383
 30
0.0
 11
4.6769536146
 21
3.9212799816
 31
0.0
  0
MTEXT
  5
1BF
330
1B0
100
AcDbEntity
  8
0
  6
Continuous
 62
     7
370
    18
100
AcDbMText
 10
3.8426654657
 20
3.8437409346
 30
0.0
 40
0.25
 41
0.0
 71
     1
 72
     1
  1
 
  7
SLDTEXTSTYLE0
 73
     1
 44
1.0
  0
MTEXT
  5
1C0
330
1B0
100
AcDbEntity
  8
0
  6
Continuous
 62
     7
370
    18
100
AcDbMText
 10
4.136849459
 20
3.8399214717
 30
0.0
 40
0.25
 41
0.0
 71
     1
 72
     1
  1
4 1/16"
  7
SLDTEXTSTYLE0
 73
     1
 44
1.0
  0
MTEXT
  5
1C1
330
1B0
100
AcDbEntity
  8
0
  6
Continuous
 62
     7
370
    18
100
AcDbMText
 10
4.0873703256
 20
3.3922652301
 30
0.0
 40
0.25
 41
0.0
 71
     1
 72
     1
  1
103mm
  7
SLDTEXTSTYLE0
 73
     1
 44
1.0
  0
MTEXT
  5
1C2
330
1B0
100
AcDbEntity
  8
0
  6
Continuous
 62
     7
370
    18
100
AcDbMText
 10
5.4188806705
 20
3.8437409346
 30
0.0
 40
0.25
 41
0.0
 71
     1
 72
     1
  1
 
  7
SLDTEXTSTYLE0
 73
     1
 44
1.0
  0
ENDBLK
  5
1B2
330
1B0
100
AcDbEntity
  8
0
100
AcDbBlockEnd
  0
BLOCK
  5
1D1
330
1D0
100
AcDbEntity
  8
0
100
AcDbBlockBegin
  2
_D_8
 70
     0
 10
0.0
 20
0.0
 30
0.0
  3
_D_8
  1

  0
SOLID
  5
1D3
330
1D0
100
AcDbEntity
  8
0
  6
Continuous
 62
     7
370
    18
100
AcDbTrace
 10
9.7483593861
 20
1.4432140383
 30
0.0
 11
9.7883593861
 21
1.7032140383
 31
0.0
 12
9.7083593861
 22
1.7032140383
 32
0.0
 13
9.7083593861
 23
1.7032140383
 33
0.0
  0
SOLID
  5
1D4
330
1D0
100
AcDbEntity
  8
0
  6
Continuous
 62
     7
370
    18
100
AcDbTrace
 10
9.7483593861
 20
4.6257140383
 30
0.0
 11
9.7083593861
 21
4.3657140383
 31
0.0
 12
9.7883593861
 22
4.3657140383
 32
0.0
 13
9.7883593861
 23
4.3657140383
 33
0.0
  0
LINE
  5
1D5
330
1D0
100
AcDbEntity
  8
0
  6
Continuous
 62
     7
370
     0
100
AcDbLine
 10
9.25113719
 20
3.0325542771
 30
0.0
 11
9.1749653158
 21
3.0325542771
 31
0.0
  0
LINE
  5
1D6
330
1D0
100
AcDbEntity
  8
0
  6
Continuous
 62
     7
370
     0
100
AcDbLine
 10
9.1749653158
 20
3.0325542771
 30
0.0
 11
9.1749653158
 21
2.6356792651
 31
0.0
  0
LINE
  5
1D7
330
1D0
100
AcDbEntity
  8
0
  6
Continuous
 62
     7
370
     0
100
AcDbLine
 10
9.1749653158
 20
2.6356792651
 30
0.0
 11
9.25113719
 21
2.6356792651
 31
0.0
  0
LINE
  5
1D8
330
1D0
100
AcDbEntity
  8
0
  6
Continuous
 62
     7
370
     0
100
AcDbLine
 10
10.2455816555
 20
3.0325542771
 30
0.0
 11
10.3217535297
 21
3.0325542771
 31
0.0
  0
LINE
  5
1D9
330
1D0
100
AcDbEntity
  8
0
  6
Continuous
 62
     7
370
     0
100
AcDbLine
 10
10.3217535297
 20
3.0325542771
 30
0.0
 11
10.3217535297
 21
2.6356792651
 31
0.0
  0
LINE
  5
1DA
330
1D0
100
AcDbEntity
  8
0
  6
Continuous
 62
     7
370
     0
100
AcDbLine
 10
10.3217535297
 20
2.6356792651
 30
0.0
 11
10.2455816555
 21
2.6356792651
 31
0.0
  0
LINE
  5
1DB
330
1D0
100
AcDbEntity
  8
0
  6
Continuous
 62
     7
370
     0
100
AcDbLine
 10
10.4357609609
 20
1.4432140383
 30
0.0
 11
9.4983593861
 21
1.4432140383
 31
0.0
  0
LINE
  5
1DC
330
1D0
100
AcDbEntity
  8
0
  6
Continuous
 62
     7
370
     0
100
AcDbLine
 10
10.4932609609
 20
4.6257140383
 30
0.0
 11
9.4983593861
 21
4.6257140383
 31
0.0
  0
LINE
  5
1DD
330
1D0
100
AcDbEntity
  8
0
  6
Continuous
 62
     7
370
     0
100
AcDbLine
 10
9.7483593861
 20
1.4432140383
 30
0.0
 11
9.7483593861
 21
2.5848980951
 31
0.0
  0
LINE
  5
1DE
330
1D0
100
AcDbEntity
  8
0
  6
Continuous
 62
     7
370
     0
100
AcDbLine
 10
9.7483593861
 20
4.6257140383
 30
0.0
 11
9.7483593861
 21
3.4840299816
 31
0.0
  0
MTEXT
  5
1DF
330
1D0
100
AcDbEntity
  8
0
  6
Continuous
 62
     7
370
    18
100
AcDbMText
 10
9.0064323302
 20
3.4064909346
 30
0.0
 40
0.25
 41
0.0
 71
     1
 72
     1
  1
 
  7
SLDTEXTSTYLE0
 73
     1
 44
1.0
  0
MTEXT
  5
1E0
330
1D0
100
AcDbEntity
  8
0
  6
Continuous
 62
     7
370
    18
100
AcDbMText
 10
9.2082552304
 20
3.4026714717
 30
0.0
 40
0.25
 41
0.0
 71
     1
 72
     1
  1
3 3/16"
  7
SLDTEXTSTYLE0
 73
     1
 44
1.0
  0
MTEXT
  5
1E1
330
1D0
100
AcDbEntity
  8
0
  6
Continuous
 62
     7
370
    18
100
AcDbMText
 10
9.25113719
 20
2.9550152301
 30
0.0
 40
0.25
 41
0.0
 71
     1
 72
     1
  1
81mm
  7
SLDTEXTSTYLE0
 73
     1
 44
1.0
  0
MTEXT
  5
1E2
330
1D0
100
AcDbEntity
  8
0
  6
Continuous
 62
     7
370
    18
100
AcDbMText
 10
10.3979253489
 20
3.4064909346
 30
0.0
 40
0.25
 41
0.0
 71
     1
 72
     1
  1
 
  7
SLDTEXTSTYLE0
 73
     1
 44
1.0
  0
ENDBLK
  5
1D2
330
1D0
100
AcDbEntity
  8
0
100
AcDbBlockEnd
  0
BLOCK
  5
1EF
330
1EE
100
AcDbEntity
  8
0
100
AcDbBlockBegin
  2
_D_9
 70
     0
 10
0.0
 20
0.0
 30
0.0
  3
_D_9
  1

  0
SOLID
  5
1F1
330
1EE
100
AcDbEntity
  8
0
  6
Continuous
 62
     7
370
    18
100
AcDbTrace
 10
14.6014630384
 20
1.4432140383
 30
0.0
 11
14.6414630384
 21
1.7032140383
 31
0.0
 12
14.5614630384
 22
1.7032140383
 32
0.0
 13
14.5614630384
 23
1.7032140383
 33
0.0
  0
SOLID
  5
1F2
330
1EE
100
AcDbEntity
  8
0
  6
Continuous
 62
     7
370
    18
100
AcDbTrace
 10
14.6014630384
 20
4.2967140383
 30
0.0
 11
14.5614630384
 21
4.0367140383
 31
0.0
 12
14.6414630384
 22
4.0367140383
 32
0.0
 13
14.6414630384
 23
4.0367140383
 33
0.0
  0
LINE
  5
1F3
330
1EE
100
AcDbEntity
  8
0
  6
Continuous
 62
     7
370
     0
100
AcDbLine
 10
14.1042408424
 20
2.8680542771
 30
0.0
 11
14.0280689682
 21
2.8680542771
 31
0.0
  0
LINE
  5
1F4
330
1EE
100
AcDbEntity
  8
0
  6
Continuous
 62
     7
370
     0
100
AcDbLine
 10
14.0280689682
 20
2.8680542771
 30
0.0
 11
14.0280689682
 21
2.4711792651
 31
0.0
  0
LINE
  5
1F5
330
1EE
100
AcDbEntity
  8
0
  6
Continuous
 62
     7
370
     0
100
AcDbLine
 10
14.0280689682
 20
2.4711792651
 30
0.0
 11
14.1042408424
 21
2.4711792651
 31
0.0
  0
LINE
  5
1F6
330
1EE
100
AcDbEntity
  8
0
  6
Continuous
 62
     7
370
     0
100
AcDbLine
 10
15.0986853078
 20
2.8680542771
 30
0.0
 11
15.174857182
 21
2.8680542771
 31
0.0
  0
LINE
  5
1F7
330
1EE
100
AcDbEntity
  8
0
  6
Continuous
 62
     7
370
     0
100
AcDbLine
 10
15.174857182
 20
2.8680542771
 30
0.0
 11
15.174857182
 21
2.4711792651
 31
0.0
  0
LINE
  5
1F8
330
1EE
100
AcDbEntity
  8
0
  6
Continuous
 62
     7
370
     0
100
AcDbLine
 10
15.174857182
 20
2.4711792651
 30
0.0
 11
15.0986853078
 21
2.4711792651
 31
0.0
  0
LINE
  5
1F9
330
1EE
100
AcDbEntity
  8
0
  6
Continuous
 62
     7
370
     0
100
AcDbLine
 10
15.2888646132
 20
1.4432140383
 30
0.0
 11
14.3514630384
 21
1.4432140383
 31
0.0
  0
LINE
  5
1FA
330
1EE
100
AcDbEntity
  8
0
  6
Continuous
 62
     7
370
     0
100
AcDbLine
 10
15.3463646132
 20
4.2967140383
 30
0.0
 11
14.3514630384
 21
4.2967140383
 31
0.0
  0
LINE
  5
1FB
330
1EE
100
AcDbEntity
  8
0
  6
Continuous
 62
     7
370
     0
100
AcDbLine
 10
14.6014630384
 20
1.4432140383
 30
0.0
 11
14.6014630384
 21
2.4203980951
 31
0.0
  0
LINE
  5
1FC
330
1EE
100
AcDbEntity
  8
0
  6
Continuous
 62
     7
370
     0
100
AcDbLine
 10
14.6014630384
 20
4.2967140383
 30
0.0
 11
14.6014630384
 21
3.3195299816
 31
0.0
  0
MTEXT
  5
1FD
330
1EE
100
AcDbEntity
  8
0
  6
Continuous
 62
     7
370
    18
100
AcDbMText
 10
13.8595359826
 20
3.2419909346
 30
0.0
 40
0.25
 41
0.0
 71
     1
 72
     1
  1
 
  7
SLDTEXTSTYLE0
 73
     1
 44
1.0
  0
MTEXT
  5
1FE
330
1EE
100
AcDbEntity
  8
0
  6
Continuous
 62
     7
370
    18
100
AcDbMText
 10
14.1537200125
 20
3.2381714717
 30
0.0
 40
0.25
 41
0.0
 71
     1
 72
     1
  1
2 7/8"
  7
SLDTEXTSTYLE0
 73
     1
 44
1.0
  0
MTEXT
  5
1FF
330
1EE
100
AcDbEntity
  8
0
  6
Continuous
 62
     7
370
    18
100
AcDbMText
 10
14.1042408424
 20
2.7905152301
 30
0.0
 40
0.25
 41
0.0
 71
     1
 72
     1
  1
72mm
  7
SLDTEXTSTYLE0
 73
     1
 44
1.0
  0
MTEXT
  5
200
330
1EE
100
AcDbEntity
  8
0
  6
Continuous
 62
     7
370
    18
100
AcDbMText
 10
15.2510290013
 20
3.2419909346
 30
0.0
 40
0.25
 41
0.0
 71
     1
 72
     1
  1
 
  7
SLDTEXTSTYLE0
 73
     1
 44
1.0
  0
ENDBLK
  5
1F0
330
1EE
100
AcDbEntity
  8
0
100
AcDbBlockEnd
  0
ENDSEC
  0
SECTION
  2
ENTITIES
  0
LINE
  5
87
330
1F
100
AcDbEntity
  8
0
  6
Continuous
 62
     7
370
    25
100
AcDbLine
 10
4.0208950458
 20
13.1973062015
 30
0.0
 11
3.0208950458
 21
13.1973062015
 31
0.0
  0
LINE
  5
88
330
1F
100
AcDbEntity
  8
0
  6
Continuous
 62
     7
370
    25
100
AcDbLine
 10
3.0208950458
 20
12.2073062015
 30
0.0
 11
4.0208950458
 21
12.2073062015
 31
0.0
  0
LINE
  5
89
330
1F
100
AcDbEntity
  8
0
  6
Continuous
 62
     7
370
    25
100
AcDbLine
 10
2.3958950458
 20
12.2968062015
 30
0.0
 11
2.4219367123
 21
12.3468062015
 31
0.0
  0
LINE
  5
8A
330
1F
100
AcDbEntity
  8
0
  6
Continuous
 62
     7
370
    25
100
AcDbLine
 10
2.4219367123
 20
13.0578062015
 30
0.0
 11
2.3958950458
 21
13.1078062015
 31
0.0
  0
LINE
  5
8B
330
1F
100
AcDbEntity
  8
0
  6
Continuous
 62
     7
370
    25
100
AcDbLine
 10
2.4479783788
 20
13.1078062015
 30
0.0
 11
2.4219367123
 21
13.0578062015
 31
0.0
  0
LINE
  5
8C
330
1F
100
AcDbEntity
  8
0
  6
Continuous
 62
     7
370
    25
100
AcDbLine
 10
2.4219367123
 20
12.3468062015
 30
0.0
 11
2.4479783788
 21
12.2968062015
 31
0.0
  0
LINE
  5
8D
330
1F
100
AcDbEntity
  8
0
  6
Continuous
 62
     7
370
    25
100
AcDbLine
 10
2.4479783788
 20
12.2968062015
 30
0.0
 11
2.4740200453
 21
12.3468062015
 31
0.0
  0
LINE
  5
8E
330
1F
100
AcDbEntity
  8
0
  6
Continuous
 62
     7
370
    25
100
AcDbLine
 10
2.4740200453
 20
13.0578062015
 30
0.0
 11
2.4479783788
 21
13.1078062015
 31
0.0
  0
LINE
  5
8F
330
1F
100
AcDbEntity
  8
0
  6
Continuous
 62
     7
370
    25
100
AcDbLine
 10
2.4808950458
 20
13.0710062025
 30
0.0
 11
2.4740200453
 21
13.0578062015
 31
0.0
  0
LINE
  5
90
330
1F
100
AcDbEntity
  8
0
  6
Continuous
 62
     7
370
    25
100
AcDbLine
 10
2.4740200453
 20
12.3468062015
 30
0.0
 11
2.4808950458
 21
12.3336062005
 31
0.0
  0
LINE
  5
91
330
1F
100
AcDbEntity
  8
0
  6
Continuous
 62
     7
370
    25
100
AcDbLine
 10
5.2658950458
 20
11.9623062015
 30
0.0
 11
5.2658950458
 21
13.4223062015
 31
0.0
  0
LINE
  5
92
330
1F
100
AcDbEntity
  8
0
  6
Continuous
 62
     7
370
    25
100
AcDbLine
 10
4.2758950458
 20
12.2123572294
 30
0.0
 11
4.2758950458
 21
11.9623062015
 31
0.0
  0
LINE
  5
93
330
1F
100
AcDbEntity
  8
0
  6
Continuous
 62
     7
370
    25
100
AcDbLine
 10
4.2758950458
 20
13.4223062015
 30
0.0
 11
4.2758950458
 21
13.1922550856
 31
0.0
  0
ARC
  5
94
330
1F
100
AcDbEntity
  8
0
  6
Continuous
 62
     7
370
    25
100
AcDbCircle
 10
5.2558950458
 20
11.9623062015
 30
0.0
 40
0.0099999999999989
100
AcDbArc
 50
270.0
 51
0.0
  0
ARC
  5
95
330
1F
100
AcDbEntity
  8
0
  6
Continuous
 62
     7
370
    25
100
AcDbCircle
 10
4.2858950458
 20
11.9623062015
 30
0.0
 40
0.0099999999999998
100
AcDbArc
 50
180.0
 51
270.0
  0
LINE
  5
96
330
1F
100
AcDbEntity
  8
0
  6
Continuous
 62
     7
370
    25
100
AcDbLine
 10
5.2658950458
 20
13.4223062015
 30
0.0
 11
5.2358950458
 21
13.4523062015
 31
0.0
  0
LINE
  5
97
330
1F
100
AcDbEntity
  8
0
  6
Continuous
 62
     7
370
    25
100
AcDbLine
 10
4.3058950458
 20
13.4523062015
 30
0.0
 11
4.2758950458
 21
13.4223062015
 31
0.0
  0
LINE
  5
98
330
1F
100
AcDbEntity
  8
0
  6
Continuous
 62
     7
370
    25
100
AcDbLine
 10
2.6458950458
 20
10.9523062015
 30
0.0
 11
2.9708950458
 21
10.9523062015
 31
0.0
  0
LINE
  5
99
330
1F
100
AcDbEntity
  8
0
  6
Continuous
 62
     7
370
    25
100
AcDbLine
 10
2.9708950458
 20
14.4523062015
 30
0.0
 11
2.6458950458
 21
14.4523062015
 31
0.0
  0
LINE
  5
9A
330
1F
100
AcDbEntity
  8
0
  6
Continuous
 62
     7
370
    25
100
AcDbLine
 10
2.9708950458
 20
10.9523062015
 30
0.0
 11
3.0208950458
 21
11.0023062015
 31
0.0
  0
LINE
  5
9B
330
1F
100
AcDbEntity
  8
0
  6
Continuous
 62
     7
370
    25
100
AcDbLine
 10
3.0208950458
 20
14.4023062015
 30
0.0
 11
2.9708950458
 21
14.4523062015
 31
0.0
  0
LINE
  5
9C
330
1F
100
AcDbEntity
  8
0
  6
Continuous
 62
     7
370
    25
100
AcDbLine
 10
4.2764328991
 20
11.8412440548
 30
0.0
 11
4.2758950458
 21
11.8407062015
 31
0.0
  0
LINE
  5
9D
330
1F
100
AcDbEntity
  8
0
  6
Continuous
 62
     7
370
    25
100
AcDbLine
 10
4.2758950458
 20
11.7139062015
 30
0.0
 11
4.2764357373
 21
11.71336551
 31
0.0
  0
LINE
  5
9E
330
1F
100
AcDbEntity
  8
0
  6
Continuous
 62
     7
370
    25
100
AcDbLine
 10
4.2758950458
 20
8.9303284925
 30
0.0
 11
4.2758950458
 21
8.8853062015
 31
0.0
  0
LINE
  5
9F
330
1F
100
AcDbEntity
  8
0
  6
Continuous
 62
     7
370
    25
100
AcDbLine
 10
4.2758950458
 20
11.7093062015
 30
0.0
 11
4.2758950458
 21
9.066081489
 31
0.0
  0
LINE
  5
A0
330
1F
100
AcDbEntity
  8
0
  6
Continuous
 62
     7
370
    25
100
AcDbLine
 10
4.2758950458
 20
11.9523062015
 30
0.0
 11
4.2758950458
 21
11.8453062015
 31
0.0
  0
LINE
  5
A1
330
1F
100
AcDbEntity
  8
0
  6
Continuous
 62
     7
370
    25
100
AcDbLine
 10
5.2658950458
 20
7.8953062015
 30
0.0
 11
5.2658950458
 21
11.9523062015
 31
0.0
  0
LINE
  5
A2
330
1F
100
AcDbEntity
  8
0
  6
Continuous
 62
     7
370
    25
100
AcDbLine
 10
4.2710619814
 20
13.1973062015
 30
0.0
 11
4.0208950458
 21
13.1973062015
 31
0.0
  0
LINE
  5
A3
330
1F
100
AcDbEntity
  8
0
  6
Continuous
 62
     7
370
    25
100
AcDbLine
 10
4.0208950458
 20
12.2073062015
 30
0.0
 11
4.2710619814
 21
12.2073062015
 31
0.0
  0
LINE
  5
A4
330
1F
100
AcDbEntity
  8
0
  6
Continuous
 62
     7
370
    25
100
AcDbLine
 10
2.5255532446
 20
13.2796564707
 30
0.0
 11
2.4808950458
 21
13.2023062015
 31
0.0
  0
LINE
  5
A5
330
1F
100
AcDbEntity
  8
0
  6
Continuous
 62
     7
370
    25
100
AcDbLine
 10
2.4808950458
 20
12.2023062015
 30
0.0
 11
2.5255532446
 21
12.1249559323
 31
0.0
  0
LINE
  5
A6
330
1F
100
AcDbEntity
  8
0
  6
Continuous
 62
     7
370
    25
100
AcDbLine
 10
4.0208950458
 20
13.1973062015
 30
0.0
 11
4.0208950458
 21
12.2073062015
 31
0.0
  0
SPLINE
  5
A7
330
1F
100
AcDbEntity
  8
0
  6
Continuous
 62
     7
370
    25
100
AcDbSpline
210
0.0
220
0.0
230
1.0
 70
     8
 71
     3
 72
    10
 73
     6
 74
     0
 42
0.00000001
 43
0.00000001
 40
0.0
 40
0.0
 40
0.0
 40
0.0
 40
0.2495901272762595
 40
0.4991891441824058
 40
0.9999999999999999
 40
0.9999999999999999
 40
0.9999999999999999
 40
0.9999999999999999
 10
2.421936712313701
 20
12.58193178560819
 30
0.0
 10
2.420223921972112
 20
12.57277502046044
 30
0.0
 10
2.416798280284626
 20
12.55446116402922
 30
0.0
 10
2.40853141962652
 20
12.51805453640102
 30
0.0
 10
2.400952852992944
 20
12.49108749409564
 30
0.0
 10
2.395895045813707
 20
12.47309014621054
 30
0.0
  0
LINE
  5
A8
330
1F
100
AcDbEntity
  8
0
  6
Continuous
 62
     7
370
    25
100
AcDbLine
 10
2.3958950458
 20
12.9315222568
 30
0.0
 11
2.3958950458
 21
12.4730901462
 31
0.0
  0
SPLINE
  5
A9
330
1F
100
AcDbEntity
  8
0
  6
Continuous
 62
     7
370
    25
100
AcDbSpline
210
0.0
220
0.0
230
1.0
 70
     8
 71
     3
 72
    10
 73
     6
 74
     0
 42
0.00000001
 43
0.00000001
 40
0.0
 40
0.0
 40
0.0
 40
0.0
 40
0.3509989708417951
 40
0.7024369926442059
 40
1.0
 40
1.0
 40
1.0
 40
1.0
 10
2.395895045813707
 20
12.93152225677872
 30
0.0
 10
2.399478785240734
 20
12.91892150586146
 30
0.0
 10
2.406650746855049
 20
12.89370424223771
 30
0.0
 10
2.415370215110286
 20
12.85739570953534
 30
0.0
 10
2.419872460366381
 20
12.83359369544402
 30
0.0
 10
2.421936712313707
 20
12.82268061738107
 30
0.0
  0
SPLINE
  5
AA
330
1F
100
AcDbEntity
  8
0
  6
Continuous
 62
     7
370
    25
100
AcDbSpline
210
0.0
220
0.0
230
1.0
 70
     8
 71
     3
 72
    10
 73
     6
 74
     0
 42
0.00000001
 43
0.00000001
 40
0.0
 40
0.0
 40
0.0
 40
0.0
 40
0.2495901272762597
 40
0.4991891441824064
 40
0.9999999999999999
 40
0.9999999999999999
 40
0.9999999999999999
 40
0.9999999999999999
 10
2.421936712313707
 20
12.82268061738107
 30
0.0
 10
2.423649502655298
 20
12.83183738252882
 30
0.0
 10
2.427075144342785
 20
12.85015123896004
 30
0.0
 10
2.435342005000895
 20
12.88655786658824
 30
0.0
 10
2.442920571634471
 20
12.91352490889362
 30
0.0
 10
2.447978378813708
 20
12.93152225677872
 30
0.0
  0
SPLINE
  5
AB
330
1F
100
AcDbEntity
  8
0
  6
Continuous
 62
     7
370
    25
100
AcDbSpline
210
0.0
220
0.0
230
1.0
 70
     8
 71
     3
 72
    10
 73
     6
 74
     0
 42
0.00000001
 43
0.00000001
 40
0.0
 40
0.0
 40
0.0
 40
0.0
 40
0.3509989708417948
 40
0.7024369926442051
 40
1.0
 40
1.0
 40
1.0
 40
1.0
 10
2.447978378813707
 20
12.93152225677872
 30
0.0
 10
2.451562118240735
 20
12.91892150586146
 30
0.0
 10
2.458734079855049
 20
12.89370424223771
 30
0.0
 10
2.467453548110286
 20
12.85739570953534
 30
0.0
 10
2.471955793366381
 20
12.83359369544402
 30
0.0
 10
2.474020045313707
 20
12.82268061738107
 30
0.0
  0
SPLINE
  5
AC
330
1F
100
AcDbEntity
  8
0
  6
Continuous
 62
     7
370
    25
100
AcDbSpline
210
0.0
220
0.0
230
1.0
 70
     8
 71
     3
 72
     9
 73
     5
 74
     0
 42
0.00000001
 43
0.00000001
 40
0.0
 40
0.0
 40
0.0
 40
0.0
 40
0.7979651537488098
 40
0.9999999999999999
 40
0.9999999999999999
 40
0.9999999999999999
 40
0.9999999999999999
 10
2.474020045313707
 20
12.82268061738107
 30
0.0
 10
2.475677787658039
 20
12.8318495298136
 30
0.0
 10
2.477755249733349
 20
12.84333989676693
 30
0.0
 10
2.480367317170623
 20
12.85471804295225
 30
0.0
 10
2.48089504581371
 20
12.85701682496743
 30
0.0
  0
SPLINE
  5
AD
330
1F
100
AcDbEntity
  8
0
  6
Continuous
 62
     7
370
    25
100
AcDbSpline
210
0.0
220
0.0
230
1.0
 70
     8
 71
     3
 72
     9
 73
     5
 74
     0
 42
0.00000001
 43
0.00000001
 40
0.0
 40
0.0
 40
0.0
 40
0.0
 40
0.053825568066801
 40
1.0
 40
1.0
 40
1.0
 40
1.0
 10
2.48089504581371
 20
12.54739877987734
 30
0.0
 10
2.480748028809489
 20
12.54801322030563
 30
0.0
 10
2.478016668797849
 20
12.55942862102226
 30
0.0
 10
2.47596308952018
 20
12.57099138960903
 30
0.0
 10
2.474020045313702
 20
12.58193178560819
 30
0.0
  0
SPLINE
  5
AE
330
1F
100
AcDbEntity
  8
0
  6
Continuous
 62
     7
370
    25
100
AcDbSpline
210
0.0
220
0.0
230
1.0
 70
     8
 71
     3
 72
    10
 73
     6
 74
     0
 42
0.00000001
 43
0.00000001
 40
0.0
 40
0.0
 40
0.0
 40
0.0
 40
0.2495901272762595
 40
0.4991891441824058
 40
0.9999999999999999
 40
0.9999999999999999
 40
0.9999999999999999
 40
0.9999999999999999
 10
2.474020045313702
 20
12.58193178560819
 30
0.0
 10
2.472307254972112
 20
12.57277502046044
 30
0.0
 10
2.468881613284626
 20
12.55446116402922
 30
0.0
 10
2.46061475262652
 20
12.51805453640102
 30
0.0
 10
2.453036185992944
 20
12.49108749409564
 30
0.0
 10
2.447978378813708
 20
12.47309014621054
 30
0.0
  0
SPLINE
  5
AF
330
1F
100
AcDbEntity
  8
0
  6
Continuous
 62
     7
370
    25
100
AcDbSpline
210
0.0
220
0.0
230
1.0
 70
     8
 71
     3
 72
    10
 73
     6
 74
     0
 42
0.00000001
 43
0.00000001
 40
0.0
 40
0.0
 40
0.0
 40
0.0
 40
0.3509989708417993
 40
0.7024369926442141
 40
1.0
 40
1.0
 40
1.0
 40
1.0
 10
2.447978378813708
 20
12.47309014621054
 30
0.0
 10
2.44439463938668
 20
12.4856908971278
 30
0.0
 10
2.437222677772364
 20
12.51090816075156
 30
0.0
 10
2.428503209517132
 20
12.54721669345392
 30
0.0
 10
2.424000964261031
 20
12.57101870754524
 30
0.0
 10
2.421936712313702
 20
12.58193178560819
 30
0.0
  0
LINE
  5
B0
330
1F
100
AcDbEntity
  8
0
  6
Continuous
 62
     7
370
    25
100
AcDbLine
 10
2.4219367123
 20
12.5819317856
 30
0.0
 11
2.4219367123
 21
12.3468062015
 31
0.0
  0
LINE
  5
B1
330
1F
100
AcDbEntity
  8
0
  6
Continuous
 62
     7
370
    25
100
AcDbLine
 10
2.4219367123
 20
13.0578062015
 30
0.0
 11
2.4219367123
 21
12.8226806174
 31
0.0
  0
LINE
  5
B2
330
1F
100
AcDbEntity
  8
0
  6
Continuous
 62
     7
370
    25
100
AcDbLine
 10
2.3958950458
 20
12.4730901462
 30
0.0
 11
2.3958950458
 21
12.2968062015
 31
0.0
  0
LINE
  5
B3
330
1F
100
AcDbEntity
  8
0
  6
Continuous
 62
     7
370
    25
100
AcDbLine
 10
2.3958950458
 20
13.1078062015
 30
0.0
 11
2.3958950458
 21
12.9315222568
 31
0.0
  0
LINE
  5
B4
330
1F
100
AcDbEntity
  8
0
  6
Continuous
 62
     7
370
    25
100
AcDbLine
 10
2.4479783788
 20
12.4730901462
 30
0.0
 11
2.4479783788
 21
12.2968062015
 31
0.0
  0
LINE
  5
B5
330
1F
100
AcDbEntity
  8
0
  6
Continuous
 62
     7
370
    25
100
AcDbLine
 10
2.4479783788
 20
13.1078062015
 30
0.0
 11
2.4479783788
 21
12.9315222568
 31
0.0
  0
LINE
  5
B6
330
1F
100
AcDbEntity
  8
0
  6
Continuous
 62
     7
370
    25
100
AcDbLine
 10
2.4740200453
 20
12.5819317856
 30
0.0
 11
2.4740200453
 21
12.3468062015
 31
0.0
  0
LINE
  5
B7
330
1F
100
AcDbEntity
  8
0
  6
Continuous
 62
     7
370
    25
100
AcDbLine
 10
2.4740200453
 20
13.0578062015
 30
0.0
 11
2.4740200453
 21
12.8226806174
 31
0.0
  0
LINE
  5
B8
330
1F
100
AcDbEntity
  8
0
  6
Continuous
 62
     7
370
    25
100
AcDbLine
 10
5.2658950458
 20
13.4223062015
 30
0.0
 11
4.2758950458
 21
13.4223062015
 31
0.0
  0
LINE
  5
B9
330
1F
100
AcDbEntity
  8
0
  6
Continuous
 62
     7
370
    25
100
AcDbLine
 10
4.3058950458
 20
13.4523062015
 30
0.0
 11
5.2358950458
 21
13.4523062015
 31
0.0
  0
LINE
  5
BA
330
1F
100
AcDbEntity
  8
0
  6
Continuous
 62
     7
370
    25
100
AcDbLine
 10
2.6458950458
 20
12.7023062015
 30
0.0
 11
2.6458950458
 21
10.9523062015
 31
0.0
  0
LINE
  5
BB
330
1F
100
AcDbEntity
  8
0
  6
Continuous
 62
     7
370
    25
100
AcDbLine
 10
2.6458950458
 20
14.4523062015
 30
0.0
 11
2.6458950458
 21
12.7023062015
 31
0.0
  0
LINE
  5
BC
330
1F
100
AcDbEntity
  8
0
  6
Continuous
 62
     7
370
    25
100
AcDbLine
 10
2.9708950458
 20
12.7023062015
 30
0.0
 11
2.9708950458
 21
14.4523062015
 31
0.0
  0
LINE
  5
BD
330
1F
100
AcDbEntity
  8
0
  6
Continuous
 62
     7
370
    25
100
AcDbLine
 10
2.9708950458
 20
10.9523062015
 30
0.0
 11
2.9708950458
 21
12.7023062015
 31
0.0
  0
LINE
  5
BE
330
1F
100
AcDbEntity
  8
0
  6
Continuous
 62
     7
370
    25
100
AcDbLine
 10
3.0208950458
 20
12.7023062015
 30
0.0
 11
3.0208950458
 21
11.0023062015
 31
0.0
  0
LINE
  5
BF
330
1F
100
AcDbEntity
  8
0
  6
Continuous
 62
     7
370
    25
100
AcDbLine
 10
3.0208950458
 20
14.4023062015
 30
0.0
 11
3.0208950458
 21
12.7023062015
 31
0.0
  0
LINE
  5
C0
330
1F
100
AcDbEntity
  8
0
  6
Continuous
 62
     7
370
    25
100
AcDbLine
 10
4.2758950458
 20
11.7139062015
 30
0.0
 11
4.2758950458
 21
11.8407062015
 31
0.0
  0
LINE
  5
C1
330
1F
100
AcDbEntity
  8
0
  6
Continuous
 62
     7
370
    25
100
AcDbLine
 10
4.7708950458
 20
11.9523062015
 30
0.0
 11
5.2658950458
 21
11.9523062015
 31
0.0
  0
LINE
  5
C2
330
1F
100
AcDbEntity
  8
0
  6
Continuous
 62
     7
370
    25
100
AcDbLine
 10
4.2758950458
 20
11.9523062015
 30
0.0
 11
4.7708950458
 21
11.9523062015
 31
0.0
  0
SPLINE
  5
C3
330
1F
100
AcDbEntity
  8
0
  6
Continuous
 62
     7
370
    25
100
AcDbSpline
210
0.0
220
0.0
230
1.0
 70
     8
 71
     3
 72
    27
 73
    23
 74
     0
 42
0.00000001
 43
0.00000001
 40
0.0
 40
0.0
 40
0.0
 40
0.0
 40
0.0354726214619908
 40
0.0878789098495927
 40
0.1417962808429362
 40
0.1943807091065432
 40
0.2484656208853793
 40
0.3014747202530997
 40
0.356018393204968
 40
0.4090433575370497
 40
0.4636305238256038
 40
0.5162271758216168
 40
0.5703623526113735
 40
0.6227574980142787
 40
0.6766539970653722
 40
0.7293855276717366
 40
0.7836252007413802
 40
0.83670816910228
 40
0.8913392893239519
 40
0.9442430321754192
 40
0.9987061235261093
 40
1.0
 40
1.0
 40
1.0
 40
1.0
 10
4.275895045813698
 20
11.84530620149463
 30
0.0
 10
4.275906558833059
 20
11.8452225615168
 30
0.0
 10
4.275935080874814
 20
11.84501535410532
 30
0.0
 10
4.276211736168338
 20
11.84298440721508
 30
0.0
 10
4.276730336340294
 20
11.83899510193605
 30
0.0
 10
4.27742557139186
 20
11.83320921088259
 30
0.0
 10
4.278207097307641
 20
11.82590502512546
 30
0.0
 10
4.279002347738498
 20
11.81713499307783
 30
0.0
 10
4.279708595402579
 20
11.80728752543128
 30
0.0
 10
4.280254831985091
 20
11.79648163500507
 30
0.0
 10
4.280568173141899
 20
11.78524849646355
 30
0.0
 10
4.280619441829318
 20
11.77371391930601
 30
0.0
 10
4.280404747535674
 20
11.76243300836898
 30
0.0
 10
4.279946660535665
 20
11.75149092286049
 30
0.0
 10
4.279304201877697
 20
11.74136484554671
 30
0.0
 10
4.278537070713164
 20
11.73214159644897
 30
0.0
 10
4.277740793640125
 20
11.72422883076796
 30
0.0
 10
4.276992685760398
 20
11.71773286766685
 30
0.0
 10
4.276390132623237
 20
11.71297264461642
 30
0.0
 10
4.275992718813815
 20
11.71001242967155
 30
0.0
 10
4.275895792268946
 20
11.70931165490276
 30
0.0
 10
4.275895062742824
 20
11.70930632517442
 30
0.0
 10
4.275895045813698
 20
11.70930620149463
 30
0.0
  0
SPLINE
  5
C4
330
1F
100
AcDbEntity
  8
0
  6
Continuous
 62
     7
370
    25
100
AcDbSpline
210
0.0
220
0.0
230
1.0
 70
     8
 71
     3
 72
    27
 73
    23
 74
     0
 42
0.00000001
 43
0.00000001
 40
0.0
 40
0.0
 40
0.0
 40
0.0
 40
0.0354306860051719
 40
0.0878390404022343
 40
0.1417585369763425
 40
0.1943450382722058
 40
0.2484320822367544
 40
0.3014432713785086
 40
0.3559890946018005
 40
0.4090161493333639
 40
0.4636054676079743
 40
0.5162041931181405
 40
0.5703415040752023
 40
0.6227387150482773
 40
0.6766373388573014
 40
0.729370948295129
 40
0.783612759651628
 40
0.8366978206986941
 40
0.8913310946392181
 40
0.9442369231112576
 40
0.9987021615566084
 40
1.0
 40
1.0
 40
1.0
 40
1.0
 10
4.275925844757503
 20
9.066081489045272
 30
0.0
 10
4.275924863462982
 20
9.066089008022999
 30
0.0
 10
4.275922430657441
 20
9.066107648920559
 30
0.0
 10
4.276215818232671
 20
9.063954623627646
 30
0.0
 10
4.276729260815528
 20
9.06000294918699
 30
0.0
 10
4.277425865777584
 20
9.05420706298597
 30
0.0
 10
4.278207019324833
 20
9.046905594094063
 30
0.0
 10
4.279002369146174
 20
9.038134836920365
 30
0.0
 10
4.27970858977287
 20
9.028287566364364
 30
0.0
 10
4.280254833559277
 20
9.01748162404058
 30
0.0
 10
4.280568172606472
 20
9.00624849839073
 30
0.0
 10
4.280619442428701
 20
8.9947139221018
 30
0.0
 10
4.280404745641071
 20
8.983432994908132
 30
0.0
 10
4.279946667334394
 20
8.972490972545737
 30
0.0
 10
4.279304175934044
 20
8.962364655546185
 30
0.0
 10
4.278537166260737
 20
8.953142296302099
 30
0.0
 10
4.277740428758769
 20
8.945226158108134
 30
0.0
 10
4.276994030402445
 20
8.938742716823073
 30
0.0
 10
4.276385017157846
 20
8.933935175149529
 30
0.0
 10
4.276011351460674
 20
8.931148909012869
 30
0.0
 10
4.275853632823713
 20
8.930002848150826
 30
0.0
 10
4.275897077912673
 20
8.9303210857767
 30
0.0
 10
4.275898089060369
 20
8.93032849248824
 30
0.0
  0
LINE
  5
C5
330
1F
100
AcDbEntity
  8
0
  6
Continuous
 62
     7
370
    25
100
AcDbLine
 10
4.2758950458
 20
8.8853062015
 30
0.0
 11
5.2658950458
 21
7.8953062015
 31
0.0
  0
SPLINE
  5
C6
330
1F
100
AcDbEntity
  8
0
  6
Continuous
 62
     7
370
    25
100
AcDbSpline
210
0.0
220
0.0
230
1.0
 70
     8
 71
     3
 72
    30
 73
    26
 74
     0
 42
0.00000001
 43
0.00000001
 40
0.0
 40
0.0
 40
0.0
 40
0.0
 40
0.0317163255648335
 40
0.0738124312901636
 40
0.1159108339406739
 40
0.1549512780542767
 40
0.1939946129356687
 40
0.2339564850483604
 40
0.2739218469016058
 40
0.3099898516004477
 40
0.3460919137644722
 40
0.3821670267157748
 40
0.4192647588939573
 40
0.4563897867311015
 40
0.4934933363549535
 40
0.543112714632091
 40
0.5927795698438479
 40
0.6424106599156741
 40
0.6934181750971955
 40
0.7444617713333956
 40
0.7954765120084886
 40
0.8463978642719867
 40
0.8973201880835094
 40
0.9486608414015546
 40
1.0
 40
1.0
 40
1.0
 40
1.0
 10
4.271061981396152
 20
13.19713759255558
 30
0.0
 10
4.271106451723368
 20
13.19709266687781
 30
0.0
 10
4.271209946151348
 20
13.19698811272645
 30
0.0
 10
4.273718276671218
 20
13.19445441273534
 30
0.0
 10
4.278064516971911
 20
13.19006341938292
 30
0.0
 10
4.284103847249495
 20
13.18396065104499
 30
0.0
 10
4.291553985333583
 20
13.17642995525578
 30
0.0
 10
4.300540958892412
 20
13.16734245430288
 30
0.0
 10
4.310626282059713
 20
13.15713936785751
 30
0.0
 10
4.321496448346279
 20
13.14613629163613
 30
0.0
 10
4.33292007848557
 20
13.13456579948236
 30
0.0
 10
4.345306893333644
 20
13.12201061307512
 30
0.0
 10
4.358607066803862
 20
13.10851840726061
 30
0.0
 10
4.37276103103776
 20
13.09414552677934
 30
0.0
 10
4.389235643557575
 20
13.07739604029448
 30
0.0
 10
4.408223527137103
 20
13.05806175371319
 30
0.0
 10
4.429854326804513
 20
13.03598520678263
 30
0.0
 10
4.452460415101393
 20
13.01284446383267
 30
0.0
 10
4.475946981830742
 20
12.98871972266048
 30
0.0
 10
4.500211679786588
 20
12.96367056425321
 30
0.0
 10
4.524909901230949
 20
12.93799683625459
 30
0.0
 10
4.549937131533154
 20
12.91177108042482
 30
0.0
 10
4.575211248790759
 20
12.88489794534939
 30
0.0
 10
4.600676726839303
 20
12.85744904867487
 30
0.0
 10
4.617489021068283
 20
12.8384794549028
 30
0.0
 10
4.625895045813706
 20
12.82899479608783
 30
0.0
  0
LINE
  5
C7
330
1F
100
AcDbEntity
  8
0
  6
Continuous
 62
     7
370
    25
100
AcDbLine
 10
4.6258950458
 20
12.8289947961
 30
0.0
 11
4.6258950458
 21
12.5756176069
 31
0.0
  0
SPLINE
  5
C8
330
1F
100
AcDbEntity
  8
0
  6
Continuous
 62
     7
370
    25
100
AcDbSpline
210
0.0
220
0.0
230
1.0
 70
     8
 71
     3
 72
    30
 73
    26
 74
     0
 42
0.00000001
 43
0.00000001
 40
0.0
 40
0.0
 40
0.0
 40
0.0
 40
0.054675013926157
 40
0.1093834518156467
 40
0.1640602741981037
 40
0.219977099085716
 40
0.2759297636954021
 40
0.3318375709635332
 40
0.3740053817577154
 40
0.4161938246885896
 40
0.4583563345323976
 40
0.5015045941775725
 40
0.5446827338179387
 40
0.5878216802091345
 40
0.6364574151799859
 40
0.6850870032155634
 40
0.718339324902917
 40
0.7516171054769042
 40
0.7848637106446187
 40
0.8256151620379009
 40
0.8663630132787624
 40
0.9082535137506323
 40
0.9501413113695976
 40
0.9909290388883077
 40
1.0
 40
1.0
 40
1.0
 40
1.0
 10
4.625895045813706
 20
12.57561760690143
 30
0.0
 10
4.616945653407889
 20
12.56551682216827
 30
0.0
 10
4.599041397648154
 20
12.54530907788398
 30
0.0
 10
4.571844666579366
 20
12.51604968132615
 30
0.0
 10
4.544558305354315
 20
12.48718947316183
 30
0.0
 10
4.517386065286082
 20
12.4587552000938
 30
0.0
 10
4.490448840347285
 20
12.43083938600984
 30
0.0
 10
4.466264787420785
 20
12.40593936401707
 30
0.0
 10
4.444798070018026
 20
12.38391844865468
 30
0.0
 10
4.425929066102772
 20
12.36462015632111
 30
0.0
 10
4.407488982131557
 20
12.34580496279047
 30
0.0
 10
4.389578792350978
 20
12.32756500792198
 30
0.0
 10
4.372313320022527
 20
12.31001089982913
 30
0.0
 10
4.355242232112639
 20
12.29267828585433
 30
0.0
 10
4.338647911640469
 20
12.27584971499924
 30
0.0
 10
4.324530616687327
 20
12.26154831403651
 30
0.0
 10
4.31319482533063
 20
12.25007259499184
 30
0.0
 10
4.304222103710305
 20
12.24099369847442
 30
0.0
 10
4.295563478943786
 20
12.23223639550566
 30
0.0
 10
4.287575347803987
 20
12.22416042333698
 30
0.0
 10
4.280614847333564
 20
12.21712590356643
 30
0.0
 10
4.275339112133744
 20
12.21179540568119
 30
0.0
 10
4.272115085604598
 20
12.20853857780021
 30
0.0
 10
4.270734944620457
 20
12.20714445560754
 30
0.0
 10
4.271011641068535
 20
12.20742395936306
 30
0.0
 10
4.271061981396152
 20
12.20747481043368
 30
0.0
  0
SPLINE
  5
C9
330
1F
100
AcDbEntity
  8
0
  6
Continuous
 62
     7
370
    25
100
AcDbSpline
210
0.0
220
0.0
230
1.0
 70
     8
 71
     3
 72
    15
 73
    11
 74
     0
 42
0.00000001
 43
0.00000001
 40
0.0
 40
0.0
 40
0.0
 40
0.0
 40
0.1229566788981166
 40
0.2459671099478992
 40
0.3689308293262251
 40
0.4935437662707
 40
0.6182011905343945
 40
0.7428281458437627
 40
0.8713614999666479
 40
1.0
 40
1.0
 40
1.0
 40
1.0
 10
2.480895045813698
 20
12.70230620149465
 30
0.0
 10
2.481041898838988
 20
12.69029326730876
 30
0.0
 10
2.481335669088326
 20
12.66626214732264
 30
0.0
 10
2.483659093763395
 20
12.63027965769994
 30
0.0
 10
2.487317542413706
 20
12.59425384310544
 30
0.0
 10
2.492422421053832
 20
12.5582395481086
 30
0.0
 10
2.498831272387313
 20
12.52227129944781
 30
0.0
 10
2.506527952363911
 20
12.48616680254718
 30
0.0
 10
2.5153612902213
 20
12.44992054253806
 30
0.0
 10
2.522155000561879
 20
12.425730855468
 30
0.0
 10
2.525553244552229
 20
12.41363106689985
 30
0.0
  0
SPLINE
  5
CA
330
1F
100
AcDbEntity
  8
0
  6
Continuous
 62
     7
370
    25
100
AcDbSpline
210
0.0
220
0.0
230
1.0
 70
     8
 71
     3
 72
    13
 73
     9
 74
     0
 42
0.00000001
 43
0.00000001
 40
0.0
 40
0.0
 40
0.0
 40
0.0
 40
0.1651136683228354
 40
0.3302740818381972
 40
0.4953484348339947
 40
0.6635403061289884
 40
0.8318392863965746
 40
1.0
 40
1.0
 40
1.0
 40
1.0
 10
2.525553244552229
 20
12.41363106689985
 30
0.0
 10
2.521223189616784
 20
12.40586129760668
 30
0.0
 10
2.512561853867667
 20
12.39031955932744
 30
0.0
 10
2.501721436118452
 20
12.36673076812647
 30
0.0
 10
2.492698374529367
 20
12.34279863200979
 30
0.0
 10
2.486057426543125
 20
12.31851761739034
 30
0.0
 10
2.481729513957671
 20
12.29394456665629
 30
0.0
 10
2.481173125646578
 20
12.27750827047865
 30
0.0
 10
2.480895045813724
 20
12.26929349960244
 30
0.0
  0
LINE
  5
CB
330
1F
100
AcDbEntity
  8
0
  6
Continuous
 62
     7
370
    25
100
AcDbLine
 10
2.4808950458
 20
12.2692934996
 30
0.0
 11
2.4808950458
 21
12.7023062015
 31
0.0
  0
SPLINE
  5
CC
330
1F
100
AcDbEntity
  8
0
  6
Continuous
 62
     7
370
    25
100
AcDbSpline
210
0.0
220
0.0
230
1.0
 70
     8
 71
     3
 72
    14
 73
    10
 74
     0
 42
0.00000001
 43
0.00000001
 40
0.0
 40
0.0
 40
0.0
 40
0.0
 40
0.0700594683430075
 40
0.2236113743167195
 40
0.3772663813459119
 40
0.530843130473682
 40
0.687194675539501
 40
0.8436170999013076
 40
1.0
 40
1.0
 40
1.0
 40
1.0
 10
2.480895045813722
 20
13.13531890338687
 30
0.0
 10
2.48094409706894
 20
13.13189675888418
 30
0.0
 10
2.48110065575902
 20
13.12097417477876
 30
0.0
 10
2.483016741094051
 20
13.10256045493327
 30
0.0
 10
2.487490439500562
 20
13.08015728269679
 30
0.0
 10
2.494127743897715
 20
13.05774884679118
 30
0.0
 10
2.502815114033357
 20
13.03538181828162
 30
0.0
 10
2.513227542186421
 20
13.01305716735621
 30
0.0
 10
2.521445023201351
 20
12.99833932662478
 30
0.0
 10
2.525553244552242
 20
12.99098133608948
 30
0.0
  0
SPLINE
  5
CD
330
1F
100
AcDbEntity
  8
0
  6
Continuous
 62
     7
370
    25
100
AcDbSpline
210
0.0
220
0.0
230
1.0
 70
     8
 71
     3
 72
    14
 73
    10
 74
     0
 42
0.00000001
 43
0.00000001
 40
0.0
 40
0.0
 40
0.0
 40
0.0
 40
0.182117767027508
 40
0.3642197703029864
 40
0.4866754091050407
 40
0.6091649106500542
 40
0.7316079332931792
 40
0.8656707584788094
 40
1.0
 40
1.0
 40
1.0
 40
1.0
 10
2.525553244552242
 20
12.99098133608948
 30
0.0
 10
2.520793194679309
 20
12.97383622271317
 30
0.0
 10
2.511273506953902
 20
12.93954748000751
 30
0.0
 10
2.50090729345918
 20
12.89312270516479
 30
0.0
 10
2.493358573819695
 20
12.85208672415467
 30
0.0
 10
2.488111164030116
 20
12.81657185694185
 30
0.0
 10
2.484095271822077
 20
12.77975915315062
 30
0.0
 10
2.481412643270529
 20
12.74165224787186
 30
0.0
 10
2.481067692436484
 20
12.71543022661754
 30
0.0
 10
2.480895045813698
 20
12.70230620149465
 30
0.0
  0
LINE
  5
CE
330
1F
100
AcDbEntity
  8
0
  6
Continuous
 62
     7
370
    25
100
AcDbLine
 10
2.4808950458
 20
12.7023062015
 30
0.0
 11
2.4808950458
 21
13.1353189034
 31
0.0
  0
LINE
  5
CF
330
1F
100
AcDbEntity
  8
0
  6
Continuous
 62
     7
370
    25
100
AcDbLine
 10
2.6458950458
 20
12.1249559323
 30
0.0
 11
2.5255532446
 21
12.1249559323
 31
0.0
  0
SPLINE
  5
D0
330
1F
100
AcDbEntity
  8
0
  6
Continuous
 62
     7
370
    25
100
AcDbSpline
210
0.0
220
0.0
230
1.0
 70
     8
 71
     3
 72
    14
 73
    10
 74
     0
 42
0.00000001
 43
0.00000001
 40
0.0
 40
0.0
 40
0.0
 40
0.0
 40
0.0700594683431065
 40
0.2236113743168039
 40
0.3772663813459811
 40
0.5308431304737352
 40
0.687194675539537
 40
0.8436170999013259
 40
1.0
 40
1.0
 40
1.0
 40
1.0
 10
2.480895045813724
 20
12.26929349960244
 30
0.0
 10
2.480944097068944
 20
12.26587135509975
 30
0.0
 10
2.481100655759028
 20
12.25494877099433
 30
0.0
 10
2.483016741094054
 20
12.23653505114884
 30
0.0
 10
2.487490439500559
 20
12.21413187891237
 30
0.0
 10
2.494127743897709
 20
12.19172344300677
 30
0.0
 10
2.50281511403335
 20
12.1693564144972
 30
0.0
 10
2.513227542186405
 20
12.14703176357176
 30
0.0
 10
2.521445023201334
 20
12.13231392284033
 30
0.0
 10
2.525553244552223
 20
12.12495593230503
 30
0.0
  0
LINE
  5
D1
330
1F
100
AcDbEntity
  8
0
  6
Continuous
 62
     7
370
    25
100
AcDbLine
 10
2.6458950458
 20
12.4136310669
 30
0.0
 11
2.5255532446
 21
12.4136310669
 31
0.0
  0
LINE
  5
D2
330
1F
100
AcDbEntity
  8
0
  6
Continuous
 62
     7
370
    25
100
AcDbLine
 10
2.6458950458
 20
12.9909813361
 30
0.0
 11
2.5255532446
 21
12.9909813361
 31
0.0
  0
SPLINE
  5
D3
330
1F
100
AcDbEntity
  8
0
  6
Continuous
 62
     7
370
    25
100
AcDbSpline
210
0.0
220
0.0
230
1.0
 70
     8
 71
     3
 72
    13
 73
     9
 74
     0
 42
0.00000001
 43
0.00000001
 40
0.0
 40
0.0
 40
0.0
 40
0.0
 40
0.1651136683228363
 40
0.3302740818382001
 40
0.4953484348340005
 40
0.6635403061289931
 40
0.8318392863965771
 40
1.0
 40
1.0
 40
1.0
 40
1.0
 10
2.525553244552223
 20
13.2796564706843
 30
0.0
 10
2.52122318961678
 20
13.27188670139112
 30
0.0
 10
2.512561853867663
 20
13.25634496311188
 30
0.0
 10
2.501721436118461
 20
13.23275617191089
 30
0.0
 10
2.492698374529382
 20
13.2088240357942
 30
0.0
 10
2.486057426543133
 20
13.18454302117475
 30
0.0
 10
2.481729513957671
 20
13.15996997044071
 30
0.0
 10
2.481173125646577
 20
13.14353367426307
 30
0.0
 10
2.480895045813722
 20
13.13531890338687
 30
0.0
  0
LINE
  5
D4
330
1F
100
AcDbEntity
  8
0
  6
Continuous
 62
     7
370
    25
100
AcDbLine
 10
2.6458950458
 20
13.2796564707
 30
0.0
 11
2.5255532446
 21
13.2796564707
 31
0.0
  0
LINE
  5
D5
330
1F
100
AcDbEntity
  8
0
  6
Continuous
 62
     7
370
    25
100
AcDbLine
 10
2.4808950458
 20
13.1353189034
 30
0.0
 11
2.4808950458
 21
13.2023062015
 31
0.0
  0
LINE
  5
D6
330
1F
100
AcDbEntity
  8
0
  6
Continuous
 62
     7
370
    25
100
AcDbLine
 10
2.4808950458
 20
12.2023062015
 30
0.0
 11
2.4808950458
 21
12.2692934996
 31
0.0
  0
LINE
  5
D7
330
1F
100
AcDbEntity
  8
0
  6
Continuous
 62
     7
370
    25
100
AcDbLine
 10
4.2758950458
 20
11.9623062015
 30
0.0
 11
5.2658950458
 21
11.9623062015
 31
0.0
  0
DIMENSION
  5
D8
330
1F
100
AcDbEntity
  8
0
  6
Continuous
 62
     7
370
    18
100
AcDbDimension
  2
_D
 10
3.0208950458
 20
15.034445213
 30
0.0
 11
1.1360525261
 21
15.034445213
 31
0.0
 70
   160
  1
<>
 71
     2
 42
-1.0
  3
SLDDIMSTYLE0
100
AcDbAlignedDimension
 13
2.6458950458
 23
14.4523062015
 33
0.0
 14
3.0208950458
 24
14.4023062015
 34
0.0
 50
0.0
100
AcDbRotatedDimension
  0
DIMENSION
  5
ED
330
1F
100
AcDbEntity
  8
0
  6
Continuous
 62
     7
370
    18
100
AcDbDimension
  2
_D_1
 10
5.2658950458
 20
15.9424640254
 30
0.0
 11
4.1433950458
 21
15.9424640254
 31
0.0
 70
   160
  1
<>
 71
     2
 42
-1.0
  3
SLDDIMSTYLE0
100
AcDbAlignedDimension
 13
3.0208950458
 23
14.4023062015
 33
0.0
 14
5.2658950458
 24
13.4223062015
 34
0.0
 50
0.0
100
AcDbRotatedDimension
  0
DIMENSION
  5
101
330
1F
100
AcDbEntity
  8
0
  6
Continuous
 62
     7
370
    18
100
AcDbDimension
  2
_D_2
 10
5.63353812
 20
11.9523062015
 30
0.0
 11
5.63353812
 21
10.6406041527
 31
0.0
 70
   160
  1
<>
 71
     2
 42
-1.0
  3
SLDDIMSTYLE1
100
AcDbAlignedDimension
 13
2.4808950458
 23
12.7023062015
 33
0.0
 14
5.2658950458
 24
11.9523062015
 34
0.0
 50
90.0
100
AcDbRotatedDimension
  0
DIMENSION
  5
117
330
1F
100
AcDbEntity
  8
0
  6
Continuous
 62
     7
370
    18
100
AcDbDimension
  2
_D_3
 10
7.0174648425
 20
11.9523062015
 30
0.0
 11
7.0174648425
 21
12.7023062015
 31
0.0
 70
   160
  1
<>
 71
     2
 42
-1.0
  3
SLDDIMSTYLE0
100
AcDbAlignedDimension
 13
5.2358950458
 23
13.4523062015
 33
0.0
 14
5.2658950458
 24
11.9523062015
 34
0.0
 50
90.0
100
AcDbRotatedDimension
  0
LINE
  5
12B
330
1F
100
AcDbEntity
  8
0
  6
Continuous
 62
     7
370
    25
100
AcDbLine
 10
11.554787296
 20
13.4223062015
 30
0.0
 11
11.524787296
 21
13.4523062015
 31
0.0
  0
LINE
  5
12C
330
1F
100
AcDbEntity
  8
0
  6
Continuous
 62
     7
370
    25
100
AcDbLine
 10
10.594787296
 20
13.4523062015
 30
0.0
 11
10.564787296
 21
13.4223062015
 31
0.0
  0
LINE
  5
12D
330
1F
100
AcDbEntity
  8
0
  6
Continuous
 62
     7
370
    25
100
AcDbLine
 10
11.554787296
 20
11.9623062015
 30
0.0
 11
11.554787296
 21
13.4223062015
 31
0.0
  0
LINE
  5
12E
330
1F
100
AcDbEntity
  8
0
  6
Continuous
 62
     7
370
    25
100
AcDbLine
 10
10.564787296
 20
13.4223062015
 30
0.0
 11
10.564787296
 21
11.9623062015
 31
0.0
  0
ARC
  5
12F
330
1F
100
AcDbEntity
  8
0
  6
Continuous
 62
     7
370
    25
100
AcDbCircle
 10
11.544787296
 20
11.9623062015
 30
0.0
 40
0.009999999999998
100
AcDbArc
 50
270.0
 51
0.0
  0
ARC
  5
130
330
1F
100
AcDbEntity
  8
0
  6
Continuous
 62
     7
370
    25
100
AcDbCircle
 10
10.574787296
 20
11.9623062015
 30
0.0
 40
0.0099999999999998
100
AcDbArc
 50
180.0
 51
270.0
  0
LINE
  5
131
330
1F
100
AcDbEntity
  8
0
  6
Continuous
 62
     7
370
    25
100
AcDbLine
 10
10.564787296
 20
11.9523062015
 30
0.0
 11
10.564787296
 21
8.3903062015
 31
0.0
  0
LINE
  5
132
330
1F
100
AcDbEntity
  8
0
  6
Continuous
 62
     7
370
    25
100
AcDbLine
 10
11.554787296
 20
8.3903062015
 30
0.0
 11
11.554787296
 21
11.9523062015
 31
0.0
  0
LINE
  5
133
330
1F
100
AcDbEntity
  8
0
  6
Continuous
 62
     7
370
    25
100
AcDbLine
 10
11.554787296
 20
13.4223062015
 30
0.0
 11
10.564787296
 21
13.4223062015
 31
0.0
  0
LINE
  5
134
330
1F
100
AcDbEntity
  8
0
  6
Continuous
 62
     7
370
    25
100
AcDbLine
 10
10.594787296
 20
13.4523062015
 30
0.0
 11
11.524787296
 21
13.4523062015
 31
0.0
  0
ARC
  5
135
330
1F
100
AcDbEntity
  8
0
  6
Continuous
 62
     7
370
    25
100
AcDbCircle
 10
11.059787296
 20
12.7023062015
 30
0.0
 40
1.700000000000003
100
AcDbArc
 50
180.0
 51
253.0715972704
  0
ARC
  5
136
330
1F
100
AcDbEntity
  8
0
  6
Continuous
 62
     7
370
    25
100
AcDbCircle
 10
11.059787296
 20
12.7023062015
 30
0.0
 40
1.700000000000001
100
AcDbArc
 50
286.9284027296
 51
180.0
  0
ARC
  5
137
330
1F
100
AcDbEntity
  8
0
  6
Continuous
 62
     7
370
    25
100
AcDbCircle
 10
11.059787296
 20
12.7023062015
 30
0.0
 40
1.750000000000002
100
AcDbArc
 50
286.43080219
 51
180.0
  0
ARC
  5
138
330
1F
100
AcDbEntity
  8
0
  6
Continuous
 62
     7
370
    25
100
AcDbCircle
 10
11.059787296
 20
12.7023062015
 30
0.0
 40
1.750000000000002
100
AcDbArc
 50
180.0
 51
253.56919781
  0
CIRCLE
  5
139
330
1F
100
AcDbEntity
  8
0
  6
Continuous
 62
     7
370
    25
100
AcDbCircle
 10
9.684787296
 20
12.7023062015
 30
0.0
 40
0.1014999999999997
  0
CIRCLE
  5
13A
330
1F
100
AcDbEntity
  8
0
  6
Continuous
 62
     7
370
    25
100
AcDbCircle
 10
12.434787296
 20
12.7023062015
 30
0.0
 40
0.1014999999999997
  0
ARC
  5
13B
330
1F
100
AcDbEntity
  8
0
  6
Continuous
 62
     7
370
    25
100
AcDbCircle
 10
11.059787296
 20
8.3903062015
 30
0.0
 40
0.495000000000001
100
AcDbArc
 50
180.0
 51
0.0
  0
LINE
  5
13C
330
1F
100
AcDbEntity
  8
0
  6
Continuous
 62
     7
370
    25
100
AcDbLine
 10
10.564787296
 20
11.9523062015
 30
0.0
 11
11.554787296
 21
11.9523062015
 31
0.0
  0
LINE
  5
13D
330
1F
100
AcDbEntity
  8
0
  6
Continuous
 62
     7
370
    25
100
AcDbLine
 10
11.059787296
 20
11.9623062015
 30
0.0
 11
11.554787296
 21
11.9623062015
 31
0.0
  0
LINE
  5
13E
330
1F
100
AcDbEntity
  8
0
  6
Continuous
 62
     7
370
    25
100
AcDbLine
 10
10.564787296
 20
11.9623062015
 30
0.0
 11
11.059787296
 21
11.9623062015
 31
0.0
  0
DIMENSION
  5
13F
330
1F
100
AcDbEntity
  8
0
  6
Continuous
 62
     7
370
    18
100
AcDbDimension
  2
_D_4
 10
12.809787296
 20
15.9294487541
 30
0.0
 11
11.059787296
 21
15.9294487541
 31
0.0
 70
   160
  1
%%c<>
 71
     2
 42
-1.0
  3
SLDDIMSTYLE1
100
AcDbAlignedDimension
 13
9.309787296
 23
12.7023062015
 33
0.0
 14
12.809787296
 24
12.7023062015
 34
0.0
100
AcDbRotatedDimension
  0
DIMENSION
  5
154
330
1F
100
AcDbEntity
  8
0
  6
Continuous
 62
     7
370
    18
100
AcDbDimension
  2
_D_5
 10
12.434787296
 20
15.0183797588
 30
0.0
 11
11.059787296
 21
15.0183797588
 31
0.0
 70
   160
  1
<> O.C.
 71
     2
 42
-1.0
  3
SLDDIMSTYLE0
100
AcDbAlignedDimension
 13
9.684787296
 23
12.7023062015
 33
0.0
 14
12.434787296
 24
12.7023062015
 34
0.0
100
AcDbRotatedDimension
  0
DIMENSION
  5
167
330
1F
100
AcDbEntity
  8
0
  6
Continuous
 62
     7
370
    18
100
AcDbDimension
  2
_D_6
 10
10.564787296
 20
7.2554604054
 30
0.0
 11
12.5407830933
 21
7.2554604054
 31
0.0
 70
   160
  1
%%c<>
 71
     2
 42
-1.0
  3
SLDDIMSTYLE2
100
AcDbAlignedDimension
 13
11.554787296
 23
8.3903062015
 33
0.0
 14
10.564787296
 24
8.3903062015
 34
0.0
 50
0.0
100
AcDbRotatedDimension
  0
LINE
  5
17B
330
1F
100
AcDbEntity
  8
0
  6
Continuous
 62
     7
370
    25
100
AcDbLine
 10
18.5330225465
 20
11.7888696982
 30
0.0
 11
19.2401293277
 21
12.1970737541
 31
0.0
  0
LINE
  5
17C
330
1F
100
AcDbEntity
  8
0
  6
Continuous
 62
     7
370
    25
100
AcDbLine
 10
18.745169555
 20
13.0544621279
 30
0.0
 11
18.1191033202
 21
12.6930417836
 31
0.0
  0
LINE
  5
17D
330
1F
100
AcDbEntity
  8
0
  6
Continuous
 62
     7
370
    25
100
AcDbLine
 10
18.1052873048
 20
12.7013483975
 30
0.0
 11
18.0840706545
 21
12.7136004903
 31
0.0
  0
LINE
  5
17E
330
1F
100
AcDbEntity
  8
0
  6
Continuous
 62
     7
370
    25
100
AcDbLine
 10
17.426354494
 20
12.7136004903
 30
0.0
 11
17.4051378437
 21
12.7013483975
 31
0.0
  0
LINE
  5
17F
330
1F
100
AcDbEntity
  8
0
  6
Continuous
 62
     7
370
    25
100
AcDbLine
 10
18.2502125743
 20
12.1103887157
 30
0.0
 11
18.2502125743
 21
12.4993202277
 31
0.0
  0
LINE
  5
180
330
1F
100
AcDbEntity
  8
0
  6
Continuous
 62
     7
370
    25
100
AcDbLine
 10
18.2502125743
 20
11.3071706424
 30
0.0
 11
18.2502125743
 21
11.6324630322
 31
0.0
  0
LINE
  5
181
330
1F
100
AcDbEntity
  8
0
  6
Continuous
 62
     7
370
    25
100
AcDbLine
 10
17.2602125743
 20
12.4993202277
 30
0.0
 11
17.2602125743
 21
11.3071706424
 31
0.0
  0
SPLINE
  5
182
330
1F
100
AcDbEntity
  8
0
  6
Continuous
 62
     7
370
    25
100
AcDbSpline
210
0.0
220
0.0
230
1.0
 70
     8
 71
     3
 72
    23
 73
    19
 74
     0
 42
0.00000001
 43
0.00000001
 40
0.0
 40
0.0
 40
0.0
 40
0.0
 40
0.0487251637233785
 40
0.1125848800039691
 40
0.1765457252552511
 40
0.2406381704267565
 40
0.3048810761834823
 40
0.3692814928038846
 40
0.4338359082241896
 40
0.4985324977715804
 40
0.5633538305974316
 40
0.6282795317670576
 40
0.6932885421091813
 40
0.7583607957756929
 40
0.8234782916007891
 40
0.8886256382560263
 40
0.9537902011616057
 40
1.0
 40
1.0
 40
1.0
 40
1.0
 10
17.26200090526462
 20
11.28307208535046
 30
0.0
 10
17.26249742126575
 20
11.27969765356794
 30
0.0
 10
17.26364467640324
 20
11.27190065570716
 30
0.0
 10
17.26665171688941
 20
11.25976974161228
 30
0.0
 10
17.27081038321676
 20
11.24669543114319
 30
0.0
 10
17.27601540316829
 20
11.23374839677276
 30
0.0
 10
17.28221628754584
 20
11.22095165023358
 30
0.0
 10
17.2894141516838
 20
11.20833249734729
 30
0.0
 10
17.29759299985508
 20
11.19591799435718
 30
0.0
 10
17.3067378280004
 20
11.18373576947898
 30
0.0
 10
17.31682959263323
 20
11.17181326788529
 30
0.0
 10
17.32784676897791
 20
11.16017750402399
 30
0.0
 10
17.33976476972472
 20
11.14885442528112
 30
0.0
 10
17.35255801991178
 20
11.13786972667828
 30
0.0
 10
17.36619389206702
 20
11.12724481343798
 30
0.0
 10
17.38065661665335
 20
11.11701131760141
 30
0.0
 10
17.39438454228871
 20
11.10811259267543
 30
0.0
 10
17.40348879159835
 20
11.10275434945924
 30
0.0
 10
17.40726619173412
 20
11.10053118663011
 30
0.0
  0
SPLINE
  5
183
330
1F
100
AcDbEntity
  8
0
  6
Continuous
 62
     7
370
    25
100
AcDbSpline
210
0.0
220
0.0
230
1.0
 70
     8
 71
     3
 72
    58
 73
    54
 74
     0
 42
0.00000001
 43
0.00000001
 40
0.0
 40
0.0
 40
0.0
 40
0.0
 40
0.0106538562379087
 40
0.0308580877863247
 40
0.0510597304143897
 40
0.0712578058201236
 40
0.0914517221733795
 40
0.1116411750778858
 40
0.1318260805466518
 40
0.1520065209249595
 40
0.1721827021716551
 40
0.192354920714112
 40
0.2125235381477147
 40
0.2326889622291441
 40
0.2528516328355898
 40
0.2730120117861204
 40
0.2931705756243937
 40
0.3133278106346902
 40
0.3334842095034807
 40
0.3536402691475506
 40
0.373796489309745
 40
0.393953208685374
 40
0.4141109260799352
 40
0.4342701446024017
 40
0.4544313662473708
 40
0.4745950897381559
 40
0.4947618072028245
 40
0.5149319991963768
 40
0.5351061274708883
 40
0.5552846247506303
 40
0.575467880590001
 40
0.5956562221796851
 40
0.6158498887288919
 40
0.6360489978088121
 40
0.6562535018354732
 40
0.676463132773833
 40
0.6966773332849818
 40
0.7168951731144549
 40
0.7371152508249363
 40
0.7573349605578805
 40
0.7775511893433238
 40
0.7977601681359594
 40
0.817957227245176
 40
0.8381368026929572
 40
0.8582925564343735
 40
0.8784176555837765
 40
0.8985052461908759
 40
0.9185491291377486
 40
0.9385445975986738
 40
0.9584893342327493
 40
0.9783842098565337
 40
0.998233798446549
 40
1.0
 40
1.0
 40
1.0
 40
1.0
 10
17.40726619173412
 20
11.10053118663011
 30
0.0
 10
17.41012213447303
 20
11.09890647022978
 30
0.0
 10
17.41839415633837
 20
11.09420060221452
 30
0.0
 10
17.43262581174526
 20
11.08675525707953
 30
0.0
 10
17.45015229314387
 20
11.07836168259726
 30
0.0
 10
17.46832135645673
 20
11.07045680996495
 30
0.0
 10
17.4870819704759
 20
11.06304850016647
 30
0.0
 10
17.50639814321582
 20
11.05615304187473
 30
0.0
 10
17.52622859685651
 20
11.0497831761245
 30
0.0
 10
17.54653227631258
 20
11.04395129870857
 30
0.0
 10
17.56726694557881
 20
11.03866858857749
 30
0.0
 10
17.58838964276959
 20
11.03394522241402
 30
0.0
 10
17.60985664448398
 20
11.02979029537093
 30
0.0
 10
17.63162356839745
 20
11.02621181943277
 30
0.0
 10
17.65364544497396
 20
11.02321670134025
 30
0.0
 10
17.67587680282796
 20
11.02081072746064
 30
0.0
 10
17.6982717549963
 20
11.01899854911776
 30
0.0
 10
17.72078408872036
 20
11.01778367075398
 30
0.0
 10
17.74336735725494
 20
11.01716844075439
 30
0.0
 10
17.76597497333261
 20
11.01715404531239
 30
0.0
 10
17.78856024284761
 20
11.01774050388837
 30
0.0
 10
17.8110765200489
 20
11.01892666376265
 30
0.0
 10
17.83347730599442
 20
11.02071020371108
 30
0.0
 10
17.85571640359233
 20
11.02308765001692
 30
0.0
 10
17.87774795160279
 20
11.0260543856133
 30
0.0
 10
17.89952651482582
 20
11.02960466370045
 30
0.0
 10
17.92100717354383
 20
11.03373162452153
 30
0.0
 10
17.94214561006894
 20
11.0384273149794
 30
0.0
 10
17.96289819171321
 20
11.04368271074283
 30
0.0
 10
17.98322204945632
 20
11.04948774034122
 30
0.0
 10
18.00307515155423
 20
11.05583131055067
 30
0.0
 10
18.02241637132653
 20
11.06270133211908
 30
0.0
 10
18.04120554840334
 20
11.07008474455212
 30
0.0
 10
18.059403542842
 20
11.07796753827978
 30
0.0
 10
18.07697228179072
 20
11.08633477204544
 30
0.0
 10
18.09387479885368
 20
11.0951705828282
 30
0.0
 10
18.11007526709401
 20
11.10445818508934
 30
0.0
 10
18.12553902779356
 20
11.11417985570849
 30
0.0
 10
18.14023246794332
 20
11.12431679687998
 30
0.0
 10
18.15412314314207
 20
11.13484909250382
 30
0.0
 10
18.16717989492761
 20
11.1457556465026
 30
0.0
 10
18.17937306383681
 20
11.1570141988276
 30
0.0
 10
18.19067454813387
 20
11.16860119376735
 30
0.0
 10
18.20105797419074
 20
11.18049165804772
 30
0.0
 10
18.21049886341367
 20
11.19265915292753
 30
0.0
 10
18.21897525805856
 20
11.20507577821224
 30
0.0
 10
18.22646689119636
 20
11.2177123563115
 30
0.0
 10
18.23295989876835
 20
11.2305384797854
 30
0.0
 10
18.23843080911636
 20
11.24352370746894
 30
0.0
 10
18.24290718224293
 20
11.25663512234571
 30
0.0
 10
18.24624250120851
 20
11.26984887900449
 30
0.0
 10
18.24813147797546
 20
11.2790916299445
 30
0.0
 10
18.24860870337492
 20
11.28393176556129
 30
0.0
 10
18.2486476969179
 20
11.28432724752094
 30
0.0
  0
LINE
  5
184
330
1F
100
AcDbEntity
  8
0
  6
Continuous
 62
     7
370
    25
100
AcDbLine
 10
17.7905679133
 20
13.3605352417
 30
0.0
 11
17.7905679133
 21
13.3197148361
 31
0.0
  0
LINE
  5
185
330
1F
100
AcDbEntity
  8
0
  6
Continuous
 62
     7
370
    25
100
AcDbLine
 10
18.9924540693
 20
11.237761365
 30
0.0
 11
19.0278036621
 21
11.217347845
 31
0.0
  0
LINE
  5
186
330
1F
100
AcDbEntity
  8
0
  6
Continuous
 62
     7
370
    25
100
AcDbLine
 10
18.3828855932
 20
14.2944299711
 30
0.0
 11
18.1530758894
 21
14.161763653
 31
0.0
  0
LINE
  5
187
330
1F
100
AcDbEntity
  8
0
  6
Continuous
 62
     7
370
    25
100
AcDbLine
 10
19.9029336715
 20
11.1305926346
 30
0.0
 11
20.1327433754
 21
11.2632589528
 31
0.0
  0
LINE
  5
188
330
1F
100
AcDbEntity
  8
0
  6
Continuous
 62
     7
370
    25
100
AcDbLine
 10
17.2602125743
 20
11.2990052343
 30
0.0
 11
17.2602125743
 21
8.1046829974
 31
0.0
  0
LINE
  5
189
330
1F
100
AcDbEntity
  8
0
  6
Continuous
 62
     7
370
    25
100
AcDbLine
 10
18.2502125743
 20
8.6762907272
 30
0.0
 11
18.2502125743
 21
11.2990052343
 31
0.0
  0
LINE
  5
18A
330
1F
100
AcDbEntity
  8
0
  6
Continuous
 62
     7
370
    25
100
AcDbLine
 10
18.2551022364
 20
11.6284297183
 30
0.0
 11
18.5330225465
 21
11.7888696982
 31
0.0
  0
LINE
  5
18B
330
1F
100
AcDbEntity
  8
0
  6
Continuous
 62
     7
370
    25
100
AcDbLine
 10
18.2502125743
 20
12.1743451448
 30
0.0
 11
18.2517773386
 21
12.1714324745
 31
0.0
  0
LWPOLYLINE
  5
18C
330
1F
100
AcDbEntity
  8
0
  6
Continuous
 62
     7
370
    25
100
AcDbPolyline
 90
       50
 70
   128
 43
0.0
 10
18.9926494413
 20
13.0299556429
 10
19.0095599869
 20
13.0197213932
 10
19.0264310371
 20
13.0085670469
 10
19.0432231888
 20
12.9965186557
 10
19.0598972232
 20
12.9836043589
 10
19.0764141972
 20
12.9698543186
 10
19.0927355348
 20
12.9553006486
 10
19.1088231167
 20
12.9399773397
 10
19.1246393696
 20
12.9239201802
 10
19.1401473539
 20
12.9071666723
 10
19.15531085
 20
12.8897559447
 10
19.1700944428
 20
12.8717286608
 10
19.1844636046
 20
12.8531269243
 10
19.1983847755
 20
12.8339941804
 10
19.2118254421
 20
12.8143751144
 10
19.2247542129
 20
12.7943155476
 10
19.2371408923
 20
12.7738623301
 10
19.2489565506
 20
12.7530632313
 10
19.2601735917
 20
12.7319668284
 10
19.2707658178
 20
12.7106223931
 10
19.2807084902
 20
12.6890797763
 10
19.2899783873
 20
12.6673892917
 10
19.2985538589
 20
12.6456015986
 10
19.3064148766
 20
12.6237675831
 10
19.3135430806
 20
12.6019382394
 10
19.3199218226
 20
12.5801645512
 10
19.3255362048
 20
12.5584973718
 10
19.3303731145
 20
12.5369873059
 10
19.3344212549
 20
12.5156845913
 10
19.3376711715
 20
12.4946389814
 10
19.3401152738
 20
12.4738996294
 10
19.3417478535
 20
12.4535149728
 10
19.3425650978
 20
12.433532621
 10
19.3425650978
 20
12.4139992436
 10
19.3417478535
 20
12.3949604619
 10
19.3401152738
 20
12.3764607418
 10
19.3376711715
 20
12.3585432902
 10
19.3344212549
 20
12.3412499541
 10
19.3303731145
 20
12.324621123
 10
19.3255362048
 20
12.3086956342
 10
19.3199218226
 20
12.2935106825
 10
19.3135430806
 20
12.279101733
 10
19.3064148766
 20
12.2655024384
 10
19.2985538589
 20
12.2527445607
 10
19.2899783873
 20
12.2408578964
 10
19.2807084902
 20
12.2298702073
 10
19.2707658178
 20
12.2198071557
 10
19.2601735917
 20
12.2106922443
 10
19.2489565506
 20
12.2025467614
 10
19.2401293277
 20
12.1970737541
  0
ARC
  5
18D
330
1F
100
AcDbEntity
  8
0
  6
Continuous
 62
     7
370
    25
100
AcDbCircle
 10
18.8477425515
 20
12.8284534829
 30
0.0
 40
0.2481957437872585
100
AcDbArc
 50
54.2788349093
 51
114.4107066616
  0
LWPOLYLINE
  5
18E
330
1F
100
AcDbEntity
  8
0
  6
Continuous
 62
     7
370
    25
100
AcDbPolyline
 90
       58
 70
   128
 43
0.0
 10
18.5330225465
 20
11.7888696982
 10
18.5418497694
 20
11.7943427055
 10
18.5530668105
 20
11.8024881884
 10
18.5636590366
 20
11.8116030998
 10
18.573601709
 20
11.8216661514
 10
18.5828716061
 20
11.8326538405
 10
18.5914470778
 20
11.8445405048
 10
18.5993080954
 20
11.8572983825
 10
18.6064362994
 20
11.870897677
 10
18.6128150414
 20
11.8853066265
 10
18.6184294236
 20
11.9004915783
 10
18.6232663333
 20
11.916417067
 10
18.6273144738
 20
11.9330458982
 10
18.6305643903
 20
11.9503392343
 10
18.6330084926
 20
11.9682566859
 10
18.6346410723
 20
11.986756406
 10
18.6354583166
 20
12.0057951877
 10
18.6354583166
 20
12.025328565
 10
18.6346410723
 20
12.0453109169
 10
18.6330084926
 20
12.0656955735
 10
18.6305643903
 20
12.0864349255
 10
18.6273144738
 20
12.1074805354
 10
18.6232663333
 20
12.12878325
 10
18.6184294236
 20
12.1502933159
 10
18.6128150414
 20
12.1719604953
 10
18.6064362994
 20
12.1937341835
 10
18.5993080954
 20
12.2155635272
 10
18.5914470778
 20
12.2373975427
 10
18.5828716061
 20
12.2591852358
 10
18.573601709
 20
12.2808757204
 10
18.5636590366
 20
12.3024183372
 10
18.5530668105
 20
12.3237627725
 10
18.5418497694
 20
12.3448591753
 10
18.5300341111
 20
12.3656582742
 10
18.5176474317
 20
12.3861114917
 10
18.5047186609
 20
12.4061710585
 10
18.4912779944
 20
12.4257901245
 10
18.4773568234
 20
12.4449228684
 10
18.4629876616
 20
12.4635246049
 10
18.4482040688
 20
12.4815518888
 10
18.4330405727
 20
12.4989626164
 10
18.4175325884
 20
12.5157161243
 10
18.4017163355
 20
12.5317732838
 10
18.3856287536
 20
12.5470965927
 10
18.369307416
 20
12.5616502627
 10
18.352790442
 20
12.575400303
 10
18.3361164076
 20
12.5883145997
 10
18.3193242559
 20
12.600362991
 10
18.3024532057
 20
12.6115173373
 10
18.2855426602
 20
12.621751587
 10
18.2686321146
 20
12.6310418376
 10
18.2517610644
 20
12.6393663913
 10
18.2349689127
 20
12.6467058056
 10
18.2182948783
 20
12.6530429392
 10
18.2017779043
 20
12.6583629912
 10
18.1854565667
 20
12.6626535365
 10
18.1693689848
 20
12.6659045543
 10
18.1548095144
 20
12.6679705478
  0
LWPOLYLINE
  5
18F
330
1F
100
AcDbEntity
  8
0
  6
Continuous
 62
     7
370
    25
100
AcDbPolyline
 90
       99
 70
   128
 43
0.0
 10
18.105230431
 20
12.7013812354
 10
18.121732235
 20
12.6913830238
 10
18.1373780155
 20
12.6809362407
 10
18.1521312308
 20
12.6700652849
 10
18.1659574243
 20
12.6587955462
 10
18.1788243041
 20
12.6471533455
 10
18.190701819
 20
12.6351658736
 10
18.2015622287
 20
12.622861128
 10
18.2113801681
 20
12.6102678469
 10
18.2201327069
 20
12.5974154424
 10
18.2277994032
 20
12.5843339321
 10
18.2343623511
 20
12.5710538683
 10
18.2398062224
 20
12.5576062672
 10
18.2441183029
 20
12.5440225365
 10
18.2472885213
 20
12.5303344014
 10
18.2493094736
 20
12.5165738312
 10
18.2501764397
 20
12.5027729645
 10
18.2498873947
 20
12.4889640337
 10
18.2484430138
 20
12.4751792903
 10
18.2458466703
 20
12.4614509292
 10
18.2421044282
 20
12.4478110136
 10
18.2372250276
 20
12.4342914002
 10
18.2312198646
 20
12.4209236646
 10
18.2241029644
 20
12.4077390278
 10
18.2158909491
 20
12.3947682831
 10
18.206602998
 20
12.3820417243
 10
18.1962608037
 20
12.369589075
 10
18.1848885209
 20
12.3574394187
 10
18.1725127099
 20
12.3456211316
 10
18.1591622752
 20
12.3341618159
 10
18.1448683972
 20
12.3230882354
 10
18.1296644599
 20
12.3124262528
 10
18.113585973
 20
12.3022007697
 10
18.0966704884
 20
12.2924356683
 10
18.0789575129
 20
12.2831537554
 10
18.0604884162
 20
12.2743767092
 10
18.0413063336
 20
12.2661250291
 10
18.0214560658
 20
12.2584179872
 10
18.000983974
 20
12.2512735836
 10
17.9799378716
 20
12.2447085044
 10
17.958366913
 20
12.2387380827
 10
17.9363214779
 20
12.2333762627
 10
17.9138530546
 20
12.2286355672
 10
17.8910141192
 20
12.2245270682
 10
17.8678580129
 20
12.2210603614
 10
17.844438818
 20
12.2182435433
 10
17.8208112311
 20
12.2160831929
 10
17.7970304354
 20
12.2145843558
 10
17.7731519722
 20
12.2137505324
 10
17.7492316107
 20
12.2135836703
 10
17.725325218
 20
12.2140841592
 10
17.7014886287
 20
12.2152508301
 10
17.6777775141
 20
12.2170809582
 10
17.6542472526
 20
12.2195702693
 10
17.6309528004
 20
12.2227129493
 10
17.6079485626
 20
12.2265016585
 10
17.5852882668
 20
12.2309275481
 10
17.563024837
 20
12.2359802812
 10
17.5412102706
 20
12.2416480569
 10
17.5198955165
 20
12.247917638
 10
17.4991303563
 20
12.2547743814
 10
17.4789632879
 20
12.262202273
 10
17.4594414126
 20
12.2701839646
 10
17.4406103245
 20
12.2787008145
 10
17.4225140046
 20
12.2877329313
 10
17.4051947176
 20
12.29725922
 10
17.3886929135
 20
12.3072574316
 10
17.3730471331
 20
12.3177042148
 10
17.3582939177
 20
12.3285751705
 10
17.3444677243
 20
12.3398449092
 10
17.3316008445
 20
12.35148711
 10
17.3197233295
 20
12.3634745818
 10
17.3088629198
 20
12.3757793274
 10
17.2990449805
 20
12.3883726086
 10
17.2902924417
 20
12.401225013
 10
17.2826257454
 20
12.4143065234
 10
17.2760627975
 20
12.4275865872
 10
17.2706189261
 20
12.4410341882
 10
17.2663068457
 20
12.454617919
 10
17.2631366272
 20
12.4683060541
 10
17.2611156749
 20
12.4820666242
 10
17.2602487088
 20
12.495867491
 10
17.2605377538
 20
12.5096764217
 10
17.2619821347
 20
12.5234611651
 10
17.2645784782
 20
12.5371895262
 10
17.2683207203
 20
12.5508294418
 10
17.273200121
 20
12.5643490553
 10
17.279205284
 20
12.5777167909
 10
17.2863221841
 20
12.5909014277
 10
17.2945341995
 20
12.6038721724
 10
17.3038221505
 20
12.6165987311
 10
17.3141643448
 20
12.6290513805
 10
17.3255366277
 20
12.6412010368
 10
17.3379124386
 20
12.6530193238
 10
17.3512628734
 20
12.6644786395
 10
17.3655567514
 20
12.6755522201
 10
17.3807606886
 20
12.6862142027
 10
17.3968391756
 20
12.6964396857
 10
17.4051378437
 20
12.7013483975
  0
LWPOLYLINE
  5
190
330
1F
100
AcDbEntity
  8
0
  6
Continuous
 62
     7
370
    25
100
AcDbPolyline
 90
      127
 70
   128
 43
0.0
 10
18.0840172275
 20
12.7136313381
 10
18.0672189383
 20
12.7228568743
 10
18.0496449521
 20
12.7315875647
 10
18.0313389606
 20
12.7398017034
 10
18.0123464754
 20
12.7474788687
 10
17.9927147148
 20
12.754599974
 10
17.9724924864
 20
12.7611473151
 10
17.951730066
 20
12.7671046143
 10
17.9304790721
 20
12.7724570608
 10
17.9087923381
 20
12.7771913475
 10
17.8867237806
 20
12.7812957043
 10
17.8643282655
 20
12.7847599272
 10
17.8416614716
 20
12.7875754034
 10
17.8187797521
 20
12.7897351334
 10
17.7957399947
 20
12.7912337476
 10
17.7725994796
 20
12.7920675202
 10
17.749415738
 20
12.7922343785
 10
17.7262464082
 20
12.7917339075
 10
17.7031490929
 20
12.7905673515
 10
17.6801812156
 20
12.7887376107
 10
17.6573998781
 20
12.7862492341
 10
17.6348617183
 20
12.7831084084
 10
17.6126227697
 20
12.7793229419
 10
17.5907383219
 20
12.7749022461
 10
17.569262783
 20
12.7698573114
 10
17.5482495445
 20
12.7642006804
 10
17.5277508488
 20
12.7579464164
 10
17.5078176587
 20
12.7511100683
 10
17.4884995314
 20
12.7437086325
 10
17.4698444947
 20
12.7357605101
 10
17.451898928
 20
12.7272854614
 10
17.4347074469
 20
12.7183045566
 10
17.418312792
 20
12.7088401238
 10
17.402755723
 20
12.698915693
 10
17.3880749173
 20
12.6885559378
 10
17.3743068737
 20
12.6777866144
 10
17.3614858216
 20
12.6666344969
 10
17.3496436363
 20
12.6551273112
 10
17.3388097593
 20
12.643293666
 10
17.3290111253
 20
12.6311629817
 10
17.3202720952
 20
12.6187654169
 10
17.3126143957
 20
12.6061317941
 10
17.306057065
 20
12.5932935224
 10
17.3006164057
 20
12.5802825197
 10
17.2963059441
 20
12.5671311335
 10
17.2931363967
 20
12.5538720601
 10
17.2911156434
 20
12.5405382638
 10
17.2902487083
 20
12.5271628944
 10
17.2905377465
 20
12.5137792053
 10
17.2919820397
 20
12.5004204703
 10
17.2945779969
 20
12.4871199014
 10
17.2983191642
 20
12.4739105659
 10
17.3031962406
 20
12.4608253043
 10
17.3091971008
 20
12.4478966487
 10
17.3163068257
 20
12.4351567416
 10
17.3245077394
 20
12.4226372565
 10
17.3337794533
 20
12.4103693189
 10
17.3440989163
 20
12.3983834287
 10
17.3554404726
 20
12.3867093848
 10
17.3677759254
 20
12.3753762106
 10
17.3810746067
 20
12.3644120823
 10
17.3953034539
 20
12.3538442583
 10
17.410427092
 20
12.343699012
 10
17.426407921
 20
12.3340015661
 10
17.4432062103
 20
12.3247760298
 10
17.4607801965
 20
12.3160453394
 10
17.479086188
 20
12.3078312008
 10
17.4980786732
 20
12.3001540355
 10
17.5177104338
 20
12.2930329302
 10
17.5379326621
 20
12.2864855891
 10
17.5586950826
 20
12.2805282899
 10
17.5799460764
 20
12.2751758434
 10
17.6016328105
 20
12.2704415567
 10
17.623701368
 20
12.2663371998
 10
17.6460968831
 20
12.262872977
 10
17.6687636769
 20
12.2600575007
 10
17.6916453964
 20
12.2578977708
 10
17.7146851539
 20
12.2563991566
 10
17.7378256689
 20
12.2555653839
 10
17.7610094106
 20
12.2553985257
 10
17.7841787403
 20
12.2558989967
 10
17.8072760557
 20
12.2570655527
 10
17.830243933
 20
12.2588952935
 10
17.8530252705
 20
12.26138367
 10
17.8755634302
 20
12.2645244958
 10
17.8978023788
 20
12.2683099622
 10
17.9196868266
 20
12.272730658
 10
17.9411623656
 20
12.2777755927
 10
17.962175604
 20
12.2834322237
 10
17.9826742998
 20
12.2896864878
 10
18.0026074899
 20
12.2965228359
 10
18.0219256172
 20
12.3039242717
 10
18.0405806539
 20
12.3118723941
 10
18.0585262205
 20
12.3203474428
 10
18.0757177017
 20
12.3293283476
 10
18.0921123566
 20
12.3387927804
 10
18.1076694255
 20
12.3487172112
 10
18.1223502312
 20
12.3590769663
 10
18.1361182749
 20
12.3698462898
 10
18.1489393269
 20
12.3809984073
 10
18.1607815122
 20
12.392505593
 10
18.1716153892
 20
12.4043392381
 10
18.1814140233
 20
12.4164699225
 10
18.1901530533
 20
12.4288674872
 10
18.1978107528
 20
12.4415011101
 10
18.2043680835
 20
12.4543393818
 10
18.2098087428
 20
12.4673503845
 10
18.2141192044
 20
12.4805017707
 10
18.2172887519
 20
12.493760844
 10
18.2193095051
 20
12.5070946403
 10
18.2201764403
 20
12.5204700097
 10
18.219887402
 20
12.5338536989
 10
18.2184431089
 20
12.5472124339
 10
18.2158471517
 20
12.5605130028
 10
18.2121059843
 20
12.5737223382
 10
18.207228908
 20
12.5868075998
 10
18.2012280478
 20
12.5997362555
 10
18.1941183229
 20
12.6124761626
 10
18.1859174091
 20
12.6249956476
 10
18.1766456952
 20
12.6372635853
 10
18.1663262323
 20
12.6492494754
 10
18.1549846759
 20
12.6609235194
 10
18.1426492232
 20
12.6722566935
 10
18.1293505419
 20
12.6832208219
 10
18.1151216946
 20
12.6937886458
 10
18.0999980566
 20
12.7039338921
 10
18.0840172275
 20
12.7136313381
  0
LWPOLYLINE
  5
191
330
1F
100
AcDbEntity
  8
0
  6
Continuous
 62
     7
370
    25
100
AcDbPolyline
 90
        3
 70
   128
 43
0.0
 10
18.2487480829
 20
11.2852056095
 10
18.2498873947
 20
11.2968144484
 10
18.2502125743
 20
11.3071706424
  0
ARC
  5
192
330
1F
100
AcDbEntity
  8
0
  6
Continuous
 62
     7
370
    25
100
AcDbCircle
 10
17.4261194444
 20
11.3071987073
 30
0.0
 40
0.1659068725294515
100
AcDbArc
 50
180.0096922047
 51
188.041403999
  0
ARC
  5
193
330
1F
100
AcDbEntity
  8
0
  6
Continuous
 62
     7
370
    25
100
AcDbCircle
 10
19.8272907304
 20
13.3415285514
 30
0.0
 40
2.036839628384735
100
AcDbArc
 50
180.613625983
 51
195.879656381
  0
LWPOLYLINE
  5
194
330
1F
100
AcDbEntity
  8
0
  6
Continuous
 62
     7
370
    25
100
AcDbPolyline
 90
      201
 70
   128
 43
0.0
 10
18.4268942936
 20
11.7276031619
 10
18.4469158477
 20
11.7039898146
 10
18.4751400043
 20
11.6716236544
 10
18.5037188359
 20
11.6399114171
 10
18.5326327562
 20
11.6088748366
 10
18.561861949
 20
11.5785351839
 10
18.5913863819
 20
11.5489132522
 10
18.6211858206
 20
11.5200293428
 10
18.6512398418
 20
11.4919032515
 10
18.6815278481
 20
11.4645542544
 10
18.7120290817
 20
11.4380010952
 10
18.7427226384
 20
11.412261972
 10
18.7735874824
 20
11.3873545252
 10
18.8046024606
 20
11.3632958251
 10
18.8357463168
 20
11.3401023603
 10
18.8669977065
 20
11.3177900265
 10
18.8983352117
 20
11.2963741155
 10
18.9297373551
 20
11.2758693045
 10
18.9611826153
 20
11.2562896466
 10
18.9926494413
 20
11.2376485608
 10
19.0241162674
 20
11.2199588226
 10
19.0555615276
 20
11.2032325558
 10
19.086963671
 20
11.1874812237
 10
19.1183011762
 20
11.1727156215
 10
19.1495525659
 20
11.1589458687
 10
19.1806964221
 20
11.1461814025
 10
19.2117114003
 20
11.1344309711
 10
19.2425762443
 20
11.1237026274
 10
19.273269801
 20
11.1140037244
 10
19.3037710346
 20
11.105340909
 10
19.3340590409
 20
11.0977201183
 10
19.3641130621
 20
11.0911465753
 10
19.3939125008
 20
11.0856247851
 10
19.4234369337
 20
11.0811585321
 10
19.4526661265
 20
11.0777508773
 10
19.4815800468
 20
11.075404156
 10
19.5101588784
 20
11.0741199766
 10
19.538383035
 20
11.0738992192
 10
19.566233173
 20
11.0747420351
 10
19.5936902054
 20
11.0766478467
 10
19.6207353144
 20
11.0796153479
 10
19.6473499648
 20
11.0836425048
 10
19.6735159161
 20
11.0887265574
 10
19.6992152356
 20
11.0948640214
 10
19.7244303101
 20
11.1020506905
 10
19.7491438586
 20
11.1102816393
 10
19.7733389437
 20
11.1195512267
 10
19.7969989831
 20
11.1298530998
 10
19.8201077615
 20
11.1411801982
 10
19.8426494413
 20
11.1535247589
 10
19.8646085736
 20
11.1668783215
 10
19.8859701087
 20
11.1812317342
 10
19.9067194064
 20
11.1965751599
 10
19.9268422462
 20
11.2128980829
 10
19.9463248369
 20
11.2301893163
 10
19.9651538261
 20
11.2484370096
 10
19.9833163094
 20
11.2676286567
 10
20.0007998392
 20
11.2877511047
 10
20.017592433
 20
11.3087905626
 10
20.033682582
 20
11.3307326109
 10
20.049059259
 20
11.3535622118
 10
20.0637119254
 20
11.377263719
 10
20.0776305391
 20
11.4018208885
 10
20.090805561
 20
11.4272168903
 10
20.1032279615
 20
11.4534343191
 10
20.114889227
 20
11.4804552068
 10
20.1257813653
 20
11.5082610346
 10
20.1358969117
 20
11.5368327458
 10
20.1452289333
 20
11.5661507588
 10
20.1537710346
 20
11.5961949805
 10
20.1615173611
 20
11.6269448201
 10
20.1684626039
 20
11.6583792032
 10
20.1746020031
 20
11.6904765862
 10
20.179931351
 20
11.7232149711
 10
20.1844469953
 20
11.7565719208
 10
20.188145841
 20
11.790524574
 10
20.1910253532
 20
11.8250496613
 10
20.1930835584
 20
11.8601235209
 10
20.194319046
 20
11.895722115
 10
20.1947309694
 20
11.931821046
 10
20.194319046
 20
11.9683955735
 10
20.1930835584
 20
12.0054206312
 10
20.1910253532
 20
12.042870844
 10
20.188145841
 20
12.0807205453
 10
20.1844469953
 20
12.1189437949
 10
20.179931351
 20
12.1575143964
 10
20.1746020031
 20
12.1964059156
 10
20.1684626039
 20
12.235591698
 10
20.1615173611
 20
12.2750448877
 10
20.1537710346
 20
12.3147384455
 10
20.1452289333
 20
12.3546451673
 10
20.1358969117
 20
12.3947377032
 10
20.1257813653
 20
12.4349885757
 10
20.114889227
 20
12.4753701988
 10
20.1032279615
 20
12.515854897
 10
20.090805561
 20
12.5564149241
 10
20.0776305391
 20
12.5970224823
 10
20.0637119254
 20
12.6376497412
 10
20.049059259
 20
12.6782688569
 10
20.033682582
 20
12.7188519911
 10
20.017592433
 20
12.7593713302
 10
20.0007998392
 20
12.7997991041
 10
19.9833163094
 20
12.8401076058
 10
19.9651538261
 20
12.8802692098
 10
19.9463248369
 20
12.9202563914
 10
19.9268422462
 20
12.9600417452
 10
19.9067194064
 20
12.9995980045
 10
19.8859701087
 20
13.0388980594
 10
19.8646085736
 20
13.0779149755
 10
19.8426494413
 20
13.1166220126
 10
19.8201077615
 20
13.1549926428
 10
19.7969989831
 20
13.1930005689
 10
19.7733389437
 20
13.2306197421
 10
19.7491438586
 20
13.26782438
 10
19.7244303101
 20
13.3045889845
 10
19.6992152356
 20
13.340888359
 10
19.6735159161
 20
13.3766976257
 10
19.6473499648
 20
13.4119922427
 10
19.6207353144
 20
13.4467480208
 10
19.5936902054
 20
13.4809411402
 10
19.566233173
 20
13.5145481666
 10
19.538383035
 20
13.5475460675
 10
19.5101588784
 20
13.5799122276
 10
19.4815800468
 20
13.6116244649
 10
19.4526661265
 20
13.6426610454
 10
19.4234369337
 20
13.6730006981
 10
19.3939125008
 20
13.7026226299
 10
19.3641130621
 20
13.7315065392
 10
19.3340590409
 20
13.7596326305
 10
19.3037710346
 20
13.7869816276
 10
19.273269801
 20
13.8135347868
 10
19.2425762443
 20
13.83927391
 10
19.2117114003
 20
13.8641813568
 10
19.1806964221
 20
13.8882400569
 10
19.1495525659
 20
13.9114335217
 10
19.1183011762
 20
13.9337458555
 10
19.086963671
 20
13.9551617666
 10
19.0555615276
 20
13.9756665775
 10
19.0241162674
 20
13.9952462354
 10
18.9926494413
 20
14.0138873212
 10
18.9611826153
 20
14.0315770594
 10
18.9297373551
 20
14.0483033262
 10
18.8983352117
 20
14.0640546583
 10
18.8669977065
 20
14.0788202605
 10
18.8357463168
 20
14.0925900133
 10
18.8046024606
 20
14.1053544795
 10
18.7735874824
 20
14.117104911
 10
18.7427226384
 20
14.1278332546
 10
18.7120290817
 20
14.1375321577
 10
18.6815278481
 20
14.1461949731
 10
18.6512398418
 20
14.1538157637
 10
18.6211858206
 20
14.1603893067
 10
18.5913863819
 20
14.1659110969
 10
18.561861949
 20
14.1703773499
 10
18.5326327562
 20
14.1737850047
 10
18.5037188359
 20
14.176131726
 10
18.4751400043
 20
14.1774159054
 10
18.4469158477
 20
14.1776366628
 10
18.4190657097
 20
14.1767938469
 10
18.3916086773
 20
14.1748880353
 10
18.3645635683
 20
14.1719205341
 10
18.3379489179
 20
14.1678933773
 10
18.3117829666
 20
14.1628093246
 10
18.2860836471
 20
14.1566718606
 10
18.2608685726
 20
14.1494851915
 10
18.2361550241
 20
14.1412542427
 10
18.211959939
 20
14.1319846553
 10
18.1882998996
 20
14.1216827822
 10
18.1651911212
 20
14.1103556838
 10
18.1426494413
 20
14.0980111231
 10
18.1206903091
 20
14.0846575605
 10
18.099328774
 20
14.0703041478
 10
18.0785794763
 20
14.0549607221
 10
18.0584566365
 20
14.0386377991
 10
18.0389740458
 20
14.0213465657
 10
18.0201450566
 20
14.0030988724
 10
18.0019825733
 20
13.9839072253
 10
17.9844990435
 20
13.9637847773
 10
17.9677064497
 20
13.9427453195
 10
17.9516163007
 20
13.9208032711
 10
17.9362396237
 20
13.8979736702
 10
17.9215869573
 20
13.8742721631
 10
17.9076683436
 20
13.8497149935
 10
17.8944933217
 20
13.8243189917
 10
17.8820709212
 20
13.7981015629
 10
17.8704096557
 20
13.7710806753
 10
17.8595175174
 20
13.7432748474
 10
17.849401971
 20
13.7147031362
 10
17.8400699494
 20
13.6853851232
 10
17.8315278481
 20
13.6553409015
 10
17.8237815216
 20
13.6245910619
 10
17.8168362788
 20
13.5931566788
 10
17.8106968796
 20
13.5610592959
 10
17.8053675317
 20
13.5283209109
 10
17.8008518874
 20
13.4949639612
 10
17.7971530417
 20
13.461011308
 10
17.7942735295
 20
13.4264862207
 10
17.7922153243
 20
13.3914123611
 10
17.7909798366
 20
13.3558137671
 10
17.7905679133
 20
13.3197148361
 10
17.7905679133
 20
13.3197148361
  0
LWPOLYLINE
  5
195
330
1F
100
AcDbEntity
  8
0
  6
Continuous
 62
     7
370
    25
100
AcDbPolyline
 90
      182
 70
   128
 43
0.0
 10
17.7905679133
 20
13.3605352417
 10
17.790991952
 20
13.3976959059
 10
17.7922637776
 20
13.4343415174
 10
17.7943825182
 20
13.4704469611
 10
17.797346722
 20
13.5059874922
 10
17.8011543573
 20
13.5409387528
 10
17.8058028146
 20
13.5752767893
 10
17.8112889081
 20
13.6089780679
 10
17.8176088778
 20
13.6420194916
 10
17.8247583925
 20
13.6743784153
 10
17.8327325521
 20
13.7060326619
 10
17.8415258916
 20
13.7369605372
 10
17.8511323845
 20
13.7671408448
 10
17.8615454469
 20
13.7965529004
 10
17.8727579423
 20
13.8251765467
 10
17.8847621861
 20
13.8529921664
 10
17.8975499514
 20
13.879980696
 10
17.9111124739
 20
13.906123639
 10
17.9254404586
 20
13.9314030783
 10
17.9405240858
 20
13.9558016886
 10
17.9563530179
 20
13.9793027483
 10
17.9729164067
 20
14.001890151
 10
17.9902029003
 20
14.0235484165
 10
18.0082006515
 20
14.0442627011
 10
18.0268973255
 20
14.0640188085
 10
18.0462801085
 20
14.0828031986
 10
18.0663357166
 20
14.1006029978
 10
18.0870504046
 20
14.1174060067
 10
18.1084099758
 20
14.1332007096
 10
18.1303997913
 20
14.1479762815
 10
18.1530047804
 20
14.161722596
 10
18.1762094508
 20
14.174430232
 10
18.1999978992
 20
14.1860904803
 10
18.2243538222
 20
14.1966953497
 10
18.2492605273
 20
14.206237572
 10
18.2747009449
 20
14.2147106076
 10
18.3006576393
 20
14.2221086493
 10
18.3271128211
 20
14.2284266269
 10
18.3540483592
 20
14.2336602105
 10
18.3814457934
 20
14.2378058132
 10
18.4092863469
 20
14.2408605938
 10
18.437550939
 20
14.2428224587
 10
18.4662201987
 20
14.2436900633
 10
18.4952744775
 20
14.2434628131
 10
18.5246938631
 20
14.2421408637
 10
18.5544581928
 20
14.2397251212
 10
18.5845470677
 20
14.2362172412
 10
18.6149398663
 20
14.2316196278
 10
18.645615759
 20
14.225935432
 10
18.6765537221
 20
14.2191685495
 10
18.7077325521
 20
14.211323618
 10
18.7391308807
 20
14.2024060139
 10
18.7707271891
 20
14.192421849
 10
18.8024998227
 20
14.1813779658
 10
18.8344270061
 20
14.1692819334
 10
18.866486858
 20
14.1561420418
 10
18.8986574063
 20
14.1419672963
 10
18.9309166028
 20
14.1267674116
 10
18.9632423387
 20
14.110552805
 10
18.9956124595
 20
14.0933345892
 10
19.0280047804
 20
14.0751245646
 10
19.0603971013
 20
14.0559352115
 10
19.0927672221
 20
14.0357796814
 10
19.125092958
 20
14.0146717878
 10
19.1573521545
 20
13.9926259969
 10
19.1895227028
 20
13.969657418
 10
19.2215825547
 20
13.9457817925
 10
19.2535097381
 20
13.9210154836
 10
19.2852823717
 20
13.8953754648
 10
19.3168786801
 20
13.8688793086
 10
19.3482770087
 20
13.8415451741
 10
19.3794558388
 20
13.8133917948
 10
19.4103938018
 20
13.7844384655
 10
19.4410696945
 20
13.7547050294
 10
19.4714624932
 20
13.7242118644
 10
19.501551368
 20
13.6929798689
 10
19.5313156977
 20
13.6610304478
 10
19.5607350833
 20
13.6283854976
 10
19.5897893621
 20
13.5950673916
 10
19.6184586218
 20
13.5610989643
 10
19.6467232139
 20
13.5265034959
 10
19.6745637674
 20
13.4913046966
 10
19.7019612016
 20
13.4555266897
 10
19.7288967397
 20
13.4191939957
 10
19.7553519215
 20
13.3823315153
 10
19.7813086159
 20
13.3449645121
 10
19.8067490335
 20
13.3071185957
 10
19.8316557387
 20
13.2688197037
 10
19.8560116616
 20
13.2300940843
 10
19.87980011
 20
13.190968278
 10
19.9030047804
 20
13.1514690998
 10
19.9256097695
 20
13.1116236205
 10
19.947599585
 20
13.071459148
 10
19.9689591562
 20
13.0310032092
 10
19.9896738442
 20
12.9902835305
 10
20.0097294523
 20
12.9493280192
 10
20.0291122353
 20
12.9081647441
 10
20.0478089093
 20
12.8668219164
 10
20.0658066605
 20
12.8253278706
 10
20.0830931541
 20
12.7837110444
 10
20.0996565429
 20
12.7419999601
 10
20.115485475
 20
12.7002232043
 10
20.1305691022
 20
12.6584094087
 10
20.1448970869
 20
12.6165872304
 10
20.1584596094
 20
12.5747853323
 10
20.1712473747
 20
12.5330323632
 10
20.1832516185
 20
12.4913569386
 10
20.1944641139
 20
12.4497876207
 10
20.2048771763
 20
12.408352899
 10
20.2144836692
 20
12.3670811709
 10
20.2232770087
 20
12.3260007219
 10
20.2312511683
 20
12.2851397066
 10
20.238400683
 20
12.2445261289
 10
20.2447206528
 20
12.2041878235
 10
20.2502067462
 20
12.1641524362
 10
20.2548552035
 20
12.1244474052
 10
20.2586628389
 20
12.0850999423
 10
20.2616270426
 20
12.0461370145
 10
20.2637457833
 20
12.0075853249
 10
20.2650176088
 20
11.9694712949
 10
20.2654416475
 20
11.931821046
 10
20.2650176088
 20
11.8946603817
 10
20.2637457833
 20
11.8580147702
 10
20.2616270426
 20
11.8219093265
 10
20.2586628389
 20
11.7863687954
 10
20.2548552035
 20
11.7514175348
 10
20.2502067462
 20
11.7170794983
 10
20.2447206528
 20
11.6833782197
 10
20.238400683
 20
11.650336796
 10
20.2312511683
 20
11.6179778723
 10
20.2232770087
 20
11.5863236257
 10
20.2144836692
 20
11.5553957504
 10
20.2048771763
 20
11.5252154429
 10
20.1944641139
 20
11.4958033872
 10
20.1832516185
 20
11.4671797409
 10
20.1712473747
 20
11.4393641212
 10
20.1584596094
 20
11.4123755916
 10
20.1448970869
 20
11.3862326486
 10
20.1305691022
 20
11.3609532093
 10
20.115485475
 20
11.336554599
 10
20.0996565429
 20
11.3130535393
 10
20.0830931541
 20
11.2904661366
 10
20.0658066605
 20
11.2688078711
 10
20.0478089093
 20
11.2480935865
 10
20.0291122353
 20
11.2283374791
 10
20.0097294523
 20
11.209553089
 10
19.9896738442
 20
11.1917532899
 10
19.9689591562
 20
11.1749502809
 10
19.947599585
 20
11.159155578
 10
19.9256097695
 20
11.1443800061
 10
19.9030047804
 20
11.1306336916
 10
19.87980011
 20
11.1179260556
 10
19.8560116616
 20
11.1062658073
 10
19.8316557387
 20
11.0956609379
 10
19.8067490335
 20
11.0861187156
 10
19.7813086159
 20
11.0776456801
 10
19.7553519215
 20
11.0702476383
 10
19.7288967397
 20
11.0639296607
 10
19.7019612016
 20
11.0586960771
 10
19.6745637674
 20
11.0545504744
 10
19.6467232139
 20
11.0514956938
 10
19.6184586218
 20
11.0495338289
 10
19.5897893621
 20
11.0486662243
 10
19.5607350833
 20
11.0488934746
 10
19.5313156977
 20
11.0502154239
 10
19.501551368
 20
11.0526311664
 10
19.4714624932
 20
11.0561390464
 10
19.4410696945
 20
11.0607366598
 10
19.4103938018
 20
11.0664208556
 10
19.3794558388
 20
11.0731877381
 10
19.3482770087
 20
11.0810326696
 10
19.3168786801
 20
11.0899502737
 10
19.2852823717
 20
11.0999344387
 10
19.2535097381
 20
11.1109783218
 10
19.2215825547
 20
11.1230743542
 10
19.1895227028
 20
11.1362142459
 10
19.1573521545
 20
11.1503889914
 10
19.125092958
 20
11.165588876
 10
19.0927672221
 20
11.1818034826
 10
19.0603971013
 20
11.1990216984
 10
19.0280047804
 20
11.217231723
 10
19.0278036621
 20
11.217347845
  0
LWPOLYLINE
  5
196
330
1F
100
AcDbEntity
  8
0
  6
Continuous
 62
     7
370
    25
100
AcDbPolyline
 90
      122
 70
   128
 43
0.0
 10
20.1327433754
 20
11.2632589528
 10
20.1328144843
 20
11.2633000098
 10
20.1554194734
 20
11.2770463243
 10
20.1774092889
 20
11.2918218962
 10
20.1987688601
 20
11.3076165991
 10
20.2194835481
 20
11.324419608
 10
20.2395391562
 20
11.3422194071
 10
20.2589219392
 20
11.3610037973
 10
20.2776186132
 20
11.3807599046
 10
20.2956163644
 20
11.4014741893
 10
20.312902858
 20
11.4231324547
 10
20.3294662468
 20
11.4457198575
 10
20.3452951789
 20
11.4692209172
 10
20.3603788061
 20
11.4936195275
 10
20.3747067908
 20
11.5188989668
 10
20.3882693133
 20
11.5450419098
 10
20.4010570786
 20
11.5720304394
 10
20.4130613224
 20
11.5998460591
 10
20.4242738178
 20
11.6284697054
 10
20.4346868802
 20
11.657881761
 10
20.4442933731
 20
11.6880620686
 10
20.4530867126
 20
11.7189899438
 10
20.4610608722
 20
11.7506441905
 10
20.4682103869
 20
11.7830031142
 10
20.4745303566
 20
11.8160445379
 10
20.4800164501
 20
11.8497458165
 10
20.4846649074
 20
11.8840838529
 10
20.4884725427
 20
11.9190351136
 10
20.4914367465
 20
11.9545756446
 10
20.4935554872
 20
11.9906810884
 10
20.4948273127
 20
12.0273266999
 10
20.4952513514
 20
12.0644873641
 10
20.4948273127
 20
12.1021376131
 10
20.4935554872
 20
12.1402516431
 10
20.4914367465
 20
12.1788033327
 10
20.4884725427
 20
12.2177662605
 10
20.4846649074
 20
12.2571137233
 10
20.4800164501
 20
12.2968187543
 10
20.4745303566
 20
12.3368541417
 10
20.4682103869
 20
12.3771924471
 10
20.4610608722
 20
12.4178060247
 10
20.4530867126
 20
12.4586670401
 10
20.4442933731
 20
12.4997474891
 10
20.4346868802
 20
12.5410192172
 10
20.4242738178
 20
12.5824539388
 10
20.4130613224
 20
12.6240232567
 10
20.4010570786
 20
12.6656986814
 10
20.3882693133
 20
12.7074516504
 10
20.3747067908
 20
12.7492535486
 10
20.3603788061
 20
12.7910757269
 10
20.3452951789
 20
12.8328895225
 10
20.3294662468
 20
12.8746662783
 10
20.312902858
 20
12.9163773626
 10
20.2956163644
 20
12.9579941887
 10
20.2776186132
 20
12.9994882346
 10
20.2589219392
 20
13.0408310622
 10
20.2395391562
 20
13.0819943373
 10
20.2194835481
 20
13.1229498487
 10
20.1987688601
 20
13.1636695274
 10
20.1774092889
 20
13.2041254662
 10
20.1554194734
 20
13.2442899386
 10
20.1328144843
 20
13.284135418
 10
20.1096098139
 20
13.3236345962
 10
20.0858213655
 20
13.3627604024
 10
20.0614654425
 20
13.4014860219
 10
20.0365587374
 20
13.4397849139
 10
20.0111183198
 20
13.4776308303
 10
19.9851616254
 20
13.5149978335
 10
19.9587064436
 20
13.5518603139
 10
19.9317709055
 20
13.5881930078
 10
19.9043734713
 20
13.6239710147
 10
19.8765329178
 20
13.6591698141
 10
19.8482683257
 20
13.6937652825
 10
19.819599066
 20
13.7277337098
 10
19.7905447872
 20
13.7610518158
 10
19.7611254016
 20
13.793696766
 10
19.7313610719
 20
13.8256461871
 10
19.701272197
 20
13.8568781826
 10
19.6708793984
 20
13.8873713476
 10
19.6402035057
 20
13.9171047836
 10
19.6092655426
 20
13.9460581129
 10
19.5780867126
 20
13.9742114923
 10
19.546688384
 20
14.0015456268
 10
19.5150920756
 20
14.028041783
 10
19.483319442
 20
14.0536818018
 10
19.4513922586
 20
14.0784481107
 10
19.4193324067
 20
14.1023237362
 10
19.3871618584
 20
14.1252923151
 10
19.3549026619
 20
14.1473381059
 10
19.322576926
 20
14.1684459996
 10
19.2902068052
 20
14.1886015297
 10
19.2578144843
 20
14.2077908828
 10
19.2254221634
 20
14.2260009074
 10
19.1930520426
 20
14.2432191232
 10
19.1607263067
 20
14.2594337298
 10
19.1284671102
 20
14.2746336144
 10
19.0962965619
 20
14.2888083599
 10
19.06423671
 20
14.3019482516
 10
19.0323095266
 20
14.314044284
 10
19.000536893
 20
14.3250881671
 10
18.9689405846
 20
14.3350723321
 10
18.937542256
 20
14.3439899361
 10
18.9063634259
 20
14.3518348677
 10
18.8754254629
 20
14.3586017502
 10
18.8447495702
 20
14.364285946
 10
18.8143567715
 20
14.3688835593
 10
18.7842678967
 20
14.3723914393
 10
18.754503567
 20
14.3748071818
 10
18.7250841814
 20
14.3761291312
 10
18.6960299026
 20
14.3763563815
 10
18.6673606429
 20
14.3754887768
 10
18.6390960508
 20
14.373526912
 10
18.6112554973
 20
14.3704721314
 10
18.5838580631
 20
14.3663265287
 10
18.556922525
 20
14.3610929451
 10
18.5304673432
 20
14.3547749674
 10
18.5045106488
 20
14.3473769257
 10
18.4790702312
 20
14.3389038902
 10
18.454163526
 20
14.3293616679
 10
18.4298076031
 20
14.3187567985
 10
18.4060191547
 20
14.3070965502
 10
18.3828855932
 20
14.2944299711
  0
LWPOLYLINE
  5
197
330
1F
100
AcDbEntity
  8
0
  6
Continuous
 62
     7
370
    25
100
AcDbPolyline
 90
       60
 70
   128
 43
0.0
 10
17.9486062789
 20
13.2284812296
 10
17.9490128779
 20
13.2194370186
 10
17.9502280679
 20
13.210025833
 10
17.9522380803
 20
13.2003543052
 10
17.9550201409
 20
13.1905320176
 10
17.9585427278
 20
13.1806702605
 10
17.9627659287
 20
13.1708807716
 10
17.9676418931
 20
13.1612744697
 10
17.9731153743
 20
13.1519601981
 10
17.9791243556
 20
13.1430434912
 10
17.9856007528
 20
13.1346253788
 10
17.9924711858
 20
13.1268012416
 10
17.9996578098
 20
13.11965973
 10
18.0070791975
 20
13.1132817603
 10
18.0146512616
 20
13.1077395975
 10
18.0222882077
 20
13.1030960365
 10
18.0299035059
 20
13.0994036905
 10
18.0374108721
 20
13.0967043956
 10
18.0447252446
 20
13.0950287356
 10
18.0517637489
 20
13.0943956965
 10
18.0584466357
 20
13.0948124509
 10
18.0646981853
 20
13.0962742768
 10
18.0704475651
 20
13.0987646111
 10
18.0756296325
 20
13.1022552374
 10
18.0801856724
 20
13.1067066054
 10
18.0840640632
 20
13.1120682794
 10
18.0872208611
 20
13.1182795094
 10
18.0896202983
 20
13.1252699198
 10
18.0912351883
 20
13.1329603064
 10
18.0920472337
 20
13.1412635341
 10
18.0920472337
 20
13.1500855239
 10
18.0912351883
 20
13.1593263192
 10
18.0896202983
 20
13.1688812181
 10
18.0872208611
 20
13.1786419597
 10
18.0840640632
 20
13.188497951
 10
18.0801856724
 20
13.1983375197
 10
18.0756296325
 20
13.2080491794
 10
18.0704475651
 20
13.2175228933
 10
18.0646981853
 20
13.2266513203
 10
18.0584466357
 20
13.2353310318
 10
18.0517637489
 20
13.243463683
 10
18.0447252446
 20
13.2509571279
 10
18.0374108721
 20
13.2577264628
 10
18.0299035059
 20
13.2636949882
 10
18.0222882077
 20
13.2687950785
 10
18.0146512616
 20
13.2729689477
 10
18.0070791975
 20
13.276169304
 10
17.9996578098
 20
13.2783598862
 10
17.9924711858
 20
13.2795158741
 10
17.9856007528
 20
13.27962417
 10
17.9791243556
 20
13.2786835467
 10
17.9731153743
 20
13.2767046619
 10
17.9676418931
 20
13.2737099371
 10
17.9627659287
 20
13.2697333039
 10
17.9585427278
 20
13.264819819
 10
17.9550201409
 20
13.2590251542
 10
17.9522380803
 20
13.2524149653
 10
17.9502280679
 20
13.2450641485
 10
17.9490128779
 20
13.2370559913
 10
17.9486062789
 20
13.2284812296
  0
LWPOLYLINE
  5
198
330
1F
100
AcDbEntity
  8
0
  6
Continuous
 62
     7
370
    25
100
AcDbPolyline
 90
       60
 70
   128
 43
0.0
 10
19.8931499272
 20
12.1059200758
 10
19.8935565262
 20
12.0968758649
 10
19.8947717161
 20
12.0874646793
 10
19.8967817286
 20
12.0777931515
 10
19.8995637891
 20
12.0679708638
 10
19.903086376
 20
12.0581091067
 10
19.907309577
 20
12.0483196178
 10
19.9121855413
 20
12.038713316
 10
19.9176590225
 20
12.0293990444
 10
19.9236680038
 20
12.0204823375
 10
19.930144401
 20
12.0120642251
 10
19.937014834
 20
12.0042400878
 10
19.9442014581
 20
11.9970985762
 10
19.9516228458
 20
11.9907206066
 10
19.9591949099
 20
11.9851784438
 10
19.9668318559
 20
11.9805348827
 10
19.9744471542
 20
11.9768425368
 10
19.9819545203
 20
11.9741432418
 10
19.9892688929
 20
11.9724675818
 10
19.9963073971
 20
11.9718345427
 10
20.0029902839
 20
11.9722512971
 10
20.0092418335
 20
11.973713123
 10
20.0149912134
 20
11.9762034574
 10
20.0201732807
 20
11.9796940836
 10
20.0247293207
 20
11.9841454516
 10
20.0286077114
 20
11.9895071256
 10
20.0317645093
 20
11.9957183557
 10
20.0341639466
 20
12.0027087661
 10
20.0357788366
 20
12.0103991527
 10
20.0365908819
 20
12.0187023803
 10
20.0365908819
 20
12.0275243701
 10
20.0357788366
 20
12.0367651654
 10
20.0341639466
 20
12.0463200643
 10
20.0317645093
 20
12.056080806
 10
20.0286077114
 20
12.0659367973
 10
20.0247293207
 20
12.0757763659
 10
20.0201732807
 20
12.0854880257
 10
20.0149912134
 20
12.0949617396
 10
20.0092418335
 20
12.1040901666
 10
20.0029902839
 20
12.112769878
 10
19.9963073971
 20
12.1209025293
 10
19.9892688929
 20
12.1283959742
 10
19.9819545203
 20
12.135165309
 10
19.9744471542
 20
12.1411338345
 10
19.9668318559
 20
12.1462339248
 10
19.9591949099
 20
12.1504077939
 10
19.9516228458
 20
12.1536081502
 10
19.9442014581
 20
12.1557987325
 10
19.937014834
 20
12.1569547204
 10
19.930144401
 20
12.1570630162
 10
19.9236680038
 20
12.1561223929
 10
19.9176590225
 20
12.1541435081
 10
19.9121855413
 20
12.1511487834
 10
19.907309577
 20
12.1471721501
 10
19.903086376
 20
12.1422586652
 10
19.8995637891
 20
12.1364640004
 10
19.8967817286
 20
12.1298538115
 10
19.8947717161
 20
12.1225029947
 10
19.8935565262
 20
12.1144948376
 10
19.8931499272
 20
12.1059200758
  0
ELLIPSE
  5
199
330
1F
100
AcDbEntity
  8
0
  6
Continuous
 62
     7
370
    25
100
AcDbEllipse
 10
17.7552125743
 20
8.3904868623
 30
0.0
 11
0.3500320783348201
 21
0.6062404989099832
 31
0.0
210
0.0
220
0.0
230
1.0
 40
0.5773346305
 41
2.356235122223392
 42
5.497827775813211
  0
LWPOLYLINE
  5
19A
330
1F
100
AcDbEntity
  8
0
  6
Continuous
 62
     7
370
    25
100
AcDbPolyline
 90
       68
 70
   128
 43
0.0
 10
17.2602630983
 20
11.3030879385
 10
17.2602487088
 20
11.302457971
 10
17.2605377538
 20
11.2886490403
 10
17.2619821347
 20
11.2748642969
 10
17.2645784782
 20
11.2611359358
 10
17.2683207203
 20
11.2474960202
 10
17.273200121
 20
11.2339764067
 10
17.279205284
 20
11.2206086711
 10
17.2863221841
 20
11.2074240343
 10
17.2945341995
 20
11.1944532896
 10
17.3038221505
 20
11.1817267309
 10
17.3141643448
 20
11.1692740815
 10
17.3255366277
 20
11.1571244252
 10
17.3379124386
 20
11.1453061382
 10
17.3512628734
 20
11.1338468225
 10
17.3655567514
 20
11.1227732419
 10
17.3807606886
 20
11.1121112593
 10
17.3968391756
 20
11.1018857763
 10
17.4137546602
 20
11.0921206748
 10
17.4314676356
 20
11.0828387619
 10
17.4499367323
 20
11.0740617157
 10
17.4691188149
 20
11.0658100356
 10
17.4889690827
 20
11.0581029937
 10
17.5094411746
 20
11.0509585901
 10
17.5304872769
 20
11.0443935109
 10
17.5520582356
 20
11.0384230893
 10
17.5741036706
 20
11.0330612693
 10
17.5965720939
 20
11.0283205737
 10
17.6194110294
 20
11.0242120747
 10
17.6425671356
 20
11.0207453679
 10
17.6659863306
 20
11.0179285499
 10
17.6896139175
 20
11.0157681995
 10
17.7133947131
 20
11.0142693623
 10
17.7372731763
 20
11.0134355389
 10
17.7611935378
 20
11.0132686768
 10
17.7850999305
 20
11.0137691657
 10
17.8089365199
 20
11.0149358366
 10
17.8326476345
 20
11.0167659648
 10
17.8561778959
 20
11.0192552758
 10
17.8794723481
 20
11.0223979559
 10
17.9024765859
 20
11.026186665
 10
17.9251368818
 20
11.0306125546
 10
17.9474003116
 20
11.0356652877
 10
17.969214878
 20
11.0413330635
 10
17.9905296321
 20
11.0476026445
 10
18.0112947923
 20
11.0544593879
 10
18.0314618606
 20
11.0618872796
 10
18.0509837359
 20
11.0698689711
 10
18.069814824
 20
11.0783858211
 10
18.0879111439
 20
11.0874179378
 10
18.105230431
 20
11.0969442266
 10
18.121732235
 20
11.1069424382
 10
18.1373780155
 20
11.1173892213
 10
18.1521312308
 20
11.128260177
 10
18.1659574243
 20
11.1395299158
 10
18.1788243041
 20
11.1511721165
 10
18.190701819
 20
11.1631595883
 10
18.2015622287
 20
11.175464334
 10
18.2113801681
 20
11.1880576151
 10
18.2201327069
 20
11.2009100195
 10
18.2277994032
 20
11.2139915299
 10
18.2343623511
 20
11.2272715937
 10
18.2398062224
 20
11.2407191947
 10
18.2441183029
 20
11.2543029255
 10
18.2472885213
 20
11.2679910606
 10
18.2493094736
 20
11.2817516308
 10
18.2501764397
 20
11.2955524975
 10
18.2501620502
 20
11.3030879383
  0
LWPOLYLINE
  5
19B
330
1F
100
AcDbEntity
  8
0
  6
Continuous
 62
     7
370
    25
100
AcDbPolyline
 90
       42
 70
   128
 43
0.0
 10
18.6355605169
 20
12.0155028774
 10
18.6351517754
 20
12.0352665127
 10
18.6339265056
 20
12.0554559119
 10
18.6318875693
 20
12.0760239218
 10
18.6290397283
 20
12.0969225049
 10
18.6253896341
 20
12.1181028514
 10
18.6209458114
 20
12.1395154939
 10
18.6157186392
 20
12.161110422
 10
18.6097203257
 20
12.1828371997
 10
18.6029648802
 20
12.2046450832
 10
18.5954680805
 20
12.2264831392
 10
18.5872474355
 20
12.2483003639
 10
18.5783221451
 20
12.2700458021
 10
18.5687130546
 20
12.2916686663
 10
18.5584426065
 20
12.3131184554
 10
18.5475347879
 20
12.3343450724
 10
18.5360150747
 20
12.3552989415
 10
18.5239103714
 20
12.3759311239
 10
18.5112489494
 20
12.3961934324
 10
18.4980603798
 20
12.4160385433
 10
18.4843754653
 20
12.4354201074
 10
18.4702261675
 20
12.4542928582
 10
18.4556455329
 20
12.4726127175
 10
18.4406676151
 20
12.4903368985
 10
18.4253273957
 20
12.5074240054
 10
18.4096607027
 20
12.5238341307
 10
18.3937041262
 20
12.5395289475
 10
18.3774949336
 20
12.5544718
 10
18.3610709822
 20
12.5686277885
 10
18.3444706309
 20
12.581963851
 10
18.3277326506
 20
12.5944488405
 10
18.3108961337
 20
12.6060535977
 10
18.2940004025
 20
12.6167510192
 10
18.2770849178
 20
12.6265161206
 10
18.2601891867
 20
12.6353260951
 10
18.2433526697
 20
12.6431603666
 10
18.2266146894
 20
12.6500006379
 10
18.2100143381
 20
12.655830933
 10
18.1935903867
 20
12.6606376352
 10
18.1773811941
 20
12.6644095181
 10
18.1614246176
 20
12.6671377723
 10
18.1548095144
 20
12.6679705478
  0
ARC
  5
19C
330
1F
100
AcDbEntity
  8
0
  6
Continuous
 62
     7
370
    25
100
AcDbCircle
 10
18.388562343
 20
11.9907420493
 30
0.0
 40
0.2482361708361193
100
AcDbArc
 50
305.5875751474
 51
5.724605246
  0
ARC
  5
19D
330
1F
100
AcDbEntity
  8
0
  6
Continuous
 62
     7
370
    25
100
AcDbCircle
 10
17.7449065469
 20
11.7752693521
 30
0.0
 40
0.462903299214712
100
AcDbArc
 50
347.0868962921
 51
12.9131037079
  0
SPLINE
  5
19E
330
1F
100
AcDbEntity
  8
0
  6
Continuous
 62
     7
370
    25
100
AcDbSpline
210
0.0
220
0.0
230
1.0
 70
     8
 71
     3
 72
    17
 73
    13
 74
     0
 42
0.00000001
 43
0.00000001
 40
0.0
 40
0.0
 40
0.0
 40
0.0
 40
0.1005235863358473
 40
0.201108624812673
 40
0.3016355361136177
 40
0.4044422730594543
 40
0.5073149036765944
 40
0.6101050611396767
 40
0.7264052795070918
 40
0.8426914017515519
 40
0.9616992744332674
 40
1.0
 40
1.0
 40
1.0
 40
1.0
 10
18.19610307291307
 20
11.87871576002615
 30
0.0
 10
18.20040052157139
 20
11.89178895943231
 30
0.0
 10
18.208998046007
 20
11.91794335016096
 30
0.0
 10
18.22049587511651
 20
11.95740085513565
 30
0.0
 10
18.23076465958927
 20
11.99731539700556
 30
0.0
 10
18.23947810545637
 20
12.03768569480337
 30
0.0
 10
18.24651685204151
 20
12.07841192906083
 30
0.0
 10
18.25186020595225
 20
12.12087663903587
 30
0.0
 10
18.2551090978365
 20
12.16495723860165
 30
0.0
 10
18.25538690670985
 20
12.21065608601084
 30
0.0
 10
18.25388089302861
 20
12.2459301492364
 30
0.0
 10
18.25093083896087
 20
12.26552064173794
 30
0.0
 10
18.25021257427277
 20
12.27029043871899
 30
0.0
  0
SPLINE
  5
19F
330
1F
100
AcDbEntity
  8
0
  6
Continuous
 62
     7
370
    25
100
AcDbSpline
210
0.0
220
0.0
230
1.0
 70
     8
 71
     3
 72
    10
 73
     6
 74
     0
 42
0.00000001
 43
0.00000001
 40
0.0
 40
0.0
 40
0.0
 40
0.0
 40
0.3831363978013858
 40
0.8735921142372169
 40
1.0
 40
1.0
 40
1.0
 40
1.0
 10
18.25021257427277
 20
11.6307413146337
 30
0.0
 10
18.25132621542433
 20
11.63016576535424
 30
0.0
 10
18.25386543679215
 20
11.62885345121553
 30
0.0
 10
18.25515747612351
 20
11.62831319991888
 30
0.0
 10
18.25503446573917
 20
11.62854092421863
 30
0.0
 10
18.25500925841205
 20
11.62858758955464
 30
0.0
  0
SPLINE
  5
1A0
330
1F
100
AcDbEntity
  8
0
  6
Continuous
 62
     7
370
    25
100
AcDbSpline
210
0.0
220
0.0
230
1.0
 70
     8
 71
     3
 72
    16
 73
    12
 74
     0
 42
0.00000001
 43
0.00000001
 40
0.0
 40
0.0
 40
0.0
 40
0.0
 40
0.0658002236740709
 40
0.1796583452475219
 40
0.2966741080746624
 40
0.4137726440406605
 40
0.5308049827907619
 40
0.647623080243614
 40
0.7644434065137856
 40
0.882223417766545
 40
1.0
 40
1.0
 40
1.0
 40
1.0
 10
18.25498555447802
 20
11.62866220979663
 30
0.0
 10
18.25501293439168
 20
11.62871548967918
 30
0.0
 10
18.25508769143213
 20
11.62886096297696
 30
0.0
 10
18.25317873113178
 20
11.6303483547612
 30
0.0
 10
18.24953042044577
 20
11.63297639818341
 30
0.0
 10
18.24411049668488
 20
11.63674963799195
 30
0.0
 10
18.23717968466729
 20
11.64155036282329
 30
0.0
 10
18.22881837346733
 20
11.64735925558385
 30
0.0
 10
18.21911806712952
 20
11.65426812851839
 30
0.0
 10
18.208235473641
 20
11.66217344069751
 30
0.0
 10
18.20014716724164
 20
11.6686064742843
 30
0.0
 10
18.19610307291307
 20
11.67182294425456
 30
0.0
  0
SPLINE
  5
1A1
330
1F
100
AcDbEntity
  8
0
  6
Continuous
 62
     7
370
    25
100
AcDbSpline
210
0.0
220
0.0
230
1.0
 70
     8
 71
     3
 72
     9
 73
     5
 74
     0
 42
0.00000001
 43
0.00000001
 40
0.0
 40
0.0
 40
0.0
 40
0.0
 40
0.9510244548967742
 40
1.0
 40
1.0
 40
1.0
 40
1.0
 10
18.25346291512641
 20
12.14915340993079
 30
0.0
 10
18.25282994636553
 20
12.16178605657694
 30
0.0
 10
18.25216438118724
 20
12.17506925511206
 30
0.0
 10
18.25030370204788
 20
12.18789967440564
 30
0.0
 10
18.25021257427277
 20
12.18852805118444
 30
0.0
  0
LINE
  5
1A2
330
1F
100
AcDbEntity
  8
0
  6
Continuous
 62
     7
370
    25
100
AcDbLine
 10
18.1961030729
 20
11.6718229443
 30
0.0
 11
18.1961030729
 21
11.87871576
 31
0.0
  0
LWPOLYLINE
  5
1A3
330
1F
100
AcDbEntity
  8
0
  6
Continuous
 62
     7
370
    25
100
AcDbPolyline
 90
       49
 70
   128
 43
0.0
 10
17.4051947176
 20
11.1051096347
 10
17.4225140046
 20
11.095583346
 10
17.4406103245
 20
11.0865512292
 10
17.4594414126
 20
11.0780343792
 10
17.4789632879
 20
11.0700526877
 10
17.4991303563
 20
11.0626247961
 10
17.5198955165
 20
11.0557680526
 10
17.5412102706
 20
11.0494984716
 10
17.563024837
 20
11.0438306958
 10
17.5852882668
 20
11.0387779627
 10
17.6079485626
 20
11.0343520731
 10
17.6309528004
 20
11.030563364
 10
17.6542472526
 20
11.0274206839
 10
17.6777775141
 20
11.0249313729
 10
17.7014886287
 20
11.0231012447
 10
17.725325218
 20
11.0219345738
 10
17.7492316107
 20
11.0214340849
 10
17.7731519722
 20
11.021600947
 10
17.7970304354
 20
11.0224347704
 10
17.8208112311
 20
11.0239336076
 10
17.844438818
 20
11.026093958
 10
17.8678580129
 20
11.028910776
 10
17.8910141192
 20
11.0323774828
 10
17.9138530546
 20
11.0364859818
 10
17.9363214779
 20
11.0412266774
 10
17.958366913
 20
11.0465884974
 10
17.9799378716
 20
11.0525589191
 10
18.000983974
 20
11.0591239982
 10
18.0214560658
 20
11.0662684018
 10
18.0413063336
 20
11.0739754437
 10
18.0604884162
 20
11.0822271239
 10
18.0789575129
 20
11.09100417
 10
18.0966704884
 20
11.100286083
 10
18.113585973
 20
11.1100511844
 10
18.1296644599
 20
11.1202766674
 10
18.1448683972
 20
11.13093865
 10
18.1591622752
 20
11.1420122306
 10
18.1725127099
 20
11.1534715463
 10
18.1848885209
 20
11.1652898333
 10
18.1962608037
 20
11.1774394896
 10
18.206602998
 20
11.189892139
 10
18.2158909491
 20
11.2026186977
 10
18.2241029644
 20
11.2155894424
 10
18.2312198646
 20
11.2287740792
 10
18.2372250276
 20
11.2421418148
 10
18.2421044282
 20
11.2556614283
 10
18.2458466703
 20
11.2693013439
 10
18.2484430138
 20
11.283029705
 10
18.2487480829
 20
11.2852056095
  0
ARC
  5
1A4
330
1F
100
AcDbEntity
  8
0
  6
Continuous
 62
     7
370
    25
100
AcDbCircle
 10
17.5204364103
 20
11.3443410348
 30
0.0
 40
0.2655415419951614
100
AcDbArc
 50
193.1366625724
 51
244.2791197129
  0
LINE
  5
1A5
330
1F
100
AcDbEntity
  8
0
  6
Continuous
 62
     7
370
    25
100
AcDbLine
 10
6.6029665024
 20
4.4652031695
 30
0.0
 11
6.6029665024
 21
4.5102140383
 31
0.0
  0
LINE
  5
1A6
330
1F
100
AcDbEntity
  8
0
  6
Continuous
 62
     7
370
    25
100
AcDbLine
 10
6.6029665024
 20
1.6862140383
 30
0.0
 11
6.6029665024
 21
4.3292669858
 31
0.0
  0
LINE
  5
1A7
330
1F
100
AcDbEntity
  8
0
  6
Continuous
 62
     7
370
    25
100
AcDbLine
 10
6.6029665024
 20
1.4432140383
 30
0.0
 11
6.6029665024
 21
1.5502140383
 31
0.0
  0
LINE
  5
1A8
330
1F
100
AcDbEntity
  8
0
  6
Continuous
 62
     7
370
    25
100
AcDbLine
 10
5.6129665024
 20
5.5002140383
 30
0.0
 11
5.6129665024
 21
1.4432140383
 31
0.0
  0
LINE
  5
1A9
330
1F
100
AcDbEntity
  8
0
  6
Continuous
 62
     7
370
    25
100
AcDbLine
 10
6.6029665024
 20
4.5102140383
 30
0.0
 11
5.6129665024
 21
5.5002140383
 31
0.0
  0
LINE
  5
1AA
330
1F
100
AcDbEntity
  8
0
  6
Continuous
 62
     7
370
    25
100
AcDbLine
 10
6.1079665024
 20
1.4432140383
 30
0.0
 11
5.6129665024
 21
1.4432140383
 31
0.0
  0
LINE
  5
1AB
330
1F
100
AcDbEntity
  8
0
  6
Continuous
 62
     7
370
    25
100
AcDbLine
 10
6.6029665024
 20
1.4432140383
 30
0.0
 11
6.1079665024
 21
1.4432140383
 31
0.0
  0
SPLINE
  5
1AC
330
1F
100
AcDbEntity
  8
0
  6
Continuous
 62
     7
370
    25
100
AcDbSpline
210
0.0
220
0.0
230
1.0
 70
     8
 71
     3
 72
    34
 73
    30
 74
     0
 42
0.00000001
 43
0.00000001
 40
0.0
 40
0.0
 40
0.0
 40
0.0
 40
0.0625
 40
0.0625
 40
0.125
 40
0.125
 40
0.1874999999999999
 40
0.1874999999999999
 40
0.2499999999999999
 40
0.2499999999999999
 40
0.3124999999999999
 40
0.3124999999999999
 40
0.3749999999999999
 40
0.3749999999999999
 40
0.4374999999999999
 40
0.4374999999999999
 40
0.4999999999999999
 40
0.4999999999999999
 40
0.6249999999999999
 40
0.6249999999999999
 40
0.7499999999999998
 40
0.7499999999999998
 40
0.8124999999999998
 40
0.8124999999999998
 40
0.8749999999999999
 40
0.8749999999999999
 40
0.9375
 40
0.9375
 40
1.0
 40
1.0
 40
1.0
 40
1.0
 10
6.602966502390363
 20
1.550214038331386
 30
0.0
 10
6.602966502390363
 20
1.550214038331386
 30
0.0
 10
6.602904775408568
 20
1.550659327228281
 30
0.0
 10
6.602670012902017
 20
1.552401363210744
 30
0.0
 10
6.602498210738879
 20
1.553689014015872
 30
0.0
 10
6.602064252425436
 20
1.557103852678435
 30
0.0
 10
6.601802272697334
 20
1.559233116609138
 30
0.0
 10
6.60123844376754
 20
1.564156760907013
 30
0.0
 10
6.600933690930244
 20
1.566973338367422
 30
0.0
 10
6.60031486359859
 20
1.573315606952219
 30
0.0
 10
6.600010328008509
 20
1.5767460272454
 30
0.0
 10
6.599444633178927
 20
1.584107988165651
 30
0.0
 10
6.599181034245219
 20
1.588087462888758
 30
0.0
 10
6.598744939843394
 20
1.59631954333026
 30
0.0
 10
6.598571917888588
 20
1.60055913807592
 30
0.0
 10
6.598335448678878
 20
1.609285137449766
 30
0.0
 10
6.598273344324967
 20
1.613796192385436
 30
0.0
 10
6.598273960058761
 20
1.627117717622689
 30
0.0
 10
6.598530683895166
 20
1.636074915017005
 30
0.0
 10
6.599398965825333
 20
1.65244357029232
 30
0.0
 10
6.600012971203133
 20
1.660019178098138
 30
0.0
 10
6.600930789759889
 20
1.669424624948757
 30
0.0
 10
6.601240974325723
 20
1.672294557601614
 30
0.0
 10
6.601805861845351
 20
1.677225146170015
 30
0.0
 10
6.602063068858725
 20
1.679314692583131
 30
0.0
 10
6.602497330467477
 20
1.682732352574727
 30
0.0
 10
6.602671901735524
 20
1.684040836037556
 30
0.0
 10
6.602905153932056
 20
1.685771450544289
 30
0.0
 10
6.602966502390363
 20
1.686214038331385
 30
0.0
 10
6.602966502390363
 20
1.686214038331385
 30
0.0
  0
SPLINE
  5
1AD
330
1F
100
AcDbEntity
  8
0
  6
Continuous
 62
     7
370
    25
100
AcDbSpline
210
0.0
220
0.0
230
1.0
 70
     8
 71
     3
 72
    46
 73
    42
 74
     0
 42
0.00000001
 43
0.00000001
 40
0.0
 40
0.0
 40
0.0
 40
0.0
 40
0.0083014019754273
 40
0.035452201973367
 40
0.0616551268937554
 40
0.0878581474114098
 40
0.114817736538996
 40
0.1417774770263129
 40
0.168069230367054
 40
0.194361102135722
 40
0.2214043035700871
 40
0.2484475603447919
 40
0.2749519499727854
 40
0.3014562969399862
 40
0.3287295263530062
 40
0.356002621826442
 40
0.3825153442709148
 40
0.4090279214215169
 40
0.436323373483041
 40
0.4636187063340992
 40
0.4899171281088048
 40
0.516215531658015
 40
0.54328451329871
 40
0.5703535784084574
 40
0.596550793179313
 40
0.6227481391156957
 40
0.6496971272874833
 40
0.6766462621691962
 40
0.7030116095198723
 40
0.7293770337418025
 40
0.7564977701985869
 40
0.7836184925194402
 40
0.810159982001764
 40
0.8367013727603265
 40
0.864018568033779
 40
0.8913356041123626
 40
0.9177877318158106
 40
0.944239737783665
 40
0.9714730797603471
 40
0.9987063657658029
 40
1.0
 40
1.0
 40
1.0
 40
1.0
 10
6.602959191500418
 20
4.329266985817174
 30
0.0
 10
6.602961236927592
 20
4.32925202543293
 30
0.0
 10
6.602969972186708
 20
4.329188135193013
 30
0.0
 10
6.602917544859422
 20
4.32957076137862
 30
0.0
 10
6.602803456367998
 20
4.330407886956348
 30
0.0
 10
6.602626071837234
 20
4.33173250498662
 30
0.0
 10
6.602391757225351
 20
4.333521424670739
 30
0.0
 10
6.602107247913401
 20
4.335764680310731
 30
0.0
 10
6.601783674137207
 20
4.3384173405898
 30
0.0
 10
6.601428185733862
 20
4.341474152566538
 30
0.0
 10
6.601046309378781
 20
4.344953319866534
 30
0.0
 10
6.60065129332277
 20
4.348812881076631
 30
0.0
 10
6.600257949094393
 20
4.352988333469225
 30
0.0
 10
6.599873278983244
 20
4.357483407866851
 30
0.0
 10
6.59950614529959
 20
4.362308714895243
 30
0.0
 10
6.599170752714175
 20
4.367388246102486
 30
0.0
 10
6.598879973983021
 20
4.372634456117956
 30
0.0
 10
6.598637265591715
 20
4.378055474537548
 30
0.0
 10
6.598449679080529
 20
4.383670257771115
 30
0.0
 10
6.598325133732481
 20
4.38936985588432
 30
0.0
 10
6.598267759434493
 20
4.395055188462413
 30
0.0
 10
6.598275037609207
 20
4.400739539426205
 30
0.0
 10
6.598349641977819
 20
4.406453850477102
 30
0.0
 10
6.598488680529453
 20
4.412093926440603
 30
0.0
 10
6.598686256609009
 20
4.417566215465507
 30
0.0
 10
6.59893588890461
 20
4.422889757028416
 30
0.0
 10
6.599235472612291
 20
4.428081444328011
 30
0.0
 10
6.599574455596132
 20
4.433063834849593
 30
0.0
 10
6.599940119817171
 20
4.437756836362253
 30
0.0
 10
6.600324947088734
 20
4.442180294052462
 30
0.0
 10
6.6007217390316
 20
4.446325965805425
 30
0.0
 10
6.601116370245402
 20
4.450129733188784
 30
0.0
 10
6.601493874701306
 20
4.453531059652021
 30
0.0
 10
6.601848134378285
 20
4.456549261667739
 30
0.0
 10
6.602170395045971
 20
4.459169354227626
 30
0.0
 10
6.60244801746346
 20
4.461339932722152
 30
0.0
 10
6.60266998663101
 20
4.463026712245957
 30
0.0
 10
6.602837390901458
 20
4.464269594930788
 30
0.0
 10
6.602935330919389
 20
4.464988274846215
 30
0.0
 10
6.602976395903693
 20
4.465286027208937
 30
0.0
 10
6.602965502865298
 20
4.465206763941709
 30
0.0
 10
6.602965008889528
 20
4.465203169523694
 30
0.0
  0
INSERT
  5
1AE
330
1F
100
AcDbEntity
  8
0
  6
Continuous
 62
     7
100
AcDbBlockReference
  2
Block1
 10
5.5102381008
 20
0.8788447135
 30
0.0
 41
0.5
 42
0.5
 43
0.5
  0
DIMENSION
  5
1AF
330
1F
100
AcDbEntity
  8
0
  6
Continuous
 62
     7
370
    18
100
AcDbDimension
  2
_D_7
 10
4.6769536146
 20
5.5002140383
 30
0.0
 11
4.6769536146
 21
3.4717140383
 31
0.0
 70
   160
  1
<>
 71
     2
 42
-1.0
  3
SLDDIMSTYLE1
100
AcDbAlignedDimension
 13
5.6129665024
 23
1.4432140383
 33
0.0
 14
5.6129665024
 24
5.5002140383
 34
0.0
 50
90.0
100
AcDbRotatedDimension
  0
ARC
  5
1C3
330
1F
100
AcDbEntity
  8
0
  6
Continuous
 62
     7
370
    25
100
AcDbCircle
 10
11.5107609609
 20
4.6107140383
 30
0.0
 40
0.0150000000000006
100
AcDbArc
 50
0.0
 51
90.0
  0
ARC
  5
1C4
330
1F
100
AcDbEntity
  8
0
  6
Continuous
 62
     7
370
    25
100
AcDbCircle
 10
10.5507609609
 20
4.6107140383
 30
0.0
 40
0.0150000000000006
100
AcDbArc
 50
90.0
 51
180.0
  0
LINE
  5
1C5
330
1F
100
AcDbEntity
  8
0
  6
Continuous
 62
     7
370
    25
100
AcDbLine
 10
11.5257609609
 20
4.5062140383
 30
0.0
 11
11.5257609609
 21
4.6107140383
 31
0.0
  0
LINE
  5
1C6
330
1F
100
AcDbEntity
  8
0
  6
Continuous
 62
     7
370
    25
100
AcDbLine
 10
11.5257609609
 20
1.6862140383
 30
0.0
 11
11.5257609609
 21
4.3702693067
 31
0.0
  0
LINE
  5
1C7
330
1F
100
AcDbEntity
  8
0
  6
Continuous
 62
     7
370
    25
100
AcDbLine
 10
11.5257609609
 20
1.4432140383
 30
0.0
 11
11.5257609609
 21
1.5502140383
 31
0.0
  0
LINE
  5
1C8
330
1F
100
AcDbEntity
  8
0
  6
Continuous
 62
     7
370
    25
100
AcDbLine
 10
10.5357609609
 20
4.6107140383
 30
0.0
 11
10.5357609609
 21
1.4432140383
 31
0.0
  0
LINE
  5
1C9
330
1F
100
AcDbEntity
  8
0
  6
Continuous
 62
     7
370
    25
100
AcDbLine
 10
10.5507609609
 20
4.6257140383
 30
0.0
 11
11.5107609609
 21
4.6257140383
 31
0.0
  0
LINE
  5
1CA
330
1F
100
AcDbEntity
  8
0
  6
Continuous
 62
     7
370
    25
100
AcDbLine
 10
11.5257609609
 20
1.4432140383
 30
0.0
 11
10.5357609609
 21
1.4432140383
 31
0.0
  0
SPLINE
  5
1CB
330
1F
100
AcDbEntity
  8
0
  6
Continuous
 62
     7
370
    25
100
AcDbSpline
210
0.0
220
0.0
230
1.0
 70
     8
 71
     3
 72
    30
 73
    26
 74
     0
 42
0.00000001
 43
0.00000001
 40
0.0
 40
0.0
 40
0.0
 40
0.0
 40
0.1250000000000001
 40
0.1250000000000001
 40
0.2500000000000001
 40
0.2500000000000001
 40
0.3125000000000001
 40
0.3125000000000001
 40
0.3749999999999999
 40
0.3749999999999999
 40
0.4374999999999999
 40
0.4374999999999999
 40
0.4999999999999998
 40
0.4999999999999998
 40
0.5624999999999998
 40
0.5624999999999998
 40
0.6249999999999998
 40
0.6249999999999998
 40
0.6874999999999997
 40
0.6874999999999997
 40
0.7499999999999996
 40
0.7499999999999996
 40
0.8749999999999998
 40
0.8749999999999998
 40
1.0
 40
1.0
 40
1.0
 40
1.0
 10
11.52576096088867
 20
1.550214038331385
 30
0.0
 10
11.52576096088867
 20
1.550214038331385
 30
0.0
 10
11.52550743573731
 20
1.551999410064784
 30
0.0
 10
11.52464587606703
 20
1.558778257339888
 30
0.0
 10
11.52403488779304
 20
1.563835503743511
 30
0.0
 10
11.5231173079013
 20
1.573230853042983
 30
0.0
 10
11.52280653153748
 20
1.576724638239717
 30
0.0
 10
11.52223943490087
 20
1.584102205454573
 30
0.0
 10
11.52198066583524
 20
1.588003135909055
 30
0.0
 10
11.52154309437939
 20
1.596236717041472
 30
0.0
 10
11.52136675334177
 20
1.600552733979247
 30
0.0
 10
11.52113077300819
 20
1.609245720706696
 30
0.0
 10
11.52106843739747
 20
1.613672357927109
 30
0.0
 10
11.52106758212838
 20
1.622662428148409
 30
0.0
 10
11.52112894240253
 20
1.627083338047332
 30
0.0
 10
11.52136340727655
 20
1.635782976411041
 30
0.0
 10
11.52153936100636
 20
1.64010754285205
 30
0.0
 10
11.52197533826115
 20
1.648337983218299
 30
0.0
 10
11.52223362668178
 20
1.65224297171245
 30
0.0
 10
11.52280086369559
 20
1.659636894817955
 30
0.0
 10
11.523111243272
 20
1.663130915818371
 30
0.0
 10
11.52402810054865
 20
1.672531368432067
 30
0.0
 10
11.52464015561029
 20
1.677602844861307
 30
0.0
 10
11.52550382622089
 20
1.684402210683451
 30
0.0
 10
11.52576096088867
 20
1.686214038331385
 30
0.0
 10
11.52576096088867
 20
1.686214038331384
 30
0.0
  0
ARC
  5
1CC
330
1F
100
AcDbEntity
  8
0
  6
Continuous
 62
     7
370
    25
100
AcDbCircle
 10
12.0178072907
 20
4.4382140865
 30
0.0
 40
0.4967228443415043
100
AcDbArc
 50
172.1316616069
 51
187.8619140019
  0
LINE
  5
1CD
330
1F
100
AcDbEntity
  8
0
  6
Continuous
 62
     7
370
    25
100
AcDbLine
 10
11.5257609609
 20
4.6107140383
 30
0.0
 11
10.5357609609
 21
4.6107140383
 31
0.0
  0
INSERT
  5
1CE
330
1F
100
AcDbEntity
  8
0
  6
Continuous
 62
     7
100
AcDbBlockReference
  2
Block2
 10
10.476005257
 20
0.5880667715
 30
0.0
 41
0.5
 42
0.5
 43
0.5
  0
DIMENSION
  5
1CF
330
1F
100
AcDbEntity
  8
0
  6
Continuous
 62
     7
370
    18
100
AcDbDimension
  2
_D_8
 10
9.7483593861
 20
4.6257140383
 30
0.0
 11
9.7483593861
 21
3.0344640383
 31
0.0
 70
   160
  1
<>
 71
     2
 42
-1.0
  3
SLDDIMSTYLE1
100
AcDbAlignedDimension
 13
10.5357609609
 23
1.4432140383
 33
0.0
 14
10.5932609609
 24
4.6257140383
 34
0.0
 50
90.0
100
AcDbRotatedDimension
  0
ARC
  5
1E3
330
1F
100
AcDbEntity
  8
0
  6
Continuous
 62
     7
370
    25
100
AcDbCircle
 10
15.4038646132
 20
4.2817140383
 30
0.0
 40
0.0150000000000006
100
AcDbArc
 50
90.0
 51
180.0
  0
ARC
  5
1E4
330
1F
100
AcDbEntity
  8
0
  6
Continuous
 62
     7
370
    25
100
AcDbCircle
 10
16.3638646132
 20
4.2817140383
 30
0.0
 40
0.0150000000000006
100
AcDbArc
 50
0.0
 51
90.0
  0
LINE
  5
1E5
330
1F
100
AcDbEntity
  8
0
  6
Continuous
 62
     7
370
    25
100
AcDbLine
 10
16.3788646132
 20
1.6862140383
 30
0.0
 11
16.3788646132
 21
4.2817140383
 31
0.0
  0
LINE
  5
1E6
330
1F
100
AcDbEntity
  8
0
  6
Continuous
 62
     7
370
    25
100
AcDbLine
 10
16.3788646132
 20
1.4432140383
 30
0.0
 11
16.3788646132
 21
1.5502140383
 31
0.0
  0
LINE
  5
1E7
330
1F
100
AcDbEntity
  8
0
  6
Continuous
 62
     7
370
    25
100
AcDbLine
 10
15.3888646132
 20
4.2817140383
 30
0.0
 11
15.3888646132
 21
1.4432140383
 31
0.0
  0
LINE
  5
1E8
330
1F
100
AcDbEntity
  8
0
  6
Continuous
 62
     7
370
    25
100
AcDbLine
 10
15.4038646132
 20
4.2967140383
 30
0.0
 11
16.3638646132
 21
4.2967140383
 31
0.0
  0
SPLINE
  5
1E9
330
1F
100
AcDbEntity
  8
0
  6
Continuous
 62
     7
370
    25
100
AcDbSpline
210
0.0
220
0.0
230
1.0
 70
     8
 71
     3
 72
    30
 73
    26
 74
     0
 42
0.00000001
 43
0.00000001
 40
0.0
 40
0.0
 40
0.0
 40
0.0
 40
0.1249999999999997
 40
0.1249999999999997
 40
0.2499999999999994
 40
0.2499999999999994
 40
0.3124999999999992
 40
0.3124999999999992
 40
0.374999999999999
 40
0.374999999999999
 40
0.437499999999999
 40
0.437499999999999
 40
0.499999999999999
 40
0.499999999999999
 40
0.5624999999999991
 40
0.5624999999999991
 40
0.6249999999999991
 40
0.6249999999999991
 40
0.6874999999999992
 40
0.6874999999999992
 40
0.7499999999999992
 40
0.7499999999999992
 40
0.8749999999999997
 40
0.8749999999999997
 40
1.0
 40
1.0
 40
1.0
 40
1.0
 10
16.37886461323704
 20
1.550214038331385
 30
0.0
 10
16.37886461323704
 20
1.550214038331385
 30
0.0
 10
16.37861108808568
 20
1.551999410064784
 30
0.0
 10
16.3777495284154
 20
1.558778257339888
 30
0.0
 10
16.37713854014141
 20
1.563835503743511
 30
0.0
 10
16.37622096024967
 20
1.573230853042983
 30
0.0
 10
16.37591018388585
 20
1.576724638239717
 30
0.0
 10
16.37534308724924
 20
1.584102205454573
 30
0.0
 10
16.37508431818361
 20
1.588003135909055
 30
0.0
 10
16.37464674672776
 20
1.596236717041472
 30
0.0
 10
16.37447040569014
 20
1.600552733979247
 30
0.0
 10
16.37423442535656
 20
1.609245720706696
 30
0.0
 10
16.37417208974584
 20
1.613672357927109
 30
0.0
 10
16.37417123447675
 20
1.622662428148409
 30
0.0
 10
16.3742325947509
 20
1.627083338047331
 30
0.0
 10
16.37446705962492
 20
1.635782976411041
 30
0.0
 10
16.37464301335473
 20
1.64010754285205
 30
0.0
 10
16.37507899060952
 20
1.648337983218299
 30
0.0
 10
16.37533727903015
 20
1.65224297171245
 30
0.0
 10
16.37590451604396
 20
1.659636894817955
 30
0.0
 10
16.37621489562038
 20
1.663130915818371
 30
0.0
 10
16.37713175289702
 20
1.672531368432067
 30
0.0
 10
16.37774380795867
 20
1.677602844861307
 30
0.0
 10
16.37860747856926
 20
1.684402210683451
 30
0.0
 10
16.37886461323704
 20
1.686214038331384
 30
0.0
 10
16.37886461323704
 20
1.686214038331384
 30
0.0
  0
LINE
  5
1EA
330
1F
100
AcDbEntity
  8
0
  6
Continuous
 62
     7
370
    25
100
AcDbLine
 10
16.3788646132
 20
1.4432140383
 30
0.0
 11
15.3888646132
 21
1.4432140383
 31
0.0
  0
LINE
  5
1EB
330
1F
100
AcDbEntity
  8
0
  6
Continuous
 62
     7
370
    25
100
AcDbLine
 10
16.3788646132
 20
4.2817140383
 30
0.0
 11
15.3888646132
 21
4.2817140383
 31
0.0
  0
INSERT
  5
1EC
330
1F
100
AcDbEntity
  8
0
  6
Continuous
 62
     7
100
AcDbBlockReference
  2
Block3
 10
15.4494305501
 20
0.9177521246
 30
0.0
 41
0.5
 42
0.5
 43
0.5
  0
DIMENSION
  5
1ED
330
1F
100
AcDbEntity
  8
0
  6
Continuous
 62
     7
370
    18
100
AcDbDimension
  2
_D_9
 10
14.6014630384
 20
4.2967140383
 30
0.0
 11
14.6014630384
 21
2.8699640383
 31
0.0
 70
   160
  1
<>
 71
     2
 42
-1.0
  3
SLDDIMSTYLE1
100
AcDbAlignedDimension
 13
15.3888646132
 23
1.4432140383
 33
0.0
 14
15.4463646132
 24
4.2967140383
 34
0.0
 50
90.0
100
AcDbRotatedDimension
  0
ENDSEC
  0
SECTION
  2
OBJECTS
  0
DICTIONARY
  5
C
330
0
100
AcDbDictionary
281
     1
  3
ACAD_GROUP
350
D
  3
ACAD_LAYOUT
350
1A
  3
ACAD_MLINESTYLE
350
17
  3
ACAD_PLOTSETTINGS
350
19
  3
ACAD_PLOTSTYLENAME
350
E
  3
ACAD_SCALELIST
350
47
  3
DWGPROPS
350
201
  0
DICTIONARY
  5
D
102
{ACAD_REACTORS
330
C
102
}
330
C
100
AcDbDictionary
281
     1
  0
DICTIONARY
  5
1A
102
{ACAD_REACTORS
330
C
102
}
330
C
100
AcDbDictionary
281
     1
  3
Layout1
350
1E
  3
Layout2
350
26
  3
Model
350
22
  0
DICTIONARY
  5
17
102
{ACAD_REACTORS
330
C
102
}
330
C
100
AcDbDictionary
281
     1
  3
Standard
350
18
  0
DICTIONARY
  5
19
102
{ACAD_REACTORS
330
C
102
}
330
C
100
AcDbDictionary
281
     1
  0
ACDBDICTIONARYWDFLT
  5
E
102
{ACAD_REACTORS
330
C
102
}
330
C
100
AcDbDictionary
281
     1
  3
Normal
350
F
100
AcDbDictionaryWithDefault
340
F
  0
DICTIONARY
  5
47
102
{ACAD_REACTORS
330
C
102
}
330
C
100
AcDbDictionary
281
     1
  3
A0
350
48
  3
A1
350
49
  3
A2
350
4A
  3
A3
350
4B
  3
A4
350
4C
  3
A5
350
4D
  3
A6
350
4E
  3
A7
350
4F
  3
A8
350
50
  3
A9
350
51
  3
B1
350
52
  3
B2
350
53
  3
B3
350
54
  3
B4
350
55
  3
B5
350
56
  3
B6
350
57
  3
B7
350
58
  0
XRECORD
  5
201
102
{ACAD_REACTORS
330
C
102
}
330
C
100
AcDbXrecord
280
     1
  1
DWGPROPS COOKIE
  2

  3

  4

  6

  7

  8
stevend
  9

300
=
301
=
302
=
303
=
304
=
305
=
306
=
307
=
308
=
309
=
 40
0.0
 41
2460477.186748206
 42
2460477.186749155
  1

 90
        0
  0
LAYOUT
  5
1E
102
{ACAD_REACTORS
330
1A
102
}
330
1A
100
AcDbPlotSettings
  1

  2
none_device
  4

  6

 40
0.0
 41
0.0
 42
0.0
 43
0.0
 44
0.0
 45
0.0
 46
0.0
 47
0.0
 48
0.0
 49
0.0
140
0.0
141
0.0
142
1.0
143
1.0
 70
   688
 72
     0
 73
     0
 74
     5
  7

 75
    16
147
1.0
148
0.0
149
0.0
100
AcDbLayout
  1
Layout1
 70
     1
 71
     1
 10
0.0
 20
0.0
 11
12.0
 21
9.0
 12
0.0
 22
0.0
 32
0.0
 14
1.0000000000E+20
 24
1.0000000000E+20
 34
1.0000000000E+20
 15
-1.0000000000E+20
 25
-1.0000000000E+20
 35
-1.0000000000E+20
146
0.0
 13
0.0
 23
0.0
 33
0.0
 16
1.0
 26
0.0
 36
0.0
 17
0.0
 27
1.0
 37
0.0
 76
     0
330
1B
  0
LAYOUT
  5
26
102
{ACAD_REACTORS
330
1A
102
}
330
1A
100
AcDbPlotSettings
  1

  2
none_device
  4

  6

 40
0.0
 41
0.0
 42
0.0
 43
0.0
 44
0.0
 45
0.0
 46
0.0
 47
0.0
 48
0.0
 49
0.0
140
0.0
141
0.0
142
1.0
143
1.0
 70
   688
 72
     0
 73
     0
 74
     5
  7

 75
    16
147
1.0
148
0.0
149
0.0
100
AcDbLayout
  1
Layout2
 70
     1
 71
     2
 10
0.0
 20
0.0
 11
0.0
 21
0.0
 12
0.0
 22
0.0
 32
0.0
 14
0.0
 24
0.0
 34
0.0
 15
0.0
 25
0.0
 35
0.0
146
0.0
 13
0.0
 23
0.0
 33
0.0
 16
1.0
 26
0.0
 36
0.0
 17
0.0
 27
1.0
 37
0.0
 76
     0
330
23
  0
LAYOUT
  5
22
102
{ACAD_REACTORS
330
1A
102
}
330
1A
100
AcDbPlotSettings
  1

  2
none_device
  4
Letter_(8.50_x_11.00_Inches)
  6

 40
6.35
 41
6.35
 42
6.35000508
 43
6.35000508
 44
215.9
 45
279.4
 46
0.0
 47
0.0
 48
0.0
 49
0.0
140
0.0
141
0.0
142
1.0
143
1.0
 70
  1712
 72
     0
 73
     0
 74
     0
  7

 75
     0
147
1.0
148
0.0
149
0.0
100
AcDbLayout
  1
Model
 70
     1
 71
     0
 10
0.0
 20
0.0
 11
22.0
 21
17.0
 12
0.0
 22
0.0
 32
0.0
 14
0.0
 24
0.0
 34
0.0
 15
22.0
 25
17.0
 35
0.0
146
0.0
 13
0.0
 23
0.0
 33
0.0
 16
1.0
 26
0.0
 36
0.0
 17
0.0
 27
1.0
 37
0.0
 76
     0
330
1F
331
29
  0
MLINESTYLE
  5
18
102
{ACAD_REACTORS
330
17
102
}
330
17
100
AcDbMlineStyle
  2
Standard
 70
     0
  3

 62
   256
 51
90.0
 52
90.0
 71
     2
 49
0.5
 62
   256
  6
BYLAYER
 49
-0.5
 62
   256
  6
BYLAYER
  0
ACDBPLACEHOLDER
  5
F
102
{ACAD_REACTORS
330
E
102
}
330
E
  0
SCALE
  5
48
102
{ACAD_REACTORS
330
47
102
}
330
47
100
AcDbScale
 70
     0
300
1:1
140
1.0
141
1.0
290
     1
  0
SCALE
  5
49
102
{ACAD_REACTORS
330
47
102
}
330
47
100
AcDbScale
 70
     0
300
1/128" = 1'-0"
140
0.0078125
141
12.0
290
     0
  0
SCALE
  5
4A
102
{ACAD_REACTORS
330
47
102
}
330
47
100
AcDbScale
 70
     0
300
1/64" = 1'-0"
140
0.015625
141
12.0
290
     0
  0
SCALE
  5
4B
102
{ACAD_REACTORS
330
47
102
}
330
47
100
AcDbScale
 70
     0
300
1/32" = 1'-0"
140
0.03125
141
12.0
290
     0
  0
SCALE
  5
4C
102
{ACAD_REACTORS
330
47
102
}
330
47
100
AcDbScale
 70
     0
300
1/16" = 1'-0"
140
0.0625
141
12.0
290
     0
  0
SCALE
  5
4D
102
{ACAD_REACTORS
330
47
102
}
330
47
100
AcDbScale
 70
     0
300
3/32" = 1'-0"
140
0.09375
141
12.0
290
     0
  0
SCALE
  5
4E
102
{ACAD_REACTORS
330
47
102
}
330
47
100
AcDbScale
 70
     0
300
1/8" = 1'-0"
140
0.125
141
12.0
290
     0
  0
SCALE
  5
4F
102
{ACAD_REACTORS
330
47
102
}
330
47
100
AcDbScale
 70
     0
300
3/16" = 1'-0"
140
0.1875
141
12.0
290
     0
  0
SCALE
  5
50
102
{ACAD_REACTORS
330
47
102
}
330
47
100
AcDbScale
 70
     0
300
1/4" = 1'-0"
140
0.25
141
12.0
290
     0
  0
SCALE
  5
51
102
{ACAD_REACTORS
330
47
102
}
330
47
100
AcDbScale
 70
     0
300
3/8" = 1'-0"
140
0.375
141
12.0
290
     0
  0
SCALE
  5
52
102
{ACAD_REACTORS
330
47
102
}
330
47
100
AcDbScale
 70
     0
300
1/2" = 1'-0"
140
0.5
141
12.0
290
     0
  0
SCALE
  5
53
102
{ACAD_REACTORS
330
47
102
}
330
47
100
AcDbScale
 70
     0
300
3/4" = 1'-0"
140
0.75
141
12.0
290
     0
  0
SCALE
  5
54
102
{ACAD_REACTORS
330
47
102
}
330
47
100
AcDbScale
 70
     0
300
1" = 1'-0"
140
1.0
141
12.0
290
     0
  0
SCALE
  5
55
102
{ACAD_REACTORS
330
47
102
}
330
47
100
AcDbScale
 70
     0
300
1-1/2" = 1'-0"
140
1.5
141
12.0
290
     0
  0
SCALE
  5
56
102
{ACAD_REACTORS
330
47
102
}
330
47
100
AcDbScale
 70
     0
300
3" = 1'-0"
140
3.0
141
12.0
290
     0
  0
SCALE
  5
57
102
{ACAD_REACTORS
330
47
102
}
330
47
100
AcDbScale
 70
     0
300
6" = 1'-0"
140
6.0
141
12.0
290
     0
  0
SCALE
  5
58
102
{ACAD_REACTORS
330
47
102
}
330
47
100
AcDbScale
 70
     0
300
1'-0" = 1'-0"
140
12.0
141
12.0
290
     0
  0
ENDSEC
  0
EOF
