  0
SECTION
  2
HEADER
  9
$ACADVER
  1
AC1015
  9
$ACADMAINTVER
 70
     6
  9
$DWGCODEPAGE
  3
ANSI_1252
  9
$INSBASE
 10
0.0
 20
0.0
 30
0.0
  9
$EXTMIN
 10
0.0
 20
0.0
 30
0.0
  9
$EXTMAX
 10
44.0
 20
34.0
 30
0.0
  9
$LIMMIN
 10
0.0
 20
0.0
  9
$LIMMAX
 10
44.0
 20
34.0
  9
$ORTHOMODE
 70
     0
  9
$REGENMODE
 70
     1
  9
$FILLMODE
 70
     1
  9
$QTEXTMODE
 70
     0
  9
$MIRRTEXT
 70
     1
  9
$LTSCALE
 40
4.0
  9
$ATTMODE
 70
     1
  9
$TEXTSIZE
 40
0.5
  9
$TRACEWID
 40
0.05
  9
$TEXTSTYLE
  7
Standard
  9
$CLAYER
  8
0
  9
$CELTYPE
  6
ByLayer
  9
$CECOLOR
 62
   256
  9
$CELTSCALE
 40
1.0
  9
$DISPSILH
 70
     0
  9
$DIMSCALE
 40
1.0
  9
$DIMASZ
 40
0.52
  9
$DIMEXO
 40
0.2
  9
$DIMDLI
 40
0.38
  9
$DIMRND
 40
0.0
  9
$DIMDLE
 40
0.0
  9
$DIMEXE
 40
0.5
  9
$DIMTP
 40
0.0
  9
$DIMTM
 40
0.0
  9
$DIMTXT
 40
0.5
  9
$DIMCEN
 40
0.09
  9
$DIMTSZ
 40
0.0
  9
$DIMTOL
 70
     0
  9
$DIMLIM
 70
     0
  9
$DIMTIH
 70
     1
  9
$DIMTOH
 70
     1
  9
$DIMSE1
 70
     0
  9
$DIMSE2
 70
     0
  9
$DIMTAD
 70
     0
  9
$DIMZIN
 70
     1
  9
$DIMBLK
  1

  9
$DIMASO
 70
     1
  9
$DIMSHO
 70
     1
  9
$DIMPOST
  1

  9
$DIMAPOST
  1

  9
$DIMALT
 70
     0
  9
$DIMALTD
 70
     2
  9
$DIMALTF
 40
25.4
  9
$DIMLFAC
 40
1.0
  9
$DIMTOFL
 70
     0
  9
$DIMTVP
 40
0.0
  9
$DIMTIX
 70
     0
  9
$DIMSOXD
 70
     0
  9
$DIMSAH
 70
     0
  9
$DIMBLK1
  1

  9
$DIMBLK2
  1

  9
$DIMSTYLE
  2
Standard
  9
$DIMCLRD
 70
     0
  9
$DIMCLRE
 70
     0
  9
$DIMCLRT
 70
     0
  9
$DIMTFAC
 40
1.0
  9
$DIMGAP
 40
0.24
  9
$DIMJUST
 70
     0
  9
$DIMSD1
 70
     0
  9
$DIMSD2
 70
     0
  9
$DIMTOLJ
 70
     1
  9
$DIMTZIN
 70
     1
  9
$DIMALTZ
 70
     0
  9
$DIMALTTZ
 70
     0
  9
$DIMUPT
 70
     0
  9
$DIMDEC
 70
     0
  9
$DIMTDEC
 70
     0
  9
$DIMALTU
 70
     2
  9
$DIMALTTD
 70
     2
  9
$DIMTXSTY
  7
Standard
  9
$DIMAUNIT
 70
     0
  9
$DIMADEC
 70
     0
  9
$DIMALTRND
 40
0.0
  9
$DIMAZIN
 70
     0
  9
$DIMDSEP
 70
    46
  9
$DIMATFIT
 70
     3
  9
$DIMFRAC
 70
     0
  9
$DIMLDRBLK
  1

  9
$DIMLUNIT
 70
     2
  9
$DIMLWD
 70
    -2
  9
$DIMLWE
 70
    -2
  9
$DIMTMOVE
 70
     0
  9
$LUNITS
 70
     2
  9
$LUPREC
 70
     6
  9
$SKETCHINC
 40
0.1
  9
$FILLETRAD
 40
0.0
  9
$AUNITS
 70
     0
  9
$AUPREC
 70
     2
  9
$MENU
  1
.
  9
$ELEVATION
 40
0.0
  9
$PELEVATION
 40
0.0
  9
$THICKNESS
 40
0.0
  9
$LIMCHECK
 70
     0
  9
$CHAMFERA
 40
0.0
  9
$CHAMFERB
 40
0.0
  9
$CHAMFERC
 40
0.0
  9
$CHAMFERD
 40
0.0
  9
$SKPOLY
 70
     0
  9
$TDCREATE
 40
2460475.928731887
  9
$TDUCREATE
 40
2460476.220398553
  9
$TDUPDATE
 40
2460475.928732674
  9
$TDUUPDATE
 40
2460476.22039934
  9
$TDINDWG
 40
0.0000000116
  9
$TDUSRTIMER
 40
0.0000000116
  9
$USRTIMER
 70
     1
  9
$ANGBASE
 50
0.0
  9
$ANGDIR
 70
     0
  9
$PDMODE
 70
     0
  9
$PDSIZE
 40
-1.0
  9
$PLINEWID
 40
0.0
  9
$SPLFRAME
 70
     0
  9
$SPLINETYPE
 70
     6
  9
$SPLINESEGS
 70
     8
  9
$HANDSEED
  5
3B2
  9
$SURFTAB1
 70
     6
  9
$SURFTAB2
 70
     6
  9
$SURFTYPE
 70
     6
  9
$SURFU
 70
     6
  9
$SURFV
 70
     6
  9
$UCSBASE
  2

  9
$UCSNAME
  2

  9
$UCSORG
 10
0.0
 20
0.0
 30
0.0
  9
$UCSXDIR
 10
1.0
 20
0.0
 30
0.0
  9
$UCSYDIR
 10
0.0
 20
1.0
 30
0.0
  9
$UCSORTHOREF
  2

  9
$UCSORTHOVIEW
 70
     0
  9
$UCSORGTOP
 10
0.0
 20
0.0
 30
0.0
  9
$UCSORGBOTTOM
 10
0.0
 20
0.0
 30
0.0
  9
$UCSORGLEFT
 10
0.0
 20
0.0
 30
0.0
  9
$UCSORGRIGHT
 10
0.0
 20
0.0
 30
0.0
  9
$UCSORGFRONT
 10
0.0
 20
0.0
 30
0.0
  9
$UCSORGBACK
 10
0.0
 20
0.0
 30
0.0
  9
$PUCSBASE
  2

  9
$PUCSNAME
  2

  9
$PUCSORG
 10
0.0
 20
0.0
 30
0.0
  9
$PUCSXDIR
 10
1.0
 20
0.0
 30
0.0
  9
$PUCSYDIR
 10
0.0
 20
1.0
 30
0.0
  9
$PUCSORTHOREF
  2

  9
$PUCSORTHOVIEW
 70
     0
  9
$PUCSORGTOP
 10
0.0
 20
0.0
 30
0.0
  9
$PUCSORGBOTTOM
 10
0.0
 20
0.0
 30
0.0
  9
$PUCSORGLEFT
 10
0.0
 20
0.0
 30
0.0
  9
$PUCSORGRIGHT
 10
0.0
 20
0.0
 30
0.0
  9
$PUCSORGFRONT
 10
0.0
 20
0.0
 30
0.0
  9
$PUCSORGBACK
 10
0.0
 20
0.0
 30
0.0
  9
$USERI1
 70
     0
  9
$USERI2
 70
     0
  9
$USERI3
 70
     0
  9
$USERI4
 70
     0
  9
$USERI5
 70
     0
  9
$USERR1
 40
0.0
  9
$USERR2
 40
0.0
  9
$USERR3
 40
0.0
  9
$USERR4
 40
0.0
  9
$USERR5
 40
0.0
  9
$WORLDVIEW
 70
     1
  9
$SHADEDGE
 70
     3
  9
$SHADEDIF
 70
    70
  9
$TILEMODE
 70
     1
  9
$MAXACTVP
 70
    64
  9
$PINSBASE
 10
0.0
 20
0.0
 30
0.0
  9
$PLIMCHECK
 70
     0
  9
$PEXTMIN
 10
1.0000000000E+20
 20
1.0000000000E+20
 30
1.0000000000E+20
  9
$PEXTMAX
 10
-1.0000000000E+20
 20
-1.0000000000E+20
 30
-1.0000000000E+20
  9
$PLIMMIN
 10
0.0
 20
0.0
  9
$PLIMMAX
 10
12.0
 20
9.0
  9
$UNITMODE
 70
     0
  9
$VISRETAIN
 70
     1
  9
$PLINEGEN
 70
     0
  9
$PSLTSCALE
 70
     1
  9
$TREEDEPTH
 70
  3020
  9
$CMLSTYLE
  2
Standard
  9
$CMLJUST
 70
     0
  9
$CMLSCALE
 40
1.0
  9
$PROXYGRAPHICS
 70
     1
  9
$MEASUREMENT
 70
     0
  9
$CELWEIGHT
370
    -1
  9
$ENDCAPS
280
     0
  9
$JOINSTYLE
280
     0
  9
$LWDISPLAY
290
     1
  9
$INSUNITS
 70
     1
  9
$HYPERLINKBASE
  1

  9
$STYLESHEET
  1

  9
$XEDIT
290
     1
  9
$CEPSNTYPE
380
     0
  9
$PSTYLEMODE
290
     1
  9
$FINGERPRINTGUID
  2
{921344e4-dd56-438f-8577-0deeceb674ef}
  9
$VERSIONGUID
  2
{FAEB1C32-E019-11D5-929B-00C0DF256EC4}
  9
$EXTNAMES
290
     1
  9
$PSVPSCALE
 40
0.0
  9
$OLESTARTUP
290
     0
  0
ENDSEC
  0
SECTION
  2
CLASSES
  0
CLASS
  1
ACDBDICTIONARYWDFLT
  2
AcDbDictionaryWithDefault
  3
ObjectDBX Classes
 90
        0
280
     0
281
     0
  0
CLASS
  1
VISUALSTYLE
  2
AcDbVisualStyle
  3
ObjectDBX Classes
 90
     4095
280
     0
281
     0
  0
CLASS
  1
MATERIAL
  2
AcDbMaterial
  3
ObjectDBX Classes
 90
     1153
280
     0
281
     0
  0
CLASS
  1
SCALE
  2
AcDbScale
  3
ObjectDBX Classes
 90
     1153
280
     0
281
     0
  0
CLASS
  1
TABLESTYLE
  2
AcDbTableStyle
  3
ObjectDBX Classes
 90
     4095
280
     0
281
     0
  0
CLASS
  1
MLEADERSTYLE
  2
AcDbMLeaderStyle
  3
ACDB_MLEADERSTYLE_CLASS
 90
     4095
280
     0
281
     0
  0
CLASS
  1
SUN
  2
AcDbSun
  3
SCENEOE
 90
     1153
280
     0
281
     0
  0
CLASS
  1
ACDBPLACEHOLDER
  2
AcDbPlaceHolder
  3
ObjectDBX Classes
 90
        0
280
     0
281
     0
  0
CLASS
  1
LAYOUT
  2
AcDbLayout
  3
ObjectDBX Classes
 90
        0
280
     0
281
     0
  0
ENDSEC
  0
SECTION
  2
TABLES
  0
TABLE
  2
VPORT
  5
8
330
0
100
AcDbSymbolTable
 70
     1
  0
VPORT
  5
29
330
8
100
AcDbSymbolTableRecord
100
AcDbViewportTableRecord
  2
*Active
 70
     0
 10
0.0
 20
0.0
 11
1.0
 21
1.0
 12
22.0
 22
17.0
 13
0.0
 23
0.0
 14
0.5
 24
0.5
 15
0.5
 25
0.5
 16
0.0
 26
0.0
 36
1.0
 17
0.0
 27
0.0
 37
0.0
 40
34.0
 41
1.2941176471
 42
50.0
 43
0.0
 44
0.0
 50
0.0
 51
0.0
 71
     0
 72
  2000
 73
     1
 74
     3
 75
     0
 76
     0
 77
     0
 78
     0
281
     0
 65
     1
110
0.0
120
0.0
130
0.0
111
1.0
121
0.0
131
0.0
112
0.0
122
1.0
132
0.0
 79
     0
146
0.0
  0
ENDTAB
  0
TABLE
  2
LTYPE
  5
5
330
0
100
AcDbSymbolTable
 70
     6
  0
LTYPE
  5
14
330
5
100
AcDbSymbolTableRecord
100
AcDbLinetypeTableRecord
  2
ByBlock
 70
     0
  3

 72
    65
 73
     0
 40
0.0
  0
LTYPE
  5
15
330
5
100
AcDbSymbolTableRecord
100
AcDbLinetypeTableRecord
  2
ByLayer
 70
     0
  3

 72
    65
 73
     0
 40
0.0
  0
LTYPE
  5
16
330
5
100
AcDbSymbolTableRecord
100
AcDbLinetypeTableRecord
  2
Continuous
 70
     0
  3
Solid line
 72
    65
 73
     0
 40
0.0
  0
LTYPE
  5
5E
330
5
100
AcDbSymbolTableRecord
100
AcDbLinetypeTableRecord
  2
HIDDEN
 70
     0
  3
Hidden __ __ __ __ __ __ __ __ __ __ __ __ __ __
 72
    65
 73
     2
 40
0.075
 49
0.05
 74
     0
 49
-0.025
 74
     0
  0
LTYPE
  5
5F
330
5
100
AcDbSymbolTableRecord
100
AcDbLinetypeTableRecord
  2
PHANTOM
 70
     0
  3
Phantom ______  __  __  ______  __  __  ______
 72
    65
 73
     6
 40
0.5
 49
0.25
 74
     0
 49
-0.05
 74
     0
 49
0.05
 74
     0
 49
-0.05
 74
     0
 49
0.05
 74
     0
 49
-0.05
 74
     0
  0
LTYPE
  5
60
330
5
100
AcDbSymbolTableRecord
100
AcDbLinetypeTableRecord
  2
CENTER
 70
     0
  3
Center ____ _ ____ _ ____ _ ____ _ ____ _ ____
 72
    65
 73
     4
 40
0.4
 49
0.25
 74
     0
 49
-0.05
 74
     0
 49
0.05
 74
     0
 49
-0.05
 74
     0
  0
LTYPE
  5
61
330
5
100
AcDbSymbolTableRecord
100
AcDbLinetypeTableRecord
  2
CENTERX2
 70
     0
  3
Center (2x) ________  __  ________  __  _____
 72
    65
 73
     4
 40
0.8
 49
0.5
 74
     0
 49
-0.1
 74
     0
 49
0.1
 74
     0
 49
-0.1
 74
     0
  0
LTYPE
  5
62
330
5
100
AcDbSymbolTableRecord
100
AcDbLinetypeTableRecord
  2
DOT2
 70
     0
  3
Dot (.5x) ........................................
 72
    65
 73
     2
 40
0.025
 49
0.0
 74
     0
 49
-0.025
 74
     0
  0
ENDTAB
  0
TABLE
  2
LAYER
  5
2
330
0
100
AcDbSymbolTable
 70
    12
  0
LAYER
  5
10
330
2
100
AcDbSymbolTableRecord
100
AcDbLayerTableRecord
  2
0
 70
     0
 62
     7
  6
Continuous
370
    -3
390
F
  0
LAYER
  5
63
330
2
100
AcDbSymbolTableRecord
100
AcDbLayerTableRecord
  2
SLD-0
 70
     0
 62
     7
  6
Continuous
370
    -3
390
F
  0
LAYER
  5
64
330
2
100
AcDbSymbolTableRecord
100
AcDbLayerTableRecord
  2
DIM
 70
     0
 62
     7
  6
Continuous
370
    -3
390
F
  0
LAYER
  5
65
330
2
100
AcDbSymbolTableRecord
100
AcDbLayerTableRecord
  2
CEN
 70
     0
 62
     1
  6
CENTER
370
    -3
390
F
  0
LAYER
  5
66
330
2
100
AcDbSymbolTableRecord
100
AcDbLayerTableRecord
  2
HAT
 70
     0
 62
     4
  6
Continuous
370
    -3
390
F
  0
LAYER
  5
67
330
2
100
AcDbSymbolTableRecord
100
AcDbLayerTableRecord
  2
OBJ
 70
     0
 62
     5
  6
Continuous
370
    -3
390
F
  0
LAYER
  5
68
330
2
100
AcDbSymbolTableRecord
100
AcDbLayerTableRecord
  2
SLD-DEFPOINTS
 70
     0
 62
     7
  6
Continuous
370
    -3
390
F
  0
LAYER
  5
69
330
2
100
AcDbSymbolTableRecord
100
AcDbLayerTableRecord
  2
HID
 70
     0
 62
     4
  6
HIDDEN
370
    -3
390
F
  0
LAYER
  5
6A
330
2
100
AcDbSymbolTableRecord
100
AcDbLayerTableRecord
  2
NOTE
 70
     0
 62
     7
  6
Continuous
370
    -3
390
F
  0
LAYER
  5
6B
330
2
100
AcDbSymbolTableRecord
100
AcDbLayerTableRecord
  2
VP
 70
     0
 62
    -5
  6
Continuous
290
     0
370
    -3
390
F
  0
LAYER
  5
6C
330
2
100
AcDbSymbolTableRecord
100
AcDbLayerTableRecord
  2
TITLE
 70
     0
 62
     7
  6
Continuous
370
    -3
390
F
  0
LAYER
  5
6D
330
2
100
AcDbSymbolTableRecord
100
AcDbLayerTableRecord
  2
THICK_TITLE
 70
     0
 62
     7
  6
Continuous
370
   100
390
F
  0
ENDTAB
  0
TABLE
  2
STYLE
  5
3
330
0
100
AcDbSymbolTable
 70
     2
  0
STYLE
  5
11
330
3
100
AcDbSymbolTableRecord
100
AcDbTextStyleTableRecord
  2
Standard
 70
     0
 40
0.0
 41
1.0
 50
0.0
 71
     0
 42
0.5
  3
txt
  4

  0
STYLE
  5
7A
330
3
100
AcDbSymbolTableRecord
100
AcDbTextStyleTableRecord
  2
SLDTEXTSTYLE0
 70
     0
 40
0.0
 41
0.75
 50
0.0
 71
     0
 42
0.5
  3
TXT
  4

  0
ENDTAB
  0
TABLE
  2
VIEW
  5
6
330
0
100
AcDbSymbolTable
 70
     0
  0
ENDTAB
  0
TABLE
  2
UCS
  5
7
330
0
100
AcDbSymbolTable
 70
     0
  0
ENDTAB
  0
TABLE
  2
APPID
  5
9
330
0
100
AcDbSymbolTable
 70
     1
  0
APPID
  5
12
330
9
100
AcDbSymbolTableRecord
100
AcDbRegAppTableRecord
  2
ACAD
 70
     0
  0
ENDTAB
  0
TABLE
  2
DIMSTYLE
  5
A
330
0
100
AcDbSymbolTable
 70
     4
100
AcDbDimStyleTable
  0
DIMSTYLE
105
27
330
A
100
AcDbSymbolTableRecord
100
AcDbDimStyleTableRecord
  2
Standard
 70
     0
178
     0
340
11
  0
DIMSTYLE
105
7B
102
{ACAD_REACTORS
330
79
102
}
330
A
100
AcDbSymbolTableRecord
100
AcDbDimStyleTableRecord
  2
SLDDIMSTYLE0
 70
     0
 41
0.52
 44
0.0
 45
0.000000001
 78
    12
 79
     3
140
0.5
147
0.125
148
0.000000001
170
     1
172
     1
173
     1
178
     0
271
     6
272
     0
276
     2
277
     5
284
    12
289
     0
340
7A
  0
DIMSTYLE
105
91
102
{ACAD_REACTORS
330
90
330
A5
102
}
330
A
100
AcDbSymbolTableRecord
100
AcDbDimStyleTableRecord
  2
SLDDIMSTYLE1
 70
     0
 41
0.52
 44
0.0
 45
0.000000001
 78
    12
 79
     3
140
0.5
147
0.125
148
0.000000001
170
     1
173
     1
178
     0
271
     0
272
     0
276
     2
277
     5
284
    12
340
7A
  0
DIMSTYLE
105
391
102
{ACAD_REACTORS
330
390
330
3A1
102
}
330
A
100
AcDbSymbolTableRecord
100
AcDbDimStyleTableRecord
  2
SLDDIMSTYLE2
 70
     0
 41
0.52
 44
0.0
 45
0.000000001
 78
    12
 79
     3
140
0.5
141
0.0
147
0.125
148
0.000000001
170
     1
173
     1
178
     0
271
     0
272
     0
276
     2
277
     5
284
    12
340
7A
  0
ENDTAB
  0
TABLE
  2
BLOCK_RECORD
  5
1
330
0
100
AcDbSymbolTable
 70
     6
  0
BLOCK_RECORD
  5
1F
330
1
100
AcDbSymbolTableRecord
100
AcDbBlockTableRecord
  2
*Model_Space
340
22
  0
BLOCK_RECORD
  5
1B
330
1
100
AcDbSymbolTableRecord
100
AcDbBlockTableRecord
  2
*Paper_Space
340
1E
  0
BLOCK_RECORD
  5
23
330
1
100
AcDbSymbolTableRecord
100
AcDbBlockTableRecord
  2
*Paper_Space0
340
26
  0
BLOCK_RECORD
  5
7C
330
1
100
AcDbSymbolTableRecord
100
AcDbBlockTableRecord
  2
_D
340
0
  0
BLOCK_RECORD
  5
92
330
1
100
AcDbSymbolTableRecord
100
AcDbBlockTableRecord
  2
_D_1
340
0
  0
BLOCK_RECORD
  5
A6
330
1
100
AcDbSymbolTableRecord
100
AcDbBlockTableRecord
  2
_D_2
340
0
  0
BLOCK_RECORD
  5
392
330
1
100
AcDbSymbolTableRecord
100
AcDbBlockTableRecord
  2
_D_3
340
0
  0
BLOCK_RECORD
  5
3A2
330
1
100
AcDbSymbolTableRecord
100
AcDbBlockTableRecord
  2
_D_4
340
0
  0
ENDTAB
  0
ENDSEC
  0
SECTION
  2
BLOCKS
  0
BLOCK
  5
20
330
1F
100
AcDbEntity
  8
0
100
AcDbBlockBegin
  2
*Model_Space
 70
     0
 10
0.0
 20
0.0
 30
0.0
  3
*Model_Space
  1

  0
ENDBLK
  5
21
330
1F
100
AcDbEntity
  8
0
100
AcDbBlockEnd
  0
BLOCK
  5
1C
330
1B
100
AcDbEntity
 67
     1
  8
0
100
AcDbBlockBegin
  2
*Paper_Space
 70
     0
 10
0.0
 20
0.0
 30
0.0
  3
*Paper_Space
  1

  0
ENDBLK
  5
1D
330
1B
100
AcDbEntity
 67
     1
  8
0
100
AcDbBlockEnd
  0
BLOCK
  5
24
330
23
100
AcDbEntity
  8
0
100
AcDbBlockBegin
  2
*Paper_Space0
 70
     0
 10
0.0
 20
0.0
 30
0.0
  3
*Paper_Space0
  1

  0
ENDBLK
  5
25
330
23
100
AcDbEntity
  8
0
100
AcDbBlockEnd
  0
BLOCK
  5
7D
330
7C
100
AcDbEntity
  8
0
100
AcDbBlockBegin
  2
_D
 70
     0
 10
0.0
 20
0.0
 30
0.0
  3
_D
  1

  0
SOLID
  5
7F
330
7C
100
AcDbEntity
  8
0
  6
Continuous
 62
     7
370
    18
100
AcDbTrace
 10
8.4107448592
 20
16.645574097
 30
0.0
 11
8.4907448592
 21
17.165574097
 31
0.0
 12
8.3307448592
 22
17.165574097
 32
0.0
 13
8.3307448592
 23
17.165574097
 33
0.0
  0
SOLID
  5
80
330
7C
100
AcDbEntity
  8
0
  6
Continuous
 62
     7
370
    18
100
AcDbTrace
 10
8.4107448592
 20
16.395574097
 30
0.0
 11
8.3307448592
 21
15.875574097
 31
0.0
 12
8.4907448592
 22
15.875574097
 32
0.0
 13
8.4907448592
 23
15.875574097
 33
0.0
  0
LINE
  5
81
330
7C
100
AcDbEntity
  8
0
  6
Continuous
 62
     7
370
     0
100
AcDbLine
 10
4.9977839094
 20
19.1664396139
 30
0.0
 11
4.8454401609
 21
19.1664396139
 31
0.0
  0
LINE
  5
82
330
7C
100
AcDbEntity
  8
0
  6
Continuous
 62
     7
370
     0
100
AcDbLine
 10
4.8454401609
 20
19.1664396139
 30
0.0
 11
4.8454401609
 21
18.37268959
 31
0.0
  0
LINE
  5
83
330
7C
100
AcDbEntity
  8
0
  6
Continuous
 62
     7
370
     0
100
AcDbLine
 10
4.8454401609
 20
18.37268959
 30
0.0
 11
4.9977839094
 21
18.37268959
 31
0.0
  0
LINE
  5
84
330
7C
100
AcDbEntity
  8
0
  6
Continuous
 62
     7
370
     0
100
AcDbLine
 10
6.6172283214
 20
19.1664396139
 30
0.0
 11
6.7695720698
 21
19.1664396139
 31
0.0
  0
LINE
  5
85
330
7C
100
AcDbEntity
  8
0
  6
Continuous
 62
     7
370
     0
100
AcDbLine
 10
6.7695720698
 20
19.1664396139
 30
0.0
 11
6.7695720698
 21
18.37268959
 31
0.0
  0
LINE
  5
86
330
7C
100
AcDbEntity
  8
0
  6
Continuous
 62
     7
370
     0
100
AcDbLine
 10
6.7695720698
 20
18.37268959
 30
0.0
 11
6.6172283214
 21
18.37268959
 31
0.0
  0
LINE
  5
87
330
7C
100
AcDbEntity
  8
0
  6
Continuous
 62
     7
370
     0
100
AcDbLine
 10
9.7855480088
 20
16.645574097
 30
0.0
 11
7.9107448592
 21
16.645574097
 31
0.0
  0
LINE
  5
88
330
7C
100
AcDbEntity
  8
0
  6
Continuous
 62
     7
370
     0
100
AcDbLine
 10
9.7855480088
 20
16.395574097
 30
0.0
 11
7.9107448592
 21
16.395574097
 31
0.0
  0
LINE
  5
89
330
7C
100
AcDbEntity
  8
0
  6
Continuous
 62
     7
370
     0
100
AcDbLine
 10
7.4107448592
 20
19.1702591364
 30
0.0
 11
8.4107448592
 21
19.1702591364
 31
0.0
  0
LINE
  5
8A
330
7C
100
AcDbEntity
  8
0
  6
Continuous
 62
     7
370
     0
100
AcDbLine
 10
8.4107448592
 20
19.1702591364
 30
0.0
 11
8.4107448592
 21
16.645574097
 31
0.0
  0
LINE
  5
8B
330
7C
100
AcDbEntity
  8
0
  6
Continuous
 62
     7
370
     0
100
AcDbLine
 10
8.4107448592
 20
16.395574097
 30
0.0
 11
8.4107448592
 21
15.395574097
 31
0.0
  0
MTEXT
  5
8C
330
7C
100
AcDbEntity
  8
0
  6
Continuous
 62
     7
370
    18
100
AcDbMText
 10
4.6958741897
 20
19.9201749239
 30
0.0
 40
0.5
 41
0.0
 71
     1
 72
     1
  1

  7
SLDTEXTSTYLE0
 73
     1
 44
1.0
  0
MTEXT
  5
8D
330
7C
100
AcDbEntity
  8
0
  6
Continuous
 62
     7
370
    18
100
AcDbMText
 10
5.1891032692
 20
19.912535998
 30
0.0
 40
0.5
 41
0.0
 71
     1
 72
     1
  1
1/4"
  7
SLDTEXTSTYLE0
 73
     1
 44
1.0
  0
MTEXT
  5
8E
330
7C
100
AcDbEntity
  8
0
  6
Continuous
 62
     7
370
    18
100
AcDbMText
 10
4.9977839094
 20
19.0172235149
 30
0.0
 40
0.5
 41
0.0
 71
     1
 72
     1
  1
6mm
  7
SLDTEXTSTYLE0
 73
     1
 44
1.0
  0
MTEXT
  5
8F
330
7C
100
AcDbEntity
  8
0
  6
Continuous
 62
     7
370
    18
100
AcDbMText
 10
7.1094157083
 20
19.9201749239
 30
0.0
 40
0.5
 41
0.0
 71
     1
 72
     1
  1

  7
SLDTEXTSTYLE0
 73
     1
 44
1.0
  0
ENDBLK
  5
7E
330
7C
100
AcDbEntity
  8
0
100
AcDbBlockEnd
  0
BLOCK
  5
93
330
92
100
AcDbEntity
  8
0
100
AcDbBlockBegin
  2
_D_1
 70
     0
 10
0.0
 20
0.0
 30
0.0
  3
_D_1
  1

  0
SOLID
  5
95
330
92
100
AcDbEntity
  8
0
  6
Continuous
 62
     7
370
    18
100
AcDbTrace
 10
19.4501149379
 20
16.645574097
 30
0.0
 11
19.3701149379
 21
16.125574097
 31
0.0
 12
19.5301149379
 22
16.125574097
 32
0.0
 13
19.5301149379
 23
16.125574097
 33
0.0
  0
SOLID
  5
96
330
92
100
AcDbEntity
  8
0
  6
Continuous
 62
     7
370
    18
100
AcDbTrace
 10
19.4501149379
 20
4.645574097
 30
0.0
 11
19.5301149379
 21
5.165574097
 31
0.0
 12
19.3701149379
 22
5.165574097
 32
0.0
 13
19.3701149379
 23
5.165574097
 33
0.0
  0
LINE
  5
97
330
92
100
AcDbEntity
  8
0
  6
Continuous
 62
     7
370
     0
100
AcDbLine
 10
18.2709483598
 20
10.6417545745
 30
0.0
 11
18.1186046113
 21
10.6417545745
 31
0.0
  0
LINE
  5
98
330
92
100
AcDbEntity
  8
0
  6
Continuous
 62
     7
370
     0
100
AcDbLine
 10
18.1186046113
 20
10.6417545745
 30
0.0
 11
18.1186046113
 21
9.8480045506
 31
0.0
  0
LINE
  5
99
330
92
100
AcDbEntity
  8
0
  6
Continuous
 62
     7
370
     0
100
AcDbLine
 10
18.1186046113
 20
9.8480045506
 30
0.0
 11
18.2709483598
 21
9.8480045506
 31
0.0
  0
LINE
  5
9A
330
92
100
AcDbEntity
  8
0
  6
Continuous
 62
     7
370
     0
100
AcDbLine
 10
20.6292816628
 20
10.6417545745
 30
0.0
 11
20.7816254112
 21
10.6417545745
 31
0.0
  0
LINE
  5
9B
330
92
100
AcDbEntity
  8
0
  6
Continuous
 62
     7
370
     0
100
AcDbLine
 10
20.7816254112
 20
10.6417545745
 30
0.0
 11
20.7816254112
 21
9.8480045506
 31
0.0
  0
LINE
  5
9C
330
92
100
AcDbEntity
  8
0
  6
Continuous
 62
     7
370
     0
100
AcDbLine
 10
20.7816254112
 20
9.8480045506
 30
0.0
 11
20.6292816628
 21
9.8480045506
 31
0.0
  0
LINE
  5
9D
330
92
100
AcDbEntity
  8
0
  6
Continuous
 62
     7
370
     0
100
AcDbLine
 10
16.1855480088
 20
16.645574097
 30
0.0
 11
19.9501149379
 21
16.645574097
 31
0.0
  0
LINE
  5
9E
330
92
100
AcDbEntity
  8
0
  6
Continuous
 62
     7
370
     0
100
AcDbLine
 10
16.1855480088
 20
4.645574097
 30
0.0
 11
19.9501149379
 21
4.645574097
 31
0.0
  0
LINE
  5
9F
330
92
100
AcDbEntity
  8
0
  6
Continuous
 62
     7
370
     0
100
AcDbLine
 10
19.4501149379
 20
16.645574097
 30
0.0
 11
19.4501149379
 21
11.5447059835
 31
0.0
  0
LINE
  5
A0
330
92
100
AcDbEntity
  8
0
  6
Continuous
 62
     7
370
     0
100
AcDbLine
 10
19.4501149379
 20
4.645574097
 30
0.0
 11
19.4501149379
 21
9.7464422105
 31
0.0
  0
MTEXT
  5
A1
330
92
100
AcDbEntity
  8
0
  6
Continuous
 62
     7
370
    18
100
AcDbMText
 10
17.9690386401
 20
11.3954898845
 30
0.0
 40
0.5
 41
0.0
 71
     1
 72
     1
  1

  7
SLDTEXTSTYLE0
 73
     1
 44
1.0
  0
MTEXT
  5
A2
330
92
100
AcDbEntity
  8
0
  6
Continuous
 62
     7
370
    18
100
AcDbMText
 10
18.9775455471
 20
11.3878509586
 30
0.0
 40
0.5
 41
0.0
 71
     1
 72
     1
  1
12"
  7
SLDTEXTSTYLE0
 73
     1
 44
1.0
  0
MTEXT
  5
A3
330
92
100
AcDbEntity
  8
0
  6
Continuous
 62
     7
370
    18
100
AcDbMText
 10
18.2709483598
 20
10.4925384755
 30
0.0
 40
0.5
 41
0.0
 71
     1
 72
     1
  1
305mm
  7
SLDTEXTSTYLE0
 73
     1
 44
1.0
  0
MTEXT
  5
A4
330
92
100
AcDbEntity
  8
0
  6
Continuous
 62
     7
370
    18
100
AcDbMText
 10
21.1214690497
 20
11.3954898845
 30
0.0
 40
0.5
 41
0.0
 71
     1
 72
     1
  1

  7
SLDTEXTSTYLE0
 73
     1
 44
1.0
  0
ENDBLK
  5
94
330
92
100
AcDbEntity
  8
0
100
AcDbBlockEnd
  0
BLOCK
  5
A7
330
A6
100
AcDbEntity
  8
0
100
AcDbBlockBegin
  2
_D_2
 70
     0
 10
0.0
 20
0.0
 30
0.0
  3
_D_2
  1

  0
SOLID
  5
A9
330
A6
100
AcDbEntity
  8
0
  6
Continuous
 62
     7
370
    18
100
AcDbTrace
 10
9.9855480088
 20
3.0707709474
 30
0.0
 11
10.5055480088
 21
2.9907709474
 31
0.0
 12
10.5055480088
 22
3.1507709474
 32
0.0
 13
10.5055480088
 23
3.1507709474
 33
0.0
  0
SOLID
  5
AA
330
A6
100
AcDbEntity
  8
0
  6
Continuous
 62
     7
370
    18
100
AcDbTrace
 10
15.9855480088
 20
3.0707709474
 30
0.0
 11
15.4655480088
 21
3.1507709474
 31
0.0
 12
15.4655480088
 22
2.9907709474
 32
0.0
 13
15.4655480088
 23
2.9907709474
 33
0.0
  0
LINE
  5
AB
330
A6
100
AcDbEntity
  8
0
  6
Continuous
 62
     7
370
     0
100
AcDbLine
 10
11.806381394
 20
3.0707708741
 30
0.0
 11
11.6540376455
 21
3.0707708741
 31
0.0
  0
LINE
  5
AC
330
A6
100
AcDbEntity
  8
0
  6
Continuous
 62
     7
370
     0
100
AcDbLine
 10
11.6540376455
 20
3.0707708741
 30
0.0
 11
11.6540376455
 21
2.2770208502
 31
0.0
  0
LINE
  5
AD
330
A6
100
AcDbEntity
  8
0
  6
Continuous
 62
     7
370
     0
100
AcDbLine
 10
11.6540376455
 20
2.2770208502
 30
0.0
 11
11.806381394
 21
2.2770208502
 31
0.0
  0
LINE
  5
AE
330
A6
100
AcDbEntity
  8
0
  6
Continuous
 62
     7
370
     0
100
AcDbLine
 10
14.164714697
 20
3.0707708741
 30
0.0
 11
14.3170584454
 21
3.0707708741
 31
0.0
  0
LINE
  5
AF
330
A6
100
AcDbEntity
  8
0
  6
Continuous
 62
     7
370
     0
100
AcDbLine
 10
14.3170584454
 20
3.0707708741
 30
0.0
 11
14.3170584454
 21
2.2770208502
 31
0.0
  0
LINE
  5
B0
330
A6
100
AcDbEntity
  8
0
  6
Continuous
 62
     7
370
     0
100
AcDbLine
 10
14.3170584454
 20
2.2770208502
 30
0.0
 11
14.164714697
 21
2.2770208502
 31
0.0
  0
LINE
  5
B1
330
A6
100
AcDbEntity
  8
0
  6
Continuous
 62
     7
370
     0
100
AcDbLine
 10
9.9855480088
 20
4.445574097
 30
0.0
 11
9.9855480088
 21
2.5707709474
 31
0.0
  0
LINE
  5
B2
330
A6
100
AcDbEntity
  8
0
  6
Continuous
 62
     7
370
     0
100
AcDbLine
 10
15.9855480088
 20
4.445574097
 30
0.0
 11
15.9855480088
 21
2.5707709474
 31
0.0
  0
LINE
  5
B3
330
A6
100
AcDbEntity
  8
0
  6
Continuous
 62
     7
370
     0
100
AcDbLine
 10
9.9855480088
 20
3.0707709474
 30
0.0
 11
11.4003249577
 21
3.0707709474
 31
0.0
  0
LINE
  5
B4
330
A6
100
AcDbEntity
  8
0
  6
Continuous
 62
     7
370
     0
100
AcDbLine
 10
15.9855480088
 20
3.0707709474
 30
0.0
 11
14.5707710599
 21
3.0707709474
 31
0.0
  0
MTEXT
  5
B5
330
A6
100
AcDbEntity
  8
0
  6
Continuous
 62
     7
370
    18
100
AcDbMText
 10
12.3206695629
 20
3.8168672949
 30
0.0
 40
0.5
 41
0.0
 71
     1
 72
     1
  1
%%c
  7
SLDTEXTSTYLE0
 73
     1
 44
1.0
  0
MTEXT
  5
B6
330
A6
100
AcDbEntity
  8
0
  6
Continuous
 62
     7
370
    18
100
AcDbMText
 10
13.0747320452
 20
3.8168672949
 30
0.0
 40
0.5
 41
0.0
 71
     1
 72
     1
  1
6"
  7
SLDTEXTSTYLE0
 73
     1
 44
1.0
  0
MTEXT
  5
B7
330
A6
100
AcDbEntity
  8
0
  6
Continuous
 62
     7
370
    18
100
AcDbMText
 10
11.806381394
 20
2.9215547751
 30
0.0
 40
0.5
 41
0.0
 71
     1
 72
     1
  1
152mm
  7
SLDTEXTSTYLE0
 73
     1
 44
1.0
  0
ENDBLK
  5
A8
330
A6
100
AcDbEntity
  8
0
100
AcDbBlockEnd
  0
BLOCK
  5
393
330
392
100
AcDbEntity
  8
0
100
AcDbBlockBegin
  2
_D_3
 70
     0
 10
0.0
 20
0.0
 30
0.0
  3
_D_3
  1

  0
SOLID
  5
395
330
392
100
AcDbEntity
  8
0
  6
Continuous
 62
     7
370
    18
100
AcDbTrace
 10
10.8642276653
 20
27.5358255954
 30
0.0
 11
10.5531006815
 21
27.9600896641
 31
0.0
 12
10.4399635965
 22
27.8469525792
 32
0.0
 13
10.4399635965
 23
27.8469525792
 33
0.0
  0
LINE
  5
396
330
392
100
AcDbEntity
  8
0
  6
Continuous
 62
     7
370
     0
100
AcDbLine
 10
5.0922232194
 20
29.6448092414
 30
0.0
 11
4.9398794709
 21
29.6448092414
 31
0.0
  0
LINE
  5
397
330
392
100
AcDbEntity
  8
0
  6
Continuous
 62
     7
370
     0
100
AcDbLine
 10
4.9398794709
 20
29.6448092414
 30
0.0
 11
4.9398794709
 21
28.8510592175
 31
0.0
  0
LINE
  5
398
330
392
100
AcDbEntity
  8
0
  6
Continuous
 62
     7
370
     0
100
AcDbLine
 10
4.9398794709
 20
28.8510592175
 30
0.0
 11
5.0922232194
 21
28.8510592175
 31
0.0
  0
LINE
  5
399
330
392
100
AcDbEntity
  8
0
  6
Continuous
 62
     7
370
     0
100
AcDbLine
 10
7.4505565224
 20
29.6448092414
 30
0.0
 11
7.6029002708
 21
29.6448092414
 31
0.0
  0
LINE
  5
39A
330
392
100
AcDbEntity
  8
0
  6
Continuous
 62
     7
370
     0
100
AcDbLine
 10
7.6029002708
 20
29.6448092414
 30
0.0
 11
7.6029002708
 21
28.8510592175
 31
0.0
  0
LINE
  5
39B
330
392
100
AcDbEntity
  8
0
  6
Continuous
 62
     7
370
     0
100
AcDbLine
 10
7.6029002708
 20
28.8510592175
 30
0.0
 11
7.4505565224
 21
28.8510592175
 31
0.0
  0
LINE
  5
39C
330
392
100
AcDbEntity
  8
0
  6
Continuous
 62
     7
370
     0
100
AcDbLine
 10
10.8642276653
 20
27.5358255954
 30
0.0
 11
8.7552439459
 21
29.6448093147
 31
0.0
  0
LINE
  5
39D
330
392
100
AcDbEntity
  8
0
  6
Continuous
 62
     7
370
     0
100
AcDbLine
 10
8.7552439459
 20
29.6448093147
 30
0.0
 11
7.7552439459
 21
29.6448093147
 31
0.0
  0
MTEXT
  5
39E
330
392
100
AcDbEntity
  8
0
  6
Continuous
 62
     7
370
    18
100
AcDbMText
 10
5.6065113883
 20
30.3909056622
 30
0.0
 40
0.5
 41
0.0
 71
     1
 72
     1
  1
%%c
  7
SLDTEXTSTYLE0
 73
     1
 44
1.0
  0
MTEXT
  5
39F
330
392
100
AcDbEntity
  8
0
  6
Continuous
 62
     7
370
    18
100
AcDbMText
 10
6.3605738706
 20
30.3909056622
 30
0.0
 40
0.5
 41
0.0
 71
     1
 72
     1
  1
6"
  7
SLDTEXTSTYLE0
 73
     1
 44
1.0
  0
MTEXT
  5
3A0
330
392
100
AcDbEntity
  8
0
  6
Continuous
 62
     7
370
    18
100
AcDbMText
 10
5.0922232194
 20
29.4955931424
 30
0.0
 40
0.5
 41
0.0
 71
     1
 72
     1
  1
152mm
  7
SLDTEXTSTYLE0
 73
     1
 44
1.0
  0
ENDBLK
  5
394
330
392
100
AcDbEntity
  8
0
100
AcDbBlockEnd
  0
BLOCK
  5
3A3
330
3A2
100
AcDbEntity
  8
0
100
AcDbBlockBegin
  2
_D_4
 70
     0
 10
0.0
 20
0.0
 30
0.0
  3
_D_4
  1

  0
SOLID
  5
3A5
330
3A2
100
AcDbEntity
  8
0
  6
Continuous
 62
     7
370
    18
100
AcDbTrace
 10
13.5413907849
 20
26.1095871235
 30
0.0
 11
13.9286321257
 21
26.4657389788
 31
0.0
 12
13.8036735869
 22
26.56566577
 32
0.0
 13
13.8036735869
 23
26.56566577
 33
0.0
  0
LINE
  5
3A6
330
3A2
100
AcDbEntity
  8
0
  6
Continuous
 62
     7
370
     0
100
AcDbLine
 10
17.4479621068
 20
29.3632450211
 30
0.0
 11
17.2956183583
 21
29.3632450211
 31
0.0
  0
LINE
  5
3A7
330
3A2
100
AcDbEntity
  8
0
  6
Continuous
 62
     7
370
     0
100
AcDbLine
 10
17.2956183583
 20
29.3632450211
 30
0.0
 11
17.2956183583
 21
28.5694949972
 31
0.0
  0
LINE
  5
3A8
330
3A2
100
AcDbEntity
  8
0
  6
Continuous
 62
     7
370
     0
100
AcDbLine
 10
17.2956183583
 20
28.5694949972
 30
0.0
 11
17.4479621068
 21
28.5694949972
 31
0.0
  0
LINE
  5
3A9
330
3A2
100
AcDbEntity
  8
0
  6
Continuous
 62
     7
370
     0
100
AcDbLine
 10
19.4368510376
 20
29.3632450211
 30
0.0
 11
19.5891947861
 21
29.3632450211
 31
0.0
  0
LINE
  5
3AA
330
3A2
100
AcDbEntity
  8
0
  6
Continuous
 62
     7
370
     0
100
AcDbLine
 10
19.5891947861
 20
29.3632450211
 30
0.0
 11
19.5891947861
 21
28.5694949972
 31
0.0
  0
LINE
  5
3AB
330
3A2
100
AcDbEntity
  8
0
  6
Continuous
 62
     7
370
     0
100
AcDbLine
 10
19.5891947861
 20
28.5694949972
 30
0.0
 11
19.4368510376
 21
28.5694949972
 31
0.0
  0
LINE
  5
3AC
330
3A2
100
AcDbEntity
  8
0
  6
Continuous
 62
     7
370
     0
100
AcDbLine
 10
13.5413907849
 20
26.1095871235
 30
0.0
 11
16.1432746099
 21
29.3632450944
 31
0.0
  0
LINE
  5
3AD
330
3A2
100
AcDbEntity
  8
0
  6
Continuous
 62
     7
370
     0
100
AcDbLine
 10
16.1432746099
 20
29.3632450944
 30
0.0
 11
17.1432746099
 21
29.3632450944
 31
0.0
  0
MTEXT
  5
3AE
330
3A2
100
AcDbEntity
  8
0
  6
Continuous
 62
     7
370
    18
100
AcDbMText
 10
17.1698891691
 20
30.1093414418
 30
0.0
 40
0.5
 41
0.0
 71
     1
 72
     1
  1
%%c
  7
SLDTEXTSTYLE0
 73
     1
 44
1.0
  0
MTEXT
  5
3AF
330
3A2
100
AcDbEntity
  8
0
  6
Continuous
 62
     7
370
    18
100
AcDbMText
 10
17.9239516515
 20
30.1093414418
 30
0.0
 40
0.5
 41
0.0
 71
     1
 72
     1
  1
1 3/4"
  7
SLDTEXTSTYLE0
 73
     1
 44
1.0
  0
MTEXT
  5
3B0
330
3A2
100
AcDbEntity
  8
0
  6
Continuous
 62
     7
370
    18
100
AcDbMText
 10
17.4479621068
 20
29.2140289221
 30
0.0
 40
0.5
 41
0.0
 71
     1
 72
     1
  1
45mm
  7
SLDTEXTSTYLE0
 73
     1
 44
1.0
  0
ENDBLK
  5
3A4
330
3A2
100
AcDbEntity
  8
0
100
AcDbBlockEnd
  0
ENDSEC
  0
SECTION
  2
ENTITIES
  0
LINE
  5
6E
330
1F
100
AcDbEntity
  8
0
  6
Continuous
 62
     7
370
    25
100
AcDbLine
 10
9.9855480088
 20
16.395574097
 30
0.0
 11
9.9855480088
 21
4.645574097
 31
0.0
  0
LINE
  5
6F
330
1F
100
AcDbEntity
  8
0
  6
Continuous
 62
     7
370
    25
100
AcDbLine
 10
15.9855480088
 20
4.645574097
 30
0.0
 11
15.9855480088
 21
16.395574097
 31
0.0
  0
LINE
  5
70
330
1F
100
AcDbEntity
  8
0
  6
Continuous
 62
     7
370
    25
100
AcDbLine
 10
15.9855480088
 20
16.395574097
 30
0.0
 11
15.9855480088
 21
16.645574097
 31
0.0
  0
LINE
  5
71
330
1F
100
AcDbEntity
  8
0
  6
Continuous
 62
     7
370
    25
100
AcDbLine
 10
9.9855480088
 20
16.645574097
 30
0.0
 11
9.9855480088
 21
16.395574097
 31
0.0
  0
LINE
  5
72
330
1F
100
AcDbEntity
  8
0
  6
Continuous
 62
     7
370
    25
100
AcDbLine
 10
12.7355480088
 20
16.650574097
 30
0.0
 11
12.7355480088
 21
16.645574097
 31
0.0
  0
LINE
  5
73
330
1F
100
AcDbEntity
  8
0
  6
Continuous
 62
     7
370
    25
100
AcDbLine
 10
13.2355480088
 20
16.645574097
 30
0.0
 11
13.2355480088
 21
16.650574097
 31
0.0
  0
LINE
  5
74
330
1F
100
AcDbEntity
  8
0
  6
Continuous
 62
     7
370
    25
100
AcDbLine
 10
15.9855480088
 20
16.395574097
 30
0.0
 11
9.9855480088
 21
16.395574097
 31
0.0
  0
LINE
  5
75
330
1F
100
AcDbEntity
  8
0
  6
Continuous
 62
     7
370
    25
100
AcDbLine
 10
15.9855480088
 20
4.645574097
 30
0.0
 11
9.9855480088
 21
4.645574097
 31
0.0
  0
LINE
  5
76
330
1F
100
AcDbEntity
  8
0
  6
Continuous
 62
     7
370
    25
100
AcDbLine
 10
12.9855480088
 20
16.645574097
 30
0.0
 11
15.9855480088
 21
16.645574097
 31
0.0
  0
LINE
  5
77
330
1F
100
AcDbEntity
  8
0
  6
Continuous
 62
     7
370
    25
100
AcDbLine
 10
9.9855480088
 20
16.645574097
 30
0.0
 11
12.9855480088
 21
16.645574097
 31
0.0
  0
LINE
  5
78
330
1F
100
AcDbEntity
  8
0
  6
Continuous
 62
     7
370
    25
100
AcDbLine
 10
12.7355480088
 20
16.650574097
 30
0.0
 11
13.2355480088
 21
16.650574097
 31
0.0
  0
DIMENSION
  5
79
330
1F
100
AcDbEntity
  8
0
  6
Continuous
 62
     7
370
    18
100
AcDbDimension
  2
_D
 10
8.4107448592
 20
16.395574097
 30
0.0
 11
8.4107448592
 21
19.1702591364
 31
0.0
 70
   160
  1
<>
 71
     2
 42
-1.0
  3
SLDDIMSTYLE0
100
AcDbAlignedDimension
 13
9.9855480088
 23
16.645574097
 33
0.0
 14
9.9855480088
 24
16.395574097
 34
0.0
 50
90.0
100
AcDbRotatedDimension
  0
DIMENSION
  5
90
330
1F
100
AcDbEntity
  8
0
  6
Continuous
 62
     7
370
    18
100
AcDbDimension
  2
_D_1
 10
19.4501149379
 20
4.645574097
 30
0.0
 11
19.4501149379
 21
10.645574097
 31
0.0
 70
   160
  1
<>
 71
     2
 42
-1.0
  3
SLDDIMSTYLE1
100
AcDbAlignedDimension
 13
15.9855480088
 23
16.645574097
 33
0.0
 14
15.9855480088
 24
4.645574097
 34
0.0
 50
90.0
100
AcDbRotatedDimension
  0
DIMENSION
  5
A5
330
1F
100
AcDbEntity
  8
0
  6
Continuous
 62
     7
370
    18
100
AcDbDimension
  2
_D_2
 10
15.9855480088
 20
3.0707709474
 30
0.0
 11
12.9855480088
 21
3.0707709474
 31
0.0
 70
   160
  1
%%c<>
 71
     2
 42
-1.0
  3
SLDDIMSTYLE1
100
AcDbAlignedDimension
 13
9.9855480088
 23
4.645574097
 33
0.0
 14
15.9855480088
 24
4.645574097
 34
0.0
100
AcDbRotatedDimension
  0
LINE
  5
B8
330
1F
100
AcDbEntity
  8
0
  6
Continuous
 62
     7
370
    25
100
AcDbLine
 10
32.660579033
 20
27.9392223956
 30
0.0
 11
32.660579033
 21
18.3448678559
 31
0.0
  0
LINE
  5
B9
330
1F
100
AcDbEntity
  8
0
  6
Continuous
 62
     7
370
    25
100
AcDbLine
 10
38.660579033
 20
18.3448678559
 30
0.0
 11
38.660579033
 21
27.9392223956
 31
0.0
  0
LINE
  5
BA
330
1F
100
AcDbEntity
  8
0
  6
Continuous
 62
     7
370
    25
100
AcDbLine
 10
38.660579033
 20
27.9392223956
 30
0.0
 11
38.660579033
 21
28.1433575985
 31
0.0
  0
LINE
  5
BB
330
1F
100
AcDbEntity
  8
0
  6
Continuous
 62
     7
370
    25
100
AcDbLine
 10
32.660579033
 20
28.1433575985
 30
0.0
 11
32.660579033
 21
27.9392223956
 31
0.0
  0
LINE
  5
BC
330
1F
100
AcDbEntity
  8
0
  6
Continuous
 62
     7
370
    25
100
AcDbLine
 10
34.360579033
 20
28.1433575985
 30
0.0
 11
34.360579033
 21
28.1106959661
 31
0.0
  0
LINE
  5
BD
330
1F
100
AcDbEntity
  8
0
  6
Continuous
 62
     7
370
    25
100
AcDbLine
 10
34.5332993358
 20
27.5108355361
 30
0.0
 11
34.5332993358
 21
27.4781739037
 31
0.0
  0
LINE
  5
BE
330
1F
100
AcDbEntity
  8
0
  6
Continuous
 62
     7
370
    25
100
AcDbLine
 10
34.8014625091
 20
27.4928268696
 30
0.0
 11
34.8014625091
 21
27.5254885021
 31
0.0
  0
LINE
  5
BF
330
1F
100
AcDbEntity
  8
0
  6
Continuous
 62
     7
370
    25
100
AcDbLine
 10
34.0632424857
 20
28.1624728805
 30
0.0
 11
34.0632424857
 21
28.129811248
 31
0.0
  0
LINE
  5
C0
330
1F
100
AcDbEntity
  8
0
  6
Continuous
 62
     7
370
    25
100
AcDbLine
 10
37.126158103
 20
28.467672353
 30
0.0
 11
37.126158103
 21
28.5003339855
 31
0.0
  0
LINE
  5
C1
330
1F
100
AcDbEntity
  8
0
  6
Continuous
 62
     7
370
    25
100
AcDbLine
 10
36.6526156702
 20
28.6825981127
 30
0.0
 11
36.6526156702
 21
28.6499364803
 31
0.0
  0
LINE
  5
C2
330
1F
100
AcDbEntity
  8
0
  6
Continuous
 62
     7
370
    25
100
AcDbLine
 10
36.9236524084
 20
28.6574492749
 30
0.0
 11
36.9236524084
 21
28.6901109074
 31
0.0
  0
LINE
  5
C3
330
1F
100
AcDbEntity
  8
0
  6
Continuous
 62
     7
370
    25
100
AcDbLine
 10
33.8637829492
 20
29.0403866749
 30
0.0
 11
33.8637829492
 21
29.0363039709
 31
0.0
  0
LINE
  5
C4
330
1F
100
AcDbEntity
  8
0
  6
Continuous
 62
     7
370
    25
100
AcDbLine
 10
34.3637829492
 20
29.0363039709
 30
0.0
 11
34.3637829492
 21
29.0403866749
 31
0.0
  0
LINE
  5
C5
330
1F
100
AcDbEntity
  8
0
  6
Continuous
 62
     7
370
    25
100
AcDbLine
 10
36.9573751169
 20
27.2544939303
 30
0.0
 11
36.9573751169
 21
27.2504112262
 31
0.0
  0
LINE
  5
C6
330
1F
100
AcDbEntity
  8
0
  6
Continuous
 62
     7
370
    25
100
AcDbLine
 10
37.4573751169
 20
27.2504112262
 30
0.0
 11
37.4573751169
 21
27.2544939303
 31
0.0
  0
LWPOLYLINE
  5
C7
330
1F
100
AcDbEntity
  8
0
  6
Continuous
 62
     7
370
    25
100
AcDbPolyline
 90
      119
 70
   128
 43
0.0
 10
38.660579033
 20
27.9392223956
 10
38.65997072
 20
27.9043477754
 10
38.6572676039
 20
27.8578727259
 10
38.6524040412
 20
27.8114563251
 10
38.6453835382
 20
27.7651320365
 10
38.6362111564
 20
27.7189332575
 10
38.6248935085
 20
27.6728932947
 10
38.6114387539
 20
27.6270453405
 10
38.5958565927
 20
27.5814224486
 10
38.5781582589
 20
27.5360575107
 10
38.5583565119
 20
27.4909832324
 10
38.5364656277
 20
27.4462321097
 10
38.5125013884
 20
27.4018364057
 10
38.486481071
 20
27.3578281273
 10
38.4584234346
 20
27.314239002
 10
38.4283487072
 20
27.2711004551
 10
38.396278571
 20
27.2284435872
 10
38.3622361469
 20
27.1862991514
 10
38.3262459775
 20
27.1446975316
 10
38.2883340097
 20
27.1036687203
 10
38.2485275761
 20
27.063242297
 10
38.2068553747
 20
27.0234474068
 10
38.1633474491
 20
26.9843127397
 10
38.1180351659
 20
26.9458665096
 10
38.0709511928
 20
26.9081364342
 10
38.0221294749
 20
26.8711497146
 10
37.9716052097
 20
26.8349330164
 10
37.9194148226
 20
26.7995124497
 10
37.8655959398
 20
26.7649135508
 10
37.8101873619
 20
26.7311612635
 10
37.7532290354
 20
26.6982799215
 10
37.694762024
 20
26.6662932303
 10
37.6348284793
 20
26.6352242507
 10
37.5734716099
 20
26.6050953815
 10
37.5107356509
 20
26.575928344
 10
37.4466658314
 20
26.5477441662
 10
37.3813083421
 20
26.5205631671
 10
37.3147103022
 20
26.4944049428
 10
37.2469197252
 20
26.4692883519
 10
37.1779854844
 20
26.4452315022
 10
37.1079572774
 20
26.4222517372
 10
37.0368855909
 20
26.400365624
 10
36.9648216635
 20
26.3795889415
 10
36.8918174494
 20
26.3599366683
 10
36.8179255805
 20
26.3414229728
 10
36.7431993288
 20
26.3240612022
 10
36.6676925677
 20
26.3078638735
 10
36.5914597336
 20
26.292842664
 10
36.5145557859
 20
26.2790084031
 10
36.4370361683
 20
26.2663710647
 10
36.3589567681
 20
26.2549397595
 10
36.2803738762
 20
26.2447227288
 10
36.2013441465
 20
26.2357273386
 10
36.121924555
 20
26.2279600741
 10
36.042172359
 20
26.2214265351
 10
35.9621450553
 20
26.2161314318
 10
35.8819003392
 20
26.2120785817
 10
35.8014960627
 20
26.2092709067
 10
35.7209901928
 20
26.207710431
 10
35.6404407698
 20
26.2073982796
 10
35.5599058654
 20
26.2083346775
 10
35.4794435408
 20
26.2105189497
 10
35.3991118048
 20
26.2139495214
 10
35.3189685722
 20
26.2186239194
 10
35.2390716219
 20
26.2245387736
 10
35.1594785551
 20
26.2316898199
 10
35.0802467539
 20
26.2400719026
 10
35.0014333403
 20
26.2496789789
 10
34.9230951342
 20
26.2605041224
 10
34.8452886132
 20
26.2725395289
 10
34.7680698715
 20
26.2857765215
 10
34.6914945794
 20
26.300205557
 10
34.6156179437
 20
26.315816233
 10
34.540494667
 20
26.332597295
 10
34.4661789092
 20
26.3505366448
 10
34.3927242478
 20
26.3696213491
 10
34.3201836395
 20
26.3898376489
 10
34.2486093821
 20
26.4111709693
 10
34.1780530767
 20
26.4336059303
 10
34.1085655905
 20
26.4571263574
 10
34.0401970201
 20
26.4817152937
 10
33.9729966554
 20
26.507355012
 10
33.9070129442
 20
26.5340270274
 10
33.8422934571
 20
26.5617121109
 10
33.7788848533
 20
26.5903903031
 10
33.7168328469
 20
26.6200409286
 10
33.6561821739
 20
26.6506426109
 10
33.5969765601
 20
26.682173288
 10
33.5392586895
 20
26.7146102278
 10
33.4830701734
 20
26.7479300453
 10
33.4284515208
 20
26.7821087186
 10
33.3754421085
 20
26.8171216069
 10
33.3240801535
 20
26.8529434677
 10
33.2744026849
 20
26.8895484755
 10
33.2264455174
 20
26.9269102402
 10
33.1802432254
 20
26.9650018258
 10
33.1358291183
 20
27.0037957706
 10
33.0932352161
 20
27.0432641062
 10
33.0524922268
 20
27.0833783782
 10
33.0136295237
 20
27.1241096663
 10
32.9766751247
 20
27.1654286056
 10
32.9416556719
 20
27.2073054074
 10
32.9085964124
 20
27.2497098808
 10
32.87752118
 20
27.2926114546
 10
32.8484523784
 20
27.3359791991
 10
32.8214109644
 20
27.3797818485
 10
32.7964164335
 20
27.4239878237
 10
32.7734868053
 20
27.4685652544
 10
32.7526386108
 20
27.5134820029
 10
32.7338868805
 20
27.5587056867
 10
32.7172451332
 20
27.6042037019
 10
32.7027253668
 20
27.6499432471
 10
32.6903380491
 20
27.6958913466
 10
32.6800921109
 20
27.7420148742
 10
32.6719949388
 20
27.7882805776
 10
32.6660523704
 20
27.8346551017
 10
32.66226869
 20
27.881105013
 10
32.6606466254
 20
27.9275968237
 10
32.660579033
 20
27.9392223956
  0
LWPOLYLINE
  5
C8
330
1F
100
AcDbEntity
  8
0
  6
Continuous
 62
     7
370
    25
100
AcDbPolyline
 90
      119
 70
   128
 43
0.0
 10
38.660579033
 20
18.3448678559
 10
38.65997072
 20
18.3099932357
 10
38.6572676039
 20
18.2635181863
 10
38.6524040412
 20
18.2171017854
 10
38.6453835382
 20
18.1707774969
 10
38.6362111564
 20
18.1245787178
 10
38.6248935085
 20
18.078538755
 10
38.6114387539
 20
18.0326908008
 10
38.5958565927
 20
17.987067909
 10
38.5781582589
 20
17.9417029711
 10
38.5583565119
 20
17.8966286927
 10
38.5364656277
 20
17.8518775701
 10
38.5125013884
 20
17.8074818661
 10
38.486481071
 20
17.7634735877
 10
38.4584234346
 20
17.7198844623
 10
38.4283487072
 20
17.6767459154
 10
38.396278571
 20
17.6340890475
 10
38.3622361469
 20
17.5919446117
 10
38.3262459775
 20
17.550342992
 10
38.2883340097
 20
17.5093141807
 10
38.2485275761
 20
17.4688877573
 10
38.2068553747
 20
17.4290928671
 10
38.1633474491
 20
17.3899582001
 10
38.1180351659
 20
17.35151197
 10
38.0709511928
 20
17.3137818945
 10
38.0221294749
 20
17.276795175
 10
37.9716052097
 20
17.2405784767
 10
37.9194148226
 20
17.20515791
 10
37.8655959398
 20
17.1705590111
 10
37.8101873619
 20
17.1368067239
 10
37.7532290354
 20
17.1039253819
 10
37.694762024
 20
17.0719386907
 10
37.6348284793
 20
17.040869711
 10
37.5734716099
 20
17.0107408418
 10
37.5107356509
 20
16.9815738044
 10
37.4466658314
 20
16.9533896265
 10
37.3813083421
 20
16.9262086274
 10
37.3147103022
 20
16.9000504031
 10
37.2469197252
 20
16.8749338123
 10
37.1779854844
 20
16.8508769625
 10
37.1079572774
 20
16.8278971975
 10
37.0368855909
 20
16.8060110844
 10
36.9648216635
 20
16.7852344018
 10
36.8918174494
 20
16.7655821287
 10
36.8179255805
 20
16.7470684332
 10
36.7431993288
 20
16.7297066626
 10
36.6676925677
 20
16.7135093338
 10
36.5914597336
 20
16.6984881243
 10
36.5145557859
 20
16.6846538635
 10
36.4370361683
 20
16.672016525
 10
36.3589567681
 20
16.6605852198
 10
36.2803738762
 20
16.6503681891
 10
36.2013441465
 20
16.641372799
 10
36.121924555
 20
16.6336055345
 10
36.042172359
 20
16.6270719954
 10
35.9621450553
 20
16.6217768921
 10
35.8819003392
 20
16.617724042
 10
35.8014960627
 20
16.614916367
 10
35.7209901928
 20
16.6133558913
 10
35.6404407698
 20
16.6130437399
 10
35.5599058654
 20
16.6139801378
 10
35.4794435408
 20
16.61616441
 10
35.3991118048
 20
16.6195949818
 10
35.3189685722
 20
16.6242693797
 10
35.2390716219
 20
16.630184234
 10
35.1594785551
 20
16.6373352802
 10
35.0802467539
 20
16.645717363
 10
35.0014333403
 20
16.6553244392
 10
34.9230951342
 20
16.6661495827
 10
34.8452886132
 20
16.6781849892
 10
34.7680698715
 20
16.6914219818
 10
34.6914945794
 20
16.7058510174
 10
34.6156179437
 20
16.7214616934
 10
34.540494667
 20
16.7382427554
 10
34.4661789092
 20
16.7561821052
 10
34.3927242478
 20
16.7752668094
 10
34.3201836395
 20
16.7954831092
 10
34.2486093821
 20
16.8168164297
 10
34.1780530767
 20
16.8392513906
 10
34.1085655905
 20
16.8627718177
 10
34.0401970201
 20
16.887360754
 10
33.9729966554
 20
16.9130004723
 10
33.9070129442
 20
16.9396724877
 10
33.8422934571
 20
16.9673575713
 10
33.7788848533
 20
16.9960357635
 10
33.7168328469
 20
17.025686389
 10
33.6561821739
 20
17.0562880713
 10
33.5969765601
 20
17.0878187483
 10
33.5392586895
 20
17.1202556882
 10
33.4830701734
 20
17.1535755057
 10
33.4284515208
 20
17.187754179
 10
33.3754421085
 20
17.2227670672
 10
33.3240801535
 20
17.2585889281
 10
33.2744026849
 20
17.2951939359
 10
33.2264455174
 20
17.3325557005
 10
33.1802432254
 20
17.3706472862
 10
33.1358291183
 20
17.4094412309
 10
33.0932352161
 20
17.4489095666
 10
33.0524922268
 20
17.4890238385
 10
33.0136295237
 20
17.5297551266
 10
32.9766751247
 20
17.5710740659
 10
32.9416556719
 20
17.6129508677
 10
32.9085964124
 20
17.6553553411
 10
32.87752118
 20
17.6982569149
 10
32.8484523784
 20
17.7416246594
 10
32.8214109644
 20
17.7854273089
 10
32.7964164335
 20
17.829633284
 10
32.7734868053
 20
17.8742107148
 10
32.7526386108
 20
17.9191274633
 10
32.7338868805
 20
17.964351147
 10
32.7172451332
 20
18.0098491623
 10
32.7027253668
 20
18.0555887075
 10
32.6903380491
 20
18.1015368069
 10
32.6800921109
 20
18.1476603346
 10
32.6719949388
 20
18.1939260379
 10
32.6660523704
 20
18.240300562
 10
32.66226869
 20
18.2867504733
 10
32.6606466254
 20
18.333242284
 10
32.660579033
 20
18.3448678559
  0
LWPOLYLINE
  5
C9
330
1F
100
AcDbEntity
  8
0
  6
Continuous
 62
     7
370
    25
100
AcDbPolyline
 90
      235
 70
   128
 43
0.0
 10
33.5392586895
 20
29.3679697663
 10
33.4830701734
 20
29.3346499488
 10
33.4284515208
 20
29.3004712755
 10
33.3754421085
 20
29.2654583872
 10
33.3240801535
 20
29.2296365264
 10
33.2744026849
 20
29.1930315186
 10
33.2264455174
 20
29.155669754
 10
33.1802432254
 20
29.1175781683
 10
33.1358291183
 20
29.0787842235
 10
33.0932352161
 20
29.0393158879
 10
33.0524922268
 20
28.999201616
 10
33.0136295237
 20
28.9584703278
 10
32.9766751247
 20
28.9171513886
 10
32.9416556719
 20
28.8752745868
 10
32.9085964124
 20
28.8328701133
 10
32.87752118
 20
28.7899685395
 10
32.8484523784
 20
28.746600795
 10
32.8214109644
 20
28.7027981456
 10
32.7964164335
 20
28.6585921704
 10
32.7734868053
 20
28.6140147397
 10
32.7526386108
 20
28.5690979912
 10
32.7338868805
 20
28.5238743074
 10
32.7172451332
 20
28.4783762922
 10
32.7027253668
 20
28.432636747
 10
32.6903380491
 20
28.3866886476
 10
32.6800921109
 20
28.3405651199
 10
32.6719949388
 20
28.2942994165
 10
32.6660523704
 20
28.2479248925
 10
32.66226869
 20
28.2014749812
 10
32.6606466254
 20
28.1549831704
 10
32.6611873461
 20
28.1084829783
 10
32.6638904622
 20
28.0620079289
 10
32.6687540249
 20
28.0155915281
 10
32.6757745278
 20
27.9692672395
 10
32.6849469097
 20
27.9230684604
 10
32.6962645576
 20
27.8770284977
 10
32.7097193122
 20
27.8311805434
 10
32.7253014733
 20
27.7855576516
 10
32.7429998072
 20
27.7401927137
 10
32.7628015542
 20
27.6951184354
 10
32.7846924383
 20
27.6503673127
 10
32.8086566776
 20
27.6059716087
 10
32.8346769951
 20
27.5619633303
 10
32.8627346315
 20
27.518374205
 10
32.8928093589
 20
27.4752356581
 10
32.9248794951
 20
27.4325787901
 10
32.9589219192
 20
27.3904343544
 10
32.9949120886
 20
27.3488327346
 10
33.0328240563
 20
27.3078039233
 10
33.07263049
 20
27.2673775
 10
33.1143026913
 20
27.2275826098
 10
33.157810617
 20
27.1884479427
 10
33.2031229002
 20
27.1500017126
 10
33.2502068732
 20
27.1122716371
 10
33.2990285912
 20
27.0752849176
 10
33.3495528564
 20
27.0390682194
 10
33.4017432435
 20
27.0036476526
 10
33.4555621262
 20
26.9690487537
 10
33.5109707041
 20
26.9352964665
 10
33.5679290307
 20
26.9024151245
 10
33.6263960421
 20
26.8704284333
 10
33.6863295868
 20
26.8393594536
 10
33.7476864561
 20
26.8092305844
 10
33.8104224151
 20
26.780063547
 10
33.8744922347
 20
26.7518793691
 10
33.939849724
 20
26.7246983701
 10
34.0064477639
 20
26.6985401458
 10
34.0742383409
 20
26.6734235549
 10
34.1431725817
 20
26.6493667051
 10
34.2132007886
 20
26.6263869401
 10
34.2842724751
 20
26.604500827
 10
34.3563364025
 20
26.5837241445
 10
34.4293406167
 20
26.5640718713
 10
34.5032324856
 20
26.5455581758
 10
34.5779587373
 20
26.5281964052
 10
34.6534654983
 20
26.5119990765
 10
34.7296983325
 20
26.4969778669
 10
34.8066022801
 20
26.4831436061
 10
34.8841218977
 20
26.4705062676
 10
34.9622012979
 20
26.4590749624
 10
35.0407841899
 20
26.4488579318
 10
35.1198139196
 20
26.4398625416
 10
35.199233511
 20
26.4320952771
 10
35.278985707
 20
26.425561738
 10
35.3590130107
 20
26.4202666347
 10
35.4392577268
 20
26.4162137846
 10
35.5196620033
 20
26.4134061096
 10
35.6001678732
 20
26.4118456339
 10
35.6807172962
 20
26.4115334825
 10
35.7612522007
 20
26.4124698805
 10
35.8417145253
 20
26.4146541527
 10
35.9220462613
 20
26.4180847244
 10
36.0021894938
 20
26.4227591224
 10
36.0820864442
 20
26.4286739766
 10
36.161679511
 20
26.4358250229
 10
36.2409113121
 20
26.4442071056
 10
36.3197247258
 20
26.4538141818
 10
36.3980629318
 20
26.4646393253
 10
36.4758694529
 20
26.4766747318
 10
36.5530881946
 20
26.4899117244
 10
36.6296634866
 20
26.50434076
 10
36.7055401224
 20
26.519951436
 10
36.780663399
 20
26.536732498
 10
36.8549791568
 20
26.5546718478
 10
36.9284338182
 20
26.5737565521
 10
37.0009744265
 20
26.5939728519
 10
37.0725486839
 20
26.6153061723
 10
37.1431049893
 20
26.6377411332
 10
37.2125924756
 20
26.6612615603
 10
37.280961046
 20
26.6858504967
 10
37.3481614107
 20
26.711490215
 10
37.4141451219
 20
26.7381622304
 10
37.4788646089
 20
26.7658473139
 10
37.5422732127
 20
26.7945255061
 10
37.6043252192
 20
26.8241761316
 10
37.6649758922
 20
26.8547778139
 10
37.724181506
 20
26.8863084909
 10
37.7818993766
 20
26.9187454308
 10
37.8380878926
 20
26.9520652483
 10
37.8927065453
 20
26.9862439216
 10
37.9457159576
 20
27.0212568099
 10
37.9970779126
 20
27.0570786707
 10
38.0467553812
 20
27.0936836785
 10
38.0947125487
 20
27.1310454431
 10
38.1409148407
 20
27.1691370288
 10
38.1853289478
 20
27.2079309736
 10
38.2279228499
 20
27.2473993092
 10
38.2686658393
 20
27.2875135811
 10
38.3075285424
 20
27.3282448693
 10
38.3444829413
 20
27.3695638085
 10
38.3795023941
 20
27.4114406103
 10
38.4125616537
 20
27.4538450838
 10
38.443636886
 20
27.4967466576
 10
38.4727056877
 20
27.5401144021
 10
38.4997471016
 20
27.5839170515
 10
38.5247416326
 20
27.6281230267
 10
38.5476712607
 20
27.6727004574
 10
38.5685194552
 20
27.7176172059
 10
38.5872711856
 20
27.7628408897
 10
38.6039129329
 20
27.8083389049
 10
38.6184326993
 20
27.8540784501
 10
38.6308200169
 20
27.9000265495
 10
38.6410659552
 20
27.9461500772
 10
38.6491631273
 20
27.9924157806
 10
38.6551056957
 20
28.0387903046
 10
38.6588893761
 20
28.0852402159
 10
38.6605114407
 20
28.1317320267
 10
38.65997072
 20
28.1782322188
 10
38.6572676039
 20
28.2247072682
 10
38.6524040412
 20
28.271123669
 10
38.6453835382
 20
28.3174479576
 10
38.6362111564
 20
28.3636467367
 10
38.6248935085
 20
28.4096866994
 10
38.6114387539
 20
28.4555346537
 10
38.5958565927
 20
28.5011575455
 10
38.5781582589
 20
28.5465224834
 10
38.5583565119
 20
28.5915967617
 10
38.5364656277
 20
28.6363478844
 10
38.5125013884
 20
28.6807435884
 10
38.486481071
 20
28.7247518668
 10
38.4584234346
 20
28.7683409921
 10
38.4283487072
 20
28.811479539
 10
38.396278571
 20
28.854136407
 10
38.3622361469
 20
28.8962808427
 10
38.3262459775
 20
28.9378824625
 10
38.2883340097
 20
28.9789112738
 10
38.2485275761
 20
29.0193376971
 10
38.2068553747
 20
29.0591325873
 10
38.1633474491
 20
29.0982672544
 10
38.1180351659
 20
29.1367134845
 10
38.0709511928
 20
29.1744435599
 10
38.0221294749
 20
29.2114302795
 10
37.9716052097
 20
29.2476469777
 10
37.9194148226
 20
29.2830675444
 10
37.8655959398
 20
29.3176664434
 10
37.8101873619
 20
29.3514187306
 10
37.7532290354
 20
29.3843000726
 10
37.694762024
 20
29.4162867638
 10
37.6348284793
 20
29.4473557435
 10
37.5734716099
 20
29.4774846126
 10
37.5107356509
 20
29.5066516501
 10
37.4466658314
 20
29.534835828
 10
37.3813083421
 20
29.562016827
 10
37.3147103022
 20
29.5881750513
 10
37.2469197252
 20
29.6132916422
 10
37.1779854844
 20
29.637348492
 10
37.1079572774
 20
29.660328257
 10
37.0368855909
 20
29.6822143701
 10
36.9648216635
 20
29.7029910526
 10
36.8918174494
 20
29.7226433258
 10
36.8179255805
 20
29.7411570213
 10
36.7431993288
 20
29.7585187919
 10
36.6676925677
 20
29.7747161206
 10
36.5914597336
 20
29.7897373302
 10
36.5145557859
 20
29.803571591
 10
36.4370361683
 20
29.8162089295
 10
36.3589567681
 20
29.8276402347
 10
36.2803738762
 20
29.8378572653
 10
36.2013441465
 20
29.8468526555
 10
36.121924555
 20
29.85461992
 10
36.042172359
 20
29.861153459
 10
35.9621450553
 20
29.8664485624
 10
35.8819003392
 20
29.8705014125
 10
35.8014960627
 20
29.8733090875
 10
35.7209901928
 20
29.8748695632
 10
35.6404407698
 20
29.8751817146
 10
35.5599058654
 20
29.8742453166
 10
35.4794435408
 20
29.8720610444
 10
35.3991118048
 20
29.8686304727
 10
35.3189685722
 20
29.8639560747
 10
35.2390716219
 20
29.8580412205
 10
35.1594785551
 20
29.8508901742
 10
35.0802467539
 20
29.8425080915
 10
35.0014333403
 20
29.8329010153
 10
34.9230951342
 20
29.8220758718
 10
34.8452886132
 20
29.8100404653
 10
34.7680698715
 20
29.7968034727
 10
34.6914945794
 20
29.7823744371
 10
34.6156179437
 20
29.7667637611
 10
34.540494667
 20
29.7499826991
 10
34.4661789092
 20
29.7320433493
 10
34.3927242478
 20
29.712958645
 10
34.3201836395
 20
29.6927423452
 10
34.2486093821
 20
29.6714090248
 10
34.1780530767
 20
29.6489740638
 10
34.1085655905
 20
29.6254536367
 10
34.0401970201
 20
29.6008647004
 10
33.9729966554
 20
29.5752249821
 10
33.9070129442
 20
29.5485529667
 10
33.8422934571
 20
29.5208678832
 10
33.7788848533
 20
29.492189691
 10
33.7168328469
 20
29.4625390655
 10
33.6561821739
 20
29.4319373832
 10
33.5969765601
 20
29.4004067062
 10
33.5392586895
 20
29.3679697663
  0
LWPOLYLINE
  5
CA
330
1F
100
AcDbEntity
  8
0
  6
Continuous
 62
     7
370
    25
100
AcDbPolyline
 90
      140
 70
   128
 43
0.0
 10
34.9075103111
 20
28.5780949181
 10
34.8742503468
 20
28.558006206
 10
34.842596807
 20
28.5370703905
 10
34.812614358
 20
28.5153302424
 10
34.7843642523
 20
28.4928301755
 10
34.7579042031
 20
28.4696161561
 10
34.7332882669
 20
28.4457356092
 10
34.7105667326
 20
28.4212373214
 10
34.689786019
 20
28.3961713412
 10
34.6709885799
 20
28.370588877
 10
34.6542128174
 20
28.3445421923
 10
34.6394930034
 20
28.318084499
 10
34.6268592096
 20
28.2912698487
 10
34.6163372462
 20
28.2641530221
 10
34.607948609
 20
28.2367894174
 10
34.6017104354
 20
28.2092349368
 10
34.5976354697
 20
28.1815458727
 10
34.5957320367
 20
28.153778792
 10
34.5960040252
 20
28.1259904215
 10
34.5984508794
 20
28.0982375311
 10
34.6030676005
 20
28.0705768184
 10
34.6098447569
 20
28.0430647927
 10
34.6187685033
 20
28.0157576594
 10
34.6298206088
 20
27.9887112055
 10
34.6429784948
 20
27.9619806853
 10
34.6582152803
 20
27.9356207078
 10
34.6754998376
 20
27.9096851248
 10
34.6947968552
 20
27.8842269213
 10
34.7160669104
 20
27.859298107
 10
34.7392665498
 20
27.8349496099
 10
34.7643483778
 20
27.8112311726
 10
34.7912611537
 20
27.7881912506
 10
34.8199498962
 20
27.7658769131
 10
34.8503559959
 20
27.744333747
 10
34.8824173348
 20
27.7236057638
 10
34.9160684134
 20
27.7037353095
 10
34.9512404846
 20
27.6847629784
 10
34.9878616938
 20
27.6667275298
 10
35.025857226
 20
27.6496658091
 10
35.0651494585
 20
27.6336126724
 10
35.1056581194
 20
27.6186009155
 10
35.147300452
 20
27.6046612063
 10
35.1899913834
 20
27.591822023
 10
35.2336436983
 20
27.5801095953
 10
35.2781682176
 20
27.569547851
 10
35.3234739804
 20
27.5601583672
 10
35.3694684294
 20
27.5519603259
 10
35.4160576007
 20
27.5449704754
 10
35.4631463153
 20
27.5392030955
 10
35.5106383737
 20
27.5346699686
 10
35.5584367522
 20
27.5313803557
 10
35.6064438015
 20
27.5293409772
 10
35.654561446
 20
27.5285559995
 10
35.7026913841
 20
27.5290270262
 10
35.7507352891
 20
27.5307530951
 10
35.79859501
 20
27.5337306799
 10
35.8461727722
 20
27.5379536976
 10
35.893371377
 20
27.5434135207
 10
35.9400944004
 20
27.5500989952
 10
35.9862463899
 20
27.557996463
 10
36.0317330596
 20
27.5670897901
 10
36.076461483
 20
27.5773603993
 10
36.1203402823
 20
27.5887873084
 10
36.1632798157
 20
27.6013471727
 10
36.2051923603
 20
27.6150143334
 10
36.245992291
 20
27.629760869
 10
36.285596256
 20
27.6455566533
 10
36.3239233466
 20
27.6623694165
 10
36.3608952628
 20
27.6801648109
 10
36.3964364731
 20
27.6989064816
 10
36.4304743687
 20
27.7185561406
 10
36.4629394124
 20
27.7390736445
 10
36.4937652797
 20
27.7604170774
 10
36.5228889953
 20
27.7825428359
 10
36.550251061
 20
27.8054057182
 10
36.5757955778
 20
27.8289590169
 10
36.5994703596
 20
27.8531546138
 10
36.6212270402
 20
27.8779430788
 10
36.641021172
 20
27.9032737705
 10
36.6588123167
 20
27.9290949397
 10
36.6745641279
 20
27.9553538352
 10
36.6882444258
 20
27.9819968116
 10
36.6998252621
 20
28.0089694389
 10
36.7092829779
 20
28.0362166135
 10
36.7165982516
 20
28.063682671
 10
36.7217561386
 20
28.0913114998
 10
36.7247461016
 20
28.1190466557
 10
36.7255620323
 20
28.1468314776
 10
36.7242022636
 20
28.1746092025
 10
36.7206695737
 20
28.2023230822
 10
36.7149711796
 20
28.2299164987
 10
36.7071187227
 20
28.2573330804
 10
36.6971282452
 20
28.2845168167
 10
36.685020157
 20
28.3114121729
 10
36.6708191943
 20
28.3379642031
 10
36.6545543689
 20
28.3641186632
 10
36.6362589088
 20
28.3898221212
 10
36.6159701906
 20
28.4150220662
 10
36.593729663
 20
28.4396670162
 10
36.5695827622
 20
28.4637066231
 10
36.5435788188
 20
28.4870917754
 10
36.5157709575
 20
28.5097746983
 10
36.4862159881
 20
28.5317090522
 10
36.4549742896
 20
28.5528500263
 10
36.4221096872
 20
28.5731544308
 10
36.3876893213
 20
28.592580785
 10
36.3517835108
 20
28.6110894019
 10
36.3144656091
 20
28.6286424697
 10
36.2758118546
 20
28.6452041282
 10
36.2359012147
 20
28.660740543
 10
36.1948152245
 20
28.6752199741
 10
36.1526378204
 20
28.6886128408
 10
36.1094551684
 20
28.7008917824
 10
36.0653554882
 20
28.7120317135
 10
36.0204288729
 20
28.722009876
 10
35.9747671049
 20
28.7308058851
 10
35.9284634688
 20
28.738401771
 10
35.8816125601
 20
28.7447820157
 10
35.8343100925
 20
28.7499335848
 10
35.7866527024
 20
28.7538459539
 10
35.738737751
 20
28.7565111303
 10
35.6906631258
 20
28.7579236692
 10
35.6425270405
 20
28.7580806848
 10
35.5944278344
 20
28.7569818563
 10
35.5464637714
 20
28.7546294287
 10
35.4987328394
 20
28.7510282077
 10
35.4513325498
 20
28.7461855505
 10
35.4043597389
 20
28.7401113503
 10
35.3579103692
 20
28.7328180164
 10
35.3120793343
 20
28.7243204487
 10
35.2669602643
 20
28.7146360071
 10
35.222645335
 20
28.7037844765
 10
35.179225079
 20
28.6917880259
 10
35.1367882016
 20
28.6786711634
 10
35.0954213989
 20
28.6644606859
 10
35.0552091808
 20
28.6491856246
 10
35.0162336987
 20
28.6328771857
 10
34.9785745771
 20
28.6155686863
 10
34.9423087516
 20
28.5972954868
 10
34.9075103111
 20
28.5780949181
  0
LINE
  5
CB
330
1F
100
AcDbEntity
  8
0
  6
Continuous
 62
     7
370
    25
100
AcDbLine
 10
34.1491382882
 20
27.1177449081
 30
0.0
 11
34.3789479921
 21
27.2504112262
 31
0.0
  0
LWPOLYLINE
  5
CC
330
1F
100
AcDbEntity
  8
0
  6
Continuous
 62
     7
370
    25
100
AcDbPolyline
 90
       30
 70
   128
 43
0.0
 10
34.3789479921
 20
27.2504112262
 10
34.3925054798
 20
27.2591351384
 10
34.4043496095
 20
27.2686541118
 10
34.4143415195
 20
27.2788565451
 10
34.422364064
 20
27.2896228243
 10
34.428323186
 20
27.3008267244
 10
34.43214902
 20
27.31233689
 10
34.4337967118
 20
27.324018375
 10
34.4332469437
 20
27.3357342245
 10
34.4305061612
 20
27.3473470811
 10
34.4256064974
 20
27.3587207945
 10
34.4186053965
 20
27.3697220183
 10
34.4095849399
 20
27.3802217734
 10
34.3986508843
 20
27.3900969596
 10
34.3859314214
 20
27.3992317994
 10
34.3715756754
 20
27.4075191951
 10
34.3557519542
 20
27.4148619848
 10
34.3386457765
 20
27.4211740807
 10
34.3204576966
 20
27.4263814794
 10
34.3014009531
 20
27.430423129
 10
34.2816989689
 20
27.4332516447
 10
34.2615827317
 20
27.4348338647
 10
34.241288086
 20
27.4351512391
 10
34.2210529681
 20
27.4342000469
 10
34.201114616
 20
27.4319914399
 10
34.1817067889
 20
27.428551312
 10
34.1630570257
 20
27.4239199957
 10
34.1453839779
 20
27.4181517888
 10
34.1288948457
 20
27.4113143182
 10
34.1137829492
 20
27.4034877472
  0
LINE
  5
CD
330
1F
100
AcDbEntity
  8
0
  6
Continuous
 62
     7
370
    25
100
AcDbLine
 10
34.1137829492
 20
27.4034877472
 30
0.0
 11
33.8839732453
 21
27.270821429
 31
0.0
  0
LWPOLYLINE
  5
CE
330
1F
100
AcDbEntity
  8
0
  6
Continuous
 62
     7
370
    25
100
AcDbPolyline
 90
       30
 70
   128
 43
0.0
 10
33.8839732453
 20
27.270821429
 10
33.8704157576
 20
27.2620975169
 10
33.858571628
 20
27.2525785435
 10
33.8485797179
 20
27.2423761101
 10
33.8405571734
 20
27.231609831
 10
33.8345980515
 20
27.2204059309
 10
33.8307722174
 20
27.2088957653
 10
33.8291245256
 20
27.1972142803
 10
33.8296742937
 20
27.1854984307
 10
33.8324150763
 20
27.1738855742
 10
33.83731474
 20
27.1625118608
 10
33.8443158409
 20
27.1515106369
 10
33.8533362975
 20
27.1410108819
 10
33.8642703531
 20
27.1311356957
 10
33.876989816
 20
27.1220008559
 10
33.891345562
 20
27.1137134601
 10
33.9071692832
 20
27.1063706705
 10
33.9242754609
 20
27.1000585746
 10
33.9424635408
 20
27.0948511758
 10
33.9615202843
 20
27.0908095263
 10
33.9812222685
 20
27.0879810106
 10
34.0013385057
 20
27.0863987905
 10
34.0216331514
 20
27.0860814162
 10
34.0418682694
 20
27.0870326084
 10
34.0618066214
 20
27.0892412154
 10
34.0812144485
 20
27.0926813432
 10
34.0998642117
 20
27.0973126596
 10
34.1175372596
 20
27.1030808665
 10
34.1340263917
 20
27.109918337
 10
34.1491382882
 20
27.1177449081
  0
LINE
  5
CF
330
1F
100
AcDbEntity
  8
0
  6
Continuous
 62
     7
370
    25
100
AcDbLine
 10
33.4633300579
 20
27.6914190389
 30
0.0
 11
33.7772559514
 21
27.7399782816
 31
0.0
  0
LWPOLYLINE
  5
D0
330
1F
100
AcDbEntity
  8
0
  6
Continuous
 62
     7
370
    25
100
AcDbPolyline
 90
       30
 70
   128
 43
0.0
 10
33.7772559514
 20
27.7399782816
 10
33.7965530284
 20
27.7436201256
 10
33.8150549117
 20
27.7484450631
 10
33.8325446835
 20
27.7543965261
 10
33.8488172925
 20
27.7614047392
 10
33.863681957
 20
27.7693875374
 10
33.8769644025
 20
27.7782513297
 10
33.8885089044
 20
27.7878921963
 10
33.8981801141
 20
27.7981971069
 10
33.9058646454
 20
27.8090452457
 10
33.9114724042
 20
27.8203094283
 10
33.9149376448
 20
27.8318575924
 10
33.9162197402
 20
27.8435543463
 10
33.9153036591
 20
27.8552625564
 10
33.9122001417
 20
27.8668449545
 10
33.906945574
 20
27.8781657477
 10
33.8996015609
 20
27.8890922099
 10
33.8902542042
 20
27.8994962385
 10
33.8790130933
 20
27.9092558556
 10
33.8660100197
 20
27.9182566387
 10
33.8513974328
 20
27.9263930618
 10
33.8353466516
 20
27.9335697329
 10
33.818045857
 20
27.9397025119
 10
33.7996978848
 20
27.9447194978
 10
33.7805178485
 20
27.9485618708
 10
33.7607306162
 20
27.9511845828
 10
33.7405681752
 20
27.9525568847
 10
33.7202669118
 20
27.9526626877
 10
33.7000648396
 20
27.9515007512
 10
33.6801988095
 20
27.9490846979
  0
LINE
  5
D1
330
1F
100
AcDbEntity
  8
0
  6
Continuous
 62
     7
370
    25
100
AcDbLine
 10
33.6801988095
 20
27.9490846979
 30
0.0
 11
33.3662729159
 21
27.9005254553
 31
0.0
  0
LWPOLYLINE
  5
D2
330
1F
100
AcDbEntity
  8
0
  6
Continuous
 62
     7
370
    25
100
AcDbPolyline
 90
       30
 70
   128
 43
0.0
 10
33.3662729159
 20
27.9005254553
 10
33.346975839
 20
27.8968836112
 10
33.3284739557
 20
27.8920586737
 10
33.3109841838
 20
27.8861072107
 10
33.2947115749
 20
27.8790989977
 10
33.2798469104
 20
27.8711161995
 10
33.2665644649
 20
27.8622524071
 10
33.2550199629
 20
27.8526115405
 10
33.2453487532
 20
27.84230663
 10
33.2376642219
 20
27.8314584912
 10
33.2320564631
 20
27.8201943086
 10
33.2285912226
 20
27.8086461445
 10
33.2273091272
 20
27.7969493905
 10
33.2282252083
 20
27.7852411804
 10
33.2313287256
 20
27.7736587823
 10
33.2365832934
 20
27.7623379891
 10
33.2439273065
 20
27.7514115269
 10
33.2532746631
 20
27.7410074984
 10
33.2645157741
 20
27.7312478813
 10
33.2775188476
 20
27.7222470982
 10
33.2921314346
 20
27.714110675
 10
33.3081822158
 20
27.706934004
 10
33.3254830104
 20
27.7008012249
 10
33.3438309825
 20
27.6957842391
 10
33.3630110189
 20
27.691941866
 10
33.3827982512
 20
27.6893191541
 10
33.4029606921
 20
27.6879468521
 10
33.4232619556
 20
27.6878410492
 10
33.4434640278
 20
27.6890029856
 10
33.4633300579
 20
27.6914190389
  0
LINE
  5
D3
330
1F
100
AcDbEntity
  8
0
  6
Continuous
 62
     7
370
    25
100
AcDbLine
 10
33.3662729159
 20
28.3861897418
 30
0.0
 11
33.6801988095
 21
28.3376304991
 31
0.0
  0
LWPOLYLINE
  5
D4
330
1F
100
AcDbEntity
  8
0
  6
Continuous
 62
     7
370
    25
100
AcDbPolyline
 90
       30
 70
   128
 43
0.0
 10
33.6801988095
 20
28.3376304991
 10
33.7000648396
 20
28.3352144459
 10
33.7202669118
 20
28.3340525094
 10
33.7405681752
 20
28.3341583124
 10
33.7607306162
 20
28.3355306143
 10
33.7805178485
 20
28.3381533263
 10
33.7996978848
 20
28.3419956993
 10
33.818045857
 20
28.3470126852
 10
33.8353466516
 20
28.3531454642
 10
33.8513974328
 20
28.3603221353
 10
33.8660100197
 20
28.3684585584
 10
33.8790130933
 20
28.3774593415
 10
33.8902542042
 20
28.3872189586
 10
33.8996015609
 20
28.3976229871
 10
33.906945574
 20
28.4085494494
 10
33.9122001417
 20
28.4198702425
 10
33.9153036591
 20
28.4314526407
 10
33.9162197402
 20
28.4431608508
 10
33.9149376448
 20
28.4548576047
 10
33.9114724042
 20
28.4664057688
 10
33.9058646454
 20
28.4776699514
 10
33.8981801141
 20
28.4885180902
 10
33.8885089044
 20
28.4988230008
 10
33.8769644025
 20
28.5084638674
 10
33.863681957
 20
28.5173276597
 10
33.8488172925
 20
28.5253104579
 10
33.8325446835
 20
28.532318671
 10
33.8150549117
 20
28.538270134
 10
33.7965530284
 20
28.5430950715
 10
33.7772559514
 20
28.5467369155
  0
LINE
  5
D5
330
1F
100
AcDbEntity
  8
0
  6
Continuous
 62
     7
370
    25
100
AcDbLine
 10
33.7772559514
 20
28.5467369155
 30
0.0
 11
33.4633300579
 21
28.5952961582
 31
0.0
  0
LWPOLYLINE
  5
D6
330
1F
100
AcDbEntity
  8
0
  6
Continuous
 62
     7
370
    25
100
AcDbPolyline
 90
       30
 70
   128
 43
0.0
 10
33.4633300579
 20
28.5952961582
 10
33.4434640278
 20
28.5977122114
 10
33.4232619556
 20
28.5988741479
 10
33.4029606921
 20
28.598768345
 10
33.3827982512
 20
28.597396043
 10
33.3630110189
 20
28.5947733311
 10
33.3438309825
 20
28.590930958
 10
33.3254830104
 20
28.5859139722
 10
33.3081822158
 20
28.5797811931
 10
33.2921314346
 20
28.5726045221
 10
33.2775188476
 20
28.5644680989
 10
33.2645157741
 20
28.5554673158
 10
33.2532746631
 20
28.5457076987
 10
33.2439273065
 20
28.5353036702
 10
33.2365832934
 20
28.524377208
 10
33.2313287256
 20
28.5130564148
 10
33.2282252083
 20
28.5014740167
 10
33.2273091272
 20
28.4897658066
 10
33.2285912226
 20
28.4780690526
 10
33.2320564631
 20
28.4665208885
 10
33.2376642219
 20
28.4552567059
 10
33.2453487532
 20
28.4444085671
 10
33.2550199629
 20
28.4341036566
 10
33.2665644649
 20
28.42446279
 10
33.2798469104
 20
28.4155989976
 10
33.2947115749
 20
28.4076161994
 10
33.3109841838
 20
28.4006079864
 10
33.3284739557
 20
28.3946565234
 10
33.346975839
 20
28.3898315859
 10
33.3662729159
 20
28.3861897418
  0
LINE
  5
D7
330
1F
100
AcDbEntity
  8
0
  6
Continuous
 62
     7
370
    25
100
AcDbLine
 10
34.8777136607
 20
29.4118024323
 30
0.0
 11
34.9618298504
 21
29.2305768715
 31
0.0
  0
LWPOLYLINE
  5
D8
330
1F
100
AcDbEntity
  8
0
  6
Continuous
 62
     7
370
    25
100
AcDbPolyline
 90
       30
 70
   128
 43
0.0
 10
34.9618298504
 20
29.2305768715
 10
34.9681383928
 20
29.219436906
 10
34.9764963353
 20
29.2087559962
 10
34.9868056887
 20
29.1986593658
 10
34.9989455852
 20
29.1892653886
 10
35.0127736955
 20
29.1806842004
 10
35.0281278979
 20
29.1730164078
 10
35.0448281782
 20
29.1663519087
 10
35.0626787409
 20
29.1607688382
 10
35.0814703046
 20
29.1563326527
 10
35.1009825554
 20
29.1530953625
 10
35.1209867298
 20
29.1510949217
 10
35.1412482974
 20
29.1503547838
 10
35.1615297096
 20
29.1508836261
 10
35.1815931856
 20
29.1526752486
 10
35.2012034993
 20
29.1557086459
 10
35.2201307379
 20
29.1599482545
 10
35.2381529967
 20
29.1653443686
 10
35.2550589812
 20
29.1718337238
 10
35.2706504842
 20
29.1793402384
 10
35.2847447096
 20
29.1877759053
 10
35.2971764155
 20
29.197041824
 10
35.3077998514
 20
29.2070293602
 10
35.3164904675
 20
29.217621419
 10
35.323146374
 20
29.2286938184
 10
35.3276895366
 20
29.2401167444
 10
35.3300666909
 20
29.2517562738
 10
35.3302499668
 20
29.2634759438
 10
35.3282372157
 20
29.2751383518
 10
35.3240520353
 20
29.2866067669
  0
LINE
  5
D9
330
1F
100
AcDbEntity
  8
0
  6
Continuous
 62
     7
370
    25
100
AcDbLine
 10
35.3240520353
 20
29.2866067669
 30
0.0
 11
35.2399358456
 21
29.4678323277
 31
0.0
  0
LWPOLYLINE
  5
DA
330
1F
100
AcDbEntity
  8
0
  6
Continuous
 62
     7
370
    25
100
AcDbPolyline
 90
       30
 70
   128
 43
0.0
 10
35.2399358456
 20
29.4678323277
 10
35.2336273032
 20
29.4789722931
 10
35.2252693606
 20
29.489653203
 10
35.2149600073
 20
29.4997498334
 10
35.2028201108
 20
29.5091438106
 10
35.1889920005
 20
29.5177249987
 10
35.1736377981
 20
29.5253927913
 10
35.1569375178
 20
29.5320572904
 10
35.1390869551
 20
29.5376403609
 10
35.1202953914
 20
29.5420765464
 10
35.1007831406
 20
29.5453138367
 10
35.0807789662
 20
29.5473142774
 10
35.0605173986
 20
29.5480544154
 10
35.0402359864
 20
29.547525573
 10
35.0201725104
 20
29.5457339506
 10
35.0005621967
 20
29.5427005532
 10
34.9816349581
 20
29.5384609447
 10
34.9636126993
 20
29.5330648305
 10
34.9467067148
 20
29.5265754753
 10
34.9311152118
 20
29.5190689607
 10
34.9170209864
 20
29.5106332938
 10
34.9045892805
 20
29.5013673751
 10
34.8939658445
 20
29.491379839
 10
34.8852752285
 20
29.4807877801
 10
34.878619322
 20
29.4697153808
 10
34.8740761594
 20
29.4582924547
 10
34.8716990051
 20
29.4466529253
 10
34.8715157292
 20
29.4349332554
 10
34.8735284803
 20
29.4232708474
 10
34.8777136607
 20
29.4118024323
  0
LINE
  5
DB
330
1F
100
AcDbEntity
  8
0
  6
Continuous
 62
     7
370
    25
100
AcDbLine
 10
36.0812222205
 20
29.4678323277
 30
0.0
 11
35.9971060308
 21
29.2866067669
 31
0.0
  0
LWPOLYLINE
  5
DC
330
1F
100
AcDbEntity
  8
0
  6
Continuous
 62
     7
370
    25
100
AcDbPolyline
 90
       30
 70
   128
 43
0.0
 10
35.9971060308
 20
29.2866067669
 10
35.9929208503
 20
29.2751383518
 10
35.9909080992
 20
29.2634759438
 10
35.9910913752
 20
29.2517562738
 10
35.9934685295
 20
29.2401167444
 10
35.9980116921
 20
29.2286938184
 10
36.0046675986
 20
29.217621419
 10
36.0133582146
 20
29.2070293602
 10
36.0239816506
 20
29.197041824
 10
36.0364133565
 20
29.1877759053
 10
36.0505075819
 20
29.1793402384
 10
36.0660990849
 20
29.1718337238
 10
36.0830050694
 20
29.1653443686
 10
36.1010273282
 20
29.1599482545
 10
36.1199545667
 20
29.1557086459
 10
36.1395648805
 20
29.1526752486
 10
36.1596283564
 20
29.1508836261
 10
36.1799097687
 20
29.1503547838
 10
36.2001713362
 20
29.1510949217
 10
36.2201755107
 20
29.1530953625
 10
36.2396877614
 20
29.1563326527
 10
36.2584793251
 20
29.1607688382
 10
36.2763298879
 20
29.1663519087
 10
36.2930301682
 20
29.1730164078
 10
36.3083843705
 20
29.1806842004
 10
36.3222124809
 20
29.1892653886
 10
36.3343523773
 20
29.1986593658
 10
36.3446617307
 20
29.2087559962
 10
36.3530196732
 20
29.219436906
 10
36.3593282157
 20
29.2305768715
  0
LINE
  5
DD
330
1F
100
AcDbEntity
  8
0
  6
Continuous
 62
     7
370
    25
100
AcDbLine
 10
36.3593282157
 20
29.2305768715
 30
0.0
 11
36.4434444053
 21
29.4118024323
 31
0.0
  0
LWPOLYLINE
  5
DE
330
1F
100
AcDbEntity
  8
0
  6
Continuous
 62
     7
370
    25
100
AcDbPolyline
 90
       30
 70
   128
 43
0.0
 10
36.4434444053
 20
29.4118024323
 10
36.4476295858
 20
29.4232708474
 10
36.4496423369
 20
29.4349332554
 10
36.4494590609
 20
29.4466529253
 10
36.4470819067
 20
29.4582924547
 10
36.4425387441
 20
29.4697153808
 10
36.4358828375
 20
29.4807877801
 10
36.4271922215
 20
29.491379839
 10
36.4165687855
 20
29.5013673751
 10
36.4041370796
 20
29.5106332938
 10
36.3900428542
 20
29.5190689607
 10
36.3744513512
 20
29.5265754753
 10
36.3575453667
 20
29.5330648305
 10
36.3395231079
 20
29.5384609447
 10
36.3205958694
 20
29.5427005532
 10
36.3009855556
 20
29.5457339506
 10
36.2809220797
 20
29.547525573
 10
36.2606406674
 20
29.5480544154
 10
36.2403790999
 20
29.5473142774
 10
36.2203749254
 20
29.5453138367
 10
36.2008626747
 20
29.5420765464
 10
36.182071111
 20
29.5376403609
 10
36.1642205482
 20
29.5320572904
 10
36.1475202679
 20
29.5253927913
 10
36.1321660656
 20
29.5177249987
 10
36.1183379552
 20
29.5091438106
 10
36.1061980588
 20
29.4997498334
 10
36.0958887054
 20
29.489653203
 10
36.0875307629
 20
29.4789722931
 10
36.0812222205
 20
29.4678323277
  0
LINE
  5
DF
330
1F
100
AcDbEntity
  8
0
  6
Continuous
 62
     7
370
    25
100
AcDbLine
 10
37.1720197778
 20
29.168970289
 30
0.0
 11
36.9422100739
 21
29.0363039709
 31
0.0
  0
LWPOLYLINE
  5
E0
330
1F
100
AcDbEntity
  8
0
  6
Continuous
 62
     7
370
    25
100
AcDbPolyline
 90
       30
 70
   128
 43
0.0
 10
36.9422100739
 20
29.0363039709
 10
36.9286525863
 20
29.0275800587
 10
36.9168084566
 20
29.0180610853
 10
36.9068165465
 20
29.0078586519
 10
36.898794002
 20
28.9970923728
 10
36.8928348801
 20
28.9858884727
 10
36.889009046
 20
28.9743783071
 10
36.8873613542
 20
28.9626968221
 10
36.8879111224
 20
28.9509809726
 10
36.8906519049
 20
28.939368116
 10
36.8955515686
 20
28.9279944026
 10
36.9025526696
 20
28.9169931788
 10
36.9115731261
 20
28.9064934237
 10
36.9225071818
 20
28.8966182375
 10
36.9352266446
 20
28.8874833977
 10
36.9495823906
 20
28.879196002
 10
36.9654061118
 20
28.8718532123
 10
36.9825122895
 20
28.8655411164
 10
37.0007003694
 20
28.8603337177
 10
37.0197571129
 20
28.8562920681
 10
37.0394590972
 20
28.8534635524
 10
37.0595753344
 20
28.8518813324
 10
37.07986998
 20
28.851563958
 10
37.100105098
 20
28.8525151502
 10
37.12004345
 20
28.8547237572
 10
37.1394512771
 20
28.8581638851
 10
37.1581010403
 20
28.8627952014
 10
37.1757740882
 20
28.8685634083
 10
37.1922632204
 20
28.8754008789
 10
37.2073751169
 20
28.8832274499
  0
LINE
  5
E1
330
1F
100
AcDbEntity
  8
0
  6
Continuous
 62
     7
370
    25
100
AcDbLine
 10
37.2073751169
 20
28.8832274499
 30
0.0
 11
37.4371848208
 21
29.0158937681
 31
0.0
  0
LWPOLYLINE
  5
E2
330
1F
100
AcDbEntity
  8
0
  6
Continuous
 62
     7
370
    25
100
AcDbPolyline
 90
       30
 70
   128
 43
0.0
 10
37.4371848208
 20
29.0158937681
 10
37.4507423084
 20
29.0246176802
 10
37.4625864381
 20
29.0341366536
 10
37.4725783482
 20
29.044339087
 10
37.4806008927
 20
29.0551053661
 10
37.4865600146
 20
29.0663092662
 10
37.4903858486
 20
29.0778194318
 10
37.4920335405
 20
29.0895009168
 10
37.4914837723
 20
29.1012167663
 10
37.4887429898
 20
29.1128296229
 10
37.483843326
 20
29.1242033363
 10
37.4768422251
 20
29.1352045602
 10
37.4678217685
 20
29.1457043152
 10
37.4568877129
 20
29.1555795014
 10
37.4441682501
 20
29.1647143412
 10
37.4298125041
 20
29.173001737
 10
37.4139887829
 20
29.1803445266
 10
37.3968826052
 20
29.1866566225
 10
37.3786945253
 20
29.1918640213
 10
37.3596377817
 20
29.1959056708
 10
37.3399357975
 20
29.1987341865
 10
37.3198195603
 20
29.2003164065
 10
37.2995249147
 20
29.2006337809
 10
37.2792897967
 20
29.1996825887
 10
37.2593514447
 20
29.1974739817
 10
37.2399436175
 20
29.1940338538
 10
37.2212938543
 20
29.1894025375
 10
37.2036208065
 20
29.1836343306
 10
37.1871316743
 20
29.1767968601
 10
37.1720197778
 20
29.168970289
  0
LINE
  5
E3
330
1F
100
AcDbEntity
  8
0
  6
Continuous
 62
     7
370
    25
100
AcDbLine
 10
37.8578280082
 20
28.5952961582
 30
0.0
 11
37.5439021146
 21
28.5467369155
 31
0.0
  0
LWPOLYLINE
  5
E4
330
1F
100
AcDbEntity
  8
0
  6
Continuous
 62
     7
370
    25
100
AcDbPolyline
 90
       30
 70
   128
 43
0.0
 10
37.5439021146
 20
28.5467369155
 10
37.5246050377
 20
28.5430950715
 10
37.5061031544
 20
28.538270134
 10
37.4886133825
 20
28.532318671
 10
37.4723407736
 20
28.5253104579
 10
37.4574761091
 20
28.5173276597
 10
37.4441936636
 20
28.5084638674
 10
37.4326491616
 20
28.4988230008
 10
37.4229779519
 20
28.4885180902
 10
37.4152934206
 20
28.4776699514
 10
37.4096856618
 20
28.4664057688
 10
37.4062204213
 20
28.4548576047
 10
37.4049383259
 20
28.4431608508
 10
37.405854407
 20
28.4314526407
 10
37.4089579243
 20
28.4198702425
 10
37.4142124921
 20
28.4085494494
 10
37.4215565052
 20
28.3976229871
 10
37.4309038618
 20
28.3872189586
 10
37.4421449728
 20
28.3774593415
 10
37.4551480463
 20
28.3684585584
 10
37.4697606333
 20
28.3603221353
 10
37.4858114145
 20
28.3531454642
 10
37.5031122091
 20
28.3470126852
 10
37.5214601812
 20
28.3419956993
 10
37.5406402176
 20
28.3381533263
 10
37.5604274499
 20
28.3355306143
 10
37.5805898908
 20
28.3341583124
 10
37.6008911543
 20
28.3340525094
 10
37.6210932265
 20
28.3352144459
 10
37.6409592566
 20
28.3376304991
  0
LINE
  5
E5
330
1F
100
AcDbEntity
  8
0
  6
Continuous
 62
     7
370
    25
100
AcDbLine
 10
37.6409592566
 20
28.3376304991
 30
0.0
 11
37.9548851501
 21
28.3861897418
 31
0.0
  0
LWPOLYLINE
  5
E6
330
1F
100
AcDbEntity
  8
0
  6
Continuous
 62
     7
370
    25
100
AcDbPolyline
 90
       30
 70
   128
 43
0.0
 10
37.9548851501
 20
28.3861897418
 10
37.9741822271
 20
28.3898315859
 10
37.9926841104
 20
28.3946565234
 10
38.0101738822
 20
28.4006079864
 10
38.0264464912
 20
28.4076161994
 10
38.0413111557
 20
28.4155989976
 10
38.0545936012
 20
28.42446279
 10
38.0661381031
 20
28.4341036566
 10
38.0758093128
 20
28.4444085671
 10
38.0834938441
 20
28.4552567059
 10
38.0891016029
 20
28.4665208885
 10
38.0925668435
 20
28.4780690526
 10
38.0938489389
 20
28.4897658066
 10
38.0929328578
 20
28.5014740167
 10
38.0898293404
 20
28.5130564148
 10
38.0845747727
 20
28.524377208
 10
38.0772307596
 20
28.5353036702
 10
38.0678834029
 20
28.5457076987
 10
38.056642292
 20
28.5554673158
 10
38.0436392184
 20
28.5644680989
 10
38.0290266315
 20
28.5726045221
 10
38.0129758503
 20
28.5797811931
 10
37.9956750557
 20
28.5859139722
 10
37.9773270835
 20
28.590930958
 10
37.9581470472
 20
28.5947733311
 10
37.9383598149
 20
28.597396043
 10
37.9181973739
 20
28.598768345
 10
37.8978961105
 20
28.5988741479
 10
37.8776940383
 20
28.5977122114
 10
37.8578280082
 20
28.5952961582
  0
LINE
  5
E7
330
1F
100
AcDbEntity
  8
0
  6
Continuous
 62
     7
370
    25
100
AcDbLine
 10
37.9548851501
 20
27.9005254553
 30
0.0
 11
37.6409592566
 21
27.9490846979
 31
0.0
  0
LWPOLYLINE
  5
E8
330
1F
100
AcDbEntity
  8
0
  6
Continuous
 62
     7
370
    25
100
AcDbPolyline
 90
       30
 70
   128
 43
0.0
 10
37.6409592566
 20
27.9490846979
 10
37.6210932265
 20
27.9515007512
 10
37.6008911543
 20
27.9526626877
 10
37.5805898908
 20
27.9525568847
 10
37.5604274499
 20
27.9511845828
 10
37.5406402176
 20
27.9485618708
 10
37.5214601812
 20
27.9447194978
 10
37.5031122091
 20
27.9397025119
 10
37.4858114145
 20
27.9335697329
 10
37.4697606333
 20
27.9263930618
 10
37.4551480463
 20
27.9182566387
 10
37.4421449728
 20
27.9092558556
 10
37.4309038618
 20
27.8994962385
 10
37.4215565052
 20
27.8890922099
 10
37.4142124921
 20
27.8781657477
 10
37.4089579243
 20
27.8668449545
 10
37.405854407
 20
27.8552625564
 10
37.4049383259
 20
27.8435543463
 10
37.4062204213
 20
27.8318575924
 10
37.4096856618
 20
27.8203094283
 10
37.4152934206
 20
27.8090452457
 10
37.4229779519
 20
27.7981971069
 10
37.4326491616
 20
27.7878921963
 10
37.4441936636
 20
27.7782513297
 10
37.4574761091
 20
27.7693875374
 10
37.4723407736
 20
27.7614047392
 10
37.4886133825
 20
27.7543965261
 10
37.5061031544
 20
27.7484450631
 10
37.5246050377
 20
27.7436201256
 10
37.5439021146
 20
27.7399782816
  0
LINE
  5
E9
330
1F
100
AcDbEntity
  8
0
  6
Continuous
 62
     7
370
    25
100
AcDbLine
 10
37.5439021146
 20
27.7399782816
 30
0.0
 11
37.8578280082
 21
27.6914190389
 31
0.0
  0
LWPOLYLINE
  5
EA
330
1F
100
AcDbEntity
  8
0
  6
Continuous
 62
     7
370
    25
100
AcDbPolyline
 90
       30
 70
   128
 43
0.0
 10
37.8578280082
 20
27.6914190389
 10
37.8776940383
 20
27.6890029856
 10
37.8978961105
 20
27.6878410492
 10
37.9181973739
 20
27.6879468521
 10
37.9383598149
 20
27.6893191541
 10
37.9581470472
 20
27.691941866
 10
37.9773270835
 20
27.6957842391
 10
37.9956750557
 20
27.7008012249
 10
38.0129758503
 20
27.706934004
 10
38.0290266315
 20
27.714110675
 10
38.0436392184
 20
27.7222470982
 10
38.056642292
 20
27.7312478813
 10
38.0678834029
 20
27.7410074984
 10
38.0772307596
 20
27.7514115269
 10
38.0845747727
 20
27.7623379891
 10
38.0898293404
 20
27.7736587823
 10
38.0929328578
 20
27.7852411804
 10
38.0938489389
 20
27.7969493905
 10
38.0925668435
 20
27.8086461445
 10
38.0891016029
 20
27.8201943086
 10
38.0834938441
 20
27.8314584912
 10
38.0758093128
 20
27.84230663
 10
38.0661381031
 20
27.8526115405
 10
38.0545936012
 20
27.8622524071
 10
38.0413111557
 20
27.8711161995
 10
38.0264464912
 20
27.8790989977
 10
38.0101738822
 20
27.8861072107
 10
37.9926841104
 20
27.8920586737
 10
37.9741822271
 20
27.8968836112
 10
37.9548851501
 20
27.9005254553
  0
LINE
  5
EB
330
1F
100
AcDbEntity
  8
0
  6
Continuous
 62
     7
370
    25
100
AcDbLine
 10
36.4434444053
 20
26.8749127648
 30
0.0
 11
36.3593282157
 21
27.0561383256
 31
0.0
  0
LWPOLYLINE
  5
EC
330
1F
100
AcDbEntity
  8
0
  6
Continuous
 62
     7
370
    25
100
AcDbPolyline
 90
       30
 70
   128
 43
0.0
 10
36.3593282157
 20
27.0561383256
 10
36.3530196732
 20
27.0672782911
 10
36.3446617307
 20
27.0779592009
 10
36.3343523773
 20
27.0880558313
 10
36.3222124809
 20
27.0974498085
 10
36.3083843705
 20
27.1060309967
 10
36.2930301682
 20
27.1136987892
 10
36.2763298879
 20
27.1203632884
 10
36.2584793251
 20
27.1259463589
 10
36.2396877614
 20
27.1303825444
 10
36.2201755107
 20
27.1336198346
 10
36.2001713362
 20
27.1356202754
 10
36.1799097687
 20
27.1363604133
 10
36.1596283564
 20
27.135831571
 10
36.1395648805
 20
27.1340399485
 10
36.1199545667
 20
27.1310065511
 10
36.1010273282
 20
27.1267669426
 10
36.0830050694
 20
27.1213708285
 10
36.0660990849
 20
27.1148814733
 10
36.0505075819
 20
27.1073749587
 10
36.0364133565
 20
27.0989392918
 10
36.0239816506
 20
27.089673373
 10
36.0133582146
 20
27.0796858369
 10
36.0046675986
 20
27.069093778
 10
35.9980116921
 20
27.0580213787
 10
35.9934685295
 20
27.0465984527
 10
35.9910913752
 20
27.0349589233
 10
35.9909080992
 20
27.0232392533
 10
35.9929208503
 20
27.0115768453
 10
35.9971060308
 20
27.0001084302
  0
LINE
  5
ED
330
1F
100
AcDbEntity
  8
0
  6
Continuous
 62
     7
370
    25
100
AcDbLine
 10
35.9971060308
 20
27.0001084302
 30
0.0
 11
36.0812222205
 21
26.8188828694
 31
0.0
  0
LWPOLYLINE
  5
EE
330
1F
100
AcDbEntity
  8
0
  6
Continuous
 62
     7
370
    25
100
AcDbPolyline
 90
       30
 70
   128
 43
0.0
 10
36.0812222205
 20
26.8188828694
 10
36.0875307629
 20
26.807742904
 10
36.0958887054
 20
26.7970619941
 10
36.1061980588
 20
26.7869653637
 10
36.1183379552
 20
26.7775713865
 10
36.1321660656
 20
26.7689901984
 10
36.1475202679
 20
26.7613224058
 10
36.1642205482
 20
26.7546579067
 10
36.182071111
 20
26.7490748362
 10
36.2008626747
 20
26.7446386507
 10
36.2203749254
 20
26.7414013604
 10
36.2403790999
 20
26.7394009196
 10
36.2606406674
 20
26.7386607817
 10
36.2809220797
 20
26.7391896241
 10
36.3009855556
 20
26.7409812465
 10
36.3205958694
 20
26.7440146439
 10
36.3395231079
 20
26.7482542524
 10
36.3575453667
 20
26.7536503665
 10
36.3744513512
 20
26.7601397218
 10
36.3900428542
 20
26.7676462363
 10
36.4041370796
 20
26.7760819032
 10
36.4165687855
 20
26.785347822
 10
36.4271922215
 20
26.7953353581
 10
36.4358828375
 20
26.805927417
 10
36.4425387441
 20
26.8169998163
 10
36.4470819067
 20
26.8284227424
 10
36.4494590609
 20
26.8400622718
 10
36.4496423369
 20
26.8517819417
 10
36.4476295858
 20
26.8634443497
 10
36.4434444053
 20
26.8749127648
  0
LINE
  5
EF
330
1F
100
AcDbEntity
  8
0
  6
Continuous
 62
     7
370
    25
100
AcDbLine
 10
35.2399358456
 20
26.8188828694
 30
0.0
 11
35.3240520353
 21
27.0001084302
 31
0.0
  0
LWPOLYLINE
  5
F0
330
1F
100
AcDbEntity
  8
0
  6
Continuous
 62
     7
370
    25
100
AcDbPolyline
 90
       30
 70
   128
 43
0.0
 10
35.3240520353
 20
27.0001084302
 10
35.3282372157
 20
27.0115768453
 10
35.3302499668
 20
27.0232392533
 10
35.3300666909
 20
27.0349589233
 10
35.3276895366
 20
27.0465984527
 10
35.323146374
 20
27.0580213787
 10
35.3164904675
 20
27.069093778
 10
35.3077998514
 20
27.0796858369
 10
35.2971764155
 20
27.089673373
 10
35.2847447096
 20
27.0989392918
 10
35.2706504842
 20
27.1073749587
 10
35.2550589812
 20
27.1148814733
 10
35.2381529967
 20
27.1213708285
 10
35.2201307379
 20
27.1267669426
 10
35.2012034993
 20
27.1310065511
 10
35.1815931856
 20
27.1340399485
 10
35.1615297096
 20
27.135831571
 10
35.1412482974
 20
27.1363604133
 10
35.1209867298
 20
27.1356202754
 10
35.1009825554
 20
27.1336198346
 10
35.0814703046
 20
27.1303825444
 10
35.0626787409
 20
27.1259463589
 10
35.0448281782
 20
27.1203632884
 10
35.0281278979
 20
27.1136987892
 10
35.0127736955
 20
27.1060309967
 10
34.9989455852
 20
27.0974498085
 10
34.9868056887
 20
27.0880558313
 10
34.9764963353
 20
27.0779592009
 10
34.9681383928
 20
27.0672782911
 10
34.9618298504
 20
27.0561383256
  0
LINE
  5
F1
330
1F
100
AcDbEntity
  8
0
  6
Continuous
 62
     7
370
    25
100
AcDbLine
 10
34.9618298504
 20
27.0561383256
 30
0.0
 11
34.8777136607
 21
26.8749127648
 31
0.0
  0
LWPOLYLINE
  5
F2
330
1F
100
AcDbEntity
  8
0
  6
Continuous
 62
     7
370
    25
100
AcDbPolyline
 90
       30
 70
   128
 43
0.0
 10
34.8777136607
 20
26.8749127648
 10
34.8735284803
 20
26.8634443497
 10
34.8715157292
 20
26.8517819417
 10
34.8716990051
 20
26.8400622718
 10
34.8740761594
 20
26.8284227424
 10
34.878619322
 20
26.8169998163
 10
34.8852752285
 20
26.805927417
 10
34.8939658445
 20
26.7953353581
 10
34.9045892805
 20
26.785347822
 10
34.9170209864
 20
26.7760819032
 10
34.9311152118
 20
26.7676462363
 10
34.9467067148
 20
26.7601397218
 10
34.9636126993
 20
26.7536503665
 10
34.9816349581
 20
26.7482542524
 10
35.0005621967
 20
26.7440146439
 10
35.0201725104
 20
26.7409812465
 10
35.0402359864
 20
26.7391896241
 10
35.0605173986
 20
26.7386607817
 10
35.0807789662
 20
26.7394009196
 10
35.1007831406
 20
26.7414013604
 10
35.1202953914
 20
26.7446386507
 10
35.1390869551
 20
26.7490748362
 10
35.1569375178
 20
26.7546579067
 10
35.1736377981
 20
26.7613224058
 10
35.1889920005
 20
26.7689901984
 10
35.2028201108
 20
26.7775713865
 10
35.2149600073
 20
26.7869653637
 10
35.2252693606
 20
26.7970619941
 10
35.2336273032
 20
26.807742904
 10
35.2399358456
 20
26.8188828694
  0
LWPOLYLINE
  5
F3
330
1F
100
AcDbEntity
  8
0
  6
Continuous
 62
     7
370
    25
100
AcDbPolyline
 90
       35
 70
   128
 43
0.0
 10
33.8637829492
 20
29.0363039709
 10
33.8642122442
 20
29.0278498448
 10
33.866680201
 20
29.014395679
 10
33.8713197057
 20
29.0011340439
 10
33.878089986
 20
28.9881814835
 10
33.8869315446
 20
28.9756518252
 10
33.8977666815
 20
28.9636551802
 10
33.9105001771
 20
28.9522969753
 10
33.9250201291
 20
28.941677027
 10
33.9411989354
 20
28.9318886636
 10
33.9588944163
 20
28.9230179057
 10
33.9779510632
 20
28.9151427098
 10
33.9982014056
 20
28.9083322835
 10
34.0194674828
 20
28.9026464769
 10
34.0415624076
 20
28.8981352572
 10
34.0642920092
 20
28.8948382691
 10
34.087456539
 20
28.8927844867
 10
34.1108524261
 20
28.8919919586
 10
34.1342740669
 20
28.8924676497
 10
34.1575156309
 20
28.8942073796
 10
34.1803728706
 20
28.8971958595
 10
34.2026449156
 20
28.9014068264
 10
34.2241360385
 20
28.9068032743
 10
34.2446573744
 20
28.9133377789
 10
34.2640285813
 20
28.9209529149
 10
34.282079424
 20
28.9295817601
 10
34.2986512714
 20
28.9391484839
 10
34.3135984892
 20
28.9495690137
 10
34.3267897209
 20
28.9607517733
 10
34.3381090415
 20
28.9725984884
 10
34.3474569762
 20
28.9850050496
 10
34.3547513753
 20
28.9978624275
 10
34.3599281351
 20
29.0110576311
 10
34.3629417622
 20
29.0244747004
 10
34.3637829492
 20
29.0363039709
  0
LWPOLYLINE
  5
F4
330
1F
100
AcDbEntity
  8
0
  6
Continuous
 62
     7
370
    25
100
AcDbPolyline
 90
       35
 70
   128
 43
0.0
 10
36.9573751169
 20
27.2504112262
 10
36.9578044119
 20
27.2419571002
 10
36.9602723687
 20
27.2285029343
 10
36.9649118734
 20
27.2152412993
 10
36.9716821537
 20
27.2022887389
 10
36.9805237123
 20
27.1897590806
 10
36.9913588492
 20
27.1777624356
 10
37.0040923448
 20
27.1664042307
 10
37.0186122968
 20
27.1557842824
 10
37.0347911031
 20
27.145995919
 10
37.052486584
 20
27.1371251611
 10
37.0715432309
 20
27.1292499652
 10
37.0917935733
 20
27.1224395388
 10
37.1130596505
 20
27.1167537323
 10
37.1351545753
 20
27.1122425125
 10
37.1578841769
 20
27.1089455245
 10
37.1810487066
 20
27.106891742
 10
37.2044445938
 20
27.106099214
 10
37.2278662345
 20
27.1065749051
 10
37.2511077986
 20
27.108314635
 10
37.2739650382
 20
27.1113031149
 10
37.2962370833
 20
27.1155140818
 10
37.3177282062
 20
27.1209105297
 10
37.3382495421
 20
27.1274450343
 10
37.3576207489
 20
27.1350601703
 10
37.3756715917
 20
27.1436890155
 10
37.3922434391
 20
27.1532557393
 10
37.4071906569
 20
27.1636762691
 10
37.4203818886
 20
27.1748590287
 10
37.4317012092
 20
27.1867057438
 10
37.4410491439
 20
27.199112305
 10
37.448343543
 20
27.2119696829
 10
37.4535203028
 20
27.2251648865
 10
37.4565339299
 20
27.2385819558
 10
37.4573751169
 20
27.2504112262
  0
LWPOLYLINE
  5
F5
330
1F
100
AcDbEntity
  8
0
  6
Continuous
 62
     7
370
    25
100
AcDbPolyline
 90
       29
 70
   128
 43
0.0
 10
36.867610608
 20
28.4220595131
 10
36.8759087806
 20
28.4117930801
 10
36.8861459422
 20
28.4021275585
 10
36.8981933547
 20
28.393184498
 10
36.9118995148
 20
28.3850763627
 10
36.9270920596
 20
28.3779051172
 10
36.943579934
 20
28.3717609439
 10
36.9611557935
 20
28.3667211095
 10
36.9795986114
 20
28.3628489928
 10
36.9986764585
 20
28.3601932879
 10
37.01814942
 20
28.3587873918
 10
37.0377726119
 20
28.3586489845
 10
37.0572992613
 20
28.3597798066
 10
37.0764838093
 20
28.3621656372
 10
37.0950849989
 20
28.3657764733
 10
37.1128689095
 20
28.3705669063
 10
37.129611898
 20
28.376476694
 10
37.1451034117
 20
28.3834315172
 10
37.1591486358
 20
28.391343915
 10
37.1715709434
 20
28.4001143844
 10
37.1822141169
 20
28.4096326317
 10
37.190944312
 20
28.4197789594
 10
37.1976517417
 20
28.4304257715
 10
37.202252056
 20
28.4414391783
 10
37.2046874033
 20
28.4526806796
 10
37.2049271578
 20
28.4640089072
 10
37.2029683043
 20
28.475281402
 10
37.1988354766
 20
28.4863564058
 10
37.1925806474
 20
28.497094644
  0
LWPOLYLINE
  5
F6
330
1F
100
AcDbEntity
  8
0
  6
Continuous
 62
     7
370
    25
100
AcDbPolyline
 90
       23
 70
   128
 43
0.0
 10
37.1925806474
 20
28.497094644
 10
37.1689919744
 20
28.5294031467
 10
37.1433596042
 20
28.5611886094
 10
37.1157182652
 20
28.5924079673
 10
37.0861054078
 20
28.6230189221
 10
37.0545611534
 20
28.6529800001
 10
37.0211282403
 20
28.6822506082
 10
36.9858519655
 20
28.7107910885
 10
36.9487801237
 20
28.7385627726
 10
36.9099629422
 20
28.7655280336
 10
36.8694530131
 20
28.791650337
 10
36.827305222
 20
28.8168942908
 10
36.7835766734
 20
28.8412256927
 10
36.7383266136
 20
28.864611577
 10
36.6916163505
 20
28.8870202589
 10
36.6435091702
 20
28.9084213776
 10
36.5940702513
 20
28.9287859376
 10
36.5433665771
 20
28.9480863475
 10
36.4914668442
 20
28.966296458
 10
36.4384413698
 20
28.9833915967
 10
36.3843619963
 20
28.999348602
 10
36.3293019939
 20
29.0141458543
 10
36.2733359617
 20
29.0277633054
  0
LWPOLYLINE
  5
F7
330
1F
100
AcDbEntity
  8
0
  6
Continuous
 62
     7
370
    25
100
AcDbPolyline
 90
       29
 70
   128
 43
0.0
 10
36.2733359617
 20
29.0277633054
 10
36.2547347721
 20
29.0313741414
 10
36.2355502241
 20
29.0337599721
 10
36.2160235747
 20
29.0348907941
 10
36.1964003828
 20
29.0347523868
 10
36.1769274213
 20
29.0333464908
 10
36.1578495742
 20
29.0306907858
 10
36.1394067563
 20
29.0268186691
 10
36.1218308968
 20
29.0217788347
 10
36.1053430224
 20
29.0156346615
 10
36.0901504776
 20
29.0084634159
 10
36.0764443175
 20
29.0003552807
 10
36.064396905
 20
28.9914122202
 10
36.0541597434
 20
28.9817466986
 10
36.0458615708
 20
28.9714802656
 10
36.0396067416
 20
28.9607420274
 10
36.0354739139
 20
28.9496670236
 10
36.0335150604
 20
28.9383945288
 10
36.0337548148
 20
28.9270663012
 10
36.0361901621
 20
28.9158247999
 10
36.0407904764
 20
28.9048113931
 10
36.0474979061
 20
28.894164581
 10
36.0562281013
 20
28.8840182533
 10
36.0668712747
 20
28.874500006
 10
36.0792935823
 20
28.8657295366
 10
36.0933388064
 20
28.8578171388
 10
36.1088303201
 20
28.8508623156
 10
36.1255733087
 20
28.8449525279
 10
36.1433572192
 20
28.8401620949
  0
LWPOLYLINE
  5
F8
330
1F
100
AcDbEntity
  8
0
  6
Continuous
 62
     7
370
    25
100
AcDbPolyline
 90
       20
 70
   128
 43
0.0
 10
36.1433572192
 20
28.8401620949
 10
36.1943502162
 20
28.8276537947
 10
36.2443736571
 20
28.813902521
 10
36.2933366783
 20
28.7989332519
 10
36.341150342
 20
28.7827731781
 10
36.3877277981
 20
28.7654516532
 10
36.4329844422
 20
28.7470001403
 10
36.4768380689
 20
28.7274521553
 10
36.5192090213
 20
28.7068432057
 10
36.5600203358
 20
28.6852107262
 10
36.5991978816
 20
28.6625940104
 10
36.6366704956
 20
28.63903414
 10
36.6723701115
 20
28.6145739098
 10
36.7062318836
 20
28.58925775
 10
36.7381943046
 20
28.5631316455
 10
36.768199317
 20
28.5362430524
 10
36.796192419
 20
28.5086408119
 10
36.8221227631
 20
28.4803750614
 10
36.8459432488
 20
28.4514971436
 10
36.867610608
 20
28.4220595131
  0
LWPOLYLINE
  5
F9
330
1F
100
AcDbEntity
  8
0
  6
Continuous
 62
     7
370
    25
100
AcDbPolyline
 90
       46
 70
   128
 43
0.0
 10
35.8459966468
 20
27.400556246
 10
35.7927547941
 20
27.3967726751
 10
35.7392878788
 20
27.394260353
 10
35.685686942
 20
27.3930235575
 10
35.6320432526
 20
27.3930643946
 10
35.5784481525
 20
27.3943827948
 10
35.5249929009
 20
27.3969765131
 10
35.4717685189
 20
27.4008411331
 10
35.4188656343
 20
27.4059700742
 10
35.3663743276
 20
27.4123546033
 10
35.3143839784
 20
27.419983849
 10
35.2629831135
 20
27.4288448205
 10
35.2122592558
 20
27.43892243
 10
35.1622987753
 20
27.4501995176
 10
35.1131867423
 20
27.4626568813
 10
35.0650067826
 20
27.4762733094
 10
35.0178409345
 20
27.4910256164
 10
34.9717695098
 20
27.5068886828
 10
34.9268709568
 20
27.5238354978
 10
34.8832217264
 20
27.541837205
 10
34.8408961425
 20
27.5608631522
 10
34.7999662751
 20
27.5808809428
 10
34.7605018175
 20
27.6018564915
 10
34.722569968
 20
27.6237540821
 10
34.686235315
 20
27.6465364285
 10
34.6515597275
 20
27.670164738
 10
34.6186022493
 20
27.6945987775
 10
34.5874189989
 20
27.7197969419
 10
34.5580630736
 20
27.7457163248
 10
34.5305844593
 20
27.7723127922
 10
34.5050299451
 20
27.7995410567
 10
34.4814430442
 20
27.8273547554
 10
34.4598639191
 20
27.8557065286
 10
34.4403293138
 20
27.8845481
 10
34.4228724907
 20
27.9138303598
 10
34.4075231747
 20
27.9435034475
 10
34.3943075016
 20
27.9735168373
 10
34.3832479746
 20
28.0038194236
 10
34.3743634252
 20
28.0343596088
 10
34.3676689817
 20
28.0650853906
 10
34.363176043
 20
28.0959444504
 10
34.3608922595
 20
28.1268842431
 10
34.3608215199
 20
28.1578520859
 10
34.3629639446
 20
28.1887952481
 10
34.3673158857
 20
28.2196610412
 10
34.3738699328
 20
28.2503969086
  0
LWPOLYLINE
  5
FA
330
1F
100
AcDbEntity
  8
0
  6
Continuous
 62
     7
370
    25
100
AcDbPolyline
 90
       29
 70
   128
 43
0.0
 10
34.3738699328
 20
28.2503969086
 10
34.3755754599
 20
28.261683117
 10
34.3750813121
 20
28.273008598
 10
34.3723937037
 20
28.2842309272
 10
34.3675464329
 20
28.2952089772
 10
34.3606004569
 20
28.3058046927
 10
34.3516431256
 20
28.3158848265
 10
34.3407870824
 20
28.325322615
 10
34.3281688484
 20
28.3339993725
 10
34.3139471052
 20
28.3418059838
 10
34.2983006996
 20
28.3486442762
 10
34.2814263941
 20
28.3544282542
 10
34.2635363929
 20
28.359085181
 10
34.2448556732
 20
28.3625564929
 10
34.2256191558
 20
28.3647985363
 10
34.2060687512
 20
28.3657831161
 10
34.186450317
 20
28.3654978506
 10
34.1670105663
 20
28.3639463273
 10
34.1479939654
 20
28.3611480574
 10
34.129639659
 20
28.3571382309
 10
34.1121784632
 20
28.3519672735
 10
34.0958299627
 20
28.3457002132
 10
34.0807997493
 20
28.3384158618
 10
34.0672768367
 20
28.3302058242
 10
34.0554312833
 20
28.3211733465
 10
34.0454120539
 20
28.3114320173
 10
34.0373451461
 20
28.3011043394
 10
34.0313320059
 20
28.2903201895
 10
34.027448252
 20
28.2792151844
  0
LWPOLYLINE
  5
FB
330
1F
100
AcDbEntity
  8
0
  6
Continuous
 62
     7
370
    25
100
AcDbPolyline
 90
       52
 70
   128
 43
0.0
 10
34.027448252
 20
28.2792151844
 10
34.0199634748
 20
28.244803641
 10
34.0146536837
 20
28.2102576093
 10
34.0115259179
 20
28.1756228873
 10
34.010584324
 20
28.1409453908
 10
34.0118301501
 20
28.1062710922
 10
34.0152617449
 20
28.0716459597
 10
34.0208745588
 20
28.0371158962
 10
34.0286611509
 20
28.0027266788
 10
34.0386111985
 20
27.9685238977
 10
34.0507115107
 20
27.934552896
 10
34.0649460458
 20
27.9008587095
 10
34.081295933
 20
27.867486007
 10
34.099739497
 20
27.8344790312
 10
34.1202522869
 20
27.8018815399
 10
34.1428071087
 20
27.7697367479
 10
34.1673740611
 20
27.7380872701
 10
34.1939205753
 20
27.7069750647
 10
34.2224114584
 20
27.6764413774
 10
34.2528089395
 20
27.6465266872
 10
34.2850727204
 20
27.6172706524
 10
34.3191600284
 20
27.5887120582
 10
34.3550256736
 20
27.560888765
 10
34.3926221084
 20
27.5338376585
 10
34.4318994907
 20
27.5075946009
 10
34.47280575
 20
27.4821943827
 10
34.5152866563
 20
27.4576706775
 10
34.5592858921
 20
27.4340559967
 10
34.6047451269
 20
27.4113816465
 10
34.651604095
 20
27.3896776867
 10
34.6998006746
 20
27.3689728904
 10
34.7492709711
 20
27.3492947063
 10
34.7999494008
 20
27.3306692221
 10
34.8517687788
 20
27.3131211298
 10
34.9046604075
 20
27.2966736931
 10
34.9585541676
 20
27.2813487166
 10
35.0133786114
 20
27.2671665169
 10
35.0690610576
 20
27.2541458954
 10
35.1255276871
 20
27.2423041139
 10
35.1827036413
 20
27.231656871
 10
35.2405131214
 20
27.222218282
 10
35.2988794885
 20
27.2140008598
 10
35.3577253655
 20
27.2070154983
 10
35.4169727397
 20
27.2012714581
 10
35.4765430661
 20
27.1967763541
 10
35.5363573713
 20
27.1935361456
 10
35.5963363589
 20
27.1915551281
 10
35.6564005139
 20
27.190835928
 10
35.7164702084
 20
27.1913794986
 10
35.7764658073
 20
27.1931851194
 10
35.8363077734
 20
27.1962503965
 10
35.8959167736
 20
27.2005712664
  0
LWPOLYLINE
  5
FC
330
1F
100
AcDbEntity
  8
0
  6
Continuous
 62
     7
370
    25
100
AcDbPolyline
 90
       29
 70
   128
 43
0.0
 10
35.8959167736
 20
27.2005712664
 10
35.915153291
 20
27.2028133098
 10
35.9338340107
 20
27.2062846218
 10
35.9517240119
 20
27.2109415485
 10
35.9685983174
 20
27.2167255265
 10
35.984244723
 20
27.2235638189
 10
35.9984664662
 20
27.2313704302
 10
36.0110847002
 20
27.2400471877
 10
36.0219407434
 20
27.2494849762
 10
36.0308980747
 20
27.25956511
 10
36.0378440507
 20
27.2701608255
 10
36.0426913215
 20
27.2811388756
 10
36.0453789299
 20
27.2923612047
 10
36.0458730777
 20
27.3036866857
 10
36.0441675507
 20
27.3149728941
 10
36.0402837968
 20
27.3260778992
 10
36.0342706566
 20
27.3368620491
 10
36.0262037488
 20
27.347189727
 10
36.0161845194
 20
27.3569310562
 10
36.004338966
 20
27.3659635339
 10
35.9908160534
 20
27.3741735715
 10
35.97578584
 20
27.3814579229
 10
35.9594373394
 20
27.3877249833
 10
35.9419761436
 20
27.3928959406
 10
35.9236218373
 20
27.3969057671
 10
35.9046052364
 20
27.399704037
 10
35.8851654857
 20
27.4012555603
 10
35.8655470515
 20
27.4015408258
 10
35.8459966468
 20
27.400556246
  0
LWPOLYLINE
  5
FD
330
1F
100
AcDbEntity
  8
0
  6
Continuous
 62
     7
370
    25
100
AcDbPolyline
 90
       89
 70
   128
 43
0.0
 10
37.7818993766
 20
26.7146102278
 10
37.724181506
 20
26.682173288
 10
37.6649758922
 20
26.6506426109
 10
37.6043252192
 20
26.6200409286
 10
37.5422732127
 20
26.5903903031
 10
37.4788646089
 20
26.5617121109
 10
37.4141451219
 20
26.5340270274
 10
37.3481614107
 20
26.507355012
 10
37.280961046
 20
26.4817152937
 10
37.2125924756
 20
26.4571263574
 10
37.1431049893
 20
26.4336059303
 10
37.0725486839
 20
26.4111709693
 10
37.0009744265
 20
26.3898376489
 10
36.9284338182
 20
26.3696213491
 10
36.8549791568
 20
26.3505366448
 10
36.780663399
 20
26.332597295
 10
36.7055401224
 20
26.315816233
 10
36.6296634866
 20
26.300205557
 10
36.5530881946
 20
26.2857765215
 10
36.4758694529
 20
26.2725395289
 10
36.3980629318
 20
26.2605041224
 10
36.3197247258
 20
26.2496789789
 10
36.2409113121
 20
26.2400719026
 10
36.161679511
 20
26.2316898199
 10
36.0820864442
 20
26.2245387736
 10
36.0021894938
 20
26.2186239194
 10
35.9220462613
 20
26.2139495214
 10
35.8417145253
 20
26.2105189497
 10
35.7612522007
 20
26.2083346775
 10
35.6807172962
 20
26.2073982796
 10
35.6001678732
 20
26.207710431
 10
35.5196620033
 20
26.2092709067
 10
35.4392577268
 20
26.2120785817
 10
35.3590130107
 20
26.2161314318
 10
35.278985707
 20
26.2214265351
 10
35.199233511
 20
26.2279600741
 10
35.1198139196
 20
26.2357273386
 10
35.0407841899
 20
26.2447227288
 10
34.9622012979
 20
26.2549397595
 10
34.8841218977
 20
26.2663710647
 10
34.8066022801
 20
26.2790084031
 10
34.7296983325
 20
26.292842664
 10
34.6534654983
 20
26.3078638735
 10
34.5779587373
 20
26.3240612022
 10
34.5032324856
 20
26.3414229728
 10
34.4293406167
 20
26.3599366683
 10
34.3563364025
 20
26.3795889415
 10
34.2842724751
 20
26.400365624
 10
34.2132007886
 20
26.4222517372
 10
34.1431725817
 20
26.4452315022
 10
34.0742383409
 20
26.4692883519
 10
34.0064477639
 20
26.4944049428
 10
33.939849724
 20
26.5205631671
 10
33.8744922347
 20
26.5477441662
 10
33.8104224151
 20
26.575928344
 10
33.7476864561
 20
26.6050953815
 10
33.6863295868
 20
26.6352242507
 10
33.6263960421
 20
26.6662932303
 10
33.5679290307
 20
26.6982799215
 10
33.5109707041
 20
26.7311612635
 10
33.4555621262
 20
26.7649135508
 10
33.4017432435
 20
26.7995124497
 10
33.3495528564
 20
26.8349330164
 10
33.2990285912
 20
26.8711497146
 10
33.2502068732
 20
26.9081364342
 10
33.2031229002
 20
26.9458665096
 10
33.157810617
 20
26.9843127397
 10
33.1143026913
 20
27.0234474068
 10
33.07263049
 20
27.063242297
 10
33.0328240563
 20
27.1036687203
 10
32.9949120886
 20
27.1446975316
 10
32.9589219192
 20
27.1862991514
 10
32.9248794951
 20
27.2284435872
 10
32.8928093589
 20
27.2711004551
 10
32.8627346315
 20
27.314239002
 10
32.8346769951
 20
27.3578281273
 10
32.8086566776
 20
27.4018364057
 10
32.7846924383
 20
27.4462321097
 10
32.7628015542
 20
27.4909832324
 10
32.7429998072
 20
27.5360575107
 10
32.7253014733
 20
27.5814224486
 10
32.7097193122
 20
27.6270453405
 10
32.6962645576
 20
27.6728932947
 10
32.6849469097
 20
27.7189332575
 10
32.6757745278
 20
27.7651320365
 10
32.6687540249
 20
27.8114563251
 10
32.6638904622
 20
27.8578727259
 10
32.6611873461
 20
27.9043477754
 10
32.660579033
 20
27.9392223956
  0
LWPOLYLINE
  5
FE
330
1F
100
AcDbEntity
  8
0
  6
Continuous
 62
     7
370
    25
100
AcDbPolyline
 90
       31
 70
   128
 43
0.0
 10
38.660579033
 20
27.9392223956
 10
38.6605114407
 20
27.9275968237
 10
38.6588893761
 20
27.881105013
 10
38.6551056957
 20
27.8346551017
 10
38.6491631273
 20
27.7882805776
 10
38.6410659552
 20
27.7420148742
 10
38.6308200169
 20
27.6958913466
 10
38.6184326993
 20
27.6499432471
 10
38.6039129329
 20
27.6042037019
 10
38.5872711856
 20
27.5587056867
 10
38.5685194552
 20
27.5134820029
 10
38.5476712607
 20
27.4685652544
 10
38.5247416326
 20
27.4239878237
 10
38.4997471016
 20
27.3797818485
 10
38.4727056877
 20
27.3359791991
 10
38.443636886
 20
27.2926114546
 10
38.4125616537
 20
27.2497098808
 10
38.3795023941
 20
27.2073054074
 10
38.3444829413
 20
27.1654286056
 10
38.3075285424
 20
27.1241096663
 10
38.2686658393
 20
27.0833783782
 10
38.2279228499
 20
27.0432641062
 10
38.1853289478
 20
27.0037957706
 10
38.1409148407
 20
26.9650018258
 10
38.0947125487
 20
26.9269102402
 10
38.0467553812
 20
26.8895484755
 10
37.9970779126
 20
26.8529434677
 10
37.9457159576
 20
26.8171216069
 10
37.8927065453
 20
26.7821087186
 10
37.8380878926
 20
26.7479300453
 10
37.7818993766
 20
26.7146102278
  0
LINE
  5
FF
330
1F
100
AcDbEntity
  8
0
  6
Continuous
 62
     7
370
    25
100
AcDbLine
 10
34.027448252
 20
28.2465535519
 30
0.0
 11
34.027448252
 21
28.2792151844
 31
0.0
  0
ARC
  5
100
330
1F
100
AcDbEntity
  8
0
  6
Continuous
 62
     7
370
    25
100
AcDbCircle
 10
34.5715082166
 20
28.1099526154
 30
0.0
 40
0.5609465758283337
100
AcDbArc
 50
165.9056942854
 51
178.2557539965
  0
LWPOLYLINE
  5
101
330
1F
100
AcDbEntity
  8
0
  6
Continuous
 62
     7
370
    25
100
AcDbPolyline
 90
       27
 70
   128
 43
0.0
 10
34.3733774109
 20
28.2484049035
 10
34.3723937037
 20
28.2515692947
 10
34.3675464329
 20
28.2625473447
 10
34.3606004569
 20
28.2731430602
 10
34.3516431256
 20
28.283223194
 10
34.3407870824
 20
28.2926609825
 10
34.3281688484
 20
28.30133774
 10
34.3139471052
 20
28.3091443513
 10
34.2983006996
 20
28.3159826437
 10
34.2814263941
 20
28.3217666217
 10
34.2635363929
 20
28.3264235485
 10
34.2448556732
 20
28.3298948604
 10
34.2256191558
 20
28.3321369038
 10
34.2060687512
 20
28.3331214836
 10
34.186450317
 20
28.3328362181
 10
34.1670105663
 20
28.3312846948
 10
34.1479939654
 20
28.328486425
 10
34.129639659
 20
28.3244765984
 10
34.1121784632
 20
28.3193056411
 10
34.0958299627
 20
28.3130385807
 10
34.0807997493
 20
28.3057542293
 10
34.0672768367
 20
28.2975441917
 10
34.0554312833
 20
28.288511714
 10
34.0454120539
 20
28.2787703848
 10
34.0373451461
 20
28.268442707
 10
34.0313320059
 20
28.257658557
 10
34.027448252
 20
28.2465535519
  0
LWPOLYLINE
  5
102
330
1F
100
AcDbEntity
  8
0
  6
Continuous
 62
     7
370
    25
100
AcDbPolyline
 90
        3
 70
   128
 43
0.0
 10
35.8459966468
 20
27.3678946135
 10
35.7927547941
 20
27.3641110426
 10
35.792163866
 20
27.3640762562
  0
ARC
  5
103
330
1F
100
AcDbEntity
  8
0
  6
Continuous
 62
     7
370
    25
100
AcDbCircle
 10
35.659683568
 20
29.585122406
 30
0.0
 40
2.224888609736241
100
AcDbArc
 50
264.0718800953
 51
268.9665989494
  0
ARC
  5
104
330
1F
100
AcDbEntity
  8
0
  6
Continuous
 62
     7
370
    25
100
AcDbCircle
 10
35.6470727959
 20
29.4722233081
 30
0.0
 40
2.111275249572448
100
AcDbArc
 50
259.8145234756
 51
263.057951801
  0
ARC
  5
105
330
1F
100
AcDbEntity
  8
0
  6
Continuous
 62
     7
370
    25
100
AcDbCircle
 10
35.6117932877
 20
29.2921152684
 30
0.0
 40
1.927715289638596
100
AcDbArc
 50
254.6901978871
 51
258.3292470996
  0
LWPOLYLINE
  5
106
330
1F
100
AcDbEntity
  8
0
  6
Continuous
 62
     7
370
    25
100
AcDbPolyline
 90
        3
 70
   128
 43
0.0
 10
34.9539442094
 20
27.4807728974
 10
34.9268709568
 20
27.4911738653
 10
34.9193387868
 20
27.4941692037
  0
ARC
  5
107
330
1F
100
AcDbEntity
  8
0
  6
Continuous
 62
     7
370
    25
100
AcDbCircle
 10
35.4414528824
 20
28.8074059553
 30
0.0
 40
1.413164017480576
100
AcDbArc
 50
242.4754959019
 51
246.9124564388
  0
ARC
  5
108
330
1F
100
AcDbEntity
  8
0
  6
Continuous
 62
     7
370
    25
100
AcDbCircle
 10
35.2764145469
 20
28.5161088272
 30
0.0
 40
1.078130295107625
100
AcDbArc
 50
232.9136707016
 51
238.6054703651
  0
ARC
  5
109
330
1F
100
AcDbEntity
  8
0
  6
Continuous
 62
     7
370
    25
100
AcDbCircle
 10
34.9455350653
 20
28.1484063553
 30
0.0
 40
0.5861703106651109
100
AcDbArc
 50
183.6885855563
 51
236.1691489838
  0
LWPOLYLINE
  5
10A
330
1F
100
AcDbEntity
  8
0
  6
Continuous
 62
     7
370
    25
100
AcDbPolyline
 90
       15
 70
   128
 43
0.0
 10
36.0436551176
 20
27.28423294
 10
36.0402837968
 20
27.2934162667
 10
36.0342706566
 20
27.3042004167
 10
36.0262037488
 20
27.3145280945
 10
36.0161845194
 20
27.3242694237
 10
36.004338966
 20
27.3333019015
 10
35.9908160534
 20
27.341511939
 10
35.97578584
 20
27.3487962904
 10
35.9594373394
 20
27.3550633508
 10
35.9419761436
 20
27.3602343081
 10
35.9236218373
 20
27.3642441347
 10
35.9046052364
 20
27.3670424045
 10
35.8851654857
 20
27.3685939278
 10
35.8655470515
 20
27.3688791933
 10
35.8459966468
 20
27.3678946135
  0
LINE
  5
10B
330
1F
100
AcDbEntity
  8
0
  6
Continuous
 62
     7
370
    25
100
AcDbLine
 10
34.276479049
 20
28.1735735024
 30
0.0
 11
34.2278075686
 21
28.174110944
 31
0.0
  0
SPLINE
  5
10C
330
1F
100
AcDbEntity
  8
0
  6
Continuous
 62
     7
370
    25
100
AcDbSpline
210
0.0
220
0.0
230
1.0
 70
     8
 71
     3
 72
    10
 73
     6
 74
     0
 42
0.00000001
 43
0.00000001
 40
0.0
 40
0.0
 40
0.0
 40
0.0
 40
0.2985276185868212
 40
0.6494462022092768
 40
1.0
 40
1.0
 40
1.0
 40
1.0
 10
34.29811187101423
 20
28.14675584506854
 30
0.0
 10
34.29682417815103
 20
28.14962922389488
 30
0.0
 10
34.29402280505338
 20
28.15588025344821
 30
0.0
 10
34.28695148439937
 20
28.16502664621549
 30
0.0
 10
34.27996865037473
 20
28.17072553820529
 30
0.0
 10
34.27647904899977
 20
28.17357350240624
 30
0.0
  0
SPLINE
  5
10D
330
1F
100
AcDbEntity
  8
0
  6
Continuous
 62
     7
370
    25
100
AcDbSpline
210
0.0
220
0.0
230
1.0
 70
     8
 71
     3
 72
    11
 73
     7
 74
     0
 42
0.00000001
 43
0.00000001
 40
0.0
 40
0.0
 40
0.0
 40
0.0
 40
0.2479962112786201
 40
0.495509049737021
 40
0.7427038874408347
 40
1.0
 40
1.0
 40
1.0
 40
1.0
 10
34.15072266857599
 20
28.17423993000683
 30
0.0
 10
34.14459886066359
 20
28.17315298117365
 30
0.0
 10
34.13236318083688
 20
28.17098120209421
 30
0.0
 10
34.11550868207809
 20
28.16535808002007
 30
0.0
 10
34.10293663516996
 20
28.15643263398758
 30
0.0
 10
34.09877779623018
 20
28.14926642256243
 30
0.0
 10
34.09665674115198
 20
28.14561157337137
 30
0.0
  0
SPLINE
  5
10E
330
1F
100
AcDbEntity
  8
0
  6
Continuous
 62
     7
370
    25
100
AcDbSpline
210
0.0
220
0.0
230
1.0
 70
     8
 71
     3
 72
    16
 73
    12
 74
     0
 42
0.00000001
 43
0.00000001
 40
0.0
 40
0.0
 40
0.0
 40
0.0
 40
0.1135796523717203
 40
0.2271546233907067
 40
0.3407332444329189
 40
0.454233890038411
 40
0.5676990057174045
 40
0.6791248787199102
 40
0.7906332104922358
 40
0.9021738824326394
 40
1.0
 40
1.0
 40
1.0
 40
1.0
 10
34.19693636952532
 20
28.0545194362109
 30
0.0
 10
34.18897854069073
 20
28.05478727564627
 30
0.0
 10
34.17306321101519
 20
28.05532294347763
 30
0.0
 10
34.14972307511454
 20
28.05856289895419
 30
0.0
 10
34.12749098986031
 20
28.06368899048895
 30
0.0
 10
34.10688274921527
 20
28.07079903622486
 30
0.0
 10
34.08952668535343
 20
28.08031930436077
 30
0.0
 10
34.07666652150435
 20
28.09186650328473
 30
0.0
 10
34.06826273909316
 20
28.10457001517227
 30
0.0
 10
34.06379016828462
 20
28.11737329439865
 30
0.0
 10
34.06351309639557
 20
28.1258529688368
 30
0.0
 10
34.06338363523674
 20
28.12981507586661
 30
0.0
  0
SPLINE
  5
10F
330
1F
100
AcDbEntity
  8
0
  6
Continuous
 62
     7
370
    25
100
AcDbSpline
210
0.0
220
0.0
230
1.0
 70
     8
 71
     3
 72
    16
 73
    12
 74
     0
 42
0.00000001
 43
0.00000001
 40
0.0
 40
0.0
 40
0.0
 40
0.0
 40
0.1120376071779545
 40
0.2240482135896523
 40
0.3360614008568722
 40
0.4480182721461242
 40
0.5599381337898562
 40
0.6698831462841119
 40
0.7798977818577018
 40
0.8899335478886146
 40
1.0
 40
1.0
 40
1.0
 40
1.0
 10
34.33330588836213
 20
28.13001923405814
 30
0.0
 10
34.33283174572023
 20
28.12543109919447
 30
0.0
 10
34.33188357470353
 20
28.11625593519546
 30
0.0
 10
34.32605799602295
 20
28.10282111715356
 30
0.0
 10
34.31656114038346
 20
28.0901391654387
 30
0.0
 10
34.30328141974186
 20
28.07860105841905
 30
0.0
 10
34.28595033230317
 20
28.06909761583148
 30
0.0
 10
34.26553170886836
 20
28.06213512434113
 30
0.0
 10
34.24348093864907
 20
28.05744510113474
 30
0.0
 10
34.22039839711537
 20
28.05472983085762
 30
0.0
 10
34.20475777224713
 20
28.05458957427787
 30
0.0
 10
34.19693636952532
 20
28.0545194362109
 30
0.0
  0
LINE
  5
110
330
1F
100
AcDbEntity
  8
0
  6
Continuous
 62
     7
370
    25
100
AcDbLine
 10
34.2263552444
 20
28.1297612621
 30
0.0
 11
34.1957447189
 21
28.1301052247
 31
0.0
  0
LINE
  5
111
330
1F
100
AcDbEntity
  8
0
  6
Continuous
 62
     7
370
    25
100
AcDbLine
 10
34.2278075686
 20
28.174110944
 30
0.0
 11
34.2263552444
 21
28.1297612621
 31
0.0
  0
LINE
  5
112
330
1F
100
AcDbEntity
  8
0
  6
Continuous
 62
     7
370
    25
100
AcDbLine
 10
34.3392728741
 20
28.005539709
 30
0.0
 11
34.2338634077
 21
27.9466300554
 31
0.0
  0
LINE
  5
113
330
1F
100
AcDbEntity
  8
0
  6
Continuous
 62
     7
370
    25
100
AcDbLine
 10
34.0819135773
 20
27.9798929952
 30
0.0
 11
34.0759925633
 21
27.9987034517
 31
0.0
  0
LINE
  5
114
330
1F
100
AcDbEntity
  8
0
  6
Continuous
 62
     7
370
    25
100
AcDbLine
 10
34.2117527324
 20
27.9935223529
 30
0.0
 11
34.0819135773
 21
27.9798929952
 31
0.0
  0
LINE
  5
115
330
1F
100
AcDbEntity
  8
0
  6
Continuous
 62
     7
370
    25
100
AcDbLine
 10
34.1127847764
 20
27.8818421473
 30
0.0
 11
34.1064541325
 21
27.9019639613
 31
0.0
  0
LINE
  5
116
330
1F
100
AcDbEntity
  8
0
  6
Continuous
 62
     7
370
    25
100
AcDbLine
 10
34.3697344433
 20
27.9088002186
 30
0.0
 11
34.1127847764
 21
27.8818421473
 31
0.0
  0
LINE
  5
117
330
1F
100
AcDbEntity
  8
0
  6
Continuous
 62
     7
370
    25
100
AcDbLine
 10
34.1488269589
 20
27.8101047586
 30
0.0
 11
34.1382510596
 21
27.8290227034
 31
0.0
  0
LINE
  5
118
330
1F
100
AcDbEntity
  8
0
  6
Continuous
 62
     7
370
    25
100
AcDbLine
 10
34.3963923771
 20
27.856281742
 30
0.0
 11
34.1488269589
 21
27.8101047586
 31
0.0
  0
LINE
  5
119
330
1F
100
AcDbEntity
  8
0
  6
Continuous
 62
     7
370
    25
100
AcDbLine
 10
34.2625506198
 20
27.6636475343
 30
0.0
 11
34.17652834
 21
27.7716518009
 31
0.0
  0
LINE
  5
11A
330
1F
100
AcDbEntity
  8
0
  6
Continuous
 62
     7
370
    25
100
AcDbLine
 10
34.2904054532
 20
27.6710427309
 30
0.0
 11
34.2625506198
 21
27.6636475343
 31
0.0
  0
LINE
  5
11B
330
1F
100
AcDbEntity
  8
0
  6
Continuous
 62
     7
370
    25
100
AcDbLine
 10
34.4628596427
 20
27.77120035
 30
0.0
 11
34.2761288149
 21
27.7216301215
 31
0.0
  0
LINE
  5
11C
330
1F
100
AcDbEntity
  8
0
  6
Continuous
 62
     7
370
    25
100
AcDbLine
 10
34.5425070484
 20
27.6930102611
 30
0.0
 11
34.4684274548
 21
27.6632915074
 31
0.0
  0
LINE
  5
11D
330
1F
100
AcDbEntity
  8
0
  6
Continuous
 62
     7
370
    25
100
AcDbLine
 10
34.3291271077
 20
27.607406561
 30
0.0
 11
34.3095021114
 21
27.6237232883
 31
0.0
  0
LINE
  5
11E
330
1F
100
AcDbEntity
  8
0
  6
Continuous
 62
     7
370
    25
100
AcDbLine
 10
34.416750668
 20
27.6425552425
 30
0.0
 11
34.3291271077
 21
27.607406561
 31
0.0
  0
LINE
  5
11F
330
1F
100
AcDbEntity
  8
0
  6
Continuous
 62
     7
370
    25
100
AcDbLine
 10
34.4672942904
 20
27.6005436939
 30
0.0
 11
34.416750668
 21
27.6425552425
 31
0.0
  0
LINE
  5
120
330
1F
100
AcDbEntity
  8
0
  6
Continuous
 62
     7
370
    25
100
AcDbLine
 10
34.425837004
 20
27.5270697886
 30
0.0
 11
34.4061747686
 21
27.5433650183
 31
0.0
  0
LINE
  5
121
330
1F
100
AcDbEntity
  8
0
  6
Continuous
 62
     7
370
    25
100
AcDbLine
 10
34.6392169447
 20
27.6126734888
 30
0.0
 11
34.425837004
 21
27.5270697886
 31
0.0
  0
LINE
  5
122
330
1F
100
AcDbEntity
  8
0
  6
Continuous
 62
     7
370
    25
100
AcDbLine
 10
34.6589530434
 20
27.5528492476
 30
0.0
 11
34.6546644405
 21
27.5500775372
 31
0.0
  0
SPLINE
  5
123
330
1F
100
AcDbEntity
  8
0
  6
Continuous
 62
     7
370
    25
100
AcDbSpline
210
0.0
220
0.0
230
1.0
 70
     8
 71
     3
 72
    11
 73
     7
 74
     0
 42
0.00000001
 43
0.00000001
 40
0.0
 40
0.0
 40
0.0
 40
0.0
 40
0.2799357428865327
 40
0.5599333474557614
 40
0.7800949405810236
 40
1.0
 40
1.0
 40
1.0
 40
1.0
 10
34.73376635939395
 20
27.53519966505835
 30
0.0
 10
34.72774134137194
 20
27.53797148803228
 30
0.0
 10
34.71568997388754
 20
27.54351574651227
 30
0.0
 10
34.69586532067019
 20
27.54837545549078
 30
0.0
 10
34.677009879931
 20
27.55186541790005
 30
0.0
 10
34.66496964929001
 20
27.55252143186734
 30
0.0
 10
34.65895304335267
 20
27.55284924764166
 30
0.0
  0
SPLINE
  5
124
330
1F
100
AcDbEntity
  8
0
  6
Continuous
 62
     7
370
    25
100
AcDbSpline
210
0.0
220
0.0
230
1.0
 70
     8
 71
     3
 72
    10
 73
     6
 74
     0
 42
0.00000001
 43
0.00000001
 40
0.0
 40
0.0
 40
0.0
 40
0.0
 40
0.0756663027289841
 40
0.5378708680270371
 40
1.0
 40
1.0
 40
1.0
 40
1.0
 10
34.76228460142252
 20
27.51113715331578
 30
0.0
 10
34.76195580675274
 20
27.51185586233325
 30
0.0
 10
34.75961858307377
 20
27.51696477646203
 30
0.0
 10
34.75009661840214
 20
27.52543722484173
 30
0.0
 10
34.73920948290305
 20
27.53194569536794
 30
0.0
 10
34.73376635939395
 20
27.53519966505835
 30
0.0
  0
LINE
  5
125
330
1F
100
AcDbEntity
  8
0
  6
Continuous
 62
     7
370
    25
100
AcDbLine
 10
34.5760960856
 20
27.4983096727
 30
0.0
 11
34.5733846762
 21
27.4943247544
 31
0.0
  0
SPLINE
  5
126
330
1F
100
AcDbEntity
  8
0
  6
Continuous
 62
     7
370
    25
100
AcDbSpline
210
0.0
220
0.0
230
1.0
 70
     8
 71
     3
 72
    12
 73
     8
 74
     0
 42
0.00000001
 43
0.00000001
 40
0.0
 40
0.0
 40
0.0
 40
0.0
 40
0.2181894768477209
 40
0.4363836063075509
 40
0.6544793424271016
 40
0.8724436823161642
 40
1.0
 40
1.0
 40
1.0
 40
1.0
 10
34.57520234759517
 20
27.43218285660619
 30
0.0
 10
34.57032853900165
 20
27.43486604943498
 30
0.0
 10
34.56058081788688
 20
27.44023249230822
 30
0.0
 10
34.54849725803618
 20
27.44966295922759
 30
0.0
 10
34.53930846102085
 20
27.46002142163789
 30
0.0
 10
34.53365179671015
 20
27.46972286687191
 30
0.0
 10
34.53393822253877
 20
27.47590041475575
 30
0.0
 10
34.53404396274037
 20
27.47818098827026
 30
0.0
  0
SPLINE
  5
127
330
1F
100
AcDbEntity
  8
0
  6
Continuous
 62
     7
370
    25
100
AcDbSpline
210
0.0
220
0.0
230
1.0
 70
     8
 71
     3
 72
    16
 73
    12
 74
     0
 42
0.00000001
 43
0.00000001
 40
0.0
 40
0.0
 40
0.0
 40
0.0
 40
0.112052653638259
 40
0.2240916696276924
 40
0.336115976137987
 40
0.4480801158755061
 40
0.5600023298289474
 40
0.6699272669355409
 40
0.7799231083899958
 40
0.8899444394853957
 40
1.0
 40
1.0
 40
1.0
 40
1.0
 10
34.76337142970397
 20
27.44050245278126
 30
0.0
 10
34.75784073781704
 20
27.43718884194702
 30
0.0
 10
34.74678002716991
 20
27.43056202356983
 30
0.0
 10
34.72724730918306
 20
27.42251882795054
 30
0.0
 10
34.7060934306222
 20
27.41606264134958
 30
0.0
 10
34.68330313861998
 20
27.41171493892776
 30
0.0
 10
34.65949805761062
 20
27.41030947089792
 30
0.0
 10
34.63595665052422
 20
27.4122355432461
 30
0.0
 10
34.61381900287403
 20
27.41686162117991
 30
0.0
 10
34.59324087432443
 20
27.42350450330744
 30
0.0
 10
34.58121581327317
 20
27.42928977223811
 30
0.0
 10
34.57520234759517
 20
27.43218285660619
 30
0.0
  0
SPLINE
  5
128
330
1F
100
AcDbEntity
  8
0
  6
Continuous
 62
     7
370
    25
100
AcDbSpline
210
0.0
220
0.0
230
1.0
 70
     8
 71
     3
 72
    12
 73
     8
 74
     0
 42
0.00000001
 43
0.00000001
 40
0.0
 40
0.0
 40
0.0
 40
0.0
 40
0.0675010879969514
 40
0.3004885246696383
 40
0.5336224257935388
 40
0.766785692460364
 40
1.0
 40
1.0
 40
1.0
 40
1.0
 10
34.80093065204956
 20
27.49281175790528
 30
0.0
 10
34.80109197651559
 20
27.49150897710179
 30
0.0
 10
34.80181013013696
 20
27.48570950492696
 30
0.0
 10
34.7977744484964
 20
27.47547642992643
 30
0.0
 10
34.7899351014425
 20
27.46276574515383
 30
0.0
 10
34.77833116368241
 20
27.45091430226907
 30
0.0
 10
34.76835837150788
 20
27.44397332248668
 30
0.0
 10
34.76337142970397
 20
27.44050245278126
 30
0.0
  0
LINE
  5
129
330
1F
100
AcDbEntity
  8
0
  6
Continuous
 62
     7
370
    25
100
AcDbLine
 10
34.663347255
 20
27.4892591559
 30
0.0
 11
34.5807882099
 21
27.5316740481
 31
0.0
  0
LINE
  5
12A
330
1F
100
AcDbEntity
  8
0
  6
Continuous
 62
     7
370
    25
100
AcDbLine
 10
34.6837542721
 20
27.5024157266
 30
0.0
 11
34.663347255
 21
27.4892591559
 31
0.0
  0
LINE
  5
12B
330
1F
100
AcDbEntity
  8
0
  6
Continuous
 62
     7
370
    25
100
AcDbLine
 10
34.7746277136
 20
27.3413723844
 30
0.0
 11
34.7459163812
 21
27.3524006863
 31
0.0
  0
LINE
  5
12C
330
1F
100
AcDbEntity
  8
0
  6
Continuous
 62
     7
370
    25
100
AcDbLine
 10
34.9193387868
 20
27.466617778
 30
0.0
 11
34.7746277136
 21
27.3413723844
 31
0.0
  0
LINE
  5
12D
330
1F
100
AcDbEntity
  8
0
  6
Continuous
 62
     7
370
    25
100
AcDbLine
 10
35.033842888
 20
27.4102014317
 30
0.0
 11
34.9446859362
 21
27.4383619106
 31
0.0
  0
LINE
  5
12E
330
1F
100
AcDbEntity
  8
0
  6
Continuous
 62
     7
370
    25
100
AcDbLine
 10
34.9761425214
 20
27.2766476842
 30
0.0
 11
34.9469575202
 21
27.2858789761
 31
0.0
  0
LINE
  5
12F
330
1F
100
AcDbEntity
  8
0
  6
Continuous
 62
     7
370
    25
100
AcDbLine
 10
35.102803079
 20
27.4086951336
 30
0.0
 11
34.9773158322
 21
27.2763392182
 31
0.0
  0
LINE
  5
130
330
1F
100
AcDbEntity
  8
0
  6
Continuous
 62
     7
370
    25
100
AcDbLine
 10
35.2761173466
 20
27.3038271352
 30
0.0
 11
35.2218407417
 21
27.379639481
 31
0.0
  0
LINE
  5
131
330
1F
100
AcDbEntity
  8
0
  6
Continuous
 62
     7
370
    25
100
AcDbLine
 10
35.2093656492
 20
27.2272425371
 30
0.0
 11
35.2047613876
 21
27.2279004539
 31
0.0
  0
LINE
  5
132
330
1F
100
AcDbEntity
  8
0
  6
Continuous
 62
     7
370
    25
100
AcDbLine
 10
35.3487265941
 20
27.2756979458
 30
0.0
 11
35.2093656492
 21
27.2272425371
 31
0.0
  0
LINE
  5
133
330
1F
100
AcDbEntity
  8
0
  6
Continuous
 62
     7
370
    25
100
AcDbLine
 10
35.4298954937
 20
27.349908211
 30
0.0
 11
35.3681810037
 21
27.2059085824
 31
0.0
  0
LINE
  5
134
330
1F
100
AcDbEntity
  8
0
  6
Continuous
 62
     7
370
    25
100
AcDbLine
 10
35.5525832821
 20
27.2763024985
 30
0.0
 11
35.4552775605
 21
27.2825153235
 31
0.0
  0
LINE
  5
135
330
1F
100
AcDbEntity
  8
0
  6
Continuous
 62
     7
370
    25
100
AcDbLine
 10
35.5561209949
 20
27.2946830017
 30
0.0
 11
35.5525832821
 21
27.2763024985
 31
0.0
  0
SPLINE
  5
136
330
1F
100
AcDbEntity
  8
0
  6
Continuous
 62
     7
370
    25
100
AcDbSpline
210
0.0
220
0.0
230
1.0
 70
     8
 71
     3
 72
    10
 73
     6
 74
     0
 42
0.00000001
 43
0.00000001
 40
0.0
 40
0.0
 40
0.0
 40
0.0
 40
0.2127870451706782
 40
0.6061965919631105
 40
1.0
 40
1.0
 40
1.0
 40
1.0
 10
35.614903808351
 20
27.27104333806208
 30
0.0
 10
35.61250208436029
 20
27.2724463644513
 30
0.0
 10
35.60565995307905
 20
27.27644336443268
 30
0.0
 10
35.59878583192516
 20
27.28514149711438
 30
0.0
 10
35.5975817895829
 20
27.29240371339032
 30
0.0
 10
35.59697946720636
 20
27.29603663825751
 30
0.0
  0
SPLINE
  5
137
330
1F
100
AcDbEntity
  8
0
  6
Continuous
 62
     7
370
    25
100
AcDbSpline
210
0.0
220
0.0
230
1.0
 70
     8
 71
     3
 72
    13
 73
     9
 74
     0
 42
0.00000001
 43
0.00000001
 40
0.0
 40
0.0
 40
0.0
 40
0.0
 40
0.1321537997137801
 40
0.3009953148247755
 40
0.4697641887070501
 40
0.646469740831505
 40
0.8233066412038393
 40
1.0
 40
1.0
 40
1.0
 40
1.0
 10
35.67917072074866
 20
27.19117051249236
 30
0.0
 10
35.67470513463578
 20
27.19143871114259
 30
0.0
 10
35.66453425418562
 20
27.19204956408315
 30
0.0
 10
35.64920089435387
 20
27.19487310880984
 30
0.0
 10
35.63415884055602
 20
27.20025295139686
 30
0.0
 10
35.62254847310886
 20
27.20812984321256
 30
0.0
 10
35.61422792044622
 20
27.21755198083365
 30
0.0
 10
35.61293228477619
 20
27.22448728869368
 30
0.0
 10
35.6122847299704
 20
27.22795353467487
 30
0.0
  0
SPLINE
  5
138
330
1F
100
AcDbEntity
  8
0
  6
Continuous
 62
     7
370
    25
100
AcDbSpline
210
0.0
220
0.0
230
1.0
 70
     8
 71
     3
 72
     9
 73
     5
 74
     0
 42
0.00000001
 43
0.00000001
 40
0.0
 40
0.0
 40
0.0
 40
0.0
 40
0.5601200490725738
 40
1.0
 40
1.0
 40
1.0
 40
1.0
 10
35.69327973364874
 20
27.35578532804716
 30
0.0
 10
35.68888844581178
 20
27.35572795970923
 30
0.0
 10
35.68104854105523
 20
27.35562553820509
 30
0.0
 10
35.67327553881832
 20
27.35503479424026
 30
0.0
 10
35.66985635097579
 20
27.35477493781401
 30
0.0
  0
SPLINE
  5
139
330
1F
100
AcDbEntity
  8
0
  6
Continuous
 62
     7
370
    25
100
AcDbSpline
210
0.0
220
0.0
230
1.0
 70
     8
 71
     3
 72
    12
 73
     8
 74
     0
 42
0.00000001
 43
0.00000001
 40
0.0
 40
0.0
 40
0.0
 40
0.0
 40
0.1870050697002708
 40
0.3737199622267813
 40
0.5602021420217341
 40
0.7799977604521356
 40
0.9999999999999999
 40
0.9999999999999999
 40
0.9999999999999999
 40
0.9999999999999999
 10
35.66985635097579
 20
27.35477493781401
 30
0.0
 10
35.66600405653147
 20
27.35422777462292
 30
0.0
 10
35.65830544527712
 20
27.35313429727799
 30
0.0
 10
35.64763575868828
 20
27.34985529608376
 30
0.0
 10
35.63908896331026
 20
27.3444016121882
 30
0.0
 10
35.6332705781557
 20
27.33729819796488
 30
0.0
 10
35.63285992896549
 20
27.33188106056392
 30
0.0
 10
35.63265450790698
 20
27.32917121935271
 30
0.0
  0
SPLINE
  5
13A
330
1F
100
AcDbEntity
  8
0
  6
Continuous
 62
     7
370
    25
100
AcDbSpline
210
0.0
220
0.0
230
1.0
 70
     8
 71
     3
 72
    14
 73
    10
 74
     0
 42
0.00000001
 43
0.00000001
 40
0.0
 40
0.0
 40
0.0
 40
0.0
 40
0.1250361296241339
 40
0.2499839926356926
 40
0.3748727506733509
 40
0.499821163527005
 40
0.6662556690111171
 40
0.8330913027458069
 40
1.0
 40
1.0
 40
1.0
 40
1.0
 10
35.63265450790698
 20
27.32917121935271
 30
0.0
 10
35.63295467538
 20
27.32697335537853
 30
0.0
 10
35.63355479842915
 20
27.32257917896579
 30
0.0
 10
35.63807148211207
 20
27.31641719737416
 30
0.0
 10
35.64520889448619
 20
27.31119357604319
 30
0.0
 10
35.65584161804259
 20
27.30700943863764
 30
0.0
 10
35.66949824620217
 20
27.30492569404504
 30
0.0
 10
35.68464991237771
 20
27.30414624703742
 30
0.0
 10
35.69479659781262
 20
27.30419036634458
 30
0.0
 10
35.69987105118946
 20
27.30421243082747
 30
0.0
  0
LINE
  5
13B
330
1F
100
AcDbEntity
  8
0
  6
Continuous
 62
     7
370
    25
100
AcDbLine
 10
35.6998710512
 20
27.3042124308
 30
0.0
 11
35.7600121689
 21
27.3050078444
 31
0.0
  0
LINE
  5
13C
330
1F
100
AcDbEntity
  8
0
  6
Continuous
 62
     7
370
    25
100
AcDbLine
 10
35.7600121689
 20
27.3050078444
 30
0.0
 11
35.7580012584
 21
27.3566452346
 31
0.0
  0
LINE
  5
13D
330
1F
100
AcDbEntity
  8
0
  6
Continuous
 62
     7
370
    25
100
AcDbLine
 10
35.7580012584
 20
27.3566452346
 30
0.0
 11
35.6932797336
 21
27.355785328
 31
0.0
  0
LINE
  5
13E
330
1F
100
AcDbEntity
  8
0
  6
Continuous
 62
     7
370
    25
100
AcDbLine
 10
35.7917398669
 20
27.3748322588
 30
0.0
 11
35.7976608809
 21
27.2246280767
 31
0.0
  0
LINE
  5
13F
330
1F
100
AcDbEntity
  8
0
  6
Continuous
 62
     7
370
    25
100
AcDbLine
 10
35.7976608809
 20
27.2246280767
 30
0.0
 11
35.7000944857
 21
27.2233382168
 31
0.0
  0
SPLINE
  5
140
330
1F
100
AcDbEntity
  8
0
  6
Continuous
 62
     7
370
    25
100
AcDbSpline
210
0.0
220
0.0
230
1.0
 70
     8
 71
     3
 72
    14
 73
    10
 74
     0
 42
0.00000001
 43
0.00000001
 40
0.0
 40
0.0
 40
0.0
 40
0.0
 40
0.1402183266257212
 40
0.2803631956239102
 40
0.4203702249113772
 40
0.5603170185238142
 40
0.706845077071995
 40
0.8534820524228665
 40
1.0
 40
1.0
 40
1.0
 40
1.0
 10
35.70009448568237
 20
27.22333821684645
 30
0.0
 10
35.69435422618861
 20
27.2233363592861
 30
0.0
 10
35.68287671441031
 20
27.22333264513857
 30
0.0
 10
35.66575377144842
 20
27.22459011135713
 30
0.0
 10
35.64919646146515
 20
27.22750789776277
 30
0.0
 10
35.63416009001542
 20
27.23292215002016
 30
0.0
 10
35.62254813318828
 20
27.24078941728627
 30
0.0
 10
35.61422800537218
 20
27.25021412758139
 30
0.0
 10
35.61293231307717
 20
27.2571490925468
 30
0.0
 10
35.6122847299704
 20
27.26061516715029
 30
0.0
  0
SPLINE
  5
141
330
1F
100
AcDbEntity
  8
0
  6
Continuous
 62
     7
370
    25
100
AcDbSpline
210
0.0
220
0.0
230
1.0
 70
     8
 71
     3
 72
    11
 73
     7
 74
     0
 42
0.00000001
 43
0.00000001
 40
0.0
 40
0.0
 40
0.0
 40
0.0
 40
0.2796429620182568
 40
0.5595002498433135
 40
0.779695779362687
 40
1.0
 40
1.0
 40
1.0
 40
1.0
 10
35.6122847299704
 20
27.26061516715029
 30
0.0
 10
35.61277845915358
 20
27.26438367460276
 30
0.0
 10
35.61376629592711
 20
27.27192357779205
 30
0.0
 10
35.62246230103648
 20
27.28140537876557
 30
0.0
 10
35.63413876691025
 20
27.28845273018598
 30
0.0
 10
35.64297965144785
 20
27.29146343062062
 30
0.0
 10
35.64740118443876
 20
27.29296915227561
 30
0.0
  0
SPLINE
  5
142
330
1F
100
AcDbEntity
  8
0
  6
Continuous
 62
     7
370
    25
100
AcDbSpline
210
0.0
220
0.0
230
1.0
 70
     8
 71
     3
 72
    12
 73
     8
 74
     0
 42
0.00000001
 43
0.00000001
 40
0.0
 40
0.0
 40
0.0
 40
0.0
 40
0.1869257345126103
 40
0.3736654663812588
 40
0.5603208383601507
 40
0.7800504282426101
 40
1.0
 40
1.0
 40
1.0
 40
1.0
 10
35.64740118443876
 20
27.29296915227561
 30
0.0
 10
35.64228262161124
 20
27.29391579405915
 30
0.0
 10
35.63205058924216
 20
27.29580813565923
 30
0.0
 10
35.61836288017063
 20
27.30090977339943
 30
0.0
 10
35.60683236735935
 20
27.30823604127086
 30
0.0
 10
35.59869561095328
 20
27.31775318111016
 30
0.0
 10
35.59755170589624
 20
27.32504869082004
 30
0.0
 10
35.59697946720636
 20
27.32869827073294
 30
0.0
  0
SPLINE
  5
143
330
1F
100
AcDbEntity
  8
0
  6
Continuous
 62
     7
370
    25
100
AcDbSpline
210
0.0
220
0.0
230
1.0
 70
     8
 71
     3
 72
    14
 73
    10
 74
     0
 42
0.00000001
 43
0.00000001
 40
0.0
 40
0.0
 40
0.0
 40
0.0
 40
0.1399807413099312
 40
0.2799552664152959
 40
0.4198515156477149
 40
0.5595754935867603
 40
0.706253934190311
 40
0.8530978688762235
 40
0.9999999999999999
 40
0.9999999999999999
 40
0.9999999999999999
 40
0.9999999999999999
 10
35.59697946720636
 20
27.32869827073294
 30
0.0
 10
35.59726126486281
 20
27.33248577207098
 30
0.0
 10
35.59782484766176
 20
27.34006060655333
 30
0.0
 10
35.605137878222
 20
27.35070916737457
 30
0.0
 10
35.6160476614512
 20
27.36025600279326
 30
0.0
 10
35.63257510736693
 20
27.36705376324867
 30
0.0
 10
35.65175551751901
 20
27.37094395471469
 30
0.0
 10
35.67203597440206
 20
27.37303423584001
 30
0.0
 10
35.68572588145275
 20
27.37335865804776
 30
0.0
 10
35.69257219108788
 20
27.37352090128861
 30
0.0
  0
LINE
  5
144
330
1F
100
AcDbEntity
  8
0
  6
Continuous
 62
     7
370
    25
100
AcDbLine
 10
35.6925721911
 20
27.3735209013
 30
0.0
 11
35.7917398669
 21
27.3748322588
 31
0.0
  0
SPLINE
  5
145
330
1F
100
AcDbEntity
  8
0
  6
Continuous
 62
     7
370
    25
100
AcDbSpline
210
0.0
220
0.0
230
1.0
 70
     8
 71
     3
 72
     9
 73
     5
 74
     0
 42
0.00000001
 43
0.00000001
 40
0.0
 40
0.0
 40
0.0
 40
0.0
 40
0.5603048054130847
 40
1.0
 40
1.0
 40
1.0
 40
1.0
 10
35.70452593645833
 20
27.28651985291509
 30
0.0
 10
35.69833771910373
 20
27.28644053487064
 30
0.0
 10
35.68729334237375
 20
27.28629897255728
 30
0.0
 10
35.67650092029255
 20
27.28495918473069
 30
0.0
 10
35.67175554416549
 20
27.28437008646158
 30
0.0
  0
SPLINE
  5
146
330
1F
100
AcDbEntity
  8
0
  6
Continuous
 62
     7
370
    25
100
AcDbSpline
210
0.0
220
0.0
230
1.0
 70
     8
 71
     3
 72
    11
 73
     7
 74
     0
 42
0.00000001
 43
0.00000001
 40
0.0
 40
0.0
 40
0.0
 40
0.0
 40
0.280063356065417
 40
0.5593107280085596
 40
0.7794795196751327
 40
1.0
 40
1.0
 40
1.0
 40
1.0
 10
35.67175554416549
 20
27.28437008646157
 30
0.0
 10
35.6675508009006
 20
27.28340559042269
 30
0.0
 10
35.65915356518362
 20
27.28147940847141
 30
0.0
 10
35.65057125841909
 20
27.27588898086471
 30
0.0
 10
35.6464105497378
 20
27.26956538966114
 30
0.0
 10
35.64622693585357
 20
27.26547712489265
 30
0.0
 10
35.64613505564563
 20
27.26343136120439
 30
0.0
  0
SPLINE
  5
147
330
1F
100
AcDbEntity
  8
0
  6
Continuous
 62
     7
370
    25
100
AcDbSpline
210
0.0
220
0.0
230
1.0
 70
     8
 71
     3
 72
    14
 73
    10
 74
     0
 42
0.00000001
 43
0.00000001
 40
0.0
 40
0.0
 40
0.0
 40
0.0
 40
0.1250374168697602
 40
0.250009348949977
 40
0.3748300138937734
 40
0.4996454591814956
 40
0.6661183983831639
 40
0.833043689525961
 40
1.0
 40
1.0
 40
1.0
 40
1.0
 10
35.64613505564563
 20
27.26343136120439
 30
0.0
 10
35.64642509725713
 20
27.26134903735739
 30
0.0
 10
35.64700502857909
 20
27.25718548022124
 30
0.0
 10
35.65115213863873
 20
27.25131746038162
 30
0.0
 10
35.65796754278317
 20
27.24635754573487
 30
0.0
 10
35.6684873958165
 20
27.24270806128228
 30
0.0
 10
35.68171328815262
 20
27.24148647641411
 30
0.0
 10
35.69608442423946
 20
27.2410985125416
 30
0.0
 10
35.70570879581825
 20
27.24115368807889
 30
0.0
 10
35.71052142868464
 20
27.24118127841057
 30
0.0
  0
LINE
  5
148
330
1F
100
AcDbEntity
  8
0
  6
Continuous
 62
     7
370
    25
100
AcDbLine
 10
35.7105214287
 20
27.2411812784
 30
0.0
 11
35.7625071874
 21
27.2418692037
 31
0.0
  0
LINE
  5
149
330
1F
100
AcDbEntity
  8
0
  6
Continuous
 62
     7
370
    25
100
AcDbLine
 10
35.7625071874
 20
27.2418692037
 30
0.0
 11
35.7607197114
 21
27.2872722712
 31
0.0
  0
LINE
  5
14A
330
1F
100
AcDbEntity
  8
0
  6
Continuous
 62
     7
370
    25
100
AcDbLine
 10
35.7607197114
 20
27.2872722712
 30
0.0
 11
35.7045259365
 21
27.2865198529
 31
0.0
  0
LINE
  5
14B
330
1F
100
AcDbEntity
  8
0
  6
Continuous
 62
     7
370
    25
100
AcDbLine
 10
35.8459966468
 20
27.3678946135
 30
0.0
 11
35.8459966468
 21
27.400556246
 31
0.0
  0
LINE
  5
14C
330
1F
100
AcDbEntity
  8
0
  6
Continuous
 62
     7
370
    25
100
AcDbLine
 10
35.4298954937
 20
27.3825698435
 30
0.0
 11
35.3676317484
 21
27.2372886265
 31
0.0
  0
LINE
  5
14D
330
1F
100
AcDbEntity
  8
0
  6
Continuous
 62
     7
370
    25
100
AcDbLine
 10
35.3676317484
 20
27.2372886265
 30
0.0
 11
35.3343027698
 21
27.2420396104
 31
0.0
  0
LINE
  5
14E
330
1F
100
AcDbEntity
  8
0
  6
Continuous
 62
     7
370
    25
100
AcDbLine
 10
35.3343027698
 20
27.2420396104
 30
0.0
 11
35.3651739689
 21
27.3140782842
 31
0.0
  0
LINE
  5
14F
330
1F
100
AcDbEntity
  8
0
  6
Continuous
 62
     7
370
    25
100
AcDbLine
 10
35.3651739689
 20
27.3140782842
 30
0.0
 11
35.2093656492
 21
27.2599041696
 31
0.0
  0
LINE
  5
150
330
1F
100
AcDbEntity
  8
0
  6
Continuous
 62
     7
370
    25
100
AcDbLine
 10
35.2093656492
 20
27.2599041696
 30
0.0
 11
35.1642318816
 21
27.266353469
 31
0.0
  0
LINE
  5
151
330
1F
100
AcDbEntity
  8
0
  6
Continuous
 62
     7
370
    25
100
AcDbLine
 10
35.1642318816
 20
27.266353469
 30
0.0
 11
35.2949782991
 21
27.3101442116
 31
0.0
  0
LINE
  5
152
330
1F
100
AcDbEntity
  8
0
  6
Continuous
 62
     7
370
    25
100
AcDbLine
 10
35.2949782991
 20
27.3101442116
 30
0.0
 11
35.2218407417
 21
27.4123011135
 31
0.0
  0
LINE
  5
153
330
1F
100
AcDbEntity
  8
0
  6
Continuous
 62
     7
370
    25
100
AcDbLine
 10
35.2218407417
 20
27.4123011135
 30
0.0
 11
35.2657828587
 21
27.4060237955
 31
0.0
  0
LINE
  5
154
330
1F
100
AcDbEntity
  8
0
  6
Continuous
 62
     7
370
    25
100
AcDbLine
 10
35.2657828587
 20
27.4060237955
 30
0.0
 11
35.3238758268
 21
27.3196891747
 31
0.0
  0
LINE
  5
155
330
1F
100
AcDbEntity
  8
0
  6
Continuous
 62
     7
370
    25
100
AcDbLine
 10
35.3238758268
 20
27.3196891747
 30
0.0
 11
35.3749678475
 21
27.336973297
 31
0.0
  0
LINE
  5
156
330
1F
100
AcDbEntity
  8
0
  6
Continuous
 62
     7
370
    25
100
AcDbLine
 10
35.3749678475
 20
27.336973297
 30
0.0
 11
35.3965665152
 21
27.3873208273
 31
0.0
  0
LINE
  5
157
330
1F
100
AcDbEntity
  8
0
  6
Continuous
 62
     7
370
    25
100
AcDbLine
 10
35.3965665152
 20
27.3873208273
 30
0.0
 11
35.4298954937
 21
27.3825698435
 31
0.0
  0
LINE
  5
158
330
1F
100
AcDbEntity
  8
0
  6
Continuous
 62
     7
370
    25
100
AcDbLine
 10
35.7976608809
 20
27.2246280767
 30
0.0
 11
35.7976608809
 21
27.1941258576
 31
0.0
  0
LINE
  5
159
330
1F
100
AcDbEntity
  8
0
  6
Continuous
 62
     7
370
    25
100
AcDbLine
 10
35.61228473
 20
27.2606151672
 30
0.0
 11
35.61228473
 21
27.2279535347
 31
0.0
  0
LINE
  5
15A
330
1F
100
AcDbEntity
  8
0
  6
Continuous
 62
     7
370
    25
100
AcDbLine
 10
35.3343027698
 20
27.2420396104
 30
0.0
 11
35.3343027698
 21
27.2096415598
 31
0.0
  0
LINE
  5
15B
330
1F
100
AcDbEntity
  8
0
  6
Continuous
 62
     7
370
    25
100
AcDbLine
 10
35.3676317484
 20
27.2372886265
 30
0.0
 11
35.3676317484
 21
27.2059657311
 31
0.0
  0
SPLINE
  5
15C
330
1F
100
AcDbEntity
  8
0
  6
Continuous
 62
     7
370
    25
100
AcDbSpline
210
0.0
220
0.0
230
1.0
 70
     8
 71
     3
 72
     9
 73
     5
 74
     0
 42
0.00000001
 43
0.00000001
 40
0.0
 40
0.0
 40
0.0
 40
0.0
 40
0.8250715208903543
 40
1.0
 40
1.0
 40
1.0
 40
1.0
 10
35.67175554416549
 20
27.25170845398615
 30
0.0
 10
35.66731694305968
 20
27.25089154453063
 30
0.0
 10
35.66193728688027
 20
27.2499014370856
 30
0.0
 10
35.6584129146587
 20
27.24749290795909
 30
0.0
 10
35.65779640158615
 20
27.24707158762209
 30
0.0
  0
SPLINE
  5
15D
330
1F
100
AcDbEntity
  8
0
  6
Continuous
 62
     7
370
    25
100
AcDbSpline
210
0.0
220
0.0
230
1.0
 70
     8
 71
     3
 72
     9
 73
     5
 74
     0
 42
0.00000001
 43
0.00000001
 40
0.0
 40
0.0
 40
0.0
 40
0.0
 40
0.5603048054131023
 40
1.0
 40
1.0
 40
1.0
 40
1.0
 10
35.70452593645833
 20
27.25385822043965
 30
0.0
 10
35.69833771910373
 20
27.25377890239521
 30
0.0
 10
35.68729334237375
 20
27.25363734008185
 30
0.0
 10
35.67650092029255
 20
27.25229755225526
 30
0.0
 10
35.67175554416549
 20
27.25170845398615
 30
0.0
  0
LINE
  5
15E
330
1F
100
AcDbEntity
  8
0
  6
Continuous
 62
     7
370
    25
100
AcDbLine
 10
35.7607197114
 20
27.2546106387
 30
0.0
 11
35.7045259365
 21
27.2538582204
 31
0.0
  0
LINE
  5
15F
330
1F
100
AcDbEntity
  8
0
  6
Continuous
 62
     7
370
    25
100
AcDbLine
 10
35.7612219992
 20
27.2418521968
 30
0.0
 11
35.7607197114
 21
27.2546106387
 31
0.0
  0
LINE
  5
160
330
1F
100
AcDbEntity
  8
0
  6
Continuous
 62
     7
370
    25
100
AcDbLine
 10
35.4298954937
 20
27.3825698435
 30
0.0
 11
35.4298954937
 21
27.349908211
 31
0.0
  0
LINE
  5
161
330
1F
100
AcDbEntity
  8
0
  6
Continuous
 62
     7
370
    25
100
AcDbLine
 10
35.7607197114
 20
27.2872722712
 30
0.0
 11
35.7607197114
 21
27.2546106387
 31
0.0
  0
LINE
  5
162
330
1F
100
AcDbEntity
  8
0
  6
Continuous
 62
     7
370
    25
100
AcDbLine
 10
35.2093656492
 20
27.2599041696
 30
0.0
 11
35.2093656492
 21
27.2272425371
 31
0.0
  0
LINE
  5
163
330
1F
100
AcDbEntity
  8
0
  6
Continuous
 62
     7
370
    25
100
AcDbLine
 10
35.1642318816
 20
27.266353469
 30
0.0
 11
35.1642318816
 21
27.2349518624
 31
0.0
  0
LINE
  5
164
330
1F
100
AcDbEntity
  8
0
  6
Continuous
 62
     7
370
    25
100
AcDbLine
 10
35.6717555442
 20
27.2843700865
 30
0.0
 11
35.6717555442
 21
27.251708454
 31
0.0
  0
LINE
  5
165
330
1F
100
AcDbEntity
  8
0
  6
Continuous
 62
     7
370
    25
100
AcDbLine
 10
35.7045259365
 20
27.2865198529
 30
0.0
 11
35.7045259365
 21
27.2538582204
 31
0.0
  0
LWPOLYLINE
  5
166
330
1F
100
AcDbEntity
  8
0
  6
Continuous
 62
     7
370
    25
100
AcDbPolyline
 90
       69
 70
   128
 43
0.0
 10
36.7247333521
 20
28.1188613742
 10
36.7227071867
 20
28.1394852173
 10
36.7180904655
 20
28.16714593
 10
36.7113133091
 20
28.1946579557
 10
36.7023895628
 20
28.221965089
 10
36.6913374572
 20
28.2490115429
 10
36.6781795713
 20
28.275742063
 10
36.6629427857
 20
28.3021020406
 10
36.6456582285
 20
28.3280376235
 10
36.6263612109
 20
28.353495827
 10
36.6050911556
 20
28.3784246414
 10
36.5818915162
 20
28.4027731385
 10
36.5568096882
 20
28.4264915758
 10
36.5298969123
 20
28.4495314978
 10
36.5012081698
 20
28.4718458353
 10
36.4708020702
 20
28.4933890014
 10
36.4387407313
 20
28.5141169846
 10
36.4050896526
 20
28.5339874389
 10
36.3699175814
 20
28.55295977
 10
36.3332963722
 20
28.5709952186
 10
36.2953008401
 20
28.5880569393
 10
36.2560086076
 20
28.604110076
 10
36.2154999466
 20
28.6191218329
 10
36.173857614
 20
28.6330615421
 10
36.1311666827
 20
28.6459007253
 10
36.0875143678
 20
28.657613153
 10
36.0429898484
 20
28.6681748973
 10
35.9976840857
 20
28.6775643812
 10
35.9516896366
 20
28.6857624225
 10
35.9051004653
 20
28.692752273
 10
35.8580117507
 20
28.6985196529
 10
35.8105196924
 20
28.7030527797
 10
35.7627213139
 20
28.7063423927
 10
35.7147142645
 20
28.7083817712
 10
35.66659662
 20
28.7091667489
 10
35.6184666819
 20
28.7086957221
 10
35.570422777
 20
28.7069696533
 10
35.522563056
 20
28.7039920685
 10
35.4749852939
 20
28.6997690508
 10
35.4277866891
 20
28.6943092277
 10
35.3810636657
 20
28.6876237532
 10
35.3349116762
 20
28.6797262854
 10
35.2894250064
 20
28.6706329583
 10
35.2446965831
 20
28.6603623491
 10
35.2008177838
 20
28.64893544
 10
35.1578782503
 20
28.6363755756
 10
35.1159657058
 20
28.622708415
 10
35.075165775
 20
28.6079618794
 10
35.0355618101
 20
28.592166095
 10
34.9972347194
 20
28.5753533319
 10
34.9602628033
 20
28.5575579375
 10
34.924721593
 20
28.5388162667
 10
34.8906836973
 20
28.5191666078
 10
34.8582186537
 20
28.4986491039
 10
34.8273927864
 20
28.4773056709
 10
34.7982690708
 20
28.4551799125
 10
34.770907005
 20
28.4323170302
 10
34.7453624883
 20
28.4087637315
 10
34.7216877065
 20
28.3845681346
 10
34.6999310259
 20
28.3597796695
 10
34.6801368941
 20
28.3344489779
 10
34.6623457494
 20
28.3086278087
 10
34.6465939381
 20
28.2823689132
 10
34.6329136403
 20
28.2557259367
 10
34.621332804
 20
28.2287533095
 10
34.6118750882
 20
28.2015061349
 10
34.6045598144
 20
28.1740400774
 10
34.5994019274
 20
28.1464112486
 10
34.596424714
 20
28.1188613742
  0
LINE
  5
167
330
1F
100
AcDbEntity
  8
0
  6
Continuous
 62
     7
370
    25
100
AcDbLine
 10
35.4552775605
 20
27.315176956
 30
0.0
 11
35.4552775605
 21
27.2825153235
 31
0.0
  0
LINE
  5
168
330
1F
100
AcDbEntity
  8
0
  6
Continuous
 62
     7
370
    25
100
AcDbLine
 10
35.5525832821
 20
27.3089641309
 30
0.0
 11
35.4552775605
 21
27.315176956
 31
0.0
  0
LINE
  5
169
330
1F
100
AcDbEntity
  8
0
  6
Continuous
 62
     7
370
    25
100
AcDbLine
 10
35.5525832821
 20
27.3089641309
 30
0.0
 11
35.5525832821
 21
27.2763024985
 31
0.0
  0
LINE
  5
16A
330
1F
100
AcDbEntity
  8
0
  6
Continuous
 62
     7
370
    25
100
AcDbLine
 10
35.5561209949
 20
27.3273446341
 30
0.0
 11
35.5525832821
 21
27.3089641309
 31
0.0
  0
LINE
  5
16B
330
1F
100
AcDbEntity
  8
0
  6
Continuous
 62
     7
370
    25
100
AcDbLine
 10
35.4552775605
 20
27.315176956
 30
0.0
 11
35.4588152733
 21
27.3335574592
 31
0.0
  0
LINE
  5
16C
330
1F
100
AcDbEntity
  8
0
  6
Continuous
 62
     7
370
    25
100
AcDbLine
 10
35.4588152733
 20
27.3335574592
 30
0.0
 11
35.5561209949
 21
27.3273446341
 31
0.0
  0
LINE
  5
16D
330
1F
100
AcDbEntity
  8
0
  6
Continuous
 62
     7
370
    25
100
AcDbLine
 10
35.5969794672
 20
27.3286982707
 30
0.0
 11
35.5969794672
 21
27.2960366383
 31
0.0
  0
SPLINE
  5
16E
330
1F
100
AcDbEntity
  8
0
  6
Continuous
 62
     7
370
    25
100
AcDbSpline
210
0.0
220
0.0
230
1.0
 70
     8
 71
     3
 72
    10
 73
     6
 74
     0
 42
0.00000001
 43
0.00000001
 40
0.0
 40
0.0
 40
0.0
 40
0.0
 40
0.3756490287649605
 40
0.7507151601054592
 40
1.0
 40
1.0
 40
1.0
 40
1.0
 10
35.66985635097579
 20
27.32211330533858
 30
0.0
 10
35.66602380905649
 20
27.32155549383117
 30
0.0
 10
35.65836467220202
 20
27.32044073637666
 30
0.0
 10
35.64862048409142
 20
27.31766848178104
 30
0.0
 10
35.64439130992542
 20
27.31471883664774
 30
0.0
 10
35.6427027260144
 20
27.31354113076006
 30
0.0
  0
SPLINE
  5
16F
330
1F
100
AcDbEntity
  8
0
  6
Continuous
 62
     7
370
    25
100
AcDbSpline
210
0.0
220
0.0
230
1.0
 70
     8
 71
     3
 72
     9
 73
     5
 74
     0
 42
0.00000001
 43
0.00000001
 40
0.0
 40
0.0
 40
0.0
 40
0.0
 40
0.5601200490725514
 40
1.0
 40
1.0
 40
1.0
 40
1.0
 10
35.69327973364874
 20
27.32312369557172
 30
0.0
 10
35.68888844581178
 20
27.3230663272338
 30
0.0
 10
35.68104854105523
 20
27.32296390572966
 30
0.0
 10
35.67327553881832
 20
27.32237316176483
 30
0.0
 10
35.66985635097579
 20
27.32211330533858
 30
0.0
  0
LINE
  5
170
330
1F
100
AcDbEntity
  8
0
  6
Continuous
 62
     7
370
    25
100
AcDbLine
 10
35.7580012584
 20
27.3239836022
 30
0.0
 11
35.6932797336
 21
27.3231236956
 31
0.0
  0
LINE
  5
171
330
1F
100
AcDbEntity
  8
0
  6
Continuous
 62
     7
370
    25
100
AcDbLine
 10
35.7587408845
 20
27.3049910307
 30
0.0
 11
35.7580012584
 21
27.3239836022
 31
0.0
  0
LINE
  5
172
330
1F
100
AcDbEntity
  8
0
  6
Continuous
 62
     7
370
    25
100
AcDbLine
 10
35.102803079
 20
27.4413567661
 30
0.0
 11
34.9772701331
 21
27.3089526502
 31
0.0
  0
LINE
  5
173
330
1F
100
AcDbEntity
  8
0
  6
Continuous
 62
     7
370
    25
100
AcDbLine
 10
34.9772701331
 20
27.3089526502
 30
0.0
 11
34.9469575202
 21
27.3185406086
 31
0.0
  0
LINE
  5
174
330
1F
100
AcDbEntity
  8
0
  6
Continuous
 62
     7
370
    25
100
AcDbLine
 10
34.9469575202
 20
27.3185406086
 30
0.0
 11
35.0576693115
 21
27.43533742
 31
0.0
  0
LINE
  5
175
330
1F
100
AcDbEntity
  8
0
  6
Continuous
 62
     7
370
    25
100
AcDbLine
 10
35.0576693115
 20
27.43533742
 30
0.0
 11
34.9446859362
 21
27.4710235431
 31
0.0
  0
LINE
  5
176
330
1F
100
AcDbEntity
  8
0
  6
Continuous
 62
     7
370
    25
100
AcDbLine
 10
34.9446859362
 20
27.4710235431
 30
0.0
 11
34.9595070909
 21
27.4866308476
 31
0.0
  0
LINE
  5
177
330
1F
100
AcDbEntity
  8
0
  6
Continuous
 62
     7
370
    25
100
AcDbLine
 10
34.9595070909
 20
27.4866308476
 30
0.0
 11
35.102803079
 21
27.4413567661
 31
0.0
  0
LINE
  5
178
330
1F
100
AcDbEntity
  8
0
  6
Continuous
 62
     7
370
    25
100
AcDbLine
 10
34.9469575202
 20
27.3185406086
 30
0.0
 11
34.9469575202
 21
27.2858789761
 31
0.0
  0
LINE
  5
179
330
1F
100
AcDbEntity
  8
0
  6
Continuous
 62
     7
370
    25
100
AcDbLine
 10
34.9772701331
 20
27.3089526502
 30
0.0
 11
34.9772701331
 21
27.2763512206
 31
0.0
  0
LINE
  5
17A
330
1F
100
AcDbEntity
  8
0
  6
Continuous
 62
     7
370
    25
100
AcDbLine
 10
35.7580012584
 20
27.3566452346
 30
0.0
 11
35.7580012584
 21
27.3239836022
 31
0.0
  0
LINE
  5
17B
330
1F
100
AcDbEntity
  8
0
  6
Continuous
 62
     7
370
    25
100
AcDbLine
 10
35.102803079
 20
27.4413567661
 30
0.0
 11
35.102803079
 21
27.4086951336
 31
0.0
  0
LINE
  5
17C
330
1F
100
AcDbEntity
  8
0
  6
Continuous
 62
     7
370
    25
100
AcDbLine
 10
35.5561209949
 20
27.3273446341
 30
0.0
 11
35.5561209949
 21
27.2946830017
 31
0.0
  0
LINE
  5
17D
330
1F
100
AcDbEntity
  8
0
  6
Continuous
 62
     7
370
    25
100
AcDbLine
 10
35.2218407417
 20
27.4123011135
 30
0.0
 11
35.2218407417
 21
27.379639481
 31
0.0
  0
LINE
  5
17E
330
1F
100
AcDbEntity
  8
0
  6
Continuous
 62
     7
370
    25
100
AcDbLine
 10
35.669856351
 20
27.3547749378
 30
0.0
 11
35.669856351
 21
27.3221133053
 31
0.0
  0
LINE
  5
17F
330
1F
100
AcDbEntity
  8
0
  6
Continuous
 62
     7
370
    25
100
AcDbLine
 10
35.6932797336
 20
27.355785328
 30
0.0
 11
35.6932797336
 21
27.3231236956
 31
0.0
  0
LINE
  5
180
330
1F
100
AcDbEntity
  8
0
  6
Continuous
 62
     7
370
    25
100
AcDbLine
 10
34.9193387868
 20
27.4992794104
 30
0.0
 11
34.7746277136
 21
27.3740340168
 31
0.0
  0
LINE
  5
181
330
1F
100
AcDbEntity
  8
0
  6
Continuous
 62
     7
370
    25
100
AcDbLine
 10
34.7746277136
 20
27.3740340168
 30
0.0
 11
34.7459163812
 21
27.3850623188
 31
0.0
  0
LINE
  5
182
330
1F
100
AcDbEntity
  8
0
  6
Continuous
 62
     7
370
    25
100
AcDbLine
 10
34.7459163812
 20
27.3850623188
 30
0.0
 11
34.8906274545
 21
27.5103077123
 31
0.0
  0
LINE
  5
183
330
1F
100
AcDbEntity
  8
0
  6
Continuous
 62
     7
370
    25
100
AcDbLine
 10
34.8906274545
 20
27.5103077123
 30
0.0
 11
34.9193387868
 21
27.4992794104
 31
0.0
  0
LINE
  5
184
330
1F
100
AcDbEntity
  8
0
  6
Continuous
 62
     7
370
    25
100
AcDbLine
 10
34.7459163812
 20
27.3850623188
 30
0.0
 11
34.7459163812
 21
27.3524006863
 31
0.0
  0
LINE
  5
185
330
1F
100
AcDbEntity
  8
0
  6
Continuous
 62
     7
370
    25
100
AcDbLine
 10
34.7746277136
 20
27.3740340168
 30
0.0
 11
34.7746277136
 21
27.3413723844
 31
0.0
  0
LINE
  5
186
330
1F
100
AcDbEntity
  8
0
  6
Continuous
 62
     7
370
    25
100
AcDbLine
 10
34.9193387868
 20
27.4992794104
 30
0.0
 11
34.9193387868
 21
27.466617778
 31
0.0
  0
LINE
  5
187
330
1F
100
AcDbEntity
  8
0
  6
Continuous
 62
     7
370
    25
100
AcDbLine
 10
34.6837542721
 20
27.5350773591
 30
0.0
 11
34.663347255
 21
27.5219207884
 31
0.0
  0
LINE
  5
188
330
1F
100
AcDbEntity
  8
0
  6
Continuous
 62
     7
370
    25
100
AcDbLine
 10
34.663347255
 20
27.5219207884
 30
0.0
 11
34.5807882099
 21
27.5643356806
 31
0.0
  0
LINE
  5
189
330
1F
100
AcDbEntity
  8
0
  6
Continuous
 62
     7
370
    25
100
AcDbLine
 10
34.5807882099
 20
27.5643356806
 30
0.0
 11
34.6453607784
 21
27.6059981544
 31
0.0
  0
SPLINE
  5
18A
330
1F
100
AcDbEntity
  8
0
  6
Continuous
 62
     7
370
    25
100
AcDbSpline
210
0.0
220
0.0
230
1.0
 70
     8
 71
     3
 72
    11
 73
     7
 74
     0
 42
0.00000001
 43
0.00000001
 40
0.0
 40
0.0
 40
0.0
 40
0.0
 40
0.2800413325830084
 40
0.5599539154782169
 40
0.7799887076695431
 40
1.0
 40
1.0
 40
1.0
 40
1.0
 10
34.64536077836757
 20
27.60599815441904
 30
0.0
 10
34.65631858965113
 20
27.60540786921073
 30
0.0
 10
34.6782291743377
 20
27.60422757017918
 30
0.0
 10
34.70756240294108
 20
27.59881958796968
 30
0.0
 10
34.73294833447277
 20
27.59147438076938
 30
0.0
 10
34.74635381942154
 20
27.58516252176392
 30
0.0
 10
34.75305620394815
 20
27.58200676079787
 30
0.0
  0
SPLINE
  5
18B
330
1F
100
AcDbEntity
  8
0
  6
Continuous
 62
     7
370
    25
100
AcDbSpline
210
0.0
220
0.0
230
1.0
 70
     8
 71
     3
 72
    16
 73
    12
 74
     0
 42
0.00000001
 43
0.00000001
 40
0.0
 40
0.0
 40
0.0
 40
0.0
 40
0.1120481115386981
 40
0.2240742770846023
 40
0.3360663384872566
 40
0.4480124698346721
 40
0.5599377537111824
 40
0.6698885251485663
 40
0.7799084156750694
 40
0.8899421643054444
 40
1.0
 40
1.0
 40
1.0
 40
1.0
 10
34.75305620394815
 20
27.58200676079787
 30
0.0
 10
34.75879343282667
 20
27.57882201612774
 30
0.0
 10
34.77026676687728
 20
27.57245315055867
 30
0.0
 10
34.78399027490937
 20
27.56110571907412
 30
0.0
 10
34.79453860555472
 20
27.54871795930555
 30
0.0
 10
34.80096192335993
 20
27.5353790404626
 30
0.0
 10
34.80216494244984
 20
27.52161107070772
 30
0.0
 10
34.79802141805687
 20
27.5081417258544
 30
0.0
 10
34.78986921663395
 20
27.49542640031906
 30
0.0
 10
34.7783476399558
 20
27.48357617914727
 30
0.0
 10
34.7683638639997
 20
27.47663503643565
 30
0.0
 10
34.76337142970397
 20
27.4731640852567
 30
0.0
  0
SPLINE
  5
18C
330
1F
100
AcDbEntity
  8
0
  6
Continuous
 62
     7
370
    25
100
AcDbSpline
210
0.0
220
0.0
230
1.0
 70
     8
 71
     3
 72
    16
 73
    12
 74
     0
 42
0.00000001
 43
0.00000001
 40
0.0
 40
0.0
 40
0.0
 40
0.0
 40
0.112052653638259
 40
0.2240916696276923
 40
0.3361159761379869
 40
0.448080115875506
 40
0.5600023298289474
 40
0.6699272669355409
 40
0.7799231083899958
 40
0.8899444394853959
 40
1.0
 40
1.0
 40
1.0
 40
1.0
 10
34.76337142970397
 20
27.4731640852567
 30
0.0
 10
34.75784073781704
 20
27.46985047442245
 30
0.0
 10
34.74678002716991
 20
27.46322365604526
 30
0.0
 10
34.72724730918306
 20
27.45518046042598
 30
0.0
 10
34.7060934306222
 20
27.44872427382501
 30
0.0
 10
34.68330313861998
 20
27.44437657140319
 30
0.0
 10
34.65949805761062
 20
27.44297110337336
 30
0.0
 10
34.63595665052422
 20
27.44489717572154
 30
0.0
 10
34.61381900287403
 20
27.44952325365534
 30
0.0
 10
34.59324087432443
 20
27.45616613578287
 30
0.0
 10
34.58121581327317
 20
27.46195140471354
 30
0.0
 10
34.57520234759517
 20
27.46484448908162
 30
0.0
  0
SPLINE
  5
18D
330
1F
100
AcDbEntity
  8
0
  6
Continuous
 62
     7
370
    25
100
AcDbSpline
210
0.0
220
0.0
230
1.0
 70
     8
 71
     3
 72
    14
 73
    10
 74
     0
 42
0.00000001
 43
0.00000001
 40
0.0
 40
0.0
 40
0.0
 40
0.0
 40
0.1400891919965515
 40
0.2801813712163205
 40
0.4202103767040805
 40
0.5601550188576119
 40
0.7065957027151706
 40
0.8532480563769596
 40
1.0
 40
1.0
 40
1.0
 40
1.0
 10
34.57520234759517
 20
27.46484448908162
 30
0.0
 10
34.57032507023601
 20
27.46752764967648
 30
0.0
 10
34.56057041151596
 20
27.47289402808119
 30
0.0
 10
34.54853887673401
 20
27.48232497844981
 30
0.0
 10
34.53915250928122
 20
27.49268160491285
 30
0.0
 10
34.53323613538584
 20
27.50412034499378
 30
0.0
 10
34.53300375505982
 20
27.51628248644926
 30
0.0
 10
34.53809910346279
 20
27.5282344814533
 30
0.0
 10
34.54416472008374
 20
27.53559026403024
 30
0.0
 10
34.54719855781764
 20
27.53926940370211
 30
0.0
  0
LINE
  5
18E
330
1F
100
AcDbEntity
  8
0
  6
Continuous
 62
     7
370
    25
100
AcDbLine
 10
34.5471985578
 20
27.5392694037
 30
0.0
 11
34.5760960856
 21
27.5309713052
 31
0.0
  0
SPLINE
  5
18F
330
1F
100
AcDbEntity
  8
0
  6
Continuous
 62
     7
370
    25
100
AcDbSpline
210
0.0
220
0.0
230
1.0
 70
     8
 71
     3
 72
    12
 73
     8
 74
     0
 42
0.00000001
 43
0.00000001
 40
0.0
 40
0.0
 40
0.0
 40
0.0
 40
0.1869487545978481
 40
0.3735696045951138
 40
0.5599645706437254
 40
0.7798744359432238
 40
1.0
 40
1.0
 40
1.0
 40
1.0
 10
34.57609608556679
 20
27.53097130519156
 30
0.0
 10
34.5735403725511
 20
27.52758836981686
 30
0.0
 10
34.5684334291923
 20
27.52082843267249
 30
0.0
 10
34.5647041575512
 20
27.50976488235583
 30
0.0
 10
34.56874003358153
 20
27.49807235655151
 30
0.0
 10
34.57874031097073
 20
27.48690530420021
 30
0.0
 10
34.58941360351064
 20
27.48072651063733
 30
0.0
 10
34.59475286572442
 20
27.47763559948
 30
0.0
  0
SPLINE
  5
190
330
1F
100
AcDbEntity
  8
0
  6
Continuous
 62
     7
370
    25
100
AcDbSpline
210
0.0
220
0.0
230
1.0
 70
     8
 71
     3
 72
    12
 73
     8
 74
     0
 42
0.00000001
 43
0.00000001
 40
0.0
 40
0.0
 40
0.0
 40
0.0
 40
0.186977391294625
 40
0.3737768967010513
 40
0.5604978263234157
 40
0.7800629209330597
 40
1.0
 40
1.0
 40
1.0
 40
1.0
 10
34.59475286572442
 20
27.47763559948
 30
0.0
 10
34.5998533081506
 20
27.47517722555802
 30
0.0
 10
34.61004934056212
 20
27.47026281655316
 30
0.0
 10
34.6278930444684
 20
27.46496562392958
 30
0.0
 10
34.64839196893682
 20
27.46185782090517
 30
0.0
 10
34.67109075546249
 20
27.46225223050444
 30
0.0
 10
34.68568584379839
 20
27.46554163848587
 30
0.0
 10
34.69298956443865
 20
27.46718773451594
 30
0.0
  0
SPLINE
  5
191
330
1F
100
AcDbEntity
  8
0
  6
Continuous
 62
     7
370
    25
100
AcDbSpline
210
0.0
220
0.0
230
1.0
 70
     8
 71
     3
 72
    10
 73
     6
 74
     0
 42
0.00000001
 43
0.00000001
 40
0.0
 40
0.0
 40
0.0
 40
0.0
 40
0.2800466189712597
 40
0.5601843902098782
 40
1.0
 40
1.0
 40
1.0
 40
1.0
 10
34.69298956443865
 20
27.46718773451594
 30
0.0
 10
34.69742337869262
 20
27.46854696916456
 30
0.0
 10
34.70629245036107
 20
27.47126588087855
 30
0.0
 10
34.72089795302855
 20
27.47733496129473
 30
0.0
 10
34.72990346230699
 20
27.48268617082191
 30
0.0
 10
34.73540487900859
 20
27.48595519565508
 30
0.0
  0
SPLINE
  5
192
330
1F
100
AcDbEntity
  8
0
  6
Continuous
 62
     7
370
    25
100
AcDbSpline
210
0.0
220
0.0
230
1.0
 70
     8
 71
     3
 72
    14
 73
    10
 74
     0
 42
0.00000001
 43
0.00000001
 40
0.0
 40
0.0
 40
0.0
 40
0.0
 40
0.1401817991375576
 40
0.2802766127747771
 40
0.420219619580824
 40
0.5600385937601264
 40
0.7065155743674623
 40
0.8532697625699758
 40
1.0
 40
1.0
 40
1.0
 40
1.0
 10
34.73540487900859
 20
27.48595519565508
 30
0.0
 10
34.74023515106056
 20
27.48927937152555
 30
0.0
 10
34.74989269788786
 20
27.49592566055147
 30
0.0
 10
34.7610778082973
 20
27.50730449040494
 30
0.0
 10
34.76790990887176
 20
27.51978238197304
 30
0.0
 10
34.76882841255483
 20
27.5331733325622
 30
0.0
 10
34.76201755271528
 20
27.54614836940394
 30
0.0
 10
34.75041513866294
 20
27.55815151651643
 30
0.0
 10
34.73931565054674
 20
27.56462487995478
 30
0.0
 10
34.73376635939395
 20
27.56786129753378
 30
0.0
  0
SPLINE
  5
193
330
1F
100
AcDbEntity
  8
0
  6
Continuous
 62
     7
370
    25
100
AcDbSpline
210
0.0
220
0.0
230
1.0
 70
     8
 71
     3
 72
    11
 73
     7
 74
     0
 42
0.00000001
 43
0.00000001
 40
0.0
 40
0.0
 40
0.0
 40
0.0
 40
0.2799357428865326
 40
0.5599333474557614
 40
0.7800949405810236
 40
1.0
 40
1.0
 40
1.0
 40
1.0
 10
34.73376635939395
 20
27.56786129753378
 30
0.0
 10
34.72774134137194
 20
27.57063312050772
 30
0.0
 10
34.71568997388754
 20
27.5761773789877
 30
0.0
 10
34.69586532067019
 20
27.58103708796621
 30
0.0
 10
34.677009879931
 20
27.58452705037548
 30
0.0
 10
34.66496964929001
 20
27.58518306434277
 30
0.0
 10
34.65895304335267
 20
27.58551088011709
 30
0.0
  0
LINE
  5
194
330
1F
100
AcDbEntity
  8
0
  6
Continuous
 62
     7
370
    25
100
AcDbLine
 10
34.6589530434
 20
27.5855108801
 30
0.0
 11
34.6265550419
 21
27.5645721549
 31
0.0
  0
LINE
  5
195
330
1F
100
AcDbEntity
  8
0
  6
Continuous
 62
     7
370
    25
100
AcDbLine
 10
34.6265550419
 20
27.5645721549
 30
0.0
 11
34.6837542721
 21
27.5350773591
 31
0.0
  0
LINE
  5
196
330
1F
100
AcDbEntity
  8
0
  6
Continuous
 62
     7
370
    25
100
AcDbLine
 10
34.5752023476
 20
27.4648444891
 30
0.0
 11
34.5752023476
 21
27.4321828566
 31
0.0
  0
LINE
  5
197
330
1F
100
AcDbEntity
  8
0
  6
Continuous
 62
     7
370
    25
100
AcDbLine
 10
34.7633714297
 20
27.4731640853
 30
0.0
 11
34.7633714297
 21
27.4405024528
 31
0.0
  0
LINE
  5
198
330
1F
100
AcDbEntity
  8
0
  6
Continuous
 62
     7
370
    25
100
AcDbLine
 10
34.9446859362
 20
27.4710235431
 30
0.0
 11
34.9446859362
 21
27.4383619106
 31
0.0
  0
LINE
  5
199
330
1F
100
AcDbEntity
  8
0
  6
Continuous
 62
     7
370
    25
100
AcDbLine
 10
34.5760960856
 20
27.5309713052
 30
0.0
 11
34.5760960856
 21
27.4983096727
 31
0.0
  0
LINE
  5
19A
330
1F
100
AcDbEntity
  8
0
  6
Continuous
 62
     7
370
    25
100
AcDbLine
 10
34.7337663594
 20
27.5678612975
 30
0.0
 11
34.7337663594
 21
27.5351996651
 31
0.0
  0
LINE
  5
19B
330
1F
100
AcDbEntity
  8
0
  6
Continuous
 62
     7
370
    25
100
AcDbLine
 10
34.5807882099
 20
27.5643356806
 30
0.0
 11
34.5807882099
 21
27.5316740481
 31
0.0
  0
LINE
  5
19C
330
1F
100
AcDbEntity
  8
0
  6
Continuous
 62
     7
370
    25
100
AcDbLine
 10
34.663347255
 20
27.5219207884
 30
0.0
 11
34.663347255
 21
27.4892591559
 31
0.0
  0
LINE
  5
19D
330
1F
100
AcDbEntity
  8
0
  6
Continuous
 62
     7
370
    25
100
AcDbLine
 10
34.6837542721
 20
27.5350773591
 30
0.0
 11
34.6837542721
 21
27.5024157266
 31
0.0
  0
LINE
  5
19E
330
1F
100
AcDbEntity
  8
0
  6
Continuous
 62
     7
370
    25
100
AcDbLine
 10
34.6392169447
 20
27.6453351212
 30
0.0
 11
34.425837004
 21
27.5597314211
 31
0.0
  0
LINE
  5
19F
330
1F
100
AcDbEntity
  8
0
  6
Continuous
 62
     7
370
    25
100
AcDbLine
 10
34.425837004
 20
27.5597314211
 30
0.0
 11
34.4061747686
 21
27.5760266508
 31
0.0
  0
LINE
  5
1A0
330
1F
100
AcDbEntity
  8
0
  6
Continuous
 62
     7
370
    25
100
AcDbLine
 10
34.4061747686
 20
27.5760266508
 30
0.0
 11
34.4937983289
 21
27.6111753323
 31
0.0
  0
LINE
  5
1A1
330
1F
100
AcDbEntity
  8
0
  6
Continuous
 62
     7
370
    25
100
AcDbLine
 10
34.4937983289
 20
27.6111753323
 30
0.0
 11
34.416750668
 21
27.6752168749
 31
0.0
  0
LINE
  5
1A2
330
1F
100
AcDbEntity
  8
0
  6
Continuous
 62
     7
370
    25
100
AcDbLine
 10
34.416750668
 20
27.6752168749
 30
0.0
 11
34.3291271077
 21
27.6400681934
 31
0.0
  0
LINE
  5
1A3
330
1F
100
AcDbEntity
  8
0
  6
Continuous
 62
     7
370
    25
100
AcDbLine
 10
34.3291271077
 20
27.6400681934
 30
0.0
 11
34.3095021114
 21
27.6563849208
 31
0.0
  0
LINE
  5
1A4
330
1F
100
AcDbEntity
  8
0
  6
Continuous
 62
     7
370
    25
100
AcDbLine
 10
34.3095021114
 20
27.6563849208
 30
0.0
 11
34.5228820521
 21
27.741988621
 31
0.0
  0
LINE
  5
1A5
330
1F
100
AcDbEntity
  8
0
  6
Continuous
 62
     7
370
    25
100
AcDbLine
 10
34.5228820521
 20
27.741988621
 30
0.0
 11
34.5425070484
 21
27.7256718936
 31
0.0
  0
LINE
  5
1A6
330
1F
100
AcDbEntity
  8
0
  6
Continuous
 62
     7
370
    25
100
AcDbLine
 10
34.5425070484
 20
27.7256718936
 30
0.0
 11
34.4419242875
 21
27.6853207773
 31
0.0
  0
LINE
  5
1A7
330
1F
100
AcDbEntity
  8
0
  6
Continuous
 62
     7
370
    25
100
AcDbLine
 10
34.4419242875
 20
27.6853207773
 30
0.0
 11
34.5189719485
 21
27.6212792346
 31
0.0
  0
LINE
  5
1A8
330
1F
100
AcDbEntity
  8
0
  6
Continuous
 62
     7
370
    25
100
AcDbLine
 10
34.5189719485
 20
27.6212792346
 30
0.0
 11
34.6195547094
 21
27.661630351
 31
0.0
  0
LINE
  5
1A9
330
1F
100
AcDbEntity
  8
0
  6
Continuous
 62
     7
370
    25
100
AcDbLine
 10
34.6195547094
 20
27.661630351
 30
0.0
 11
34.6392169447
 21
27.6453351212
 31
0.0
  0
LINE
  5
1AA
330
1F
100
AcDbEntity
  8
0
  6
Continuous
 62
     7
370
    25
100
AcDbLine
 10
34.425837004
 20
27.5597314211
 30
0.0
 11
34.425837004
 21
27.5270697886
 31
0.0
  0
LINE
  5
1AB
330
1F
100
AcDbEntity
  8
0
  6
Continuous
 62
     7
370
    25
100
AcDbLine
 10
34.6392169447
 20
27.6453351212
 30
0.0
 11
34.6392169447
 21
27.6126734888
 31
0.0
  0
LINE
  5
1AC
330
1F
100
AcDbEntity
  8
0
  6
Continuous
 62
     7
370
    25
100
AcDbLine
 10
34.6589530434
 20
27.5855108801
 30
0.0
 11
34.6589530434
 21
27.5528492476
 31
0.0
  0
LINE
  5
1AD
330
1F
100
AcDbEntity
  8
0
  6
Continuous
 62
     7
370
    25
100
AcDbLine
 10
34.4061747686
 20
27.5760266508
 30
0.0
 11
34.4061747686
 21
27.5433650183
 31
0.0
  0
LINE
  5
1AE
330
1F
100
AcDbEntity
  8
0
  6
Continuous
 62
     7
370
    25
100
AcDbLine
 10
34.416750668
 20
27.6752168749
 30
0.0
 11
34.416750668
 21
27.6425552425
 31
0.0
  0
LINE
  5
1AF
330
1F
100
AcDbEntity
  8
0
  6
Continuous
 62
     7
370
    25
100
AcDbLine
 10
34.3291271077
 20
27.6400681934
 30
0.0
 11
34.3291271077
 21
27.607406561
 31
0.0
  0
LINE
  5
1B0
330
1F
100
AcDbEntity
  8
0
  6
Continuous
 62
     7
370
    25
100
AcDbLine
 10
34.3095021114
 20
27.6563849208
 30
0.0
 11
34.3095021114
 21
27.6237232883
 31
0.0
  0
LINE
  5
1B1
330
1F
100
AcDbEntity
  8
0
  6
Continuous
 62
     7
370
    25
100
AcDbLine
 10
34.5425070484
 20
27.7256718936
 30
0.0
 11
34.5425070484
 21
27.6930102611
 31
0.0
  0
LINE
  5
1B2
330
1F
100
AcDbEntity
  8
0
  6
Continuous
 62
     7
370
    25
100
AcDbLine
 10
34.4628596427
 20
27.8038619824
 30
0.0
 11
34.2546559344
 21
27.7485914869
 31
0.0
  0
LINE
  5
1B3
330
1F
100
AcDbEntity
  8
0
  6
Continuous
 62
     7
370
    25
100
AcDbLine
 10
34.2546559344
 20
27.7485914869
 30
0.0
 11
34.2904054532
 21
27.7037043634
 31
0.0
  0
LINE
  5
1B4
330
1F
100
AcDbEntity
  8
0
  6
Continuous
 62
     7
370
    25
100
AcDbLine
 10
34.2904054532
 20
27.7037043634
 30
0.0
 11
34.2625506198
 21
27.6963091668
 31
0.0
  0
LINE
  5
1B5
330
1F
100
AcDbEntity
  8
0
  6
Continuous
 62
     7
370
    25
100
AcDbLine
 10
34.2625506198
 20
27.6963091668
 30
0.0
 11
34.17652834
 21
27.8043134334
 31
0.0
  0
LINE
  5
1B6
330
1F
100
AcDbEntity
  8
0
  6
Continuous
 62
     7
370
    25
100
AcDbLine
 10
34.17652834
 20
27.8043134334
 30
0.0
 11
34.2043831735
 21
27.81170863
 31
0.0
  0
LINE
  5
1B7
330
1F
100
AcDbEntity
  8
0
  6
Continuous
 62
     7
370
    25
100
AcDbLine
 10
34.2043831735
 20
27.81170863
 30
0.0
 11
34.2402816486
 21
27.7666065298
 31
0.0
  0
LINE
  5
1B8
330
1F
100
AcDbEntity
  8
0
  6
Continuous
 62
     7
370
    25
100
AcDbLine
 10
34.2402816486
 20
27.7666065298
 30
0.0
 11
34.448485357
 21
27.8218770253
 31
0.0
  0
LINE
  5
1B9
330
1F
100
AcDbEntity
  8
0
  6
Continuous
 62
     7
370
    25
100
AcDbLine
 10
34.448485357
 20
27.8218770253
 30
0.0
 11
34.4628596427
 21
27.8038619824
 31
0.0
  0
LINE
  5
1BA
330
1F
100
AcDbEntity
  8
0
  6
Continuous
 62
     7
370
    25
100
AcDbLine
 10
34.2625506198
 20
27.6963091668
 30
0.0
 11
34.2625506198
 21
27.6636475343
 31
0.0
  0
LINE
  5
1BB
330
1F
100
AcDbEntity
  8
0
  6
Continuous
 62
     7
370
    25
100
AcDbLine
 10
34.2904054532
 20
27.7037043634
 30
0.0
 11
34.2904054532
 21
27.6710427309
 31
0.0
  0
LINE
  5
1BC
330
1F
100
AcDbEntity
  8
0
  6
Continuous
 62
     7
370
    25
100
AcDbLine
 10
34.17652834
 20
27.8043134334
 30
0.0
 11
34.17652834
 21
27.7716518009
 31
0.0
  0
LINE
  5
1BD
330
1F
100
AcDbEntity
  8
0
  6
Continuous
 62
     7
370
    25
100
AcDbLine
 10
34.4628596427
 20
27.8038619824
 30
0.0
 11
34.4628596427
 21
27.77120035
 31
0.0
  0
LINE
  5
1BE
330
1F
100
AcDbEntity
  8
0
  6
Continuous
 62
     7
370
    25
100
AcDbLine
 10
34.3963923771
 20
27.8889433745
 30
0.0
 11
34.1488269589
 21
27.8427663911
 31
0.0
  0
LINE
  5
1BF
330
1F
100
AcDbEntity
  8
0
  6
Continuous
 62
     7
370
    25
100
AcDbLine
 10
34.1488269589
 20
27.8427663911
 30
0.0
 11
34.1382510596
 21
27.8616843359
 31
0.0
  0
LINE
  5
1C0
330
1F
100
AcDbEntity
  8
0
  6
Continuous
 62
     7
370
    25
100
AcDbLine
 10
34.1382510596
 20
27.8616843359
 30
0.0
 11
34.3858164777
 21
27.9078613193
 31
0.0
  0
LINE
  5
1C1
330
1F
100
AcDbEntity
  8
0
  6
Continuous
 62
     7
370
    25
100
AcDbLine
 10
34.3858164777
 20
27.9078613193
 30
0.0
 11
34.3963923771
 21
27.8889433745
 31
0.0
  0
LINE
  5
1C2
330
1F
100
AcDbEntity
  8
0
  6
Continuous
 62
     7
370
    25
100
AcDbLine
 10
34.1488269589
 20
27.8427663911
 30
0.0
 11
34.1488269589
 21
27.8101047586
 31
0.0
  0
LINE
  5
1C3
330
1F
100
AcDbEntity
  8
0
  6
Continuous
 62
     7
370
    25
100
AcDbLine
 10
34.3963923771
 20
27.8889433745
 30
0.0
 11
34.3963923771
 21
27.856281742
 31
0.0
  0
LINE
  5
1C4
330
1F
100
AcDbEntity
  8
0
  6
Continuous
 62
     7
370
    25
100
AcDbLine
 10
34.1382510596
 20
27.8616843359
 30
0.0
 11
34.1382510596
 21
27.8290227034
 31
0.0
  0
LINE
  5
1C5
330
1F
100
AcDbEntity
  8
0
  6
Continuous
 62
     7
370
    25
100
AcDbLine
 10
34.3697344433
 20
27.9414618511
 30
0.0
 11
34.1127847764
 21
27.9145037797
 31
0.0
  0
LINE
  5
1C6
330
1F
100
AcDbEntity
  8
0
  6
Continuous
 62
     7
370
    25
100
AcDbLine
 10
34.1127847764
 20
27.9145037797
 30
0.0
 11
34.1064541325
 21
27.9346255937
 31
0.0
  0
LINE
  5
1C7
330
1F
100
AcDbEntity
  8
0
  6
Continuous
 62
     7
370
    25
100
AcDbLine
 10
34.1064541325
 20
27.9346255937
 30
0.0
 11
34.2836376854
 21
28.0337298272
 31
0.0
  0
LINE
  5
1C8
330
1F
100
AcDbEntity
  8
0
  6
Continuous
 62
     7
370
    25
100
AcDbLine
 10
34.2836376854
 20
28.0337298272
 30
0.0
 11
34.0819135773
 21
28.0125546277
 31
0.0
  0
LINE
  5
1C9
330
1F
100
AcDbEntity
  8
0
  6
Continuous
 62
     7
370
    25
100
AcDbLine
 10
34.0819135773
 20
28.0125546277
 30
0.0
 11
34.0759925633
 21
28.0313650842
 31
0.0
  0
LINE
  5
1CA
330
1F
100
AcDbEntity
  8
0
  6
Continuous
 62
     7
370
    25
100
AcDbLine
 10
34.0759925633
 20
28.0313650842
 30
0.0
 11
34.3329422301
 21
28.0583231555
 31
0.0
  0
LINE
  5
1CB
330
1F
100
AcDbEntity
  8
0
  6
Continuous
 62
     7
370
    25
100
AcDbLine
 10
34.3329422301
 20
28.0583231555
 30
0.0
 11
34.3392728741
 21
28.0382013415
 31
0.0
  0
LINE
  5
1CC
330
1F
100
AcDbEntity
  8
0
  6
Continuous
 62
     7
370
    25
100
AcDbLine
 10
34.3392728741
 20
28.0382013415
 30
0.0
 11
34.1619031258
 21
27.9390756103
 31
0.0
  0
LINE
  5
1CD
330
1F
100
AcDbEntity
  8
0
  6
Continuous
 62
     7
370
    25
100
AcDbLine
 10
34.1619031258
 20
27.9390756103
 30
0.0
 11
34.3638134292
 21
27.9602723075
 31
0.0
  0
LINE
  5
1CE
330
1F
100
AcDbEntity
  8
0
  6
Continuous
 62
     7
370
    25
100
AcDbLine
 10
34.3638134292
 20
27.9602723075
 30
0.0
 11
34.3697344433
 21
27.9414618511
 31
0.0
  0
LINE
  5
1CF
330
1F
100
AcDbEntity
  8
0
  6
Continuous
 62
     7
370
    25
100
AcDbLine
 10
34.1127847764
 20
27.9145037797
 30
0.0
 11
34.1127847764
 21
27.8818421473
 31
0.0
  0
LINE
  5
1D0
330
1F
100
AcDbEntity
  8
0
  6
Continuous
 62
     7
370
    25
100
AcDbLine
 10
34.3697344433
 20
27.9414618511
 30
0.0
 11
34.3697344433
 21
27.9088002186
 31
0.0
  0
LINE
  5
1D1
330
1F
100
AcDbEntity
  8
0
  6
Continuous
 62
     7
370
    25
100
AcDbLine
 10
34.1064541325
 20
27.9346255937
 30
0.0
 11
34.1064541325
 21
27.9019639613
 31
0.0
  0
LINE
  5
1D2
330
1F
100
AcDbEntity
  8
0
  6
Continuous
 62
     7
370
    25
100
AcDbLine
 10
34.3392728741
 20
28.0382013415
 30
0.0
 11
34.3392728741
 21
28.005539709
 31
0.0
  0
LINE
  5
1D3
330
1F
100
AcDbEntity
  8
0
  6
Continuous
 62
     7
370
    25
100
AcDbLine
 10
34.0819135773
 20
28.0125546277
 30
0.0
 11
34.0819135773
 21
27.9798929952
 31
0.0
  0
LINE
  5
1D4
330
1F
100
AcDbEntity
  8
0
  6
Continuous
 62
     7
370
    25
100
AcDbLine
 10
34.0759925633
 20
28.0313650842
 30
0.0
 11
34.0759925633
 21
27.9987034517
 31
0.0
  0
LINE
  5
1D5
330
1F
100
AcDbEntity
  8
0
  6
Continuous
 62
     7
370
    25
100
AcDbLine
 10
34.2263552444
 20
28.1624228946
 30
0.0
 11
34.1957447189
 21
28.1627668572
 31
0.0
  0
LINE
  5
1D6
330
1F
100
AcDbEntity
  8
0
  6
Continuous
 62
     7
370
    25
100
AcDbLine
 10
34.1957447189
 20
28.1627668572
 30
0.0
 11
34.1977183903
 21
28.2266364185
 31
0.0
  0
LINE
  5
1D7
330
1F
100
AcDbEntity
  8
0
  6
Continuous
 62
     7
370
    25
100
AcDbLine
 10
34.1977183903
 20
28.2266364185
 30
0.0
 11
34.294614482
 21
28.2255615353
 31
0.0
  0
SPLINE
  5
1D8
330
1F
100
AcDbEntity
  8
0
  6
Continuous
 62
     7
370
    25
100
AcDbSpline
210
0.0
220
0.0
230
1.0
 70
     8
 71
     3
 72
    11
 73
     7
 74
     0
 42
0.00000001
 43
0.00000001
 40
0.0
 40
0.0
 40
0.0
 40
0.0
 40
0.2800347784531201
 40
0.5599738320272485
 40
0.7799945208156366
 40
0.9999999999999999
 40
0.9999999999999999
 40
0.9999999999999999
 40
0.9999999999999999
 10
34.29461448200729
 20
28.22556153529871
 30
0.0
 10
34.3009684075626
 20
28.22036596993055
 30
0.0
 10
34.31367408669745
 20
28.20997661520529
 30
0.0
 10
34.32572957226714
 20
28.19359634392531
 30
0.0
 10
34.33258738763295
 20
28.17766976556391
 30
0.0
 10
34.33306639363806
 20
28.16767705107687
 30
0.0
 10
34.33330588836213
 20
28.16268086653357
 30
0.0
  0
SPLINE
  5
1D9
330
1F
100
AcDbEntity
  8
0
  6
Continuous
 62
     7
370
    25
100
AcDbSpline
210
0.0
220
0.0
230
1.0
 70
     8
 71
     3
 72
    16
 73
    12
 74
     0
 42
0.00000001
 43
0.00000001
 40
0.0
 40
0.0
 40
0.0
 40
0.0
 40
0.1120376071779545
 40
0.224048213589652
 40
0.3360614008568722
 40
0.4480182721461243
 40
0.5599381337898568
 40
0.6698831462841126
 40
0.779897781857703
 40
0.889933547888615
 40
1.0
 40
1.0
 40
1.0
 40
1.0
 10
34.33330588836213
 20
28.16268086653357
 30
0.0
 10
34.33283174572023
 20
28.1580927316699
 30
0.0
 10
34.33188357470353
 20
28.1489175676709
 30
0.0
 10
34.32605799602295
 20
28.13548274962898
 30
0.0
 10
34.31656114038346
 20
28.12280079791413
 30
0.0
 10
34.30328141974186
 20
28.11126269089447
 30
0.0
 10
34.28595033230317
 20
28.10175924830692
 30
0.0
 10
34.26553170886836
 20
28.09479675681656
 30
0.0
 10
34.24348093864907
 20
28.09010673361017
 30
0.0
 10
34.22039839711537
 20
28.08739146333305
 30
0.0
 10
34.20475777224713
 20
28.0872512067533
 30
0.0
 10
34.19693636952532
 20
28.08718106868633
 30
0.0
  0
SPLINE
  5
1DA
330
1F
100
AcDbEntity
  8
0
  6
Continuous
 62
     7
370
    25
100
AcDbSpline
210
0.0
220
0.0
230
1.0
 70
     8
 71
     3
 72
    16
 73
    12
 74
     0
 42
0.00000001
 43
0.00000001
 40
0.0
 40
0.0
 40
0.0
 40
0.0
 40
0.1135796523717232
 40
0.2271546233907072
 40
0.3407332444329211
 40
0.4542338900384112
 40
0.5676990057174027
 40
0.6791248787199115
 40
0.7906332104922362
 40
0.9021738824326397
 40
1.0
 40
1.0
 40
1.0
 40
1.0
 10
34.19693636952532
 20
28.08718106868633
 30
0.0
 10
34.18897854069073
 20
28.0874489081217
 30
0.0
 10
34.17306321101519
 20
28.08798457595306
 30
0.0
 10
34.14972307511454
 20
28.09122453142961
 30
0.0
 10
34.12749098986031
 20
28.09635062296438
 30
0.0
 10
34.10688274921528
 20
28.10346066870028
 30
0.0
 10
34.08952668535343
 20
28.11298093683621
 30
0.0
 10
34.07666652150435
 20
28.12452813576016
 30
0.0
 10
34.06826273909316
 20
28.1372316476477
 30
0.0
 10
34.06379016828462
 20
28.15003492687408
 30
0.0
 10
34.06351309639557
 20
28.15851460131222
 30
0.0
 10
34.06338363523674
 20
28.16247670834204
 30
0.0
  0
SPLINE
  5
1DB
330
1F
100
AcDbEntity
  8
0
  6
Continuous
 62
     7
370
    25
100
AcDbSpline
210
0.0
220
0.0
230
1.0
 70
     8
 71
     3
 72
    14
 73
    10
 74
     0
 42
0.00000001
 43
0.00000001
 40
0.0
 40
0.0
 40
0.0
 40
0.0
 40
0.1400890064145594
 40
0.280177931010877
 40
0.4202251804374577
 40
0.5601579671110875
 40
0.7066162056520824
 40
0.8532622361218409
 40
1.0
 40
1.0
 40
1.0
 40
1.0
 10
34.06324806460338
 20
28.16414270772196
 30
0.0
 10
34.06358905610648
 20
28.16802901242292
 30
0.0
 10
34.06427103891353
 20
28.17580161955507
 30
0.0
 10
34.06878738486527
 20
28.18722755224653
 30
0.0
 10
34.07629371399585
 20
28.19809176624916
 30
0.0
 10
34.08748634402473
 20
28.20813591542419
 30
0.0
 10
34.10328681413295
 20
28.21618661922259
 30
0.0
 10
34.122299753603
 20
28.22177918553821
 30
0.0
 10
34.13593416682379
 20
28.2238992413453
 30
0.0
 10
34.14275350499567
 20
28.22495960069174
 30
0.0
  0
LINE
  5
1DC
330
1F
100
AcDbEntity
  8
0
  6
Continuous
 62
     7
370
    25
100
AcDbLine
 10
34.142753505
 20
28.2249596007
 30
0.0
 11
34.1507226686
 21
28.2069015625
 31
0.0
  0
SPLINE
  5
1DD
330
1F
100
AcDbEntity
  8
0
  6
Continuous
 62
     7
370
    25
100
AcDbSpline
210
0.0
220
0.0
230
1.0
 70
     8
 71
     3
 72
    12
 73
     8
 74
     0
 42
0.00000001
 43
0.00000001
 40
0.0
 40
0.0
 40
0.0
 40
0.0
 40
0.1869728162279417
 40
0.3735812011727688
 40
0.5599498344845305
 40
0.779896660687102
 40
1.0
 40
1.0
 40
1.0
 40
1.0
 10
34.15072266857599
 20
28.20690156248226
 30
0.0
 10
34.14460573267665
 20
28.20581358670539
 30
0.0
 10
34.13238378348171
 20
28.20363975574017
 30
0.0
 10
34.11542650287053
 20
28.19803199323748
 30
0.0
 10
34.10269208935037
 20
28.18863606149842
 30
0.0
 10
34.09450485842957
 20
28.17697300676409
 30
0.0
 10
34.09335419372863
 20
28.1682628571788
 30
0.0
 10
34.09277865674909
 20
28.16390623341207
 30
0.0
  0
SPLINE
  5
1DE
330
1F
100
AcDbEntity
  8
0
  6
Continuous
 62
     7
370
    25
100
AcDbSpline
210
0.0
220
0.0
230
1.0
 70
     8
 71
     3
 72
    12
 73
     8
 74
     0
 42
0.00000001
 43
0.00000001
 40
0.0
 40
0.0
 40
0.0
 40
0.0
 40
0.1612881754495541
 40
0.3539693138485746
 40
0.5466382389553899
 40
0.7731435519132857
 40
0.9999999999999999
 40
0.9999999999999999
 40
0.9999999999999999
 40
0.9999999999999999
 10
34.09294998082146
 20
28.16203226544921
 30
0.0
 10
34.09305835015964
 20
28.15882584989421
 30
0.0
 10
34.09329618173143
 20
28.15178892539087
 30
0.0
 10
34.09776710372707
 20
28.14113384887962
 30
0.0
 10
34.1071095671305
 20
28.13015570750494
 30
0.0
 10
34.12236488055444
 20
28.12043831118523
 30
0.0
 10
34.13622680469861
 20
28.1162112914802
 30
0.0
 10
34.14316313489934
 20
28.11409614468426
 30
0.0
  0
SPLINE
  5
1DF
330
1F
100
AcDbEntity
  8
0
  6
Continuous
 62
     7
370
    25
100
AcDbSpline
210
0.0
220
0.0
230
1.0
 70
     8
 71
     3
 72
    10
 73
     6
 74
     0
 42
0.00000001
 43
0.00000001
 40
0.0
 40
0.0
 40
0.0
 40
0.0
 40
0.2800424641392424
 40
0.5602358102429579
 40
1.0
 40
1.0
 40
1.0
 40
1.0
 10
34.14316313489934
 20
28.11409614468426
 30
0.0
 10
34.14783502092004
 20
28.11303063082319
 30
0.0
 10
34.15718131009163
 20
28.11089902902088
 30
0.0
 10
34.17469992802644
 20
28.10849728723364
 30
0.0
 10
34.18760274905859
 20
28.10803606018054
 30
0.0
 10
34.19548404532144
 20
28.10775433364641
 30
0.0
  0
SPLINE
  5
1E0
330
1F
100
AcDbEntity
  8
0
  6
Continuous
 62
     7
370
    25
100
AcDbSpline
210
0.0
220
0.0
230
1.0
 70
     8
 71
     3
 72
    14
 73
    10
 74
     0
 42
0.00000001
 43
0.00000001
 40
0.0
 40
0.0
 40
0.0
 40
0.0
 40
0.1401851635606866
 40
0.2802753738786548
 40
0.4202336752794474
 40
0.5600460491580934
 40
0.706490072522655
 40
0.8532467447384138
 40
1.0
 40
1.0
 40
1.0
 40
1.0
 10
34.19548404532144
 20
28.10775433364641
 30
0.0
 10
34.20300827785488
 20
28.10781226985817
 30
0.0
 10
34.21805164644608
 20
28.10792810303908
 30
0.0
 10
34.24031060537233
 20
28.11044450211987
 30
0.0
 10
34.26122388242072
 20
28.11554768636957
 30
0.0
 10
34.27937465924231
 20
28.12392501221828
 30
0.0
 10
34.29204822836814
 20
28.13535383453779
 30
0.0
 10
34.3001636204113
 20
28.14829632091372
 30
0.0
 10
34.30142941067407
 20
28.15738444108819
 30
0.0
 10
34.30206229843748
 20
28.16192844827485
 30
0.0
  0
SPLINE
  5
1E1
330
1F
100
AcDbEntity
  8
0
  6
Continuous
 62
     7
370
    25
100
AcDbSpline
210
0.0
220
0.0
230
1.0
 70
     8
 71
     3
 72
    11
 73
     7
 74
     0
 42
0.00000001
 43
0.00000001
 40
0.0
 40
0.0
 40
0.0
 40
0.0
 40
0.2799373277552414
 40
0.5599031950349029
 40
0.7800660290213148
 40
1.0
 40
1.0
 40
1.0
 40
1.0
 10
34.30206229843748
 20
28.16192844827485
 30
0.0
 10
34.30178776339892
 20
28.16637893095871
 30
0.0
 10
34.30123866533302
 20
28.17528035005178
 30
0.0
 10
34.29474348496915
 20
28.18715163768077
 30
0.0
 10
34.28702412271377
 20
28.19769707661368
 30
0.0
 10
34.27999285475052
 20
28.20339010230476
 30
0.0
 10
34.27647904899977
 20
28.20623513488167
 30
0.0
  0
LINE
  5
1E2
330
1F
100
AcDbEntity
  8
0
  6
Continuous
 62
     7
370
    25
100
AcDbLine
 10
34.276479049
 20
28.2062351349
 30
0.0
 11
34.2278075686
 21
28.2067725765
 31
0.0
  0
LINE
  5
1E3
330
1F
100
AcDbEntity
  8
0
  6
Continuous
 62
     7
370
    25
100
AcDbLine
 10
34.2278075686
 20
28.2067725765
 30
0.0
 11
34.2263552444
 21
28.1624228946
 31
0.0
  0
LINE
  5
1E4
330
1F
100
AcDbEntity
  8
0
  6
Continuous
 62
     7
370
    25
100
AcDbLine
 10
34.1969363695
 20
28.0871810687
 30
0.0
 11
34.1969363695
 21
28.0545194362
 31
0.0
  0
LINE
  5
1E5
330
1F
100
AcDbEntity
  8
0
  6
Continuous
 62
     7
370
    25
100
AcDbLine
 10
34.3333058884
 20
28.1626808665
 30
0.0
 11
34.3333058884
 21
28.1300192341
 31
0.0
  0
LINE
  5
1E6
330
1F
100
AcDbEntity
  8
0
  6
Continuous
 62
     7
370
    25
100
AcDbLine
 10
34.0927786567
 20
28.1639062334
 30
0.0
 11
34.0927786567
 21
28.1575869439
 31
0.0
  0
LINE
  5
1E7
330
1F
100
AcDbEntity
  8
0
  6
Continuous
 62
     7
370
    25
100
AcDbLine
 10
34.1957447189
 20
28.1627668572
 30
0.0
 11
34.1957447189
 21
28.1301052247
 31
0.0
  0
LINE
  5
1E8
330
1F
100
AcDbEntity
  8
0
  6
Continuous
 62
     7
370
    25
100
AcDbLine
 10
34.2263552444
 20
28.1624228946
 30
0.0
 11
34.2263552444
 21
28.1297612621
 31
0.0
  0
LINE
  5
1E9
330
1F
100
AcDbEntity
  8
0
  6
Continuous
 62
     7
370
    25
100
AcDbLine
 10
34.276479049
 20
28.2062351349
 30
0.0
 11
34.276479049
 21
28.1735735024
 31
0.0
  0
LINE
  5
1EA
330
1F
100
AcDbEntity
  8
0
  6
Continuous
 62
     7
370
    25
100
AcDbLine
 10
34.2278075686
 20
28.2067725765
 30
0.0
 11
34.2278075686
 21
28.174110944
 31
0.0
  0
LINE
  5
1EB
330
1F
100
AcDbEntity
  8
0
  6
Continuous
 62
     7
370
    25
100
AcDbLine
 10
34.1507226686
 20
28.2069015625
 30
0.0
 11
34.1507226686
 21
28.17423993
 31
0.0
  0
LWPOLYLINE
  5
1EC
330
1F
100
AcDbEntity
  8
0
  6
Continuous
 62
     7
370
    25
100
AcDbPolyline
 90
        3
 70
   128
 43
0.0
 10
37.2027940351
 20
28.4432462623
 10
37.1988354766
 20
28.4536947733
 10
37.1925806474
 20
28.4644330115
  0
LINE
  5
1ED
330
1F
100
AcDbEntity
  8
0
  6
Continuous
 62
     7
370
    25
100
AcDbLine
 10
37.1925806474
 20
28.4644330115
 30
0.0
 11
37.1925806474
 21
28.497094644
 31
0.0
  0
LWPOLYLINE
  5
1EE
330
1F
100
AcDbEntity
  8
0
  6
Continuous
 62
     7
370
    25
100
AcDbPolyline
 90
       17
 70
   128
 43
0.0
 10
36.2696763816
 20
28.9959193104
 10
36.2547347721
 20
28.998712509
 10
36.2355502241
 20
29.0010983396
 10
36.2160235747
 20
29.0022291617
 10
36.1964003828
 20
29.0020907544
 10
36.1769274213
 20
29.0006848583
 10
36.1578495742
 20
28.9980291534
 10
36.1394067563
 20
28.9941570367
 10
36.1218308968
 20
28.9891172022
 10
36.1053430224
 20
28.982973029
 10
36.0901504776
 20
28.9758017835
 10
36.0764443175
 20
28.9676936482
 10
36.064396905
 20
28.9587505877
 10
36.0541597434
 20
28.9490850661
 10
36.0458615708
 20
28.9388186331
 10
36.0396067416
 20
28.9280803949
 10
36.0356481831
 20
28.9176318839
  0
LWPOLYLINE
  5
1EF
330
1F
100
AcDbEntity
  8
0
  6
Continuous
 62
     7
370
    25
100
AcDbPolyline
 90
       23
 70
   128
 43
0.0
 10
37.1925806474
 20
28.4644330115
 10
37.1689919744
 20
28.4967415142
 10
37.1433596042
 20
28.528526977
 10
37.1157182652
 20
28.5597463348
 10
37.0861054078
 20
28.5903572896
 10
37.0545611534
 20
28.6203183676
 10
37.0211282403
 20
28.6495889757
 10
36.9858519655
 20
28.6781294561
 10
36.9487801237
 20
28.7059011402
 10
36.9099629422
 20
28.7328664011
 10
36.8694530131
 20
28.7589887046
 10
36.827305222
 20
28.7842326583
 10
36.7835766734
 20
28.8085640602
 10
36.7383266136
 20
28.8319499445
 10
36.6916163505
 20
28.8543586264
 10
36.6435091702
 20
28.8757597451
 10
36.5940702513
 20
28.8961243051
 10
36.5433665771
 20
28.9154247151
 10
36.4914668442
 20
28.9336348255
 10
36.4384413698
 20
28.9507299642
 10
36.3843619963
 20
28.9666869695
 10
36.3293019939
 20
28.9814842219
 10
36.2964533966
 20
28.9896463752
  0
SPLINE
  5
1F0
330
1F
100
AcDbEntity
  8
0
  6
Continuous
 62
     7
370
    25
100
AcDbSpline
210
0.0
220
0.0
230
1.0
 70
     8
 71
     3
 72
     9
 73
     5
 74
     0
 42
0.00000001
 43
0.00000001
 40
0.0
 40
0.0
 40
0.0
 40
0.0
 40
0.9796942275620373
 40
1.0
 40
1.0
 40
1.0
 40
1.0
 10
36.95380146088481
 20
28.44502495708765
 30
0.0
 10
36.94190404905662
 20
28.44852742402403
 30
0.0
 10
36.92976004382164
 20
28.45210248534197
 30
0.0
 10
36.91698590085537
 20
28.45479649368407
 30
0.0
 10
36.9167265120152
 20
28.45485119760442
 30
0.0
  0
SPLINE
  5
1F1
330
1F
100
AcDbEntity
  8
0
  6
Continuous
 62
     7
370
    25
100
AcDbSpline
210
0.0
220
0.0
230
1.0
 70
     8
 71
     3
 72
    12
 73
     8
 74
     0
 42
0.00000001
 43
0.00000001
 40
0.0
 40
0.0
 40
0.0
 40
0.0
 40
0.186193221184892
 40
0.3726239486971702
 40
0.5594033423511726
 40
0.7796878412358578
 40
1.0
 40
1.0
 40
1.0
 40
1.0
 10
37.08428720474178
 20
28.43027755921657
 30
0.0
 10
37.07613831672339
 20
28.42868691759587
 30
0.0
 10
37.05983014604148
 20
28.42550360534693
 30
0.0
 10
37.03377654977749
 20
28.42688756673789
 30
0.0
 10
37.00770287175886
 20
28.43123496931043
 30
0.0
 10
36.98120129253132
 20
28.43766937614985
 30
0.0
 10
36.96293512033965
 20
28.44257299416156
 30
0.0
 10
36.95380146088481
 20
28.44502495708765
 30
0.0
  0
SPLINE
  5
1F2
330
1F
100
AcDbEntity
  8
0
  6
Continuous
 62
     7
370
    25
100
AcDbSpline
210
0.0
220
0.0
230
1.0
 70
     8
 71
     3
 72
    12
 73
     8
 74
     0
 42
0.00000001
 43
0.00000001
 40
0.0
 40
0.0
 40
0.0
 40
0.0
 40
0.0627878212880313
 40
0.341622839400077
 40
0.5610635537439548
 40
0.7804505880615016
 40
1.0
 40
1.0
 40
1.0
 40
1.0
 10
37.12555994264339
 20
28.46764355014276
 30
0.0
 10
37.12574521604324
 20
28.46666282429344
 30
0.0
 10
37.1267532718035
 20
28.46132678392055
 30
0.0
 10
37.12205190510985
 20
28.45257683828863
 30
0.0
 10
37.11288121596842
 20
28.44266415769679
 30
0.0
 10
37.10019238478657
 20
28.43508674022866
 30
0.0
 10
37.08959023878899
 20
28.43188101485646
 30
0.0
 10
37.08428720474178
 20
28.43027755921658
 30
0.0
  0
LINE
  5
1F3
330
1F
100
AcDbEntity
  8
0
  6
Continuous
 62
     7
370
    25
100
AcDbLine
 10
37.0237736962
 20
28.4987046254
 30
0.0
 11
37.0133467532
 21
28.516805659
 31
0.0
  0
SPLINE
  5
1F4
330
1F
100
AcDbEntity
  8
0
  6
Continuous
 62
     7
370
    25
100
AcDbSpline
210
0.0
220
0.0
230
1.0
 70
     8
 71
     3
 72
    12
 73
     8
 74
     0
 42
0.00000001
 43
0.00000001
 40
0.0
 40
0.0
 40
0.0
 40
0.0
 40
0.0962706304212085
 40
0.3037729720399162
 40
0.5111854439640448
 40
0.7551614150596864
 40
0.9999999999999999
 40
0.9999999999999999
 40
0.9999999999999999
 40
0.9999999999999999
 10
37.08817141216741
 20
28.48836969545411
 30
0.0
 10
37.0870283485609
 20
28.48957476958829
 30
0.0
 10
37.08342151823832
 20
28.49337726833239
 30
0.0
 10
37.07362819505672
 20
28.49830346475778
 30
0.0
 10
37.05853412599659
 20
28.50207877955258
 30
0.0
 10
37.04080316308525
 20
28.50240496373142
 30
0.0
 10
37.02945685948836
 20
28.49993952179149
 30
0.0
 10
37.02377369624647
 20
28.49870462543178
 30
0.0
  0
LINE
  5
1F5
330
1F
100
AcDbEntity
  8
0
  6
Continuous
 62
     7
370
    25
100
AcDbLine
 10
36.9119819716
 20
28.3851539614
 30
0.0
 11
36.8411159983
 21
28.475723622
 31
0.0
  0
LINE
  5
1F6
330
1F
100
AcDbEntity
  8
0
  6
Continuous
 62
     7
370
    25
100
AcDbLine
 10
36.9399857614
 20
28.3924631673
 30
0.0
 11
36.9119819716
 21
28.3851539614
 31
0.0
  0
LINE
  5
1F7
330
1F
100
AcDbEntity
  8
0
  6
Continuous
 62
     7
370
    25
100
AcDbLine
 10
36.9251360024
 20
28.5211217804
 30
0.0
 11
36.8978397551
 21
28.511340343
 31
0.0
  0
LINE
  5
1F8
330
1F
100
AcDbEntity
  8
0
  6
Continuous
 62
     7
370
    25
100
AcDbLine
 10
36.8978397551
 20
28.511340343
 30
0.0
 11
36.84611467
 21
28.5595166092
 31
0.0
  0
SPLINE
  5
1F9
330
1F
100
AcDbEntity
  8
0
  6
Continuous
 62
     7
370
    25
100
AcDbSpline
210
0.0
220
0.0
230
1.0
 70
     8
 71
     3
 72
    10
 73
     6
 74
     0
 42
0.00000001
 43
0.00000001
 40
0.0
 40
0.0
 40
0.0
 40
0.0
 40
0.363201863717393
 40
0.7261442649569871
 40
0.9999999999999999
 40
0.9999999999999999
 40
0.9999999999999999
 40
0.9999999999999999
 10
36.72795121206889
 20
28.69214494703984
 30
0.0
 10
36.72245247689388
 20
28.68919234624595
 30
0.0
 10
36.71145893470504
 20
28.68328925392356
 30
0.0
 10
36.69843110009605
 20
28.67380330315294
 30
0.0
 10
36.69346408404607
 20
28.66672787791424
 30
0.0
 10
36.69132801336081
 20
28.66368508355119
 30
0.0
  0
SPLINE
  5
1FA
330
1F
100
AcDbEntity
  8
0
  6
Continuous
 62
     7
370
    25
100
AcDbSpline
210
0.0
220
0.0
230
1.0
 70
     8
 71
     3
 72
    10
 73
     6
 74
     0
 42
0.00000001
 43
0.00000001
 40
0.0
 40
0.0
 40
0.0
 40
0.0
 40
0.2800426270523634
 40
0.5601859953563129
 40
1.0
 40
1.0
 40
1.0
 40
1.0
 10
36.77427663026468
 20
28.70762326550511
 30
0.0
 10
36.76956488501798
 20
28.70660894838974
 30
0.0
 10
36.76013969954292
 20
28.70457994927321
 30
0.0
 10
36.74429172772188
 20
28.69962156717909
 30
0.0
 10
36.7341479399466
 20
28.6949802664038
 30
0.0
 10
36.72795121206889
 20
28.69214494703984
 30
0.0
  0
SPLINE
  5
1FB
330
1F
100
AcDbEntity
  8
0
  6
Continuous
 62
     7
370
    25
100
AcDbSpline
210
0.0
220
0.0
230
1.0
 70
     8
 71
     3
 72
    13
 73
     9
 74
     0
 42
0.00000001
 43
0.00000001
 40
0.0
 40
0.0
 40
0.0
 40
0.0
 40
0.1867805925620134
 40
0.3733980885147167
 40
0.5599642218449539
 40
0.706580428873441
 40
0.8532983912161353
 40
1.0
 40
1.0
 40
1.0
 40
1.0
 10
36.86945972424253
 20
28.68995218525727
 30
0.0
 10
36.86495129422619
 20
28.69277534861069
 30
0.0
 10
36.85593837094965
 20
28.69841921013439
 30
0.0
 10
36.83935068383737
 20
28.70492670853393
 30
0.0
 10
36.82212621436193
 20
28.7090578745524
 30
0.0
 10
36.80512863414783
 20
28.71043271024091
 30
0.0
 10
36.78939427050688
 20
28.71000052025312
 30
0.0
 10
36.77931565643696
 20
28.70841565431061
 30
0.0
 10
36.77427663026468
 20
28.70762326550511
 30
0.0
  0
SPLINE
  5
1FC
330
1F
100
AcDbEntity
  8
0
  6
Continuous
 62
     7
370
    25
100
AcDbSpline
210
0.0
220
0.0
230
1.0
 70
     8
 71
     3
 72
     9
 73
     5
 74
     0
 42
0.00000001
 43
0.00000001
 40
0.0
 40
0.0
 40
0.0
 40
0.0
 40
0.1794282509264062
 40
1.0
 40
1.0
 40
1.0
 40
1.0
 10
36.88391845439876
 20
28.6765131450641
 30
0.0
 10
36.88339464570996
 20
28.67741774806859
 30
0.0
 10
36.88047532455462
 20
28.68245933432842
 30
0.0
 10
36.87442469770199
 20
28.6865749924631
 30
0.0
 10
36.86945972424253
 20
28.68995218525727
 30
0.0
  0
LINE
  5
1FD
330
1F
100
AcDbEntity
  8
0
  6
Continuous
 62
     7
370
    25
100
AcDbLine
 10
36.90290042
 20
28.6252012197
 30
0.0
 11
36.8760882809
 21
28.6356060893
 31
0.0
  0
SPLINE
  5
1FE
330
1F
100
AcDbEntity
  8
0
  6
Continuous
 62
     7
370
    25
100
AcDbSpline
210
0.0
220
0.0
230
1.0
 70
     8
 71
     3
 72
    10
 73
     6
 74
     0
 42
0.00000001
 43
0.00000001
 40
0.0
 40
0.0
 40
0.0
 40
0.0
 40
0.2989740316690616
 40
0.6494069055782412
 40
1.0
 40
1.0
 40
1.0
 40
1.0
 10
36.92326211627294
 20
28.65747428828381
 30
0.0
 10
36.92290141376378
 20
28.65398718939111
 30
0.0
 10
36.92211792531498
 20
28.64641279877025
 30
0.0
 10
36.91429914846147
 20
28.63548808063192
 30
0.0
 10
36.90670057505158
 20
28.6286306957508
 30
0.0
 10
36.90290042001409
 20
28.62520121967756
 30
0.0
  0
SPLINE
  5
1FF
330
1F
100
AcDbEntity
  8
0
  6
Continuous
 62
     7
370
    25
100
AcDbSpline
210
0.0
220
0.0
230
1.0
 70
     8
 71
     3
 72
    11
 73
     7
 74
     0
 42
0.00000001
 43
0.00000001
 40
0.0
 40
0.0
 40
0.0
 40
0.0
 40
0.1019038248897411
 40
0.5212516662811533
 40
0.9404220347698726
 40
1.0
 40
1.0
 40
1.0
 40
1.0
 10
36.66620595746463
 20
28.61832826306664
 30
0.0
 10
36.66527019589288
 20
28.6193057619037
 30
0.0
 10
36.66048365054932
 20
28.62430579893033
 30
0.0
 10
36.65575639905261
 20
28.63428106483591
 30
0.0
 10
36.65198102831929
 20
28.64404869097061
 30
0.0
 10
36.65283930134032
 20
28.64927099955058
 30
0.0
 10
36.6529461093574
 20
28.64992089114724
 30
0.0
  0
SPLINE
  5
200
330
1F
100
AcDbEntity
  8
0
  6
Continuous
 62
     7
370
    25
100
AcDbSpline
210
0.0
220
0.0
230
1.0
 70
     8
 71
     3
 72
    10
 73
     6
 74
     0
 42
0.00000001
 43
0.00000001
 40
0.0
 40
0.0
 40
0.0
 40
0.0
 40
0.3599290191238232
 40
0.7197082997770188
 40
1.0
 40
1.0
 40
1.0
 40
1.0
 10
36.79055010916465
 20
28.56623312585781
 30
0.0
 10
36.77983187961129
 20
28.56766773028751
 30
0.0
 10
36.75839987952627
 20
28.57053634231961
 30
0.0
 10
36.7302246824954
 20
28.57782880290328
 30
0.0
 10
36.71453843351705
 20
28.58459409184253
 30
0.0
 10
36.70766931192331
 20
28.5875566606762
 30
0.0
  0
LINE
  5
201
330
1F
100
AcDbEntity
  8
0
  6
Continuous
 62
     7
370
    25
100
AcDbLine
 10
36.863911101
 20
28.6028221509
 30
0.0
 11
36.7905501092
 21
28.5662331259
 31
0.0
  0
LINE
  5
202
330
1F
100
AcDbEntity
  8
0
  6
Continuous
 62
     7
370
    25
100
AcDbLine
 10
36.7904913931
 20
28.6246848652
 30
0.0
 11
36.7683183771
 21
28.6395186643
 31
0.0
  0
LINE
  5
203
330
1F
100
AcDbEntity
  8
0
  6
Continuous
 62
     7
370
    25
100
AcDbLine
 10
36.559788327
 20
28.8160667497
 30
0.0
 11
36.4181653784
 21
28.7532267339
 31
0.0
  0
LINE
  5
204
330
1F
100
AcDbEntity
  8
0
  6
Continuous
 62
     7
370
    25
100
AcDbLine
 10
36.74577844
 20
28.7875395092
 30
0.0
 11
36.540539698
 21
28.6957677148
 31
0.0
  0
LINE
  5
205
330
1F
100
AcDbEntity
  8
0
  6
Continuous
 62
     7
370
    25
100
AcDbLine
 10
36.6288477221
 20
28.8382310022
 30
0.0
 11
36.5816219851
 21
28.7675861228
 31
0.0
  0
LINE
  5
206
330
1F
100
AcDbEntity
  8
0
  6
Continuous
 62
     7
370
    25
100
AcDbLine
 10
36.505958751
 20
28.8915022149
 30
0.0
 11
36.4532696772
 21
28.8225969967
 31
0.0
  0
LINE
  5
207
330
1F
100
AcDbEntity
  8
0
  6
Continuous
 62
     7
370
    25
100
AcDbLine
 10
36.319517626
 20
28.8034644213
 30
0.0
 11
36.3110464973
 21
28.7931312904
 31
0.0
  0
LINE
  5
208
330
1F
100
AcDbEntity
  8
0
  6
Continuous
 62
     7
370
    25
100
AcDbLine
 10
36.3016801057
 20
28.9555603979
 30
0.0
 11
36.2250046442
 21
28.8619138513
 31
0.0
  0
LINE
  5
209
330
1F
100
AcDbEntity
  8
0
  6
Continuous
 62
     7
370
    25
100
AcDbLine
 10
36.9399857614
 20
28.4251247998
 30
0.0
 11
36.9119819716
 21
28.4178155938
 31
0.0
  0
LINE
  5
20A
330
1F
100
AcDbEntity
  8
0
  6
Continuous
 62
     7
370
    25
100
AcDbLine
 10
36.9119819716
 20
28.4178155938
 30
0.0
 11
36.8411159983
 21
28.5083852545
 31
0.0
  0
SPLINE
  5
20B
330
1F
100
AcDbEntity
  8
0
  6
Continuous
 62
     7
370
    25
100
AcDbSpline
210
0.0
220
0.0
230
1.0
 70
     8
 71
     3
 72
     9
 73
     5
 74
     0
 42
0.00000001
 43
0.00000001
 40
0.0
 40
0.0
 40
0.0
 40
0.0
 40
0.5598812547033971
 40
1.0
 40
1.0
 40
1.0
 40
1.0
 10
36.84111599829601
 20
28.5083852545192
 30
0.0
 10
36.84502879514751
 20
28.50935761702245
 30
0.0
 10
36.85201741428527
 20
28.51109434690057
 30
0.0
 10
36.85957474044646
 20
28.51152698179515
 30
0.0
 10
36.86290086135433
 20
28.51171739252214
 30
0.0
  0
SPLINE
  5
20C
330
1F
100
AcDbEntity
  8
0
  6
Continuous
 62
     7
370
    25
100
AcDbSpline
210
0.0
220
0.0
230
1.0
 70
     8
 71
     3
 72
    10
 73
     6
 74
     0
 42
0.00000001
 43
0.00000001
 40
0.0
 40
0.0
 40
0.0
 40
0.0
 40
0.27964269661538
 40
0.5596950963243079
 40
1.0
 40
1.0
 40
1.0
 40
1.0
 10
36.86290086135433
 20
28.51171739252214
 30
0.0
 10
36.87209425197695
 20
28.51160423199094
 30
0.0
 10
36.89049450241207
 20
28.51137774513762
 30
0.0
 10
36.92199610356234
 20
28.50562659757989
 30
0.0
 10
36.94328440440061
 20
28.49980029334652
 30
0.0
 10
36.95629647938893
 20
28.49623907405687
 30
0.0
  0
SPLINE
  5
20D
330
1F
100
AcDbEntity
  8
0
  6
Continuous
 62
     7
370
    25
100
AcDbSpline
210
0.0
220
0.0
230
1.0
 70
     8
 71
     3
 72
    12
 73
     8
 74
     0
 42
0.00000001
 43
0.00000001
 40
0.0
 40
0.0
 40
0.0
 40
0.0
 40
0.2803312839461142
 40
0.5605492505782322
 40
0.7072856041817215
 40
0.8538610120662821
 40
1.0
 40
1.0
 40
1.0
 40
1.0
 10
36.95629647938893
 20
28.49623907405687
 30
0.0
 10
36.96653169972493
 20
28.49339313072544
 30
0.0
 10
36.98699800305036
 20
28.48770239446809
 30
0.0
 10
37.01366082309674
 20
28.48143531459253
 30
0.0
 10
37.03621333824071
 20
28.47817302161198
 30
0.0
 10
37.05430320629208
 20
28.47734593087102
 30
0.0
 10
37.06573323019499
 20
28.47939419020777
 30
0.0
 10
37.07143972139969
 20
28.48041679295904
 30
0.0
  0
SPLINE
  5
20E
330
1F
100
AcDbEntity
  8
0
  6
Continuous
 62
     7
370
    25
100
AcDbSpline
210
0.0
220
0.0
230
1.0
 70
     8
 71
     3
 72
    12
 73
     8
 74
     0
 42
0.00000001
 43
0.00000001
 40
0.0
 40
0.0
 40
0.0
 40
0.0
 40
0.1867636393966781
 40
0.3733942009337865
 40
0.560153559397689
 40
0.779855447848038
 40
1.0
 40
1.0
 40
1.0
 40
1.0
 10
37.07143972139969
 20
28.48041679295904
 30
0.0
 10
37.07553382652016
 20
28.48171119128172
 30
0.0
 10
37.08371911951901
 20
28.48429906560752
 30
0.0
 10
37.09242847187293
 20
28.49081025331112
 30
0.0
 10
37.0976908625605
 20
28.49882064336716
 30
0.0
 10
37.09819332340545
 20
28.50804425111769
 30
0.0
 10
37.09433595159516
 20
28.51397364458473
 30
0.0
 10
37.09240532465068
 20
28.51694132500416
 30
0.0
  0
SPLINE
  5
20F
330
1F
100
AcDbEntity
  8
0
  6
Continuous
 62
     7
370
    25
100
AcDbSpline
210
0.0
220
0.0
230
1.0
 70
     8
 71
     3
 72
    12
 73
     8
 74
     0
 42
0.00000001
 43
0.00000001
 40
0.0
 40
0.0
 40
0.0
 40
0.0
 40
0.1870213984419287
 40
0.3736867533454948
 40
0.5602712630966522
 40
0.7797476356389682
 40
1.0
 40
1.0
 40
1.0
 40
1.0
 10
37.09240532465068
 20
28.51694132500416
 30
0.0
 10
37.09002290397864
 20
28.51957773121659
 30
0.0
 10
37.08526259818768
 20
28.52484552456128
 30
0.0
 10
37.07370734595464
 20
28.53099639805
 30
0.0
 10
37.05850883366867
 20
28.53473040998706
 30
0.0
 10
37.04080993496909
 20
28.53506927419916
 30
0.0
 10
37.02945911943705
 20
28.5326020479806
 30
0.0
 10
37.02377369624647
 20
28.53136625790721
 30
0.0
  0
LINE
  5
210
330
1F
100
AcDbEntity
  8
0
  6
Continuous
 62
     7
370
    25
100
AcDbLine
 10
37.0237736962
 20
28.5313662579
 30
0.0
 11
37.0133467532
 21
28.5494672914
 31
0.0
  0
SPLINE
  5
211
330
1F
100
AcDbEntity
  8
0
  6
Continuous
 62
     7
370
    25
100
AcDbSpline
210
0.0
220
0.0
230
1.0
 70
     8
 71
     3
 72
    13
 73
     9
 74
     0
 42
0.00000001
 43
0.00000001
 40
0.0
 40
0.0
 40
0.0
 40
0.0
 40
0.1867847307037677
 40
0.3732470846354763
 40
0.5595250817860582
 40
0.7062275232207202
 40
0.8530689523118614
 40
1.0
 40
1.0
 40
1.0
 40
1.0
 10
37.01334675324419
 20
28.54946729144576
 30
0.0
 10
37.02092760226709
 20
28.55074039146254
 30
0.0
 10
37.0360762163224
 20
28.55328439421867
 30
0.0
 10
37.06011005628138
 20
28.55296307580871
 30
0.0
 10
37.08095086665712
 20
28.5483223561449
 30
0.0
 10
37.09684381170067
 20
28.54094163169771
 30
0.0
 10
37.10849501724192
 20
28.53248976068166
 30
0.0
 10
37.11400423511596
 20
28.52608035892447
 30
0.0
 10
37.11675968437741
 20
28.52287468041584
 30
0.0
  0
SPLINE
  5
212
330
1F
100
AcDbEntity
  8
0
  6
Continuous
 62
     7
370
    25
100
AcDbSpline
210
0.0
220
0.0
230
1.0
 70
     8
 71
     3
 72
    13
 73
     9
 74
     0
 42
0.00000001
 43
0.00000001
 40
0.0
 40
0.0
 40
0.0
 40
0.0
 40
0.1868471974014681
 40
0.3733910455538384
 40
0.55981683379134
 40
0.7065322944962042
 40
0.853211865371702
 40
1.0
 40
1.0
 40
1.0
 40
1.0
 10
37.11675968437741
 20
28.52287468041585
 30
0.0
 10
37.11955765014289
 20
28.51878747987559
 30
0.0
 10
37.12514903913413
 20
28.51061971442693
 30
0.0
 10
37.12720064741002
 20
28.49731524640892
 30
0.0
 10
37.12233174108258
 20
28.4852477493523
 30
0.0
 10
37.11281426638181
 20
28.47532357030876
 30
0.0
 10
37.10020913492915
 20
28.46774892809257
 30
0.0
 10
37.08959582354666
 20
28.46454283250704
 30
0.0
 10
37.08428720474177
 20
28.46293919169201
 30
0.0
  0
SPLINE
  5
213
330
1F
100
AcDbEntity
  8
0
  6
Continuous
 62
     7
370
    25
100
AcDbSpline
210
0.0
220
0.0
230
1.0
 70
     8
 71
     3
 72
    12
 73
     8
 74
     0
 42
0.00000001
 43
0.00000001
 40
0.0
 40
0.0
 40
0.0
 40
0.0
 40
0.1861932211848908
 40
0.3726239486971691
 40
0.5594033423511725
 40
0.7796878412358577
 40
0.9999999999999999
 40
0.9999999999999999
 40
0.9999999999999999
 40
0.9999999999999999
 10
37.08428720474177
 20
28.46293919169201
 30
0.0
 10
37.07613831672339
 20
28.46134855007131
 30
0.0
 10
37.05983014604148
 20
28.45816523782236
 30
0.0
 10
37.03377654977749
 20
28.45954919921332
 30
0.0
 10
37.00770287175886
 20
28.46389660178587
 30
0.0
 10
36.98120129253132
 20
28.47033100862527
 30
0.0
 10
36.96293512033965
 20
28.47523462663699
 30
0.0
 10
36.95380146088481
 20
28.47768658956308
 30
0.0
  0
SPLINE
  5
214
330
1F
100
AcDbEntity
  8
0
  6
Continuous
 62
     7
370
    25
100
AcDbSpline
210
0.0
220
0.0
230
1.0
 70
     8
 71
     3
 72
    10
 73
     6
 74
     0
 42
0.00000001
 43
0.00000001
 40
0.0
 40
0.0
 40
0.0
 40
0.0
 40
0.5600956985499325
 40
0.7801084077952722
 40
0.9999999999999999
 40
0.9999999999999999
 40
0.9999999999999999
 40
0.9999999999999999
 10
36.95380146088481
 20
28.47768658956308
 30
0.0
 10
36.94180641238805
 20
28.48102219716983
 30
0.0
 10
36.92509955638386
 20
28.48566807384032
 30
0.0
 10
36.902907880588
 20
28.49076543016625
 30
0.0
 10
36.89257112981075
 20
28.49180623831688
 30
0.0
 10
36.88740417740966
 20
28.49232649911148
 30
0.0
  0
LINE
  5
215
330
1F
100
AcDbEntity
  8
0
  6
Continuous
 62
     7
370
    25
100
AcDbLine
 10
36.8874041774
 20
28.4923264991
 30
0.0
 11
36.9399857614
 21
28.4251247998
 31
0.0
  0
LINE
  5
216
330
1F
100
AcDbEntity
  8
0
  6
Continuous
 62
     7
370
    25
100
AcDbLine
 10
36.9119819716
 20
28.4178155938
 30
0.0
 11
36.9119819716
 21
28.3851539614
 31
0.0
  0
LINE
  5
217
330
1F
100
AcDbEntity
  8
0
  6
Continuous
 62
     7
370
    25
100
AcDbLine
 10
36.9399857614
 20
28.4251247998
 30
0.0
 11
36.9399857614
 21
28.3924631673
 31
0.0
  0
LINE
  5
218
330
1F
100
AcDbEntity
  8
0
  6
Continuous
 62
     7
370
    25
100
AcDbLine
 10
36.8411159983
 20
28.5083852545
 30
0.0
 11
36.8411159983
 21
28.475723622
 31
0.0
  0
LINE
  5
219
330
1F
100
AcDbEntity
  8
0
  6
Continuous
 62
     7
370
    25
100
AcDbLine
 10
36.9538014609
 20
28.4776865896
 30
0.0
 11
36.9538014609
 21
28.4450249571
 31
0.0
  0
LINE
  5
21A
330
1F
100
AcDbEntity
  8
0
  6
Continuous
 62
     7
370
    25
100
AcDbLine
 10
37.0842872047
 20
28.4629391917
 30
0.0
 11
37.0842872047
 21
28.4302775592
 31
0.0
  0
LINE
  5
21B
330
1F
100
AcDbEntity
  8
0
  6
Continuous
 62
     7
370
    25
100
AcDbLine
 10
37.0924053247
 20
28.516941325
 30
0.0
 11
37.0924053247
 21
28.4919041143
 31
0.0
  0
LINE
  5
21C
330
1F
100
AcDbEntity
  8
0
  6
Continuous
 62
     7
370
    25
100
AcDbLine
 10
37.0237736962
 20
28.5313662579
 30
0.0
 11
37.0237736962
 21
28.4987046254
 31
0.0
  0
LINE
  5
21D
330
1F
100
AcDbEntity
  8
0
  6
Continuous
 62
     7
370
    25
100
AcDbLine
 10
37.0133467532
 20
28.5494672914
 30
0.0
 11
37.0133467532
 21
28.516805659
 31
0.0
  0
LINE
  5
21E
330
1F
100
AcDbEntity
  8
0
  6
Continuous
 62
     7
370
    25
100
AcDbLine
 10
36.84611467
 20
28.5921782417
 30
0.0
 11
36.8734109173
 21
28.6019596791
 31
0.0
  0
LINE
  5
21F
330
1F
100
AcDbEntity
  8
0
  6
Continuous
 62
     7
370
    25
100
AcDbLine
 10
36.8734109173
 20
28.6019596791
 30
0.0
 11
36.9251360024
 21
28.5537834129
 31
0.0
  0
LINE
  5
220
330
1F
100
AcDbEntity
  8
0
  6
Continuous
 62
     7
370
    25
100
AcDbLine
 10
36.9251360024
 20
28.5537834129
 30
0.0
 11
36.8978397551
 21
28.5440019755
 31
0.0
  0
LINE
  5
221
330
1F
100
AcDbEntity
  8
0
  6
Continuous
 62
     7
370
    25
100
AcDbLine
 10
36.8978397551
 20
28.5440019755
 30
0.0
 11
36.84611467
 21
28.5921782417
 31
0.0
  0
LINE
  5
222
330
1F
100
AcDbEntity
  8
0
  6
Continuous
 62
     7
370
    25
100
AcDbLine
 10
36.8978397551
 20
28.5440019755
 30
0.0
 11
36.8978397551
 21
28.511340343
 31
0.0
  0
LINE
  5
223
330
1F
100
AcDbEntity
  8
0
  6
Continuous
 62
     7
370
    25
100
AcDbLine
 10
36.9251360024
 20
28.5537834129
 30
0.0
 11
36.9251360024
 21
28.5211217804
 31
0.0
  0
LINE
  5
224
330
1F
100
AcDbEntity
  8
0
  6
Continuous
 62
     7
370
    25
100
AcDbLine
 10
36.84611467
 20
28.5921782417
 30
0.0
 11
36.84611467
 21
28.5595166092
 31
0.0
  0
LINE
  5
225
330
1F
100
AcDbEntity
  8
0
  6
Continuous
 62
     7
370
    25
100
AcDbLine
 10
36.7683183771
 20
28.6721802967
 30
0.0
 11
36.7914810862
 21
28.6837460403
 31
0.0
  0
LINE
  5
226
330
1F
100
AcDbEntity
  8
0
  6
Continuous
 62
     7
370
    25
100
AcDbLine
 10
36.7914810862
 20
28.6837460403
 30
0.0
 11
36.863911101
 21
28.6354837834
 31
0.0
  0
LINE
  5
227
330
1F
100
AcDbEntity
  8
0
  6
Continuous
 62
     7
370
    25
100
AcDbLine
 10
36.863911101
 20
28.6354837834
 30
0.0
 11
36.7905501092
 21
28.5988947583
 31
0.0
  0
SPLINE
  5
228
330
1F
100
AcDbEntity
  8
0
  6
Continuous
 62
     7
370
    25
100
AcDbSpline
210
0.0
220
0.0
230
1.0
 70
     8
 71
     3
 72
    11
 73
     7
 74
     0
 42
0.00000001
 43
0.00000001
 40
0.0
 40
0.0
 40
0.0
 40
0.0
 40
0.2800365433372532
 40
0.5599565852492502
 40
0.7799786280235642
 40
1.0
 40
1.0
 40
1.0
 40
1.0
 10
36.79055010916465
 20
28.59889475833323
 30
0.0
 10
36.77981236300732
 20
28.60031647652215
 30
0.0
 10
36.75834133783369
 20
28.60315932143363
 30
0.0
 10
36.73036739948684
 20
28.6106494349755
 30
0.0
 10
36.70687837557748
 20
28.61989771113555
 30
0.0
 10
36.69493404782778
 20
28.62713543883905
 30
0.0
 10
36.68896189305683
 20
28.63075429717424
 30
0.0
  0
SPLINE
  5
229
330
1F
100
AcDbEntity
  8
0
  6
Continuous
 62
     7
370
    25
100
AcDbSpline
210
0.0
220
0.0
230
1.0
 70
     8
 71
     3
 72
    16
 73
    12
 74
     0
 42
0.00000001
 43
0.00000001
 40
0.0
 40
0.0
 40
0.0
 40
0.0
 40
0.1120441745186963
 40
0.2240646206431835
 40
0.3360755469206924
 40
0.4480390688663849
 40
0.5599481633169591
 40
0.6699149956826803
 40
0.7799272722949021
 40
0.8899528153861267
 40
1.0
 40
1.0
 40
1.0
 40
1.0
 10
36.68896189305683
 20
28.63075429717424
 30
0.0
 10
36.68400030011089
 20
28.63435157954411
 30
0.0
 10
36.67407816497094
 20
28.64154538246169
 30
0.0
 10
36.66289652238132
 20
28.65380270865973
 30
0.0
 10
36.65522830486844
 20
28.66689421724215
 30
0.0
 10
36.651765145754
 20
28.6806101779251
 30
0.0
 10
36.65372193048056
 20
28.69436600732059
 30
0.0
 10
36.66082679421729
 20
28.70742961606349
 30
0.0
 10
36.67180318351354
 20
28.71943256040027
 30
0.0
 10
36.68585576037494
 20
28.73034875832512
 30
0.0
 10
36.69731038872298
 20
28.73649970118505
 30
0.0
 10
36.70303826610989
 20
28.73957547505088
 30
0.0
  0
SPLINE
  5
22A
330
1F
100
AcDbEntity
  8
0
  6
Continuous
 62
     7
370
    25
100
AcDbSpline
210
0.0
220
0.0
230
1.0
 70
     8
 71
     3
 72
    16
 73
    12
 74
     0
 42
0.00000001
 43
0.00000001
 40
0.0
 40
0.0
 40
0.0
 40
0.0
 40
0.1120585452516486
 40
0.2241025585930077
 40
0.3361420783438899
 40
0.4481112508544606
 40
0.5600244712832634
 40
0.669956147275029
 40
0.7799460369337822
 40
0.8899545986585282
 40
1.0
 40
1.0
 40
1.0
 40
1.0
 10
36.70303826610989
 20
28.73957547505088
 30
0.0
 10
36.70926710058259
 20
28.74245202369929
 30
0.0
 10
36.72172396176394
 20
28.74820474796122
 30
0.0
 10
36.74286474788769
 20
28.75479022363916
 30
0.0
 10
36.76536254500795
 20
28.75952999256132
 30
0.0
 10
36.78892768731696
 20
28.76221056810058
 30
0.0
 10
36.81287664276343
 20
28.76180644886491
 30
0.0
 10
36.83580393335251
 20
28.75814199578857
 30
0.0
 10
36.85675702166687
 20
28.75191779194374
 30
0.0
 10
36.87569483619661
 20
28.74379363121287
 30
0.0
 10
36.88635865450718
 20
28.73716964423838
 30
0.0
 10
36.89169145628665
 20
28.73385709628455
 30
0.0
  0
SPLINE
  5
22B
330
1F
100
AcDbEntity
  8
0
  6
Continuous
 62
     7
370
    25
100
AcDbSpline
210
0.0
220
0.0
230
1.0
 70
     8
 71
     3
 72
    14
 73
    10
 74
     0
 42
0.00000001
 43
0.00000001
 40
0.0
 40
0.0
 40
0.0
 40
0.0
 40
0.1401141300363454
 40
0.2802335047400458
 40
0.4202891968250826
 40
0.5601670861642531
 40
0.7065413657559959
 40
0.8532371476775037
 40
0.9999999999999999
 40
0.9999999999999999
 40
0.9999999999999999
 40
0.9999999999999999
 10
36.89169145628665
 20
28.73385709628455
 30
0.0
 10
36.89593014558832
 20
28.73082666361241
 30
0.0
 10
36.90440768285172
 20
28.72476568483482
 30
0.0
 10
36.91430262780139
 20
28.71452011447647
 30
0.0
 10
36.92128466450102
 20
28.70352735037766
 30
0.0
 10
36.92455231215743
 20
28.69173122603974
 30
0.0
 10
36.92215355976505
 20
28.67963355064755
 30
0.0
 10
36.91438945547502
 20
28.66814837706729
 30
0.0
 10
36.90673068197571
 20
28.66129188281169
 30
0.0
 10
36.90290042001409
 20
28.65786285215299
 30
0.0
  0
LINE
  5
22C
330
1F
100
AcDbEntity
  8
0
  6
Continuous
 62
     7
370
    25
100
AcDbLine
 10
36.90290042
 20
28.6578628522
 30
0.0
 11
36.8760882809
 21
28.6682677218
 31
0.0
  0
SPLINE
  5
22D
330
1F
100
AcDbEntity
  8
0
  6
Continuous
 62
     7
370
    25
100
AcDbSpline
210
0.0
220
0.0
230
1.0
 70
     8
 71
     3
 72
    12
 73
     8
 74
     0
 42
0.00000001
 43
0.00000001
 40
0.0
 40
0.0
 40
0.0
 40
0.0
 40
0.1869786982317899
 40
0.3735356132633572
 40
0.5599076619626309
 40
0.7798457772684461
 40
1.0
 40
1.0
 40
1.0
 40
1.0
 10
36.8760882808654
 20
28.66826772178798
 30
0.0
 10
36.8793652373574
 20
28.67143880482618
 30
0.0
 10
36.88591175824162
 20
28.67777381763026
 30
0.0
 10
36.89210276344543
 20
28.68847464109885
 30
0.0
 10
36.89058008576617
 20
28.70036933742836
 30
0.0
 10
36.88325509358744
 20
28.71220750282704
 30
0.0
 10
36.8740596858264
 20
28.71914391072267
 30
0.0
 10
36.86945972424253
 20
28.72261381773269
 30
0.0
  0
SPLINE
  5
22E
330
1F
100
AcDbEntity
  8
0
  6
Continuous
 62
     7
370
    25
100
AcDbSpline
210
0.0
220
0.0
230
1.0
 70
     8
 71
     3
 72
    13
 73
     9
 74
     0
 42
0.00000001
 43
0.00000001
 40
0.0
 40
0.0
 40
0.0
 40
0.0
 40
0.1867805925620133
 40
0.3733980885147169
 40
0.5599642218449539
 40
0.7065804288734412
 40
0.8532983912161355
 40
1.0
 40
1.0
 40
1.0
 40
1.0
 10
36.86945972424253
 20
28.72261381773269
 30
0.0
 10
36.86495129422619
 20
28.72543698108612
 30
0.0
 10
36.85593837094965
 20
28.73108084260982
 30
0.0
 10
36.83935068383737
 20
28.73758834100936
 30
0.0
 10
36.82212621436193
 20
28.74171950702783
 30
0.0
 10
36.80512863414783
 20
28.74309434271634
 30
0.0
 10
36.78939427050688
 20
28.74266215272855
 30
0.0
 10
36.77931565643696
 20
28.74107728678603
 30
0.0
 10
36.77427663026468
 20
28.74028489798054
 30
0.0
  0
SPLINE
  5
22F
330
1F
100
AcDbEntity
  8
0
  6
Continuous
 62
     7
370
    25
100
AcDbSpline
210
0.0
220
0.0
230
1.0
 70
     8
 71
     3
 72
    10
 73
     6
 74
     0
 42
0.00000001
 43
0.00000001
 40
0.0
 40
0.0
 40
0.0
 40
0.0
 40
0.2800426270523635
 40
0.560185995356313
 40
1.0
 40
1.0
 40
1.0
 40
1.0
 10
36.77427663026468
 20
28.74028489798054
 30
0.0
 10
36.76956488501798
 20
28.73927058086517
 30
0.0
 10
36.76013969954292
 20
28.73724158174864
 30
0.0
 10
36.74429172772188
 20
28.73228319965452
 30
0.0
 10
36.7341479399466
 20
28.72764189887923
 30
0.0
 10
36.72795121206889
 20
28.72480657951528
 30
0.0
  0
SPLINE
  5
230
330
1F
100
AcDbEntity
  8
0
  6
Continuous
 62
     7
370
    25
100
AcDbSpline
210
0.0
220
0.0
230
1.0
 70
     8
 71
     3
 72
    14
 73
    10
 74
     0
 42
0.00000001
 43
0.00000001
 40
0.0
 40
0.0
 40
0.0
 40
0.0
 40
0.1401851328038266
 40
0.2802701207968982
 40
0.4202495961151369
 40
0.5600727280253391
 40
0.7065152079621904
 40
0.8532660018031668
 40
1.0
 40
1.0
 40
1.0
 40
1.0
 10
36.72795121206889
 20
28.72480657951527
 30
0.0
 10
36.72241922915589
 20
28.72186190252455
 30
0.0
 10
36.71135921524242
 20
28.71597465214792
 30
0.0
 10
36.69767247552571
 20
28.70552750310734
 30
0.0
 10
36.6880896839423
 20
28.69364420817227
 30
0.0
 10
36.68422936462454
 20
28.68041599575966
 30
0.0
 10
36.68802437981893
 20
28.6670228784554
 30
0.0
 10
36.69688485088231
 20
28.65424336125833
 30
0.0
 10
36.70647386872543
 20
28.64699659968366
 30
0.0
 10
36.71126810326525
 20
28.64337342625634
 30
0.0
  0
SPLINE
  5
231
330
1F
100
AcDbEntity
  8
0
  6
Continuous
 62
     7
370
    25
100
AcDbSpline
210
0.0
220
0.0
230
1.0
 70
     8
 71
     3
 72
    11
 73
     7
 74
     0
 42
0.00000001
 43
0.00000001
 40
0.0
 40
0.0
 40
0.0
 40
0.0
 40
0.2799716781945318
 40
0.5599536490832386
 40
0.7800980504298237
 40
1.0
 40
1.0
 40
1.0
 40
1.0
 10
36.71126810326525
 20
28.64337342625634
 30
0.0
 10
36.71662551967395
 20
28.64016661621486
 30
0.0
 10
36.72734054944786
 20
28.63375287823884
 30
0.0
 10
36.74593628494085
 20
28.62743664306683
 30
0.0
 10
36.76390019564808
 20
28.62258739890432
 30
0.0
 10
36.77571072059159
 20
28.6210378062965
 30
0.0
 10
36.78161272944842
 20
28.62026343688112
 30
0.0
  0
LINE
  5
232
330
1F
100
AcDbEntity
  8
0
  6
Continuous
 62
     7
370
    25
100
AcDbLine
 10
36.7816127294
 20
28.6202634369
 30
0.0
 11
36.8184794208
 21
28.6386224424
 31
0.0
  0
LINE
  5
233
330
1F
100
AcDbEntity
  8
0
  6
Continuous
 62
     7
370
    25
100
AcDbLine
 10
36.8184794208
 20
28.6386224424
 30
0.0
 11
36.7683183771
 21
28.6721802967
 31
0.0
  0
LINE
  5
234
330
1F
100
AcDbEntity
  8
0
  6
Continuous
 62
     7
370
    25
100
AcDbLine
 10
36.6889618931
 20
28.6307542972
 30
0.0
 11
36.6889618931
 21
28.6024478768
 31
0.0
  0
LINE
  5
235
330
1F
100
AcDbEntity
  8
0
  6
Continuous
 62
     7
370
    25
100
AcDbLine
 10
36.7905501092
 20
28.5988947583
 30
0.0
 11
36.7905501092
 21
28.5662331259
 31
0.0
  0
LINE
  5
236
330
1F
100
AcDbEntity
  8
0
  6
Continuous
 62
     7
370
    25
100
AcDbLine
 10
36.863911101
 20
28.6354837834
 30
0.0
 11
36.863911101
 21
28.6028221509
 31
0.0
  0
LINE
  5
237
330
1F
100
AcDbEntity
  8
0
  6
Continuous
 62
     7
370
    25
100
AcDbLine
 10
36.7683183771
 20
28.6721802967
 30
0.0
 11
36.7683183771
 21
28.6395186643
 31
0.0
  0
LINE
  5
238
330
1F
100
AcDbEntity
  8
0
  6
Continuous
 62
     7
370
    25
100
AcDbLine
 10
36.7279512121
 20
28.7248065795
 30
0.0
 11
36.7279512121
 21
28.692144947
 31
0.0
  0
LINE
  5
239
330
1F
100
AcDbEntity
  8
0
  6
Continuous
 62
     7
370
    25
100
AcDbLine
 10
36.8760882809
 20
28.6682677218
 30
0.0
 11
36.8760882809
 21
28.6356060893
 31
0.0
  0
LINE
  5
23A
330
1F
100
AcDbEntity
  8
0
  6
Continuous
 62
     7
370
    25
100
AcDbLine
 10
36.90290042
 20
28.6578628522
 30
0.0
 11
36.90290042
 21
28.6252012197
 31
0.0
  0
LINE
  5
23B
330
1F
100
AcDbEntity
  8
0
  6
Continuous
 62
     7
370
    25
100
AcDbLine
 10
36.8694597242
 20
28.7226138177
 30
0.0
 11
36.8694597242
 21
28.6899521853
 31
0.0
  0
LINE
  5
23C
330
1F
100
AcDbEntity
  8
0
  6
Continuous
 62
     7
370
    25
100
AcDbLine
 10
36.3764039842
 20
28.7920606988
 30
0.0
 11
36.4776570485
 21
28.9364175162
 31
0.0
  0
LINE
  5
23D
330
1F
100
AcDbEntity
  8
0
  6
Continuous
 62
     7
370
    25
100
AcDbLine
 10
36.4776570485
 20
28.9364175162
 30
0.0
 11
36.505958751
 21
28.9241638474
 31
0.0
  0
LINE
  5
23E
330
1F
100
AcDbEntity
  8
0
  6
Continuous
 62
     7
370
    25
100
AcDbLine
 10
36.505958751
 20
28.9241638474
 30
0.0
 11
36.4350927776
 21
28.8314874156
 31
0.0
  0
SPLINE
  5
23F
330
1F
100
AcDbEntity
  8
0
  6
Continuous
 62
     7
370
    25
100
AcDbSpline
210
0.0
220
0.0
230
1.0
 70
     8
 71
     3
 72
     9
 73
     5
 74
     0
 42
0.00000001
 43
0.00000001
 40
0.0
 40
0.0
 40
0.0
 40
0.0
 40
0.5599873429920461
 40
1.0
 40
1.0
 40
1.0
 40
1.0
 10
36.4350927776492
 20
28.8314874155616
 30
0.0
 10
36.430940558613
 20
28.82611983605997
 30
0.0
 10
36.42352571417381
 20
28.81653465602187
 30
0.0
 10
36.41536981228368
 20
28.80715269105164
 30
0.0
 10
36.41178111222271
 20
28.80302450771714
 30
0.0
  0
SPLINE
  5
240
330
1F
100
AcDbEntity
  8
0
  6
Continuous
 62
     7
370
    25
100
AcDbSpline
210
0.0
220
0.0
230
1.0
 70
     8
 71
     3
 72
     9
 73
     5
 74
     0
 42
0.00000001
 43
0.00000001
 40
0.0
 40
0.0
 40
0.0
 40
0.0
 40
0.560007107894018
 40
1.0
 40
1.0
 40
1.0
 40
1.0
 10
36.41178111222271
 20
28.80302450771714
 30
0.0
 10
36.41892433488699
 20
28.80644010772294
 30
0.0
 10
36.43167992774216
 20
28.81253931603235
 30
0.0
 10
36.44452351765123
 20
28.81857664690646
 30
0.0
 10
36.45017460592034
 20
28.82123302957836
 30
0.0
  0
LINE
  5
241
330
1F
100
AcDbEntity
  8
0
  6
Continuous
 62
     7
370
    25
100
AcDbLine
 10
36.4501746059
 20
28.8212330296
 30
0.0
 11
36.5955932217
 21
28.8853175676
 31
0.0
  0
LINE
  5
242
330
1F
100
AcDbEntity
  8
0
  6
Continuous
 62
     7
370
    25
100
AcDbLine
 10
36.5955932217
 20
28.8853175676
 30
0.0
 11
36.6288477221
 21
28.8708926347
 31
0.0
  0
LINE
  5
243
330
1F
100
AcDbEntity
  8
0
  6
Continuous
 62
     7
370
    25
100
AcDbLine
 10
36.6288477221
 20
28.8708926347
 30
0.0
 11
36.5794686991
 21
28.7970266593
 31
0.0
  0
SPLINE
  5
244
330
1F
100
AcDbEntity
  8
0
  6
Continuous
 62
     7
370
    25
100
AcDbSpline
210
0.0
220
0.0
230
1.0
 70
     8
 71
     3
 72
     9
 73
     5
 74
     0
 42
0.00000001
 43
0.00000001
 40
0.0
 40
0.0
 40
0.0
 40
0.0
 40
0.560001162244862
 40
1.0
 40
1.0
 40
1.0
 40
1.0
 10
36.57946869914847
 20
28.79702665931185
 30
0.0
 10
36.57293957739694
 20
28.78754445636405
 30
0.0
 10
36.56128045560985
 20
28.77061198624239
 30
0.0
 10
36.5466542291878
 20
28.75446965932021
 30
0.0
 10
36.54021870656136
 20
28.74736705423578
 30
0.0
  0
SPLINE
  5
245
330
1F
100
AcDbEntity
  8
0
  6
Continuous
 62
     7
370
    25
100
AcDbSpline
210
0.0
220
0.0
230
1.0
 70
     8
 71
     3
 72
     9
 73
     5
 74
     0
 42
0.00000001
 43
0.00000001
 40
0.0
 40
0.0
 40
0.0
 40
0.0
 40
0.5599915402456449
 40
1.0
 40
1.0
 40
1.0
 40
1.0
 10
36.54021870656136
 20
28.74736705423578
 30
0.0
 10
36.54841335216038
 20
28.75149280733322
 30
0.0
 10
36.56304686893712
 20
28.75886033487771
 30
0.0
 10
36.57809715607108
 20
28.76594214249134
 30
0.0
 10
36.58471940973175
 20
28.7690581977517
 30
0.0
  0
LINE
  5
246
330
1F
100
AcDbEntity
  8
0
  6
Continuous
 62
     7
370
    25
100
AcDbLine
 10
36.5847194097
 20
28.7690581978
 30
0.0
 11
36.7180353238
 21
28.8322183362
 31
0.0
  0
LINE
  5
247
330
1F
100
AcDbEntity
  8
0
  6
Continuous
 62
     7
370
    25
100
AcDbLine
 10
36.7180353238
 20
28.8322183362
 30
0.0
 11
36.74577844
 21
28.8202011417
 31
0.0
  0
LINE
  5
248
330
1F
100
AcDbEntity
  8
0
  6
Continuous
 62
     7
370
    25
100
AcDbLine
 10
36.74577844
 20
28.8202011417
 30
0.0
 11
36.5320261085
 21
28.7246225252
 31
0.0
  0
LINE
  5
249
330
1F
100
AcDbEntity
  8
0
  6
Continuous
 62
     7
370
    25
100
AcDbLine
 10
36.5320261085
 20
28.7246225252
 30
0.0
 11
36.5054374038
 21
28.7361452733
 31
0.0
  0
LINE
  5
24A
330
1F
100
AcDbEntity
  8
0
  6
Continuous
 62
     7
370
    25
100
AcDbLine
 10
36.5054374038
 20
28.7361452733
 30
0.0
 11
36.580772067
 21
28.8469227387
 31
0.0
  0
SPLINE
  5
24B
330
1F
100
AcDbEntity
  8
0
  6
Continuous
 62
     7
370
    25
100
AcDbSpline
210
0.0
220
0.0
230
1.0
 70
     8
 71
     3
 72
     9
 73
     5
 74
     0
 42
0.00000001
 43
0.00000001
 40
0.0
 40
0.0
 40
0.0
 40
0.0
 40
0.5600208437871051
 40
0.9999999999999999
 40
0.9999999999999999
 40
0.9999999999999999
 40
0.9999999999999999
 10
36.58077206702376
 20
28.8469227386978
 30
0.0
 10
36.58289930861995
 20
28.8501068125323
 30
0.0
 10
36.58669781294314
 20
28.85579244704008
 30
0.0
 10
36.59078054087507
 20
28.86141193739242
 30
0.0
 10
36.59257685606561
 20
28.86388439601599
 30
0.0
  0
SPLINE
  5
24C
330
1F
100
AcDbEntity
  8
0
  6
Continuous
 62
     7
370
    25
100
AcDbSpline
210
0.0
220
0.0
230
1.0
 70
     8
 71
     3
 72
     9
 73
     5
 74
     0
 42
0.00000001
 43
0.00000001
 40
0.0
 40
0.0
 40
0.0
 40
0.0
 40
0.5600091678733012
 40
0.9999999999999999
 40
0.9999999999999999
 40
0.9999999999999999
 40
0.9999999999999999
 10
36.59257685606561
 20
28.86388439601599
 30
0.0
 10
36.58806788997189
 20
28.8616950545148
 30
0.0
 10
36.58001629661881
 20
28.85778558012262
 30
0.0
 10
36.57172266283859
 20
28.85404879454849
 30
0.0
 10
36.56807354001027
 20
28.85240464315425
 30
0.0
  0
LINE
  5
24D
330
1F
100
AcDbEntity
  8
0
  6
Continuous
 62
     7
370
    25
100
AcDbLine
 10
36.56807354
 20
28.8524046432
 30
0.0
 11
36.4045567303
 21
28.7798500253
 31
0.0
  0
LINE
  5
24E
330
1F
100
AcDbEntity
  8
0
  6
Continuous
 62
     7
370
    25
100
AcDbLine
 10
36.4045567303
 20
28.7798500253
 30
0.0
 11
36.3764039842
 21
28.7920606988
 31
0.0
  0
LINE
  5
24F
330
1F
100
AcDbEntity
  8
0
  6
Continuous
 62
     7
370
    25
100
AcDbLine
 10
36.7742766303
 20
28.740284898
 30
0.0
 11
36.7742766303
 21
28.7076232655
 31
0.0
  0
LINE
  5
250
330
1F
100
AcDbEntity
  8
0
  6
Continuous
 62
     7
370
    25
100
AcDbLine
 10
36.5320261085
 20
28.7246225252
 30
0.0
 11
36.5320261085
 21
28.7002472779
 31
0.0
  0
LINE
  5
251
330
1F
100
AcDbEntity
  8
0
  6
Continuous
 62
     7
370
    25
100
AcDbLine
 10
36.74577844
 20
28.8202011417
 30
0.0
 11
36.74577844
 21
28.7875395092
 31
0.0
  0
LINE
  5
252
330
1F
100
AcDbEntity
  8
0
  6
Continuous
 62
     7
370
    25
100
AcDbLine
 10
36.5054374038
 20
28.7361452733
 30
0.0
 11
36.5054374038
 21
28.7137384056
 31
0.0
  0
LINE
  5
253
330
1F
100
AcDbEntity
  8
0
  6
Continuous
 62
     7
370
    25
100
AcDbLine
 10
36.4045567303
 20
28.7798500253
 30
0.0
 11
36.4045567303
 21
28.7587845278
 31
0.0
  0
LINE
  5
254
330
1F
100
AcDbEntity
  8
0
  6
Continuous
 62
     7
370
    25
100
AcDbLine
 10
36.3764039842
 20
28.7920606988
 30
0.0
 11
36.3764039842
 21
28.769813094
 31
0.0
  0
LINE
  5
255
330
1F
100
AcDbEntity
  8
0
  6
Continuous
 62
     7
370
    25
100
AcDbLine
 10
36.6288477221
 20
28.8708926347
 30
0.0
 11
36.6288477221
 21
28.8382310022
 31
0.0
  0
LINE
  5
256
330
1F
100
AcDbEntity
  8
0
  6
Continuous
 62
     7
370
    25
100
AcDbLine
 10
36.1586447911
 20
28.860332424
 30
0.0
 11
36.1586447911
 21
28.8365670535
 31
0.0
  0
LINE
  5
257
330
1F
100
AcDbEntity
  8
0
  6
Continuous
 62
     7
370
    25
100
AcDbLine
 10
36.3063349909
 20
28.8200458007
 30
0.0
 11
36.1586447911
 21
28.860332424
 31
0.0
  0
LINE
  5
258
330
1F
100
AcDbEntity
  8
0
  6
Continuous
 62
     7
370
    25
100
AcDbLine
 10
36.3063349909
 20
28.8200458007
 30
0.0
 11
36.3063349909
 21
28.7946955532
 31
0.0
  0
LINE
  5
259
330
1F
100
AcDbEntity
  8
0
  6
Continuous
 62
     7
370
    25
100
AcDbLine
 10
36.1586447911
 20
28.860332424
 30
0.0
 11
36.2703620376
 21
28.9967566032
 31
0.0
  0
LINE
  5
25A
330
1F
100
AcDbEntity
  8
0
  6
Continuous
 62
     7
370
    25
100
AcDbLine
 10
36.2703620376
 20
28.9967566032
 30
0.0
 11
36.3016801057
 21
28.9882220304
 31
0.0
  0
LINE
  5
25B
330
1F
100
AcDbEntity
  8
0
  6
Continuous
 62
     7
370
    25
100
AcDbLine
 10
36.3016801057
 20
28.9882220304
 30
0.0
 11
36.2031454943
 21
28.8678781043
 31
0.0
  0
LINE
  5
25C
330
1F
100
AcDbEntity
  8
0
  6
Continuous
 62
     7
370
    25
100
AcDbLine
 10
36.2031454943
 20
28.8678781043
 30
0.0
 11
36.319517626
 21
28.8361260538
 31
0.0
  0
LINE
  5
25D
330
1F
100
AcDbEntity
  8
0
  6
Continuous
 62
     7
370
    25
100
AcDbLine
 10
36.319517626
 20
28.8361260538
 30
0.0
 11
36.3063349909
 21
28.8200458007
 31
0.0
  0
LINE
  5
25E
330
1F
100
AcDbEntity
  8
0
  6
Continuous
 62
     7
370
    25
100
AcDbLine
 10
36.319517626
 20
28.8361260538
 30
0.0
 11
36.319517626
 21
28.8034644213
 31
0.0
  0
LINE
  5
25F
330
1F
100
AcDbEntity
  8
0
  6
Continuous
 62
     7
370
    25
100
AcDbLine
 10
36.505958751
 20
28.9241638474
 30
0.0
 11
36.505958751
 21
28.8915022149
 31
0.0
  0
LINE
  5
260
330
1F
100
AcDbEntity
  8
0
  6
Continuous
 62
     7
370
    25
100
AcDbLine
 10
36.3016801057
 20
28.9882220304
 30
0.0
 11
36.3016801057
 21
28.9555603979
 31
0.0
  0
LINE
  5
261
330
1F
100
AcDbEntity
  8
0
  6
Continuous
 62
     7
370
    25
100
AcDbLine
 10
34.1410722472
 20
29.0018178606
 30
0.0
 11
34.0695681075
 21
29.0074590972
 31
0.0
  0
LINE
  5
262
330
1F
100
AcDbEntity
  8
0
  6
Continuous
 62
     7
370
    25
100
AcDbLine
 10
34.1852870889
 20
29.0347454383
 30
0.0
 11
34.1410722472
 21
29.0018178606
 31
0.0
  0
LINE
  5
263
330
1F
100
AcDbEntity
  8
0
  6
Continuous
 62
     7
370
    25
100
AcDbLine
 10
34.1579977909
 20
29.0733142526
 30
0.0
 11
34.1852870889
 21
29.0347454383
 31
0.0
  0
LINE
  5
264
330
1F
100
AcDbEntity
  8
0
  6
Continuous
 62
     7
370
    25
100
AcDbLine
 10
34.0864936512
 20
29.0789554892
 30
0.0
 11
34.1579977909
 21
29.0733142526
 31
0.0
  0
LINE
  5
265
330
1F
100
AcDbEntity
  8
0
  6
Continuous
 62
     7
370
    25
100
AcDbLine
 10
34.0422788095
 20
29.0460279115
 30
0.0
 11
34.0864936512
 21
29.0789554892
 31
0.0
  0
LINE
  5
266
330
1F
100
AcDbEntity
  8
0
  6
Continuous
 62
     7
370
    25
100
AcDbLine
 10
34.0695681075
 20
29.0074590972
 30
0.0
 11
34.0422788095
 21
29.0460279115
 31
0.0
  0
LWPOLYLINE
  5
267
330
1F
100
AcDbEntity
  8
0
  6
Continuous
 62
     7
370
    25
100
AcDbPolyline
 90
       68
 70
   128
 43
0.0
 10
34.0799318618
 20
28.8973938908
 10
34.1032753768
 20
28.8961922788
 10
34.1267112328
 20
28.8962578524
 10
34.1500334745
 20
28.8975900353
 10
34.1730371453
 20
28.9001771201
 10
34.1955200881
 20
28.9039963716
 10
34.217284722
 20
28.9090142259
 10
34.2381397786
 20
28.915186586
 10
34.257901983
 20
28.9224592091
 10
34.276397664
 20
28.9307681829
 10
34.2934642811
 20
28.940040488
 10
34.3089518522
 20
28.950194639
 10
34.322724272
 20
28.9611414008
 10
34.3346605079
 20
28.972784573
 10
34.3446556638
 20
28.9850218349
 10
34.3526219021
 20
28.9977456449
 10
34.358489215
 20
29.0108441859
 10
34.3622060405
 20
29.0242023474
 10
34.3637397149
 20
29.0377027372
 10
34.3630767603
 20
29.0512267137
 10
34.3602230027
 20
29.0646554274
 10
34.3552035211
 20
29.0778708665
 10
34.3480624268
 20
29.0907568932
 10
34.338862476
 20
29.1032002646
 10
34.3276845182
 20
29.1150916279
 10
34.3146267858
 20
29.1263264814
 10
34.2998040305
 20
29.1368060928
 10
34.2833465152
 20
29.1464383669
 10
34.2653988693
 20
29.1551386548
 10
34.2461188171
 20
29.1628304983
 10
34.2256757927
 20
29.169446301
 10
34.2042494498
 20
29.1749279232
 10
34.1820280842
 20
29.1792271919
 10
34.1592069778
 20
29.1823063253
 10
34.1359866834
 20
29.1841382636
 10
34.1125712618
 20
29.1847069078
 10
34.0891664886
 20
29.1840072606
 10
34.0659780457
 20
29.1820454705
 10
34.043209714
 20
29.1788387779
 10
34.0210615824
 20
29.1744153632
 10
33.9997282896
 20
29.1688140995
 10
33.9793973132
 20
29.1620842111
 10
33.9602473226
 20
29.1542848403
 10
33.9424466086
 20
29.1454845283
 10
33.9261516045
 20
29.1357606126
 10
33.9115055114
 20
29.1251985473
 10
33.8986370397
 20
29.1138911523
 10
33.8876592781
 20
29.1019377972
 10
33.8786686993
 20
29.0894435287
 10
33.8717443131
 20
29.0765181468
 10
33.8669469711
 20
29.0632752402
 10
33.8643188325
 20
29.0498311881
 10
33.8638829936
 20
29.0363041372
 10
33.8656432844
 20
29.0228129639
 10
33.8695842356
 20
29.0094762289
 10
33.8756712138
 20
28.9964111361
 10
33.8838507265
 20
28.9837325018
 10
33.8940508919
 20
28.9715517465
 10
33.9061820705
 20
28.959975915
 10
33.920137653
 20
28.9491067362
 10
33.9357949974
 20
28.9390397287
 10
33.9530165063
 20
28.9298633619
 10
33.9716508365
 20
28.9216582779
 10
33.9915342289
 20
28.9144965833
 10
34.0124919473
 20
28.9084412153
 10
34.0343398147
 20
28.9035453889
 10
34.0568858313
 20
28.8998521285
 10
34.0799318618
 20
28.8973938908
  0
LWPOLYLINE
  5
268
330
1F
100
AcDbEntity
  8
0
  6
Continuous
 62
     7
370
    25
100
AcDbPolyline
 90
       20
 70
   128
 43
0.0
 10
34.0799318618
 20
28.8933111868
 10
34.1032753768
 20
28.8921095748
 10
34.1267112328
 20
28.8921751484
 10
34.1500334745
 20
28.8935073312
 10
34.1730371453
 20
28.896094416
 10
34.1955200881
 20
28.8999136675
 10
34.217284722
 20
28.9049315218
 10
34.2381397786
 20
28.911103882
 10
34.257901983
 20
28.918376505
 10
34.276397664
 20
28.9266854789
 10
34.2934642811
 20
28.935957784
 10
34.3089518522
 20
28.9461119349
 10
34.322724272
 20
28.9570586968
 10
34.3346605079
 20
28.968701869
 10
34.3446556638
 20
28.9809391308
 10
34.3526219021
 20
28.9936629409
 10
34.358489215
 20
29.0067614819
 10
34.3622060405
 20
29.0201196433
 10
34.3637397149
 20
29.0336200332
 10
34.3637829492
 20
29.0363039709
  0
LWPOLYLINE
  5
269
330
1F
100
AcDbEntity
  8
0
  6
Continuous
 62
     7
370
    25
100
AcDbPolyline
 90
       17
 70
   128
 43
0.0
 10
33.8637829492
 20
29.0363039709
 10
33.8638829936
 20
29.0322214332
 10
33.8656432844
 20
29.0187302598
 10
33.8695842356
 20
29.0053935249
 10
33.8756712138
 20
28.992328432
 10
33.8838507265
 20
28.9796497978
 10
33.8940508919
 20
28.9674690425
 10
33.9061820705
 20
28.955893211
 10
33.920137653
 20
28.9450240321
 10
33.9357949974
 20
28.9349570247
 10
33.9530165063
 20
28.9257806578
 10
33.9716508365
 20
28.9175755738
 10
33.9915342289
 20
28.9104138792
 10
34.0124919473
 20
28.9043585113
 10
34.0343398147
 20
28.8994626848
 10
34.0568858313
 20
28.8957694245
 10
34.0799318618
 20
28.8933111868
  0
LINE
  5
26A
330
1F
100
AcDbEntity
  8
0
  6
Continuous
 62
     7
370
    25
100
AcDbLine
 10
34.1579977909
 20
29.0144226135
 30
0.0
 11
34.1579977909
 21
29.0733142526
 31
0.0
  0
ARC
  5
26B
330
1F
100
AcDbEntity
  8
0
  6
Continuous
 62
     7
370
    25
100
AcDbCircle
 10
34.1137860573
 20
28.8978260336
 30
0.0
 40
0.1076028486631338
100
AcDbArc
 50
85.4907908746
 51
95.9459905829
  0
ARC
  5
26C
330
1F
100
AcDbEntity
  8
0
  6
Continuous
 62
     7
370
    25
100
AcDbCircle
 10
34.1148596229
 20
28.9072769308
 30
0.0
 40
0.098097347533354
100
AcDbArc
 50
74.5340223806
 51
85.6819104517
  0
LINE
  5
26D
330
1F
100
AcDbEntity
  8
0
  6
Continuous
 62
     7
370
    25
100
AcDbLine
 10
34.0864936512
 20
29.0079164386
 30
0.0
 11
34.0864936512
 21
29.0789554892
 31
0.0
  0
LINE
  5
26E
330
1F
100
AcDbEntity
  8
0
  6
Continuous
 62
     7
370
    25
100
AcDbLine
 10
34.0843170638
 20
29.0062954953
 30
0.0
 11
34.0864936512
 21
29.0079164386
 31
0.0
  0
LINE
  5
26F
330
1F
100
AcDbEntity
  8
0
  6
Continuous
 62
     7
370
    25
100
AcDbLine
 10
34.122245721
 20
29.0050958203
 30
0.0
 11
34.1432488346
 21
29.0034388039
 31
0.0
  0
LINE
  5
270
330
1F
100
AcDbEntity
  8
0
  6
Continuous
 62
     7
370
    25
100
AcDbLine
 10
34.0864936512
 20
29.0079164386
 30
0.0
 11
34.122245721
 21
29.0050958203
 31
0.0
  0
LWPOLYLINE
  5
271
330
1F
100
AcDbEntity
  8
0
  6
Continuous
 62
     7
370
    25
100
AcDbPolyline
 90
       68
 70
   128
 43
0.0
 10
37.1735240295
 20
27.1115011462
 10
37.1968675445
 20
27.1102995342
 10
37.2203034005
 20
27.1103651078
 10
37.2436256422
 20
27.1116972906
 10
37.266629313
 20
27.1142843755
 10
37.2891122558
 20
27.1181036269
 10
37.3108768897
 20
27.1231214813
 10
37.3317319463
 20
27.1292938414
 10
37.3514941507
 20
27.1365664645
 10
37.3699898317
 20
27.1448754383
 10
37.3870564488
 20
27.1541477434
 10
37.4025440199
 20
27.1643018944
 10
37.4163164397
 20
27.1752486562
 10
37.4282526756
 20
27.1868918284
 10
37.4382478315
 20
27.1991290903
 10
37.4462140698
 20
27.2118529003
 10
37.4520813827
 20
27.2249514413
 10
37.4557982082
 20
27.2383096027
 10
37.4573318826
 20
27.2518099926
 10
37.456668928
 20
27.265333969
 10
37.4538151704
 20
27.2787626828
 10
37.4487956888
 20
27.2919781219
 10
37.4416545945
 20
27.3048641486
 10
37.4324546437
 20
27.31730752
 10
37.4212766859
 20
27.3291988833
 10
37.4082189535
 20
27.3404337368
 10
37.3933961982
 20
27.3509133482
 10
37.3769386829
 20
27.3605456222
 10
37.358991037
 20
27.3692459102
 10
37.3397109848
 20
27.3769377537
 10
37.3192679603
 20
27.3835535564
 10
37.2978416175
 20
27.3890351785
 10
37.2756202518
 20
27.3933344473
 10
37.2527991455
 20
27.3964135806
 10
37.2295788511
 20
27.398245519
 10
37.2061634295
 20
27.3988141632
 10
37.1827586563
 20
27.398114516
 10
37.1595702134
 20
27.3961527259
 10
37.1368018817
 20
27.3929460333
 10
37.1146537501
 20
27.3885226186
 10
37.0933204573
 20
27.3829213549
 10
37.0729894809
 20
27.3761914664
 10
37.0538394902
 20
27.3683920957
 10
37.0360387763
 20
27.3595917837
 10
37.0197437722
 20
27.349867868
 10
37.0050976791
 20
27.3393058027
 10
36.9922292074
 20
27.3279984077
 10
36.9812514458
 20
27.3160450526
 10
36.972260867
 20
27.3035507841
 10
36.9653364808
 20
27.2906254022
 10
36.9605391387
 20
27.2773824956
 10
36.9579110002
 20
27.2639384435
 10
36.9574751612
 20
27.2504113926
 10
36.9592354521
 20
27.2369202193
 10
36.9631764033
 20
27.2235834843
 10
36.9692633815
 20
27.2105183915
 10
36.9774428942
 20
27.1978397572
 10
36.9876430596
 20
27.1856590019
 10
36.9997742382
 20
27.1740831704
 10
37.0137298207
 20
27.1632139916
 10
37.0293871651
 20
27.1531469841
 10
37.046608674
 20
27.1439706173
 10
37.0652430042
 20
27.1357655332
 10
37.0851263965
 20
27.1286038387
 10
37.106084115
 20
27.1225484707
 10
37.1279319824
 20
27.1176526442
 10
37.150477999
 20
27.1139593839
 10
37.1735240295
 20
27.1115011462
  0
LWPOLYLINE
  5
272
330
1F
100
AcDbEntity
  8
0
  6
Continuous
 62
     7
370
    25
100
AcDbPolyline
 90
       20
 70
   128
 43
0.0
 10
37.1735240295
 20
27.1074184421
 10
37.1968675445
 20
27.1062168302
 10
37.2203034005
 20
27.1062824037
 10
37.2436256422
 20
27.1076145866
 10
37.266629313
 20
27.1102016714
 10
37.2891122558
 20
27.1140209229
 10
37.3108768897
 20
27.1190387772
 10
37.3317319463
 20
27.1252111374
 10
37.3514941507
 20
27.1324837604
 10
37.3699898317
 20
27.1407927343
 10
37.3870564488
 20
27.1500650393
 10
37.4025440199
 20
27.1602191903
 10
37.4163164397
 20
27.1711659522
 10
37.4282526756
 20
27.1828091243
 10
37.4382478315
 20
27.1950463862
 10
37.4462140698
 20
27.2077701963
 10
37.4520813827
 20
27.2208687372
 10
37.4557982082
 20
27.2342268987
 10
37.4573318826
 20
27.2477272886
 10
37.4573751169
 20
27.2504112262
  0
LWPOLYLINE
  5
273
330
1F
100
AcDbEntity
  8
0
  6
Continuous
 62
     7
370
    25
100
AcDbPolyline
 90
       17
 70
   128
 43
0.0
 10
36.9573751169
 20
27.2504112262
 10
36.9574751612
 20
27.2463286886
 10
36.9592354521
 20
27.2328375152
 10
36.9631764033
 20
27.2195007802
 10
36.9692633815
 20
27.2064356874
 10
36.9774428942
 20
27.1937570532
 10
36.9876430596
 20
27.1815762978
 10
36.9997742382
 20
27.1700004663
 10
37.0137298207
 20
27.1591312875
 10
37.0293871651
 20
27.14906428
 10
37.046608674
 20
27.1398879132
 10
37.0652430042
 20
27.1316828292
 10
37.0851263965
 20
27.1245211346
 10
37.106084115
 20
27.1184657667
 10
37.1279319824
 20
27.1135699402
 10
37.150477999
 20
27.1098766798
 10
37.1735240295
 20
27.1074184421
  0
LINE
  5
274
330
1F
100
AcDbEntity
  8
0
  6
Continuous
 62
     7
370
    25
100
AcDbLine
 10
37.2346644149
 20
27.215925116
 30
0.0
 11
37.1631602752
 21
27.2215663526
 31
0.0
  0
LINE
  5
275
330
1F
100
AcDbEntity
  8
0
  6
Continuous
 62
     7
370
    25
100
AcDbLine
 10
37.2788792565
 20
27.2488526937
 30
0.0
 11
37.2346644149
 21
27.215925116
 31
0.0
  0
LINE
  5
276
330
1F
100
AcDbEntity
  8
0
  6
Continuous
 62
     7
370
    25
100
AcDbLine
 10
37.2515899586
 20
27.287421508
 30
0.0
 11
37.2788792565
 21
27.2488526937
 31
0.0
  0
LINE
  5
277
330
1F
100
AcDbEntity
  8
0
  6
Continuous
 62
     7
370
    25
100
AcDbLine
 10
37.1800858189
 20
27.2930627446
 30
0.0
 11
37.2515899586
 21
27.287421508
 31
0.0
  0
LINE
  5
278
330
1F
100
AcDbEntity
  8
0
  6
Continuous
 62
     7
370
    25
100
AcDbLine
 10
37.1358709772
 20
27.2601351669
 30
0.0
 11
37.1800858189
 21
27.2930627446
 31
0.0
  0
LINE
  5
279
330
1F
100
AcDbEntity
  8
0
  6
Continuous
 62
     7
370
    25
100
AcDbLine
 10
37.1631602752
 20
27.2215663526
 30
0.0
 11
37.1358709772
 21
27.2601351669
 31
0.0
  0
LINE
  5
27A
330
1F
100
AcDbEntity
  8
0
  6
Continuous
 62
     7
370
    25
100
AcDbLine
 10
37.2515899586
 20
27.2285298689
 30
0.0
 11
37.2515899586
 21
27.287421508
 31
0.0
  0
ARC
  5
27B
330
1F
100
AcDbEntity
  8
0
  6
Continuous
 62
     7
370
    25
100
AcDbCircle
 10
37.207378225
 20
27.111933289
 30
0.0
 40
0.1076028486623221
100
AcDbArc
 50
85.4907908746
 51
95.945990583
  0
ARC
  5
27C
330
1F
100
AcDbEntity
  8
0
  6
Continuous
 62
     7
370
    25
100
AcDbCircle
 10
37.2084517905
 20
27.1213841862
 30
0.0
 40
0.0980973475334867
100
AcDbArc
 50
74.5340223806
 51
85.6819104516
  0
LINE
  5
27D
330
1F
100
AcDbEntity
  8
0
  6
Continuous
 62
     7
370
    25
100
AcDbLine
 10
37.1800858189
 20
27.222023694
 30
0.0
 11
37.1800858189
 21
27.2930627446
 31
0.0
  0
LINE
  5
27E
330
1F
100
AcDbEntity
  8
0
  6
Continuous
 62
     7
370
    25
100
AcDbLine
 10
37.1779092315
 20
27.2204027507
 30
0.0
 11
37.1800858189
 21
27.222023694
 31
0.0
  0
LINE
  5
27F
330
1F
100
AcDbEntity
  8
0
  6
Continuous
 62
     7
370
    25
100
AcDbLine
 10
37.2158378887
 20
27.2192030757
 30
0.0
 11
37.2368410023
 21
27.2175460593
 31
0.0
  0
LINE
  5
280
330
1F
100
AcDbEntity
  8
0
  6
Continuous
 62
     7
370
    25
100
AcDbLine
 10
37.1800858189
 20
27.222023694
 30
0.0
 11
37.2158378887
 21
27.2192030757
 31
0.0
  0
LWPOLYLINE
  5
281
330
1F
100
AcDbEntity
  8
0
  6
Continuous
 62
     7
370
    25
100
AcDbPolyline
 90
      128
 70
   128
 43
0.0
 10
35.0312539978
 20
28.4576667596
 10
35.0631464937
 20
28.4751888457
 10
35.0965010072
 20
28.4917789924
 10
35.1312359141
 20
28.5073966008
 10
35.1672662124
 20
28.5220034521
 10
35.2045037298
 20
28.5355638008
 10
35.2428573398
 20
28.5480444624
 10
35.2822331849
 20
28.5594148947
 10
35.3225349056
 20
28.5696472724
 10
35.363663877
 20
28.5787165551
 10
35.4055194495
 20
28.5866005487
 10
35.4479991956
 20
28.5932799599
 10
35.4909991601
 20
28.5987384429
 10
35.534414115
 20
28.6029626399
 10
35.5781378166
 20
28.6059422136
 10
35.6220632657
 20
28.6076698725
 10
35.6660829693
 20
28.6081413888
 10
35.7100892039
 20
28.6073556085
 10
35.7539742788
 20
28.6053144546
 10
35.7976307998
 20
28.6020229221
 10
35.8409519322
 20
28.597489066
 10
35.8838316619
 20
28.5917239814
 10
35.926165055
 20
28.5847417763
 10
35.9678485147
 20
28.5765595375
 10
36.0087800344
 20
28.5671972882
 10
36.0488594479
 20
28.5566779394
 10
36.0879886741
 20
28.5450272338
 10
36.1260719574
 20
28.5322736825
 10
36.1630161014
 20
28.5184484957
 10
36.1987306978
 20
28.5035855058
 10
36.2331283469
 20
28.4877210852
 10
36.2661248718
 20
28.4708940567
 10
36.2976395246
 20
28.4531455988
 10
36.3275951836
 20
28.4345191451
 10
36.3559185424
 20
28.4150602776
 10
36.3825402888
 20
28.3948166153
 10
36.4073952751
 20
28.3738376979
 10
36.4304226768
 20
28.3521748644
 10
36.4515661422
 20
28.3298811273
 10
36.4707739296
 20
28.3070110432
 10
36.4879990343
 20
28.2836205789
 10
36.5031993036
 20
28.2597669749
 10
36.5163375399
 20
28.2355086048
 10
36.5273815917
 20
28.2109048331
 10
36.5363044324
 20
28.1860158693
 10
36.5430842263
 20
28.1609026208
 10
36.5477043822
 20
28.1356265439
 10
36.5501535936
 20
28.1102494936
 10
36.550425867
 20
28.0848335715
 10
36.5485205361
 20
28.0594409748
 10
36.5444422636
 20
28.0341338435
 10
36.5382010296
 20
28.0089741082
 10
36.5298121075
 20
27.9840233391
 10
36.5192960265
 20
27.959342595
 10
36.506678521
 20
27.9349922736
 10
36.4919904684
 20
27.9110319644
 10
36.4752678126
 20
27.8875203022
 10
36.4565514769
 20
27.864514824
 10
36.4358872632
 20
27.8420718281
 10
36.4133257403
 20
27.8202462362
 10
36.3889221202
 20
27.7990914592
 10
36.3627361224
 20
27.7786592664
 10
36.3348318286
 20
27.7589996588
 10
36.3052775252
 20
27.7401607468
 10
36.2741455365
 20
27.7221886323
 10
36.2415120478
 20
27.7051272961
 10
36.2074569187
 20
27.6890184902
 10
36.1720634878
 20
27.6739016355
 10
36.1354183686
 20
27.6598137254
 10
36.0976112381
 20
27.6467892355
 10
36.0587346165
 20
27.6348600388
 10
36.0188836415
 20
27.6240553282
 10
35.978155835
 20
27.6144015445
 10
35.936650865
 20
27.6059223122
 10
35.8944703008
 20
27.5986383814
 10
35.8517173656
 20
27.592567577
 10
35.8084966828
 20
27.5877247554
 10
35.7649140207
 20
27.5841217677
 10
35.7210760335
 20
27.581767431
 10
35.6770899999
 20
27.5806675069
 10
35.6330635613
 20
27.580824687
 10
35.5891044576
 20
27.5822385867
 10
35.5453202642
 20
27.5849057459
 10
35.5018181283
 20
27.5888196376
 10
35.4587045069
 20
27.5939706839
 10
35.4160849064
 20
27.6003462793
 10
35.3740636239
 20
27.6079308217
 10
35.3327434926
 20
27.6167057504
 10
35.2922256299
 20
27.6266495917
 10
35.2526091896
 20
27.6377380113
 10
35.21399112
 20
27.649943874
 10
35.1764659258
 20
27.6632373101
 10
35.1401254374
 20
27.6775857883
 10
35.1050585863
 20
27.6929541954
 10
35.0713511867
 20
27.7093049223
 10
35.0390857265
 20
27.7265979562
 10
35.0083411645
 20
27.744790978
 10
34.9791927379
 20
27.7638394664
 10
34.9517117777
 20
27.7836968065
 10
34.9259655345
 20
27.8043144041
 10
34.9020170136
 20
27.8256418045
 10
34.879924821
 20
27.847626816
 10
34.8597430202
 20
27.8702156375
 10
34.8415209993
 20
27.8933529904
 10
34.8253033506
 20
27.9169822538
 10
34.8111297615
 20
27.9410456028
 10
34.7990349171
 20
27.9654841505
 10
34.7890484155
 20
27.9902380915
 10
34.7811946954
 20
28.0152468489
 10
34.7754929762
 20
28.0404492221
 10
34.7719572108
 20
28.0657835366
 10
34.7705960519
 20
28.091187795
 10
34.7714128305
 20
28.116599829
 10
34.7744055478
 20
28.141957451
 10
34.7795668802
 20
28.1671986067
 10
34.7868841969
 20
28.1922615267
 10
34.7963395913
 20
28.2170848778
 10
34.8079099244
 20
28.2416079132
 10
34.8215668817
 20
28.2657706209
 10
34.8372770423
 20
28.2895138707
 10
34.8550019609
 20
28.3127795589
 10
34.8746982615
 20
28.3355107504
 10
34.8963177441
 20
28.3576518182
 10
34.9198075021
 20
28.3791485794
 10
34.9451100522
 20
28.3999484279
 10
34.9721634748
 20
28.4200004628
 10
35.0009015656
 20
28.4392556136
 10
35.0312539978
 20
28.4576667596
  0
LWPOLYLINE
  5
282
330
1F
100
AcDbEntity
  8
0
  6
Continuous
 62
     7
370
    25
100
AcDbPolyline
 90
       48
 70
   128
 43
0.0
 10
35.0312539978
 20
28.3760126784
 10
35.0631464937
 20
28.3935347645
 10
35.0965010072
 20
28.4101249112
 10
35.1312359141
 20
28.4257425196
 10
35.1672662124
 20
28.4403493709
 10
35.2045037298
 20
28.4539097196
 10
35.2428573398
 20
28.4663903812
 10
35.2822331849
 20
28.4777608135
 10
35.3225349056
 20
28.4879931912
 10
35.363663877
 20
28.4970624739
 10
35.4055194495
 20
28.5049464675
 10
35.4479991956
 20
28.5116258787
 10
35.4909991601
 20
28.5170843617
 10
35.534414115
 20
28.5213085587
 10
35.5781378166
 20
28.5242881324
 10
35.6220632657
 20
28.5260157913
 10
35.6660829693
 20
28.5264873076
 10
35.7100892039
 20
28.5257015273
 10
35.7539742788
 20
28.5236603734
 10
35.7976307998
 20
28.5203688409
 10
35.8409519322
 20
28.5158349848
 10
35.8838316619
 20
28.5100699002
 10
35.926165055
 20
28.5030876951
 10
35.9678485147
 20
28.4949054563
 10
36.0087800344
 20
28.485543207
 10
36.0488594479
 20
28.4750238582
 10
36.0879886741
 20
28.4633731526
 10
36.1260719574
 20
28.4506196013
 10
36.1630161014
 20
28.4367944145
 10
36.1987306978
 20
28.4219314247
 10
36.2331283469
 20
28.406067004
 10
36.2661248718
 20
28.3892399755
 10
36.2976395246
 20
28.3714915177
 10
36.3275951836
 20
28.3528650639
 10
36.3559185424
 20
28.3334061964
 10
36.3825402888
 20
28.3131625341
 10
36.4073952751
 20
28.2921836167
 10
36.4304226768
 20
28.2705207832
 10
36.4515661422
 20
28.2482270461
 10
36.4707739296
 20
28.225356962
 10
36.4879990343
 20
28.2019664977
 10
36.5031993036
 20
28.1781128937
 10
36.5163375399
 20
28.1538545236
 10
36.5273815917
 20
28.1292507519
 10
36.5363044324
 20
28.1043617881
 10
36.5430842263
 20
28.0792485396
 10
36.5477043822
 20
28.0539724628
 10
36.5477646813
 20
28.0535381092
  0
ARC
  5
283
330
1F
100
AcDbEntity
  8
0
  6
Continuous
 62
     7
370
    25
100
AcDbCircle
 10
35.2366710217
 20
27.9474209547
 30
0.0
 40
0.4752757298727016
100
AcDbArc
 50
115.6076403667
 51
167.0985415375
  0
LINE
  5
284
330
1F
100
AcDbEntity
  8
0
  6
Continuous
 62
     7
370
    25
100
AcDbLine
 10
36.4434444053
 20
26.8188828694
 30
0.0
 11
36.4434444053
 21
26.8749127648
 31
0.0
  0
LINE
  5
285
330
1F
100
AcDbEntity
  8
0
  6
Continuous
 62
     7
370
    25
100
AcDbLine
 10
34.8777136607
 20
26.8188828694
 30
0.0
 11
34.8777136607
 21
26.8749127648
 31
0.0
  0
LINE
  5
286
330
1F
100
AcDbEntity
  8
0
  6
Continuous
 62
     7
370
    25
100
AcDbLine
 10
36.3593282157
 20
26.7542647427
 30
0.0
 11
36.3593282157
 21
27.0561383256
 31
0.0
  0
LINE
  5
287
330
1F
100
AcDbEntity
  8
0
  6
Continuous
 62
     7
370
    25
100
AcDbLine
 10
34.9618298504
 20
26.7542647427
 30
0.0
 11
34.9618298504
 21
27.0561383256
 31
0.0
  0
LINE
  5
288
330
1F
100
AcDbEntity
  8
0
  6
Continuous
 62
     7
370
    25
100
AcDbLine
 10
33.8839732453
 20
27.1177449081
 30
0.0
 11
33.8839732453
 21
27.270821429
 31
0.0
  0
LINE
  5
289
330
1F
100
AcDbEntity
  8
0
  6
Continuous
 62
     7
370
    25
100
AcDbLine
 10
35.7000944857
 20
27.2233382168
 30
0.0
 11
35.7000944857
 21
27.1911060698
 31
0.0
  0
LINE
  5
28A
330
1F
100
AcDbEntity
  8
0
  6
Continuous
 62
     7
370
    25
100
AcDbLine
 10
34.1137829492
 20
27.1017312816
 30
0.0
 11
34.1137829492
 21
27.4034877472
 31
0.0
  0
LINE
  5
28B
330
1F
100
AcDbEntity
  8
0
  6
Continuous
 62
     7
370
    25
100
AcDbLine
 10
37.9548851501
 20
27.6914190389
 30
0.0
 11
37.9548851501
 21
27.9005254553
 31
0.0
  0
LINE
  5
28C
330
1F
100
AcDbEntity
  8
0
  6
Continuous
 62
     7
370
    25
100
AcDbLine
 10
33.3662729159
 20
27.6914190389
 30
0.0
 11
33.3662729159
 21
27.9005254553
 31
0.0
  0
LINE
  5
28D
330
1F
100
AcDbEntity
  8
0
  6
Continuous
 62
     7
370
    25
100
AcDbLine
 10
37.6409592566
 20
27.7249651164
 30
0.0
 11
37.6409592566
 21
27.9490846979
 31
0.0
  0
LINE
  5
28E
330
1F
100
AcDbEntity
  8
0
  6
Continuous
 62
     7
370
    25
100
AcDbLine
 10
33.6801988095
 20
27.7249651164
 30
0.0
 11
33.6801988095
 21
27.9490846979
 31
0.0
  0
LINE
  5
28F
330
1F
100
AcDbEntity
  8
0
  6
Continuous
 62
     7
370
    25
100
AcDbLine
 10
37.5439021146
 20
28.3376304991
 30
0.0
 11
37.5439021146
 21
28.5467369155
 31
0.0
  0
LINE
  5
290
330
1F
100
AcDbEntity
  8
0
  6
Continuous
 62
     7
370
    25
100
AcDbLine
 10
33.7772559514
 20
28.3376304991
 30
0.0
 11
33.7772559514
 21
28.5467369155
 31
0.0
  0
LINE
  5
291
330
1F
100
AcDbEntity
  8
0
  6
Continuous
 62
     7
370
    25
100
AcDbLine
 10
37.8578280082
 20
28.3711765766
 30
0.0
 11
37.8578280082
 21
28.5952961582
 31
0.0
  0
LINE
  5
292
330
1F
100
AcDbEntity
  8
0
  6
Continuous
 62
     7
370
    25
100
AcDbLine
 10
33.4633300579
 20
28.3711765766
 30
0.0
 11
33.4633300579
 21
28.5952961582
 31
0.0
  0
LINE
  5
293
330
1F
100
AcDbEntity
  8
0
  6
Continuous
 62
     7
370
    25
100
AcDbLine
 10
36.2733359617
 20
28.995946171
 30
0.0
 11
36.2733359617
 21
29.0277633054
 31
0.0
  0
LINE
  5
294
330
1F
100
AcDbEntity
  8
0
  6
Continuous
 62
     7
370
    25
100
AcDbLine
 10
36.5794686991
 20
28.7970266593
 30
0.0
 11
36.5794686991
 21
28.766562757
 31
0.0
  0
LINE
  5
295
330
1F
100
AcDbEntity
  8
0
  6
Continuous
 62
     7
370
    25
100
AcDbLine
 10
36.56807354
 20
28.8524046432
 30
0.0
 11
36.56807354
 21
28.8282499183
 31
0.0
  0
LINE
  5
296
330
1F
100
AcDbEntity
  8
0
  6
Continuous
 62
     7
370
    25
100
AcDbLine
 10
36.4350927776
 20
28.8314874156
 30
0.0
 11
36.4350927776
 21
28.8141257811
 31
0.0
  0
LINE
  5
297
330
1F
100
AcDbEntity
  8
0
  6
Continuous
 62
     7
370
    25
100
AcDbLine
 10
36.9422100739
 20
28.8832274499
 30
0.0
 11
36.9422100739
 21
29.0363039709
 31
0.0
  0
LINE
  5
298
330
1F
100
AcDbEntity
  8
0
  6
Continuous
 62
     7
370
    25
100
AcDbLine
 10
37.1720197778
 20
28.8672138234
 30
0.0
 11
37.1720197778
 21
29.168970289
 31
0.0
  0
LINE
  5
299
330
1F
100
AcDbEntity
  8
0
  6
Continuous
 62
     7
370
    25
100
AcDbLine
 10
35.9971060308
 20
29.2305768715
 30
0.0
 11
35.9971060308
 21
29.2866067669
 31
0.0
  0
LINE
  5
29A
330
1F
100
AcDbEntity
  8
0
  6
Continuous
 62
     7
370
    25
100
AcDbLine
 10
35.3240520353
 20
29.2305768715
 30
0.0
 11
35.3240520353
 21
29.2866067669
 31
0.0
  0
LINE
  5
29B
330
1F
100
AcDbEntity
  8
0
  6
Continuous
 62
     7
370
    25
100
AcDbLine
 10
36.0812222205
 20
29.1659587448
 30
0.0
 11
36.0812222205
 21
29.4678323277
 31
0.0
  0
LINE
  5
29C
330
1F
100
AcDbEntity
  8
0
  6
Continuous
 62
     7
370
    25
100
AcDbLine
 10
35.2399358456
 20
29.1659587448
 30
0.0
 11
35.2399358456
 21
29.4678323277
 31
0.0
  0
CIRCLE
  5
29D
330
1F
100
AcDbEntity
  8
0
  6
Continuous
 62
     7
370
    25
100
AcDbCircle
 10
12.9855480088
 20
25.4145052519
 30
0.0
 40
3.000000000000011
  0
CIRCLE
  5
29E
330
1F
100
AcDbEntity
  8
0
  6
Continuous
 62
     7
370
    25
100
AcDbCircle
 10
12.9855480088
 20
25.4145052519
 30
0.0
 40
1.065000000000003
  0
LINE
  5
29F
330
1F
100
AcDbEntity
  8
0
  6
Continuous
 62
     7
370
    25
100
AcDbLine
 10
13.1730480088
 20
23.0895052519
 30
0.0
 11
13.1730480088
 21
23.4145052519
 31
0.0
  0
ARC
  5
2A0
330
1F
100
AcDbEntity
  8
0
  6
Continuous
 62
     7
370
    25
100
AcDbCircle
 10
12.9855480088
 20
23.4145052519
 30
0.0
 40
0.1875
100
AcDbArc
 50
360.0
 51
180.0
  0
LINE
  5
2A1
330
1F
100
AcDbEntity
  8
0
  6
Continuous
 62
     7
370
    25
100
AcDbLine
 10
12.7980480088
 20
23.4145052519
 30
0.0
 11
12.7980480088
 21
23.0895052519
 31
0.0
  0
ARC
  5
2A2
330
1F
100
AcDbEntity
  8
0
  6
Continuous
 62
     7
370
    25
100
AcDbCircle
 10
12.9855480088
 20
23.0895052519
 30
0.0
 40
0.1875
100
AcDbArc
 50
180.0
 51
0.0
  0
LINE
  5
2A3
330
1F
100
AcDbEntity
  8
0
  6
Continuous
 62
     7
370
    25
100
AcDbLine
 10
11.985427772
 20
23.3072461881
 30
0.0
 11
12.147927772
 21
23.5887044443
 31
0.0
  0
ARC
  5
2A4
330
1F
100
AcDbEntity
  8
0
  6
Continuous
 62
     7
370
    25
100
AcDbCircle
 10
11.9855480088
 20
23.6824544443
 30
0.0
 40
0.1875000000000016
100
AcDbArc
 50
330.0
 51
150.0
  0
LINE
  5
2A5
330
1F
100
AcDbEntity
  8
0
  6
Continuous
 62
     7
370
    25
100
AcDbLine
 10
11.8231682456
 20
23.7762044443
 30
0.0
 11
11.6606682456
 21
23.4947461881
 31
0.0
  0
ARC
  5
2A6
330
1F
100
AcDbEntity
  8
0
  6
Continuous
 62
     7
370
    25
100
AcDbCircle
 10
11.8230480088
 20
23.4009961881
 30
0.0
 40
0.1875000000000016
100
AcDbArc
 50
150.0
 51
330.0
  0
LINE
  5
2A7
330
1F
100
AcDbEntity
  8
0
  6
Continuous
 62
     7
370
    25
100
AcDbLine
 10
11.065788945
 20
24.0896254887
 30
0.0
 11
11.3472472012
 21
24.2521254887
 31
0.0
  0
ARC
  5
2A8
330
1F
100
AcDbEntity
  8
0
  6
Continuous
 62
     7
370
    25
100
AcDbCircle
 10
11.2534972012
 20
24.4145052519
 30
0.0
 40
0.1875
100
AcDbArc
 50
300.0
 51
120.0
  0
LINE
  5
2A9
330
1F
100
AcDbEntity
  8
0
  6
Continuous
 62
     7
370
    25
100
AcDbLine
 10
11.1597472012
 20
24.5768850151
 30
0.0
 11
10.878288945
 21
24.4143850151
 31
0.0
  0
ARC
  5
2AA
330
1F
100
AcDbEntity
  8
0
  6
Continuous
 62
     7
370
    25
100
AcDbCircle
 10
10.972038945
 20
24.2520052519
 30
0.0
 40
0.1875
100
AcDbArc
 50
120.0
 51
300.0
  0
LINE
  5
2AB
330
1F
100
AcDbEntity
  8
0
  6
Continuous
 62
     7
370
    25
100
AcDbLine
 10
10.878288945
 20
26.4146254887
 30
0.0
 11
11.1597472012
 21
26.2521254887
 31
0.0
  0
ARC
  5
2AC
330
1F
100
AcDbEntity
  8
0
  6
Continuous
 62
     7
370
    25
100
AcDbCircle
 10
11.2534972012
 20
26.4145052519
 30
0.0
 40
0.1875000000000009
100
AcDbArc
 50
240.0
 51
60.0
  0
LINE
  5
2AD
330
1F
100
AcDbEntity
  8
0
  6
Continuous
 62
     7
370
    25
100
AcDbLine
 10
11.3472472012
 20
26.5768850151
 30
0.0
 11
11.065788945
 21
26.7393850151
 31
0.0
  0
ARC
  5
2AE
330
1F
100
AcDbEntity
  8
0
  6
Continuous
 62
     7
370
    25
100
AcDbCircle
 10
10.972038945
 20
26.5770052519
 30
0.0
 40
0.187500000000004
100
AcDbArc
 50
60.0
 51
240.0
  0
LINE
  5
2AF
330
1F
100
AcDbEntity
  8
0
  6
Continuous
 62
     7
370
    25
100
AcDbLine
 10
11.6606682456
 20
27.3342643157
 30
0.0
 11
11.8231682456
 21
27.0528060594
 31
0.0
  0
ARC
  5
2B0
330
1F
100
AcDbEntity
  8
0
  6
Continuous
 62
     7
370
    25
100
AcDbCircle
 10
11.9855480088
 20
27.1465560594
 30
0.0
 40
0.1875000000000046
100
AcDbArc
 50
210.0
 51
30.0
  0
LINE
  5
2B1
330
1F
100
AcDbEntity
  8
0
  6
Continuous
 62
     7
370
    25
100
AcDbLine
 10
12.147927772
 20
27.2403060594
 30
0.0
 11
11.985427772
 21
27.5217643157
 31
0.0
  0
ARC
  5
2B2
330
1F
100
AcDbEntity
  8
0
  6
Continuous
 62
     7
370
    25
100
AcDbCircle
 10
11.8230480088
 20
27.4280143157
 30
0.0
 40
0.1875
100
AcDbArc
 50
30.0
 51
210.0
  0
LINE
  5
2B3
330
1F
100
AcDbEntity
  8
0
  6
Continuous
 62
     7
370
    25
100
AcDbLine
 10
12.7980480088
 20
27.7395052519
 30
0.0
 11
12.7980480088
 21
27.4145052519
 31
0.0
  0
ARC
  5
2B4
330
1F
100
AcDbEntity
  8
0
  6
Continuous
 62
     7
370
    25
100
AcDbCircle
 10
12.9855480088
 20
27.4145052519
 30
0.0
 40
0.1875000000000018
100
AcDbArc
 50
180.0
 51
360.0
  0
LINE
  5
2B5
330
1F
100
AcDbEntity
  8
0
  6
Continuous
 62
     7
370
    25
100
AcDbLine
 10
13.1730480088
 20
27.4145052519
 30
0.0
 11
13.1730480088
 21
27.7395052519
 31
0.0
  0
ARC
  5
2B6
330
1F
100
AcDbEntity
  8
0
  6
Continuous
 62
     7
370
    25
100
AcDbCircle
 10
12.9855480088
 20
27.7395052519
 30
0.0
 40
0.1875
100
AcDbArc
 50
0.0
 51
180.0
  0
LINE
  5
2B7
330
1F
100
AcDbEntity
  8
0
  6
Continuous
 62
     7
370
    25
100
AcDbLine
 10
13.9856682456
 20
27.5217643157
 30
0.0
 11
13.8231682456
 21
27.2403060594
 31
0.0
  0
ARC
  5
2B8
330
1F
100
AcDbEntity
  8
0
  6
Continuous
 62
     7
370
    25
100
AcDbCircle
 10
13.9855480088
 20
27.1465560594
 30
0.0
 40
0.1875000000000016
100
AcDbArc
 50
150.0
 51
330.0
  0
LINE
  5
2B9
330
1F
100
AcDbEntity
  8
0
  6
Continuous
 62
     7
370
    25
100
AcDbLine
 10
14.147927772
 20
27.0528060594
 30
0.0
 11
14.310427772
 21
27.3342643157
 31
0.0
  0
ARC
  5
2BA
330
1F
100
AcDbEntity
  8
0
  6
Continuous
 62
     7
370
    25
100
AcDbCircle
 10
14.1480480088
 20
27.4280143157
 30
0.0
 40
0.1875000000000018
100
AcDbArc
 50
330.0
 51
150.0
  0
LINE
  5
2BB
330
1F
100
AcDbEntity
  8
0
  6
Continuous
 62
     7
370
    25
100
AcDbLine
 10
14.9053070726
 20
26.7393850151
 30
0.0
 11
14.6238488164
 21
26.5768850151
 31
0.0
  0
ARC
  5
2BC
330
1F
100
AcDbEntity
  8
0
  6
Continuous
 62
     7
370
    25
100
AcDbCircle
 10
14.7175988164
 20
26.4145052519
 30
0.0
 40
0.1875000000000044
100
AcDbArc
 50
120.0
 51
300.0
  0
LINE
  5
2BD
330
1F
100
AcDbEntity
  8
0
  6
Continuous
 62
     7
370
    25
100
AcDbLine
 10
14.8113488164
 20
26.2521254887
 30
0.0
 11
15.0928070726
 21
26.4146254887
 31
0.0
  0
ARC
  5
2BE
330
1F
100
AcDbEntity
  8
0
  6
Continuous
 62
     7
370
    25
100
AcDbCircle
 10
14.9990570726
 20
26.5770052519
 30
0.0
 40
0.1875000000000004
100
AcDbArc
 50
300.0
 51
120.0
  0
LINE
  5
2BF
330
1F
100
AcDbEntity
  8
0
  6
Continuous
 62
     7
370
    25
100
AcDbLine
 10
15.0928070726
 20
24.4143850151
 30
0.0
 11
14.8113488164
 21
24.5768850151
 31
0.0
  0
ARC
  5
2C0
330
1F
100
AcDbEntity
  8
0
  6
Continuous
 62
     7
370
    25
100
AcDbCircle
 10
14.7175988164
 20
24.4145052519
 30
0.0
 40
0.1875000000000049
100
AcDbArc
 50
60.0
 51
240.0
  0
LINE
  5
2C1
330
1F
100
AcDbEntity
  8
0
  6
Continuous
 62
     7
370
    25
100
AcDbLine
 10
14.6238488164
 20
24.2521254887
 30
0.0
 11
14.9053070726
 21
24.0896254887
 31
0.0
  0
ARC
  5
2C2
330
1F
100
AcDbEntity
  8
0
  6
Continuous
 62
     7
370
    25
100
AcDbCircle
 10
14.9990570726
 20
24.2520052519
 30
0.0
 40
0.1875000000000009
100
AcDbArc
 50
240.0
 51
60.0
  0
LINE
  5
2C3
330
1F
100
AcDbEntity
  8
0
  6
Continuous
 62
     7
370
    25
100
AcDbLine
 10
14.310427772
 20
23.4947461881
 30
0.0
 11
14.147927772
 21
23.7762044443
 31
0.0
  0
ARC
  5
2C4
330
1F
100
AcDbEntity
  8
0
  6
Continuous
 62
     7
370
    25
100
AcDbCircle
 10
13.9855480088
 20
23.6824544443
 30
0.0
 40
0.1875000000000013
100
AcDbArc
 50
30.0
 51
210.0
  0
LINE
  5
2C5
330
1F
100
AcDbEntity
  8
0
  6
Continuous
 62
     7
370
    25
100
AcDbLine
 10
13.8231682456
 20
23.5887044443
 30
0.0
 11
13.9856682456
 21
23.3072461881
 31
0.0
  0
ARC
  5
2C6
330
1F
100
AcDbEntity
  8
0
  6
Continuous
 62
     7
370
    25
100
AcDbCircle
 10
14.1480480088
 20
23.4009961881
 30
0.0
 40
0.1874999999999982
100
AcDbArc
 50
210.0
 51
30.0
  0
ARC
  5
2C7
330
1F
100
AcDbEntity
  8
0
  6
Continuous
 62
     7
370
    25
100
AcDbCircle
 10
13.5666123255
 20
26.7702298773
 30
0.0
 40
0.1749999999999997
100
AcDbArc
 50
246.8
 51
66.8
  0
ARC
  5
2C8
330
1F
100
AcDbEntity
  8
0
  6
Continuous
 62
     7
370
    25
100
AcDbCircle
 10
12.9855480088
 20
25.4145052519
 30
0.0
 40
1.650000000000004
100
AcDbArc
 50
66.8
 51
113.2
  0
ARC
  5
2C9
330
1F
100
AcDbEntity
  8
0
  6
Continuous
 62
     7
370
    25
100
AcDbCircle
 10
12.4044836922
 20
26.7702298773
 30
0.0
 40
0.1750000000000016
100
AcDbArc
 50
113.2
 51
293.2
  0
ARC
  5
2CA
330
1F
100
AcDbEntity
  8
0
  6
Continuous
 62
     7
370
    25
100
AcDbCircle
 10
12.9855480088
 20
25.4145052519
 30
0.0
 40
1.300000000000004
100
AcDbArc
 50
66.8
 51
113.2
  0
ARC
  5
2CB
330
1F
100
AcDbEntity
  8
0
  6
Continuous
 62
     7
370
    25
100
AcDbCircle
 10
12.9855480088
 20
25.4145052519
 30
0.0
 40
1.300000000000004
100
AcDbArc
 50
216.8
 51
323.2
  0
ARC
  5
2CC
330
1F
100
AcDbEntity
  8
0
  6
Continuous
 62
     7
370
    25
100
AcDbCircle
 10
11.8044692367
 20
24.5309454441
 30
0.0
 40
0.1750000000000049
100
AcDbArc
 50
36.8
 51
216.8
  0
ARC
  5
2CD
330
1F
100
AcDbEntity
  8
0
  6
Continuous
 62
     7
370
    25
100
AcDbCircle
 10
12.9855480088
 20
25.4145052519
 30
0.0
 40
1.650000000000007
100
AcDbArc
 50
216.8
 51
323.2
  0
ARC
  5
2CE
330
1F
100
AcDbEntity
  8
0
  6
Continuous
 62
     7
370
    25
100
AcDbCircle
 10
14.166626781
 20
24.5309454441
 30
0.0
 40
0.1749999999999999
100
AcDbArc
 50
323.2
 51
143.2
  0
LINE
  5
2CF
330
1F
100
AcDbEntity
  8
0
  6
Continuous
 62
     7
370
    25
100
AcDbLine
 10
12.6971307962
 20
26.7152518187
 30
0.0
 11
12.5919080942
 21
26.9636679776
 31
0.0
  0
LINE
  5
2D0
330
1F
100
AcDbEntity
  8
0
  6
Continuous
 62
     7
370
    25
100
AcDbLine
 10
12.5919080942
 20
26.9636679776
 30
0.0
 11
12.6269296642
 21
26.968671059
 31
0.0
  0
LINE
  5
2D1
330
1F
100
AcDbEntity
  8
0
  6
Continuous
 62
     7
370
    25
100
AcDbLine
 10
12.6269296642
 20
26.968671059
 30
0.0
 11
12.6903371383
 21
26.8050439643
 31
0.0
  0
SPLINE
  5
2D2
330
1F
100
AcDbEntity
  8
0
  6
Continuous
 62
     7
370
    25
100
AcDbSpline
210
0.0
220
0.0
230
1.0
 70
     8
 71
     3
 72
     9
 73
     5
 74
     0
 42
0.00000001
 43
0.00000001
 40
0.0
 40
0.0
 40
0.0
 40
0.0
 40
0.5599873429920461
 40
1.0
 40
1.0
 40
1.0
 40
1.0
 10
12.69033713827442
 20
26.80504396430089
 30
0.0
 10
12.69397570387798
 20
26.79553327422239
 30
0.0
 10
12.7004732893129
 20
26.77854951521867
 30
0.0
 10
12.70619795441653
 20
26.76129066304863
 30
0.0
 10
12.70871687951926
 20
26.75369654964839
 30
0.0
  0
SPLINE
  5
2D3
330
1F
100
AcDbEntity
  8
0
  6
Continuous
 62
     7
370
    25
100
AcDbSpline
210
0.0
220
0.0
230
1.0
 70
     8
 71
     3
 72
     9
 73
     5
 74
     0
 42
0.00000001
 43
0.00000001
 40
0.0
 40
0.0
 40
0.0
 40
0.0
 40
0.5600071078940181
 40
1.0
 40
1.0
 40
1.0
 40
1.0
 10
12.70871687951926
 20
26.75369654964839
 30
0.0
 10
12.70958420880316
 20
26.76293126273539
 30
0.0
 10
12.71113299143763
 20
26.77942161251278
 30
0.0
 10
12.71281978966945
 20
26.79589839331994
 30
0.0
 10
12.71356196890186
 20
26.80314805975988
 30
0.0
  0
LINE
  5
2D4
330
1F
100
AcDbEntity
  8
0
  6
Continuous
 62
     7
370
    25
100
AcDbLine
 10
12.7135619689
 20
26.8031480598
 30
0.0
 11
12.7378927438
 21
26.9844702635
 31
0.0
  0
LINE
  5
2D5
330
1F
100
AcDbEntity
  8
0
  6
Continuous
 62
     7
370
    25
100
AcDbLine
 10
12.7378927438
 20
26.9844702635
 30
0.0
 11
12.7790760036
 21
26.9903159692
 31
0.0
  0
LINE
  5
2D6
330
1F
100
AcDbEntity
  8
0
  6
Continuous
 62
     7
370
    25
100
AcDbLine
 10
12.7790760036
 20
26.9903159692
 30
0.0
 11
12.8346365395
 21
26.8649229494
 31
0.0
  0
SPLINE
  5
2D7
330
1F
100
AcDbEntity
  8
0
  6
Continuous
 62
     7
370
    25
100
AcDbSpline
210
0.0
220
0.0
230
1.0
 70
     8
 71
     3
 72
     9
 73
     5
 74
     0
 42
0.00000001
 43
0.00000001
 40
0.0
 40
0.0
 40
0.0
 40
0.0
 40
0.5600011622448634
 40
1.0
 40
1.0
 40
1.0
 40
1.0
 10
12.83463653945172
 20
26.86492294938797
 30
0.0
 10
12.84163429107521
 20
26.84869162523308
 30
0.0
 10
12.85413025018257
 20
26.81970717796905
 30
0.0
 10
12.8635603207846
 20
26.78959249959463
 30
0.0
 10
12.86770954088944
 20
26.77634207611051
 30
0.0
  0
SPLINE
  5
2D8
330
1F
100
AcDbEntity
  8
0
  6
Continuous
 62
     7
370
    25
100
AcDbSpline
210
0.0
220
0.0
230
1.0
 70
     8
 71
     3
 72
     9
 73
     5
 74
     0
 42
0.00000001
 43
0.00000001
 40
0.0
 40
0.0
 40
0.0
 40
0.0
 40
0.5599915402456428
 40
1.0
 40
1.0
 40
1.0
 40
1.0
 10
12.86770954088944
 20
26.77634207611051
 30
0.0
 10
12.86845048785336
 20
26.78719010809157
 30
0.0
 10
12.86977362742006
 20
26.80656188641575
 30
0.0
 10
12.87174144007269
 20
26.82587839394558
 30
0.0
 10
12.87260729428706
 20
26.8343778206716
 30
0.0
  0
LINE
  5
2D9
330
1F
100
AcDbEntity
  8
0
  6
Continuous
 62
     7
370
    25
100
AcDbLine
 10
12.8726072943
 20
26.8343778207
 30
0.0
 11
12.8895124431
 21
27.0060098456
 31
0.0
  0
LINE
  5
2DA
330
1F
100
AcDbEntity
  8
0
  6
Continuous
 62
     7
370
    25
100
AcDbLine
 10
12.8895124431
 20
27.0060098456
 30
0.0
 11
12.9238493809
 21
27.010907599
 31
0.0
  0
LINE
  5
2DB
330
1F
100
AcDbEntity
  8
0
  6
Continuous
 62
     7
370
    25
100
AcDbLine
 10
12.9238493809
 20
27.010907599
 30
0.0
 11
12.8897757632
 21
26.7426897705
 31
0.0
  0
LINE
  5
2DC
330
1F
100
AcDbEntity
  8
0
  6
Continuous
 62
     7
370
    25
100
AcDbLine
 10
12.8897757632
 20
26.7426897705
 30
0.0
 11
12.8568607538
 21
26.7380026732
 31
0.0
  0
LINE
  5
2DD
330
1F
100
AcDbEntity
  8
0
  6
Continuous
 62
     7
370
    25
100
AcDbLine
 10
12.8568607538
 20
26.7380026732
 30
0.0
 11
12.7744415703
 21
26.9269611591
 31
0.0
  0
SPLINE
  5
2DE
330
1F
100
AcDbEntity
  8
0
  6
Continuous
 62
     7
370
    25
100
AcDbSpline
210
0.0
220
0.0
230
1.0
 70
     8
 71
     3
 72
     9
 73
     5
 74
     0
 42
0.00000001
 43
0.00000001
 40
0.0
 40
0.0
 40
0.0
 40
0.0
 40
0.5600208437871044
 40
1.0
 40
1.0
 40
1.0
 40
1.0
 10
12.77444157027447
 20
26.9269611590912
 30
0.0
 10
12.77204565654939
 20
26.93236544673207
 30
0.0
 10
12.76776739842443
 20
26.94201560118762
 30
0.0
 10
12.76377113523424
 20
26.95178571359062
 30
0.0
 10
12.76201286272782
 20
26.9560843594018
 30
0.0
  0
SPLINE
  5
2DF
330
1F
100
AcDbEntity
  8
0
  6
Continuous
 62
     7
370
    25
100
AcDbSpline
210
0.0
220
0.0
230
1.0
 70
     8
 71
     3
 72
     9
 73
     5
 74
     0
 42
0.00000001
 43
0.00000001
 40
0.0
 40
0.0
 40
0.0
 40
0.0
 40
0.5600091678733016
 40
1.0
 40
1.0
 40
1.0
 40
1.0
 10
12.76201286272782
 20
26.9560843594018
 30
0.0
 10
12.76150621756722
 20
26.95021436356038
 30
0.0
 10
12.76060150887733
 20
26.93973239973163
 30
0.0
 10
12.75931412909692
 20
26.9292908101387
 30
0.0
 10
12.75874769379607
 20
26.92469660644499
 30
0.0
  0
LINE
  5
2E0
330
1F
100
AcDbEntity
  8
0
  6
Continuous
 62
     7
370
    25
100
AcDbLine
 10
12.7587476938
 20
26.9246966064
 30
0.0
 11
12.7319943742
 21
26.7202022361
 31
0.0
  0
LINE
  5
2E1
330
1F
100
AcDbEntity
  8
0
  6
Continuous
 62
     7
370
    25
100
AcDbLine
 10
12.7319943742
 20
26.7202022361
 30
0.0
 11
12.6971307962
 21
26.7152518187
 31
0.0
  0
LINE
  5
2E2
330
1F
100
AcDbEntity
  8
0
  6
Continuous
 62
     7
370
    25
100
AcDbLine
 10
12.4595272879
 20
26.6448973228
 30
0.0
 11
12.3714203907
 21
26.8909962651
 31
0.0
  0
LINE
  5
2E3
330
1F
100
AcDbEntity
  8
0
  6
Continuous
 62
     7
370
    25
100
AcDbLine
 10
12.3714203907
 20
26.8909962651
 30
0.0
 11
12.4040194161
 21
26.9026876764
 31
0.0
  0
LINE
  5
2E4
330
1F
100
AcDbEntity
  8
0
  6
Continuous
 62
     7
370
    25
100
AcDbLine
 10
12.4817515022
 20
26.6856066065
 30
0.0
 11
12.6029314008
 21
26.7290017548
 31
0.0
  0
LINE
  5
2E5
330
1F
100
AcDbEntity
  8
0
  6
Continuous
 62
     7
370
    25
100
AcDbLine
 10
12.6029314008
 20
26.7290017548
 30
0.0
 11
12.6133062118
 21
26.6999838826
 31
0.0
  0
LINE
  5
2E6
330
1F
100
AcDbEntity
  8
0
  6
Continuous
 62
     7
370
    25
100
AcDbLine
 10
12.6133062118
 20
26.6999838826
 30
0.0
 11
12.4595272879
 21
26.6448973228
 31
0.0
  0
LINE
  5
2E7
330
1F
100
AcDbEntity
  8
0
  6
Continuous
 62
     7
370
    25
100
AcDbLine
 10
12.4040194161
 20
26.9026876764
 30
0.0
 11
12.4817515022
 21
26.6856066065
 31
0.0
  0
LINE
  5
2E8
330
1F
100
AcDbEntity
  8
0
  6
Continuous
 62
     7
370
    25
100
AcDbLine
 10
13.121094939
 20
26.8455383257
 30
0.0
 11
13.1233068276
 21
26.8760834544
 31
0.0
  0
LINE
  5
2E9
330
1F
100
AcDbEntity
  8
0
  6
Continuous
 62
     7
370
    25
100
AcDbLine
 10
13.1233068276
 20
26.8760834544
 30
0.0
 11
13.2336379391
 21
26.8681838521
 31
0.0
  0
LINE
  5
2EA
330
1F
100
AcDbEntity
  8
0
  6
Continuous
 62
     7
370
    25
100
AcDbLine
 10
13.2336379391
 20
26.8681838521
 30
0.0
 11
13.2265809611
 21
26.7714927205
 31
0.0
  0
SPLINE
  5
2EB
330
1F
100
AcDbEntity
  8
0
  6
Continuous
 62
     7
370
    25
100
AcDbSpline
210
0.0
220
0.0
230
1.0
 70
     8
 71
     3
 72
    13
 73
     9
 74
     0
 42
0.00000001
 43
0.00000001
 40
0.0
 40
0.0
 40
0.0
 40
0.0
 40
0.1866596092705724
 40
0.3733405217065285
 40
0.5599775977889262
 40
0.7066295103480079
 40
0.8533335109098712
 40
1.0
 40
1.0
 40
1.0
 40
1.0
 10
13.22658096111633
 20
26.77149272053308
 30
0.0
 10
13.22041842231047
 20
26.76750816771076
 30
0.0
 10
13.20809264137796
 20
26.75953860731543
 30
0.0
 10
13.18814880944793
 20
26.75011219734171
 30
0.0
 10
13.1687630116972
 20
26.7435069982544
 30
0.0
 10
13.15026157958202
 20
26.73972024875571
 30
0.0
 10
13.13301171558256
 20
26.73798362551693
 30
0.0
 10
13.12148555358911
 20
26.73844992116009
 30
0.0
 10
13.11572320948194
 20
26.7386830391705
 30
0.0
  0
SPLINE
  5
2EC
330
1F
100
AcDbEntity
  8
0
  6
Continuous
 62
     7
370
    25
100
AcDbSpline
210
0.0
220
0.0
230
1.0
 70
     8
 71
     3
 72
    17
 73
    13
 74
     0
 42
0.00000001
 43
0.00000001
 40
0.0
 40
0.0
 40
0.0
 40
0.0
 40
0.0933725197283581
 40
0.1867352855220663
 40
0.2800900819102028
 40
0.3734423449848072
 40
0.4667615971797991
 40
0.5600564272913995
 40
0.669996205011881
 40
0.7799814157984195
 40
0.8899798898000687
 40
1.0
 40
1.0
 40
1.0
 40
1.0
 10
13.11572320948194
 20
26.7386830391705
 30
0.0
 10
13.10912547167762
 20
26.73939006765669
 30
0.0
 10
13.09593068528571
 20
26.74080405077104
 30
0.0
 10
13.07663053594564
 20
26.74591155406728
 30
0.0
 10
13.05820280087732
 20
26.75351753537989
 30
0.0
 10
13.04101509813274
 20
26.76365053336765
 30
0.0
 10
13.02566249557621
 20
26.77643939722101
 30
0.0
 10
13.01228074567754
 20
26.79285958229353
 30
0.0
 10
13.00190868312946
 20
26.81270621751787
 30
0.0
 10
12.99497071979174
 20
26.8351700652041
 30
0.0
 10
12.99153567659478
 20
26.85847768302622
 30
0.0
 10
12.9921012645159
 20
26.87411148857426
 30
0.0
 10
12.99238408628587
 20
26.88192916004724
 30
0.0
  0
SPLINE
  5
2ED
330
1F
100
AcDbEntity
  8
0
  6
Continuous
 62
     7
370
    25
100
AcDbSpline
210
0.0
220
0.0
230
1.0
 70
     8
 71
     3
 72
    17
 73
    13
 74
     0
 42
0.00000001
 43
0.00000001
 40
0.0
 40
0.0
 40
0.0
 40
0.0
 40
0.0933840664154179
 40
0.1867527219486504
 40
0.2801073213077041
 40
0.3734813031238339
 40
0.4668051772383877
 40
0.5601064282633343
 40
0.6700176265976159
 40
0.7799870277550629
 40
0.889975097500341
 40
1.0
 40
1.0
 40
1.0
 40
1.0
 10
12.99238408628587
 20
26.88192916004724
 30
0.0
 10
12.99307806086471
 20
26.88853834138735
 30
0.0
 10
12.99446589549793
 20
26.90175561337493
 30
0.0
 10
12.99949416752269
 20
26.92109750433192
 30
0.0
 10
13.00672762679484
 20
26.93968874502611
 30
0.0
 10
13.01622109755672
 20
26.95725598487635
 30
0.0
 10
13.02826194529845
 20
26.97322352856914
 30
0.0
 10
13.04397505411841
 20
26.98748374199758
 30
0.0
 10
13.06352366145149
 20
26.99855038939316
 30
0.0
 10
13.08596135672323
 20
27.00574255904246
 30
0.0
 10
13.10930411207625
 20
27.00918251722841
 30
0.0
 10
13.12495806404103
 20
27.00860940180152
 30
0.0
 10
13.13278635035108
 20
27.00832279611495
 30
0.0
  0
SPLINE
  5
2EE
330
1F
100
AcDbEntity
  8
0
  6
Continuous
 62
     7
370
    25
100
AcDbSpline
210
0.0
220
0.0
230
1.0
 70
     8
 71
     3
 72
    15
 73
    11
 74
     0
 42
0.00000001
 43
0.00000001
 40
0.0
 40
0.0
 40
0.0
 40
0.0
 40
0.140059976214131
 40
0.2801251950685639
 40
0.4201267559175336
 40
0.5599505827410317
 40
0.6698410457092143
 40
0.7798536619988785
 40
0.8899236945829597
 40
1.0
 40
1.0
 40
1.0
 40
1.0
 10
13.13278635035108
 20
27.00832279611495
 30
0.0
 10
13.13949565064128
 20
27.00760825880973
 30
0.0
 10
13.15291450236015
 20
27.00617915745319
 30
0.0
 10
13.1724580757166
 20
27.00062388367349
 30
0.0
 10
13.19087046218037
 20
26.99210558104683
 30
0.0
 10
13.20616066809603
 20
26.98097221567117
 30
0.0
 10
13.21758907225017
 20
26.96778601675317
 30
0.0
 10
13.22512088326021
 20
26.95371227964955
 30
0.0
 10
13.23060931279929
 20
26.93874710645919
 30
0.0
 10
13.23273370487247
 20
26.92835919002678
 30
0.0
 10
13.23379593117519
 20
26.92316508381433
 30
0.0
  0
LINE
  5
2EF
330
1F
100
AcDbEntity
  8
0
  6
Continuous
 62
     7
370
    25
100
AcDbLine
 10
13.2337959312
 20
26.9231650838
 30
0.0
 11
13.2020921941
 21
26.91695073
 31
0.0
  0
SPLINE
  5
2F0
330
1F
100
AcDbEntity
  8
0
  6
Continuous
 62
     7
370
    25
100
AcDbSpline
210
0.0
220
0.0
230
1.0
 70
     8
 71
     3
 72
    14
 73
    10
 74
     0
 42
0.00000001
 43
0.00000001
 40
0.0
 40
0.0
 40
0.0
 40
0.0
 40
0.1400960195318736
 40
0.2801563729512099
 40
0.4199721297915629
 40
0.559877773339907
 40
0.706552594027964
 40
0.8532569335046697
 40
0.9999999999999999
 40
0.9999999999999999
 40
0.9999999999999999
 40
0.9999999999999999
 10
13.20209219412821
 20
26.916950730041
 30
0.0
 10
13.20095254309775
 20
26.92161695015058
 30
0.0
 10
13.19867353117301
 20
26.93094820242785
 30
0.0
 10
13.19327364088838
 20
26.94436156543514
 30
0.0
 10
13.18507029592376
 20
26.95639878728577
 30
0.0
 10
13.17352403984314
 20
26.96561482569702
 30
0.0
 10
13.16031922274081
 20
26.97252106994547
 30
0.0
 10
13.14585180560412
 20
26.97714065192939
 30
0.0
 10
13.13584289669866
 20
26.97826746620636
 30
0.0
 10
13.13083778179504
 20
26.97883094769915
 30
0.0
  0
SPLINE
  5
2F1
330
1F
100
AcDbEntity
  8
0
  6
Continuous
 62
     7
370
    25
100
AcDbSpline
210
0.0
220
0.0
230
1.0
 70
     8
 71
     3
 72
    13
 73
     9
 74
     0
 42
0.00000001
 43
0.00000001
 40
0.0
 40
0.0
 40
0.0
 40
0.0
 40
0.1867805925620133
 40
0.3733980885147169
 40
0.5599642218449541
 40
0.7065804288734411
 40
0.8532983912161354
 40
0.9999999999999999
 40
0.9999999999999999
 40
0.9999999999999999
 40
0.9999999999999999
 10
13.13083778179504
 20
26.97883094769915
 30
0.0
 10
13.12419181083506
 20
26.97910103578499
 30
0.0
 10
13.11090567216969
 20
26.97964097611606
 30
0.0
 10
13.09120551717555
 20
26.97588259902762
 30
0.0
 10
13.07396580533289
 20
26.96876323253343
 30
0.0
 10
13.06026269567574
 20
26.95842813372428
 30
0.0
 10
13.04966620027798
 20
26.94677287866568
 30
0.0
 10
13.04448081069942
 20
26.93770495553665
 30
0.0
 10
13.04188826041239
 20
26.93317124666969
 30
0.0
  0
SPLINE
  5
2F2
330
1F
100
AcDbEntity
  8
0
  6
Continuous
 62
     7
370
    25
100
AcDbSpline
210
0.0
220
0.0
230
1.0
 70
     8
 71
     3
 72
    10
 73
     6
 74
     0
 42
0.00000001
 43
0.00000001
 40
0.0
 40
0.0
 40
0.0
 40
0.0
 40
0.2800426270523637
 40
0.5601859953563131
 40
1.0
 40
1.0
 40
1.0
 40
1.0
 10
13.04188826041239
 20
26.93317124666969
 30
0.0
 10
13.03979896770041
 20
26.92859712535133
 30
0.0
 10
13.03561963068386
 20
26.91944723724117
 30
0.0
 10
13.03048683344807
 20
26.90216761779154
 30
0.0
 10
13.02899911763071
 20
26.88930985136326
 30
0.0
 10
13.028090288475
 20
26.88145518391199
 30
0.0
  0
SPLINE
  5
2F3
330
1F
100
AcDbEntity
  8
0
  6
Continuous
 62
     7
370
    25
100
AcDbSpline
210
0.0
220
0.0
230
1.0
 70
     8
 71
     3
 72
    16
 73
    12
 74
     0
 42
0.00000001
 43
0.00000001
 40
0.0
 40
0.0
 40
0.0
 40
0.0
 40
0.1120766855421918
 40
0.2241242661621037
 40
0.3361129184521301
 40
0.4480627843519566
 40
0.5599748512095784
 40
0.6698456684200098
 40
0.7798802042292076
 40
0.8899640771718905
 40
1.0
 40
1.0
 40
1.0
 40
1.0
 10
13.028090288475
 20
26.88145518391199
 30
0.0
 10
13.02780995643969
 20
26.87544348982001
 30
0.0
 10
13.02724936516783
 20
26.86342166279828
 30
0.0
 10
13.02880460355747
 20
26.84538083630676
 30
0.0
 10
13.03313590744892
 20
26.82779912121351
 30
0.0
 10
13.04057365149048
 20
26.81124122023235
 30
0.0
 10
13.05159426619593
 20
26.79689254663045
 30
0.0
 10
13.06565559914281
 20
26.78570930459887
 30
0.0
 10
13.08150975721967
 20
26.77767488776857
 30
0.0
 10
13.09839493794637
 20
26.77194191478887
 30
0.0
 10
13.11015862921711
 20
26.77058907341839
 30
0.0
 10
13.11603919357211
 20
26.76991280008223
 30
0.0
  0
SPLINE
  5
2F4
330
1F
100
AcDbEntity
  8
0
  6
Continuous
 62
     7
370
    25
100
AcDbSpline
210
0.0
220
0.0
230
1.0
 70
     8
 71
     3
 72
    12
 73
     8
 74
     0
 42
0.00000001
 43
0.00000001
 40
0.0
 40
0.0
 40
0.0
 40
0.0
 40
0.1867067016284937
 40
0.3734591366339935
 40
0.560180749263756
 40
0.7802115379575345
 40
1.0
 40
1.0
 40
1.0
 40
1.0
 10
13.11603919357211
 20
26.76991280008223
 30
0.0
 10
13.12116830330253
 20
26.76973517128088
 30
0.0
 10
13.13142777912701
 20
26.76937987016843
 30
0.0
 10
13.1467546715535
 20
26.77142322307988
 30
0.0
 10
13.16246379503743
 20
26.77577062067602
 30
0.0
 10
13.17872195966946
 20
26.78167182041622
 30
0.0
 10
13.18896737742068
 20
26.7881231611002
 30
0.0
 10
13.19408726384392
 20
26.79134705419871
 30
0.0
  0
LINE
  5
2F5
330
1F
100
AcDbEntity
  8
0
  6
Continuous
 62
     7
370
    25
100
AcDbLine
 10
13.1940872638
 20
26.7913470542
 30
0.0
 11
13.1976684169
 21
26.8399032761
 31
0.0
  0
LINE
  5
2F6
330
1F
100
AcDbEntity
  8
0
  6
Continuous
 62
     7
370
    25
100
AcDbLine
 10
13.1976684169
 20
26.8399032761
 30
0.0
 11
13.121094939
 21
26.8455383257
 31
0.0
  0
LINE
  5
2F7
330
1F
100
AcDbEntity
  8
0
  6
Continuous
 62
     7
370
    25
100
AcDbLine
 10
13.2740979496
 20
26.8025558876
 30
0.0
 11
13.2814182477
 21
26.8338383126
 31
0.0
  0
LINE
  5
2F8
330
1F
100
AcDbEntity
  8
0
  6
Continuous
 62
     7
370
    25
100
AcDbLine
 10
13.2814182477
 20
26.8338383126
 30
0.0
 11
13.377003435
 21
26.8114034422
 31
0.0
  0
LINE
  5
2F9
330
1F
100
AcDbEntity
  8
0
  6
Continuous
 62
     7
370
    25
100
AcDbLine
 10
13.377003435
 20
26.8114034422
 30
0.0
 11
13.3696831369
 21
26.7801210172
 31
0.0
  0
LINE
  5
2FA
330
1F
100
AcDbEntity
  8
0
  6
Continuous
 62
     7
370
    25
100
AcDbLine
 10
13.3696831369
 20
26.7801210172
 30
0.0
 11
13.2740979496
 21
26.8025558876
 31
0.0
  0
LINE
  5
2FB
330
1F
100
AcDbEntity
  8
0
  6
Continuous
 62
     7
370
    25
100
AcDbLine
 10
13.5450948521
 20
26.6643127556
 30
0.0
 11
13.534246065
 21
26.6355582034
 31
0.0
  0
LINE
  5
2FC
330
1F
100
AcDbEntity
  8
0
  6
Continuous
 62
     7
370
    25
100
AcDbLine
 10
13.534246065
 20
26.6355582034
 30
0.0
 11
13.3731995071
 21
26.6963851408
 31
0.0
  0
SPLINE
  5
2FD
330
1F
100
AcDbEntity
  8
0
  6
Continuous
 62
     7
370
    25
100
AcDbSpline
210
0.0
220
0.0
230
1.0
 70
     8
 71
     3
 72
     9
 73
     5
 74
     0
 42
0.00000001
 43
0.00000001
 40
0.0
 40
0.0
 40
0.0
 40
0.0
 40
0.5598812547033956
 40
1.0
 40
1.0
 40
1.0
 40
1.0
 10
13.37319950707003
 20
26.6963851407824
 30
0.0
 10
13.3747752472181
 20
26.70034293100852
 30
0.0
 10
13.37758966569494
 20
26.70741191249857
 30
0.0
 10
13.38240357748436
 20
26.71328567386158
 30
0.0
 10
13.3845222703011
 20
26.71587082634284
 30
0.0
  0
SPLINE
  5
2FE
330
1F
100
AcDbEntity
  8
0
  6
Continuous
 62
     7
370
    25
100
AcDbSpline
210
0.0
220
0.0
230
1.0
 70
     8
 71
     3
 72
    12
 73
     8
 74
     0
 42
0.00000001
 43
0.00000001
 40
0.0
 40
0.0
 40
0.0
 40
0.0
 40
0.1865732011011704
 40
0.3732227912366577
 40
0.5598860585353855
 40
0.7799352368368164
 40
1.0
 40
1.0
 40
1.0
 40
1.0
 10
13.3845222703011
 20
26.71587082634284
 30
0.0
 10
13.38880537935029
 20
26.7202524650923
 30
0.0
 10
13.39737335109047
 20
26.72901753657424
 30
0.0
 10
13.41283552504631
 20
26.73908447782805
 30
0.0
 10
13.43010071592008
 20
26.7480113486352
 30
0.0
 10
13.44909316235828
 20
26.75587145492463
 30
0.0
 10
13.46271222040249
 20
26.76059206643977
 30
0.0
 10
13.46952199055663
 20
26.76295245577806
 30
0.0
  0
SPLINE
  5
2FF
330
1F
100
AcDbEntity
  8
0
  6
Continuous
 62
     7
370
    25
100
AcDbSpline
210
0.0
220
0.0
230
1.0
 70
     8
 71
     3
 72
    13
 73
     9
 74
     0
 42
0.00000001
 43
0.00000001
 40
0.0
 40
0.0
 40
0.0
 40
0.0
 40
0.1865534519202973
 40
0.3729739757494678
 40
0.5595231515548357
 40
0.7062327363930179
 40
0.8530954369539656
 40
1.0
 40
1.0
 40
1.0
 40
1.0
 10
13.57032091532063
 20
26.82499066548129
 30
0.0
 10
13.57163025929973
 20
26.82947186465139
 30
0.0
 10
13.5742480142889
 20
26.83843106992683
 30
0.0
 10
13.57243323728454
 20
26.85255367481387
 30
0.0
 10
13.56708271998496
 20
26.86446447987663
 30
0.0
 10
13.55933146193702
 20
26.87364836213071
 30
0.0
 10
13.55048448035386
 20
26.88025135003832
 30
0.0
 10
13.5437669823938
 20
26.88311942476257
 30
0.0
 10
13.5404077547846
 20
26.8845536664782
 30
0.0
  0
LINE
  5
300
330
1F
100
AcDbEntity
  8
0
  6
Continuous
 62
     7
370
    25
100
AcDbLine
 10
13.4742090879
 20
26.8536925537
 30
0.0
 11
13.4446645755
 21
26.8684911419
 31
0.0
  0
SPLINE
  5
301
330
1F
100
AcDbEntity
  8
0
  6
Continuous
 62
     7
370
    25
100
AcDbSpline
210
0.0
220
0.0
230
1.0
 70
     8
 71
     3
 72
    15
 73
    11
 74
     0
 42
0.00000001
 43
0.00000001
 40
0.0
 40
0.0
 40
0.0
 40
0.0
 40
0.1400860308388203
 40
0.2801137698797261
 40
0.4200379469123597
 40
0.5599421174387956
 40
0.6699734772474328
 40
0.7799622867780291
 40
0.8899419339546316
 40
1.0
 40
1.0
 40
1.0
 40
1.0
 10
13.55036125362494
 20
26.90904243346632
 30
0.0
 10
13.55562350901026
 20
26.9068380543338
 30
0.0
 10
13.56614583008128
 20
26.90243021334241
 30
0.0
 10
13.58040259188467
 20
26.89277988785037
 30
0.0
 10
13.59227580266123
 20
26.88030223626749
 30
0.0
 10
13.60015048953816
 20
26.86636942987369
 30
0.0
 10
13.60468964743687
 20
26.85236615853627
 30
0.0
 10
13.60614785109977
 20
26.83894598665949
 30
0.0
 10
13.60502329565033
 20
26.82545054129396
 30
0.0
 10
13.6022170186062
 20
26.8169293833548
 30
0.0
 10
13.60081338002197
 20
26.81266728596469
 30
0.0
  0
SPLINE
  5
302
330
1F
100
AcDbEntity
  8
0
  6
Continuous
 62
     7
370
    25
100
AcDbSpline
210
0.0
220
0.0
230
1.0
 70
     8
 71
     3
 72
    13
 73
     9
 74
     0
 42
0.00000001
 43
0.00000001
 40
0.0
 40
0.0
 40
0.0
 40
0.0
 40
0.1398159585321994
 40
0.2796312337380495
 40
0.4196195231642398
 40
0.5596854053177902
 40
0.7798288815728731
 40
1.0
 40
1.0
 40
1.0
 40
1.0
 10
13.60081338002197
 20
26.81266728596469
 30
0.0
 10
13.59808878772194
 20
26.80684127943361
 30
0.0
 10
13.59263961643785
 20
26.79518929484506
 30
0.0
 10
13.57938357632324
 20
26.7809084620844
 30
0.0
 10
13.56374233293838
 20
26.76964915477478
 30
0.0
 10
13.54348403511549
 20
26.75888595795126
 30
0.0
 10
13.51887392734876
 20
26.74882678585306
 30
0.0
 10
13.49994655088391
 20
26.74191819904727
 30
0.0
 10
13.49048226853786
 20
26.73846368878994
 30
0.0
  0
SPLINE
  5
303
330
1F
100
AcDbEntity
  8
0
  6
Continuous
 62
     7
370
    25
100
AcDbSpline
210
0.0
220
0.0
230
1.0
 70
     8
 71
     3
 72
    10
 73
     6
 74
     0
 42
0.00000001
 43
0.00000001
 40
0.0
 40
0.0
 40
0.0
 40
0.0
 40
0.5600956985499315
 40
0.7801084077952728
 40
1.0
 40
1.0
 40
1.0
 40
1.0
 10
13.49048226853786
 20
26.73846368878994
 30
0.0
 10
13.4779147774005
 20
26.73406761966185
 30
0.0
 10
13.46041061601071
 20
26.72794471870591
 30
0.0
 10
13.43847509404059
 20
26.71849647179373
 30
0.0
 10
13.42989104489196
 20
26.71246214780231
 30
0.0
 10
13.4256002020231
 20
26.7094458165094
 30
0.0
  0
LINE
  5
304
330
1F
100
AcDbEntity
  8
0
  6
Continuous
 62
     7
370
    25
100
AcDbLine
 10
13.425600202
 20
26.7094458165
 30
0.0
 11
13.5450948521
 21
26.6643127556
 31
0.0
  0
SPLINE
  5
305
330
1F
100
AcDbEntity
  8
0
  6
Continuous
 62
     7
370
    25
100
AcDbSpline
210
0.0
220
0.0
230
1.0
 70
     8
 71
     3
 72
    13
 73
     9
 74
     0
 42
0.00000001
 43
0.00000001
 40
0.0
 40
0.0
 40
0.0
 40
0.0
 40
0.1868836622902021
 40
0.3737624011502041
 40
0.5605929096171809
 40
0.7073146850951676
 40
0.8538755308440398
 40
0.9999999999999999
 40
0.9999999999999999
 40
0.9999999999999999
 40
0.9999999999999999
 10
13.46952199055663
 20
26.76295245577806
 30
0.0
 10
13.47669067640117
 20
26.76541267882908
 30
0.0
 10
13.49102785923197
 20
26.77033306011679
 30
0.0
 10
13.51218663658214
 20
26.7786349737993
 30
0.0
 10
13.53147766985776
 20
26.78730646701872
 30
0.0
 10
13.54815721787255
 20
26.79733864459779
 30
0.0
 10
13.56196580333278
 20
26.80911060964732
 30
0.0
 10
13.5675386475857
 20
26.81970257753705
 30
0.0
 10
13.57032091532063
 20
26.82499066548129
 30
0.0
  0
SPLINE
  5
306
330
1F
100
AcDbEntity
  8
0
  6
Continuous
 62
     7
370
    25
100
AcDbSpline
210
0.0
220
0.0
230
1.0
 70
     8
 71
     3
 72
    13
 73
     9
 74
     0
 42
0.00000001
 43
0.00000001
 40
0.0
 40
0.0
 40
0.0
 40
0.0
 40
0.1867832570273301
 40
0.3732109238799891
 40
0.5595578485234273
 40
0.7062388401284734
 40
0.853086573385607
 40
1.0
 40
1.0
 40
1.0
 40
1.0
 10
13.5404077547846
 20
26.8845536664782
 30
0.0
 10
13.53549352067631
 20
26.88609764078556
 30
0.0
 10
13.52567440797365
 20
26.88918265004637
 30
0.0
 10
13.50997453203541
 20
26.88855601556725
 30
0.0
 10
13.49651302443684
 20
26.88310335774258
 30
0.0
 10
13.48619900596344
 20
26.87469205602729
 30
0.0
 10
13.47901872428856
 20
26.86480724486648
 30
0.0
 10
13.47581253902371
 20
26.85739800304239
 30
0.0
 10
13.47420908789414
 20
26.85369255367167
 30
0.0
  0
SPLINE
  5
307
330
1F
100
AcDbEntity
  8
0
  6
Continuous
 62
     7
370
    25
100
AcDbSpline
210
0.0
220
0.0
230
1.0
 70
     8
 71
     3
 72
    14
 73
    10
 74
     0
 42
0.00000001
 43
0.00000001
 40
0.0
 40
0.0
 40
0.0
 40
0.0
 40
0.1401117221514008
 40
0.2801485089901605
 40
0.4200499793788176
 40
0.5599469956033182
 40
0.7065089164668708
 40
0.8532096918560231
 40
0.9999999999999999
 40
0.9999999999999999
 40
0.9999999999999999
 40
0.9999999999999999
 10
13.44466457546332
 20
26.8684911418946
 30
0.0
 10
13.44743629781819
 20
26.87372029203494
 30
0.0
 10
13.45297826014032
 20
26.88417579563312
 30
0.0
 10
13.46456867319497
 20
26.89776873594982
 30
0.0
 10
13.47885879844685
 20
26.90850296934995
 30
0.0
 10
13.49582863056314
 20
26.91508272671638
 30
0.0
 10
13.51414776351961
 20
26.91709534263547
 30
0.0
 10
13.53274021483516
 20
26.91497428752208
 30
0.0
 10
13.54448637959513
 20
26.9110201202393
 30
0.0
 10
13.55036125362494
 20
26.90904243346632
 30
0.0
  0
LINE
  5
308
330
1F
100
AcDbEntity
  8
0
  6
Continuous
 62
     7
370
    25
100
AcDbLine
 10
12.3200806224
 20
24.2544427125
 30
0.0
 11
12.171410108
 21
24.0397315233
 31
0.0
  0
LINE
  5
309
330
1F
100
AcDbEntity
  8
0
  6
Continuous
 62
     7
370
    25
100
AcDbLine
 10
12.171410108
 20
24.0397315233
 30
0.0
 11
12.1422869077
 21
24.059901841
 31
0.0
  0
LINE
  5
30A
330
1F
100
AcDbEntity
  8
0
  6
Continuous
 62
     7
370
    25
100
AcDbLine
 10
12.1422869077
 20
24.059901841
 30
0.0
 11
12.1461840448
 21
24.3065800874
 31
0.0
  0
LINE
  5
30B
330
1F
100
AcDbEntity
  8
0
  6
Continuous
 62
     7
370
    25
100
AcDbLine
 10
12.1461840448
 20
24.3065800874
 30
0.0
 11
12.0294805875
 21
24.1380025753
 31
0.0
  0
LINE
  5
30C
330
1F
100
AcDbEntity
  8
0
  6
Continuous
 62
     7
370
    25
100
AcDbLine
 10
12.0294805875
 20
24.1380025753
 30
0.0
 11
12.0022532917
 21
24.1568562927
 31
0.0
  0
LINE
  5
30D
330
1F
100
AcDbEntity
  8
0
  6
Continuous
 62
     7
370
    25
100
AcDbLine
 10
12.0022532917
 20
24.1568562927
 30
0.0
 11
12.1509238062
 21
24.3715674819
 31
0.0
  0
LINE
  5
30E
330
1F
100
AcDbEntity
  8
0
  6
Continuous
 62
     7
370
    25
100
AcDbLine
 10
12.1509238062
 20
24.3715674819
 30
0.0
 11
12.1800470065
 21
24.3513971642
 31
0.0
  0
LINE
  5
30F
330
1F
100
AcDbEntity
  8
0
  6
Continuous
 62
     7
370
    25
100
AcDbLine
 10
12.1800470065
 20
24.3513971642
 30
0.0
 11
12.1760445413
 21
24.1045609257
 31
0.0
  0
LINE
  5
310
330
1F
100
AcDbEntity
  8
0
  6
Continuous
 62
     7
370
    25
100
AcDbLine
 10
12.1760445413
 20
24.1045609257
 30
0.0
 11
12.2928533267
 21
24.2732964299
 31
0.0
  0
LINE
  5
311
330
1F
100
AcDbEntity
  8
0
  6
Continuous
 62
     7
370
    25
100
AcDbLine
 10
12.2928533267
 20
24.2732964299
 30
0.0
 11
12.3200806224
 21
24.2544427125
 31
0.0
  0
LINE
  5
312
330
1F
100
AcDbEntity
  8
0
  6
Continuous
 62
     7
370
    25
100
AcDbLine
 10
11.9480459883
 20
24.423708539
 30
0.0
 11
11.925979766
 21
24.402484941
 31
0.0
  0
LINE
  5
313
330
1F
100
AcDbEntity
  8
0
  6
Continuous
 62
     7
370
    25
100
AcDbLine
 10
11.925979766
 20
24.402484941
 30
0.0
 11
11.8491429681
 21
24.4821129317
 31
0.0
  0
LINE
  5
314
330
1F
100
AcDbEntity
  8
0
  6
Continuous
 62
     7
370
    25
100
AcDbLine
 10
11.8491429681
 20
24.4821129317
 30
0.0
 11
11.918975452
 21
24.5493122149
 31
0.0
  0
SPLINE
  5
315
330
1F
100
AcDbEntity
  8
0
  6
Continuous
 62
     7
370
    25
100
AcDbSpline
210
0.0
220
0.0
230
1.0
 70
     8
 71
     3
 72
    13
 73
     9
 74
     0
 42
0.00000001
 43
0.00000001
 40
0.0
 40
0.0
 40
0.0
 40
0.0
 40
0.1866821945342527
 40
0.3733264501543778
 40
0.5599675452511559
 40
0.7066368630013534
 40
0.8533312013570787
 40
1.0
 40
1.0
 40
1.0
 40
1.0
 10
11.91897545203268
 20
24.54931221488058
 30
0.0
 10
11.92622316700505
 20
24.548161380074
 30
0.0
 10
11.94071712401641
 20
24.54585994434186
 30
0.0
 10
11.96182762192737
 20
24.53947942749365
 30
0.0
 10
11.98067491383269
 20
24.53148410617558
 30
0.0
 10
11.99697537446683
 20
24.52195386380773
 30
0.0
 10
12.01098403279955
 20
24.51174290038925
 30
0.0
 10
12.01923193682857
 20
24.50368076531032
 30
0.0
 10
12.0233555298186
 20
24.49965004870898
 30
0.0
  0
SPLINE
  5
316
330
1F
100
AcDbEntity
  8
0
  6
Continuous
 62
     7
370
    25
100
AcDbSpline
210
0.0
220
0.0
230
1.0
 70
     8
 71
     3
 72
    17
 73
    13
 74
     0
 42
0.00000001
 43
0.00000001
 40
0.0
 40
0.0
 40
0.0
 40
0.0
 40
0.0933735891199052
 40
0.1867510248852863
 40
0.280120970646441
 40
0.3734925846287435
 40
0.466805969201557
 40
0.5601062196851828
 40
0.6699956776642654
 40
0.7799664574160781
 40
0.8899691314079405
 40
1.0
 40
1.0
 40
1.0
 40
1.0
 10
12.01940572869148
 20
24.31074422680278
 30
0.0
 10
12.01447618334127
 20
24.30629409314162
 30
0.0
 10
12.00461688956185
 20
24.2973936424903
 30
0.0
 10
11.98800190877144
 20
24.28629591577332
 30
0.0
 10
11.97016407952295
 20
24.27737964319497
 30
0.0
 10
11.95138994589835
 20
24.27060175157975
 30
0.0
 10
11.93175749103801
 20
24.26683903425167
 30
0.0
 10
11.91055586690259
 20
24.26666521905056
 30
0.0
 10
11.88861732558739
 20
24.27145267485622
 30
0.0
 10
11.86710569692196
 20
24.28105290909694
 30
0.0
 10
11.84749374289812
 20
24.29415829272406
 30
0.0
 10
11.83623521839022
 20
24.30503957062567
 30
0.0
 10
11.83060523481534
 20
24.31048090672764
 30
0.0
  0
SPLINE
  5
317
330
1F
100
AcDbEntity
  8
0
  6
Continuous
 62
     7
370
    25
100
AcDbSpline
210
0.0
220
0.0
230
1.0
 70
     8
 71
     3
 72
    15
 73
    11
 74
     0
 42
0.00000001
 43
0.00000001
 40
0.0
 40
0.0
 40
0.0
 40
0.0
 40
0.1400349605088973
 40
0.2800698392311176
 40
0.4200630588617523
 40
0.5599418598988121
 40
0.6699051042921135
 40
0.7798984285958679
 40
0.8899433052470006
 40
1.0
 40
1.0
 40
1.0
 40
1.0
 10
11.83060523481534
 20
24.31048090672764
 30
0.0
 10
11.82608590749789
 20
24.31548227287213
 30
0.0
 10
11.81704725550247
 20
24.3254850022401
 30
0.0
 10
11.80624838297937
 20
24.34267389188632
 30
0.0
 10
11.79823759466151
 20
24.36128906909575
 30
0.0
 10
11.79426320723942
 20
24.37977787018818
 30
0.0
 10
11.79462713717331
 20
24.39721018259669
 30
0.0
 10
11.7983384015204
 20
24.41271932027085
 30
0.0
 10
11.80427303382709
 20
24.4275010141538
 30
0.0
 10
11.80964479619919
 20
24.43662883603373
 30
0.0
 10
11.81233082160055
 20
24.44119299202766
 30
0.0
  0
LINE
  5
318
330
1F
100
AcDbEntity
  8
0
  6
Continuous
 62
     7
370
    25
100
AcDbLine
 10
11.8123308216
 20
24.441192992
 30
0.0
 11
11.8400847575
 21
24.4247091553
 31
0.0
  0
SPLINE
  5
319
330
1F
100
AcDbEntity
  8
0
  6
Continuous
 62
     7
370
    25
100
AcDbSpline
210
0.0
220
0.0
230
1.0
 70
     8
 71
     3
 72
    14
 73
    10
 74
     0
 42
0.00000001
 43
0.00000001
 40
0.0
 40
0.0
 40
0.0
 40
0.0
 40
0.1401059889276326
 40
0.2801384653536113
 40
0.4199560041725052
 40
0.5598928790631145
 40
0.7065758371752002
 40
0.8532726032465533
 40
1.0
 40
1.0
 40
1.0
 40
1.0
 10
11.84008475752042
 20
24.42470915532383
 30
0.0
 10
11.83780357069427
 20
24.42047863873079
 30
0.0
 10
11.83324239396262
 20
24.41201982526323
 30
0.0
 10
11.82837164502917
 20
24.39840203069547
 30
0.0
 10
11.82636314329761
 20
24.38397990689514
 30
0.0
 10
11.82873215917723
 20
24.36937932881766
 30
0.0
 10
11.83403740950005
 20
24.35544871790541
 30
0.0
 10
11.84166671938966
 20
24.34231267308235
 30
0.0
 10
11.84840611785805
 20
24.33481950950148
 30
0.0
 10
11.85177616885668
 20
24.33107253660367
 30
0.0
  0
SPLINE
  5
31A
330
1F
100
AcDbEntity
  8
0
  6
Continuous
 62
     7
370
    25
100
AcDbSpline
210
0.0
220
0.0
230
1.0
 70
     8
 71
     3
 72
    13
 73
     9
 74
     0
 42
0.00000001
 43
0.00000001
 40
0.0
 40
0.0
 40
0.0
 40
0.0
 40
0.186734889944246
 40
0.3733518826619053
 40
0.5599570464694694
 40
0.7065717409471304
 40
0.8532916222588105
 40
1.0
 40
1.0
 40
1.0
 40
1.0
 10
11.85177616885668
 20
24.33107253660367
 30
0.0
 10
11.85655059448817
 20
24.32645385069957
 30
0.0
 10
11.86609643136247
 20
24.31721939495199
 30
0.0
 10
11.88317560270182
 20
24.3066930603517
 30
0.0
 10
11.90082193545731
 20
24.30070555055091
 30
0.0
 10
11.91789202351376
 20
24.29901857883658
 30
0.0
 10
11.93355258021573
 20
24.30077240490064
 30
0.0
 10
11.94346074717424
 20
24.30404983203638
 30
0.0
 10
11.94841463643345
 20
24.30568848136007
 30
0.0
  0
SPLINE
  5
31B
330
1F
100
AcDbEntity
  8
0
  6
Continuous
 62
     7
370
    25
100
AcDbSpline
210
0.0
220
0.0
230
1.0
 70
     8
 71
     3
 72
    10
 73
     6
 74
     0
 42
0.00000001
 43
0.00000001
 40
0.0
 40
0.0
 40
0.0
 40
0.0
 40
0.2800424641392435
 40
0.5602358102429557
 40
1.0
 40
1.0
 40
1.0
 40
1.0
 10
11.94841463643345
 20
24.30568848136007
 30
0.0
 10
11.95302328276927
 20
24.30768687959659
 30
0.0
 10
11.96224305849868
 20
24.31168475277151
 30
0.0
 10
11.97757243172818
 20
24.32113044661946
 30
0.0
 10
11.98726105065743
 20
24.32968917218674
 30
0.0
 10
11.99317904920743
 20
24.33491700970073
 30
0.0
  0
SPLINE
  5
31C
330
1F
100
AcDbEntity
  8
0
  6
Continuous
 62
     7
370
    25
100
AcDbSpline
210
0.0
220
0.0
230
1.0
 70
     8
 71
     3
 72
    16
 73
    12
 74
     0
 42
0.00000001
 43
0.00000001
 40
0.0
 40
0.0
 40
0.0
 40
0.0
 40
0.1120718030059923
 40
0.2241332724753066
 40
0.3361261150583245
 40
0.4480558504213279
 40
0.5599303711109342
 40
0.6698179754826685
 40
0.7798640464206036
 40
0.8899502984478861
 40
1.0
 40
1.0
 40
1.0
 40
1.0
 10
11.99317904920743
 20
24.33491700970073
 30
0.0
 10
11.9973999451394
 20
24.33920650651212
 30
0.0
 10
12.00584134781728
 20
24.34778510462351
 30
0.0
 10
12.01669862984211
 20
24.36226665059514
 30
0.0
 10
12.02533002008307
 20
24.37818779919694
 30
0.0
 10
12.03075027879074
 20
24.39550970174745
 30
0.0
 10
12.03218719479538
 20
24.41353110900543
 30
0.0
 10
12.02920132683446
 20
24.43125404995819
 30
0.0
 10
12.02270112471186
 20
24.44779802368069
 30
0.0
 10
12.01393471386665
 20
24.46332018579617
 30
0.0
 10
12.00610086824047
 20
24.47219780269425
 30
0.0
 10
12.00218459577726
 20
24.47663587414165
 30
0.0
  0
SPLINE
  5
31D
330
1F
100
AcDbEntity
  8
0
  6
Continuous
 62
     7
370
    25
100
AcDbSpline
210
0.0
220
0.0
230
1.0
 70
     8
 71
     3
 72
    11
 73
     7
 74
     0
 42
0.00000001
 43
0.00000001
 40
0.0
 40
0.0
 40
0.0
 40
0.0
 40
0.2799373277552427
 40
0.5599031950349027
 40
0.7800660290213147
 40
1.0
 40
1.0
 40
1.0
 40
1.0
 10
12.00218459577726
 20
24.47663587414165
 30
0.0
 10
11.9965391736882
 20
24.48189304505582
 30
0.0
 10
11.98524775396105
 20
24.49240792285111
 30
0.0
 10
11.96611409370629
 20
24.50235601094521
 30
0.0
 10
11.94773880848948
 20
24.50981446936762
 30
0.0
 10
11.93579369164728
 20
24.5118158716955
 30
0.0
 10
11.92982423912849
 20
24.51281605246603
 30
0.0
  0
LINE
  5
31E
330
1F
100
AcDbEntity
  8
0
  6
Continuous
 62
     7
370
    25
100
AcDbLine
 10
11.9298242391
 20
24.5128160525
 30
0.0
 11
11.8947500051
 21
24.4790584188
 31
0.0
  0
LINE
  5
31F
330
1F
100
AcDbEntity
  8
0
  6
Continuous
 62
     7
370
    25
100
AcDbLine
 10
11.8947500051
 20
24.4790584188
 30
0.0
 11
11.9480459883
 21
24.423708539
 31
0.0
  0
SPLINE
  5
320
330
1F
100
AcDbEntity
  8
0
  6
Continuous
 62
     7
370
    25
100
AcDbSpline
210
0.0
220
0.0
230
1.0
 70
     8
 71
     3
 72
    16
 73
    12
 74
     0
 42
0.00000001
 43
0.00000001
 40
0.0
 40
0.0
 40
0.0
 40
0.0
 40
0.1120376071779548
 40
0.224048213589652
 40
0.3360614008568724
 40
0.4480182721461243
 40
0.5599381337898566
 40
0.6698831462841125
 40
0.7798977818577031
 40
0.889933547888615
 40
0.9999999999999999
 40
0.9999999999999999
 40
0.9999999999999999
 40
0.9999999999999999
 10
12.0233555298186
 20
24.49965004870898
 30
0.0
 10
12.02864016391305
 20
24.49369487565984
 30
0.0
 10
12.03920815851914
 20
24.4817859647425
 30
0.0
 10
12.05154485986736
 20
24.46121065101553
 30
0.0
 10
12.06036340729047
 20
24.43896152154714
 30
0.0
 10
12.06510599548535
 20
24.41543857231638
 30
0.0
 10
12.06449161988005
 20
24.39154308901522
 30
0.0
 10
12.05858167257993
 20
24.36857674212883
 30
0.0
 10
12.04873412774689
 20
24.34723978865699
 30
0.0
 10
12.03573817981309
 20
24.3275920932998
 30
0.0
 10
12.02485038504805
 20
24.31636070425217
 30
0.0
 10
12.01940572869148
 20
24.31074422680278
 30
0.0
  0
LINE
  5
321
330
1F
100
AcDbEntity
  8
0
  6
Continuous
 62
     7
370
    25
100
AcDbLine
 10
12.4032593331
 20
24.2089640133
 30
0.0
 11
12.2847652993
 21
23.9773476752
 31
0.0
  0
LINE
  5
322
330
1F
100
AcDbEntity
  8
0
  6
Continuous
 62
     7
370
    25
100
AcDbLine
 10
12.2847652993
 20
23.9773476752
 30
0.0
 11
12.2541148426
 21
23.9930415517
 31
0.0
  0
LINE
  5
323
330
1F
100
AcDbEntity
  8
0
  6
Continuous
 62
     7
370
    25
100
AcDbLine
 10
12.2541148426
 20
23.9930415517
 30
0.0
 11
12.3726088764
 21
24.2246578898
 31
0.0
  0
LINE
  5
324
330
1F
100
AcDbEntity
  8
0
  6
Continuous
 62
     7
370
    25
100
AcDbLine
 10
12.3726088764
 20
24.2246578898
 30
0.0
 11
12.4032593331
 21
24.2089640133
 31
0.0
  0
LINE
  5
325
330
1F
100
AcDbEntity
  8
0
  6
Continuous
 62
     7
370
    25
100
AcDbLine
 10
12.5544730778
 20
24.1517491771
 30
0.0
 11
12.4749504151
 21
23.9368273318
 31
0.0
  0
LINE
  5
326
330
1F
100
AcDbEntity
  8
0
  6
Continuous
 62
     7
370
    25
100
AcDbLine
 10
12.4749504151
 20
23.9368273318
 30
0.0
 11
12.555210374
 21
23.9071248273
 31
0.0
  0
LINE
  5
327
330
1F
100
AcDbEntity
  8
0
  6
Continuous
 62
     7
370
    25
100
AcDbLine
 10
12.555210374
 20
23.9071248273
 30
0.0
 11
12.544572243
 21
23.8783702751
 31
0.0
  0
LINE
  5
328
330
1F
100
AcDbEntity
  8
0
  6
Continuous
 62
     7
370
    25
100
AcDbLine
 10
12.544572243
 20
23.8783702751
 30
0.0
 11
12.3514532999
 21
23.9498353435
 31
0.0
  0
LINE
  5
329
330
1F
100
AcDbEntity
  8
0
  6
Continuous
 62
     7
370
    25
100
AcDbLine
 10
12.3514532999
 20
23.9498353435
 30
0.0
 11
12.3620914309
 21
23.9785898957
 31
0.0
  0
LINE
  5
32A
330
1F
100
AcDbEntity
  8
0
  6
Continuous
 62
     7
370
    25
100
AcDbLine
 10
12.3620914309
 20
23.9785898957
 30
0.0
 11
12.4427200379
 21
23.9487293992
 31
0.0
  0
LINE
  5
32B
330
1F
100
AcDbEntity
  8
0
  6
Continuous
 62
     7
370
    25
100
AcDbLine
 10
12.4427200379
 20
23.9487293992
 30
0.0
 11
12.5222427006
 21
24.1636512445
 31
0.0
  0
LINE
  5
32C
330
1F
100
AcDbEntity
  8
0
  6
Continuous
 62
     7
370
    25
100
AcDbLine
 10
12.5222427006
 20
24.1636512445
 30
0.0
 11
12.5544730778
 21
24.1517491771
 31
0.0
  0
LINE
  5
32D
330
1F
100
AcDbEntity
  8
0
  6
Continuous
 62
     7
370
    25
100
AcDbLine
 10
12.8273241725
 20
23.8265401647
 30
0.0
 11
12.7934612108
 21
23.8325965265
 31
0.0
  0
LINE
  5
32E
330
1F
100
AcDbEntity
  8
0
  6
Continuous
 62
     7
370
    25
100
AcDbLine
 10
12.7934612108
 20
23.8325965265
 30
0.0
 11
12.8123675922
 21
23.9376085724
 31
0.0
  0
LINE
  5
32F
330
1F
100
AcDbEntity
  8
0
  6
Continuous
 62
     7
370
    25
100
AcDbLine
 10
12.8123675922
 20
23.9376085724
 30
0.0
 11
12.6794436183
 21
23.9615706993
 31
0.0
  0
LINE
  5
330
330
1F
100
AcDbEntity
  8
0
  6
Continuous
 62
     7
370
    25
100
AcDbLine
 10
12.6794436183
 20
23.9615706993
 30
0.0
 11
12.6605372369
 21
23.8565586533
 31
0.0
  0
LINE
  5
331
330
1F
100
AcDbEntity
  8
0
  6
Continuous
 62
     7
370
    25
100
AcDbLine
 10
12.6605372369
 20
23.8565586533
 30
0.0
 11
12.6266742752
 21
23.862667679
 31
0.0
  0
LINE
  5
332
330
1F
100
AcDbEntity
  8
0
  6
Continuous
 62
     7
370
    25
100
AcDbLine
 10
12.6266742752
 20
23.862667679
 30
0.0
 11
12.6727026244
 21
24.118404136
 31
0.0
  0
LINE
  5
333
330
1F
100
AcDbEntity
  8
0
  6
Continuous
 62
     7
370
    25
100
AcDbLine
 10
12.6848680118
 20
23.9917471799
 30
0.0
 11
12.8177919858
 21
23.967785053
 31
0.0
  0
LINE
  5
334
330
1F
100
AcDbEntity
  8
0
  6
Continuous
 62
     7
370
    25
100
AcDbLine
 10
12.706565586
 20
24.1122951103
 30
0.0
 11
12.6848680118
 21
23.9917471799
 31
0.0
  0
LINE
  5
335
330
1F
100
AcDbEntity
  8
0
  6
Continuous
 62
     7
370
    25
100
AcDbLine
 10
12.8177919858
 20
23.967785053
 30
0.0
 11
12.83948956
 21
24.0883329834
 31
0.0
  0
LINE
  5
336
330
1F
100
AcDbEntity
  8
0
  6
Continuous
 62
     7
370
    25
100
AcDbLine
 10
12.83948956
 20
24.0883329834
 30
0.0
 11
12.8733525216
 21
24.0822766217
 31
0.0
  0
LINE
  5
337
330
1F
100
AcDbEntity
  8
0
  6
Continuous
 62
     7
370
    25
100
AcDbLine
 10
12.8733525216
 20
24.0822766217
 30
0.0
 11
12.8273241725
 21
23.8265401647
 31
0.0
  0
LINE
  5
338
330
1F
100
AcDbEntity
  8
0
  6
Continuous
 62
     7
370
    25
100
AcDbLine
 10
12.6727026244
 20
24.118404136
 30
0.0
 11
12.706565586
 21
24.1122951103
 31
0.0
  0
LINE
  5
339
330
1F
100
AcDbEntity
  8
0
  6
Continuous
 62
     7
370
    25
100
AcDbLine
 10
13.0398974297
 20
23.978717006
 30
0.0
 11
13.0415826782
 21
23.9481718773
 31
0.0
  0
LINE
  5
33A
330
1F
100
AcDbEntity
  8
0
  6
Continuous
 62
     7
370
    25
100
AcDbLine
 10
13.0415826782
 20
23.9481718773
 30
0.0
 11
12.9312515667
 21
23.9417468675
 31
0.0
  0
LINE
  5
33B
330
1F
100
AcDbEntity
  8
0
  6
Continuous
 62
     7
370
    25
100
AcDbLine
 10
12.9312515667
 20
23.9417468675
 30
0.0
 11
12.9258798371
 21
24.038437999
 31
0.0
  0
SPLINE
  5
33C
330
1F
100
AcDbEntity
  8
0
  6
Continuous
 62
     7
370
    25
100
AcDbSpline
210
0.0
220
0.0
230
1.0
 70
     8
 71
     3
 72
    13
 73
     9
 74
     0
 42
0.00000001
 43
0.00000001
 40
0.0
 40
0.0
 40
0.0
 40
0.0
 40
0.1866785002378709
 40
0.3733312686094026
 40
0.5599643569557284
 40
0.706642412209585
 40
0.8533285667018302
 40
1.0
 40
1.0
 40
1.0
 40
1.0
 10
12.92587983713573
 20
24.03843799904238
 30
0.0
 10
12.93146458684972
 20
24.04318429334904
 30
0.0
 10
12.94263331647275
 20
24.05267622773054
 30
0.0
 10
12.96116141470703
 20
24.06459535227402
 30
0.0
 10
12.9795234081967
 20
24.07360128919802
 30
0.0
 10
12.99734547201572
 20
24.07976170837543
 30
0.0
 10
13.01420012845106
 20
24.08373869629654
 30
0.0
 10
13.02567925033263
 20
24.08471534469377
 30
0.0
 10
13.03141852325227
 20
24.08520364438743
 30
0.0
  0
SPLINE
  5
33D
330
1F
100
AcDbEntity
  8
0
  6
Continuous
 62
     7
370
    25
100
AcDbSpline
210
0.0
220
0.0
230
1.0
 70
     8
 71
     3
 72
    16
 73
    12
 74
     0
 42
0.00000001
 43
0.00000001
 40
0.0
 40
0.0
 40
0.0
 40
0.0
 40
0.1120481115386981
 40
0.2240742770846022
 40
0.3360663384872566
 40
0.4480124698346722
 40
0.5599377537111824
 40
0.6698885251485664
 40
0.7799084156750695
 40
0.8899421643054444
 40
1.0
 40
1.0
 40
1.0
 40
1.0
 10
13.03141852325227
 20
24.08520364438743
 30
0.0
 10
13.03937627907199
 20
24.08535955545816
 30
0.0
 10
13.05529023208764
 20
24.08567134706252
 30
0.0
 10
13.07889343220181
 20
24.08147611813067
 30
0.0
 10
13.10152571765509
 20
24.07376142493644
 30
0.0
 10
13.12240623199081
 20
24.06196485375627
 30
0.0
 10
13.14012097255188
 20
24.04595143910795
 30
0.0
 10
13.15368935701072
 20
24.02652322625654
 30
0.0
 10
13.16349959739352
 20
24.00518403205826
 30
0.0
 10
13.16986768273754
 20
23.98252197671608
 30
0.0
 10
13.17131013720964
 20
23.96696033088316
 30
0.0
 10
13.17203144337759
 20
23.95917865642492
 30
0.0
  0
SPLINE
  5
33E
330
1F
100
AcDbEntity
  8
0
  6
Continuous
 62
     7
370
    25
100
AcDbSpline
210
0.0
220
0.0
230
1.0
 70
     8
 71
     3
 72
    17
 73
    13
 74
     0
 42
0.00000001
 43
0.00000001
 40
0.0
 40
0.0
 40
0.0
 40
0.0
 40
0.0933802551070099
 40
0.186746812497759
 40
0.2801165478079299
 40
0.373480527600463
 40
0.4667951836484901
 40
0.5600991229223413
 40
0.6699998781402001
 40
0.7799715221079939
 40
0.8899686501093823
 40
1.0
 40
1.0
 40
1.0
 40
1.0
 10
13.17203144337759
 20
23.95917865642492
 30
0.0
 10
13.1721971624575
 20
23.95254039531498
 30
0.0
 10
13.17252857630838
 20
23.93926484684503
 30
0.0
 10
13.16998178855854
 20
23.9194598894317
 30
0.0
 10
13.16527090370336
 20
23.90009554049193
 30
0.0
 10
13.15814011411152
 20
23.88145468979256
 30
0.0
 10
13.14819641344133
 20
23.86412694027969
 30
0.0
 10
13.13450828000792
 20
23.84794320876427
 30
0.0
 10
13.11655656318737
 20
23.83446000590686
 30
0.0
 10
13.09523970801741
 20
23.82447180758153
 30
0.0
 10
13.07255121253835
 20
23.81805782689024
 30
0.0
 10
13.05696207660371
 20
23.81664103944836
 30
0.0
 10
13.04916629631677
 20
23.81593253554819
 30
0.0
  0
SPLINE
  5
33F
330
1F
100
AcDbEntity
  8
0
  6
Continuous
 62
     7
370
    25
100
AcDbSpline
210
0.0
220
0.0
230
1.0
 70
     8
 71
     3
 72
    15
 73
    11
 74
     0
 42
0.00000001
 43
0.00000001
 40
0.0
 40
0.0
 40
0.0
 40
0.0
 40
0.1400351615570123
 40
0.2800733091851119
 40
0.4200483074464261
 40
0.5599389749112683
 40
0.6698997530776503
 40
0.7799016812099762
 40
0.8899383032575228
 40
1.0
 40
1.0
 40
1.0
 40
1.0
 10
13.04916629631677
 20
23.81593253554819
 30
0.0
 10
13.04243084118968
 20
23.81577014684496
 30
0.0
 10
13.02895978731052
 20
23.81544536597578
 30
0.0
 10
13.00890278670426
 20
23.81849218692608
 30
0.0
 10
12.98957114046006
 20
23.82453059293201
 30
0.0
 10
12.97296212243486
 20
23.83355315158941
 30
0.0
 10
12.95998822878563
 20
23.84519453127551
 30
0.0
 10
12.95070126524573
 20
23.85814959932817
 30
0.0
 10
12.94338536645624
 20
23.87228421069787
 30
0.0
 10
12.93993073111005
 20
23.88228920756723
 30
0.0
 10
12.93820321665233
 20
23.88729227591141
 30
0.0
  0
LINE
  5
340
330
1F
100
AcDbEntity
  8
0
  6
Continuous
 62
     7
370
    25
100
AcDbLine
 10
12.9382032167
 20
23.8872922759
 30
0.0
 11
12.9688010094
 21
23.8975617588
 31
0.0
  0
SPLINE
  5
341
330
1F
100
AcDbEntity
  8
0
  6
Continuous
 62
     7
370
    25
100
AcDbSpline
210
0.0
220
0.0
230
1.0
 70
     8
 71
     3
 72
    14
 73
    10
 74
     0
 42
0.00000001
 43
0.00000001
 40
0.0
 40
0.0
 40
0.0
 40
0.0
 40
0.1400993363592715
 40
0.2801386713478523
 40
0.4199331265974364
 40
0.559897330784357
 40
0.7065762714929944
 40
0.8532665486958877
 40
1.0
 40
1.0
 40
1.0
 40
1.0
 10
12.96880100938372
 20
23.89756175884191
 30
0.0
 10
12.9705117695455
 20
23.89307500267725
 30
0.0
 10
12.97393255718923
 20
23.88410341192391
 30
0.0
 10
12.98110276076459
 20
23.87156279639435
 30
0.0
 10
12.99068674157916
 20
23.86062074259205
 30
0.0
 10
13.00329099490089
 20
23.85290576456963
 30
0.0
 10
13.01729527480252
 20
23.8478309211898
 30
0.0
 10
13.03222742126004
 20
23.84513568775797
 30
0.0
 10
13.04229068404742
 20
23.84532814245611
 30
0.0
 10
13.04732305579079
 20
23.84542438396398
 30
0.0
  0
SPLINE
  5
342
330
1F
100
AcDbEntity
  8
0
  6
Continuous
 62
     7
370
    25
100
AcDbSpline
210
0.0
220
0.0
230
1.0
 70
     8
 71
     3
 72
    13
 73
     9
 74
     0
 42
0.00000001
 43
0.00000001
 40
0.0
 40
0.0
 40
0.0
 40
0.0
 40
0.18679558267084
 40
0.3734134524219256
 40
0.5599528227925997
 40
0.7065689118606588
 40
0.8532914251951226
 40
1.0
 40
1.0
 40
1.0
 40
1.0
 10
13.04732305579079
 20
23.84542438396398
 30
0.0
 10
13.05394123447532
 20
23.84602035512608
 30
0.0
 10
13.067171295465
 20
23.84721173045734
 30
0.0
 10
13.08627090836647
 20
23.85333142159834
 30
0.0
 10
13.10234771611198
 20
23.86274039868315
 30
0.0
 10
13.11473982163967
 20
23.87460328681986
 30
0.0
 10
13.12358435716657
 20
23.88763718511862
 30
0.0
 10
13.12758434723445
 20
23.89727312370418
 30
0.0
 10
13.12958424726486
 20
23.90209086413434
 30
0.0
  0
SPLINE
  5
343
330
1F
100
AcDbEntity
  8
0
  6
Continuous
 62
     7
370
    25
100
AcDbSpline
210
0.0
220
0.0
230
1.0
 70
     8
 71
     3
 72
    10
 73
     6
 74
     0
 42
0.00000001
 43
0.00000001
 40
0.0
 40
0.0
 40
0.0
 40
0.0
 40
0.2800466189712598
 40
0.5601843902098783
 40
1.0
 40
1.0
 40
1.0
 40
1.0
 10
13.12958424726486
 20
23.90209086413434
 30
0.0
 10
13.1310545313305
 20
23.90689094031971
 30
0.0
 10
13.13399557802398
 20
23.9164926550654
 30
0.0
 10
13.13688934741257
 20
23.93425418563444
 30
0.0
 10
13.13670262746521
 20
23.94717661893944
 30
0.0
 10
13.13658856126361
 20
23.95507086325272
 30
0.0
  0
SPLINE
  5
344
330
1F
100
AcDbEntity
  8
0
  6
Continuous
 62
     7
370
    25
100
AcDbSpline
210
0.0
220
0.0
230
1.0
 70
     8
 71
     3
 72
    16
 73
    12
 74
     0
 42
0.00000001
 43
0.00000001
 40
0.0
 40
0.0
 40
0.0
 40
0.0
 40
0.1120825882493967
 40
0.2241233350404007
 40
0.3361184453280454
 40
0.4480454294760424
 40
0.5599234605399447
 40
0.6698326863884709
 40
0.7798744581936086
 40
0.889957535311212
 40
1.0
 40
1.0
 40
1.0
 40
1.0
 10
13.13658856126361
 20
23.95507086325272
 30
0.0
 10
13.13610300917568
 20
23.96106337140931
 30
0.0
 10
13.13513208626087
 20
23.97304615066423
 30
0.0
 10
13.13117188693011
 20
23.99068429912069
 30
0.0
 10
13.12474222993906
 20
24.00759336801594
 30
0.0
 10
13.11509240751363
 20
24.02293248813864
 30
0.0
 10
13.10244929234229
 20
24.03582913797876
 30
0.0
 10
13.08703009542003
 20
24.04503470633852
 30
0.0
 10
13.07029590374395
 20
24.05093500459745
 30
0.0
 10
13.05284184444813
 20
24.05447929728607
 30
0.0
 10
13.04101655711017
 20
24.05431789153631
 30
0.0
 10
13.03510500430424
 20
24.05423720355084
 30
0.0
  0
SPLINE
  5
345
330
1F
100
AcDbEntity
  8
0
  6
Continuous
 62
     7
370
    25
100
AcDbSpline
210
0.0
220
0.0
230
1.0
 70
     8
 71
     3
 72
    11
 73
     7
 74
     0
 42
0.00000001
 43
0.00000001
 40
0.0
 40
0.0
 40
0.0
 40
0.0
 40
0.2799357428865325
 40
0.5599333474557613
 40
0.7800949405810235
 40
1.0
 40
1.0
 40
1.0
 40
1.0
 10
13.03510500430424
 20
24.05423720355084
 30
0.0
 10
13.02744952936147
 20
24.05337201629334
 30
0.0
 10
13.01213688772854
 20
24.05164145058469
 30
0.0
 10
12.99216619238496
 20
24.04357585247896
 30
0.0
 10
12.97455860563295
 20
24.03451781921309
 30
0.0
 10
12.96524134009277
 20
24.02680762728668
 30
0.0
 10
12.96058542303932
 20
24.02295477862409
 30
0.0
  0
LINE
  5
346
330
1F
100
AcDbEntity
  8
0
  6
Continuous
 62
     7
370
    25
100
AcDbLine
 10
12.960585423
 20
24.0229547786
 30
0.0
 11
12.9633239518
 21
23.9743985568
 31
0.0
  0
LINE
  5
347
330
1F
100
AcDbEntity
  8
0
  6
Continuous
 62
     7
370
    25
100
AcDbLine
 10
12.9633239518
 20
23.9743985568
 30
0.0
 11
13.0398974297
 21
23.978717006
 31
0.0
  0
LINE
  5
348
330
1F
100
AcDbEntity
  8
0
  6
Continuous
 62
     7
370
    25
100
AcDbLine
 10
13.2503289427
 20
24.1014523088
 30
0.0
 11
13.3014130373
 21
23.8457158519
 31
0.0
  0
LINE
  5
349
330
1F
100
AcDbEntity
  8
0
  6
Continuous
 62
     7
370
    25
100
AcDbLine
 10
13.3014130373
 20
23.8457158519
 30
0.0
 11
13.2676027396
 21
23.8389221939
 31
0.0
  0
LINE
  5
34A
330
1F
100
AcDbEntity
  8
0
  6
Continuous
 62
     7
370
    25
100
AcDbLine
 10
13.2676027396
 20
23.8389221939
 30
0.0
 11
13.216518645
 21
24.0946586509
 31
0.0
  0
LINE
  5
34B
330
1F
100
AcDbEntity
  8
0
  6
Continuous
 62
     7
370
    25
100
AcDbLine
 10
13.216518645
 20
24.0946586509
 30
0.0
 11
13.2503289427
 21
24.1014523088
 31
0.0
  0
LINE
  5
34C
330
1F
100
AcDbEntity
  8
0
  6
Continuous
 62
     7
370
    25
100
AcDbLine
 10
13.4510059368
 20
24.160233005
 30
0.0
 11
13.5244195738
 21
23.9092889733
 31
0.0
  0
LINE
  5
34D
330
1F
100
AcDbEntity
  8
0
  6
Continuous
 62
     7
370
    25
100
AcDbLine
 10
13.5244195738
 20
23.9092889733
 30
0.0
 11
13.4912412443
 21
23.8995987946
 31
0.0
  0
LINE
  5
34E
330
1F
100
AcDbEntity
  8
0
  6
Continuous
 62
     7
370
    25
100
AcDbLine
 10
13.2942251641
 20
24.1143626479
 30
0.0
 11
13.4510059368
 21
24.160233005
 31
0.0
  0
LINE
  5
34F
330
1F
100
AcDbEntity
  8
0
  6
Continuous
 62
     7
370
    25
100
AcDbLine
 10
13.4264645058
 20
24.1209456497
 30
0.0
 11
13.3028620625
 21
24.0847654714
 31
0.0
  0
LINE
  5
350
330
1F
100
AcDbEntity
  8
0
  6
Continuous
 62
     7
370
    25
100
AcDbLine
 10
13.4912412443
 20
23.8995987946
 30
0.0
 11
13.4264645058
 21
24.1209456497
 31
0.0
  0
LINE
  5
351
330
1F
100
AcDbEntity
  8
0
  6
Continuous
 62
     7
370
    25
100
AcDbLine
 10
13.3028620625
 20
24.0847654714
 30
0.0
 11
13.2942251641
 21
24.1143626479
 31
0.0
  0
LINE
  5
352
330
1F
100
AcDbEntity
  8
0
  6
Continuous
 62
     7
370
    25
100
AcDbLine
 10
13.7543019854
 20
24.3195154854
 30
0.0
 11
13.8882265756
 21
24.097536662
 31
0.0
  0
LINE
  5
353
330
1F
100
AcDbEntity
  8
0
  6
Continuous
 62
     7
370
    25
100
AcDbLine
 10
13.8882265756
 20
24.097536662
 30
0.0
 11
13.8588400552
 21
24.079788889
 31
0.0
  0
LINE
  5
354
330
1F
100
AcDbEntity
  8
0
  6
Continuous
 62
     7
370
    25
100
AcDbLine
 10
13.8588400552
 20
24.079788889
 30
0.0
 11
13.7924307323
 21
24.1898566804
 31
0.0
  0
LINE
  5
355
330
1F
100
AcDbEntity
  8
0
  6
Continuous
 62
     7
370
    25
100
AcDbLine
 10
13.7924307323
 20
24.1898566804
 30
0.0
 11
13.7486142717
 21
24.013326902
 31
0.0
  0
LINE
  5
356
330
1F
100
AcDbEntity
  8
0
  6
Continuous
 62
     7
370
    25
100
AcDbLine
 10
13.7486142717
 20
24.013326902
 30
0.0
 11
13.7088002764
 21
23.9893121112
 31
0.0
  0
LINE
  5
357
330
1F
100
AcDbEntity
  8
0
  6
Continuous
 62
     7
370
    25
100
AcDbLine
 10
13.7088002764
 20
23.9893121112
 30
0.0
 11
13.7476136555
 21
24.1354020889
 31
0.0
  0
LINE
  5
358
330
1F
100
AcDbEntity
  8
0
  6
Continuous
 62
     7
370
    25
100
AcDbLine
 10
13.7476136555
 20
24.1354020889
 30
0.0
 11
13.570767893
 21
24.2088157258
 31
0.0
  0
LINE
  5
359
330
1F
100
AcDbEntity
  8
0
  6
Continuous
 62
     7
370
    25
100
AcDbLine
 10
13.570767893
 20
24.2088157258
 30
0.0
 11
13.6095286081
 21
24.2321985485
 31
0.0
  0
LINE
  5
35A
330
1F
100
AcDbEntity
  8
0
  6
Continuous
 62
     7
370
    25
100
AcDbLine
 10
13.6095286081
 20
24.2321985485
 30
0.0
 11
13.756355882
 21
24.167527138
 31
0.0
  0
LINE
  5
35B
330
1F
100
AcDbEntity
  8
0
  6
Continuous
 62
     7
370
    25
100
AcDbLine
 10
13.756355882
 20
24.167527138
 30
0.0
 11
13.7713124622
 21
24.2248255864
 31
0.0
  0
LINE
  5
35C
330
1F
100
AcDbEntity
  8
0
  6
Continuous
 62
     7
370
    25
100
AcDbLine
 10
13.7713124622
 20
24.2248255864
 30
0.0
 11
13.724915465
 21
24.3017677123
 31
0.0
  0
LINE
  5
35D
330
1F
100
AcDbEntity
  8
0
  6
Continuous
 62
     7
370
    25
100
AcDbLine
 10
13.724915465
 20
24.3017677123
 30
0.0
 11
13.7543019854
 21
24.3195154854
 31
0.0
  0
LINE
  5
35E
330
1F
100
AcDbEntity
  8
0
  6
Continuous
 62
     7
370
    25
100
AcDbLine
 10
13.9112010145
 20
24.341126272
 30
0.0
 11
13.9312133402
 21
24.3161108648
 31
0.0
  0
LINE
  5
35F
330
1F
100
AcDbEntity
  8
0
  6
Continuous
 62
     7
370
    25
100
AcDbLine
 10
13.9312133402
 20
24.3161108648
 30
0.0
 11
13.8547978544
 21
24.2549152794
 31
0.0
  0
LINE
  5
360
330
1F
100
AcDbEntity
  8
0
  6
Continuous
 62
     7
370
    25
100
AcDbLine
 10
13.8547978544
 20
24.2549152794
 30
0.0
 11
13.8347855287
 21
24.2799306865
 31
0.0
  0
LINE
  5
361
330
1F
100
AcDbEntity
  8
0
  6
Continuous
 62
     7
370
    25
100
AcDbLine
 10
13.8347855287
 20
24.2799306865
 30
0.0
 11
13.9112010145
 21
24.341126272
 31
0.0
  0
SPLINE
  5
362
330
1F
100
AcDbEntity
  8
0
  6
Continuous
 62
     7
370
    25
100
AcDbSpline
210
0.0
220
0.0
230
1.0
 70
     8
 71
     3
 72
    13
 73
     9
 74
     0
 42
0.00000001
 43
0.00000001
 40
0.0
 40
0.0
 40
0.0
 40
0.0
 40
0.186822512376324
 40
0.3733551308544632
 40
0.5596552637789143
 40
0.7063904567618705
 40
0.8531505860839322
 40
1.0
 40
1.0
 40
1.0
 40
1.0
 10
13.95802529178646
 20
24.45514807776538
 30
0.0
 10
13.95597091719655
 20
24.45175291131773
 30
0.0
 10
13.95186535580524
 20
24.44496784672774
 30
0.0
 10
13.94834608670482
 20
24.43342145400362
 30
0.0
 10
13.9488728028872
 20
24.42221097111872
 30
0.0
 10
13.95194571023436
 20
24.41245166248261
 30
0.0
 10
13.95657168313087
 20
24.4042204749312
 30
0.0
 10
13.96091081269682
 20
24.39972793456668
 30
0.0
 10
13.96308103722917
 20
24.39748098130949
 30
0.0
  0
LINE
  5
363
330
1F
100
AcDbEntity
  8
0
  6
Continuous
 62
     7
370
    25
100
AcDbLine
 10
14.0411817715
 20
24.4144387941
 30
0.0
 11
14.0827336794
 21
24.4579392706
 31
0.0
  0
LINE
  5
364
330
1F
100
AcDbEntity
  8
0
  6
Continuous
 62
     7
370
    25
100
AcDbLine
 10
14.0827336794
 20
24.4579392706
 30
0.0
 11
14.0180622689
 21
24.5197668242
 31
0.0
  0
LINE
  5
365
330
1F
100
AcDbEntity
  8
0
  6
Continuous
 62
     7
370
    25
100
AcDbLine
 10
14.0180622689
 20
24.5197668242
 30
0.0
 11
13.9733505202
 21
24.4729485148
 31
0.0
  0
LINE
  5
366
330
1F
100
AcDbEntity
  8
0
  6
Continuous
 62
     7
370
    25
100
AcDbLine
 10
14.0196421894
 20
24.5659005014
 30
0.0
 11
14.2078107151
 21
24.3861055541
 31
0.0
  0
LINE
  5
367
330
1F
100
AcDbEntity
  8
0
  6
Continuous
 62
     7
370
    25
100
AcDbLine
 10
14.2078107151
 20
24.3861055541
 30
0.0
 11
14.1404007758
 21
24.3155357739
 31
0.0
  0
SPLINE
  5
368
330
1F
100
AcDbEntity
  8
0
  6
Continuous
 62
     7
370
    25
100
AcDbSpline
210
0.0
220
0.0
230
1.0
 70
     8
 71
     3
 72
    15
 73
    11
 74
     0
 42
0.00000001
 43
0.00000001
 40
0.0
 40
0.0
 40
0.0
 40
0.0
 40
0.1401234339653394
 40
0.2801734600155438
 40
0.4200857396379622
 40
0.5599378243498067
 40
0.6699194706311972
 40
0.779971780782532
 40
0.8900191055203845
 40
0.9999999999999999
 40
0.9999999999999999
 40
0.9999999999999999
 40
0.9999999999999999
 10
14.14040077582916
 20
24.31553577392559
 30
0.0
 10
14.13634399067113
 20
24.31147430592664
 30
0.0
 10
14.12823254562514
 20
24.30335349765206
 30
0.0
 10
14.11458581352701
 20
24.29278923206162
 30
0.0
 10
14.09929931706158
 20
24.28464307491654
 30
0.0
 10
14.08352817280138
 20
24.28102734068154
 30
0.0
 10
14.06867215640013
 20
24.28150452439143
 30
0.0
 10
14.0555190336942
 20
24.28483896677622
 30
0.0
 10
14.04299251953299
 20
24.29030856261027
 30
0.0
 10
14.03609694660174
 20
24.29617317857035
 30
0.0
 10
14.03265020108143
 20
24.29910460123679
 30
0.0
  0
SPLINE
  5
369
330
1F
100
AcDbEntity
  8
0
  6
Continuous
 62
     7
370
    25
100
AcDbSpline
210
0.0
220
0.0
230
1.0
 70
     8
 71
     3
 72
    12
 73
     8
 74
     0
 42
0.00000001
 43
0.00000001
 40
0.0
 40
0.0
 40
0.0
 40
0.0
 40
0.1867025525854228
 40
0.3733727561690078
 40
0.5600876810500663
 40
0.7799895674389237
 40
1.0
 40
1.0
 40
1.0
 40
1.0
 10
14.03265020108143
 20
24.29910460123679
 30
0.0
 10
14.02968516675795
 20
24.30230048458114
 30
0.0
 10
14.0237556118474
 20
24.30869169753538
 30
0.0
 10
14.01800695886982
 20
24.32054383860488
 30
0.0
 10
14.01426058263796
 20
24.33387837237303
 30
0.0
 10
14.01402504234917
 20
24.34867301255255
 30
0.0
 10
14.01657587955327
 20
24.35860042475857
 30
0.0
 10
14.01785161285851
 20
24.36356535563132
 30
0.0
  0
SPLINE
  5
36A
330
1F
100
AcDbEntity
  8
0
  6
Continuous
 62
     7
370
    25
100
AcDbSpline
210
0.0
220
0.0
230
1.0
 70
     8
 71
     3
 72
     9
 73
     5
 74
     0
 42
0.00000001
 43
0.00000001
 40
0.0
 40
0.0
 40
0.0
 40
0.0
 40
0.5603048054130834
 40
1.0
 40
1.0
 40
1.0
 40
1.0
 10
14.06614451463938
 20
24.39605905290372
 30
0.0
 10
14.06186593907956
 20
24.39158616755375
 30
0.0
 10
14.05422978190496
 20
24.38360321736886
 30
0.0
 10
14.04823946314929
 20
24.37433074644644
 30
0.0
 10
14.04560554877838
 20
24.3702536855399
 30
0.0
  0
SPLINE
  5
36B
330
1F
100
AcDbEntity
  8
0
  6
Continuous
 62
     7
370
    25
100
AcDbSpline
210
0.0
220
0.0
230
1.0
 70
     8
 71
     3
 72
    12
 73
     8
 74
     0
 42
0.00000001
 43
0.00000001
 40
0.0
 40
0.0
 40
0.0
 40
0.0
 40
0.1868387086539305
 40
0.3735605278685269
 40
0.5601243830543771
 40
0.7798866718635928
 40
1.0
 40
1.0
 40
1.0
 40
1.0
 10
14.04560554877838
 20
24.3702536855399
 30
0.0
 10
14.04435002932644
 20
24.36752702925273
 30
0.0
 10
14.04183977589666
 20
24.36207542252044
 30
0.0
 10
14.04046172144172
 20
24.35307299238807
 30
0.0
 10
14.04161497159
 20
24.34354628554028
 30
0.0
 10
14.04582199999556
 20
24.3341897709001
 30
0.0
 10
14.05069703845457
 20
24.3290578814892
 30
0.0
 10
14.05313650292741
 20
24.32648988905146
 30
0.0
  0
SPLINE
  5
36C
330
1F
100
AcDbEntity
  8
0
  6
Continuous
 62
     7
370
    25
100
AcDbSpline
210
0.0
220
0.0
230
1.0
 70
     8
 71
     3
 72
    15
 73
    11
 74
     0
 42
0.00000001
 43
0.00000001
 40
0.0
 40
0.0
 40
0.0
 40
0.0
 40
0.1250068448528635
 40
0.2499482209274061
 40
0.3747383668507911
 40
0.4995232943943214
 40
0.6244447256176815
 40
0.7496111158343841
 40
0.8748096083448718
 40
1.0
 40
1.0
 40
1.0
 40
1.0
 10
14.05313650292741
 20
24.32648988905146
 30
0.0
 10
14.0558921759578
 20
24.32414446500129
 30
0.0
 10
14.06140207881325
 20
24.31945484525007
 30
0.0
 10
14.07152227191877
 20
24.31519852953264
 30
0.0
 10
14.08241625701222
 20
24.31394685963449
 30
0.0
 10
14.09313872892405
 20
24.31660269722659
 30
0.0
 10
14.10227313890909
 20
24.32255769019961
 30
0.0
 10
14.11051316600587
 20
24.32955682633315
 30
0.0
 10
14.11837324271951
 20
24.33700522777394
 30
0.0
 10
14.1234032496162
 20
24.34217799988721
 30
0.0
 10
14.1259181716964
 20
24.34476430226625
 30
0.0
  0
LINE
  5
36D
330
1F
100
AcDbEntity
  8
0
  6
Continuous
 62
     7
370
    25
100
AcDbLine
 10
14.1259181717
 20
24.3447643023
 30
0.0
 11
14.1618350299
 21
24.382366409
 31
0.0
  0
LINE
  5
36E
330
1F
100
AcDbEntity
  8
0
  6
Continuous
 62
     7
370
    25
100
AcDbLine
 10
14.1618350299
 20
24.382366409
 30
0.0
 11
14.1049578937
 21
24.4367156725
 31
0.0
  0
LINE
  5
36F
330
1F
100
AcDbEntity
  8
0
  6
Continuous
 62
     7
370
    25
100
AcDbLine
 10
14.1049578937
 20
24.4367156725
 30
0.0
 11
14.0661445146
 21
24.3960590529
 31
0.0
  0
SPLINE
  5
370
330
1F
100
AcDbEntity
  8
0
  6
Continuous
 62
     7
370
    25
100
AcDbSpline
210
0.0
220
0.0
230
1.0
 70
     8
 71
     3
 72
     9
 73
     5
 74
     0
 42
0.00000001
 43
0.00000001
 40
0.0
 40
0.0
 40
0.0
 40
0.0
 40
0.5601200490725821
 40
1.0
 40
1.0
 40
1.0
 40
1.0
 10
13.97335052015967
 20
24.47294851484492
 30
0.0
 10
13.97031567994348
 20
24.46977313624579
 30
0.0
 10
13.96489748393137
 20
24.46410403262347
 30
0.0
 10
13.96012473038307
 20
24.45788410098798
 30
0.0
 10
13.95802529178646
 20
24.45514807776538
 30
0.0
  0
SPLINE
  5
371
330
1F
100
AcDbEntity
  8
0
  6
Continuous
 62
     7
370
    25
100
AcDbSpline
210
0.0
220
0.0
230
1.0
 70
     8
 71
     3
 72
    15
 73
    11
 74
     0
 42
0.00000001
 43
0.00000001
 40
0.0
 40
0.0
 40
0.0
 40
0.0
 40
0.1120361461549099
 40
0.2240497645859247
 40
0.3360590071918625
 40
0.4479373923454917
 40
0.559846341325849
 40
0.7064345791286202
 40
0.8531882092399018
 40
0.9999999999999999
 40
0.9999999999999999
 40
0.9999999999999999
 40
0.9999999999999999
 10
13.93843427819596
 20
24.37167561394567
 30
0.0
 10
13.93482970026486
 20
24.37548540073889
 30
0.0
 10
13.92762126919494
 20
24.38310420827057
 30
0.0
 10
13.92016870482377
 20
24.3970866860147
 30
0.0
 10
13.91537720950108
 20
24.4120593039465
 30
0.0
 10
13.91374857707792
 20
24.42783198277256
 30
0.0
 10
13.91721249885761
 20
24.44497704639881
 30
0.0
 10
13.92541339009099
 20
24.46216074879102
 30
0.0
 10
13.93720301840753
 20
24.47905300096419
 30
0.0
 10
13.94648459706451
 20
24.4891317433282
 30
0.0
 10
13.95112630581776
 20
24.49417211290129
 30
0.0
  0
SPLINE
  5
372
330
1F
100
AcDbEntity
  8
0
  6
Continuous
 62
     7
370
    25
100
AcDbSpline
210
0.0
220
0.0
230
1.0
 70
     8
 71
     3
 72
    13
 73
     9
 74
     0
 42
0.00000001
 43
0.00000001
 40
0.0
 40
0.0
 40
0.0
 40
0.0
 40
0.1867646103093903
 40
0.3733433783033506
 40
0.5598378591231655
 40
0.70653337290019
 40
0.8532471049713888
 40
1.0
 40
1.0
 40
1.0
 40
1.0
 10
14.01785161285851
 20
24.36356535563132
 30
0.0
 10
14.01307177896802
 20
24.36110502552847
 30
0.0
 10
14.0035168674168
 20
24.3561868135031
 30
0.0
 10
13.9876034403146
 20
24.35276421203587
 30
0.0
 10
13.9725318039471
 20
24.35345847773979
 30
0.0
 10
13.95923569468862
 20
24.35736853116175
 30
0.0
 10
13.94798352754566
 20
24.36336034885923
 30
0.0
 10
13.94161764448704
 20
24.36890361233505
 30
0.0
 10
13.93843427819596
 20
24.37167561394567
 30
0.0
  0
SPLINE
  5
373
330
1F
100
AcDbEntity
  8
0
  6
Continuous
 62
     7
370
    25
100
AcDbSpline
210
0.0
220
0.0
230
1.0
 70
     8
 71
     3
 72
    15
 73
    11
 74
     0
 42
0.00000001
 43
0.00000001
 40
0.0
 40
0.0
 40
0.0
 40
0.0
 40
0.124998499883476
 40
0.2499087597182991
 40
0.3747599323669178
 40
0.4996707418783592
 40
0.6246080698566473
 40
0.749697638933951
 40
0.8748442278589483
 40
1.0
 40
1.0
 40
1.0
 40
1.0
 10
13.96308103722917
 20
24.39748098130949
 30
0.0
 10
13.96598543224915
 20
24.39500110531449
 30
0.0
 10
13.97179217199285
 20
24.39004310394053
 30
0.0
 10
13.98253316972244
 20
24.38568939011298
 30
0.0
 10
13.9939801000914
 20
24.38433731605969
 30
0.0
 10
14.00535793121175
 20
24.38649493272249
 30
0.0
 10
14.0155739952104
 20
24.39177964724497
 30
0.0
 10
14.02468171425421
 20
24.3986739003285
 30
0.0
 10
14.03321103602386
 20
24.40626828912137
 30
0.0
 10
14.03852479470069
 20
24.41171522585954
 30
0.0
 10
14.04118177151601
 20
24.41443879414857
 30
0.0
  0
LINE
  5
374
330
1F
100
AcDbEntity
  8
0
  6
Continuous
 62
     7
370
    25
100
AcDbLine
 10
13.9511263058
 20
24.4941721129
 30
0.0
 11
14.0196421894
 21
24.5659005014
 31
0.0
  0
LINE
  5
375
330
1F
100
AcDbEntity
  8
0
  6
Continuous
 62
     7
370
    25
100
AcDbLine
 10
10.8645865328
 20
25.3865596232
 30
0.0
 11
10.8071156465
 21
25.3429083855
 31
0.0
  0
LINE
  5
376
330
1F
100
AcDbEntity
  8
0
  6
Continuous
 62
     7
370
    25
100
AcDbLine
 10
10.8555188951
 20
25.4581564896
 30
0.0
 11
10.8645865328
 21
25.3865596232
 31
0.0
  0
LINE
  5
377
330
1F
100
AcDbEntity
  8
0
  6
Continuous
 62
     7
370
    25
100
AcDbLine
 10
10.7889803712
 20
25.4861021183
 30
0.0
 11
10.8555188951
 21
25.4581564896
 31
0.0
  0
LINE
  5
378
330
1F
100
AcDbEntity
  8
0
  6
Continuous
 62
     7
370
    25
100
AcDbLine
 10
10.7315094848
 20
25.4424508805
 30
0.0
 11
10.7889803712
 21
25.4861021183
 31
0.0
  0
LINE
  5
379
330
1F
100
AcDbEntity
  8
0
  6
Continuous
 62
     7
370
    25
100
AcDbLine
 10
10.7405771225
 20
25.3708540141
 30
0.0
 11
10.7315094848
 21
25.4424508805
 31
0.0
  0
LINE
  5
37A
330
1F
100
AcDbEntity
  8
0
  6
Continuous
 62
     7
370
    25
100
AcDbLine
 10
10.8071156465
 20
25.3429083855
 30
0.0
 11
10.7405771225
 21
25.3708540141
 31
0.0
  0
CIRCLE
  5
37B
330
1F
100
AcDbEntity
  8
0
  6
Continuous
 62
     7
370
    25
100
AcDbCircle
 10
10.7980480088
 20
25.4145052519
 30
0.0
 40
0.2500000000000008
  0
ARC
  5
37C
330
1F
100
AcDbEntity
  8
0
  6
Continuous
 62
     7
370
    25
100
AcDbCircle
 10
10.7980480088
 20
25.4145052519
 30
0.0
 40
0.0624999999999994
100
AcDbArc
 50
187.2179978857
 51
247.2179978857
  0
ARC
  5
37D
330
1F
100
AcDbEntity
  8
0
  6
Continuous
 62
     7
370
    25
100
AcDbCircle
 10
10.7980480088
 20
25.4145052519
 30
0.0
 40
0.0624999999999988
100
AcDbArc
 50
247.2179978857
 51
307.2179978857
  0
ARC
  5
37E
330
1F
100
AcDbEntity
  8
0
  6
Continuous
 62
     7
370
    25
100
AcDbCircle
 10
10.7980480088
 20
25.4145052519
 30
0.0
 40
0.0625000000000016
100
AcDbArc
 50
127.2179978857
 51
187.2179978857
  0
ARC
  5
37F
330
1F
100
AcDbEntity
  8
0
  6
Continuous
 62
     7
370
    25
100
AcDbCircle
 10
10.7980480088
 20
25.4145052519
 30
0.0
 40
0.0625000000000045
100
AcDbArc
 50
67.2179978857
 51
127.2179978857
  0
ARC
  5
380
330
1F
100
AcDbEntity
  8
0
  6
Continuous
 62
     7
370
    25
100
AcDbCircle
 10
10.7980480088
 20
25.4145052519
 30
0.0
 40
0.0625000000000045
100
AcDbArc
 50
7.2179978857
 51
67.2179978857
  0
ARC
  5
381
330
1F
100
AcDbEntity
  8
0
  6
Continuous
 62
     7
370
    25
100
AcDbCircle
 10
10.7980480088
 20
25.4145052519
 30
0.0
 40
0.0625000000000003
100
AcDbArc
 50
307.2179978857
 51
7.2179978857
  0
LINE
  5
382
330
1F
100
AcDbEntity
  8
0
  6
Continuous
 62
     7
370
    25
100
AcDbLine
 10
15.2395865328
 20
25.3865596232
 30
0.0
 11
15.1821156465
 21
25.3429083855
 31
0.0
  0
LINE
  5
383
330
1F
100
AcDbEntity
  8
0
  6
Continuous
 62
     7
370
    25
100
AcDbLine
 10
15.2305188951
 20
25.4581564896
 30
0.0
 11
15.2395865328
 21
25.3865596232
 31
0.0
  0
LINE
  5
384
330
1F
100
AcDbEntity
  8
0
  6
Continuous
 62
     7
370
    25
100
AcDbLine
 10
15.1639803712
 20
25.4861021183
 30
0.0
 11
15.2305188951
 21
25.4581564896
 31
0.0
  0
LINE
  5
385
330
1F
100
AcDbEntity
  8
0
  6
Continuous
 62
     7
370
    25
100
AcDbLine
 10
15.1065094848
 20
25.4424508805
 30
0.0
 11
15.1639803712
 21
25.4861021183
 31
0.0
  0
LINE
  5
386
330
1F
100
AcDbEntity
  8
0
  6
Continuous
 62
     7
370
    25
100
AcDbLine
 10
15.1155771225
 20
25.3708540141
 30
0.0
 11
15.1065094848
 21
25.4424508805
 31
0.0
  0
LINE
  5
387
330
1F
100
AcDbEntity
  8
0
  6
Continuous
 62
     7
370
    25
100
AcDbLine
 10
15.1821156465
 20
25.3429083855
 30
0.0
 11
15.1155771225
 21
25.3708540141
 31
0.0
  0
CIRCLE
  5
388
330
1F
100
AcDbEntity
  8
0
  6
Continuous
 62
     7
370
    25
100
AcDbCircle
 10
15.1730480088
 20
25.4145052519
 30
0.0
 40
0.2500000000000037
  0
ARC
  5
389
330
1F
100
AcDbEntity
  8
0
  6
Continuous
 62
     7
370
    25
100
AcDbCircle
 10
15.1730480088
 20
25.4145052519
 30
0.0
 40
0.0625000000000003
100
AcDbArc
 50
127.2179978857
 51
187.2179978857
  0
ARC
  5
38A
330
1F
100
AcDbEntity
  8
0
  6
Continuous
 62
     7
370
    25
100
AcDbCircle
 10
15.1730480088
 20
25.4145052519
 30
0.0
 40
0.0625000000000012
100
AcDbArc
 50
187.2179978857
 51
247.2179978857
  0
ARC
  5
38B
330
1F
100
AcDbEntity
  8
0
  6
Continuous
 62
     7
370
    25
100
AcDbCircle
 10
15.1730480088
 20
25.4145052519
 30
0.0
 40
0.0625000000000016
100
AcDbArc
 50
247.2179978857
 51
307.2179978857
  0
ARC
  5
38C
330
1F
100
AcDbEntity
  8
0
  6
Continuous
 62
     7
370
    25
100
AcDbCircle
 10
15.1730480088
 20
25.4145052519
 30
0.0
 40
0.0624999999999994
100
AcDbArc
 50
7.2179978857
 51
67.2179978857
  0
ARC
  5
38D
330
1F
100
AcDbEntity
  8
0
  6
Continuous
 62
     7
370
    25
100
AcDbCircle
 10
15.1730480088
 20
25.4145052519
 30
0.0
 40
0.0624999999999979
100
AcDbArc
 50
67.2179978857
 51
127.2179978857
  0
ARC
  5
38E
330
1F
100
AcDbEntity
  8
0
  6
Continuous
 62
     7
370
    25
100
AcDbCircle
 10
15.1730480088
 20
25.4145052519
 30
0.0
 40
0.0625000000000016
100
AcDbArc
 50
307.2179978857
 51
7.2179978857
  0
CIRCLE
  5
38F
330
1F
100
AcDbEntity
  8
0
  6
Continuous
 62
     7
370
    25
100
AcDbCircle
 10
12.9855480088
 20
25.4145052519
 30
0.0
 40
0.8900000000000077
  0
DIMENSION
  5
390
330
1F
100
AcDbEntity
  8
0
  6
Continuous
 62
     7
370
    18
100
AcDbDimension
  2
_D_3
 10
15.1068683524
 20
23.2931849083
 30
0.0
 11
6.2713898342
 21
29.6448093147
 31
0.0
 70
   163
  1
<>
 71
     1
 42
-1.0
  3
SLDDIMSTYLE2
100
AcDbDiametricDimension
 15
10.8642276653
 25
27.5358255954
 35
0.0
 40
0.0
  0
DIMENSION
  5
3A1
330
1F
100
AcDbEntity
  8
0
  6
Continuous
 62
     7
370
    18
100
AcDbDimension
  2
_D_4
 10
12.4297052327
 20
24.7194233802
 30
0.0
 11
18.4424065356
 21
29.3632450944
 31
0.0
 70
   163
  1
<>
 71
     1
 42
-1.0
  3
SLDDIMSTYLE2
100
AcDbDiametricDimension
 15
13.5413907849
 25
26.1095871235
 35
0.0
 40
0.0
  0
ENDSEC
  0
SECTION
  2
OBJECTS
  0
DICTIONARY
  5
C
330
0
100
AcDbDictionary
281
     1
  3
ACAD_GROUP
350
D
  3
ACAD_LAYOUT
350
1A
  3
ACAD_MLINESTYLE
350
17
  3
ACAD_PLOTSETTINGS
350
19
  3
ACAD_PLOTSTYLENAME
350
E
  3
ACAD_SCALELIST
350
47
  3
DWGPROPS
350
3B1
  0
DICTIONARY
  5
D
102
{ACAD_REACTORS
330
C
102
}
330
C
100
AcDbDictionary
281
     1
  0
DICTIONARY
  5
1A
102
{ACAD_REACTORS
330
C
102
}
330
C
100
AcDbDictionary
281
     1
  3
Layout1
350
1E
  3
Layout2
350
26
  3
Model
350
22
  0
DICTIONARY
  5
17
102
{ACAD_REACTORS
330
C
102
}
330
C
100
AcDbDictionary
281
     1
  3
Standard
350
18
  0
DICTIONARY
  5
19
102
{ACAD_REACTORS
330
C
102
}
330
C
100
AcDbDictionary
281
     1
  0
ACDBDICTIONARYWDFLT
  5
E
102
{ACAD_REACTORS
330
C
102
}
330
C
100
AcDbDictionary
281
     1
  3
Normal
350
F
100
AcDbDictionaryWithDefault
340
F
  0
DICTIONARY
  5
47
102
{ACAD_REACTORS
330
C
102
}
330
C
100
AcDbDictionary
281
     1
  3
A0
350
48
  3
A1
350
49
  3
A2
350
4A
  3
A3
350
4B
  3
A4
350
4C
  3
A5
350
4D
  3
A6
350
4E
  3
A7
350
4F
  3
A8
350
50
  3
A9
350
51
  3
B1
350
52
  3
B2
350
53
  3
B3
350
54
  3
B4
350
55
  3
B5
350
56
  3
B6
350
57
  3
B7
350
58
  0
XRECORD
  5
3B1
102
{ACAD_REACTORS
330
C
102
}
330
C
100
AcDbXrecord
280
     1
  1
DWGPROPS COOKIE
  2

  3

  4

  6

  7

  8
alekseyb
  9

300
=
301
=
302
=
303
=
304
=
305
=
306
=
307
=
308
=
309
=
 40
0.0
 41
2460476.220398553
 42
2460476.22039934
  1

 90
        0
  0
LAYOUT
  5
1E
102
{ACAD_REACTORS
330
1A
102
}
330
1A
100
AcDbPlotSettings
  1

  2
none_device
  4

  6

 40
0.0
 41
0.0
 42
0.0
 43
0.0
 44
0.0
 45
0.0
 46
0.0
 47
0.0
 48
0.0
 49
0.0
140
0.0
141
0.0
142
1.0
143
1.0
 70
   688
 72
     0
 73
     0
 74
     5
  7

 75
    16
147
1.0
148
0.0
149
0.0
100
AcDbLayout
  1
Layout1
 70
     1
 71
     1
 10
0.0
 20
0.0
 11
12.0
 21
9.0
 12
0.0
 22
0.0
 32
0.0
 14
1.0000000000E+20
 24
1.0000000000E+20
 34
1.0000000000E+20
 15
-1.0000000000E+20
 25
-1.0000000000E+20
 35
-1.0000000000E+20
146
0.0
 13
0.0
 23
0.0
 33
0.0
 16
1.0
 26
0.0
 36
0.0
 17
0.0
 27
1.0
 37
0.0
 76
     0
330
1B
  0
LAYOUT
  5
26
102
{ACAD_REACTORS
330
1A
102
}
330
1A
100
AcDbPlotSettings
  1

  2
none_device
  4

  6

 40
0.0
 41
0.0
 42
0.0
 43
0.0
 44
0.0
 45
0.0
 46
0.0
 47
0.0
 48
0.0
 49
0.0
140
0.0
141
0.0
142
1.0
143
1.0
 70
   688
 72
     0
 73
     0
 74
     5
  7

 75
    16
147
1.0
148
0.0
149
0.0
100
AcDbLayout
  1
Layout2
 70
     1
 71
     2
 10
0.0
 20
0.0
 11
0.0
 21
0.0
 12
0.0
 22
0.0
 32
0.0
 14
0.0
 24
0.0
 34
0.0
 15
0.0
 25
0.0
 35
0.0
146
0.0
 13
0.0
 23
0.0
 33
0.0
 16
1.0
 26
0.0
 36
0.0
 17
0.0
 27
1.0
 37
0.0
 76
     0
330
23
  0
LAYOUT
  5
22
102
{ACAD_REACTORS
330
1A
102
}
330
1A
100
AcDbPlotSettings
  1

  2
none_device
  4
Letter_(8.50_x_11.00_Inches)
  6

 40
6.35
 41
6.35
 42
6.35000508
 43
6.35000508
 44
215.9
 45
279.4
 46
0.0
 47
0.0
 48
0.0
 49
0.0
140
0.0
141
0.0
142
1.0
143
1.0
 70
  1712
 72
     0
 73
     0
 74
     0
  7

 75
     0
147
1.0
148
0.0
149
0.0
100
AcDbLayout
  1
Model
 70
     1
 71
     0
 10
0.0
 20
0.0
 11
44.0
 21
34.0
 12
0.0
 22
0.0
 32
0.0
 14
0.0
 24
0.0
 34
0.0
 15
44.0
 25
34.0
 35
0.0
146
0.0
 13
0.0
 23
0.0
 33
0.0
 16
1.0
 26
0.0
 36
0.0
 17
0.0
 27
1.0
 37
0.0
 76
     0
330
1F
331
29
  0
MLINESTYLE
  5
18
102
{ACAD_REACTORS
330
17
102
}
330
17
100
AcDbMlineStyle
  2
Standard
 70
     0
  3

 62
   256
 51
90.0
 52
90.0
 71
     2
 49
0.5
 62
   256
  6
BYLAYER
 49
-0.5
 62
   256
  6
BYLAYER
  0
ACDBPLACEHOLDER
  5
F
102
{ACAD_REACTORS
330
E
102
}
330
E
  0
SCALE
  5
48
102
{ACAD_REACTORS
330
47
102
}
330
47
100
AcDbScale
 70
     0
300
1:1
140
1.0
141
1.0
290
     1
  0
SCALE
  5
49
102
{ACAD_REACTORS
330
47
102
}
330
47
100
AcDbScale
 70
     0
300
1/128" = 1'-0"
140
0.0078125
141
12.0
290
     0
  0
SCALE
  5
4A
102
{ACAD_REACTORS
330
47
102
}
330
47
100
AcDbScale
 70
     0
300
1/64" = 1'-0"
140
0.015625
141
12.0
290
     0
  0
SCALE
  5
4B
102
{ACAD_REACTORS
330
47
102
}
330
47
100
AcDbScale
 70
     0
300
1/32" = 1'-0"
140
0.03125
141
12.0
290
     0
  0
SCALE
  5
4C
102
{ACAD_REACTORS
330
47
102
}
330
47
100
AcDbScale
 70
     0
300
1/16" = 1'-0"
140
0.0625
141
12.0
290
     0
  0
SCALE
  5
4D
102
{ACAD_REACTORS
330
47
102
}
330
47
100
AcDbScale
 70
     0
300
3/32" = 1'-0"
140
0.09375
141
12.0
290
     0
  0
SCALE
  5
4E
102
{ACAD_REACTORS
330
47
102
}
330
47
100
AcDbScale
 70
     0
300
1/8" = 1'-0"
140
0.125
141
12.0
290
     0
  0
SCALE
  5
4F
102
{ACAD_REACTORS
330
47
102
}
330
47
100
AcDbScale
 70
     0
300
3/16" = 1'-0"
140
0.1875
141
12.0
290
     0
  0
SCALE
  5
50
102
{ACAD_REACTORS
330
47
102
}
330
47
100
AcDbScale
 70
     0
300
1/4" = 1'-0"
140
0.25
141
12.0
290
     0
  0
SCALE
  5
51
102
{ACAD_REACTORS
330
47
102
}
330
47
100
AcDbScale
 70
     0
300
3/8" = 1'-0"
140
0.375
141
12.0
290
     0
  0
SCALE
  5
52
102
{ACAD_REACTORS
330
47
102
}
330
47
100
AcDbScale
 70
     0
300
1/2" = 1'-0"
140
0.5
141
12.0
290
     0
  0
SCALE
  5
53
102
{ACAD_REACTORS
330
47
102
}
330
47
100
AcDbScale
 70
     0
300
3/4" = 1'-0"
140
0.75
141
12.0
290
     0
  0
SCALE
  5
54
102
{ACAD_REACTORS
330
47
102
}
330
47
100
AcDbScale
 70
     0
300
1" = 1'-0"
140
1.0
141
12.0
290
     0
  0
SCALE
  5
55
102
{ACAD_REACTORS
330
47
102
}
330
47
100
AcDbScale
 70
     0
300
1-1/2" = 1'-0"
140
1.5
141
12.0
290
     0
  0
SCALE
  5
56
102
{ACAD_REACTORS
330
47
102
}
330
47
100
AcDbScale
 70
     0
300
3" = 1'-0"
140
3.0
141
12.0
290
     0
  0
SCALE
  5
57
102
{ACAD_REACTORS
330
47
102
}
330
47
100
AcDbScale
 70
     0
300
6" = 1'-0"
140
6.0
141
12.0
290
     0
  0
SCALE
  5
58
102
{ACAD_REACTORS
330
47
102
}
330
47
100
AcDbScale
 70
     0
300
1'-0" = 1'-0"
140
12.0
141
12.0
290
     0
  0
ENDSEC
  0
EOF
