  0
SECTION
  2
HEADER
  9
$ACADVER
  1
AC1015
  9
$ACADMAINTVER
 70
     6
  9
$DWGCODEPAGE
  3
ANSI_1252
  9
$INSBASE
 10
0.0
 20
0.0
 30
0.0
  9
$EXTMIN
 10
0.0
 20
0.0
 30
0.0
  9
$EXTMAX
 10
44.0
 20
34.0
 30
0.0
  9
$LIMMIN
 10
0.0
 20
0.0
  9
$LIMMAX
 10
44.0
 20
34.0
  9
$ORTHOMODE
 70
     0
  9
$REGENMODE
 70
     1
  9
$FILLMODE
 70
     1
  9
$QTEXTMODE
 70
     0
  9
$MIRRTEXT
 70
     1
  9
$LTSCALE
 40
4.0
  9
$ATTMODE
 70
     1
  9
$TEXTSIZE
 40
0.5
  9
$TRACEWID
 40
0.05
  9
$TEXTSTYLE
  7
STANDARD
  9
$CLAYER
  8
0
  9
$CELTYPE
  6
ByLayer
  9
$CECOLOR
 62
   256
  9
$CELTSCALE
 40
1.0
  9
$DISPSILH
 70
     0
  9
$DIMSCALE
 40
1.0
  9
$DIMASZ
 40
0.52
  9
$DIMEXO
 40
0.2
  9
$DIMDLI
 40
0.38
  9
$DIMRND
 40
0.0
  9
$DIMDLE
 40
0.0
  9
$DIMEXE
 40
0.5
  9
$DIMTP
 40
0.0
  9
$DIMTM
 40
0.0
  9
$DIMTXT
 40
0.5
  9
$DIMCEN
 40
0.09
  9
$DIMTSZ
 40
0.0
  9
$DIMTOL
 70
     0
  9
$DIMLIM
 70
     0
  9
$DIMTIH
 70
     1
  9
$DIMTOH
 70
     1
  9
$DIMSE1
 70
     0
  9
$DIMSE2
 70
     0
  9
$DIMTAD
 70
     0
  9
$DIMZIN
 70
     1
  9
$DIMBLK
  1

  9
$DIMASO
 70
     1
  9
$DIMSHO
 70
     1
  9
$DIMPOST
  1

  9
$DIMAPOST
  1

  9
$DIMALT
 70
     0
  9
$DIMALTD
 70
     2
  9
$DIMALTF
 40
25.4
  9
$DIMLFAC
 40
1.0
  9
$DIMTOFL
 70
     0
  9
$DIMTVP
 40
0.0
  9
$DIMTIX
 70
     0
  9
$DIMSOXD
 70
     0
  9
$DIMSAH
 70
     0
  9
$DIMBLK1
  1

  9
$DIMBLK2
  1

  9
$DIMSTYLE
  2
Standard
  9
$DIMCLRD
 70
     0
  9
$DIMCLRE
 70
     0
  9
$DIMCLRT
 70
     0
  9
$DIMTFAC
 40
1.0
  9
$DIMGAP
 40
0.24
  9
$DIMJUST
 70
     0
  9
$DIMSD1
 70
     0
  9
$DIMSD2
 70
     0
  9
$DIMTOLJ
 70
     1
  9
$DIMTZIN
 70
     1
  9
$DIMALTZ
 70
     0
  9
$DIMALTTZ
 70
     0
  9
$DIMUPT
 70
     0
  9
$DIMDEC
 70
     0
  9
$DIMTDEC
 70
     0
  9
$DIMALTU
 70
     2
  9
$DIMALTTD
 70
     2
  9
$DIMTXSTY
  7
STANDARD
  9
$DIMAUNIT
 70
     0
  9
$DIMADEC
 70
     0
  9
$DIMALTRND
 40
0.0
  9
$DIMAZIN
 70
     0
  9
$DIMDSEP
 70
    46
  9
$DIMATFIT
 70
     3
  9
$DIMFRAC
 70
     0
  9
$DIMLDRBLK
  1

  9
$DIMLUNIT
 70
     2
  9
$DIMLWD
 70
    -2
  9
$DIMLWE
 70
    -2
  9
$DIMTMOVE
 70
     0
  9
$LUNITS
 70
     2
  9
$LUPREC
 70
     6
  9
$SKETCHINC
 40
0.1
  9
$FILLETRAD
 40
0.0
  9
$AUNITS
 70
     0
  9
$AUPREC
 70
     2
  9
$MENU
  1
.
  9
$ELEVATION
 40
0.0
  9
$PELEVATION
 40
0.0
  9
$THICKNESS
 40
0.0
  9
$LIMCHECK
 70
     0
  9
$CHAMFERA
 40
0.0
  9
$CHAMFERB
 40
0.0
  9
$CHAMFERC
 40
0.0
  9
$CHAMFERD
 40
0.0
  9
$SKPOLY
 70
     0
  9
$TDCREATE
 40
2460507.867799121
  9
$TDUCREATE
 40
2460508.159465787
  9
$TDUPDATE
 40
2460507.867800116
  9
$TDUUPDATE
 40
2460508.159466783
  9
$TDINDWG
 40
0.0000000116
  9
$TDUSRTIMER
 40
0.0000000116
  9
$USRTIMER
 70
     1
  9
$ANGBASE
 50
0.0
  9
$ANGDIR
 70
     0
  9
$PDMODE
 70
     0
  9
$PDSIZE
 40
-1.0
  9
$PLINEWID
 40
0.0
  9
$SPLFRAME
 70
     0
  9
$SPLINETYPE
 70
     6
  9
$SPLINESEGS
 70
     8
  9
$HANDSEED
  5
56C
  9
$SURFTAB1
 70
     6
  9
$SURFTAB2
 70
     6
  9
$SURFTYPE
 70
     6
  9
$SURFU
 70
     6
  9
$SURFV
 70
     6
  9
$UCSBASE
  2

  9
$UCSNAME
  2

  9
$UCSORG
 10
0.0
 20
0.0
 30
0.0
  9
$UCSXDIR
 10
1.0
 20
0.0
 30
0.0
  9
$UCSYDIR
 10
0.0
 20
1.0
 30
0.0
  9
$UCSORTHOREF
  2

  9
$UCSORTHOVIEW
 70
     0
  9
$UCSORGTOP
 10
0.0
 20
0.0
 30
0.0
  9
$UCSORGBOTTOM
 10
0.0
 20
0.0
 30
0.0
  9
$UCSORGLEFT
 10
0.0
 20
0.0
 30
0.0
  9
$UCSORGRIGHT
 10
0.0
 20
0.0
 30
0.0
  9
$UCSORGFRONT
 10
0.0
 20
0.0
 30
0.0
  9
$UCSORGBACK
 10
0.0
 20
0.0
 30
0.0
  9
$PUCSBASE
  2

  9
$PUCSNAME
  2

  9
$PUCSORG
 10
0.0
 20
0.0
 30
0.0
  9
$PUCSXDIR
 10
1.0
 20
0.0
 30
0.0
  9
$PUCSYDIR
 10
0.0
 20
1.0
 30
0.0
  9
$PUCSORTHOREF
  2

  9
$PUCSORTHOVIEW
 70
     0
  9
$PUCSORGTOP
 10
0.0
 20
0.0
 30
0.0
  9
$PUCSORGBOTTOM
 10
0.0
 20
0.0
 30
0.0
  9
$PUCSORGLEFT
 10
0.0
 20
0.0
 30
0.0
  9
$PUCSORGRIGHT
 10
0.0
 20
0.0
 30
0.0
  9
$PUCSORGFRONT
 10
0.0
 20
0.0
 30
0.0
  9
$PUCSORGBACK
 10
0.0
 20
0.0
 30
0.0
  9
$USERI1
 70
     0
  9
$USERI2
 70
     0
  9
$USERI3
 70
     0
  9
$USERI4
 70
     0
  9
$USERI5
 70
     0
  9
$USERR1
 40
0.0
  9
$USERR2
 40
0.0
  9
$USERR3
 40
0.0
  9
$USERR4
 40
0.0
  9
$USERR5
 40
0.0
  9
$WORLDVIEW
 70
     1
  9
$SHADEDGE
 70
     3
  9
$SHADEDIF
 70
    70
  9
$TILEMODE
 70
     1
  9
$MAXACTVP
 70
    64
  9
$PINSBASE
 10
0.0
 20
0.0
 30
0.0
  9
$PLIMCHECK
 70
     0
  9
$PEXTMIN
 10
1.0000000000E+20
 20
1.0000000000E+20
 30
1.0000000000E+20
  9
$PEXTMAX
 10
-1.0000000000E+20
 20
-1.0000000000E+20
 30
-1.0000000000E+20
  9
$PLIMMIN
 10
0.0
 20
0.0
  9
$PLIMMAX
 10
12.0
 20
9.0
  9
$UNITMODE
 70
     0
  9
$VISRETAIN
 70
     1
  9
$PLINEGEN
 70
     0
  9
$PSLTSCALE
 70
     1
  9
$TREEDEPTH
 70
  3020
  9
$CMLSTYLE
  2
Standard
  9
$CMLJUST
 70
     0
  9
$CMLSCALE
 40
1.0
  9
$PROXYGRAPHICS
 70
     1
  9
$MEASUREMENT
 70
     0
  9
$CELWEIGHT
370
    -1
  9
$ENDCAPS
280
     0
  9
$JOINSTYLE
280
     0
  9
$LWDISPLAY
290
     1
  9
$INSUNITS
 70
     1
  9
$HYPERLINKBASE
  1

  9
$STYLESHEET
  1

  9
$XEDIT
290
     1
  9
$CEPSNTYPE
380
     0
  9
$PSTYLEMODE
290
     1
  9
$FINGERPRINTGUID
  2
{d8846600-26bb-44bb-b282-d91187328207}
  9
$VERSIONGUID
  2
{FAEB1C32-E019-11D5-929B-00C0DF256EC4}
  9
$EXTNAMES
290
     1
  9
$PSVPSCALE
 40
0.0
  9
$OLESTARTUP
290
     0
  0
ENDSEC
  0
SECTION
  2
CLASSES
  0
CLASS
  1
ACDBDICTIONARYWDFLT
  2
AcDbDictionaryWithDefault
  3
ObjectDBX Classes
 90
        0
280
     0
281
     0
  0
CLASS
  1
VISUALSTYLE
  2
AcDbVisualStyle
  3
ObjectDBX Classes
 90
     4095
280
     0
281
     0
  0
CLASS
  1
MATERIAL
  2
AcDbMaterial
  3
ObjectDBX Classes
 90
     1153
280
     0
281
     0
  0
CLASS
  1
SCALE
  2
AcDbScale
  3
ObjectDBX Classes
 90
     1153
280
     0
281
     0
  0
CLASS
  1
TABLESTYLE
  2
AcDbTableStyle
  3
ObjectDBX Classes
 90
     4095
280
     0
281
     0
  0
CLASS
  1
MLEADERSTYLE
  2
AcDbMLeaderStyle
  3
ACDB_MLEADERSTYLE_CLASS
 90
     4095
280
     0
281
     0
  0
CLASS
  1
SUN
  2
AcDbSun
  3
SCENEOE
 90
     1153
280
     0
281
     0
  0
CLASS
  1
ACDBPLACEHOLDER
  2
AcDbPlaceHolder
  3
ObjectDBX Classes
 90
        0
280
     0
281
     0
  0
CLASS
  1
LAYOUT
  2
AcDbLayout
  3
ObjectDBX Classes
 90
        0
280
     0
281
     0
  0
ENDSEC
  0
SECTION
  2
TABLES
  0
TABLE
  2
VPORT
  5
8
330
0
100
AcDbSymbolTable
 70
     1
  0
VPORT
  5
29
330
8
100
AcDbSymbolTableRecord
100
AcDbViewportTableRecord
  2
*Active
 70
     0
 10
0.0
 20
0.0
 11
1.0
 21
1.0
 12
22.0
 22
17.0
 13
0.0
 23
0.0
 14
0.5
 24
0.5
 15
0.5
 25
0.5
 16
0.0
 26
0.0
 36
1.0
 17
0.0
 27
0.0
 37
0.0
 40
34.0
 41
1.2941176471
 42
50.0
 43
0.0
 44
0.0
 50
0.0
 51
0.0
 71
     0
 72
  2000
 73
     1
 74
     3
 75
     0
 76
     0
 77
     0
 78
     0
281
     0
 65
     1
110
0.0
120
0.0
130
0.0
111
1.0
121
0.0
131
0.0
112
0.0
122
1.0
132
0.0
 79
     0
146
0.0
  0
ENDTAB
  0
TABLE
  2
LTYPE
  5
5
330
0
100
AcDbSymbolTable
 70
     6
  0
LTYPE
  5
14
330
5
100
AcDbSymbolTableRecord
100
AcDbLinetypeTableRecord
  2
ByBlock
 70
     0
  3

 72
    65
 73
     0
 40
0.0
  0
LTYPE
  5
15
330
5
100
AcDbSymbolTableRecord
100
AcDbLinetypeTableRecord
  2
ByLayer
 70
     0
  3

 72
    65
 73
     0
 40
0.0
  0
LTYPE
  5
16
330
5
100
AcDbSymbolTableRecord
100
AcDbLinetypeTableRecord
  2
Continuous
 70
     0
  3
Solid line
 72
    65
 73
     0
 40
0.0
  0
LTYPE
  5
5E
330
5
100
AcDbSymbolTableRecord
100
AcDbLinetypeTableRecord
  2
HIDDEN
 70
     0
  3
Hidden __ __ __ __ __ __ __ __ __ __ __ __ __ __
 72
    65
 73
     2
 40
0.075
 49
0.05
 74
     0
 49
-0.025
 74
     0
  0
LTYPE
  5
5F
330
5
100
AcDbSymbolTableRecord
100
AcDbLinetypeTableRecord
  2
PHANTOM
 70
     0
  3
Phantom ______  __  __  ______  __  __  ______
 72
    65
 73
     6
 40
0.5
 49
0.25
 74
     0
 49
-0.05
 74
     0
 49
0.05
 74
     0
 49
-0.05
 74
     0
 49
0.05
 74
     0
 49
-0.05
 74
     0
  0
LTYPE
  5
60
330
5
100
AcDbSymbolTableRecord
100
AcDbLinetypeTableRecord
  2
CENTER
 70
     0
  3
Center ____ _ ____ _ ____ _ ____ _ ____ _ ____
 72
    65
 73
     4
 40
0.4
 49
0.25
 74
     0
 49
-0.05
 74
     0
 49
0.05
 74
     0
 49
-0.05
 74
     0
  0
LTYPE
  5
61
330
5
100
AcDbSymbolTableRecord
100
AcDbLinetypeTableRecord
  2
CENTERX2
 70
     0
  3
Center (2x) ________  __  ________  __  _____
 72
    65
 73
     4
 40
0.8
 49
0.5
 74
     0
 49
-0.1
 74
     0
 49
0.1
 74
     0
 49
-0.1
 74
     0
  0
LTYPE
  5
62
330
5
100
AcDbSymbolTableRecord
100
AcDbLinetypeTableRecord
  2
DOT2
 70
     0
  3
Dot (.5x) ........................................
 72
    65
 73
     2
 40
0.025
 49
0.0
 74
     0
 49
-0.025
 74
     0
  0
ENDTAB
  0
TABLE
  2
LAYER
  5
2
330
0
100
AcDbSymbolTable
 70
    12
  0
LAYER
  5
10
330
2
100
AcDbSymbolTableRecord
100
AcDbLayerTableRecord
  2
0
 70
     0
 62
     7
  6
Continuous
370
    -3
390
F
  0
LAYER
  5
63
330
2
100
AcDbSymbolTableRecord
100
AcDbLayerTableRecord
  2
SLD-0
 70
     0
 62
     7
  6
Continuous
370
    -3
390
F
  0
LAYER
  5
64
330
2
100
AcDbSymbolTableRecord
100
AcDbLayerTableRecord
  2
DIM
 70
     0
 62
     7
  6
Continuous
370
    -3
390
F
  0
LAYER
  5
65
330
2
100
AcDbSymbolTableRecord
100
AcDbLayerTableRecord
  2
CEN
 70
     0
 62
     1
  6
CENTER
370
    -3
390
F
  0
LAYER
  5
66
330
2
100
AcDbSymbolTableRecord
100
AcDbLayerTableRecord
  2
HAT
 70
     0
 62
     4
  6
Continuous
370
    -3
390
F
  0
LAYER
  5
67
330
2
100
AcDbSymbolTableRecord
100
AcDbLayerTableRecord
  2
OBJ
 70
     0
 62
     5
  6
Continuous
370
    -3
390
F
  0
LAYER
  5
68
330
2
100
AcDbSymbolTableRecord
100
AcDbLayerTableRecord
  2
SLD-DEFPOINTS
 70
     0
 62
     7
  6
Continuous
370
    -3
390
F
  0
LAYER
  5
69
330
2
100
AcDbSymbolTableRecord
100
AcDbLayerTableRecord
  2
HID
 70
     0
 62
     4
  6
HIDDEN
370
    -3
390
F
  0
LAYER
  5
6A
330
2
100
AcDbSymbolTableRecord
100
AcDbLayerTableRecord
  2
NOTE
 70
     0
 62
     7
  6
Continuous
370
    -3
390
F
  0
LAYER
  5
6B
330
2
100
AcDbSymbolTableRecord
100
AcDbLayerTableRecord
  2
VP
 70
     0
 62
    -5
  6
Continuous
290
     0
370
    -3
390
F
  0
LAYER
  5
6C
330
2
100
AcDbSymbolTableRecord
100
AcDbLayerTableRecord
  2
TITLE
 70
     0
 62
     7
  6
Continuous
370
    -3
390
F
  0
LAYER
  5
6D
330
2
100
AcDbSymbolTableRecord
100
AcDbLayerTableRecord
  2
THICK_TITLE
 70
     0
 62
     7
  6
Continuous
370
   100
390
F
  0
ENDTAB
  0
TABLE
  2
STYLE
  5
3
330
0
100
AcDbSymbolTable
 70
     2
  0
STYLE
  5
11
330
3
100
AcDbSymbolTableRecord
100
AcDbTextStyleTableRecord
  2
STANDARD
 70
     0
 40
0.0
 41
1.0
 50
0.0
 71
     0
 42
0.5
  3
GOTHIC.TTF
  4

1001
ACAD
1000
CENTURY GOTHIC
1071
       34
  0
STYLE
  5
130
330
3
100
AcDbSymbolTableRecord
100
AcDbTextStyleTableRecord
  2
SLDTEXTSTYLE0
 70
     0
 40
0.0
 41
0.913
 50
0.0
 71
     0
 42
0.5
  3
GOTHIC.TTF
  4

1001
ACAD
1000
Century Gothic
1071
      290
  0
ENDTAB
  0
TABLE
  2
VIEW
  5
6
330
0
100
AcDbSymbolTable
 70
     0
  0
ENDTAB
  0
TABLE
  2
UCS
  5
7
330
0
100
AcDbSymbolTable
 70
     0
  0
ENDTAB
  0
TABLE
  2
APPID
  5
9
330
0
100
AcDbSymbolTable
 70
     1
  0
APPID
  5
12
330
9
100
AcDbSymbolTableRecord
100
AcDbRegAppTableRecord
  2
ACAD
 70
     0
  0
ENDTAB
  0
TABLE
  2
DIMSTYLE
  5
A
330
0
100
AcDbSymbolTable
 70
     4
100
AcDbDimStyleTable
  0
DIMSTYLE
105
27
330
A
100
AcDbSymbolTableRecord
100
AcDbDimStyleTableRecord
  2
Standard
 70
     0
178
     0
340
11
  0
DIMSTYLE
105
131
102
{ACAD_REACTORS
330
12F
102
}
330
A
100
AcDbSymbolTableRecord
100
AcDbDimStyleTableRecord
  2
SLDDIMSTYLE0
 70
     0
 41
0.52
 44
0.0
 45
0.000000001
 78
    12
 79
     3
140
0.5
147
0.125
148
0.000000001
170
     1
172
     1
173
     1
178
     0
271
     6
272
     0
276
     2
277
     5
284
    12
289
     0
340
130
  0
DIMSTYLE
105
147
102
{ACAD_REACTORS
330
146
330
15B
102
}
330
A
100
AcDbSymbolTableRecord
100
AcDbDimStyleTableRecord
  2
SLDDIMSTYLE1
 70
     0
 41
0.52
 44
0.0
 45
0.000000001
 78
    12
 79
     3
140
0.5
147
0.125
148
0.000000001
170
     1
173
     1
178
     0
271
     6
272
     0
276
     2
277
     5
284
    12
340
130
  0
DIMSTYLE
105
543
102
{ACAD_REACTORS
330
542
330
557
102
}
330
A
100
AcDbSymbolTableRecord
100
AcDbDimStyleTableRecord
  2
SLDDIMSTYLE2
 70
     0
 41
0.52
 44
0.0
 45
0.000000001
 78
    12
 79
     3
140
0.5
147
0.125
148
0.000000001
170
     1
173
     1
178
     0
271
     0
272
     0
276
     2
277
     5
284
    12
340
130
  0
ENDTAB
  0
TABLE
  2
BLOCK_RECORD
  5
1
330
0
100
AcDbSymbolTable
 70
     6
  0
BLOCK_RECORD
  5
1F
330
1
100
AcDbSymbolTableRecord
100
AcDbBlockTableRecord
  2
*Model_Space
340
22
  0
BLOCK_RECORD
  5
1B
330
1
100
AcDbSymbolTableRecord
100
AcDbBlockTableRecord
  2
*Paper_Space
340
1E
  0
BLOCK_RECORD
  5
23
330
1
100
AcDbSymbolTableRecord
100
AcDbBlockTableRecord
  2
*Paper_Space0
340
26
  0
BLOCK_RECORD
  5
132
330
1
100
AcDbSymbolTableRecord
100
AcDbBlockTableRecord
  2
_D
340
0
  0
BLOCK_RECORD
  5
148
330
1
100
AcDbSymbolTableRecord
100
AcDbBlockTableRecord
  2
_D_1
340
0
  0
BLOCK_RECORD
  5
15C
330
1
100
AcDbSymbolTableRecord
100
AcDbBlockTableRecord
  2
_D_2
340
0
  0
BLOCK_RECORD
  5
544
330
1
100
AcDbSymbolTableRecord
100
AcDbBlockTableRecord
  2
_D_3
340
0
  0
BLOCK_RECORD
  5
558
330
1
100
AcDbSymbolTableRecord
100
AcDbBlockTableRecord
  2
_D_4
340
0
  0
ENDTAB
  0
ENDSEC
  0
SECTION
  2
BLOCKS
  0
BLOCK
  5
20
330
1F
100
AcDbEntity
  8
0
100
AcDbBlockBegin
  2
*Model_Space
 70
     0
 10
0.0
 20
0.0
 30
0.0
  3
*Model_Space
  1

  0
ENDBLK
  5
21
330
1F
100
AcDbEntity
  8
0
100
AcDbBlockEnd
  0
BLOCK
  5
1C
330
1B
100
AcDbEntity
 67
     1
  8
0
100
AcDbBlockBegin
  2
*Paper_Space
 70
     0
 10
0.0
 20
0.0
 30
0.0
  3
*Paper_Space
  1

  0
ENDBLK
  5
1D
330
1B
100
AcDbEntity
 67
     1
  8
0
100
AcDbBlockEnd
  0
BLOCK
  5
24
330
23
100
AcDbEntity
  8
0
100
AcDbBlockBegin
  2
*Paper_Space0
 70
     0
 10
0.0
 20
0.0
 30
0.0
  3
*Paper_Space0
  1

  0
ENDBLK
  5
25
330
23
100
AcDbEntity
  8
0
100
AcDbBlockEnd
  0
BLOCK
  5
133
330
132
100
AcDbEntity
  8
0
100
AcDbBlockBegin
  2
_D
 70
     0
 10
0.0
 20
0.0
 30
0.0
  3
_D
  1

  0
SOLID
  5
135
330
132
100
AcDbEntity
  8
0
  6
Continuous
 62
     7
370
    18
100
AcDbTrace
 10
7.9107448592
 20
17.398074097
 30
0.0
 11
7.9907448592
 21
17.918074097
 31
0.0
 12
7.8307448592
 22
17.918074097
 32
0.0
 13
7.8307448592
 23
17.918074097
 33
0.0
  0
SOLID
  5
136
330
132
100
AcDbEntity
  8
0
  6
Continuous
 62
     7
370
    18
100
AcDbTrace
 10
7.9107448592
 20
16.458074097
 30
0.0
 11
7.8307448592
 21
15.938074097
 31
0.0
 12
7.9907448592
 22
15.938074097
 32
0.0
 13
7.9907448592
 23
15.938074097
 33
0.0
  0
LINE
  5
137
330
132
100
AcDbEntity
  8
0
  6
Continuous
 62
     7
370
     0
100
AcDbLine
 10
4.1282081736
 20
19.3627870596
 30
0.0
 11
3.9758644251
 21
19.3627870596
 31
0.0
  0
LINE
  5
138
330
132
100
AcDbEntity
  8
0
  6
Continuous
 62
     7
370
     0
100
AcDbLine
 10
3.9758644251
 20
19.3627870596
 30
0.0
 11
3.9758644251
 21
18.5690370358
 31
0.0
  0
LINE
  5
139
330
132
100
AcDbEntity
  8
0
  6
Continuous
 62
     7
370
     0
100
AcDbLine
 10
3.9758644251
 20
18.5690370358
 30
0.0
 11
4.1282081736
 21
18.5690370358
 31
0.0
  0
LINE
  5
13A
330
132
100
AcDbEntity
  8
0
  6
Continuous
 62
     7
370
     0
100
AcDbLine
 10
6.1170971044
 20
19.3627870596
 30
0.0
 11
6.2694408529
 21
19.3627870596
 31
0.0
  0
LINE
  5
13B
330
132
100
AcDbEntity
  8
0
  6
Continuous
 62
     7
370
     0
100
AcDbLine
 10
6.2694408529
 20
19.3627870596
 30
0.0
 11
6.2694408529
 21
18.5690370358
 31
0.0
  0
LINE
  5
13C
330
132
100
AcDbEntity
  8
0
  6
Continuous
 62
     7
370
     0
100
AcDbLine
 10
6.2694408529
 20
18.5690370358
 30
0.0
 11
6.1170971044
 21
18.5690370358
 31
0.0
  0
LINE
  5
13D
330
132
100
AcDbEntity
  8
0
  6
Continuous
 62
     7
370
     0
100
AcDbLine
 10
9.3183735321
 20
17.398074097
 30
0.0
 11
7.4107448592
 21
17.398074097
 31
0.0
  0
LINE
  5
13E
330
132
100
AcDbEntity
  8
0
  6
Continuous
 62
     7
370
     0
100
AcDbLine
 10
9.2855480088
 20
16.458074097
 30
0.0
 11
7.4107448592
 21
16.458074097
 31
0.0
  0
LINE
  5
13F
330
132
100
AcDbEntity
  8
0
  6
Continuous
 62
     7
370
     0
100
AcDbLine
 10
6.9107448592
 20
19.3666065822
 30
0.0
 11
7.9107448592
 21
19.3666065822
 31
0.0
  0
LINE
  5
140
330
132
100
AcDbEntity
  8
0
  6
Continuous
 62
     7
370
     0
100
AcDbLine
 10
7.9107448592
 20
19.3666065822
 30
0.0
 11
7.9107448592
 21
17.398074097
 31
0.0
  0
LINE
  5
141
330
132
100
AcDbEntity
  8
0
  6
Continuous
 62
     7
370
     0
100
AcDbLine
 10
7.9107448592
 20
16.458074097
 30
0.0
 11
7.9107448592
 21
15.458074097
 31
0.0
  0
MTEXT
  5
142
330
132
100
AcDbEntity
  8
0
  6
Continuous
 62
     7
370
    18
100
AcDbMText
 10
3.6387984539
 20
20.1106603748
 30
0.0
 40
0.5
 41
0.0
 71
     1
 72
     1
  1
 
  7
SLDTEXTSTYLE0
 73
     1
 44
1.0
  0
MTEXT
  5
143
330
132
100
AcDbEntity
  8
0
  6
Continuous
 62
     7
370
    18
100
AcDbMText
 10
4.1348053474
 20
20.1030214489
 30
0.0
 40
0.5
 41
0.0
 71
     1
 72
     1
  1
15/16"
  7
SLDTEXTSTYLE0
 73
     1
 44
1.0
  0
MTEXT
  5
144
330
132
100
AcDbEntity
  8
0
  6
Continuous
 62
     7
370
    18
100
AcDbMText
 10
4.1282081736
 20
19.2077089658
 30
0.0
 40
0.5
 41
0.0
 71
     1
 72
     1
  1
24mm
  7
SLDTEXTSTYLE0
 73
     1
 44
1.0
  0
MTEXT
  5
145
330
132
100
AcDbEntity
  8
0
  6
Continuous
 62
     7
370
    18
100
AcDbMText
 10
6.4217844913
 20
20.1106603748
 30
0.0
 40
0.5
 41
0.0
 71
     1
 72
     1
  1
 
  7
SLDTEXTSTYLE0
 73
     1
 44
1.0
  0
ENDBLK
  5
134
330
132
100
AcDbEntity
  8
0
100
AcDbBlockEnd
  0
BLOCK
  5
149
330
148
100
AcDbEntity
  8
0
100
AcDbBlockBegin
  2
_D_1
 70
     0
 10
0.0
 20
0.0
 30
0.0
  3
_D_1
  1

  0
SOLID
  5
14B
330
148
100
AcDbEntity
  8
0
  6
Continuous
 62
     7
370
    18
100
AcDbTrace
 10
19.4544652084
 20
17.398074097
 30
0.0
 11
19.3744652084
 21
16.878074097
 31
0.0
 12
19.5344652084
 22
16.878074097
 32
0.0
 13
19.5344652084
 23
16.878074097
 33
0.0
  0
SOLID
  5
14C
330
148
100
AcDbEntity
  8
0
  6
Continuous
 62
     7
370
    18
100
AcDbTrace
 10
19.4544652084
 20
4.583074097
 30
0.0
 11
19.5344652084
 21
5.103074097
 31
0.0
 12
19.3744652084
 22
5.103074097
 32
0.0
 13
19.3744652084
 23
5.103074097
 33
0.0
  0
LINE
  5
14D
330
148
100
AcDbEntity
  8
0
  6
Continuous
 62
     7
370
     0
100
AcDbLine
 10
18.2752986302
 20
10.9867545745
 30
0.0
 11
18.1229548818
 21
10.9867545745
 31
0.0
  0
LINE
  5
14E
330
148
100
AcDbEntity
  8
0
  6
Continuous
 62
     7
370
     0
100
AcDbLine
 10
18.1229548818
 20
10.9867545745
 30
0.0
 11
18.1229548818
 21
10.1930045506
 31
0.0
  0
LINE
  5
14F
330
148
100
AcDbEntity
  8
0
  6
Continuous
 62
     7
370
     0
100
AcDbLine
 10
18.1229548818
 20
10.1930045506
 30
0.0
 11
18.2752986302
 21
10.1930045506
 31
0.0
  0
LINE
  5
150
330
148
100
AcDbEntity
  8
0
  6
Continuous
 62
     7
370
     0
100
AcDbLine
 10
20.6336319332
 20
10.9867545745
 30
0.0
 11
20.7859756817
 21
10.9867545745
 31
0.0
  0
LINE
  5
151
330
148
100
AcDbEntity
  8
0
  6
Continuous
 62
     7
370
     0
100
AcDbLine
 10
20.7859756817
 20
10.9867545745
 30
0.0
 11
20.7859756817
 21
10.1930045506
 31
0.0
  0
LINE
  5
152
330
148
100
AcDbEntity
  8
0
  6
Continuous
 62
     7
370
     0
100
AcDbLine
 10
20.7859756817
 20
10.1930045506
 30
0.0
 11
20.6336319332
 21
10.1930045506
 31
0.0
  0
LINE
  5
153
330
148
100
AcDbEntity
  8
0
  6
Continuous
 62
     7
370
     0
100
AcDbLine
 10
16.6527224855
 20
17.398074097
 30
0.0
 11
19.9544652084
 21
17.398074097
 31
0.0
  0
LINE
  5
154
330
148
100
AcDbEntity
  8
0
  6
Continuous
 62
     7
370
     0
100
AcDbLine
 10
16.4980480088
 20
4.583074097
 30
0.0
 11
19.9544652084
 21
4.583074097
 31
0.0
  0
LINE
  5
155
330
148
100
AcDbEntity
  8
0
  6
Continuous
 62
     7
370
     0
100
AcDbLine
 10
19.4544652084
 20
17.398074097
 30
0.0
 11
19.4544652084
 21
11.8897059835
 31
0.0
  0
LINE
  5
156
330
148
100
AcDbEntity
  8
0
  6
Continuous
 62
     7
370
     0
100
AcDbLine
 10
19.4544652084
 20
4.583074097
 30
0.0
 11
19.4544652084
 21
10.0914422105
 31
0.0
  0
MTEXT
  5
157
330
148
100
AcDbEntity
  8
0
  6
Continuous
 62
     7
370
    18
100
AcDbMText
 10
17.7858889106
 20
11.7346278896
 30
0.0
 40
0.5
 41
0.0
 71
     1
 72
     1
  1
 
  7
SLDTEXTSTYLE0
 73
     1
 44
1.0
  0
MTEXT
  5
158
330
148
100
AcDbEntity
  8
0
  6
Continuous
 62
     7
370
    18
100
AcDbMText
 10
18.0048125249
 20
11.7269889637
 30
0.0
 40
0.5
 41
0.0
 71
     1
 72
     1
  1
12 13/16"
  7
SLDTEXTSTYLE0
 73
     1
 44
1.0
  0
MTEXT
  5
159
330
148
100
AcDbEntity
  8
0
  6
Continuous
 62
     7
370
    18
100
AcDbMText
 10
18.2752986302
 20
10.8316764806
 30
0.0
 40
0.5
 41
0.0
 71
     1
 72
     1
  1
326mm
  7
SLDTEXTSTYLE0
 73
     1
 44
1.0
  0
MTEXT
  5
15A
330
148
100
AcDbEntity
  8
0
  6
Continuous
 62
     7
370
    18
100
AcDbMText
 10
20.9383193201
 20
11.7346278896
 30
0.0
 40
0.5
 41
0.0
 71
     1
 72
     1
  1
 
  7
SLDTEXTSTYLE0
 73
     1
 44
1.0
  0
ENDBLK
  5
14A
330
148
100
AcDbEntity
  8
0
100
AcDbBlockEnd
  0
BLOCK
  5
15D
330
15C
100
AcDbEntity
  8
0
100
AcDbBlockBegin
  2
_D_2
 70
     0
 10
0.0
 20
0.0
 30
0.0
  3
_D_2
  1

  0
SOLID
  5
15F
330
15C
100
AcDbEntity
  8
0
  6
Continuous
 62
     7
370
    18
100
AcDbTrace
 10
9.6730480088
 20
3.0082709474
 30
0.0
 11
10.1930480088
 21
2.9282709474
 31
0.0
 12
10.1930480088
 22
3.0882709474
 32
0.0
 13
10.1930480088
 23
3.0882709474
 33
0.0
  0
SOLID
  5
160
330
15C
100
AcDbEntity
  8
0
  6
Continuous
 62
     7
370
    18
100
AcDbTrace
 10
16.2980480088
 20
3.0082709474
 30
0.0
 11
15.7780480088
 21
3.0882709474
 31
0.0
 12
15.7780480088
 22
2.9282709474
 32
0.0
 13
15.7780480088
 23
2.9282709474
 33
0.0
  0
LINE
  5
161
330
15C
100
AcDbEntity
  8
0
  6
Continuous
 62
     7
370
     0
100
AcDbLine
 10
11.806381394
 20
3.0082708741
 30
0.0
 11
11.6540376455
 21
3.0082708741
 31
0.0
  0
LINE
  5
162
330
15C
100
AcDbEntity
  8
0
  6
Continuous
 62
     7
370
     0
100
AcDbLine
 10
11.6540376455
 20
3.0082708741
 30
0.0
 11
11.6540376455
 21
2.2145208502
 31
0.0
  0
LINE
  5
163
330
15C
100
AcDbEntity
  8
0
  6
Continuous
 62
     7
370
     0
100
AcDbLine
 10
11.6540376455
 20
2.2145208502
 30
0.0
 11
11.806381394
 21
2.2145208502
 31
0.0
  0
LINE
  5
164
330
15C
100
AcDbEntity
  8
0
  6
Continuous
 62
     7
370
     0
100
AcDbLine
 10
14.164714697
 20
3.0082708741
 30
0.0
 11
14.3170584454
 21
3.0082708741
 31
0.0
  0
LINE
  5
165
330
15C
100
AcDbEntity
  8
0
  6
Continuous
 62
     7
370
     0
100
AcDbLine
 10
14.3170584454
 20
3.0082708741
 30
0.0
 11
14.3170584454
 21
2.2145208502
 31
0.0
  0
LINE
  5
166
330
15C
100
AcDbEntity
  8
0
  6
Continuous
 62
     7
370
     0
100
AcDbLine
 10
14.3170584454
 20
2.2145208502
 30
0.0
 11
14.164714697
 21
2.2145208502
 31
0.0
  0
LINE
  5
167
330
15C
100
AcDbEntity
  8
0
  6
Continuous
 62
     7
370
     0
100
AcDbLine
 10
9.6730480088
 20
4.383074097
 30
0.0
 11
9.6730480088
 21
2.5082709474
 31
0.0
  0
LINE
  5
168
330
15C
100
AcDbEntity
  8
0
  6
Continuous
 62
     7
370
     0
100
AcDbLine
 10
16.2980480088
 20
4.383074097
 30
0.0
 11
16.2980480088
 21
2.5082709474
 31
0.0
  0
LINE
  5
169
330
15C
100
AcDbEntity
  8
0
  6
Continuous
 62
     7
370
     0
100
AcDbLine
 10
9.6730480088
 20
3.0082709474
 30
0.0
 11
11.4002811698
 21
3.0082709474
 31
0.0
  0
LINE
  5
16A
330
15C
100
AcDbEntity
  8
0
  6
Continuous
 62
     7
370
     0
100
AcDbLine
 10
16.2980480088
 20
3.0082709474
 30
0.0
 11
14.5708148478
 21
3.0082709474
 31
0.0
  0
MTEXT
  5
16B
330
15C
100
AcDbEntity
  8
0
  6
Continuous
 62
     7
370
    18
100
AcDbMText
 10
11.7130306424
 20
3.7485053
 30
0.0
 40
0.5
 41
0.0
 71
     1
 72
     1
  1
%%c
  7
SLDTEXTSTYLE0
 73
     1
 44
1.0
  0
MTEXT
  5
16C
330
15C
100
AcDbEntity
  8
0
  6
Continuous
 62
     7
370
    18
100
AcDbMText
 10
12.4670931247
 20
3.7485053
 30
0.0
 40
0.5
 41
0.0
 71
     1
 72
     1
  1
6 5/8"
  7
SLDTEXTSTYLE0
 73
     1
 44
1.0
  0
MTEXT
  5
16D
330
15C
100
AcDbEntity
  8
0
  6
Continuous
 62
     7
370
    18
100
AcDbMText
 10
11.806381394
 20
2.8531927802
 30
0.0
 40
0.5
 41
0.0
 71
     1
 72
     1
  1
168mm
  7
SLDTEXTSTYLE0
 73
     1
 44
1.0
  0
ENDBLK
  5
15E
330
15C
100
AcDbEntity
  8
0
100
AcDbBlockEnd
  0
BLOCK
  5
545
330
544
100
AcDbEntity
  8
0
100
AcDbBlockBegin
  2
_D_3
 70
     0
 10
0.0
 20
0.0
 30
0.0
  3
_D_3
  1

  0
SOLID
  5
547
330
544
100
AcDbEntity
  8
0
  6
Continuous
 62
     7
370
    18
100
AcDbTrace
 10
16.4855480088
 20
30.8956226902
 30
0.0
 11
15.9655480088
 21
30.9756226902
 31
0.0
 12
15.9655480088
 22
30.8156226902
 32
0.0
 13
15.9655480088
 23
30.8156226902
 33
0.0
  0
SOLID
  5
548
330
544
100
AcDbEntity
  8
0
  6
Continuous
 62
     7
370
    18
100
AcDbTrace
 10
9.4855480088
 20
30.8956226902
 30
0.0
 11
10.0055480088
 21
30.8156226902
 31
0.0
 12
10.0055480088
 22
30.9756226902
 32
0.0
 13
10.0055480088
 23
30.9756226902
 33
0.0
  0
LINE
  5
549
330
544
100
AcDbEntity
  8
0
  6
Continuous
 62
     7
370
     0
100
AcDbLine
 10
11.8063814306
 20
30.8918031676
 30
0.0
 11
11.6540376822
 21
30.8918031676
 31
0.0
  0
LINE
  5
54A
330
544
100
AcDbEntity
  8
0
  6
Continuous
 62
     7
370
     0
100
AcDbLine
 10
11.6540376822
 20
30.8918031676
 30
0.0
 11
11.6540376822
 21
30.0980531437
 31
0.0
  0
LINE
  5
54B
330
544
100
AcDbEntity
  8
0
  6
Continuous
 62
     7
370
     0
100
AcDbLine
 10
11.6540376822
 20
30.0980531437
 30
0.0
 11
11.8063814306
 21
30.0980531437
 31
0.0
  0
LINE
  5
54C
330
544
100
AcDbEntity
  8
0
  6
Continuous
 62
     7
370
     0
100
AcDbLine
 10
14.1647147336
 20
30.8918031676
 30
0.0
 11
14.3170584821
 21
30.8918031676
 31
0.0
  0
LINE
  5
54D
330
544
100
AcDbEntity
  8
0
  6
Continuous
 62
     7
370
     0
100
AcDbLine
 10
14.3170584821
 20
30.8918031676
 30
0.0
 11
14.3170584821
 21
30.0980531437
 31
0.0
  0
LINE
  5
54E
330
544
100
AcDbEntity
  8
0
  6
Continuous
 62
     7
370
     0
100
AcDbLine
 10
14.3170584821
 20
30.0980531437
 30
0.0
 11
14.1647147336
 21
30.0980531437
 31
0.0
  0
LINE
  5
54F
330
544
100
AcDbEntity
  8
0
  6
Continuous
 62
     7
370
     0
100
AcDbLine
 10
16.4855480088
 20
29.1145052519
 30
0.0
 11
16.4855480088
 21
31.3956226902
 31
0.0
  0
LINE
  5
550
330
544
100
AcDbEntity
  8
0
  6
Continuous
 62
     7
370
     0
100
AcDbLine
 10
9.4855480088
 20
29.1145052519
 30
0.0
 11
9.4855480088
 21
31.3956226902
 31
0.0
  0
LINE
  5
551
330
544
100
AcDbEntity
  8
0
  6
Continuous
 62
     7
370
     0
100
AcDbLine
 10
16.4855480088
 20
30.8956226902
 30
0.0
 11
14.7555370339
 21
30.8956226902
 31
0.0
  0
LINE
  5
552
330
544
100
AcDbEntity
  8
0
  6
Continuous
 62
     7
370
     0
100
AcDbLine
 10
9.4855480088
 20
30.8956226902
 30
0.0
 11
11.2155589837
 21
30.8956226902
 31
0.0
  0
MTEXT
  5
553
330
544
100
AcDbEntity
  8
0
  6
Continuous
 62
     7
370
    18
100
AcDbMText
 10
11.316971711
 20
31.6396764828
 30
0.0
 40
0.5
 41
0.0
 71
     1
 72
     1
  1
 
  7
SLDTEXTSTYLE0
 73
     1
 44
1.0
  0
MTEXT
  5
554
330
544
100
AcDbEntity
  8
0
  6
Continuous
 62
     7
370
    18
100
AcDbMText
 10
12.6977008224
 20
31.6320375569
 30
0.0
 40
0.5
 41
0.0
 71
     1
 72
     1
  1
7"
  7
SLDTEXTSTYLE0
 73
     1
 44
1.0
  0
MTEXT
  5
555
330
544
100
AcDbEntity
  8
0
  6
Continuous
 62
     7
370
    18
100
AcDbMText
 10
11.8063814306
 20
30.7367250737
 30
0.0
 40
0.5
 41
0.0
 71
     1
 72
     1
  1
178mm
  7
SLDTEXTSTYLE0
 73
     1
 44
1.0
  0
MTEXT
  5
556
330
544
100
AcDbEntity
  8
0
  6
Continuous
 62
     7
370
    18
100
AcDbMText
 10
14.4694021205
 20
31.6396764828
 30
0.0
 40
0.5
 41
0.0
 71
     1
 72
     1
  1
 
  7
SLDTEXTSTYLE0
 73
     1
 44
1.0
  0
ENDBLK
  5
546
330
544
100
AcDbEntity
  8
0
100
AcDbBlockEnd
  0
BLOCK
  5
559
330
558
100
AcDbEntity
  8
0
100
AcDbBlockBegin
  2
_D_4
 70
     0
 10
0.0
 20
0.0
 30
0.0
  3
_D_4
  1

  0
SOLID
  5
55B
330
558
100
AcDbEntity
  8
0
  6
Continuous
 62
     7
370
    18
100
AcDbTrace
 10
6.7625037891
 20
28.9145052519
 30
0.0
 11
6.6825037891
 21
28.3945052519
 31
0.0
 12
6.8425037891
 22
28.3945052519
 32
0.0
 13
6.8425037891
 23
28.3945052519
 33
0.0
  0
SOLID
  5
55C
330
558
100
AcDbEntity
  8
0
  6
Continuous
 62
     7
370
    18
100
AcDbTrace
 10
6.7625037891
 20
21.9145052519
 30
0.0
 11
6.8425037891
 21
22.4345052519
 31
0.0
 12
6.6825037891
 22
22.4345052519
 32
0.0
 13
6.6825037891
 23
22.4345052519
 33
0.0
  0
LINE
  5
55D
330
558
100
AcDbEntity
  8
0
  6
Continuous
 62
     7
370
     0
100
AcDbLine
 10
5.583337211
 20
25.4106857293
 30
0.0
 11
5.4309934625
 21
25.4106857293
 31
0.0
  0
LINE
  5
55E
330
558
100
AcDbEntity
  8
0
  6
Continuous
 62
     7
370
     0
100
AcDbLine
 10
5.4309934625
 20
25.4106857293
 30
0.0
 11
5.4309934625
 21
24.6169357055
 31
0.0
  0
LINE
  5
55F
330
558
100
AcDbEntity
  8
0
  6
Continuous
 62
     7
370
     0
100
AcDbLine
 10
5.4309934625
 20
24.6169357055
 30
0.0
 11
5.583337211
 21
24.6169357055
 31
0.0
  0
LINE
  5
560
330
558
100
AcDbEntity
  8
0
  6
Continuous
 62
     7
370
     0
100
AcDbLine
 10
7.941670514
 20
25.4106857293
 30
0.0
 11
8.0940142624
 21
25.4106857293
 31
0.0
  0
LINE
  5
561
330
558
100
AcDbEntity
  8
0
  6
Continuous
 62
     7
370
     0
100
AcDbLine
 10
8.0940142624
 20
25.4106857293
 30
0.0
 11
8.0940142624
 21
24.6169357055
 31
0.0
  0
LINE
  5
562
330
558
100
AcDbEntity
  8
0
  6
Continuous
 62
     7
370
     0
100
AcDbLine
 10
8.0940142624
 20
24.6169357055
 30
0.0
 11
7.941670514
 21
24.6169357055
 31
0.0
  0
LINE
  5
563
330
558
100
AcDbEntity
  8
0
  6
Continuous
 62
     7
370
     0
100
AcDbLine
 10
9.2855480088
 20
28.9145052519
 30
0.0
 11
6.2625037891
 21
28.9145052519
 31
0.0
  0
LINE
  5
564
330
558
100
AcDbEntity
  8
0
  6
Continuous
 62
     7
370
     0
100
AcDbLine
 10
9.2855480088
 20
21.9145052519
 30
0.0
 11
6.2625037891
 21
21.9145052519
 31
0.0
  0
LINE
  5
565
330
558
100
AcDbEntity
  8
0
  6
Continuous
 62
     7
370
     0
100
AcDbLine
 10
6.7625037891
 20
28.9145052519
 30
0.0
 11
6.7625037891
 21
26.3136371384
 31
0.0
  0
LINE
  5
566
330
558
100
AcDbEntity
  8
0
  6
Continuous
 62
     7
370
     0
100
AcDbLine
 10
6.7625037891
 20
21.9145052519
 30
0.0
 11
6.7625037891
 21
24.5153733654
 31
0.0
  0
MTEXT
  5
567
330
558
100
AcDbEntity
  8
0
  6
Continuous
 62
     7
370
    18
100
AcDbMText
 10
5.0939274913
 20
26.1585590445
 30
0.0
 40
0.5
 41
0.0
 71
     1
 72
     1
  1
 
  7
SLDTEXTSTYLE0
 73
     1
 44
1.0
  0
MTEXT
  5
568
330
558
100
AcDbEntity
  8
0
  6
Continuous
 62
     7
370
    18
100
AcDbMText
 10
6.4746566027
 20
26.1509201186
 30
0.0
 40
0.5
 41
0.0
 71
     1
 72
     1
  1
7"
  7
SLDTEXTSTYLE0
 73
     1
 44
1.0
  0
MTEXT
  5
569
330
558
100
AcDbEntity
  8
0
  6
Continuous
 62
     7
370
    18
100
AcDbMText
 10
5.583337211
 20
25.2556076355
 30
0.0
 40
0.5
 41
0.0
 71
     1
 72
     1
  1
178mm
  7
SLDTEXTSTYLE0
 73
     1
 44
1.0
  0
MTEXT
  5
56A
330
558
100
AcDbEntity
  8
0
  6
Continuous
 62
     7
370
    18
100
AcDbMText
 10
8.2463579009
 20
26.1585590445
 30
0.0
 40
0.5
 41
0.0
 71
     1
 72
     1
  1
 
  7
SLDTEXTSTYLE0
 73
     1
 44
1.0
  0
ENDBLK
  5
55A
330
558
100
AcDbEntity
  8
0
100
AcDbBlockEnd
  0
ENDSEC
  0
SECTION
  2
ENTITIES
  0
LINE
  5
6E
330
1F
100
AcDbEntity
  8
0
  6
Continuous
 62
     7
370
    25
100
AcDbLine
 10
10.4762340716
 20
16.3086093253
 30
0.0
 11
10.4825640464
 21
16.326000788
 31
0.0
  0
LINE
  5
6F
330
1F
100
AcDbEntity
  8
0
  6
Continuous
 62
     7
370
    25
100
AcDbLine
 10
10.2360673587
 20
16.3647532812
 30
0.0
 11
10.2578580852
 21
16.3457570647
 31
0.0
  0
LINE
  5
70
330
1F
100
AcDbEntity
  8
0
  6
Continuous
 62
     7
370
    25
100
AcDbLine
 10
10.4655675276
 20
16.3048582966
 30
0.0
 11
10.4755898334
 21
16.3082705603
 31
0.0
  0
LINE
  5
71
330
1F
100
AcDbEntity
  8
0
  6
Continuous
 62
     7
370
    25
100
AcDbLine
 10
10.4821277384
 20
16.3265598409
 30
0.0
 11
10.4632379324
 21
16.3430271598
 31
0.0
  0
LINE
  5
72
330
1F
100
AcDbEntity
  8
0
  6
Continuous
 62
     7
370
    25
100
AcDbLine
 10
10.25552849
 20
16.3839259279
 30
0.0
 11
10.2361533745
 21
16.3773293419
 31
0.0
  0
LINE
  5
73
330
1F
100
AcDbEntity
  8
0
  6
Continuous
 62
     7
370
    25
100
AcDbLine
 10
10.4655675276
 20
16.4548582966
 30
0.0
 11
10.4750127928
 21
16.458074097
 31
0.0
  0
LINE
  5
74
330
1F
100
AcDbEntity
  8
0
  6
Continuous
 62
     7
370
    25
100
AcDbLine
 10
10.4855480088
 20
16.3618461274
 30
0.0
 11
10.4855480088
 21
16.3734840347
 31
0.0
  0
LINE
  5
75
330
1F
100
AcDbEntity
  8
0
  6
Continuous
 62
     7
370
    25
100
AcDbLine
 10
10.2355480088
 20
16.4269734109
 30
0.0
 11
10.2355480088
 21
16.4152887682
 31
0.0
  0
LINE
  5
76
330
1F
100
AcDbEntity
  8
0
  6
Continuous
 62
     7
370
    25
100
AcDbLine
 10
10.2360101103
 20
16.4148031878
 30
0.0
 11
10.2578580852
 21
16.3957570647
 31
0.0
  0
LINE
  5
77
330
1F
100
AcDbEntity
  8
0
  6
Continuous
 62
     7
370
    25
100
AcDbLine
 10
10.4655675276
 20
16.3548582966
 30
0.0
 11
10.4849552243
 21
16.3614591661
 31
0.0
  0
LINE
  5
78
330
1F
100
AcDbEntity
  8
0
  6
Continuous
 62
     7
370
    25
100
AcDbLine
 10
10.4850406118
 20
16.4240205234
 30
0.0
 11
10.4632379324
 21
16.4430271598
 31
0.0
  0
LINE
  5
79
330
1F
100
AcDbEntity
  8
0
  6
Continuous
 62
     7
370
    25
100
AcDbLine
 10
10.4855480088
 20
16.4118461274
 30
0.0
 11
10.4855480088
 21
16.4234840347
 31
0.0
  0
LINE
  5
7A
330
1F
100
AcDbEntity
  8
0
  6
Continuous
 62
     7
370
    25
100
AcDbLine
 10
10.4850406118
 20
16.3740205234
 30
0.0
 11
10.4632379324
 21
16.3930271598
 31
0.0
  0
LINE
  5
7B
330
1F
100
AcDbEntity
  8
0
  6
Continuous
 62
     7
370
    25
100
AcDbLine
 10
10.25552849
 20
16.4339259279
 30
0.0
 11
10.2361484119
 21
16.4273276523
 31
0.0
  0
LINE
  5
7C
330
1F
100
AcDbEntity
  8
0
  6
Continuous
 62
     7
370
    25
100
AcDbLine
 10
10.2437291094
 20
16.458074097
 30
0.0
 11
10.2578580852
 21
16.4457570647
 31
0.0
  0
LINE
  5
7D
330
1F
100
AcDbEntity
  8
0
  6
Continuous
 62
     7
370
    25
100
AcDbLine
 10
10.4655675276
 20
16.4048582966
 30
0.0
 11
10.4849552243
 21
16.4114591661
 31
0.0
  0
LINE
  5
7E
330
1F
100
AcDbEntity
  8
0
  6
Continuous
 62
     7
370
    25
100
AcDbLine
 10
10.2541165724
 20
16.2831824483
 30
0.0
 11
10.2577957113
 21
16.273074097
 31
0.0
  0
LINE
  5
7F
330
1F
100
AcDbEntity
  8
0
  6
Continuous
 62
     7
370
    25
100
AcDbLine
 10
10.2379061753
 20
16.3277201483
 30
0.0
 11
10.2456607562
 21
16.3064146122
 31
0.0
  0
LINE
  5
80
330
1F
100
AcDbEntity
  8
0
  6
Continuous
 62
     7
370
    25
100
AcDbLine
 10
10.4633003063
 20
16.273074097
 30
0.0
 11
10.4687388444
 21
16.2880163578
 31
0.0
  0
LINE
  5
81
330
1F
100
AcDbEntity
  8
0
  6
Continuous
 62
     7
370
    25
100
AcDbLine
 10
10.4684108682
 20
16.2885176173
 30
0.0
 11
10.4632379324
 21
16.2930271598
 31
0.0
  0
LINE
  5
82
330
1F
100
AcDbEntity
  8
0
  6
Continuous
 62
     7
370
    25
100
AcDbLine
 10
10.25552849
 20
16.3339259279
 30
0.0
 11
10.2383432848
 21
16.3280749339
 31
0.0
  0
LINE
  5
83
330
1F
100
AcDbEntity
  8
0
  6
Continuous
 62
     7
370
    25
100
AcDbLine
 10
10.2355480088
 20
16.376962834
 30
0.0
 11
10.2355480088
 21
16.3653384474
 31
0.0
  0
LINE
  5
84
330
1F
100
AcDbEntity
  8
0
  6
Continuous
 62
     7
370
    25
100
AcDbLine
 10
10.2576942535
 20
16.3958998861
 30
0.0
 11
10.2553017482
 21
16.3837492528
 31
0.0
  0
LINE
  5
85
330
1F
100
AcDbEntity
  8
0
  6
Continuous
 62
     7
370
    25
100
AcDbLine
 10
10.4633807692
 20
16.3427777133
 30
0.0
 11
10.4657732745
 21
16.3549283466
 31
0.0
  0
LINE
  5
86
330
1F
100
AcDbEntity
  8
0
  6
Continuous
 62
     7
370
    25
100
AcDbLine
 10
10.4633807692
 20
16.4427777133
 30
0.0
 11
10.4657732745
 21
16.4549283466
 31
0.0
  0
LINE
  5
87
330
1F
100
AcDbEntity
  8
0
  6
Continuous
 62
     7
370
    25
100
AcDbLine
 10
10.2576942535
 20
16.4458998861
 30
0.0
 11
10.2553017482
 21
16.4337492528
 31
0.0
  0
LINE
  5
88
330
1F
100
AcDbEntity
  8
0
  6
Continuous
 62
     7
370
    25
100
AcDbLine
 10
10.4633807692
 20
16.3927777133
 30
0.0
 11
10.4657732745
 21
16.4049283466
 31
0.0
  0
LINE
  5
89
330
1F
100
AcDbEntity
  8
0
  6
Continuous
 62
     7
370
    25
100
AcDbLine
 10
10.2576942535
 20
16.3458998861
 30
0.0
 11
10.2553017482
 21
16.3337492528
 31
0.0
  0
LINE
  5
8A
330
1F
100
AcDbEntity
  8
0
  6
Continuous
 62
     7
370
    25
100
AcDbLine
 10
10.4633807692
 20
16.2927777133
 30
0.0
 11
10.4657732745
 21
16.3049283466
 31
0.0
  0
LINE
  5
8B
330
1F
100
AcDbEntity
  8
0
  6
Continuous
 62
     7
370
    25
100
AcDbLine
 10
10.2461550309
 20
16.3059592832
 30
0.0
 11
10.2578580852
 21
16.2957570647
 31
0.0
  0
LINE
  5
8C
330
1F
100
AcDbEntity
  8
0
  6
Continuous
 62
     7
370
    25
100
AcDbLine
 10
10.2576942535
 20
16.2958998861
 30
0.0
 11
10.2553017482
 21
16.2837492528
 31
0.0
  0
LINE
  5
8D
330
1F
100
AcDbEntity
  8
0
  6
Continuous
 62
     7
370
    25
100
AcDbLine
 10
10.2553227431
 20
16.2838558779
 30
0.0
 11
10.2542907053
 21
16.2835045031
 31
0.0
  0
LINE
  5
8E
330
1F
100
AcDbEntity
  8
0
  6
Continuous
 62
     7
370
    25
100
AcDbLine
 10
15.7194088799
 20
16.3114208067
 30
0.0
 11
15.7102043497
 21
16.3167449001
 31
0.0
  0
LINE
  5
8F
330
1F
100
AcDbEntity
  8
0
  6
Continuous
 62
     7
370
    25
100
AcDbLine
 10
15.5109509325
 20
16.3237299
 30
0.0
 11
15.4994769923
 21
16.3181261158
 31
0.0
  0
LINE
  5
90
330
1F
100
AcDbEntity
  8
0
  6
Continuous
 62
     7
370
    25
100
AcDbLine
 10
15.4940136576
 20
16.3109399785
 30
0.0
 11
15.5077957113
 21
16.273074097
 31
0.0
  0
LINE
  5
91
330
1F
100
AcDbEntity
  8
0
  6
Continuous
 62
     7
370
    25
100
AcDbLine
 10
15.7133003063
 20
16.273074097
 30
0.0
 11
15.7245341756
 21
16.3039388993
 31
0.0
  0
LINE
  5
92
330
1F
100
AcDbEntity
  8
0
  6
Continuous
 62
     7
370
    25
100
AcDbLine
 10
15.4951470892
 20
16.3311463191
 30
0.0
 11
15.5046647435
 21
16.3256411081
 31
0.0
  0
LINE
  5
93
330
1F
100
AcDbEntity
  8
0
  6
Continuous
 62
     7
370
    25
100
AcDbLine
 10
15.7166089409
 20
16.318211222
 30
0.0
 11
15.7228576054
 21
16.3212630217
 31
0.0
  0
LINE
  5
94
330
1F
100
AcDbEntity
  8
0
  6
Continuous
 62
     7
370
    25
100
AcDbLine
 10
15.7355480088
 20
16.3822774103
 30
0.0
 11
15.7355480088
 21
16.3970312825
 31
0.0
  0
LINE
  5
95
330
1F
100
AcDbEntity
  8
0
  6
Continuous
 62
     7
370
    25
100
AcDbLine
 10
15.4855480088
 20
16.4064916343
 30
0.0
 11
15.4855480088
 21
16.3917506985
 31
0.0
  0
LINE
  5
96
330
1F
100
AcDbEntity
  8
0
  6
Continuous
 62
     7
370
    25
100
AcDbLine
 10
15.7271175932
 20
16.3569619252
 30
0.0
 11
15.7102043497
 21
16.3667449001
 31
0.0
  0
LINE
  5
97
330
1F
100
AcDbEntity
  8
0
  6
Continuous
 62
     7
370
    25
100
AcDbLine
 10
15.5109509325
 20
16.3737299
 30
0.0
 11
15.4940890926
 21
16.365494707
 31
0.0
  0
LINE
  5
98
330
1F
100
AcDbEntity
  8
0
  6
Continuous
 62
     7
370
    25
100
AcDbLine
 10
15.4939312738
 20
16.3818495722
 30
0.0
 11
15.5046647435
 21
16.3756411081
 31
0.0
  0
LINE
  5
99
330
1F
100
AcDbEntity
  8
0
  6
Continuous
 62
     7
370
    25
100
AcDbLine
 10
15.7166089409
 20
16.368211222
 30
0.0
 11
15.7272307869
 21
16.37339885
 31
0.0
  0
LINE
  5
9A
330
1F
100
AcDbEntity
  8
0
  6
Continuous
 62
     7
370
    25
100
AcDbLine
 10
15.7355480088
 20
16.3341991574
 30
0.0
 11
15.7355480088
 21
16.3470299852
 31
0.0
  0
LINE
  5
9B
330
1F
100
AcDbEntity
  8
0
  6
Continuous
 62
     7
370
    25
100
AcDbLine
 10
15.4855480088
 20
16.3564912252
 30
0.0
 11
15.4855480088
 21
16.3417542659
 31
0.0
  0
LINE
  5
9C
330
1F
100
AcDbEntity
  8
0
  6
Continuous
 62
     7
370
    25
100
AcDbLine
 10
15.4939312738
 20
16.4318495722
 30
0.0
 11
15.5046647435
 21
16.4256411081
 31
0.0
  0
LINE
  5
9D
330
1F
100
AcDbEntity
  8
0
  6
Continuous
 62
     7
370
    25
100
AcDbLine
 10
15.7166089409
 20
16.418211222
 30
0.0
 11
15.7272307869
 21
16.42339885
 31
0.0
  0
LINE
  5
9E
330
1F
100
AcDbEntity
  8
0
  6
Continuous
 62
     7
370
    25
100
AcDbLine
 10
15.7355480088
 20
16.4322774103
 30
0.0
 11
15.7355480088
 21
16.4470312825
 31
0.0
  0
LINE
  5
9F
330
1F
100
AcDbEntity
  8
0
  6
Continuous
 62
     7
370
    25
100
AcDbLine
 10
15.4855480088
 20
16.4564916343
 30
0.0
 11
15.4855480088
 21
16.4417506985
 31
0.0
  0
LINE
  5
A0
330
1F
100
AcDbEntity
  8
0
  6
Continuous
 62
     7
370
    25
100
AcDbLine
 10
15.727159826
 20
16.4069374968
 30
0.0
 11
15.7102043497
 21
16.4167449001
 31
0.0
  0
LINE
  5
A1
330
1F
100
AcDbEntity
  8
0
  6
Continuous
 62
     7
370
    25
100
AcDbLine
 10
15.5109509325
 20
16.4237299
 30
0.0
 11
15.4940744158
 21
16.4154875389
 31
0.0
  0
LINE
  5
A2
330
1F
100
AcDbEntity
  8
0
  6
Continuous
 62
     7
370
    25
100
AcDbLine
 10
15.727159826
 20
16.4569374968
 30
0.0
 11
15.7251948209
 21
16.458074097
 31
0.0
  0
LINE
  5
A3
330
1F
100
AcDbEntity
  8
0
  6
Continuous
 62
     7
370
    25
100
AcDbLine
 10
15.5047907545
 20
16.4292356846
 30
0.0
 11
15.5044870767
 21
16.4205730025
 31
0.0
  0
LINE
  5
A4
330
1F
100
AcDbEntity
  8
0
  6
Continuous
 62
     7
370
    25
100
AcDbLine
 10
15.7164312741
 20
16.4131431164
 30
0.0
 11
15.7167349519
 21
16.4218057984
 31
0.0
  0
LINE
  5
A5
330
1F
100
AcDbEntity
  8
0
  6
Continuous
 62
     7
370
    25
100
AcDbLine
 10
15.5047907545
 20
16.3792356846
 30
0.0
 11
15.5044870767
 21
16.3705730025
 31
0.0
  0
LINE
  5
A6
330
1F
100
AcDbEntity
  8
0
  6
Continuous
 62
     7
370
    25
100
AcDbLine
 10
15.7164312741
 20
16.3631431164
 30
0.0
 11
15.7167349519
 21
16.3718057984
 31
0.0
  0
LINE
  5
A7
330
1F
100
AcDbEntity
  8
0
  6
Continuous
 62
     7
370
    25
100
AcDbLine
 10
15.5047907545
 20
16.3292356846
 30
0.0
 11
15.5044870767
 21
16.3205730025
 31
0.0
  0
LINE
  5
A8
330
1F
100
AcDbEntity
  8
0
  6
Continuous
 62
     7
370
    25
100
AcDbLine
 10
15.7164312741
 20
16.3131431164
 30
0.0
 11
15.7167349519
 21
16.3218057984
 31
0.0
  0
LINE
  5
A9
330
1F
100
AcDbEntity
  8
0
  6
Continuous
 62
     7
370
    25
100
AcDbLine
 10
15.7346565099
 20
16.3317497841
 30
0.0
 11
15.7355480088
 21
16.3341991574
 31
0.0
  0
ARC
  5
AA
330
1F
100
AcDbEntity
  8
0
  6
Continuous
 62
     7
370
    25
100
AcDbCircle
 10
10.5624698464
 20
15.833074097
 30
0.0
 40
0.1804759332986003
100
AcDbArc
 50
135.3260403576
 51
224.6739596424
  0
LINE
  5
AB
330
1F
100
AcDbEntity
  8
0
  6
Continuous
 62
     7
370
    25
100
AcDbLine
 10
10.498299906
 20
15.677074097
 30
0.0
 11
10.5089065077
 21
15.677074097
 31
0.0
  0
LINE
  5
AC
330
1F
100
AcDbEntity
  8
0
  6
Continuous
 62
     7
370
    25
100
AcDbLine
 10
10.5089065077
 20
15.989074097
 30
0.0
 11
10.498299906
 21
15.989074097
 31
0.0
  0
ARC
  5
AD
330
1F
100
AcDbEntity
  8
0
  6
Continuous
 62
     7
370
    25
100
AcDbCircle
 10
15.4086261712
 20
15.833074097
 30
0.0
 40
0.1804759332986041
100
AcDbArc
 50
315.3260403576
 51
24.1264433534
  0
ARC
  5
AE
330
1F
100
AcDbEntity
  8
0
  6
Continuous
 62
     7
370
    25
100
AcDbCircle
 10
15.4086261712
 20
15.833074097
 30
0.0
 40
0.1804759332985981
100
AcDbArc
 50
24.1264433534
 51
44.6739596424
  0
LINE
  5
AF
330
1F
100
AcDbEntity
  8
0
  6
Continuous
 62
     7
370
    25
100
AcDbLine
 10
15.4727961116
 20
15.989074097
 30
0.0
 11
15.4621895099
 21
15.989074097
 31
0.0
  0
LINE
  5
B0
330
1F
100
AcDbEntity
  8
0
  6
Continuous
 62
     7
370
    25
100
AcDbLine
 10
15.4621895099
 20
15.677074097
 30
0.0
 11
15.4727961116
 21
15.677074097
 31
0.0
  0
LINE
  5
B1
330
1F
100
AcDbEntity
  8
0
  6
Continuous
 62
     7
370
    25
100
AcDbLine
 10
16.2980480088
 20
4.583074097
 30
0.0
 11
16.2980480088
 21
16.458074097
 31
0.0
  0
LINE
  5
B2
330
1F
100
AcDbEntity
  8
0
  6
Continuous
 62
     7
370
    25
100
AcDbLine
 10
9.6730480088
 20
16.458074097
 30
0.0
 11
9.6730480088
 21
4.583074097
 31
0.0
  0
LINE
  5
B3
330
1F
100
AcDbEntity
  8
0
  6
Continuous
 62
     7
370
    25
100
AcDbLine
 10
10.4203970278
 20
16.3341991574
 30
0.0
 11
10.3513777689
 21
16.3341991574
 31
0.0
  0
SPLINE
  5
B4
330
1F
100
AcDbEntity
  8
0
  6
Continuous
 62
     7
370
    25
100
AcDbSpline
210
0.0
220
0.0
230
1.0
 70
     8
 71
     3
 72
    14
 73
    10
 74
     0
 42
0.00000001
 43
0.00000001
 40
0.0
 40
0.0
 40
0.0
 40
0.0
 40
0.15545196082395
 40
0.3154042220149502
 40
0.4707819255556803
 40
0.6308063252660521
 40
0.7837993884795447
 40
0.9412925931322028
 40
1.0
 40
1.0
 40
1.0
 40
1.0
 10
10.42039702775666
 20
16.334199157365
 30
0.0
 10
10.42635221158223
 20
16.33320787868643
 30
0.0
 10
10.43843498050649
 20
16.33119662402772
 30
0.0
 10
10.45360567851842
 20
16.32882028707084
 30
0.0
 10
10.46617408559887
 20
16.32701091606789
 30
0.0
 10
10.47538778720214
 20
16.32590292173986
 30
0.0
 10
10.48094501263668
 20
16.32555601296837
 30
0.0
 10
10.48313957423788
 20
16.32573108882655
 30
0.0
 10
10.48223520318339
 20
16.32625810034262
 30
0.0
 10
10.4819896290424
 20
16.32640120576346
 30
0.0
  0
SPLINE
  5
B5
330
1F
100
AcDbEntity
  8
0
  6
Continuous
 62
     7
370
    25
100
AcDbSpline
210
0.0
220
0.0
230
1.0
 70
     8
 71
     3
 72
    17
 73
    13
 74
     0
 42
0.00000001
 43
0.00000001
 40
0.0
 40
0.0
 40
0.0
 40
0.0
 40
0.0757202969369896
 40
0.1828339536888667
 40
0.2930586576121544
 40
0.4002075280028255
 40
0.5103453761318056
 40
0.6197547564458717
 40
0.7321243862015054
 40
0.8455669306291024
 40
0.9620395748988886
 40
1.0
 40
1.0
 40
1.0
 40
1.0
 10
10.47551933424547
 20
16.30847837327292
 30
0.0
 10
10.47517549502784
 20
16.3083605032743
 30
0.0
 10
10.47434526210303
 20
16.30807589480418
 30
0.0
 10
10.46905763641897
 20
16.30855980599253
 30
0.0
 10
10.46052077469856
 20
16.30976828737745
 30
0.0
 10
10.4488453797724
 20
16.31179006694765
 30
0.0
 10
10.43467418414176
 20
16.31452701583059
 30
0.0
 10
10.41808656019447
 20
16.31800128356528
 30
0.0
 10
10.39960125455027
 20
16.32214467987022
 30
0.0
 10
10.37947444944697
 20
16.32695077516651
 30
0.0
 10
10.36314760293132
 20
16.33108266524438
 30
0.0
 10
10.35370002989057
 20
16.33358425421535
 30
0.0
 10
10.35137776892495
 20
16.334199157365
 30
0.0
  0
LINE
  5
B6
330
1F
100
AcDbEntity
  8
0
  6
Continuous
 62
     7
370
    25
100
AcDbLine
 10
10.4641230723
 20
16.3047251368
 30
0.0
 11
10.4655675276
 21
16.3048582966
 31
0.0
  0
ARC
  5
B7
330
1F
100
AcDbEntity
  8
0
  6
Continuous
 62
     7
370
    25
100
AcDbCircle
 10
10.6414190678
 20
17.734937931
 30
0.0
 40
1.44116012524723
100
AcDbArc
 50
254.5648589174
 51
262.9333930356
  0
SPLINE
  5
B8
330
1F
100
AcDbEntity
  8
0
  6
Continuous
 62
     7
370
    25
100
AcDbSpline
210
0.0
220
0.0
230
1.0
 70
     8
 71
     3
 72
    17
 73
    13
 74
     0
 42
0.00000001
 43
0.00000001
 40
0.0
 40
0.0
 40
0.0
 40
0.0
 40
0.0165197622093716
 40
0.1260672947981449
 40
0.2327700758735376
 40
0.3424509249721157
 40
0.4513368201403942
 40
0.5632210838922863
 40
0.675025797421123
 40
0.7899493533331631
 40
0.8937498487307983
 40
1.0
 40
1.0
 40
1.0
 40
1.0
 10
10.23576210365279
 20
16.36533844743983
 30
0.0
 10
10.23569389388481
 20
16.36530990856997
 30
0.0
 10
10.23517336454429
 20
16.36509211983465
 30
0.0
 10
10.23743869068383
 20
16.36391001492495
 30
0.0
 10
10.24273059791237
 20
16.36179095430887
 30
0.0
 10
10.2514360850062
 20
16.35893707251383
 30
0.0
 10
10.26310733796897
 20
16.35549059395489
 30
0.0
 10
10.27749343505158
 20
16.35156303377717
 30
0.0
 10
10.29440603015461
 20
16.34723458619134
 30
0.0
 10
10.31271751406518
 20
16.34281763481339
 30
0.0
 10
10.33191242273389
 20
16.33840821931742
 30
0.0
 10
10.34483906908352
 20
16.33561304399464
 30
0.0
 10
10.35137776892495
 20
16.334199157365
 30
0.0
  0
SPLINE
  5
B9
330
1F
100
AcDbEntity
  8
0
  6
Continuous
 62
     7
370
    25
100
AcDbSpline
210
0.0
220
0.0
230
1.0
 70
     8
 71
     3
 72
    20
 73
    16
 74
     0
 42
0.00000001
 43
0.00000001
 40
0.0
 40
0.0
 40
0.0
 40
0.0
 40
0.0817807613493683
 40
0.1659268019586622
 40
0.247914491037435
 40
0.3322285017899654
 40
0.4150710840400159
 40
0.5003387055912611
 40
0.5827270449009693
 40
0.6675813717987042
 40
0.748618031313907
 40
0.8320973818459199
 40
0.911549315926201
 40
0.9933779137654686
 40
1.0
 40
1.0
 40
1.0
 40
1.0
 10
10.42039702775666
 20
16.334199157365
 30
0.0
 10
10.41405659636041
 20
16.33553258847663
 30
0.0
 10
10.40119235436439
 20
16.3382380164567
 30
0.0
 10
10.38040227892137
 20
16.34271003685065
 30
0.0
 10
10.35898630073671
 20
16.34736060409476
 30
0.0
 10
10.33769234895077
 20
16.35202658574961
 30
0.0
 10
10.31678739857221
 20
16.35664844647275
 30
0.0
 10
10.2972804843706
 20
16.36101359786416
 30
0.0
 10
10.27946542064728
 20
16.36507360688065
 30
0.0
 10
10.26426948614598
 20
16.36863774717303
 30
0.0
 10
10.25184847677313
 20
16.37169355146527
 30
0.0
 10
10.2427033658181
 20
16.37413002773965
 30
0.0
 10
10.23730002691767
 20
16.3758731794427
 30
0.0
 10
10.23506501134135
 20
16.37679860101392
 30
0.0
 10
10.23563581307734
 20
16.37695139474378
 30
0.0
 10
10.23567854760628
 20
16.37696283403637
 30
0.0
  0
LWPOLYLINE
  5
BA
330
1F
100
AcDbEntity
  8
0
  6
Continuous
 62
     7
370
    25
100
AcDbPolyline
 90
        3
 70
   128
 43
0.0
 10
10.4617095722
 20
16.3424678784
 10
10.4632176897
 20
16.3426254985
 10
10.4633807692
 20
16.3427777133
  0
ARC
  5
BB
330
1F
100
AcDbEntity
  8
0
  6
Continuous
 62
     7
370
    25
100
AcDbCircle
 10
10.6195442529
 20
17.6683075481
 30
0.0
 40
1.335201339197315
100
AcDbArc
 50
254.1690674337
 51
263.2111692464
  0
LINE
  5
BC
330
1F
100
AcDbEntity
  8
0
  6
Continuous
 62
     7
370
    25
100
AcDbLine
 10
10.4641230723
 20
16.4547251368
 30
0.0
 11
10.4655675276
 21
16.4548582966
 31
0.0
  0
ARC
  5
BD
330
1F
100
AcDbEntity
  8
0
  6
Continuous
 62
     7
370
    25
100
AcDbCircle
 10
10.4819402079
 20
16.7035564861
 30
0.0
 40
0.2494684162563705
100
AcDbArc
 50
259.7439544717
 51
265.904425288
  0
SPLINE
  5
BE
330
1F
100
AcDbEntity
  8
0
  6
Continuous
 62
     7
370
    25
100
AcDbSpline
210
0.0
220
0.0
230
1.0
 70
     8
 71
     3
 72
    12
 73
     8
 74
     0
 42
0.00000001
 43
0.00000001
 40
0.0
 40
0.0
 40
0.0
 40
0.0
 40
0.2059717524177604
 40
0.4179191077819162
 40
0.6236483082949521
 40
0.8354582644297788
 40
1.0
 40
1.0
 40
1.0
 40
1.0
 10
10.44759999681518
 20
16.36602153042502
 30
0.0
 10
10.45228276552437
 20
16.36528796209139
 30
0.0
 10
10.46178415830238
 20
16.36379954331607
 30
0.0
 10
10.47260373216458
 20
16.36234097712225
 30
0.0
 10
10.48046398322731
 20
16.36150514031684
 30
0.0
 10
10.4849387222063
 20
16.36129997698809
 30
0.0
 10
10.48518220707097
 20
16.36167998645151
 30
0.0
 10
10.48528865915581
 20
16.36184612737242
 30
0.0
  0
SPLINE
  5
BF
330
1F
100
AcDbEntity
  8
0
  6
Continuous
 62
     7
370
    25
100
AcDbSpline
210
0.0
220
0.0
230
1.0
 70
     8
 71
     3
 72
    21
 73
    17
 74
     0
 42
0.00000001
 43
0.00000001
 40
0.0
 40
0.0
 40
0.0
 40
0.0
 40
0.0409117511818511
 40
0.1089725374422636
 40
0.1789494546226474
 40
0.2481065284043482
 40
0.3191699201167994
 40
0.390157918270937
 40
0.4631142474076667
 40
0.5357163625162639
 40
0.6103844679889272
 40
0.6836356117170038
 40
0.7590357194845602
 40
0.8318051711391352
 40
0.9067551710243923
 40
1.0
 40
1.0
 40
1.0
 40
1.0
 10
10.23597169078425
 20
16.41528876823425
 30
0.0
 10
10.23591937463456
 20
16.41512641384147
 30
0.0
 10
10.23578002534208
 20
16.41469396669281
 30
0.0
 10
10.23930421039433
 20
16.41309397357785
 30
0.0
 10
10.24602030899546
 20
16.41066722479639
 30
0.0
 10
10.25604145433339
 20
16.40753993070501
 30
0.0
 10
10.26885424227631
 20
16.40388816486996
 30
0.0
 10
10.28439486801158
 20
16.39976472771956
 30
0.0
 10
10.30214322775218
 20
16.39533659113632
 30
0.0
 10
10.32184334326043
 20
16.39069093005566
 30
0.0
 10
10.34270343591801
 20
16.38602871163497
 30
0.0
 10
10.36437253090452
 20
16.3814314615861
 30
0.0
 10
10.38582013713994
 20
16.37711014463794
 30
0.0
 10
10.40667797502291
 20
16.37312485212586
 30
0.0
 10
10.42801938904002
 20
16.36925373618512
 30
0.0
 10
10.44061639517516
 20
16.36717432597183
 30
0.0
 10
10.44759999681518
 20
16.36602153042502
 30
0.0
  0
SPLINE
  5
C0
330
1F
100
AcDbEntity
  8
0
  6
Continuous
 62
     7
370
    25
100
AcDbSpline
210
0.0
220
0.0
230
1.0
 70
     8
 71
     3
 72
    22
 73
    18
 74
     0
 42
0.00000001
 43
0.00000001
 40
0.0
 40
0.0
 40
0.0
 40
0.0
 40
0.0589413456847686
 40
0.1190393933737499
 40
0.1902364974811957
 40
0.2634144306806704
 40
0.3361182168247279
 40
0.4108869718529977
 40
0.4843121727105896
 40
0.5598878522273911
 40
0.6328914269822271
 40
0.708080691054601
 40
0.7798770012758891
 40
0.8538374315899665
 40
0.9242308500789503
 40
0.996729431490751
 40
1.0
 40
1.0
 40
1.0
 40
1.0
 10
10.44712893905898
 20
16.37875730140844
 30
0.0
 10
10.44281700454909
 20
16.37961537596052
 30
0.0
 10
10.43410851541701
 20
16.38134836445888
 30
0.0
 10
10.41826778727208
 20
16.38463255816492
 30
0.0
 10
10.40000571608588
 20
16.38849555983609
 30
0.0
 10
10.37951931093809
 20
16.39290011049824
 30
0.0
 10
10.35819873494691
 20
16.39753272209463
 30
0.0
 10
10.33691614852409
 20
16.40219733901233
 30
0.0
 10
10.31604063416007
 20
16.40681449352965
 30
0.0
 10
10.29659211245163
 20
16.41116890148762
 30
0.0
 10
10.27885751106194
 20
16.4152139751644
 30
0.0
 10
10.26376032439262
 20
16.41875970686636
 30
0.0
 10
10.25145550704815
 20
16.42179385911362
 30
0.0
 10
10.24242849735124
 20
16.42420832243279
 30
0.0
 10
10.23717489488073
 20
16.42592320710371
 30
0.0
 10
10.23501884479224
 20
16.42682504876764
 30
0.0
 10
10.23559867239808
 20
16.4269672718243
 30
0.0
 10
10.23562370060428
 20
16.42697341086969
 30
0.0
  0
SPLINE
  5
C1
330
1F
100
AcDbEntity
  8
0
  6
Continuous
 62
     7
370
    25
100
AcDbSpline
210
0.0
220
0.0
230
1.0
 70
     8
 71
     3
 72
    13
 73
     9
 74
     0
 42
0.00000001
 43
0.00000001
 40
0.0
 40
0.0
 40
0.0
 40
0.0
 40
0.0686735924524593
 40
0.2785745878859704
 40
0.4788103605793719
 40
0.6848332358621182
 40
0.8411154449852476
 40
0.9999999999999999
 40
0.9999999999999999
 40
0.9999999999999999
 40
0.9999999999999999
 10
10.48517060938083
 20
16.37348403467956
 30
0.0
 10
10.48527402049698
 20
16.37335946110405
 30
0.0
 10
10.48569350793069
 20
16.37285412810458
 30
0.0
 10
10.4828805236983
 20
16.37284249972851
 30
0.0
 10
10.47680439018533
 20
16.3734616654733
 30
0.0
 10
10.46813880390657
 20
16.37483129200702
 30
0.0
 10
10.45813278961596
 20
16.37662283239919
 30
0.0
 10
10.45081702477578
 20
16.37804190595435
 30
0.0
 10
10.44712893905898
 20
16.37875730140844
 30
0.0
  0
LINE
  5
C2
330
1F
100
AcDbEntity
  8
0
  6
Continuous
 62
     7
370
    25
100
AcDbLine
 10
10.4641230723
 20
16.3547251368
 30
0.0
 11
10.4655675276
 21
16.3548582966
 31
0.0
  0
ARC
  5
C3
330
1F
100
AcDbEntity
  8
0
  6
Continuous
 62
     7
370
    25
100
AcDbCircle
 10
10.6414190678
 20
17.784937931
 30
0.0
 40
1.441160125246019
100
AcDbArc
 50
254.5648589174
 51
262.9333930356
  0
LWPOLYLINE
  5
C4
330
1F
100
AcDbEntity
  8
0
  6
Continuous
 62
     7
370
    25
100
AcDbPolyline
 90
        3
 70
   128
 43
0.0
 10
10.4617095722
 20
16.4424678784
 10
10.4632176897
 20
16.4426254985
 10
10.4633807692
 20
16.4427777133
  0
ARC
  5
C5
330
1F
100
AcDbEntity
  8
0
  6
Continuous
 62
     7
370
    25
100
AcDbCircle
 10
10.5697907295
 20
17.3950172215
 30
0.0
 40
0.9586614562165906
100
AcDbArc
 50
257.7808340922
 51
263.5266110583
  0
SPLINE
  5
C6
330
1F
100
AcDbEntity
  8
0
  6
Continuous
 62
     7
370
    25
100
AcDbSpline
210
0.0
220
0.0
230
1.0
 70
     8
 71
     3
 72
    15
 73
    11
 74
     0
 42
0.00000001
 43
0.00000001
 40
0.0
 40
0.0
 40
0.0
 40
0.0
 40
0.1162086840414023
 40
0.2346979203195416
 40
0.3750700424650857
 40
0.5193475647914589
 40
0.6626902593715024
 40
0.8101042440422769
 40
0.9548692789766838
 40
0.9999999999999999
 40
0.9999999999999999
 40
0.9999999999999999
 40
0.9999999999999999
 10
10.44712893905898
 20
16.42875730140844
 30
0.0
 10
10.44281698338955
 20
16.42961537980624
 30
0.0
 10
10.43410845152315
 20
16.43134837607151
 30
0.0
 10
10.41826806886689
 20
16.43463250698541
 30
0.0
 10
10.40000442575734
 20
16.43849579435174
 30
0.0
 10
10.37952423546386
 20
16.44289921547164
 30
0.0
 10
10.35818029374695
 20
16.4475360737604
 30
0.0
 10
10.33698661989193
 20
16.45218453092655
 30
0.0
 10
10.32077292917185
 20
16.45576062110858
 30
0.0
 10
10.31244219023441
 20
16.45762985415678
 30
0.0
 10
10.31046230262182
 20
16.45807409702467
 30
0.0
  0
SPLINE
  5
C7
330
1F
100
AcDbEntity
  8
0
  6
Continuous
 62
     7
370
    25
100
AcDbSpline
210
0.0
220
0.0
230
1.0
 70
     8
 71
     3
 72
    13
 73
     9
 74
     0
 42
0.00000001
 43
0.00000001
 40
0.0
 40
0.0
 40
0.0
 40
0.0
 40
0.0686735924524644
 40
0.2785745878859742
 40
0.4788103605793744
 40
0.6848332358621193
 40
0.8411154449852508
 40
1.0
 40
1.0
 40
1.0
 40
1.0
 10
10.48517060938083
 20
16.42348403467956
 30
0.0
 10
10.48527402049698
 20
16.42335946110405
 30
0.0
 10
10.48569350793069
 20
16.42285412810458
 30
0.0
 10
10.4828805236983
 20
16.42284249972852
 30
0.0
 10
10.47680439018533
 20
16.42346166547329
 30
0.0
 10
10.46813880390657
 20
16.42483129200702
 30
0.0
 10
10.45813278961596
 20
16.42662283239918
 30
0.0
 10
10.45081702477578
 20
16.42804190595435
 30
0.0
 10
10.44712893905898
 20
16.42875730140844
 30
0.0
  0
SPLINE
  5
C8
330
1F
100
AcDbEntity
  8
0
  6
Continuous
 62
     7
370
    25
100
AcDbSpline
210
0.0
220
0.0
230
1.0
 70
     8
 71
     3
 72
    12
 73
     8
 74
     0
 42
0.00000001
 43
0.00000001
 40
0.0
 40
0.0
 40
0.0
 40
0.0
 40
0.2059717524177636
 40
0.417919107781919
 40
0.6236483082949495
 40
0.8354582644297734
 40
1.0
 40
1.0
 40
1.0
 40
1.0
 10
10.44759999681518
 20
16.41602153042501
 30
0.0
 10
10.45228276552437
 20
16.41528796209139
 30
0.0
 10
10.46178415830238
 20
16.41379954331606
 30
0.0
 10
10.47260373216458
 20
16.41234097712225
 30
0.0
 10
10.48046398322731
 20
16.41150514031684
 30
0.0
 10
10.48493872220629
 20
16.41129997698809
 30
0.0
 10
10.48518220707097
 20
16.41167998645151
 30
0.0
 10
10.48528865915581
 20
16.41184612737242
 30
0.0
  0
SPLINE
  5
C9
330
1F
100
AcDbEntity
  8
0
  6
Continuous
 62
     7
370
    25
100
AcDbSpline
210
0.0
220
0.0
230
1.0
 70
     8
 71
     3
 72
    18
 73
    14
 74
     0
 42
0.00000001
 43
0.00000001
 40
0.0
 40
0.0
 40
0.0
 40
0.0
 40
0.0173681637216542
 40
0.1102392335320936
 40
0.2030117732801665
 40
0.2983566783444637
 40
0.3932386694534624
 40
0.4908206546199538
 40
0.586550845917209
 40
0.6850894676104999
 40
0.7801901469029481
 40
0.8781405332256507
 40
1.0
 40
1.0
 40
1.0
 40
1.0
 10
10.25450850703109
 20
16.45807409702467
 30
0.0
 10
10.25512436729723
 20
16.45788046030623
 30
0.0
 10
10.25903335645633
 20
16.45665140905091
 30
0.0
 10
10.26901605567758
 20
16.45385663000095
 30
0.0
 10
10.28435018559311
 20
16.44977343561521
 30
0.0
 10
10.30215526226458
 20
16.44533424580047
 30
0.0
 10
10.32184002127104
 20
16.44069157745878
 30
0.0
 10
10.34270431679163
 20
16.43602853996665
 30
0.0
 10
10.36437228887703
 20
16.43143150875343
 30
0.0
 10
10.38582020012037
 20
16.42711013236405
 30
0.0
 10
10.40667795804553
 20
16.42312485543448
 30
0.0
 10
10.4280193945775
 20
16.41925373510595
 30
0.0
 10
10.44061639715015
 20
16.41717432558693
 30
0.0
 10
10.44759999681518
 20
16.41602153042501
 30
0.0
  0
LWPOLYLINE
  5
CA
330
1F
100
AcDbEntity
  8
0
  6
Continuous
 62
     7
370
    25
100
AcDbPolyline
 90
        3
 70
   128
 43
0.0
 10
10.4617095722
 20
16.3924678784
 10
10.4632176897
 20
16.3926254985
 10
10.4633807692
 20
16.3927777133
  0
ARC
  5
CB
330
1F
100
AcDbEntity
  8
0
  6
Continuous
 62
     7
370
    25
100
AcDbCircle
 10
10.6195442529
 20
17.7183075481
 30
0.0
 40
1.335201339197311
100
AcDbArc
 50
254.1690674337
 51
263.2111692464
  0
LINE
  5
CC
330
1F
100
AcDbEntity
  8
0
  6
Continuous
 62
     7
370
    25
100
AcDbLine
 10
10.4641230723
 20
16.4047251368
 30
0.0
 11
10.4655675276
 21
16.4048582966
 31
0.0
  0
ARC
  5
CD
330
1F
100
AcDbEntity
  8
0
  6
Continuous
 62
     7
370
    25
100
AcDbCircle
 10
10.6414190678
 20
17.834937931
 30
0.0
 40
1.441160125245969
100
AcDbArc
 50
254.5648589174
 51
262.9333930356
  0
SPLINE
  5
CE
330
1F
100
AcDbEntity
  8
0
  6
Continuous
 62
     7
370
    25
100
AcDbSpline
210
0.0
220
0.0
230
1.0
 70
     8
 71
     3
 72
    11
 73
     7
 74
     0
 42
0.00000001
 43
0.00000001
 40
0.0
 40
0.0
 40
0.0
 40
0.0
 40
0.0237216236997555
 40
0.3703476938098195
 40
0.7269775160529008
 40
1.0
 40
1.0
 40
1.0
 40
1.0
 10
10.25430413301625
 20
16.28346475418862
 30
0.0
 10
10.25425383860847
 20
16.28346227224525
 30
0.0
 10
10.25346863021935
 20
16.28342352354846
 30
0.0
 10
10.25456759867073
 20
16.28293579284606
 30
0.0
 10
10.25737240346037
 20
16.28208438514664
 30
0.0
 10
10.26109594353529
 20
16.2812513219941
 30
0.0
 10
10.26271050152283
 20
16.2808900988731
 30
0.0
  0
SPLINE
  5
CF
330
1F
100
AcDbEntity
  8
0
  6
Continuous
 62
     7
370
    25
100
AcDbSpline
210
0.0
220
0.0
230
1.0
 70
     8
 71
     3
 72
    11
 73
     7
 74
     0
 42
0.00000001
 43
0.00000001
 40
0.0
 40
0.0
 40
0.0
 40
0.0
 40
0.2348045865006541
 40
0.4527356505481478
 40
0.6768257932952482
 40
1.0
 40
1.0
 40
1.0
 40
1.0
 10
10.26271050152283
 20
16.2808900988731
 30
0.0
 10
10.26540757650364
 20
16.28081482175029
 30
0.0
 10
10.27060790931747
 20
16.28066967706774
 30
0.0
 10
10.2818475644286
 20
16.28051356183065
 30
0.0
 10
10.29674393521092
 20
16.28044668235763
 30
0.0
 10
10.30971054882386
 20
16.28072546832036
 30
0.0
 10
10.31736768028548
 20
16.2808900988731
 30
0.0
  0
SPLINE
  5
D0
330
1F
100
AcDbEntity
  8
0
  6
Continuous
 62
     7
370
    25
100
AcDbSpline
210
0.0
220
0.0
230
1.0
 70
     8
 71
     3
 72
    15
 73
    11
 74
     0
 42
0.00000001
 43
0.00000001
 40
0.0
 40
0.0
 40
0.0
 40
0.0
 40
0.0641591109298551
 40
0.2178843157115719
 40
0.3761181054625364
 40
0.5286418009507979
 40
0.6859793219356211
 40
0.8318094777575463
 40
0.982403594563267
 40
1.0
 40
1.0
 40
1.0
 40
1.0
 10
10.31736768028548
 20
16.2808900988731
 30
0.0
 10
10.31497657003938
 20
16.28157723263419
 30
0.0
 10
10.30685636057555
 20
16.28391073861903
 30
0.0
 10
10.29360537157656
 20
16.28792711264779
 30
0.0
 10
10.27888949351859
 20
16.29268887074894
 30
0.0
 10
10.26625676266095
 20
16.29710143997254
 30
0.0
 10
10.25638644755078
 20
16.30087604186864
 30
0.0
 10
10.24970236046156
 20
16.30382935387172
 30
0.0
 10
10.24641015924925
 20
16.30552576555069
 30
0.0
 10
10.24621883583739
 20
16.30596353108484
 30
0.0
 10
10.24619881922599
 20
16.3060093309297
 30
0.0
  0
LINE
  5
D1
330
1F
100
AcDbEntity
  8
0
  6
Continuous
 62
     7
370
    25
100
AcDbLine
 10
10.4633003063
 20
16.273074097
 30
0.0
 11
10.2577957113
 21
16.273074097
 31
0.0
  0
SPLINE
  5
D2
330
1F
100
AcDbEntity
  8
0
  6
Continuous
 62
     7
370
    25
100
AcDbSpline
210
0.0
220
0.0
230
1.0
 70
     8
 71
     3
 72
    14
 73
    10
 74
     0
 42
0.00000001
 43
0.00000001
 40
0.0
 40
0.0
 40
0.0
 40
0.0
 40
0.1485584994552774
 40
0.3014288360933175
 40
0.4497442360537774
 40
0.6024909637455842
 40
0.7485874154392944
 40
0.8989913979784463
 40
1.0
 40
1.0
 40
1.0
 40
1.0
 10
10.4081659911871
 20
16.29598754036185
 30
0.0
 10
10.4136453021957
 20
16.29509579563675
 30
0.0
 10
10.42476295851272
 20
16.2932864237357
 30
0.0
 10
10.43897982286197
 20
16.29109165891411
 30
0.0
 10
10.45099953241063
 20
16.2893617217451
 30
0.0
 10
10.46009905004539
 20
16.28822354510805
 30
0.0
 10
10.46610518749081
 20
16.28771276324709
 30
0.0
 10
10.46899760608511
 20
16.28774440845145
 30
0.0
 10
10.46850021479657
 20
16.28820579804441
 30
0.0
 10
10.46830038073177
 20
16.28839116791305
 30
0.0
  0
SPLINE
  5
D3
330
1F
100
AcDbEntity
  8
0
  6
Continuous
 62
     7
370
    25
100
AcDbSpline
210
0.0
220
0.0
230
1.0
 70
     8
 71
     3
 72
    20
 73
    16
 74
     0
 42
0.00000001
 43
0.00000001
 40
0.0
 40
0.0
 40
0.0
 40
0.0
 40
0.0239615805685041
 40
0.1029715581695804
 40
0.179757912609825
 40
0.2587408599038334
 40
0.3360913063329748
 40
0.4156343830471713
 40
0.49390323231404
 40
0.5743892738310705
 40
0.6535948174761748
 40
0.735063320387882
 40
0.8148482876462533
 40
0.896948951336402
 40
1.0
 40
1.0
 40
1.0
 40
1.0
 10
10.23839422768211
 20
16.32792481258804
 30
0.0
 10
10.23818821581655
 20
16.32790197561306
 30
0.0
 10
10.23730290849146
 20
16.3278038368909
 30
0.0
 10
10.23900336047091
 20
16.32711277836565
 30
0.0
 10
10.24354112206383
 20
16.32585473623958
 30
0.0
 10
10.25128642814633
 20
16.32410942586889
 30
0.0
 10
10.26187936868375
 20
16.32193143768283
 30
0.0
 10
10.27497066581602
 20
16.31938731384463
 30
0.0
 10
10.29040098306506
 20
16.31649775854136
 30
0.0
 10
10.30755888518803
 20
16.3133682008521
 30
0.0
 10
10.32622427212744
 20
16.31003048745577
 30
0.0
 10
10.34561545971038
 20
16.3066180991974
 30
0.0
 10
10.36542719777276
 20
16.30318397757781
 30
0.0
 10
10.38677255394509
 20
16.29953470280243
 30
0.0
 10
10.4005164595361
 20
16.29725587938814
 30
0.0
 10
10.4081659911871
 20
16.29598754036185
 30
0.0
  0
LWPOLYLINE
  5
D4
330
1F
100
AcDbEntity
  8
0
  6
Continuous
 62
     7
370
    25
100
AcDbPolyline
 90
        3
 70
   128
 43
0.0
 10
10.4617095722
 20
16.2924678784
 10
10.4632176897
 20
16.2926254985
 10
10.4633807692
 20
16.2927777133
  0
ARC
  5
D5
330
1F
100
AcDbEntity
  8
0
  6
Continuous
 62
     7
370
    25
100
AcDbCircle
 10
10.6195442529
 20
17.6183075481
 30
0.0
 40
1.335201339197311
100
AcDbArc
 50
254.1690674337
 51
263.2111692464
  0
ARC
  5
D6
330
1F
100
AcDbEntity
  8
0
  6
Continuous
 62
     7
370
    25
100
AcDbCircle
 10
10.3940629634
 20
16.7144227109
 30
0.0
 40
0.4402643434471339
100
AcDbArc
 50
251.9786913136
 51
259.9677304334
  0
ARC
  5
D7
330
1F
100
AcDbEntity
  8
0
  6
Continuous
 62
     7
370
    25
100
AcDbCircle
 10
10.2636458303
 20
16.2943422651
 30
0.0
 40
0.0134846437225652
100
AcDbArc
 50
231.7726082687
 51
266.0226268909
  0
SPLINE
  5
D8
330
1F
100
AcDbEntity
  8
0
  6
Continuous
 62
     7
370
    25
100
AcDbSpline
210
0.0
220
0.0
230
1.0
 70
     8
 71
     3
 72
    27
 73
    23
 74
     0
 42
0.00000001
 43
0.00000001
 40
0.0
 40
0.0
 40
0.0
 40
0.0
 40
0.0319126784155138
 40
0.0838566001574652
 40
0.1373266843058229
 40
0.1889060733640415
 40
0.2420165491795569
 40
0.2929771837863219
 40
0.3454513477406773
 40
0.3958002058461303
 40
0.4476312922695991
 40
0.4976108528336263
 40
0.5490407896899284
 40
0.5990233043063308
 40
0.6504356463343863
 40
0.7007853451501884
 40
0.7525622920241928
 40
0.8035098064752726
 40
0.8559005570958399
 40
0.9074577936882143
 40
0.9604880575579448
 40
1.0
 40
1.0
 40
1.0
 40
1.0
 10
15.49437611253785
 20
16.31107190130367
 30
0.0
 10
15.49408315027502
 20
16.31175459622008
 30
0.0
 10
15.49331333650333
 20
16.31354850627329
 30
0.0
 10
15.495850229731
 20
16.31632240598136
 30
0.0
 10
15.50150926802557
 20
16.31926739633399
 30
0.0
 10
15.51053406577526
 20
16.3219043560711
 30
0.0
 10
15.52225954185628
 20
16.32411785461521
 30
0.0
 10
15.5366096296772
 20
16.32590154915141
 30
0.0
 10
15.55280806134405
 20
16.32717865545394
 30
0.0
 10
15.57072273318895
 20
16.32795351347693
 30
0.0
 10
15.58944800104824
 20
16.32819885715559
 30
0.0
 10
15.6088515759344
 20
16.32792055269544
 30
0.0
 10
15.62802765808594
 20
16.32713544108244
 30
0.0
 10
15.64682855157337
 20
16.3258485422352
 30
0.0
 10
15.66443702648484
 20
16.32411106370379
 30
0.0
 10
15.68067408936965
 20
16.32193099433802
 30
0.0
 10
15.69485530711268
 20
16.31938741026057
 30
0.0
 10
15.70677720798069
 20
16.31649781146618
 30
0.0
 10
15.71595015667186
 20
16.31336788147964
 30
0.0
 10
15.72207513931396
 20
16.31003170133513
 30
0.0
 10
15.7250923336169
 20
16.30688474605482
 30
0.0
 10
15.72451532321816
 20
16.30488797366757
 30
0.0
 10
15.72426896209741
 20
16.30403542909597
 30
0.0
  0
ARC
  5
D9
330
1F
100
AcDbEntity
  8
0
  6
Continuous
 62
     7
370
    25
100
AcDbCircle
 10
15.5990498726
 20
15.9913974144
 30
0.0
 40
0.3438114370794878
100
AcDbArc
 50
71.137345039
 51
104.8471936408
  0
SPLINE
  5
DA
330
1F
100
AcDbEntity
  8
0
  6
Continuous
 62
     7
370
    25
100
AcDbSpline
210
0.0
220
0.0
230
1.0
 70
     8
 71
     3
 72
    13
 73
     9
 74
     0
 42
0.00000001
 43
0.00000001
 40
0.0
 40
0.0
 40
0.0
 40
0.0
 40
0.0145780638764935
 40
0.2472446235109194
 40
0.4798874477761196
 40
0.7068145031065938
 40
0.9337252886216758
 40
1.0
 40
1.0
 40
1.0
 40
1.0
 10
15.50520137053938
 20
16.2808900988731
 30
0.0
 10
15.5052334654906
 20
16.28087967884366
 30
0.0
 10
15.50577779731669
 20
16.2807029546725
 30
0.0
 10
15.50806420019845
 20
16.28050416749872
 30
0.0
 10
15.51436954407583
 20
16.28047960282365
 30
0.0
 10
15.52360263169595
 20
16.28061520797344
 30
0.0
 10
15.53248708297628
 20
16.28077671586421
 30
0.0
 10
15.53819992940712
 20
16.28086919412198
 30
0.0
 10
15.53949132087214
 20
16.2808900988731
 30
0.0
  0
SPLINE
  5
DB
330
1F
100
AcDbEntity
  8
0
  6
Continuous
 62
     7
370
    25
100
AcDbSpline
210
0.0
220
0.0
230
1.0
 70
     8
 71
     3
 72
    15
 73
    11
 74
     0
 42
0.00000001
 43
0.00000001
 40
0.0
 40
0.0
 40
0.0
 40
0.0
 40
0.0449061093726939
 40
0.1850902634192617
 40
0.3294239730354032
 40
0.46817307997598
 40
0.6109846894982638
 40
0.749103950935634
 40
0.89120938356831
 40
0.9999999999999999
 40
0.9999999999999999
 40
0.9999999999999999
 40
0.9999999999999999
 10
15.53949132087214
 20
16.2808900988731
 30
0.0
 10
15.54079048041289
 20
16.28104344908491
 30
0.0
 10
15.54614524805988
 20
16.28167551522239
 30
0.0
 10
15.55678589587172
 20
16.28258045624118
 30
0.0
 10
15.5718961476349
 20
16.28333740229376
 30
0.0
 10
15.58818987253144
 20
16.28365600777814
 30
0.0
 10
15.60484869105295
 20
16.28353401276336
 30
0.0
 10
15.62173356882398
 20
16.28296701478095
 30
0.0
 10
15.63700616478248
 20
16.2820786046905
 30
0.0
 10
15.64626464493638
 20
16.28124957364075
 30
0.0
 10
15.65027919903924
 20
16.2808900988731
 30
0.0
  0
SPLINE
  5
DC
330
1F
100
AcDbEntity
  8
0
  6
Continuous
 62
     7
370
    25
100
AcDbSpline
210
0.0
220
0.0
230
1.0
 70
     8
 71
     3
 72
    11
 73
     7
 74
     0
 42
0.00000001
 43
0.00000001
 40
0.0
 40
0.0
 40
0.0
 40
0.0
 40
0.2348045865006575
 40
0.4527356505481487
 40
0.6768257932952517
 40
1.0
 40
1.0
 40
1.0
 40
1.0
 10
15.65027919903924
 20
16.2808900988731
 30
0.0
 10
15.6559907478177
 20
16.28081482175028
 30
0.0
 10
15.66700340217166
 20
16.28066967706774
 30
0.0
 10
15.68139008920715
 20
16.28051356183065
 30
0.0
 10
15.69571406531262
 20
16.28044668235763
 30
0.0
 10
15.70275506529651
 20
16.28072546832036
 30
0.0
 10
15.70691296373532
 20
16.2808900988731
 30
0.0
  0
SPLINE
  5
DD
330
1F
100
AcDbEntity
  8
0
  6
Continuous
 62
     7
370
    25
100
AcDbSpline
210
0.0
220
0.0
230
1.0
 70
     8
 71
     3
 72
    25
 73
    21
 74
     0
 42
0.00000001
 43
0.00000001
 40
0.0
 40
0.0
 40
0.0
 40
0.0
 40
0.026145475984248
 40
0.088790026252222
 40
0.1532718697483602
 40
0.2154267930261612
 40
0.2795433980836595
 40
0.3389706373574338
 40
0.4003392381258828
 40
0.4562757716080268
 40
0.5139691498433187
 40
0.5677781690434464
 40
0.6231404733608262
 40
0.6771953166062781
 40
0.7326994357508014
 40
0.7890457601598119
 40
0.8468590993993108
 40
0.9064055107224764
 40
0.9675394273615073
 40
1.0
 40
1.0
 40
1.0
 40
1.0
 10
15.70691296373532
 20
16.2808900988731
 30
0.0
 10
15.70605473519435
 20
16.28157722625458
 30
0.0
 10
15.70314019140369
 20
16.28391071057428
 30
0.0
 10
15.69614333104575
 20
16.28792742822491
 30
0.0
 10
15.68487418118211
 20
16.29268770092806
 30
0.0
 10
15.67099535614548
 20
16.29710567565362
 30
0.0
 10
15.6554098992156
 20
16.30086016813806
 30
0.0
 10
15.63830227456646
 20
16.30388448934216
 30
0.0
 10
15.62092038316956
 20
16.30596645408475
 30
0.0
 10
15.60327544652537
 20
16.30713587521884
 30
0.0
 10
15.58648273608496
 20
16.3073709824154
 30
0.0
 10
15.5703677445468
 20
16.3067281970286
 30
0.0
 10
15.55562592839738
 20
16.30529055131746
 30
0.0
 10
15.54217098445892
 20
16.30308946811982
 30
0.0
 10
15.53039946140947
 20
16.30021805940466
 30
0.0
 10
15.52046817057404
 20
16.29671785082244
 30
0.0
 10
15.51268478139012
 20
16.29268226417816
 30
0.0
 10
15.50739702581215
 20
16.28820747003341
 30
0.0
 10
15.50516598974152
 20
16.28420381203595
 30
0.0
 10
15.50519225959261
 20
16.28174341666289
 30
0.0
 10
15.50520137053938
 20
16.2808900988731
 30
0.0
  0
LINE
  5
DE
330
1F
100
AcDbEntity
  8
0
  6
Continuous
 62
     7
370
    25
100
AcDbLine
 10
15.592537658
 20
16.273074097
 30
0.0
 11
15.5077957113
 21
16.273074097
 31
0.0
  0
LINE
  5
DF
330
1F
100
AcDbEntity
  8
0
  6
Continuous
 62
     7
370
    25
100
AcDbLine
 10
15.7133003063
 20
16.273074097
 30
0.0
 11
15.592537658
 21
16.273074097
 31
0.0
  0
LWPOLYLINE
  5
E0
330
1F
100
AcDbEntity
  8
0
  6
Continuous
 62
     7
370
    25
100
AcDbPolyline
 90
       27
 70
   128
 43
0.0
 10
15.5047907545
 20
16.3292356846
 10
15.5053649213
 20
16.3312117288
 10
15.5075204404
 20
16.3336265744
 10
15.5112410091
 20
16.3359185438
 10
15.5164702276
 20
16.3380528931
 10
15.5231288262
 20
16.3399972678
 10
15.5311158673
 20
16.3417221931
 10
15.5403102755
 20
16.3432015209
 10
15.550572673
 20
16.3444128261
 10
15.5617474922
 20
16.3453377466
 10
15.5736653344
 20
16.3459622615
 10
15.5861455371
 20
16.3462769037
 10
15.5989989132
 20
16.3462769037
 10
15.6120306187
 20
16.3459622615
 10
15.6250431062
 20
16.3453377466
 10
15.6378391196
 20
16.3444128261
 10
15.6502246843
 20
16.3432015209
 10
15.662012048
 20
16.3417221931
 10
15.673022526
 20
16.3399972678
 10
15.683089211
 20
16.3380528931
 10
15.692059502
 20
16.3359185438
 10
15.6997974187
 20
16.3336265744
 10
15.7061856622
 20
16.3312117288
 10
15.7111273932
 20
16.3287106137
 10
15.7145477
 20
16.3261611433
 10
15.7163947343
 20
16.3236019652
 10
15.7167349519
 20
16.3218057984
  0
SPLINE
  5
E1
330
1F
100
AcDbEntity
  8
0
  6
Continuous
 62
     7
370
    25
100
AcDbSpline
210
0.0
220
0.0
230
1.0
 70
     8
 71
     3
 72
    27
 73
    23
 74
     0
 42
0.00000001
 43
0.00000001
 40
0.0
 40
0.0
 40
0.0
 40
0.0
 40
0.0512506264468215
 40
0.1039846771420941
 40
0.1552846578315549
 40
0.2080863912526009
 40
0.2590940514096464
 40
0.3116419877622827
 40
0.3615721276010657
 40
0.4130309419896034
 40
0.4616012762757083
 40
0.5116331603231897
 40
0.5593372004814129
 40
0.6084215852366857
 40
0.6562313371954358
 40
0.7053754563756373
 40
0.7541633847439099
 40
0.8042947762986011
 40
0.854390524204703
 40
0.9058837153567666
 40
0.9523930554896141
 40
1.0
 40
1.0
 40
1.0
 40
1.0
 10
15.49037990878042
 20
16.334199157365
 30
0.0
 10
15.48876546043216
 20
16.33572261475843
 30
0.0
 10
15.48548983431995
 20
16.33881362527242
 30
0.0
 10
15.48522834062663
 20
16.34352130854037
 30
0.0
 10
15.48844212101169
 20
16.34816936036258
 30
0.0
 10
15.4953163279892
 20
16.35253533335257
 30
0.0
 10
15.50570202270367
 20
16.35654537253857
 30
0.0
 10
15.51905660129266
 20
16.35995681106568
 30
0.0
 10
15.5352110326937
 20
16.36271461555669
 30
0.0
 10
15.5531926932676
 20
16.36465018150546
 30
0.0
 10
15.57286429071894
 20
16.36575626243008
 30
0.0
 10
15.59312078784937
 20
16.36598904022339
 30
0.0
 10
15.61390412432545
 20
16.36537058432826
 30
0.0
 10
15.63425193304867
 20
16.36395693381429
 30
0.0
 10
15.65409013701206
 20
16.36177813305889
 30
0.0
 10
15.67265704171912
 20
16.35894051668723
 30
0.0
 10
15.68975631266725
 20
16.35548964570192
 30
0.0
 10
15.70473748883572
 20
16.35156329038763
 30
0.0
 10
15.7173256895062
 20
16.34723451510774
 30
0.0
 10
15.72658966094523
 20
16.34281765191566
 30
0.0
 10
15.7328828166322
 20
16.3384082151113
 30
0.0
 10
15.73442904924634
 20
16.33561304258174
 30
0.0
 10
15.73521118180226
 20
16.334199157365
 30
0.0
  0
LINE
  5
E2
330
1F
100
AcDbEntity
  8
0
  6
Continuous
 62
     7
370
    25
100
AcDbLine
 10
15.4903799088
 20
16.3341991574
 30
0.0
 11
15.4952762189
 21
16.3313696036
 31
0.0
  0
SPLINE
  5
E3
330
1F
100
AcDbEntity
  8
0
  6
Continuous
 62
     7
370
    25
100
AcDbSpline
210
0.0
220
0.0
230
1.0
 70
     8
 71
     3
 72
    11
 73
     7
 74
     0
 42
0.00000001
 43
0.00000001
 40
0.0
 40
0.0
 40
0.0
 40
0.0
 40
0.0770025793888646
 40
0.4678824150315335
 40
0.8692028215752976
 40
1.0
 40
1.0
 40
1.0
 40
1.0
 10
15.72279271691624
 20
16.3213994834827
 30
0.0
 10
15.7234584147355
 20
16.32167196518474
 30
0.0
 10
15.72750332213769
 20
16.32332761617478
 30
0.0
 10
15.73185305394681
 20
16.32698570986652
 30
0.0
 10
15.73474999129918
 20
16.33108027258689
 30
0.0
 10
15.73512018606668
 20
16.33358378212925
 30
0.0
 10
15.73521118180226
 20
16.334199157365
 30
0.0
  0
SPLINE
  5
E4
330
1F
100
AcDbEntity
  8
0
  6
Continuous
 62
     7
370
    25
100
AcDbSpline
210
0.0
220
0.0
230
1.0
 70
     8
 71
     3
 72
    30
 73
    26
 74
     0
 42
0.00000001
 43
0.00000001
 40
0.0
 40
0.0
 40
0.0
 40
0.0
 40
0.0420213316280335
 40
0.0869422279191348
 40
0.1311694083077372
 40
0.1766795575811219
 40
0.2208618454652186
 40
0.26636750408577
 40
0.309790719713578
 40
0.3545419987252049
 40
0.3967942853168709
 40
0.4403283582855936
 40
0.4816479091128086
 40
0.5241776732751336
 40
0.5653331907708633
 40
0.6076473689864297
 40
0.6494657980167118
 40
0.6924369539733539
 40
0.7353625203757321
 40
0.7794783122315992
 40
0.8233799152361029
 40
0.8685307971168293
 40
0.9128248597176994
 40
0.9584183743523154
 40
1.0
 40
1.0
 40
1.0
 40
1.0
 10
15.49394864682825
 20
16.3818785694322
 30
0.0
 10
15.49180021814801
 20
16.38329632298698
 30
0.0
 10
15.48735511446498
 20
16.38622965822213
 30
0.0
 10
15.48505465138411
 20
16.39083053389199
 30
0.0
 10
15.48611218070942
 20
16.39552248491165
 30
0.0
 10
15.49091175568829
 20
16.4000435271841
 30
0.0
 10
15.49932956687378
 20
16.40430301147584
 30
0.0
 10
15.51096292163306
 20
16.40805293026542
 30
0.0
 10
15.52565814343179
 20
16.41122656800833
 30
0.0
 10
15.54253975781733
 20
16.41362562138779
 30
0.0
 10
15.56145149193963
 20
16.41522951292128
 30
0.0
 10
15.58129174914233
 20
16.4159579536139
 30
0.0
 10
15.60198379574465
 20
16.41582766826434
 30
0.0
 10
15.62250764198267
 20
16.4148713891292
 30
0.0
 10
15.64280817692902
 20
16.41311731956641
 30
0.0
 10
15.662072178276
 20
16.41066098370062
 30
0.0
 10
15.68014173354478
 20
16.40754164745991
 30
0.0
 10
15.69634762844053
 20
16.40388769405648
 30
0.0
 10
15.71041028754107
 20
16.39976488216307
 30
0.0
 10
15.72174005619517
 20
16.39533645540526
 30
0.0
 10
15.73004306775332
 20
16.39069131952572
 30
0.0
 10
15.73490326083615
 20
16.38602725775307
 30
0.0
 10
15.73606648639697
 20
16.38143682524129
 30
0.0
 10
15.73382941794585
 20
16.37716837717061
 30
0.0
 10
15.72934681967409
 20
16.37464573962144
 30
0.0
 10
15.72720866741346
 20
16.37344246802503
 30
0.0
  0
SPLINE
  5
E5
330
1F
100
AcDbEntity
  8
0
  6
Continuous
 62
     7
370
    25
100
AcDbSpline
210
0.0
220
0.0
230
1.0
 70
     8
 71
     3
 72
    27
 73
    23
 74
     0
 42
0.00000001
 43
0.00000001
 40
0.0
 40
0.0
 40
0.0
 40
0.0
 40
0.0055077367775034
 40
0.0613379050534395
 40
0.116164835340346
 40
0.1725975377893302
 40
0.2271096379542494
 40
0.2832538022394144
 40
0.3368644325050943
 40
0.3920910210531367
 40
0.4446541057035697
 40
0.4987891250503142
 40
0.5505501063491135
 40
0.6038318106567374
 40
0.65527676418931
 40
0.7082015403046068
 40
0.7598891777637042
 40
0.813036785491932
 40
0.8654474530266058
 40
0.9193236343224973
 40
0.9727287398048339
 40
1.0
 40
1.0
 40
1.0
 40
1.0
 10
15.73538662312286
 20
16.39703128254891
 30
0.0
 10
15.73543920136521
 20
16.3971853551451
 30
0.0
 10
15.73602474845424
 20
16.39890121243062
 30
0.0
 10
15.73368938833662
 20
16.4022020051505
 30
0.0
 10
15.72808725167532
 20
16.40681322796177
 30
0.0
 10
15.71865697084606
 20
16.41116916631774
 30
0.0
 10
15.70598901377864
 20
16.41521413778264
 30
0.0
 10
15.69063071423726
 20
16.41875876815224
 30
0.0
 10
15.6727874178781
 20
16.4217973042587
 30
0.0
 10
15.6534511982095
 20
16.42419526215984
 30
0.0
 10
15.63276550361589
 20
16.42596988529993
 30
0.0
 10
15.61184036927082
 20
16.42705561962782
 30
0.0
 10
15.59077406182872
 20
16.42747044793436
 30
0.0
 10
15.57059622601056
 20
16.42721010495184
 30
0.0
 10
15.551402499334
 20
16.42628304350994
 30
0.0
 10
15.53403908045123
 20
16.42472996707003
 30
0.0
 10
15.51863322145616
 20
16.42255322767572
 30
0.0
 10
15.50583533015198
 20
16.41982439469664
 30
0.0
 10
15.49574792892865
 20
16.41655440399368
 30
0.0
 10
15.48903159578676
 20
16.41283069765772
 30
0.0
 10
15.485649292961
 20
16.40942970496257
 30
0.0
 10
15.48591336743388
 20
16.40723389140993
 30
0.0
 10
15.48600263327525
 20
16.40649163434082
 30
0.0
  0
SPLINE
  5
E6
330
1F
100
AcDbEntity
  8
0
  6
Continuous
 62
     7
370
    25
100
AcDbSpline
210
0.0
220
0.0
230
1.0
 70
     8
 71
     3
 72
    27
 73
    23
 74
     0
 42
0.00000001
 43
0.00000001
 40
0.0
 40
0.0
 40
0.0
 40
0.0
 40
0.0035024272041334
 40
0.0593009487819769
 40
0.1141256875411282
 40
0.1705553031951995
 40
0.2250794266202909
 40
0.2812355262781946
 40
0.3348651158825509
 40
0.3901112641844818
 40
0.442692091719684
 40
0.4968457814975379
 40
0.548617306440111
 40
0.60191043805241
 40
0.6533558501812016
 40
0.7062816606612172
 40
0.7579597658691524
 40
0.811097974128668
 40
0.8634917856645957
 40
0.9173507679041446
 40
0.9707366234520345
 40
1.0
 40
1.0
 40
1.0
 40
1.0
 10
15.7354412393731
 20
16.34702998516021
 30
0.0
 10
15.73547641199764
 20
16.34712790152778
 30
0.0
 10
15.73607193329893
 20
16.34878576139469
 30
0.0
 10
15.73382024885237
 20
16.35203145272738
 30
0.0
 10
15.72837133435767
 20
16.35664712435645
 30
0.0
 10
15.71906009899284
 20
16.36101388165514
 30
0.0
 10
15.70650652924779
 20
16.36507374954536
 30
0.0
 10
15.69124193931304
 20
16.36863686992969
 30
0.0
 10
15.67347383894869
 20
16.37169678004095
 30
0.0
 10
15.6541895749884
 20
16.37411778619046
 30
0.0
 10
15.63353366445275
 20
16.3759169313617
 30
0.0
 10
15.61261602840504
 20
16.37702741780446
 30
0.0
 10
15.5915354462744
 20
16.37746735209977
 30
0.0
 10
15.57132426504771
 20
16.37723148255397
 30
0.0
 10
15.55207775338734
 20
16.37632844327473
 30
0.0
 10
15.53464584349877
 20
16.3747982568777
 30
0.0
 10
15.51915528008144
 20
16.37264328923005
 30
0.0
 10
15.50625930481606
 20
16.36993464267297
 30
0.0
 10
15.49606400074981
 20
16.36668283725833
 30
0.0
 10
15.48921917430884
 20
16.36297548805306
 30
0.0
 10
15.4857080806127
 20
16.35953334296674
 30
0.0
 10
15.48592395404155
 20
16.35728669083398
 30
0.0
 10
15.48600038772732
 20
16.35649122515733
 30
0.0
  0
ARC
  5
E7
330
1F
100
AcDbEntity
  8
0
  6
Continuous
 62
     7
370
    25
100
AcDbCircle
 10
15.5990498726
 20
16.0413974144
 30
0.0
 40
0.3438114370795252
100
AcDbArc
 50
71.137345039
 51
104.8471936408
  0
LWPOLYLINE
  5
E8
330
1F
100
AcDbEntity
  8
0
  6
Continuous
 62
     7
370
    25
100
AcDbPolyline
 90
       27
 70
   128
 43
0.0
 10
15.5047907545
 20
16.3792356846
 10
15.5053649213
 20
16.3812117288
 10
15.5075204404
 20
16.3836265744
 10
15.5112410091
 20
16.3859185438
 10
15.5164702276
 20
16.3880528931
 10
15.5231288262
 20
16.3899972678
 10
15.5311158673
 20
16.3917221931
 10
15.5403102755
 20
16.3932015209
 10
15.550572673
 20
16.3944128261
 10
15.5617474922
 20
16.3953377466
 10
15.5736653344
 20
16.3959622615
 10
15.5861455371
 20
16.3962769037
 10
15.5989989132
 20
16.3962769037
 10
15.6120306187
 20
16.3959622615
 10
15.6250431062
 20
16.3953377466
 10
15.6378391196
 20
16.3944128261
 10
15.6502246843
 20
16.3932015209
 10
15.662012048
 20
16.3917221931
 10
15.673022526
 20
16.3899972678
 10
15.683089211
 20
16.3880528931
 10
15.692059502
 20
16.3859185438
 10
15.6997974187
 20
16.3836265744
 10
15.7061856622
 20
16.3812117288
 10
15.7111273932
 20
16.3787106137
 10
15.7145477
 20
16.3761611433
 10
15.7163947343
 20
16.3736019652
 10
15.7167349519
 20
16.3718057984
  0
LINE
  5
E9
330
1F
100
AcDbEntity
  8
0
  6
Continuous
 62
     7
370
    25
100
AcDbLine
 10
15.7355480088
 20
16.3341991574
 30
0.0
 11
15.7352111818
 21
16.3341991574
 31
0.0
  0
LWPOLYLINE
  5
EA
330
1F
100
AcDbEntity
  8
0
  6
Continuous
 62
     7
370
    25
100
AcDbPolyline
 90
       27
 70
   128
 43
0.0
 10
15.5047907545
 20
16.4292356846
 10
15.5053649213
 20
16.4312117288
 10
15.5075204404
 20
16.4336265744
 10
15.5112410091
 20
16.4359185438
 10
15.5164702276
 20
16.4380528931
 10
15.5231288262
 20
16.4399972678
 10
15.5311158673
 20
16.4417221931
 10
15.5403102755
 20
16.4432015209
 10
15.550572673
 20
16.4444128261
 10
15.5617474922
 20
16.4453377466
 10
15.5736653344
 20
16.4459622615
 10
15.5861455371
 20
16.4462769037
 10
15.5989989132
 20
16.4462769037
 10
15.6120306187
 20
16.4459622615
 10
15.6250431062
 20
16.4453377466
 10
15.6378391196
 20
16.4444128261
 10
15.6502246843
 20
16.4432015209
 10
15.662012048
 20
16.4417221931
 10
15.673022526
 20
16.4399972678
 10
15.683089211
 20
16.4380528931
 10
15.692059502
 20
16.4359185438
 10
15.6997974187
 20
16.4336265744
 10
15.7061856622
 20
16.4312117288
 10
15.7111273932
 20
16.4287106137
 10
15.7145477
 20
16.4261611433
 10
15.7163947343
 20
16.4236019652
 10
15.7167349519
 20
16.4218057984
  0
SPLINE
  5
EB
330
1F
100
AcDbEntity
  8
0
  6
Continuous
 62
     7
370
    25
100
AcDbSpline
210
0.0
220
0.0
230
1.0
 70
     8
 71
     3
 72
    14
 73
    10
 74
     0
 42
0.00000001
 43
0.00000001
 40
0.0
 40
0.0
 40
0.0
 40
0.0
 40
0.1572091250801673
 40
0.32526602689976
 40
0.4907276166275935
 40
0.660989016548666
 40
0.8262826555932976
 40
0.9965272551994915
 40
1.0
 40
1.0
 40
1.0
 40
1.0
 10
15.49394864682825
 20
16.4318785694322
 30
0.0
 10
15.4918005220062
 20
16.43329625597461
 30
0.0
 10
15.48735604700643
 20
16.43622945256101
 30
0.0
 10
15.48505064512123
 20
16.44083141742644
 30
0.0
 10
15.48612709315074
 20
16.44551919614704
 30
0.0
 10
15.49085497105657
 20
16.45005605037082
 30
0.0
 10
15.49953702386501
 20
16.45425725926154
 30
0.0
 10
15.50678065625081
 20
16.45695908717113
 30
0.0
 10
15.51187263402392
 20
16.45805224397019
 30
0.0
 10
15.51197442661922
 20
16.45807409702466
 30
0.0
  0
SPLINE
  5
EC
330
1F
100
AcDbEntity
  8
0
  6
Continuous
 62
     7
370
    25
100
AcDbSpline
210
0.0
220
0.0
230
1.0
 70
     8
 71
     3
 72
    16
 73
    12
 74
     0
 42
0.00000001
 43
0.00000001
 40
0.0
 40
0.0
 40
0.0
 40
0.0
 40
0.022411765004683
 40
0.142251986785281
 40
0.2619650660170641
 40
0.3849975086483083
 40
0.5074326101357344
 40
0.6333517663165792
 40
0.7568813797858549
 40
0.8840349734914196
 40
1.0
 40
1.0
 40
1.0
 40
1.0
 10
15.67624970979614
 20
16.45807409702467
 30
0.0
 10
15.67739556784521
 20
16.45788046034216
 30
0.0
 10
15.68466855968769
 20
16.45665140931492
 30
0.0
 10
15.69624979743248
 20
16.45385662268692
 30
0.0
 10
15.71043730214981
 20
16.44977346206946
 30
0.0
 10
15.72173278023924
 20
16.4453341445437
 30
0.0
 10
15.73004507616956
 20
16.44069195740368
 30
0.0
 10
15.73490272838337
 20
16.43602708864475
 30
0.0
 10
15.73606663229634
 20
16.43143687157929
 30
0.0
 10
15.73382938479351
 20
16.42716836664134
 30
0.0
 10
15.72934680896763
 20
16.42464573622104
 30
0.0
 10
15.72720866741346
 20
16.42344246802503
 30
0.0
  0
SPLINE
  5
ED
330
1F
100
AcDbEntity
  8
0
  6
Continuous
 62
     7
370
    25
100
AcDbSpline
210
0.0
220
0.0
230
1.0
 70
     8
 71
     3
 72
    11
 73
     7
 74
     0
 42
0.00000001
 43
0.00000001
 40
0.0
 40
0.0
 40
0.0
 40
0.0
 40
0.0413316216299256
 40
0.4602970667727216
 40
0.8717339290070699
 40
1.0
 40
1.0
 40
1.0
 40
1.0
 10
15.73538662312286
 20
16.44703128254891
 30
0.0
 10
15.73543946344064
 20
16.44718537504961
 30
0.0
 10
15.73602792918006
 20
16.44890145400528
 30
0.0
 10
15.73351342294233
 20
16.45218864066034
 30
0.0
 10
15.72983832774039
 20
16.45576035903138
 30
0.0
 10
15.72563085656849
 20
16.45762980383167
 30
0.0
 10
15.72463090685021
 20
16.45807409702466
 30
0.0
  0
LINE
  5
EE
330
1F
100
AcDbEntity
  8
0
  6
Continuous
 62
     7
370
    25
100
AcDbLine
 10
15.4859984126
 20
16.458074097
 30
0.0
 11
15.4860026333
 21
16.4564916343
 31
0.0
  0
ARC
  5
EF
330
1F
100
AcDbEntity
  8
0
  6
Continuous
 62
     7
370
    25
100
AcDbCircle
 10
15.5990498726
 20
16.0913974144
 30
0.0
 40
0.3438114370794381
100
AcDbArc
 50
71.137345039
 51
104.8471936408
  0
ARC
  5
F0
330
1F
100
AcDbEntity
  8
0
  6
Continuous
 62
     7
370
    25
100
AcDbCircle
 10
15.6060571671
 20
15.9998357559
 30
0.0
 40
0.298602470584795
100
AcDbArc
 50
70.2595756492
 51
109.7404243508
  0
ARC
  5
F1
330
1F
100
AcDbEntity
  8
0
  6
Continuous
 62
     7
370
    25
100
AcDbCircle
 10
15.59488526
 20
15.8055904085
 30
0.0
 40
0.4785167542703707
100
AcDbArc
 50
83.3524361733
 51
96.6475638267
  0
LINE
  5
F2
330
1F
100
AcDbEntity
  8
0
  6
Continuous
 62
     7
370
    25
100
AcDbLine
 10
9.5183735321
 20
17.398074097
 30
0.0
 11
16.4527224855
 21
17.398074097
 31
0.0
  0
LINE
  5
F3
330
1F
100
AcDbEntity
  8
0
  6
Continuous
 62
     7
370
    25
100
AcDbLine
 10
16.4527224855
 20
17.398074097
 30
0.0
 11
16.4855480088
 21
16.458074097
 31
0.0
  0
LINE
  5
F4
330
1F
100
AcDbEntity
  8
0
  6
Continuous
 62
     7
370
    25
100
AcDbLine
 10
9.4855480088
 20
16.458074097
 30
0.0
 11
16.4855480088
 21
16.458074097
 31
0.0
  0
LINE
  5
F5
330
1F
100
AcDbEntity
  8
0
  6
Continuous
 62
     7
370
    25
100
AcDbLine
 10
9.5183735321
 20
17.398074097
 30
0.0
 11
9.4855480088
 21
16.458074097
 31
0.0
  0
LINE
  5
F6
330
1F
100
AcDbEntity
  8
0
  6
Continuous
 62
     7
370
    25
100
AcDbLine
 10
10.7740715506
 20
15.458074097
 30
0.0
 11
10.7740715506
 21
16.458074097
 31
0.0
  0
LINE
  5
F7
330
1F
100
AcDbEntity
  8
0
  6
Continuous
 62
     7
370
    25
100
AcDbLine
 10
10.2437414648
 20
15.458074097
 30
0.0
 11
10.2437414648
 21
16.3116878222
 31
0.0
  0
LINE
  5
F8
330
1F
100
AcDbEntity
  8
0
  6
Continuous
 62
     7
370
    25
100
AcDbLine
 10
10.2437414648
 20
16.3299128356
 30
0.0
 11
10.2437414648
 21
16.3580633262
 31
0.0
  0
LINE
  5
F9
330
1F
100
AcDbEntity
  8
0
  6
Continuous
 62
     7
370
    25
100
AcDbLine
 10
10.2437414648
 20
16.3799128356
 30
0.0
 11
10.2437414648
 21
16.4080633262
 31
0.0
  0
LINE
  5
FA
330
1F
100
AcDbEntity
  8
0
  6
Continuous
 62
     7
370
    25
100
AcDbLine
 10
10.2437414648
 20
16.4299128356
 30
0.0
 11
10.2437414648
 21
16.4580633262
 31
0.0
  0
LINE
  5
FB
330
1F
100
AcDbEntity
  8
0
  6
Continuous
 62
     7
370
    25
100
AcDbLine
 10
10.7740715506
 20
15.458074097
 30
0.0
 11
10.2437414648
 21
15.458074097
 31
0.0
  0
LINE
  5
FC
330
1F
100
AcDbEntity
  8
0
  6
Continuous
 62
     7
370
    25
100
AcDbLine
 10
10.9084218391
 20
15.458074097
 30
0.0
 11
10.9084218391
 21
16.458074097
 31
0.0
  0
LINE
  5
FD
330
1F
100
AcDbEntity
  8
0
  6
Continuous
 62
     7
370
    25
100
AcDbLine
 10
10.9084218391
 20
15.458074097
 30
0.0
 11
10.7740715506
 21
15.458074097
 31
0.0
  0
LINE
  5
FE
330
1F
100
AcDbEntity
  8
0
  6
Continuous
 62
     7
370
    25
100
AcDbLine
 10
15.7273545529
 20
15.458074097
 30
0.0
 11
15.7273545529
 21
16.3240811535
 31
0.0
  0
LINE
  5
FF
330
1F
100
AcDbEntity
  8
0
  6
Continuous
 62
     7
370
    25
100
AcDbLine
 10
15.7273545529
 20
16.3567727871
 30
0.0
 11
15.7273545529
 21
16.3735361222
 31
0.0
  0
LINE
  5
100
330
1F
100
AcDbEntity
  8
0
  6
Continuous
 62
     7
370
    25
100
AcDbLine
 10
15.7273545529
 20
16.4068056162
 30
0.0
 11
15.7273545529
 21
16.4235361222
 31
0.0
  0
LINE
  5
101
330
1F
100
AcDbEntity
  8
0
  6
Continuous
 62
     7
370
    25
100
AcDbLine
 10
15.7273545529
 20
16.4568056162
 30
0.0
 11
15.7273545529
 21
16.458074097
 31
0.0
  0
LINE
  5
102
330
1F
100
AcDbEntity
  8
0
  6
Continuous
 62
     7
370
    25
100
AcDbLine
 10
15.7273545529
 20
15.458074097
 30
0.0
 11
15.197024467
 21
15.458074097
 31
0.0
  0
LINE
  5
103
330
1F
100
AcDbEntity
  8
0
  6
Continuous
 62
     7
370
    25
100
AcDbLine
 10
15.197024467
 20
15.458074097
 30
0.0
 11
15.197024467
 21
16.458074097
 31
0.0
  0
LINE
  5
104
330
1F
100
AcDbEntity
  8
0
  6
Continuous
 62
     7
370
    25
100
AcDbLine
 10
15.197024467
 20
15.458074097
 30
0.0
 11
15.0626741785
 21
15.458074097
 31
0.0
  0
LINE
  5
105
330
1F
100
AcDbEntity
  8
0
  6
Continuous
 62
     7
370
    25
100
AcDbLine
 10
15.0626741785
 20
15.458074097
 30
0.0
 11
15.0626741785
 21
16.458074097
 31
0.0
  0
LWPOLYLINE
  5
106
330
1F
100
AcDbEntity
  8
0
  6
Continuous
 62
     7
370
    25
100
AcDbPolyline
 90
       44
 70
   128
 43
0.0
 10
10.4939824164
 20
15.8748109068
 10
10.489188842
 20
15.8839603979
 10
10.4835043599
 20
15.8920253358
 10
10.4770501249
 20
15.8988338303
 10
10.4699636979
 20
15.9042407704
 10
10.4623961136
 20
15.9081309163
 10
10.4545086622
 20
15.9104213565
 10
10.4464694508
 20
15.9110632741
 10
10.4384498214
 20
15.9100429878
 10
10.4306206983
 20
15.9073822432
 10
10.4231489458
 20
15.9031377495
 10
10.4161938113
 20
15.8973999706
 10
10.4099035315
 20
15.8902911975
 10
10.4044121726
 20
15.8819629412
 10
10.3998367735
 20
15.8725927041
 10
10.3962748509
 20
15.8623801965
 10
10.393802321
 20
15.8515430802
 10
10.3924718814
 20
15.8403123296
 10
10.3923118882
 20
15.8289273087
 10
10.3933257514
 20
15.8176306694
 10
10.3954918621
 20
15.8066631799
 10
10.3987640536
 20
15.7962585932
 10
10.4030725847
 20
15.7866386651
 10
10.4083256266
 20
15.7780084276
 10
10.4144112198
 20
15.7705518193
 10
10.4211996605
 20
15.7644277648
 10
10.4285462647
 20
15.7597667876
 10
10.4362944526
 20
15.7566682285
 10
10.4442790847
 20
15.7551981278
 10
10.4523299826
 20
15.7553878182
 10
10.4602755554
 20
15.7572332567
 10
10.467946457
 20
15.7606951111
 10
10.4751791954
 20
15.7656995979
 10
10.4818196173
 20
15.7721400552
 10
10.4877261937
 20
15.7798792158
 10
10.4927730363
 20
15.788752133
 10
10.4968525802
 20
15.7985696958
 10
10.499877877
 20
15.8091226601
 10
10.501784448
 20
15.8201861076
 10
10.5025316577
 20
15.8315242403
 10
10.5021035808
 20
15.8428954055
 10
10.5005093408
 20
15.8540572465
 10
10.4977829164
 20
15.8647718682
 10
10.4939824164
 20
15.8748109068
  0
LWPOLYLINE
  5
107
330
1F
100
AcDbEntity
  8
0
  6
Continuous
 62
     7
370
    25
100
AcDbPolyline
 90
       18
 70
   128
 43
0.0
 10
10.5914883034
 20
15.9165477167
 10
10.5850387477
 20
15.9294522412
 10
10.5776991341
 20
15.9413677956
 10
10.569544777
 20
15.9521721101
 10
10.5606593511
 20
15.9617543178
 10
10.5511340328
 20
15.9700160923
 10
10.541066565
 20
15.9768726567
 10
10.5305602534
 20
15.9822536532
 10
10.5197229069
 20
15.9861038656
 10
10.5086657315
 20
15.9883837855
 10
10.4975021887
 20
15.9890700178
 10
10.4863468315
 20
15.9881555209
 10
10.475314129
 20
15.9856496787
 10
10.4645172918
 20
15.9815782045
 10
10.4540671098
 20
15.9759828773
 10
10.4440708162
 20
15.9689211126
 10
10.4346309865
 20
15.9604653737
 10
10.4341299656
 20
15.9599615964
  0
LWPOLYLINE
  5
108
330
1F
100
AcDbEntity
  8
0
  6
Continuous
 62
     7
370
    25
100
AcDbPolyline
 90
       29
 70
   128
 43
0.0
 10
10.4341299656
 20
15.7061865976
 10
10.4359404609
 20
15.7043938762
 10
10.4454657791
 20
15.6961321017
 10
10.455533247
 20
15.6892755374
 10
10.4660395586
 20
15.6838945409
 10
10.4768769051
 20
15.6800443285
 10
10.4879340805
 20
15.6777644086
 10
10.4990976233
 20
15.6770781763
 10
10.5102529805
 20
15.6779926732
 10
10.5212856829
 20
15.6804985154
 10
10.5320825202
 20
15.6845699895
 10
10.5425327022
 20
15.6901653167
 10
10.5525289958
 20
15.6972270814
 10
10.5619688255
 20
15.7056828203
 10
10.570755326
 20
15.7154457661
 10
10.5787983358
 20
15.7264157378
 10
10.5860153228
 20
15.7384801685
 10
10.5923322309
 20
15.751515261
 10
10.5976842401
 20
15.7653872575
 10
10.6020164316
 20
15.7799538125
 10
10.6052843512
 20
15.7950654536
 10
10.6074544656
 20
15.8105671147
 10
10.6085045064
 20
15.826299728
 10
10.608423699
 20
15.8421018555
 10
10.6072128724
 20
15.8578113459
 10
10.6048844514
 20
15.8732669987
 10
10.6014623288
 20
15.8883102179
 10
10.59698162
 20
15.9027866398
 10
10.5914883034
 20
15.9165477167
  0
ARC
  5
109
330
1F
100
AcDbEntity
  8
0
  6
Continuous
 62
     7
370
    25
100
AcDbCircle
 10
10.4994820477
 20
15.8808331106
 30
0.0
 40
0.1086505020369898
100
AcDbArc
 50
19.1905520329
 51
85.0238497478
  0
LWPOLYLINE
  5
10A
330
1F
100
AcDbEntity
  8
0
  6
Continuous
 62
     7
370
    25
100
AcDbPolyline
 90
       23
 70
   128
 43
0.0
 10
10.5089065077
 20
15.677074097
 10
10.509704225
 20
15.6770781763
 10
10.5208595822
 20
15.6779926732
 10
10.5318922847
 20
15.6804985154
 10
10.5426891219
 20
15.6845699895
 10
10.5531393039
 20
15.6901653167
 10
10.5631355975
 20
15.6972270814
 10
10.5725754272
 20
15.7056828203
 10
10.5813619277
 20
15.7154457661
 10
10.5894049375
 20
15.7264157378
 10
10.5966219245
 20
15.7384801685
 10
10.6029388326
 20
15.751515261
 10
10.6082908419
 20
15.7653872575
 10
10.6126230333
 20
15.7799538125
 10
10.6158909529
 20
15.7950654536
 10
10.6180610673
 20
15.8105671147
 10
10.6191111082
 20
15.826299728
 10
10.6190303007
 20
15.8421018555
 10
10.6178194741
 20
15.8578113459
 10
10.6154910531
 20
15.8732669987
 10
10.6120689305
 20
15.8883102179
 10
10.6075882218
 20
15.9027866398
 10
10.6020949051
 20
15.9165477167
  0
LINE
  5
10B
330
1F
100
AcDbEntity
  8
0
  6
Continuous
 62
     7
370
    25
100
AcDbLine
 10
10.4268540608
 20
15.8789219992
 30
0.0
 11
10.4651971308
 21
15.8811471515
 31
0.0
  0
LINE
  5
10C
330
1F
100
AcDbEntity
  8
0
  6
Continuous
 62
     7
370
    25
100
AcDbLine
 10
10.4090451478
 20
15.8308489448
 30
0.0
 11
10.4268540608
 21
15.8789219992
 31
0.0
  0
LINE
  5
10D
330
1F
100
AcDbEntity
  8
0
  6
Continuous
 62
     7
370
    25
100
AcDbLine
 10
10.4295793047
 20
15.7850010426
 30
0.0
 11
10.4090451478
 21
15.8308489448
 31
0.0
  0
LINE
  5
10E
330
1F
100
AcDbEntity
  8
0
  6
Continuous
 62
     7
370
    25
100
AcDbLine
 10
10.4679223746
 20
15.7872261948
 30
0.0
 11
10.4295793047
 21
15.7850010426
 31
0.0
  0
LINE
  5
10F
330
1F
100
AcDbEntity
  8
0
  6
Continuous
 62
     7
370
    25
100
AcDbLine
 10
10.4857312877
 20
15.8352992493
 30
0.0
 11
10.4679223746
 21
15.7872261948
 31
0.0
  0
LINE
  5
110
330
1F
100
AcDbEntity
  8
0
  6
Continuous
 62
     7
370
    25
100
AcDbLine
 10
10.4651971308
 20
15.8811471515
 30
0.0
 11
10.4857312877
 21
15.8352992493
 31
0.0
  0
LINE
  5
111
330
1F
100
AcDbEntity
  8
0
  6
Continuous
 62
     7
370
    25
100
AcDbLine
 10
10.4636236135
 20
15.8789219992
 30
0.0
 11
10.4268540608
 21
15.8789219992
 31
0.0
  0
LINE
  5
112
330
1F
100
AcDbEntity
  8
0
  6
Continuous
 62
     7
370
    25
100
AcDbLine
 10
10.4636236135
 20
15.8789219992
 30
0.0
 11
10.4661286137
 21
15.8790673712
 31
0.0
  0
ARC
  5
113
330
1F
100
AcDbEntity
  8
0
  6
Continuous
 62
     7
370
    25
100
AcDbCircle
 10
10.4929224318
 20
15.823136135
 30
0.0
 40
0.0398574024888857
100
AcDbArc
 50
202.4352463579
 51
233.6989280262
  0
ARC
  5
114
330
1F
100
AcDbEntity
  8
0
  6
Continuous
 62
     7
370
    25
100
AcDbCircle
 10
10.5147077479
 20
15.8331261139
 30
0.0
 40
0.0638130136065212
100
AcDbArc
 50
160.0630289183
 51
203.261067749
  0
ARC
  5
115
330
1F
100
AcDbEntity
  8
0
  6
Continuous
 62
     7
370
    25
100
AcDbCircle
 10
10.4955650731
 20
15.8409098418
 30
0.0
 40
0.0431706741266293
100
AcDbArc
 50
129.2566125858
 51
161.1113668384
  0
LINE
  5
116
330
1F
100
AcDbEntity
  8
0
  6
Continuous
 62
     7
370
    25
100
AcDbLine
 10
10.4458147004
 20
15.8308489448
 30
0.0
 11
10.4090451478
 21
15.8308489448
 31
0.0
  0
LINE
  5
117
330
1F
100
AcDbEntity
  8
0
  6
Continuous
 62
     7
370
    25
100
AcDbLine
 10
10.4547191569
 20
15.854885472
 30
0.0
 11
10.4636236135
 21
15.8789219992
 31
0.0
  0
LINE
  5
118
330
1F
100
AcDbEntity
  8
0
  6
Continuous
 62
     7
370
    25
100
AcDbLine
 10
10.4458147004
 20
15.8308489448
 30
0.0
 11
10.4547191569
 21
15.854885472
 31
0.0
  0
LINE
  5
119
330
1F
100
AcDbEntity
  8
0
  6
Continuous
 62
     7
370
    25
100
AcDbLine
 10
10.4560817788
 20
15.8079249937
 30
0.0
 11
10.4458147004
 21
15.8308489448
 31
0.0
  0
LINE
  5
11A
330
1F
100
AcDbEntity
  8
0
  6
Continuous
 62
     7
370
    25
100
AcDbLine
 10
10.4654173744
 20
15.7870808229
 30
0.0
 11
10.4560817788
 21
15.8079249937
 31
0.0
  0
LWPOLYLINE
  5
11B
330
1F
100
AcDbEntity
  8
0
  6
Continuous
 62
     7
370
    25
100
AcDbPolyline
 90
       44
 70
   128
 43
0.0
 10
15.5703019986
 20
15.8748109068
 10
15.5655084242
 20
15.8839603979
 10
15.5598239421
 20
15.8920253358
 10
15.5533697071
 20
15.8988338303
 10
15.54628328
 20
15.9042407704
 10
15.5387156958
 20
15.9081309163
 10
15.5308282443
 20
15.9104213565
 10
15.5227890329
 20
15.9110632741
 10
15.5147694035
 20
15.9100429878
 10
15.5069402804
 20
15.9073822432
 10
15.499468528
 20
15.9031377495
 10
15.4925133935
 20
15.8973999706
 10
15.4862231136
 20
15.8902911975
 10
15.4807317547
 20
15.8819629412
 10
15.4761563557
 20
15.8725927041
 10
15.4725944331
 20
15.8623801965
 10
15.4701219031
 20
15.8515430802
 10
15.4687914636
 20
15.8403123296
 10
15.4686314704
 20
15.8289273087
 10
15.4696453335
 20
15.8176306694
 10
15.4718114443
 20
15.8066631799
 10
15.4750836357
 20
15.7962585932
 10
15.4793921668
 20
15.7866386651
 10
15.4846452087
 20
15.7780084276
 10
15.4907308019
 20
15.7705518193
 10
15.4975192426
 20
15.7644277648
 10
15.5048658469
 20
15.7597667876
 10
15.5126140347
 20
15.7566682285
 10
15.5205986668
 20
15.7551981278
 10
15.5286495648
 20
15.7553878182
 10
15.5365951376
 20
15.7572332567
 10
15.5442660391
 20
15.7606951111
 10
15.5514987775
 20
15.7656995979
 10
15.5581391994
 20
15.7721400552
 10
15.5640457759
 20
15.7798792158
 10
15.5690926184
 20
15.788752133
 10
15.5731721623
 20
15.7985696958
 10
15.5761974592
 20
15.8091226601
 10
15.5781040301
 20
15.8201861076
 10
15.5788512399
 20
15.8315242403
 10
15.5784231629
 20
15.8428954055
 10
15.576828923
 20
15.8540572465
 10
15.5741024985
 20
15.8647718682
 10
15.5703019986
 20
15.8748109068
  0
LWPOLYLINE
  5
11C
330
1F
100
AcDbEntity
  8
0
  6
Continuous
 62
     7
370
    25
100
AcDbPolyline
 90
       46
 70
   128
 43
0.0
 10
15.536966052
 20
15.9599615964
 10
15.5351555567
 20
15.9617543178
 10
15.5256302385
 20
15.9700160923
 10
15.5155627707
 20
15.9768726567
 10
15.505056459
 20
15.9822536532
 10
15.4942191126
 20
15.9861038656
 10
15.4831619371
 20
15.9883837855
 10
15.4719983943
 20
15.9890700178
 10
15.4608430371
 20
15.9881555209
 10
15.4498103347
 20
15.9856496787
 10
15.4390134974
 20
15.9815782045
 10
15.4285633155
 20
15.9759828773
 10
15.4185670219
 20
15.9689211126
 10
15.4091271921
 20
15.9604653737
 10
15.4003406916
 20
15.9507024279
 10
15.3922976818
 20
15.9397324563
 10
15.3850806948
 20
15.9276680255
 10
15.3787637867
 20
15.9146329331
 10
15.3734117775
 20
15.9007609366
 10
15.369079586
 20
15.8861943815
 10
15.3658116664
 20
15.8710827405
 10
15.3636415521
 20
15.8555810793
 10
15.3625915112
 20
15.839848466
 10
15.3626723186
 20
15.8240463386
 10
15.3638831452
 20
15.8083368481
 10
15.3662115662
 20
15.7928811954
 10
15.3696336889
 20
15.7778379761
 10
15.3741143976
 20
15.7633615542
 10
15.3796077142
 20
15.7496004774
 10
15.3860572699
 20
15.7366959528
 10
15.3933968835
 20
15.7247803984
 10
15.4015512407
 20
15.7139760839
 10
15.4104366666
 20
15.7043938762
 10
15.4199619848
 20
15.6961321017
 10
15.4300294526
 20
15.6892755374
 10
15.4405357642
 20
15.6838945409
 10
15.4513731107
 20
15.6800443285
 10
15.4624302861
 20
15.6777644086
 10
15.473593829
 20
15.6770781763
 10
15.4847491861
 20
15.6779926732
 10
15.4957818886
 20
15.6804985154
 10
15.5065787259
 20
15.6845699895
 10
15.5170289078
 20
15.6901653167
 10
15.5270252014
 20
15.6972270814
 10
15.5364650311
 20
15.7056828203
 10
15.536966052
 20
15.7061865976
  0
LWPOLYLINE
  5
11D
330
1F
100
AcDbEntity
  8
0
  6
Continuous
 62
     7
370
    25
100
AcDbPolyline
 90
       33
 70
   128
 43
0.0
 10
15.4621895099
 20
15.989074097
 10
15.4613917926
 20
15.9890700178
 10
15.4502364354
 20
15.9881555209
 10
15.439203733
 20
15.9856496787
 10
15.4284068957
 20
15.9815782045
 10
15.4179567137
 20
15.9759828773
 10
15.4079604202
 20
15.9689211126
 10
15.3985205904
 20
15.9604653737
 10
15.3897340899
 20
15.9507024279
 10
15.3816910801
 20
15.9397324563
 10
15.3744740931
 20
15.9276680255
 10
15.368157185
 20
15.9146329331
 10
15.3628051758
 20
15.9007609366
 10
15.3584729843
 20
15.8861943815
 10
15.3552050647
 20
15.8710827405
 10
15.3530349503
 20
15.8555810793
 10
15.3519849095
 20
15.839848466
 10
15.3520657169
 20
15.8240463386
 10
15.3532765435
 20
15.8083368481
 10
15.3556049645
 20
15.7928811954
 10
15.3590270871
 20
15.7778379761
 10
15.3635077959
 20
15.7633615542
 10
15.3690011125
 20
15.7496004774
 10
15.3754506682
 20
15.7366959528
 10
15.3827902818
 20
15.7247803984
 10
15.3909446389
 20
15.7139760839
 10
15.3998300649
 20
15.7043938762
 10
15.4093553831
 20
15.6961321017
 10
15.4194228509
 20
15.6892755374
 10
15.4299291625
 20
15.6838945409
 10
15.440766509
 20
15.6800443285
 10
15.4518236844
 20
15.6777644086
 10
15.4621895099
 20
15.677074097
  0
LINE
  5
11E
330
1F
100
AcDbEntity
  8
0
  6
Continuous
 62
     7
370
    25
100
AcDbLine
 10
15.503173643
 20
15.8789219992
 30
0.0
 11
15.541516713
 21
15.8811471515
 31
0.0
  0
LINE
  5
11F
330
1F
100
AcDbEntity
  8
0
  6
Continuous
 62
     7
370
    25
100
AcDbLine
 10
15.4853647299
 20
15.8308489448
 30
0.0
 11
15.503173643
 21
15.8789219992
 31
0.0
  0
LINE
  5
120
330
1F
100
AcDbEntity
  8
0
  6
Continuous
 62
     7
370
    25
100
AcDbLine
 10
15.5058988868
 20
15.7850010426
 30
0.0
 11
15.4853647299
 21
15.8308489448
 31
0.0
  0
LINE
  5
121
330
1F
100
AcDbEntity
  8
0
  6
Continuous
 62
     7
370
    25
100
AcDbLine
 10
15.5442419568
 20
15.7872261948
 30
0.0
 11
15.5058988868
 21
15.7850010426
 31
0.0
  0
LINE
  5
122
330
1F
100
AcDbEntity
  8
0
  6
Continuous
 62
     7
370
    25
100
AcDbLine
 10
15.5620508699
 20
15.8352992493
 30
0.0
 11
15.5442419568
 21
15.7872261948
 31
0.0
  0
LINE
  5
123
330
1F
100
AcDbEntity
  8
0
  6
Continuous
 62
     7
370
    25
100
AcDbLine
 10
15.541516713
 20
15.8811471515
 30
0.0
 11
15.5620508699
 21
15.8352992493
 31
0.0
  0
LINE
  5
124
330
1F
100
AcDbEntity
  8
0
  6
Continuous
 62
     7
370
    25
100
AcDbLine
 10
15.5074724042
 20
15.7872261948
 30
0.0
 11
15.5442419568
 21
15.7872261948
 31
0.0
  0
LINE
  5
125
330
1F
100
AcDbEntity
  8
0
  6
Continuous
 62
     7
370
    25
100
AcDbLine
 10
15.5074724042
 20
15.7872261948
 30
0.0
 11
15.5049674039
 21
15.7870808229
 31
0.0
  0
ARC
  5
126
330
1F
100
AcDbEntity
  8
0
  6
Continuous
 62
     7
370
    25
100
AcDbCircle
 10
15.4563882698
 20
15.8330220801
 30
0.0
 40
0.0638130136063164
100
AcDbArc
 50
340.0630289182
 51
23.2610677491
  0
ARC
  5
127
330
1F
100
AcDbEntity
  8
0
  6
Continuous
 62
     7
370
    25
100
AcDbCircle
 10
15.4755309446
 20
15.8252383523
 30
0.0
 40
0.0431706741250531
100
AcDbArc
 50
309.2566125851
 51
341.1113668388
  0
ARC
  5
128
330
1F
100
AcDbEntity
  8
0
  6
Continuous
 62
     7
370
    25
100
AcDbCircle
 10
15.4781735858
 20
15.8430120591
 30
0.0
 40
0.0398574024884158
100
AcDbArc
 50
22.4352463576
 51
53.6989280264
  0
LINE
  5
129
330
1F
100
AcDbEntity
  8
0
  6
Continuous
 62
     7
370
    25
100
AcDbLine
 10
15.5252813172
 20
15.8352992493
 30
0.0
 11
15.5620508699
 21
15.8352992493
 31
0.0
  0
LINE
  5
12A
330
1F
100
AcDbEntity
  8
0
  6
Continuous
 62
     7
370
    25
100
AcDbLine
 10
15.5163768607
 20
15.8112627221
 30
0.0
 11
15.5074724042
 21
15.7872261948
 31
0.0
  0
LINE
  5
12B
330
1F
100
AcDbEntity
  8
0
  6
Continuous
 62
     7
370
    25
100
AcDbLine
 10
15.5252813172
 20
15.8352992493
 30
0.0
 11
15.5163768607
 21
15.8112627221
 31
0.0
  0
LINE
  5
12C
330
1F
100
AcDbEntity
  8
0
  6
Continuous
 62
     7
370
    25
100
AcDbLine
 10
15.5150142388
 20
15.8582232004
 30
0.0
 11
15.5252813172
 21
15.8352992493
 31
0.0
  0
LINE
  5
12D
330
1F
100
AcDbEntity
  8
0
  6
Continuous
 62
     7
370
    25
100
AcDbLine
 10
15.5056786432
 20
15.8790673712
 30
0.0
 11
15.5150142388
 21
15.8582232004
 31
0.0
  0
LINE
  5
12E
330
1F
100
AcDbEntity
  8
0
  6
Continuous
 62
     7
370
    25
100
AcDbLine
 10
9.6730480088
 20
4.583074097
 30
0.0
 11
16.2980480088
 21
4.583074097
 31
0.0
  0
DIMENSION
  5
12F
330
1F
100
AcDbEntity
  8
0
  6
Continuous
 62
     7
370
    18
100
AcDbDimension
  2
_D
 10
7.9107448592
 20
16.458074097
 30
0.0
 11
7.9107448592
 21
19.3666065822
 31
0.0
 70
   160
  1
<>
 71
     2
 42
-1.0
  3
SLDDIMSTYLE0
100
AcDbAlignedDimension
 13
9.5183735321
 23
17.398074097
 33
0.0
 14
9.4855480088
 24
16.458074097
 34
0.0
 50
90.0
100
AcDbRotatedDimension
  0
DIMENSION
  5
146
330
1F
100
AcDbEntity
  8
0
  6
Continuous
 62
     7
370
    18
100
AcDbDimension
  2
_D_1
 10
19.4544652084
 20
4.583074097
 30
0.0
 11
19.4544652084
 21
10.990574097
 31
0.0
 70
   160
  1
<>
 71
     2
 42
-1.0
  3
SLDDIMSTYLE1
100
AcDbAlignedDimension
 13
16.4527224855
 23
17.398074097
 33
0.0
 14
16.2980480088
 24
4.583074097
 34
0.0
 50
90.0
100
AcDbRotatedDimension
  0
DIMENSION
  5
15B
330
1F
100
AcDbEntity
  8
0
  6
Continuous
 62
     7
370
    18
100
AcDbDimension
  2
_D_2
 10
16.2980480088
 20
3.0082709474
 30
0.0
 11
12.9855480088
 21
3.0082709474
 31
0.0
 70
   160
  1
%%c<>
 71
     2
 42
-1.0
  3
SLDDIMSTYLE1
100
AcDbAlignedDimension
 13
9.6730480088
 23
4.583074097
 33
0.0
 14
16.2980480088
 24
4.583074097
 34
0.0
100
AcDbRotatedDimension
  0
LINE
  5
16E
330
1F
100
AcDbEntity
  8
0
  6
Continuous
 62
     7
370
    25
100
AcDbLine
 10
35.848079033
 20
30.5383315683
 30
0.0
 11
35.848079033
 21
30.589958748
 31
0.0
  0
LINE
  5
16F
330
1F
100
AcDbEntity
  8
0
  6
Continuous
 62
     7
370
    25
100
AcDbLine
 10
35.473079033
 20
30.589958748
 30
0.0
 11
35.473079033
 21
30.561443904
 31
0.0
  0
LINE
  5
170
330
1F
100
AcDbEntity
  8
0
  6
Continuous
 62
     7
370
    25
100
AcDbLine
 10
32.1357684318
 20
28.4059917464
 30
0.0
 11
32.1357684318
 21
28.4468874545
 31
0.0
  0
LINE
  5
171
330
1F
100
AcDbEntity
  8
0
  6
Continuous
 62
     7
370
    25
100
AcDbLine
 10
39.1853896343
 20
28.4468874545
 30
0.0
 11
39.1853896343
 21
28.4183726105
 31
0.0
  0
LINE
  5
172
330
1F
100
AcDbEntity
  8
0
  6
Continuous
 62
     7
370
    25
100
AcDbLine
 10
38.973079033
 20
18.2938340552
 30
0.0
 11
38.973079033
 21
26.9572324924
 31
0.0
  0
LINE
  5
173
330
1F
100
AcDbEntity
  8
0
  6
Continuous
 62
     7
370
    25
100
AcDbLine
 10
32.348079033
 20
26.9572324924
 30
0.0
 11
32.348079033
 21
18.2938340552
 31
0.0
  0
LWPOLYLINE
  5
174
330
1F
100
AcDbEntity
  8
0
  6
Continuous
 62
     7
370
    25
100
AcDbPolyline
 90
       41
 70
   128
 43
0.0
 10
35.7621478525
 20
30.510638466
 10
35.7786517325
 20
30.5181631768
 10
35.7934981305
 20
30.5267619185
 10
35.8064786359
 20
30.5363139836
 10
35.8174110306
 20
30.546685282
 10
35.8261418478
 20
30.5577302235
 10
35.832548526
 20
30.5692937613
 10
35.8365411295
 20
30.5812135686
 10
35.8380636109
 20
30.5933223175
 10
35.8370945979
 20
30.6054500278
 10
35.8336476933
 20
30.6174264528
 10
35.827771284
 20
30.62908347
 10
35.819547862
 20
30.6402574402
 10
35.8090928662
 20
30.6507915056
 10
35.7965530616
 20
30.6605377908
 10
35.7821044798
 20
30.6693594793
 10
35.7659499471
 20
30.6771327342
 10
35.7483162377
 20
30.6837484358
 10
35.7294508903
 20
30.6891137142
 10
35.709618733
 20
30.6931532526
 10
35.6890981658
 20
30.6958103449
 10
35.6681772524
 20
30.6970476913
 10
35.6471496768
 20
30.696847922
 10
35.6263106198
 20
30.6952138415
 10
35.6059526163
 20
30.6921683887
 10
35.5863614479
 20
30.687754315
 10
35.5678121317
 20
30.6820335844
 10
35.5505650595
 20
30.6750865033
 10
35.5348623423
 20
30.6670105936
 10
35.5209244119
 20
30.6579192233
 10
35.5089469262
 20
30.6479400154
 10
35.4990980229
 20
30.637213056
 10
35.491515959
 20
30.6258889282
 10
35.4863071701
 20
30.6141265978
 10
35.4835447762
 20
30.6020911823
 10
35.4832675551
 20
30.5899516324
 10
35.4854793986
 20
30.5778783609
 10
35.490149257
 20
30.5660408499
 10
35.497211576
 20
30.5546052723
 10
35.5065672159
 20
30.5437321584
 10
35.5108562491
 20
30.5396355814
  0
ARC
  5
175
330
1F
100
AcDbEntity
  8
0
  6
Continuous
 62
     7
370
    25
100
AcDbCircle
 10
35.660422228
 20
30.7780689972
 30
0.0
 40
0.2861244339799885
100
AcDbArc
 50
250.5698931119
 51
290.8258884702
  0
ARC
  5
176
330
1F
100
AcDbEntity
  8
0
  6
Continuous
 62
     7
370
    25
100
AcDbCircle
 10
35.6600829212
 20
30.7874457527
 30
0.0
 40
0.3058766422758767
100
AcDbArc
 50
258.9963916008
 51
290.6334176061
  0
LWPOLYLINE
  5
177
330
1F
100
AcDbEntity
  8
0
  6
Continuous
 62
     7
370
    25
100
AcDbPolyline
 90
       41
 70
   128
 43
0.0
 10
35.4825635587
 20
30.5559686039
 10
35.478361276
 20
30.5644472091
 10
35.4745115032
 20
30.5766044927
 10
35.4730874053
 20
30.5889358694
 10
35.4741075474
 20
30.6012805809
 10
35.4775586305
 20
30.613477695
 10
35.4833956645
 20
30.6253682036
 10
35.4915425546
 20
30.6367970959
 10
35.5018930937
 20
30.6476153786
 10
35.5143123468
 20
30.657682019
 10
35.5286384097
 20
30.666865783
 10
35.5446845205
 20
30.6750469461
 10
35.5622414935
 20
30.6821188545
 10
35.5810804467
 20
30.687989315
 10
35.6009557855
 20
30.692581797
 10
35.6216084046
 20
30.6958364308
 10
35.6427690654
 20
30.6977107869
 10
35.6641619064
 20
30.6981804305
 10
35.6855080391
 20
30.697239239
 10
35.7065291841
 20
30.6948994821
 10
35.7269512986
 20
30.6911916624
 10
35.7465081492
 20
30.6861641167
 10
35.7649447823
 20
30.679882387
 10
35.7820208482
 20
30.6724283651
 10
35.7975137344
 20
30.6638992256
 10
35.8112214673
 20
30.6544061589
 10
35.8229653457
 20
30.6440729217
 10
35.8325922702
 20
30.6330342234
 10
35.8399767391
 20
30.6214339705
 10
35.8450224845
 20
30.6094233899
 10
35.8476637275
 20
30.5971590579
 10
35.8478660354
 20
30.5848008589
 10
35.8456267707
 20
30.5725099008
 10
35.8409751258
 20
30.5604464151
 10
35.833971742
 20
30.5487676679
 10
35.824707919
 20
30.5376259093
 10
35.8133044251
 20
30.5271663894
 10
35.799909922
 20
30.5175254639
 10
35.7846990277
 20
30.5088288169
 10
35.7678700395
 20
30.5011898228
 10
35.7678700395
 20
30.5011898228
  0
ARC
  5
178
330
1F
100
AcDbEntity
  8
0
  6
Continuous
 62
     7
370
    25
100
AcDbCircle
 10
35.6642573557
 20
30.5102223633
 30
0.0
 40
0.1472841031405648
100
AcDbArc
 50
54.7042993303
 51
95.0382305089
  0
ARC
  5
179
330
1F
100
AcDbEntity
  8
0
  6
Continuous
 62
     7
370
    25
100
AcDbCircle
 10
35.6496604652
 20
30.5329820911
 30
0.0
 40
0.1239664630392068
100
AcDbArc
 50
89.2316652774
 51
134.647260134
  0
ARC
  5
17A
330
1F
100
AcDbEntity
  8
0
  6
Continuous
 62
     7
370
    25
100
AcDbCircle
 10
35.5948145743
 20
30.5941547292
 30
0.0
 40
0.0420904937438068
100
AcDbArc
 50
140.0574840934
 51
236.853864237
  0
ARC
  5
17B
330
1F
100
AcDbEntity
  8
0
  6
Continuous
 62
     7
370
    25
100
AcDbCircle
 10
35.6569007104
 20
30.6791237338
 30
0.0
 40
0.1472841031405591
100
AcDbArc
 50
234.7042993303
 51
275.0382305089
  0
ARC
  5
17C
330
1F
100
AcDbEntity
  8
0
  6
Continuous
 62
     7
370
    25
100
AcDbCircle
 10
35.6714976008
 20
30.656364006
 30
0.0
 40
0.123966463039206
100
AcDbArc
 50
269.2316652774
 51
314.647260134
  0
ARC
  5
17D
330
1F
100
AcDbEntity
  8
0
  6
Continuous
 62
     7
370
    25
100
AcDbCircle
 10
35.7263434918
 20
30.5951913679
 30
0.0
 40
0.0420904937437991
100
AcDbArc
 50
320.0574840934
 51
56.8538642371
  0
LINE
  5
17E
330
1F
100
AcDbEntity
  8
0
  6
Continuous
 62
     7
370
    25
100
AcDbLine
 10
35.5718004885
 20
30.5589132548
 30
0.0
 11
35.5900676414
 21
30.5471620425
 31
0.0
  0
SPLINE
  5
17F
330
1F
100
AcDbEntity
  8
0
  6
Continuous
 62
     7
370
    25
100
AcDbSpline
210
0.0
220
0.0
230
1.0
 70
     8
 71
     3
 72
    10
 73
     6
 74
     0
 42
0.00000001
 43
0.00000001
 40
0.0
 40
0.0
 40
0.0
 40
0.0
 40
0.0156794481716124
 40
0.486592878291238
 40
1.0
 40
1.0
 40
1.0
 40
1.0
 10
35.72792767708209
 20
30.54521804242393
 30
0.0
 10
35.7280973295532
 20
30.54530078892987
 30
0.0
 10
35.73336229062371
 20
30.5478687275494
 30
0.0
 10
35.74382375043999
 20
30.55558024938836
 30
0.0
 10
35.75354391414401
 20
30.56385335344985
 30
0.0
 10
35.75861380856057
 20
30.5681684828413
 30
0.0
  0
SPLINE
  5
180
330
1F
100
AcDbEntity
  8
0
  6
Continuous
 62
     7
370
    25
100
AcDbSpline
210
0.0
220
0.0
230
1.0
 70
     8
 71
     3
 72
    12
 73
     8
 74
     0
 42
0.00000001
 43
0.00000001
 40
0.0
 40
0.0
 40
0.0
 40
0.0
 40
0.2161843460219363
 40
0.4397598229072752
 40
0.5934158725838179
 40
0.7522072604284123
 40
1.0
 40
1.0
 40
1.0
 40
1.0
 10
35.56254425749356
 20
30.62117761429402
 30
0.0
 10
35.563178028989
 20
30.6141409187247
 30
0.0
 10
35.56446724000601
 20
30.59982694986267
 30
0.0
 10
35.56636260804228
 20
30.58337468441249
 30
0.0
 10
35.56809548760307
 20
30.57206549693791
 30
0.0
 10
35.5698752694919
 20
30.56353082838666
 30
0.0
 10
35.57107146623481
 20
30.5606617903412
 30
0.0
 10
35.57180048846663
 20
30.55891325480014
 30
0.0
  0
SPLINE
  5
181
330
1F
100
AcDbEntity
  8
0
  6
Continuous
 62
     7
370
    25
100
AcDbSpline
210
0.0
220
0.0
230
1.0
 70
     8
 71
     3
 72
    12
 73
     8
 74
     0
 42
0.00000001
 43
0.00000001
 40
0.0
 40
0.0
 40
0.0
 40
0.0
 40
0.2161843460219252
 40
0.4397598229072677
 40
0.5934158725838059
 40
0.7522072604284088
 40
1.0
 40
1.0
 40
1.0
 40
1.0
 10
35.75861380856057
 20
30.5681684828413
 30
0.0
 10
35.75798003706513
 20
30.56965823315338
 30
0.0
 10
35.75669082604812
 20
30.5726886668803
 30
0.0
 10
35.75479545801184
 20
30.58173573849881
 30
0.0
 10
35.75306257845106
 20
30.59373984911409
 30
0.0
 10
35.75128279656224
 20
30.60914947920219
 30
0.0
 10
35.75008659981933
 20
30.62237347605242
 30
0.0
 10
35.7493575775875
 20
30.63043284233519
 30
0.0
  0
LINE
  5
182
330
1F
100
AcDbEntity
  8
0
  6
Continuous
 62
     7
370
    25
100
AcDbLine
 10
35.7493575776
 20
30.5604826009
 30
0.0
 11
35.7493575776
 21
30.6304328423
 31
0.0
  0
ARC
  5
183
330
1F
100
AcDbEntity
  8
0
  6
Continuous
 62
     7
370
    25
100
AcDbCircle
 10
35.660724826
 20
30.3926413559
 30
0.0
 40
0.1541534158563553
100
AcDbArc
 50
75.1086668892
 51
108.4675288634
  0
LINE
  5
184
330
1F
100
AcDbEntity
  8
0
  6
Continuous
 62
     7
370
    25
100
AcDbLine
 10
35.7092639804
 20
30.538856384
 30
0.0
 11
35.7003401898
 21
30.5416175237
 31
0.0
  0
SPLINE
  5
185
330
1F
100
AcDbEntity
  8
0
  6
Continuous
 62
     7
370
    25
100
AcDbSpline
210
0.0
220
0.0
230
1.0
 70
     8
 71
     3
 72
    12
 73
     8
 74
     0
 42
0.00000001
 43
0.00000001
 40
0.0
 40
0.0
 40
0.0
 40
0.0
 40
0.2161843460219258
 40
0.4397598229072734
 40
0.5934158725838209
 40
0.7522072604284229
 40
1.0
 40
1.0
 40
1.0
 40
1.0
 10
35.7493575775875
 20
30.63043284233519
 30
0.0
 10
35.74264516446002
 20
30.62947412976443
 30
0.0
 10
35.72899084738046
 20
30.62752392717995
 30
0.0
 10
35.70891658815656
 20
30.62924858319669
 30
0.0
 10
35.69056328007015
 20
30.63455802338967
 30
0.0
 10
35.67171321912442
 20
30.64309178429505
 30
0.0
 10
35.65904403665409
 20
30.65169448885511
 30
0.0
 10
35.651322802054
 20
30.65693740806154
 30
0.0
  0
LINE
  5
186
330
1F
100
AcDbEntity
  8
0
  6
Continuous
 62
     7
370
    25
100
AcDbLine
 10
35.7098826138
 20
30.5390376453
 30
0.0
 11
35.7003401898
 21
30.5416175237
 31
0.0
  0
LINE
  5
187
330
1F
100
AcDbEntity
  8
0
  6
Continuous
 62
     7
370
    25
100
AcDbLine
 10
35.7003401898
 20
30.5416175237
 30
0.0
 11
35.6513228021
 21
30.5548698066
 31
0.0
  0
LINE
  5
188
330
1F
100
AcDbEntity
  8
0
  6
Continuous
 62
     7
370
    25
100
AcDbLine
 10
35.6513228021
 20
30.5548698066
 30
0.0
 11
35.6513228021
 21
30.6569374081
 31
0.0
  0
LINE
  5
189
330
1F
100
AcDbEntity
  8
0
  6
Continuous
 62
     7
370
    25
100
AcDbLine
 10
35.6513228021
 20
30.5548698066
 30
0.0
 11
35.6117044739
 21
30.538911635
 31
0.0
  0
SPLINE
  5
18A
330
1F
100
AcDbEntity
  8
0
  6
Continuous
 62
     7
370
    25
100
AcDbSpline
210
0.0
220
0.0
230
1.0
 70
     8
 71
     3
 72
    13
 73
     9
 74
     0
 42
0.00000001
 43
0.00000001
 40
0.0
 40
0.0
 40
0.0
 40
0.0
 40
0.1804907613309634
 40
0.3435163841107365
 40
0.5062359219915021
 40
0.6751144035508927
 40
0.8443638239380985
 40
1.0
 40
1.0
 40
1.0
 40
1.0
 10
35.651322802054
 20
30.65693740806154
 30
0.0
 10
35.646261467938
 20
30.65255189589029
 30
0.0
 10
35.63662855830052
 20
30.64420523441891
 30
0.0
 10
35.62145723364366
 20
30.63402315375653
 30
0.0
 10
35.60616068656248
 20
30.62635361626764
 30
0.0
 10
35.59069626876464
 20
30.62194414653279
 30
0.0
 10
35.57598994777364
 20
30.6203025997349
 30
0.0
 10
35.56689918153533
 20
30.62089420586641
 30
0.0
 10
35.56254425749356
 20
30.62117761429402
 30
0.0
  0
ARC
  5
18B
330
1F
100
AcDbEntity
  8
0
  6
Continuous
 62
     7
370
    25
100
AcDbCircle
 10
31.9479981741
 20
28.2948081178
 30
0.0
 40
0.2601500191029077
100
AcDbArc
 50
55.903204451
 51
103.0329469027
  0
ARC
  5
18C
330
1F
100
AcDbEntity
  8
0
  6
Continuous
 62
     7
370
    25
100
AcDbCircle
 10
32.0558881365
 20
28.4523746644
 30
0.0
 40
0.0691955506852667
100
AcDbArc
 50
329.8097811986
 51
56.7413038016
  0
ARC
  5
18D
330
1F
100
AcDbEntity
  8
0
  6
Continuous
 62
     7
370
    25
100
AcDbCircle
 10
32.0622830072
 20
28.4477680279
 30
0.0
 40
0.0728587174742698
100
AcDbArc
 50
330.4426221532
 51
56.9318305954
  0
ARC
  5
18E
330
1F
100
AcDbEntity
  8
0
  6
Continuous
 62
     7
370
    25
100
AcDbCircle
 10
31.9482882258
 20
28.282595164
 30
0.0
 40
0.2735303411291396
100
AcDbArc
 50
55.7994180857
 51
102.8327154375
  0
LINE
  5
18F
330
1F
100
AcDbEntity
  8
0
  6
Continuous
 62
     7
370
    25
100
AcDbLine
 10
32.0565213419
 20
28.4517401176
 30
0.0
 11
32.0561251524
 21
28.4569452634
 31
0.0
  0
ARC
  5
190
330
1F
100
AcDbEntity
  8
0
  6
Continuous
 62
     7
370
    25
100
AcDbCircle
 10
31.9838818635
 20
28.4326881916
 30
0.0
 40
0.0762069441524647
100
AcDbArc
 50
18.5604656671
 51
82.233139545
  0
ARC
  5
191
330
1F
100
AcDbEntity
  8
0
  6
Continuous
 62
     7
370
    25
100
AcDbCircle
 10
31.9487342342
 20
28.3360822515
 30
0.0
 40
0.1780127219516337
100
AcDbArc
 50
75.2087113294
 51
90.0727815147
  0
LINE
  5
192
330
1F
100
AcDbEntity
  8
0
  6
Continuous
 62
     7
370
    25
100
AcDbLine
 10
32.0541949963
 20
28.4530830884
 30
0.0
 11
32.0561251524
 21
28.4569452634
 31
0.0
  0
LINE
  5
193
330
1F
100
AcDbEntity
  8
0
  6
Continuous
 62
     7
370
    25
100
AcDbLine
 10
31.994180661
 20
28.4877286267
 30
0.0
 11
31.994180661
 21
28.5081960263
 31
0.0
  0
SPLINE
  5
194
330
1F
100
AcDbEntity
  8
0
  6
Continuous
 62
     7
370
    25
100
AcDbSpline
210
0.0
220
0.0
230
1.0
 70
     8
 71
     3
 72
     9
 73
     5
 74
     0
 42
0.00000001
 43
0.00000001
 40
0.0
 40
0.0
 40
0.0
 40
0.0
 40
0.5230769219412101
 40
1.0
 40
1.0
 40
1.0
 40
1.0
 10
32.05612515244211
 20
28.45694526343403
 30
0.0
 10
32.05309387340938
 20
28.45737485025127
 30
0.0
 10
32.04729878112833
 20
28.45819611916837
 30
0.0
 10
32.04108054196209
 20
28.46101942092329
 30
0.0
 10
32.03811492019882
 20
28.46236591868654
 30
0.0
  0
SPLINE
  5
195
330
1F
100
AcDbEntity
  8
0
  6
Continuous
 62
     7
370
    25
100
AcDbSpline
210
0.0
220
0.0
230
1.0
 70
     8
 71
     3
 72
    11
 73
     7
 74
     0
 42
0.00000001
 43
0.00000001
 40
0.0
 40
0.0
 40
0.0
 40
0.0
 40
0.2025678522876959
 40
0.4549595756678007
 40
0.7157149315316734
 40
1.0
 40
1.0
 40
1.0
 40
1.0
 10
32.0338220997711
 20
28.46484411116965
 30
0.0
 10
32.03107166223614
 20
28.46653982891283
 30
0.0
 10
32.02489428571921
 20
28.47034834549714
 30
0.0
 10
32.0150631648434
 20
28.48003108438706
 30
0.0
 10
32.00448607098289
 20
28.49282016882889
 30
0.0
 10
31.99771325969966
 20
28.5029253253161
 30
0.0
 10
31.99418066095393
 20
28.50819602630562
 30
0.0
  0
LINE
  5
196
330
1F
100
AcDbEntity
  8
0
  6
Continuous
 62
     7
370
    25
100
AcDbLine
 10
31.994180661
 20
28.5081960263
 30
0.0
 11
31.9729886516
 21
28.4999625133
 31
0.0
  0
ARC
  5
197
330
1F
100
AcDbEntity
  8
0
  6
Continuous
 62
     7
370
    25
100
AcDbCircle
 10
35.6603134895
 20
26.1169699508
 30
0.0
 40
0.2941267731308769
100
AcDbArc
 50
72.8375724185
 51
101.5063690891
  0
ARC
  5
198
330
1F
100
AcDbEntity
  8
0
  6
Continuous
 62
     7
370
    25
100
AcDbCircle
 10
35.6603061543
 20
26.100147394
 30
0.0
 40
0.3119890329930804
100
AcDbArc
 50
73.446668777
 51
101.1739540516
  0
ARC
  5
199
330
1F
100
AcDbEntity
  8
0
  6
Continuous
 62
     7
370
    25
100
AcDbCircle
 10
35.6608659482
 20
26.1897535591
 30
0.0
 40
0.1812699834064976
100
AcDbArc
 50
79.2045870994
 51
90.0149310516
  0
LWPOLYLINE
  5
19A
330
1F
100
AcDbEntity
  8
0
  6
Continuous
 62
     7
370
    25
100
AcDbPolyline
 90
       24
 70
   128
 43
0.0
 10
39.4594154751
 20
28.5410711614
 10
39.4465790729
 20
28.5448227579
 10
39.4269629827
 20
28.5491997902
 10
39.4065878212
 20
28.55220676
 10
39.3857396111
 20
28.5538014561
 10
39.3647110154
 20
28.5539614924
 10
39.3437972296
 20
28.5526846224
 10
39.3232918374
 20
28.5499887705
 10
39.3034826896
 20
28.5459117806
 10
39.2846478631
 20
28.5405108846
 10
39.2670517576
 20
28.5338618993
 10
39.250941384
 20
28.526058162
 10
39.2365428964
 20
28.5172092199
 10
39.2240584182
 20
28.5074392927
 10
39.213663204
 20
28.496885529
 10
39.2055031799
 20
28.4856960804
 10
39.1996928946
 20
28.4740280221
 10
39.196313912
 20
28.4620451482
 10
39.1954136654
 20
28.449915672
 10
39.1970047924
 20
28.4378098647
 10
39.201064957
 20
28.4258976653
 10
39.2075371635
 20
28.4143462949
 10
39.2163305562
 20
28.4033179096
 10
39.2179072841
 20
28.4016514503
  0
LWPOLYLINE
  5
19B
330
1F
100
AcDbEntity
  8
0
  6
Continuous
 62
     7
370
    25
100
AcDbPolyline
 90
       23
 70
   128
 43
0.0
 10
39.19487416
 20
28.4128973103
 10
39.1920081379
 20
28.4183824492
 10
39.1875585643
 20
28.4304713112
 10
39.1855250645
 20
28.4427741828
 10
39.1859341485
 20
28.4551306771
 10
39.1887804831
 20
28.4673797084
 10
39.1940269621
 20
28.4793615919
 10
39.2016051895
 20
28.4909201253
 10
39.2114163716
 20
28.5019046255
 10
39.2233326047
 20
28.5121718927
 10
39.2371985423
 20
28.5215880775
 10
39.2528334209
 20
28.5300304253
 10
39.2700334157
 20
28.5373888775
 10
39.2885742987
 20
28.5435675051
 10
39.308214361
 20
28.5484857605
 10
39.3286975645
 20
28.5520795265
 10
39.3497568791
 20
28.554301953
 10
39.3711177646
 20
28.5551240673
 10
39.3925017491
 20
28.5545351518
 10
39.4136300597
 20
28.5525428839
 10
39.4342272565
 20
28.5491732359
 10
39.4540248237
 20
28.5444701364
 10
39.4615048322
 20
28.5422773215
  0
ARC
  5
19C
330
1F
100
AcDbEntity
  8
0
  6
Continuous
 62
     7
370
    25
100
AcDbCircle
 10
39.3731899476
 20
28.3374347788
 30
0.0
 40
0.176741178416589
100
AcDbArc
 50
78.9289397218
 51
110.6207452167
  0
ARC
  5
19D
330
1F
100
AcDbEntity
  8
0
  6
Continuous
 62
     7
370
    25
100
AcDbCircle
 10
39.3241372914
 20
28.4452300229
 30
0.0
 40
0.0591133209563785
100
AcDbArc
 50
102.8951206187
 51
179.0033405331
  0
LWPOLYLINE
  5
19E
330
1F
100
AcDbEntity
  8
0
  6
Continuous
 62
     7
370
    25
100
AcDbPolyline
 90
        3
 70
   128
 43
0.0
 10
39.2650329136
 20
28.4462582466
 10
39.2671638234
 20
28.4381768313
 10
39.2701938575
 20
28.4318358467
  0
LINE
  5
19F
330
1F
100
AcDbEntity
  8
0
  6
Continuous
 62
     7
370
    25
100
AcDbLine
 10
39.2650329136
 20
28.4462582466
 30
0.0
 11
39.2735942195
 21
28.4337988339
 31
0.0
  0
SPLINE
  5
1A0
330
1F
100
AcDbEntity
  8
0
  6
Continuous
 62
     7
370
    25
100
AcDbSpline
210
0.0
220
0.0
230
1.0
 70
     8
 71
     3
 72
    12
 73
     8
 74
     0
 42
0.00000001
 43
0.00000001
 40
0.0
 40
0.0
 40
0.0
 40
0.0
 40
0.2161843460219389
 40
0.4397598229072698
 40
0.5934158725838372
 40
0.7522072604284411
 40
1.0
 40
1.0
 40
1.0
 40
1.0
 10
39.31094514276822
 20
28.50285251790461
 30
0.0
 10
39.30780154552914
 20
28.49620405165906
 30
0.0
 10
39.30140687454308
 20
28.48267981462456
 30
0.0
 10
39.29200557806831
 20
28.46738859452954
 30
0.0
 10
39.28341024766587
 20
28.45714091686549
 30
0.0
 10
39.27458227500986
 20
28.44969648907787
 30
0.0
 10
39.26864896812324
 20
28.44756020511797
 30
0.0
 10
39.26503291361198
 20
28.44625824663206
 30
0.0
  0
LINE
  5
1A1
330
1F
100
AcDbEntity
  8
0
  6
Continuous
 62
     7
370
    25
100
AcDbLine
 10
39.3109451428
 20
28.4553610629
 30
0.0
 11
39.3109451428
 21
28.5028525179
 31
0.0
  0
SPLINE
  5
1A2
330
1F
100
AcDbEntity
  8
0
  6
Continuous
 62
     7
370
    25
100
AcDbSpline
210
0.0
220
0.0
230
1.0
 70
     8
 71
     3
 72
    11
 73
     7
 74
     0
 42
0.00000001
 43
0.00000001
 40
0.0
 40
0.0
 40
0.0
 40
0.0
 40
0.1446722786476572
 40
0.3792614498917832
 40
0.6216908248079104
 40
0.9999999999999999
 40
0.9999999999999999
 40
0.9999999999999999
 40
0.9999999999999999
 10
39.38210532578022
 20
28.49644096215168
 30
0.0
 10
39.37863499350536
 20
28.49559350306766
 30
0.0
 10
39.36953744377106
 20
28.4933718710872
 30
0.0
 10
39.35409080628118
 20
28.49333316789835
 30
0.0
 10
39.33338957587407
 20
28.49558346063335
 30
0.0
 10
39.31944417115385
 20
28.50009994563897
 30
0.0
 10
39.31094514276822
 20
28.50285251790461
 30
0.0
  0
LINE
  5
1A3
330
1F
100
AcDbEntity
  8
0
  6
Continuous
 62
     7
370
    25
100
AcDbLine
 10
31.1327552641
 20
28.7578045595
 30
0.0
 11
35.660579033
 21
26.1439475352
 31
0.0
  0
LINE
  5
1A4
330
1F
100
AcDbEntity
  8
0
  6
Continuous
 62
     7
370
    25
100
AcDbLine
 10
35.660579033
 20
26.1439475352
 30
0.0
 11
35.660579033
 21
26.0922320744
 31
0.0
  0
LINE
  5
1A5
330
1F
100
AcDbEntity
  8
0
  6
Continuous
 62
     7
370
    25
100
AcDbLine
 10
31.1327552641
 20
28.7578045595
 30
0.0
 11
31.1269012768
 21
28.7094685336
 31
0.0
  0
LINE
  5
1A6
330
1F
100
AcDbEntity
  8
0
  6
Continuous
 62
     7
370
    25
100
AcDbLine
 10
35.660579033
 20
26.1439475352
 30
0.0
 11
40.188402802
 21
28.7578045595
 31
0.0
  0
LINE
  5
1A7
330
1F
100
AcDbEntity
  8
0
  6
Continuous
 62
     7
370
    25
100
AcDbLine
 10
40.188402802
 20
28.7578045595
 30
0.0
 11
40.1942567892
 21
28.7094685336
 31
0.0
  0
LINE
  5
1A8
330
1F
100
AcDbEntity
  8
0
  6
Continuous
 62
     7
370
    25
100
AcDbLine
 10
32.145063166
 20
28.4006260106
 30
0.0
 11
32.7637815995
 21
28.7578045595
 31
0.0
  0
LINE
  5
1A9
330
1F
100
AcDbEntity
  8
0
  6
Continuous
 62
     7
370
    25
100
AcDbLine
 10
32.7637815995
 20
28.7578045595
 30
0.0
 11
32.145063166
 21
29.1149831084
 31
0.0
  0
LINE
  5
1AA
330
1F
100
AcDbEntity
  8
0
  6
Continuous
 62
     7
370
    25
100
AcDbLine
 10
32.145063166
 20
29.1149831084
 30
0.0
 11
31.5263447324
 21
28.7578045595
 31
0.0
  0
LINE
  5
1AB
330
1F
100
AcDbEntity
  8
0
  6
Continuous
 62
     7
370
    25
100
AcDbLine
 10
31.5263447324
 20
28.7578045595
 30
0.0
 11
32.145063166
 21
28.4006260106
 31
0.0
  0
LINE
  5
1AC
330
1F
100
AcDbEntity
  8
0
  6
Continuous
 62
     7
370
    25
100
AcDbLine
 10
32.8521699472
 20
28.8088300665
 30
0.0
 11
33.4708883807
 21
29.1660086154
 31
0.0
  0
LINE
  5
1AD
330
1F
100
AcDbEntity
  8
0
  6
Continuous
 62
     7
370
    25
100
AcDbLine
 10
33.4708883807
 20
29.1660086154
 30
0.0
 11
32.8521699472
 21
29.5231871643
 31
0.0
  0
LINE
  5
1AE
330
1F
100
AcDbEntity
  8
0
  6
Continuous
 62
     7
370
    25
100
AcDbLine
 10
32.8521699472
 20
29.5231871643
 30
0.0
 11
32.2334515136
 21
29.1660086154
 31
0.0
  0
LINE
  5
1AF
330
1F
100
AcDbEntity
  8
0
  6
Continuous
 62
     7
370
    25
100
AcDbLine
 10
32.2334515136
 20
29.1660086154
 30
0.0
 11
32.8521699472
 21
28.8088300665
 31
0.0
  0
LINE
  5
1B0
330
1F
100
AcDbEntity
  8
0
  6
Continuous
 62
     7
370
    25
100
AcDbLine
 10
33.5592767284
 20
29.2170341224
 30
0.0
 11
34.1779951619
 21
29.5742126713
 31
0.0
  0
LINE
  5
1B1
330
1F
100
AcDbEntity
  8
0
  6
Continuous
 62
     7
370
    25
100
AcDbLine
 10
34.1779951619
 20
29.5742126713
 30
0.0
 11
33.5592767284
 21
29.9313912202
 31
0.0
  0
LINE
  5
1B2
330
1F
100
AcDbEntity
  8
0
  6
Continuous
 62
     7
370
    25
100
AcDbLine
 10
33.5592767284
 20
29.9313912202
 30
0.0
 11
32.9405582948
 21
29.5742126713
 31
0.0
  0
LINE
  5
1B3
330
1F
100
AcDbEntity
  8
0
  6
Continuous
 62
     7
370
    25
100
AcDbLine
 10
32.9405582948
 20
29.5742126713
 30
0.0
 11
33.5592767284
 21
29.2170341224
 31
0.0
  0
LINE
  5
1B4
330
1F
100
AcDbEntity
  8
0
  6
Continuous
 62
     7
370
    25
100
AcDbLine
 10
34.2663835095
 20
29.6252381783
 30
0.0
 11
34.8851019431
 21
29.9824167272
 31
0.0
  0
LINE
  5
1B5
330
1F
100
AcDbEntity
  8
0
  6
Continuous
 62
     7
370
    25
100
AcDbLine
 10
34.8851019431
 20
29.9824167272
 30
0.0
 11
34.2663835095
 21
30.3395952761
 31
0.0
  0
LINE
  5
1B6
330
1F
100
AcDbEntity
  8
0
  6
Continuous
 62
     7
370
    25
100
AcDbLine
 10
34.2663835095
 20
30.3395952761
 30
0.0
 11
33.647665076
 21
29.9824167272
 31
0.0
  0
LINE
  5
1B7
330
1F
100
AcDbEntity
  8
0
  6
Continuous
 62
     7
370
    25
100
AcDbLine
 10
33.647665076
 20
29.9824167272
 30
0.0
 11
34.2663835095
 21
29.6252381783
 31
0.0
  0
LINE
  5
1B8
330
1F
100
AcDbEntity
  8
0
  6
Continuous
 62
     7
370
    25
100
AcDbLine
 10
34.9734902907
 20
30.0334422342
 30
0.0
 11
35.5922087243
 21
30.3906207831
 31
0.0
  0
LINE
  5
1B9
330
1F
100
AcDbEntity
  8
0
  6
Continuous
 62
     7
370
    25
100
AcDbLine
 10
35.5922087243
 20
30.3906207831
 30
0.0
 11
34.9734902907
 21
30.7477993321
 31
0.0
  0
LINE
  5
1BA
330
1F
100
AcDbEntity
  8
0
  6
Continuous
 62
     7
370
    25
100
AcDbLine
 10
34.9734902907
 20
30.7477993321
 30
0.0
 11
34.3547718572
 21
30.3906207831
 31
0.0
  0
LINE
  5
1BB
330
1F
100
AcDbEntity
  8
0
  6
Continuous
 62
     7
370
    25
100
AcDbLine
 10
34.3547718572
 20
30.3906207831
 30
0.0
 11
34.9734902907
 21
30.0334422342
 31
0.0
  0
LINE
  5
1BC
330
1F
100
AcDbEntity
  8
0
  6
Continuous
 62
     7
370
    25
100
AcDbLine
 10
35.6805970719
 20
30.4416462901
 30
0.0
 11
36.2993155055
 21
30.798824839
 31
0.0
  0
LINE
  5
1BD
330
1F
100
AcDbEntity
  8
0
  6
Continuous
 62
     7
370
    25
100
AcDbLine
 10
36.2993155055
 20
30.798824839
 30
0.0
 11
35.6805970719
 21
31.156003388
 31
0.0
  0
LINE
  5
1BE
330
1F
100
AcDbEntity
  8
0
  6
Continuous
 62
     7
370
    25
100
AcDbLine
 10
35.6805970719
 20
31.156003388
 30
0.0
 11
35.0618786384
 21
30.798824839
 31
0.0
  0
LINE
  5
1BF
330
1F
100
AcDbEntity
  8
0
  6
Continuous
 62
     7
370
    25
100
AcDbLine
 10
35.0618786384
 20
30.798824839
 30
0.0
 11
35.6805970719
 21
30.4416462901
 31
0.0
  0
LINE
  5
1C0
330
1F
100
AcDbEntity
  8
0
  6
Continuous
 62
     7
370
    25
100
AcDbLine
 10
32.8521699472
 20
27.9924219547
 30
0.0
 11
33.4708883807
 21
28.3496005036
 31
0.0
  0
LINE
  5
1C1
330
1F
100
AcDbEntity
  8
0
  6
Continuous
 62
     7
370
    25
100
AcDbLine
 10
33.4708883807
 20
28.3496005036
 30
0.0
 11
32.8521699472
 21
28.7067790525
 31
0.0
  0
LINE
  5
1C2
330
1F
100
AcDbEntity
  8
0
  6
Continuous
 62
     7
370
    25
100
AcDbLine
 10
32.8521699472
 20
28.7067790525
 30
0.0
 11
32.2334515136
 21
28.3496005036
 31
0.0
  0
LINE
  5
1C3
330
1F
100
AcDbEntity
  8
0
  6
Continuous
 62
     7
370
    25
100
AcDbLine
 10
32.2334515136
 20
28.3496005036
 30
0.0
 11
32.8521699472
 21
27.9924219547
 31
0.0
  0
LINE
  5
1C4
330
1F
100
AcDbEntity
  8
0
  6
Continuous
 62
     7
370
    25
100
AcDbLine
 10
36.3877038531
 20
30.0334422342
 30
0.0
 11
37.0064222866
 21
30.3906207831
 31
0.0
  0
LINE
  5
1C5
330
1F
100
AcDbEntity
  8
0
  6
Continuous
 62
     7
370
    25
100
AcDbLine
 10
37.0064222866
 20
30.3906207831
 30
0.0
 11
36.3877038531
 21
30.7477993321
 31
0.0
  0
LINE
  5
1C6
330
1F
100
AcDbEntity
  8
0
  6
Continuous
 62
     7
370
    25
100
AcDbLine
 10
36.3877038531
 20
30.7477993321
 30
0.0
 11
35.7689854196
 21
30.3906207831
 31
0.0
  0
LINE
  5
1C7
330
1F
100
AcDbEntity
  8
0
  6
Continuous
 62
     7
370
    25
100
AcDbLine
 10
35.7689854196
 20
30.3906207831
 30
0.0
 11
36.3877038531
 21
30.0334422342
 31
0.0
  0
LINE
  5
1C8
330
1F
100
AcDbEntity
  8
0
  6
Continuous
 62
     7
370
    25
100
AcDbLine
 10
33.5592767284
 20
27.5842178987
 30
0.0
 11
34.1779951619
 21
27.9413964477
 31
0.0
  0
LINE
  5
1C9
330
1F
100
AcDbEntity
  8
0
  6
Continuous
 62
     7
370
    25
100
AcDbLine
 10
34.1779951619
 20
27.9413964477
 30
0.0
 11
33.5592767284
 21
28.2985749966
 31
0.0
  0
LINE
  5
1CA
330
1F
100
AcDbEntity
  8
0
  6
Continuous
 62
     7
370
    25
100
AcDbLine
 10
33.5592767284
 20
28.2985749966
 30
0.0
 11
32.9405582948
 21
27.9413964477
 31
0.0
  0
LINE
  5
1CB
330
1F
100
AcDbEntity
  8
0
  6
Continuous
 62
     7
370
    25
100
AcDbLine
 10
32.9405582948
 20
27.9413964477
 30
0.0
 11
33.5592767284
 21
27.5842178987
 31
0.0
  0
LINE
  5
1CC
330
1F
100
AcDbEntity
  8
0
  6
Continuous
 62
     7
370
    25
100
AcDbLine
 10
37.0948106343
 20
29.6252381783
 30
0.0
 11
37.7135290678
 21
29.9824167272
 31
0.0
  0
LINE
  5
1CD
330
1F
100
AcDbEntity
  8
0
  6
Continuous
 62
     7
370
    25
100
AcDbLine
 10
37.7135290678
 20
29.9824167272
 30
0.0
 11
37.0948106343
 21
30.3395952761
 31
0.0
  0
LINE
  5
1CE
330
1F
100
AcDbEntity
  8
0
  6
Continuous
 62
     7
370
    25
100
AcDbLine
 10
37.0948106343
 20
30.3395952761
 30
0.0
 11
36.4760922007
 21
29.9824167272
 31
0.0
  0
LINE
  5
1CF
330
1F
100
AcDbEntity
  8
0
  6
Continuous
 62
     7
370
    25
100
AcDbLine
 10
36.4760922007
 20
29.9824167272
 30
0.0
 11
37.0948106343
 21
29.6252381783
 31
0.0
  0
LINE
  5
1D0
330
1F
100
AcDbEntity
  8
0
  6
Continuous
 62
     7
370
    25
100
AcDbLine
 10
34.2663835095
 20
27.1760138428
 30
0.0
 11
34.8851019431
 21
27.5331923918
 31
0.0
  0
LINE
  5
1D1
330
1F
100
AcDbEntity
  8
0
  6
Continuous
 62
     7
370
    25
100
AcDbLine
 10
34.8851019431
 20
27.5331923918
 30
0.0
 11
34.2663835095
 21
27.8903709407
 31
0.0
  0
LINE
  5
1D2
330
1F
100
AcDbEntity
  8
0
  6
Continuous
 62
     7
370
    25
100
AcDbLine
 10
34.2663835095
 20
27.8903709407
 30
0.0
 11
33.647665076
 21
27.5331923918
 31
0.0
  0
LINE
  5
1D3
330
1F
100
AcDbEntity
  8
0
  6
Continuous
 62
     7
370
    25
100
AcDbLine
 10
33.647665076
 20
27.5331923918
 30
0.0
 11
34.2663835095
 21
27.1760138428
 31
0.0
  0
LINE
  5
1D4
330
1F
100
AcDbEntity
  8
0
  6
Continuous
 62
     7
370
    25
100
AcDbLine
 10
37.8019174155
 20
29.2170341224
 30
0.0
 11
38.420635849
 21
29.5742126713
 31
0.0
  0
LINE
  5
1D5
330
1F
100
AcDbEntity
  8
0
  6
Continuous
 62
     7
370
    25
100
AcDbLine
 10
38.420635849
 20
29.5742126713
 30
0.0
 11
37.8019174155
 21
29.9313912202
 31
0.0
  0
LINE
  5
1D6
330
1F
100
AcDbEntity
  8
0
  6
Continuous
 62
     7
370
    25
100
AcDbLine
 10
37.8019174155
 20
29.9313912202
 30
0.0
 11
37.1831989819
 21
29.5742126713
 31
0.0
  0
LINE
  5
1D7
330
1F
100
AcDbEntity
  8
0
  6
Continuous
 62
     7
370
    25
100
AcDbLine
 10
37.1831989819
 20
29.5742126713
 30
0.0
 11
37.8019174155
 21
29.2170341224
 31
0.0
  0
LINE
  5
1D8
330
1F
100
AcDbEntity
  8
0
  6
Continuous
 62
     7
370
    25
100
AcDbLine
 10
34.9734902907
 20
26.7678097869
 30
0.0
 11
35.5922087243
 21
27.1249883358
 31
0.0
  0
LINE
  5
1D9
330
1F
100
AcDbEntity
  8
0
  6
Continuous
 62
     7
370
    25
100
AcDbLine
 10
35.5922087243
 20
27.1249883358
 30
0.0
 11
34.9734902907
 21
27.4821668848
 31
0.0
  0
LINE
  5
1DA
330
1F
100
AcDbEntity
  8
0
  6
Continuous
 62
     7
370
    25
100
AcDbLine
 10
34.9734902907
 20
27.4821668848
 30
0.0
 11
34.3547718572
 21
27.1249883358
 31
0.0
  0
LINE
  5
1DB
330
1F
100
AcDbEntity
  8
0
  6
Continuous
 62
     7
370
    25
100
AcDbLine
 10
34.3547718572
 20
27.1249883358
 30
0.0
 11
34.9734902907
 21
26.7678097869
 31
0.0
  0
LINE
  5
1DC
330
1F
100
AcDbEntity
  8
0
  6
Continuous
 62
     7
370
    25
100
AcDbLine
 10
38.5090241967
 20
28.8088300665
 30
0.0
 11
39.1277426302
 21
29.1660086154
 31
0.0
  0
LINE
  5
1DD
330
1F
100
AcDbEntity
  8
0
  6
Continuous
 62
     7
370
    25
100
AcDbLine
 10
39.1277426302
 20
29.1660086154
 30
0.0
 11
38.5090241967
 21
29.5231871643
 31
0.0
  0
LINE
  5
1DE
330
1F
100
AcDbEntity
  8
0
  6
Continuous
 62
     7
370
    25
100
AcDbLine
 10
38.5090241967
 20
29.5231871643
 30
0.0
 11
37.8903057631
 21
29.1660086154
 31
0.0
  0
LINE
  5
1DF
330
1F
100
AcDbEntity
  8
0
  6
Continuous
 62
     7
370
    25
100
AcDbLine
 10
37.8903057631
 20
29.1660086154
 30
0.0
 11
38.5090241967
 21
28.8088300665
 31
0.0
  0
LINE
  5
1E0
330
1F
100
AcDbEntity
  8
0
  6
Continuous
 62
     7
370
    25
100
AcDbLine
 10
35.6805970719
 20
26.359605731
 30
0.0
 11
36.2993155055
 21
26.7167842799
 31
0.0
  0
LINE
  5
1E1
330
1F
100
AcDbEntity
  8
0
  6
Continuous
 62
     7
370
    25
100
AcDbLine
 10
36.2993155055
 20
26.7167842799
 30
0.0
 11
35.6805970719
 21
27.0739628289
 31
0.0
  0
LINE
  5
1E2
330
1F
100
AcDbEntity
  8
0
  6
Continuous
 62
     7
370
    25
100
AcDbLine
 10
35.6805970719
 20
27.0739628289
 30
0.0
 11
35.0618786384
 21
26.7167842799
 31
0.0
  0
LINE
  5
1E3
330
1F
100
AcDbEntity
  8
0
  6
Continuous
 62
     7
370
    25
100
AcDbLine
 10
35.0618786384
 20
26.7167842799
 30
0.0
 11
35.6805970719
 21
26.359605731
 31
0.0
  0
LINE
  5
1E4
330
1F
100
AcDbEntity
  8
0
  6
Continuous
 62
     7
370
    25
100
AcDbLine
 10
36.3877038531
 20
26.7678097869
 30
0.0
 11
37.0064222866
 21
27.1249883358
 31
0.0
  0
LINE
  5
1E5
330
1F
100
AcDbEntity
  8
0
  6
Continuous
 62
     7
370
    25
100
AcDbLine
 10
37.0064222866
 20
27.1249883358
 30
0.0
 11
36.3877038531
 21
27.4821668848
 31
0.0
  0
LINE
  5
1E6
330
1F
100
AcDbEntity
  8
0
  6
Continuous
 62
     7
370
    25
100
AcDbLine
 10
36.3877038531
 20
27.4821668848
 30
0.0
 11
35.7689854196
 21
27.1249883358
 31
0.0
  0
LINE
  5
1E7
330
1F
100
AcDbEntity
  8
0
  6
Continuous
 62
     7
370
    25
100
AcDbLine
 10
35.7689854196
 20
27.1249883358
 30
0.0
 11
36.3877038531
 21
26.7678097869
 31
0.0
  0
LINE
  5
1E8
330
1F
100
AcDbEntity
  8
0
  6
Continuous
 62
     7
370
    25
100
AcDbLine
 10
37.0948106343
 20
27.1760138428
 30
0.0
 11
37.7135290678
 21
27.5331923918
 31
0.0
  0
LINE
  5
1E9
330
1F
100
AcDbEntity
  8
0
  6
Continuous
 62
     7
370
    25
100
AcDbLine
 10
37.7135290678
 20
27.5331923918
 30
0.0
 11
37.0948106343
 21
27.8903709407
 31
0.0
  0
LINE
  5
1EA
330
1F
100
AcDbEntity
  8
0
  6
Continuous
 62
     7
370
    25
100
AcDbLine
 10
37.0948106343
 20
27.8903709407
 30
0.0
 11
36.4760922007
 21
27.5331923918
 31
0.0
  0
LINE
  5
1EB
330
1F
100
AcDbEntity
  8
0
  6
Continuous
 62
     7
370
    25
100
AcDbLine
 10
36.4760922007
 20
27.5331923918
 30
0.0
 11
37.0948106343
 21
27.1760138428
 31
0.0
  0
LINE
  5
1EC
330
1F
100
AcDbEntity
  8
0
  6
Continuous
 62
     7
370
    25
100
AcDbLine
 10
37.8019174155
 20
27.5842178987
 30
0.0
 11
38.420635849
 21
27.9413964477
 31
0.0
  0
LINE
  5
1ED
330
1F
100
AcDbEntity
  8
0
  6
Continuous
 62
     7
370
    25
100
AcDbLine
 10
38.420635849
 20
27.9413964477
 30
0.0
 11
37.8019174155
 21
28.2985749966
 31
0.0
  0
LINE
  5
1EE
330
1F
100
AcDbEntity
  8
0
  6
Continuous
 62
     7
370
    25
100
AcDbLine
 10
37.8019174155
 20
28.2985749966
 30
0.0
 11
37.1831989819
 21
27.9413964477
 31
0.0
  0
LINE
  5
1EF
330
1F
100
AcDbEntity
  8
0
  6
Continuous
 62
     7
370
    25
100
AcDbLine
 10
37.1831989819
 20
27.9413964477
 30
0.0
 11
37.8019174155
 21
27.5842178987
 31
0.0
  0
LINE
  5
1F0
330
1F
100
AcDbEntity
  8
0
  6
Continuous
 62
     7
370
    25
100
AcDbLine
 10
33.5592767284
 20
28.4006260106
 30
0.0
 11
34.1779951619
 21
28.7578045595
 31
0.0
  0
LINE
  5
1F1
330
1F
100
AcDbEntity
  8
0
  6
Continuous
 62
     7
370
    25
100
AcDbLine
 10
34.1779951619
 20
28.7578045595
 30
0.0
 11
33.5592767284
 21
29.1149831084
 31
0.0
  0
LINE
  5
1F2
330
1F
100
AcDbEntity
  8
0
  6
Continuous
 62
     7
370
    25
100
AcDbLine
 10
33.5592767284
 20
29.1149831084
 30
0.0
 11
32.9405582948
 21
28.7578045595
 31
0.0
  0
LINE
  5
1F3
330
1F
100
AcDbEntity
  8
0
  6
Continuous
 62
     7
370
    25
100
AcDbLine
 10
32.9405582948
 20
28.7578045595
 30
0.0
 11
33.5592767284
 21
28.4006260106
 31
0.0
  0
LINE
  5
1F4
330
1F
100
AcDbEntity
  8
0
  6
Continuous
 62
     7
370
    25
100
AcDbLine
 10
34.2663835095
 20
28.8088300665
 30
0.0
 11
34.8851019431
 21
29.1660086154
 31
0.0
  0
LINE
  5
1F5
330
1F
100
AcDbEntity
  8
0
  6
Continuous
 62
     7
370
    25
100
AcDbLine
 10
34.8851019431
 20
29.1660086154
 30
0.0
 11
34.2663835095
 21
29.5231871643
 31
0.0
  0
LINE
  5
1F6
330
1F
100
AcDbEntity
  8
0
  6
Continuous
 62
     7
370
    25
100
AcDbLine
 10
34.2663835095
 20
29.5231871643
 30
0.0
 11
33.647665076
 21
29.1660086154
 31
0.0
  0
LINE
  5
1F7
330
1F
100
AcDbEntity
  8
0
  6
Continuous
 62
     7
370
    25
100
AcDbLine
 10
33.647665076
 20
29.1660086154
 30
0.0
 11
34.2663835095
 21
28.8088300665
 31
0.0
  0
LINE
  5
1F8
330
1F
100
AcDbEntity
  8
0
  6
Continuous
 62
     7
370
    25
100
AcDbLine
 10
34.9734902907
 20
29.2170341224
 30
0.0
 11
35.5922087243
 21
29.5742126713
 31
0.0
  0
LINE
  5
1F9
330
1F
100
AcDbEntity
  8
0
  6
Continuous
 62
     7
370
    25
100
AcDbLine
 10
35.5922087243
 20
29.5742126713
 30
0.0
 11
34.9734902907
 21
29.9313912202
 31
0.0
  0
LINE
  5
1FA
330
1F
100
AcDbEntity
  8
0
  6
Continuous
 62
     7
370
    25
100
AcDbLine
 10
34.9734902907
 20
29.9313912202
 30
0.0
 11
34.3547718572
 21
29.5742126713
 31
0.0
  0
LINE
  5
1FB
330
1F
100
AcDbEntity
  8
0
  6
Continuous
 62
     7
370
    25
100
AcDbLine
 10
34.3547718572
 20
29.5742126713
 30
0.0
 11
34.9734902907
 21
29.2170341224
 31
0.0
  0
LINE
  5
1FC
330
1F
100
AcDbEntity
  8
0
  6
Continuous
 62
     7
370
    25
100
AcDbLine
 10
35.6805970719
 20
29.6252381783
 30
0.0
 11
36.2993155055
 21
29.9824167272
 31
0.0
  0
LINE
  5
1FD
330
1F
100
AcDbEntity
  8
0
  6
Continuous
 62
     7
370
    25
100
AcDbLine
 10
36.2993155055
 20
29.9824167272
 30
0.0
 11
35.6805970719
 21
30.3395952761
 31
0.0
  0
LINE
  5
1FE
330
1F
100
AcDbEntity
  8
0
  6
Continuous
 62
     7
370
    25
100
AcDbLine
 10
35.6805970719
 20
30.3395952761
 30
0.0
 11
35.0618786384
 21
29.9824167272
 31
0.0
  0
LINE
  5
1FF
330
1F
100
AcDbEntity
  8
0
  6
Continuous
 62
     7
370
    25
100
AcDbLine
 10
35.0618786384
 20
29.9824167272
 30
0.0
 11
35.6805970719
 21
29.6252381783
 31
0.0
  0
LINE
  5
200
330
1F
100
AcDbEntity
  8
0
  6
Continuous
 62
     7
370
    25
100
AcDbLine
 10
34.2663835095
 20
27.9924219547
 30
0.0
 11
34.8851019431
 21
28.3496005036
 31
0.0
  0
LINE
  5
201
330
1F
100
AcDbEntity
  8
0
  6
Continuous
 62
     7
370
    25
100
AcDbLine
 10
34.8851019431
 20
28.3496005036
 30
0.0
 11
34.2663835095
 21
28.7067790525
 31
0.0
  0
LINE
  5
202
330
1F
100
AcDbEntity
  8
0
  6
Continuous
 62
     7
370
    25
100
AcDbLine
 10
34.2663835095
 20
28.7067790525
 30
0.0
 11
33.647665076
 21
28.3496005036
 31
0.0
  0
LINE
  5
203
330
1F
100
AcDbEntity
  8
0
  6
Continuous
 62
     7
370
    25
100
AcDbLine
 10
33.647665076
 20
28.3496005036
 30
0.0
 11
34.2663835095
 21
27.9924219547
 31
0.0
  0
LINE
  5
204
330
1F
100
AcDbEntity
  8
0
  6
Continuous
 62
     7
370
    25
100
AcDbLine
 10
34.9734902907
 20
28.4006260106
 30
0.0
 11
35.5922087243
 21
28.7578045595
 31
0.0
  0
LINE
  5
205
330
1F
100
AcDbEntity
  8
0
  6
Continuous
 62
     7
370
    25
100
AcDbLine
 10
35.5922087243
 20
28.7578045595
 30
0.0
 11
34.9734902907
 21
29.1149831084
 31
0.0
  0
LINE
  5
206
330
1F
100
AcDbEntity
  8
0
  6
Continuous
 62
     7
370
    25
100
AcDbLine
 10
34.9734902907
 20
29.1149831084
 30
0.0
 11
34.3547718572
 21
28.7578045595
 31
0.0
  0
LINE
  5
207
330
1F
100
AcDbEntity
  8
0
  6
Continuous
 62
     7
370
    25
100
AcDbLine
 10
34.3547718572
 20
28.7578045595
 30
0.0
 11
34.9734902907
 21
28.4006260106
 31
0.0
  0
LINE
  5
208
330
1F
100
AcDbEntity
  8
0
  6
Continuous
 62
     7
370
    25
100
AcDbLine
 10
35.6805970719
 20
28.8088300665
 30
0.0
 11
36.2993155055
 21
29.1660086154
 31
0.0
  0
LINE
  5
209
330
1F
100
AcDbEntity
  8
0
  6
Continuous
 62
     7
370
    25
100
AcDbLine
 10
36.2993155055
 20
29.1660086154
 30
0.0
 11
35.6805970719
 21
29.5231871643
 31
0.0
  0
LINE
  5
20A
330
1F
100
AcDbEntity
  8
0
  6
Continuous
 62
     7
370
    25
100
AcDbLine
 10
35.6805970719
 20
29.5231871643
 30
0.0
 11
35.0618786384
 21
29.1660086154
 31
0.0
  0
LINE
  5
20B
330
1F
100
AcDbEntity
  8
0
  6
Continuous
 62
     7
370
    25
100
AcDbLine
 10
35.0618786384
 20
29.1660086154
 30
0.0
 11
35.6805970719
 21
28.8088300665
 31
0.0
  0
LINE
  5
20C
330
1F
100
AcDbEntity
  8
0
  6
Continuous
 62
     7
370
    25
100
AcDbLine
 10
36.3877038531
 20
29.2170341224
 30
0.0
 11
37.0064222866
 21
29.5742126713
 31
0.0
  0
LINE
  5
20D
330
1F
100
AcDbEntity
  8
0
  6
Continuous
 62
     7
370
    25
100
AcDbLine
 10
37.0064222866
 20
29.5742126713
 30
0.0
 11
36.3877038531
 21
29.9313912202
 31
0.0
  0
LINE
  5
20E
330
1F
100
AcDbEntity
  8
0
  6
Continuous
 62
     7
370
    25
100
AcDbLine
 10
36.3877038531
 20
29.9313912202
 30
0.0
 11
35.7689854196
 21
29.5742126713
 31
0.0
  0
LINE
  5
20F
330
1F
100
AcDbEntity
  8
0
  6
Continuous
 62
     7
370
    25
100
AcDbLine
 10
35.7689854196
 20
29.5742126713
 30
0.0
 11
36.3877038531
 21
29.2170341224
 31
0.0
  0
LINE
  5
210
330
1F
100
AcDbEntity
  8
0
  6
Continuous
 62
     7
370
    25
100
AcDbLine
 10
34.9734902907
 20
27.5842178987
 30
0.0
 11
35.5922087243
 21
27.9413964477
 31
0.0
  0
LINE
  5
211
330
1F
100
AcDbEntity
  8
0
  6
Continuous
 62
     7
370
    25
100
AcDbLine
 10
35.5922087243
 20
27.9413964477
 30
0.0
 11
34.9734902907
 21
28.2985749966
 31
0.0
  0
LINE
  5
212
330
1F
100
AcDbEntity
  8
0
  6
Continuous
 62
     7
370
    25
100
AcDbLine
 10
34.9734902907
 20
28.2985749966
 30
0.0
 11
34.3547718572
 21
27.9413964477
 31
0.0
  0
LINE
  5
213
330
1F
100
AcDbEntity
  8
0
  6
Continuous
 62
     7
370
    25
100
AcDbLine
 10
34.3547718572
 20
27.9413964477
 30
0.0
 11
34.9734902907
 21
27.5842178987
 31
0.0
  0
LINE
  5
214
330
1F
100
AcDbEntity
  8
0
  6
Continuous
 62
     7
370
    25
100
AcDbLine
 10
35.6805970719
 20
27.9924219547
 30
0.0
 11
36.2993155055
 21
28.3496005036
 31
0.0
  0
LINE
  5
215
330
1F
100
AcDbEntity
  8
0
  6
Continuous
 62
     7
370
    25
100
AcDbLine
 10
36.2993155055
 20
28.3496005036
 30
0.0
 11
35.6805970719
 21
28.7067790525
 31
0.0
  0
LINE
  5
216
330
1F
100
AcDbEntity
  8
0
  6
Continuous
 62
     7
370
    25
100
AcDbLine
 10
35.6805970719
 20
28.7067790525
 30
0.0
 11
35.0618786384
 21
28.3496005036
 31
0.0
  0
LINE
  5
217
330
1F
100
AcDbEntity
  8
0
  6
Continuous
 62
     7
370
    25
100
AcDbLine
 10
35.0618786384
 20
28.3496005036
 30
0.0
 11
35.6805970719
 21
27.9924219547
 31
0.0
  0
LINE
  5
218
330
1F
100
AcDbEntity
  8
0
  6
Continuous
 62
     7
370
    25
100
AcDbLine
 10
36.3877038531
 20
28.4006260106
 30
0.0
 11
37.0064222866
 21
28.7578045595
 31
0.0
  0
LINE
  5
219
330
1F
100
AcDbEntity
  8
0
  6
Continuous
 62
     7
370
    25
100
AcDbLine
 10
37.0064222866
 20
28.7578045595
 30
0.0
 11
36.3877038531
 21
29.1149831084
 31
0.0
  0
LINE
  5
21A
330
1F
100
AcDbEntity
  8
0
  6
Continuous
 62
     7
370
    25
100
AcDbLine
 10
36.3877038531
 20
29.1149831084
 30
0.0
 11
35.7689854196
 21
28.7578045595
 31
0.0
  0
LINE
  5
21B
330
1F
100
AcDbEntity
  8
0
  6
Continuous
 62
     7
370
    25
100
AcDbLine
 10
35.7689854196
 20
28.7578045595
 30
0.0
 11
36.3877038531
 21
28.4006260106
 31
0.0
  0
LINE
  5
21C
330
1F
100
AcDbEntity
  8
0
  6
Continuous
 62
     7
370
    25
100
AcDbLine
 10
37.0948106343
 20
28.8088300665
 30
0.0
 11
37.7135290678
 21
29.1660086154
 31
0.0
  0
LINE
  5
21D
330
1F
100
AcDbEntity
  8
0
  6
Continuous
 62
     7
370
    25
100
AcDbLine
 10
37.7135290678
 20
29.1660086154
 30
0.0
 11
37.0948106343
 21
29.5231871643
 31
0.0
  0
LINE
  5
21E
330
1F
100
AcDbEntity
  8
0
  6
Continuous
 62
     7
370
    25
100
AcDbLine
 10
37.0948106343
 20
29.5231871643
 30
0.0
 11
36.4760922007
 21
29.1660086154
 31
0.0
  0
LINE
  5
21F
330
1F
100
AcDbEntity
  8
0
  6
Continuous
 62
     7
370
    25
100
AcDbLine
 10
36.4760922007
 20
29.1660086154
 30
0.0
 11
37.0948106343
 21
28.8088300665
 31
0.0
  0
LINE
  5
220
330
1F
100
AcDbEntity
  8
0
  6
Continuous
 62
     7
370
    25
100
AcDbLine
 10
35.6805970719
 20
27.1760138428
 30
0.0
 11
36.2993155055
 21
27.5331923918
 31
0.0
  0
LINE
  5
221
330
1F
100
AcDbEntity
  8
0
  6
Continuous
 62
     7
370
    25
100
AcDbLine
 10
36.2993155055
 20
27.5331923918
 30
0.0
 11
35.6805970719
 21
27.8903709407
 31
0.0
  0
LINE
  5
222
330
1F
100
AcDbEntity
  8
0
  6
Continuous
 62
     7
370
    25
100
AcDbLine
 10
35.6805970719
 20
27.8903709407
 30
0.0
 11
35.0618786384
 21
27.5331923918
 31
0.0
  0
LINE
  5
223
330
1F
100
AcDbEntity
  8
0
  6
Continuous
 62
     7
370
    25
100
AcDbLine
 10
35.0618786384
 20
27.5331923918
 30
0.0
 11
35.6805970719
 21
27.1760138428
 31
0.0
  0
LINE
  5
224
330
1F
100
AcDbEntity
  8
0
  6
Continuous
 62
     7
370
    25
100
AcDbLine
 10
36.3877038531
 20
27.5842178987
 30
0.0
 11
37.0064222866
 21
27.9413964477
 31
0.0
  0
LINE
  5
225
330
1F
100
AcDbEntity
  8
0
  6
Continuous
 62
     7
370
    25
100
AcDbLine
 10
37.0064222866
 20
27.9413964477
 30
0.0
 11
36.3877038531
 21
28.2985749966
 31
0.0
  0
LINE
  5
226
330
1F
100
AcDbEntity
  8
0
  6
Continuous
 62
     7
370
    25
100
AcDbLine
 10
36.3877038531
 20
28.2985749966
 30
0.0
 11
35.7689854196
 21
27.9413964477
 31
0.0
  0
LINE
  5
227
330
1F
100
AcDbEntity
  8
0
  6
Continuous
 62
     7
370
    25
100
AcDbLine
 10
35.7689854196
 20
27.9413964477
 30
0.0
 11
36.3877038531
 21
27.5842178987
 31
0.0
  0
LINE
  5
228
330
1F
100
AcDbEntity
  8
0
  6
Continuous
 62
     7
370
    25
100
AcDbLine
 10
37.0948106343
 20
27.9924219547
 30
0.0
 11
37.7135290678
 21
28.3496005036
 31
0.0
  0
LINE
  5
229
330
1F
100
AcDbEntity
  8
0
  6
Continuous
 62
     7
370
    25
100
AcDbLine
 10
37.7135290678
 20
28.3496005036
 30
0.0
 11
37.0948106343
 21
28.7067790525
 31
0.0
  0
LINE
  5
22A
330
1F
100
AcDbEntity
  8
0
  6
Continuous
 62
     7
370
    25
100
AcDbLine
 10
37.0948106343
 20
28.7067790525
 30
0.0
 11
36.4760922007
 21
28.3496005036
 31
0.0
  0
LINE
  5
22B
330
1F
100
AcDbEntity
  8
0
  6
Continuous
 62
     7
370
    25
100
AcDbLine
 10
36.4760922007
 20
28.3496005036
 30
0.0
 11
37.0948106343
 21
27.9924219547
 31
0.0
  0
LINE
  5
22C
330
1F
100
AcDbEntity
  8
0
  6
Continuous
 62
     7
370
    25
100
AcDbLine
 10
35.660579033
 20
31.3716615838
 30
0.0
 11
31.1327552641
 21
28.7578045595
 31
0.0
  0
LINE
  5
22D
330
1F
100
AcDbEntity
  8
0
  6
Continuous
 62
     7
370
    25
100
AcDbLine
 10
40.188402802
 20
28.7578045595
 30
0.0
 11
35.660579033
 21
31.3716615838
 31
0.0
  0
LINE
  5
22E
330
1F
100
AcDbEntity
  8
0
  6
Continuous
 62
     7
370
    25
100
AcDbLine
 10
39.2161309778
 20
28.4006260106
 30
0.0
 11
39.8348494114
 21
28.7578045595
 31
0.0
  0
LINE
  5
22F
330
1F
100
AcDbEntity
  8
0
  6
Continuous
 62
     7
370
    25
100
AcDbLine
 10
39.8348494114
 20
28.7578045595
 30
0.0
 11
39.2161309778
 21
29.1149831084
 31
0.0
  0
LINE
  5
230
330
1F
100
AcDbEntity
  8
0
  6
Continuous
 62
     7
370
    25
100
AcDbLine
 10
39.2161309778
 20
29.1149831084
 30
0.0
 11
38.5974125443
 21
28.7578045595
 31
0.0
  0
LINE
  5
231
330
1F
100
AcDbEntity
  8
0
  6
Continuous
 62
     7
370
    25
100
AcDbLine
 10
38.5974125443
 20
28.7578045595
 30
0.0
 11
39.2161309778
 21
28.4006260106
 31
0.0
  0
LINE
  5
232
330
1F
100
AcDbEntity
  8
0
  6
Continuous
 62
     7
370
    25
100
AcDbLine
 10
37.8019174155
 20
28.4006260106
 30
0.0
 11
38.420635849
 21
28.7578045595
 31
0.0
  0
LINE
  5
233
330
1F
100
AcDbEntity
  8
0
  6
Continuous
 62
     7
370
    25
100
AcDbLine
 10
38.420635849
 20
28.7578045595
 30
0.0
 11
37.8019174155
 21
29.1149831084
 31
0.0
  0
LINE
  5
234
330
1F
100
AcDbEntity
  8
0
  6
Continuous
 62
     7
370
    25
100
AcDbLine
 10
37.8019174155
 20
29.1149831084
 30
0.0
 11
37.1831989819
 21
28.7578045595
 31
0.0
  0
LINE
  5
235
330
1F
100
AcDbEntity
  8
0
  6
Continuous
 62
     7
370
    25
100
AcDbLine
 10
37.1831989819
 20
28.7578045595
 30
0.0
 11
37.8019174155
 21
28.4006260106
 31
0.0
  0
LINE
  5
236
330
1F
100
AcDbEntity
  8
0
  6
Continuous
 62
     7
370
    25
100
AcDbLine
 10
38.5090241967
 20
27.9924219547
 30
0.0
 11
39.1277426302
 21
28.3496005036
 31
0.0
  0
LINE
  5
237
330
1F
100
AcDbEntity
  8
0
  6
Continuous
 62
     7
370
    25
100
AcDbLine
 10
39.1277426302
 20
28.3496005036
 30
0.0
 11
38.5090241967
 21
28.7067790525
 31
0.0
  0
LINE
  5
238
330
1F
100
AcDbEntity
  8
0
  6
Continuous
 62
     7
370
    25
100
AcDbLine
 10
38.5090241967
 20
28.7067790525
 30
0.0
 11
37.8903057631
 21
28.3496005036
 31
0.0
  0
LINE
  5
239
330
1F
100
AcDbEntity
  8
0
  6
Continuous
 62
     7
370
    25
100
AcDbLine
 10
37.8903057631
 20
28.3496005036
 30
0.0
 11
38.5090241967
 21
27.9924219547
 31
0.0
  0
LINE
  5
23A
330
1F
100
AcDbEntity
  8
0
  6
Continuous
 62
     7
370
    25
100
AcDbLine
 10
35.5581558327
 20
26.4302895539
 30
0.0
 11
35.6805970719
 21
26.5009733767
 31
0.0
  0
LINE
  5
23B
330
1F
100
AcDbEntity
  8
0
  6
Continuous
 62
     7
370
    25
100
AcDbLine
 10
35.6805970719
 20
26.5009733767
 30
0.0
 11
35.8030383111
 21
26.4302895539
 31
0.0
  0
LINE
  5
23C
330
1F
100
AcDbEntity
  8
0
  6
Continuous
 62
     7
370
    25
100
AcDbLine
 10
35.6805970719
 20
26.5009733767
 30
0.0
 11
35.6805970719
 21
27.0739628289
 31
0.0
  0
LINE
  5
23D
330
1F
100
AcDbEntity
  8
0
  6
Continuous
 62
     7
370
    25
100
AcDbLine
 10
36.3877038531
 20
26.7945795422
 30
0.0
 11
36.3877038531
 21
27.4821668848
 31
0.0
  0
LINE
  5
23E
330
1F
100
AcDbEntity
  8
0
  6
Continuous
 62
     7
370
    25
100
AcDbLine
 10
36.3877038531
 20
26.7945795422
 30
0.0
 11
36.4108896535
 21
26.7811946646
 31
0.0
  0
LINE
  5
23F
330
1F
100
AcDbEntity
  8
0
  6
Continuous
 62
     7
370
    25
100
AcDbLine
 10
36.3645180527
 20
26.7811946646
 30
0.0
 11
36.3877038531
 21
26.7945795422
 31
0.0
  0
LINE
  5
240
330
1F
100
AcDbEntity
  8
0
  6
Continuous
 62
     7
370
    25
100
AcDbLine
 10
34.9734902907
 20
26.7945795422
 30
0.0
 11
34.9734902907
 21
27.4821668848
 31
0.0
  0
LINE
  5
241
330
1F
100
AcDbEntity
  8
0
  6
Continuous
 62
     7
370
    25
100
AcDbLine
 10
34.9734902907
 20
26.7945795422
 30
0.0
 11
34.9966760911
 21
26.7811946646
 31
0.0
  0
LINE
  5
242
330
1F
100
AcDbEntity
  8
0
  6
Continuous
 62
     7
370
    25
100
AcDbLine
 10
34.9503044904
 20
26.7811946646
 30
0.0
 11
34.9734902907
 21
26.7945795422
 31
0.0
  0
LINE
  5
243
330
1F
100
AcDbEntity
  8
0
  6
Continuous
 62
     7
370
    25
100
AcDbLine
 10
37.0948106343
 20
27.2027835981
 30
0.0
 11
37.0948106343
 21
27.8903709407
 31
0.0
  0
LINE
  5
244
330
1F
100
AcDbEntity
  8
0
  6
Continuous
 62
     7
370
    25
100
AcDbLine
 10
37.0948106343
 20
27.2027835981
 30
0.0
 11
37.1179964346
 21
27.1893987205
 31
0.0
  0
LINE
  5
245
330
1F
100
AcDbEntity
  8
0
  6
Continuous
 62
     7
370
    25
100
AcDbLine
 10
37.0716248339
 20
27.1893987205
 30
0.0
 11
37.0948106343
 21
27.2027835981
 31
0.0
  0
LINE
  5
246
330
1F
100
AcDbEntity
  8
0
  6
Continuous
 62
     7
370
    25
100
AcDbLine
 10
35.6805970719
 20
27.2027835981
 30
0.0
 11
35.6805970719
 21
27.8903709407
 31
0.0
  0
LINE
  5
247
330
1F
100
AcDbEntity
  8
0
  6
Continuous
 62
     7
370
    25
100
AcDbLine
 10
35.6805970719
 20
27.2027835981
 30
0.0
 11
35.7037828723
 21
27.1893987205
 31
0.0
  0
LINE
  5
248
330
1F
100
AcDbEntity
  8
0
  6
Continuous
 62
     7
370
    25
100
AcDbLine
 10
35.6574112716
 20
27.1893987205
 30
0.0
 11
35.6805970719
 21
27.2027835981
 31
0.0
  0
LINE
  5
249
330
1F
100
AcDbEntity
  8
0
  6
Continuous
 62
     7
370
    25
100
AcDbLine
 10
34.2663835095
 20
27.2027835981
 30
0.0
 11
34.2663835095
 21
27.8903709407
 31
0.0
  0
LINE
  5
24A
330
1F
100
AcDbEntity
  8
0
  6
Continuous
 62
     7
370
    25
100
AcDbLine
 10
34.2663835095
 20
27.2027835981
 30
0.0
 11
34.2895693099
 21
27.1893987205
 31
0.0
  0
LINE
  5
24B
330
1F
100
AcDbEntity
  8
0
  6
Continuous
 62
     7
370
    25
100
AcDbLine
 10
34.2431977092
 20
27.1893987205
 30
0.0
 11
34.2663835095
 21
27.2027835981
 31
0.0
  0
LINE
  5
24C
330
1F
100
AcDbEntity
  8
0
  6
Continuous
 62
     7
370
    25
100
AcDbLine
 10
37.8019174155
 20
27.610987654
 30
0.0
 11
37.8019174155
 21
28.2985749966
 31
0.0
  0
LINE
  5
24D
330
1F
100
AcDbEntity
  8
0
  6
Continuous
 62
     7
370
    25
100
AcDbLine
 10
37.8019174155
 20
27.610987654
 30
0.0
 11
37.8251032158
 21
27.5976027764
 31
0.0
  0
LINE
  5
24E
330
1F
100
AcDbEntity
  8
0
  6
Continuous
 62
     7
370
    25
100
AcDbLine
 10
37.7787316151
 20
27.5976027764
 30
0.0
 11
37.8019174155
 21
27.610987654
 31
0.0
  0
LINE
  5
24F
330
1F
100
AcDbEntity
  8
0
  6
Continuous
 62
     7
370
    25
100
AcDbLine
 10
36.3877038531
 20
27.610987654
 30
0.0
 11
36.3877038531
 21
28.2985749966
 31
0.0
  0
LINE
  5
250
330
1F
100
AcDbEntity
  8
0
  6
Continuous
 62
     7
370
    25
100
AcDbLine
 10
36.3877038531
 20
27.610987654
 30
0.0
 11
36.4108896535
 21
27.5976027764
 31
0.0
  0
LINE
  5
251
330
1F
100
AcDbEntity
  8
0
  6
Continuous
 62
     7
370
    25
100
AcDbLine
 10
36.3645180527
 20
27.5976027764
 30
0.0
 11
36.3877038531
 21
27.610987654
 31
0.0
  0
LINE
  5
252
330
1F
100
AcDbEntity
  8
0
  6
Continuous
 62
     7
370
    25
100
AcDbLine
 10
34.9734902907
 20
27.610987654
 30
0.0
 11
34.9734902907
 21
28.2985749966
 31
0.0
  0
LINE
  5
253
330
1F
100
AcDbEntity
  8
0
  6
Continuous
 62
     7
370
    25
100
AcDbLine
 10
34.9734902907
 20
27.610987654
 30
0.0
 11
34.9966760911
 21
27.5976027764
 31
0.0
  0
LINE
  5
254
330
1F
100
AcDbEntity
  8
0
  6
Continuous
 62
     7
370
    25
100
AcDbLine
 10
34.9503044904
 20
27.5976027764
 30
0.0
 11
34.9734902907
 21
27.610987654
 31
0.0
  0
LINE
  5
255
330
1F
100
AcDbEntity
  8
0
  6
Continuous
 62
     7
370
    25
100
AcDbLine
 10
33.5592767284
 20
27.610987654
 30
0.0
 11
33.5592767284
 21
28.2985749966
 31
0.0
  0
LINE
  5
256
330
1F
100
AcDbEntity
  8
0
  6
Continuous
 62
     7
370
    25
100
AcDbLine
 10
33.5592767284
 20
27.610987654
 30
0.0
 11
33.5824625287
 21
27.5976027764
 31
0.0
  0
LINE
  5
257
330
1F
100
AcDbEntity
  8
0
  6
Continuous
 62
     7
370
    25
100
AcDbLine
 10
33.536090928
 20
27.5976027764
 30
0.0
 11
33.5592767284
 21
27.610987654
 31
0.0
  0
LINE
  5
258
330
1F
100
AcDbEntity
  8
0
  6
Continuous
 62
     7
370
    25
100
AcDbLine
 10
38.5090241967
 20
28.0191917099
 30
0.0
 11
38.5090241967
 21
28.7067790525
 31
0.0
  0
LINE
  5
259
330
1F
100
AcDbEntity
  8
0
  6
Continuous
 62
     7
370
    25
100
AcDbLine
 10
38.5090241967
 20
28.0191917099
 30
0.0
 11
38.532209997
 21
28.0058068323
 31
0.0
  0
LINE
  5
25A
330
1F
100
AcDbEntity
  8
0
  6
Continuous
 62
     7
370
    25
100
AcDbLine
 10
38.4858383963
 20
28.0058068323
 30
0.0
 11
38.5090241967
 21
28.0191917099
 31
0.0
  0
LINE
  5
25B
330
1F
100
AcDbEntity
  8
0
  6
Continuous
 62
     7
370
    25
100
AcDbLine
 10
37.0948106343
 20
28.0191917099
 30
0.0
 11
37.0948106343
 21
28.7067790525
 31
0.0
  0
LINE
  5
25C
330
1F
100
AcDbEntity
  8
0
  6
Continuous
 62
     7
370
    25
100
AcDbLine
 10
37.0948106343
 20
28.0191917099
 30
0.0
 11
37.1179964346
 21
28.0058068323
 31
0.0
  0
LINE
  5
25D
330
1F
100
AcDbEntity
  8
0
  6
Continuous
 62
     7
370
    25
100
AcDbLine
 10
37.0716248339
 20
28.0058068323
 30
0.0
 11
37.0948106343
 21
28.0191917099
 31
0.0
  0
LINE
  5
25E
330
1F
100
AcDbEntity
  8
0
  6
Continuous
 62
     7
370
    25
100
AcDbLine
 10
35.6805970719
 20
28.0191917099
 30
0.0
 11
35.6805970719
 21
28.7067790525
 31
0.0
  0
LINE
  5
25F
330
1F
100
AcDbEntity
  8
0
  6
Continuous
 62
     7
370
    25
100
AcDbLine
 10
35.6805970719
 20
28.0191917099
 30
0.0
 11
35.7037828723
 21
28.0058068323
 31
0.0
  0
LINE
  5
260
330
1F
100
AcDbEntity
  8
0
  6
Continuous
 62
     7
370
    25
100
AcDbLine
 10
34.2663835095
 20
28.0191917099
 30
0.0
 11
34.2663835095
 21
28.7067790525
 31
0.0
  0
LINE
  5
261
330
1F
100
AcDbEntity
  8
0
  6
Continuous
 62
     7
370
    25
100
AcDbLine
 10
34.2663835095
 20
28.0191917099
 30
0.0
 11
34.2895693099
 21
28.0058068323
 31
0.0
  0
LINE
  5
262
330
1F
100
AcDbEntity
  8
0
  6
Continuous
 62
     7
370
    25
100
AcDbLine
 10
35.6574112716
 20
28.0058068323
 30
0.0
 11
35.6805970719
 21
28.0191917099
 31
0.0
  0
LINE
  5
263
330
1F
100
AcDbEntity
  8
0
  6
Continuous
 62
     7
370
    25
100
AcDbLine
 10
34.2431977092
 20
28.0058068323
 30
0.0
 11
34.2663835095
 21
28.0191917099
 31
0.0
  0
LINE
  5
264
330
1F
100
AcDbEntity
  8
0
  6
Continuous
 62
     7
370
    25
100
AcDbLine
 10
32.8521699472
 20
28.0191917099
 30
0.0
 11
32.8521699472
 21
28.7067790525
 31
0.0
  0
LINE
  5
265
330
1F
100
AcDbEntity
  8
0
  6
Continuous
 62
     7
370
    25
100
AcDbLine
 10
32.8521699472
 20
28.0191917099
 30
0.0
 11
32.8753557475
 21
28.0058068323
 31
0.0
  0
LINE
  5
266
330
1F
100
AcDbEntity
  8
0
  6
Continuous
 62
     7
370
    25
100
AcDbLine
 10
32.8289841468
 20
28.0058068323
 30
0.0
 11
32.8521699472
 21
28.0191917099
 31
0.0
  0
LINE
  5
267
330
1F
100
AcDbEntity
  8
0
  6
Continuous
 62
     7
370
    25
100
AcDbLine
 10
39.0936897386
 20
28.4713098334
 30
0.0
 11
39.2161309778
 21
28.5419936563
 31
0.0
  0
LINE
  5
268
330
1F
100
AcDbEntity
  8
0
  6
Continuous
 62
     7
370
    25
100
AcDbLine
 10
39.2161309778
 20
28.5419936563
 30
0.0
 11
39.2443612688
 21
28.5256966562
 31
0.0
  0
LINE
  5
269
330
1F
100
AcDbEntity
  8
0
  6
Continuous
 62
     7
370
    25
100
AcDbLine
 10
32.0959031043
 20
28.5136141568
 30
0.0
 11
32.145063166
 21
28.5419936563
 31
0.0
  0
LINE
  5
26A
330
1F
100
AcDbEntity
  8
0
  6
Continuous
 62
     7
370
    25
100
AcDbLine
 10
32.145063166
 20
28.5419936563
 30
0.0
 11
32.2675044052
 21
28.4713098334
 31
0.0
  0
LINE
  5
26B
330
1F
100
AcDbEntity
  8
0
  6
Continuous
 62
     7
370
    25
100
AcDbLine
 10
37.8019174155
 20
28.4273957659
 30
0.0
 11
37.8019174155
 21
29.1149831084
 31
0.0
  0
LINE
  5
26C
330
1F
100
AcDbEntity
  8
0
  6
Continuous
 62
     7
370
    25
100
AcDbLine
 10
37.8019174155
 20
28.4273957659
 30
0.0
 11
37.8251032158
 21
28.4140108882
 31
0.0
  0
LINE
  5
26D
330
1F
100
AcDbEntity
  8
0
  6
Continuous
 62
     7
370
    25
100
AcDbLine
 10
37.7787316151
 20
28.4140108882
 30
0.0
 11
37.8019174155
 21
28.4273957659
 31
0.0
  0
LINE
  5
26E
330
1F
100
AcDbEntity
  8
0
  6
Continuous
 62
     7
370
    25
100
AcDbLine
 10
36.3877038531
 20
28.4273957659
 30
0.0
 11
36.3877038531
 21
29.1149831084
 31
0.0
  0
LINE
  5
26F
330
1F
100
AcDbEntity
  8
0
  6
Continuous
 62
     7
370
    25
100
AcDbLine
 10
36.3877038531
 20
28.4273957659
 30
0.0
 11
36.4108896535
 21
28.4140108882
 31
0.0
  0
LINE
  5
270
330
1F
100
AcDbEntity
  8
0
  6
Continuous
 62
     7
370
    25
100
AcDbLine
 10
36.3645180527
 20
28.4140108882
 30
0.0
 11
36.3877038531
 21
28.4273957659
 31
0.0
  0
LINE
  5
271
330
1F
100
AcDbEntity
  8
0
  6
Continuous
 62
     7
370
    25
100
AcDbLine
 10
34.9734902907
 20
28.4273957659
 30
0.0
 11
34.9734902907
 21
29.1149831084
 31
0.0
  0
LINE
  5
272
330
1F
100
AcDbEntity
  8
0
  6
Continuous
 62
     7
370
    25
100
AcDbLine
 10
34.9734902907
 20
28.4273957659
 30
0.0
 11
34.9966760911
 21
28.4140108882
 31
0.0
  0
LINE
  5
273
330
1F
100
AcDbEntity
  8
0
  6
Continuous
 62
     7
370
    25
100
AcDbLine
 10
34.9503044904
 20
28.4140108882
 30
0.0
 11
34.9734902907
 21
28.4273957659
 31
0.0
  0
LINE
  5
274
330
1F
100
AcDbEntity
  8
0
  6
Continuous
 62
     7
370
    25
100
AcDbLine
 10
33.5592767284
 20
28.4273957659
 30
0.0
 11
33.5592767284
 21
29.1149831084
 31
0.0
  0
LINE
  5
275
330
1F
100
AcDbEntity
  8
0
  6
Continuous
 62
     7
370
    25
100
AcDbLine
 10
33.5592767284
 20
28.4273957659
 30
0.0
 11
33.5824625287
 21
28.4140108882
 31
0.0
  0
LINE
  5
276
330
1F
100
AcDbEntity
  8
0
  6
Continuous
 62
     7
370
    25
100
AcDbLine
 10
33.536090928
 20
28.4140108882
 30
0.0
 11
33.5592767284
 21
28.4273957659
 31
0.0
  0
LINE
  5
277
330
1F
100
AcDbEntity
  8
0
  6
Continuous
 62
     7
370
    25
100
AcDbLine
 10
39.2161309778
 20
28.5419936563
 30
0.0
 11
39.2161309778
 21
29.1149831084
 31
0.0
  0
LINE
  5
278
330
1F
100
AcDbEntity
  8
0
  6
Continuous
 62
     7
370
    25
100
AcDbLine
 10
32.145063166
 20
28.5419936563
 30
0.0
 11
32.145063166
 21
29.1149831084
 31
0.0
  0
LINE
  5
279
330
1F
100
AcDbEntity
  8
0
  6
Continuous
 62
     7
370
    25
100
AcDbLine
 10
38.5090241967
 20
28.8355998218
 30
0.0
 11
38.5090241967
 21
29.5231871643
 31
0.0
  0
LINE
  5
27A
330
1F
100
AcDbEntity
  8
0
  6
Continuous
 62
     7
370
    25
100
AcDbLine
 10
38.5090241967
 20
28.8355998218
 30
0.0
 11
38.532209997
 21
28.8222149441
 31
0.0
  0
LINE
  5
27B
330
1F
100
AcDbEntity
  8
0
  6
Continuous
 62
     7
370
    25
100
AcDbLine
 10
38.4858383963
 20
28.8222149441
 30
0.0
 11
38.5090241967
 21
28.8355998218
 31
0.0
  0
LINE
  5
27C
330
1F
100
AcDbEntity
  8
0
  6
Continuous
 62
     7
370
    25
100
AcDbLine
 10
37.0948106343
 20
28.8355998218
 30
0.0
 11
37.0948106343
 21
29.5231871643
 31
0.0
  0
LINE
  5
27D
330
1F
100
AcDbEntity
  8
0
  6
Continuous
 62
     7
370
    25
100
AcDbLine
 10
37.0948106343
 20
28.8355998218
 30
0.0
 11
37.1179964346
 21
28.8222149441
 31
0.0
  0
LINE
  5
27E
330
1F
100
AcDbEntity
  8
0
  6
Continuous
 62
     7
370
    25
100
AcDbLine
 10
37.0716248339
 20
28.8222149441
 30
0.0
 11
37.0948106343
 21
28.8355998218
 31
0.0
  0
LINE
  5
27F
330
1F
100
AcDbEntity
  8
0
  6
Continuous
 62
     7
370
    25
100
AcDbLine
 10
35.6805970719
 20
28.8355998218
 30
0.0
 11
35.6805970719
 21
29.5231871643
 31
0.0
  0
LINE
  5
280
330
1F
100
AcDbEntity
  8
0
  6
Continuous
 62
     7
370
    25
100
AcDbLine
 10
35.6805970719
 20
28.8355998218
 30
0.0
 11
35.7037828723
 21
28.8222149441
 31
0.0
  0
LINE
  5
281
330
1F
100
AcDbEntity
  8
0
  6
Continuous
 62
     7
370
    25
100
AcDbLine
 10
35.6574112716
 20
28.8222149441
 30
0.0
 11
35.6805970719
 21
28.8355998218
 31
0.0
  0
LINE
  5
282
330
1F
100
AcDbEntity
  8
0
  6
Continuous
 62
     7
370
    25
100
AcDbLine
 10
34.2663835095
 20
28.8355998218
 30
0.0
 11
34.2663835095
 21
29.5231871643
 31
0.0
  0
LINE
  5
283
330
1F
100
AcDbEntity
  8
0
  6
Continuous
 62
     7
370
    25
100
AcDbLine
 10
34.2663835095
 20
28.8355998218
 30
0.0
 11
34.2895693099
 21
28.8222149441
 31
0.0
  0
LINE
  5
284
330
1F
100
AcDbEntity
  8
0
  6
Continuous
 62
     7
370
    25
100
AcDbLine
 10
34.2431977092
 20
28.8222149441
 30
0.0
 11
34.2663835095
 21
28.8355998218
 31
0.0
  0
LINE
  5
285
330
1F
100
AcDbEntity
  8
0
  6
Continuous
 62
     7
370
    25
100
AcDbLine
 10
32.8521699472
 20
28.8355998218
 30
0.0
 11
32.8521699472
 21
29.5231871643
 31
0.0
  0
LINE
  5
286
330
1F
100
AcDbEntity
  8
0
  6
Continuous
 62
     7
370
    25
100
AcDbLine
 10
32.8521699472
 20
28.8355998218
 30
0.0
 11
32.8753557475
 21
28.8222149441
 31
0.0
  0
LINE
  5
287
330
1F
100
AcDbEntity
  8
0
  6
Continuous
 62
     7
370
    25
100
AcDbLine
 10
32.8289841468
 20
28.8222149441
 30
0.0
 11
32.8521699472
 21
28.8355998218
 31
0.0
  0
LINE
  5
288
330
1F
100
AcDbEntity
  8
0
  6
Continuous
 62
     7
370
    25
100
AcDbLine
 10
37.8019174155
 20
29.2438038777
 30
0.0
 11
37.8019174155
 21
29.9313912202
 31
0.0
  0
LINE
  5
289
330
1F
100
AcDbEntity
  8
0
  6
Continuous
 62
     7
370
    25
100
AcDbLine
 10
37.8019174155
 20
29.2438038777
 30
0.0
 11
37.8251032158
 21
29.230419
 31
0.0
  0
LINE
  5
28A
330
1F
100
AcDbEntity
  8
0
  6
Continuous
 62
     7
370
    25
100
AcDbLine
 10
37.7787316151
 20
29.230419
 30
0.0
 11
37.8019174155
 21
29.2438038777
 31
0.0
  0
LINE
  5
28B
330
1F
100
AcDbEntity
  8
0
  6
Continuous
 62
     7
370
    25
100
AcDbLine
 10
36.3877038531
 20
29.2438038777
 30
0.0
 11
36.3877038531
 21
29.9313912202
 31
0.0
  0
LINE
  5
28C
330
1F
100
AcDbEntity
  8
0
  6
Continuous
 62
     7
370
    25
100
AcDbLine
 10
36.3877038531
 20
29.2438038777
 30
0.0
 11
36.4108896535
 21
29.230419
 31
0.0
  0
LINE
  5
28D
330
1F
100
AcDbEntity
  8
0
  6
Continuous
 62
     7
370
    25
100
AcDbLine
 10
36.3645180527
 20
29.230419
 30
0.0
 11
36.3877038531
 21
29.2438038777
 31
0.0
  0
LINE
  5
28E
330
1F
100
AcDbEntity
  8
0
  6
Continuous
 62
     7
370
    25
100
AcDbLine
 10
34.9734902907
 20
29.2438038777
 30
0.0
 11
34.9734902907
 21
29.9313912202
 31
0.0
  0
LINE
  5
28F
330
1F
100
AcDbEntity
  8
0
  6
Continuous
 62
     7
370
    25
100
AcDbLine
 10
34.9734902907
 20
29.2438038777
 30
0.0
 11
34.9966760911
 21
29.230419
 31
0.0
  0
LINE
  5
290
330
1F
100
AcDbEntity
  8
0
  6
Continuous
 62
     7
370
    25
100
AcDbLine
 10
34.9503044904
 20
29.230419
 30
0.0
 11
34.9734902907
 21
29.2438038777
 31
0.0
  0
LINE
  5
291
330
1F
100
AcDbEntity
  8
0
  6
Continuous
 62
     7
370
    25
100
AcDbLine
 10
33.5592767284
 20
29.2438038777
 30
0.0
 11
33.5592767284
 21
29.9313912202
 31
0.0
  0
LINE
  5
292
330
1F
100
AcDbEntity
  8
0
  6
Continuous
 62
     7
370
    25
100
AcDbLine
 10
33.5592767284
 20
29.2438038777
 30
0.0
 11
33.5824625287
 21
29.230419
 31
0.0
  0
LINE
  5
293
330
1F
100
AcDbEntity
  8
0
  6
Continuous
 62
     7
370
    25
100
AcDbLine
 10
33.536090928
 20
29.230419
 30
0.0
 11
33.5592767284
 21
29.2438038777
 31
0.0
  0
LINE
  5
294
330
1F
100
AcDbEntity
  8
0
  6
Continuous
 62
     7
370
    25
100
AcDbLine
 10
37.0948106343
 20
29.6520079336
 30
0.0
 11
37.0948106343
 21
30.3395952761
 31
0.0
  0
LINE
  5
295
330
1F
100
AcDbEntity
  8
0
  6
Continuous
 62
     7
370
    25
100
AcDbLine
 10
37.0948106343
 20
29.6520079336
 30
0.0
 11
37.1179964346
 21
29.6386230559
 31
0.0
  0
LINE
  5
296
330
1F
100
AcDbEntity
  8
0
  6
Continuous
 62
     7
370
    25
100
AcDbLine
 10
37.0716248339
 20
29.6386230559
 30
0.0
 11
37.0948106343
 21
29.6520079336
 31
0.0
  0
LINE
  5
297
330
1F
100
AcDbEntity
  8
0
  6
Continuous
 62
     7
370
    25
100
AcDbLine
 10
35.6805970719
 20
29.6520079336
 30
0.0
 11
35.6805970719
 21
30.3395952761
 31
0.0
  0
LINE
  5
298
330
1F
100
AcDbEntity
  8
0
  6
Continuous
 62
     7
370
    25
100
AcDbLine
 10
35.6805970719
 20
29.6520079336
 30
0.0
 11
35.7037828723
 21
29.6386230559
 31
0.0
  0
LINE
  5
299
330
1F
100
AcDbEntity
  8
0
  6
Continuous
 62
     7
370
    25
100
AcDbLine
 10
35.6574112716
 20
29.6386230559
 30
0.0
 11
35.6805970719
 21
29.6520079336
 31
0.0
  0
LINE
  5
29A
330
1F
100
AcDbEntity
  8
0
  6
Continuous
 62
     7
370
    25
100
AcDbLine
 10
34.2663835095
 20
29.6520079336
 30
0.0
 11
34.2663835095
 21
30.3395952761
 31
0.0
  0
LINE
  5
29B
330
1F
100
AcDbEntity
  8
0
  6
Continuous
 62
     7
370
    25
100
AcDbLine
 10
34.2663835095
 20
29.6520079336
 30
0.0
 11
34.2895693099
 21
29.6386230559
 31
0.0
  0
LINE
  5
29C
330
1F
100
AcDbEntity
  8
0
  6
Continuous
 62
     7
370
    25
100
AcDbLine
 10
34.2431977092
 20
29.6386230559
 30
0.0
 11
34.2663835095
 21
29.6520079336
 31
0.0
  0
LINE
  5
29D
330
1F
100
AcDbEntity
  8
0
  6
Continuous
 62
     7
370
    25
100
AcDbLine
 10
36.3877038531
 20
30.0602119895
 30
0.0
 11
36.3877038531
 21
30.7477993321
 31
0.0
  0
LINE
  5
29E
330
1F
100
AcDbEntity
  8
0
  6
Continuous
 62
     7
370
    25
100
AcDbLine
 10
36.3877038531
 20
30.0602119895
 30
0.0
 11
36.4108896535
 21
30.0468271119
 31
0.0
  0
LINE
  5
29F
330
1F
100
AcDbEntity
  8
0
  6
Continuous
 62
     7
370
    25
100
AcDbLine
 10
36.3645180527
 20
30.0468271119
 30
0.0
 11
36.3877038531
 21
30.0602119895
 31
0.0
  0
LINE
  5
2A0
330
1F
100
AcDbEntity
  8
0
  6
Continuous
 62
     7
370
    25
100
AcDbLine
 10
34.9734902907
 20
30.0602119895
 30
0.0
 11
34.9734902907
 21
30.7477993321
 31
0.0
  0
LINE
  5
2A1
330
1F
100
AcDbEntity
  8
0
  6
Continuous
 62
     7
370
    25
100
AcDbLine
 10
34.9734902907
 20
30.0602119895
 30
0.0
 11
34.9966760911
 21
30.0468271119
 31
0.0
  0
LINE
  5
2A2
330
1F
100
AcDbEntity
  8
0
  6
Continuous
 62
     7
370
    25
100
AcDbLine
 10
34.9503044904
 20
30.0468271119
 30
0.0
 11
34.9734902907
 21
30.0602119895
 31
0.0
  0
LINE
  5
2A3
330
1F
100
AcDbEntity
  8
0
  6
Continuous
 62
     7
370
    25
100
AcDbLine
 10
35.6805970719
 20
30.6975815412
 30
0.0
 11
35.6805970719
 21
31.156003388
 31
0.0
  0
LINE
  5
2A4
330
1F
100
AcDbEntity
  8
0
  6
Continuous
 62
     7
370
    25
100
AcDbLine
 10
35.660579033
 20
25.9271751916
 30
0.0
 11
35.660579033
 21
25.1328278049
 31
0.0
  0
LINE
  5
2A5
330
1F
100
AcDbEntity
  8
0
  6
Continuous
 62
     7
370
    25
100
AcDbLine
 10
35.660579033
 20
25.9271751916
 30
0.0
 11
40.5639042011
 21
28.7578045595
 31
0.0
  0
LINE
  5
2A6
330
1F
100
AcDbEntity
  8
0
  6
Continuous
 62
     7
370
    25
100
AcDbLine
 10
40.5639042011
 20
28.7578045595
 30
0.0
 11
40.6103265013
 21
27.9902561963
 31
0.0
  0
LINE
  5
2A7
330
1F
100
AcDbEntity
  8
0
  6
Continuous
 62
     7
370
    25
100
AcDbLine
 10
35.660579033
 20
25.1328278049
 30
0.0
 11
40.6103265013
 21
27.9902561963
 31
0.0
  0
LINE
  5
2A8
330
1F
100
AcDbEntity
  8
0
  6
Continuous
 62
     7
370
    25
100
AcDbLine
 10
30.757253865
 20
28.7578045595
 30
0.0
 11
30.7108315647
 21
27.9902561963
 31
0.0
  0
LINE
  5
2A9
330
1F
100
AcDbEntity
  8
0
  6
Continuous
 62
     7
370
    25
100
AcDbLine
 10
30.757253865
 20
28.7578045595
 30
0.0
 11
35.660579033
 21
25.9271751916
 31
0.0
  0
LINE
  5
2AA
330
1F
100
AcDbEntity
  8
0
  6
Continuous
 62
     7
370
    25
100
AcDbLine
 10
30.7108315647
 20
27.9902561963
 30
0.0
 11
35.660579033
 21
25.1328278049
 31
0.0
  0
LINE
  5
2AB
330
1F
100
AcDbEntity
  8
0
  6
Continuous
 62
     7
370
    25
100
AcDbLine
 10
35.660579033
 20
31.5884339274
 30
0.0
 11
30.757253865
 21
28.7578045595
 31
0.0
  0
LINE
  5
2AC
330
1F
100
AcDbEntity
  8
0
  6
Continuous
 62
     7
370
    25
100
AcDbLine
 10
40.5639042011
 20
28.7578045595
 30
0.0
 11
35.660579033
 21
31.5884339274
 31
0.0
  0
LINE
  5
2AD
330
1F
100
AcDbEntity
  8
0
  6
Continuous
 62
     7
370
    25
100
AcDbLine
 10
35.660579033
 20
26.0922320744
 30
0.0
 11
40.2779863142
 21
28.7578045595
 31
0.0
  0
LINE
  5
2AE
330
1F
100
AcDbEntity
  8
0
  6
Continuous
 62
     7
370
    25
100
AcDbLine
 10
40.2779863142
 20
28.7578045595
 30
0.0
 11
35.660579033
 21
31.4233770446
 31
0.0
  0
LINE
  5
2AF
330
1F
100
AcDbEntity
  8
0
  6
Continuous
 62
     7
370
    25
100
AcDbLine
 10
35.660579033
 20
31.4233770446
 30
0.0
 11
31.0431717519
 21
28.7578045595
 31
0.0
  0
LINE
  5
2B0
330
1F
100
AcDbEntity
  8
0
  6
Continuous
 62
     7
370
    25
100
AcDbLine
 10
31.0431717519
 20
28.7578045595
 30
0.0
 11
35.660579033
 21
26.0922320744
 31
0.0
  0
LINE
  5
2B1
330
1F
100
AcDbEntity
  8
0
  6
Continuous
 62
     7
370
    25
100
AcDbLine
 10
34.282175395
 20
29.6428914722
 30
0.0
 11
34.2520419236
 21
29.6335173996
 31
0.0
  0
LINE
  5
2B2
330
1F
100
AcDbEntity
  8
0
  6
Continuous
 62
     7
370
    25
100
AcDbLine
 10
36.035579033
 20
25.1517651729
 30
0.0
 11
36.035579033
 21
25.349310697
 31
0.0
  0
LINE
  5
2B3
330
1F
100
AcDbEntity
  8
0
  6
Continuous
 62
     7
370
    25
100
AcDbLine
 10
36.035579033
 20
25.1517651729
 30
0.0
 11
35.6933830708
 21
25.1517651729
 31
0.0
  0
LINE
  5
2B4
330
1F
100
AcDbEntity
  8
0
  6
Continuous
 62
     7
370
    25
100
AcDbLine
 10
35.6277749953
 20
25.1517651729
 30
0.0
 11
35.285579033
 21
25.1517651729
 31
0.0
  0
LINE
  5
2B5
330
1F
100
AcDbEntity
  8
0
  6
Continuous
 62
     7
370
    25
100
AcDbLine
 10
35.285579033
 20
25.1517651729
 30
0.0
 11
35.285579033
 21
25.349310697
 31
0.0
  0
LINE
  5
2B6
330
1F
100
AcDbEntity
  8
0
  6
Continuous
 62
     7
370
    25
100
AcDbLine
 10
35.660579033
 20
31.3716615838
 30
0.0
 11
35.660579033
 21
31.4233770446
 31
0.0
  0
LINE
  5
2B7
330
1F
100
AcDbEntity
  8
0
  6
Continuous
 62
     7
370
    25
100
AcDbLine
 10
32.348079033
 20
26.9572324924
 30
0.0
 11
32.348079033
 21
27.0450933512
 31
0.0
  0
LINE
  5
2B8
330
1F
100
AcDbEntity
  8
0
  6
Continuous
 62
     7
370
    25
100
AcDbLine
 10
32.348079033
 20
26.9572324924
 30
0.0
 11
32.158079033
 21
26.9572324924
 31
0.0
  0
LINE
  5
2B9
330
1F
100
AcDbEntity
  8
0
  6
Continuous
 62
     7
370
    25
100
AcDbLine
 10
32.158079033
 20
26.9572324924
 30
0.0
 11
32.158079033
 21
27.1547780165
 31
0.0
  0
LINE
  5
2BA
330
1F
100
AcDbEntity
  8
0
  6
Continuous
 62
     7
370
    25
100
AcDbLine
 10
39.163079033
 20
26.9572324924
 30
0.0
 11
39.163079033
 21
27.1547780165
 31
0.0
  0
LINE
  5
2BB
330
1F
100
AcDbEntity
  8
0
  6
Continuous
 62
     7
370
    25
100
AcDbLine
 10
39.163079033
 20
26.9572324924
 30
0.0
 11
38.973079033
 21
26.9572324924
 31
0.0
  0
LINE
  5
2BC
330
1F
100
AcDbEntity
  8
0
  6
Continuous
 62
     7
370
    25
100
AcDbLine
 10
38.973079033
 20
26.9572324924
 30
0.0
 11
38.973079033
 21
27.0450933512
 31
0.0
  0
LWPOLYLINE
  5
2BD
330
1F
100
AcDbEntity
  8
0
  6
Continuous
 62
     7
370
    25
100
AcDbPolyline
 90
       31
 70
   128
 43
0.0
 10
38.0028702457
 20
16.94165812
 10
38.0651743005
 20
16.9786087144
 10
38.1257298637
 20
17.0165156697
 10
38.1844929024
 20
17.0553514218
 10
38.2414206875
 20
17.0950877315
 10
38.296471824
 20
17.1356957047
 10
38.3496062819
 20
17.1771458135
 10
38.4007854245
 20
17.2194079176
 10
38.4499720373
 20
17.2624512863
 10
38.4971303542
 20
17.3062446207
 10
38.5422260844
 20
17.3507560768
 10
38.5852264367
 20
17.3959532883
 10
38.6261001435
 20
17.44180339
 10
38.6648174838
 20
17.4882730424
 10
38.7013503043
 20
17.5353284552
 10
38.7356720403
 20
17.5829354123
 10
38.767757735
 20
17.6310592964
 10
38.7975840573
 20
17.6796651145
 10
38.8251293192
 20
17.728717523
 10
38.8503734912
 20
17.7781808537
 10
38.8732982172
 20
17.8280191395
 10
38.8938868275
 20
17.8781961408
 10
38.9121243513
 20
17.9286753715
 10
38.927997527
 20
17.9794201258
 10
38.9414948128
 20
18.0303935049
 10
38.9526063939
 20
18.0815584438
 10
38.9613241908
 20
18.132877738
 10
38.9676418643
 20
18.1843140709
 10
38.9715548205
 20
18.2358300409
 10
38.9730602142
 20
18.2873881882
 10
38.973079033
 20
18.2938340552
  0
LWPOLYLINE
  5
2BE
330
1F
100
AcDbEntity
  8
0
  6
Continuous
 62
     7
370
    25
100
AcDbPolyline
 90
       89
 70
   128
 43
0.0
 10
32.348079033
 20
18.2938340552
 10
32.3482484015
 20
18.2744967472
 10
32.3503558568
 20
18.2229456303
 10
32.3548703275
 20
18.1714460595
 10
32.3617885307
 20
18.1200354827
 10
32.371105436
 20
18.0687512828
 10
32.3828142687
 20
18.017630751
 10
32.3969065147
 20
17.9667110592
 10
32.4133719268
 20
17.9160292336
 10
32.4321985324
 20
17.8656221273
 10
32.4533726417
 20
17.8155263935
 10
32.4768788581
 20
17.7657784592
 10
32.5027000891
 20
17.7164144983
 10
32.5308175589
 20
17.6674704057
 10
32.561210822
 20
17.6189817709
 10
32.5938577781
 20
17.5709838522
 10
32.6287346881
 20
17.5235115511
 10
32.6658161913
 20
17.4765993869
 10
32.7050753242
 20
17.4302814715
 10
32.7464835395
 20
17.3845914848
 10
32.7900107276
 20
17.3395626502
 10
32.8356252376
 20
17.2952277102
 10
32.8832939013
 20
17.2516189027
 10
32.9329820566
 20
17.2087679377
 10
32.984653573
 20
17.1667059741
 10
33.0382708776
 20
17.1254635971
 10
33.0937949829
 20
17.0850707959
 10
33.1511855148
 20
17.045556942
 10
33.210400742
 20
17.0069507678
 10
33.2713976064
 20
16.9692803454
 10
33.3341317543
 20
16.9325730669
 10
33.3985575688
 20
16.8968556238
 10
33.4646282031
 20
16.8621539879
 10
33.532295614
 20
16.8284933923
 10
33.6015105976
 20
16.7958983132
 10
33.6722228244
 20
16.764392452
 10
33.7443808764
 20
16.733998718
 10
33.817932284
 20
16.7047392119
 10
33.8928235647
 20
16.6766352097
 10
33.9690002616
 20
16.649707147
 10
34.0464069831
 20
16.6239746045
 10
34.1249874433
 20
16.5994562935
 10
34.2046845026
 20
16.5761700424
 10
34.2854402097
 20
16.5541327837
 10
34.3671958434
 20
16.5333605417
 10
34.4498919554
 20
16.5138684208
 10
34.5334684136
 20
16.4956705947
 10
34.6178644457
 20
16.4787802959
 10
34.7030186834
 20
16.463209806
 10
34.7888692073
 20
16.448970447
 10
34.8753535914
 20
16.4360725731
 10
34.962408949
 20
16.424525563
 10
35.0499719782
 20
16.4143378128
 10
35.1379790077
 20
16.4055167308
 10
35.2263660438
 20
16.3980687309
 10
35.315068816
 20
16.3919992291
 10
35.4040228246
 20
16.3873126388
 10
35.493163387
 20
16.3840123677
 10
35.5824256851
 20
16.3821008157
 10
35.671744812
 20
16.3815793728
 10
35.7610558197
 20
16.382448418
 10
35.8502937662
 20
16.3847073196
 10
35.9393937623
 20
16.3883544349
 10
36.0282910195
 20
16.3933871119
 10
36.1169208964
 20
16.3998016911
 10
36.2052189462
 20
16.4075935083
 10
36.2931209632
 20
16.4167568977
 10
36.38056303
 20
16.427285196
 10
36.4674815634
 20
16.4391707478
 10
36.5538133608
 20
16.4524049104
 10
36.6394956466
 20
16.4669780607
 10
36.7244661171
 20
16.4828796019
 10
36.8086629865
 20
16.5000979713
 10
36.8920250313
 20
16.5186206486
 10
36.9744916352
 20
16.538434165
 10
37.0560028328
 20
16.5595241134
 10
37.1364993537
 20
16.5818751581
 10
37.2159226652
 20
16.6054710468
 10
37.2942150149
 20
16.6302946218
 10
37.3713194728
 20
16.6563278328
 10
37.4471799728
 20
16.6835517497
 10
37.5217413532
 20
16.7119465768
 10
37.5949493969
 20
16.7414916669
 10
37.6667508712
 20
16.7721655365
 10
37.7370935658
 20
16.8039458812
 10
37.8059263312
 20
16.836809592
 10
37.8731991161
 20
16.8707327722
 10
37.9388630034
 20
16.9056907547
 10
38.0028702457
 20
16.94165812
  0
LINE
  5
2BF
330
1F
100
AcDbEntity
  8
0
  6
Continuous
 62
     7
370
    25
100
AcDbLine
 10
15.3025345555
 20
26.6062981437
 30
0.0
 11
15.2547356836
 21
26.6059697494
 31
0.0
  0
LINE
  5
2C0
330
1F
100
AcDbEntity
  8
0
  6
Continuous
 62
     7
370
    25
100
AcDbLine
 10
12.1259815384
 20
25.0366376303
 30
0.0
 11
12.8168046971
 21
25.0413838171
 31
0.0
  0
LINE
  5
2C1
330
1F
100
AcDbEntity
  8
0
  6
Continuous
 62
     7
370
    25
100
AcDbLine
 10
13.1259815384
 20
25.0435079657
 30
0.0
 11
13.8168046971
 21
25.0482541525
 31
0.0
  0
LINE
  5
2C2
330
1F
100
AcDbEntity
  8
0
  6
Continuous
 62
     7
370
    25
100
AcDbLine
 10
14.1259815384
 20
25.0503783011
 30
0.0
 11
14.2178940586
 21
25.0510097709
 31
0.0
  0
LINE
  5
2C3
330
1F
100
AcDbEntity
  8
0
  6
Continuous
 62
     7
370
    25
100
AcDbLine
 10
14.1492534159
 20
26.8459278342
 30
0.0
 11
14.1501012758
 21
26.848513058
 31
0.0
  0
LINE
  5
2C4
330
1F
100
AcDbEntity
  8
0
  6
Continuous
 62
     7
370
    25
100
AcDbLine
 10
12.2391553429
 20
27.064617915
 30
0.0
 11
12.2364925435
 21
27.0640595714
 31
0.0
  0
LINE
  5
2C5
330
1F
100
AcDbEntity
  8
0
  6
Continuous
 62
     7
370
    25
100
AcDbLine
 10
12.1671400267
 20
26.9579065289
 30
0.0
 11
12.1676983704
 21
26.9552437295
 31
0.0
  0
ARC
  5
2C6
330
1F
100
AcDbEntity
  8
0
  6
Continuous
 62
     7
370
    25
100
AcDbCircle
 10
13.1310739909
 20
26.4038750563
 30
0.0
 40
1.11
100
AcDbArc
 50
333.6775953976
 51
353.2844694672
  0
ARC
  5
2C7
330
1F
100
AcDbEntity
  8
0
  6
Continuous
 62
     7
370
    25
100
AcDbCircle
 10
13.1310739909
 20
26.4038750563
 30
0.0
 40
1.11
100
AcDbArc
 50
205.1108171909
 51
227.6720881389
  0
ARC
  5
2C8
330
1F
100
AcDbEntity
  8
0
  6
Continuous
 62
     7
370
    25
100
AcDbCircle
 10
13.1310739909
 20
26.4038750563
 30
0.0
 40
1.11
100
AcDbArc
 50
128.3753183388
 51
154.8891828091
  0
ARC
  5
2C9
330
1F
100
AcDbEntity
  8
0
  6
Continuous
 62
     7
370
    25
100
AcDbCircle
 10
13.1310739909
 20
26.4038750563
 30
0.0
 40
1.11
100
AcDbArc
 50
9.2996477698
 51
26.3224046024
  0
ARC
  5
2CA
330
1F
100
AcDbEntity
  8
0
  6
Continuous
 62
     7
370
    25
100
AcDbCircle
 10
13.1310739909
 20
26.4038750563
 30
0.0
 40
0.8900000000000015
100
AcDbArc
 50
292.7720264018
 51
320.3973661112
  0
ARC
  5
2CB
330
1F
100
AcDbEntity
  8
0
  6
Continuous
 62
     7
370
    25
100
AcDbCircle
 10
13.1310739909
 20
26.4038750563
 30
0.0
 40
0.890000000000001
100
AcDbArc
 50
188.386297879
 51
247.2279735982
  0
ARC
  5
2CC
330
1F
100
AcDbEntity
  8
0
  6
Continuous
 62
     7
370
    25
100
AcDbCircle
 10
13.1310739909
 20
26.4038750563
 30
0.0
 40
0.8900000000000021
100
AcDbArc
 50
110.6777509363
 51
168.3727804131
  0
ARC
  5
2CD
330
1F
100
AcDbEntity
  8
0
  6
Continuous
 62
     7
370
    25
100
AcDbCircle
 10
13.1310739909
 20
26.4038750563
 30
0.0
 40
0.8899999999999996
100
AcDbArc
 50
39.6026338888
 51
77.8906626786
  0
SPLINE
  5
2CE
330
1F
100
AcDbEntity
  8
0
  6
Continuous
 62
     7
370
    25
100
AcDbSpline
210
0.0
220
0.0
230
1.0
 70
    24
 71
     3
 72
    14
 73
    10
 74
     0
 42
0.00000001
 43
0.00000001
 40
0.0
 40
0.0
 40
0.0
 40
0.0
 40
0.2160440500688527
 40
0.3279916129197439
 40
0.4398633640933687
 40
0.5934196964576737
 40
0.752108034338176
 40
0.8754862237478881
 40
1.0
 40
1.0
 40
1.0
 40
1.0
 10
10.25397072793919
 20
22.80847979277019
 30
0.0
 10
10.25649478024559
 20
22.80150910936271
 30
0.0
 10
10.26032672093921
 20
22.7909264263717
 30
0.0
 10
10.2658040365071
 20
22.77579970627571
 30
0.0
 10
10.27060612530931
 20
22.76253776211956
 30
0.0
 10
10.27607995723196
 20
22.74742066281788
 30
0.0
 10
10.28157411871941
 20
22.73224741929145
 30
0.0
 10
10.28651031718659
 20
22.71861510404036
 30
0.0
 10
10.28938367409386
 20
22.71067974498839
 30
0.0
 10
10.29082693393525
 20
22.70669388962258
 30
0.0
  0
ARC
  5
2CF
330
1F
100
AcDbEntity
  8
0
  6
Continuous
 62
     7
370
    25
100
AcDbCircle
 10
10.3605480088
 20
22.7895052519
 30
0.0
 40
0.1082531754730567
100
AcDbArc
 50
169.9050879136
 51
229.9050879136
  0
ARC
  5
2D0
330
1F
100
AcDbEntity
  8
0
  6
Continuous
 62
     7
370
    25
100
AcDbCircle
 10
10.3605480088
 20
22.7895052519
 30
0.0
 40
0.108253175473058
100
AcDbArc
 50
349.9050879136
 51
49.9050879136
  0
SPLINE
  5
2D1
330
1F
100
AcDbEntity
  8
0
  6
Continuous
 62
     7
370
    25
100
AcDbSpline
210
0.0
220
0.0
230
1.0
 70
    24
 71
     3
 72
    14
 73
    10
 74
     0
 42
0.00000001
 43
0.00000001
 40
0.0
 40
0.0
 40
0.0
 40
0.0
 40
0.2160440500688688
 40
0.3279916129197565
 40
0.439863364093377
 40
0.5934196964577053
 40
0.7521080343382023
 40
0.8754862237479096
 40
1.0
 40
1.0
 40
1.0
 40
1.0
 10
10.46712528968121
 20
22.77053071098199
 30
0.0
 10
10.4646012373748
 20
22.77750139438948
 30
0.0
 10
10.46076929668119
 20
22.78808407738049
 30
0.0
 10
10.45529198111329
 20
22.80321079747648
 30
0.0
 10
10.45048989231108
 20
22.81647274163263
 30
0.0
 10
10.44501606038844
 20
22.83158984093431
 30
0.0
 10
10.43952189890098
 20
22.84676308446073
 30
0.0
 10
10.43458570043381
 20
22.86039539971182
 30
0.0
 10
10.43171234352654
 20
22.86833075876379
 30
0.0
 10
10.43026908368514
 20
22.8723166141296
 30
0.0
  0
ARC
  5
2D2
330
1F
100
AcDbEntity
  8
0
  6
Continuous
 62
     7
370
    25
100
AcDbCircle
 10
10.3605480088
 20
22.7895052519
 30
0.0
 40
0.1082531754730622
100
AcDbArc
 50
289.9050879136
 51
349.9050879136
  0
SPLINE
  5
2D3
330
1F
100
AcDbEntity
  8
0
  6
Continuous
 62
     7
370
    25
100
AcDbSpline
210
0.0
220
0.0
230
1.0
 70
    24
 71
     3
 72
    14
 73
    10
 74
     0
 42
0.00000001
 43
0.00000001
 40
0.0
 40
0.0
 40
0.0
 40
0.0
 40
0.2160440500688656
 40
0.3279916129197541
 40
0.4398633640933818
 40
0.593419696457681
 40
0.7521080343381673
 40
0.8754862237478911
 40
1.0
 40
1.0
 40
1.0
 40
1.0
 10
10.39740421480626
 20
22.68771934872847
 30
0.0
 10
10.40217897756568
 20
22.69339058385004
 30
0.0
 10
10.40942787952928
 20
22.70200048333202
 30
0.0
 10
10.4197893456244
 20
22.71430733780636
 30
0.0
 10
10.4288734817661
 20
22.72509704077837
 30
0.0
 10
10.43922835783155
 20
22.73739606793027
 30
0.0
 10
10.44962169143953
 20
22.74974077311411
 30
0.0
 10
10.45895952352578
 20
22.76083180401035
 30
0.0
 10
10.4643950675993
 20
22.76728788361218
 30
0.0
 10
10.46712528968121
 20
22.77053071098199
 30
0.0
  0
ARC
  5
2D4
330
1F
100
AcDbEntity
  8
0
  6
Continuous
 62
     7
370
    25
100
AcDbCircle
 10
10.3605480088
 20
22.7895052519
 30
0.0
 40
0.1082531754730539
100
AcDbArc
 50
109.9050879136
 51
169.9050879136
  0
SPLINE
  5
2D5
330
1F
100
AcDbEntity
  8
0
  6
Continuous
 62
     7
370
    25
100
AcDbSpline
210
0.0
220
0.0
230
1.0
 70
    24
 71
     3
 72
    14
 73
    10
 74
     0
 42
0.00000001
 43
0.00000001
 40
0.0
 40
0.0
 40
0.0
 40
0.0
 40
0.2160440500688555
 40
0.3279916129197502
 40
0.4398633640933773
 40
0.5934196964576657
 40
0.7521080343381589
 40
0.8754862237478818
 40
1.0
 40
1.0
 40
1.0
 40
1.0
 10
10.32369180281413
 20
22.8912911550237
 30
0.0
 10
10.31891704005472
 20
22.88561991990214
 30
0.0
 10
10.31166813809111
 20
22.87701002042017
 30
0.0
 10
10.301306671996
 20
22.86470316594583
 30
0.0
 10
10.2922225358543
 20
22.85391346297381
 30
0.0
 10
10.28186765978884
 20
22.84161443582191
 30
0.0
 10
10.27147432618087
 20
22.82926973063807
 30
0.0
 10
10.26213649409461
 20
22.81817869974182
 30
0.0
 10
10.2567009500211
 20
22.81172262014001
 30
0.0
 10
10.25397072793919
 20
22.80847979277019
 30
0.0
  0
ARC
  5
2D6
330
1F
100
AcDbEntity
  8
0
  6
Continuous
 62
     7
370
    25
100
AcDbCircle
 10
10.3605480088
 20
22.7895052519
 30
0.0
 40
0.1082531754730524
100
AcDbArc
 50
49.9050879136
 51
109.9050879136
  0
SPLINE
  5
2D7
330
1F
100
AcDbEntity
  8
0
  6
Continuous
 62
     7
370
    25
100
AcDbSpline
210
0.0
220
0.0
230
1.0
 70
    24
 71
     3
 72
    13
 73
     9
 74
     0
 42
0.00000001
 43
0.00000001
 40
0.0
 40
0.0
 40
0.0
 40
0.0
 40
0.1556361760619398
 40
0.3248855964491204
 40
0.4937640780084888
 40
0.6564836158892718
 40
0.819509238669062
 40
1.0
 40
1.0
 40
1.0
 40
1.0
 10
10.43026908368514
 20
22.8723166141296
 30
0.0
 10
10.42504106417806
 20
22.8732473872655
 30
0.0
 10
10.41412773876245
 20
22.87519034675647
 30
0.0
 10
10.39647302600953
 20
22.87833351260162
 30
0.0
 10
10.37790822966929
 20
22.8816387056453
 30
0.0
 10
10.35954495954925
 20
22.88490801986494
 30
0.0
 10
10.34133201702868
 20
22.88815057043327
 30
0.0
 10
10.32976785677889
 20
22.89020940163793
 30
0.0
 10
10.32369180281413
 20
22.8912911550237
 30
0.0
  0
ARC
  5
2D8
330
1F
100
AcDbEntity
  8
0
  6
Continuous
 62
     7
370
    25
100
AcDbCircle
 10
10.3605480088
 20
22.7895052519
 30
0.0
 40
0.1082531754730622
100
AcDbArc
 50
229.9050879136
 51
289.9050879136
  0
SPLINE
  5
2D9
330
1F
100
AcDbEntity
  8
0
  6
Continuous
 62
     7
370
    25
100
AcDbSpline
210
0.0
220
0.0
230
1.0
 70
    24
 71
     3
 72
    13
 73
     9
 74
     0
 42
0.00000001
 43
0.00000001
 40
0.0
 40
0.0
 40
0.0
 40
0.0
 40
0.180490761330965
 40
0.3435163841107358
 40
0.5062359219914999
 40
0.6751144035508898
 40
0.8443638239380957
 40
1.0
 40
1.0
 40
1.0
 40
1.0
 10
10.29082693393525
 20
22.70669388962258
 30
0.0
 10
10.29690298790002
 20
22.7056121362368
 30
0.0
 10
10.3084671481498
 20
22.70355330503213
 30
0.0
 10
10.32668009067037
 20
22.70031075446381
 30
0.0
 10
10.34504336079041
 20
22.69704144024418
 30
0.0
 10
10.36360815713065
 20
22.6937362472005
 30
0.0
 10
10.38126286988357
 20
22.69059308135533
 30
0.0
 10
10.39217619529918
 20
22.68865012186437
 30
0.0
 10
10.39740421480626
 20
22.68771934872847
 30
0.0
  0
CIRCLE
  5
2DA
330
1F
100
AcDbEntity
  8
0
  6
Continuous
 62
     7
370
    25
100
AcDbCircle
 10
10.3605480088
 20
22.7895052519
 30
0.0
 40
0.1774999999999983
  0
CIRCLE
  5
2DB
330
1F
100
AcDbEntity
  8
0
  6
Continuous
 62
     7
370
    25
100
AcDbCircle
 10
10.3605480088
 20
22.7895052519
 30
0.0
 40
0.187499999999999
  0
ARC
  5
2DC
330
1F
100
AcDbEntity
  8
0
  6
Continuous
 62
     7
370
    25
100
AcDbCircle
 10
10.3605480088
 20
22.7895052519
 30
0.0
 40
0.0937499999999995
100
AcDbArc
 50
19.9050879136
 51
79.9050879136
  0
ARC
  5
2DD
330
1F
100
AcDbEntity
  8
0
  6
Continuous
 62
     7
370
    25
100
AcDbCircle
 10
10.3605480088
 20
22.7895052519
 30
0.0
 40
0.0937500000000063
100
AcDbArc
 50
319.9050879136
 51
19.9050879136
  0
ARC
  5
2DE
330
1F
100
AcDbEntity
  8
0
  6
Continuous
 62
     7
370
    25
100
AcDbCircle
 10
10.3605480088
 20
22.7895052519
 30
0.0
 40
0.0937500000000063
100
AcDbArc
 50
259.9050879136
 51
319.9050879136
  0
ARC
  5
2DF
330
1F
100
AcDbEntity
  8
0
  6
Continuous
 62
     7
370
    25
100
AcDbCircle
 10
10.3605480088
 20
22.7895052519
 30
0.0
 40
0.0937500000000014
100
AcDbArc
 50
199.9050879136
 51
259.9050879136
  0
ARC
  5
2E0
330
1F
100
AcDbEntity
  8
0
  6
Continuous
 62
     7
370
    25
100
AcDbCircle
 10
10.3605480088
 20
22.7895052519
 30
0.0
 40
0.093749999999999
100
AcDbArc
 50
139.9050879136
 51
199.9050879136
  0
ARC
  5
2E1
330
1F
100
AcDbEntity
  8
0
  6
Continuous
 62
     7
370
    25
100
AcDbCircle
 10
10.3605480088
 20
22.7895052519
 30
0.0
 40
0.093749999999999
100
AcDbArc
 50
79.9050879136
 51
139.9050879136
  0
CIRCLE
  5
2E2
330
1F
100
AcDbEntity
  8
0
  6
Continuous
 62
     7
370
    25
100
AcDbCircle
 10
10.3605480088
 20
22.7895052519
 30
0.0
 40
0.0215812163512932
  0
SPLINE
  5
2E3
330
1F
100
AcDbEntity
  8
0
  6
Continuous
 62
     7
370
    25
100
AcDbSpline
210
0.0
220
0.0
230
1.0
 70
    24
 71
     3
 72
    14
 73
    10
 74
     0
 42
0.00000001
 43
0.00000001
 40
0.0
 40
0.0
 40
0.0
 40
0.0
 40
0.2160440500688688
 40
0.3279916129197566
 40
0.4398633640933787
 40
0.5934196964577009
 40
0.752108034338204
 40
0.8754862237479054
 40
1.0
 40
1.0
 40
1.0
 40
1.0
 10
15.6295225497043
 20
22.89608253274708
 30
0.0
 10
15.62255186629682
 20
22.89355848044067
 30
0.0
 10
15.6119691833058
 20
22.88972653974706
 30
0.0
 10
15.59684246320982
 20
22.88424922417916
 30
0.0
 10
15.58358051905367
 20
22.87944713537695
 30
0.0
 10
15.56846341975199
 20
22.87397330345431
 30
0.0
 10
15.55329017622556
 20
22.86847914196685
 30
0.0
 10
15.53965786097447
 20
22.86354294349968
 30
0.0
 10
15.53172250192251
 20
22.86066958659241
 30
0.0
 10
15.52773664655669
 20
22.85922632675101
 30
0.0
  0
ARC
  5
2E4
330
1F
100
AcDbEntity
  8
0
  6
Continuous
 62
     7
370
    25
100
AcDbCircle
 10
15.6105480088
 20
22.7895052519
 30
0.0
 40
0.1082531754730565
100
AcDbArc
 50
79.9050879136
 51
139.9050879136
  0
SPLINE
  5
2E5
330
1F
100
AcDbEntity
  8
0
  6
Continuous
 62
     7
370
    25
100
AcDbSpline
210
0.0
220
0.0
230
1.0
 70
    24
 71
     3
 72
    14
 73
    10
 74
     0
 42
0.00000001
 43
0.00000001
 40
0.0
 40
0.0
 40
0.0
 40
0.0
 40
0.2160440500688526
 40
0.3279916129197437
 40
0.4398633640933685
 40
0.5934196964576779
 40
0.7521080343381816
 40
0.8754862237478922
 40
1.0
 40
1.0
 40
1.0
 40
1.0
 10
15.5915734679161
 20
22.68292797100505
 30
0.0
 10
15.59854415132359
 20
22.68545202331146
 30
0.0
 10
15.6091268343146
 20
22.68928396400508
 30
0.0
 10
15.62425355441058
 20
22.69476127957297
 30
0.0
 10
15.63751549856674
 20
22.69956336837518
 30
0.0
 10
15.65263259786841
 20
22.70503720029783
 30
0.0
 10
15.66780584139484
 20
22.71053136178528
 30
0.0
 10
15.68143815664594
 20
22.71546756025246
 30
0.0
 10
15.6893735156979
 20
22.71834091715973
 30
0.0
 10
15.69335937106372
 20
22.71978417700112
 30
0.0
  0
ARC
  5
2E6
330
1F
100
AcDbEntity
  8
0
  6
Continuous
 62
     7
370
    25
100
AcDbCircle
 10
15.6105480088
 20
22.7895052519
 30
0.0
 40
0.1082531754730566
100
AcDbArc
 50
259.9050879136
 51
319.9050879136
  0
ARC
  5
2E7
330
1F
100
AcDbEntity
  8
0
  6
Continuous
 62
     7
370
    25
100
AcDbCircle
 10
15.6105480088
 20
22.7895052519
 30
0.0
 40
0.1082531754730572
100
AcDbArc
 50
19.9050879136
 51
79.9050879136
  0
SPLINE
  5
2E8
330
1F
100
AcDbEntity
  8
0
  6
Continuous
 62
     7
370
    25
100
AcDbSpline
210
0.0
220
0.0
230
1.0
 70
    24
 71
     3
 72
    14
 73
    10
 74
     0
 42
0.00000001
 43
0.00000001
 40
0.0
 40
0.0
 40
0.0
 40
0.0
 40
0.2160440500688654
 40
0.3279916129197538
 40
0.4398633640933783
 40
0.5934196964576806
 40
0.7521080343381703
 40
0.8754862237478911
 40
1.0
 40
1.0
 40
1.0
 40
1.0
 10
15.71233391195782
 20
22.82636145787213
 30
0.0
 10
15.70666267683625
 20
22.83113622063155
 30
0.0
 10
15.69805277735428
 20
22.83838512259515
 30
0.0
 10
15.68574592287994
 20
22.84874658869027
 30
0.0
 10
15.67495621990792
 20
22.85783072483196
 30
0.0
 10
15.66265719275602
 20
22.86818560089743
 30
0.0
 10
15.65031248757218
 20
22.87857893450539
 30
0.0
 10
15.63922145667594
 20
22.88791676659165
 30
0.0
 10
15.63276537707412
 20
22.89335231066517
 30
0.0
 10
15.6295225497043
 20
22.89608253274708
 30
0.0
  0
SPLINE
  5
2E9
330
1F
100
AcDbEntity
  8
0
  6
Continuous
 62
     7
370
    25
100
AcDbSpline
210
0.0
220
0.0
230
1.0
 70
    24
 71
     3
 72
    14
 73
    10
 74
     0
 42
0.00000001
 43
0.00000001
 40
0.0
 40
0.0
 40
0.0
 40
0.0
 40
0.2160440500688561
 40
0.3279916129197482
 40
0.4398633640933794
 40
0.5934196964576646
 40
0.7521080343381612
 40
0.8754862237478814
 40
1.0
 40
1.0
 40
1.0
 40
1.0
 10
15.50876210566259
 20
22.75264904588
 30
0.0
 10
15.51443334078416
 20
22.74787428312058
 30
0.0
 10
15.52304324026613
 20
22.74062538115698
 30
0.0
 10
15.53535009474047
 20
22.73026391506187
 30
0.0
 10
15.54613979771248
 20
22.72117977892017
 30
0.0
 10
15.55843882486439
 20
22.71082490285471
 30
0.0
 10
15.57078353004822
 20
22.70043156924674
 30
0.0
 10
15.58187456094447
 20
22.69109373716048
 30
0.0
 10
15.58833064054629
 20
22.68565819308697
 30
0.0
 10
15.59157346791611
 20
22.68292797100505
 30
0.0
  0
ARC
  5
2EA
330
1F
100
AcDbEntity
  8
0
  6
Continuous
 62
     7
370
    25
100
AcDbCircle
 10
15.6105480088
 20
22.7895052519
 30
0.0
 40
0.1082531754730588
100
AcDbArc
 50
199.9050879136
 51
259.9050879136
  0
ARC
  5
2EB
330
1F
100
AcDbEntity
  8
0
  6
Continuous
 62
     7
370
    25
100
AcDbCircle
 10
15.6105480088
 20
22.7895052519
 30
0.0
 40
0.1082531754730588
100
AcDbArc
 50
139.9050879136
 51
199.9050879136
  0
SPLINE
  5
2EC
330
1F
100
AcDbEntity
  8
0
  6
Continuous
 62
     7
370
    25
100
AcDbSpline
210
0.0
220
0.0
230
1.0
 70
    24
 71
     3
 72
    13
 73
     9
 74
     0
 42
0.00000001
 43
0.00000001
 40
0.0
 40
0.0
 40
0.0
 40
0.0
 40
0.1556361760619393
 40
0.3248855964491238
 40
0.4937640780084908
 40
0.6564836158892733
 40
0.8195092386690583
 40
0.9999999999999999
 40
0.9999999999999999
 40
0.9999999999999999
 40
0.9999999999999999
 10
15.52773664655669
 20
22.85922632675101
 30
0.0
 10
15.52680587342079
 20
22.85399830724393
 30
0.0
 10
15.52486291392983
 20
22.84308498182832
 30
0.0
 10
15.52171974808467
 20
22.8254302690754
 30
0.0
 10
15.51841455504099
 20
22.80686547273516
 30
0.0
 10
15.51514524082135
 20
22.78850220261512
 30
0.0
 10
15.51190269025302
 20
22.77028926009455
 30
0.0
 10
15.50984385904836
 20
22.75872509984476
 30
0.0
 10
15.50876210566259
 20
22.75264904588
 30
0.0
  0
ARC
  5
2ED
330
1F
100
AcDbEntity
  8
0
  6
Continuous
 62
     7
370
    25
100
AcDbCircle
 10
15.6105480088
 20
22.7895052519
 30
0.0
 40
0.1082531754730572
100
AcDbArc
 50
319.9050879136
 51
19.9050879136
  0
SPLINE
  5
2EE
330
1F
100
AcDbEntity
  8
0
  6
Continuous
 62
     7
370
    25
100
AcDbSpline
210
0.0
220
0.0
230
1.0
 70
    24
 71
     3
 72
    13
 73
     9
 74
     0
 42
0.00000001
 43
0.00000001
 40
0.0
 40
0.0
 40
0.0
 40
0.0
 40
0.1804907613309686
 40
0.3435163841107341
 40
0.5062359219915021
 40
0.6751144035508913
 40
0.8443638239380964
 40
1.0
 40
1.0
 40
1.0
 40
1.0
 10
15.69335937106372
 20
22.71978417700112
 30
0.0
 10
15.6944411244495
 20
22.72586023096589
 30
0.0
 10
15.69649995565416
 20
22.73742439121567
 30
0.0
 10
15.69974250622248
 20
22.75563733373624
 30
0.0
 10
15.70301182044212
 20
22.77400060385628
 30
0.0
 10
15.70631701348579
 20
22.79256540019652
 30
0.0
 10
15.70946017933096
 20
22.81022011294944
 30
0.0
 10
15.71140313882192
 20
22.82113343836505
 30
0.0
 10
15.71233391195782
 20
22.82636145787213
 30
0.0
  0
CIRCLE
  5
2EF
330
1F
100
AcDbEntity
  8
0
  6
Continuous
 62
     7
370
    25
100
AcDbCircle
 10
15.6105480088
 20
22.7895052519
 30
0.0
 40
0.1774999999999998
  0
CIRCLE
  5
2F0
330
1F
100
AcDbEntity
  8
0
  6
Continuous
 62
     7
370
    25
100
AcDbCircle
 10
15.6105480088
 20
22.7895052519
 30
0.0
 40
0.187500000000001
  0
ARC
  5
2F1
330
1F
100
AcDbEntity
  8
0
  6
Continuous
 62
     7
370
    25
100
AcDbCircle
 10
15.6105480088
 20
22.7895052519
 30
0.0
 40
0.093749999999999
100
AcDbArc
 50
229.9050879136
 51
289.9050879136
  0
ARC
  5
2F2
330
1F
100
AcDbEntity
  8
0
  6
Continuous
 62
     7
370
    25
100
AcDbCircle
 10
15.6105480088
 20
22.7895052519
 30
0.0
 40
0.093749999999999
100
AcDbArc
 50
169.9050879136
 51
229.9050879136
  0
ARC
  5
2F3
330
1F
100
AcDbEntity
  8
0
  6
Continuous
 62
     7
370
    25
100
AcDbCircle
 10
15.6105480088
 20
22.7895052519
 30
0.0
 40
0.0937500000000018
100
AcDbArc
 50
109.9050879136
 51
169.9050879136
  0
ARC
  5
2F4
330
1F
100
AcDbEntity
  8
0
  6
Continuous
 62
     7
370
    25
100
AcDbCircle
 10
15.6105480088
 20
22.7895052519
 30
0.0
 40
0.0937500000000018
100
AcDbArc
 50
49.9050879136
 51
109.9050879136
  0
ARC
  5
2F5
330
1F
100
AcDbEntity
  8
0
  6
Continuous
 62
     7
370
    25
100
AcDbCircle
 10
15.6105480088
 20
22.7895052519
 30
0.0
 40
0.093749999999999
100
AcDbArc
 50
349.9050879136
 51
49.9050879136
  0
ARC
  5
2F6
330
1F
100
AcDbEntity
  8
0
  6
Continuous
 62
     7
370
    25
100
AcDbCircle
 10
15.6105480088
 20
22.7895052519
 30
0.0
 40
0.093749999999999
100
AcDbArc
 50
289.9050879136
 51
349.9050879136
  0
CIRCLE
  5
2F7
330
1F
100
AcDbEntity
  8
0
  6
Continuous
 62
     7
370
    25
100
AcDbCircle
 10
15.6105480088
 20
22.7895052519
 30
0.0
 40
0.0215812163512987
  0
ARC
  5
2F8
330
1F
100
AcDbEntity
  8
0
  6
Continuous
 62
     7
370
    25
100
AcDbCircle
 10
15.6105480088
 20
28.0395052519
 30
0.0
 40
0.1082531754730603
100
AcDbArc
 50
169.9050879136
 51
229.9050879136
  0
SPLINE
  5
2F9
330
1F
100
AcDbEntity
  8
0
  6
Continuous
 62
     7
370
    25
100
AcDbSpline
210
0.0
220
0.0
230
1.0
 70
    24
 71
     3
 72
    14
 73
    10
 74
     0
 42
0.00000001
 43
0.00000001
 40
0.0
 40
0.0
 40
0.0
 40
0.0
 40
0.2160440500688652
 40
0.3279916129197576
 40
0.4398633640933755
 40
0.5934196964577027
 40
0.7521080343382017
 40
0.8754862237479079
 40
1.0
 40
1.0
 40
1.0
 40
1.0
 10
15.5039707279392
 20
28.05847979277016
 30
0.0
 10
15.5064947802456
 20
28.05150910936268
 30
0.0
 10
15.51032672093922
 20
28.04092642637167
 30
0.0
 10
15.51580403650711
 20
28.02579970627568
 30
0.0
 10
15.52060612530933
 20
28.01253776211954
 30
0.0
 10
15.52607995723197
 20
27.99742066281786
 30
0.0
 10
15.53157411871943
 20
27.98224741929143
 30
0.0
 10
15.53651031718659
 20
27.96861510404034
 30
0.0
 10
15.53938367409387
 20
27.96067974498838
 30
0.0
 10
15.54082693393527
 20
27.95669388962256
 30
0.0
  0
ARC
  5
2FA
330
1F
100
AcDbEntity
  8
0
  6
Continuous
 62
     7
370
    25
100
AcDbCircle
 10
15.6105480088
 20
28.0395052519
 30
0.0
 40
0.1082531754730528
100
AcDbArc
 50
349.9050879136
 51
49.9050879136
  0
SPLINE
  5
2FB
330
1F
100
AcDbEntity
  8
0
  6
Continuous
 62
     7
370
    25
100
AcDbSpline
210
0.0
220
0.0
230
1.0
 70
    24
 71
     3
 72
    14
 73
    10
 74
     0
 42
0.00000001
 43
0.00000001
 40
0.0
 40
0.0
 40
0.0
 40
0.0
 40
0.2160440500688524
 40
0.3279916129197434
 40
0.4398633640933697
 40
0.5934196964576728
 40
0.7521080343381764
 40
0.8754862237478883
 40
1.0
 40
1.0
 40
1.0
 40
1.0
 10
15.71712528968122
 20
28.02053071098197
 30
0.0
 10
15.71460123737481
 20
28.02750139438946
 30
0.0
 10
15.7107692966812
 20
28.03808407738046
 30
0.0
 10
15.7052919811133
 20
28.05321079747645
 30
0.0
 10
15.70048989231109
 20
28.0664727416326
 30
0.0
 10
15.69501606038845
 20
28.08158984093429
 30
0.0
 10
15.68952189890099
 20
28.09676308446071
 30
0.0
 10
15.68458570043382
 20
28.11039539971181
 30
0.0
 10
15.68171234352655
 20
28.11833075876377
 30
0.0
 10
15.68026908368515
 20
28.12231661412958
 30
0.0
  0
ARC
  5
2FC
330
1F
100
AcDbEntity
  8
0
  6
Continuous
 62
     7
370
    25
100
AcDbCircle
 10
15.6105480088
 20
28.0395052519
 30
0.0
 40
0.1082531754730603
100
AcDbArc
 50
109.9050879136
 51
169.9050879136
  0
SPLINE
  5
2FD
330
1F
100
AcDbEntity
  8
0
  6
Continuous
 62
     7
370
    25
100
AcDbSpline
210
0.0
220
0.0
230
1.0
 70
    24
 71
     3
 72
    14
 73
    10
 74
     0
 42
0.00000001
 43
0.00000001
 40
0.0
 40
0.0
 40
0.0
 40
0.0
 40
0.2160440500688598
 40
0.3279916129197522
 40
0.4398633640933765
 40
0.5934196964576797
 40
0.7521080343381663
 40
0.8754862237478874
 40
1.0
 40
1.0
 40
1.0
 40
1.0
 10
15.57369180281414
 20
28.14129115502369
 30
0.0
 10
15.56891704005473
 20
28.13561991990212
 30
0.0
 10
15.56166813809112
 20
28.12701002042014
 30
0.0
 10
15.55130667199601
 20
28.11470316594581
 30
0.0
 10
15.54222253585431
 20
28.10391346297379
 30
0.0
 10
15.53186765978885
 20
28.09161443582189
 30
0.0
 10
15.52147432618088
 20
28.07926973063805
 30
0.0
 10
15.51213649409462
 20
28.06817869974181
 30
0.0
 10
15.50670095002111
 20
28.06172262013999
 30
0.0
 10
15.5039707279392
 20
28.05847979277016
 30
0.0
  0
ARC
  5
2FE
330
1F
100
AcDbEntity
  8
0
  6
Continuous
 62
     7
370
    25
100
AcDbCircle
 10
15.6105480088
 20
28.0395052519
 30
0.0
 40
0.1082531754730576
100
AcDbArc
 50
289.9050879136
 51
349.9050879136
  0
SPLINE
  5
2FF
330
1F
100
AcDbEntity
  8
0
  6
Continuous
 62
     7
370
    25
100
AcDbSpline
210
0.0
220
0.0
230
1.0
 70
    24
 71
     3
 72
    14
 73
    10
 74
     0
 42
0.00000001
 43
0.00000001
 40
0.0
 40
0.0
 40
0.0
 40
0.0
 40
0.2160440500688588
 40
0.3279916129197499
 40
0.4398633640933807
 40
0.5934196964576659
 40
0.752108034338162
 40
0.8754862237478818
 40
0.9999999999999999
 40
0.9999999999999999
 40
0.9999999999999999
 40
0.9999999999999999
 10
15.64740421480628
 20
27.93771934872845
 30
0.0
 10
15.65217897756569
 20
27.94339058385003
 30
0.0
 10
15.65942787952929
 20
27.952000483332
 30
0.0
 10
15.66978934562441
 20
27.96430733780633
 30
0.0
 10
15.6788734817661
 20
27.97509704077835
 30
0.0
 10
15.68922835783156
 20
27.98739606793026
 30
0.0
 10
15.69962169143954
 20
27.99974077311409
 30
0.0
 10
15.70895952352579
 20
28.01083180401034
 30
0.0
 10
15.71439506759931
 20
28.01728788361215
 30
0.0
 10
15.71712528968122
 20
28.02053071098197
 30
0.0
  0
SPLINE
  5
300
330
1F
100
AcDbEntity
  8
0
  6
Continuous
 62
     7
370
    25
100
AcDbSpline
210
0.0
220
0.0
230
1.0
 70
    24
 71
     3
 72
    13
 73
     9
 74
     0
 42
0.00000001
 43
0.00000001
 40
0.0
 40
0.0
 40
0.0
 40
0.0
 40
0.15563617606194
 40
0.3248855964491207
 40
0.493764078008493
 40
0.6564836158892763
 40
0.819509238669061
 40
1.0
 40
1.0
 40
1.0
 40
1.0
 10
15.54082693393527
 20
27.95669388962256
 30
0.0
 10
15.54605495344235
 20
27.95576311648666
 30
0.0
 10
15.55696827885796
 20
27.9538201569957
 30
0.0
 10
15.57462299161088
 20
27.95067699115053
 30
0.0
 10
15.59318778795112
 20
27.94737179810686
 30
0.0
 10
15.61155105807116
 20
27.94410248388722
 30
0.0
 10
15.62976400059173
 20
27.94085993331889
 30
0.0
 10
15.64132816084151
 20
27.93880110211423
 30
0.0
 10
15.64740421480628
 20
27.93771934872845
 30
0.0
  0
ARC
  5
301
330
1F
100
AcDbEntity
  8
0
  6
Continuous
 62
     7
370
    25
100
AcDbCircle
 10
15.6105480088
 20
28.0395052519
 30
0.0
 40
0.1082531754730576
100
AcDbArc
 50
229.9050879136
 51
289.9050879136
  0
ARC
  5
302
330
1F
100
AcDbEntity
  8
0
  6
Continuous
 62
     7
370
    25
100
AcDbCircle
 10
15.6105480088
 20
28.0395052519
 30
0.0
 40
0.1082531754730573
100
AcDbArc
 50
49.9050879136
 51
109.9050879136
  0
SPLINE
  5
303
330
1F
100
AcDbEntity
  8
0
  6
Continuous
 62
     7
370
    25
100
AcDbSpline
210
0.0
220
0.0
230
1.0
 70
    24
 71
     3
 72
    13
 73
     9
 74
     0
 42
0.00000001
 43
0.00000001
 40
0.0
 40
0.0
 40
0.0
 40
0.0
 40
0.1804907613309636
 40
0.3435163841107339
 40
0.5062359219915031
 40
0.6751144035508916
 40
0.8443638239380925
 40
1.0
 40
1.0
 40
1.0
 40
1.0
 10
15.68026908368515
 20
28.12231661412958
 30
0.0
 10
15.67419302972039
 20
28.12339836751536
 30
0.0
 10
15.6626288694706
 20
28.12545719872003
 30
0.0
 10
15.64441592695003
 20
28.12869974928835
 30
0.0
 10
15.62605265682999
 20
28.13196906350799
 30
0.0
 10
15.60748786048975
 20
28.13527425655166
 30
0.0
 10
15.58983314773683
 20
28.13841742239683
 30
0.0
 10
15.57891982232122
 20
28.14036038188778
 30
0.0
 10
15.57369180281414
 20
28.14129115502369
 30
0.0
  0
CIRCLE
  5
304
330
1F
100
AcDbEntity
  8
0
  6
Continuous
 62
     7
370
    25
100
AcDbCircle
 10
15.6105480088
 20
28.0395052519
 30
0.0
 40
0.1774999999999987
  0
CIRCLE
  5
305
330
1F
100
AcDbEntity
  8
0
  6
Continuous
 62
     7
370
    25
100
AcDbCircle
 10
15.6105480088
 20
28.0395052519
 30
0.0
 40
0.1875000000000028
  0
ARC
  5
306
330
1F
100
AcDbEntity
  8
0
  6
Continuous
 62
     7
370
    25
100
AcDbCircle
 10
15.6105480088
 20
28.0395052519
 30
0.0
 40
0.0937500000000044
100
AcDbArc
 50
79.9050879136
 51
139.9050879136
  0
ARC
  5
307
330
1F
100
AcDbEntity
  8
0
  6
Continuous
 62
     7
370
    25
100
AcDbCircle
 10
15.6105480088
 20
28.0395052519
 30
0.0
 40
0.0937500000000036
100
AcDbArc
 50
199.9050879136
 51
259.9050879136
  0
ARC
  5
308
330
1F
100
AcDbEntity
  8
0
  6
Continuous
 62
     7
370
    25
100
AcDbCircle
 10
15.6105480088
 20
28.0395052519
 30
0.0
 40
0.0937500000000044
100
AcDbArc
 50
139.9050879136
 51
199.9050879136
  0
ARC
  5
309
330
1F
100
AcDbEntity
  8
0
  6
Continuous
 62
     7
370
    25
100
AcDbCircle
 10
15.6105480088
 20
28.0395052519
 30
0.0
 40
0.0937500000000005
100
AcDbArc
 50
19.9050879136
 51
79.9050879136
  0
ARC
  5
30A
330
1F
100
AcDbEntity
  8
0
  6
Continuous
 62
     7
370
    25
100
AcDbCircle
 10
15.6105480088
 20
28.0395052519
 30
0.0
 40
0.0937499999999977
100
AcDbArc
 50
319.9050879136
 51
19.9050879136
  0
ARC
  5
30B
330
1F
100
AcDbEntity
  8
0
  6
Continuous
 62
     7
370
    25
100
AcDbCircle
 10
15.6105480088
 20
28.0395052519
 30
0.0
 40
0.0937499999999985
100
AcDbArc
 50
259.9050879136
 51
319.9050879136
  0
CIRCLE
  5
30C
330
1F
100
AcDbEntity
  8
0
  6
Continuous
 62
     7
370
    25
100
AcDbCircle
 10
15.6105480088
 20
28.0395052519
 30
0.0
 40
0.0215812163512973
  0
ARC
  5
30D
330
1F
100
AcDbEntity
  8
0
  6
Continuous
 62
     7
370
    25
100
AcDbCircle
 10
10.3605480088
 20
28.0395052519
 30
0.0
 40
0.1082531754730531
100
AcDbArc
 50
79.9050879136
 51
139.9050879136
  0
SPLINE
  5
30E
330
1F
100
AcDbEntity
  8
0
  6
Continuous
 62
     7
370
    25
100
AcDbSpline
210
0.0
220
0.0
230
1.0
 70
    24
 71
     3
 72
    14
 73
    10
 74
     0
 42
0.00000001
 43
0.00000001
 40
0.0
 40
0.0
 40
0.0
 40
0.0
 40
0.216044050068853
 40
0.3279916129197443
 40
0.4398633640933692
 40
0.5934196964576728
 40
0.7521080343381812
 40
0.875486223747892
 40
1.0
 40
1.0
 40
1.0
 40
1.0
 10
10.37952254970434
 20
28.14608253274711
 30
0.0
 10
10.37255186629686
 20
28.1435584804407
 30
0.0
 10
10.36196918330585
 20
28.13972653974708
 30
0.0
 10
10.34684246320986
 20
28.13424922417919
 30
0.0
 10
10.33358051905371
 20
28.12944713537698
 30
0.0
 10
10.31846341975203
 20
28.12397330345433
 30
0.0
 10
10.3032901762256
 20
28.11847914196688
 30
0.0
 10
10.28965786097451
 20
28.11354294349971
 30
0.0
 10
10.28172250192254
 20
28.11066958659243
 30
0.0
 10
10.27773664655673
 20
28.10922632675104
 30
0.0
  0
ARC
  5
30F
330
1F
100
AcDbEntity
  8
0
  6
Continuous
 62
     7
370
    25
100
AcDbCircle
 10
10.3605480088
 20
28.0395052519
 30
0.0
 40
0.1082531754730627
100
AcDbArc
 50
199.9050879136
 51
259.9050879136
  0
SPLINE
  5
310
330
1F
100
AcDbEntity
  8
0
  6
Continuous
 62
     7
370
    25
100
AcDbSpline
210
0.0
220
0.0
230
1.0
 70
    24
 71
     3
 72
    14
 73
    10
 74
     0
 42
0.00000001
 43
0.00000001
 40
0.0
 40
0.0
 40
0.0
 40
0.0
 40
0.2160440500688593
 40
0.3279916129197508
 40
0.4398633640933754
 40
0.5934196964576776
 40
0.7521080343381674
 40
0.8754862237478878
 40
1.0
 40
1.0
 40
1.0
 40
1.0
 10
10.25876210566262
 20
28.00264904588003
 30
0.0
 10
10.26443334078419
 20
27.99787428312062
 30
0.0
 10
10.27304324026617
 20
27.99062538115701
 30
0.0
 10
10.2853500947405
 20
27.98026391506189
 30
0.0
 10
10.29613979771252
 20
27.9711797789202
 30
0.0
 10
10.30843882486442
 20
27.96082490285474
 30
0.0
 10
10.32078353004826
 20
27.95043156924676
 30
0.0
 10
10.3318745609445
 20
27.94109373716051
 30
0.0
 10
10.33833064054632
 20
27.93565819308699
 30
0.0
 10
10.34157346791614
 20
27.93292797100508
 30
0.0
  0
SPLINE
  5
311
330
1F
100
AcDbEntity
  8
0
  6
Continuous
 62
     7
370
    25
100
AcDbSpline
210
0.0
220
0.0
230
1.0
 70
    24
 71
     3
 72
    14
 73
    10
 74
     0
 42
0.00000001
 43
0.00000001
 40
0.0
 40
0.0
 40
0.0
 40
0.0
 40
0.2160440500688649
 40
0.3279916129197572
 40
0.4398633640933778
 40
0.5934196964577002
 40
0.7521080343382036
 40
0.8754862237479052
 40
1.0
 40
1.0
 40
1.0
 40
1.0
 10
10.34157346791614
 20
27.93292797100508
 30
0.0
 10
10.34854415132363
 20
27.93545202331149
 30
0.0
 10
10.35912683431464
 20
27.93928396400511
 30
0.0
 10
10.37425355441062
 20
27.944761279573
 30
0.0
 10
10.38751549856677
 20
27.94956336837521
 30
0.0
 10
10.40263259786846
 20
27.95503720029785
 30
0.0
 10
10.41780584139488
 20
27.96053136178531
 30
0.0
 10
10.43143815664597
 20
27.96546756025248
 30
0.0
 10
10.43937351569793
 20
27.96834091715975
 30
0.0
 10
10.44335937106375
 20
27.96978417700115
 30
0.0
  0
ARC
  5
312
330
1F
100
AcDbEntity
  8
0
  6
Continuous
 62
     7
370
    25
100
AcDbCircle
 10
10.3605480088
 20
28.0395052519
 30
0.0
 40
0.1082531754730627
100
AcDbArc
 50
259.9050879136
 51
319.9050879136
  0
ARC
  5
313
330
1F
100
AcDbEntity
  8
0
  6
Continuous
 62
     7
370
    25
100
AcDbCircle
 10
10.3605480088
 20
28.0395052519
 30
0.0
 40
0.1082531754730576
100
AcDbArc
 50
19.9050879136
 51
79.9050879136
  0
SPLINE
  5
314
330
1F
100
AcDbEntity
  8
0
  6
Continuous
 62
     7
370
    25
100
AcDbSpline
210
0.0
220
0.0
230
1.0
 70
    24
 71
     3
 72
    14
 73
    10
 74
     0
 42
0.00000001
 43
0.00000001
 40
0.0
 40
0.0
 40
0.0
 40
0.0
 40
0.216044050068859
 40
0.3279916129197472
 40
0.4398633640933811
 40
0.5934196964576627
 40
0.752108034338159
 40
0.8754862237478789
 40
1.0
 40
1.0
 40
1.0
 40
1.0
 10
10.46233391195786
 20
28.07636145787216
 30
0.0
 10
10.45666267683629
 20
28.08113622063157
 30
0.0
 10
10.44805277735431
 20
28.08838512259518
 30
0.0
 10
10.43574592287998
 20
28.09874658869029
 30
0.0
 10
10.42495621990796
 20
28.10783072483199
 30
0.0
 10
10.41265719275606
 20
28.11818560089745
 30
0.0
 10
10.40031248757223
 20
28.12857893450542
 30
0.0
 10
10.38922145667597
 20
28.13791676659168
 30
0.0
 10
10.38276537707416
 20
28.1433523106652
 30
0.0
 10
10.37952254970434
 20
28.14608253274711
 30
0.0
  0
ARC
  5
315
330
1F
100
AcDbEntity
  8
0
  6
Continuous
 62
     7
370
    25
100
AcDbCircle
 10
10.3605480088
 20
28.0395052519
 30
0.0
 40
0.1082531754730613
100
AcDbArc
 50
139.9050879136
 51
199.9050879136
  0
SPLINE
  5
316
330
1F
100
AcDbEntity
  8
0
  6
Continuous
 62
     7
370
    25
100
AcDbSpline
210
0.0
220
0.0
230
1.0
 70
    24
 71
     3
 72
    13
 73
     9
 74
     0
 42
0.00000001
 43
0.00000001
 40
0.0
 40
0.0
 40
0.0
 40
0.0
 40
0.1804907613309685
 40
0.3435163841107346
 40
0.5062359219915026
 40
0.6751144035508916
 40
0.8443638239380921
 40
1.0
 40
1.0
 40
1.0
 40
1.0
 10
10.27773664655673
 20
28.10922632675104
 30
0.0
 10
10.27665489317095
 20
28.10315027278628
 30
0.0
 10
10.27459606196628
 20
28.09158611253649
 30
0.0
 10
10.27135351139796
 20
28.07337317001592
 30
0.0
 10
10.26808419717833
 20
28.05500989989588
 30
0.0
 10
10.26477900413465
 20
28.03644510355564
 30
0.0
 10
10.26163583828948
 20
28.01879039080272
 30
0.0
 10
10.25969287879852
 20
28.00787706538711
 30
0.0
 10
10.25876210566262
 20
28.00264904588003
 30
0.0
  0
ARC
  5
317
330
1F
100
AcDbEntity
  8
0
  6
Continuous
 62
     7
370
    25
100
AcDbCircle
 10
10.3605480088
 20
28.0395052519
 30
0.0
 40
0.1082531754730597
100
AcDbArc
 50
319.9050879136
 51
19.9050879136
  0
SPLINE
  5
318
330
1F
100
AcDbEntity
  8
0
  6
Continuous
 62
     7
370
    25
100
AcDbSpline
210
0.0
220
0.0
230
1.0
 70
    24
 71
     3
 72
    13
 73
     9
 74
     0
 42
0.00000001
 43
0.00000001
 40
0.0
 40
0.0
 40
0.0
 40
0.0
 40
0.155636176061939
 40
0.3248855964491186
 40
0.4937640780084909
 40
0.6564836158892731
 40
0.8195092386690578
 40
0.9999999999999999
 40
0.9999999999999999
 40
0.9999999999999999
 40
0.9999999999999999
 10
10.44335937106375
 20
27.96978417700115
 30
0.0
 10
10.44429014419966
 20
27.97501219650823
 30
0.0
 10
10.44623310369062
 20
27.98592552192385
 30
0.0
 10
10.44937626953578
 20
28.00358023467676
 30
0.0
 10
10.45268146257945
 20
28.022145031017
 30
0.0
 10
10.45595077679909
 20
28.04050830113704
 30
0.0
 10
10.45919332736742
 20
28.05872124365761
 30
0.0
 10
10.46125215857208
 20
28.0702854039074
 30
0.0
 10
10.46233391195786
 20
28.07636145787216
 30
0.0
  0
CIRCLE
  5
319
330
1F
100
AcDbEntity
  8
0
  6
Continuous
 62
     7
370
    25
100
AcDbCircle
 10
10.3605480088
 20
28.0395052519
 30
0.0
 40
0.1775000000000028
  0
CIRCLE
  5
31A
330
1F
100
AcDbEntity
  8
0
  6
Continuous
 62
     7
370
    25
100
AcDbCircle
 10
10.3605480088
 20
28.0395052519
 30
0.0
 40
0.1875000000000017
  0
ARC
  5
31B
330
1F
100
AcDbEntity
  8
0
  6
Continuous
 62
     7
370
    25
100
AcDbCircle
 10
10.3605480088
 20
28.0395052519
 30
0.0
 40
0.0937500000000056
100
AcDbArc
 50
169.9050879136
 51
229.9050879136
  0
ARC
  5
31C
330
1F
100
AcDbEntity
  8
0
  6
Continuous
 62
     7
370
    25
100
AcDbCircle
 10
10.3605480088
 20
28.0395052519
 30
0.0
 40
0.093749999999999
100
AcDbArc
 50
109.9050879136
 51
169.9050879136
  0
ARC
  5
31D
330
1F
100
AcDbEntity
  8
0
  6
Continuous
 62
     7
370
    25
100
AcDbCircle
 10
10.3605480088
 20
28.0395052519
 30
0.0
 40
0.0937500000000024
100
AcDbArc
 50
289.9050879136
 51
349.9050879136
  0
ARC
  5
31E
330
1F
100
AcDbEntity
  8
0
  6
Continuous
 62
     7
370
    25
100
AcDbCircle
 10
10.3605480088
 20
28.0395052519
 30
0.0
 40
0.0937500000000056
100
AcDbArc
 50
229.9050879136
 51
289.9050879136
  0
ARC
  5
31F
330
1F
100
AcDbEntity
  8
0
  6
Continuous
 62
     7
370
    25
100
AcDbCircle
 10
10.3605480088
 20
28.0395052519
 30
0.0
 40
0.0937499999999936
100
AcDbArc
 50
49.9050879136
 51
109.9050879136
  0
ARC
  5
320
330
1F
100
AcDbEntity
  8
0
  6
Continuous
 62
     7
370
    25
100
AcDbCircle
 10
10.3605480088
 20
28.0395052519
 30
0.0
 40
0.0937499999999974
100
AcDbArc
 50
349.9050879136
 51
49.9050879136
  0
CIRCLE
  5
321
330
1F
100
AcDbEntity
  8
0
  6
Continuous
 62
     7
370
    25
100
AcDbCircle
 10
10.3605480088
 20
28.0395052519
 30
0.0
 40
0.0215812163512976
  0
LINE
  5
322
330
1F
100
AcDbEntity
  8
0
  6
Continuous
 62
     7
370
    25
100
AcDbLine
 10
16.1872028999
 20
28.6161601429
 30
0.0
 11
9.7838931178
 21
28.6161601429
 31
0.0
  0
LINE
  5
323
330
1F
100
AcDbEntity
  8
0
  6
Continuous
 62
     7
370
    25
100
AcDbLine
 10
9.7838931178
 20
28.6161601429
 30
0.0
 11
9.7355327983
 21
28.6645204624
 31
0.0
  0
LINE
  5
324
330
1F
100
AcDbEntity
  8
0
  6
Continuous
 62
     7
370
    25
100
AcDbLine
 10
16.2355632194
 20
28.6645204624
 30
0.0
 11
9.7355327983
 21
28.6645204624
 31
0.0
  0
LINE
  5
325
330
1F
100
AcDbEntity
  8
0
  6
Continuous
 62
     7
370
    25
100
AcDbLine
 10
16.1872028999
 20
28.6161601429
 30
0.0
 11
16.2355632194
 21
28.6645204624
 31
0.0
  0
LINE
  5
326
330
1F
100
AcDbEntity
  8
0
  6
Continuous
 62
     7
370
    25
100
AcDbLine
 10
15.9088931178
 20
23.3661601429
 30
0.0
 11
15.0338931178
 21
23.3661601429
 31
0.0
  0
LINE
  5
327
330
1F
100
AcDbEntity
  8
0
  6
Continuous
 62
     7
370
    25
100
AcDbLine
 10
15.0338931178
 20
23.3661601429
 30
0.0
 11
15.0338931178
 21
22.4911601429
 31
0.0
  0
LINE
  5
328
330
1F
100
AcDbEntity
  8
0
  6
Continuous
 62
     7
370
    25
100
AcDbLine
 10
15.0338931178
 20
22.4911601429
 30
0.0
 11
15.9088931178
 21
22.4911601429
 31
0.0
  0
LINE
  5
329
330
1F
100
AcDbEntity
  8
0
  6
Continuous
 62
     7
370
    25
100
AcDbLine
 10
15.9088931178
 20
22.4911601429
 30
0.0
 11
15.9088931178
 21
23.3661601429
 31
0.0
  0
LINE
  5
32A
330
1F
100
AcDbEntity
  8
0
  6
Continuous
 62
     7
370
    25
100
AcDbLine
 10
14.9088931178
 20
23.3661601429
 30
0.0
 11
14.0338931178
 21
23.3661601429
 31
0.0
  0
LINE
  5
32B
330
1F
100
AcDbEntity
  8
0
  6
Continuous
 62
     7
370
    25
100
AcDbLine
 10
14.0338931178
 20
23.3661601429
 30
0.0
 11
14.0338931178
 21
22.4911601429
 31
0.0
  0
LINE
  5
32C
330
1F
100
AcDbEntity
  8
0
  6
Continuous
 62
     7
370
    25
100
AcDbLine
 10
14.0338931178
 20
22.4911601429
 30
0.0
 11
14.9088931178
 21
22.4911601429
 31
0.0
  0
LINE
  5
32D
330
1F
100
AcDbEntity
  8
0
  6
Continuous
 62
     7
370
    25
100
AcDbLine
 10
14.9088931178
 20
22.4911601429
 30
0.0
 11
14.9088931178
 21
23.3661601429
 31
0.0
  0
LINE
  5
32E
330
1F
100
AcDbEntity
  8
0
  6
Continuous
 62
     7
370
    25
100
AcDbLine
 10
13.9088931178
 20
23.3661601429
 30
0.0
 11
13.0338931178
 21
23.3661601429
 31
0.0
  0
LINE
  5
32F
330
1F
100
AcDbEntity
  8
0
  6
Continuous
 62
     7
370
    25
100
AcDbLine
 10
13.0338931178
 20
23.3661601429
 30
0.0
 11
13.0338931178
 21
22.4911601429
 31
0.0
  0
LINE
  5
330
330
1F
100
AcDbEntity
  8
0
  6
Continuous
 62
     7
370
    25
100
AcDbLine
 10
13.0338931178
 20
22.4911601429
 30
0.0
 11
13.9088931178
 21
22.4911601429
 31
0.0
  0
LINE
  5
331
330
1F
100
AcDbEntity
  8
0
  6
Continuous
 62
     7
370
    25
100
AcDbLine
 10
13.9088931178
 20
22.4911601429
 30
0.0
 11
13.9088931178
 21
23.3661601429
 31
0.0
  0
LINE
  5
332
330
1F
100
AcDbEntity
  8
0
  6
Continuous
 62
     7
370
    25
100
AcDbLine
 10
12.9088931178
 20
23.3661601429
 30
0.0
 11
12.0338931178
 21
23.3661601429
 31
0.0
  0
LINE
  5
333
330
1F
100
AcDbEntity
  8
0
  6
Continuous
 62
     7
370
    25
100
AcDbLine
 10
12.0338931178
 20
23.3661601429
 30
0.0
 11
12.0338931178
 21
22.4911601429
 31
0.0
  0
LINE
  5
334
330
1F
100
AcDbEntity
  8
0
  6
Continuous
 62
     7
370
    25
100
AcDbLine
 10
12.0338931178
 20
22.4911601429
 30
0.0
 11
12.9088931178
 21
22.4911601429
 31
0.0
  0
LINE
  5
335
330
1F
100
AcDbEntity
  8
0
  6
Continuous
 62
     7
370
    25
100
AcDbLine
 10
12.9088931178
 20
22.4911601429
 30
0.0
 11
12.9088931178
 21
23.3661601429
 31
0.0
  0
LINE
  5
336
330
1F
100
AcDbEntity
  8
0
  6
Continuous
 62
     7
370
    25
100
AcDbLine
 10
11.9088931178
 20
23.3661601429
 30
0.0
 11
11.0338931178
 21
23.3661601429
 31
0.0
  0
LINE
  5
337
330
1F
100
AcDbEntity
  8
0
  6
Continuous
 62
     7
370
    25
100
AcDbLine
 10
11.0338931178
 20
23.3661601429
 30
0.0
 11
11.0338931178
 21
22.4911601429
 31
0.0
  0
LINE
  5
338
330
1F
100
AcDbEntity
  8
0
  6
Continuous
 62
     7
370
    25
100
AcDbLine
 10
11.0338931178
 20
22.4911601429
 30
0.0
 11
11.9088931178
 21
22.4911601429
 31
0.0
  0
LINE
  5
339
330
1F
100
AcDbEntity
  8
0
  6
Continuous
 62
     7
370
    25
100
AcDbLine
 10
11.9088931178
 20
22.4911601429
 30
0.0
 11
11.9088931178
 21
23.3661601429
 31
0.0
  0
LINE
  5
33A
330
1F
100
AcDbEntity
  8
0
  6
Continuous
 62
     7
370
    25
100
AcDbLine
 10
10.9088931178
 20
23.3661601429
 30
0.0
 11
10.0338931178
 21
23.3661601429
 31
0.0
  0
LINE
  5
33B
330
1F
100
AcDbEntity
  8
0
  6
Continuous
 62
     7
370
    25
100
AcDbLine
 10
10.0338931178
 20
23.3661601429
 30
0.0
 11
10.0338931178
 21
22.4911601429
 31
0.0
  0
LINE
  5
33C
330
1F
100
AcDbEntity
  8
0
  6
Continuous
 62
     7
370
    25
100
AcDbLine
 10
10.0338931178
 20
22.4911601429
 30
0.0
 11
10.9088931178
 21
22.4911601429
 31
0.0
  0
LINE
  5
33D
330
1F
100
AcDbEntity
  8
0
  6
Continuous
 62
     7
370
    25
100
AcDbLine
 10
10.9088931178
 20
22.4911601429
 30
0.0
 11
10.9088931178
 21
23.3661601429
 31
0.0
  0
LINE
  5
33E
330
1F
100
AcDbEntity
  8
0
  6
Continuous
 62
     7
370
    25
100
AcDbLine
 10
15.9088931178
 20
24.3661601429
 30
0.0
 11
15.0338931178
 21
24.3661601429
 31
0.0
  0
LINE
  5
33F
330
1F
100
AcDbEntity
  8
0
  6
Continuous
 62
     7
370
    25
100
AcDbLine
 10
15.0338931178
 20
24.3661601429
 30
0.0
 11
15.0338931178
 21
23.4911601429
 31
0.0
  0
LINE
  5
340
330
1F
100
AcDbEntity
  8
0
  6
Continuous
 62
     7
370
    25
100
AcDbLine
 10
15.0338931178
 20
23.4911601429
 30
0.0
 11
15.9088931178
 21
23.4911601429
 31
0.0
  0
LINE
  5
341
330
1F
100
AcDbEntity
  8
0
  6
Continuous
 62
     7
370
    25
100
AcDbLine
 10
15.9088931178
 20
23.4911601429
 30
0.0
 11
15.9088931178
 21
24.3661601429
 31
0.0
  0
LINE
  5
342
330
1F
100
AcDbEntity
  8
0
  6
Continuous
 62
     7
370
    25
100
AcDbLine
 10
10.9088931178
 20
24.3661601429
 30
0.0
 11
10.0338931178
 21
24.3661601429
 31
0.0
  0
LINE
  5
343
330
1F
100
AcDbEntity
  8
0
  6
Continuous
 62
     7
370
    25
100
AcDbLine
 10
10.0338931178
 20
24.3661601429
 30
0.0
 11
10.0338931178
 21
23.4911601429
 31
0.0
  0
LINE
  5
344
330
1F
100
AcDbEntity
  8
0
  6
Continuous
 62
     7
370
    25
100
AcDbLine
 10
10.0338931178
 20
23.4911601429
 30
0.0
 11
10.9088931178
 21
23.4911601429
 31
0.0
  0
LINE
  5
345
330
1F
100
AcDbEntity
  8
0
  6
Continuous
 62
     7
370
    25
100
AcDbLine
 10
10.9088931178
 20
23.4911601429
 30
0.0
 11
10.9088931178
 21
24.3661601429
 31
0.0
  0
LINE
  5
346
330
1F
100
AcDbEntity
  8
0
  6
Continuous
 62
     7
370
    25
100
AcDbLine
 10
15.9088931178
 20
25.3661601429
 30
0.0
 11
15.0338931178
 21
25.3661601429
 31
0.0
  0
LINE
  5
347
330
1F
100
AcDbEntity
  8
0
  6
Continuous
 62
     7
370
    25
100
AcDbLine
 10
15.0338931178
 20
25.3661601429
 30
0.0
 11
15.0338931178
 21
24.4911601429
 31
0.0
  0
LINE
  5
348
330
1F
100
AcDbEntity
  8
0
  6
Continuous
 62
     7
370
    25
100
AcDbLine
 10
15.0338931178
 20
24.4911601429
 30
0.0
 11
15.9088931178
 21
24.4911601429
 31
0.0
  0
LINE
  5
349
330
1F
100
AcDbEntity
  8
0
  6
Continuous
 62
     7
370
    25
100
AcDbLine
 10
15.9088931178
 20
24.4911601429
 30
0.0
 11
15.9088931178
 21
25.3661601429
 31
0.0
  0
LINE
  5
34A
330
1F
100
AcDbEntity
  8
0
  6
Continuous
 62
     7
370
    25
100
AcDbLine
 10
10.9088931178
 20
25.3661601429
 30
0.0
 11
10.0338931178
 21
25.3661601429
 31
0.0
  0
LINE
  5
34B
330
1F
100
AcDbEntity
  8
0
  6
Continuous
 62
     7
370
    25
100
AcDbLine
 10
10.0338931178
 20
25.3661601429
 30
0.0
 11
10.0338931178
 21
24.4911601429
 31
0.0
  0
LINE
  5
34C
330
1F
100
AcDbEntity
  8
0
  6
Continuous
 62
     7
370
    25
100
AcDbLine
 10
10.0338931178
 20
24.4911601429
 30
0.0
 11
10.9088931178
 21
24.4911601429
 31
0.0
  0
LINE
  5
34D
330
1F
100
AcDbEntity
  8
0
  6
Continuous
 62
     7
370
    25
100
AcDbLine
 10
10.9088931178
 20
24.4911601429
 30
0.0
 11
10.9088931178
 21
25.3661601429
 31
0.0
  0
LINE
  5
34E
330
1F
100
AcDbEntity
  8
0
  6
Continuous
 62
     7
370
    25
100
AcDbLine
 10
15.9088931178
 20
26.3661601429
 30
0.0
 11
15.0338931178
 21
26.3661601429
 31
0.0
  0
LINE
  5
34F
330
1F
100
AcDbEntity
  8
0
  6
Continuous
 62
     7
370
    25
100
AcDbLine
 10
15.0338931178
 20
26.3661601429
 30
0.0
 11
15.0338931178
 21
25.4911601429
 31
0.0
  0
LINE
  5
350
330
1F
100
AcDbEntity
  8
0
  6
Continuous
 62
     7
370
    25
100
AcDbLine
 10
15.0338931178
 20
25.4911601429
 30
0.0
 11
15.9088931178
 21
25.4911601429
 31
0.0
  0
LINE
  5
351
330
1F
100
AcDbEntity
  8
0
  6
Continuous
 62
     7
370
    25
100
AcDbLine
 10
15.9088931178
 20
25.4911601429
 30
0.0
 11
15.9088931178
 21
26.3661601429
 31
0.0
  0
LINE
  5
352
330
1F
100
AcDbEntity
  8
0
  6
Continuous
 62
     7
370
    25
100
AcDbLine
 10
10.9088931178
 20
26.3661601429
 30
0.0
 11
10.0338931178
 21
26.3661601429
 31
0.0
  0
LINE
  5
353
330
1F
100
AcDbEntity
  8
0
  6
Continuous
 62
     7
370
    25
100
AcDbLine
 10
10.0338931178
 20
26.3661601429
 30
0.0
 11
10.0338931178
 21
25.4911601429
 31
0.0
  0
LINE
  5
354
330
1F
100
AcDbEntity
  8
0
  6
Continuous
 62
     7
370
    25
100
AcDbLine
 10
10.0338931178
 20
25.4911601429
 30
0.0
 11
10.9088931178
 21
25.4911601429
 31
0.0
  0
LINE
  5
355
330
1F
100
AcDbEntity
  8
0
  6
Continuous
 62
     7
370
    25
100
AcDbLine
 10
10.9088931178
 20
25.4911601429
 30
0.0
 11
10.9088931178
 21
26.3661601429
 31
0.0
  0
LINE
  5
356
330
1F
100
AcDbEntity
  8
0
  6
Continuous
 62
     7
370
    25
100
AcDbLine
 10
15.9088931178
 20
27.3661601429
 30
0.0
 11
15.0338931178
 21
27.3661601429
 31
0.0
  0
LINE
  5
357
330
1F
100
AcDbEntity
  8
0
  6
Continuous
 62
     7
370
    25
100
AcDbLine
 10
15.0338931178
 20
27.3661601429
 30
0.0
 11
15.0338931178
 21
26.4911601429
 31
0.0
  0
LINE
  5
358
330
1F
100
AcDbEntity
  8
0
  6
Continuous
 62
     7
370
    25
100
AcDbLine
 10
15.0338931178
 20
26.4911601429
 30
0.0
 11
15.9088931178
 21
26.4911601429
 31
0.0
  0
LINE
  5
359
330
1F
100
AcDbEntity
  8
0
  6
Continuous
 62
     7
370
    25
100
AcDbLine
 10
15.9088931178
 20
26.4911601429
 30
0.0
 11
15.9088931178
 21
27.3661601429
 31
0.0
  0
LINE
  5
35A
330
1F
100
AcDbEntity
  8
0
  6
Continuous
 62
     7
370
    25
100
AcDbLine
 10
10.9088931178
 20
27.3661601429
 30
0.0
 11
10.0338931178
 21
27.3661601429
 31
0.0
  0
LINE
  5
35B
330
1F
100
AcDbEntity
  8
0
  6
Continuous
 62
     7
370
    25
100
AcDbLine
 10
10.0338931178
 20
27.3661601429
 30
0.0
 11
10.0338931178
 21
26.4911601429
 31
0.0
  0
LINE
  5
35C
330
1F
100
AcDbEntity
  8
0
  6
Continuous
 62
     7
370
    25
100
AcDbLine
 10
10.0338931178
 20
26.4911601429
 30
0.0
 11
10.9088931178
 21
26.4911601429
 31
0.0
  0
LINE
  5
35D
330
1F
100
AcDbEntity
  8
0
  6
Continuous
 62
     7
370
    25
100
AcDbLine
 10
10.9088931178
 20
26.4911601429
 30
0.0
 11
10.9088931178
 21
27.3661601429
 31
0.0
  0
LINE
  5
35E
330
1F
100
AcDbEntity
  8
0
  6
Continuous
 62
     7
370
    25
100
AcDbLine
 10
15.9088931178
 20
28.3661601429
 30
0.0
 11
15.0338931178
 21
28.3661601429
 31
0.0
  0
LINE
  5
35F
330
1F
100
AcDbEntity
  8
0
  6
Continuous
 62
     7
370
    25
100
AcDbLine
 10
15.0338931178
 20
28.3661601429
 30
0.0
 11
15.0338931178
 21
27.4911601429
 31
0.0
  0
LINE
  5
360
330
1F
100
AcDbEntity
  8
0
  6
Continuous
 62
     7
370
    25
100
AcDbLine
 10
15.0338931178
 20
27.4911601429
 30
0.0
 11
15.9088931178
 21
27.4911601429
 31
0.0
  0
LINE
  5
361
330
1F
100
AcDbEntity
  8
0
  6
Continuous
 62
     7
370
    25
100
AcDbLine
 10
15.9088931178
 20
27.4911601429
 30
0.0
 11
15.9088931178
 21
28.3661601429
 31
0.0
  0
LINE
  5
362
330
1F
100
AcDbEntity
  8
0
  6
Continuous
 62
     7
370
    25
100
AcDbLine
 10
14.9088931178
 20
28.3661601429
 30
0.0
 11
14.0338931178
 21
28.3661601429
 31
0.0
  0
LINE
  5
363
330
1F
100
AcDbEntity
  8
0
  6
Continuous
 62
     7
370
    25
100
AcDbLine
 10
14.0338931178
 20
28.3661601429
 30
0.0
 11
14.0338931178
 21
27.4911601429
 31
0.0
  0
LINE
  5
364
330
1F
100
AcDbEntity
  8
0
  6
Continuous
 62
     7
370
    25
100
AcDbLine
 10
14.0338931178
 20
27.4911601429
 30
0.0
 11
14.9088931178
 21
27.4911601429
 31
0.0
  0
LINE
  5
365
330
1F
100
AcDbEntity
  8
0
  6
Continuous
 62
     7
370
    25
100
AcDbLine
 10
14.9088931178
 20
27.4911601429
 30
0.0
 11
14.9088931178
 21
28.3661601429
 31
0.0
  0
LINE
  5
366
330
1F
100
AcDbEntity
  8
0
  6
Continuous
 62
     7
370
    25
100
AcDbLine
 10
13.9088931178
 20
28.3661601429
 30
0.0
 11
13.0338931178
 21
28.3661601429
 31
0.0
  0
LINE
  5
367
330
1F
100
AcDbEntity
  8
0
  6
Continuous
 62
     7
370
    25
100
AcDbLine
 10
13.0338931178
 20
28.3661601429
 30
0.0
 11
13.0338931178
 21
27.4911601429
 31
0.0
  0
LINE
  5
368
330
1F
100
AcDbEntity
  8
0
  6
Continuous
 62
     7
370
    25
100
AcDbLine
 10
13.0338931178
 20
27.4911601429
 30
0.0
 11
13.9088931178
 21
27.4911601429
 31
0.0
  0
LINE
  5
369
330
1F
100
AcDbEntity
  8
0
  6
Continuous
 62
     7
370
    25
100
AcDbLine
 10
13.9088931178
 20
27.4911601429
 30
0.0
 11
13.9088931178
 21
28.3661601429
 31
0.0
  0
LINE
  5
36A
330
1F
100
AcDbEntity
  8
0
  6
Continuous
 62
     7
370
    25
100
AcDbLine
 10
12.9088931178
 20
28.3661601429
 30
0.0
 11
12.0338931178
 21
28.3661601429
 31
0.0
  0
LINE
  5
36B
330
1F
100
AcDbEntity
  8
0
  6
Continuous
 62
     7
370
    25
100
AcDbLine
 10
12.0338931178
 20
28.3661601429
 30
0.0
 11
12.0338931178
 21
27.4911601429
 31
0.0
  0
LINE
  5
36C
330
1F
100
AcDbEntity
  8
0
  6
Continuous
 62
     7
370
    25
100
AcDbLine
 10
12.0338931178
 20
27.4911601429
 30
0.0
 11
12.9088931178
 21
27.4911601429
 31
0.0
  0
LINE
  5
36D
330
1F
100
AcDbEntity
  8
0
  6
Continuous
 62
     7
370
    25
100
AcDbLine
 10
12.9088931178
 20
27.4911601429
 30
0.0
 11
12.9088931178
 21
28.3661601429
 31
0.0
  0
LINE
  5
36E
330
1F
100
AcDbEntity
  8
0
  6
Continuous
 62
     7
370
    25
100
AcDbLine
 10
14.9088931178
 20
24.3661601429
 30
0.0
 11
14.0338931178
 21
24.3661601429
 31
0.0
  0
LINE
  5
36F
330
1F
100
AcDbEntity
  8
0
  6
Continuous
 62
     7
370
    25
100
AcDbLine
 10
14.0338931178
 20
24.3661601429
 30
0.0
 11
14.0338931178
 21
23.4911601429
 31
0.0
  0
LINE
  5
370
330
1F
100
AcDbEntity
  8
0
  6
Continuous
 62
     7
370
    25
100
AcDbLine
 10
14.0338931178
 20
23.4911601429
 30
0.0
 11
14.9088931178
 21
23.4911601429
 31
0.0
  0
LINE
  5
371
330
1F
100
AcDbEntity
  8
0
  6
Continuous
 62
     7
370
    25
100
AcDbLine
 10
14.9088931178
 20
23.4911601429
 30
0.0
 11
14.9088931178
 21
24.3661601429
 31
0.0
  0
LINE
  5
372
330
1F
100
AcDbEntity
  8
0
  6
Continuous
 62
     7
370
    25
100
AcDbLine
 10
13.9088931178
 20
24.3661601429
 30
0.0
 11
13.0338931178
 21
24.3661601429
 31
0.0
  0
LINE
  5
373
330
1F
100
AcDbEntity
  8
0
  6
Continuous
 62
     7
370
    25
100
AcDbLine
 10
13.0338931178
 20
24.3661601429
 30
0.0
 11
13.0338931178
 21
23.4911601429
 31
0.0
  0
LINE
  5
374
330
1F
100
AcDbEntity
  8
0
  6
Continuous
 62
     7
370
    25
100
AcDbLine
 10
13.0338931178
 20
23.4911601429
 30
0.0
 11
13.9088931178
 21
23.4911601429
 31
0.0
  0
LINE
  5
375
330
1F
100
AcDbEntity
  8
0
  6
Continuous
 62
     7
370
    25
100
AcDbLine
 10
13.9088931178
 20
23.4911601429
 30
0.0
 11
13.9088931178
 21
24.3661601429
 31
0.0
  0
LINE
  5
376
330
1F
100
AcDbEntity
  8
0
  6
Continuous
 62
     7
370
    25
100
AcDbLine
 10
12.9088931178
 20
24.3661601429
 30
0.0
 11
12.0338931178
 21
24.3661601429
 31
0.0
  0
LINE
  5
377
330
1F
100
AcDbEntity
  8
0
  6
Continuous
 62
     7
370
    25
100
AcDbLine
 10
12.0338931178
 20
24.3661601429
 30
0.0
 11
12.0338931178
 21
23.4911601429
 31
0.0
  0
LINE
  5
378
330
1F
100
AcDbEntity
  8
0
  6
Continuous
 62
     7
370
    25
100
AcDbLine
 10
12.0338931178
 20
23.4911601429
 30
0.0
 11
12.9088931178
 21
23.4911601429
 31
0.0
  0
LINE
  5
379
330
1F
100
AcDbEntity
  8
0
  6
Continuous
 62
     7
370
    25
100
AcDbLine
 10
12.9088931178
 20
23.4911601429
 30
0.0
 11
12.9088931178
 21
24.3661601429
 31
0.0
  0
LINE
  5
37A
330
1F
100
AcDbEntity
  8
0
  6
Continuous
 62
     7
370
    25
100
AcDbLine
 10
11.9088931178
 20
24.3661601429
 30
0.0
 11
11.0338931178
 21
24.3661601429
 31
0.0
  0
LINE
  5
37B
330
1F
100
AcDbEntity
  8
0
  6
Continuous
 62
     7
370
    25
100
AcDbLine
 10
11.0338931178
 20
24.3661601429
 30
0.0
 11
11.0338931178
 21
23.4911601429
 31
0.0
  0
LINE
  5
37C
330
1F
100
AcDbEntity
  8
0
  6
Continuous
 62
     7
370
    25
100
AcDbLine
 10
11.0338931178
 20
23.4911601429
 30
0.0
 11
11.9088931178
 21
23.4911601429
 31
0.0
  0
LINE
  5
37D
330
1F
100
AcDbEntity
  8
0
  6
Continuous
 62
     7
370
    25
100
AcDbLine
 10
11.9088931178
 20
23.4911601429
 30
0.0
 11
11.9088931178
 21
24.3661601429
 31
0.0
  0
LINE
  5
37E
330
1F
100
AcDbEntity
  8
0
  6
Continuous
 62
     7
370
    25
100
AcDbLine
 10
14.9088931178
 20
25.3661601429
 30
0.0
 11
14.0338931178
 21
25.3661601429
 31
0.0
  0
LINE
  5
37F
330
1F
100
AcDbEntity
  8
0
  6
Continuous
 62
     7
370
    25
100
AcDbLine
 10
14.0338931178
 20
25.3661601429
 30
0.0
 11
14.0338931178
 21
24.4911601429
 31
0.0
  0
LINE
  5
380
330
1F
100
AcDbEntity
  8
0
  6
Continuous
 62
     7
370
    25
100
AcDbLine
 10
14.0338931178
 20
24.4911601429
 30
0.0
 11
14.9088931178
 21
24.4911601429
 31
0.0
  0
LINE
  5
381
330
1F
100
AcDbEntity
  8
0
  6
Continuous
 62
     7
370
    25
100
AcDbLine
 10
14.9088931178
 20
24.4911601429
 30
0.0
 11
14.9088931178
 21
25.3661601429
 31
0.0
  0
LINE
  5
382
330
1F
100
AcDbEntity
  8
0
  6
Continuous
 62
     7
370
    25
100
AcDbLine
 10
13.9088931178
 20
25.3661601429
 30
0.0
 11
13.0338931178
 21
25.3661601429
 31
0.0
  0
LINE
  5
383
330
1F
100
AcDbEntity
  8
0
  6
Continuous
 62
     7
370
    25
100
AcDbLine
 10
13.0338931178
 20
25.3661601429
 30
0.0
 11
13.0338931178
 21
24.4911601429
 31
0.0
  0
LINE
  5
384
330
1F
100
AcDbEntity
  8
0
  6
Continuous
 62
     7
370
    25
100
AcDbLine
 10
13.0338931178
 20
24.4911601429
 30
0.0
 11
13.9088931178
 21
24.4911601429
 31
0.0
  0
LINE
  5
385
330
1F
100
AcDbEntity
  8
0
  6
Continuous
 62
     7
370
    25
100
AcDbLine
 10
13.9088931178
 20
24.4911601429
 30
0.0
 11
13.9088931178
 21
25.3661601429
 31
0.0
  0
LINE
  5
386
330
1F
100
AcDbEntity
  8
0
  6
Continuous
 62
     7
370
    25
100
AcDbLine
 10
12.9088931178
 20
25.3661601429
 30
0.0
 11
12.0338931178
 21
25.3661601429
 31
0.0
  0
LINE
  5
387
330
1F
100
AcDbEntity
  8
0
  6
Continuous
 62
     7
370
    25
100
AcDbLine
 10
12.0338931178
 20
25.3661601429
 30
0.0
 11
12.0338931178
 21
24.4911601429
 31
0.0
  0
LINE
  5
388
330
1F
100
AcDbEntity
  8
0
  6
Continuous
 62
     7
370
    25
100
AcDbLine
 10
12.0338931178
 20
24.4911601429
 30
0.0
 11
12.9088931178
 21
24.4911601429
 31
0.0
  0
LINE
  5
389
330
1F
100
AcDbEntity
  8
0
  6
Continuous
 62
     7
370
    25
100
AcDbLine
 10
12.9088931178
 20
24.4911601429
 30
0.0
 11
12.9088931178
 21
25.3661601429
 31
0.0
  0
LINE
  5
38A
330
1F
100
AcDbEntity
  8
0
  6
Continuous
 62
     7
370
    25
100
AcDbLine
 10
11.9088931178
 20
25.3661601429
 30
0.0
 11
11.0338931178
 21
25.3661601429
 31
0.0
  0
LINE
  5
38B
330
1F
100
AcDbEntity
  8
0
  6
Continuous
 62
     7
370
    25
100
AcDbLine
 10
11.0338931178
 20
25.3661601429
 30
0.0
 11
11.0338931178
 21
24.4911601429
 31
0.0
  0
LINE
  5
38C
330
1F
100
AcDbEntity
  8
0
  6
Continuous
 62
     7
370
    25
100
AcDbLine
 10
11.0338931178
 20
24.4911601429
 30
0.0
 11
11.9088931178
 21
24.4911601429
 31
0.0
  0
LINE
  5
38D
330
1F
100
AcDbEntity
  8
0
  6
Continuous
 62
     7
370
    25
100
AcDbLine
 10
11.9088931178
 20
24.4911601429
 30
0.0
 11
11.9088931178
 21
25.3661601429
 31
0.0
  0
LINE
  5
38E
330
1F
100
AcDbEntity
  8
0
  6
Continuous
 62
     7
370
    25
100
AcDbLine
 10
14.9088931178
 20
26.3661601429
 30
0.0
 11
14.0338931178
 21
26.3661601429
 31
0.0
  0
LINE
  5
38F
330
1F
100
AcDbEntity
  8
0
  6
Continuous
 62
     7
370
    25
100
AcDbLine
 10
14.0338931178
 20
26.3661601429
 30
0.0
 11
14.0338931178
 21
25.4911601429
 31
0.0
  0
LINE
  5
390
330
1F
100
AcDbEntity
  8
0
  6
Continuous
 62
     7
370
    25
100
AcDbLine
 10
14.0338931178
 20
25.4911601429
 30
0.0
 11
14.9088931178
 21
25.4911601429
 31
0.0
  0
LINE
  5
391
330
1F
100
AcDbEntity
  8
0
  6
Continuous
 62
     7
370
    25
100
AcDbLine
 10
14.9088931178
 20
25.4911601429
 30
0.0
 11
14.9088931178
 21
26.3661601429
 31
0.0
  0
LINE
  5
392
330
1F
100
AcDbEntity
  8
0
  6
Continuous
 62
     7
370
    25
100
AcDbLine
 10
13.9088931178
 20
26.3661601429
 30
0.0
 11
13.0338931178
 21
26.3661601429
 31
0.0
  0
LINE
  5
393
330
1F
100
AcDbEntity
  8
0
  6
Continuous
 62
     7
370
    25
100
AcDbLine
 10
13.0338931178
 20
26.3661601429
 30
0.0
 11
13.0338931178
 21
25.4911601429
 31
0.0
  0
LINE
  5
394
330
1F
100
AcDbEntity
  8
0
  6
Continuous
 62
     7
370
    25
100
AcDbLine
 10
13.0338931178
 20
25.4911601429
 30
0.0
 11
13.9088931178
 21
25.4911601429
 31
0.0
  0
LINE
  5
395
330
1F
100
AcDbEntity
  8
0
  6
Continuous
 62
     7
370
    25
100
AcDbLine
 10
13.9088931178
 20
25.4911601429
 30
0.0
 11
13.9088931178
 21
26.3661601429
 31
0.0
  0
LINE
  5
396
330
1F
100
AcDbEntity
  8
0
  6
Continuous
 62
     7
370
    25
100
AcDbLine
 10
12.9088931178
 20
26.3661601429
 30
0.0
 11
12.0338931178
 21
26.3661601429
 31
0.0
  0
LINE
  5
397
330
1F
100
AcDbEntity
  8
0
  6
Continuous
 62
     7
370
    25
100
AcDbLine
 10
12.0338931178
 20
26.3661601429
 30
0.0
 11
12.0338931178
 21
25.4911601429
 31
0.0
  0
LINE
  5
398
330
1F
100
AcDbEntity
  8
0
  6
Continuous
 62
     7
370
    25
100
AcDbLine
 10
12.0338931178
 20
25.4911601429
 30
0.0
 11
12.9088931178
 21
25.4911601429
 31
0.0
  0
LINE
  5
399
330
1F
100
AcDbEntity
  8
0
  6
Continuous
 62
     7
370
    25
100
AcDbLine
 10
12.9088931178
 20
25.4911601429
 30
0.0
 11
12.9088931178
 21
26.3661601429
 31
0.0
  0
LINE
  5
39A
330
1F
100
AcDbEntity
  8
0
  6
Continuous
 62
     7
370
    25
100
AcDbLine
 10
11.9088931178
 20
26.3661601429
 30
0.0
 11
11.0338931178
 21
26.3661601429
 31
0.0
  0
LINE
  5
39B
330
1F
100
AcDbEntity
  8
0
  6
Continuous
 62
     7
370
    25
100
AcDbLine
 10
11.0338931178
 20
26.3661601429
 30
0.0
 11
11.0338931178
 21
25.4911601429
 31
0.0
  0
LINE
  5
39C
330
1F
100
AcDbEntity
  8
0
  6
Continuous
 62
     7
370
    25
100
AcDbLine
 10
11.0338931178
 20
25.4911601429
 30
0.0
 11
11.9088931178
 21
25.4911601429
 31
0.0
  0
LINE
  5
39D
330
1F
100
AcDbEntity
  8
0
  6
Continuous
 62
     7
370
    25
100
AcDbLine
 10
11.9088931178
 20
25.4911601429
 30
0.0
 11
11.9088931178
 21
26.3661601429
 31
0.0
  0
LINE
  5
39E
330
1F
100
AcDbEntity
  8
0
  6
Continuous
 62
     7
370
    25
100
AcDbLine
 10
14.9088931178
 20
27.3661601429
 30
0.0
 11
14.0338931178
 21
27.3661601429
 31
0.0
  0
LINE
  5
39F
330
1F
100
AcDbEntity
  8
0
  6
Continuous
 62
     7
370
    25
100
AcDbLine
 10
14.0338931178
 20
27.3661601429
 30
0.0
 11
14.0338931178
 21
26.4911601429
 31
0.0
  0
LINE
  5
3A0
330
1F
100
AcDbEntity
  8
0
  6
Continuous
 62
     7
370
    25
100
AcDbLine
 10
14.0338931178
 20
26.4911601429
 30
0.0
 11
14.9088931178
 21
26.4911601429
 31
0.0
  0
LINE
  5
3A1
330
1F
100
AcDbEntity
  8
0
  6
Continuous
 62
     7
370
    25
100
AcDbLine
 10
14.9088931178
 20
26.4911601429
 30
0.0
 11
14.9088931178
 21
27.3661601429
 31
0.0
  0
LINE
  5
3A2
330
1F
100
AcDbEntity
  8
0
  6
Continuous
 62
     7
370
    25
100
AcDbLine
 10
13.9088931178
 20
27.3661601429
 30
0.0
 11
13.0338931178
 21
27.3661601429
 31
0.0
  0
LINE
  5
3A3
330
1F
100
AcDbEntity
  8
0
  6
Continuous
 62
     7
370
    25
100
AcDbLine
 10
13.0338931178
 20
27.3661601429
 30
0.0
 11
13.0338931178
 21
26.4911601429
 31
0.0
  0
LINE
  5
3A4
330
1F
100
AcDbEntity
  8
0
  6
Continuous
 62
     7
370
    25
100
AcDbLine
 10
13.0338931178
 20
26.4911601429
 30
0.0
 11
13.9088931178
 21
26.4911601429
 31
0.0
  0
LINE
  5
3A5
330
1F
100
AcDbEntity
  8
0
  6
Continuous
 62
     7
370
    25
100
AcDbLine
 10
13.9088931178
 20
26.4911601429
 30
0.0
 11
13.9088931178
 21
27.3661601429
 31
0.0
  0
LINE
  5
3A6
330
1F
100
AcDbEntity
  8
0
  6
Continuous
 62
     7
370
    25
100
AcDbLine
 10
12.9088931178
 20
27.3661601429
 30
0.0
 11
12.0338931178
 21
27.3661601429
 31
0.0
  0
LINE
  5
3A7
330
1F
100
AcDbEntity
  8
0
  6
Continuous
 62
     7
370
    25
100
AcDbLine
 10
12.0338931178
 20
27.3661601429
 30
0.0
 11
12.0338931178
 21
26.4911601429
 31
0.0
  0
LINE
  5
3A8
330
1F
100
AcDbEntity
  8
0
  6
Continuous
 62
     7
370
    25
100
AcDbLine
 10
12.0338931178
 20
26.4911601429
 30
0.0
 11
12.9088931178
 21
26.4911601429
 31
0.0
  0
LINE
  5
3A9
330
1F
100
AcDbEntity
  8
0
  6
Continuous
 62
     7
370
    25
100
AcDbLine
 10
12.9088931178
 20
26.4911601429
 30
0.0
 11
12.9088931178
 21
27.3661601429
 31
0.0
  0
LINE
  5
3AA
330
1F
100
AcDbEntity
  8
0
  6
Continuous
 62
     7
370
    25
100
AcDbLine
 10
9.7838931178
 20
22.2128503608
 30
0.0
 11
16.1872028999
 21
22.2128503608
 31
0.0
  0
LINE
  5
3AB
330
1F
100
AcDbEntity
  8
0
  6
Continuous
 62
     7
370
    25
100
AcDbLine
 10
9.7838931178
 20
28.6161601429
 30
0.0
 11
9.7838931178
 21
22.2128503608
 31
0.0
  0
LINE
  5
3AC
330
1F
100
AcDbEntity
  8
0
  6
Continuous
 62
     7
370
    25
100
AcDbLine
 10
16.1872028999
 20
22.2128503608
 30
0.0
 11
16.1872028999
 21
28.6161601429
 31
0.0
  0
LINE
  5
3AD
330
1F
100
AcDbEntity
  8
0
  6
Continuous
 62
     7
370
    25
100
AcDbLine
 10
10.9088931178
 20
28.3661601429
 30
0.0
 11
10.0338931178
 21
28.3661601429
 31
0.0
  0
LINE
  5
3AE
330
1F
100
AcDbEntity
  8
0
  6
Continuous
 62
     7
370
    25
100
AcDbLine
 10
10.0338931178
 20
28.3661601429
 30
0.0
 11
10.0338931178
 21
27.4911601429
 31
0.0
  0
LINE
  5
3AF
330
1F
100
AcDbEntity
  8
0
  6
Continuous
 62
     7
370
    25
100
AcDbLine
 10
10.0338931178
 20
27.4911601429
 30
0.0
 11
10.9088931178
 21
27.4911601429
 31
0.0
  0
LINE
  5
3B0
330
1F
100
AcDbEntity
  8
0
  6
Continuous
 62
     7
370
    25
100
AcDbLine
 10
10.9088931178
 20
27.4911601429
 30
0.0
 11
10.9088931178
 21
28.3661601429
 31
0.0
  0
LINE
  5
3B1
330
1F
100
AcDbEntity
  8
0
  6
Continuous
 62
     7
370
    25
100
AcDbLine
 10
11.9088931178
 20
27.3661601429
 30
0.0
 11
11.0338931178
 21
27.3661601429
 31
0.0
  0
LINE
  5
3B2
330
1F
100
AcDbEntity
  8
0
  6
Continuous
 62
     7
370
    25
100
AcDbLine
 10
11.0338931178
 20
27.3661601429
 30
0.0
 11
11.0338931178
 21
26.4911601429
 31
0.0
  0
LINE
  5
3B3
330
1F
100
AcDbEntity
  8
0
  6
Continuous
 62
     7
370
    25
100
AcDbLine
 10
11.0338931178
 20
26.4911601429
 30
0.0
 11
11.9088931178
 21
26.4911601429
 31
0.0
  0
LINE
  5
3B4
330
1F
100
AcDbEntity
  8
0
  6
Continuous
 62
     7
370
    25
100
AcDbLine
 10
11.9088931178
 20
26.4911601429
 30
0.0
 11
11.9088931178
 21
27.3661601429
 31
0.0
  0
LINE
  5
3B5
330
1F
100
AcDbEntity
  8
0
  6
Continuous
 62
     7
370
    25
100
AcDbLine
 10
11.9088931178
 20
28.3661601429
 30
0.0
 11
11.0338931178
 21
28.3661601429
 31
0.0
  0
LINE
  5
3B6
330
1F
100
AcDbEntity
  8
0
  6
Continuous
 62
     7
370
    25
100
AcDbLine
 10
11.0338931178
 20
28.3661601429
 30
0.0
 11
11.0338931178
 21
27.4911601429
 31
0.0
  0
LINE
  5
3B7
330
1F
100
AcDbEntity
  8
0
  6
Continuous
 62
     7
370
    25
100
AcDbLine
 10
11.0338931178
 20
27.4911601429
 30
0.0
 11
11.9088931178
 21
27.4911601429
 31
0.0
  0
LINE
  5
3B8
330
1F
100
AcDbEntity
  8
0
  6
Continuous
 62
     7
370
    25
100
AcDbLine
 10
11.9088931178
 20
27.4911601429
 30
0.0
 11
11.9088931178
 21
28.3661601429
 31
0.0
  0
LINE
  5
3B9
330
1F
100
AcDbEntity
  8
0
  6
Continuous
 62
     7
370
    25
100
AcDbLine
 10
16.1872028999
 20
22.2128503608
 30
0.0
 11
16.2355632194
 21
22.1644900413
 31
0.0
  0
LINE
  5
3BA
330
1F
100
AcDbEntity
  8
0
  6
Continuous
 62
     7
370
    25
100
AcDbLine
 10
9.7355327983
 20
22.1644900413
 30
0.0
 11
16.2355632194
 21
22.1644900413
 31
0.0
  0
LINE
  5
3BB
330
1F
100
AcDbEntity
  8
0
  6
Continuous
 62
     7
370
    25
100
AcDbLine
 10
9.7838931178
 20
22.2128503608
 30
0.0
 11
9.7355327983
 21
22.1644900413
 31
0.0
  0
LINE
  5
3BC
330
1F
100
AcDbEntity
  8
0
  6
Continuous
 62
     7
370
    25
100
AcDbLine
 10
9.7355327983
 20
28.6645204624
 30
0.0
 11
9.7355327983
 21
22.1644900413
 31
0.0
  0
LINE
  5
3BD
330
1F
100
AcDbEntity
  8
0
  6
Continuous
 62
     7
370
    25
100
AcDbLine
 10
10.8168046971
 20
26.5832485636
 30
0.0
 11
10.9088931178
 21
26.4911601429
 31
0.0
  0
LINE
  5
3BE
330
1F
100
AcDbEntity
  8
0
  6
Continuous
 62
     7
370
    25
100
AcDbLine
 10
10.1259815384
 20
26.5832485636
 30
0.0
 11
10.0338931178
 21
26.4911601429
 31
0.0
  0
LINE
  5
3BF
330
1F
100
AcDbEntity
  8
0
  6
Continuous
 62
     7
370
    25
100
AcDbLine
 10
10.8168046971
 20
26.5832485636
 30
0.0
 11
10.1259815384
 21
26.5832485636
 31
0.0
  0
LINE
  5
3C0
330
1F
100
AcDbEntity
  8
0
  6
Continuous
 62
     7
370
    25
100
AcDbLine
 10
10.8168046971
 20
23.5832485636
 30
0.0
 11
10.9088931178
 21
23.4911601429
 31
0.0
  0
LINE
  5
3C1
330
1F
100
AcDbEntity
  8
0
  6
Continuous
 62
     7
370
    25
100
AcDbLine
 10
10.1259815384
 20
23.5832485636
 30
0.0
 11
10.0338931178
 21
23.4911601429
 31
0.0
  0
LINE
  5
3C2
330
1F
100
AcDbEntity
  8
0
  6
Continuous
 62
     7
370
    25
100
AcDbLine
 10
10.8168046971
 20
23.5832485636
 30
0.0
 11
10.1259815384
 21
23.5832485636
 31
0.0
  0
LINE
  5
3C3
330
1F
100
AcDbEntity
  8
0
  6
Continuous
 62
     7
370
    25
100
AcDbLine
 10
10.8168046971
 20
25.5832485636
 30
0.0
 11
10.9088931178
 21
25.4911601429
 31
0.0
  0
LINE
  5
3C4
330
1F
100
AcDbEntity
  8
0
  6
Continuous
 62
     7
370
    25
100
AcDbLine
 10
10.1259815384
 20
25.5832485636
 30
0.0
 11
10.0338931178
 21
25.4911601429
 31
0.0
  0
LINE
  5
3C5
330
1F
100
AcDbEntity
  8
0
  6
Continuous
 62
     7
370
    25
100
AcDbLine
 10
10.8168046971
 20
25.5832485636
 30
0.0
 11
10.1259815384
 21
25.5832485636
 31
0.0
  0
LINE
  5
3C6
330
1F
100
AcDbEntity
  8
0
  6
Continuous
 62
     7
370
    25
100
AcDbLine
 10
10.8321527672
 20
22.5679004935
 30
0.0
 11
10.9088931178
 21
22.4911601429
 31
0.0
  0
LINE
  5
3C7
330
1F
100
AcDbEntity
  8
0
  6
Continuous
 62
     7
370
    25
100
AcDbLine
 10
10.1106334683
 20
22.5679004935
 30
0.0
 11
10.0338931178
 21
22.4911601429
 31
0.0
  0
LINE
  5
3C8
330
1F
100
AcDbEntity
  8
0
  6
Continuous
 62
     7
370
    25
100
AcDbLine
 10
10.8321527672
 20
22.5679004935
 30
0.0
 11
10.1106334683
 21
22.5679004935
 31
0.0
  0
LINE
  5
3C9
330
1F
100
AcDbEntity
  8
0
  6
Continuous
 62
     7
370
    25
100
AcDbLine
 10
10.8168046971
 20
24.5832485636
 30
0.0
 11
10.9088931178
 21
24.4911601429
 31
0.0
  0
LINE
  5
3CA
330
1F
100
AcDbEntity
  8
0
  6
Continuous
 62
     7
370
    25
100
AcDbLine
 10
10.1259815384
 20
24.5832485636
 30
0.0
 11
10.0338931178
 21
24.4911601429
 31
0.0
  0
LINE
  5
3CB
330
1F
100
AcDbEntity
  8
0
  6
Continuous
 62
     7
370
    25
100
AcDbLine
 10
10.8168046971
 20
24.5832485636
 30
0.0
 11
10.1259815384
 21
24.5832485636
 31
0.0
  0
LINE
  5
3CC
330
1F
100
AcDbEntity
  8
0
  6
Continuous
 62
     7
370
    25
100
AcDbLine
 10
10.1259815384
 20
27.2740717222
 30
0.0
 11
10.0338931178
 21
27.3661601429
 31
0.0
  0
LINE
  5
3CD
330
1F
100
AcDbEntity
  8
0
  6
Continuous
 62
     7
370
    25
100
AcDbLine
 10
10.1259815384
 20
26.5832485636
 30
0.0
 11
10.1259815384
 21
27.2740717222
 31
0.0
  0
LINE
  5
3CE
330
1F
100
AcDbEntity
  8
0
  6
Continuous
 62
     7
370
    25
100
AcDbLine
 10
10.1106334683
 20
23.2894197924
 30
0.0
 11
10.0338931178
 21
23.3661601429
 31
0.0
  0
LINE
  5
3CF
330
1F
100
AcDbEntity
  8
0
  6
Continuous
 62
     7
370
    25
100
AcDbLine
 10
10.1106334683
 20
22.5679004935
 30
0.0
 11
10.1106334683
 21
23.2894197924
 31
0.0
  0
LINE
  5
3D0
330
1F
100
AcDbEntity
  8
0
  6
Continuous
 62
     7
370
    25
100
AcDbLine
 10
10.1259815384
 20
25.2740717222
 30
0.0
 11
10.0338931178
 21
25.3661601429
 31
0.0
  0
LINE
  5
3D1
330
1F
100
AcDbEntity
  8
0
  6
Continuous
 62
     7
370
    25
100
AcDbLine
 10
10.8168046971
 20
25.2740717222
 30
0.0
 11
10.9088931178
 21
25.3661601429
 31
0.0
  0
LINE
  5
3D2
330
1F
100
AcDbEntity
  8
0
  6
Continuous
 62
     7
370
    25
100
AcDbLine
 10
10.1259815384
 20
25.2740717222
 30
0.0
 11
10.8168046971
 21
25.2740717222
 31
0.0
  0
LINE
  5
3D3
330
1F
100
AcDbEntity
  8
0
  6
Continuous
 62
     7
370
    25
100
AcDbLine
 10
10.8168046971
 20
27.2740717222
 30
0.0
 11
10.9088931178
 21
27.3661601429
 31
0.0
  0
LINE
  5
3D4
330
1F
100
AcDbEntity
  8
0
  6
Continuous
 62
     7
370
    25
100
AcDbLine
 10
10.1259815384
 20
27.2740717222
 30
0.0
 11
10.8168046971
 21
27.2740717222
 31
0.0
  0
LINE
  5
3D5
330
1F
100
AcDbEntity
  8
0
  6
Continuous
 62
     7
370
    25
100
AcDbLine
 10
10.8321527672
 20
23.2894197924
 30
0.0
 11
10.9088931178
 21
23.3661601429
 31
0.0
  0
LINE
  5
3D6
330
1F
100
AcDbEntity
  8
0
  6
Continuous
 62
     7
370
    25
100
AcDbLine
 10
10.1106334683
 20
23.2894197924
 30
0.0
 11
10.8321527672
 21
23.2894197924
 31
0.0
  0
LINE
  5
3D7
330
1F
100
AcDbEntity
  8
0
  6
Continuous
 62
     7
370
    25
100
AcDbLine
 10
10.1259815384
 20
26.2740717222
 30
0.0
 11
10.0338931178
 21
26.3661601429
 31
0.0
  0
LINE
  5
3D8
330
1F
100
AcDbEntity
  8
0
  6
Continuous
 62
     7
370
    25
100
AcDbLine
 10
10.1259815384
 20
25.5832485636
 30
0.0
 11
10.1259815384
 21
26.2740717222
 31
0.0
  0
LINE
  5
3D9
330
1F
100
AcDbEntity
  8
0
  6
Continuous
 62
     7
370
    25
100
AcDbLine
 10
10.1259815384
 20
24.5832485636
 30
0.0
 11
10.1259815384
 21
25.2740717222
 31
0.0
  0
LINE
  5
3DA
330
1F
100
AcDbEntity
  8
0
  6
Continuous
 62
     7
370
    25
100
AcDbLine
 10
10.1106334683
 20
27.5679004935
 30
0.0
 11
10.0338931178
 21
27.4911601429
 31
0.0
  0
LINE
  5
3DB
330
1F
100
AcDbEntity
  8
0
  6
Continuous
 62
     7
370
    25
100
AcDbLine
 10
10.1106334683
 20
28.2894197924
 30
0.0
 11
10.0338931178
 21
28.3661601429
 31
0.0
  0
LINE
  5
3DC
330
1F
100
AcDbEntity
  8
0
  6
Continuous
 62
     7
370
    25
100
AcDbLine
 10
10.1106334683
 20
27.5679004935
 30
0.0
 11
10.1106334683
 21
28.2894197924
 31
0.0
  0
LINE
  5
3DD
330
1F
100
AcDbEntity
  8
0
  6
Continuous
 62
     7
370
    25
100
AcDbLine
 10
10.8321527672
 20
28.2894197924
 30
0.0
 11
10.9088931178
 21
28.3661601429
 31
0.0
  0
LINE
  5
3DE
330
1F
100
AcDbEntity
  8
0
  6
Continuous
 62
     7
370
    25
100
AcDbLine
 10
10.1106334683
 20
28.2894197924
 30
0.0
 11
10.8321527672
 21
28.2894197924
 31
0.0
  0
LINE
  5
3DF
330
1F
100
AcDbEntity
  8
0
  6
Continuous
 62
     7
370
    25
100
AcDbLine
 10
10.1259815384
 20
24.2740717222
 30
0.0
 11
10.0338931178
 21
24.3661601429
 31
0.0
  0
LINE
  5
3E0
330
1F
100
AcDbEntity
  8
0
  6
Continuous
 62
     7
370
    25
100
AcDbLine
 10
10.8168046971
 20
24.2740717222
 30
0.0
 11
10.9088931178
 21
24.3661601429
 31
0.0
  0
LINE
  5
3E1
330
1F
100
AcDbEntity
  8
0
  6
Continuous
 62
     7
370
    25
100
AcDbLine
 10
10.1259815384
 20
24.2740717222
 30
0.0
 11
10.8168046971
 21
24.2740717222
 31
0.0
  0
LINE
  5
3E2
330
1F
100
AcDbEntity
  8
0
  6
Continuous
 62
     7
370
    25
100
AcDbLine
 10
10.8321527672
 20
27.5679004935
 30
0.0
 11
10.9088931178
 21
27.4911601429
 31
0.0
  0
LINE
  5
3E3
330
1F
100
AcDbEntity
  8
0
  6
Continuous
 62
     7
370
    25
100
AcDbLine
 10
10.8321527672
 20
27.5679004935
 30
0.0
 11
10.1106334683
 21
27.5679004935
 31
0.0
  0
LINE
  5
3E4
330
1F
100
AcDbEntity
  8
0
  6
Continuous
 62
     7
370
    25
100
AcDbLine
 10
10.1259815384
 20
23.5832485636
 30
0.0
 11
10.1259815384
 21
24.2740717222
 31
0.0
  0
LINE
  5
3E5
330
1F
100
AcDbEntity
  8
0
  6
Continuous
 62
     7
370
    25
100
AcDbLine
 10
10.8168046971
 20
26.2740717222
 30
0.0
 11
10.9088931178
 21
26.3661601429
 31
0.0
  0
LINE
  5
3E6
330
1F
100
AcDbEntity
  8
0
  6
Continuous
 62
     7
370
    25
100
AcDbLine
 10
10.1259815384
 20
26.2740717222
 30
0.0
 11
10.8168046971
 21
26.2740717222
 31
0.0
  0
LINE
  5
3E7
330
1F
100
AcDbEntity
  8
0
  6
Continuous
 62
     7
370
    25
100
AcDbLine
 10
10.8168046971
 20
27.2740717222
 30
0.0
 11
10.8168046971
 21
26.5832485636
 31
0.0
  0
LINE
  5
3E8
330
1F
100
AcDbEntity
  8
0
  6
Continuous
 62
     7
370
    25
100
AcDbLine
 10
10.8321527672
 20
28.2894197924
 30
0.0
 11
10.8321527672
 21
27.5679004935
 31
0.0
  0
LINE
  5
3E9
330
1F
100
AcDbEntity
  8
0
  6
Continuous
 62
     7
370
    25
100
AcDbLine
 10
10.8168046971
 20
24.2740717222
 30
0.0
 11
10.8168046971
 21
23.5832485636
 31
0.0
  0
LINE
  5
3EA
330
1F
100
AcDbEntity
  8
0
  6
Continuous
 62
     7
370
    25
100
AcDbLine
 10
10.8168046971
 20
25.2740717222
 30
0.0
 11
10.8168046971
 21
24.5832485636
 31
0.0
  0
LINE
  5
3EB
330
1F
100
AcDbEntity
  8
0
  6
Continuous
 62
     7
370
    25
100
AcDbLine
 10
10.8168046971
 20
26.2740717222
 30
0.0
 11
10.8168046971
 21
25.5832485636
 31
0.0
  0
LINE
  5
3EC
330
1F
100
AcDbEntity
  8
0
  6
Continuous
 62
     7
370
    25
100
AcDbLine
 10
10.8321527672
 20
23.2894197924
 30
0.0
 11
10.8321527672
 21
22.5679004935
 31
0.0
  0
LINE
  5
3ED
330
1F
100
AcDbEntity
  8
0
  6
Continuous
 62
     7
370
    25
100
AcDbLine
 10
11.1259815384
 20
27.5832485636
 30
0.0
 11
11.0338931178
 21
27.4911601429
 31
0.0
  0
LINE
  5
3EE
330
1F
100
AcDbEntity
  8
0
  6
Continuous
 62
     7
370
    25
100
AcDbLine
 10
11.1259815384
 20
28.2740717222
 30
0.0
 11
11.0338931178
 21
28.3661601429
 31
0.0
  0
LINE
  5
3EF
330
1F
100
AcDbEntity
  8
0
  6
Continuous
 62
     7
370
    25
100
AcDbLine
 10
11.1259815384
 20
27.5832485636
 30
0.0
 11
11.1259815384
 21
28.2740717222
 31
0.0
  0
LINE
  5
3F0
330
1F
100
AcDbEntity
  8
0
  6
Continuous
 62
     7
370
    25
100
AcDbLine
 10
11.1259815384
 20
23.5832485636
 30
0.0
 11
11.0338931178
 21
23.4911601429
 31
0.0
  0
LINE
  5
3F1
330
1F
100
AcDbEntity
  8
0
  6
Continuous
 62
     7
370
    25
100
AcDbLine
 10
11.1259815384
 20
24.2740717222
 30
0.0
 11
11.0338931178
 21
24.3661601429
 31
0.0
  0
LINE
  5
3F2
330
1F
100
AcDbEntity
  8
0
  6
Continuous
 62
     7
370
    25
100
AcDbLine
 10
11.1259815384
 20
23.5832485636
 30
0.0
 11
11.1259815384
 21
24.2740717222
 31
0.0
  0
LINE
  5
3F3
330
1F
100
AcDbEntity
  8
0
  6
Continuous
 62
     7
370
    25
100
AcDbLine
 10
11.8168046971
 20
24.2740717222
 30
0.0
 11
11.9088931178
 21
24.3661601429
 31
0.0
  0
LINE
  5
3F4
330
1F
100
AcDbEntity
  8
0
  6
Continuous
 62
     7
370
    25
100
AcDbLine
 10
11.1259815384
 20
24.2740717222
 30
0.0
 11
11.8168046971
 21
24.2740717222
 31
0.0
  0
LINE
  5
3F5
330
1F
100
AcDbEntity
  8
0
  6
Continuous
 62
     7
370
    25
100
AcDbLine
 10
11.8168046971
 20
22.5832485636
 30
0.0
 11
11.9088931178
 21
22.4911601429
 31
0.0
  0
LINE
  5
3F6
330
1F
100
AcDbEntity
  8
0
  6
Continuous
 62
     7
370
    25
100
AcDbLine
 10
11.1259815384
 20
22.5832485636
 30
0.0
 11
11.0338931178
 21
22.4911601429
 31
0.0
  0
LINE
  5
3F7
330
1F
100
AcDbEntity
  8
0
  6
Continuous
 62
     7
370
    25
100
AcDbLine
 10
11.8168046971
 20
22.5832485636
 30
0.0
 11
11.1259815384
 21
22.5832485636
 31
0.0
  0
LINE
  5
3F8
330
1F
100
AcDbEntity
  8
0
  6
Continuous
 62
     7
370
    25
100
AcDbLine
 10
11.1259815384
 20
26.5832485636
 30
0.0
 11
11.0338931178
 21
26.4911601429
 31
0.0
  0
LINE
  5
3F9
330
1F
100
AcDbEntity
  8
0
  6
Continuous
 62
     7
370
    25
100
AcDbLine
 10
11.1259815384
 20
27.2740717222
 30
0.0
 11
11.0338931178
 21
27.3661601429
 31
0.0
  0
LINE
  5
3FA
330
1F
100
AcDbEntity
  8
0
  6
Continuous
 62
     7
370
    25
100
AcDbLine
 10
11.1259815384
 20
26.5832485636
 30
0.0
 11
11.1259815384
 21
27.2740717222
 31
0.0
  0
LINE
  5
3FB
330
1F
100
AcDbEntity
  8
0
  6
Continuous
 62
     7
370
    25
100
AcDbLine
 10
11.8168046971
 20
26.5832485636
 30
0.0
 11
11.9088931178
 21
26.4911601429
 31
0.0
  0
LINE
  5
3FC
330
1F
100
AcDbEntity
  8
0
  6
Continuous
 62
     7
370
    25
100
AcDbLine
 10
11.8168046971
 20
26.5832485636
 30
0.0
 11
11.1259815384
 21
26.5832485636
 31
0.0
  0
LINE
  5
3FD
330
1F
100
AcDbEntity
  8
0
  6
Continuous
 62
     7
370
    25
100
AcDbLine
 10
11.8168046971
 20
23.5832485636
 30
0.0
 11
11.9088931178
 21
23.4911601429
 31
0.0
  0
LINE
  5
3FE
330
1F
100
AcDbEntity
  8
0
  6
Continuous
 62
     7
370
    25
100
AcDbLine
 10
11.8168046971
 20
23.5832485636
 30
0.0
 11
11.1259815384
 21
23.5832485636
 31
0.0
  0
LINE
  5
3FF
330
1F
100
AcDbEntity
  8
0
  6
Continuous
 62
     7
370
    25
100
AcDbLine
 10
11.1259815384
 20
23.2740717222
 30
0.0
 11
11.0338931178
 21
23.3661601429
 31
0.0
  0
LINE
  5
400
330
1F
100
AcDbEntity
  8
0
  6
Continuous
 62
     7
370
    25
100
AcDbLine
 10
11.1259815384
 20
22.5832485636
 30
0.0
 11
11.1259815384
 21
23.2740717222
 31
0.0
  0
LINE
  5
401
330
1F
100
AcDbEntity
  8
0
  6
Continuous
 62
     7
370
    25
100
AcDbLine
 10
11.8168046971
 20
27.2740717222
 30
0.0
 11
11.9088931178
 21
27.3661601429
 31
0.0
  0
LINE
  5
402
330
1F
100
AcDbEntity
  8
0
  6
Continuous
 62
     7
370
    25
100
AcDbLine
 10
11.1259815384
 20
27.2740717222
 30
0.0
 11
11.8168046971
 21
27.2740717222
 31
0.0
  0
LINE
  5
403
330
1F
100
AcDbEntity
  8
0
  6
Continuous
 62
     7
370
    25
100
AcDbLine
 10
11.8168046971
 20
25.5832485636
 30
0.0
 11
11.9088931178
 21
25.4911601429
 31
0.0
  0
LINE
  5
404
330
1F
100
AcDbEntity
  8
0
  6
Continuous
 62
     7
370
    25
100
AcDbLine
 10
11.1259815384
 20
25.5832485636
 30
0.0
 11
11.0338931178
 21
25.4911601429
 31
0.0
  0
LINE
  5
405
330
1F
100
AcDbEntity
  8
0
  6
Continuous
 62
     7
370
    25
100
AcDbLine
 10
11.8168046971
 20
25.5832485636
 30
0.0
 11
11.1259815384
 21
25.5832485636
 31
0.0
  0
LINE
  5
406
330
1F
100
AcDbEntity
  8
0
  6
Continuous
 62
     7
370
    25
100
AcDbLine
 10
11.8168046971
 20
23.2740717222
 30
0.0
 11
11.9088931178
 21
23.3661601429
 31
0.0
  0
LINE
  5
407
330
1F
100
AcDbEntity
  8
0
  6
Continuous
 62
     7
370
    25
100
AcDbLine
 10
11.1259815384
 20
23.2740717222
 30
0.0
 11
11.8168046971
 21
23.2740717222
 31
0.0
  0
LINE
  5
408
330
1F
100
AcDbEntity
  8
0
  6
Continuous
 62
     7
370
    25
100
AcDbLine
 10
11.1259815384
 20
26.2740717222
 30
0.0
 11
11.0338931178
 21
26.3661601429
 31
0.0
  0
LINE
  5
409
330
1F
100
AcDbEntity
  8
0
  6
Continuous
 62
     7
370
    25
100
AcDbLine
 10
11.1259815384
 20
25.5832485636
 30
0.0
 11
11.1259815384
 21
26.2740717222
 31
0.0
  0
LINE
  5
40A
330
1F
100
AcDbEntity
  8
0
  6
Continuous
 62
     7
370
    25
100
AcDbLine
 10
11.1259815384
 20
24.5832485636
 30
0.0
 11
11.0338931178
 21
24.4911601429
 31
0.0
  0
LINE
  5
40B
330
1F
100
AcDbEntity
  8
0
  6
Continuous
 62
     7
370
    25
100
AcDbLine
 10
11.1259815384
 20
25.2740717222
 30
0.0
 11
11.0338931178
 21
25.3661601429
 31
0.0
  0
LINE
  5
40C
330
1F
100
AcDbEntity
  8
0
  6
Continuous
 62
     7
370
    25
100
AcDbLine
 10
11.1259815384
 20
24.5832485636
 30
0.0
 11
11.1259815384
 21
25.2740717222
 31
0.0
  0
LINE
  5
40D
330
1F
100
AcDbEntity
  8
0
  6
Continuous
 62
     7
370
    25
100
AcDbLine
 10
11.8168046971
 20
28.2740717222
 30
0.0
 11
11.9088931178
 21
28.3661601429
 31
0.0
  0
LINE
  5
40E
330
1F
100
AcDbEntity
  8
0
  6
Continuous
 62
     7
370
    25
100
AcDbLine
 10
11.1259815384
 20
28.2740717222
 30
0.0
 11
11.8168046971
 21
28.2740717222
 31
0.0
  0
LINE
  5
40F
330
1F
100
AcDbEntity
  8
0
  6
Continuous
 62
     7
370
    25
100
AcDbLine
 10
11.8168046971
 20
25.2740717222
 30
0.0
 11
11.9088931178
 21
25.3661601429
 31
0.0
  0
LINE
  5
410
330
1F
100
AcDbEntity
  8
0
  6
Continuous
 62
     7
370
    25
100
AcDbLine
 10
11.1259815384
 20
25.2740717222
 30
0.0
 11
11.8168046971
 21
25.2740717222
 31
0.0
  0
LINE
  5
411
330
1F
100
AcDbEntity
  8
0
  6
Continuous
 62
     7
370
    25
100
AcDbLine
 10
11.8168046971
 20
26.2740717222
 30
0.0
 11
11.9088931178
 21
26.3661601429
 31
0.0
  0
LINE
  5
412
330
1F
100
AcDbEntity
  8
0
  6
Continuous
 62
     7
370
    25
100
AcDbLine
 10
11.1259815384
 20
26.2740717222
 30
0.0
 11
11.8168046971
 21
26.2740717222
 31
0.0
  0
LINE
  5
413
330
1F
100
AcDbEntity
  8
0
  6
Continuous
 62
     7
370
    25
100
AcDbLine
 10
11.8168046971
 20
24.5832485636
 30
0.0
 11
11.9088931178
 21
24.4911601429
 31
0.0
  0
LINE
  5
414
330
1F
100
AcDbEntity
  8
0
  6
Continuous
 62
     7
370
    25
100
AcDbLine
 10
11.8168046971
 20
24.5832485636
 30
0.0
 11
11.1259815384
 21
24.5832485636
 31
0.0
  0
LINE
  5
415
330
1F
100
AcDbEntity
  8
0
  6
Continuous
 62
     7
370
    25
100
AcDbLine
 10
11.8168046971
 20
27.5832485636
 30
0.0
 11
11.9088931178
 21
27.4911601429
 31
0.0
  0
LINE
  5
416
330
1F
100
AcDbEntity
  8
0
  6
Continuous
 62
     7
370
    25
100
AcDbLine
 10
11.8168046971
 20
27.5832485636
 30
0.0
 11
11.1259815384
 21
27.5832485636
 31
0.0
  0
LINE
  5
417
330
1F
100
AcDbEntity
  8
0
  6
Continuous
 62
     7
370
    25
100
AcDbLine
 10
11.8168046971
 20
26.2740717222
 30
0.0
 11
11.8168046971
 21
25.5832485636
 31
0.0
  0
LINE
  5
418
330
1F
100
AcDbEntity
  8
0
  6
Continuous
 62
     7
370
    25
100
AcDbLine
 10
11.8168046971
 20
25.2740717222
 30
0.0
 11
11.8168046971
 21
24.5832485636
 31
0.0
  0
LINE
  5
419
330
1F
100
AcDbEntity
  8
0
  6
Continuous
 62
     7
370
    25
100
AcDbLine
 10
11.8168046971
 20
27.2740717222
 30
0.0
 11
11.8168046971
 21
26.5832485636
 31
0.0
  0
LINE
  5
41A
330
1F
100
AcDbEntity
  8
0
  6
Continuous
 62
     7
370
    25
100
AcDbLine
 10
11.8168046971
 20
23.2740717222
 30
0.0
 11
11.8168046971
 21
22.5832485636
 31
0.0
  0
LINE
  5
41B
330
1F
100
AcDbEntity
  8
0
  6
Continuous
 62
     7
370
    25
100
AcDbLine
 10
11.8168046971
 20
24.2740717222
 30
0.0
 11
11.8168046971
 21
23.5832485636
 31
0.0
  0
LINE
  5
41C
330
1F
100
AcDbEntity
  8
0
  6
Continuous
 62
     7
370
    25
100
AcDbLine
 10
11.8168046971
 20
28.2740717222
 30
0.0
 11
11.8168046971
 21
27.5832485636
 31
0.0
  0
LINE
  5
41D
330
1F
100
AcDbEntity
  8
0
  6
Continuous
 62
     7
370
    25
100
AcDbLine
 10
12.8168046971
 20
22.5832485636
 30
0.0
 11
12.9088931178
 21
22.4911601429
 31
0.0
  0
LINE
  5
41E
330
1F
100
AcDbEntity
  8
0
  6
Continuous
 62
     7
370
    25
100
AcDbLine
 10
12.1259815384
 20
22.5832485636
 30
0.0
 11
12.0338931178
 21
22.4911601429
 31
0.0
  0
LINE
  5
41F
330
1F
100
AcDbEntity
  8
0
  6
Continuous
 62
     7
370
    25
100
AcDbLine
 10
12.8168046971
 20
22.5832485636
 30
0.0
 11
12.1259815384
 21
22.5832485636
 31
0.0
  0
LINE
  5
420
330
1F
100
AcDbEntity
  8
0
  6
Continuous
 62
     7
370
    25
100
AcDbLine
 10
12.1259815384
 20
23.5832485636
 30
0.0
 11
12.0338931178
 21
23.4911601429
 31
0.0
  0
LINE
  5
421
330
1F
100
AcDbEntity
  8
0
  6
Continuous
 62
     7
370
    25
100
AcDbLine
 10
12.1259815384
 20
24.2740717222
 30
0.0
 11
12.0338931178
 21
24.3661601429
 31
0.0
  0
LINE
  5
422
330
1F
100
AcDbEntity
  8
0
  6
Continuous
 62
     7
370
    25
100
AcDbLine
 10
12.1259815384
 20
23.5832485636
 30
0.0
 11
12.1259815384
 21
24.2740717222
 31
0.0
  0
LINE
  5
423
330
1F
100
AcDbEntity
  8
0
  6
Continuous
 62
     7
370
    25
100
AcDbLine
 10
12.1259815384
 20
28.2740717222
 30
0.0
 11
12.0338931178
 21
28.3661601429
 31
0.0
  0
LINE
  5
424
330
1F
100
AcDbEntity
  8
0
  6
Continuous
 62
     7
370
    25
100
AcDbLine
 10
12.8168046971
 20
28.2740717222
 30
0.0
 11
12.9088931178
 21
28.3661601429
 31
0.0
  0
LINE
  5
425
330
1F
100
AcDbEntity
  8
0
  6
Continuous
 62
     7
370
    25
100
AcDbLine
 10
12.1259815384
 20
28.2740717222
 30
0.0
 11
12.8168046971
 21
28.2740717222
 31
0.0
  0
LINE
  5
426
330
1F
100
AcDbEntity
  8
0
  6
Continuous
 62
     7
370
    25
100
AcDbLine
 10
12.8168046971
 20
26.5832485636
 30
0.0
 11
12.9088931178
 21
26.4911601429
 31
0.0
  0
LINE
  5
427
330
1F
100
AcDbEntity
  8
0
  6
Continuous
 62
     7
370
    25
100
AcDbLine
 10
12.1259815384
 20
26.5832485636
 30
0.0
 11
12.0338931178
 21
26.4911601429
 31
0.0
  0
LINE
  5
428
330
1F
100
AcDbEntity
  8
0
  6
Continuous
 62
     7
370
    25
100
AcDbLine
 10
12.8168046971
 20
26.5832485636
 30
0.0
 11
12.1259815384
 21
26.5832485636
 31
0.0
  0
LINE
  5
429
330
1F
100
AcDbEntity
  8
0
  6
Continuous
 62
     7
370
    25
100
AcDbLine
 10
12.1259815384
 20
26.2740717222
 30
0.0
 11
12.0338931178
 21
26.3661601429
 31
0.0
  0
LINE
  5
42A
330
1F
100
AcDbEntity
  8
0
  6
Continuous
 62
     7
370
    25
100
AcDbLine
 10
12.8168046971
 20
26.2740717222
 30
0.0
 11
12.9088931178
 21
26.3661601429
 31
0.0
  0
LINE
  5
42B
330
1F
100
AcDbEntity
  8
0
  6
Continuous
 62
     7
370
    25
100
AcDbLine
 10
12.1259815384
 20
26.2740717222
 30
0.0
 11
12.8168046971
 21
26.2740717222
 31
0.0
  0
LINE
  5
42C
330
1F
100
AcDbEntity
  8
0
  6
Continuous
 62
     7
370
    25
100
AcDbLine
 10
12.1259815384
 20
27.5832485636
 30
0.0
 11
12.0338931178
 21
27.4911601429
 31
0.0
  0
LINE
  5
42D
330
1F
100
AcDbEntity
  8
0
  6
Continuous
 62
     7
370
    25
100
AcDbLine
 10
12.1259815384
 20
27.5832485636
 30
0.0
 11
12.1259815384
 21
28.2740717222
 31
0.0
  0
LINE
  5
42E
330
1F
100
AcDbEntity
  8
0
  6
Continuous
 62
     7
370
    25
100
AcDbLine
 10
12.1259815384
 20
23.2740717222
 30
0.0
 11
12.0338931178
 21
23.3661601429
 31
0.0
  0
LINE
  5
42F
330
1F
100
AcDbEntity
  8
0
  6
Continuous
 62
     7
370
    25
100
AcDbLine
 10
12.1259815384
 20
22.5832485636
 30
0.0
 11
12.1259815384
 21
23.2740717222
 31
0.0
  0
LINE
  5
430
330
1F
100
AcDbEntity
  8
0
  6
Continuous
 62
     7
370
    25
100
AcDbLine
 10
12.8168046971
 20
24.5832485636
 30
0.0
 11
12.9088931178
 21
24.4911601429
 31
0.0
  0
LINE
  5
431
330
1F
100
AcDbEntity
  8
0
  6
Continuous
 62
     7
370
    25
100
AcDbLine
 10
12.1259815384
 20
24.5832485636
 30
0.0
 11
12.0338931178
 21
24.4911601429
 31
0.0
  0
LINE
  5
432
330
1F
100
AcDbEntity
  8
0
  6
Continuous
 62
     7
370
    25
100
AcDbLine
 10
12.8168046971
 20
24.5832485636
 30
0.0
 11
12.1259815384
 21
24.5832485636
 31
0.0
  0
LINE
  5
433
330
1F
100
AcDbEntity
  8
0
  6
Continuous
 62
     7
370
    25
100
AcDbLine
 10
12.8168046971
 20
27.5832485636
 30
0.0
 11
12.9088931178
 21
27.4911601429
 31
0.0
  0
LINE
  5
434
330
1F
100
AcDbEntity
  8
0
  6
Continuous
 62
     7
370
    25
100
AcDbLine
 10
12.8168046971
 20
27.5832485636
 30
0.0
 11
12.1259815384
 21
27.5832485636
 31
0.0
  0
LINE
  5
435
330
1F
100
AcDbEntity
  8
0
  6
Continuous
 62
     7
370
    25
100
AcDbLine
 10
12.8168046971
 20
23.2740717222
 30
0.0
 11
12.9088931178
 21
23.3661601429
 31
0.0
  0
LINE
  5
436
330
1F
100
AcDbEntity
  8
0
  6
Continuous
 62
     7
370
    25
100
AcDbLine
 10
12.1259815384
 20
23.2740717222
 30
0.0
 11
12.8168046971
 21
23.2740717222
 31
0.0
  0
LINE
  5
437
330
1F
100
AcDbEntity
  8
0
  6
Continuous
 62
     7
370
    25
100
AcDbLine
 10
12.1259815384
 20
27.2740717222
 30
0.0
 11
12.0338931178
 21
27.3661601429
 31
0.0
  0
LINE
  5
438
330
1F
100
AcDbEntity
  8
0
  6
Continuous
 62
     7
370
    25
100
AcDbLine
 10
12.1259815384
 20
26.5832485636
 30
0.0
 11
12.1259815384
 21
27.2740717222
 31
0.0
  0
LINE
  5
439
330
1F
100
AcDbEntity
  8
0
  6
Continuous
 62
     7
370
    25
100
AcDbLine
 10
12.8168046971
 20
27.2740717222
 30
0.0
 11
12.9088931178
 21
27.3661601429
 31
0.0
  0
LINE
  5
43A
330
1F
100
AcDbEntity
  8
0
  6
Continuous
 62
     7
370
    25
100
AcDbLine
 10
12.1259815384
 20
27.2740717222
 30
0.0
 11
12.8168046971
 21
27.2740717222
 31
0.0
  0
LINE
  5
43B
330
1F
100
AcDbEntity
  8
0
  6
Continuous
 62
     7
370
    25
100
AcDbLine
 10
12.8168046971
 20
23.5832485636
 30
0.0
 11
12.9088931178
 21
23.4911601429
 31
0.0
  0
LINE
  5
43C
330
1F
100
AcDbEntity
  8
0
  6
Continuous
 62
     7
370
    25
100
AcDbLine
 10
12.8168046971
 20
23.5832485636
 30
0.0
 11
12.1259815384
 21
23.5832485636
 31
0.0
  0
LINE
  5
43D
330
1F
100
AcDbEntity
  8
0
  6
Continuous
 62
     7
370
    25
100
AcDbLine
 10
12.1259815384
 20
25.5832485636
 30
0.0
 11
12.0338931178
 21
25.4911601429
 31
0.0
  0
LINE
  5
43E
330
1F
100
AcDbEntity
  8
0
  6
Continuous
 62
     7
370
    25
100
AcDbLine
 10
12.1259815384
 20
25.5832485636
 30
0.0
 11
12.1259815384
 21
26.2740717222
 31
0.0
  0
LINE
  5
43F
330
1F
100
AcDbEntity
  8
0
  6
Continuous
 62
     7
370
    25
100
AcDbLine
 10
12.8168046971
 20
25.5832485636
 30
0.0
 11
12.9088931178
 21
25.4911601429
 31
0.0
  0
LINE
  5
440
330
1F
100
AcDbEntity
  8
0
  6
Continuous
 62
     7
370
    25
100
AcDbLine
 10
12.8168046971
 20
25.5832485636
 30
0.0
 11
12.1259815384
 21
25.5832485636
 31
0.0
  0
LINE
  5
441
330
1F
100
AcDbEntity
  8
0
  6
Continuous
 62
     7
370
    25
100
AcDbLine
 10
12.1259815384
 20
25.2740717222
 30
0.0
 11
12.0338931178
 21
25.3661601429
 31
0.0
  0
LINE
  5
442
330
1F
100
AcDbEntity
  8
0
  6
Continuous
 62
     7
370
    25
100
AcDbLine
 10
12.1259815384
 20
24.5832485636
 30
0.0
 11
12.1259815384
 21
25.2740717222
 31
0.0
  0
LINE
  5
443
330
1F
100
AcDbEntity
  8
0
  6
Continuous
 62
     7
370
    25
100
AcDbLine
 10
12.8168046971
 20
24.2740717222
 30
0.0
 11
12.9088931178
 21
24.3661601429
 31
0.0
  0
LINE
  5
444
330
1F
100
AcDbEntity
  8
0
  6
Continuous
 62
     7
370
    25
100
AcDbLine
 10
12.1259815384
 20
24.2740717222
 30
0.0
 11
12.8168046971
 21
24.2740717222
 31
0.0
  0
LINE
  5
445
330
1F
100
AcDbEntity
  8
0
  6
Continuous
 62
     7
370
    25
100
AcDbLine
 10
12.8168046971
 20
25.2740717222
 30
0.0
 11
12.9088931178
 21
25.3661601429
 31
0.0
  0
LINE
  5
446
330
1F
100
AcDbEntity
  8
0
  6
Continuous
 62
     7
370
    25
100
AcDbLine
 10
12.1259815384
 20
25.2740717222
 30
0.0
 11
12.8168046971
 21
25.2740717222
 31
0.0
  0
LINE
  5
447
330
1F
100
AcDbEntity
  8
0
  6
Continuous
 62
     7
370
    25
100
AcDbLine
 10
12.8168046971
 20
23.2740717222
 30
0.0
 11
12.8168046971
 21
22.5832485636
 31
0.0
  0
LINE
  5
448
330
1F
100
AcDbEntity
  8
0
  6
Continuous
 62
     7
370
    25
100
AcDbLine
 10
12.8168046971
 20
27.2740717222
 30
0.0
 11
12.8168046971
 21
26.5832485636
 31
0.0
  0
LINE
  5
449
330
1F
100
AcDbEntity
  8
0
  6
Continuous
 62
     7
370
    25
100
AcDbLine
 10
12.8168046971
 20
26.2740717222
 30
0.0
 11
12.8168046971
 21
25.5832485636
 31
0.0
  0
LINE
  5
44A
330
1F
100
AcDbEntity
  8
0
  6
Continuous
 62
     7
370
    25
100
AcDbLine
 10
12.8168046971
 20
25.2740717222
 30
0.0
 11
12.8168046971
 21
24.5832485636
 31
0.0
  0
LINE
  5
44B
330
1F
100
AcDbEntity
  8
0
  6
Continuous
 62
     7
370
    25
100
AcDbLine
 10
12.8168046971
 20
28.2740717222
 30
0.0
 11
12.8168046971
 21
27.5832485636
 31
0.0
  0
LINE
  5
44C
330
1F
100
AcDbEntity
  8
0
  6
Continuous
 62
     7
370
    25
100
AcDbLine
 10
12.8168046971
 20
24.2740717222
 30
0.0
 11
12.8168046971
 21
23.5832485636
 31
0.0
  0
LINE
  5
44D
330
1F
100
AcDbEntity
  8
0
  6
Continuous
 62
     7
370
    25
100
AcDbLine
 10
13.1259815384
 20
27.2740717222
 30
0.0
 11
13.0338931178
 21
27.3661601429
 31
0.0
  0
LINE
  5
44E
330
1F
100
AcDbEntity
  8
0
  6
Continuous
 62
     7
370
    25
100
AcDbLine
 10
13.8168046971
 20
27.2740717222
 30
0.0
 11
13.9088931178
 21
27.3661601429
 31
0.0
  0
LINE
  5
44F
330
1F
100
AcDbEntity
  8
0
  6
Continuous
 62
     7
370
    25
100
AcDbLine
 10
13.1259815384
 20
27.2740717222
 30
0.0
 11
13.8168046971
 21
27.2740717222
 31
0.0
  0
LINE
  5
450
330
1F
100
AcDbEntity
  8
0
  6
Continuous
 62
     7
370
    25
100
AcDbLine
 10
13.1259815384
 20
24.5832485636
 30
0.0
 11
13.0338931178
 21
24.4911601429
 31
0.0
  0
LINE
  5
451
330
1F
100
AcDbEntity
  8
0
  6
Continuous
 62
     7
370
    25
100
AcDbLine
 10
13.1259815384
 20
25.2740717222
 30
0.0
 11
13.0338931178
 21
25.3661601429
 31
0.0
  0
LINE
  5
452
330
1F
100
AcDbEntity
  8
0
  6
Continuous
 62
     7
370
    25
100
AcDbLine
 10
13.1259815384
 20
24.5832485636
 30
0.0
 11
13.1259815384
 21
25.2740717222
 31
0.0
  0
LINE
  5
453
330
1F
100
AcDbEntity
  8
0
  6
Continuous
 62
     7
370
    25
100
AcDbLine
 10
13.8168046971
 20
27.5832485636
 30
0.0
 11
13.9088931178
 21
27.4911601429
 31
0.0
  0
LINE
  5
454
330
1F
100
AcDbEntity
  8
0
  6
Continuous
 62
     7
370
    25
100
AcDbLine
 10
13.1259815384
 20
27.5832485636
 30
0.0
 11
13.0338931178
 21
27.4911601429
 31
0.0
  0
LINE
  5
455
330
1F
100
AcDbEntity
  8
0
  6
Continuous
 62
     7
370
    25
100
AcDbLine
 10
13.8168046971
 20
27.5832485636
 30
0.0
 11
13.1259815384
 21
27.5832485636
 31
0.0
  0
LINE
  5
456
330
1F
100
AcDbEntity
  8
0
  6
Continuous
 62
     7
370
    25
100
AcDbLine
 10
13.1259815384
 20
23.2740717222
 30
0.0
 11
13.0338931178
 21
23.3661601429
 31
0.0
  0
LINE
  5
457
330
1F
100
AcDbEntity
  8
0
  6
Continuous
 62
     7
370
    25
100
AcDbLine
 10
13.8168046971
 20
23.2740717222
 30
0.0
 11
13.9088931178
 21
23.3661601429
 31
0.0
  0
LINE
  5
458
330
1F
100
AcDbEntity
  8
0
  6
Continuous
 62
     7
370
    25
100
AcDbLine
 10
13.1259815384
 20
23.2740717222
 30
0.0
 11
13.8168046971
 21
23.2740717222
 31
0.0
  0
LINE
  5
459
330
1F
100
AcDbEntity
  8
0
  6
Continuous
 62
     7
370
    25
100
AcDbLine
 10
13.1259815384
 20
26.2740717222
 30
0.0
 11
13.0338931178
 21
26.3661601429
 31
0.0
  0
LINE
  5
45A
330
1F
100
AcDbEntity
  8
0
  6
Continuous
 62
     7
370
    25
100
AcDbLine
 10
13.8168046971
 20
26.2740717222
 30
0.0
 11
13.9088931178
 21
26.3661601429
 31
0.0
  0
LINE
  5
45B
330
1F
100
AcDbEntity
  8
0
  6
Continuous
 62
     7
370
    25
100
AcDbLine
 10
13.1259815384
 20
26.2740717222
 30
0.0
 11
13.8168046971
 21
26.2740717222
 31
0.0
  0
LINE
  5
45C
330
1F
100
AcDbEntity
  8
0
  6
Continuous
 62
     7
370
    25
100
AcDbLine
 10
13.8168046971
 20
25.2740717222
 30
0.0
 11
13.9088931178
 21
25.3661601429
 31
0.0
  0
LINE
  5
45D
330
1F
100
AcDbEntity
  8
0
  6
Continuous
 62
     7
370
    25
100
AcDbLine
 10
13.1259815384
 20
25.2740717222
 30
0.0
 11
13.8168046971
 21
25.2740717222
 31
0.0
  0
LINE
  5
45E
330
1F
100
AcDbEntity
  8
0
  6
Continuous
 62
     7
370
    25
100
AcDbLine
 10
13.1259815384
 20
22.5832485636
 30
0.0
 11
13.0338931178
 21
22.4911601429
 31
0.0
  0
LINE
  5
45F
330
1F
100
AcDbEntity
  8
0
  6
Continuous
 62
     7
370
    25
100
AcDbLine
 10
13.1259815384
 20
22.5832485636
 30
0.0
 11
13.1259815384
 21
23.2740717222
 31
0.0
  0
LINE
  5
460
330
1F
100
AcDbEntity
  8
0
  6
Continuous
 62
     7
370
    25
100
AcDbLine
 10
13.8168046971
 20
24.5832485636
 30
0.0
 11
13.9088931178
 21
24.4911601429
 31
0.0
  0
LINE
  5
461
330
1F
100
AcDbEntity
  8
0
  6
Continuous
 62
     7
370
    25
100
AcDbLine
 10
13.8168046971
 20
24.5832485636
 30
0.0
 11
13.1259815384
 21
24.5832485636
 31
0.0
  0
LINE
  5
462
330
1F
100
AcDbEntity
  8
0
  6
Continuous
 62
     7
370
    25
100
AcDbLine
 10
13.8168046971
 20
22.5832485636
 30
0.0
 11
13.9088931178
 21
22.4911601429
 31
0.0
  0
LINE
  5
463
330
1F
100
AcDbEntity
  8
0
  6
Continuous
 62
     7
370
    25
100
AcDbLine
 10
13.8168046971
 20
22.5832485636
 30
0.0
 11
13.1259815384
 21
22.5832485636
 31
0.0
  0
LINE
  5
464
330
1F
100
AcDbEntity
  8
0
  6
Continuous
 62
     7
370
    25
100
AcDbLine
 10
13.1259815384
 20
28.2740717222
 30
0.0
 11
13.0338931178
 21
28.3661601429
 31
0.0
  0
LINE
  5
465
330
1F
100
AcDbEntity
  8
0
  6
Continuous
 62
     7
370
    25
100
AcDbLine
 10
13.1259815384
 20
27.5832485636
 30
0.0
 11
13.1259815384
 21
28.2740717222
 31
0.0
  0
LINE
  5
466
330
1F
100
AcDbEntity
  8
0
  6
Continuous
 62
     7
370
    25
100
AcDbLine
 10
13.8168046971
 20
23.5832485636
 30
0.0
 11
13.9088931178
 21
23.4911601429
 31
0.0
  0
LINE
  5
467
330
1F
100
AcDbEntity
  8
0
  6
Continuous
 62
     7
370
    25
100
AcDbLine
 10
13.1259815384
 20
23.5832485636
 30
0.0
 11
13.0338931178
 21
23.4911601429
 31
0.0
  0
LINE
  5
468
330
1F
100
AcDbEntity
  8
0
  6
Continuous
 62
     7
370
    25
100
AcDbLine
 10
13.8168046971
 20
23.5832485636
 30
0.0
 11
13.1259815384
 21
23.5832485636
 31
0.0
  0
LINE
  5
469
330
1F
100
AcDbEntity
  8
0
  6
Continuous
 62
     7
370
    25
100
AcDbLine
 10
13.1259815384
 20
26.5832485636
 30
0.0
 11
13.0338931178
 21
26.4911601429
 31
0.0
  0
LINE
  5
46A
330
1F
100
AcDbEntity
  8
0
  6
Continuous
 62
     7
370
    25
100
AcDbLine
 10
13.1259815384
 20
26.5832485636
 30
0.0
 11
13.1259815384
 21
27.2740717222
 31
0.0
  0
LINE
  5
46B
330
1F
100
AcDbEntity
  8
0
  6
Continuous
 62
     7
370
    25
100
AcDbLine
 10
13.8168046971
 20
26.5832485636
 30
0.0
 11
13.9088931178
 21
26.4911601429
 31
0.0
  0
LINE
  5
46C
330
1F
100
AcDbEntity
  8
0
  6
Continuous
 62
     7
370
    25
100
AcDbLine
 10
13.8168046971
 20
26.5832485636
 30
0.0
 11
13.1259815384
 21
26.5832485636
 31
0.0
  0
LINE
  5
46D
330
1F
100
AcDbEntity
  8
0
  6
Continuous
 62
     7
370
    25
100
AcDbLine
 10
13.8168046971
 20
28.2740717222
 30
0.0
 11
13.9088931178
 21
28.3661601429
 31
0.0
  0
LINE
  5
46E
330
1F
100
AcDbEntity
  8
0
  6
Continuous
 62
     7
370
    25
100
AcDbLine
 10
13.1259815384
 20
28.2740717222
 30
0.0
 11
13.8168046971
 21
28.2740717222
 31
0.0
  0
LINE
  5
46F
330
1F
100
AcDbEntity
  8
0
  6
Continuous
 62
     7
370
    25
100
AcDbLine
 10
13.1259815384
 20
25.5832485636
 30
0.0
 11
13.0338931178
 21
25.4911601429
 31
0.0
  0
LINE
  5
470
330
1F
100
AcDbEntity
  8
0
  6
Continuous
 62
     7
370
    25
100
AcDbLine
 10
13.1259815384
 20
25.5832485636
 30
0.0
 11
13.1259815384
 21
26.2740717222
 31
0.0
  0
LINE
  5
471
330
1F
100
AcDbEntity
  8
0
  6
Continuous
 62
     7
370
    25
100
AcDbLine
 10
13.1259815384
 20
24.2740717222
 30
0.0
 11
13.0338931178
 21
24.3661601429
 31
0.0
  0
LINE
  5
472
330
1F
100
AcDbEntity
  8
0
  6
Continuous
 62
     7
370
    25
100
AcDbLine
 10
13.1259815384
 20
23.5832485636
 30
0.0
 11
13.1259815384
 21
24.2740717222
 31
0.0
  0
LINE
  5
473
330
1F
100
AcDbEntity
  8
0
  6
Continuous
 62
     7
370
    25
100
AcDbLine
 10
13.8168046971
 20
25.5832485636
 30
0.0
 11
13.9088931178
 21
25.4911601429
 31
0.0
  0
LINE
  5
474
330
1F
100
AcDbEntity
  8
0
  6
Continuous
 62
     7
370
    25
100
AcDbLine
 10
13.8168046971
 20
25.5832485636
 30
0.0
 11
13.1259815384
 21
25.5832485636
 31
0.0
  0
LINE
  5
475
330
1F
100
AcDbEntity
  8
0
  6
Continuous
 62
     7
370
    25
100
AcDbLine
 10
13.8168046971
 20
24.2740717222
 30
0.0
 11
13.9088931178
 21
24.3661601429
 31
0.0
  0
LINE
  5
476
330
1F
100
AcDbEntity
  8
0
  6
Continuous
 62
     7
370
    25
100
AcDbLine
 10
13.1259815384
 20
24.2740717222
 30
0.0
 11
13.8168046971
 21
24.2740717222
 31
0.0
  0
LINE
  5
477
330
1F
100
AcDbEntity
  8
0
  6
Continuous
 62
     7
370
    25
100
AcDbLine
 10
13.8168046971
 20
25.2740717222
 30
0.0
 11
13.8168046971
 21
24.5832485636
 31
0.0
  0
LINE
  5
478
330
1F
100
AcDbEntity
  8
0
  6
Continuous
 62
     7
370
    25
100
AcDbLine
 10
14.1259815384
 20
28.2740717222
 30
0.0
 11
14.0338931178
 21
28.3661601429
 31
0.0
  0
LINE
  5
479
330
1F
100
AcDbEntity
  8
0
  6
Continuous
 62
     7
370
    25
100
AcDbLine
 10
14.8168046971
 20
28.2740717222
 30
0.0
 11
14.9088931178
 21
28.3661601429
 31
0.0
  0
LINE
  5
47A
330
1F
100
AcDbEntity
  8
0
  6
Continuous
 62
     7
370
    25
100
AcDbLine
 10
14.1259815384
 20
28.2740717222
 30
0.0
 11
14.8168046971
 21
28.2740717222
 31
0.0
  0
LINE
  5
47B
330
1F
100
AcDbEntity
  8
0
  6
Continuous
 62
     7
370
    25
100
AcDbLine
 10
14.1259815384
 20
23.5832485636
 30
0.0
 11
14.0338931178
 21
23.4911601429
 31
0.0
  0
LINE
  5
47C
330
1F
100
AcDbEntity
  8
0
  6
Continuous
 62
     7
370
    25
100
AcDbLine
 10
14.1259815384
 20
24.2740717222
 30
0.0
 11
14.0338931178
 21
24.3661601429
 31
0.0
  0
LINE
  5
47D
330
1F
100
AcDbEntity
  8
0
  6
Continuous
 62
     7
370
    25
100
AcDbLine
 10
14.1259815384
 20
23.5832485636
 30
0.0
 11
14.1259815384
 21
24.2740717222
 31
0.0
  0
LINE
  5
47E
330
1F
100
AcDbEntity
  8
0
  6
Continuous
 62
     7
370
    25
100
AcDbLine
 10
14.8168046971
 20
26.5832485636
 30
0.0
 11
14.9088931178
 21
26.4911601429
 31
0.0
  0
LINE
  5
47F
330
1F
100
AcDbEntity
  8
0
  6
Continuous
 62
     7
370
    25
100
AcDbLine
 10
14.1259815384
 20
26.5832485636
 30
0.0
 11
14.0338931178
 21
26.4911601429
 31
0.0
  0
LINE
  5
480
330
1F
100
AcDbEntity
  8
0
  6
Continuous
 62
     7
370
    25
100
AcDbLine
 10
14.8168046971
 20
26.5832485636
 30
0.0
 11
14.1259815384
 21
26.5832485636
 31
0.0
  0
LINE
  5
481
330
1F
100
AcDbEntity
  8
0
  6
Continuous
 62
     7
370
    25
100
AcDbLine
 10
14.1259815384
 20
27.5832485636
 30
0.0
 11
14.0338931178
 21
27.4911601429
 31
0.0
  0
LINE
  5
482
330
1F
100
AcDbEntity
  8
0
  6
Continuous
 62
     7
370
    25
100
AcDbLine
 10
14.1259815384
 20
27.5832485636
 30
0.0
 11
14.1259815384
 21
28.2740717222
 31
0.0
  0
LINE
  5
483
330
1F
100
AcDbEntity
  8
0
  6
Continuous
 62
     7
370
    25
100
AcDbLine
 10
13.8168046971
 20
28.2740717222
 30
0.0
 11
13.8168046971
 21
27.5832485636
 31
0.0
  0
LINE
  5
484
330
1F
100
AcDbEntity
  8
0
  6
Continuous
 62
     7
370
    25
100
AcDbLine
 10
14.8168046971
 20
24.2740717222
 30
0.0
 11
14.9088931178
 21
24.3661601429
 31
0.0
  0
LINE
  5
485
330
1F
100
AcDbEntity
  8
0
  6
Continuous
 62
     7
370
    25
100
AcDbLine
 10
14.1259815384
 20
24.2740717222
 30
0.0
 11
14.8168046971
 21
24.2740717222
 31
0.0
  0
LINE
  5
486
330
1F
100
AcDbEntity
  8
0
  6
Continuous
 62
     7
370
    25
100
AcDbLine
 10
13.8168046971
 20
27.2740717222
 30
0.0
 11
13.8168046971
 21
26.5832485636
 31
0.0
  0
LINE
  5
487
330
1F
100
AcDbEntity
  8
0
  6
Continuous
 62
     7
370
    25
100
AcDbLine
 10
14.1259815384
 20
27.2740717222
 30
0.0
 11
14.0338931178
 21
27.3661601429
 31
0.0
  0
LINE
  5
488
330
1F
100
AcDbEntity
  8
0
  6
Continuous
 62
     7
370
    25
100
AcDbLine
 10
14.1259815384
 20
26.5832485636
 30
0.0
 11
14.1259815384
 21
27.2740717222
 31
0.0
  0
LINE
  5
489
330
1F
100
AcDbEntity
  8
0
  6
Continuous
 62
     7
370
    25
100
AcDbLine
 10
14.1259815384
 20
25.2740717222
 30
0.0
 11
14.0338931178
 21
25.3661601429
 31
0.0
  0
LINE
  5
48A
330
1F
100
AcDbEntity
  8
0
  6
Continuous
 62
     7
370
    25
100
AcDbLine
 10
14.8168046971
 20
25.2740717222
 30
0.0
 11
14.9088931178
 21
25.3661601429
 31
0.0
  0
LINE
  5
48B
330
1F
100
AcDbEntity
  8
0
  6
Continuous
 62
     7
370
    25
100
AcDbLine
 10
14.1259815384
 20
25.2740717222
 30
0.0
 11
14.8168046971
 21
25.2740717222
 31
0.0
  0
LINE
  5
48C
330
1F
100
AcDbEntity
  8
0
  6
Continuous
 62
     7
370
    25
100
AcDbLine
 10
13.8168046971
 20
23.2740717222
 30
0.0
 11
13.8168046971
 21
22.5832485636
 31
0.0
  0
LINE
  5
48D
330
1F
100
AcDbEntity
  8
0
  6
Continuous
 62
     7
370
    25
100
AcDbLine
 10
14.8168046971
 20
27.2740717222
 30
0.0
 11
14.9088931178
 21
27.3661601429
 31
0.0
  0
LINE
  5
48E
330
1F
100
AcDbEntity
  8
0
  6
Continuous
 62
     7
370
    25
100
AcDbLine
 10
14.1259815384
 20
27.2740717222
 30
0.0
 11
14.8168046971
 21
27.2740717222
 31
0.0
  0
LINE
  5
48F
330
1F
100
AcDbEntity
  8
0
  6
Continuous
 62
     7
370
    25
100
AcDbLine
 10
14.1259815384
 20
25.5832485636
 30
0.0
 11
14.0338931178
 21
25.4911601429
 31
0.0
  0
LINE
  5
490
330
1F
100
AcDbEntity
  8
0
  6
Continuous
 62
     7
370
    25
100
AcDbLine
 10
14.1259815384
 20
26.2740717222
 30
0.0
 11
14.0338931178
 21
26.3661601429
 31
0.0
  0
LINE
  5
491
330
1F
100
AcDbEntity
  8
0
  6
Continuous
 62
     7
370
    25
100
AcDbLine
 10
14.1259815384
 20
25.5832485636
 30
0.0
 11
14.1259815384
 21
26.2740717222
 31
0.0
  0
LINE
  5
492
330
1F
100
AcDbEntity
  8
0
  6
Continuous
 62
     7
370
    25
100
AcDbLine
 10
14.8168046971
 20
25.5832485636
 30
0.0
 11
14.9088931178
 21
25.4911601429
 31
0.0
  0
LINE
  5
493
330
1F
100
AcDbEntity
  8
0
  6
Continuous
 62
     7
370
    25
100
AcDbLine
 10
14.8168046971
 20
25.5832485636
 30
0.0
 11
14.1259815384
 21
25.5832485636
 31
0.0
  0
LINE
  5
494
330
1F
100
AcDbEntity
  8
0
  6
Continuous
 62
     7
370
    25
100
AcDbLine
 10
13.8168046971
 20
24.2740717222
 30
0.0
 11
13.8168046971
 21
23.5832485636
 31
0.0
  0
LINE
  5
495
330
1F
100
AcDbEntity
  8
0
  6
Continuous
 62
     7
370
    25
100
AcDbLine
 10
13.8168046971
 20
26.2740717222
 30
0.0
 11
13.8168046971
 21
25.5832485636
 31
0.0
  0
LINE
  5
496
330
1F
100
AcDbEntity
  8
0
  6
Continuous
 62
     7
370
    25
100
AcDbLine
 10
14.1259815384
 20
24.5832485636
 30
0.0
 11
14.0338931178
 21
24.4911601429
 31
0.0
  0
LINE
  5
497
330
1F
100
AcDbEntity
  8
0
  6
Continuous
 62
     7
370
    25
100
AcDbLine
 10
14.1259815384
 20
24.5832485636
 30
0.0
 11
14.1259815384
 21
25.2740717222
 31
0.0
  0
LINE
  5
498
330
1F
100
AcDbEntity
  8
0
  6
Continuous
 62
     7
370
    25
100
AcDbLine
 10
14.8168046971
 20
24.5832485636
 30
0.0
 11
14.9088931178
 21
24.4911601429
 31
0.0
  0
LINE
  5
499
330
1F
100
AcDbEntity
  8
0
  6
Continuous
 62
     7
370
    25
100
AcDbLine
 10
14.8168046971
 20
24.5832485636
 30
0.0
 11
14.1259815384
 21
24.5832485636
 31
0.0
  0
LINE
  5
49A
330
1F
100
AcDbEntity
  8
0
  6
Continuous
 62
     7
370
    25
100
AcDbLine
 10
14.8168046971
 20
26.2740717222
 30
0.0
 11
14.9088931178
 21
26.3661601429
 31
0.0
  0
LINE
  5
49B
330
1F
100
AcDbEntity
  8
0
  6
Continuous
 62
     7
370
    25
100
AcDbLine
 10
14.1259815384
 20
26.2740717222
 30
0.0
 11
14.8168046971
 21
26.2740717222
 31
0.0
  0
LINE
  5
49C
330
1F
100
AcDbEntity
  8
0
  6
Continuous
 62
     7
370
    25
100
AcDbLine
 10
14.1259815384
 20
23.2740717222
 30
0.0
 11
14.0338931178
 21
23.3661601429
 31
0.0
  0
LINE
  5
49D
330
1F
100
AcDbEntity
  8
0
  6
Continuous
 62
     7
370
    25
100
AcDbLine
 10
14.8168046971
 20
23.2740717222
 30
0.0
 11
14.9088931178
 21
23.3661601429
 31
0.0
  0
LINE
  5
49E
330
1F
100
AcDbEntity
  8
0
  6
Continuous
 62
     7
370
    25
100
AcDbLine
 10
14.1259815384
 20
23.2740717222
 30
0.0
 11
14.8168046971
 21
23.2740717222
 31
0.0
  0
LINE
  5
49F
330
1F
100
AcDbEntity
  8
0
  6
Continuous
 62
     7
370
    25
100
AcDbLine
 10
14.1259815384
 20
22.5832485636
 30
0.0
 11
14.0338931178
 21
22.4911601429
 31
0.0
  0
LINE
  5
4A0
330
1F
100
AcDbEntity
  8
0
  6
Continuous
 62
     7
370
    25
100
AcDbLine
 10
14.1259815384
 20
22.5832485636
 30
0.0
 11
14.1259815384
 21
23.2740717222
 31
0.0
  0
LINE
  5
4A1
330
1F
100
AcDbEntity
  8
0
  6
Continuous
 62
     7
370
    25
100
AcDbLine
 10
14.8168046971
 20
22.5832485636
 30
0.0
 11
14.9088931178
 21
22.4911601429
 31
0.0
  0
LINE
  5
4A2
330
1F
100
AcDbEntity
  8
0
  6
Continuous
 62
     7
370
    25
100
AcDbLine
 10
14.8168046971
 20
22.5832485636
 30
0.0
 11
14.1259815384
 21
22.5832485636
 31
0.0
  0
LINE
  5
4A3
330
1F
100
AcDbEntity
  8
0
  6
Continuous
 62
     7
370
    25
100
AcDbLine
 10
14.8168046971
 20
27.5832485636
 30
0.0
 11
14.9088931178
 21
27.4911601429
 31
0.0
  0
LINE
  5
4A4
330
1F
100
AcDbEntity
  8
0
  6
Continuous
 62
     7
370
    25
100
AcDbLine
 10
14.8168046971
 20
27.5832485636
 30
0.0
 11
14.1259815384
 21
27.5832485636
 31
0.0
  0
LINE
  5
4A5
330
1F
100
AcDbEntity
  8
0
  6
Continuous
 62
     7
370
    25
100
AcDbLine
 10
14.8168046971
 20
23.5832485636
 30
0.0
 11
14.9088931178
 21
23.4911601429
 31
0.0
  0
LINE
  5
4A6
330
1F
100
AcDbEntity
  8
0
  6
Continuous
 62
     7
370
    25
100
AcDbLine
 10
14.8168046971
 20
23.5832485636
 30
0.0
 11
14.1259815384
 21
23.5832485636
 31
0.0
  0
LINE
  5
4A7
330
1F
100
AcDbEntity
  8
0
  6
Continuous
 62
     7
370
    25
100
AcDbLine
 10
14.8168046971
 20
26.2740717222
 30
0.0
 11
14.8168046971
 21
25.5832485636
 31
0.0
  0
LINE
  5
4A8
330
1F
100
AcDbEntity
  8
0
  6
Continuous
 62
     7
370
    25
100
AcDbLine
 10
14.8168046971
 20
27.2740717222
 30
0.0
 11
14.8168046971
 21
26.5832485636
 31
0.0
  0
LINE
  5
4A9
330
1F
100
AcDbEntity
  8
0
  6
Continuous
 62
     7
370
    25
100
AcDbLine
 10
14.8168046971
 20
24.2740717222
 30
0.0
 11
14.8168046971
 21
23.5832485636
 31
0.0
  0
LINE
  5
4AA
330
1F
100
AcDbEntity
  8
0
  6
Continuous
 62
     7
370
    25
100
AcDbLine
 10
14.8168046971
 20
25.2740717222
 30
0.0
 11
14.8168046971
 21
24.5832485636
 31
0.0
  0
LINE
  5
4AB
330
1F
100
AcDbEntity
  8
0
  6
Continuous
 62
     7
370
    25
100
AcDbLine
 10
14.8168046971
 20
23.2740717222
 30
0.0
 11
14.8168046971
 21
22.5832485636
 31
0.0
  0
LINE
  5
4AC
330
1F
100
AcDbEntity
  8
0
  6
Continuous
 62
     7
370
    25
100
AcDbLine
 10
14.8168046971
 20
28.2740717222
 30
0.0
 11
14.8168046971
 21
27.5832485636
 31
0.0
  0
LINE
  5
4AD
330
1F
100
AcDbEntity
  8
0
  6
Continuous
 62
     7
370
    25
100
AcDbLine
 10
15.1106334683
 20
22.5679004935
 30
0.0
 11
15.0338931178
 21
22.4911601429
 31
0.0
  0
LINE
  5
4AE
330
1F
100
AcDbEntity
  8
0
  6
Continuous
 62
     7
370
    25
100
AcDbLine
 10
15.1106334683
 20
23.2894197924
 30
0.0
 11
15.0338931178
 21
23.3661601429
 31
0.0
  0
LINE
  5
4AF
330
1F
100
AcDbEntity
  8
0
  6
Continuous
 62
     7
370
    25
100
AcDbLine
 10
15.1106334683
 20
22.5679004935
 30
0.0
 11
15.1106334683
 21
23.2894197924
 31
0.0
  0
LINE
  5
4B0
330
1F
100
AcDbEntity
  8
0
  6
Continuous
 62
     7
370
    25
100
AcDbLine
 10
15.8321527672
 20
22.5679004935
 30
0.0
 11
15.9088931178
 21
22.4911601429
 31
0.0
  0
LINE
  5
4B1
330
1F
100
AcDbEntity
  8
0
  6
Continuous
 62
     7
370
    25
100
AcDbLine
 10
15.8321527672
 20
22.5679004935
 30
0.0
 11
15.1106334683
 21
22.5679004935
 31
0.0
  0
LINE
  5
4B2
330
1F
100
AcDbEntity
  8
0
  6
Continuous
 62
     7
370
    25
100
AcDbLine
 10
15.8321527672
 20
23.2894197924
 30
0.0
 11
15.9088931178
 21
23.3661601429
 31
0.0
  0
LINE
  5
4B3
330
1F
100
AcDbEntity
  8
0
  6
Continuous
 62
     7
370
    25
100
AcDbLine
 10
15.1106334683
 20
23.2894197924
 30
0.0
 11
15.8321527672
 21
23.2894197924
 31
0.0
  0
LINE
  5
4B4
330
1F
100
AcDbEntity
  8
0
  6
Continuous
 62
     7
370
    25
100
AcDbLine
 10
15.1259815384
 20
26.5832485636
 30
0.0
 11
15.0338931178
 21
26.4911601429
 31
0.0
  0
LINE
  5
4B5
330
1F
100
AcDbEntity
  8
0
  6
Continuous
 62
     7
370
    25
100
AcDbLine
 10
15.1259815384
 20
27.2740717222
 30
0.0
 11
15.0338931178
 21
27.3661601429
 31
0.0
  0
LINE
  5
4B6
330
1F
100
AcDbEntity
  8
0
  6
Continuous
 62
     7
370
    25
100
AcDbLine
 10
15.1259815384
 20
26.5832485636
 30
0.0
 11
15.1259815384
 21
27.2740717222
 31
0.0
  0
LINE
  5
4B7
330
1F
100
AcDbEntity
  8
0
  6
Continuous
 62
     7
370
    25
100
AcDbLine
 10
15.8168046971
 20
25.5832485636
 30
0.0
 11
15.9088931178
 21
25.4911601429
 31
0.0
  0
LINE
  5
4B8
330
1F
100
AcDbEntity
  8
0
  6
Continuous
 62
     7
370
    25
100
AcDbLine
 10
15.1259815384
 20
25.5832485636
 30
0.0
 11
15.0338931178
 21
25.4911601429
 31
0.0
  0
LINE
  5
4B9
330
1F
100
AcDbEntity
  8
0
  6
Continuous
 62
     7
370
    25
100
AcDbLine
 10
15.8168046971
 20
25.5832485636
 30
0.0
 11
15.1259815384
 21
25.5832485636
 31
0.0
  0
LINE
  5
4BA
330
1F
100
AcDbEntity
  8
0
  6
Continuous
 62
     7
370
    25
100
AcDbLine
 10
15.1259815384
 20
26.2740717222
 30
0.0
 11
15.0338931178
 21
26.3661601429
 31
0.0
  0
LINE
  5
4BB
330
1F
100
AcDbEntity
  8
0
  6
Continuous
 62
     7
370
    25
100
AcDbLine
 10
15.8168046971
 20
26.2740717222
 30
0.0
 11
15.9088931178
 21
26.3661601429
 31
0.0
  0
LINE
  5
4BC
330
1F
100
AcDbEntity
  8
0
  6
Continuous
 62
     7
370
    25
100
AcDbLine
 10
15.1259815384
 20
26.2740717222
 30
0.0
 11
15.8168046971
 21
26.2740717222
 31
0.0
  0
LINE
  5
4BD
330
1F
100
AcDbEntity
  8
0
  6
Continuous
 62
     7
370
    25
100
AcDbLine
 10
15.1259815384
 20
25.2740717222
 30
0.0
 11
15.0338931178
 21
25.3661601429
 31
0.0
  0
LINE
  5
4BE
330
1F
100
AcDbEntity
  8
0
  6
Continuous
 62
     7
370
    25
100
AcDbLine
 10
15.8168046971
 20
25.2740717222
 30
0.0
 11
15.9088931178
 21
25.3661601429
 31
0.0
  0
LINE
  5
4BF
330
1F
100
AcDbEntity
  8
0
  6
Continuous
 62
     7
370
    25
100
AcDbLine
 10
15.1259815384
 20
25.2740717222
 30
0.0
 11
15.8168046971
 21
25.2740717222
 31
0.0
  0
LINE
  5
4C0
330
1F
100
AcDbEntity
  8
0
  6
Continuous
 62
     7
370
    25
100
AcDbLine
 10
15.1259815384
 20
25.5832485636
 30
0.0
 11
15.1259815384
 21
26.2740717222
 31
0.0
  0
LINE
  5
4C1
330
1F
100
AcDbEntity
  8
0
  6
Continuous
 62
     7
370
    25
100
AcDbLine
 10
15.8168046971
 20
24.5832485636
 30
0.0
 11
15.9088931178
 21
24.4911601429
 31
0.0
  0
LINE
  5
4C2
330
1F
100
AcDbEntity
  8
0
  6
Continuous
 62
     7
370
    25
100
AcDbLine
 10
15.1259815384
 20
24.5832485636
 30
0.0
 11
15.0338931178
 21
24.4911601429
 31
0.0
  0
LINE
  5
4C3
330
1F
100
AcDbEntity
  8
0
  6
Continuous
 62
     7
370
    25
100
AcDbLine
 10
15.8168046971
 20
24.5832485636
 30
0.0
 11
15.1259815384
 21
24.5832485636
 31
0.0
  0
LINE
  5
4C4
330
1F
100
AcDbEntity
  8
0
  6
Continuous
 62
     7
370
    25
100
AcDbLine
 10
15.1259815384
 20
24.5832485636
 30
0.0
 11
15.1259815384
 21
25.2740717222
 31
0.0
  0
LINE
  5
4C5
330
1F
100
AcDbEntity
  8
0
  6
Continuous
 62
     7
370
    25
100
AcDbLine
 10
15.8321527672
 20
27.5679004935
 30
0.0
 11
15.9088931178
 21
27.4911601429
 31
0.0
  0
LINE
  5
4C6
330
1F
100
AcDbEntity
  8
0
  6
Continuous
 62
     7
370
    25
100
AcDbLine
 10
15.1106334683
 20
27.5679004935
 30
0.0
 11
15.0338931178
 21
27.4911601429
 31
0.0
  0
LINE
  5
4C7
330
1F
100
AcDbEntity
  8
0
  6
Continuous
 62
     7
370
    25
100
AcDbLine
 10
15.8321527672
 20
27.5679004935
 30
0.0
 11
15.1106334683
 21
27.5679004935
 31
0.0
  0
LINE
  5
4C8
330
1F
100
AcDbEntity
  8
0
  6
Continuous
 62
     7
370
    25
100
AcDbLine
 10
15.8168046971
 20
27.2740717222
 30
0.0
 11
15.9088931178
 21
27.3661601429
 31
0.0
  0
LINE
  5
4C9
330
1F
100
AcDbEntity
  8
0
  6
Continuous
 62
     7
370
    25
100
AcDbLine
 10
15.1259815384
 20
27.2740717222
 30
0.0
 11
15.8168046971
 21
27.2740717222
 31
0.0
  0
LINE
  5
4CA
330
1F
100
AcDbEntity
  8
0
  6
Continuous
 62
     7
370
    25
100
AcDbLine
 10
15.1106334683
 20
28.2894197924
 30
0.0
 11
15.0338931178
 21
28.3661601429
 31
0.0
  0
LINE
  5
4CB
330
1F
100
AcDbEntity
  8
0
  6
Continuous
 62
     7
370
    25
100
AcDbLine
 10
15.1106334683
 20
27.5679004935
 30
0.0
 11
15.1106334683
 21
28.2894197924
 31
0.0
  0
LINE
  5
4CC
330
1F
100
AcDbEntity
  8
0
  6
Continuous
 62
     7
370
    25
100
AcDbLine
 10
15.8321527672
 20
28.2894197924
 30
0.0
 11
15.9088931178
 21
28.3661601429
 31
0.0
  0
LINE
  5
4CD
330
1F
100
AcDbEntity
  8
0
  6
Continuous
 62
     7
370
    25
100
AcDbLine
 10
15.1106334683
 20
28.2894197924
 30
0.0
 11
15.8321527672
 21
28.2894197924
 31
0.0
  0
LINE
  5
4CE
330
1F
100
AcDbEntity
  8
0
  6
Continuous
 62
     7
370
    25
100
AcDbLine
 10
15.1259815384
 20
24.2740717222
 30
0.0
 11
15.0338931178
 21
24.3661601429
 31
0.0
  0
LINE
  5
4CF
330
1F
100
AcDbEntity
  8
0
  6
Continuous
 62
     7
370
    25
100
AcDbLine
 10
15.8168046971
 20
24.2740717222
 30
0.0
 11
15.9088931178
 21
24.3661601429
 31
0.0
  0
LINE
  5
4D0
330
1F
100
AcDbEntity
  8
0
  6
Continuous
 62
     7
370
    25
100
AcDbLine
 10
15.1259815384
 20
24.2740717222
 30
0.0
 11
15.8168046971
 21
24.2740717222
 31
0.0
  0
LINE
  5
4D1
330
1F
100
AcDbEntity
  8
0
  6
Continuous
 62
     7
370
    25
100
AcDbLine
 10
15.8168046971
 20
26.5832485636
 30
0.0
 11
15.9088931178
 21
26.4911601429
 31
0.0
  0
LINE
  5
4D2
330
1F
100
AcDbEntity
  8
0
  6
Continuous
 62
     7
370
    25
100
AcDbLine
 10
15.8168046971
 20
26.5832485636
 30
0.0
 11
15.1259815384
 21
26.5832485636
 31
0.0
  0
LINE
  5
4D3
330
1F
100
AcDbEntity
  8
0
  6
Continuous
 62
     7
370
    25
100
AcDbLine
 10
15.1259815384
 20
23.5832485636
 30
0.0
 11
15.0338931178
 21
23.4911601429
 31
0.0
  0
LINE
  5
4D4
330
1F
100
AcDbEntity
  8
0
  6
Continuous
 62
     7
370
    25
100
AcDbLine
 10
15.1259815384
 20
23.5832485636
 30
0.0
 11
15.1259815384
 21
24.2740717222
 31
0.0
  0
LINE
  5
4D5
330
1F
100
AcDbEntity
  8
0
  6
Continuous
 62
     7
370
    25
100
AcDbLine
 10
15.8168046971
 20
23.5832485636
 30
0.0
 11
15.9088931178
 21
23.4911601429
 31
0.0
  0
LINE
  5
4D6
330
1F
100
AcDbEntity
  8
0
  6
Continuous
 62
     7
370
    25
100
AcDbLine
 10
15.8168046971
 20
23.5832485636
 30
0.0
 11
15.1259815384
 21
23.5832485636
 31
0.0
  0
LINE
  5
4D7
330
1F
100
AcDbEntity
  8
0
  6
Continuous
 62
     7
370
    25
100
AcDbLine
 10
15.8321527672
 20
23.2894197924
 30
0.0
 11
15.8321527672
 21
22.5679004935
 31
0.0
  0
LINE
  5
4D8
330
1F
100
AcDbEntity
  8
0
  6
Continuous
 62
     7
370
    25
100
AcDbLine
 10
15.8321527672
 20
28.2894197924
 30
0.0
 11
15.8321527672
 21
27.5679004935
 31
0.0
  0
LINE
  5
4D9
330
1F
100
AcDbEntity
  8
0
  6
Continuous
 62
     7
370
    25
100
AcDbLine
 10
15.8168046971
 20
25.2740717222
 30
0.0
 11
15.8168046971
 21
24.5832485636
 31
0.0
  0
LINE
  5
4DA
330
1F
100
AcDbEntity
  8
0
  6
Continuous
 62
     7
370
    25
100
AcDbLine
 10
15.8168046971
 20
26.2740717222
 30
0.0
 11
15.8168046971
 21
25.5832485636
 31
0.0
  0
LINE
  5
4DB
330
1F
100
AcDbEntity
  8
0
  6
Continuous
 62
     7
370
    25
100
AcDbLine
 10
15.8168046971
 20
24.2740717222
 30
0.0
 11
15.8168046971
 21
23.5832485636
 31
0.0
  0
LINE
  5
4DC
330
1F
100
AcDbEntity
  8
0
  6
Continuous
 62
     7
370
    25
100
AcDbLine
 10
15.8168046971
 20
27.2740717222
 30
0.0
 11
15.8168046971
 21
26.5832485636
 31
0.0
  0
LINE
  5
4DD
330
1F
100
AcDbEntity
  8
0
  6
Continuous
 62
     7
370
    25
100
AcDbLine
 10
16.2355632194
 20
22.1644900413
 30
0.0
 11
16.2355632194
 21
28.6645204624
 31
0.0
  0
LINE
  5
4DE
330
1F
100
AcDbEntity
  8
0
  6
Continuous
 62
     7
370
    25
100
AcDbLine
 10
15.2570531304
 20
26.268657705
 30
0.0
 11
15.2415640822
 21
26.2685512901
 31
0.0
  0
LINE
  5
4DF
330
1F
100
AcDbEntity
  8
0
  6
Continuous
 62
     7
370
    25
100
AcDbLine
 10
15.2571451663
 20
26.2552615865
 30
0.0
 11
15.2416561181
 21
26.2551551716
 31
0.0
  0
LINE
  5
4E0
330
1F
100
AcDbEntity
  8
0
  6
Continuous
 62
     7
370
    25
100
AcDbLine
 10
15.2548868965
 20
26.5839602126
 30
0.0
 11
15.2393978483
 21
26.5838537976
 31
0.0
  0
LINE
  5
4E1
330
1F
100
AcDbEntity
  8
0
  6
Continuous
 62
     7
370
    25
100
AcDbLine
 10
15.2571607856
 20
26.2529881362
 30
0.0
 11
15.2416717374
 21
26.2528817212
 31
0.0
  0
LINE
  5
4E2
330
1F
100
AcDbEntity
  8
0
  6
Continuous
 62
     7
370
    25
100
AcDbLine
 10
10.7295319354
 20
26.2685512901
 30
0.0
 11
10.7140428872
 21
26.268657705
 31
0.0
  0
LINE
  5
4E3
330
1F
100
AcDbEntity
  8
0
  6
Continuous
 62
     7
370
    25
100
AcDbLine
 10
10.7140800833
 20
26.2740717222
 30
0.0
 11
10.7140428872
 21
26.268657705
 31
0.0
  0
LINE
  5
4E4
330
1F
100
AcDbEntity
  8
0
  6
Continuous
 62
     7
370
    25
100
AcDbLine
 10
10.7294398996
 20
26.2551551716
 30
0.0
 11
10.7139508514
 21
26.2552615865
 31
0.0
  0
LINE
  5
4E5
330
1F
100
AcDbEntity
  8
0
  6
Continuous
 62
     7
370
    25
100
AcDbLine
 10
10.7139508514
 20
26.2552615865
 30
0.0
 11
10.7140428872
 21
26.268657705
 31
0.0
  0
LINE
  5
4E6
330
1F
100
AcDbEntity
  8
0
  6
Continuous
 62
     7
370
    25
100
AcDbLine
 10
10.7316981693
 20
26.5838537976
 30
0.0
 11
10.7162091211
 21
26.5839602126
 31
0.0
  0
LINE
  5
4E7
330
1F
100
AcDbEntity
  8
0
  6
Continuous
 62
     7
370
    25
100
AcDbLine
 10
10.7162042319
 20
26.5832485636
 30
0.0
 11
10.7162091211
 21
26.5839602126
 31
0.0
  0
LINE
  5
4E8
330
1F
100
AcDbEntity
  8
0
  6
Continuous
 62
     7
370
    25
100
AcDbLine
 10
10.7294242802
 20
26.2528817212
 30
0.0
 11
10.713935232
 21
26.2529881362
 31
0.0
  0
LINE
  5
4E9
330
1F
100
AcDbEntity
  8
0
  6
Continuous
 62
     7
370
    25
100
AcDbLine
 10
10.7139508514
 20
26.2552615865
 30
0.0
 11
10.713935232
 21
26.2529881362
 31
0.0
  0
LINE
  5
4EA
330
1F
100
AcDbEntity
  8
0
  6
Continuous
 62
     7
370
    25
100
AcDbLine
 10
14.4322714521
 20
26.1628088191
 30
0.0
 11
14.8168046971
 21
26.1654506915
 31
0.0
  0
LINE
  5
4EB
330
1F
100
AcDbEntity
  8
0
  6
Continuous
 62
     7
370
    25
100
AcDbLine
 10
14.4322714521
 20
26.1628088191
 30
0.0
 11
14.4315070386
 21
26.2740717222
 31
0.0
  0
LINE
  5
4EC
330
1F
100
AcDbEntity
  8
0
  6
Continuous
 62
     7
370
    25
100
AcDbLine
 10
14.4293828901
 20
26.5832485636
 30
0.0
 11
14.4288363655
 21
26.6627970191
 31
0.0
  0
LINE
  5
4ED
330
1F
100
AcDbEntity
  8
0
  6
Continuous
 62
     7
370
    25
100
AcDbLine
 10
14.4288363655
 20
26.6627970191
 30
0.0
 11
14.8168046971
 21
26.6654624917
 31
0.0
  0
LINE
  5
4EE
330
1F
100
AcDbEntity
  8
0
  6
Continuous
 62
     7
370
    25
100
AcDbLine
 10
15.2388172495
 20
26.6683618595
 30
0.0
 11
15.2394020064
 21
26.5832485636
 31
0.0
  0
LINE
  5
4EF
330
1F
100
AcDbEntity
  8
0
  6
Continuous
 62
     7
370
    25
100
AcDbLine
 10
15.241526155
 20
26.2740717222
 30
0.0
 11
15.2422523362
 21
26.1683736594
 31
0.0
  0
LINE
  5
4F0
330
1F
100
AcDbEntity
  8
0
  6
Continuous
 62
     7
370
    25
100
AcDbLine
 10
15.1259815384
 20
26.16757484
 30
0.0
 11
15.2422523362
 21
26.1683736594
 31
0.0
  0
LINE
  5
4F1
330
1F
100
AcDbEntity
  8
0
  6
Continuous
 62
     7
370
    25
100
AcDbLine
 10
15.2388172495
 20
26.6683618595
 30
0.0
 11
15.1259815384
 21
26.6675866403
 31
0.0
  0
LINE
  5
4F2
330
1F
100
AcDbEntity
  8
0
  6
Continuous
 62
     7
370
    25
100
AcDbLine
 10
11.5422596521
 20
26.6627970191
 30
0.0
 11
11.5417131276
 21
26.5832485636
 31
0.0
  0
LINE
  5
4F3
330
1F
100
AcDbEntity
  8
0
  6
Continuous
 62
     7
370
    25
100
AcDbLine
 10
11.539588979
 20
26.2740717222
 30
0.0
 11
11.5388245655
 21
26.1628088191
 31
0.0
  0
LINE
  5
4F4
330
1F
100
AcDbEntity
  8
0
  6
Continuous
 62
     7
370
    25
100
AcDbLine
 10
11.5388245655
 20
26.1628088191
 30
0.0
 11
11.1259815384
 21
26.1656451892
 31
0.0
  0
LINE
  5
4F5
330
1F
100
AcDbEntity
  8
0
  6
Continuous
 62
     7
370
    25
100
AcDbLine
 10
11.5422596521
 20
26.6627970191
 30
0.0
 11
11.1259815384
 21
26.6656569894
 31
0.0
  0
LINE
  5
4F6
330
1F
100
AcDbEntity
  8
0
  6
Continuous
 62
     7
370
    25
100
AcDbLine
 10
10.7288436815
 20
26.1683736594
 30
0.0
 11
10.8168046971
 21
26.1677693377
 31
0.0
  0
LINE
  5
4F7
330
1F
100
AcDbEntity
  8
0
  6
Continuous
 62
     7
370
    25
100
AcDbLine
 10
10.7288436815
 20
26.1683736594
 30
0.0
 11
10.7295698626
 21
26.2740717222
 31
0.0
  0
LINE
  5
4F8
330
1F
100
AcDbEntity
  8
0
  6
Continuous
 62
     7
370
    25
100
AcDbLine
 10
10.7316940112
 20
26.5832485636
 30
0.0
 11
10.7322787681
 21
26.6683618595
 31
0.0
  0
LINE
  5
4F9
330
1F
100
AcDbEntity
  8
0
  6
Continuous
 62
     7
370
    25
100
AcDbLine
 10
10.8168046971
 20
26.667781138
 30
0.0
 11
10.7322787681
 21
26.6683618595
 31
0.0
  0
LINE
  5
4FA
330
1F
100
AcDbEntity
  8
0
  6
Continuous
 62
     7
370
    25
100
AcDbLine
 10
9.5183735321
 20
28.8816797286
 30
0.0
 11
9.4855480088
 21
28.9145052519
 31
0.0
  0
LINE
  5
4FB
330
1F
100
AcDbEntity
  8
0
  6
Continuous
 62
     7
370
    25
100
AcDbLine
 10
9.5183735321
 20
28.8816797286
 30
0.0
 11
9.5183735321
 21
21.9473307752
 31
0.0
  0
LINE
  5
4FC
330
1F
100
AcDbEntity
  8
0
  6
Continuous
 62
     7
370
    25
100
AcDbLine
 10
9.5183735321
 20
21.9473307752
 30
0.0
 11
9.4855480088
 21
21.9145052519
 31
0.0
  0
LINE
  5
4FD
330
1F
100
AcDbEntity
  8
0
  6
Continuous
 62
     7
370
    25
100
AcDbLine
 10
9.4855480088
 20
28.9145052519
 30
0.0
 11
9.4855480088
 21
21.9145052519
 31
0.0
  0
LINE
  5
4FE
330
1F
100
AcDbEntity
  8
0
  6
Continuous
 62
     7
370
    25
100
AcDbLine
 10
16.4527224855
 20
28.8816797286
 30
0.0
 11
16.4855480088
 21
28.9145052519
 31
0.0
  0
LINE
  5
4FF
330
1F
100
AcDbEntity
  8
0
  6
Continuous
 62
     7
370
    25
100
AcDbLine
 10
16.4527224855
 20
28.8816797286
 30
0.0
 11
9.5183735321
 21
28.8816797286
 31
0.0
  0
LINE
  5
500
330
1F
100
AcDbEntity
  8
0
  6
Continuous
 62
     7
370
    25
100
AcDbLine
 10
16.4855480088
 20
28.9145052519
 30
0.0
 11
9.4855480088
 21
28.9145052519
 31
0.0
  0
LINE
  5
501
330
1F
100
AcDbEntity
  8
0
  6
Continuous
 62
     7
370
    25
100
AcDbLine
 10
9.5183735321
 20
21.9473307752
 30
0.0
 11
16.4527224855
 21
21.9473307752
 31
0.0
  0
LINE
  5
502
330
1F
100
AcDbEntity
  8
0
  6
Continuous
 62
     7
370
    25
100
AcDbLine
 10
16.4527224855
 20
21.9473307752
 30
0.0
 11
16.4527224855
 21
28.8816797286
 31
0.0
  0
LINE
  5
503
330
1F
100
AcDbEntity
  8
0
  6
Continuous
 62
     7
370
    25
100
AcDbLine
 10
16.2505480088
 20
28.6795052519
 30
0.0
 11
9.7205480088
 21
28.6795052519
 31
0.0
  0
LINE
  5
504
330
1F
100
AcDbEntity
  8
0
  6
Continuous
 62
     7
370
    25
100
AcDbLine
 10
9.7205480088
 20
28.6795052519
 30
0.0
 11
9.7205480088
 21
22.1495052519
 31
0.0
  0
LINE
  5
505
330
1F
100
AcDbEntity
  8
0
  6
Continuous
 62
     7
370
    25
100
AcDbLine
 10
9.7205480088
 20
22.1495052519
 30
0.0
 11
16.2505480088
 21
22.1495052519
 31
0.0
  0
LINE
  5
506
330
1F
100
AcDbEntity
  8
0
  6
Continuous
 62
     7
370
    25
100
AcDbLine
 10
16.2505480088
 20
22.1495052519
 30
0.0
 11
16.2505480088
 21
28.6795052519
 31
0.0
  0
LINE
  5
507
330
1F
100
AcDbEntity
  8
0
  6
Continuous
 62
     7
370
    25
100
AcDbLine
 10
16.4527224855
 20
21.9473307752
 30
0.0
 11
16.4855480088
 21
21.9145052519
 31
0.0
  0
LINE
  5
508
330
1F
100
AcDbEntity
  8
0
  6
Continuous
 62
     7
370
    25
100
AcDbLine
 10
9.4855480088
 20
21.9145052519
 30
0.0
 11
16.4855480088
 21
21.9145052519
 31
0.0
  0
LINE
  5
509
330
1F
100
AcDbEntity
  8
0
  6
Continuous
 62
     7
370
    25
100
AcDbLine
 10
16.4855480088
 20
21.9145052519
 30
0.0
 11
16.4855480088
 21
28.9145052519
 31
0.0
  0
LINE
  5
50A
330
1F
100
AcDbEntity
  8
0
  6
Continuous
 62
     7
370
    25
100
AcDbLine
 10
9.7355327983
 20
22.1644900413
 30
0.0
 11
9.7205480088
 21
22.1495052519
 31
0.0
  0
LINE
  5
50B
330
1F
100
AcDbEntity
  8
0
  6
Continuous
 62
     7
370
    25
100
AcDbLine
 10
9.7355327983
 20
28.6645204624
 30
0.0
 11
9.7205480088
 21
28.6795052519
 31
0.0
  0
LINE
  5
50C
330
1F
100
AcDbEntity
  8
0
  6
Continuous
 62
     7
370
    25
100
AcDbLine
 10
16.2505480088
 20
28.6795052519
 30
0.0
 11
16.2355632194
 21
28.6645204624
 31
0.0
  0
LINE
  5
50D
330
1F
100
AcDbEntity
  8
0
  6
Continuous
 62
     7
370
    25
100
AcDbLine
 10
16.2505480088
 20
22.1495052519
 30
0.0
 11
16.2355632194
 21
22.1644900413
 31
0.0
  0
ARC
  5
50E
330
1F
100
AcDbEntity
  8
0
  6
Continuous
 62
     7
370
    25
100
AcDbCircle
 10
12.9855480088
 20
25.4145052519
 30
0.0
 40
2.9375
100
AcDbArc
 50
193.2274382684
 51
196.4382009834
  0
ARC
  5
50F
330
1F
100
AcDbEntity
  8
0
  6
Continuous
 62
     7
370
    25
100
AcDbCircle
 10
12.9855480088
 20
25.4145052519
 30
0.0
 40
2.9375
100
AcDbArc
 50
202.8445768816
 51
218.5653264911
  0
ARC
  5
510
330
1F
100
AcDbEntity
  8
0
  6
Continuous
 62
     7
370
    25
100
AcDbCircle
 10
12.9855480088
 20
25.4145052519
 30
0.0
 40
2.937500000000001
100
AcDbArc
 50
230.724944937
 51
246.5549067786
  0
LWPOLYLINE
  5
511
330
1F
100
AcDbEntity
  8
0
  6
Continuous
 62
     7
370
    25
100
AcDbPolyline
 90
        3
 70
   128
 43
0.0
 10
12.1259815384
 20
22.6055816621
 10
12.1512529337
 20
22.5979722807
 10
12.2026739352
 20
22.5832485636
  0
LINE
  5
512
330
1F
100
AcDbEntity
  8
0
  6
Continuous
 62
     7
370
    25
100
AcDbLine
 10
13.7684220824
 20
22.5832485636
 30
0.0
 11
13.8168046971
 21
22.5970740516
 31
0.0
  0
ARC
  5
513
330
1F
100
AcDbEntity
  8
0
  6
Continuous
 62
     7
370
    25
100
AcDbCircle
 10
12.9855480088
 20
25.4145052519
 30
0.0
 40
2.937500000000003
100
AcDbArc
 50
292.8445768816
 51
308.5653264911
  0
ARC
  5
514
330
1F
100
AcDbEntity
  8
0
  6
Continuous
 62
     7
370
    25
100
AcDbCircle
 10
12.9855480088
 20
25.4145052519
 30
0.0
 40
2.937500000000001
100
AcDbArc
 50
321.4346735089
 51
337.1554231184
  0
LINE
  5
515
330
1F
100
AcDbEntity
  8
0
  6
Continuous
 62
     7
370
    25
100
AcDbLine
 10
15.8029792091
 20
24.5832485636
 30
0.0
 11
15.8168046971
 21
24.6316311783
 31
0.0
  0
LWPOLYLINE
  5
516
330
1F
100
AcDbEntity
  8
0
  6
Continuous
 62
     7
370
    25
100
AcDbPolyline
 90
        3
 70
   128
 43
0.0
 10
15.8168046971
 20
26.1973793254
 10
15.80208098
 20
26.2488003269
 10
15.7944715986
 20
26.2740717222
  0
ARC
  5
517
330
1F
100
AcDbEntity
  8
0
  6
Continuous
 62
     7
370
    25
100
AcDbCircle
 10
12.9855480088
 20
25.4145052519
 30
0.0
 40
2.937500000000002
100
AcDbArc
 50
23.4450932214
 51
39.275055063
  0
ARC
  5
518
330
1F
100
AcDbEntity
  8
0
  6
Continuous
 62
     7
370
    25
100
AcDbCircle
 10
12.9855480088
 20
25.4145052519
 30
0.0
 40
2.9375
100
AcDbArc
 50
51.4346735089
 51
67.1554231184
  0
ARC
  5
519
330
1F
100
AcDbEntity
  8
0
  6
Continuous
 62
     7
370
    25
100
AcDbCircle
 10
12.9855480088
 20
25.4145052519
 30
0.0
 40
2.937500000000001
100
AcDbArc
 50
73.5617990166
 51
76.7725617316
  0
ARC
  5
51A
330
1F
100
AcDbEntity
  8
0
  6
Continuous
 62
     7
370
    25
100
AcDbCircle
 10
12.9855480088
 20
25.4145052519
 30
0.0
 40
2.937499999999998
100
AcDbArc
 50
103.2274382684
 51
107.0147793915
  0
ARC
  5
51B
330
1F
100
AcDbEntity
  8
0
  6
Continuous
 62
     7
370
    25
100
AcDbCircle
 10
12.9855480088
 20
25.4145052519
 30
0.0
 40
2.9375
100
AcDbArc
 50
113.4450932214
 51
129.275055063
  0
ARC
  5
51C
330
1F
100
AcDbEntity
  8
0
  6
Continuous
 62
     7
370
    25
100
AcDbCircle
 10
12.9855480088
 20
25.4145052519
 30
0.0
 40
2.937500000000001
100
AcDbArc
 50
140.724944937
 51
156.5549067786
  0
ARC
  5
51D
330
1F
100
AcDbEntity
  8
0
  6
Continuous
 62
     7
370
    25
100
AcDbCircle
 10
12.9855480088
 20
25.4145052519
 30
0.0
 40
2.9375
100
AcDbArc
 50
162.9852206085
 51
166.7725617316
  0
LINE
  5
51E
330
1F
100
AcDbEntity
  8
0
  6
Continuous
 62
     7
370
    25
100
AcDbLine
 10
15.3025345555
 20
26.6062981437
 30
0.0
 11
15.3026929138
 21
26.5832485636
 31
0.0
  0
LINE
  5
51F
330
1F
100
AcDbEntity
  8
0
  6
Continuous
 62
     7
370
    25
100
AcDbLine
 10
15.2547356836
 20
26.6059697494
 30
0.0
 11
15.2548917857
 21
26.5832485636
 31
0.0
  0
LINE
  5
520
330
1F
100
AcDbEntity
  8
0
  6
Continuous
 62
     7
370
    25
100
AcDbLine
 10
15.3085803079
 20
25.7263189116
 30
0.0
 11
15.260781436
 21
25.7259905173
 31
0.0
  0
LINE
  5
521
330
1F
100
AcDbEntity
  8
0
  6
Continuous
 62
     7
370
    25
100
AcDbLine
 10
15.2570159343
 20
26.2740717222
 30
0.0
 11
15.260781436
 21
25.7259905173
 31
0.0
  0
LINE
  5
522
330
1F
100
AcDbEntity
  8
0
  6
Continuous
 62
     7
370
    25
100
AcDbLine
 10
15.3048170624
 20
26.2740717222
 30
0.0
 11
15.3085803079
 21
25.7263189116
 31
0.0
  0
LINE
  5
523
330
1F
100
AcDbEntity
  8
0
  6
Continuous
 62
     7
370
    25
100
AcDbLine
 10
15.260781436
 20
25.7259905173
 30
0.0
 11
15.2617621211
 21
25.5832485636
 31
0.0
  0
LINE
  5
524
330
1F
100
AcDbEntity
  8
0
  6
Continuous
 62
     7
370
    25
100
AcDbLine
 10
15.3085803079
 20
25.7263189116
 30
0.0
 11
15.3095632492
 21
25.5832485636
 31
0.0
  0
LINE
  5
525
330
1F
100
AcDbEntity
  8
0
  6
Continuous
 62
     7
370
    25
100
AcDbLine
 10
14.3129234806
 20
27.2740717222
 30
0.0
 11
14.3176696674
 21
26.5832485636
 31
0.0
  0
LINE
  5
526
330
1F
100
AcDbEntity
  8
0
  6
Continuous
 62
     7
370
    25
100
AcDbLine
 10
14.319793816
 20
26.2740717222
 30
0.0
 11
14.3245400027
 21
25.5832485636
 31
0.0
  0
LINE
  5
527
330
1F
100
AcDbEntity
  8
0
  6
Continuous
 62
     7
370
    25
100
AcDbLine
 10
14.3266641513
 20
25.2740717222
 30
0.0
 11
14.3274336754
 21
25.1620649479
 31
0.0
  0
LINE
  5
528
330
1F
100
AcDbEntity
  8
0
  6
Continuous
 62
     7
370
    25
100
AcDbLine
 10
14.2171362785
 20
25.1613071678
 30
0.0
 11
14.3274336754
 21
25.1620649479
 31
0.0
  0
LINE
  5
529
330
1F
100
AcDbEntity
  8
0
  6
Continuous
 62
     7
370
    25
100
AcDbLine
 10
14.2171362785
 20
25.1613071678
 30
0.0
 11
14.2178940586
 21
25.0510097709
 31
0.0
  0
LINE
  5
52A
330
1F
100
AcDbEntity
  8
0
  6
Continuous
 62
     7
370
    25
100
AcDbLine
 10
14.3835257639
 20
26.0949723268
 30
0.0
 11
14.3210272389
 21
26.094542941
 31
0.0
  0
LINE
  5
52B
330
1F
100
AcDbEntity
  8
0
  6
Continuous
 62
     7
370
    25
100
AcDbLine
 10
15.2582051211
 20
26.1009816674
 30
0.0
 11
15.195706596
 21
26.1005522815
 31
0.0
  0
LINE
  5
52C
330
1F
100
AcDbEntity
  8
0
  6
Continuous
 62
     7
370
    25
100
AcDbLine
 10
14.3835257639
 20
26.0949723268
 30
0.0
 11
14.8168046971
 21
26.0979490984
 31
0.0
  0
LINE
  5
52D
330
1F
100
AcDbEntity
  8
0
  6
Continuous
 62
     7
370
    25
100
AcDbLine
 10
15.1259815384
 20
26.100073247
 30
0.0
 11
15.195706596
 21
26.1005522815
 31
0.0
  0
LINE
  5
52E
330
1F
100
AcDbEntity
  8
0
  6
Continuous
 62
     7
370
    25
100
AcDbLine
 10
11.1259815384
 20
26.0725919056
 30
0.0
 11
11.8168046971
 21
26.0773380923
 31
0.0
  0
LINE
  5
52F
330
1F
100
AcDbEntity
  8
0
  6
Continuous
 62
     7
370
    25
100
AcDbLine
 10
14.3456751574
 20
26.7286349774
 30
0.0
 11
14.3492805983
 21
26.7193075557
 31
0.0
  0
LINE
  5
530
330
1F
100
AcDbEntity
  8
0
  6
Continuous
 62
     7
370
    25
100
AcDbLine
 10
14.316747636
 20
26.7174532734
 30
0.0
 11
14.3456751574
 21
26.7286349774
 31
0.0
  0
LINE
  5
531
330
1F
100
AcDbEntity
  8
0
  6
Continuous
 62
     7
370
    25
100
AcDbLine
 10
14.3168210983
 20
26.7067605934
 30
0.0
 11
14.3492805983
 21
26.7193075557
 31
0.0
  0
LINE
  5
532
330
1F
100
AcDbEntity
  8
0
  6
Continuous
 62
     7
370
    25
100
AcDbLine
 10
14.1259815384
 20
26.8961743903
 30
0.0
 11
14.1501012758
 21
26.848513058
 31
0.0
  0
LINE
  5
533
330
1F
100
AcDbEntity
  8
0
  6
Continuous
 62
     7
370
    25
100
AcDbLine
 10
12.235686277
 20
27.0628254758
 30
0.0
 11
12.2364925435
 21
27.0640595714
 31
0.0
  0
LINE
  5
534
330
1F
100
AcDbEntity
  8
0
  6
Continuous
 62
     7
370
    25
100
AcDbLine
 10
12.1671400267
 20
26.9579065289
 30
0.0
 11
12.235686277
 21
27.0628254758
 31
0.0
  0
ARC
  5
535
330
1F
100
AcDbEntity
  8
0
  6
Continuous
 62
     7
370
    25
100
AcDbCircle
 10
13.1310739909
 20
26.4038750563
 30
0.0
 40
1.08
100
AcDbArc
 50
9.5603619682
 51
22.8962764353
  0
LWPOLYLINE
  5
536
330
1F
100
AcDbEntity
  8
0
  6
Continuous
 62
     7
370
    25
100
AcDbPolyline
 90
        3
 70
   128
 43
0.0
 10
13.8168046971
 20
27.2382451172
 10
13.7951398469
 20
27.2555889395
 10
13.7707283996
 20
27.2740717222
  0
ARC
  5
537
330
1F
100
AcDbEntity
  8
0
  6
Continuous
 62
     7
370
    25
100
AcDbCircle
 10
13.1310739909
 20
26.4038750563
 30
0.0
 40
1.08
100
AcDbArc
 50
126.318445233
 51
158.5349815919
  0
ARC
  5
538
330
1F
100
AcDbEntity
  8
0
  6
Continuous
 62
     7
370
    25
100
AcDbCircle
 10
13.1310739909
 20
26.4038750563
 30
0.0
 40
1.08
100
AcDbArc
 50
201.4650184081
 51
229.4500369534
  0
ARC
  5
539
330
1F
100
AcDbEntity
  8
0
  6
Continuous
 62
     7
370
    25
100
AcDbCircle
 10
13.1310739909
 20
26.4038750563
 30
0.0
 40
1.080000000000001
100
AcDbArc
 50
337.1037235647
 51
353.0970315728
  0
LINE
  5
53A
330
1F
100
AcDbEntity
  8
0
  6
Continuous
 62
     7
370
    25
100
AcDbLine
 10
14.2026208775
 20
27.2740717222
 30
0.0
 11
14.2067167394
 21
26.677905488
 31
0.0
  0
LINE
  5
53B
330
1F
100
AcDbEntity
  8
0
  6
Continuous
 62
     7
370
    25
100
AcDbLine
 10
14.2103803845
 20
26.1446498479
 30
0.0
 11
14.2142373996
 21
25.5832485636
 31
0.0
  0
LINE
  5
53C
330
1F
100
AcDbEntity
  8
0
  6
Continuous
 62
     7
370
    25
100
AcDbLine
 10
14.2163615482
 20
25.2740717222
 30
0.0
 11
14.2171362785
 21
25.1613071678
 31
0.0
  0
LINE
  5
53D
330
1F
100
AcDbEntity
  8
0
  6
Continuous
 62
     7
370
    25
100
AcDbLine
 10
14.2171362785
 20
25.1613071678
 30
0.0
 11
14.1259815384
 21
25.1606809042
 31
0.0
  0
LINE
  5
53E
330
1F
100
AcDbEntity
  8
0
  6
Continuous
 62
     7
370
    25
100
AcDbLine
 10
13.8168046971
 20
25.1585567556
 30
0.0
 11
13.1259815384
 21
25.1538105688
 31
0.0
  0
LINE
  5
53F
330
1F
100
AcDbEntity
  8
0
  6
Continuous
 62
     7
370
    25
100
AcDbLine
 10
12.8168046971
 20
25.1516864203
 30
0.0
 11
12.1259815384
 21
25.1469402335
 31
0.0
  0
LINE
  5
540
330
1F
100
AcDbEntity
  8
0
  6
Continuous
 62
     7
370
    25
100
AcDbLine
 10
14.3870414778
 20
25.5832485636
 30
0.0
 11
14.3835257639
 21
26.0949723268
 31
0.0
  0
LINE
  5
541
330
1F
100
AcDbEntity
  8
0
  6
Continuous
 62
     7
370
    25
100
AcDbLine
 10
15.195706596
 20
26.1005522815
 30
0.0
 11
15.1992606461
 21
25.5832485636
 31
0.0
  0
DIMENSION
  5
542
330
1F
100
AcDbEntity
  8
0
  6
Continuous
 62
     7
370
    18
100
AcDbDimension
  2
_D_3
 10
9.4855480088
 20
30.8956226902
 30
0.0
 11
12.9855480088
 21
30.8956226902
 31
0.0
 70
   160
  1
<>
 71
     2
 42
-1.0
  3
SLDDIMSTYLE2
100
AcDbAlignedDimension
 13
16.4855480088
 23
28.9145052519
 33
0.0
 14
9.4855480088
 24
28.9145052519
 34
0.0
 50
0.0
100
AcDbRotatedDimension
  0
DIMENSION
  5
557
330
1F
100
AcDbEntity
  8
0
  6
Continuous
 62
     7
370
    18
100
AcDbDimension
  2
_D_4
 10
6.7625037891
 20
21.9145052519
 30
0.0
 11
6.7625037891
 21
25.4145052519
 31
0.0
 70
   160
  1
<>
 71
     2
 42
-1.0
  3
SLDDIMSTYLE2
100
AcDbAlignedDimension
 13
9.4855480088
 23
28.9145052519
 33
0.0
 14
9.4855480088
 24
21.9145052519
 34
0.0
 50
90.0
100
AcDbRotatedDimension
  0
ENDSEC
  0
SECTION
  2
OBJECTS
  0
DICTIONARY
  5
C
330
0
100
AcDbDictionary
281
     1
  3
ACAD_GROUP
350
D
  3
ACAD_LAYOUT
350
1A
  3
ACAD_MLINESTYLE
350
17
  3
ACAD_PLOTSETTINGS
350
19
  3
ACAD_PLOTSTYLENAME
350
E
  3
ACAD_SCALELIST
350
47
  3
DWGPROPS
350
56B
  0
DICTIONARY
  5
D
102
{ACAD_REACTORS
330
C
102
}
330
C
100
AcDbDictionary
281
     1
  0
DICTIONARY
  5
1A
102
{ACAD_REACTORS
330
C
102
}
330
C
100
AcDbDictionary
281
     1
  3
Layout1
350
1E
  3
Layout2
350
26
  3
Model
350
22
  0
DICTIONARY
  5
17
102
{ACAD_REACTORS
330
C
102
}
330
C
100
AcDbDictionary
281
     1
  3
Standard
350
18
  0
DICTIONARY
  5
19
102
{ACAD_REACTORS
330
C
102
}
330
C
100
AcDbDictionary
281
     1
  0
ACDBDICTIONARYWDFLT
  5
E
102
{ACAD_REACTORS
330
C
102
}
330
C
100
AcDbDictionary
281
     1
  3
Normal
350
F
100
AcDbDictionaryWithDefault
340
F
  0
DICTIONARY
  5
47
102
{ACAD_REACTORS
330
C
102
}
330
C
100
AcDbDictionary
281
     1
  3
A0
350
48
  3
A1
350
49
  3
A2
350
4A
  3
A3
350
4B
  3
A4
350
4C
  3
A5
350
4D
  3
A6
350
4E
  3
A7
350
4F
  3
A8
350
50
  3
A9
350
51
  3
B1
350
52
  3
B2
350
53
  3
B3
350
54
  3
B4
350
55
  3
B5
350
56
  3
B6
350
57
  3
B7
350
58
  0
XRECORD
  5
56B
102
{ACAD_REACTORS
330
C
102
}
330
C
100
AcDbXrecord
280
     1
  1
DWGPROPS COOKIE
  2

  3

  4

  6

  7

  8
stevend
  9

300
=
301
=
302
=
303
=
304
=
305
=
306
=
307
=
308
=
309
=
 40
0.0
 41
2460508.159465787
 42
2460508.159466783
  1

 90
        0
  0
LAYOUT
  5
1E
102
{ACAD_REACTORS
330
1A
102
}
330
1A
100
AcDbPlotSettings
  1

  2
none_device
  4

  6

 40
0.0
 41
0.0
 42
0.0
 43
0.0
 44
0.0
 45
0.0
 46
0.0
 47
0.0
 48
0.0
 49
0.0
140
0.0
141
0.0
142
1.0
143
1.0
 70
   688
 72
     0
 73
     0
 74
     5
  7

 75
    16
147
1.0
148
0.0
149
0.0
100
AcDbLayout
  1
Layout1
 70
     1
 71
     1
 10
0.0
 20
0.0
 11
12.0
 21
9.0
 12
0.0
 22
0.0
 32
0.0
 14
1.0000000000E+20
 24
1.0000000000E+20
 34
1.0000000000E+20
 15
-1.0000000000E+20
 25
-1.0000000000E+20
 35
-1.0000000000E+20
146
0.0
 13
0.0
 23
0.0
 33
0.0
 16
1.0
 26
0.0
 36
0.0
 17
0.0
 27
1.0
 37
0.0
 76
     0
330
1B
  0
LAYOUT
  5
26
102
{ACAD_REACTORS
330
1A
102
}
330
1A
100
AcDbPlotSettings
  1

  2
none_device
  4

  6

 40
0.0
 41
0.0
 42
0.0
 43
0.0
 44
0.0
 45
0.0
 46
0.0
 47
0.0
 48
0.0
 49
0.0
140
0.0
141
0.0
142
1.0
143
1.0
 70
   688
 72
     0
 73
     0
 74
     5
  7

 75
    16
147
1.0
148
0.0
149
0.0
100
AcDbLayout
  1
Layout2
 70
     1
 71
     2
 10
0.0
 20
0.0
 11
0.0
 21
0.0
 12
0.0
 22
0.0
 32
0.0
 14
0.0
 24
0.0
 34
0.0
 15
0.0
 25
0.0
 35
0.0
146
0.0
 13
0.0
 23
0.0
 33
0.0
 16
1.0
 26
0.0
 36
0.0
 17
0.0
 27
1.0
 37
0.0
 76
     0
330
23
  0
LAYOUT
  5
22
102
{ACAD_REACTORS
330
1A
102
}
330
1A
100
AcDbPlotSettings
  1

  2
none_device
  4
Letter_(8.50_x_11.00_Inches)
  6

 40
6.35
 41
6.35
 42
6.35000508
 43
6.35000508
 44
215.9
 45
279.4
 46
0.0
 47
0.0
 48
0.0
 49
0.0
140
0.0
141
0.0
142
1.0
143
1.0
 70
  1712
 72
     0
 73
     0
 74
     0
  7

 75
     0
147
1.0
148
0.0
149
0.0
100
AcDbLayout
  1
Model
 70
     1
 71
     0
 10
0.0
 20
0.0
 11
44.0
 21
34.0
 12
0.0
 22
0.0
 32
0.0
 14
0.0
 24
0.0
 34
0.0
 15
44.0
 25
34.0
 35
0.0
146
0.0
 13
0.0
 23
0.0
 33
0.0
 16
1.0
 26
0.0
 36
0.0
 17
0.0
 27
1.0
 37
0.0
 76
     0
330
1F
331
29
  0
MLINESTYLE
  5
18
102
{ACAD_REACTORS
330
17
102
}
330
17
100
AcDbMlineStyle
  2
Standard
 70
     0
  3

 62
   256
 51
90.0
 52
90.0
 71
     2
 49
0.5
 62
   256
  6
BYLAYER
 49
-0.5
 62
   256
  6
BYLAYER
  0
ACDBPLACEHOLDER
  5
F
102
{ACAD_REACTORS
330
E
102
}
330
E
  0
SCALE
  5
48
102
{ACAD_REACTORS
330
47
102
}
330
47
100
AcDbScale
 70
     0
300
1:1
140
1.0
141
1.0
290
     1
  0
SCALE
  5
49
102
{ACAD_REACTORS
330
47
102
}
330
47
100
AcDbScale
 70
     0
300
1/128" = 1'-0"
140
0.0078125
141
12.0
290
     0
  0
SCALE
  5
4A
102
{ACAD_REACTORS
330
47
102
}
330
47
100
AcDbScale
 70
     0
300
1/64" = 1'-0"
140
0.015625
141
12.0
290
     0
  0
SCALE
  5
4B
102
{ACAD_REACTORS
330
47
102
}
330
47
100
AcDbScale
 70
     0
300
1/32" = 1'-0"
140
0.03125
141
12.0
290
     0
  0
SCALE
  5
4C
102
{ACAD_REACTORS
330
47
102
}
330
47
100
AcDbScale
 70
     0
300
1/16" = 1'-0"
140
0.0625
141
12.0
290
     0
  0
SCALE
  5
4D
102
{ACAD_REACTORS
330
47
102
}
330
47
100
AcDbScale
 70
     0
300
3/32" = 1'-0"
140
0.09375
141
12.0
290
     0
  0
SCALE
  5
4E
102
{ACAD_REACTORS
330
47
102
}
330
47
100
AcDbScale
 70
     0
300
1/8" = 1'-0"
140
0.125
141
12.0
290
     0
  0
SCALE
  5
4F
102
{ACAD_REACTORS
330
47
102
}
330
47
100
AcDbScale
 70
     0
300
3/16" = 1'-0"
140
0.1875
141
12.0
290
     0
  0
SCALE
  5
50
102
{ACAD_REACTORS
330
47
102
}
330
47
100
AcDbScale
 70
     0
300
1/4" = 1'-0"
140
0.25
141
12.0
290
     0
  0
SCALE
  5
51
102
{ACAD_REACTORS
330
47
102
}
330
47
100
AcDbScale
 70
     0
300
3/8" = 1'-0"
140
0.375
141
12.0
290
     0
  0
SCALE
  5
52
102
{ACAD_REACTORS
330
47
102
}
330
47
100
AcDbScale
 70
     0
300
1/2" = 1'-0"
140
0.5
141
12.0
290
     0
  0
SCALE
  5
53
102
{ACAD_REACTORS
330
47
102
}
330
47
100
AcDbScale
 70
     0
300
3/4" = 1'-0"
140
0.75
141
12.0
290
     0
  0
SCALE
  5
54
102
{ACAD_REACTORS
330
47
102
}
330
47
100
AcDbScale
 70
     0
300
1" = 1'-0"
140
1.0
141
12.0
290
     0
  0
SCALE
  5
55
102
{ACAD_REACTORS
330
47
102
}
330
47
100
AcDbScale
 70
     0
300
1-1/2" = 1'-0"
140
1.5
141
12.0
290
     0
  0
SCALE
  5
56
102
{ACAD_REACTORS
330
47
102
}
330
47
100
AcDbScale
 70
     0
300
3" = 1'-0"
140
3.0
141
12.0
290
     0
  0
SCALE
  5
57
102
{ACAD_REACTORS
330
47
102
}
330
47
100
AcDbScale
 70
     0
300
6" = 1'-0"
140
6.0
141
12.0
290
     0
  0
SCALE
  5
58
102
{ACAD_REACTORS
330
47
102
}
330
47
100
AcDbScale
 70
     0
300
1'-0" = 1'-0"
140
12.0
141
12.0
290
     0
  0
ENDSEC
  0
EOF
