  0
SECTION
  2
HEADER
  9
$ACADVER
  1
AC1015
  9
$ACADMAINTVER
 70
     6
  9
$DWGCODEPAGE
  3
ANSI_1252
  9
$INSBASE
 10
0.0
 20
0.0
 30
0.0
  9
$EXTMIN
 10
0.0
 20
0.0
 30
0.0
  9
$EXTMAX
 10
88.0
 20
68.0
 30
0.0
  9
$LIMMIN
 10
0.0
 20
0.0
  9
$LIMMAX
 10
88.0
 20
68.0
  9
$ORTHOMODE
 70
     0
  9
$REGENMODE
 70
     1
  9
$FILLMODE
 70
     1
  9
$QTEXTMODE
 70
     0
  9
$MIRRTEXT
 70
     1
  9
$LTSCALE
 40
8.0
  9
$ATTMODE
 70
     1
  9
$TEXTSIZE
 40
1.0
  9
$TRACEWID
 40
0.05
  9
$TEXTSTYLE
  7
Standard
  9
$CLAYER
  8
0
  9
$CELTYPE
  6
ByLayer
  9
$CECOLOR
 62
   256
  9
$CELTSCALE
 40
1.0
  9
$DISPSILH
 70
     0
  9
$DIMSCALE
 40
1.0
  9
$DIMASZ
 40
1.04
  9
$DIMEXO
 40
1.2
  9
$DIMDLI
 40
0.38
  9
$DIMRND
 40
0.0
  9
$DIMDLE
 40
0.0
  9
$DIMEXE
 40
0.8
  9
$DIMTP
 40
0.0
  9
$DIMTM
 40
0.0
  9
$DIMTXT
 40
1.0
  9
$DIMCEN
 40
0.09
  9
$DIMTSZ
 40
0.0
  9
$DIMTOL
 70
     0
  9
$DIMLIM
 70
     0
  9
$DIMTIH
 70
     1
  9
$DIMTOH
 70
     1
  9
$DIMSE1
 70
     0
  9
$DIMSE2
 70
     0
  9
$DIMTAD
 70
     0
  9
$DIMZIN
 70
     0
  9
$DIMBLK
  1

  9
$DIMASO
 70
     1
  9
$DIMSHO
 70
     1
  9
$DIMPOST
  1

  9
$DIMAPOST
  1

  9
$DIMALT
 70
     0
  9
$DIMALTD
 70
     2
  9
$DIMALTF
 40
25.4
  9
$DIMLFAC
 40
1.0
  9
$DIMTOFL
 70
     0
  9
$DIMTVP
 40
0.0
  9
$DIMTIX
 70
     0
  9
$DIMSOXD
 70
     0
  9
$DIMSAH
 70
     0
  9
$DIMBLK1
  1

  9
$DIMBLK2
  1

  9
$DIMSTYLE
  2
Standard
  9
$DIMCLRD
 70
     0
  9
$DIMCLRE
 70
     0
  9
$DIMCLRT
 70
     0
  9
$DIMTFAC
 40
1.0
  9
$DIMGAP
 40
0.48
  9
$DIMJUST
 70
     0
  9
$DIMSD1
 70
     0
  9
$DIMSD2
 70
     0
  9
$DIMTOLJ
 70
     1
  9
$DIMTZIN
 70
     0
  9
$DIMALTZ
 70
     0
  9
$DIMALTTZ
 70
     0
  9
$DIMUPT
 70
     0
  9
$DIMDEC
 70
     2
  9
$DIMTDEC
 70
     2
  9
$DIMALTU
 70
     2
  9
$DIMALTTD
 70
     2
  9
$DIMTXSTY
  7
Standard
  9
$DIMAUNIT
 70
     0
  9
$DIMADEC
 70
     0
  9
$DIMALTRND
 40
0.0
  9
$DIMAZIN
 70
     0
  9
$DIMDSEP
 70
    46
  9
$DIMATFIT
 70
     3
  9
$DIMFRAC
 70
     0
  9
$DIMLDRBLK
  1

  9
$DIMLUNIT
 70
     2
  9
$DIMLWD
 70
    -2
  9
$DIMLWE
 70
    -2
  9
$DIMTMOVE
 70
     0
  9
$LUNITS
 70
     2
  9
$LUPREC
 70
     2
  9
$SKETCHINC
 40
0.1
  9
$FILLETRAD
 40
0.0
  9
$AUNITS
 70
     0
  9
$AUPREC
 70
     0
  9
$MENU
  1
.
  9
$ELEVATION
 40
0.0
  9
$PELEVATION
 40
0.0
  9
$THICKNESS
 40
0.0
  9
$LIMCHECK
 70
     0
  9
$CHAMFERA
 40
0.0
  9
$CHAMFERB
 40
0.0
  9
$CHAMFERC
 40
0.0
  9
$CHAMFERD
 40
0.0
  9
$SKPOLY
 70
     0
  9
$TDCREATE
 40
2460566.32313875
  9
$TDUCREATE
 40
2460566.614805417
  9
$TDUPDATE
 40
2460566.323139248
  9
$TDUUPDATE
 40
2460566.614805915
  9
$TDINDWG
 40
0.0000000116
  9
$TDUSRTIMER
 40
0.0000000116
  9
$USRTIMER
 70
     1
  9
$ANGBASE
 50
0.0
  9
$ANGDIR
 70
     0
  9
$PDMODE
 70
     0
  9
$PDSIZE
 40
-1.0
  9
$PLINEWID
 40
0.0
  9
$SPLFRAME
 70
     0
  9
$SPLINETYPE
 70
     6
  9
$SPLINESEGS
 70
     8
  9
$HANDSEED
  5
291
  9
$SURFTAB1
 70
     6
  9
$SURFTAB2
 70
     6
  9
$SURFTYPE
 70
     6
  9
$SURFU
 70
     6
  9
$SURFV
 70
     6
  9
$UCSBASE
  2

  9
$UCSNAME
  2

  9
$UCSORG
 10
0.0
 20
0.0
 30
0.0
  9
$UCSXDIR
 10
1.0
 20
0.0
 30
0.0
  9
$UCSYDIR
 10
0.0
 20
1.0
 30
0.0
  9
$UCSORTHOREF
  2

  9
$UCSORTHOVIEW
 70
     0
  9
$UCSORGTOP
 10
0.0
 20
0.0
 30
0.0
  9
$UCSORGBOTTOM
 10
0.0
 20
0.0
 30
0.0
  9
$UCSORGLEFT
 10
0.0
 20
0.0
 30
0.0
  9
$UCSORGRIGHT
 10
0.0
 20
0.0
 30
0.0
  9
$UCSORGFRONT
 10
0.0
 20
0.0
 30
0.0
  9
$UCSORGBACK
 10
0.0
 20
0.0
 30
0.0
  9
$PUCSBASE
  2

  9
$PUCSNAME
  2

  9
$PUCSORG
 10
0.0
 20
0.0
 30
0.0
  9
$PUCSXDIR
 10
1.0
 20
0.0
 30
0.0
  9
$PUCSYDIR
 10
0.0
 20
1.0
 30
0.0
  9
$PUCSORTHOREF
  2

  9
$PUCSORTHOVIEW
 70
     0
  9
$PUCSORGTOP
 10
0.0
 20
0.0
 30
0.0
  9
$PUCSORGBOTTOM
 10
0.0
 20
0.0
 30
0.0
  9
$PUCSORGLEFT
 10
0.0
 20
0.0
 30
0.0
  9
$PUCSORGRIGHT
 10
0.0
 20
0.0
 30
0.0
  9
$PUCSORGFRONT
 10
0.0
 20
0.0
 30
0.0
  9
$PUCSORGBACK
 10
0.0
 20
0.0
 30
0.0
  9
$USERI1
 70
     0
  9
$USERI2
 70
     0
  9
$USERI3
 70
     0
  9
$USERI4
 70
     0
  9
$USERI5
 70
     0
  9
$USERR1
 40
0.0
  9
$USERR2
 40
0.0
  9
$USERR3
 40
0.0
  9
$USERR4
 40
0.0
  9
$USERR5
 40
0.0
  9
$WORLDVIEW
 70
     1
  9
$SHADEDGE
 70
     3
  9
$SHADEDIF
 70
    70
  9
$TILEMODE
 70
     1
  9
$MAXACTVP
 70
    64
  9
$PINSBASE
 10
0.0
 20
0.0
 30
0.0
  9
$PLIMCHECK
 70
     0
  9
$PEXTMIN
 10
1.0000000000E+20
 20
1.0000000000E+20
 30
1.0000000000E+20
  9
$PEXTMAX
 10
-1.0000000000E+20
 20
-1.0000000000E+20
 30
-1.0000000000E+20
  9
$PLIMMIN
 10
0.0
 20
0.0
  9
$PLIMMAX
 10
12.0
 20
9.0
  9
$UNITMODE
 70
     0
  9
$VISRETAIN
 70
     1
  9
$PLINEGEN
 70
     0
  9
$PSLTSCALE
 70
     1
  9
$TREEDEPTH
 70
  3020
  9
$CMLSTYLE
  2
Standard
  9
$CMLJUST
 70
     0
  9
$CMLSCALE
 40
1.0
  9
$PROXYGRAPHICS
 70
     1
  9
$MEASUREMENT
 70
     0
  9
$CELWEIGHT
370
    -1
  9
$ENDCAPS
280
     0
  9
$JOINSTYLE
280
     0
  9
$LWDISPLAY
290
     1
  9
$INSUNITS
 70
     1
  9
$HYPERLINKBASE
  1

  9
$STYLESHEET
  1

  9
$XEDIT
290
     1
  9
$CEPSNTYPE
380
     0
  9
$PSTYLEMODE
290
     1
  9
$FINGERPRINTGUID
  2
{3c1a6a93-8fac-41fb-8a68-5c4344a4ca29}
  9
$VERSIONGUID
  2
{FAEB1C32-E019-11D5-929B-00C0DF256EC4}
  9
$EXTNAMES
290
     1
  9
$PSVPSCALE
 40
0.0
  9
$OLESTARTUP
290
     0
  0
ENDSEC
  0
SECTION
  2
CLASSES
  0
CLASS
  1
ACDBDICTIONARYWDFLT
  2
AcDbDictionaryWithDefault
  3
ObjectDBX Classes
 90
        0
280
     0
281
     0
  0
CLASS
  1
VISUALSTYLE
  2
AcDbVisualStyle
  3
ObjectDBX Classes
 90
     4095
280
     0
281
     0
  0
CLASS
  1
MATERIAL
  2
AcDbMaterial
  3
ObjectDBX Classes
 90
     1153
280
     0
281
     0
  0
CLASS
  1
SCALE
  2
AcDbScale
  3
ObjectDBX Classes
 90
     1153
280
     0
281
     0
  0
CLASS
  1
TABLESTYLE
  2
AcDbTableStyle
  3
ObjectDBX Classes
 90
     4095
280
     0
281
     0
  0
CLASS
  1
MLEADERSTYLE
  2
AcDbMLeaderStyle
  3
ACDB_MLEADERSTYLE_CLASS
 90
     4095
280
     0
281
     0
  0
CLASS
  1
SUN
  2
AcDbSun
  3
SCENEOE
 90
     1153
280
     0
281
     0
  0
CLASS
  1
ACDBPLACEHOLDER
  2
AcDbPlaceHolder
  3
ObjectDBX Classes
 90
        0
280
     0
281
     0
  0
CLASS
  1
LAYOUT
  2
AcDbLayout
  3
ObjectDBX Classes
 90
        0
280
     0
281
     0
  0
ENDSEC
  0
SECTION
  2
TABLES
  0
TABLE
  2
VPORT
  5
8
330
0
100
AcDbSymbolTable
 70
     1
  0
VPORT
  5
29
330
8
100
AcDbSymbolTableRecord
100
AcDbViewportTableRecord
  2
*Active
 70
     0
 10
0.0
 20
0.0
 11
1.0
 21
1.0
 12
44.0
 22
34.0
 13
0.0
 23
0.0
 14
0.5
 24
0.5
 15
0.5
 25
0.5
 16
0.0
 26
0.0
 36
1.0
 17
0.0
 27
0.0
 37
0.0
 40
68.0
 41
1.2941176471
 42
50.0
 43
0.0
 44
0.0
 50
0.0
 51
0.0
 71
     0
 72
  2000
 73
     1
 74
     3
 75
     0
 76
     0
 77
     0
 78
     0
281
     0
 65
     1
110
0.0
120
0.0
130
0.0
111
1.0
121
0.0
131
0.0
112
0.0
122
1.0
132
0.0
 79
     0
146
0.0
  0
ENDTAB
  0
TABLE
  2
LTYPE
  5
5
330
0
100
AcDbSymbolTable
 70
     6
  0
LTYPE
  5
14
330
5
100
AcDbSymbolTableRecord
100
AcDbLinetypeTableRecord
  2
ByBlock
 70
     0
  3

 72
    65
 73
     0
 40
0.0
  0
LTYPE
  5
15
330
5
100
AcDbSymbolTableRecord
100
AcDbLinetypeTableRecord
  2
ByLayer
 70
     0
  3

 72
    65
 73
     0
 40
0.0
  0
LTYPE
  5
16
330
5
100
AcDbSymbolTableRecord
100
AcDbLinetypeTableRecord
  2
Continuous
 70
     0
  3
Solid line
 72
    65
 73
     0
 40
0.0
  0
LTYPE
  5
5E
330
5
100
AcDbSymbolTableRecord
100
AcDbLinetypeTableRecord
  2
HIDDEN
 70
     0
  3
Hidden __ __ __ __ __ __ __ __ __ __ __ __ __ __
 72
    65
 73
     2
 40
0.075
 49
0.05
 74
     0
 49
-0.025
 74
     0
  0
LTYPE
  5
5F
330
5
100
AcDbSymbolTableRecord
100
AcDbLinetypeTableRecord
  2
PHANTOM
 70
     0
  3
Phantom ______  __  __  ______  __  __  ______
 72
    65
 73
     6
 40
0.5
 49
0.25
 74
     0
 49
-0.05
 74
     0
 49
0.05
 74
     0
 49
-0.05
 74
     0
 49
0.05
 74
     0
 49
-0.05
 74
     0
  0
LTYPE
  5
60
330
5
100
AcDbSymbolTableRecord
100
AcDbLinetypeTableRecord
  2
CENTER
 70
     0
  3
Center ____ _ ____ _ ____ _ ____ _ ____ _ ____
 72
    65
 73
     4
 40
0.4
 49
0.25
 74
     0
 49
-0.05
 74
     0
 49
0.05
 74
     0
 49
-0.05
 74
     0
  0
LTYPE
  5
61
330
5
100
AcDbSymbolTableRecord
100
AcDbLinetypeTableRecord
  2
CENTERX2
 70
     0
  3
Center (2x) ________  __  ________  __  _____
 72
    65
 73
     4
 40
0.8
 49
0.5
 74
     0
 49
-0.1
 74
     0
 49
0.1
 74
     0
 49
-0.1
 74
     0
  0
LTYPE
  5
62
330
5
100
AcDbSymbolTableRecord
100
AcDbLinetypeTableRecord
  2
DOT2
 70
     0
  3
Dot (.5x) ........................................
 72
    65
 73
     2
 40
0.025
 49
0.0
 74
     0
 49
-0.025
 74
     0
  0
ENDTAB
  0
TABLE
  2
LAYER
  5
2
330
0
100
AcDbSymbolTable
 70
    12
  0
LAYER
  5
10
330
2
100
AcDbSymbolTableRecord
100
AcDbLayerTableRecord
  2
0
 70
     0
 62
     7
  6
Continuous
370
    -3
390
F
  0
LAYER
  5
63
330
2
100
AcDbSymbolTableRecord
100
AcDbLayerTableRecord
  2
SLD-0
 70
     0
 62
     7
  6
Continuous
370
    -3
390
F
  0
LAYER
  5
64
330
2
100
AcDbSymbolTableRecord
100
AcDbLayerTableRecord
  2
DIM
 70
     0
 62
     7
  6
Continuous
370
    -3
390
F
  0
LAYER
  5
65
330
2
100
AcDbSymbolTableRecord
100
AcDbLayerTableRecord
  2
CEN
 70
     0
 62
     1
  6
CENTER
370
    -3
390
F
  0
LAYER
  5
66
330
2
100
AcDbSymbolTableRecord
100
AcDbLayerTableRecord
  2
HAT
 70
     0
 62
     4
  6
Continuous
370
    -3
390
F
  0
LAYER
  5
67
330
2
100
AcDbSymbolTableRecord
100
AcDbLayerTableRecord
  2
OBJ
 70
     0
 62
     5
  6
Continuous
370
    -3
390
F
  0
LAYER
  5
68
330
2
100
AcDbSymbolTableRecord
100
AcDbLayerTableRecord
  2
SLD-DEFPOINTS
 70
     0
 62
     7
  6
Continuous
370
    -3
390
F
  0
LAYER
  5
69
330
2
100
AcDbSymbolTableRecord
100
AcDbLayerTableRecord
  2
HID
 70
     0
 62
     4
  6
HIDDEN
370
    -3
390
F
  0
LAYER
  5
6A
330
2
100
AcDbSymbolTableRecord
100
AcDbLayerTableRecord
  2
NOTE
 70
     0
 62
     7
  6
Continuous
370
    -3
390
F
  0
LAYER
  5
6B
330
2
100
AcDbSymbolTableRecord
100
AcDbLayerTableRecord
  2
VP
 70
     0
 62
    -5
  6
Continuous
290
     0
370
    -3
390
F
  0
LAYER
  5
6C
330
2
100
AcDbSymbolTableRecord
100
AcDbLayerTableRecord
  2
TITLE
 70
     0
 62
     7
  6
Continuous
370
    -3
390
F
  0
LAYER
  5
6D
330
2
100
AcDbSymbolTableRecord
100
AcDbLayerTableRecord
  2
THICK_TITLE
 70
     0
 62
     7
  6
Continuous
370
   100
390
F
  0
ENDTAB
  0
TABLE
  2
STYLE
  5
3
330
0
100
AcDbSymbolTable
 70
     3
  0
STYLE
  5
11
330
3
100
AcDbSymbolTableRecord
100
AcDbTextStyleTableRecord
  2
Standard
 70
     0
 40
0.0
 41
1.0
 50
0.0
 71
     0
 42
1.0
  3
txt
  4

  0
STYLE
  5
1CF
330
3
100
AcDbSymbolTableRecord
100
AcDbTextStyleTableRecord
  2
SLDTEXTSTYLE0
 70
     0
 40
0.0
 41
0.75
 50
0.0
 71
     0
 42
1.0
  3
TXT
  4

  0
STYLE
  5
256
330
3
100
AcDbSymbolTableRecord
100
AcDbTextStyleTableRecord
  2
SLDTEXTSTYLE1
 70
     0
 40
0.0
 41
0.7
 50
0.0
 71
     0
 42
1.0
  3
TXT
  4

  0
ENDTAB
  0
TABLE
  2
VIEW
  5
6
330
0
100
AcDbSymbolTable
 70
     0
  0
ENDTAB
  0
TABLE
  2
UCS
  5
7
330
0
100
AcDbSymbolTable
 70
     0
  0
ENDTAB
  0
TABLE
  2
APPID
  5
9
330
0
100
AcDbSymbolTable
 70
     1
  0
APPID
  5
12
330
9
100
AcDbSymbolTableRecord
100
AcDbRegAppTableRecord
  2
ACAD
 70
     0
  0
ENDTAB
  0
TABLE
  2
DIMSTYLE
  5
A
330
0
100
AcDbSymbolTable
 70
     6
100
AcDbDimStyleTable
  0
DIMSTYLE
105
27
330
A
100
AcDbSymbolTableRecord
100
AcDbDimStyleTableRecord
  2
Standard
 70
     0
178
     0
340
11
  0
DIMSTYLE
105
1D0
102
{ACAD_REACTORS
330
1CE
330
221
330
236
102
}
330
A
100
AcDbSymbolTableRecord
100
AcDbDimStyleTableRecord
  2
SLDDIMSTYLE0
 70
     0
 41
1.04
 44
0.0
 45
0.000000001
 78
    12
 79
     3
140
1.0
147
0.25
148
0.000000001
170
     1
172
     1
173
     1
178
     0
271
     6
272
     2
276
     2
277
     5
284
    12
289
     0
340
1CF
  0
DIMSTYLE
105
1E5
102
{ACAD_REACTORS
330
1E4
330
24B
102
}
330
A
100
AcDbSymbolTableRecord
100
AcDbDimStyleTableRecord
  2
SLDDIMSTYLE1
 70
     0
 41
1.04
 44
0.0
 45
0.000000001
 78
    12
 79
     3
140
1.0
147
0.25
148
0.000000001
170
     1
173
     1
178
     0
271
     2
272
     2
276
     2
277
     5
284
    12
340
1CF
  0
DIMSTYLE
105
1F7
102
{ACAD_REACTORS
330
1F6
330
259
102
}
330
A
100
AcDbSymbolTableRecord
100
AcDbDimStyleTableRecord
  2
SLDDIMSTYLE2
 70
     0
 41
1.04
 44
0.0
 45
0.000000001
 78
    12
 79
     3
140
1.0
147
0.25
148
0.000000001
170
     1
173
     1
178
     0
271
     6
272
     2
276
     2
277
     5
284
    12
340
1CF
  0
DIMSTYLE
105
20D
102
{ACAD_REACTORS
330
20C
102
}
330
A
100
AcDbSymbolTableRecord
100
AcDbDimStyleTableRecord
  2
SLDDIMSTYLE3
 70
     0
 41
1.04
 44
0.0
 45
0.000000001
 78
    12
 79
     3
140
1.0
147
0.25
148
0.000000001
170
     1
172
     1
173
     1
178
     0
271
     2
272
     2
276
     2
277
     5
284
    12
289
     0
340
1CF
  0
DIMSTYLE
105
27B
102
{ACAD_REACTORS
330
27A
102
}
330
A
100
AcDbSymbolTableRecord
100
AcDbDimStyleTableRecord
  2
SLDDIMSTYLE4
 70
     0
 41
1.04
 44
0.0
 45
0.000000001
 78
    12
 79
     3
140
1.0
144
0.5
147
0.25
148
0.000000001
170
     1
172
     1
173
     1
178
     0
271
     6
272
     2
276
     2
277
     5
284
    12
289
     0
340
1CF
  0
ENDTAB
  0
TABLE
  2
BLOCK_RECORD
  5
1
330
0
100
AcDbSymbolTable
 70
    11
  0
BLOCK_RECORD
  5
1F
330
1
100
AcDbSymbolTableRecord
100
AcDbBlockTableRecord
  2
*Model_Space
340
22
  0
BLOCK_RECORD
  5
1B
330
1
100
AcDbSymbolTableRecord
100
AcDbBlockTableRecord
  2
*Paper_Space
340
1E
  0
BLOCK_RECORD
  5
23
330
1
100
AcDbSymbolTableRecord
100
AcDbBlockTableRecord
  2
*Paper_Space0
340
26
  0
BLOCK_RECORD
  5
138
330
1
100
AcDbSymbolTableRecord
100
AcDbBlockTableRecord
  2
SW_BROKEN_VIEW_0
340
0
102
{BLKREFS
331
13B
102
}
  0
BLOCK_RECORD
  5
1D1
330
1
100
AcDbSymbolTableRecord
100
AcDbBlockTableRecord
  2
_D
340
0
  0
BLOCK_RECORD
  5
1E6
330
1
100
AcDbSymbolTableRecord
100
AcDbBlockTableRecord
  2
_D_1
340
0
  0
BLOCK_RECORD
  5
1F8
330
1
100
AcDbSymbolTableRecord
100
AcDbBlockTableRecord
  2
_D_2
340
0
  0
BLOCK_RECORD
  5
20E
330
1
100
AcDbSymbolTableRecord
100
AcDbBlockTableRecord
  2
_D_3
340
0
  0
BLOCK_RECORD
  5
222
330
1
100
AcDbSymbolTableRecord
100
AcDbBlockTableRecord
  2
_D_4
340
0
  0
BLOCK_RECORD
  5
237
330
1
100
AcDbSymbolTableRecord
100
AcDbBlockTableRecord
  2
_D_5
340
0
  0
BLOCK_RECORD
  5
24C
330
1
100
AcDbSymbolTableRecord
100
AcDbBlockTableRecord
  2
_D_6
340
0
  0
BLOCK_RECORD
  5
25A
330
1
100
AcDbSymbolTableRecord
100
AcDbBlockTableRecord
  2
_D_7
340
0
  0
BLOCK_RECORD
  5
27C
330
1
100
AcDbSymbolTableRecord
100
AcDbBlockTableRecord
  2
_D_8
340
0
  0
ENDTAB
  0
ENDSEC
  0
SECTION
  2
BLOCKS
  0
BLOCK
  5
20
330
1F
100
AcDbEntity
  8
0
100
AcDbBlockBegin
  2
*Model_Space
 70
     0
 10
0.0
 20
0.0
 30
0.0
  3
*Model_Space
  1

  0
ENDBLK
  5
21
330
1F
100
AcDbEntity
  8
0
100
AcDbBlockEnd
  0
BLOCK
  5
1C
330
1B
100
AcDbEntity
 67
     1
  8
0
100
AcDbBlockBegin
  2
*Paper_Space
 70
     0
 10
0.0
 20
0.0
 30
0.0
  3
*Paper_Space
  1

  0
ENDBLK
  5
1D
330
1B
100
AcDbEntity
 67
     1
  8
0
100
AcDbBlockEnd
  0
BLOCK
  5
24
330
23
100
AcDbEntity
  8
0
100
AcDbBlockBegin
  2
*Paper_Space0
 70
     0
 10
0.0
 20
0.0
 30
0.0
  3
*Paper_Space0
  1

  0
ENDBLK
  5
25
330
23
100
AcDbEntity
  8
0
100
AcDbBlockEnd
  0
BLOCK
  5
139
330
138
100
AcDbEntity
  8
0
100
AcDbBlockBegin
  2
SW_BROKEN_VIEW_0
 70
     0
 10
0.0
 20
0.0
 30
0.0
  3
SW_BROKEN_VIEW_0
  1

  0
ENDBLK
  5
13A
330
138
100
AcDbEntity
  8
0
100
AcDbBlockEnd
  0
BLOCK
  5
1D2
330
1D1
100
AcDbEntity
  8
0
100
AcDbBlockBegin
  2
_D
 70
     0
 10
0.0
 20
0.0
 30
0.0
  3
_D
  1

  0
SOLID
  5
1D4
330
1D1
100
AcDbEntity
  8
0
  6
Continuous
 62
     7
370
    18
100
AcDbTrace
 10
30.677233658
 20
57.6861315987
 30
0.0
 11
29.637233658
 21
57.8461315987
 31
0.0
 12
29.637233658
 22
57.5261315987
 32
0.0
 13
29.637233658
 23
57.5261315987
 33
0.0
  0
SOLID
  5
1D5
330
1D1
100
AcDbEntity
  8
0
  6
Continuous
 62
     7
370
    18
100
AcDbTrace
 10
37.837233658
 20
57.6861315987
 30
0.0
 11
38.877233658
 21
57.5261315987
 31
0.0
 12
38.877233658
 22
57.8461315987
 32
0.0
 13
38.877233658
 23
57.8461315987
 33
0.0
  0
LINE
  5
1D6
330
1D1
100
AcDbEntity
  8
0
  6
Continuous
 62
     7
370
     0
100
AcDbLine
 10
32.48766005
 20
56.6737058931
 30
0.0
 11
32.1829725531
 21
56.6737058931
 31
0.0
  0
LINE
  5
1D7
330
1D1
100
AcDbEntity
  8
0
  6
Continuous
 62
     7
370
     0
100
AcDbLine
 10
32.1829725531
 20
56.6737058931
 30
0.0
 11
32.1829725531
 21
55.0862058454
 31
0.0
  0
LINE
  5
1D8
330
1D1
100
AcDbEntity
  8
0
  6
Continuous
 62
     7
370
     0
100
AcDbLine
 10
32.1829725531
 20
55.0862058454
 30
0.0
 11
32.48766005
 21
55.0862058454
 31
0.0
  0
LINE
  5
1D9
330
1D1
100
AcDbEntity
  8
0
  6
Continuous
 62
     7
370
     0
100
AcDbLine
 10
37.204326656
 20
56.6737058931
 30
0.0
 11
37.5090141529
 21
56.6737058931
 31
0.0
  0
LINE
  5
1DA
330
1D1
100
AcDbEntity
  8
0
  6
Continuous
 62
     7
370
     0
100
AcDbLine
 10
37.5090141529
 20
56.6737058931
 30
0.0
 11
37.5090141529
 21
55.0862058454
 31
0.0
  0
LINE
  5
1DB
330
1D1
100
AcDbEntity
  8
0
  6
Continuous
 62
     7
370
     0
100
AcDbLine
 10
37.5090141529
 20
55.0862058454
 30
0.0
 11
37.204326656
 21
55.0862058454
 31
0.0
  0
LINE
  5
1DC
330
1D1
100
AcDbEntity
  8
0
  6
Continuous
 62
     7
370
     0
100
AcDbLine
 10
30.677233658
 20
54.8941633039
 30
0.0
 11
30.677233658
 21
58.4861315987
 31
0.0
  0
LINE
  5
1DD
330
1D1
100
AcDbEntity
  8
0
  6
Continuous
 62
     7
370
     0
100
AcDbLine
 10
37.837233658
 20
54.8941633039
 30
0.0
 11
37.837233658
 21
58.4861315987
 31
0.0
  0
LINE
  5
1DE
330
1D1
100
AcDbEntity
  8
0
  6
Continuous
 62
     7
370
     0
100
AcDbLine
 10
30.677233658
 20
57.6861315987
 30
0.0
 11
28.677233658
 21
57.6861315987
 31
0.0
  0
LINE
  5
1DF
330
1D1
100
AcDbEntity
  8
0
  6
Continuous
 62
     7
370
     0
100
AcDbLine
 10
37.837233658
 20
57.6861315987
 30
0.0
 11
39.837233658
 21
57.6861315987
 31
0.0
  0
MTEXT
  5
1E0
330
1D1
100
AcDbEntity
  8
0
  6
Continuous
 62
     7
370
    18
100
AcDbMText
 10
31.8838406107
 20
58.1811765132
 30
0.0
 40
1.0
 41
0.0
 71
     1
 72
     1
  1

  7
SLDTEXTSTYLE0
 73
     1
 44
1.0
  0
MTEXT
  5
1E1
330
1D1
100
AcDbEntity
  8
0
  6
Continuous
 62
     7
370
    18
100
AcDbMText
 10
32.6855765837
 20
58.1658986614
 30
0.0
 40
1.0
 41
0.0
 71
     1
 72
     1
  1
7 3/16"
  7
SLDTEXTSTYLE0
 73
     1
 44
1.0
  0
MTEXT
  5
1E2
330
1D1
100
AcDbEntity
  8
0
  6
Continuous
 62
     7
370
    18
100
AcDbMText
 10
32.48766005
 20
56.3752736952
 30
0.0
 40
1.0
 41
0.0
 71
     1
 72
     1
  1
182mm
  7
SLDTEXTSTYLE0
 73
     1
 44
1.0
  0
MTEXT
  5
1E3
330
1D1
100
AcDbEntity
  8
0
  6
Continuous
 62
     7
370
    18
100
AcDbMText
 10
38.1887014298
 20
58.1811765132
 30
0.0
 40
1.0
 41
0.0
 71
     1
 72
     1
  1

  7
SLDTEXTSTYLE0
 73
     1
 44
1.0
  0
ENDBLK
  5
1D3
330
1D1
100
AcDbEntity
  8
0
100
AcDbBlockEnd
  0
BLOCK
  5
1E7
330
1E6
100
AcDbEntity
  8
0
100
AcDbBlockBegin
  2
_D_1
 70
     0
 10
0.0
 20
0.0
 30
0.0
  3
_D_1
  1

  0
SOLID
  5
1E9
330
1E6
100
AcDbEntity
  8
0
  6
Continuous
 62
     7
370
    18
100
AcDbTrace
 10
23.7480997998
 20
38.6733680208
 30
0.0
 11
23.9080997998
 21
39.7133680208
 31
0.0
 12
23.5880997998
 22
39.7133680208
 32
0.0
 13
23.5880997998
 23
39.7133680208
 33
0.0
  0
SOLID
  5
1EA
330
1E6
100
AcDbEntity
  8
0
  6
Continuous
 62
     7
370
    18
100
AcDbTrace
 10
23.7480997998
 20
50.5641633039
 30
0.0
 11
23.5880997998
 21
49.5241633039
 31
0.0
 12
23.9080997998
 22
49.5241633039
 32
0.0
 13
23.9080997998
 23
49.5241633039
 33
0.0
  0
LINE
  5
1EB
330
1E6
100
AcDbEntity
  8
0
  6
Continuous
 62
     7
370
     0
100
AcDbLine
 10
31.977233658
 20
38.6733680208
 30
0.0
 11
22.9480997998
 21
38.6733680208
 31
0.0
  0
LINE
  5
1EC
330
1E6
100
AcDbEntity
  8
0
  6
Continuous
 62
     7
370
     0
100
AcDbLine
 10
32.557233658
 20
50.5641633039
 30
0.0
 11
22.9480997998
 21
50.5641633039
 31
0.0
  0
LINE
  5
1ED
330
1E6
100
AcDbEntity
  8
0
  6
Continuous
 62
     7
370
     0
100
AcDbLine
 10
23.7480997998
 20
38.6733680208
 30
0.0
 11
23.7480997998
 21
40.9921081783
 31
0.0
  0
LINE
  5
1EE
330
1E6
100
AcDbEntity
  8
0
  6
Continuous
 62
     7
370
     0
100
AcDbLine
 10
23.7480997998
 20
50.5641633039
 30
0.0
 11
23.7480997998
 21
47.7098932124
 31
0.0
  0
LINE
  5
1EF
330
1E6
100
AcDbEntity
  8
0
  6
Continuous
 62
     7
370
     0
100
AcDbLine
 10
23.7480997998
 20
40.9921081783
 30
0.0
 11
24.2480997998
 21
41.2421081783
 31
0.0
  0
LINE
  5
1F0
330
1E6
100
AcDbEntity
  8
0
  6
Continuous
 62
     7
370
     0
100
AcDbLine
 10
24.2480997998
 20
41.2421081783
 30
0.0
 11
23.2480997998
 21
41.7421081783
 31
0.0
  0
LINE
  5
1F1
330
1E6
100
AcDbEntity
  8
0
  6
Continuous
 62
     7
370
     0
100
AcDbLine
 10
23.2480997998
 20
41.7421081783
 30
0.0
 11
23.7480997998
 21
41.9921081783
 31
0.0
  0
LINE
  5
1F2
330
1E6
100
AcDbEntity
  8
0
  6
Continuous
 62
     7
370
     0
100
AcDbLine
 10
23.7480997998
 20
41.9921081783
 30
0.0
 11
23.7480997998
 21
42.9473929225
 31
0.0
  0
MTEXT
  5
1F3
330
1E6
100
AcDbEntity
  8
0
  6
Continuous
 62
     7
370
    18
100
AcDbMText
 10
18.5904606079
 20
47.4114610144
 30
0.0
 40
1.0
 41
0.0
 71
     1
 72
     1
  1
SPECIFY LENGTH
  7
SLDTEXTSTYLE0
 73
     1
 44
1.0
  0
MTEXT
  5
1F4
330
1E6
100
AcDbEntity
  8
0
  6
Continuous
 62
     7
370
    18
100
AcDbMText
 10
20.3092109928
 20
45.8239609667
 30
0.0
 40
1.0
 41
0.0
 71
     1
 72
     1
  1
3"-24" MAX
  7
SLDTEXTSTYLE0
 73
     1
 44
1.0
  0
MTEXT
  5
1F5
330
1E6
100
AcDbEntity
  8
0
  6
Continuous
 62
     7
370
    18
100
AcDbMText
 10
18.7612947944
 20
44.236460919
 30
0.0
 40
1.0
 41
0.0
 71
     1
 72
     1
  1
[76MM-610MM]
  7
SLDTEXTSTYLE0
 73
     1
 44
1.0
  0
ENDBLK
  5
1E8
330
1E6
100
AcDbEntity
  8
0
100
AcDbBlockEnd
  0
BLOCK
  5
1F9
330
1F8
100
AcDbEntity
  8
0
100
AcDbBlockBegin
  2
_D_2
 70
     0
 10
0.0
 20
0.0
 30
0.0
  3
_D_2
  1

  0
SOLID
  5
1FB
330
1F8
100
AcDbEntity
  8
0
  6
Continuous
 62
     7
370
    18
100
AcDbTrace
 10
23.7480997998
 20
53.6941633039
 30
0.0
 11
23.5880997998
 21
52.6541633039
 31
0.0
 12
23.9080997998
 22
52.6541633039
 32
0.0
 13
23.9080997998
 23
52.6541633039
 33
0.0
  0
SOLID
  5
1FC
330
1F8
100
AcDbEntity
  8
0
  6
Continuous
 62
     7
370
    18
100
AcDbTrace
 10
23.7480997998
 20
50.5641633039
 30
0.0
 11
23.9080997998
 21
51.6041633039
 31
0.0
 12
23.5880997998
 22
51.6041633039
 32
0.0
 13
23.5880997998
 23
51.6041633039
 33
0.0
  0
LINE
  5
1FD
330
1F8
100
AcDbEntity
  8
0
  6
Continuous
 62
     7
370
     0
100
AcDbLine
 10
17.1829916282
 20
56.6737058931
 30
0.0
 11
16.8783041313
 21
56.6737058931
 31
0.0
  0
LINE
  5
1FE
330
1F8
100
AcDbEntity
  8
0
  6
Continuous
 62
     7
370
     0
100
AcDbLine
 10
16.8783041313
 20
56.6737058931
 30
0.0
 11
16.8783041313
 21
55.0862058454
 31
0.0
  0
LINE
  5
1FF
330
1F8
100
AcDbEntity
  8
0
  6
Continuous
 62
     7
370
     0
100
AcDbLine
 10
16.8783041313
 20
55.0862058454
 30
0.0
 11
17.1829916282
 21
55.0862058454
 31
0.0
  0
LINE
  5
200
330
1F8
100
AcDbEntity
  8
0
  6
Continuous
 62
     7
370
     0
100
AcDbLine
 10
21.1607694899
 20
56.6737058931
 30
0.0
 11
21.4654569868
 21
56.6737058931
 31
0.0
  0
LINE
  5
201
330
1F8
100
AcDbEntity
  8
0
  6
Continuous
 62
     7
370
     0
100
AcDbLine
 10
21.4654569868
 20
56.6737058931
 30
0.0
 11
21.4654569868
 21
55.0862058454
 31
0.0
  0
LINE
  5
202
330
1F8
100
AcDbEntity
  8
0
  6
Continuous
 62
     7
370
     0
100
AcDbLine
 10
21.4654569868
 20
55.0862058454
 30
0.0
 11
21.1607694899
 21
55.0862058454
 31
0.0
  0
LINE
  5
203
330
1F8
100
AcDbEntity
  8
0
  6
Continuous
 62
     7
370
     0
100
AcDbLine
 10
34.449233658
 20
53.6941633039
 30
0.0
 11
22.9480997998
 21
53.6941633039
 31
0.0
  0
LINE
  5
204
330
1F8
100
AcDbEntity
  8
0
  6
Continuous
 62
     7
370
     0
100
AcDbLine
 10
32.557233658
 20
50.5641633039
 30
0.0
 11
22.9480997998
 21
50.5641633039
 31
0.0
  0
LINE
  5
205
330
1F8
100
AcDbEntity
  8
0
  6
Continuous
 62
     7
370
     0
100
AcDbLine
 10
22.7480997998
 20
57.6861315987
 30
0.0
 11
23.7480997998
 21
57.6861315987
 31
0.0
  0
LINE
  5
206
330
1F8
100
AcDbEntity
  8
0
  6
Continuous
 62
     7
370
     0
100
AcDbLine
 10
23.7480997998
 20
57.6861315987
 30
0.0
 11
23.7480997998
 21
53.6941633039
 31
0.0
  0
LINE
  5
207
330
1F8
100
AcDbEntity
  8
0
  6
Continuous
 62
     7
370
     0
100
AcDbLine
 10
23.7480997998
 20
53.6941633039
 30
0.0
 11
23.7480997998
 21
50.5641633039
 31
0.0
  0
MTEXT
  5
208
330
1F8
100
AcDbEntity
  8
0
  6
Continuous
 62
     7
370
    18
100
AcDbMText
 10
16.5791721889
 20
58.1811765132
 30
0.0
 40
1.0
 41
0.0
 71
     1
 72
     1
  1

  7
SLDTEXTSTYLE0
 73
     1
 44
1.0
  0
MTEXT
  5
209
330
1F8
100
AcDbEntity
  8
0
  6
Continuous
 62
     7
370
    18
100
AcDbMText
 10
17.3809083085
 20
58.1658986614
 30
0.0
 40
1.0
 41
0.0
 71
     1
 72
     1
  1
3 1/8"
  7
SLDTEXTSTYLE0
 73
     1
 44
1.0
  0
MTEXT
  5
20A
330
1F8
100
AcDbEntity
  8
0
  6
Continuous
 62
     7
370
    18
100
AcDbMText
 10
17.1829916282
 20
56.3752736952
 30
0.0
 40
1.0
 41
0.0
 71
     1
 72
     1
  1
80mm
  7
SLDTEXTSTYLE0
 73
     1
 44
1.0
  0
MTEXT
  5
20B
330
1F8
100
AcDbEntity
  8
0
  6
Continuous
 62
     7
370
    18
100
AcDbMText
 10
22.1451442637
 20
58.1811765132
 30
0.0
 40
1.0
 41
0.0
 71
     1
 72
     1
  1

  7
SLDTEXTSTYLE0
 73
     1
 44
1.0
  0
ENDBLK
  5
1FA
330
1F8
100
AcDbEntity
  8
0
100
AcDbBlockEnd
  0
BLOCK
  5
20F
330
20E
100
AcDbEntity
  8
0
100
AcDbBlockBegin
  2
_D_3
 70
     0
 10
0.0
 20
0.0
 30
0.0
  3
_D_3
  1

  0
SOLID
  5
211
330
20E
100
AcDbEntity
  8
0
  6
Continuous
 62
     7
370
    18
100
AcDbTrace
 10
41.7528501639
 20
52.6941633039
 30
0.0
 11
41.5928501639
 21
51.6541633039
 31
0.0
 12
41.9128501639
 22
51.6541633039
 32
0.0
 13
41.9128501639
 23
51.6541633039
 33
0.0
  0
SOLID
  5
212
330
20E
100
AcDbEntity
  8
0
  6
Continuous
 62
     7
370
    18
100
AcDbTrace
 10
41.7528501639
 20
53.6941633039
 30
0.0
 11
41.9128501639
 21
54.7341633039
 31
0.0
 12
41.5928501639
 22
54.7341633039
 32
0.0
 13
41.5928501639
 23
54.7341633039
 33
0.0
  0
LINE
  5
213
330
20E
100
AcDbEntity
  8
0
  6
Continuous
 62
     7
370
     0
100
AcDbLine
 10
43.9707363217
 20
49.2908210411
 30
0.0
 11
43.6660488248
 21
49.2908210411
 31
0.0
  0
LINE
  5
214
330
20E
100
AcDbEntity
  8
0
  6
Continuous
 62
     7
370
     0
100
AcDbLine
 10
43.6660488248
 20
49.2908210411
 30
0.0
 11
43.6660488248
 21
47.7033209933
 31
0.0
  0
LINE
  5
215
330
20E
100
AcDbEntity
  8
0
  6
Continuous
 62
     7
370
     0
100
AcDbLine
 10
43.6660488248
 20
47.7033209933
 30
0.0
 11
43.9707363217
 21
47.7033209933
 31
0.0
  0
LINE
  5
216
330
20E
100
AcDbEntity
  8
0
  6
Continuous
 62
     7
370
     0
100
AcDbLine
 10
47.9485141834
 20
49.2908210411
 30
0.0
 11
48.2532016802
 21
49.2908210411
 31
0.0
  0
LINE
  5
217
330
20E
100
AcDbEntity
  8
0
  6
Continuous
 62
     7
370
     0
100
AcDbLine
 10
48.2532016802
 20
49.2908210411
 30
0.0
 11
48.2532016802
 21
47.7033209933
 31
0.0
  0
LINE
  5
218
330
20E
100
AcDbEntity
  8
0
  6
Continuous
 62
     7
370
     0
100
AcDbLine
 10
48.2532016802
 20
47.7033209933
 30
0.0
 11
47.9485141834
 21
47.7033209933
 31
0.0
  0
LINE
  5
219
330
20E
100
AcDbEntity
  8
0
  6
Continuous
 62
     7
370
     0
100
AcDbLine
 10
39.037233658
 20
52.6941633039
 30
0.0
 11
42.5528501639
 21
52.6941633039
 31
0.0
  0
LINE
  5
21A
330
20E
100
AcDbEntity
  8
0
  6
Continuous
 62
     7
370
     0
100
AcDbLine
 10
39.037233658
 20
53.6941633039
 30
0.0
 11
42.5528501639
 21
53.6941633039
 31
0.0
  0
LINE
  5
21B
330
20E
100
AcDbEntity
  8
0
  6
Continuous
 62
     7
370
     0
100
AcDbLine
 10
42.7528501639
 20
50.2879690965
 30
0.0
 11
41.7528501639
 21
50.2879690965
 31
0.0
  0
LINE
  5
21C
330
20E
100
AcDbEntity
  8
0
  6
Continuous
 62
     7
370
     0
100
AcDbLine
 10
41.7528501639
 20
50.2879690965
 30
0.0
 11
41.7528501639
 21
52.6941633039
 31
0.0
  0
LINE
  5
21D
330
20E
100
AcDbEntity
  8
0
  6
Continuous
 62
     7
370
     0
100
AcDbLine
 10
41.7528501639
 20
53.6941633039
 30
0.0
 11
41.7528501639
 21
55.6941633039
 31
0.0
  0
MTEXT
  5
21E
330
20E
100
AcDbEntity
  8
0
  6
Continuous
 62
     7
370
    18
100
AcDbMText
 10
44.6298682873
 20
50.7830138827
 30
0.0
 40
1.0
 41
0.0
 71
     1
 72
     1
  1
%%c
  7
SLDTEXTSTYLE0
 73
     1
 44
1.0
  0
MTEXT
  5
21F
330
20E
100
AcDbEntity
  8
0
  6
Continuous
 62
     7
370
    18
100
AcDbMText
 10
46.137993252
 20
50.7830138827
 30
0.0
 40
1.0
 41
0.0
 71
     1
 72
     1
  1
1"
  7
SLDTEXTSTYLE0
 73
     1
 44
1.0
  0
MTEXT
  5
220
330
20E
100
AcDbEntity
  8
0
  6
Continuous
 62
     7
370
    18
100
AcDbMText
 10
43.9707363217
 20
48.9923888431
 30
0.0
 40
1.0
 41
0.0
 71
     1
 72
     1
  1
25mm
  7
SLDTEXTSTYLE0
 73
     1
 44
1.0
  0
ENDBLK
  5
210
330
20E
100
AcDbEntity
  8
0
100
AcDbBlockEnd
  0
BLOCK
  5
223
330
222
100
AcDbEntity
  8
0
100
AcDbBlockBegin
  2
_D_4
 70
     0
 10
0.0
 20
0.0
 30
0.0
  3
_D_4
  1

  0
SOLID
  5
225
330
222
100
AcDbEntity
  8
0
  6
Continuous
 62
     7
370
    18
100
AcDbTrace
 10
38.8764148157
 20
38.6733680208
 30
0.0
 11
39.0364148157
 21
39.7133680208
 31
0.0
 12
38.7164148157
 22
39.7133680208
 32
0.0
 13
38.7164148157
 23
39.7133680208
 33
0.0
  0
SOLID
  5
226
330
222
100
AcDbEntity
  8
0
  6
Continuous
 62
     7
370
    18
100
AcDbTrace
 10
38.8764148157
 20
37.3083680208
 30
0.0
 11
38.7164148157
 21
36.2683680208
 31
0.0
 12
39.0364148157
 22
36.2683680208
 32
0.0
 13
39.0364148157
 23
36.2683680208
 33
0.0
  0
LINE
  5
227
330
222
100
AcDbEntity
  8
0
  6
Continuous
 62
     7
370
     0
100
AcDbLine
 10
41.4637454189
 20
40.3471548418
 30
0.0
 11
41.159057922
 21
40.3471548418
 31
0.0
  0
LINE
  5
228
330
222
100
AcDbEntity
  8
0
  6
Continuous
 62
     7
370
     0
100
AcDbLine
 10
41.159057922
 20
40.3471548418
 30
0.0
 11
41.159057922
 21
38.7596547941
 31
0.0
  0
LINE
  5
229
330
222
100
AcDbEntity
  8
0
  6
Continuous
 62
     7
370
     0
100
AcDbLine
 10
41.159057922
 20
38.7596547941
 30
0.0
 11
41.4637454189
 21
38.7596547941
 31
0.0
  0
LINE
  5
22A
330
222
100
AcDbEntity
  8
0
  6
Continuous
 62
     7
370
     0
100
AcDbLine
 10
45.4415232806
 20
40.3471548418
 30
0.0
 11
45.7462107775
 21
40.3471548418
 31
0.0
  0
LINE
  5
22B
330
222
100
AcDbEntity
  8
0
  6
Continuous
 62
     7
370
     0
100
AcDbLine
 10
45.7462107775
 20
40.3471548418
 30
0.0
 11
45.7462107775
 21
38.7596547941
 31
0.0
  0
LINE
  5
22C
330
222
100
AcDbEntity
  8
0
  6
Continuous
 62
     7
370
     0
100
AcDbLine
 10
45.7462107775
 20
38.7596547941
 30
0.0
 11
45.4415232806
 21
38.7596547941
 31
0.0
  0
LINE
  5
22D
330
222
100
AcDbEntity
  8
0
  6
Continuous
 62
     7
370
     0
100
AcDbLine
 10
36.537233658
 20
38.6733680208
 30
0.0
 11
39.6764148157
 21
38.6733680208
 31
0.0
  0
LINE
  5
22E
330
222
100
AcDbEntity
  8
0
  6
Continuous
 62
     7
370
     0
100
AcDbLine
 10
36.644733658
 20
37.3083680208
 30
0.0
 11
39.6764148157
 21
37.3083680208
 31
0.0
  0
LINE
  5
22F
330
222
100
AcDbEntity
  8
0
  6
Continuous
 62
     7
370
     0
100
AcDbLine
 10
39.8764148157
 20
41.3595805475
 30
0.0
 11
38.8764148157
 21
41.3595805475
 31
0.0
  0
LINE
  5
230
330
222
100
AcDbEntity
  8
0
  6
Continuous
 62
     7
370
     0
100
AcDbLine
 10
38.8764148157
 20
41.3595805475
 30
0.0
 11
38.8764148157
 21
38.6733680208
 31
0.0
  0
LINE
  5
231
330
222
100
AcDbEntity
  8
0
  6
Continuous
 62
     7
370
     0
100
AcDbLine
 10
38.8764148157
 20
37.3083680208
 30
0.0
 11
38.8764148157
 21
35.3083680208
 31
0.0
  0
MTEXT
  5
232
330
222
100
AcDbEntity
  8
0
  6
Continuous
 62
     7
370
    18
100
AcDbMText
 10
40.8599259796
 20
41.8546254619
 30
0.0
 40
1.0
 41
0.0
 71
     1
 72
     1
  1

  7
SLDTEXTSTYLE0
 73
     1
 44
1.0
  0
MTEXT
  5
233
330
222
100
AcDbEntity
  8
0
  6
Continuous
 62
     7
370
    18
100
AcDbMText
 10
41.6616620992
 20
41.8393476101
 30
0.0
 40
1.0
 41
0.0
 71
     1
 72
     1
  1
1 3/8"
  7
SLDTEXTSTYLE0
 73
     1
 44
1.0
  0
MTEXT
  5
234
330
222
100
AcDbEntity
  8
0
  6
Continuous
 62
     7
370
    18
100
AcDbMText
 10
41.4637454189
 20
40.0487226439
 30
0.0
 40
1.0
 41
0.0
 71
     1
 72
     1
  1
35mm
  7
SLDTEXTSTYLE0
 73
     1
 44
1.0
  0
MTEXT
  5
235
330
222
100
AcDbEntity
  8
0
  6
Continuous
 62
     7
370
    18
100
AcDbMText
 10
46.4258980544
 20
41.8546254619
 30
0.0
 40
1.0
 41
0.0
 71
     1
 72
     1
  1

  7
SLDTEXTSTYLE0
 73
     1
 44
1.0
  0
ENDBLK
  5
224
330
222
100
AcDbEntity
  8
0
100
AcDbBlockEnd
  0
BLOCK
  5
238
330
237
100
AcDbEntity
  8
0
100
AcDbBlockBegin
  2
_D_5
 70
     0
 10
0.0
 20
0.0
 30
0.0
  3
_D_5
  1

  0
SOLID
  5
23A
330
237
100
AcDbEntity
  8
0
  6
Continuous
 62
     7
370
    18
100
AcDbTrace
 10
38.8764148157
 20
29.3603952914
 30
0.0
 11
39.0364148157
 21
30.4003952914
 31
0.0
 12
38.7164148157
 22
30.4003952914
 32
0.0
 13
38.7164148157
 23
30.4003952914
 33
0.0
  0
SOLID
  5
23B
330
237
100
AcDbEntity
  8
0
  6
Continuous
 62
     7
370
    18
100
AcDbTrace
 10
38.8764148157
 20
28.4853952914
 30
0.0
 11
38.7164148157
 21
27.4453952914
 31
0.0
 12
39.0364148157
 22
27.4453952914
 32
0.0
 13
39.0364148157
 23
27.4453952914
 33
0.0
  0
LINE
  5
23C
330
237
100
AcDbEntity
  8
0
  6
Continuous
 62
     7
370
     0
100
AcDbLine
 10
41.4637454189
 20
31.3268196779
 30
0.0
 11
41.159057922
 21
31.3268196779
 31
0.0
  0
LINE
  5
23D
330
237
100
AcDbEntity
  8
0
  6
Continuous
 62
     7
370
     0
100
AcDbLine
 10
41.159057922
 20
31.3268196779
 30
0.0
 11
41.159057922
 21
29.7393196302
 31
0.0
  0
LINE
  5
23E
330
237
100
AcDbEntity
  8
0
  6
Continuous
 62
     7
370
     0
100
AcDbLine
 10
41.159057922
 20
29.7393196302
 30
0.0
 11
41.4637454189
 21
29.7393196302
 31
0.0
  0
LINE
  5
23F
330
237
100
AcDbEntity
  8
0
  6
Continuous
 62
     7
370
     0
100
AcDbLine
 10
45.4415232806
 20
31.3268196779
 30
0.0
 11
45.7462107775
 21
31.3268196779
 31
0.0
  0
LINE
  5
240
330
237
100
AcDbEntity
  8
0
  6
Continuous
 62
     7
370
     0
100
AcDbLine
 10
45.7462107775
 20
31.3268196779
 30
0.0
 11
45.7462107775
 21
29.7393196302
 31
0.0
  0
LINE
  5
241
330
237
100
AcDbEntity
  8
0
  6
Continuous
 62
     7
370
     0
100
AcDbLine
 10
45.7462107775
 20
29.7393196302
 30
0.0
 11
45.4415232806
 21
29.7393196302
 31
0.0
  0
LINE
  5
242
330
237
100
AcDbEntity
  8
0
  6
Continuous
 62
     7
370
     0
100
AcDbLine
 10
38.419733658
 20
29.3603952914
 30
0.0
 11
39.6764148157
 21
29.3603952914
 31
0.0
  0
LINE
  5
243
330
237
100
AcDbEntity
  8
0
  6
Continuous
 62
     7
370
     0
100
AcDbLine
 10
38.3891779847
 20
28.4853952914
 30
0.0
 11
39.6764148157
 21
28.4853952914
 31
0.0
  0
LINE
  5
244
330
237
100
AcDbEntity
  8
0
  6
Continuous
 62
     7
370
     0
100
AcDbLine
 10
39.8764148157
 20
32.3392453835
 30
0.0
 11
38.8764148157
 21
32.3392453835
 31
0.0
  0
LINE
  5
245
330
237
100
AcDbEntity
  8
0
  6
Continuous
 62
     7
370
     0
100
AcDbLine
 10
38.8764148157
 20
32.3392453835
 30
0.0
 11
38.8764148157
 21
29.3603952914
 31
0.0
  0
LINE
  5
246
330
237
100
AcDbEntity
  8
0
  6
Continuous
 62
     7
370
     0
100
AcDbLine
 10
38.8764148157
 20
28.4853952914
 30
0.0
 11
38.8764148157
 21
26.4853952914
 31
0.0
  0
MTEXT
  5
247
330
237
100
AcDbEntity
  8
0
  6
Continuous
 62
     7
370
    18
100
AcDbMText
 10
40.8599259796
 20
32.834290298
 30
0.0
 40
1.0
 41
0.0
 71
     1
 72
     1
  1

  7
SLDTEXTSTYLE0
 73
     1
 44
1.0
  0
MTEXT
  5
248
330
237
100
AcDbEntity
  8
0
  6
Continuous
 62
     7
370
    18
100
AcDbMText
 10
42.2158286574
 20
32.8190124462
 30
0.0
 40
1.0
 41
0.0
 71
     1
 72
     1
  1
7/8"
  7
SLDTEXTSTYLE0
 73
     1
 44
1.0
  0
MTEXT
  5
249
330
237
100
AcDbEntity
  8
0
  6
Continuous
 62
     7
370
    18
100
AcDbMText
 10
41.4637454189
 20
31.02838748
 30
0.0
 40
1.0
 41
0.0
 71
     1
 72
     1
  1
22mm
  7
SLDTEXTSTYLE0
 73
     1
 44
1.0
  0
MTEXT
  5
24A
330
237
100
AcDbEntity
  8
0
  6
Continuous
 62
     7
370
    18
100
AcDbMText
 10
46.4258980544
 20
32.834290298
 30
0.0
 40
1.0
 41
0.0
 71
     1
 72
     1
  1

  7
SLDTEXTSTYLE0
 73
     1
 44
1.0
  0
ENDBLK
  5
239
330
237
100
AcDbEntity
  8
0
100
AcDbBlockEnd
  0
BLOCK
  5
24D
330
24C
100
AcDbEntity
  8
0
100
AcDbBlockBegin
  2
_D_6
 70
     0
 10
0.0
 20
0.0
 30
0.0
  3
_D_6
  1

  0
SOLID
  5
24F
330
24C
100
AcDbEntity
  8
0
  6
Continuous
 62
     7
370
    18
100
AcDbTrace
 10
23.7480997998
 20
19.3083680208
 30
0.0
 11
23.9080997998
 21
20.3483680208
 31
0.0
 12
23.5880997998
 22
20.3483680208
 32
0.0
 13
23.5880997998
 23
20.3483680208
 33
0.0
  0
SOLID
  5
250
330
24C
100
AcDbEntity
  8
0
  6
Continuous
 62
     7
370
    18
100
AcDbTrace
 10
23.7480997998
 20
37.3083680208
 30
0.0
 11
23.5880997998
 21
36.2683680208
 31
0.0
 12
23.9080997998
 22
36.2683680208
 32
0.0
 13
23.9080997998
 23
36.2683680208
 33
0.0
  0
LINE
  5
251
330
24C
100
AcDbEntity
  8
0
  6
Continuous
 62
     7
370
     0
100
AcDbLine
 10
31.869733658
 20
19.3083680208
 30
0.0
 11
22.9480997998
 21
19.3083680208
 31
0.0
  0
LINE
  5
252
330
24C
100
AcDbEntity
  8
0
  6
Continuous
 62
     7
370
     0
100
AcDbLine
 10
31.869733658
 20
37.3083680208
 30
0.0
 11
22.9480997998
 21
37.3083680208
 31
0.0
  0
LINE
  5
253
330
24C
100
AcDbEntity
  8
0
  6
Continuous
 62
     7
370
     0
100
AcDbLine
 10
23.7480997998
 20
19.3083680208
 30
0.0
 11
23.7480997998
 21
26.7365651943
 31
0.0
  0
LINE
  5
254
330
24C
100
AcDbEntity
  8
0
  6
Continuous
 62
     7
370
     0
100
AcDbLine
 10
23.7480997998
 20
37.3083680208
 30
0.0
 11
23.7480997998
 21
31.4990654842
 31
0.0
  0
MTEXT
  5
255
330
24C
100
AcDbEntity
  8
0
  6
Continuous
 62
     7
370
    18
100
AcDbMText
 10
18.5904606079
 20
31.2006332862
 30
0.0
 40
1.0
 41
0.0
 71
     1
 72
     1
  1
SPECIFY LENGTH
  7
SLDTEXTSTYLE0
 73
     1
 44
1.0
  0
MTEXT
  5
257
330
24C
100
AcDbEntity
  8
0
  6
Continuous
 62
     7
370
    18
100
AcDbMText
 10
20.5043502052
 20
29.6131332385
 30
0.0
 40
1.0
 41
0.0
 71
     1
 72
     1
  1
12" OR 18"
  7
SLDTEXTSTYLE1
 73
     1
 44
1.0
  0
MTEXT
  5
258
330
24C
100
AcDbEntity
  8
0
  6
Continuous
 62
     7
370
    18
100
AcDbMText
 10
17.5564332464
 20
28.0256331908
 30
0.0
 40
1.0
 41
0.0
 71
     1
 72
     1
  1
[305mm or 457mm]
  7
SLDTEXTSTYLE0
 73
     1
 44
1.0
  0
ENDBLK
  5
24E
330
24C
100
AcDbEntity
  8
0
100
AcDbBlockEnd
  0
BLOCK
  5
25B
330
25A
100
AcDbEntity
  8
0
100
AcDbBlockBegin
  2
_D_7
 70
     0
 10
0.0
 20
0.0
 30
0.0
  3
_D_7
  1

  0
SOLID
  5
25D
330
25A
100
AcDbEntity
  8
0
  6
Continuous
 62
     7
370
    18
100
AcDbTrace
 10
37.219733658
 20
24.2051853748
 30
0.0
 11
36.179733658
 21
24.3651853748
 31
0.0
 12
36.179733658
 22
24.0451853748
 32
0.0
 13
36.179733658
 23
24.0451853748
 33
0.0
  0
SOLID
  5
25E
330
25A
100
AcDbEntity
  8
0
  6
Continuous
 62
     7
370
    18
100
AcDbTrace
 10
31.294733658
 20
24.2051853748
 30
0.0
 11
32.334733658
 21
24.0451853748
 31
0.0
 12
32.334733658
 22
24.3651853748
 32
0.0
 13
32.334733658
 23
24.3651853748
 33
0.0
  0
LINE
  5
25F
330
25A
100
AcDbEntity
  8
0
  6
Continuous
 62
     7
370
     0
100
AcDbLine
 10
41.8241699248
 20
23.2080373193
 30
0.0
 11
41.5194824279
 21
23.2080373193
 31
0.0
  0
LINE
  5
260
330
25A
100
AcDbEntity
  8
0
  6
Continuous
 62
     7
370
     0
100
AcDbLine
 10
41.5194824279
 20
23.2080373193
 30
0.0
 11
41.5194824279
 21
21.6205372716
 31
0.0
  0
LINE
  5
261
330
25A
100
AcDbEntity
  8
0
  6
Continuous
 62
     7
370
     0
100
AcDbLine
 10
41.5194824279
 20
21.6205372716
 30
0.0
 11
41.8241699248
 21
21.6205372716
 31
0.0
  0
LINE
  5
262
330
25A
100
AcDbEntity
  8
0
  6
Continuous
 62
     7
370
     0
100
AcDbLine
 10
46.5408365308
 20
23.2080373193
 30
0.0
 11
46.8455240277
 21
23.2080373193
 31
0.0
  0
LINE
  5
263
330
25A
100
AcDbEntity
  8
0
  6
Continuous
 62
     7
370
     0
100
AcDbLine
 10
46.8455240277
 20
23.2080373193
 30
0.0
 11
46.8455240277
 21
21.6205372716
 31
0.0
  0
LINE
  5
264
330
25A
100
AcDbEntity
  8
0
  6
Continuous
 62
     7
370
     0
100
AcDbLine
 10
46.8455240277
 20
21.6205372716
 30
0.0
 11
46.5408365308
 21
21.6205372716
 31
0.0
  0
LINE
  5
265
330
25A
100
AcDbEntity
  8
0
  6
Continuous
 62
     7
370
     0
100
AcDbLine
 10
37.219733658
 20
28.1603952914
 30
0.0
 11
37.219733658
 21
23.4051853748
 31
0.0
  0
LINE
  5
266
330
25A
100
AcDbEntity
  8
0
  6
Continuous
 62
     7
370
     0
100
AcDbLine
 10
31.294733658
 20
28.1603952914
 30
0.0
 11
31.294733658
 21
23.4051853748
 31
0.0
  0
LINE
  5
267
330
25A
100
AcDbEntity
  8
0
  6
Continuous
 62
     7
370
     0
100
AcDbLine
 10
37.219733658
 20
24.2051853748
 30
0.0
 11
40.6957426227
 21
24.2051853748
 31
0.0
  0
LINE
  5
268
330
25A
100
AcDbEntity
  8
0
  6
Continuous
 62
     7
370
     0
100
AcDbLine
 10
31.294733658
 20
24.2051853748
 30
0.0
 11
37.219733658
 21
24.2051853748
 31
0.0
  0
MTEXT
  5
269
330
25A
100
AcDbEntity
  8
0
  6
Continuous
 62
     7
370
    18
100
AcDbMText
 10
40.8985796773
 20
24.7002301609
 30
0.0
 40
1.0
 41
0.0
 71
     1
 72
     1
  1
%%c
  7
SLDTEXTSTYLE0
 73
     1
 44
1.0
  0
MTEXT
  5
26A
330
25A
100
AcDbEntity
  8
0
  6
Continuous
 62
     7
370
    18
100
AcDbMText
 10
42.406704642
 20
24.7002301609
 30
0.0
 40
1.0
 41
0.0
 71
     1
 72
     1
  1
5 15/16"
  7
SLDTEXTSTYLE0
 73
     1
 44
1.0
  0
MTEXT
  5
26B
330
25A
100
AcDbEntity
  8
0
  6
Continuous
 62
     7
370
    18
100
AcDbMText
 10
41.8241699248
 20
22.9096051214
 30
0.0
 40
1.0
 41
0.0
 71
     1
 72
     1
  1
150mm
  7
SLDTEXTSTYLE0
 73
     1
 44
1.0
  0
ENDBLK
  5
25C
330
25A
100
AcDbEntity
  8
0
100
AcDbBlockEnd
  0
BLOCK
  5
27D
330
27C
100
AcDbEntity
  8
0
100
AcDbBlockBegin
  2
_D_8
 70
     0
 10
0.0
 20
0.0
 30
0.0
  3
_D_8
  1

  0
SOLID
  5
27F
330
27C
100
AcDbEntity
  8
0
  6
Continuous
 62
     7
370
    18
100
AcDbTrace
 10
40.2292995379
 20
6.9184924507
 30
0.0
 11
40.0692995379
 21
5.8784924507
 31
0.0
 12
40.3892995379
 22
5.8784924507
 32
0.0
 13
40.3892995379
 23
5.8784924507
 33
0.0
  0
SOLID
  5
280
330
27C
100
AcDbEntity
  8
0
  6
Continuous
 62
     7
370
    18
100
AcDbTrace
 10
40.2292995379
 20
11.2944924507
 30
0.0
 11
40.3892995379
 21
12.3344924507
 31
0.0
 12
40.0692995379
 22
12.3344924507
 32
0.0
 13
40.0692995379
 23
12.3344924507
 33
0.0
  0
LINE
  5
281
330
27C
100
AcDbEntity
  8
0
  6
Continuous
 62
     7
370
     0
100
AcDbLine
 10
38.2404107537
 20
9.2061466669
 30
0.0
 11
37.9357232568
 21
9.2061466669
 31
0.0
  0
LINE
  5
282
330
27C
100
AcDbEntity
  8
0
  6
Continuous
 62
     7
370
     0
100
AcDbLine
 10
37.9357232568
 20
9.2061466669
 30
0.0
 11
37.9357232568
 21
7.6186466192
 31
0.0
  0
LINE
  5
283
330
27C
100
AcDbEntity
  8
0
  6
Continuous
 62
     7
370
     0
100
AcDbLine
 10
37.9357232568
 20
7.6186466192
 30
0.0
 11
38.2404107537
 21
7.6186466192
 31
0.0
  0
LINE
  5
284
330
27C
100
AcDbEntity
  8
0
  6
Continuous
 62
     7
370
     0
100
AcDbLine
 10
42.2181886154
 20
9.2061466669
 30
0.0
 11
42.5228761123
 21
9.2061466669
 31
0.0
  0
LINE
  5
285
330
27C
100
AcDbEntity
  8
0
  6
Continuous
 62
     7
370
     0
100
AcDbLine
 10
42.5228761123
 20
9.2061466669
 30
0.0
 11
42.5228761123
 21
7.6186466192
 31
0.0
  0
LINE
  5
286
330
27C
100
AcDbEntity
  8
0
  6
Continuous
 62
     7
370
     0
100
AcDbLine
 10
42.5228761123
 20
7.6186466192
 30
0.0
 11
42.2181886154
 21
7.6186466192
 31
0.0
  0
LINE
  5
287
330
27C
100
AcDbEntity
  8
0
  6
Continuous
 62
     7
370
     0
100
AcDbLine
 10
44.0686696166
 20
6.9184924507
 30
0.0
 11
39.4292995379
 21
6.9184924507
 31
0.0
  0
LINE
  5
288
330
27C
100
AcDbEntity
  8
0
  6
Continuous
 62
     7
370
     0
100
AcDbLine
 10
44.0686696166
 20
11.2944924507
 30
0.0
 11
39.4292995379
 21
11.2944924507
 31
0.0
  0
LINE
  5
289
330
27C
100
AcDbEntity
  8
0
  6
Continuous
 62
     7
370
     0
100
AcDbLine
 10
40.2292995379
 20
6.9184924507
 30
0.0
 11
40.2292995379
 21
4.9184924507
 31
0.0
  0
LINE
  5
28A
330
27C
100
AcDbEntity
  8
0
  6
Continuous
 62
     7
370
     0
100
AcDbLine
 10
40.2292995379
 20
11.2944924507
 30
0.0
 11
40.2292995379
 21
13.2944924507
 31
0.0
  0
MTEXT
  5
28B
330
27C
100
AcDbEntity
  8
0
  6
Continuous
 62
     7
370
    18
100
AcDbMText
 10
37.6365913144
 20
10.713617287
 30
0.0
 40
1.0
 41
0.0
 71
     1
 72
     1
  1

  7
SLDTEXTSTYLE0
 73
     1
 44
1.0
  0
MTEXT
  5
28C
330
27C
100
AcDbEntity
  8
0
  6
Continuous
 62
     7
370
    18
100
AcDbMText
 10
38.0688829152
 20
10.6983394352
 30
0.0
 40
1.0
 41
0.0
 71
     1
 72
     1
  1
2 3/16"
  7
SLDTEXTSTYLE0
 73
     1
 44
1.0
  0
MTEXT
  5
28D
330
27C
100
AcDbEntity
  8
0
  6
Continuous
 62
     7
370
    18
100
AcDbMText
 10
38.2404107537
 20
8.907714469
 30
0.0
 40
1.0
 41
0.0
 71
     1
 72
     1
  1
56mm
  7
SLDTEXTSTYLE0
 73
     1
 44
1.0
  0
MTEXT
  5
28E
330
27C
100
AcDbEntity
  8
0
  6
Continuous
 62
     7
370
    18
100
AcDbMText
 10
43.2025633892
 20
10.713617287
 30
0.0
 40
1.0
 41
0.0
 71
     1
 72
     1
  1

  7
SLDTEXTSTYLE0
 73
     1
 44
1.0
  0
ENDBLK
  5
27E
330
27C
100
AcDbEntity
  8
0
100
AcDbBlockEnd
  0
ENDSEC
  0
SECTION
  2
ENTITIES
  0
LINE
  5
6E
330
1F
100
AcDbEntity
  8
0
  6
Continuous
 62
     7
370
    25
100
AcDbLine
 10
69.2163683074
 20
34.2374774128
 30
0.0
 11
69.195151657
 21
34.2497295056
 31
0.0
  0
LINE
  5
6F
330
1F
100
AcDbEntity
  8
0
  6
Continuous
 62
     7
370
    25
100
AcDbLine
 10
67.6675528328
 20
34.2497295056
 30
0.0
 11
67.6463361824
 21
34.2374774128
 31
0.0
  0
LINE
  5
70
330
1F
100
AcDbEntity
  8
0
  6
Continuous
 62
     7
370
    25
100
AcDbLine
 10
69.5413522449
 20
32.6943625634
 30
0.0
 11
69.5413522449
 21
33.7844445473
 31
0.0
  0
LINE
  5
71
330
1F
100
AcDbEntity
  8
0
  6
Continuous
 62
     7
370
    25
100
AcDbLine
 10
67.3213522449
 20
33.7844445473
 30
0.0
 11
67.3213522449
 21
32.6943625634
 31
0.0
  0
LINE
  5
72
330
1F
100
AcDbEntity
  8
0
  6
Continuous
 62
     7
370
    25
100
AcDbLine
 10
65.4697552517
 20
26.1622954768
 30
0.0
 11
65.5003016112
 21
25.4482577606
 31
0.0
  0
LINE
  5
73
330
1F
100
AcDbEntity
  8
0
  6
Continuous
 62
     7
370
    25
100
AcDbLine
 10
71.3624028786
 20
25.4482577606
 30
0.0
 11
71.3929492381
 21
26.1622954768
 31
0.0
  0
SPLINE
  5
74
330
1F
100
AcDbEntity
  8
0
  6
Continuous
 62
     7
370
    25
100
AcDbSpline
210
0.0
220
0.0
230
1.0
 70
     8
 71
     3
 72
    12
 73
     8
 74
     0
 42
0.00000001
 43
0.00000001
 40
0.0
 40
0.0
 40
0.0
 40
0.0
 40
0.1962651494975773
 40
0.4077015366750961
 40
0.6239718879316476
 40
0.8443696320985434
 40
1.0
 40
1.0
 40
1.0
 40
1.0
 10
67.99448998410668
 20
32.18419603319214
 30
0.0
 10
68.00308613238629
 20
32.1732573371368
 30
0.0
 10
68.02094290865074
 20
32.15053438707462
 30
0.0
 10
68.05849300520553
 20
32.12466539936705
 30
0.0
 10
68.10204783654422
 20
32.10739463385175
 30
0.0
 10
68.14471595939887
 20
32.10034453634712
 30
0.0
 10
68.17072988306465
 20
32.10494759578719
 30
0.0
 10
68.18149651561349
 20
32.10685270822729
 30
0.0
  0
LINE
  5
75
330
1F
100
AcDbEntity
  8
0
  6
Continuous
 62
     7
370
    25
100
AcDbLine
 10
67.998006345
 20
32.3473352975
 30
0.0
 11
67.9780387663
 21
32.3043158066
 31
0.0
  0
LINE
  5
76
330
1F
100
AcDbEntity
  8
0
  6
Continuous
 62
     7
370
    25
100
AcDbLine
 10
68.2701522859
 20
32.1687307595
 30
0.0
 11
68.2901198646
 21
32.2117502504
 31
0.0
  0
LINE
  5
77
330
1F
100
AcDbEntity
  8
0
  6
Continuous
 62
     7
370
    25
100
AcDbLine
 10
69.5413522449
 20
32.9072587512
 30
0.0
 11
69.6026648341
 21
32.916742814
 31
0.0
  0
LINE
  5
78
330
1F
100
AcDbEntity
  8
0
  6
Continuous
 62
     7
370
    25
100
AcDbLine
 10
69.5534350268
 20
33.2350037752
 30
0.0
 11
69.5413522449
 21
33.2331347649
 31
0.0
  0
SPLINE
  5
79
330
1F
100
AcDbEntity
  8
0
  6
Continuous
 62
     7
370
    25
100
AcDbSpline
210
0.0
220
0.0
230
1.0
 70
     8
 71
     3
 72
    19
 73
    15
 74
     0
 42
0.00000001
 43
0.00000001
 40
0.0
 40
0.0
 40
0.0
 40
0.0
 40
0.0356553931083379
 40
0.0972617945472967
 40
0.1616642983304972
 40
0.2402733026627509
 40
0.3593514530263993
 40
0.4580662997111893
 40
0.5614237187322701
 40
0.6657049255720054
 40
0.7773278500474515
 40
0.8589501210824768
 40
0.9377062424644387
 40
1.0
 40
1.0
 40
1.0
 40
1.0
 10
69.60749488189279
 20
32.92051222119222
 30
0.0
 10
69.61095138733947
 20
32.92331814237847
 30
0.0
 10
69.62038014112113
 20
32.93097221392674
 30
0.0
 10
69.63010763663625
 20
32.9479540070127
 30
0.0
 10
69.63765547868788
 20
32.96892188859948
 30
0.0
 10
69.6418099947698
 20
32.99541568569134
 30
0.0
 10
69.64235176607994
 20
33.02863141509843
 30
0.0
 10
69.63889453384164
 20
33.06942214292412
 30
0.0
 10
69.63238761446141
 20
33.10942141612797
 30
0.0
 10
69.62279850415844
 20
33.14811251583763
 30
0.0
 10
69.6117892294527
 20
33.1784677380253
 30
0.0
 10
69.59819064389065
 20
33.20267094945237
 30
0.0
 10
69.5813151437653
 20
33.22237057269795
 30
0.0
 10
69.5656035664524
 20
33.23017320893706
 30
0.0
 10
69.55866465097694
 20
33.23361919225692
 30
0.0
  0
LINE
  5
7A
330
1F
100
AcDbEntity
  8
0
  6
Continuous
 62
     7
370
    25
100
AcDbLine
 10
67.9363522449
 20
50.0417721119
 30
0.0
 11
67.9363522449
 21
48.5148407937
 31
0.0
  0
LINE
  5
7B
330
1F
100
AcDbEntity
  8
0
  6
Continuous
 62
     7
370
    25
100
AcDbLine
 10
68.9263522449
 20
48.5148407937
 30
0.0
 11
68.9263522449
 21
49.7910856728
 31
0.0
  0
LINE
  5
7C
330
1F
100
AcDbEntity
  8
0
  6
Continuous
 62
     7
370
    25
100
AcDbLine
 10
67.9363522449
 20
50.3626005078
 30
0.0
 11
67.9363522449
 21
50.0417721119
 31
0.0
  0
LINE
  5
7D
330
1F
100
AcDbEntity
  8
0
  6
Continuous
 62
     7
370
    25
100
AcDbLine
 10
69.6451184708
 20
50.5308200238
 30
0.0
 11
67.7175453853
 21
51.6435842802
 31
0.0
  0
LINE
  5
7E
330
1F
100
AcDbEntity
  8
0
  6
Continuous
 62
     7
370
    25
100
AcDbLine
 10
68.39352048
 20
50.0986829033
 30
0.0
 11
69.1451591045
 21
49.6647711615
 31
0.0
  0
LINE
  5
7F
330
1F
100
AcDbEntity
  8
0
  6
Continuous
 62
     7
370
    25
100
AcDbLine
 10
67.217586019
 20
50.7775354179
 30
0.0
 11
67.9363773414
 21
50.3625860199
 31
0.0
  0
LINE
  5
80
330
1F
100
AcDbEntity
  8
0
  6
Continuous
 62
     7
370
    25
100
AcDbLine
 10
67.4675082398
 20
51.6187970773
 30
0.0
 11
67.4470054759
 21
51.6069572357
 31
0.0
  0
LINE
  5
81
330
1F
100
AcDbEntity
  8
0
  6
Continuous
 62
     7
370
    25
100
AcDbLine
 10
67.1140123115
 20
51.0301336563
 30
0.0
 11
67.1140123115
 21
51.0064578211
 31
0.0
  0
LINE
  5
82
330
1F
100
AcDbEntity
  8
0
  6
Continuous
 62
     7
370
    25
100
AcDbLine
 10
69.5875170129
 20
50.4467680692
 30
0.0
 11
69.5842264254
 21
50.4486683024
 31
0.0
  0
LINE
  5
83
330
1F
100
AcDbEntity
  8
0
  6
Continuous
 62
     7
370
    25
100
AcDbLine
 10
69.4945507166
 20
50.4486683024
 30
0.0
 11
69.4912974969
 21
50.4467896482
 31
0.0
  0
LINE
  5
84
330
1F
100
AcDbEntity
  8
0
  6
Continuous
 62
     7
370
    25
100
AcDbLine
 10
67.3714443607
 20
51.7260795804
 30
0.0
 11
67.3681537732
 21
51.7279798136
 31
0.0
  0
LINE
  5
85
330
1F
100
AcDbEntity
  8
0
  6
Continuous
 62
     7
370
    25
100
AcDbLine
 10
67.2784780644
 20
51.7279798136
 30
0.0
 11
67.2752248447
 21
51.7261011594
 31
0.0
  0
LINE
  5
86
330
1F
100
AcDbEntity
  8
0
  6
Continuous
 62
     7
370
    25
100
AcDbLine
 10
68.8262006715
 20
48.942900124
 30
0.0
 11
68.8262006715
 21
48.9467437201
 31
0.0
  0
LINE
  5
87
330
1F
100
AcDbEntity
  8
0
  6
Continuous
 62
     7
370
    25
100
AcDbLine
 10
71.2127742047
 20
49.6258316319
 30
0.0
 11
69.6656245675
 21
50.5189821062
 31
0.0
  0
LINE
  5
88
330
1F
100
AcDbEntity
  8
0
  6
Continuous
 62
     7
370
    25
100
AcDbLine
 10
70.3281487494
 20
48.9818457759
 30
0.0
 11
70.7128148384
 21
48.7597827695
 31
0.0
  0
LINE
  5
89
330
1F
100
AcDbEntity
  8
0
  6
Continuous
 62
     7
370
    25
100
AcDbLine
 10
69.1656652012
 20
49.6529332438
 30
0.0
 11
69.8508516721
 21
49.2573835137
 31
0.0
  0
LINE
  5
8A
330
1F
100
AcDbEntity
  8
0
  6
Continuous
 62
     7
370
    25
100
AcDbLine
 10
66.5118934514
 20
51.1849230657
 30
0.0
 11
67.1970799223
 21
50.7893733355
 31
0.0
  0
LINE
  5
8B
330
1F
100
AcDbEntity
  8
0
  6
Continuous
 62
     7
370
    25
100
AcDbLine
 10
65.6499302851
 20
51.6825238098
 30
0.0
 11
66.0345963741
 21
51.4604608034
 31
0.0
  0
LINE
  5
8C
330
1F
100
AcDbEntity
  8
0
  6
Continuous
 62
     7
370
    25
100
AcDbLine
 10
67.6970392886
 20
51.6554221979
 30
0.0
 11
66.1498896514
 21
52.5485726722
 31
0.0
  0
LINE
  5
8D
330
1F
100
AcDbEntity
  8
0
  6
Continuous
 62
     7
370
    25
100
AcDbLine
 10
67.9313522449
 20
48.5066753856
 30
0.0
 11
67.9313522449
 21
33.8089407716
 31
0.0
  0
LINE
  5
8E
330
1F
100
AcDbEntity
  8
0
  6
Continuous
 62
     7
370
    25
100
AcDbLine
 10
68.9313522449
 20
33.8089407716
 30
0.0
 11
68.9313522449
 21
48.5066753856
 31
0.0
  0
LINE
  5
8F
330
1F
100
AcDbEntity
  8
0
  6
Continuous
 62
     7
370
    25
100
AcDbLine
 10
69.6188522449
 20
20.8636618583
 30
0.0
 11
69.6188522449
 21
23.9425112844
 31
0.0
  0
LINE
  5
90
330
1F
100
AcDbEntity
  8
0
  6
Continuous
 62
     7
370
    25
100
AcDbLine
 10
69.6188522449
 20
26.2045184581
 30
0.0
 11
69.6188522449
 21
32.6943625634
 31
0.0
  0
LINE
  5
91
330
1F
100
AcDbEntity
  8
0
  6
Continuous
 62
     7
370
    25
100
AcDbLine
 10
67.2438522449
 20
32.6943625634
 30
0.0
 11
67.2438522449
 21
26.2045184581
 31
0.0
  0
LINE
  5
92
330
1F
100
AcDbEntity
  8
0
  6
Continuous
 62
     7
370
    25
100
AcDbLine
 10
67.2438522449
 20
23.9425112844
 30
0.0
 11
67.2438522449
 21
18.4885332007
 31
0.0
  0
LWPOLYLINE
  5
93
330
1F
100
AcDbEntity
  8
0
  6
Continuous
 62
     7
370
    25
100
AcDbPolyline
 90
       32
 70
   128
 43
0.0
 10
67.6676769212
 20
33.3680803913
 10
67.7597071859
 20
33.3206997396
 10
67.8604933711
 20
33.2796840564
 10
67.9687215748
 20
33.2455680439
 10
68.0829808767
 20
33.2187964565
 10
68.2017817322
 20
33.1997183027
 10
68.3235753904
 20
33.1885822955
 10
68.4467740847
 20
33.1855336098
 10
68.5697717317
 20
33.1906119898
 10
68.6909648691
 20
33.2037512311
 10
68.8087735589
 20
33.2247800435
 10
68.9216619846
 20
33.2534242844
 10
69.0281584731
 20
33.2893105323
 10
69.1268746797
 20
33.331970955
 10
69.2165236876
 20
33.3808494087
 10
69.2959367851
 20
33.435308688
 10
69.3640787009
 20
33.4946388329
 10
69.4200611009
 20
33.5580663843
 10
69.4631541689
 20
33.6247644669
 10
69.4927961209
 20
33.6938635693
 10
69.5086005287
 20
33.7644628791
 10
69.5103613577
 20
33.8356420262
 10
69.4980556527
 20
33.9064730816
 10
69.4718438376
 20
33.9760326542
 10
69.4320676233
 20
34.0434139286
 10
69.3792455536
 20
34.1077384868
 10
69.3140662451
 20
34.1681677598
 10
69.2373794096
 20
34.2239139597
 10
69.1501847774
 20
34.2742503494
 10
69.0536190638
 20
34.3185207172
 10
68.9489411506
 20
34.3561479311
 10
68.9313522449
 20
34.361571276
  0
LWPOLYLINE
  5
94
330
1F
100
AcDbEntity
  8
0
  6
Continuous
 62
     7
370
    25
100
AcDbPolyline
 90
       18
 70
   128
 43
0.0
 10
67.9313522449
 20
34.361571276
 10
67.8869063262
 20
34.3473922934
 10
67.7841323651
 20
34.3080548028
 10
67.6897959048
 20
34.2622105974
 10
67.6051267655
 20
34.2104573267
 10
67.5312287389
 20
34.1534696737
 10
67.4690651988
 20
34.0919905595
 10
67.4194465419
 20
34.0268214585
 10
67.3830196234
 20
33.9588119495
 10
67.3602593238
 20
33.8888486405
 10
67.3514623584
 20
33.8178436103
 10
67.3567434093
 20
33.7467225179
 10
67.3760336296
 20
33.6764125356
 10
67.4090815421
 20
33.6078302615
 10
67.4554563165
 20
33.5418697706
 10
67.5145533868
 20
33.4793909585
 10
67.5856023322
 20
33.4212083322
 10
67.6676769212
 20
33.3680803913
  0
LWPOLYLINE
  5
95
330
1F
100
AcDbEntity
  8
0
  6
Continuous
 62
     7
370
    25
100
AcDbPolyline
 90
       15
 70
   128
 43
0.0
 10
67.6464637178
 20
33.3313380452
 10
67.5635192994
 20
33.3849189159
 10
67.4914883838
 20
33.4435240533
 10
67.4312768015
 20
33.5064164636
 10
67.3836417483
 20
33.5728052384
 10
67.3491822624
 20
33.6418555003
 10
67.3283316919
 20
33.7126989023
 10
67.3213522449
 20
33.7844445473
 10
67.3283316919
 20
33.8561901923
 10
67.3491822624
 20
33.9270335942
 10
67.3836417483
 20
33.9960838562
 10
67.4312768015
 20
34.062472631
 10
67.4914883838
 20
34.1253650413
 10
67.5635192994
 20
34.1839701787
 10
67.6463361824
 20
34.2374774128
  0
LWPOLYLINE
  5
96
330
1F
100
AcDbEntity
  8
0
  6
Continuous
 62
     7
370
    25
100
AcDbPolyline
 90
       29
 70
   128
 43
0.0
 10
69.2163683074
 20
34.2374774128
 10
69.2991851904
 20
34.1839701787
 10
69.371216106
 20
34.1253650413
 10
69.4314276883
 20
34.062472631
 10
69.4790627415
 20
33.9960838562
 10
69.5135222274
 20
33.9270335942
 10
69.5343727979
 20
33.8561901923
 10
69.5413522449
 20
33.7844445473
 10
69.5343727979
 20
33.7126989023
 10
69.5135222274
 20
33.6418555003
 10
69.4790627415
 20
33.5728052384
 10
69.4314276883
 20
33.5064164636
 10
69.371216106
 20
33.4435240533
 10
69.2991851904
 20
33.3849189159
 10
69.216240772
 20
33.3313380452
 10
69.123425925
 20
33.2834552517
 10
69.0219078498
 20
33.2418726892
 10
68.9129631953
 20
33.2071132827
 10
68.7979620037
 20
33.1796141518
 10
68.6783504816
 20
33.159721114
 10
68.5556328134
 20
33.1476843359
 10
68.4313522449
 20
33.1436551869
 10
68.3070716764
 20
33.1476843359
 10
68.1843540082
 20
33.159721114
 10
68.0647424861
 20
33.1796141518
 10
67.9497412945
 20
33.2071132827
 10
67.84079664
 20
33.2418726892
 10
67.7392785648
 20
33.2834552517
 10
67.6464637178
 20
33.3313380452
  0
LWPOLYLINE
  5
97
330
1F
100
AcDbEntity
  8
0
  6
Continuous
 62
     7
370
    25
100
AcDbPolyline
 90
       29
 70
   128
 43
0.0
 10
69.5413522449
 20
32.6943625634
 10
69.5343727979
 20
32.6226169184
 10
69.5135222274
 20
32.5517735165
 10
69.4790627415
 20
32.4827232546
 10
69.4314276883
 20
32.4163344797
 10
69.371216106
 20
32.3534420694
 10
69.2991851904
 20
32.2948369321
 10
69.216240772
 20
32.2412560614
 10
69.123425925
 20
32.1933732678
 10
69.0219078498
 20
32.1517907054
 10
68.9129631953
 20
32.1170312988
 10
68.7979620037
 20
32.0895321679
 10
68.6783504816
 20
32.0696391301
 10
68.5556328134
 20
32.057602352
 10
68.4313522449
 20
32.053573203
 10
68.3070716764
 20
32.057602352
 10
68.1843540082
 20
32.0696391301
 10
68.0647424861
 20
32.0895321679
 10
67.9497412945
 20
32.1170312988
 10
67.84079664
 20
32.1517907054
 10
67.7392785648
 20
32.1933732678
 10
67.6464637178
 20
32.2412560614
 10
67.5635192994
 20
32.2948369321
 10
67.4914883838
 20
32.3534420694
 10
67.4312768015
 20
32.4163344797
 10
67.3836417483
 20
32.4827232546
 10
67.3491822624
 20
32.5517735165
 10
67.3283316919
 20
32.6226169184
 10
67.3213522449
 20
32.6943625634
  0
LWPOLYLINE
  5
98
330
1F
100
AcDbEntity
  8
0
  6
Continuous
 62
     7
370
    25
100
AcDbPolyline
 90
       35
 70
   128
 43
0.0
 10
66.37304438
 20
24.2846792505
 10
66.5220009925
 20
24.2055735591
 10
66.6800565332
 20
24.1325889603
 10
66.8464577955
 20
24.0660732589
 10
67.0204118016
 20
24.0063434325
 10
67.2010895815
 20
23.9536841209
 10
67.3876301232
 20
23.9083462698
 10
67.5791444761
 20
23.8705459345
 10
67.7747199872
 20
23.840463251
 10
67.97342465
 20
23.818241577
 10
68.1743115463
 20
23.8039868087
 10
68.3764233586
 20
23.7977668768
 10
68.578796932
 20
23.7996114219
 10
68.7804678644
 20
23.8095116541
 10
68.9804751019
 20
23.8274203941
 10
69.1778655189
 20
23.8532522987
 10
69.3716984601
 20
23.8868842672
 10
69.5610502235
 20
23.9281560277
 10
69.7450184614
 20
23.9768709017
 10
69.9227264817
 20
24.0327967405
 10
70.0933274245
 20
24.0956670321
 10
70.2560082987
 20
24.1651821709
 10
70.4099938559
 20
24.2410108856
 10
70.5545502848
 20
24.3227918178
 10
70.6889887081
 20
24.4101352442
 10
70.8126684655
 20
24.5026249335
 10
70.9250001667
 20
24.5998201303
 10
71.0254484999
 20
24.7012576552
 10
71.1135347831
 20
24.8064541122
 10
71.1888392451
 20
24.9149081922
 10
71.2510030258
 20
25.0261030623
 10
71.2997298864
 20
25.1395088281
 10
71.3347876214
 20
25.2545850596
 10
71.3560091645
 20
25.3707833661
 10
71.3624028786
 20
25.4482577606
  0
LWPOLYLINE
  5
99
330
1F
100
AcDbEntity
  8
0
  6
Continuous
 62
     7
370
    25
100
AcDbPolyline
 90
       13
 70
   128
 43
0.0
 10
65.5003016112
 20
25.4482577606
 10
65.5010089384
 20
25.4341178933
 10
65.5146749772
 20
25.3175422019
 10
65.5422403115
 20
25.2017885661
 10
65.5835735799
 20
25.0874086047
 10
65.6384778104
 20
24.9749473902
 10
65.7066913595
 20
24.8649408515
 10
65.7878891586
 20
24.75791322
 10
65.881684263
 20
24.654374531
 10
65.9876296965
 20
24.5548181935
 10
66.1052205809
 20
24.4597186389
 10
66.2338965419
 20
24.3695290597
 10
66.37304438
 20
24.2846792505
  0
LWPOLYLINE
  5
9A
330
1F
100
AcDbEntity
  8
0
  6
Continuous
 62
     7
370
    25
100
AcDbPolyline
 90
       53
 70
   128
 43
0.0
 10
66.3515934329
 20
24.9865905683
 10
66.5004156877
 20
24.9074966872
 10
66.6582408601
 20
24.8344501202
 10
66.8243330963
 20
24.7677914444
 10
66.9979179975
 20
24.707831453
 10
67.178186231
 20
24.6548497074
 10
67.3642973029
 20
24.6090932329
 10
67.5553834774
 20
24.5707753672
 10
67.7505538228
 20
24.540074766
 10
67.9488983646
 20
24.5171345697
 10
68.1494923292
 20
24.5020617359
 10
68.3514004548
 20
24.4949265413
 10
68.5536813526
 20
24.4957622534
 10
68.7553918955
 20
24.5045649756
 10
68.9555916161
 20
24.5212936658
 10
69.1533470907
 20
24.5458703269
 10
69.347736292
 20
24.5781803713
 10
69.5378528879
 20
24.6180731546
 10
69.722810467
 20
24.6653626783
 10
69.9017466718
 20
24.7198284567
 10
70.0738272189
 20
24.7812165452
 10
70.2382497895
 20
24.8492407243
 10
70.3942477697
 20
24.9235838338
 10
70.5410938248
 20
25.0038992518
 10
70.6781032908
 20
25.0898125108
 10
70.8046373662
 20
25.1809230435
 10
70.9201060909
 20
25.2768060505
 10
71.0239710963
 20
25.377014481
 10
71.1157481158
 20
25.481081117
 10
71.1950092425
 20
25.5885207519
 10
71.2613849246
 20
25.6988324524
 10
71.314565688
 20
25.8115018946
 10
71.3543035793
 20
25.9260037613
 10
71.3804133222
 20
26.0418041922
 10
71.3927731811
 20
26.1583632721
 10
71.3913255285
 20
26.2751375487
 10
71.376077114
 20
26.3915825666
 10
71.3470990329
 20
26.5071554052
 10
71.3045263943
 20
26.6213172107
 10
71.2485576915
 20
26.733535708
 10
71.1794538764
 20
26.8432876827
 10
71.0975371429
 20
26.9500614204
 10
71.0031894247
 20
27.0533590926
 10
70.8968506144
 20
27.152699078
 10
70.7790165125
 20
27.2476182076
 10
70.6502365161
 20
27.3376739246
 10
70.5111110569
 20
27.4224463478
 10
70.3622888021
 20
27.501540229
 10
70.2044636297
 20
27.5745867959
 10
70.0383713935
 20
27.6412454718
 10
69.8647864923
 20
27.7012054631
 10
69.6845182588
 20
27.7541872087
 10
69.6188522449
 20
27.7713255925
  0
LWPOLYLINE
  5
9B
330
1F
100
AcDbEntity
  8
0
  6
Continuous
 62
     7
370
    25
100
AcDbPolyline
 90
       30
 70
   128
 43
0.0
 10
67.2438522449
 20
27.7713255925
 10
67.1398940228
 20
27.7436742378
 10
66.960957818
 20
27.6892084595
 10
66.7888772709
 20
27.6278203709
 10
66.6244547003
 20
27.5597961918
 10
66.4684567201
 20
27.4854530823
 10
66.321610665
 20
27.4051376643
 10
66.184601199
 20
27.3192244053
 10
66.0580671236
 20
27.2281138727
 10
65.9425983989
 20
27.1322308657
 10
65.8387333935
 20
27.0320224351
 10
65.746956374
 20
26.9279557991
 10
65.6676952472
 20
26.8205161642
 10
65.6013195652
 20
26.7102044637
 10
65.5481388018
 20
26.5975350216
 10
65.5084009105
 20
26.4830331548
 10
65.4822911676
 20
26.3672327239
 10
65.4699313087
 20
26.250673644
 10
65.4713789613
 20
26.1338993674
 10
65.4866273758
 20
26.0174543495
 10
65.5156054569
 20
25.9018815109
 10
65.5581780955
 20
25.7877197054
 10
65.6141467983
 20
25.6755012081
 10
65.6832506134
 20
25.5657492334
 10
65.7651673469
 20
25.4589754958
 10
65.8595150651
 20
25.3556778235
 10
65.9658538754
 20
25.2563378382
 10
66.0836879773
 20
25.1614187086
 10
66.2124679737
 20
25.0713629915
 10
66.3515934329
 20
24.9865905683
  0
ARC
  5
9C
330
1F
100
AcDbEntity
  8
0
  6
Continuous
 62
     7
370
    25
100
AcDbCircle
 10
67.6692366015
 20
26.1815847987
 30
0.0
 40
0.5080879312479423
100
AcDbArc
 50
146.8483266352
 51
165.2431271071
  0
SPLINE
  5
9D
330
1F
100
AcDbEntity
  8
0
  6
Continuous
 62
     7
370
    25
100
AcDbSpline
210
0.0
220
0.0
230
1.0
 70
     8
 71
     3
 72
    12
 73
     8
 74
     0
 42
0.00000001
 43
0.00000001
 40
0.0
 40
0.0
 40
0.0
 40
0.0
 40
0.1140310720545249
 40
0.3297842308468557
 40
0.5453472673578947
 40
0.7607940999646194
 40
0.9999999999999999
 40
0.9999999999999999
 40
0.9999999999999999
 40
0.9999999999999999
 10
67.22811714799322
 20
26.27174952738212
 30
0.0
 10
67.22463590817505
 20
26.27216898752314
 30
0.0
 10
67.21456796813777
 20
26.27338208968458
 30
0.0
 10
67.19935787698876
 20
26.27829435798078
 30
0.0
 10
67.18571771622254
 20
26.28703675579972
 30
0.0
 10
67.17707997709931
 20
26.29839904359623
 30
0.0
 10
67.1776223787554
 20
26.30665841877982
 30
0.0
 10
67.1779077518919
 20
26.31100391399557
 30
0.0
  0
SPLINE
  5
9E
330
1F
100
AcDbEntity
  8
0
  6
Continuous
 62
     7
370
    25
100
AcDbSpline
210
0.0
220
0.0
230
1.0
 70
     8
 71
     3
 72
     9
 73
     5
 74
     0
 42
0.00000001
 43
0.00000001
 40
0.0
 40
0.0
 40
0.0
 40
0.0
 40
0.7789335276104303
 40
1.0
 40
1.0
 40
1.0
 40
1.0
 10
67.24385224489794
 20
26.26854956777051
 30
0.0
 10
67.23991421432079
 20
26.26967328545802
 30
0.0
 10
67.23485854469362
 20
26.27111592163644
 30
0.0
 10
67.22933763583826
 20
26.27163481701192
 30
0.0
 10
67.22811714799322
 20
26.27174952738212
 30
0.0
  0
SPLINE
  5
9F
330
1F
100
AcDbEntity
  8
0
  6
Continuous
 62
     7
370
    25
100
AcDbSpline
210
0.0
220
0.0
230
1.0
 70
     8
 71
     3
 72
     9
 73
     5
 74
     0
 42
0.00000001
 43
0.00000001
 40
0.0
 40
0.0
 40
0.0
 40
0.0
 40
0.914668592639278
 40
1.0
 40
1.0
 40
1.0
 40
1.0
 10
67.22990723919743
 20
26.12735258916058
 30
0.0
 10
67.23674171243933
 20
26.12810640639399
 30
0.0
 10
67.24421378844247
 20
26.12893054886426
 30
0.0
 10
67.24990092607429
 20
26.13162287620378
 30
0.0
 10
67.25038621753225
 20
26.13185261628474
 30
0.0
  0
SPLINE
  5
A0
330
1F
100
AcDbEntity
  8
0
  6
Continuous
 62
     7
370
    25
100
AcDbSpline
210
0.0
220
0.0
230
1.0
 70
     8
 71
     3
 72
    12
 73
     8
 74
     0
 42
0.00000001
 43
0.00000001
 40
0.0
 40
0.0
 40
0.0
 40
0.0
 40
0.2156883841321366
 40
0.4313850930993373
 40
0.6468917445480533
 40
0.8622822096388315
 40
1.0
 40
1.0
 40
1.0
 40
1.0
 10
67.18067621073848
 20
26.08768737006762
 30
0.0
 10
67.18025274635328
 20
26.09159248143257
 30
0.0
 10
67.17940580123859
 20
26.09940285488644
 30
0.0
 10
67.18674225033013
 20
26.1106006044614
 30
0.0
 10
67.19959923069007
 20
26.11972950900877
 30
0.0
 10
67.21498214637889
 20
26.12533034168061
 30
0.0
 10
67.22571950135946
 20
26.12678517947057
 30
0.0
 10
67.22990723919743
 20
26.12735258916058
 30
0.0
  0
ARC
  5
A1
330
1F
100
AcDbEntity
  8
0
  6
Continuous
 62
     7
370
    25
100
AcDbCircle
 10
67.7835707004
 20
26.2836635127
 30
0.0
 40
0.633946696631281
100
AcDbArc
 50
198.0072072505
 51
234.4073057164
  0
SPLINE
  5
A2
330
1F
100
AcDbEntity
  8
0
  6
Continuous
 62
     7
370
    25
100
AcDbSpline
210
0.0
220
0.0
230
1.0
 70
     8
 71
     3
 72
    12
 73
     8
 74
     0
 42
0.00000001
 43
0.00000001
 40
0.0
 40
0.0
 40
0.0
 40
0.0
 40
0.1140310720545717
 40
0.3297842308467588
 40
0.5453472673578428
 40
0.7607940999646399
 40
1.0
 40
1.0
 40
1.0
 40
1.0
 10
67.49818671839553
 20
25.76089255631428
 30
0.0
 10
67.49521132278676
 20
25.75976810321106
 30
0.0
 10
67.48660631246258
 20
25.75651612201779
 30
0.0
 10
67.46983422651937
 20
25.75378079934324
 30
0.0
 10
67.44948080917882
 20
25.75439463917679
 30
0.0
 10
67.42945559358405
 20
25.75890302978348
 30
0.0
 10
67.41972240590813
 20
25.76496470054012
 30
0.0
 10
67.41460149548338
 20
25.76815392014655
 30
0.0
  0
SPLINE
  5
A3
330
1F
100
AcDbEntity
  8
0
  6
Continuous
 62
     7
370
    25
100
AcDbSpline
210
0.0
220
0.0
230
1.0
 70
     8
 71
     3
 72
     9
 73
     5
 74
     0
 42
0.00000001
 43
0.00000001
 40
0.0
 40
0.0
 40
0.0
 40
0.0
 40
0.8321870323121279
 40
1.0
 40
1.0
 40
1.0
 40
1.0
 10
67.5181199247495
 20
25.76625494261954
 30
0.0
 10
67.51224807698476
 20
25.76512722838658
 30
0.0
 10
67.50519215381276
 20
25.76377210725495
 30
0.0
 10
67.49919338893255
 20
25.76130634345514
 30
0.0
 10
67.49818671839553
 20
25.76089255631428
 30
0.0
  0
SPLINE
  5
A4
330
1F
100
AcDbEntity
  8
0
  6
Continuous
 62
     7
370
    25
100
AcDbSpline
210
0.0
220
0.0
230
1.0
 70
     8
 71
     3
 72
     9
 73
     5
 74
     0
 42
0.00000001
 43
0.00000001
 40
0.0
 40
0.0
 40
0.0
 40
0.0
 40
0.9146685926392368
 40
1.0
 40
1.0
 40
1.0
 40
1.0
 10
67.67632107763475
 20
25.65951922460527
 30
0.0
 10
67.68023044617419
 20
25.66284211358014
 30
0.0
 10
67.68450452814322
 20
25.66647500204009
 30
0.0
 10
67.68522817030664
 20
25.67070027760687
 30
0.0
 10
67.68528991971087
 20
25.67106082631747
 30
0.0
  0
SPLINE
  5
A5
330
1F
100
AcDbEntity
  8
0
  6
Continuous
 62
     7
370
    25
100
AcDbSpline
210
0.0
220
0.0
230
1.0
 70
     8
 71
     3
 72
    12
 73
     8
 74
     0
 42
0.00000001
 43
0.00000001
 40
0.0
 40
0.0
 40
0.0
 40
0.0
 40
0.2156883841321433
 40
0.4313850930993625
 40
0.6468917445480472
 40
0.8622822096387995
 40
1.0
 40
1.0
 40
1.0
 40
1.0
 10
67.6900945215134
 20
25.61137537371375
 30
0.0
 10
67.68501180357988
 20
25.61396384456162
 30
0.0
 10
67.67484617153728
 20
25.6191408861635
 30
0.0
 10
67.66631795193332
 20
25.63005365909714
 30
0.0
 10
67.6642274193353
 20
25.64175704093709
 30
0.0
 10
67.66824444891141
 20
25.65199679627556
 30
0.0
 10
67.67405490722503
 20
25.6574085537952
 30
0.0
 10
67.67632107763475
 20
25.65951922460527
 30
0.0
  0
ARC
  5
A6
330
1F
100
AcDbEntity
  8
0
  6
Continuous
 62
     7
370
    25
100
AcDbCircle
 10
68.3904143925
 20
27.3469594865
 30
0.0
 40
1.871550195476674
100
AcDbArc
 50
248.0255925923
 51
265.6019392401
  0
SPLINE
  5
A7
330
1F
100
AcDbEntity
  8
0
  6
Continuous
 62
     7
370
    25
100
AcDbSpline
210
0.0
220
0.0
230
1.0
 70
     8
 71
     3
 72
    12
 73
     8
 74
     0
 42
0.00000001
 43
0.00000001
 40
0.0
 40
0.0
 40
0.0
 40
0.0
 40
0.1140310720544804
 40
0.3297842308467755
 40
0.5453472673578358
 40
0.7607940999646484
 40
1.0
 40
1.0
 40
1.0
 40
1.0
 10
68.31489199828391
 20
25.50990562187224
 30
0.0
 10
68.31416539327874
 20
25.50789594490239
 30
0.0
 10
68.31206401101122
 20
25.50208384683285
 30
0.0
 10
68.30355479075004
 20
25.49330324811283
 30
0.0
 10
68.2884108726726
 20
25.48542895091162
 30
0.0
 10
68.26872868031228
 20
25.48044249025558
 30
0.0
 10
68.25442147263978
 20
25.48075561206666
 30
0.0
 10
68.24689403852891
 20
25.48092035447172
 30
0.0
  0
SPLINE
  5
A8
330
1F
100
AcDbEntity
  8
0
  6
Continuous
 62
     7
370
    25
100
AcDbSpline
210
0.0
220
0.0
230
1.0
 70
     8
 71
     3
 72
     9
 73
     5
 74
     0
 42
0.00000001
 43
0.00000001
 40
0.0
 40
0.0
 40
0.0
 40
0.0
 40
0.8321870323125368
 40
1.0
 40
1.0
 40
1.0
 40
1.0
 10
68.32241863685643
 20
25.52183421727305
 30
0.0
 10
68.31964792537511
 20
25.51863989081842
 30
0.0
 10
68.31631849175776
 20
25.51480141901991
 30
0.0
 10
68.31509698325142
 20
25.51060914056169
 30
0.0
 10
68.31489199828391
 20
25.50990562187224
 30
0.0
  0
SPLINE
  5
A9
330
1F
100
AcDbEntity
  8
0
  6
Continuous
 62
     7
370
    25
100
AcDbSpline
210
0.0
220
0.0
230
1.0
 70
     8
 71
     3
 72
     9
 73
     5
 74
     0
 42
0.00000001
 43
0.00000001
 40
0.0
 40
0.0
 40
0.0
 40
0.0
 40
0.9146685926390761
 40
1.0
 40
1.0
 40
1.0
 40
1.0
 10
68.56502193384046
 20
25.51093901952794
 30
0.0
 10
68.56371614260736
 20
25.51488447694906
 30
0.0
 10
68.56228853129151
 20
25.51919801460945
 30
0.0
 10
68.55762477822151
 20
25.52248112928123
 30
0.0
 10
68.55722681360847
 20
25.5227612820767
 30
0.0
  0
SPLINE
  5
AA
330
1F
100
AcDbEntity
  8
0
  6
Continuous
 62
     7
370
    25
100
AcDbSpline
210
0.0
220
0.0
230
1.0
 70
     8
 71
     3
 72
    12
 73
     8
 74
     0
 42
0.00000001
 43
0.00000001
 40
0.0
 40
0.0
 40
0.0
 40
0.0
 40
0.2156883841321667
 40
0.4313850930993678
 40
0.6468917445480533
 40
0.8622822096388536
 40
1.0
 40
1.0
 40
1.0
 40
1.0
 10
68.6337315534332
 20
25.48251855174526
 30
0.0
 10
68.62696696918307
 20
25.48227409095917
 30
0.0
 10
68.61343753959304
 20
25.48178515995165
 30
0.0
 10
68.59404036667469
 20
25.48602040186255
 30
0.0
 10
68.57822692676203
 20
25.49344257863886
 30
0.0
 10
68.5685249487802
 20
25.50232294684206
 30
0.0
 10
68.56600482275032
 20
25.50852148993266
 30
0.0
 10
68.56502193384046
 20
25.51093901952794
 30
0.0
  0
ARC
  5
AB
330
1F
100
AcDbEntity
  8
0
  6
Continuous
 62
     7
370
    25
100
AcDbCircle
 10
68.4770417124
 20
27.3266305885
 30
0.0
 40
1.850756847959147
100
AcDbArc
 50
274.8566219185
 51
292.5651563821
  0
SPLINE
  5
AC
330
1F
100
AcDbEntity
  8
0
  6
Continuous
 62
     7
370
    25
100
AcDbSpline
210
0.0
220
0.0
230
1.0
 70
     8
 71
     3
 72
    12
 73
     8
 74
     0
 42
0.00000001
 43
0.00000001
 40
0.0
 40
0.0
 40
0.0
 40
0.0
 40
0.1140310720544811
 40
0.329784230846816
 40
0.5453472673578305
 40
0.7607940999645736
 40
1.0
 40
1.0
 40
1.0
 40
1.0
 10
69.19981811116148
 20
25.66581346627371
 30
0.0
 10
69.20176593211744
 20
25.66409580695018
 30
0.0
 10
69.20739913913916
 20
25.65912824022767
 30
0.0
 10
69.2121373703838
 20
25.6494459211066
 30
0.0
 10
69.21107405339178
 20
25.63769614337695
 30
0.0
 10
69.20326444561333
 20
25.62613583248223
 30
0.0
 10
69.1927641861591
 20
25.6205169828375
 30
0.0
 10
69.18723969717438
 20
25.6175607441746
 30
0.0
  0
SPLINE
  5
AD
330
1F
100
AcDbEntity
  8
0
  6
Continuous
 62
     7
370
    25
100
AcDbSpline
210
0.0
220
0.0
230
1.0
 70
     8
 71
     3
 72
     9
 73
     5
 74
     0
 42
0.00000001
 43
0.00000001
 40
0.0
 40
0.0
 40
0.0
 40
0.0
 40
0.8321870323123318
 40
1.0
 40
1.0
 40
1.0
 40
1.0
 10
69.19052917915583
 20
25.67732066136431
 30
0.0
 10
69.19248264916627
 20
25.6739309158025
 30
0.0
 10
69.19483004216157
 20
25.66985761805789
 30
0.0
 10
69.19910133314559
 20
25.66639460480485
 30
0.0
 10
69.19981811116148
 20
25.66581346627371
 30
0.0
  0
SPLINE
  5
AE
330
1F
100
AcDbEntity
  8
0
  6
Continuous
 62
     7
370
    25
100
AcDbSpline
210
0.0
220
0.0
230
1.0
 70
     8
 71
     3
 72
     9
 73
     5
 74
     0
 42
0.00000001
 43
0.00000001
 40
0.0
 40
0.0
 40
0.0
 40
0.0
 40
0.9146685926387469
 40
1.0
 40
1.0
 40
1.0
 40
1.0
 10
69.37542089914182
 20
25.76864824296275
 30
0.0
 10
69.36966486293092
 20
25.77090507338258
 30
0.0
 10
69.36337183367722
 20
25.77337244838376
 30
0.0
 10
69.35605264867064
 20
25.77379019811264
 30
0.0
 10
69.35542809231329
 20
25.77382584528493
 30
0.0
  0
SPLINE
  5
AF
330
1F
100
AcDbEntity
  8
0
  6
Continuous
 62
     7
370
    25
100
AcDbSpline
210
0.0
220
0.0
230
1.0
 70
     8
 71
     3
 72
    12
 73
     8
 74
     0
 42
0.00000001
 43
0.00000001
 40
0.0
 40
0.0
 40
0.0
 40
0.0
 40
0.2156883841322598
 40
0.4313850930994754
 40
0.6468917445481038
 40
0.8622822096388562
 40
1.0
 40
1.0
 40
1.0
 40
1.0
 10
69.45881753115671
 20
25.776599482867
 30
0.0
 10
69.45433368229992
 20
25.77366529225998
 30
0.0
 10
69.4453658115251
 20
25.7677967977962
 30
0.0
 10
69.42646228611622
 20
25.76287356141287
 30
0.0
 10
69.40618923752201
 20
25.76166672263232
 30
0.0
 10
69.38845153910214
 20
25.76398570444569
 30
0.0
 10
69.3790770843782
 20
25.76734001063172
 30
0.0
 10
69.37542089914182
 20
25.76864824296275
 30
0.0
  0
ARC
  5
B0
330
1F
100
AcDbEntity
  8
0
  6
Continuous
 62
     7
370
    25
100
AcDbCircle
 10
69.0908694124
 20
26.2754325821
 30
0.0
 40
0.6198550467297221
100
AcDbArc
 50
306.41314194
 51
343.3696913784
  0
SPLINE
  5
B1
330
1F
100
AcDbEntity
  8
0
  6
Continuous
 62
     7
370
    25
100
AcDbSpline
210
0.0
220
0.0
230
1.0
 70
     8
 71
     3
 72
    12
 73
     8
 74
     0
 42
0.00000001
 43
0.00000001
 40
0.0
 40
0.0
 40
0.0
 40
0.0
 40
0.1140310720545266
 40
0.3297842308468783
 40
0.5453472673579259
 40
0.7607940999646448
 40
1.0
 40
1.0
 40
1.0
 40
1.0
 10
69.63458734180263
 20
26.13728738874866
 30
0.0
 10
69.63806858162081
 20
26.13686792860763
 30
0.0
 10
69.64813652165809
 20
26.1356548264462
 30
0.0
 10
69.66334661280712
 20
26.13074255814999
 30
0.0
 10
69.67698677357332
 20
26.12200016033105
 30
0.0
 10
69.68562451269655
 20
26.11063787253454
 30
0.0
 10
69.68508211104046
 20
26.10237849735095
 30
0.0
 10
69.68479673790397
 20
26.09803300213521
 30
0.0
  0
SPLINE
  5
B2
330
1F
100
AcDbEntity
  8
0
  6
Continuous
 62
     7
370
    25
100
AcDbSpline
210
0.0
220
0.0
230
1.0
 70
     8
 71
     3
 72
     9
 73
     5
 74
     0
 42
0.00000001
 43
0.00000001
 40
0.0
 40
0.0
 40
0.0
 40
0.0
 40
0.8321870323125576
 40
1.0
 40
1.0
 40
1.0
 40
1.0
 10
69.61392416960776
 20
26.14163242470988
 30
0.0
 10
69.61945750487153
 20
26.14003292701798
 30
0.0
 10
69.6261066534991
 20
26.13811088590248
 30
0.0
 10
69.63336867964387
 20
26.13740572405156
 30
0.0
 10
69.63458734180263
 20
26.13728738874866
 30
0.0
  0
LINE
  5
B3
330
1F
100
AcDbEntity
  8
0
  6
Continuous
 62
     7
370
    25
100
AcDbLine
 10
69.6327972506
 20
26.281684327
 30
0.0
 11
69.6188522449
 21
26.2788789025
 31
0.0
  0
SPLINE
  5
B4
330
1F
100
AcDbEntity
  8
0
  6
Continuous
 62
     7
370
    25
100
AcDbSpline
210
0.0
220
0.0
230
1.0
 70
     8
 71
     3
 72
    12
 73
     8
 74
     0
 42
0.00000001
 43
0.00000001
 40
0.0
 40
0.0
 40
0.0
 40
0.0
 40
0.2156883841321619
 40
0.4313850930993691
 40
0.6468917445479918
 40
0.8622822096388885
 40
1.0
 40
1.0
 40
1.0
 40
1.0
 10
69.68202827905738
 20
26.32134954606315
 30
0.0
 10
69.68245174344258
 20
26.3174444346982
 30
0.0
 10
69.68329868855727
 20
26.30963406124434
 30
0.0
 10
69.67596223946573
 20
26.29843631166938
 30
0.0
 10
69.66310525910579
 20
26.289307407122
 30
0.0
 10
69.64772234341697
 20
26.28370657445016
 30
0.0
 10
69.63698498843638
 20
26.28225173666021
 30
0.0
 10
69.63279725059843
 20
26.2816843269702
 30
0.0
  0
ARC
  5
B5
330
1F
100
AcDbEntity
  8
0
  6
Continuous
 62
     7
370
    25
100
AcDbCircle
 10
69.1879364913
 20
26.1787930856
 30
0.0
 40
0.5142460880940349
100
AcDbArc
 50
16.0940261215
 51
33.0750640906
  0
LWPOLYLINE
  5
B6
330
1F
100
AcDbEntity
  8
0
  6
Continuous
 62
     7
370
    25
100
AcDbPolyline
 90
       21
 70
   128
 43
0.0
 10
70.038817086
 20
25.1640893914
 10
70.078253096
 20
25.147796623
 10
70.1244803448
 20
25.139336337
 10
70.1729737871
 20
25.1395366849
 10
70.218986547
 20
25.1483780553
 10
70.2580145748
 20
25.1649949934
 10
70.2862375354
 20
25.1877609174
 10
70.3008927687
 20
25.2144473401
 10
70.3005457183
 20
25.2424420085
 10
70.285230356
 20
25.2690046093
 10
70.2564458562
 20
25.2915350102
 10
70.2170098461
 20
25.3078277786
 10
70.1707825974
 20
25.3162880647
 10
70.122289155
 20
25.3160877168
 10
70.0762763952
 20
25.3072463463
 10
70.0372483673
 20
25.2906294082
 10
70.0090254067
 20
25.2678634842
 10
69.9943701734
 20
25.2411770615
 10
69.9947172238
 20
25.2131823932
 10
70.0100325861
 20
25.1866197923
 10
70.038817086
 20
25.1640893914
  0
LWPOLYLINE
  5
B7
330
1F
100
AcDbEntity
  8
0
  6
Continuous
 62
     7
370
    25
100
AcDbPolyline
 90
       21
 70
   128
 43
0.0
 10
70.5556306853
 20
25.6175944629
 10
70.5950666953
 20
25.6013016946
 10
70.6412939441
 20
25.5928414085
 10
70.6897873864
 20
25.5930417564
 10
70.7358001463
 20
25.6018831268
 10
70.7748281742
 20
25.6185000649
 10
70.8030511348
 20
25.6412659889
 10
70.817706368
 20
25.6679524116
 10
70.8173593177
 20
25.69594708
 10
70.8020439554
 20
25.7225096808
 10
70.7732594555
 20
25.7450400817
 10
70.7338234455
 20
25.7613328501
 10
70.6875961967
 20
25.7697931362
 10
70.6391027544
 20
25.7695927883
 10
70.5930899945
 20
25.7607514178
 10
70.5540619666
 20
25.7441344797
 10
70.5258390061
 20
25.7213685557
 10
70.5111837728
 20
25.6946821331
 10
70.5115308231
 20
25.6666874647
 10
70.5268461854
 20
25.6401248638
 10
70.5556306853
 20
25.6175944629
  0
LWPOLYLINE
  5
B8
330
1F
100
AcDbEntity
  8
0
  6
Continuous
 62
     7
370
    25
100
AcDbPolyline
 90
       21
 70
   128
 43
0.0
 10
70.732476145
 20
26.1507521721
 10
70.771912155
 20
26.1344594038
 10
70.8181394038
 20
26.1259991177
 10
70.8666328461
 20
26.1261994656
 10
70.912645606
 20
26.135040836
 10
70.9516736339
 20
26.1516577741
 10
70.9798965944
 20
26.1744236981
 10
70.9945518277
 20
26.2011101208
 10
70.9942047774
 20
26.2291047892
 10
70.9788894151
 20
26.25566739
 10
70.9501049152
 20
26.278197791
 10
70.9106689052
 20
26.2944905593
 10
70.8644416564
 20
26.3029508454
 10
70.8159482141
 20
26.3027504975
 10
70.7699354542
 20
26.293909127
 10
70.7309074263
 20
26.277292189
 10
70.7026844657
 20
26.2545262649
 10
70.6880292325
 20
26.2278398423
 10
70.6883762828
 20
26.1998451739
 10
70.7036916451
 20
26.173282573
 10
70.732476145
 20
26.1507521721
  0
LWPOLYLINE
  5
B9
330
1F
100
AcDbEntity
  8
0
  6
Continuous
 62
     7
370
    25
100
AcDbPolyline
 90
       21
 70
   128
 43
0.0
 10
70.5424303469
 20
26.6823940909
 10
70.5818663569
 20
26.6661013225
 10
70.6280936057
 20
26.6576410364
 10
70.676587048
 20
26.6578413844
 10
70.7225998079
 20
26.6666827548
 10
70.7616278358
 20
26.6832996929
 10
70.7898507964
 20
26.7060656169
 10
70.8045060296
 20
26.7327520396
 10
70.8041589793
 20
26.7607467079
 10
70.788843617
 20
26.7873093088
 10
70.7600591171
 20
26.8098397097
 10
70.7206231071
 20
26.8261324781
 10
70.6743958583
 20
26.8345927642
 10
70.625902416
 20
26.8343924163
 10
70.5798896561
 20
26.8255510458
 10
70.5408616283
 20
26.8089341077
 10
70.5126386677
 20
26.7861681837
 10
70.4979834344
 20
26.759481761
 10
70.4983304847
 20
26.7314870927
 10
70.513645847
 20
26.7049244918
 10
70.5424303469
 20
26.6823940909
  0
LWPOLYLINE
  5
BA
330
1F
100
AcDbEntity
  8
0
  6
Continuous
 62
     7
370
    25
100
AcDbPolyline
 90
       21
 70
   128
 43
0.0
 10
70.014426041
 20
27.1315825564
 10
70.0538620511
 20
27.1152897881
 10
70.1000892998
 20
27.106829502
 10
70.1485827422
 20
27.1070298499
 10
70.194595502
 20
27.1158712204
 10
70.2336235299
 20
27.1324881584
 10
70.2618464905
 20
27.1552540824
 10
70.2765017238
 20
27.1819405051
 10
70.2761546734
 20
27.2099351735
 10
70.2608393111
 20
27.2364977743
 10
70.2320548112
 20
27.2590281753
 10
70.1926188012
 20
27.2753209436
 10
70.1463915524
 20
27.2837812297
 10
70.0978981101
 20
27.2835808818
 10
70.0518853502
 20
27.2747395113
 10
70.0128573224
 20
27.2581225733
 10
69.9846343618
 20
27.2353566493
 10
69.9699791285
 20
27.2086702266
 10
69.9703261789
 20
27.1806755582
 10
69.9856415412
 20
27.1541129573
 10
70.014426041
 20
27.1315825564
  0
LWPOLYLINE
  5
BB
330
1F
100
AcDbEntity
  8
0
  6
Continuous
 62
     7
370
    25
100
AcDbPolyline
 90
       21
 70
   128
 43
0.0
 10
66.6062586336
 20
27.1175019059
 10
66.6456946437
 20
27.1012091375
 10
66.6919218924
 20
27.0927488515
 10
66.7404153348
 20
27.0929491994
 10
66.7864280946
 20
27.1017905698
 10
66.8254561225
 20
27.1184075079
 10
66.8536790831
 20
27.1411734319
 10
66.8683343164
 20
27.1678598546
 10
66.867987266
 20
27.195854523
 10
66.8526719037
 20
27.2224171238
 10
66.8238874038
 20
27.2449475247
 10
66.7844513938
 20
27.2612402931
 10
66.738224145
 20
27.2697005792
 10
66.6897307027
 20
27.2695002313
 10
66.6437179428
 20
27.2606588608
 10
66.604689915
 20
27.2440419227
 10
66.5764669544
 20
27.2212759987
 10
66.5618117211
 20
27.194589576
 10
66.5621587715
 20
27.1665949077
 10
66.5774741338
 20
27.1400323068
 10
66.6062586336
 20
27.1175019059
  0
LWPOLYLINE
  5
BC
330
1F
100
AcDbEntity
  8
0
  6
Continuous
 62
     7
370
    25
100
AcDbPolyline
 90
       21
 70
   128
 43
0.0
 10
66.0894450343
 20
26.6639968344
 10
66.1288810443
 20
26.647704066
 10
66.1751082931
 20
26.6392437799
 10
66.2236017354
 20
26.6394441279
 10
66.2696144953
 20
26.6482854983
 10
66.3086425231
 20
26.6649024364
 10
66.3368654837
 20
26.6876683604
 10
66.351520717
 20
26.7143547831
 10
66.3511736667
 20
26.7423494514
 10
66.3358583044
 20
26.7689120523
 10
66.3070738045
 20
26.7914424532
 10
66.2676377945
 20
26.8077352216
 10
66.2214105457
 20
26.8161955077
 10
66.1729171034
 20
26.8159951598
 10
66.1269043435
 20
26.8071537893
 10
66.0878763156
 20
26.7905368512
 10
66.059653355
 20
26.7677709272
 10
66.0449981218
 20
26.7410845045
 10
66.0453451721
 20
26.7130898362
 10
66.0606605344
 20
26.6865272353
 10
66.0894450343
 20
26.6639968344
  0
LWPOLYLINE
  5
BD
330
1F
100
AcDbEntity
  8
0
  6
Continuous
 62
     7
370
    25
100
AcDbPolyline
 90
       21
 70
   128
 43
0.0
 10
65.9125995746
 20
26.1308391252
 10
65.9520355846
 20
26.1145463568
 10
65.9982628334
 20
26.1060860707
 10
66.0467562757
 20
26.1062864186
 10
66.0927690356
 20
26.1151277891
 10
66.1317970635
 20
26.1317447272
 10
66.160020024
 20
26.1545106512
 10
66.1746752573
 20
26.1811970739
 10
66.174328207
 20
26.2091917422
 10
66.1590128447
 20
26.2357543431
 10
66.1302283448
 20
26.258284744
 10
66.0907923348
 20
26.2745775124
 10
66.044565086
 20
26.2830377985
 10
65.9960716437
 20
26.2828374505
 10
65.9500588838
 20
26.2739960801
 10
65.9110308559
 20
26.257379142
 10
65.8828078954
 20
26.234613218
 10
65.8681526621
 20
26.2079267953
 10
65.8684997124
 20
26.179932127
 10
65.8838150747
 20
26.1533695261
 10
65.9125995746
 20
26.1308391252
  0
LWPOLYLINE
  5
BE
330
1F
100
AcDbEntity
  8
0
  6
Continuous
 62
     7
370
    25
100
AcDbPolyline
 90
       21
 70
   128
 43
0.0
 10
66.1026453727
 20
25.5991972064
 10
66.1420813827
 20
25.5829044381
 10
66.1883086315
 20
25.574444152
 10
66.2368020738
 20
25.5746444999
 10
66.2828148337
 20
25.5834858703
 10
66.3218428615
 20
25.6001028084
 10
66.3500658221
 20
25.6228687324
 10
66.3647210554
 20
25.6495551551
 10
66.3643740051
 20
25.6775498235
 10
66.3490586428
 20
25.7041124243
 10
66.3202741429
 20
25.7266428252
 10
66.2808381329
 20
25.7429355936
 10
66.2346108841
 20
25.7513958797
 10
66.1861174418
 20
25.7511955318
 10
66.1401046819
 20
25.7423541613
 10
66.101076654
 20
25.7257372232
 10
66.0728536934
 20
25.7029712992
 10
66.0581984602
 20
25.6762848766
 10
66.0585455105
 20
25.6482902082
 10
66.0738608728
 20
25.6217276073
 10
66.1026453727
 20
25.5991972064
  0
LWPOLYLINE
  5
BF
330
1F
100
AcDbEntity
  8
0
  6
Continuous
 62
     7
370
    25
100
AcDbPolyline
 90
       21
 70
   128
 43
0.0
 10
66.6306496786
 20
25.1500087409
 10
66.6700856886
 20
25.1337159725
 10
66.7163129374
 20
25.1252556864
 10
66.7648063797
 20
25.1254560343
 10
66.8108191396
 20
25.1342974048
 10
66.8498471674
 20
25.1509143429
 10
66.878070128
 20
25.1736802669
 10
66.8927253613
 20
25.2003666896
 10
66.8923783109
 20
25.2283613579
 10
66.8770629486
 20
25.2549239588
 10
66.8482784488
 20
25.2774543597
 10
66.8088424387
 20
25.2937471281
 10
66.7626151899
 20
25.3022074141
 10
66.7141217476
 20
25.3020070662
 10
66.6681089878
 20
25.2931656958
 10
66.6290809599
 20
25.2765487577
 10
66.6008579993
 20
25.2537828337
 10
66.586202766
 20
25.227096411
 10
66.5865498164
 20
25.1991017426
 10
66.6018651787
 20
25.1725391418
 10
66.6306496786
 20
25.1500087409
  0
LWPOLYLINE
  5
C0
330
1F
100
AcDbEntity
  8
0
  6
Continuous
 62
     7
370
    25
100
AcDbPolyline
 90
       21
 70
   128
 43
0.0
 10
67.416228623
 20
24.8516586005
 10
67.4556646331
 20
24.8353658322
 10
67.5018918818
 20
24.8269055461
 10
67.5503853242
 20
24.827105894
 10
67.596398084
 20
24.8359472645
 10
67.6354261119
 20
24.8525642025
 10
67.6636490725
 20
24.8753301265
 10
67.6783043058
 20
24.9020165492
 10
67.6779572554
 20
24.9300112176
 10
67.6626418931
 20
24.9565738185
 10
67.6338573932
 20
24.9791042194
 10
67.5944213832
 20
24.9953969877
 10
67.5481941344
 20
25.0038572738
 10
67.4997006921
 20
25.0036569259
 10
67.4536879322
 20
24.9948155554
 10
67.4146599044
 20
24.9781986174
 10
67.3864369438
 20
24.9554326934
 10
67.3717817105
 20
24.9287462707
 10
67.3721287609
 20
24.9007516023
 10
67.3874441232
 20
24.8741890014
 10
67.416228623
 20
24.8516586005
  0
LWPOLYLINE
  5
C1
330
1F
100
AcDbEntity
  8
0
  6
Continuous
 62
     7
370
    25
100
AcDbPolyline
 90
       21
 70
   128
 43
0.0
 10
68.3397849331
 20
24.7495678897
 10
68.3792209431
 20
24.7332751214
 10
68.4254481919
 20
24.7248148353
 10
68.4739416342
 20
24.7250151832
 10
68.5199543941
 20
24.7338565536
 10
68.5589824219
 20
24.7504734917
 10
68.5872053825
 20
24.7732394157
 10
68.6018606158
 20
24.7999258384
 10
68.6015135654
 20
24.8279205068
 10
68.5861982031
 20
24.8544831076
 10
68.5574137033
 20
24.8770135086
 10
68.5179776932
 20
24.8933062769
 10
68.4717504445
 20
24.901766563
 10
68.4232570021
 20
24.9015662151
 10
68.3772442423
 20
24.8927248446
 10
68.3382162144
 20
24.8761079066
 10
68.3099932538
 20
24.8533419825
 10
68.2953380205
 20
24.8266555599
 10
68.2956850709
 20
24.7986608915
 10
68.3110004332
 20
24.7720982906
 10
68.3397849331
 20
24.7495678897
  0
LWPOLYLINE
  5
C2
330
1F
100
AcDbEntity
  8
0
  6
Continuous
 62
     7
370
    25
100
AcDbPolyline
 90
       21
 70
   128
 43
0.0
 10
69.2607155326
 20
24.8592789937
 10
69.3001515426
 20
24.8429862253
 10
69.3463787914
 20
24.8345259392
 10
69.3948722337
 20
24.8347262872
 10
69.4408849936
 20
24.8435676576
 10
69.4799130214
 20
24.8601845957
 10
69.508135982
 20
24.8829505197
 10
69.5227912153
 20
24.9096369424
 10
69.5224441649
 20
24.9376316107
 10
69.5071288026
 20
24.9641942116
 10
69.4783443028
 20
24.9867246125
 10
69.4389082927
 20
25.0030173809
 10
69.3926810439
 20
25.011477667
 10
69.3441876016
 20
25.0112773191
 10
69.2981748418
 20
25.0024359486
 10
69.2591468139
 20
24.9858190105
 10
69.2309238533
 20
24.9630530865
 10
69.21626862
 20
24.9363666638
 10
69.2166156704
 20
24.9083719955
 10
69.2319310327
 20
24.8818093946
 10
69.2607155326
 20
24.8592789937
  0
LWPOLYLINE
  5
C3
330
1F
100
AcDbEntity
  8
0
  6
Continuous
 62
     7
370
    25
100
AcDbPolyline
 90
       17
 70
   128
 43
0.0
 10
68.2023094212
 20
32.2249497562
 10
68.2060884334
 20
32.1941318974
 10
68.1958933234
 20
32.166554473
 10
68.1732762044
 20
32.146415896
 10
68.1416803276
 20
32.136782082
 10
68.1059158789
 20
32.139119692
 10
68.0714276714
 20
32.153072846
 10
68.043466222
 20
32.1765173028
 10
68.0262884081
 20
32.2058838564
 10
68.0225093959
 20
32.2367017152
 10
68.0327045059
 20
32.2642791395
 10
68.0553216249
 20
32.2844177166
 10
68.0869175017
 20
32.2940515306
 10
68.1226819504
 20
32.2917139206
 10
68.1571701579
 20
32.2777607666
 10
68.1851316072
 20
32.2543163098
 10
68.2023094212
 20
32.2249497562
  0
LWPOLYLINE
  5
C4
330
1F
100
AcDbEntity
  8
0
  6
Continuous
 62
     7
370
    25
100
AcDbPolyline
 90
       18
 70
   128
 43
0.0
 10
67.9937436727
 20
32.1849570554
 10
67.9794490402
 20
32.2105655533
 10
67.9690227972
 20
32.2503671363
 10
67.9723754467
 20
32.2889386323
 10
67.989209091
 20
32.3228527944
 10
68.0180279871
 20
32.3490962006
 10
68.0562714495
 20
32.365337009
 10
68.1005413787
 20
32.3701321526
 10
68.1469041973
 20
32.3630555619
 10
68.1912403653
 20
32.3447360228
 10
68.2296104198
 20
32.316801307
 10
68.2586050128
 20
32.2817335364
 10
68.2756478477
 20
32.2426486364
 10
68.2792245938
 20
32.2030194719
 10
68.2690174414
 20
32.166367268
 10
68.2459333408
 20
32.135948734
 10
68.2120234158
 20
32.11446669
 10
68.1819934511
 20
32.1055346893
  0
ARC
  5
C5
330
1F
100
AcDbEntity
  8
0
  6
Continuous
 62
     7
370
    25
100
AcDbCircle
 10
68.1906412458
 20
32.2566408239
 30
0.0
 40
0.1091382572198247
100
AcDbArc
 50
335.712318312
 51
20.9307474396
  0
LWPOLYLINE
  5
C6
330
1F
100
AcDbEntity
  8
0
  6
Continuous
 62
     7
370
    25
100
AcDbPolyline
 90
       10
 70
   128
 43
0.0
 10
67.998006345
 20
32.3473352975
 10
68.0037666323
 20
32.3580049333
 10
68.0297908997
 20
32.3864153446
 10
68.0659687541
 20
32.4053296591
 10
68.1090856342
 20
32.4130672569
 10
68.1553104161
 20
32.4089406183
 10
68.200535825
 20
32.3933164135
 10
68.2407433849
 20
32.3675829215
 10
68.2723604776
 20
32.334026676
 10
68.2925777858
 20
32.2956292967
  0
LINE
  5
C7
330
1F
100
AcDbEntity
  8
0
  6
Continuous
 62
     7
370
    25
100
AcDbLine
 10
68.0678533765
 20
32.2849173118
 30
0.0
 11
68.0861935228
 21
32.2322475554
 31
0.0
  0
LINE
  5
C8
330
1F
100
AcDbEntity
  8
0
  6
Continuous
 62
     7
370
    25
100
AcDbLine
 10
68.0861935228
 20
32.2322475554
 30
0.0
 11
68.0272438414
 21
32.2258623591
 31
0.0
  0
LINE
  5
C9
330
1F
100
AcDbEntity
  8
0
  6
Continuous
 62
     7
370
    25
100
AcDbLine
 10
68.0272438414
 20
32.2258623591
 30
0.0
 11
68.0405821297
 21
32.1875570818
 31
0.0
  0
LINE
  5
CA
330
1F
100
AcDbEntity
  8
0
  6
Continuous
 62
     7
370
    25
100
AcDbLine
 10
68.0405821297
 20
32.1875570818
 30
0.0
 11
68.099531811
 21
32.193942278
 31
0.0
  0
LINE
  5
CB
330
1F
100
AcDbEntity
  8
0
  6
Continuous
 62
     7
370
    25
100
AcDbLine
 10
68.099531811
 20
32.193942278
 30
0.0
 11
68.1178719573
 21
32.1412725217
 31
0.0
  0
LINE
  5
CC
330
1F
100
AcDbEntity
  8
0
  6
Continuous
 62
     7
370
    25
100
AcDbLine
 10
68.1178719573
 20
32.1412725217
 30
0.0
 11
68.1607444528
 21
32.1459163008
 31
0.0
  0
LINE
  5
CD
330
1F
100
AcDbEntity
  8
0
  6
Continuous
 62
     7
370
    25
100
AcDbLine
 10
68.1607444528
 20
32.1459163008
 30
0.0
 11
68.1424043065
 21
32.1985860572
 31
0.0
  0
LINE
  5
CE
330
1F
100
AcDbEntity
  8
0
  6
Continuous
 62
     7
370
    25
100
AcDbLine
 10
68.1424043065
 20
32.1985860572
 30
0.0
 11
68.2013539878
 21
32.2049712534
 31
0.0
  0
LINE
  5
CF
330
1F
100
AcDbEntity
  8
0
  6
Continuous
 62
     7
370
    25
100
AcDbLine
 10
68.2013539878
 20
32.2049712534
 30
0.0
 11
68.1880156996
 21
32.2432765308
 31
0.0
  0
LINE
  5
D0
330
1F
100
AcDbEntity
  8
0
  6
Continuous
 62
     7
370
    25
100
AcDbLine
 10
68.1880156996
 20
32.2432765308
 30
0.0
 11
68.1290660183
 21
32.2368913345
 31
0.0
  0
LINE
  5
D1
330
1F
100
AcDbEntity
  8
0
  6
Continuous
 62
     7
370
    25
100
AcDbLine
 10
68.110725872
 20
32.2895610909
 30
0.0
 11
68.1290660183
 21
32.2368913345
 31
0.0
  0
LINE
  5
D2
330
1F
100
AcDbEntity
  8
0
  6
Continuous
 62
     7
370
    25
100
AcDbLine
 10
68.110725872
 20
32.2895610909
 30
0.0
 11
68.0678533765
 21
32.2849173118
 31
0.0
  0
LINE
  5
D3
330
1F
100
AcDbEntity
  8
0
  6
Continuous
 62
     7
370
    25
100
AcDbLine
 10
68.1027358342
 20
32.2678874207
 30
0.0
 11
68.1177081576
 21
32.2695091635
 31
0.0
  0
LINE
  5
D4
330
1F
100
AcDbEntity
  8
0
  6
Continuous
 62
     7
370
    25
100
AcDbLine
 10
68.0678533765
 20
32.2849173118
 30
0.0
 11
68.1027358342
 21
32.2678874207
 31
0.0
  0
LINE
  5
D5
330
1F
100
AcDbEntity
  8
0
  6
Continuous
 62
     7
370
    25
100
AcDbLine
 10
68.2013539878
 20
32.2049712534
 30
0.0
 11
68.1589466179
 21
32.2342259224
 31
0.0
  0
LINE
  5
D6
330
1F
100
AcDbEntity
  8
0
  6
Continuous
 62
     7
370
    25
100
AcDbLine
 10
68.1569661904
 20
32.2399133708
 30
0.0
 11
68.1589466179
 21
32.2342259224
 31
0.0
  0
LINE
  5
D7
330
1F
100
AcDbEntity
  8
0
  6
Continuous
 62
     7
370
    25
100
AcDbLine
 10
68.0861935228
 20
32.2322475554
 30
0.0
 11
68.1027358342
 21
32.2678874207
 31
0.0
  0
LINE
  5
D8
330
1F
100
AcDbEntity
  8
0
  6
Continuous
 62
     7
370
    25
100
AcDbLine
 10
68.1424043065
 20
32.1985860572
 30
0.0
 11
68.1589466179
 21
32.2342259224
 31
0.0
  0
LINE
  5
D9
330
1F
100
AcDbEntity
  8
0
  6
Continuous
 62
     7
370
    25
100
AcDbLine
 10
68.1160741224
 20
32.2295821433
 30
0.0
 11
68.1027358342
 21
32.2678874207
 31
0.0
  0
LINE
  5
DA
330
1F
100
AcDbEntity
  8
0
  6
Continuous
 62
     7
370
    25
100
AcDbLine
 10
68.0405821297
 20
32.1875570818
 30
0.0
 11
68.1160741224
 21
32.2295821433
 31
0.0
  0
LINE
  5
DB
330
1F
100
AcDbEntity
  8
0
  6
Continuous
 62
     7
370
    25
100
AcDbLine
 10
68.1178719573
 20
32.1412725217
 30
0.0
 11
68.1160741224
 21
32.2295821433
 31
0.0
  0
LINE
  5
DC
330
1F
100
AcDbEntity
  8
0
  6
Continuous
 62
     7
370
    25
100
AcDbLine
 10
68.1589466179
 20
32.2342259224
 30
0.0
 11
68.1160741224
 21
32.2295821433
 31
0.0
  0
LINE
  5
DD
330
1F
100
AcDbEntity
  8
0
  6
Continuous
 62
     7
370
    25
100
AcDbLine
 10
68.099531811
 20
32.193942278
 30
0.0
 11
68.1160741224
 21
32.2295821433
 31
0.0
  0
LINE
  5
DE
330
1F
100
AcDbEntity
  8
0
  6
Continuous
 62
     7
370
    25
100
AcDbLine
 10
68.1027358342
 20
32.2678874207
 30
0.0
 11
68.1189118561
 21
32.2660523477
 31
0.0
  0
LINE
  5
DF
330
1F
100
AcDbEntity
  8
0
  6
Continuous
 62
     7
370
    25
100
AcDbLine
 10
68.1154203643
 20
32.261694733
 30
0.0
 11
68.1202471706
 21
32.2622175535
 31
0.0
  0
LINE
  5
E0
330
1F
100
AcDbEntity
  8
0
  6
Continuous
 62
     7
370
    25
100
AcDbLine
 10
68.1027358342
 20
32.2678874207
 30
0.0
 11
68.1154203643
 21
32.261694733
 31
0.0
  0
LINE
  5
E1
330
1F
100
AcDbEntity
  8
0
  6
Continuous
 62
     7
370
    25
100
AcDbLine
 10
68.1548956372
 20
32.2396890967
 30
0.0
 11
68.1589466179
 21
32.2342259224
 31
0.0
  0
LINE
  5
E2
330
1F
100
AcDbEntity
  8
0
  6
Continuous
 62
     7
370
    25
100
AcDbLine
 10
68.1515522041
 20
32.2393269492
 30
0.0
 11
68.1589466179
 21
32.2342259224
 31
0.0
  0
LINE
  5
E3
330
1F
100
AcDbEntity
  8
0
  6
Continuous
 62
     7
370
    25
100
AcDbLine
 10
68.1160741224
 20
32.2295821433
 30
0.0
 11
68.1154203643
 21
32.261694733
 31
0.0
  0
LINE
  5
E4
330
1F
100
AcDbEntity
  8
0
  6
Continuous
 62
     7
370
    25
100
AcDbLine
 10
68.1160741224
 20
32.2295821433
 30
0.0
 11
68.1259267116
 21
32.2459068852
 31
0.0
  0
LINE
  5
E5
330
1F
100
AcDbEntity
  8
0
  6
Continuous
 62
     7
370
    25
100
AcDbLine
 10
68.1160741224
 20
32.2295821433
 30
0.0
 11
68.1292373777
 21
32.2369098955
 31
0.0
  0
ARC
  5
E6
330
1F
100
AcDbEntity
  8
0
  6
Continuous
 62
     7
370
    25
100
AcDbCircle
 10
69.1582739437
 20
32.9828592861
 30
0.0
 40
0.3870375955752859
100
AcDbArc
 50
351.7976013759
 51
8.2023986241
  0
LWPOLYLINE
  5
E7
330
1F
100
AcDbEntity
  8
0
  6
Continuous
 62
     7
370
    25
100
AcDbPolyline
 90
       12
 70
   128
 43
0.0
 10
69.6026648341
 20
32.916742814
 10
69.6105703259
 20
32.9235826943
 10
69.6168078396
 20
32.9440384613
 10
69.6196015429
 20
32.9762083317
 10
69.6187032032
 20
33.0172338715
 10
69.6141926418
 20
33.0634697814
 10
69.6064706419
 20
33.1108077978
 10
69.596223337
 20
33.1550417303
 10
69.5843612452
 20
33.1922411999
 10
69.5719383654
 20
33.2191008704
 10
69.560058525
 20
33.2332341423
 10
69.5534350268
 20
33.2350037752
  0
LWPOLYLINE
  5
E8
330
1F
100
AcDbEntity
  8
0
  6
Continuous
 62
     7
370
    25
100
AcDbPolyline
 90
       17
 70
   128
 43
0.0
 10
67.9363522449
 20
50.0417721119
 10
67.9373555829
 20
50.0235871099
 10
67.9497849296
 20
49.9756533343
 10
67.9760680911
 20
49.9296216757
 10
68.0154489488
 20
49.8868163809
 10
68.0667945872
 20
49.8484688803
 10
68.1286278855
 20
49.8156823618
 10
68.1991700126
 20
49.7894000338
 10
68.2763915997
 20
49.7703779909
 10
68.3580711224
 20
49.7591634628
 10
68.4418588096
 20
49.756079071
 10
68.5253442421
 20
49.7612135478
 10
68.606125696
 20
49.7744191837
 10
68.6818792359
 20
49.7953160765
 10
68.7504255703
 20
49.8233030608
 10
68.8097927462
 20
49.8575750019
 10
68.8104252128
 20
49.8580089239
  0
ARC
  5
E9
330
1F
100
AcDbEntity
  8
0
  6
Continuous
 62
     7
370
    25
100
AcDbCircle
 10
68.6838079522
 20
48.5358263124
 30
0.0
 40
0.2434504588779296
100
AcDbArc
 50
293.6249132
 51
355.0549458424
  0
LWPOLYLINE
  5
EA
330
1F
100
AcDbEntity
  8
0
  6
Continuous
 62
     7
370
    25
100
AcDbPolyline
 90
       15
 70
   128
 43
0.0
 10
67.9363522449
 20
48.5148407937
 10
67.9418066627
 20
48.4725365022
 10
67.9612329
 20
48.4253839174
 10
67.994183615
 20
48.380804844
 10
68.0397108755
 20
48.3400817409
 10
68.0965049451
 20
48.3043861375
 10
68.1629319619
 20
48.2747449315
 10
68.2370809415
 20
48.2520108462
 10
68.3168187528
 20
48.2368379
 10
68.3998514842
 20
48.2296625909
 10
68.4837904351
 20
48.2306913395
 10
68.5662208347
 20
48.2398945505
 10
68.6447713105
 20
48.2570074643
 10
68.7171821084
 20
48.2815377736
 10
68.7813701016
 20
48.312779786
  0
SPLINE
  5
EB
330
1F
100
AcDbEntity
  8
0
  6
Continuous
 62
     7
370
    25
100
AcDbSpline
210
0.0
220
0.0
230
1.0
 70
     8
 71
     3
 72
    13
 73
     9
 74
     0
 42
0.00000001
 43
0.00000001
 40
0.0
 40
0.0
 40
0.0
 40
0.0
 40
0.1980803392624823
 40
0.3961163378652993
 40
0.5953069258705673
 40
0.795299266416303
 40
0.9940216482013362
 40
1.0
 40
1.0
 40
1.0
 40
1.0
 10
68.7813701015853
 20
48.9725447620385
 30
0.0
 10
68.78667639584731
 20
48.97508556762445
 30
0.0
 10
68.79728779654731
 20
48.9801666100322
 30
0.0
 10
68.8105564106869
 20
48.97955529927057
 30
0.0
 10
68.82047242737018
 20
48.9726132141392
 30
0.0
 10
68.82552237064898
 20
48.95900315078498
 30
0.0
 10
68.82714278387884
 20
48.94704324493035
 30
0.0
 10
68.82580096757115
 20
48.9399011290641
 30
0.0
 10
68.82576177938753
 20
48.93969254123694
 30
0.0
  0
LWPOLYLINE
  5
EC
330
1F
100
AcDbEntity
  8
0
  6
Continuous
 62
     7
370
    25
100
AcDbPolyline
 90
       16
 70
   128
 43
0.0
 10
68.8230235841
 20
48.9249077425
 10
68.8220572818
 20
48.9196902236
 10
68.8138653134
 20
48.8986406412
 10
68.8017686664
 20
48.8795940097
 10
68.7868187949
 20
48.8650537653
 10
68.7706601997
 20
48.8568493795
 10
68.7551050801
 20
48.8557343486
 10
68.7419751904
 20
48.861682068
 10
68.7331216699
 20
48.8739627676
 10
68.7299688657
 20
48.8909542896
 10
68.7329261197
 20
48.9105114396
 10
68.7414785182
 20
48.9306178341
 10
68.754494881
 20
48.9493849343
 10
68.7702011596
 20
48.9648250976
 10
68.7813701016
 20
48.972544762
 10
68.7813701016
 20
48.972544762
  0
ARC
  5
ED
330
1F
100
AcDbEntity
  8
0
  6
Continuous
 62
     7
370
    25
100
AcDbCircle
 10
68.4315289856
 20
48.9594348162
 30
0.0
 40
0.7354942339840701
100
AcDbArc
 50
241.8776777509
 51
297.7775776156
  0
ARC
  5
EE
330
1F
100
AcDbEntity
  8
0
  6
Continuous
 62
     7
370
    25
100
AcDbCircle
 10
68.4296724994
 20
50.4946525063
 30
0.0
 40
0.7418137770037435
100
AcDbArc
 50
241.9932082647
 51
300.8820653785
  0
ARC
  5
EF
330
1F
100
AcDbEntity
  8
0
  6
Continuous
 62
     7
370
    25
100
AcDbCircle
 10
68.1847943125
 20
50.0669893825
 30
0.0
 40
0.2497185849844487
100
AcDbArc
 50
185.7957646458
 51
245.5243763118
  0
ARC
  5
F0
330
1F
100
AcDbEntity
  8
0
  6
Continuous
 62
     7
370
    25
100
AcDbCircle
 10
68.3185533531
 20
50.7311738862
 30
0.0
 40
0.4628647576736756
100
AcDbArc
 50
227.089558201
 51
252.9158183317
  0
SPLINE
  5
F1
330
1F
100
AcDbEntity
  8
0
  6
Continuous
 62
     7
370
    25
100
AcDbSpline
210
0.0
220
0.0
230
1.0
 70
     8
 71
     3
 72
    10
 73
     6
 74
     0
 42
0.00000001
 43
0.00000001
 40
0.0
 40
0.0
 40
0.0
 40
0.0
 40
0.3766294165557553
 40
0.7617231228377999
 40
1.0
 40
1.0
 40
1.0
 40
1.0
 10
68.18257459386555
 20
50.28873342584434
 30
0.0
 10
68.21050036097564
 20
50.25846330325687
 30
0.0
 10
68.26697949297034
 20
50.19724277375902
 30
0.0
 10
68.34937812137817
 20
50.12720525892643
 30
0.0
 10
68.40508531620253
 20
50.09356387549431
 30
0.0
 10
68.42637880802063
 20
50.08070480899275
 30
0.0
  0
SPLINE
  5
F2
330
1F
100
AcDbEntity
  8
0
  6
Continuous
 62
     7
370
    25
100
AcDbSpline
210
0.0
220
0.0
230
1.0
 70
     8
 71
     3
 72
    10
 73
     6
 74
     0
 42
0.00000001
 43
0.00000001
 40
0.0
 40
0.0
 40
0.0
 40
0.0
 40
0.192970314361454
 40
0.5385031639887937
 40
1.0
 40
1.0
 40
1.0
 40
1.0
 10
67.93845385283302
 20
50.36376844750122
 30
0.0
 10
67.93823923276508
 20
50.36344137303581
 30
0.0
 10
67.93764031377582
 20
50.36252863868562
 30
0.0
 10
67.95640590230394
 20
50.37197187429257
 30
0.0
 10
67.9863095682876
 20
50.38481737292933
 30
0.0
 10
68.00340986519386
 20
50.39216302214565
 30
0.0
  0
LINE
  5
F3
330
1F
100
AcDbEntity
  8
0
  6
Continuous
 62
     7
370
    25
100
AcDbLine
 10
68.0034098652
 20
50.3921630221
 30
0.0
 11
68.1825745939
 21
50.2887334258
 31
0.0
  0
ARC
  5
F4
330
1F
100
AcDbEntity
  8
0
  6
Continuous
 62
     7
370
    25
100
AcDbCircle
 10
69.5395784219
 20
50.3121855919
 30
0.0
 40
0.2417693529567236
100
AcDbArc
 50
61.4405350287
 51
126.6858695834
  0
LWPOLYLINE
  5
F5
330
1F
100
AcDbEntity
  8
0
  6
Continuous
 62
     7
370
    25
100
AcDbPolyline
 90
       16
 70
   128
 43
0.0
 10
69.1556224477
 20
49.6592164665
 10
69.1505014544
 20
49.6618161587
 10
69.1108828762
 20
49.6909270196
 10
69.079441823
 20
49.7317427485
 10
69.0570827966
 20
49.7830891513
 10
69.0444490256
 20
49.8434890854
 10
69.0419039606
 20
49.9112049548
 10
69.0495208184
 20
49.984288697
 10
69.067080476
 20
50.060637826
 10
69.0940777738
 20
50.1380559163
 10
69.1297360489
 20
50.2143157903
 10
69.1730294776
 20
50.2872235904
 10
69.2227125867
 20
50.354681892
 10
69.2773560837
 20
50.4147500424
 10
69.3353879746
 20
50.4656999903
 10
69.3951387877
 20
50.5060659986
  0
LWPOLYLINE
  5
F6
330
1F
100
AcDbEntity
  8
0
  6
Continuous
 62
     7
370
    25
100
AcDbPolyline
 90
       15
 70
   128
 43
0.0
 10
67.4675657021
 20
51.618830255
 10
67.4078148891
 20
51.5784642467
 10
67.3497829982
 20
51.5275142988
 10
67.2951395012
 20
51.4674461484
 10
67.2454563921
 20
51.3999878469
 10
67.2021629634
 20
51.3270800467
 10
67.1665046883
 20
51.2508201727
 10
67.1395073904
 20
51.1734020824
 10
67.1219477329
 20
51.0970529534
 10
67.1143308751
 20
51.0239692112
 10
67.1168759401
 20
50.9562533419
 10
67.1295097111
 20
50.8958534077
 10
67.1518687374
 20
50.8445070049
 10
67.1833097907
 20
50.803691276
 10
67.217586019
 20
50.7775354179
  0
ARC
  5
F7
330
1F
100
AcDbEntity
  8
0
  6
Continuous
 62
     7
370
    25
100
AcDbCircle
 10
67.6141134232
 20
51.4135040121
 30
0.0
 40
0.252259986042342
100
AcDbArc
 50
65.7938284835
 51
125.5166299456
  0
ARC
  5
F8
330
1F
100
AcDbEntity
  8
0
  6
Continuous
 62
     7
370
    25
100
AcDbCircle
 10
67.8340430582
 20
50.9989935988
 30
0.0
 40
0.7207038083065429
100
AcDbArc
 50
122.4763978922
 51
177.5236019622
  0
LWPOLYLINE
  5
F9
330
1F
100
AcDbEntity
  8
0
  6
Continuous
 62
     7
370
    25
100
AcDbPolyline
 90
       17
 70
   128
 43
0.0
 10
69.4965665458
 20
50.4497822489
 10
69.4819346161
 20
50.4382675917
 10
69.4760495302
 20
50.4243969724
 10
69.4798072391
 20
50.4102820671
 10
69.4926356657
 20
50.3980717422
 10
69.5125817983
 20
50.389624909
 10
69.536609019
 20
50.3862275212
 10
69.5610594013
 20
50.3883968004
 10
69.5822105962
 20
50.3958024934
 10
69.5968425259
 20
50.4073171507
 10
69.6027276118
 20
50.42118777
 10
69.5989699029
 20
50.4353026752
 10
69.5861414764
 20
50.4475130001
 10
69.5661953438
 20
50.4559598334
 10
69.542168123
 20
50.4593572211
 10
69.5177177407
 20
50.457187942
 10
69.4965665458
 20
50.4497822489
  0
LINE
  5
FA
330
1F
100
AcDbEntity
  8
0
  6
Continuous
 62
     7
370
    25
100
AcDbLine
 10
69.5258372413
 20
50.398000156
 30
0.0
 11
69.5698052588
 21
50.4036213329
 31
0.0
  0
LINE
  5
FB
330
1F
100
AcDbEntity
  8
0
  6
Continuous
 62
     7
370
    25
100
AcDbLine
 10
69.5833565886
 20
50.4284135481
 30
0.0
 11
69.5698052588
 21
50.4036213329
 31
0.0
  0
LINE
  5
FC
330
1F
100
AcDbEntity
  8
0
  6
Continuous
 62
     7
370
    25
100
AcDbLine
 10
69.5529399008
 20
50.4475845864
 30
0.0
 11
69.5833565886
 21
50.4284135481
 31
0.0
  0
LINE
  5
FD
330
1F
100
AcDbEntity
  8
0
  6
Continuous
 62
     7
370
    25
100
AcDbLine
 10
69.5529399008
 20
50.4475845864
 30
0.0
 11
69.5089718832
 21
50.4419634095
 31
0.0
  0
LINE
  5
FE
330
1F
100
AcDbEntity
  8
0
  6
Continuous
 62
     7
370
    25
100
AcDbLine
 10
69.4954205535
 20
50.4171711943
 30
0.0
 11
69.5089718832
 21
50.4419634095
 31
0.0
  0
LINE
  5
FF
330
1F
100
AcDbEntity
  8
0
  6
Continuous
 62
     7
370
    25
100
AcDbLine
 10
69.4954205535
 20
50.4171711943
 30
0.0
 11
69.5258372413
 21
50.398000156
 31
0.0
  0
LINE
  5
100
330
1F
100
AcDbEntity
  8
0
  6
Continuous
 62
     7
370
    25
100
AcDbLine
 10
69.5089718832
 20
50.4086300585
 30
0.0
 11
69.5089718832
 21
50.4419634095
 31
0.0
  0
LINE
  5
101
330
1F
100
AcDbEntity
  8
0
  6
Continuous
 62
     7
370
    25
100
AcDbLine
 10
69.5529399008
 20
50.4014651483
 30
0.0
 11
69.5529399008
 21
50.4475845864
 31
0.0
  0
LWPOLYLINE
  5
102
330
1F
100
AcDbEntity
  8
0
  6
Continuous
 62
     7
370
    25
100
AcDbPolyline
 90
       17
 70
   128
 43
0.0
 10
67.3618962711
 20
51.7311473438
 10
67.3397066358
 20
51.7374596533
 10
67.3150216625
 20
51.7383893672
 10
67.2915994146
 20
51.7337949449
 10
67.2730057169
 20
51.7243758457
 10
67.2620712913
 20
51.711566042
 10
67.2604608051
 20
51.6973157102
 10
67.2684194402
 20
51.6837943343
 10
67.2847355665
 20
51.673060421
 10
67.3069252017
 20
51.6667481115
 10
67.331610175
 20
51.6658183976
 10
67.355032423
 20
51.6704128199
 10
67.3736261207
 20
51.6798319191
 10
67.3845605462
 20
51.6926417229
 10
67.3861710324
 20
51.7068920546
 10
67.3782123974
 20
51.7204134306
 10
67.3618962711
 20
51.7311473438
  0
LINE
  5
103
330
1F
100
AcDbEntity
  8
0
  6
Continuous
 62
     7
370
    25
100
AcDbLine
 10
67.2786660991
 20
51.7054894472
 30
0.0
 11
67.2959121114
 21
51.6814741739
 31
0.0
  0
LINE
  5
104
330
1F
100
AcDbEntity
  8
0
  6
Continuous
 62
     7
370
    25
100
AcDbLine
 10
67.3405619311
 20
51.6780886091
 30
0.0
 11
67.2959121114
 21
51.6814741739
 31
0.0
  0
LINE
  5
105
330
1F
100
AcDbEntity
  8
0
  6
Continuous
 62
     7
370
    25
100
AcDbLine
 10
67.3679657385
 20
51.6987183176
 30
0.0
 11
67.3405619311
 21
51.6780886091
 31
0.0
  0
LINE
  5
106
330
1F
100
AcDbEntity
  8
0
  6
Continuous
 62
     7
370
    25
100
AcDbLine
 10
67.3679657385
 20
51.6987183176
 30
0.0
 11
67.3507197262
 21
51.7227335909
 31
0.0
  0
LINE
  5
107
330
1F
100
AcDbEntity
  8
0
  6
Continuous
 62
     7
370
    25
100
AcDbLine
 10
67.3060699065
 20
51.7261191557
 30
0.0
 11
67.3507197262
 21
51.7227335909
 31
0.0
  0
LINE
  5
108
330
1F
100
AcDbEntity
  8
0
  6
Continuous
 62
     7
370
    25
100
AcDbLine
 10
67.3060699065
 20
51.7261191557
 30
0.0
 11
67.2786660991
 21
51.7054894472
 31
0.0
  0
LINE
  5
109
330
1F
100
AcDbEntity
  8
0
  6
Continuous
 62
     7
370
    25
100
AcDbLine
 10
67.3507197262
 20
51.6857354426
 30
0.0
 11
67.3507197262
 21
51.7227335909
 31
0.0
  0
LINE
  5
10A
330
1F
100
AcDbEntity
  8
0
  6
Continuous
 62
     7
370
    25
100
AcDbLine
 10
67.3060699065
 20
51.6807039609
 30
0.0
 11
67.3060699065
 21
51.7261191557
 31
0.0
  0
LWPOLYLINE
  5
10B
330
1F
100
AcDbEntity
  8
0
  6
Continuous
 62
     7
370
    25
100
AcDbPolyline
 90
       17
 70
   128
 43
0.0
 10
68.7583812395
 20
48.8593047863
 10
68.7748597137
 20
48.8620417278
 10
68.7923293355
 20
48.8731486109
 10
68.8081305132
 20
48.8909345132
 10
68.8198576609
 20
48.9126916925
 10
68.8257254265
 20
48.9351078153
 10
68.824840496
 20
48.9547702302
 10
68.817337592
 20
48.9686855127
 10
68.8043589637
 20
48.9747351873
 10
68.7878804894
 20
48.9719982458
 10
68.7704108677
 20
48.9608913628
 10
68.7546096899
 20
48.9431054604
 10
68.7428825423
 20
48.9213482812
 10
68.7370147767
 20
48.8989321584
 10
68.7378997071
 20
48.8792697435
 10
68.7454026111
 20
48.8653544609
 10
68.7583812395
 20
48.8593047863
  0
LINE
  5
10C
330
1F
100
AcDbEntity
  8
0
  6
Continuous
 62
     7
370
    25
100
AcDbLine
 10
68.813209963
 20
48.9348551618
 30
0.0
 11
68.7976991995
 21
48.9580153678
 31
0.0
  0
LINE
  5
10D
330
1F
100
AcDbEntity
  8
0
  6
Continuous
 62
     7
370
    25
100
AcDbLine
 10
68.765859338
 20
48.9401801928
 30
0.0
 11
68.7976991995
 21
48.9580153678
 31
0.0
  0
LINE
  5
10E
330
1F
100
AcDbEntity
  8
0
  6
Continuous
 62
     7
370
    25
100
AcDbLine
 10
68.7495302401
 20
48.8991848118
 30
0.0
 11
68.765859338
 21
48.9401801928
 31
0.0
  0
LINE
  5
10F
330
1F
100
AcDbEntity
  8
0
  6
Continuous
 62
     7
370
    25
100
AcDbLine
 10
68.7495302401
 20
48.8991848118
 30
0.0
 11
68.7650410037
 21
48.8760246059
 31
0.0
  0
LINE
  5
110
330
1F
100
AcDbEntity
  8
0
  6
Continuous
 62
     7
370
    25
100
AcDbLine
 10
68.7968808651
 20
48.8938597809
 30
0.0
 11
68.7650410037
 21
48.8760246059
 31
0.0
  0
LINE
  5
111
330
1F
100
AcDbEntity
  8
0
  6
Continuous
 62
     7
370
    25
100
AcDbLine
 10
68.7968808651
 20
48.8938597809
 30
0.0
 11
68.813209963
 21
48.9348551618
 31
0.0
  0
LINE
  5
112
330
1F
100
AcDbEntity
  8
0
  6
Continuous
 62
     7
370
    25
100
AcDbLine
 10
68.785209722
 20
48.9510193569
 30
0.0
 11
68.813209963
 21
48.9348551618
 31
0.0
  0
LINE
  5
113
330
1F
100
AcDbEntity
  8
0
  6
Continuous
 62
     7
370
    25
100
AcDbLine
 10
68.7566581225
 20
48.917079876
 30
0.0
 11
68.7968808651
 21
48.8938597809
 31
0.0
  0
LWPOLYLINE
  5
114
330
1F
100
AcDbEntity
  8
0
  6
Continuous
 62
     7
370
    25
100
AcDbPolyline
 90
       38
 70
   128
 43
0.0
 10
71.3163479121
 20
49.3969092286
 10
71.3112623685
 20
49.3249753733
 10
71.2961520393
 20
49.2492392802
 10
71.2714516213
 20
49.1718797389
 10
71.2378717005
 20
49.0951222427
 10
71.1963783101
 20
49.0211749648
 10
71.1481651394
 20
48.9521652338
 10
71.0946191935
 20
48.8900783341
 10
71.0372808918
 20
48.8367003927
 10
70.9777997528
 20
48.7935669958
 10
70.9178869407
 20
48.7619190127
 10
70.8592660379
 20
48.7426668983
 10
70.8036234611
 20
48.7363645008
 10
70.7525599459
 20
48.7431931287
 10
70.7075444967
 20
48.7629563349
 10
70.6698721259
 20
48.7950855678
 10
70.6406265992
 20
48.838656528
 10
70.620649257
 20
48.8924157583
 10
70.6105148111
 20
48.9548167034
 10
70.6105148111
 20
49.0240642018
 10
70.620649257
 20
49.0981661291
 10
70.6406265992
 20
49.1749907077
 10
70.6698721259
 20
49.2523278344
 10
70.7075444967
 20
49.3279526607
 10
70.7525599459
 20
49.3996895983
 10
70.8036234611
 20
49.465474906
 10
70.8592660379
 20
49.5234160602
 10
70.9178869407
 20
49.5718461995
 10
70.9777997528
 20
49.6093720768
 10
71.0372808918
 20
49.6349141412
 10
71.0946191935
 20
49.6477375938
 10
71.1481651394
 20
49.6474735273
 10
71.1963783101
 20
49.6341295383
 10
71.2378717005
 20
49.6080895093
 10
71.2714516213
 20
49.5701025643
 10
71.2961520393
 20
49.5212615187
 10
71.3112623685
 20
49.4629714403
 10
71.3163479121
 20
49.3969092286
  0
LINE
  5
115
330
1F
100
AcDbEntity
  8
0
  6
Continuous
 62
     7
370
    25
100
AcDbLine
 10
70.2952857201
 20
49.0066263412
 30
0.0
 11
70.3281487494
 21
48.9818457759
 31
0.0
  0
LINE
  5
116
330
1F
100
AcDbEntity
  8
0
  6
Continuous
 62
     7
370
    25
100
AcDbLine
 10
70.2952857201
 20
49.0066263412
 30
0.0
 11
69.8179886428
 21
49.2821640789
 31
0.0
  0
LWPOLYLINE
  5
117
330
1F
100
AcDbEntity
  8
0
  6
Continuous
 62
     7
370
    25
100
AcDbPolyline
 90
        3
 70
   128
 43
0.0
 10
69.8887452936
 20
49.2413171339
 10
69.8575952008
 20
49.2536951145
 10
69.8179886428
 20
49.2821640789
  0
LWPOLYLINE
  5
118
330
1F
100
AcDbEntity
  8
0
  6
Continuous
 62
     7
370
    25
100
AcDbPolyline
 90
       21
 70
   128
 43
0.0
 10
69.1656652012
 20
49.6529332438
 10
69.1603948594
 20
49.6561068092
 10
69.1227224887
 20
49.6882360422
 10
69.0934769619
 20
49.7318070024
 10
69.0734996197
 20
49.7855662326
 10
69.0633651739
 20
49.8479671777
 10
69.0633651739
 20
49.9172146762
 10
69.0734996197
 20
49.9913166034
 10
69.0934769619
 20
50.068141182
 10
69.1227224887
 20
50.1454783087
 10
69.1603948594
 20
50.2211031351
 10
69.2054103087
 20
50.2928400726
 10
69.2564738239
 20
50.3586253803
 10
69.3121164007
 20
50.4165665345
 10
69.3707373035
 20
50.4649966738
 10
69.4306501156
 20
50.5025225512
 10
69.4901312545
 20
50.5280646155
 10
69.5474695562
 20
50.5408880681
 10
69.6010155021
 20
50.5406240016
 10
69.6492286728
 20
50.5272800127
 10
69.6656245675
 20
50.5189821062
  0
SPLINE
  5
119
330
1F
100
AcDbEntity
  8
0
  6
Continuous
 62
     7
370
    25
100
AcDbSpline
210
0.0
220
0.0
230
1.0
 70
     8
 71
     3
 72
    17
 73
    13
 74
     0
 42
0.00000001
 43
0.00000001
 40
0.0
 40
0.0
 40
0.0
 40
0.0
 40
0.1066984043850776
 40
0.2133733897875663
 40
0.3206581456471197
 40
0.4283657896048627
 40
0.5354028899494532
 40
0.6417207959639156
 40
0.7483926464637309
 40
0.8559361173404467
 40
0.9635169606676475
 40
1.0
 40
1.0
 40
1.0
 40
1.0
 10
69.58747183213795
 20
50.39503449537941
 30
0.0
 10
69.58156600427847
 20
50.39214815617495
 30
0.0
 10
69.5697556448158
 20
50.38637611128186
 30
0.0
 10
69.54721642680673
 20
50.38165175734058
 30
0.0
 10
69.52413175106902
 20
50.38098899245717
 30
0.0
 10
69.50259647301533
 20
50.38514929327744
 30
0.0
 10
69.48527186366555
 20
50.39392192138895
 30
0.0
 10
69.47405574720483
 20
50.40631066972482
 30
0.0
 10
69.4700905763186
 20
50.42073982427864
 30
0.0
 10
69.47391233328015
 20
50.43520569133261
 30
0.0
 10
69.48256405926502
 20
50.44508638796435
 30
0.0
 10
69.48953896911887
 20
50.44944616732751
 30
0.0
 10
69.49130530989659
 20
50.45055024698335
 30
0.0
  0
SPLINE
  5
11A
330
1F
100
AcDbEntity
  8
0
  6
Continuous
 62
     7
370
    25
100
AcDbSpline
210
0.0
220
0.0
230
1.0
 70
     8
 71
     3
 72
    11
 73
     7
 74
     0
 42
0.00000001
 43
0.00000001
 40
0.0
 40
0.0
 40
0.0
 40
0.0
 40
0.2177006485964121
 40
0.5455824830631169
 40
0.8754643425440741
 40
1.0
 40
1.0
 40
1.0
 40
1.0
 10
69.49130530989659
 20
50.45055024698335
 30
0.0
 10
69.49509012523049
 20
50.45243367117053
 30
0.0
 10
69.50457530114114
 20
50.45715374550803
 30
0.0
 10
69.52363105746005
 20
50.46055962197675
 30
0.0
 10
69.54212028130034
 20
50.46078783038526
 30
0.0
 10
69.55209826380663
 20
50.4584339469905
 30
0.0
 10
69.55483278561793
 20
50.45778885210482
 30
0.0
  0
SPLINE
  5
11B
330
1F
100
AcDbEntity
  8
0
  6
Continuous
 62
     7
370
    25
100
AcDbSpline
210
0.0
220
0.0
230
1.0
 70
     8
 71
     3
 72
    13
 73
     9
 74
     0
 42
0.00000001
 43
0.00000001
 40
0.0
 40
0.0
 40
0.0
 40
0.0
 40
0.0567951866786258
 40
0.2571257321913308
 40
0.4573690733326644
 40
0.6592155165722858
 40
0.8618695398706401
 40
1.0
 40
1.0
 40
1.0
 40
1.0
 10
69.58203630041021
 20
50.4491139238733
 30
0.0
 10
69.58383411898481
 20
50.44838581274001
 30
0.0
 10
69.59197328436794
 20
50.44508947515909
 30
0.0
 10
69.60142322516344
 20
50.43670745799677
 30
0.0
 10
69.60825485540916
 20
50.42520100096363
 30
0.0
 10
69.6070003073852
 20
50.41316252362714
 30
0.0
 10
69.59939490297313
 20
50.40278864931929
 30
0.0
 10
69.59091072934251
 20
50.39727097779876
 30
0.0
 10
69.58747183213795
 20
50.39503449537941
 30
0.0
  0
ARC
  5
11C
330
1F
100
AcDbEntity
  8
0
  6
Continuous
 62
     7
370
    25
100
AcDbCircle
 10
67.3336669306
 20
50.9901277001
 30
0.0
 40
0.2418069638904199
100
AcDbArc
 50
173.3104395945
 51
238.5611486443
  0
LWPOLYLINE
  5
11D
330
1F
100
AcDbEntity
  8
0
  6
Continuous
 62
     7
370
    25
100
AcDbPolyline
 90
       16
 70
   128
 43
0.0
 10
67.7070820416
 20
51.649138977
 10
67.7023096304
 20
51.6522486325
 10
67.6572941811
 20
51.6720118386
 10
67.6062306659
 20
51.6788404666
 10
67.5505880891
 20
51.6725380691
 10
67.4919671863
 20
51.6532859546
 10
67.4320543742
 20
51.6216379715
 10
67.3725732353
 20
51.5785045747
 10
67.3152349336
 20
51.5251266333
 10
67.2616889877
 20
51.4630397336
 10
67.213475817
 20
51.3940300026
 10
67.1719824265
 20
51.3200827247
 10
67.1384025057
 20
51.2433252284
 10
67.1137020877
 20
51.1659656872
 10
67.0985917586
 20
51.0902295941
 10
67.0935062149
 20
51.0182957387
  0
LWPOLYLINE
  5
11E
330
1F
100
AcDbEntity
  8
0
  6
Continuous
 62
     7
370
    25
100
AcDbPolyline
 90
        3
 70
   128
 43
0.0
 10
66.0724899956
 20
51.4443944236
 10
66.0413399028
 20
51.4567724042
 10
66.0017333447
 20
51.4852413687
  0
LINE
  5
11F
330
1F
100
AcDbEntity
  8
0
  6
Continuous
 62
     7
370
    25
100
AcDbLine
 10
66.479030422
 20
51.2097036309
 30
0.0
 11
66.5118934514
 21
51.1849230657
 31
0.0
  0
LINE
  5
120
330
1F
100
AcDbEntity
  8
0
  6
Continuous
 62
     7
370
    25
100
AcDbLine
 10
66.0017333447
 20
51.4852413687
 30
0.0
 11
66.479030422
 21
51.2097036309
 31
0.0
  0
ARC
  5
121
330
1F
100
AcDbEntity
  8
0
  6
Continuous
 62
     7
370
    25
100
AcDbCircle
 10
65.7908075596
 20
51.8841540162
 30
0.0
 40
0.2459698082417617
100
AcDbArc
 50
173.6294853733
 51
235.0583342334
  0
LWPOLYLINE
  5
122
330
1F
100
AcDbEntity
  8
0
  6
Continuous
 62
     7
370
    25
100
AcDbPolyline
 90
       15
 70
   128
 43
0.0
 10
66.1498896514
 20
52.5485726722
 10
66.1101445439
 20
52.565162313
 10
66.0590810287
 20
52.5719909409
 10
66.0034384519
 20
52.5656885434
 10
65.9448175491
 20
52.546436429
 10
65.884904737
 20
52.5147884459
 10
65.825423598
 20
52.471655049
 10
65.7680852963
 20
52.4182771076
 10
65.7145393504
 20
52.3561902079
 10
65.6663261797
 20
52.2871804769
 10
65.6248327893
 20
52.2132331991
 10
65.5912528685
 20
52.1364757028
 10
65.5665524505
 20
52.0591161615
 10
65.5514421213
 20
51.9833800684
 10
65.5463565777
 20
51.9114462131
  0
SPLINE
  5
123
330
1F
100
AcDbEntity
  8
0
  6
Continuous
 62
     7
370
    25
100
AcDbSpline
210
0.0
220
0.0
230
1.0
 70
     8
 71
     3
 72
    11
 73
     7
 74
     0
 42
0.00000001
 43
0.00000001
 40
0.0
 40
0.0
 40
0.0
 40
0.0
 40
0.3300848757282629
 40
0.6600973019011448
 40
0.991996129344064
 40
0.9999999999999999
 40
0.9999999999999999
 40
0.9999999999999999
 40
0.9999999999999999
 10
67.27523265765795
 20
51.72986175820954
 30
0.0
 10
67.28115343437547
 20
51.73260082983996
 30
0.0
 10
67.2929936882731
 20
51.73807837190841
 30
0.0
 10
67.31530830864848
 20
51.74009209058789
 30
0.0
 10
67.33142740932198
 20
51.73962775328035
 30
0.0
 10
67.33861975563062
 20
51.73759499631008
 30
0.0
 10
67.33878911765653
 20
51.73754712989432
 30
0.0
  0
SPLINE
  5
124
330
1F
100
AcDbEntity
  8
0
  6
Continuous
 62
     7
370
    25
100
AcDbSpline
210
0.0
220
0.0
230
1.0
 70
     8
 71
     3
 72
    13
 73
     9
 74
     0
 42
0.00000001
 43
0.00000001
 40
0.0
 40
0.0
 40
0.0
 40
0.0
 40
0.1141458460894717
 40
0.31686376370143
 40
0.5202565524777172
 40
0.7253112726668498
 40
0.9304372514578716
 40
1.0
 40
1.0
 40
1.0
 40
1.0
 10
67.36694751337903
 20
51.72782992645551
 30
0.0
 10
67.37028102226323
 20
51.72623240709986
 30
0.0
 10
67.3795346938384
 20
51.72179776481583
 30
0.0
 10
67.38850072873775
 20
51.71216002516732
 30
0.0
 10
67.39265407366078
 20
51.70036434906144
 30
0.0
 10
67.38878104027633
 20
51.68841531469905
 30
0.0
 10
67.38014121806026
 20
51.67971075228061
 30
0.0
 10
67.37316567981276
 20
51.6754300584704
 30
0.0
 10
67.37139917989933
 20
51.6743460066056
 30
0.0
  0
SPLINE
  5
125
330
1F
100
AcDbEntity
  8
0
  6
Continuous
 62
     7
370
    25
100
AcDbSpline
210
0.0
220
0.0
230
1.0
 70
     8
 71
     3
 72
    17
 73
    13
 74
     0
 42
0.00000001
 43
0.00000001
 40
0.0
 40
0.0
 40
0.0
 40
0.0
 40
0.0705771283043784
 40
0.1768742773897347
 40
0.2838198215210082
 40
0.3914837046220092
 40
0.498812890837407
 40
0.6052617612889067
 40
0.7116642942894342
 40
0.8189186614780255
 40
0.9266021493722546
 40
1.0
 40
1.0
 40
1.0
 40
1.0
 10
67.37139917989933
 20
51.6743460066056
 30
0.0
 10
67.36761771934805
 20
51.67239560974179
 30
0.0
 10
67.35814095090258
 20
51.66750769429105
 30
0.0
 10
67.33899725586797
 20
51.66218525709642
 30
0.0
 10
67.31596312000603
 20
51.65999672667023
 30
0.0
 10
67.2935666025669
 20
51.66248550224743
 30
0.0
 10
67.27454469742143
 20
51.66974421308159
 30
0.0
 10
67.26106417581863
 20
51.68104548086853
 30
0.0
 10
67.25450833651853
 20
51.69498544968748
 30
0.0
 10
67.25568820440928
 20
51.70964313141807
 30
0.0
 10
67.26331214207089
 20
51.72183176492098
 30
0.0
 10
67.27179449744773
 20
51.72754571716153
 30
0.0
 10
67.27523265765795
 20
51.72986175820954
 30
0.0
  0
LWPOLYLINE
  5
126
330
1F
100
AcDbEntity
  8
0
  6
Continuous
 62
     7
370
    25
100
AcDbPolyline
 90
       23
 70
   128
 43
0.0
 10
67.9363522449
 20
48.5473936123
 10
67.934771613
 20
48.5403747309
 10
67.9320489992
 20
48.4914425487
 10
67.9436904307
 20
48.4429485876
 10
67.9693610047
 20
48.3962879304
 10
68.0083222255
 20
48.3528029193
 10
68.0594532498
 20
48.3137445389
 10
68.1212831311
 20
48.2802364277
 10
68.1920331362
 20
48.253242553
 10
68.2696679163
 20
48.2335394795
 10
68.3519540602
 20
48.2216940288
 10
68.4365243454
 20
48.2180469728
 10
68.5209458386
 20
48.2227032307
 10
68.6027898872
 20
48.2355288505
 10
68.679701987
 20
48.2561548624
 10
68.7494695169
 20
48.2839878937
 10
68.8100853921
 20
48.3182272387
 10
68.8598058042
 20
48.3578878937
 10
68.8972003874
 20
48.401828894
 10
68.9211933678
 20
48.448786137
 10
68.9310945109
 20
48.4974087482
 10
68.9266189789
 20
48.5462979437
 10
68.9263522449
 20
48.5473936123
  0
LWPOLYLINE
  5
127
330
1F
100
AcDbEntity
  8
0
  6
Continuous
 62
     7
370
    25
100
AcDbPolyline
 90
       21
 70
   128
 43
0.0
 10
67.9313522449
 20
33.8089407716
 10
67.9320489992
 20
33.7937079348
 10
67.9436904307
 20
33.7452139736
 10
67.9693610047
 20
33.6985533164
 10
68.0083222255
 20
33.6550683053
 10
68.0594532498
 20
33.616009925
 10
68.1212831311
 20
33.5825018137
 10
68.1920331362
 20
33.5555079391
 10
68.2696679163
 20
33.5358048656
 10
68.3519540602
 20
33.5239594148
 10
68.4365243454
 20
33.5203123588
 10
68.5209458386
 20
33.5249686168
 10
68.6027898872
 20
33.5377942366
 10
68.679701987
 20
33.5584202485
 10
68.7494695169
 20
33.5862532798
 10
68.8100853921
 20
33.6204926247
 10
68.8598058042
 20
33.6601532798
 10
68.8972003874
 20
33.7040942801
 10
68.9211933678
 20
33.751051523
 10
68.9310945109
 20
33.7996741343
 10
68.9313522449
 20
33.8089407716
  0
LINE
  5
128
330
1F
100
AcDbEntity
  8
0
  6
Continuous
 62
     7
370
    25
100
AcDbLine
 10
67.2438522449
 20
31.7535068203
 30
0.0
 11
67.2381095516
 21
31.750191634
 31
0.0
  0
LINE
  5
129
330
1F
100
AcDbEntity
  8
0
  6
Continuous
 62
     7
370
    25
100
AcDbLine
 10
67.2381095516
 20
31.750191634
 30
0.0
 11
67.2381095516
 21
32.9750028519
 31
0.0
  0
LINE
  5
12A
330
1F
100
AcDbEntity
  8
0
  6
Continuous
 62
     7
370
    25
100
AcDbLine
 10
67.2381095516
 20
32.9750028519
 30
0.0
 11
67.3213522449
 21
33.0230578358
 31
0.0
  0
LINE
  5
12B
330
1F
100
AcDbEntity
  8
0
  6
Continuous
 62
     7
370
    25
100
AcDbLine
 10
67.2310384838
 20
31.7542736746
 30
0.0
 11
67.2381095516
 21
31.750191634
 31
0.0
  0
LINE
  5
12C
330
1F
100
AcDbEntity
  8
0
  6
Continuous
 62
     7
370
    25
100
AcDbLine
 10
67.2310384838
 20
31.7542736746
 30
0.0
 11
67.2310384838
 21
32.9790848924
 31
0.0
  0
LINE
  5
12D
330
1F
100
AcDbEntity
  8
0
  6
Continuous
 62
     7
370
    25
100
AcDbLine
 10
67.2310384838
 20
32.9790848924
 30
0.0
 11
67.2381095516
 21
32.9750028519
 31
0.0
  0
LINE
  5
12E
330
1F
100
AcDbEntity
  8
0
  6
Continuous
 62
     7
370
    25
100
AcDbLine
 10
67.2310384838
 20
32.9790848924
 30
0.0
 11
67.3213522449
 21
33.0312219169
 31
0.0
  0
ELLIPSE
  5
12F
330
1F
100
AcDbEntity
  8
0
  6
Continuous
 62
     7
370
    25
100
AcDbEllipse
 10
68.4313522449
 20
19.6760975295
 30
0.0
 11
0.9466958958099383
 21
1.035121683215984
 31
0.0
210
0.0
220
0.0
230
1.0
 40
0.2019459068
 41
0.0
 42
6.283185307179586
  0
LWPOLYLINE
  5
130
330
1F
100
AcDbEntity
  8
0
  6
Continuous
 62
     7
370
    25
100
AcDbPolyline
 90
       26
 70
   128
 43
0.0
 10
67.5916629422
 20
32.209620247
 10
67.6873716201
 20
32.1600519638
 10
67.7918027905
 20
32.1167479839
 10
67.9037320936
 20
32.0802160067
 10
68.0218472605
 20
32.0508843365
 10
68.144763499
 20
32.0290968601
 10
68.2710397284
 20
32.0151090158
 10
68.3991954756
 20
32.0090847983
 10
68.5277282315
 20
32.0110948361
 10
68.655131067
 20
32.0211155632
 10
68.7799103005
 20
32.0390294959
 10
68.9006030094
 20
32.0646266096
 10
69.0157941822
 20
32.0976068016
 10
69.1241333076
 20
32.1375834092
 10
69.2243502085
 20
32.1840877434
 10
69.3152699333
 20
32.2365745834
 10
69.3958265313
 20
32.2944285688
 10
69.4650755502
 20
32.3569714146
 10
69.5222051085
 20
32.4234698632
 10
69.5665454143
 20
32.493144281
 10
69.5975766182
 20
32.5651777992
 10
69.6149349075
 20
32.6387258906
 10
69.6184167723
 20
32.7129262712
 10
69.6079813908
 20
32.7869090093
 10
69.5837511084
 20
32.8598067249
 10
69.5586141955
 20
32.9099288949
  0
LWPOLYLINE
  5
131
330
1F
100
AcDbEntity
  8
0
  6
Continuous
 62
     7
370
    25
100
AcDbPolyline
 90
       12
 70
   128
 43
0.0
 10
67.3213522449
 20
32.9379589965
 10
67.2961590755
 20
32.8955808458
 10
67.2651278716
 20
32.8235473277
 10
67.2477695823
 20
32.7499992362
 10
67.2442877175
 20
32.6757988556
 10
67.254723099
 20
32.6018161176
 10
67.2789533813
 20
32.528918402
 10
67.3166944868
 20
32.4579603679
 10
67.3675039352
 20
32.3897739334
 10
67.4307860325
 20
32.3251585222
 10
67.5057988537
 20
32.2648716907
 10
67.5916629422
 20
32.209620247
  0
ELLIPSE
  5
132
330
1F
100
AcDbEntity
  8
0
  6
Continuous
 62
     7
370
    25
100
AcDbEllipse
 10
68.4313522449
 20
19.6760975295
 30
0.0
 11
1.159568206574832
 21
1.267877255099514
 31
0.0
210
0.0
220
0.0
230
1.0
 40
0.2019459068
 41
0.0
 42
6.283185307179586
  0
LINE
  5
133
330
1F
100
AcDbEntity
  8
0
  6
Continuous
 62
     7
370
    25
100
AcDbLine
 10
67.6739587068
 20
25.6221286995
 30
0.0
 11
67.6763210776
 21
25.6595192246
 31
0.0
  0
LINE
  5
134
330
1F
100
AcDbEntity
  8
0
  6
Continuous
 62
     7
370
    25
100
AcDbLine
 10
69.1998181112
 20
25.6658134663
 30
0.0
 11
69.202276206
 21
25.6269841944
 31
0.0
  0
LINE
  5
135
330
1F
100
AcDbEntity
  8
0
  6
Continuous
 62
     7
370
    25
100
AcDbLine
 10
67.2236507618
 20
25.9961851958
 30
0.0
 11
67.2299072392
 21
26.1273525892
 31
0.0
  0
LWPOLYLINE
  5
136
330
1F
100
AcDbEntity
  8
0
  6
Continuous
 62
     7
370
    25
100
AcDbPolyline
 90
        3
 70
   128
 43
0.0
 10
69.6345873418
 20
26.1372873887
 10
69.6390848006
 20
26.0418992837
 10
69.6410502879
 20
25.9999840004
  0
LINE
  5
137
330
1F
100
AcDbEntity
  8
0
  6
Continuous
 62
     7
370
    25
100
AcDbLine
 10
67.1779077519
 20
26.311003914
 30
0.0
 11
67.1773590759
 21
26.2996378363
 31
0.0
  0
INSERT
  5
13B
330
1F
100
AcDbEntity
  8
0
  6
Continuous
 62
     7
100
AcDbBlockReference
  2
SW_BROKEN_VIEW_0
 10
0.0
 20
0.0
 30
0.0
  0
LINE
  5
13C
330
1F
100
AcDbEntity
  8
0
  6
Continuous
 62
     7
370
    25
100
AcDbLine
 10
33.7572336641
 20
50.5641636774
 30
0.0
 11
33.7572336641
 21
46.1713424237
 31
0.0
  0
LINE
  5
13D
330
1F
100
AcDbEntity
  8
0
  6
Continuous
 62
     7
370
    25
100
AcDbLine
 10
34.757233652
 20
45.9035274908
 30
0.0
 11
34.757233652
 21
50.5641636774
 31
0.0
  0
LINE
  5
13E
330
1F
100
AcDbEntity
  8
0
  6
Continuous
 62
     7
370
    25
100
AcDbLine
 10
33.7622336563
 20
51.2470228823
 30
0.0
 11
33.7622336563
 21
50.5741638819
 31
0.0
  0
LINE
  5
13F
330
1F
100
AcDbEntity
  8
0
  6
Continuous
 62
     7
370
    25
100
AcDbLine
 10
33.7622336563
 20
52.4441633995
 30
0.0
 11
33.7622336563
 21
51.3821635078
 31
0.0
  0
LINE
  5
140
330
1F
100
AcDbEntity
  8
0
  6
Continuous
 62
     7
370
    25
100
AcDbLine
 10
34.7522336598
 20
51.3821635078
 30
0.0
 11
34.7522336598
 21
52.4441633995
 31
0.0
  0
LINE
  5
141
330
1F
100
AcDbEntity
  8
0
  6
Continuous
 62
     7
370
    25
100
AcDbLine
 10
34.7522336598
 20
50.5741638819
 30
0.0
 11
34.7522336598
 21
51.2470228823
 31
0.0
  0
ARC
  5
142
330
1F
100
AcDbEntity
  8
0
  6
Continuous
 62
     7
370
    25
100
AcDbCircle
 10
34.7422342095
 20
50.5741631277
 30
0.0
 40
0.009999450304383
100
AcDbArc
 50
269.9969390718
 51
0.0043214089
  0
ARC
  5
143
330
1F
100
AcDbEntity
  8
0
  6
Continuous
 62
     7
370
    25
100
AcDbCircle
 10
33.7722331066
 20
50.5741631277
 30
0.0
 40
0.009999450304383
100
AcDbArc
 50
179.9956785911
 51
270.0030609282
  0
LINE
  5
144
330
1F
100
AcDbEntity
  8
0
  6
Continuous
 62
     7
370
    25
100
AcDbLine
 10
33.7622336563
 20
52.6941638182
 30
0.0
 11
33.7622336563
 21
52.4441633995
 31
0.0
  0
LINE
  5
145
330
1F
100
AcDbEntity
  8
0
  6
Continuous
 62
     7
370
    25
100
AcDbLine
 10
34.7522336598
 20
52.4441633995
 30
0.0
 11
34.7522336598
 21
52.6941638182
 31
0.0
  0
LINE
  5
146
330
1F
100
AcDbEntity
  8
0
  6
Continuous
 62
     7
370
    25
100
AcDbLine
 10
35.6202336325
 20
52.6941638182
 30
0.0
 11
35.6492336975
 21
52.7231635898
 31
0.0
  0
LINE
  5
147
330
1F
100
AcDbEntity
  8
0
  6
Continuous
 62
     7
370
    25
100
AcDbLine
 10
35.6492336975
 20
53.6651622011
 30
0.0
 11
35.6202336325
 21
53.6941643194
 31
0.0
  0
LINE
  5
148
330
1F
100
AcDbEntity
  8
0
  6
Continuous
 62
     7
370
    25
100
AcDbLine
 10
35.6202336325
 20
53.6941643194
 30
0.0
 11
32.8942336835
 21
53.6941643194
 31
0.0
  0
LINE
  5
149
330
1F
100
AcDbEntity
  8
0
  6
Continuous
 62
     7
370
    25
100
AcDbLine
 10
35.5561835725
 20
52.6941638182
 30
0.0
 11
35.6202336325
 21
52.6941638182
 31
0.0
  0
LINE
  5
14A
330
1F
100
AcDbEntity
  8
0
  6
Continuous
 62
     7
370
    25
100
AcDbLine
 10
34.7522336598
 20
52.6941638182
 30
0.0
 11
35.3932336549
 21
52.6941638182
 31
0.0
  0
LINE
  5
14B
330
1F
100
AcDbEntity
  8
0
  6
Continuous
 62
     7
370
    25
100
AcDbLine
 10
33.1201836133
 20
52.6941638182
 30
0.0
 11
33.7622336563
 21
52.6941638182
 31
0.0
  0
LINE
  5
14C
330
1F
100
AcDbEntity
  8
0
  6
Continuous
 62
     7
370
    25
100
AcDbLine
 10
32.8942336835
 20
52.6941638182
 30
0.0
 11
32.9572336224
 21
52.6941638182
 31
0.0
  0
LINE
  5
14D
330
1F
100
AcDbEntity
  8
0
  6
Continuous
 62
     7
370
    25
100
AcDbLine
 10
32.8942336835
 20
53.6941643194
 30
0.0
 11
32.8652336185
 21
53.6651622011
 31
0.0
  0
LINE
  5
14E
330
1F
100
AcDbEntity
  8
0
  6
Continuous
 62
     7
370
    25
100
AcDbLine
 10
32.8652336185
 20
52.7231635898
 30
0.0
 11
32.8942336835
 21
52.6941638182
 31
0.0
  0
LINE
  5
14F
330
1F
100
AcDbEntity
  8
0
  6
Continuous
 62
     7
370
    25
100
AcDbLine
 10
36.6182336236
 20
52.8191634408
 30
0.0
 11
37.2932337859
 21
52.8191634408
 31
0.0
  0
LINE
  5
150
330
1F
100
AcDbEntity
  8
0
  6
Continuous
 62
     7
370
    25
100
AcDbLine
 10
31.2212335302
 20
52.8191634408
 30
0.0
 11
31.8962336925
 21
52.8191634408
 31
0.0
  0
LINE
  5
151
330
1F
100
AcDbEntity
  8
0
  6
Continuous
 62
     7
370
    25
100
AcDbLine
 10
31.8962336925
 20
52.6941638182
 30
0.0
 11
32.8652336185
 21
52.6941638182
 31
0.0
  0
LINE
  5
152
330
1F
100
AcDbEntity
  8
0
  6
Continuous
 62
     7
370
    25
100
AcDbLine
 10
30.6772337878
 20
52.6941638182
 30
0.0
 11
31.2212335302
 21
52.6941638182
 31
0.0
  0
LINE
  5
153
330
1F
100
AcDbEntity
  8
0
  6
Continuous
 62
     7
370
    25
100
AcDbLine
 10
32.6222336657
 20
53.6941643194
 30
0.0
 11
30.6772337878
 21
53.6941643194
 31
0.0
  0
LINE
  5
154
330
1F
100
AcDbEntity
  8
0
  6
Continuous
 62
     7
370
    25
100
AcDbLine
 10
32.8652336185
 20
53.6941643194
 30
0.0
 11
32.7582336013
 21
53.6941643194
 31
0.0
  0
LINE
  5
155
330
1F
100
AcDbEntity
  8
0
  6
Continuous
 62
     7
370
    25
100
AcDbLine
 10
35.7562337148
 20
53.6941643194
 30
0.0
 11
35.6492336975
 21
53.6941643194
 31
0.0
  0
LINE
  5
156
330
1F
100
AcDbEntity
  8
0
  6
Continuous
 62
     7
370
    25
100
AcDbLine
 10
37.8372335282
 20
53.6941643194
 30
0.0
 11
35.8922336504
 21
53.6941643194
 31
0.0
  0
LINE
  5
157
330
1F
100
AcDbEntity
  8
0
  6
Continuous
 62
     7
370
    25
100
AcDbLine
 10
37.2932337859
 20
52.6941638182
 30
0.0
 11
37.8372335282
 21
52.6941638182
 31
0.0
  0
LINE
  5
158
330
1F
100
AcDbEntity
  8
0
  6
Continuous
 62
     7
370
    25
100
AcDbLine
 10
35.6492336975
 20
52.6941638182
 30
0.0
 11
36.6182336236
 21
52.6941638182
 31
0.0
  0
LINE
  5
159
330
1F
100
AcDbEntity
  8
0
  6
Continuous
 62
     7
370
    25
100
AcDbLine
 10
33.7572336641
 20
50.5641636774
 30
0.0
 11
34.757233652
 21
50.5641636774
 31
0.0
  0
LINE
  5
15A
330
1F
100
AcDbEntity
  8
0
  6
Continuous
 62
     7
370
    25
100
AcDbLine
 10
33.7622336563
 20
52.4441633995
 30
0.0
 11
34.7522336598
 21
52.4441633995
 31
0.0
  0
SPLINE
  5
15B
330
1F
100
AcDbEntity
  8
0
  6
Continuous
 62
     7
370
    25
100
AcDbSpline
210
0.0
220
0.0
230
1.0
 70
     8
 71
     3
 72
    17
 73
    13
 74
     0
 42
0.00000001
 43
0.00000001
 40
0.0
 40
0.0
 40
0.0
 40
0.0
 40
0.0059394306314818
 40
0.0695612766854632
 40
0.181042006701362
 40
0.3286804170853658
 40
0.4947772819313858
 40
0.6597524547284112
 40
0.8066562784606582
 40
0.9202711389926275
 40
0.9865832014631825
 40
0.9999999999999999
 40
0.9999999999999999
 40
0.9999999999999999
 40
0.9999999999999999
 10
34.75211658444005
 20
51.247022882325
 30
0.0
 10
34.75208055095531
 20
51.2472888244913
 30
0.0
 10
34.75165853488044
 20
51.25040347937323
 30
0.0
 10
34.75064170973161
 20
51.25852081119649
 30
0.0
 10
34.74915887065281
 20
51.2730303541649
 30
0.0
 10
34.74787909708481
 20
51.29220631258257
 30
0.0
 10
34.74736931187199
 20
51.31383842485819
 30
0.0
 10
34.74785071645903
 20
51.33543786435736
 30
0.0
 10
34.74910248955292
 20
51.35462819847751
 30
0.0
 10
34.75058502420123
 20
51.369323642255
 30
0.0
 10
34.75166554209907
 20
51.37799325407961
 30
0.0
 10
34.75215182749108
 20
51.38156282010884
 30
0.0
 10
34.75223365975425
 20
51.38216350783563
 30
0.0
  0
SPLINE
  5
15C
330
1F
100
AcDbEntity
  8
0
  6
Continuous
 62
     7
370
    25
100
AcDbSpline
210
0.0
220
0.0
230
1.0
 70
     8
 71
     3
 72
    17
 73
    13
 74
     0
 42
0.00000001
 43
0.00000001
 40
0.0
 40
0.0
 40
0.0
 40
0.0
 40
0.0280507580330029
 40
0.1087407907771508
 40
0.2335367281575083
 40
0.3888040038785311
 40
0.5556058551907184
 40
0.7151427062201737
 40
0.8514474792534263
 40
0.9495862714595347
 40
0.9969354987073729
 40
1.0
 40
1.0
 40
1.0
 40
1.0
 10
33.76223365631877
 20
51.38216350783563
 30
0.0
 10
33.76240428923316
 20
51.38089966560852
 30
0.0
 10
33.76306576005761
 20
51.37600028987575
 30
0.0
 10
33.76431473218036
 20
51.36545741757271
 30
0.0
 10
33.76580445409421
 20
51.34910865746284
 30
0.0
 10
33.76687817780138
 20
51.32887767577257
 30
0.0
 10
33.76701356432355
 20
51.30671542067611
 30
0.0
 10
33.76634370908561
 20
51.28658469031367
 30
0.0
 10
33.76458777910154
 20
51.26613028966196
 30
0.0
 10
33.76397177859481
 20
51.25920998784758
 30
0.0
 10
33.76200277780267
 20
51.24445391421627
 30
0.0
 10
33.76233079258552
 20
51.24687567090618
 30
0.0
 10
33.76235073163298
 20
51.247022882325
 30
0.0
  0
LINE
  5
15D
330
1F
100
AcDbEntity
  8
0
  6
Continuous
 62
     7
370
    25
100
AcDbLine
 10
34.1305450599
 20
53.0491634505
 30
0.0
 11
34.3839222562
 21
53.0491634505
 31
0.0
  0
SPLINE
  5
15E
330
1F
100
AcDbEntity
  8
0
  6
Continuous
 62
     7
370
    25
100
AcDbSpline
210
0.0
220
0.0
230
1.0
 70
     8
 71
     3
 72
    15
 73
    11
 74
     0
 42
0.00000001
 43
0.00000001
 40
0.0
 40
0.0
 40
0.0
 40
0.0
 40
0.2337606890599662
 40
0.4605090308985675
 40
0.6182975634325639
 40
0.7620721457392409
 40
0.8536905811629574
 40
0.9281625737615202
 40
0.9948322927565373
 40
1.0
 40
1.0
 40
1.0
 40
1.0
 10
34.38392225618568
 20
53.04916345051004
 30
0.0
 10
34.4134661132195
 20
53.02228550949904
 30
0.0
 10
34.47166757141317
 20
52.96933591126972
 30
0.0
 10
34.54707903323526
 20
52.89591925276305
 30
0.0
 10
34.61223939689866
 20
52.83228393761756
 30
0.0
 10
34.65837410426967
 20
52.78689346691701
 30
0.0
 10
34.69998230703892
 20
52.74583369014948
 30
0.0
 10
34.71790464786872
 20
52.72813908525519
 30
0.0
 10
34.75902219489485
 20
52.68744435810699
 30
0.0
 10
34.74959454359836
 20
52.696775519183
 30
0.0
 10
34.74891635474271
 20
52.69744676690451
 30
0.0
  0
SPLINE
  5
15F
330
1F
100
AcDbEntity
  8
0
  6
Continuous
 62
     7
370
    25
100
AcDbSpline
210
0.0
220
0.0
230
1.0
 70
     8
 71
     3
 72
    14
 73
    10
 74
     0
 42
0.00000001
 43
0.00000001
 40
0.0
 40
0.0
 40
0.0
 40
0.0
 40
0.0121171903920891
 40
0.1037849689979981
 40
0.1996614465315591
 40
0.3187348035190109
 40
0.5011241296890682
 40
0.7071327262157244
 40
1.0
 40
1.0
 40
1.0
 40
1.0
 10
33.76555096133031
 20
52.69744676690451
 30
0.0
 10
33.76700602964952
 20
52.69888724430335
 30
0.0
 10
33.77946883790057
 20
52.71122507983637
 30
0.0
 10
33.80345813224253
 20
52.73494712763527
 30
0.0
 10
33.84032765448453
 20
52.77134685337319
 30
0.0
 10
33.88815772450286
 20
52.81846469241723
 30
0.0
 10
33.94944523997675
 20
52.87843551220448
 30
0.0
 10
34.03184387240312
 20
52.95883592969172
 30
0.0
 10
34.09403530553916
 20
53.015751131165
 30
0.0
 10
34.13054505988734
 20
53.04916345051004
 30
0.0
  0
LINE
  5
160
330
1F
100
AcDbEntity
  8
0
  6
Continuous
 62
     7
370
    25
100
AcDbLine
 10
34.257233658
 20
52.4441633995
 30
0.0
 11
34.7522336598
 21
52.4441633995
 31
0.0
  0
LINE
  5
161
330
1F
100
AcDbEntity
  8
0
  6
Continuous
 62
     7
370
    25
100
AcDbLine
 10
33.7622336563
 20
52.4441633995
 30
0.0
 11
34.257233658
 21
52.4441633995
 31
0.0
  0
LINE
  5
162
330
1F
100
AcDbEntity
  8
0
  6
Continuous
 62
     7
370
    25
100
AcDbLine
 10
35.6202336325
 20
52.6941638182
 30
0.0
 11
35.6202336325
 21
53.6941643194
 31
0.0
  0
ARC
  5
163
330
1F
100
AcDbEntity
  8
0
  6
Continuous
 62
     7
370
    25
100
AcDbCircle
 10
35.4752270831
 20
52.1976646998
 30
0.0
 40
0.503223903205805
100
AcDbArc
 50
80.7422723338
 51
99.3773694058
  0
ARC
  5
164
330
1F
100
AcDbEntity
  8
0
  6
Continuous
 62
     7
370
    25
100
AcDbCircle
 10
33.0392270928
 20
52.1976592326
 30
0.0
 40
0.5032293043006602
100
AcDbArc
 50
80.7423689714
 51
99.3772727144
  0
LINE
  5
165
330
1F
100
AcDbEntity
  8
0
  6
Continuous
 62
     7
370
    25
100
AcDbLine
 10
32.8942336835
 20
53.6941643194
 30
0.0
 11
32.8942336835
 21
52.6941638182
 31
0.0
  0
LINE
  5
166
330
1F
100
AcDbEntity
  8
0
  6
Continuous
 62
     7
370
    25
100
AcDbLine
 10
33.7622336563
 20
51.31416376
 30
0.0
 11
33.7622336563
 21
51.377562921
 31
0.0
  0
LINE
  5
167
330
1F
100
AcDbEntity
  8
0
  6
Continuous
 62
     7
370
    25
100
AcDbLine
 10
33.7622336563
 20
51.2507634258
 30
0.0
 11
33.7622336563
 21
51.31416376
 31
0.0
  0
LINE
  5
168
330
1F
100
AcDbEntity
  8
0
  6
Continuous
 62
     7
370
    25
100
AcDbLine
 10
32.6268336659
 20
53.6941643194
 30
0.0
 11
32.7536336011
 21
53.6941643194
 31
0.0
  0
LINE
  5
169
330
1F
100
AcDbEntity
  8
0
  6
Continuous
 62
     7
370
    25
100
AcDbLine
 10
33.1026336827
 20
52.6941638182
 30
0.0
 11
32.9758336742
 21
52.6941638182
 31
0.0
  0
LINE
  5
16A
330
1F
100
AcDbEntity
  8
0
  6
Continuous
 62
     7
370
    25
100
AcDbLine
 10
34.7522336598
 20
51.2597334555
 30
0.0
 11
34.7522336598
 21
51.2507634258
 31
0.0
  0
LINE
  5
16B
330
1F
100
AcDbEntity
  8
0
  6
Continuous
 62
     7
370
    25
100
AcDbLine
 10
34.7522336598
 20
51.377562921
 30
0.0
 11
34.7522336598
 21
51.2597334555
 31
0.0
  0
LINE
  5
16C
330
1F
100
AcDbEntity
  8
0
  6
Continuous
 62
     7
370
    25
100
AcDbLine
 10
35.4752336743
 20
52.6941638182
 30
0.0
 11
35.4118336333
 21
52.6941638182
 31
0.0
  0
LINE
  5
16D
330
1F
100
AcDbEntity
  8
0
  6
Continuous
 62
     7
370
    25
100
AcDbLine
 10
35.5386336419
 20
52.6941638182
 30
0.0
 11
35.4752336743
 21
52.6941638182
 31
0.0
  0
LINE
  5
16E
330
1F
100
AcDbEntity
  8
0
  6
Continuous
 62
     7
370
    25
100
AcDbLine
 10
35.760833715
 20
53.6941643194
 30
0.0
 11
35.8876336502
 21
53.6941643194
 31
0.0
  0
LINE
  5
16F
330
1F
100
AcDbEntity
  8
0
  6
Continuous
 62
     7
370
    25
100
AcDbLine
 10
31.2212335302
 20
52.6941638182
 30
0.0
 11
31.2212335302
 21
52.8941632144
 31
0.0
  0
LINE
  5
170
330
1F
100
AcDbEntity
  8
0
  6
Continuous
 62
     7
370
    25
100
AcDbLine
 10
31.8962336925
 20
52.8941632144
 30
0.0
 11
31.8962336925
 21
52.6941638182
 31
0.0
  0
LINE
  5
171
330
1F
100
AcDbEntity
  8
0
  6
Continuous
 62
     7
370
    25
100
AcDbLine
 10
31.2212335302
 20
52.8941632144
 30
0.0
 11
31.8962336925
 21
52.8941632144
 31
0.0
  0
LINE
  5
172
330
1F
100
AcDbEntity
  8
0
  6
Continuous
 62
     7
370
    25
100
AcDbLine
 10
32.8652336185
 20
53.1941634821
 30
0.0
 11
32.8652336185
 21
52.6941638182
 31
0.0
  0
LINE
  5
173
330
1F
100
AcDbEntity
  8
0
  6
Continuous
 62
     7
370
    25
100
AcDbLine
 10
32.8652336185
 20
53.6941643194
 30
0.0
 11
32.8652336185
 21
53.1941634821
 31
0.0
  0
SPLINE
  5
174
330
1F
100
AcDbEntity
  8
0
  6
Continuous
 62
     7
370
    25
100
AcDbSpline
210
0.0
220
0.0
230
1.0
 70
     8
 71
     3
 72
    17
 73
    13
 74
     0
 42
0.00000001
 43
0.00000001
 40
0.0
 40
0.0
 40
0.0
 40
0.0
 40
0.0122832823625535
 40
0.0755462451151954
 40
0.1863641900284564
 40
0.3330796014712458
 40
0.4981369912048821
 40
0.6620864979731121
 40
0.8080609332629087
 40
0.9209044181468092
 40
0.9867171677426076
 40
0.9999999999999999
 40
0.9999999999999999
 40
0.9999999999999999
 40
0.9999999999999999
 10
32.75823360127975
 20
53.69416431940496
 30
0.0
 10
32.75768018960062
 20
53.69408883111208
 30
0.0
 10
32.75427652491825
 20
53.69362455316836
 30
0.0
 10
32.7458652148109
 20
53.69259003960928
 30
0.0
 10
32.73135091596013
 20
53.69111620142382
 30
0.0
 10
32.71217139553563
 20
53.6898536341368
 30
0.0
 10
32.69053821228823
 20
53.68934763538881
 30
0.0
 10
32.66893814267457
 20
53.68982624658786
 30
0.0
 10
32.64974909353693
 20
53.6910634142542
 30
0.0
 10
32.63505882581674
 20
53.6925325597803
 30
0.0
 10
32.6263963182088
 20
53.69360126570569
 30
0.0
 10
32.6228322017891
 20
53.6940833594977
 30
0.0
 10
32.62223366569594
 20
53.69416431940496
 30
0.0
  0
LINE
  5
175
330
1F
100
AcDbEntity
  8
0
  6
Continuous
 62
     7
370
    25
100
AcDbLine
 10
30.6772337878
 20
53.1941634821
 30
0.0
 11
30.6772337878
 21
52.6941638182
 31
0.0
  0
LINE
  5
176
330
1F
100
AcDbEntity
  8
0
  6
Continuous
 62
     7
370
    25
100
AcDbLine
 10
30.6772337878
 20
53.6941643194
 30
0.0
 11
30.6772337878
 21
53.1941634821
 31
0.0
  0
LINE
  5
177
330
1F
100
AcDbEntity
  8
0
  6
Continuous
 62
     7
370
    25
100
AcDbLine
 10
37.2932337859
 20
52.8941632144
 30
0.0
 11
37.2932337859
 21
52.6941638182
 31
0.0
  0
LINE
  5
178
330
1F
100
AcDbEntity
  8
0
  6
Continuous
 62
     7
370
    25
100
AcDbLine
 10
37.2932337859
 20
52.8941632144
 30
0.0
 11
36.6182336236
 21
52.8941632144
 31
0.0
  0
LINE
  5
179
330
1F
100
AcDbEntity
  8
0
  6
Continuous
 62
     7
370
    25
100
AcDbLine
 10
36.6182336236
 20
52.6941638182
 30
0.0
 11
36.6182336236
 21
52.8941632144
 31
0.0
  0
SPLINE
  5
17A
330
1F
100
AcDbEntity
  8
0
  6
Continuous
 62
     7
370
    25
100
AcDbSpline
210
0.0
220
0.0
230
1.0
 70
     8
 71
     3
 72
    17
 73
    13
 74
     0
 42
0.00000001
 43
0.00000001
 40
0.0
 40
0.0
 40
0.0
 40
0.0
 40
0.028042827890925
 40
0.1087304876165217
 40
0.2335122623262971
 40
0.3887416339677447
 40
0.5555226413763755
 40
0.7150534831188484
 40
0.8513333057302939
 40
0.9494159388604752
 40
0.9967181273645384
 40
1.0
 40
1.0
 40
1.0
 40
1.0
 10
35.89223365037708
 20
53.69416431940496
 30
0.0
 10
35.89096977606572
 20
53.69399516215383
 30
0.0
 10
35.88606935479951
 20
53.69333928855677
 30
0.0
 10
35.87552270723226
 20
53.69210154118854
 30
0.0
 10
35.85918462952215
 20
53.69062867862867
 30
0.0
 10
35.83888972271739
 20
53.68957168096129
 30
0.0
 10
35.81698632157374
 20
53.68940598578514
 30
0.0
 10
35.79595952947569
 20
53.69018643695578
 30
0.0
 10
35.77809834074135
 20
53.691575355905
 30
0.0
 10
35.76536628904066
 20
53.69297613653034
 30
0.0
 10
35.75866013635055
 20
53.6938299757369
 30
0.0
 10
35.75638154860869
 20
53.69414394895451
 30
0.0
 10
35.75623371479328
 20
53.69416431940496
 30
0.0
  0
LINE
  5
17B
330
1F
100
AcDbEntity
  8
0
  6
Continuous
 62
     7
370
    25
100
AcDbLine
 10
37.8372335282
 20
52.6941638182
 30
0.0
 11
37.8372335282
 21
53.6941643194
 31
0.0
  0
LINE
  5
17C
330
1F
100
AcDbEntity
  8
0
  6
Continuous
 62
     7
370
    25
100
AcDbLine
 10
35.6492336975
 20
52.6941638182
 30
0.0
 11
35.6492336975
 21
53.6941643194
 31
0.0
  0
LINE
  5
17D
330
1F
100
AcDbEntity
  8
0
  6
Continuous
 62
     7
370
    25
100
AcDbLine
 10
33.7622336563
 20
50.5741638819
 30
0.0
 11
34.7522336598
 21
50.5741638819
 31
0.0
  0
LINE
  5
17E
330
1F
100
AcDbEntity
  8
0
  6
Continuous
 62
     7
370
    25
100
AcDbLine
 10
33.7572336641
 20
44.9713427771
 30
0.0
 11
33.7572336641
 21
38.6733680252
 31
0.0
  0
LINE
  5
17F
330
1F
100
AcDbEntity
  8
0
  6
Continuous
 62
     7
370
    25
100
AcDbLine
 10
34.757233652
 20
38.6733680252
 30
0.0
 11
34.757233652
 21
44.703526671
 31
0.0
  0
LINE
  5
180
330
1F
100
AcDbEntity
  8
0
  6
Continuous
 62
     7
370
    25
100
AcDbLine
 10
31.2947338011
 20
29.3603952761
 30
0.0
 11
31.3252893948
 21
28.4853955709
 31
0.0
  0
LINE
  5
181
330
1F
100
AcDbEntity
  8
0
  6
Continuous
 62
     7
370
    25
100
AcDbLine
 10
37.1891779213
 20
28.4853955709
 30
0.0
 11
37.219733515
 21
29.3603952761
 31
0.0
  0
LINE
  5
182
330
1F
100
AcDbEntity
  8
0
  6
Continuous
 62
     7
370
    25
100
AcDbLine
 10
35.3672336219
 20
38.6433679984
 30
0.0
 11
35.3372336685
 21
38.6733680252
 31
0.0
  0
LINE
  5
183
330
1F
100
AcDbEntity
  8
0
  6
Continuous
 62
     7
370
    25
100
AcDbLine
 10
33.1772336476
 20
38.6733680252
 30
0.0
 11
33.1472336942
 21
38.6433679984
 31
0.0
  0
LINE
  5
184
330
1F
100
AcDbEntity
  8
0
  6
Continuous
 62
     7
370
    25
100
AcDbLine
 10
35.3672336219
 20
37.3083679805
 30
0.0
 11
35.3672336219
 21
38.6433679984
 31
0.0
  0
LINE
  5
185
330
1F
100
AcDbEntity
  8
0
  6
Continuous
 62
     7
370
    25
100
AcDbLine
 10
33.1472336942
 20
37.3973450726
 30
0.0
 11
33.1472336942
 21
37.3083679805
 31
0.0
  0
LINE
  5
186
330
1F
100
AcDbEntity
  8
0
  6
Continuous
 62
     7
370
    25
100
AcDbLine
 10
33.1472336942
 20
38.6433679984
 30
0.0
 11
33.1472336942
 21
37.7193909923
 31
0.0
  0
LINE
  5
187
330
1F
100
AcDbEntity
  8
0
  6
Continuous
 62
     7
370
    25
100
AcDbLine
 10
34.81223364
 20
37.3973450726
 30
0.0
 11
34.8508080677
 21
37.3973450726
 31
0.0
  0
LINE
  5
188
330
1F
100
AcDbEntity
  8
0
  6
Continuous
 62
     7
370
    25
100
AcDbLine
 10
34.8508080677
 20
37.7193909923
 30
0.0
 11
34.81223364
 21
37.7193909923
 31
0.0
  0
LINE
  5
189
330
1F
100
AcDbEntity
  8
0
  6
Continuous
 62
     7
370
    25
100
AcDbLine
 10
33.1472336942
 20
37.7193909923
 30
0.0
 11
33.0700848387
 21
37.7193909923
 31
0.0
  0
LINE
  5
18A
330
1F
100
AcDbEntity
  8
0
  6
Continuous
 62
     7
370
    25
100
AcDbLine
 10
33.0700848387
 20
37.3973450726
 30
0.0
 11
33.1472336942
 21
37.3973450726
 31
0.0
  0
ARC
  5
18B
330
1F
100
AcDbEntity
  8
0
  6
Continuous
 62
     7
370
    25
100
AcDbCircle
 10
33.1080048847
 20
37.653791113
 30
0.0
 40
0.0757711953251213
100
AcDbArc
 50
120.0300829863
 51
180.0001030348
  0
ARC
  5
18C
330
1F
100
AcDbEntity
  8
0
  6
Continuous
 62
     7
370
    25
100
AcDbCircle
 10
33.1080048847
 20
37.4629449519
 30
0.0
 40
0.0757711953251213
100
AcDbArc
 50
179.9998969652
 51
239.9699170137
  0
LINE
  5
18D
330
1F
100
AcDbEntity
  8
0
  6
Continuous
 62
     7
370
    25
100
AcDbLine
 10
33.059733665
 20
37.2422059448
 30
0.0
 11
33.0591086522
 21
37.2422059448
 31
0.0
  0
LINE
  5
18E
330
1F
100
AcDbEntity
  8
0
  6
Continuous
 62
     7
370
    25
100
AcDbLine
 10
35.4447336666
 20
23.4219892104
 30
0.0
 11
35.4447336666
 21
28.4853955709
 31
0.0
  0
LINE
  5
18F
330
1F
100
AcDbEntity
  8
0
  6
Continuous
 62
     7
370
    25
100
AcDbLine
 10
35.4447336666
 20
29.3603952761
 30
0.0
 11
35.4447336666
 21
37.3083679805
 31
0.0
  0
LINE
  5
190
330
1F
100
AcDbEntity
  8
0
  6
Continuous
 62
     7
370
    25
100
AcDbLine
 10
33.0697336495
 20
35.8083679619
 30
0.0
 11
33.0697336495
 21
29.3603952761
 31
0.0
  0
LINE
  5
191
330
1F
100
AcDbEntity
  8
0
  6
Continuous
 62
     7
370
    25
100
AcDbLine
 10
33.0697336495
 20
28.4853955709
 30
0.0
 11
33.0697336495
 21
19.3083676114
 31
0.0
  0
LINE
  5
192
330
1F
100
AcDbEntity
  8
0
  6
Continuous
 62
     7
370
    25
100
AcDbLine
 10
34.278216005
 20
28.4853955709
 30
0.0
 11
37.1891779213
 21
28.4853955709
 31
0.0
  0
LINE
  5
193
330
1F
100
AcDbEntity
  8
0
  6
Continuous
 62
     7
370
    25
100
AcDbLine
 10
31.3252893948
 20
28.4853955709
 30
0.0
 11
34.278216005
 21
28.4853955709
 31
0.0
  0
LINE
  5
194
330
1F
100
AcDbEntity
  8
0
  6
Continuous
 62
     7
370
    25
100
AcDbLine
 10
34.2784346756
 20
29.3603952761
 30
0.0
 11
37.219733515
 21
29.3603952761
 31
0.0
  0
LINE
  5
195
330
1F
100
AcDbEntity
  8
0
  6
Continuous
 62
     7
370
    25
100
AcDbLine
 10
31.2947338011
 20
29.3603952761
 30
0.0
 11
34.2784346756
 21
29.3603952761
 31
0.0
  0
LINE
  5
196
330
1F
100
AcDbEntity
  8
0
  6
Continuous
 62
     7
370
    25
100
AcDbLine
 10
34.257233658
 20
38.6733680252
 30
0.0
 11
35.3372336685
 21
38.6733680252
 31
0.0
  0
LINE
  5
197
330
1F
100
AcDbEntity
  8
0
  6
Continuous
 62
     7
370
    25
100
AcDbLine
 10
33.1772336476
 20
38.6733680252
 30
0.0
 11
34.257233658
 21
38.6733680252
 31
0.0
  0
LINE
  5
198
330
1F
100
AcDbEntity
  8
0
  6
Continuous
 62
     7
370
    25
100
AcDbLine
 10
34.257233658
 20
38.6433679984
 30
0.0
 11
33.1472336942
 21
38.6433679984
 31
0.0
  0
LINE
  5
199
330
1F
100
AcDbEntity
  8
0
  6
Continuous
 62
     7
370
    25
100
AcDbLine
 10
35.3672336219
 20
38.6433679984
 30
0.0
 11
34.257233658
 21
38.6433679984
 31
0.0
  0
LWPOLYLINE
  5
19A
330
1F
100
AcDbEntity
  8
0
  6
Continuous
 62
     7
370
    25
100
AcDbPolyline
 90
       17
 70
   128
 43
0.0
 10
34.9332405287
 20
37.6194257604
 10
34.9486417442
 20
37.586715365
 10
34.952029925
 20
37.549689206
 10
34.9428891773
 20
37.5139844985
 10
34.9226112782
 20
37.4850366463
 10
34.8942831588
 20
37.467252785
 10
34.8622176492
 20
37.4633404969
 10
34.8312963464
 20
37.4738952416
 10
34.8062267927
 20
37.4973103045
 10
34.7908256139
 20
37.5300206999
 10
34.7874374331
 20
37.5670467122
 10
34.7965781075
 20
37.6027515664
 10
34.8168560799
 20
37.6316994187
 10
34.8451841626
 20
37.6494831332
 10
34.8772497089
 20
37.653395568
 10
34.9081709384
 20
37.6428408233
 10
34.9332405287
 20
37.6194257604
  0
LWPOLYLINE
  5
19B
330
1F
100
AcDbEntity
  8
0
  6
Continuous
 62
     7
370
    25
100
AcDbPolyline
 90
       22
 70
   128
 43
0.0
 10
34.9296420303
 20
37.4255447868
 10
34.8922344691
 20
37.4046143753
 10
34.8511460204
 20
37.3973455126
 10
34.8100275054
 20
37.404384258
 10
34.7725325319
 20
37.4251050853
 10
34.7419927047
 20
37.4576670558
 10
34.7211215825
 20
37.4991766162
 10
34.7117736705
 20
37.5459455826
 10
34.7147795691
 20
37.5938184963
 10
34.7298722014
 20
37.6385413396
 10
34.7557104996
 20
37.6761403719
 10
34.7899986435
 20
37.7032750051
 10
34.8296899983
 20
37.7175339204
 10
34.8712577481
 20
37.7176502257
 10
34.9110084656
 20
37.7036136546
 10
34.9454101282
 20
37.6766712991
 10
34.9714059812
 20
37.6392171718
 10
34.9866861247
 20
37.5945793941
 10
34.9898929543
 20
37.5467239336
 10
34.9807415
 20
37.4999031945
 10
34.9600448724
 20
37.458277182
 10
34.9296420303
 20
37.4255447868
  0
LWPOLYLINE
  5
19C
330
1F
100
AcDbEntity
  8
0
  6
Continuous
 62
     7
370
    25
100
AcDbPolyline
 90
       12
 70
   128
 43
0.0
 10
34.81223364
 20
37.3973450726
 10
34.7815327013
 20
37.401295787
 10
34.742801562
 20
37.4187232523
 10
34.7102397382
 20
37.4485588676
 10
34.686740563
 20
37.4881513703
 10
34.674391959
 20
37.5339830008
 10
34.6742912368
 20
37.581981313
 10
34.6864472697
 20
37.6278814361
 10
34.7097800168
 20
37.6676050572
 10
34.7422161855
 20
37.6976225371
 10
34.7808736989
 20
37.71526648
 10
34.81223364
 20
37.7193909923
  0
LINE
  5
19D
330
1F
100
AcDbEntity
  8
0
  6
Continuous
 62
     7
370
    25
100
AcDbLine
 10
34.8280917168
 20
37.6346852242
 30
0.0
 11
34.8445350601
 21
37.5736560225
 31
0.0
  0
LINE
  5
19E
330
1F
100
AcDbEntity
  8
0
  6
Continuous
 62
     7
370
    25
100
AcDbLine
 10
34.8445350601
 20
37.5736560225
 30
0.0
 11
34.7916822107
 21
37.5546689219
 31
0.0
  0
LINE
  5
19F
330
1F
100
AcDbEntity
  8
0
  6
Continuous
 62
     7
370
    25
100
AcDbLine
 10
34.7916822107
 20
37.5546689219
 30
0.0
 11
34.8036409792
 21
37.5102839946
 31
0.0
  0
LINE
  5
1A0
330
1F
100
AcDbEntity
  8
0
  6
Continuous
 62
     7
370
    25
100
AcDbLine
 10
34.8036409792
 20
37.5102839946
 30
0.0
 11
34.8564938287
 21
37.5292712419
 31
0.0
  0
LINE
  5
1A1
330
1F
100
AcDbEntity
  8
0
  6
Continuous
 62
     7
370
    25
100
AcDbLine
 10
34.8564938287
 20
37.5292712419
 30
0.0
 11
34.872937172
 21
37.4682420403
 31
0.0
  0
LINE
  5
1A2
330
1F
100
AcDbEntity
  8
0
  6
Continuous
 62
     7
370
    25
100
AcDbLine
 10
34.872937172
 20
37.4682420403
 30
0.0
 11
34.911375568
 21
37.4820508407
 31
0.0
  0
LINE
  5
1A3
330
1F
100
AcDbEntity
  8
0
  6
Continuous
 62
     7
370
    25
100
AcDbLine
 10
34.911375568
 20
37.4820508407
 30
0.0
 11
34.894932298
 21
37.5430800424
 31
0.0
  0
LINE
  5
1A4
330
1F
100
AcDbEntity
  8
0
  6
Continuous
 62
     7
370
    25
100
AcDbLine
 10
34.894932298
 20
37.5430800424
 30
0.0
 11
34.9477850741
 21
37.5620671431
 31
0.0
  0
LINE
  5
1A5
330
1F
100
AcDbEntity
  8
0
  6
Continuous
 62
     7
370
    25
100
AcDbLine
 10
34.9477850741
 20
37.5620671431
 30
0.0
 11
34.9358263055
 21
37.6064519237
 31
0.0
  0
LINE
  5
1A6
330
1F
100
AcDbEntity
  8
0
  6
Continuous
 62
     7
370
    25
100
AcDbLine
 10
34.9358263055
 20
37.6064519237
 30
0.0
 11
34.8829734561
 21
37.587464823
 31
0.0
  0
LINE
  5
1A7
330
1F
100
AcDbEntity
  8
0
  6
Continuous
 62
     7
370
    25
100
AcDbLine
 10
34.8665301494
 20
37.6484940246
 30
0.0
 11
34.8829734561
 21
37.587464823
 31
0.0
  0
LINE
  5
1A8
330
1F
100
AcDbEntity
  8
0
  6
Continuous
 62
     7
370
    25
100
AcDbLine
 10
34.8665301494
 20
37.6484940246
 30
0.0
 11
34.8280917168
 21
37.6346852242
 31
0.0
  0
LINE
  5
1A9
330
1F
100
AcDbEntity
  8
0
  6
Continuous
 62
     7
370
    25
100
AcDbLine
 10
34.8245365578
 20
37.5292712419
 30
0.0
 11
34.8153980101
 21
37.5631886901
 31
0.0
  0
LINE
  5
1AA
330
1F
100
AcDbEntity
  8
0
  6
Continuous
 62
     7
370
    25
100
AcDbLine
 10
34.8036409792
 20
37.5102839946
 30
0.0
 11
34.8245365578
 21
37.5292712419
 31
0.0
  0
LINE
  5
1AB
330
1F
100
AcDbEntity
  8
0
  6
Continuous
 62
     7
370
    25
100
AcDbLine
 10
34.8564938287
 20
37.5292712419
 30
0.0
 11
34.8245365578
 21
37.5292712419
 31
0.0
  0
LINE
  5
1AC
330
1F
100
AcDbEntity
  8
0
  6
Continuous
 62
     7
370
    25
100
AcDbLine
 10
34.8665301494
 20
37.6484940246
 30
0.0
 11
34.8510161853
 21
37.587464823
 31
0.0
  0
LINE
  5
1AD
330
1F
100
AcDbEntity
  8
0
  6
Continuous
 62
     7
370
    25
100
AcDbLine
 10
34.8417148027
 20
37.5841233549
 30
0.0
 11
34.8510161853
 21
37.587464823
 31
0.0
  0
LINE
  5
1AE
330
1F
100
AcDbEntity
  8
0
  6
Continuous
 62
     7
370
    25
100
AcDbLine
 10
34.8629749538
 20
37.5430800424
 30
0.0
 11
34.8245365578
 21
37.5292712419
 31
0.0
  0
LINE
  5
1AF
330
1F
100
AcDbEntity
  8
0
  6
Continuous
 62
     7
370
    25
100
AcDbLine
 10
34.911375568
 20
37.4820508407
 30
0.0
 11
34.8629749538
 21
37.5430800424
 31
0.0
  0
LINE
  5
1B0
330
1F
100
AcDbEntity
  8
0
  6
Continuous
 62
     7
370
    25
100
AcDbLine
 10
34.8829734561
 20
37.587464823
 30
0.0
 11
34.8510161853
 21
37.587464823
 31
0.0
  0
LINE
  5
1B1
330
1F
100
AcDbEntity
  8
0
  6
Continuous
 62
     7
370
    25
100
AcDbLine
 10
34.9477850741
 20
37.5620671431
 30
0.0
 11
34.8629749538
 21
37.5430800424
 31
0.0
  0
LINE
  5
1B2
330
1F
100
AcDbEntity
  8
0
  6
Continuous
 62
     7
370
    25
100
AcDbLine
 10
34.8510161853
 20
37.587464823
 30
0.0
 11
34.8629749538
 21
37.5430800424
 31
0.0
  0
LINE
  5
1B3
330
1F
100
AcDbEntity
  8
0
  6
Continuous
 62
     7
370
    25
100
AcDbLine
 10
34.894932298
 20
37.5430800424
 30
0.0
 11
34.8629749538
 21
37.5430800424
 31
0.0
  0
LINE
  5
1B4
330
1F
100
AcDbEntity
  8
0
  6
Continuous
 62
     7
370
    25
100
AcDbLine
 10
34.8203076567
 20
37.5649524831
 30
0.0
 11
34.8261555191
 21
37.5583679591
 31
0.0
  0
LINE
  5
1B5
330
1F
100
AcDbEntity
  8
0
  6
Continuous
 62
     7
370
    25
100
AcDbLine
 10
34.8175316188
 20
37.5552699549
 30
0.0
 11
34.8261555191
 21
37.5583679591
 31
0.0
  0
LINE
  5
1B6
330
1F
100
AcDbEntity
  8
0
  6
Continuous
 62
     7
370
    25
100
AcDbLine
 10
34.8240219471
 20
37.566286841
 30
0.0
 11
34.8261555191
 21
37.5583679591
 31
0.0
  0
LINE
  5
1B7
330
1F
100
AcDbEntity
  8
0
  6
Continuous
 62
     7
370
    25
100
AcDbLine
 10
34.8245365578
 20
37.5292712419
 30
0.0
 11
34.8261555191
 21
37.5583679591
 31
0.0
  0
LINE
  5
1B8
330
1F
100
AcDbEntity
  8
0
  6
Continuous
 62
     7
370
    25
100
AcDbLine
 10
34.8261555191
 20
37.5583679591
 30
0.0
 11
34.8321349401
 21
37.5361756422
 31
0.0
  0
LINE
  5
1B9
330
1F
100
AcDbEntity
  8
0
  6
Continuous
 62
     7
370
    25
100
AcDbLine
 10
34.8245365578
 20
37.5292712419
 30
0.0
 11
34.8321349401
 21
37.5361756422
 31
0.0
  0
LINE
  5
1BA
330
1F
100
AcDbEntity
  8
0
  6
Continuous
 62
     7
370
    25
100
AcDbLine
 10
34.8321349401
 20
37.5361756422
 30
0.0
 11
34.8629749538
 21
37.5430800424
 31
0.0
  0
LINE
  5
1BB
330
1F
100
AcDbEntity
  8
0
  6
Continuous
 62
     7
370
    25
100
AcDbLine
 10
34.8261555191
 20
37.5583679591
 30
0.0
 11
34.8368628688
 21
37.5708998944
 31
0.0
  0
LINE
  5
1BC
330
1F
100
AcDbEntity
  8
0
  6
Continuous
 62
     7
370
    25
100
AcDbLine
 10
34.8432602849
 20
37.5783874345
 30
0.0
 11
34.8510161853
 21
37.587464823
 31
0.0
  0
LINE
  5
1BD
330
1F
100
AcDbEntity
  8
0
  6
Continuous
 62
     7
370
    25
100
AcDbLine
 10
34.8453747538
 20
37.5652723594
 30
0.0
 11
34.8510161853
 21
37.587464823
 31
0.0
  0
LINE
  5
1BE
330
1F
100
AcDbEntity
  8
0
  6
Continuous
 62
     7
370
    25
100
AcDbLine
 10
34.8261555191
 20
37.5583679591
 30
0.0
 11
34.8453747538
 21
37.5652723594
 31
0.0
  0
LINE
  5
1BF
330
1F
100
AcDbEntity
  8
0
  6
Continuous
 62
     7
370
    25
100
AcDbLine
 10
34.8261555191
 20
37.5583679591
 30
0.0
 11
34.8629749538
 21
37.5430800424
 31
0.0
  0
LINE
  5
1C0
330
1F
100
AcDbEntity
  8
0
  6
Continuous
 62
     7
370
    25
100
AcDbLine
 10
34.8453747538
 20
37.5652723594
 30
0.0
 11
34.8629749538
 21
37.5430800424
 31
0.0
  0
LINE
  5
1C1
330
1F
100
AcDbEntity
  8
0
  6
Continuous
 62
     7
370
    25
100
AcDbLine
 10
33.0700848387
 20
37.4046143753
 30
0.0
 11
33.0700848387
 21
37.3973450726
 31
0.0
  0
LINE
  5
1C2
330
1F
100
AcDbEntity
  8
0
  6
Continuous
 62
     7
370
    25
100
AcDbLine
 10
33.0700848387
 20
37.7193909923
 30
0.0
 11
33.0700848387
 21
37.4046143753
 31
0.0
  0
LINE
  5
1C3
330
1F
100
AcDbEntity
  8
0
  6
Continuous
 62
     7
370
    25
100
AcDbLine
 10
33.1472336942
 20
37.6062031799
 30
0.0
 11
33.1472336942
 21
37.3973450726
 31
0.0
  0
LINE
  5
1C4
330
1F
100
AcDbEntity
  8
0
  6
Continuous
 62
     7
370
    25
100
AcDbLine
 10
33.1472336942
 20
37.7193909923
 30
0.0
 11
33.1472336942
 21
37.6062031799
 31
0.0
  0
LINE
  5
1C5
330
1F
100
AcDbEntity
  8
0
  6
Continuous
 62
     7
370
    25
100
AcDbLine
 10
33.0322336893
 20
37.586715365
 30
0.0
 11
33.0322336893
 21
37.4629450881
 31
0.0
  0
LINE
  5
1C6
330
1F
100
AcDbEntity
  8
0
  6
Continuous
 62
     7
370
    25
100
AcDbLine
 10
33.0322336893
 20
37.6537909768
 30
0.0
 11
33.0322336893
 21
37.586715365
 31
0.0
  0
LINE
  5
1C7
330
1F
100
AcDbEntity
  8
0
  6
Continuous
 62
     7
370
    25
100
AcDbLine
 10
33.059733665
 20
35.8083679619
 30
0.0
 11
33.0697336495
 21
35.8083679619
 31
0.0
  0
LINE
  5
1C8
330
1F
100
AcDbEntity
  8
0
  6
Continuous
 62
     7
370
    25
100
AcDbLine
 10
33.059733665
 20
35.8083679619
 30
0.0
 11
33.059733665
 21
37.3083679805
 31
0.0
  0
LINE
  5
1C9
330
1F
100
AcDbEntity
  8
0
  6
Continuous
 62
     7
370
    25
100
AcDbLine
 10
33.059733665
 20
37.3083679805
 30
0.0
 11
33.0697336495
 21
37.3083679805
 31
0.0
  0
LINE
  5
1CA
330
1F
100
AcDbEntity
  8
0
  6
Continuous
 62
     7
370
    25
100
AcDbLine
 10
33.0697336495
 20
35.8083679619
 30
0.0
 11
33.0697336495
 21
37.3083679805
 31
0.0
  0
LINE
  5
1CB
330
1F
100
AcDbEntity
  8
0
  6
Continuous
 62
     7
370
    25
100
AcDbLine
 10
34.257233658
 20
37.3083679805
 30
0.0
 11
35.4447336666
 21
37.3083679805
 31
0.0
  0
LINE
  5
1CC
330
1F
100
AcDbEntity
  8
0
  6
Continuous
 62
     7
370
    25
100
AcDbLine
 10
33.0697336495
 20
37.3083679805
 30
0.0
 11
34.257233658
 21
37.3083679805
 31
0.0
  0
LWPOLYLINE
  5
1CD
330
1F
100
AcDbEntity
  8
0
  6
Continuous
 62
     7
370
    25
100
AcDbPolyline
 90
       42
 70
   128
 43
0.0
 10
33.0697336495
 20
19.3083676114
 10
33.0732180426
 20
19.3144031683
 10
33.0836506887
 20
19.3324722929
 10
33.1009703553
 20
19.362471733
 10
33.1250754768
 20
19.404223144
 10
33.1558245216
 20
19.4574824754
 10
33.1930370917
 20
19.5219352775
 10
33.2364947297
 20
19.597206088
 10
33.2859425318
 20
19.6828537386
 10
33.3410902481
 20
19.7783713552
 10
33.4016142622
 20
19.8832027841
 10
33.467159425
 20
19.996729686
 10
33.537340961
 20
20.1182879618
 10
33.6117471814
 20
20.2471630596
 10
33.6899413914
 20
20.3825993617
 10
33.7714646397
 20
20.5238013572
 10
33.855838615
 20
20.6699418557
 10
33.9425681397
 20
20.820161987
 10
34.0311442132
 20
20.9735794147
 10
34.1210470913
 20
21.1292965492
 10
34.2117491606
 20
21.2863970277
 10
34.3027181555
 20
21.4439597941
 10
34.3934202248
 20
21.6010602726
 10
34.4833231029
 20
21.7567762338
 10
34.5718991763
 20
21.9101948348
 10
34.6586287011
 20
22.0604149661
 10
34.7430026764
 20
22.2065554646
 10
34.8245259246
 20
22.3477574601
 10
34.9027201347
 20
22.4831937622
 10
34.9771263551
 20
22.61206886
 10
35.047307891
 20
22.7336271358
 10
35.1128530538
 20
22.8471540377
 10
35.173377068
 20
22.9519854666
 10
35.2285247843
 20
23.0475042565
 10
35.2779725864
 20
23.1331495605
 10
35.3214302243
 20
23.2084203709
 10
35.3586427945
 20
23.2728755197
 10
35.3893918392
 20
23.3261336778
 10
35.4134969608
 20
23.3678850888
 10
35.4308166274
 20
23.3978833556
 10
35.4412492735
 20
23.4159536535
 10
35.4447336666
 20
23.4219892104
  0
DIMENSION
  5
1CE
330
1F
100
AcDbEntity
  8
0
  6
Continuous
 62
     7
370
    18
100
AcDbDimension
  2
_D
 10
37.837233658
 20
57.6861315987
 30
0.0
 11
34.8459932063
 21
57.6861315987
 31
0.0
 70
   160
  1
<>
 71
     2
 42
-1.0
  3
SLDDIMSTYLE0
100
AcDbAlignedDimension
 13
30.677233658
 23
53.6941633039
 33
0.0
 14
37.837233658
 24
53.6941633039
 34
0.0
100
AcDbRotatedDimension
  0
DIMENSION
  5
1E4
330
1F
100
AcDbEntity
  8
0
  6
Continuous
 62
     7
370
    18
100
AcDbDimension
  2
_D_1
 10
23.7480997998
 20
50.5641633039
 30
0.0
 11
23.7480997998
 21
46.9164161
 31
0.0
 70
   160
  1
SPECIFY LENGTH\P3"-24" MAX\P[76MM-610MM]
 71
     2
 42
-1.0
  3
SLDDIMSTYLE1
100
AcDbAlignedDimension
 13
33.177233658
 23
38.6733680208
 33
0.0
 14
33.757233658
 24
50.5641633039
 34
0.0
 50
90.0
100
AcDbRotatedDimension
  0
DIMENSION
  5
1F6
330
1F
100
AcDbEntity
  8
0
  6
Continuous
 62
     7
370
    18
100
AcDbDimension
  2
_D_2
 10
23.7480997998
 20
50.5641633039
 30
0.0
 11
23.7480997998
 21
57.6861315987
 31
0.0
 70
   160
  1
<>
 71
     2
 42
-1.0
  3
SLDDIMSTYLE2
100
AcDbAlignedDimension
 13
35.649233658
 23
53.6941633039
 33
0.0
 14
33.757233658
 24
50.5641633039
 34
0.0
 50
90.0
100
AcDbRotatedDimension
  0
DIMENSION
  5
20C
330
1F
100
AcDbEntity
  8
0
  6
Continuous
 62
     7
370
    18
100
AcDbDimension
  2
_D_3
 10
41.7528501639
 20
53.6941633039
 30
0.0
 11
41.7528501639
 21
50.2879690965
 31
0.0
 70
   160
  1
%%c<>
 71
     2
 42
-1.0
  3
SLDDIMSTYLE3
100
AcDbAlignedDimension
 13
37.837233658
 23
52.6941633039
 33
0.0
 14
37.837233658
 24
53.6941633039
 34
0.0
 50
90.0
100
AcDbRotatedDimension
  0
DIMENSION
  5
221
330
1F
100
AcDbEntity
  8
0
  6
Continuous
 62
     7
370
    18
100
AcDbDimension
  2
_D_4
 10
38.8764148157
 20
37.3083680208
 30
0.0
 11
38.8764148157
 21
41.3595805475
 31
0.0
 70
   160
  1
<>
 71
     2
 42
-1.0
  3
SLDDIMSTYLE0
100
AcDbAlignedDimension
 13
35.337233658
 23
38.6733680208
 33
0.0
 14
35.444733658
 24
37.3083680208
 34
0.0
 50
90.0
100
AcDbRotatedDimension
  0
DIMENSION
  5
236
330
1F
100
AcDbEntity
  8
0
  6
Continuous
 62
     7
370
    18
100
AcDbDimension
  2
_D_5
 10
38.8764148157
 20
28.4853952914
 30
0.0
 11
38.8764148157
 21
32.3392453835
 31
0.0
 70
   160
  1
<>
 71
     2
 42
-1.0
  3
SLDDIMSTYLE0
100
AcDbAlignedDimension
 13
37.219733658
 23
29.3603952914
 33
0.0
 14
37.1891779847
 24
28.4853952914
 34
0.0
 50
90.0
100
AcDbRotatedDimension
  0
DIMENSION
  5
24B
330
1F
100
AcDbEntity
  8
0
  6
Continuous
 62
     7
370
    18
100
AcDbDimension
  2
_D_6
 10
23.7480997998
 20
37.3083680208
 30
0.0
 11
23.7480997998
 21
30.7055883717
 31
0.0
 70
   160
  1
SPECIFY LENGTH\P12" OR 18"\P[305mm or 457mm]
 71
     2
 42
-1.0
  3
SLDDIMSTYLE1
100
AcDbAlignedDimension
 13
33.069733658
 23
19.3083680208
 33
0.0
 14
33.069733658
 24
37.3083680208
 34
0.0
 50
90.0
100
AcDbRotatedDimension
  0
DIMENSION
  5
259
330
1F
100
AcDbEntity
  8
0
  6
Continuous
 62
     7
370
    18
100
AcDbDimension
  2
_D_7
 10
31.294733658
 20
24.2051853748
 30
0.0
 11
44.1825031545
 21
24.2051853748
 31
0.0
 70
   160
  1
%%c<>
 71
     2
 42
-1.0
  3
SLDDIMSTYLE2
100
AcDbAlignedDimension
 13
37.219733658
 23
29.3603952914
 33
0.0
 14
31.294733658
 24
29.3603952914
 34
0.0
100
AcDbRotatedDimension
  0
ARC
  5
26C
330
1F
100
AcDbEntity
  8
0
  6
HIDDEN
 62
     7
370
    18
100
AcDbCircle
 10
35.007233658
 20
46.6374349049
 30
0.0
 40
1.950000000000004
100
AcDbArc
 50
247.380135052
 51
292.619864948
  0
ARC
  5
26D
330
1F
100
AcDbEntity
  8
0
  6
HIDDEN
 62
     7
370
    18
100
AcDbCircle
 10
33.507233658
 20
43.0374349049
 30
0.0
 40
1.950000000000004
100
AcDbArc
 50
67.380135052
 51
112.619864948
  0
ARC
  5
26E
330
1F
100
AcDbEntity
  8
0
  6
HIDDEN
 62
     7
370
    18
100
AcDbCircle
 10
35.007233658
 20
47.8374349049
 30
0.0
 40
1.950000000000011
100
AcDbArc
 50
247.380135052
 51
292.619864948
  0
ARC
  5
26F
330
1F
100
AcDbEntity
  8
0
  6
HIDDEN
 62
     7
370
    18
100
AcDbCircle
 10
33.507233658
 20
44.2374349049
 30
0.0
 40
1.949999999999997
100
AcDbArc
 50
67.380135052
 51
112.619864948
  0
LINE
  5
270
330
1F
100
AcDbEntity
  8
0
  6
Continuous
 62
     7
370
    25
100
AcDbLine
 10
45.2686696166
 20
11.2944924507
 30
0.0
 11
45.2686696166
 21
6.9184924507
 31
0.0
  0
LINE
  5
271
330
1F
100
AcDbEntity
  8
0
  6
Continuous
 62
     7
370
    25
100
AcDbLine
 10
47.2686696166
 20
6.9184924507
 30
0.0
 11
47.2686696166
 21
11.2944924507
 31
0.0
  0
LINE
  5
272
330
1F
100
AcDbEntity
  8
0
  6
Continuous
 62
     7
370
    25
100
AcDbLine
 10
45.4686696166
 20
10.2064924507
 30
0.0
 11
47.0686696166
 21
10.2064924507
 31
0.0
  0
LINE
  5
273
330
1F
100
AcDbEntity
  8
0
  6
Continuous
 62
     7
370
    25
100
AcDbLine
 10
45.4686696166
 20
10.2064924507
 30
0.0
 11
45.4686696166
 21
8.8564924507
 31
0.0
  0
LINE
  5
274
330
1F
100
AcDbEntity
  8
0
  6
Continuous
 62
     7
370
    25
100
AcDbLine
 10
47.0686696166
 20
10.2064924507
 30
0.0
 11
47.0686696166
 21
8.8564924507
 31
0.0
  0
LINE
  5
275
330
1F
100
AcDbEntity
  8
0
  6
Continuous
 62
     7
370
    25
100
AcDbLine
 10
47.2686696166
 20
6.9184924507
 30
0.0
 11
45.2686696166
 21
6.9184924507
 31
0.0
  0
LINE
  5
276
330
1F
100
AcDbEntity
  8
0
  6
Continuous
 62
     7
370
    25
100
AcDbLine
 10
47.2686696166
 20
11.2944924507
 30
0.0
 11
45.2686696166
 21
11.2944924507
 31
0.0
  0
LINE
  5
277
330
1F
100
AcDbEntity
  8
0
  6
Continuous
 62
     7
370
    25
100
AcDbLine
 10
47.0686696166
 20
8.8564924507
 30
0.0
 11
45.4686696166
 21
8.8564924507
 31
0.0
  0
LINE
  5
278
330
1F
100
AcDbEntity
  8
0
  6
Continuous
 62
     7
370
    25
100
AcDbLine
 10
45.794090856
 20
8.8564924507
 30
0.0
 11
45.794090856
 21
10.2064924507
 31
0.0
  0
LINE
  5
279
330
1F
100
AcDbEntity
  8
0
  6
Continuous
 62
     7
370
    25
100
AcDbLine
 10
46.7432483772
 20
8.8564924507
 30
0.0
 11
46.7432483772
 21
10.2064924507
 31
0.0
  0
DIMENSION
  5
27A
330
1F
100
AcDbEntity
  8
0
  6
Continuous
 62
     7
370
    18
100
AcDbDimension
  2
_D_8
 10
40.2292995379
 20
11.2944924507
 30
0.0
 11
40.2292995379
 21
10.2185723725
 31
0.0
 70
   160
  1
<>
 71
     2
 42
-1.0
  3
SLDDIMSTYLE4
100
AcDbAlignedDimension
 13
45.2686696166
 23
6.9184924507
 33
0.0
 14
45.2686696166
 24
11.2944924507
 34
0.0
 50
90.0
100
AcDbRotatedDimension
  0
MTEXT
  5
28F
330
1F
100
AcDbEntity
  8
0
  6
Continuous
 62
     7
370
     0
100
AcDbMText
 10
44.2680451721
 20
5.7912862969
 30
0.0
 40
1.0
 41
0.0
 71
     1
 72
     1
  1
A CAP
  7
SLDTEXTSTYLE1
 73
     1
 44
1.0
  0
ENDSEC
  0
SECTION
  2
OBJECTS
  0
DICTIONARY
  5
C
330
0
100
AcDbDictionary
281
     1
  3
ACAD_GROUP
350
D
  3
ACAD_LAYOUT
350
1A
  3
ACAD_MLINESTYLE
350
17
  3
ACAD_PLOTSETTINGS
350
19
  3
ACAD_PLOTSTYLENAME
350
E
  3
ACAD_SCALELIST
350
47
  3
DWGPROPS
350
290
  0
DICTIONARY
  5
D
102
{ACAD_REACTORS
330
C
102
}
330
C
100
AcDbDictionary
281
     1
  0
DICTIONARY
  5
1A
102
{ACAD_REACTORS
330
C
102
}
330
C
100
AcDbDictionary
281
     1
  3
Layout1
350
1E
  3
Layout2
350
26
  3
Model
350
22
  0
DICTIONARY
  5
17
102
{ACAD_REACTORS
330
C
102
}
330
C
100
AcDbDictionary
281
     1
  3
Standard
350
18
  0
DICTIONARY
  5
19
102
{ACAD_REACTORS
330
C
102
}
330
C
100
AcDbDictionary
281
     1
  0
ACDBDICTIONARYWDFLT
  5
E
102
{ACAD_REACTORS
330
C
102
}
330
C
100
AcDbDictionary
281
     1
  3
Normal
350
F
100
AcDbDictionaryWithDefault
340
F
  0
DICTIONARY
  5
47
102
{ACAD_REACTORS
330
C
102
}
330
C
100
AcDbDictionary
281
     1
  3
A0
350
48
  3
A1
350
49
  3
A2
350
4A
  3
A3
350
4B
  3
A4
350
4C
  3
A5
350
4D
  3
A6
350
4E
  3
A7
350
4F
  3
A8
350
50
  3
A9
350
51
  3
B1
350
52
  3
B2
350
53
  3
B3
350
54
  3
B4
350
55
  3
B5
350
56
  3
B6
350
57
  3
B7
350
58
  0
XRECORD
  5
290
102
{ACAD_REACTORS
330
C
102
}
330
C
100
AcDbXrecord
280
     1
  1
DWGPROPS COOKIE
  2

  3

  4

  6

  7

  8
gurisher.rai
  9

300
=
301
=
302
=
303
=
304
=
305
=
306
=
307
=
308
=
309
=
 40
0.0
 41
2460566.614805417
 42
2460566.614805915
  1

 90
        0
  0
LAYOUT
  5
1E
102
{ACAD_REACTORS
330
1A
102
}
330
1A
100
AcDbPlotSettings
  1

  2
none_device
  4

  6

 40
0.0
 41
0.0
 42
0.0
 43
0.0
 44
0.0
 45
0.0
 46
0.0
 47
0.0
 48
0.0
 49
0.0
140
0.0
141
0.0
142
1.0
143
1.0
 70
   688
 72
     0
 73
     0
 74
     5
  7

 75
    16
147
1.0
148
0.0
149
0.0
100
AcDbLayout
  1
Layout1
 70
     1
 71
     1
 10
0.0
 20
0.0
 11
12.0
 21
9.0
 12
0.0
 22
0.0
 32
0.0
 14
1.0000000000E+20
 24
1.0000000000E+20
 34
1.0000000000E+20
 15
-1.0000000000E+20
 25
-1.0000000000E+20
 35
-1.0000000000E+20
146
0.0
 13
0.0
 23
0.0
 33
0.0
 16
1.0
 26
0.0
 36
0.0
 17
0.0
 27
1.0
 37
0.0
 76
     0
330
1B
  0
LAYOUT
  5
26
102
{ACAD_REACTORS
330
1A
102
}
330
1A
100
AcDbPlotSettings
  1

  2
none_device
  4

  6

 40
0.0
 41
0.0
 42
0.0
 43
0.0
 44
0.0
 45
0.0
 46
0.0
 47
0.0
 48
0.0
 49
0.0
140
0.0
141
0.0
142
1.0
143
1.0
 70
   688
 72
     0
 73
     0
 74
     5
  7

 75
    16
147
1.0
148
0.0
149
0.0
100
AcDbLayout
  1
Layout2
 70
     1
 71
     2
 10
0.0
 20
0.0
 11
0.0
 21
0.0
 12
0.0
 22
0.0
 32
0.0
 14
0.0
 24
0.0
 34
0.0
 15
0.0
 25
0.0
 35
0.0
146
0.0
 13
0.0
 23
0.0
 33
0.0
 16
1.0
 26
0.0
 36
0.0
 17
0.0
 27
1.0
 37
0.0
 76
     0
330
23
  0
LAYOUT
  5
22
102
{ACAD_REACTORS
330
1A
102
}
330
1A
100
AcDbPlotSettings
  1

  2
none_device
  4
Letter_(8.50_x_11.00_Inches)
  6

 40
6.35
 41
6.35
 42
6.35000508
 43
6.35000508
 44
215.9
 45
279.4
 46
0.0
 47
0.0
 48
0.0
 49
0.0
140
0.0
141
0.0
142
1.0
143
1.0
 70
  1712
 72
     0
 73
     0
 74
     0
  7

 75
     0
147
1.0
148
0.0
149
0.0
100
AcDbLayout
  1
Model
 70
     1
 71
     0
 10
0.0
 20
0.0
 11
88.0
 21
68.0
 12
0.0
 22
0.0
 32
0.0
 14
0.0
 24
0.0
 34
0.0
 15
88.0
 25
68.0
 35
0.0
146
0.0
 13
0.0
 23
0.0
 33
0.0
 16
1.0
 26
0.0
 36
0.0
 17
0.0
 27
1.0
 37
0.0
 76
     0
330
1F
331
29
  0
MLINESTYLE
  5
18
102
{ACAD_REACTORS
330
17
102
}
330
17
100
AcDbMlineStyle
  2
Standard
 70
     0
  3

 62
   256
 51
90.0
 52
90.0
 71
     2
 49
0.5
 62
   256
  6
BYLAYER
 49
-0.5
 62
   256
  6
BYLAYER
  0
ACDBPLACEHOLDER
  5
F
102
{ACAD_REACTORS
330
E
102
}
330
E
  0
SCALE
  5
48
102
{ACAD_REACTORS
330
47
102
}
330
47
100
AcDbScale
 70
     0
300
1:1
140
1.0
141
1.0
290
     1
  0
SCALE
  5
49
102
{ACAD_REACTORS
330
47
102
}
330
47
100
AcDbScale
 70
     0
300
1/128" = 1'-0"
140
0.0078125
141
12.0
290
     0
  0
SCALE
  5
4A
102
{ACAD_REACTORS
330
47
102
}
330
47
100
AcDbScale
 70
     0
300
1/64" = 1'-0"
140
0.015625
141
12.0
290
     0
  0
SCALE
  5
4B
102
{ACAD_REACTORS
330
47
102
}
330
47
100
AcDbScale
 70
     0
300
1/32" = 1'-0"
140
0.03125
141
12.0
290
     0
  0
SCALE
  5
4C
102
{ACAD_REACTORS
330
47
102
}
330
47
100
AcDbScale
 70
     0
300
1/16" = 1'-0"
140
0.0625
141
12.0
290
     0
  0
SCALE
  5
4D
102
{ACAD_REACTORS
330
47
102
}
330
47
100
AcDbScale
 70
     0
300
3/32" = 1'-0"
140
0.09375
141
12.0
290
     0
  0
SCALE
  5
4E
102
{ACAD_REACTORS
330
47
102
}
330
47
100
AcDbScale
 70
     0
300
1/8" = 1'-0"
140
0.125
141
12.0
290
     0
  0
SCALE
  5
4F
102
{ACAD_REACTORS
330
47
102
}
330
47
100
AcDbScale
 70
     0
300
3/16" = 1'-0"
140
0.1875
141
12.0
290
     0
  0
SCALE
  5
50
102
{ACAD_REACTORS
330
47
102
}
330
47
100
AcDbScale
 70
     0
300
1/4" = 1'-0"
140
0.25
141
12.0
290
     0
  0
SCALE
  5
51
102
{ACAD_REACTORS
330
47
102
}
330
47
100
AcDbScale
 70
     0
300
3/8" = 1'-0"
140
0.375
141
12.0
290
     0
  0
SCALE
  5
52
102
{ACAD_REACTORS
330
47
102
}
330
47
100
AcDbScale
 70
     0
300
1/2" = 1'-0"
140
0.5
141
12.0
290
     0
  0
SCALE
  5
53
102
{ACAD_REACTORS
330
47
102
}
330
47
100
AcDbScale
 70
     0
300
3/4" = 1'-0"
140
0.75
141
12.0
290
     0
  0
SCALE
  5
54
102
{ACAD_REACTORS
330
47
102
}
330
47
100
AcDbScale
 70
     0
300
1" = 1'-0"
140
1.0
141
12.0
290
     0
  0
SCALE
  5
55
102
{ACAD_REACTORS
330
47
102
}
330
47
100
AcDbScale
 70
     0
300
1-1/2" = 1'-0"
140
1.5
141
12.0
290
     0
  0
SCALE
  5
56
102
{ACAD_REACTORS
330
47
102
}
330
47
100
AcDbScale
 70
     0
300
3" = 1'-0"
140
3.0
141
12.0
290
     0
  0
SCALE
  5
57
102
{ACAD_REACTORS
330
47
102
}
330
47
100
AcDbScale
 70
     0
300
6" = 1'-0"
140
6.0
141
12.0
290
     0
  0
SCALE
  5
58
102
{ACAD_REACTORS
330
47
102
}
330
47
100
AcDbScale
 70
     0
300
1'-0" = 1'-0"
140
12.0
141
12.0
290
     0
  0
ENDSEC
  0
EOF
