  0
SECTION
  2
HEADER
  9
$ACADVER
  1
AC1015
  9
$ACADMAINTVER
 70
     6
  9
$DWGCODEPAGE
  3
ANSI_1252
  9
$INSBASE
 10
0.0
 20
0.0
 30
0.0
  9
$EXTMIN
 10
0.0
 20
0.0
 30
0.0
  9
$EXTMAX
 10
88.0
 20
68.0
 30
0.0
  9
$LIMMIN
 10
0.0
 20
0.0
  9
$LIMMAX
 10
88.0
 20
68.0
  9
$ORTHOMODE
 70
     0
  9
$REGENMODE
 70
     1
  9
$FILLMODE
 70
     1
  9
$QTEXTMODE
 70
     0
  9
$MIRRTEXT
 70
     1
  9
$LTSCALE
 40
8.0
  9
$ATTMODE
 70
     1
  9
$TEXTSIZE
 40
1.0
  9
$TRACEWID
 40
0.05
  9
$TEXTSTYLE
  7
Standard
  9
$CLAYER
  8
0
  9
$CELTYPE
  6
ByLayer
  9
$CECOLOR
 62
   256
  9
$CELTSCALE
 40
1.0
  9
$DISPSILH
 70
     0
  9
$DIMSCALE
 40
1.0
  9
$DIMASZ
 40
1.04
  9
$DIMEXO
 40
1.2
  9
$DIMDLI
 40
0.38
  9
$DIMRND
 40
0.0
  9
$DIMDLE
 40
0.0
  9
$DIMEXE
 40
0.8
  9
$DIMTP
 40
0.0
  9
$DIMTM
 40
0.0
  9
$DIMTXT
 40
1.0
  9
$DIMCEN
 40
0.09
  9
$DIMTSZ
 40
0.0
  9
$DIMTOL
 70
     0
  9
$DIMLIM
 70
     0
  9
$DIMTIH
 70
     1
  9
$DIMTOH
 70
     1
  9
$DIMSE1
 70
     0
  9
$DIMSE2
 70
     0
  9
$DIMTAD
 70
     0
  9
$DIMZIN
 70
     0
  9
$DIMBLK
  1

  9
$DIMASO
 70
     1
  9
$DIMSHO
 70
     1
  9
$DIMPOST
  1

  9
$DIMAPOST
  1

  9
$DIMALT
 70
     0
  9
$DIMALTD
 70
     2
  9
$DIMALTF
 40
25.4
  9
$DIMLFAC
 40
1.0
  9
$DIMTOFL
 70
     0
  9
$DIMTVP
 40
0.0
  9
$DIMTIX
 70
     0
  9
$DIMSOXD
 70
     0
  9
$DIMSAH
 70
     0
  9
$DIMBLK1
  1

  9
$DIMBLK2
  1

  9
$DIMSTYLE
  2
Standard
  9
$DIMCLRD
 70
     0
  9
$DIMCLRE
 70
     0
  9
$DIMCLRT
 70
     0
  9
$DIMTFAC
 40
1.0
  9
$DIMGAP
 40
0.48
  9
$DIMJUST
 70
     0
  9
$DIMSD1
 70
     0
  9
$DIMSD2
 70
     0
  9
$DIMTOLJ
 70
     1
  9
$DIMTZIN
 70
     0
  9
$DIMALTZ
 70
     0
  9
$DIMALTTZ
 70
     0
  9
$DIMUPT
 70
     0
  9
$DIMDEC
 70
     2
  9
$DIMTDEC
 70
     2
  9
$DIMALTU
 70
     2
  9
$DIMALTTD
 70
     2
  9
$DIMTXSTY
  7
Standard
  9
$DIMAUNIT
 70
     0
  9
$DIMADEC
 70
     0
  9
$DIMALTRND
 40
0.0
  9
$DIMAZIN
 70
     0
  9
$DIMDSEP
 70
    46
  9
$DIMATFIT
 70
     3
  9
$DIMFRAC
 70
     0
  9
$DIMLDRBLK
  1

  9
$DIMLUNIT
 70
     2
  9
$DIMLWD
 70
    -2
  9
$DIMLWE
 70
    -2
  9
$DIMTMOVE
 70
     0
  9
$LUNITS
 70
     2
  9
$LUPREC
 70
     2
  9
$SKETCHINC
 40
0.1
  9
$FILLETRAD
 40
0.0
  9
$AUNITS
 70
     0
  9
$AUPREC
 70
     0
  9
$MENU
  1
.
  9
$ELEVATION
 40
0.0
  9
$PELEVATION
 40
0.0
  9
$THICKNESS
 40
0.0
  9
$LIMCHECK
 70
     0
  9
$CHAMFERA
 40
0.0
  9
$CHAMFERB
 40
0.0
  9
$CHAMFERC
 40
0.0
  9
$CHAMFERD
 40
0.0
  9
$SKPOLY
 70
     0
  9
$TDCREATE
 40
2460566.324997269
  9
$TDUCREATE
 40
2460566.616663935
  9
$TDUPDATE
 40
2460566.324997778
  9
$TDUUPDATE
 40
2460566.616664445
  9
$TDINDWG
 40
0.0000000116
  9
$TDUSRTIMER
 40
0.0000000116
  9
$USRTIMER
 70
     1
  9
$ANGBASE
 50
0.0
  9
$ANGDIR
 70
     0
  9
$PDMODE
 70
     0
  9
$PDSIZE
 40
-1.0
  9
$PLINEWID
 40
0.0
  9
$SPLFRAME
 70
     0
  9
$SPLINETYPE
 70
     6
  9
$SPLINESEGS
 70
     8
  9
$HANDSEED
  5
415
  9
$SURFTAB1
 70
     6
  9
$SURFTAB2
 70
     6
  9
$SURFTYPE
 70
     6
  9
$SURFU
 70
     6
  9
$SURFV
 70
     6
  9
$UCSBASE
  2

  9
$UCSNAME
  2

  9
$UCSORG
 10
0.0
 20
0.0
 30
0.0
  9
$UCSXDIR
 10
1.0
 20
0.0
 30
0.0
  9
$UCSYDIR
 10
0.0
 20
1.0
 30
0.0
  9
$UCSORTHOREF
  2

  9
$UCSORTHOVIEW
 70
     0
  9
$UCSORGTOP
 10
0.0
 20
0.0
 30
0.0
  9
$UCSORGBOTTOM
 10
0.0
 20
0.0
 30
0.0
  9
$UCSORGLEFT
 10
0.0
 20
0.0
 30
0.0
  9
$UCSORGRIGHT
 10
0.0
 20
0.0
 30
0.0
  9
$UCSORGFRONT
 10
0.0
 20
0.0
 30
0.0
  9
$UCSORGBACK
 10
0.0
 20
0.0
 30
0.0
  9
$PUCSBASE
  2

  9
$PUCSNAME
  2

  9
$PUCSORG
 10
0.0
 20
0.0
 30
0.0
  9
$PUCSXDIR
 10
1.0
 20
0.0
 30
0.0
  9
$PUCSYDIR
 10
0.0
 20
1.0
 30
0.0
  9
$PUCSORTHOREF
  2

  9
$PUCSORTHOVIEW
 70
     0
  9
$PUCSORGTOP
 10
0.0
 20
0.0
 30
0.0
  9
$PUCSORGBOTTOM
 10
0.0
 20
0.0
 30
0.0
  9
$PUCSORGLEFT
 10
0.0
 20
0.0
 30
0.0
  9
$PUCSORGRIGHT
 10
0.0
 20
0.0
 30
0.0
  9
$PUCSORGFRONT
 10
0.0
 20
0.0
 30
0.0
  9
$PUCSORGBACK
 10
0.0
 20
0.0
 30
0.0
  9
$USERI1
 70
     0
  9
$USERI2
 70
     0
  9
$USERI3
 70
     0
  9
$USERI4
 70
     0
  9
$USERI5
 70
     0
  9
$USERR1
 40
0.0
  9
$USERR2
 40
0.0
  9
$USERR3
 40
0.0
  9
$USERR4
 40
0.0
  9
$USERR5
 40
0.0
  9
$WORLDVIEW
 70
     1
  9
$SHADEDGE
 70
     3
  9
$SHADEDIF
 70
    70
  9
$TILEMODE
 70
     1
  9
$MAXACTVP
 70
    64
  9
$PINSBASE
 10
0.0
 20
0.0
 30
0.0
  9
$PLIMCHECK
 70
     0
  9
$PEXTMIN
 10
1.0000000000E+20
 20
1.0000000000E+20
 30
1.0000000000E+20
  9
$PEXTMAX
 10
-1.0000000000E+20
 20
-1.0000000000E+20
 30
-1.0000000000E+20
  9
$PLIMMIN
 10
0.0
 20
0.0
  9
$PLIMMAX
 10
12.0
 20
9.0
  9
$UNITMODE
 70
     0
  9
$VISRETAIN
 70
     1
  9
$PLINEGEN
 70
     0
  9
$PSLTSCALE
 70
     1
  9
$TREEDEPTH
 70
  3020
  9
$CMLSTYLE
  2
Standard
  9
$CMLJUST
 70
     0
  9
$CMLSCALE
 40
1.0
  9
$PROXYGRAPHICS
 70
     1
  9
$MEASUREMENT
 70
     0
  9
$CELWEIGHT
370
    -1
  9
$ENDCAPS
280
     0
  9
$JOINSTYLE
280
     0
  9
$LWDISPLAY
290
     1
  9
$INSUNITS
 70
     1
  9
$HYPERLINKBASE
  1

  9
$STYLESHEET
  1

  9
$XEDIT
290
     1
  9
$CEPSNTYPE
380
     0
  9
$PSTYLEMODE
290
     1
  9
$FINGERPRINTGUID
  2
{53a57936-f193-42b4-a6e7-3799c3807a54}
  9
$VERSIONGUID
  2
{FAEB1C32-E019-11D5-929B-00C0DF256EC4}
  9
$EXTNAMES
290
     1
  9
$PSVPSCALE
 40
0.0
  9
$OLESTARTUP
290
     0
  0
ENDSEC
  0
SECTION
  2
CLASSES
  0
CLASS
  1
ACDBDICTIONARYWDFLT
  2
AcDbDictionaryWithDefault
  3
ObjectDBX Classes
 90
        0
280
     0
281
     0
  0
CLASS
  1
VISUALSTYLE
  2
AcDbVisualStyle
  3
ObjectDBX Classes
 90
     4095
280
     0
281
     0
  0
CLASS
  1
MATERIAL
  2
AcDbMaterial
  3
ObjectDBX Classes
 90
     1153
280
     0
281
     0
  0
CLASS
  1
SCALE
  2
AcDbScale
  3
ObjectDBX Classes
 90
     1153
280
     0
281
     0
  0
CLASS
  1
TABLESTYLE
  2
AcDbTableStyle
  3
ObjectDBX Classes
 90
     4095
280
     0
281
     0
  0
CLASS
  1
MLEADERSTYLE
  2
AcDbMLeaderStyle
  3
ACDB_MLEADERSTYLE_CLASS
 90
     4095
280
     0
281
     0
  0
CLASS
  1
SUN
  2
AcDbSun
  3
SCENEOE
 90
     1153
280
     0
281
     0
  0
CLASS
  1
ACDBPLACEHOLDER
  2
AcDbPlaceHolder
  3
ObjectDBX Classes
 90
        0
280
     0
281
     0
  0
CLASS
  1
LAYOUT
  2
AcDbLayout
  3
ObjectDBX Classes
 90
        0
280
     0
281
     0
  0
ENDSEC
  0
SECTION
  2
TABLES
  0
TABLE
  2
VPORT
  5
8
330
0
100
AcDbSymbolTable
 70
     1
  0
VPORT
  5
29
330
8
100
AcDbSymbolTableRecord
100
AcDbViewportTableRecord
  2
*Active
 70
     0
 10
0.0
 20
0.0
 11
1.0
 21
1.0
 12
44.0
 22
34.0
 13
0.0
 23
0.0
 14
0.5
 24
0.5
 15
0.5
 25
0.5
 16
0.0
 26
0.0
 36
1.0
 17
0.0
 27
0.0
 37
0.0
 40
68.0
 41
1.2941176471
 42
50.0
 43
0.0
 44
0.0
 50
0.0
 51
0.0
 71
     0
 72
  2000
 73
     1
 74
     3
 75
     0
 76
     0
 77
     0
 78
     0
281
     0
 65
     1
110
0.0
120
0.0
130
0.0
111
1.0
121
0.0
131
0.0
112
0.0
122
1.0
132
0.0
 79
     0
146
0.0
  0
ENDTAB
  0
TABLE
  2
LTYPE
  5
5
330
0
100
AcDbSymbolTable
 70
     6
  0
LTYPE
  5
14
330
5
100
AcDbSymbolTableRecord
100
AcDbLinetypeTableRecord
  2
ByBlock
 70
     0
  3

 72
    65
 73
     0
 40
0.0
  0
LTYPE
  5
15
330
5
100
AcDbSymbolTableRecord
100
AcDbLinetypeTableRecord
  2
ByLayer
 70
     0
  3

 72
    65
 73
     0
 40
0.0
  0
LTYPE
  5
16
330
5
100
AcDbSymbolTableRecord
100
AcDbLinetypeTableRecord
  2
Continuous
 70
     0
  3
Solid line
 72
    65
 73
     0
 40
0.0
  0
LTYPE
  5
5E
330
5
100
AcDbSymbolTableRecord
100
AcDbLinetypeTableRecord
  2
HIDDEN
 70
     0
  3
Hidden __ __ __ __ __ __ __ __ __ __ __ __ __ __
 72
    65
 73
     2
 40
0.075
 49
0.05
 74
     0
 49
-0.025
 74
     0
  0
LTYPE
  5
5F
330
5
100
AcDbSymbolTableRecord
100
AcDbLinetypeTableRecord
  2
PHANTOM
 70
     0
  3
Phantom ______  __  __  ______  __  __  ______
 72
    65
 73
     6
 40
0.5
 49
0.25
 74
     0
 49
-0.05
 74
     0
 49
0.05
 74
     0
 49
-0.05
 74
     0
 49
0.05
 74
     0
 49
-0.05
 74
     0
  0
LTYPE
  5
60
330
5
100
AcDbSymbolTableRecord
100
AcDbLinetypeTableRecord
  2
CENTER
 70
     0
  3
Center ____ _ ____ _ ____ _ ____ _ ____ _ ____
 72
    65
 73
     4
 40
0.4
 49
0.25
 74
     0
 49
-0.05
 74
     0
 49
0.05
 74
     0
 49
-0.05
 74
     0
  0
LTYPE
  5
61
330
5
100
AcDbSymbolTableRecord
100
AcDbLinetypeTableRecord
  2
CENTERX2
 70
     0
  3
Center (2x) ________  __  ________  __  _____
 72
    65
 73
     4
 40
0.8
 49
0.5
 74
     0
 49
-0.1
 74
     0
 49
0.1
 74
     0
 49
-0.1
 74
     0
  0
LTYPE
  5
62
330
5
100
AcDbSymbolTableRecord
100
AcDbLinetypeTableRecord
  2
DOT2
 70
     0
  3
Dot (.5x) ........................................
 72
    65
 73
     2
 40
0.025
 49
0.0
 74
     0
 49
-0.025
 74
     0
  0
ENDTAB
  0
TABLE
  2
LAYER
  5
2
330
0
100
AcDbSymbolTable
 70
    12
  0
LAYER
  5
10
330
2
100
AcDbSymbolTableRecord
100
AcDbLayerTableRecord
  2
0
 70
     0
 62
     7
  6
Continuous
370
    -3
390
F
  0
LAYER
  5
63
330
2
100
AcDbSymbolTableRecord
100
AcDbLayerTableRecord
  2
SLD-0
 70
     0
 62
     7
  6
Continuous
370
    -3
390
F
  0
LAYER
  5
64
330
2
100
AcDbSymbolTableRecord
100
AcDbLayerTableRecord
  2
DIM
 70
     0
 62
     7
  6
Continuous
370
    -3
390
F
  0
LAYER
  5
65
330
2
100
AcDbSymbolTableRecord
100
AcDbLayerTableRecord
  2
CEN
 70
     0
 62
     1
  6
CENTER
370
    -3
390
F
  0
LAYER
  5
66
330
2
100
AcDbSymbolTableRecord
100
AcDbLayerTableRecord
  2
HAT
 70
     0
 62
     4
  6
Continuous
370
    -3
390
F
  0
LAYER
  5
67
330
2
100
AcDbSymbolTableRecord
100
AcDbLayerTableRecord
  2
OBJ
 70
     0
 62
     5
  6
Continuous
370
    -3
390
F
  0
LAYER
  5
68
330
2
100
AcDbSymbolTableRecord
100
AcDbLayerTableRecord
  2
SLD-DEFPOINTS
 70
     0
 62
     7
  6
Continuous
370
    -3
390
F
  0
LAYER
  5
69
330
2
100
AcDbSymbolTableRecord
100
AcDbLayerTableRecord
  2
HID
 70
     0
 62
     4
  6
HIDDEN
370
    -3
390
F
  0
LAYER
  5
6A
330
2
100
AcDbSymbolTableRecord
100
AcDbLayerTableRecord
  2
NOTE
 70
     0
 62
     7
  6
Continuous
370
    -3
390
F
  0
LAYER
  5
6B
330
2
100
AcDbSymbolTableRecord
100
AcDbLayerTableRecord
  2
VP
 70
     0
 62
    -5
  6
Continuous
290
     0
370
    -3
390
F
  0
LAYER
  5
6C
330
2
100
AcDbSymbolTableRecord
100
AcDbLayerTableRecord
  2
TITLE
 70
     0
 62
     7
  6
Continuous
370
    -3
390
F
  0
LAYER
  5
6D
330
2
100
AcDbSymbolTableRecord
100
AcDbLayerTableRecord
  2
THICK_TITLE
 70
     0
 62
     7
  6
Continuous
370
   100
390
F
  0
ENDTAB
  0
TABLE
  2
STYLE
  5
3
330
0
100
AcDbSymbolTable
 70
     3
  0
STYLE
  5
11
330
3
100
AcDbSymbolTableRecord
100
AcDbTextStyleTableRecord
  2
Standard
 70
     0
 40
0.0
 41
1.0
 50
0.0
 71
     0
 42
1.0
  3
txt
  4

  0
STYLE
  5
373
330
3
100
AcDbSymbolTableRecord
100
AcDbTextStyleTableRecord
  2
SLDTEXTSTYLE0
 70
     0
 40
0.0
 41
0.75
 50
0.0
 71
     0
 42
1.0
  3
TXT
  4

  0
STYLE
  5
3FA
330
3
100
AcDbSymbolTableRecord
100
AcDbTextStyleTableRecord
  2
SLDTEXTSTYLE1
 70
     0
 40
0.0
 41
0.7
 50
0.0
 71
     0
 42
1.0
  3
TXT
  4

  0
ENDTAB
  0
TABLE
  2
VIEW
  5
6
330
0
100
AcDbSymbolTable
 70
     0
  0
ENDTAB
  0
TABLE
  2
UCS
  5
7
330
0
100
AcDbSymbolTable
 70
     0
  0
ENDTAB
  0
TABLE
  2
APPID
  5
9
330
0
100
AcDbSymbolTable
 70
     1
  0
APPID
  5
12
330
9
100
AcDbSymbolTableRecord
100
AcDbRegAppTableRecord
  2
ACAD
 70
     0
  0
ENDTAB
  0
TABLE
  2
DIMSTYLE
  5
A
330
0
100
AcDbSymbolTable
 70
     5
100
AcDbDimStyleTable
  0
DIMSTYLE
105
27
330
A
100
AcDbSymbolTableRecord
100
AcDbDimStyleTableRecord
  2
Standard
 70
     0
178
     0
340
11
  0
DIMSTYLE
105
374
102
{ACAD_REACTORS
330
372
330
3DA
102
}
330
A
100
AcDbSymbolTableRecord
100
AcDbDimStyleTableRecord
  2
SLDDIMSTYLE0
 70
     0
 41
1.04
 44
0.0
 45
0.000000001
 78
    12
 79
     3
140
1.0
147
0.25
148
0.000000001
170
     1
172
     1
173
     1
178
     0
271
     6
272
     2
276
     2
277
     5
284
    12
289
     0
340
373
  0
DIMSTYLE
105
389
102
{ACAD_REACTORS
330
388
330
3EF
102
}
330
A
100
AcDbSymbolTableRecord
100
AcDbDimStyleTableRecord
  2
SLDDIMSTYLE1
 70
     0
 41
1.04
 44
0.0
 45
0.000000001
 78
    12
 79
     3
140
1.0
147
0.25
148
0.000000001
170
     1
173
     1
178
     0
271
     2
272
     2
276
     2
277
     5
284
    12
340
373
  0
DIMSTYLE
105
39B
102
{ACAD_REACTORS
330
39A
330
3C5
330
3FD
102
}
330
A
100
AcDbSymbolTableRecord
100
AcDbDimStyleTableRecord
  2
SLDDIMSTYLE2
 70
     0
 41
1.04
 44
0.0
 45
0.000000001
 78
    12
 79
     3
140
1.0
147
0.25
148
0.000000001
170
     1
173
     1
178
     0
271
     6
272
     2
276
     2
277
     5
284
    12
340
373
  0
DIMSTYLE
105
3B1
102
{ACAD_REACTORS
330
3B0
102
}
330
A
100
AcDbSymbolTableRecord
100
AcDbDimStyleTableRecord
  2
SLDDIMSTYLE3
 70
     0
 41
1.04
 44
0.0
 45
0.000000001
 78
    12
 79
     3
140
1.0
147
0.25
148
0.000000001
170
     1
172
     1
173
     1
178
     0
271
     2
272
     2
276
     2
277
     5
284
    12
289
     0
340
373
  0
ENDTAB
  0
TABLE
  2
BLOCK_RECORD
  5
1
330
0
100
AcDbSymbolTable
 70
    10
  0
BLOCK_RECORD
  5
1F
330
1
100
AcDbSymbolTableRecord
100
AcDbBlockTableRecord
  2
*Model_Space
340
22
  0
BLOCK_RECORD
  5
1B
330
1
100
AcDbSymbolTableRecord
100
AcDbBlockTableRecord
  2
*Paper_Space
340
1E
  0
BLOCK_RECORD
  5
23
330
1
100
AcDbSymbolTableRecord
100
AcDbBlockTableRecord
  2
*Paper_Space0
340
26
  0
BLOCK_RECORD
  5
224
330
1
100
AcDbSymbolTableRecord
100
AcDbBlockTableRecord
  2
SW_BROKEN_VIEW_0
340
0
102
{BLKREFS
331
227
102
}
  0
BLOCK_RECORD
  5
375
330
1
100
AcDbSymbolTableRecord
100
AcDbBlockTableRecord
  2
_D
340
0
  0
BLOCK_RECORD
  5
38A
330
1
100
AcDbSymbolTableRecord
100
AcDbBlockTableRecord
  2
_D_1
340
0
  0
BLOCK_RECORD
  5
39C
330
1
100
AcDbSymbolTableRecord
100
AcDbBlockTableRecord
  2
_D_2
340
0
  0
BLOCK_RECORD
  5
3B2
330
1
100
AcDbSymbolTableRecord
100
AcDbBlockTableRecord
  2
_D_3
340
0
  0
BLOCK_RECORD
  5
3C6
330
1
100
AcDbSymbolTableRecord
100
AcDbBlockTableRecord
  2
_D_4
340
0
  0
BLOCK_RECORD
  5
3DB
330
1
100
AcDbSymbolTableRecord
100
AcDbBlockTableRecord
  2
_D_5
340
0
  0
BLOCK_RECORD
  5
3F0
330
1
100
AcDbSymbolTableRecord
100
AcDbBlockTableRecord
  2
_D_6
340
0
  0
BLOCK_RECORD
  5
3FE
330
1
100
AcDbSymbolTableRecord
100
AcDbBlockTableRecord
  2
_D_7
340
0
  0
ENDTAB
  0
ENDSEC
  0
SECTION
  2
BLOCKS
  0
BLOCK
  5
20
330
1F
100
AcDbEntity
  8
0
100
AcDbBlockBegin
  2
*Model_Space
 70
     0
 10
0.0
 20
0.0
 30
0.0
  3
*Model_Space
  1

  0
ENDBLK
  5
21
330
1F
100
AcDbEntity
  8
0
100
AcDbBlockEnd
  0
BLOCK
  5
1C
330
1B
100
AcDbEntity
 67
     1
  8
0
100
AcDbBlockBegin
  2
*Paper_Space
 70
     0
 10
0.0
 20
0.0
 30
0.0
  3
*Paper_Space
  1

  0
ENDBLK
  5
1D
330
1B
100
AcDbEntity
 67
     1
  8
0
100
AcDbBlockEnd
  0
BLOCK
  5
24
330
23
100
AcDbEntity
  8
0
100
AcDbBlockBegin
  2
*Paper_Space0
 70
     0
 10
0.0
 20
0.0
 30
0.0
  3
*Paper_Space0
  1

  0
ENDBLK
  5
25
330
23
100
AcDbEntity
  8
0
100
AcDbBlockEnd
  0
BLOCK
  5
225
330
224
100
AcDbEntity
  8
0
100
AcDbBlockBegin
  2
SW_BROKEN_VIEW_0
 70
     0
 10
0.0
 20
0.0
 30
0.0
  3
SW_BROKEN_VIEW_0
  1

  0
ENDBLK
  5
226
330
224
100
AcDbEntity
  8
0
100
AcDbBlockEnd
  0
BLOCK
  5
376
330
375
100
AcDbEntity
  8
0
100
AcDbBlockBegin
  2
_D
 70
     0
 10
0.0
 20
0.0
 30
0.0
  3
_D
  1

  0
SOLID
  5
378
330
375
100
AcDbEntity
  8
0
  6
Continuous
 62
     7
370
    18
100
AcDbTrace
 10
30.677233658
 20
60.8658111417
 30
0.0
 11
29.637233658
 21
61.0258111417
 31
0.0
 12
29.637233658
 22
60.7058111417
 32
0.0
 13
29.637233658
 23
60.7058111417
 33
0.0
  0
SOLID
  5
379
330
375
100
AcDbEntity
  8
0
  6
Continuous
 62
     7
370
    18
100
AcDbTrace
 10
37.837233658
 20
60.8658111417
 30
0.0
 11
38.877233658
 21
60.7058111417
 31
0.0
 12
38.877233658
 22
61.0258111417
 32
0.0
 13
38.877233658
 23
61.0258111417
 33
0.0
  0
LINE
  5
37A
330
375
100
AcDbEntity
  8
0
  6
Continuous
 62
     7
370
     0
100
AcDbLine
 10
32.48766005
 20
59.853576562
 30
0.0
 11
32.1829725531
 21
59.853576562
 31
0.0
  0
LINE
  5
37B
330
375
100
AcDbEntity
  8
0
  6
Continuous
 62
     7
370
     0
100
AcDbLine
 10
32.1829725531
 20
59.853576562
 30
0.0
 11
32.1829725531
 21
58.2660765143
 31
0.0
  0
LINE
  5
37C
330
375
100
AcDbEntity
  8
0
  6
Continuous
 62
     7
370
     0
100
AcDbLine
 10
32.1829725531
 20
58.2660765143
 30
0.0
 11
32.48766005
 21
58.2660765143
 31
0.0
  0
LINE
  5
37D
330
375
100
AcDbEntity
  8
0
  6
Continuous
 62
     7
370
     0
100
AcDbLine
 10
37.204326656
 20
59.853576562
 30
0.0
 11
37.5090141529
 21
59.853576562
 31
0.0
  0
LINE
  5
37E
330
375
100
AcDbEntity
  8
0
  6
Continuous
 62
     7
370
     0
100
AcDbLine
 10
37.5090141529
 20
59.853576562
 30
0.0
 11
37.5090141529
 21
58.2660765143
 31
0.0
  0
LINE
  5
37F
330
375
100
AcDbEntity
  8
0
  6
Continuous
 62
     7
370
     0
100
AcDbLine
 10
37.5090141529
 20
58.2660765143
 30
0.0
 11
37.204326656
 21
58.2660765143
 31
0.0
  0
LINE
  5
380
330
375
100
AcDbEntity
  8
0
  6
Continuous
 62
     7
370
     0
100
AcDbLine
 10
30.677233658
 20
58.0738428469
 30
0.0
 11
30.677233658
 21
61.6658111417
 31
0.0
  0
LINE
  5
381
330
375
100
AcDbEntity
  8
0
  6
Continuous
 62
     7
370
     0
100
AcDbLine
 10
37.837233658
 20
58.0738428469
 30
0.0
 11
37.837233658
 21
61.6658111417
 31
0.0
  0
LINE
  5
382
330
375
100
AcDbEntity
  8
0
  6
Continuous
 62
     7
370
     0
100
AcDbLine
 10
30.677233658
 20
60.8658111417
 30
0.0
 11
28.677233658
 21
60.8658111417
 31
0.0
  0
LINE
  5
383
330
375
100
AcDbEntity
  8
0
  6
Continuous
 62
     7
370
     0
100
AcDbLine
 10
37.837233658
 20
60.8658111417
 30
0.0
 11
39.837233658
 21
60.8658111417
 31
0.0
  0
MTEXT
  5
384
330
375
100
AcDbEntity
  8
0
  6
Continuous
 62
     7
370
    18
100
AcDbMText
 10
31.8838406107
 20
61.3610471821
 30
0.0
 40
1.0
 41
0.0
 71
     1
 72
     1
  1

  7
SLDTEXTSTYLE0
 73
     1
 44
1.0
  0
MTEXT
  5
385
330
375
100
AcDbEntity
  8
0
  6
Continuous
 62
     7
370
    18
100
AcDbMText
 10
32.6855765837
 20
61.3457693302
 30
0.0
 40
1.0
 41
0.0
 71
     1
 72
     1
  1
7 3/16"
  7
SLDTEXTSTYLE0
 73
     1
 44
1.0
  0
MTEXT
  5
386
330
375
100
AcDbEntity
  8
0
  6
Continuous
 62
     7
370
    18
100
AcDbMText
 10
32.48766005
 20
59.555144364
 30
0.0
 40
1.0
 41
0.0
 71
     1
 72
     1
  1
182mm
  7
SLDTEXTSTYLE0
 73
     1
 44
1.0
  0
MTEXT
  5
387
330
375
100
AcDbEntity
  8
0
  6
Continuous
 62
     7
370
    18
100
AcDbMText
 10
38.1887014298
 20
61.3610471821
 30
0.0
 40
1.0
 41
0.0
 71
     1
 72
     1
  1

  7
SLDTEXTSTYLE0
 73
     1
 44
1.0
  0
ENDBLK
  5
377
330
375
100
AcDbEntity
  8
0
100
AcDbBlockEnd
  0
BLOCK
  5
38B
330
38A
100
AcDbEntity
  8
0
100
AcDbBlockBegin
  2
_D_1
 70
     0
 10
0.0
 20
0.0
 30
0.0
  3
_D_1
  1

  0
SOLID
  5
38D
330
38A
100
AcDbEntity
  8
0
  6
Continuous
 62
     7
370
    18
100
AcDbTrace
 10
23.7480997998
 20
42.2136884779
 30
0.0
 11
23.9080997998
 21
43.2536884779
 31
0.0
 12
23.5880997998
 22
43.2536884779
 32
0.0
 13
23.5880997998
 23
43.2536884779
 33
0.0
  0
SOLID
  5
38E
330
38A
100
AcDbEntity
  8
0
  6
Continuous
 62
     7
370
    18
100
AcDbTrace
 10
23.7480997998
 20
53.7438428469
 30
0.0
 11
23.5880997998
 21
52.7038428469
 31
0.0
 12
23.9080997998
 22
52.7038428469
 32
0.0
 13
23.9080997998
 23
52.7038428469
 33
0.0
  0
LINE
  5
38F
330
38A
100
AcDbEntity
  8
0
  6
Continuous
 62
     7
370
     0
100
AcDbLine
 10
31.977233658
 20
42.2136884779
 30
0.0
 11
22.9480997998
 21
42.2136884779
 31
0.0
  0
LINE
  5
390
330
38A
100
AcDbEntity
  8
0
  6
Continuous
 62
     7
370
     0
100
AcDbLine
 10
32.557233658
 20
53.7438428469
 30
0.0
 11
22.9480997998
 21
53.7438428469
 31
0.0
  0
LINE
  5
391
330
38A
100
AcDbEntity
  8
0
  6
Continuous
 62
     7
370
     0
100
AcDbLine
 10
23.7480997998
 20
42.2136884779
 30
0.0
 11
23.7480997998
 21
44.1717877213
 31
0.0
  0
LINE
  5
392
330
38A
100
AcDbEntity
  8
0
  6
Continuous
 62
     7
370
     0
100
AcDbLine
 10
23.7480997998
 20
53.7438428469
 30
0.0
 11
23.7480997998
 21
51.3559899081
 31
0.0
  0
LINE
  5
393
330
38A
100
AcDbEntity
  8
0
  6
Continuous
 62
     7
370
     0
100
AcDbLine
 10
23.7480997998
 20
44.1717877213
 30
0.0
 11
24.2480997998
 21
44.4217877213
 31
0.0
  0
LINE
  5
394
330
38A
100
AcDbEntity
  8
0
  6
Continuous
 62
     7
370
     0
100
AcDbLine
 10
24.2480997998
 20
44.4217877213
 30
0.0
 11
23.2480997998
 21
44.9217877213
 31
0.0
  0
LINE
  5
395
330
38A
100
AcDbEntity
  8
0
  6
Continuous
 62
     7
370
     0
100
AcDbLine
 10
23.2480997998
 20
44.9217877213
 30
0.0
 11
23.7480997998
 21
45.1717877213
 31
0.0
  0
LINE
  5
396
330
38A
100
AcDbEntity
  8
0
  6
Continuous
 62
     7
370
     0
100
AcDbLine
 10
23.7480997998
 20
45.1717877213
 30
0.0
 11
23.7480997998
 21
46.5934896182
 31
0.0
  0
MTEXT
  5
397
330
38A
100
AcDbEntity
  8
0
  6
Continuous
 62
     7
370
    18
100
AcDbMText
 10
18.5904606079
 20
51.0575577101
 30
0.0
 40
1.0
 41
0.0
 71
     1
 72
     1
  1
SPECIFY LENGTH
  7
SLDTEXTSTYLE0
 73
     1
 44
1.0
  0
MTEXT
  5
398
330
38A
100
AcDbEntity
  8
0
  6
Continuous
 62
     7
370
    18
100
AcDbMText
 10
20.3092109928
 20
49.4700576624
 30
0.0
 40
1.0
 41
0.0
 71
     1
 72
     1
  1
3"-24" MAX
  7
SLDTEXTSTYLE0
 73
     1
 44
1.0
  0
MTEXT
  5
399
330
38A
100
AcDbEntity
  8
0
  6
Continuous
 62
     7
370
    18
100
AcDbMText
 10
18.7612947944
 20
47.8825576147
 30
0.0
 40
1.0
 41
0.0
 71
     1
 72
     1
  1
[76MM-610MM]
  7
SLDTEXTSTYLE0
 73
     1
 44
1.0
  0
ENDBLK
  5
38C
330
38A
100
AcDbEntity
  8
0
100
AcDbBlockEnd
  0
BLOCK
  5
39D
330
39C
100
AcDbEntity
  8
0
100
AcDbBlockBegin
  2
_D_2
 70
     0
 10
0.0
 20
0.0
 30
0.0
  3
_D_2
  1

  0
SOLID
  5
39F
330
39C
100
AcDbEntity
  8
0
  6
Continuous
 62
     7
370
    18
100
AcDbTrace
 10
23.7480997998
 20
56.8738428469
 30
0.0
 11
23.5880997998
 21
55.8338428469
 31
0.0
 12
23.9080997998
 22
55.8338428469
 32
0.0
 13
23.9080997998
 23
55.8338428469
 33
0.0
  0
SOLID
  5
3A0
330
39C
100
AcDbEntity
  8
0
  6
Continuous
 62
     7
370
    18
100
AcDbTrace
 10
23.7480997998
 20
53.7438428469
 30
0.0
 11
23.9080997998
 21
54.7838428469
 31
0.0
 12
23.5880997998
 22
54.7838428469
 32
0.0
 13
23.5880997998
 23
54.7838428469
 33
0.0
  0
LINE
  5
3A1
330
39C
100
AcDbEntity
  8
0
  6
Continuous
 62
     7
370
     0
100
AcDbLine
 10
17.1828248951
 20
59.853576562
 30
0.0
 11
16.8781373982
 21
59.853576562
 31
0.0
  0
LINE
  5
3A2
330
39C
100
AcDbEntity
  8
0
  6
Continuous
 62
     7
370
     0
100
AcDbLine
 10
16.8781373982
 20
59.853576562
 30
0.0
 11
16.8781373982
 21
58.2660765143
 31
0.0
  0
LINE
  5
3A3
330
39C
100
AcDbEntity
  8
0
  6
Continuous
 62
     7
370
     0
100
AcDbLine
 10
16.8781373982
 20
58.2660765143
 30
0.0
 11
17.1828248951
 21
58.2660765143
 31
0.0
  0
LINE
  5
3A4
330
39C
100
AcDbEntity
  8
0
  6
Continuous
 62
     7
370
     0
100
AcDbLine
 10
21.1606027568
 20
59.853576562
 30
0.0
 11
21.4652902536
 21
59.853576562
 31
0.0
  0
LINE
  5
3A5
330
39C
100
AcDbEntity
  8
0
  6
Continuous
 62
     7
370
     0
100
AcDbLine
 10
21.4652902536
 20
59.853576562
 30
0.0
 11
21.4652902536
 21
58.2660765143
 31
0.0
  0
LINE
  5
3A6
330
39C
100
AcDbEntity
  8
0
  6
Continuous
 62
     7
370
     0
100
AcDbLine
 10
21.4652902536
 20
58.2660765143
 30
0.0
 11
21.1606027568
 21
58.2660765143
 31
0.0
  0
LINE
  5
3A7
330
39C
100
AcDbEntity
  8
0
  6
Continuous
 62
     7
370
     0
100
AcDbLine
 10
34.449233658
 20
56.8738428469
 30
0.0
 11
22.9480997998
 21
56.8738428469
 31
0.0
  0
LINE
  5
3A8
330
39C
100
AcDbEntity
  8
0
  6
Continuous
 62
     7
370
     0
100
AcDbLine
 10
32.557233658
 20
53.7438428469
 30
0.0
 11
22.9480997998
 21
53.7438428469
 31
0.0
  0
LINE
  5
3A9
330
39C
100
AcDbEntity
  8
0
  6
Continuous
 62
     7
370
     0
100
AcDbLine
 10
22.7480997998
 20
60.8658111417
 30
0.0
 11
23.7480997998
 21
60.8658111417
 31
0.0
  0
LINE
  5
3AA
330
39C
100
AcDbEntity
  8
0
  6
Continuous
 62
     7
370
     0
100
AcDbLine
 10
23.7480997998
 20
60.8658111417
 30
0.0
 11
23.7480997998
 21
56.8738428469
 31
0.0
  0
LINE
  5
3AB
330
39C
100
AcDbEntity
  8
0
  6
Continuous
 62
     7
370
     0
100
AcDbLine
 10
23.7480997998
 20
56.8738428469
 30
0.0
 11
23.7480997998
 21
53.7438428469
 31
0.0
  0
MTEXT
  5
3AC
330
39C
100
AcDbEntity
  8
0
  6
Continuous
 62
     7
370
    18
100
AcDbMText
 10
16.5790054558
 20
61.3610471821
 30
0.0
 40
1.0
 41
0.0
 71
     1
 72
     1
  1

  7
SLDTEXTSTYLE0
 73
     1
 44
1.0
  0
MTEXT
  5
3AD
330
39C
100
AcDbEntity
  8
0
  6
Continuous
 62
     7
370
    18
100
AcDbMText
 10
17.3807415754
 20
61.3457693302
 30
0.0
 40
1.0
 41
0.0
 71
     1
 72
     1
  1
3 1/8"
  7
SLDTEXTSTYLE0
 73
     1
 44
1.0
  0
MTEXT
  5
3AE
330
39C
100
AcDbEntity
  8
0
  6
Continuous
 62
     7
370
    18
100
AcDbMText
 10
17.1828248951
 20
59.555144364
 30
0.0
 40
1.0
 41
0.0
 71
     1
 72
     1
  1
80mm
  7
SLDTEXTSTYLE0
 73
     1
 44
1.0
  0
MTEXT
  5
3AF
330
39C
100
AcDbEntity
  8
0
  6
Continuous
 62
     7
370
    18
100
AcDbMText
 10
22.1449775305
 20
61.3610471821
 30
0.0
 40
1.0
 41
0.0
 71
     1
 72
     1
  1

  7
SLDTEXTSTYLE0
 73
     1
 44
1.0
  0
ENDBLK
  5
39E
330
39C
100
AcDbEntity
  8
0
100
AcDbBlockEnd
  0
BLOCK
  5
3B3
330
3B2
100
AcDbEntity
  8
0
100
AcDbBlockBegin
  2
_D_3
 70
     0
 10
0.0
 20
0.0
 30
0.0
  3
_D_3
  1

  0
SOLID
  5
3B5
330
3B2
100
AcDbEntity
  8
0
  6
Continuous
 62
     7
370
    18
100
AcDbTrace
 10
41.7528501639
 20
55.8738428469
 30
0.0
 11
41.5928501639
 21
54.8338428469
 31
0.0
 12
41.9128501639
 22
54.8338428469
 32
0.0
 13
41.9128501639
 23
54.8338428469
 33
0.0
  0
SOLID
  5
3B6
330
3B2
100
AcDbEntity
  8
0
  6
Continuous
 62
     7
370
    18
100
AcDbTrace
 10
41.7528501639
 20
56.8738428469
 30
0.0
 11
41.9128501639
 21
57.9138428469
 31
0.0
 12
41.5928501639
 22
57.9138428469
 32
0.0
 13
41.5928501639
 23
57.9138428469
 33
0.0
  0
LINE
  5
3B7
330
3B2
100
AcDbEntity
  8
0
  6
Continuous
 62
     7
370
     0
100
AcDbLine
 10
43.9709030548
 20
52.4706917099
 30
0.0
 11
43.6662155579
 21
52.4706917099
 31
0.0
  0
LINE
  5
3B8
330
3B2
100
AcDbEntity
  8
0
  6
Continuous
 62
     7
370
     0
100
AcDbLine
 10
43.6662155579
 20
52.4706917099
 30
0.0
 11
43.6662155579
 21
50.8831916622
 31
0.0
  0
LINE
  5
3B9
330
3B2
100
AcDbEntity
  8
0
  6
Continuous
 62
     7
370
     0
100
AcDbLine
 10
43.6662155579
 20
50.8831916622
 30
0.0
 11
43.9709030548
 21
50.8831916622
 31
0.0
  0
LINE
  5
3BA
330
3B2
100
AcDbEntity
  8
0
  6
Continuous
 62
     7
370
     0
100
AcDbLine
 10
47.9486809165
 20
52.4706917099
 30
0.0
 11
48.2533684134
 21
52.4706917099
 31
0.0
  0
LINE
  5
3BB
330
3B2
100
AcDbEntity
  8
0
  6
Continuous
 62
     7
370
     0
100
AcDbLine
 10
48.2533684134
 20
52.4706917099
 30
0.0
 11
48.2533684134
 21
50.8831916622
 31
0.0
  0
LINE
  5
3BC
330
3B2
100
AcDbEntity
  8
0
  6
Continuous
 62
     7
370
     0
100
AcDbLine
 10
48.2533684134
 20
50.8831916622
 30
0.0
 11
47.9486809165
 21
50.8831916622
 31
0.0
  0
LINE
  5
3BD
330
3B2
100
AcDbEntity
  8
0
  6
Continuous
 62
     7
370
     0
100
AcDbLine
 10
39.037233658
 20
55.8738428469
 30
0.0
 11
42.5528501639
 21
55.8738428469
 31
0.0
  0
LINE
  5
3BE
330
3B2
100
AcDbEntity
  8
0
  6
Continuous
 62
     7
370
     0
100
AcDbLine
 10
39.037233658
 20
56.8738428469
 30
0.0
 11
42.5528501639
 21
56.8738428469
 31
0.0
  0
LINE
  5
3BF
330
3B2
100
AcDbEntity
  8
0
  6
Continuous
 62
     7
370
     0
100
AcDbLine
 10
42.7528501639
 20
53.4676486395
 30
0.0
 11
41.7528501639
 21
53.4676486395
 31
0.0
  0
LINE
  5
3C0
330
3B2
100
AcDbEntity
  8
0
  6
Continuous
 62
     7
370
     0
100
AcDbLine
 10
41.7528501639
 20
53.4676486395
 30
0.0
 11
41.7528501639
 21
55.8738428469
 31
0.0
  0
LINE
  5
3C1
330
3B2
100
AcDbEntity
  8
0
  6
Continuous
 62
     7
370
     0
100
AcDbLine
 10
41.7528501639
 20
56.8738428469
 30
0.0
 11
41.7528501639
 21
58.8738428469
 31
0.0
  0
MTEXT
  5
3C2
330
3B2
100
AcDbEntity
  8
0
  6
Continuous
 62
     7
370
    18
100
AcDbMText
 10
44.6300350205
 20
53.9628845515
 30
0.0
 40
1.0
 41
0.0
 71
     1
 72
     1
  1
%%c
  7
SLDTEXTSTYLE0
 73
     1
 44
1.0
  0
MTEXT
  5
3C3
330
3B2
100
AcDbEntity
  8
0
  6
Continuous
 62
     7
370
    18
100
AcDbMText
 10
46.1381599851
 20
53.9628845515
 30
0.0
 40
1.0
 41
0.0
 71
     1
 72
     1
  1
1"
  7
SLDTEXTSTYLE0
 73
     1
 44
1.0
  0
MTEXT
  5
3C4
330
3B2
100
AcDbEntity
  8
0
  6
Continuous
 62
     7
370
    18
100
AcDbMText
 10
43.9709030548
 20
52.172259512
 30
0.0
 40
1.0
 41
0.0
 71
     1
 72
     1
  1
25mm
  7
SLDTEXTSTYLE0
 73
     1
 44
1.0
  0
ENDBLK
  5
3B4
330
3B2
100
AcDbEntity
  8
0
100
AcDbBlockEnd
  0
BLOCK
  5
3C7
330
3C6
100
AcDbEntity
  8
0
100
AcDbBlockBegin
  2
_D_4
 70
     0
 10
0.0
 20
0.0
 30
0.0
  3
_D_4
  1

  0
SOLID
  5
3C9
330
3C6
100
AcDbEntity
  8
0
  6
Continuous
 62
     7
370
    18
100
AcDbTrace
 10
41.7528501639
 20
42.2136884779
 30
0.0
 11
41.5928501639
 21
41.1736884779
 31
0.0
 12
41.9128501639
 22
41.1736884779
 32
0.0
 13
41.9128501639
 23
41.1736884779
 33
0.0
  0
SOLID
  5
3CA
330
3C6
100
AcDbEntity
  8
0
  6
Continuous
 62
     7
370
    18
100
AcDbTrace
 10
41.7528501639
 20
37.4886884779
 30
0.0
 11
41.9128501639
 21
38.5286884779
 31
0.0
 12
41.5928501639
 22
38.5286884779
 32
0.0
 13
41.5928501639
 23
38.5286884779
 33
0.0
  0
LINE
  5
3CB
330
3C6
100
AcDbEntity
  8
0
  6
Continuous
 62
     7
370
     0
100
AcDbLine
 10
44.3403475003
 20
43.6628224106
 30
0.0
 11
44.0356600034
 21
43.6628224106
 31
0.0
  0
LINE
  5
3CC
330
3C6
100
AcDbEntity
  8
0
  6
Continuous
 62
     7
370
     0
100
AcDbLine
 10
44.0356600034
 20
43.6628224106
 30
0.0
 11
44.0356600034
 21
42.0753223629
 31
0.0
  0
LINE
  5
3CD
330
3C6
100
AcDbEntity
  8
0
  6
Continuous
 62
     7
370
     0
100
AcDbLine
 10
44.0356600034
 20
42.0753223629
 30
0.0
 11
44.3403475003
 21
42.0753223629
 31
0.0
  0
LINE
  5
3CE
330
3C6
100
AcDbEntity
  8
0
  6
Continuous
 62
     7
370
     0
100
AcDbLine
 10
49.0570141063
 20
43.6628224106
 30
0.0
 11
49.3617016032
 21
43.6628224106
 31
0.0
  0
LINE
  5
3CF
330
3C6
100
AcDbEntity
  8
0
  6
Continuous
 62
     7
370
     0
100
AcDbLine
 10
49.3617016032
 20
43.6628224106
 30
0.0
 11
49.3617016032
 21
42.0753223629
 31
0.0
  0
LINE
  5
3D0
330
3C6
100
AcDbEntity
  8
0
  6
Continuous
 62
     7
370
     0
100
AcDbLine
 10
49.3617016032
 20
42.0753223629
 30
0.0
 11
49.0570141063
 21
42.0753223629
 31
0.0
  0
LINE
  5
3D1
330
3C6
100
AcDbEntity
  8
0
  6
Continuous
 62
     7
370
     0
100
AcDbLine
 10
36.537233658
 20
42.2136884779
 30
0.0
 11
42.5528501639
 21
42.2136884779
 31
0.0
  0
LINE
  5
3D2
330
3C6
100
AcDbEntity
  8
0
  6
Continuous
 62
     7
370
     0
100
AcDbLine
 10
36.644733658
 20
37.4886884779
 30
0.0
 11
42.5528501639
 21
37.4886884779
 31
0.0
  0
LINE
  5
3D3
330
3C6
100
AcDbEntity
  8
0
  6
Continuous
 62
     7
370
     0
100
AcDbLine
 10
42.7528501639
 20
44.6750569903
 30
0.0
 11
41.7528501639
 21
44.6750569903
 31
0.0
  0
LINE
  5
3D4
330
3C6
100
AcDbEntity
  8
0
  6
Continuous
 62
     7
370
     0
100
AcDbLine
 10
41.7528501639
 20
44.6750569903
 30
0.0
 11
41.7528501639
 21
42.2136884779
 31
0.0
  0
LINE
  5
3D5
330
3C6
100
AcDbEntity
  8
0
  6
Continuous
 62
     7
370
     0
100
AcDbLine
 10
41.7528501639
 20
42.2136884779
 30
0.0
 11
41.7528501639
 21
37.4886884779
 31
0.0
  0
MTEXT
  5
3D6
330
3C6
100
AcDbEntity
  8
0
  6
Continuous
 62
     7
370
    18
100
AcDbMText
 10
43.736528061
 20
45.1702930307
 30
0.0
 40
1.0
 41
0.0
 71
     1
 72
     1
  1

  7
SLDTEXTSTYLE0
 73
     1
 44
1.0
  0
MTEXT
  5
3D7
330
3C6
100
AcDbEntity
  8
0
  6
Continuous
 62
     7
370
    18
100
AcDbMText
 10
44.9077085527
 20
45.1550151789
 30
0.0
 40
1.0
 41
0.0
 71
     1
 72
     1
  1
4 3/4"
  7
SLDTEXTSTYLE0
 73
     1
 44
1.0
  0
MTEXT
  5
3D8
330
3C6
100
AcDbEntity
  8
0
  6
Continuous
 62
     7
370
    18
100
AcDbMText
 10
44.3403475003
 20
43.3643902126
 30
0.0
 40
1.0
 41
0.0
 71
     1
 72
     1
  1
120mm
  7
SLDTEXTSTYLE0
 73
     1
 44
1.0
  0
MTEXT
  5
3D9
330
3C6
100
AcDbEntity
  8
0
  6
Continuous
 62
     7
370
    18
100
AcDbMText
 10
50.0413888801
 20
45.1702930307
 30
0.0
 40
1.0
 41
0.0
 71
     1
 72
     1
  1

  7
SLDTEXTSTYLE0
 73
     1
 44
1.0
  0
ENDBLK
  5
3C8
330
3C6
100
AcDbEntity
  8
0
100
AcDbBlockEnd
  0
BLOCK
  5
3DC
330
3DB
100
AcDbEntity
  8
0
100
AcDbBlockBegin
  2
_D_5
 70
     0
 10
0.0
 20
0.0
 30
0.0
  3
_D_5
  1

  0
SOLID
  5
3DE
330
3DB
100
AcDbEntity
  8
0
  6
Continuous
 62
     7
370
    18
100
AcDbTrace
 10
41.7528501639
 20
31.1536884779
 30
0.0
 11
41.9128501639
 21
32.1936884779
 31
0.0
 12
41.5928501639
 22
32.1936884779
 32
0.0
 13
41.5928501639
 23
32.1936884779
 33
0.0
  0
SOLID
  5
3DF
330
3DB
100
AcDbEntity
  8
0
  6
Continuous
 62
     7
370
    18
100
AcDbTrace
 10
41.7528501639
 20
30.2786884779
 30
0.0
 11
41.5928501639
 21
29.2386884779
 31
0.0
 12
41.9128501639
 22
29.2386884779
 32
0.0
 13
41.9128501639
 23
29.2386884779
 33
0.0
  0
LINE
  5
3E0
330
3DB
100
AcDbEntity
  8
0
  6
Continuous
 62
     7
370
     0
100
AcDbLine
 10
44.3403475003
 20
33.0549297166
 30
0.0
 11
44.0356600034
 21
33.0549297166
 31
0.0
  0
LINE
  5
3E1
330
3DB
100
AcDbEntity
  8
0
  6
Continuous
 62
     7
370
     0
100
AcDbLine
 10
44.0356600034
 20
33.0549297166
 30
0.0
 11
44.0356600034
 21
31.4674296689
 31
0.0
  0
LINE
  5
3E2
330
3DB
100
AcDbEntity
  8
0
  6
Continuous
 62
     7
370
     0
100
AcDbLine
 10
44.0356600034
 20
31.4674296689
 30
0.0
 11
44.3403475003
 21
31.4674296689
 31
0.0
  0
LINE
  5
3E3
330
3DB
100
AcDbEntity
  8
0
  6
Continuous
 62
     7
370
     0
100
AcDbLine
 10
48.318125362
 20
33.0549297166
 30
0.0
 11
48.6228128589
 21
33.0549297166
 31
0.0
  0
LINE
  5
3E4
330
3DB
100
AcDbEntity
  8
0
  6
Continuous
 62
     7
370
     0
100
AcDbLine
 10
48.6228128589
 20
33.0549297166
 30
0.0
 11
48.6228128589
 21
31.4674296689
 31
0.0
  0
LINE
  5
3E5
330
3DB
100
AcDbEntity
  8
0
  6
Continuous
 62
     7
370
     0
100
AcDbLine
 10
48.6228128589
 20
31.4674296689
 30
0.0
 11
48.318125362
 21
31.4674296689
 31
0.0
  0
LINE
  5
3E6
330
3DB
100
AcDbEntity
  8
0
  6
Continuous
 62
     7
370
     0
100
AcDbLine
 10
38.419733658
 20
31.1536884779
 30
0.0
 11
42.5528501639
 21
31.1536884779
 31
0.0
  0
LINE
  5
3E7
330
3DB
100
AcDbEntity
  8
0
  6
Continuous
 62
     7
370
     0
100
AcDbLine
 10
38.3891779847
 20
30.2786884779
 30
0.0
 11
42.5528501639
 21
30.2786884779
 31
0.0
  0
LINE
  5
3E8
330
3DB
100
AcDbEntity
  8
0
  6
Continuous
 62
     7
370
     0
100
AcDbLine
 10
42.7528501639
 20
34.0671642963
 30
0.0
 11
41.7528501639
 21
34.0671642963
 31
0.0
  0
LINE
  5
3E9
330
3DB
100
AcDbEntity
  8
0
  6
Continuous
 62
     7
370
     0
100
AcDbLine
 10
41.7528501639
 20
34.0671642963
 30
0.0
 11
41.7528501639
 21
31.1536884779
 31
0.0
  0
LINE
  5
3EA
330
3DB
100
AcDbEntity
  8
0
  6
Continuous
 62
     7
370
     0
100
AcDbLine
 10
41.7528501639
 20
30.2786884779
 30
0.0
 11
41.7528501639
 21
28.2786884779
 31
0.0
  0
MTEXT
  5
3EB
330
3DB
100
AcDbEntity
  8
0
  6
Continuous
 62
     7
370
    18
100
AcDbMText
 10
43.736528061
 20
34.5624003367
 30
0.0
 40
1.0
 41
0.0
 71
     1
 72
     1
  1

  7
SLDTEXTSTYLE0
 73
     1
 44
1.0
  0
MTEXT
  5
3EC
330
3DB
100
AcDbEntity
  8
0
  6
Continuous
 62
     7
370
    18
100
AcDbMText
 10
45.0924307388
 20
34.5471224848
 30
0.0
 40
1.0
 41
0.0
 71
     1
 72
     1
  1
7/8"
  7
SLDTEXTSTYLE0
 73
     1
 44
1.0
  0
MTEXT
  5
3ED
330
3DB
100
AcDbEntity
  8
0
  6
Continuous
 62
     7
370
    18
100
AcDbMText
 10
44.3403475003
 20
32.7564975186
 30
0.0
 40
1.0
 41
0.0
 71
     1
 72
     1
  1
22mm
  7
SLDTEXTSTYLE0
 73
     1
 44
1.0
  0
MTEXT
  5
3EE
330
3DB
100
AcDbEntity
  8
0
  6
Continuous
 62
     7
370
    18
100
AcDbMText
 10
49.3025001358
 20
34.5624003367
 30
0.0
 40
1.0
 41
0.0
 71
     1
 72
     1
  1

  7
SLDTEXTSTYLE0
 73
     1
 44
1.0
  0
ENDBLK
  5
3DD
330
3DB
100
AcDbEntity
  8
0
100
AcDbBlockEnd
  0
BLOCK
  5
3F1
330
3F0
100
AcDbEntity
  8
0
100
AcDbBlockBegin
  2
_D_6
 70
     0
 10
0.0
 20
0.0
 30
0.0
  3
_D_6
  1

  0
SOLID
  5
3F3
330
3F0
100
AcDbEntity
  8
0
  6
Continuous
 62
     7
370
    18
100
AcDbTrace
 10
23.7480997998
 20
19.4886884779
 30
0.0
 11
23.9080997998
 21
20.5286884779
 31
0.0
 12
23.5880997998
 22
20.5286884779
 32
0.0
 13
23.5880997998
 23
20.5286884779
 33
0.0
  0
SOLID
  5
3F4
330
3F0
100
AcDbEntity
  8
0
  6
Continuous
 62
     7
370
    18
100
AcDbTrace
 10
23.7480997998
 20
37.4886884779
 30
0.0
 11
23.5880997998
 21
36.4486884779
 31
0.0
 12
23.9080997998
 22
36.4486884779
 32
0.0
 13
23.9080997998
 23
36.4486884779
 33
0.0
  0
LINE
  5
3F5
330
3F0
100
AcDbEntity
  8
0
  6
Continuous
 62
     7
370
     0
100
AcDbLine
 10
31.869733658
 20
19.4886884779
 30
0.0
 11
22.9480997998
 21
19.4886884779
 31
0.0
  0
LINE
  5
3F6
330
3F0
100
AcDbEntity
  8
0
  6
Continuous
 62
     7
370
     0
100
AcDbLine
 10
31.869733658
 20
37.4886884779
 30
0.0
 11
22.9480997998
 21
37.4886884779
 31
0.0
  0
LINE
  5
3F7
330
3F0
100
AcDbEntity
  8
0
  6
Continuous
 62
     7
370
     0
100
AcDbLine
 10
23.7480997998
 20
19.4886884779
 30
0.0
 11
23.7480997998
 21
26.9170767773
 31
0.0
  0
LINE
  5
3F8
330
3F0
100
AcDbEntity
  8
0
  6
Continuous
 62
     7
370
     0
100
AcDbLine
 10
23.7480997998
 20
37.4886884779
 30
0.0
 11
23.7480997998
 21
31.6795770671
 31
0.0
  0
MTEXT
  5
3F9
330
3F0
100
AcDbEntity
  8
0
  6
Continuous
 62
     7
370
    18
100
AcDbMText
 10
18.5904606079
 20
31.3811448692
 30
0.0
 40
1.0
 41
0.0
 71
     1
 72
     1
  1
SPECIFY LENGTH
  7
SLDTEXTSTYLE0
 73
     1
 44
1.0
  0
MTEXT
  5
3FB
330
3F0
100
AcDbEntity
  8
0
  6
Continuous
 62
     7
370
    18
100
AcDbMText
 10
20.5043502052
 20
29.7936448215
 30
0.0
 40
1.0
 41
0.0
 71
     1
 72
     1
  1
12" OR 18"
  7
SLDTEXTSTYLE1
 73
     1
 44
1.0
  0
MTEXT
  5
3FC
330
3F0
100
AcDbEntity
  8
0
  6
Continuous
 62
     7
370
    18
100
AcDbMText
 10
17.5564332464
 20
28.2061447737
 30
0.0
 40
1.0
 41
0.0
 71
     1
 72
     1
  1
[305mm or 457mm]
  7
SLDTEXTSTYLE0
 73
     1
 44
1.0
  0
ENDBLK
  5
3F2
330
3F0
100
AcDbEntity
  8
0
100
AcDbBlockEnd
  0
BLOCK
  5
3FF
330
3FE
100
AcDbEntity
  8
0
100
AcDbBlockBegin
  2
_D_7
 70
     0
 10
0.0
 20
0.0
 30
0.0
  3
_D_7
  1

  0
SOLID
  5
401
330
3FE
100
AcDbEntity
  8
0
  6
Continuous
 62
     7
370
    18
100
AcDbTrace
 10
37.219733658
 20
25.7369814662
 30
0.0
 11
36.179733658
 21
25.8969814662
 31
0.0
 12
36.179733658
 22
25.5769814662
 32
0.0
 13
36.179733658
 23
25.5769814662
 33
0.0
  0
SOLID
  5
402
330
3FE
100
AcDbEntity
  8
0
  6
Continuous
 62
     7
370
    18
100
AcDbTrace
 10
31.294733658
 20
25.7369814662
 30
0.0
 11
32.334733658
 21
25.5769814662
 31
0.0
 12
32.334733658
 22
25.8969814662
 32
0.0
 13
32.334733658
 23
25.8969814662
 33
0.0
  0
LINE
  5
403
330
3FE
100
AcDbEntity
  8
0
  6
Continuous
 62
     7
370
     0
100
AcDbLine
 10
44.2977980662
 20
24.7400245367
 30
0.0
 11
43.9931105693
 21
24.7400245367
 31
0.0
  0
LINE
  5
404
330
3FE
100
AcDbEntity
  8
0
  6
Continuous
 62
     7
370
     0
100
AcDbLine
 10
43.9931105693
 20
24.7400245367
 30
0.0
 11
43.9931105693
 21
23.152524489
 31
0.0
  0
LINE
  5
405
330
3FE
100
AcDbEntity
  8
0
  6
Continuous
 62
     7
370
     0
100
AcDbLine
 10
43.9931105693
 20
23.152524489
 30
0.0
 11
44.2977980662
 21
23.152524489
 31
0.0
  0
LINE
  5
406
330
3FE
100
AcDbEntity
  8
0
  6
Continuous
 62
     7
370
     0
100
AcDbLine
 10
49.0144646722
 20
24.7400245367
 30
0.0
 11
49.3191521691
 21
24.7400245367
 31
0.0
  0
LINE
  5
407
330
3FE
100
AcDbEntity
  8
0
  6
Continuous
 62
     7
370
     0
100
AcDbLine
 10
49.3191521691
 20
24.7400245367
 30
0.0
 11
49.3191521691
 21
23.152524489
 31
0.0
  0
LINE
  5
408
330
3FE
100
AcDbEntity
  8
0
  6
Continuous
 62
     7
370
     0
100
AcDbLine
 10
49.3191521691
 20
23.152524489
 30
0.0
 11
49.0144646722
 21
23.152524489
 31
0.0
  0
LINE
  5
409
330
3FE
100
AcDbEntity
  8
0
  6
Continuous
 62
     7
370
     0
100
AcDbLine
 10
37.219733658
 20
29.9536884779
 30
0.0
 11
37.219733658
 21
24.9369814662
 31
0.0
  0
LINE
  5
40A
330
3FE
100
AcDbEntity
  8
0
  6
Continuous
 62
     7
370
     0
100
AcDbLine
 10
31.294733658
 20
29.9536884779
 30
0.0
 11
31.294733658
 21
24.9369814662
 31
0.0
  0
LINE
  5
40B
330
3FE
100
AcDbEntity
  8
0
  6
Continuous
 62
     7
370
     0
100
AcDbLine
 10
37.219733658
 20
25.7369814662
 30
0.0
 11
43.1693151863
 21
25.7369814662
 31
0.0
  0
LINE
  5
40C
330
3FE
100
AcDbEntity
  8
0
  6
Continuous
 62
     7
370
     0
100
AcDbLine
 10
31.294733658
 20
25.7369814662
 30
0.0
 11
37.219733658
 21
25.7369814662
 31
0.0
  0
MTEXT
  5
40D
330
3FE
100
AcDbEntity
  8
0
  6
Continuous
 62
     7
370
    18
100
AcDbMText
 10
43.3722078187
 20
26.2322173783
 30
0.0
 40
1.0
 41
0.0
 71
     1
 72
     1
  1
%%c
  7
SLDTEXTSTYLE0
 73
     1
 44
1.0
  0
MTEXT
  5
40E
330
3FE
100
AcDbEntity
  8
0
  6
Continuous
 62
     7
370
    18
100
AcDbMText
 10
44.8803327833
 20
26.2322173783
 30
0.0
 40
1.0
 41
0.0
 71
     1
 72
     1
  1
5 15/16"
  7
SLDTEXTSTYLE0
 73
     1
 44
1.0
  0
MTEXT
  5
40F
330
3FE
100
AcDbEntity
  8
0
  6
Continuous
 62
     7
370
    18
100
AcDbMText
 10
44.2977980662
 20
24.4415923387
 30
0.0
 40
1.0
 41
0.0
 71
     1
 72
     1
  1
150mm
  7
SLDTEXTSTYLE0
 73
     1
 44
1.0
  0
ENDBLK
  5
400
330
3FE
100
AcDbEntity
  8
0
100
AcDbBlockEnd
  0
ENDSEC
  0
SECTION
  2
ENTITIES
  0
LINE
  5
6E
330
1F
100
AcDbEntity
  8
0
  6
Continuous
 62
     7
370
    25
100
AcDbLine
 10
68.1893566871
 20
39.7456506215
 30
0.0
 11
68.1964277549
 21
39.7497326621
 31
0.0
  0
LINE
  5
6F
330
1F
100
AcDbEntity
  8
0
  6
Continuous
 62
     7
370
    25
100
AcDbLine
 10
67.3723991238
 20
40.4706890036
 30
0.0
 11
67.365328056
 21
40.466606963
 31
0.0
  0
LINE
  5
70
330
1F
100
AcDbEntity
  8
0
  6
Continuous
 62
     7
370
    25
100
AcDbLine
 10
67.7986323848
 20
-190.9405267083
 30
0.0
 11
67.7986323848
 21
-192.8022397594
 31
0.0
  0
LINE
  5
71
330
1F
100
AcDbEntity
  8
0
  6
Continuous
 62
     7
370
    25
100
AcDbLine
 10
67.6062388418
 20
-190.8395678105
 30
0.0
 11
67.6062388418
 21
-192.7012808616
 31
0.0
  0
LINE
  5
72
330
1F
100
AcDbEntity
  8
0
  6
Continuous
 62
     7
370
    25
100
AcDbLine
 10
67.4138452988
 20
-190.7386089127
 30
0.0
 11
67.4138452988
 21
-192.6003219638
 31
0.0
  0
LINE
  5
73
330
1F
100
AcDbEntity
  8
0
  6
Continuous
 62
     7
370
    25
100
AcDbLine
 10
68.9025137647
 20
-192.4036732734
 30
0.0
 11
68.9025137647
 21
-190.4603061411
 31
0.0
  0
LINE
  5
74
330
1F
100
AcDbEntity
  8
0
  6
Continuous
 62
     7
370
    25
100
AcDbLine
 10
67.2214517557
 20
-190.6376500149
 30
0.0
 11
67.2214517557
 21
-192.499363066
 31
0.0
  0
LINE
  5
75
330
1F
100
AcDbEntity
  8
0
  6
Continuous
 62
     7
370
    25
100
AcDbLine
 10
67.1909863457
 20
-190.4598319548
 30
0.0
 11
67.1909863457
 21
-192.4031990871
 31
0.0
  0
SPLINE
  5
76
330
1F
100
AcDbEntity
  8
0
  6
Continuous
 62
     7
370
    25
100
AcDbSpline
210
0.0
220
0.0
230
1.0
 70
     8
 71
     3
 72
    14
 73
    10
 74
     0
 42
0.00000001
 43
0.00000001
 40
0.0
 40
0.0
 40
0.0
 40
0.0
 40
0.1093104900989687
 40
0.311376789293745
 40
0.5124686209789648
 40
0.7406353517999162
 40
0.7712848855891249
 40
0.9037051027338702
 40
1.0
 40
1.0
 40
1.0
 40
1.0
 10
68.19994142890556
 20
-190.6454024804422
 30
0.0
 10
68.20029319851754
 20
-190.6392551601992
 30
0.0
 10
68.20129523310955
 20
-190.6217441890352
 30
0.0
 10
68.18935090777826
 20
-190.5944617720886
 30
0.0
 10
68.16743821976992
 20
-190.5662803074807
 30
0.0
 10
68.14530979989011
 20
-190.5502097914782
 30
0.0
 10
68.12445142965294
 20
-190.5389322790603
 30
0.0
 10
68.1100397616532
 20
-190.5318767799668
 30
0.0
 10
68.09545858465162
 20
-190.5283786602315
 30
0.0
 10
68.08931953719514
 20
-190.5269058625924
 30
0.0
  0
SPLINE
  5
77
330
1F
100
AcDbEntity
  8
0
  6
Continuous
 62
     7
370
    25
100
AcDbSpline
210
0.0
220
0.0
230
1.0
 70
     8
 71
     3
 72
    13
 73
     9
 74
     0
 42
0.00000001
 43
0.00000001
 40
0.0
 40
0.0
 40
0.0
 40
0.0
 40
0.0932939327469885
 40
0.3413537066684492
 40
0.5624230617796974
 40
0.7674026785248731
 40
0.9640800173994942
 40
0.9999999999999999
 40
0.9999999999999999
 40
0.9999999999999999
 40
0.9999999999999999
 10
67.9389684056543
 20
-190.5269106629718
 30
0.0
 10
67.93304882960547
 20
-190.5283462162949
 30
0.0
 10
67.91138965878187
 20
-190.5335987705986
 30
0.0
 10
67.88137058180732
 20
-190.5503990881939
 30
0.0
 10
67.85147425220721
 20
-190.5758151647241
 30
0.0
 10
67.83357145711884
 20
-190.6057139209181
 30
0.0
 10
67.82538560590426
 20
-190.6300199037583
 30
0.0
 10
67.82726135280164
 20
-190.6428840115479
 30
0.0
 10
67.82755102421956
 20
-190.6448706145107
 30
0.0
  0
LINE
  5
78
330
1F
100
AcDbEntity
  8
0
  6
Continuous
 62
     7
370
    25
100
AcDbLine
 10
68.2016439714
 20
-190.6653001829
 30
0.0
 11
68.2016439714
 21
-190.6448866626
 31
0.0
  0
LINE
  5
79
330
1F
100
AcDbEntity
  8
0
  6
Continuous
 62
     7
370
    25
100
AcDbLine
 10
67.8266439714
 20
-190.6448866626
 30
0.0
 11
67.8266439714
 21
-190.6653001829
 31
0.0
  0
LINE
  5
7A
330
1F
100
AcDbEntity
  8
0
  6
Continuous
 62
     7
370
    25
100
AcDbLine
 10
67.9939684057
 20
-189.867111864
 30
0.0
 11
67.9939684057
 21
-189.8500714062
 31
0.0
  0
LINE
  5
7B
330
1F
100
AcDbEntity
  8
0
  6
Continuous
 62
     7
370
    25
100
AcDbLine
 10
67.9389684057
 20
-189.8500714062
 30
0.0
 11
67.9389684057
 21
-190.6053716572
 31
0.0
  0
LINE
  5
7C
330
1F
100
AcDbEntity
  8
0
  6
Continuous
 62
     7
370
    25
100
AcDbLine
 10
68.0393712135
 20
-189.8382773106
 30
0.0
 11
68.0393712135
 21
-189.8212368527
 31
0.0
  0
LINE
  5
7D
330
1F
100
AcDbEntity
  8
0
  6
Continuous
 62
     7
370
    25
100
AcDbLine
 10
67.9843712135
 20
-189.8212368527
 30
0.0
 11
67.9843712135
 21
-189.8380208869
 31
0.0
  0
LINE
  5
7E
330
1F
100
AcDbEntity
  8
0
  6
Continuous
 62
     7
370
    25
100
AcDbLine
 10
68.0439167293
 20
-190.6437985872
 30
0.0
 11
68.0439167293
 21
-189.8762818893
 31
0.0
  0
LINE
  5
7F
330
1F
100
AcDbEntity
  8
0
  6
Continuous
 62
     7
370
    25
100
AcDbLine
 10
67.9889167293
 20
-189.8762818893
 30
0.0
 11
67.9889167293
 21
-190.6448334096
 31
0.0
  0
LINE
  5
80
330
1F
100
AcDbEntity
  8
0
  6
Continuous
 62
     7
370
    25
100
AcDbLine
 10
68.0893195372
 20
-190.6027475868
 30
0.0
 11
68.0893195372
 21
-189.8474473358
 31
0.0
  0
LINE
  5
81
330
1F
100
AcDbEntity
  8
0
  6
Continuous
 62
     7
370
    25
100
AcDbLine
 10
68.0343195372
 20
-189.8474473358
 30
0.0
 11
68.0343195372
 21
-189.8642313699
 31
0.0
  0
LINE
  5
82
330
1F
100
AcDbEntity
  8
0
  6
Continuous
 62
     7
370
    25
100
AcDbLine
 10
66.9367500552
 20
35.4379396914
 30
0.0
 11
66.9367500552
 21
32.6943625634
 31
0.0
  0
LINE
  5
83
330
1F
100
AcDbEntity
  8
0
  6
Continuous
 62
     7
370
    25
100
AcDbLine
 10
69.1567500552
 20
32.6943625634
 30
0.0
 11
69.1567500552
 21
35.4379396914
 31
0.0
  0
LINE
  5
84
330
1F
100
AcDbEntity
  8
0
  6
Continuous
 62
     7
370
    25
100
AcDbLine
 10
67.9767500552
 20
-192.9668493404
 30
0.0
 11
67.9767500552
 21
-195.4164717761
 31
0.0
  0
LINE
  5
85
330
1F
100
AcDbEntity
  8
0
  6
Continuous
 62
     7
370
    25
100
AcDbLine
 10
68.2482667483
 20
-195.3887658181
 30
0.0
 11
68.2482667483
 21
-193.0040882501
 31
0.0
  0
LINE
  5
86
330
1F
100
AcDbEntity
  8
0
  6
Continuous
 62
     7
370
    25
100
AcDbLine
 10
68.8317661177
 20
36.9810545407
 30
0.0
 11
68.8105494673
 21
36.9933066336
 31
0.0
  0
LINE
  5
87
330
1F
100
AcDbEntity
  8
0
  6
Continuous
 62
     7
370
    25
100
AcDbLine
 10
67.282950643
 20
36.9933066336
 30
0.0
 11
67.2617339927
 21
36.9810545407
 31
0.0
  0
LINE
  5
88
330
1F
100
AcDbEntity
  8
0
  6
Continuous
 62
     7
370
    25
100
AcDbLine
 10
69.1567500552
 20
35.4379396914
 30
0.0
 11
69.1567500552
 21
36.5280216752
 31
0.0
  0
LINE
  5
89
330
1F
100
AcDbEntity
  8
0
  6
Continuous
 62
     7
370
    25
100
AcDbLine
 10
66.9367500552
 20
36.5280216752
 30
0.0
 11
66.9367500552
 21
35.4379396914
 31
0.0
  0
LINE
  5
8A
330
1F
100
AcDbEntity
  8
0
  6
Continuous
 62
     7
370
    25
100
AcDbLine
 10
65.0851530619
 20
27.4793535389
 30
0.0
 11
65.1156994215
 21
26.7653158227
 31
0.0
  0
LINE
  5
8B
330
1F
100
AcDbEntity
  8
0
  6
Continuous
 62
     7
370
    25
100
AcDbLine
 10
70.9778006889
 20
26.7653158227
 30
0.0
 11
71.0083470484
 21
27.4793535389
 31
0.0
  0
LINE
  5
8C
330
1F
100
AcDbEntity
  8
0
  6
Continuous
 62
     7
370
    25
100
AcDbLine
 10
68.3226445769
 20
-195.5252362488
 30
0.0
 11
68.3226445769
 21
-195.361519816
 31
0.0
  0
LINE
  5
8D
330
1F
100
AcDbEntity
  8
0
  6
Continuous
 62
     7
370
    25
100
AcDbLine
 10
68.1519224091
 20
-195.5660500205
 30
0.0
 11
68.1607626801
 21
-195.5711550591
 31
0.0
  0
LINE
  5
8E
330
1F
100
AcDbEntity
  8
0
  6
Continuous
 62
     7
370
    25
100
AcDbLine
 10
68.2845264737
 20
-195.5711550591
 30
0.0
 11
68.2933667447
 21
-195.5660500205
 31
0.0
  0
LINE
  5
8F
330
1F
100
AcDbEntity
  8
0
  6
Continuous
 62
     7
370
    25
100
AcDbLine
 10
68.3101445769
 20
-196.0074035982
 30
0.0
 11
68.3101445769
 21
-195.55318407
 31
0.0
  0
LINE
  5
90
330
1F
100
AcDbEntity
  8
0
  6
Continuous
 62
     7
370
    25
100
AcDbLine
 10
68.1351445769
 20
-195.6071816325
 30
0.0
 11
68.1351445769
 21
-196.0074035982
 31
0.0
  0
LINE
  5
91
330
1F
100
AcDbEntity
  8
0
  6
Continuous
 62
     7
370
    25
100
AcDbLine
 10
68.3226445769
 20
-196.1813267911
 30
0.0
 11
68.3226445769
 21
-196.0176103584
 31
0.0
  0
LINE
  5
92
330
1F
100
AcDbEntity
  8
0
  6
Continuous
 62
     7
370
    25
100
AcDbLine
 10
67.9467500552
 20
-195.4164717761
 30
0.0
 11
67.9467500552
 21
-195.5801882089
 31
0.0
  0
LINE
  5
93
330
1F
100
AcDbEntity
  8
0
  6
Continuous
 62
     7
370
    25
100
AcDbLine
 10
68.1467500552
 20
-195.5801882089
 30
0.0
 11
68.1467500552
 21
-195.4248483693
 31
0.0
  0
LINE
  5
94
330
1F
100
AcDbEntity
  8
0
  6
Continuous
 62
     7
370
    25
100
AcDbLine
 10
67.9760278874
 20
-195.6210019805
 30
0.0
 11
67.9848681584
 21
-195.6261070192
 31
0.0
  0
LINE
  5
95
330
1F
100
AcDbEntity
  8
0
  6
Continuous
 62
     7
370
    25
100
AcDbLine
 10
68.108631952
 20
-195.6261070192
 30
0.0
 11
68.117472223
 21
-195.6210019805
 31
0.0
  0
LINE
  5
96
330
1F
100
AcDbEntity
  8
0
  6
Continuous
 62
     7
370
    25
100
AcDbLine
 10
68.1342500552
 20
-196.0623555583
 30
0.0
 11
68.1342500552
 21
-195.6081360301
 31
0.0
  0
LINE
  5
97
330
1F
100
AcDbEntity
  8
0
  6
Continuous
 62
     7
370
    25
100
AcDbLine
 10
67.9592500552
 20
-195.6081360301
 30
0.0
 11
67.9592500552
 21
-196.0623555583
 31
0.0
  0
LINE
  5
98
330
1F
100
AcDbEntity
  8
0
  6
Continuous
 62
     7
370
    25
100
AcDbLine
 10
67.9467500552
 20
-196.0725623184
 30
0.0
 11
67.9467500552
 21
-196.2362787512
 31
0.0
  0
LINE
  5
99
330
1F
100
AcDbEntity
  8
0
  6
Continuous
 62
     7
370
    25
100
AcDbLine
 10
68.1467500552
 20
-196.2362787512
 30
0.0
 11
68.1467500552
 21
-196.0725623184
 31
0.0
  0
SPLINE
  5
9A
330
1F
100
AcDbEntity
  8
0
  6
Continuous
 62
     7
370
    25
100
AcDbSpline
210
0.0
220
0.0
230
1.0
 70
     8
 71
     3
 72
    12
 73
     8
 74
     0
 42
0.00000001
 43
0.00000001
 40
0.0
 40
0.0
 40
0.0
 40
0.0
 40
0.1962651494975734
 40
0.4077015366750438
 40
0.6239718879315481
 40
0.8443696320983838
 40
1.0
 40
1.0
 40
1.0
 40
1.0
 10
67.60988779439793
 20
32.18419603319206
 30
0.0
 10
67.61848394267756
 20
32.17325733713673
 30
0.0
 10
67.63634071894201
 20
32.15053438707454
 30
0.0
 10
67.67389081549679
 20
32.12466539936695
 30
0.0
 10
67.71744564683549
 20
32.10739463385166
 30
0.0
 10
67.76011376969015
 20
32.10034453634703
 30
0.0
 10
67.78612769335595
 20
32.1049475957871
 30
0.0
 10
67.79689432590479
 20
32.10685270822722
 30
0.0
  0
LINE
  5
9B
330
1F
100
AcDbEntity
  8
0
  6
Continuous
 62
     7
370
    25
100
AcDbLine
 10
67.6134041553
 20
32.3473352975
 30
0.0
 11
67.5934365766
 21
32.3043158066
 31
0.0
  0
LINE
  5
9C
330
1F
100
AcDbEntity
  8
0
  6
Continuous
 62
     7
370
    25
100
AcDbLine
 10
67.8855500962
 20
32.1687307595
 30
0.0
 11
67.9055176749
 21
32.2117502504
 31
0.0
  0
LINE
  5
9D
330
1F
100
AcDbEntity
  8
0
  6
Continuous
 62
     7
370
    25
100
AcDbLine
 10
69.1567500552
 20
32.9072587512
 30
0.0
 11
69.2180626444
 21
32.916742814
 31
0.0
  0
LINE
  5
9E
330
1F
100
AcDbEntity
  8
0
  6
Continuous
 62
     7
370
    25
100
AcDbLine
 10
69.1688328371
 20
33.2350037752
 30
0.0
 11
69.1567500552
 21
33.2331347649
 31
0.0
  0
SPLINE
  5
9F
330
1F
100
AcDbEntity
  8
0
  6
Continuous
 62
     7
370
    25
100
AcDbSpline
210
0.0
220
0.0
230
1.0
 70
     8
 71
     3
 72
    19
 73
    15
 74
     0
 42
0.00000001
 43
0.00000001
 40
0.0
 40
0.0
 40
0.0
 40
0.0
 40
0.0356553931083466
 40
0.0972617945473086
 40
0.1616642983305135
 40
0.2402733026627775
 40
0.3593514530264071
 40
0.4580662997112041
 40
0.5614237187322866
 40
0.6657049255720274
 40
0.7773278500474732
 40
0.8589501210825177
 40
0.9377062424644989
 40
1.0
 40
1.0
 40
1.0
 40
1.0
 10
69.22289269218413
 20
32.92051222119219
 30
0.0
 10
69.22634919763081
 20
32.92331814237844
 30
0.0
 10
69.23577795141246
 20
32.93097221392672
 30
0.0
 10
69.24550544692758
 20
32.94795400701267
 30
0.0
 10
69.2530532889792
 20
32.96892188859945
 30
0.0
 10
69.25720780506114
 20
32.99541568569131
 30
0.0
 10
69.25774957637127
 20
33.0286314150984
 30
0.0
 10
69.25429234413296
 20
33.06942214292408
 30
0.0
 10
69.24778542475275
 20
33.10942141612793
 30
0.0
 10
69.23819631444977
 20
33.1481125158376
 30
0.0
 10
69.22718703974402
 20
33.17846773802528
 30
0.0
 10
69.21358845418197
 20
33.20267094945234
 30
0.0
 10
69.19671295405662
 20
33.22237057269791
 30
0.0
 10
69.18100137674374
 20
33.23017320893702
 30
0.0
 10
69.17406246126829
 20
33.23361919225688
 30
0.0
  0
LINE
  5
A0
330
1F
100
AcDbEntity
  8
0
  6
Continuous
 62
     7
370
    25
100
AcDbLine
 10
67.5517500552
 20
52.7853492399
 30
0.0
 11
67.5517500552
 21
51.2584179216
 31
0.0
  0
LINE
  5
A1
330
1F
100
AcDbEntity
  8
0
  6
Continuous
 62
     7
370
    25
100
AcDbLine
 10
68.5417500552
 20
51.2584179216
 30
0.0
 11
68.5417500552
 21
52.5346628008
 31
0.0
  0
LINE
  5
A2
330
1F
100
AcDbEntity
  8
0
  6
Continuous
 62
     7
370
    25
100
AcDbLine
 10
67.5517500552
 20
53.1061776357
 30
0.0
 11
67.5517500552
 21
52.7853492399
 31
0.0
  0
LINE
  5
A3
330
1F
100
AcDbEntity
  8
0
  6
Continuous
 62
     7
370
    25
100
AcDbLine
 10
69.2605162811
 20
53.2743971518
 30
0.0
 11
67.3329431956
 21
54.3871614082
 31
0.0
  0
LINE
  5
A4
330
1F
100
AcDbEntity
  8
0
  6
Continuous
 62
     7
370
    25
100
AcDbLine
 10
68.0089182903
 20
52.8422600313
 30
0.0
 11
68.7605569148
 21
52.4083482894
 31
0.0
  0
LINE
  5
A5
330
1F
100
AcDbEntity
  8
0
  6
Continuous
 62
     7
370
    25
100
AcDbLine
 10
66.8329838293
 20
53.5211125458
 30
0.0
 11
67.5517751517
 21
53.1061631478
 31
0.0
  0
LINE
  5
A6
330
1F
100
AcDbEntity
  8
0
  6
Continuous
 62
     7
370
    25
100
AcDbLine
 10
67.0829060501
 20
54.3623742052
 30
0.0
 11
67.0624032862
 21
54.3505343636
 31
0.0
  0
LINE
  5
A7
330
1F
100
AcDbEntity
  8
0
  6
Continuous
 62
     7
370
    25
100
AcDbLine
 10
66.7294101218
 20
53.7737107843
 30
0.0
 11
66.7294101218
 21
53.750034949
 31
0.0
  0
LINE
  5
A8
330
1F
100
AcDbEntity
  8
0
  6
Continuous
 62
     7
370
    25
100
AcDbLine
 10
68.3107667483
 20
-192.9391433825
 30
0.0
 11
68.3107667483
 21
-192.8699364495
 31
0.0
  0
LINE
  5
A9
330
1F
100
AcDbEntity
  8
0
  6
Continuous
 62
     7
370
    25
100
AcDbLine
 10
68.0457667483
 20
-192.8967902827
 30
0.0
 11
68.0457667483
 21
-192.9391433825
 31
0.0
  0
LINE
  5
AA
330
1F
100
AcDbEntity
  8
0
  6
Continuous
 62
     7
370
    25
100
AcDbLine
 10
66.986842171
 20
54.4696567084
 30
0.0
 11
66.9835515834
 21
54.4715569416
 31
0.0
  0
LINE
  5
AB
330
1F
100
AcDbEntity
  8
0
  6
Continuous
 62
     7
370
    25
100
AcDbLine
 10
66.8938758747
 20
54.4715569416
 30
0.0
 11
66.890622655
 21
54.4696782873
 31
0.0
  0
LINE
  5
AC
330
1F
100
AcDbEntity
  8
0
  6
Continuous
 62
     7
370
    25
100
AcDbLine
 10
69.2029148232
 20
53.1903451971
 30
0.0
 11
69.1996242357
 21
53.1922454304
 31
0.0
  0
LINE
  5
AD
330
1F
100
AcDbEntity
  8
0
  6
Continuous
 62
     7
370
    25
100
AcDbLine
 10
69.1099485269
 20
53.1922454304
 30
0.0
 11
69.1066953072
 21
53.1903667761
 31
0.0
  0
LINE
  5
AE
330
1F
100
AcDbEntity
  8
0
  6
Continuous
 62
     7
370
    25
100
AcDbLine
 10
68.4415984818
 20
51.6864772519
 30
0.0
 11
68.4415984818
 21
51.6903208481
 31
0.0
  0
LINE
  5
AF
330
1F
100
AcDbEntity
  8
0
  6
Continuous
 62
     7
370
    25
100
AcDbLine
 10
66.1272912616
 20
53.9285001936
 30
0.0
 11
66.8124777326
 21
53.5329504634
 31
0.0
  0
LINE
  5
B0
330
1F
100
AcDbEntity
  8
0
  6
Continuous
 62
     7
370
    25
100
AcDbLine
 10
65.2653280954
 20
54.4261009378
 30
0.0
 11
65.6499941843
 21
54.2040379313
 31
0.0
  0
LINE
  5
B1
330
1F
100
AcDbEntity
  8
0
  6
Continuous
 62
     7
370
    25
100
AcDbLine
 10
67.3124370989
 20
54.3989993258
 30
0.0
 11
65.7652874617
 21
55.2921498001
 31
0.0
  0
LINE
  5
B2
330
1F
100
AcDbEntity
  8
0
  6
Continuous
 62
     7
370
    25
100
AcDbLine
 10
70.828172015
 20
52.3694087598
 30
0.0
 11
69.2810223778
 21
53.2625592341
 31
0.0
  0
LINE
  5
B3
330
1F
100
AcDbEntity
  8
0
  6
Continuous
 62
     7
370
    25
100
AcDbLine
 10
69.9435465597
 20
51.7254229039
 30
0.0
 11
70.3282126487
 21
51.5033598974
 31
0.0
  0
LINE
  5
B4
330
1F
100
AcDbEntity
  8
0
  6
Continuous
 62
     7
370
    25
100
AcDbLine
 10
68.7810630114
 20
52.3965103718
 30
0.0
 11
69.4662494824
 21
52.0009606416
 31
0.0
  0
LINE
  5
B5
330
1F
100
AcDbEntity
  8
0
  6
Continuous
 62
     7
370
    25
100
AcDbLine
 10
67.5467500552
 20
51.2502525135
 30
0.0
 11
67.5467500552
 21
40.376016162
 31
0.0
  0
LINE
  5
B6
330
1F
100
AcDbEntity
  8
0
  6
Continuous
 62
     7
370
    25
100
AcDbLine
 10
67.5467500552
 20
40.1106417251
 30
0.0
 11
67.5467500552
 21
36.5525178996
 31
0.0
  0
LINE
  5
B7
330
1F
100
AcDbEntity
  8
0
  6
Continuous
 62
     7
370
    25
100
AcDbLine
 10
68.5467500552
 20
36.5525178996
 30
0.0
 11
68.5467500552
 21
51.2502525135
 31
0.0
  0
LINE
  5
B8
330
1F
100
AcDbEntity
  8
0
  6
Continuous
 62
     7
370
    25
100
AcDbLine
 10
69.2342500552
 20
20.8636618583
 30
0.0
 11
69.2342500552
 21
25.2595693465
 31
0.0
  0
LINE
  5
B9
330
1F
100
AcDbEntity
  8
0
  6
Continuous
 62
     7
370
    25
100
AcDbLine
 10
69.2342500552
 20
27.5215765201
 30
0.0
 11
69.2342500552
 21
32.6943625634
 31
0.0
  0
LINE
  5
BA
330
1F
100
AcDbEntity
  8
0
  6
Continuous
 62
     7
370
    25
100
AcDbLine
 10
66.8592500552
 20
32.6943625634
 30
0.0
 11
66.8592500552
 21
27.5215765201
 31
0.0
  0
LINE
  5
BB
330
1F
100
AcDbEntity
  8
0
  6
Continuous
 62
     7
370
    25
100
AcDbLine
 10
66.8592500552
 20
25.2595693465
 30
0.0
 11
66.8592500552
 21
18.4885332007
 31
0.0
  0
LINE
  5
BC
330
1F
100
AcDbEntity
  8
0
  6
Continuous
 62
     7
370
    25
100
AcDbLine
 10
68.1945353725
 20
39.9734800569
 30
0.0
 11
68.2016064403
 21
39.9775620974
 31
0.0
  0
ARC
  5
BD
330
1F
100
AcDbEntity
  8
0
  6
Continuous
 62
     7
370
    25
100
AcDbCircle
 10
68.1561549699
 20
39.9717335356
 30
0.0
 40
0.0384201201892777
100
AcDbArc
 50
2.6054784856
 51
57.39452166
  0
LINE
  5
BE
330
1F
100
AcDbEntity
  8
0
  6
Continuous
 62
     7
370
    25
100
AcDbLine
 10
68.1768577029
 20
40.0040986786
 30
0.0
 11
68.1839287707
 21
40.0081807191
 31
0.0
  0
ARC
  5
BF
330
1F
100
AcDbEntity
  8
0
  6
Continuous
 62
     7
370
    25
100
AcDbCircle
 10
68.1632260377
 20
39.9758155761
 30
0.0
 40
0.038420120189253
100
AcDbArc
 50
2.6054784856
 51
57.39452166
  0
LINE
  5
C0
330
1F
100
AcDbEntity
  8
0
  6
Continuous
 62
     7
370
    25
100
AcDbLine
 10
68.1768577029
 20
40.0040986786
 30
0.0
 11
68.0062954235
 21
40.1025621866
 31
0.0
  0
LINE
  5
C1
330
1F
100
AcDbEntity
  8
0
  6
Continuous
 62
     7
370
    25
100
AcDbLine
 10
67.5483893196
 20
40.3669057537
 30
0.0
 11
67.3778270402
 21
40.4653692617
 31
0.0
  0
LINE
  5
C2
330
1F
100
AcDbEntity
  8
0
  6
Continuous
 62
     7
370
    25
100
AcDbLine
 10
68.1945353725
 20
39.7570967417
 30
0.0
 11
68.1945353725
 21
39.9734800569
 31
0.0
  0
ARC
  5
C3
330
1F
100
AcDbEntity
  8
0
  6
Continuous
 62
     7
370
    25
100
AcDbCircle
 10
68.1837585133
 20
39.7553485618
 30
0.0
 40
0.0109177299357033
100
AcDbArc
 50
230.7967147643
 51
9.2140369905
  0
LINE
  5
C4
330
1F
100
AcDbEntity
  8
0
  6
Continuous
 62
     7
370
    25
100
AcDbLine
 10
67.3778270402
 20
40.208158906
 30
0.0
 11
67.5483893196
 21
40.1096953979
 31
0.0
  0
LINE
  5
C5
330
1F
100
AcDbEntity
  8
0
  6
Continuous
 62
     7
370
    25
100
AcDbLine
 10
68.0062954235
 20
39.8453518309
 30
0.0
 11
68.1768577029
 21
39.7468883228
 31
0.0
  0
ARC
  5
C6
330
1F
100
AcDbEntity
  8
0
  6
Continuous
 62
     7
370
    25
100
AcDbCircle
 10
67.3985297732
 20
40.240524049
 30
0.0
 40
0.0384201201893485
100
AcDbArc
 50
182.6054784857
 51
237.39452166
  0
LINE
  5
C7
330
1F
100
AcDbEntity
  8
0
  6
Continuous
 62
     7
370
    25
100
AcDbLine
 10
67.3601493707
 20
40.4551608428
 30
0.0
 11
67.3601493707
 21
40.2387775277
 31
0.0
  0
ARC
  5
C8
330
1F
100
AcDbEntity
  8
0
  6
Continuous
 62
     7
370
    25
100
AcDbCircle
 10
67.3709262298
 20
40.4569090228
 30
0.0
 40
0.0109177299357268
100
AcDbArc
 50
50.7967147644
 51
189.2140369904
  0
LINE
  5
C9
330
1F
100
AcDbEntity
  8
0
  6
Continuous
 62
     7
370
    25
100
AcDbLine
 10
68.1945353725
 20
39.7570967417
 30
0.0
 11
68.2016064403
 21
39.7611787823
 31
0.0
  0
LINE
  5
CA
330
1F
100
AcDbEntity
  8
0
  6
Continuous
 62
     7
370
    25
100
AcDbLine
 10
68.2016064403
 20
39.7611787823
 30
0.0
 11
68.2016064403
 21
39.9775620974
 31
0.0
  0
LINE
  5
CB
330
1F
100
AcDbEntity
  8
0
  6
Continuous
 62
     7
370
    25
100
AcDbLine
 10
67.3778270402
 20
40.4653692617
 30
0.0
 11
67.384898108
 21
40.4694513023
 31
0.0
  0
LINE
  5
CC
330
1F
100
AcDbEntity
  8
0
  6
Continuous
 62
     7
370
    25
100
AcDbLine
 10
68.1839287707
 20
40.0081807191
 30
0.0
 11
68.0214355902
 21
40.1019860355
 31
0.0
  0
LINE
  5
CD
330
1F
100
AcDbEntity
  8
0
  6
Continuous
 62
     7
370
    25
100
AcDbLine
 10
67.5473912885
 20
40.3756459859
 30
0.0
 11
67.384898108
 21
40.4694513023
 31
0.0
  0
ARC
  5
CE
330
1F
100
AcDbEntity
  8
0
  6
Continuous
 62
     7
370
    25
100
AcDbCircle
 10
68.1893563927
 20
39.7598266138
 30
0.0
 40
0.0123244482696042
100
AcDbArc
 50
305.0133329288
 51
6.2988474646
  0
ARC
  5
CF
330
1F
100
AcDbEntity
  8
0
  6
Continuous
 62
     7
370
    25
100
AcDbCircle
 10
67.3775751066
 20
40.4592292691
 30
0.0
 40
0.0125744308975416
100
AcDbArc
 50
54.3824225248
 51
114.3071190461
  0
LINE
  5
D0
330
1F
100
AcDbEntity
  8
0
  6
Continuous
 62
     7
370
    25
100
AcDbLine
 10
67.9596830931
 20
-190.9487796124
 30
0.0
 11
67.9596830931
 21
-192.8921467446
 31
0.0
  0
ARC
  5
D1
330
1F
100
AcDbEntity
  8
0
  6
Continuous
 62
     7
370
    25
100
AcDbCircle
 10
68.0651631466
 20
-189.8444556466
 30
0.0
 40
1.10935001825342
100
AcDbArc
 50
264.5439172484
 51
285.9861004528
  0
LINE
  5
D2
330
1F
100
AcDbEntity
  8
0
  6
Continuous
 62
     7
370
    25
100
AcDbLine
 10
68.3706827481
 20
-190.9109054748
 30
0.0
 11
68.3706827481
 21
-192.8542726071
 31
0.0
  0
ARC
  5
D3
330
1F
100
AcDbEntity
  8
0
  6
Continuous
 62
     7
370
    25
100
AcDbCircle
 10
68.0651631466
 20
-191.7878227789
 30
0.0
 40
1.109350018252187
100
AcDbArc
 50
264.5439172484
 51
285.9861004528
  0
LINE
  5
D4
330
1F
100
AcDbEntity
  8
0
  6
Continuous
 62
     7
370
    25
100
AcDbLine
 10
67.212308176
 20
-190.5565931248
 30
0.0
 11
67.9596830931
 21
-190.9487796124
 31
0.0
  0
ARC
  5
D5
330
1F
100
AcDbEntity
  8
0
  6
Continuous
 62
     7
370
    25
100
AcDbCircle
 10
67.4296196776
 20
-190.4590196078
 30
0.0
 40
0.2382118384203165
100
AcDbArc
 50
143.342877227
 51
204.1802235029
  0
LINE
  5
D6
330
1F
100
AcDbEntity
  8
0
  6
Continuous
 62
     7
370
    25
100
AcDbLine
 10
67.7228173622
 20
-190.0092326211
 30
0.0
 11
67.238520745
 21
-190.3168011917
 31
0.0
  0
LINE
  5
D7
330
1F
100
AcDbEntity
  8
0
  6
Continuous
 62
     7
370
    25
100
AcDbLine
 10
68.1338170172
 20
-189.9713584835
 30
0.0
 11
68.0893195372
 21
-189.9681492156
 31
0.0
  0
ARC
  5
D8
330
1F
100
AcDbEntity
  8
0
  6
Continuous
 62
     7
370
    25
100
AcDbCircle
 10
68.0178449093
 20
-191.0206524736
 30
0.0
 40
1.053570771985967
100
AcDbArc
 50
94.2935161646
 51
106.2617756254
  0
LINE
  5
D9
330
1F
100
AcDbEntity
  8
0
  6
Continuous
 62
     7
370
    25
100
AcDbLine
 10
68.8811919344
 20
-190.3635449711
 30
0.0
 11
68.1338170172
 21
-189.9713584835
 31
0.0
  0
ARC
  5
DA
330
1F
100
AcDbEntity
  8
0
  6
Continuous
 62
     7
370
    25
100
AcDbCircle
 10
68.6638804327
 20
-190.4611184881
 30
0.0
 40
0.2382118384203102
100
AcDbArc
 50
323.342877227
 51
24.1802235029
  0
LINE
  5
DB
330
1F
100
AcDbEntity
  8
0
  6
Continuous
 62
     7
370
    25
100
AcDbLine
 10
68.7473578949
 20
-190.6716854754
 30
0.0
 11
68.8549793654
 21
-190.6033369042
 31
0.0
  0
LINE
  5
DC
330
1F
100
AcDbEntity
  8
0
  6
Continuous
 62
     7
370
    25
100
AcDbLine
 10
68.6918597575
 20
-190.6425627165
 30
0.0
 11
68.7473578949
 21
-190.6716854754
 31
0.0
  0
LINE
  5
DD
330
1F
100
AcDbEntity
  8
0
  6
Continuous
 62
     7
370
    25
100
AcDbLine
 10
68.4228060812
 20
-190.8134341446
 30
0.0
 11
68.385807323
 21
-190.7940189719
 31
0.0
  0
LINE
  5
DE
330
1F
100
AcDbEntity
  8
0
  6
Continuous
 62
     7
370
    25
100
AcDbLine
 10
68.4783042186
 20
-190.8425569036
 30
0.0
 11
68.4228060812
 21
-190.8134341446
 31
0.0
  0
LINE
  5
DF
330
1F
100
AcDbEntity
  8
0
  6
Continuous
 62
     7
370
    25
100
AcDbLine
 10
68.3706827481
 20
-190.9109054748
 30
0.0
 11
68.4783042186
 21
-190.8425569036
 31
0.0
  0
LINE
  5
E0
330
1F
100
AcDbEntity
  8
0
  6
Continuous
 62
     7
370
    25
100
AcDbLine
 10
67.7302907918
 20
-192.7309456336
 30
0.0
 11
67.7302907918
 21
-190.8692325825
 31
0.0
  0
LINE
  5
E1
330
1F
100
AcDbEntity
  8
0
  6
Continuous
 62
     7
370
    25
100
AcDbLine
 10
67.7302907918
 20
-190.8692325825
 30
0.0
 11
67.6340940203
 21
-190.8187531336
 31
0.0
  0
LINE
  5
E2
330
1F
100
AcDbEntity
  8
0
  6
Continuous
 62
     7
370
    25
100
AcDbLine
 10
67.9226843349
 20
-192.8319045314
 30
0.0
 11
67.9226843349
 21
-190.9701914803
 31
0.0
  0
LINE
  5
E3
330
1F
100
AcDbEntity
  8
0
  6
Continuous
 62
     7
370
    25
100
AcDbLine
 10
67.9226843349
 20
-190.9701914803
 30
0.0
 11
67.8264875634
 21
-190.9197120314
 31
0.0
  0
LINE
  5
E4
330
1F
100
AcDbEntity
  8
0
  6
Continuous
 62
     7
370
    25
100
AcDbLine
 10
67.212308176
 20
-190.5565931248
 30
0.0
 11
67.212308176
 21
-192.4999602571
 31
0.0
  0
LINE
  5
E5
330
1F
100
AcDbEntity
  8
0
  6
Continuous
 62
     7
370
    25
100
AcDbLine
 10
67.212308176
 20
-192.4999602571
 30
0.0
 11
67.9596830931
 21
-192.8921467446
 31
0.0
  0
LINE
  5
E6
330
1F
100
AcDbEntity
  8
0
  6
Continuous
 62
     7
370
    25
100
AcDbLine
 10
67.3455037058
 20
-192.5290278381
 30
0.0
 11
67.3455037058
 21
-190.667314787
 31
0.0
  0
LINE
  5
E7
330
1F
100
AcDbEntity
  8
0
  6
Continuous
 62
     7
370
    25
100
AcDbLine
 10
67.3455037058
 20
-190.667314787
 30
0.0
 11
67.2493069343
 21
-190.6168353381
 31
0.0
  0
LINE
  5
E8
330
1F
100
AcDbEntity
  8
0
  6
Continuous
 62
     7
370
    25
100
AcDbLine
 10
67.5378972488
 20
-192.6299867358
 30
0.0
 11
67.5378972488
 21
-190.7682736847
 31
0.0
  0
LINE
  5
E9
330
1F
100
AcDbEntity
  8
0
  6
Continuous
 62
     7
370
    25
100
AcDbLine
 10
67.5378972488
 20
-190.7682736847
 30
0.0
 11
67.4417004773
 21
-190.7177942358
 31
0.0
  0
LWPOLYLINE
  5
EA
330
1F
100
AcDbEntity
  8
0
  6
Continuous
 62
     7
370
    25
100
AcDbPolyline
 90
        9
 70
   128
 43
0.0
 10
67.8022727325
 20
-190.9350904599
 10
67.8006346484
 20
-190.9363616536
 10
67.7994576306
 20
-190.937792908
 10
67.7987869112
 20
-190.9393292208
 10
67.7986482656
 20
-190.9409115523
 10
67.7990470219
 20
-190.9424790945
 10
67.799967856
 20
-190.9439716076
 10
67.8013753809
 20
-190.9453317352
 10
67.8032155061
 20
-190.9465072083
  0
LINE
  5
EB
330
1F
100
AcDbEntity
  8
0
  6
Continuous
 62
     7
370
    25
100
AcDbLine
 10
67.8022727325
 20
-190.9350904599
 30
0.0
 11
67.8264875634
 21
-190.9197120314
 31
0.0
  0
LINE
  5
EC
330
1F
100
AcDbEntity
  8
0
  6
Continuous
 62
     7
370
    25
100
AcDbLine
 10
67.898469504
 20
-190.9855699088
 30
0.0
 11
67.9226843349
 21
-190.9701914803
 31
0.0
  0
ARC
  5
ED
330
1F
100
AcDbEntity
  8
0
  6
Continuous
 62
     7
370
    25
100
AcDbCircle
 10
67.8880569943
 20
-190.9667925146
 30
0.0
 40
0.0214711642426833
100
AcDbArc
 50
244.1433666484
 51
299.0094060383
  0
LINE
  5
EE
330
1F
100
AcDbEntity
  8
0
  6
Continuous
 62
     7
370
    25
100
AcDbLine
 10
67.878692973
 20
-190.9861141605
 30
0.0
 11
67.8032155061
 21
-190.9465072083
 31
0.0
  0
LINE
  5
EF
330
1F
100
AcDbEntity
  8
0
  6
Continuous
 62
     7
370
    25
100
AcDbLine
 10
67.878692973
 20
-192.8478272116
 30
0.0
 11
67.878692973
 21
-190.9861141605
 31
0.0
  0
LINE
  5
F0
330
1F
100
AcDbEntity
  8
0
  6
Continuous
 62
     7
370
    25
100
AcDbLine
 10
67.898469504
 20
-190.9855699088
 30
0.0
 11
67.898469504
 21
-192.8472829599
 31
0.0
  0
ARC
  5
F1
330
1F
100
AcDbEntity
  8
0
  6
Continuous
 62
     7
370
    25
100
AcDbCircle
 10
67.8880569943
 20
-192.8285055657
 30
0.0
 40
0.0214711642427551
100
AcDbArc
 50
244.1433666485
 51
299.0094060382
  0
LINE
  5
F2
330
1F
100
AcDbEntity
  8
0
  6
Continuous
 62
     7
370
    25
100
AcDbLine
 10
67.8032155061
 20
-190.9465072083
 30
0.0
 11
67.8032155061
 21
-192.8082202594
 31
0.0
  0
LINE
  5
F3
330
1F
100
AcDbEntity
  8
0
  6
Continuous
 62
     7
370
    25
100
AcDbLine
 10
67.8032155061
 20
-192.8082202594
 30
0.0
 11
67.878692973
 21
-192.8478272116
 31
0.0
  0
LINE
  5
F4
330
1F
100
AcDbEntity
  8
0
  6
Continuous
 62
     7
370
    25
100
AcDbLine
 10
67.898469504
 20
-192.8472829599
 30
0.0
 11
67.9226843349
 21
-192.8319045314
 31
0.0
  0
LINE
  5
F5
330
1F
100
AcDbEntity
  8
0
  6
Continuous
 62
     7
370
    25
100
AcDbLine
 10
68.385807323
 20
-190.7940189719
 30
0.0
 11
68.385807323
 21
-190.589883769
 31
0.0
  0
LINE
  5
F6
330
1F
100
AcDbEntity
  8
0
  6
Continuous
 62
     7
370
    25
100
AcDbLine
 10
68.4228060812
 20
-190.6092989416
 30
0.0
 11
68.385807323
 21
-190.589883769
 31
0.0
  0
LINE
  5
F7
330
1F
100
AcDbEntity
  8
0
  6
Continuous
 62
     7
370
    25
100
AcDbLine
 10
68.4228060812
 20
-190.8134341446
 30
0.0
 11
68.4228060812
 21
-190.6092989416
 31
0.0
  0
LINE
  5
F8
330
1F
100
AcDbEntity
  8
0
  6
Continuous
 62
     7
370
    25
100
AcDbLine
 10
68.5068853551
 20
-190.5559016203
 30
0.0
 11
68.4698865968
 21
-190.5364864477
 31
0.0
  0
LINE
  5
F9
330
1F
100
AcDbEntity
  8
0
  6
Continuous
 62
     7
370
    25
100
AcDbLine
 10
68.4228060812
 20
-190.6092989416
 30
0.0
 11
68.5068853551
 21
-190.5559016203
 31
0.0
  0
LINE
  5
FA
330
1F
100
AcDbEntity
  8
0
  6
Continuous
 62
     7
370
    25
100
AcDbLine
 10
68.385807323
 20
-190.589883769
 30
0.0
 11
68.4698865968
 21
-190.5364864477
 31
0.0
  0
LINE
  5
FB
330
1F
100
AcDbEntity
  8
0
  6
Continuous
 62
     7
370
    25
100
AcDbLine
 10
68.5068853551
 20
-190.5559016203
 30
0.0
 11
68.5068853551
 21
-190.6620519259
 31
0.0
  0
LWPOLYLINE
  5
FC
330
1F
100
AcDbEntity
  8
0
  6
Continuous
 62
     7
370
    25
100
AcDbPolyline
 90
        9
 70
   128
 43
0.0
 10
68.5068853551
 20
-190.6620519259
 10
68.5107254472
 20
-190.6830488965
 10
68.5216611046
 20
-190.6959717138
 10
68.5380274723
 20
-190.698852996
 10
68.5573329194
 20
-190.691254094
 10
68.5766383664
 20
-190.6743318718
 10
68.5930047342
 20
-190.6506625842
 10
68.6039403915
 20
-190.6238496658
 10
68.6077804837
 20
-190.5979751403
  0
LINE
  5
FD
330
1F
100
AcDbEntity
  8
0
  6
Continuous
 62
     7
370
    25
100
AcDbLine
 10
68.6077804837
 20
-190.5979751403
 30
0.0
 11
68.6077804837
 21
-190.4918248348
 31
0.0
  0
LINE
  5
FE
330
1F
100
AcDbEntity
  8
0
  6
Continuous
 62
     7
370
    25
100
AcDbLine
 10
68.6077804837
 20
-190.4918248348
 30
0.0
 11
68.6918597575
 21
-190.4384275135
 31
0.0
  0
LINE
  5
FF
330
1F
100
AcDbEntity
  8
0
  6
Continuous
 62
     7
370
    25
100
AcDbLine
 10
68.6918597575
 20
-190.4384275135
 30
0.0
 11
68.6918597575
 21
-190.6425627165
 31
0.0
  0
LINE
  5
100
330
1F
100
AcDbEntity
  8
0
  6
Continuous
 62
     7
370
    25
100
AcDbLine
 10
68.6918597575
 20
-190.6425627165
 30
0.0
 11
68.6918597575
 21
-191.2549683254
 31
0.0
  0
LINE
  5
101
330
1F
100
AcDbEntity
  8
0
  6
Continuous
 62
     7
370
    25
100
AcDbLine
 10
68.6918597575
 20
-191.2549683254
 30
0.0
 11
68.4783042186
 21
-191.3905938274
 31
0.0
  0
LINE
  5
102
330
1F
100
AcDbEntity
  8
0
  6
Continuous
 62
     7
370
    25
100
AcDbLine
 10
68.4783042186
 20
-190.8425569036
 30
0.0
 11
68.4783042186
 21
-192.7859240358
 31
0.0
  0
LINE
  5
103
330
1F
100
AcDbEntity
  8
0
  6
Continuous
 62
     7
370
    25
100
AcDbLine
 10
68.3706827481
 20
-192.8542726071
 30
0.0
 11
68.4783042186
 21
-192.7859240358
 31
0.0
  0
ARC
  5
104
330
1F
100
AcDbEntity
  8
0
  6
Continuous
 62
     7
370
    25
100
AcDbCircle
 10
67.8056295094
 20
-192.8016239279
 30
0.0
 40
0.0070241725690496
100
AcDbArc
 50
185.029760347
 51
249.8993206463
  0
LINE
  5
105
330
1F
100
AcDbEntity
  8
0
  6
Continuous
 62
     7
370
    25
100
AcDbLine
 10
67.68629943
 20
-192.7468683138
 30
0.0
 11
67.68629943
 21
-190.8851552627
 31
0.0
  0
ARC
  5
106
330
1F
100
AcDbEntity
  8
0
  6
Continuous
 62
     7
370
    25
100
AcDbCircle
 10
67.6956634512
 20
-190.8658336168
 30
0.0
 40
0.0214711642428186
100
AcDbArc
 50
244.1433666487
 51
299.0094060382
  0
LINE
  5
107
330
1F
100
AcDbEntity
  8
0
  6
Continuous
 62
     7
370
    25
100
AcDbLine
 10
67.706075961
 20
-190.8846110111
 30
0.0
 11
67.706075961
 21
-192.7463240622
 31
0.0
  0
ARC
  5
108
330
1F
100
AcDbEntity
  8
0
  6
Continuous
 62
     7
370
    25
100
AcDbCircle
 10
67.6956634512
 20
-192.7275466679
 30
0.0
 40
0.0214711642428186
100
AcDbArc
 50
244.1433666487
 51
299.0094060382
  0
LWPOLYLINE
  5
109
330
1F
100
AcDbEntity
  8
0
  6
Continuous
 62
     7
370
    25
100
AcDbPolyline
 90
        9
 70
   128
 43
0.0
 10
67.6098791895
 20
-190.8341315622
 10
67.6082411054
 20
-190.8354027558
 10
67.6070640876
 20
-190.8368340102
 10
67.6063933682
 20
-190.838370323
 10
67.6062547226
 20
-190.8399526545
 10
67.6066534789
 20
-190.8415201967
 10
67.607574313
 20
-190.8430127099
 10
67.6089818379
 20
-190.8443728374
 10
67.6108219631
 20
-190.8455483105
  0
LINE
  5
10A
330
1F
100
AcDbEntity
  8
0
  6
Continuous
 62
     7
370
    25
100
AcDbLine
 10
67.6098791895
 20
-190.8341315622
 30
0.0
 11
67.6340940203
 21
-190.8187531336
 31
0.0
  0
LINE
  5
10B
330
1F
100
AcDbEntity
  8
0
  6
Continuous
 62
     7
370
    25
100
AcDbLine
 10
67.706075961
 20
-190.8846110111
 30
0.0
 11
67.7302907918
 21
-190.8692325825
 31
0.0
  0
LINE
  5
10C
330
1F
100
AcDbEntity
  8
0
  6
Continuous
 62
     7
370
    25
100
AcDbLine
 10
67.68629943
 20
-190.8851552627
 30
0.0
 11
67.6108219631
 21
-190.8455483105
 31
0.0
  0
LINE
  5
10D
330
1F
100
AcDbEntity
  8
0
  6
Continuous
 62
     7
370
    25
100
AcDbLine
 10
67.6108219631
 20
-190.8455483105
 30
0.0
 11
67.6108219631
 21
-192.7072613616
 31
0.0
  0
LINE
  5
10E
330
1F
100
AcDbEntity
  8
0
  6
Continuous
 62
     7
370
    25
100
AcDbLine
 10
67.6108219631
 20
-192.7072613616
 30
0.0
 11
67.68629943
 21
-192.7468683138
 31
0.0
  0
LINE
  5
10F
330
1F
100
AcDbEntity
  8
0
  6
Continuous
 62
     7
370
    25
100
AcDbLine
 10
67.706075961
 20
-192.7463240622
 30
0.0
 11
67.7302907918
 21
-192.7309456336
 31
0.0
  0
LINE
  5
110
330
1F
100
AcDbEntity
  8
0
  6
Continuous
 62
     7
370
    25
100
AcDbLine
 10
68.6077804837
 20
-190.5979751403
 30
0.0
 11
68.5707817254
 21
-190.5785599677
 31
0.0
  0
ARC
  5
111
330
1F
100
AcDbEntity
  8
0
  6
Continuous
 62
     7
370
    25
100
AcDbCircle
 10
68.4592687718
 20
-190.5776284331
 30
0.0
 40
0.1115168443924288
100
AcDbArc
 50
296.3687453327
 51
359.5213851447
  0
LINE
  5
112
330
1F
100
AcDbEntity
  8
0
  6
Continuous
 62
     7
370
    25
100
AcDbLine
 10
68.6918597575
 20
-190.4384275135
 30
0.0
 11
68.6548609992
 21
-190.4190123408
 31
0.0
  0
LINE
  5
113
330
1F
100
AcDbEntity
  8
0
  6
Continuous
 62
     7
370
    25
100
AcDbLine
 10
68.6077804837
 20
-190.4918248348
 30
0.0
 11
68.5707817254
 21
-190.4724096621
 31
0.0
  0
LINE
  5
114
330
1F
100
AcDbEntity
  8
0
  6
Continuous
 62
     7
370
    25
100
AcDbLine
 10
68.5707817254
 20
-190.4724096621
 30
0.0
 11
68.6548609992
 21
-190.4190123408
 31
0.0
  0
LINE
  5
115
330
1F
100
AcDbEntity
  8
0
  6
Continuous
 62
     7
370
    25
100
AcDbLine
 10
68.5707817254
 20
-190.5785599677
 30
0.0
 11
68.5707817254
 21
-190.4724096621
 31
0.0
  0
ARC
  5
116
330
1F
100
AcDbEntity
  8
0
  6
Continuous
 62
     7
370
    25
100
AcDbCircle
 10
67.6132359663
 20
-192.7006650301
 30
0.0
 40
0.0070241725689206
100
AcDbArc
 50
185.0297603464
 51
249.8993206472
  0
LWPOLYLINE
  5
117
330
1F
100
AcDbEntity
  8
0
  6
Continuous
 62
     7
370
    25
100
AcDbPolyline
 90
        9
 70
   128
 43
0.0
 10
67.4174856464
 20
-190.7331726644
 10
67.4158475624
 20
-190.734443858
 10
67.4146705446
 20
-190.7358751124
 10
67.4139998252
 20
-190.7374114252
 10
67.4138611796
 20
-190.7389937567
 10
67.4142599358
 20
-190.740561299
 10
67.41518077
 20
-190.7420538121
 10
67.4165882949
 20
-190.7434139396
 10
67.4184284201
 20
-190.7445894127
  0
LINE
  5
118
330
1F
100
AcDbEntity
  8
0
  6
Continuous
 62
     7
370
    25
100
AcDbLine
 10
67.4174856464
 20
-190.7331726644
 30
0.0
 11
67.4417004773
 21
-190.7177942358
 31
0.0
  0
LINE
  5
119
330
1F
100
AcDbEntity
  8
0
  6
Continuous
 62
     7
370
    25
100
AcDbLine
 10
67.513682418
 20
-190.7836521133
 30
0.0
 11
67.5378972488
 21
-190.7682736847
 31
0.0
  0
ARC
  5
11A
330
1F
100
AcDbEntity
  8
0
  6
Continuous
 62
     7
370
    25
100
AcDbCircle
 10
67.5032699082
 20
-190.764874719
 30
0.0
 40
0.0214711642424927
100
AcDbArc
 50
244.1433666484
 51
299.0094060388
  0
LINE
  5
11B
330
1F
100
AcDbEntity
  8
0
  6
Continuous
 62
     7
370
    25
100
AcDbLine
 10
67.493905887
 20
-190.7841963649
 30
0.0
 11
67.4184284201
 21
-190.7445894127
 31
0.0
  0
LINE
  5
11C
330
1F
100
AcDbEntity
  8
0
  6
Continuous
 62
     7
370
    25
100
AcDbLine
 10
67.493905887
 20
-192.645909416
 30
0.0
 11
67.493905887
 21
-190.7841963649
 31
0.0
  0
LINE
  5
11D
330
1F
100
AcDbEntity
  8
0
  6
Continuous
 62
     7
370
    25
100
AcDbLine
 10
67.513682418
 20
-190.7836521133
 30
0.0
 11
67.513682418
 21
-192.6453651644
 31
0.0
  0
ARC
  5
11E
330
1F
100
AcDbEntity
  8
0
  6
Continuous
 62
     7
370
    25
100
AcDbCircle
 10
67.5032699082
 20
-192.6265877701
 30
0.0
 40
0.0214711642424539
100
AcDbArc
 50
244.1433666483
 51
299.0094060388
  0
LINE
  5
11F
330
1F
100
AcDbEntity
  8
0
  6
Continuous
 62
     7
370
    25
100
AcDbLine
 10
67.4184284201
 20
-190.7445894127
 30
0.0
 11
67.4184284201
 21
-192.6063024638
 31
0.0
  0
LINE
  5
120
330
1F
100
AcDbEntity
  8
0
  6
Continuous
 62
     7
370
    25
100
AcDbLine
 10
67.4184284201
 20
-192.6063024638
 30
0.0
 11
67.493905887
 21
-192.645909416
 31
0.0
  0
LINE
  5
121
330
1F
100
AcDbEntity
  8
0
  6
Continuous
 62
     7
370
    25
100
AcDbLine
 10
67.513682418
 20
-192.6453651644
 30
0.0
 11
67.5378972488
 21
-192.6299867358
 31
0.0
  0
ARC
  5
122
330
1F
100
AcDbEntity
  8
0
  6
Continuous
 62
     7
370
    25
100
AcDbCircle
 10
67.4208424233
 20
-192.5997061323
 30
0.0
 40
0.007024172568882
100
AcDbArc
 50
185.0297603461
 51
249.899320647
  0
LINE
  5
123
330
1F
100
AcDbEntity
  8
0
  6
Continuous
 62
     7
370
    25
100
AcDbLine
 10
68.7473578949
 20
-190.6716854754
 30
0.0
 11
68.7473578949
 21
-192.6150526077
 31
0.0
  0
LINE
  5
124
330
1F
100
AcDbEntity
  8
0
  6
Continuous
 62
     7
370
    25
100
AcDbLine
 10
68.6918597575
 20
-192.5859298488
 30
0.0
 11
68.7473578949
 21
-192.6150526077
 31
0.0
  0
LINE
  5
125
330
1F
100
AcDbEntity
  8
0
  6
Continuous
 62
     7
370
    25
100
AcDbLine
 10
68.6918597575
 20
-192.5859298488
 30
0.0
 11
68.6918597575
 21
-191.9735242398
 31
0.0
  0
LINE
  5
126
330
1F
100
AcDbEntity
  8
0
  6
Continuous
 62
     7
370
    25
100
AcDbLine
 10
68.6918597575
 20
-191.9735242398
 30
0.0
 11
68.6548609992
 21
-191.9541090672
 31
0.0
  0
LINE
  5
127
330
1F
100
AcDbEntity
  8
0
  6
Continuous
 62
     7
370
    25
100
AcDbLine
 10
68.6548609992
 20
-191.2784656095
 30
0.0
 11
68.6548609992
 21
-191.9541090672
 31
0.0
  0
LINE
  5
128
330
1F
100
AcDbEntity
  8
0
  6
Continuous
 62
     7
370
    25
100
AcDbLine
 10
68.8549793654
 20
-190.6033369042
 30
0.0
 11
68.8549793654
 21
-192.5467040365
 31
0.0
  0
LINE
  5
129
330
1F
100
AcDbEntity
  8
0
  6
Continuous
 62
     7
370
    25
100
AcDbLine
 10
68.7473578949
 20
-192.6150526077
 30
0.0
 11
68.8549793654
 21
-192.5467040365
 31
0.0
  0
LINE
  5
12A
330
1F
100
AcDbEntity
  8
0
  6
Continuous
 62
     7
370
    25
100
AcDbLine
 10
67.3015123439
 20
-192.5449505182
 30
0.0
 11
67.3015123439
 21
-190.6832374671
 31
0.0
  0
ARC
  5
12B
330
1F
100
AcDbEntity
  8
0
  6
Continuous
 62
     7
370
    25
100
AcDbCircle
 10
67.3108763652
 20
-190.6639158212
 30
0.0
 40
0.0214711642424795
100
AcDbArc
 50
244.1433666483
 51
299.0094060388
  0
LINE
  5
12C
330
1F
100
AcDbEntity
  8
0
  6
Continuous
 62
     7
370
    25
100
AcDbLine
 10
67.3212888749
 20
-190.6826932155
 30
0.0
 11
67.3212888749
 21
-192.5444062666
 31
0.0
  0
ARC
  5
12D
330
1F
100
AcDbEntity
  8
0
  6
Continuous
 62
     7
370
    25
100
AcDbCircle
 10
67.3108763652
 20
-192.5256288723
 30
0.0
 40
0.0214711642424416
100
AcDbArc
 50
244.1433666483
 51
299.0094060389
  0
LWPOLYLINE
  5
12E
330
1F
100
AcDbEntity
  8
0
  6
Continuous
 62
     7
370
    25
100
AcDbPolyline
 90
        9
 70
   128
 43
0.0
 10
67.2250921034
 20
-190.6322137666
 10
67.2234540193
 20
-190.6334849603
 10
67.2222770015
 20
-190.6349162146
 10
67.2216062822
 20
-190.6364525274
 10
67.2214676366
 20
-190.638034859
 10
67.2218663928
 20
-190.6396024012
 10
67.222787227
 20
-190.6410949143
 10
67.2241947518
 20
-190.6424550419
 10
67.2260348771
 20
-190.6436305149
  0
LINE
  5
12F
330
1F
100
AcDbEntity
  8
0
  6
Continuous
 62
     7
370
    25
100
AcDbLine
 10
67.2250921034
 20
-190.6322137666
 30
0.0
 11
67.2493069343
 21
-190.6168353381
 31
0.0
  0
LINE
  5
130
330
1F
100
AcDbEntity
  8
0
  6
Continuous
 62
     7
370
    25
100
AcDbLine
 10
67.3212888749
 20
-190.6826932155
 30
0.0
 11
67.3455037058
 21
-190.667314787
 31
0.0
  0
LINE
  5
131
330
1F
100
AcDbEntity
  8
0
  6
Continuous
 62
     7
370
    25
100
AcDbLine
 10
67.3015123439
 20
-190.6832374671
 30
0.0
 11
67.2260348771
 21
-190.6436305149
 31
0.0
  0
LINE
  5
132
330
1F
100
AcDbEntity
  8
0
  6
Continuous
 62
     7
370
    25
100
AcDbLine
 10
67.2260348771
 20
-190.6436305149
 30
0.0
 11
67.2260348771
 21
-192.505343566
 31
0.0
  0
LINE
  5
133
330
1F
100
AcDbEntity
  8
0
  6
Continuous
 62
     7
370
    25
100
AcDbLine
 10
67.2260348771
 20
-192.505343566
 30
0.0
 11
67.3015123439
 21
-192.5449505182
 31
0.0
  0
LINE
  5
134
330
1F
100
AcDbEntity
  8
0
  6
Continuous
 62
     7
370
    25
100
AcDbLine
 10
67.3212888749
 20
-192.5444062666
 30
0.0
 11
67.3455037058
 21
-192.5290278381
 31
0.0
  0
ARC
  5
135
330
1F
100
AcDbEntity
  8
0
  6
Continuous
 62
     7
370
    25
100
AcDbCircle
 10
68.6526005695
 20
-192.4000319976
 30
0.0
 40
0.249939720760313
100
AcDbArc
 50
324.0676481627
 51
359.1652502663
  0
ARC
  5
136
330
1F
100
AcDbEntity
  8
0
  6
Continuous
 62
     7
370
    25
100
AcDbCircle
 10
67.2284488803
 20
-192.4987472346
 30
0.0
 40
0.0070241725688162
100
AcDbArc
 50
185.029760346
 51
249.8993206475
  0
ARC
  5
137
330
1F
100
AcDbEntity
  8
0
  6
Continuous
 62
     7
370
    25
100
AcDbCircle
 10
67.425295181
 20
-192.4022976821
 30
0.0
 40
0.2343105692145562
100
AcDbArc
 50
180.220420386
 51
204.6332414238
  0
LINE
  5
138
330
1F
100
AcDbEntity
  8
0
  6
Continuous
 62
     7
370
    25
100
AcDbLine
 10
68.6548609992
 20
-191.9541090672
 30
0.0
 11
68.4783042186
 21
-192.0662372851
 31
0.0
  0
LINE
  5
139
330
1F
100
AcDbEntity
  8
0
  6
Continuous
 62
     7
370
    25
100
AcDbLine
 10
68.6918597575
 20
-191.9735242398
 30
0.0
 11
68.4783042186
 21
-192.1091497418
 31
0.0
  0
LINE
  5
13A
330
1F
100
AcDbEntity
  8
0
  6
Continuous
 62
     7
370
    25
100
AcDbLine
 10
68.4228060812
 20
-192.821169962
 30
0.0
 11
68.4228060812
 21
-192.9609364798
 31
0.0
  0
LINE
  5
13B
330
1F
100
AcDbEntity
  8
0
  6
Continuous
 62
     7
370
    25
100
AcDbLine
 10
68.6918597575
 20
-192.7900650517
 30
0.0
 11
68.6918597575
 21
-192.5859298488
 31
0.0
  0
LINE
  5
13C
330
1F
100
AcDbEntity
  8
0
  6
Continuous
 62
     7
370
    25
100
AcDbLine
 10
68.6077804837
 20
-192.843462373
 30
0.0
 11
68.6918597575
 21
-192.7900650517
 31
0.0
  0
LINE
  5
13D
330
1F
100
AcDbEntity
  8
0
  6
Continuous
 62
     7
370
    25
100
AcDbLine
 10
68.6077804837
 20
-192.7373120675
 30
0.0
 11
68.6077804837
 21
-192.843462373
 31
0.0
  0
LWPOLYLINE
  5
13E
330
1F
100
AcDbEntity
  8
0
  6
Continuous
 62
     7
370
    25
100
AcDbPolyline
 90
        9
 70
   128
 43
0.0
 10
68.5068853551
 20
-192.801388853
 10
68.5107254472
 20
-192.7755143275
 10
68.5216611046
 20
-192.7487014091
 10
68.5380274723
 20
-192.7250321216
 10
68.5573329194
 20
-192.7081098993
 10
68.5766383664
 20
-192.7005109974
 10
68.5930047342
 20
-192.7033922796
 10
68.6039403915
 20
-192.7163150969
 10
68.6077804837
 20
-192.7373120675
  0
LINE
  5
13F
330
1F
100
AcDbEntity
  8
0
  6
Continuous
 62
     7
370
    25
100
AcDbLine
 10
68.5068853551
 20
-192.9075391586
 30
0.0
 11
68.5068853551
 21
-192.801388853
 31
0.0
  0
LINE
  5
140
330
1F
100
AcDbEntity
  8
0
  6
Continuous
 62
     7
370
    25
100
AcDbLine
 10
68.4228060812
 20
-192.9609364798
 30
0.0
 11
68.5068853551
 21
-192.9075391586
 31
0.0
  0
LINE
  5
141
330
1F
100
AcDbEntity
  8
0
  6
Continuous
 62
     7
370
    25
100
AcDbLine
 10
68.4228060812
 20
-192.9609364798
 30
0.0
 11
68.385807323
 21
-192.9415213072
 31
0.0
  0
LINE
  5
142
330
1F
100
AcDbEntity
  8
0
  6
Continuous
 62
     7
370
    25
100
AcDbLine
 10
68.385807323
 20
-192.844667246
 30
0.0
 11
68.385807323
 21
-192.9415213072
 31
0.0
  0
LINE
  5
143
330
1F
100
AcDbEntity
  8
0
  6
Continuous
 62
     7
370
    25
100
AcDbLine
 10
68.6077804837
 20
-192.7373120675
 30
0.0
 11
68.5707817254
 21
-192.7178968948
 31
0.0
  0
LINE
  5
144
330
1F
100
AcDbEntity
  8
0
  6
Continuous
 62
     7
370
    25
100
AcDbLine
 10
68.568868492
 20
-192.7024064053
 30
0.0
 11
68.5707817254
 21
-192.7178968948
 31
0.0
  0
LINE
  5
145
330
1F
100
AcDbEntity
  8
0
  6
Continuous
 62
     7
370
    25
100
AcDbLine
 10
68.6077804837
 20
-192.843462373
 30
0.0
 11
68.5707817254
 21
-192.8240472004
 31
0.0
  0
LINE
  5
146
330
1F
100
AcDbEntity
  8
0
  6
Continuous
 62
     7
370
    25
100
AcDbLine
 10
68.5707817254
 20
-192.7178968948
 30
0.0
 11
68.5707817254
 21
-192.8240472004
 31
0.0
  0
LWPOLYLINE
  5
147
330
1F
100
AcDbEntity
  8
0
  6
Continuous
 62
     7
370
    25
100
AcDbPolyline
 90
       13
 70
   128
 43
0.0
 10
67.8266439714
 20
-190.6653001829
 10
67.8287515948
 20
-190.6814839852
 10
67.8431899851
 20
-190.7097587754
 10
67.8703072505
 20
-190.7347362752
 10
67.9080922275
 20
-190.7545640178
 10
67.9537425772
 20
-190.76777147
 10
68.003872622
 20
-190.7733790956
 10
68.0547644458
 20
-190.7709710027
 10
68.1026436348
 20
-190.7607257886
 10
68.1439592087
 20
-190.7434032937
 10
68.1756469803
 20
-190.7202882485
 10
68.1953568125
 20
-190.69309499
 10
68.2016439714
 20
-190.6653001829
  0
LWPOLYLINE
  5
148
330
1F
100
AcDbEntity
  8
0
  6
Continuous
 62
     7
370
    25
100
AcDbPolyline
 90
        9
 70
   128
 43
0.0
 10
67.9395723202
 20
-190.6086804067
 10
67.9462982816
 20
-190.62251444
 10
67.9636964071
 20
-190.6360980148
 10
67.988774717
 20
-190.6448040347
 10
68.0177152659
 20
-190.6473070871
 10
68.0461121176
 20
-190.643226105
 10
68.0696421088
 20
-190.633182381
 10
68.0847230117
 20
-190.6187049808
 10
68.0891439714
 20
-190.604059622
  0
LWPOLYLINE
  5
149
330
1F
100
AcDbEntity
  8
0
  6
Continuous
 62
     7
370
    25
100
AcDbPolyline
 90
       17
 70
   128
 43
0.0
 10
67.9849658459
 20
-189.8383239955
 10
67.9757704656
 20
-189.8351317882
 10
67.965158931
 20
-189.8342140023
 10
67.9547467521
 20
-189.8357103624
 10
67.9461190886
 20
-189.8393930612
 10
67.9405894242
 20
-189.8447014413
 10
67.9389996001
 20
-189.8508273498
 10
67.9415916527
 20
-189.8568381728
 10
67.9479709654
 20
-189.8618188169
 10
67.9571663457
 20
-189.8650110242
 10
67.9677778803
 20
-189.8659288101
 10
67.9781900593
 20
-189.86443245
 10
67.9868177227
 20
-189.8607497512
 10
67.9923473871
 20
-189.8554413711
 10
67.9939372112
 20
-189.8493154626
 10
67.9913451586
 20
-189.8433046396
 10
67.9849658459
 20
-189.8383239955
  0
LWPOLYLINE
  5
14A
330
1F
100
AcDbEntity
  8
0
  6
Continuous
 62
     7
370
    25
100
AcDbPolyline
 90
       17
 70
   128
 43
0.0
 10
68.0303686538
 20
-189.809489442
 10
68.0211732735
 20
-189.8062972347
 10
68.0105617389
 20
-189.8053794488
 10
68.0001495599
 20
-189.8068758089
 10
67.9915218965
 20
-189.8105585077
 10
67.9859922321
 20
-189.8158668878
 10
67.984402408
 20
-189.8219927963
 10
67.9869944606
 20
-189.8280036193
 10
67.9933737733
 20
-189.8329842634
 10
68.0025691536
 20
-189.8361764707
 10
68.0131806882
 20
-189.8370942566
 10
68.0235928671
 20
-189.8355978965
 10
68.0322205306
 20
-189.8319151977
 10
68.037750195
 20
-189.8266068176
 10
68.039340019
 20
-189.8204809091
 10
68.0367479665
 20
-189.8144700861
 10
68.0303686538
 20
-189.809489442
  0
LWPOLYLINE
  5
14B
330
1F
100
AcDbEntity
  8
0
  6
Continuous
 62
     7
370
    25
100
AcDbPolyline
 90
       17
 70
   128
 43
0.0
 10
68.0349141696
 20
-189.8645344786
 10
68.0257187893
 20
-189.8613422713
 10
68.0151072547
 20
-189.8604244854
 10
68.0046950757
 20
-189.8619208455
 10
67.9960674123
 20
-189.8656035443
 10
67.9905377479
 20
-189.8709119244
 10
67.9889479238
 20
-189.8770378329
 10
67.9915399764
 20
-189.8830486559
 10
67.9979192891
 20
-189.8880293
 10
68.0071146694
 20
-189.8912215073
 10
68.017726204
 20
-189.8921392932
 10
68.0281383829
 20
-189.8906429331
 10
68.0367660464
 20
-189.8869602342
 10
68.0422957108
 20
-189.8816518542
 10
68.0438855348
 20
-189.8755259457
 10
68.0412934823
 20
-189.8695151227
 10
68.0349141696
 20
-189.8645344786
  0
LWPOLYLINE
  5
14C
330
1F
100
AcDbEntity
  8
0
  6
Continuous
 62
     7
370
    25
100
AcDbPolyline
 90
       17
 70
   128
 43
0.0
 10
68.0803169774
 20
-189.8356999251
 10
68.0711215971
 20
-189.8325077178
 10
68.0605100625
 20
-189.8315899319
 10
68.0500978836
 20
-189.833086292
 10
68.0414702201
 20
-189.8367689908
 10
68.0359405557
 20
-189.8420773709
 10
68.0343507317
 20
-189.8482032794
 10
68.0369427843
 20
-189.8542141024
 10
68.043322097
 20
-189.8591947465
 10
68.0525174772
 20
-189.8623869538
 10
68.0631290118
 20
-189.8633047397
 10
68.0735411908
 20
-189.8618083796
 10
68.0821688542
 20
-189.8581256807
 10
68.0876985186
 20
-189.8528173007
 10
68.0892883427
 20
-189.8466913922
 10
68.0866962901
 20
-189.8406805692
 10
68.0803169774
 20
-189.8356999251
  0
LWPOLYLINE
  5
14D
330
1F
100
AcDbEntity
  8
0
  6
Continuous
 62
     7
370
    25
100
AcDbPolyline
 90
       30
 70
   128
 43
0.0
 10
66.9367500552
 20
35.4379396914
 10
66.9437295022
 20
35.3661940463
 10
66.9645800727
 20
35.2953506444
 10
66.9990395585
 20
35.2263003825
 10
67.0466746118
 20
35.1599116077
 10
67.106886194
 20
35.0970191973
 10
67.1789171096
 20
35.03841406
 10
67.2618615281
 20
34.9848331893
 10
67.3546763751
 20
34.9369503958
 10
67.4561944503
 20
34.8953678333
 10
67.5651391048
 20
34.8606084267
 10
67.6801402964
 20
34.8331092958
 10
67.7997518185
 20
34.8132162581
 10
67.9224694867
 20
34.8011794799
 10
68.0467500552
 20
34.7971503309
 10
68.1710306237
 20
34.8011794799
 10
68.2937482919
 20
34.8132162581
 10
68.413359814
 20
34.8331092958
 10
68.5283610056
 20
34.8606084267
 10
68.6373056601
 20
34.8953678333
 10
68.7388237353
 20
34.9369503958
 10
68.8316385823
 20
34.9848331893
 10
68.9145830007
 20
35.03841406
 10
68.9866139163
 20
35.0970191973
 10
69.0468254986
 20
35.1599116077
 10
69.0944605518
 20
35.2263003825
 10
69.1289200377
 20
35.2953506444
 10
69.1497706082
 20
35.3661940463
 10
69.1567500552
 20
35.4379396914
 10
69.1567500552
 20
35.4379396914
  0
LWPOLYLINE
  5
14E
330
1F
100
AcDbEntity
  8
0
  6
Continuous
 62
     7
370
    25
100
AcDbPolyline
 90
       30
 70
   128
 43
0.0
 10
66.9367500552
 20
32.6943625634
 10
66.9437295022
 20
32.6226169184
 10
66.9645800727
 20
32.5517735165
 10
66.9990395585
 20
32.4827232546
 10
67.0466746118
 20
32.4163344797
 10
67.106886194
 20
32.3534420694
 10
67.1789171096
 20
32.2948369321
 10
67.2618615281
 20
32.2412560614
 10
67.3546763751
 20
32.1933732678
 10
67.4561944503
 20
32.1517907054
 10
67.5651391048
 20
32.1170312988
 10
67.6801402964
 20
32.0895321679
 10
67.7997518185
 20
32.0696391301
 10
67.9224694867
 20
32.057602352
 10
68.0467500552
 20
32.053573203
 10
68.1710306237
 20
32.057602352
 10
68.2937482919
 20
32.0696391301
 10
68.413359814
 20
32.0895321679
 10
68.5283610056
 20
32.1170312988
 10
68.6373056601
 20
32.1517907054
 10
68.7388237353
 20
32.1933732678
 10
68.8316385823
 20
32.2412560614
 10
68.9145830007
 20
32.2948369321
 10
68.9866139163
 20
32.3534420694
 10
69.0468254986
 20
32.4163344797
 10
69.0944605518
 20
32.4827232546
 10
69.1289200377
 20
32.5517735165
 10
69.1497706082
 20
32.6226169184
 10
69.1567500552
 20
32.6943625634
 10
69.1567500552
 20
32.6943625634
  0
LINE
  5
14F
330
1F
100
AcDbEntity
  8
0
  6
Continuous
 62
     7
370
    25
100
AcDbLine
 10
68.1167418609
 20
-195.4170900776
 30
0.0
 11
68.1167418609
 21
-193.0068878882
 31
0.0
  0
LWPOLYLINE
  5
150
330
1F
100
AcDbEntity
  8
0
  6
Continuous
 62
     7
370
    25
100
AcDbPolyline
 90
        9
 70
   128
 43
0.0
 10
68.1167418609
 20
-195.4170900776
 10
68.1108946045
 20
-195.4326510487
 10
68.0950881957
 20
-195.4457000084
 10
68.0717767548
 20
-195.454210961
 10
68.0445796413
 20
-195.4568624868
 10
68.0177195086
 20
-195.4532429069
 10
67.9953666901
 20
-195.4439142014
 10
67.9809917086
 20
-195.4303247551
 10
67.9767500552
 20
-195.4164717761
  0
LWPOLYLINE
  5
151
330
1F
100
AcDbEntity
  8
0
  6
Continuous
 62
     7
370
    25
100
AcDbPolyline
 90
       11
 70
   128
 43
0.0
 10
68.092486755
 20
-192.997440983
 10
68.0717767548
 20
-193.0045885254
 10
68.0445796413
 20
-193.0072400511
 10
68.0177195086
 20
-193.0036204713
 10
67.9953666901
 20
-192.9942917657
 10
67.9809917086
 20
-192.9807023194
 10
67.9768264395
 20
-192.9649620445
 10
67.9835175869
 20
-192.9495147933
 10
68.000026276
 20
-192.9367589226
 10
68.0237893498
 20
-192.9286749229
 10
68.0457667483
 20
-192.9264431878
  0
LWPOLYLINE
  5
152
330
1F
100
AcDbEntity
  8
0
  6
Continuous
 62
     7
370
    25
100
AcDbPolyline
 90
        8
 70
   128
 43
0.0
 10
68.2482667483
 20
-195.3887658181
 10
68.2481903639
 20
-195.390653114
 10
68.2414992165
 20
-195.4061003653
 10
68.2249905274
 20
-195.4188562359
 10
68.2012274537
 20
-195.4269402356
 10
68.1738994758
 20
-195.4290972338
 10
68.1472495654
 20
-195.4249923326
 10
68.1254154165
 20
-195.4152628634
  0
LINE
  5
153
330
1F
100
AcDbEntity
  8
0
  6
Continuous
 62
     7
370
    25
100
AcDbLine
 10
68.1254154165
 20
-195.4152628634
 30
0.0
 11
68.1254154165
 21
-193.0092855897
 31
0.0
  0
LINE
  5
154
330
1F
100
AcDbEntity
  8
0
  6
Continuous
 62
     7
370
    25
100
AcDbLine
 10
68.1254154165
 20
-195.4152628634
 30
0.0
 11
68.1167418609
 21
-195.4170900776
 31
0.0
  0
LWPOLYLINE
  5
155
330
1F
100
AcDbEntity
  8
0
  6
Continuous
 62
     7
370
    25
100
AcDbPolyline
 90
       32
 70
   128
 43
0.0
 10
67.2830747315
 20
36.1116575192
 10
67.3751049962
 20
36.0642768675
 10
67.4758911814
 20
36.0232611843
 10
67.5841193851
 20
35.9891451718
 10
67.698378687
 20
35.9623735844
 10
67.8171795425
 20
35.9432954307
 10
67.9389732007
 20
35.9321594235
 10
68.062171895
 20
35.9291107377
 10
68.185169542
 20
35.9341891177
 10
68.3063626794
 20
35.947328359
 10
68.4241713692
 20
35.9683571715
 10
68.5370597949
 20
35.9970014124
 10
68.6435562834
 20
36.0328876602
 10
68.74227249
 20
36.0755480829
 10
68.8319214979
 20
36.1244265366
 10
68.9113345954
 20
36.1788858159
 10
68.9794765112
 20
36.2382159608
 10
69.0354589111
 20
36.3016435122
 10
69.0785519792
 20
36.3683415948
 10
69.1081939312
 20
36.4374406973
 10
69.123998339
 20
36.508040007
 10
69.125759168
 20
36.5792191541
 10
69.113453463
 20
36.6500502096
 10
69.0872416479
 20
36.7196097822
 10
69.0474654336
 20
36.7869910565
 10
68.9946433639
 20
36.8513156147
 10
68.9294640554
 20
36.9117448878
 10
68.8527772199
 20
36.9674910876
 10
68.7655825877
 20
37.0178274774
 10
68.6690168741
 20
37.0620978452
 10
68.5643389608
 20
37.0997250591
 10
68.5467500552
 20
37.1051484039
  0
LWPOLYLINE
  5
156
330
1F
100
AcDbEntity
  8
0
  6
Continuous
 62
     7
370
    25
100
AcDbPolyline
 90
       18
 70
   128
 43
0.0
 10
67.5467500552
 20
37.1051484039
 10
67.5023041365
 20
37.0909694213
 10
67.3995301754
 20
37.0516319307
 10
67.3051937151
 20
37.0057877254
 10
67.2205245758
 20
36.9540344547
 10
67.1466265492
 20
36.8970468016
 10
67.0844630091
 20
36.8355676874
 10
67.0348443522
 20
36.7703985864
 10
66.9984174337
 20
36.7023890774
 10
66.9756571341
 20
36.6324257685
 10
66.9668601687
 20
36.5614207382
 10
66.9721412196
 20
36.4902996458
 10
66.9914314399
 20
36.4199896635
 10
67.0244793524
 20
36.3514073895
 10
67.0708541268
 20
36.2854468985
 10
67.1299511971
 20
36.2229680864
 10
67.2010001425
 20
36.1647854602
 10
67.2830747315
 20
36.1116575192
  0
LWPOLYLINE
  5
157
330
1F
100
AcDbEntity
  8
0
  6
Continuous
 62
     7
370
    25
100
AcDbPolyline
 90
       15
 70
   128
 43
0.0
 10
67.2618615281
 20
36.0749151732
 10
67.1789171096
 20
36.1284960439
 10
67.106886194
 20
36.1871011812
 10
67.0466746118
 20
36.2499935915
 10
66.9990395585
 20
36.3163823664
 10
66.9645800727
 20
36.3854326283
 10
66.9437295022
 20
36.4562760302
 10
66.9367500552
 20
36.5280216752
 10
66.9437295022
 20
36.5997673203
 10
66.9645800727
 20
36.6706107222
 10
66.9990395585
 20
36.7396609841
 10
67.0466746118
 20
36.8060497589
 10
67.106886194
 20
36.8689421693
 10
67.1789171096
 20
36.9275473066
 10
67.2617339927
 20
36.9810545407
  0
LWPOLYLINE
  5
158
330
1F
100
AcDbEntity
  8
0
  6
Continuous
 62
     7
370
    25
100
AcDbPolyline
 90
       29
 70
   128
 43
0.0
 10
68.8317661177
 20
36.9810545407
 10
68.9145830007
 20
36.9275473066
 10
68.9866139163
 20
36.8689421693
 10
69.0468254986
 20
36.8060497589
 10
69.0944605518
 20
36.7396609841
 10
69.1289200377
 20
36.6706107222
 10
69.1497706082
 20
36.5997673203
 10
69.1567500552
 20
36.5280216752
 10
69.1497706082
 20
36.4562760302
 10
69.1289200377
 20
36.3854326283
 10
69.0944605518
 20
36.3163823664
 10
69.0468254986
 20
36.2499935915
 10
68.9866139163
 20
36.1871011812
 10
68.9145830007
 20
36.1284960439
 10
68.8316385823
 20
36.0749151732
 10
68.7388237353
 20
36.0270323796
 10
68.6373056601
 20
35.9854498172
 10
68.5283610056
 20
35.9506904106
 10
68.413359814
 20
35.9231912797
 10
68.2937482919
 20
35.9032982419
 10
68.1710306237
 20
35.8912614638
 10
68.0467500552
 20
35.8872323148
 10
67.9224694867
 20
35.8912614638
 10
67.7997518185
 20
35.9032982419
 10
67.6801402964
 20
35.9231912797
 10
67.5651391048
 20
35.9506904106
 10
67.4561944503
 20
35.9854498172
 10
67.3546763751
 20
36.0270323796
 10
67.2618615281
 20
36.0749151732
  0
SPLINE
  5
159
330
1F
100
AcDbEntity
  8
0
  6
Continuous
 62
     7
370
    25
100
AcDbSpline
210
0.0
220
0.0
230
1.0
 70
    11
 71
     3
 72
    26
 73
    22
 74
     0
 42
0.00000001
 43
0.00000001
 40
0.0
 40
0.0
 40
0.0
 40
0.0
 40
0.0536200607839327
 40
0.1072376822530282
 40
0.1609185883661146
 40
0.2146408563604085
 40
0.2682944511770173
 40
0.3218767096526395
 40
0.3754958818586663
 40
0.4292028051159801
 40
0.4829116531775817
 40
0.5365331513008985
 40
0.5901144855235967
 40
0.6437653861511294
 40
0.6974870899191767
 40
0.751170428207363
 40
0.8047662990509722
 40
0.8583618717573608
 40
0.9120446244252597
 40
0.9657664953707733
 40
1.0
 40
1.0
 40
1.0
 40
1.0
 10
67.82568346781636
 20
35.01412235709604
 30
0.0
 10
67.82494638630904
 20
35.02044518107648
 30
0.0
 10
67.82347225682612
 20
35.03309054139577
 30
0.0
 10
67.81200312505197
 20
35.05107717473081
 30
0.0
 10
67.7951637313212
 20
35.065884245693
 30
0.0
 10
67.7742163203565
 20
35.07605017399346
 30
0.0
 10
67.75176792260869
 20
35.08049076302324
 30
0.0
 10
67.73031673208487
 20
35.07873797650924
 30
0.0
 10
67.71223367039266
 20
35.07092417805659
 30
0.0
 10
67.69948172294585
 20
35.05778519329957
 30
0.0
 10
67.69345955050636
 20
35.04066845489438
 30
0.0
 10
67.69481486777902
 20
35.02145256664745
 30
0.0
 10
67.7033831724799
 20
35.00232072027692
 30
0.0
 10
67.71825126299329
 20
34.98549972565802
 30
0.0
 10
67.73782821068485
 20
34.97301652673668
 30
0.0
 10
67.75995228922953
 20
34.96640997228146
 30
0.0
 10
67.78211836928237
 20
34.96646260750578
 30
0.0
 10
67.80186216099571
 20
34.97310445758217
 30
0.0
 10
67.8167861779868
 20
34.98549220771811
 30
0.0
 10
67.8245954027944
 20
35.00008319738852
 30
0.0
 10
67.82537862600994
 20
35.01018902340778
 30
0.0
 10
67.82568346781636
 20
35.01412235709604
 30
0.0
  0
LWPOLYLINE
  5
15A
330
1F
100
AcDbEntity
  8
0
  6
Continuous
 62
     7
370
    25
100
AcDbPolyline
 90
       29
 70
   128
 43
0.0
 10
69.1567500552
 20
35.4379396914
 10
69.1497706082
 20
35.3661940463
 10
69.1289200377
 20
35.2953506444
 10
69.0944605518
 20
35.2263003825
 10
69.0468254986
 20
35.1599116077
 10
68.9866139163
 20
35.0970191973
 10
68.9145830007
 20
35.03841406
 10
68.8316385823
 20
34.9848331893
 10
68.7388237353
 20
34.9369503958
 10
68.6373056601
 20
34.8953678333
 10
68.5283610056
 20
34.8606084267
 10
68.413359814
 20
34.8331092958
 10
68.2937482919
 20
34.8132162581
 10
68.1710306237
 20
34.8011794799
 10
68.0467500552
 20
34.7971503309
 10
67.9224694867
 20
34.8011794799
 10
67.7997518185
 20
34.8132162581
 10
67.6801402964
 20
34.8331092958
 10
67.5651391048
 20
34.8606084267
 10
67.4561944503
 20
34.8953678333
 10
67.3546763751
 20
34.9369503958
 10
67.2618615281
 20
34.9848331893
 10
67.1789171096
 20
35.03841406
 10
67.106886194
 20
35.0970191973
 10
67.0466746118
 20
35.1599116077
 10
66.9990395585
 20
35.2263003825
 10
66.9645800727
 20
35.2953506444
 10
66.9437295022
 20
35.3661940463
 10
66.9367500552
 20
35.4379396914
  0
LWPOLYLINE
  5
15B
330
1F
100
AcDbEntity
  8
0
  6
Continuous
 62
     7
370
    25
100
AcDbPolyline
 90
       35
 70
   128
 43
0.0
 10
65.9884421903
 20
25.6017373125
 10
66.1373988028
 20
25.5226316212
 10
66.2954543435
 20
25.4496470224
 10
66.4618556058
 20
25.383131321
 10
66.6358096119
 20
25.3234014946
 10
66.8164873918
 20
25.270742183
 10
67.0030279335
 20
25.2254043318
 10
67.1945422864
 20
25.1876039966
 10
67.3901177975
 20
25.1575213131
 10
67.5888224603
 20
25.135299639
 10
67.7897093566
 20
25.1210448708
 10
67.9918211689
 20
25.1148249389
 10
68.1941947423
 20
25.116669484
 10
68.3958656747
 20
25.1265697162
 10
68.5958729122
 20
25.1444784562
 10
68.7932633292
 20
25.1703103608
 10
68.9870962704
 20
25.2039423292
 10
69.1764480337
 20
25.2452140898
 10
69.3604162717
 20
25.2939289637
 10
69.538124292
 20
25.3498548026
 10
69.7087252348
 20
25.4127250942
 10
69.871406109
 20
25.4822402329
 10
70.0253916662
 20
25.5580689476
 10
70.1699480951
 20
25.6398498799
 10
70.3043865184
 20
25.7271933062
 10
70.4280662758
 20
25.8196829956
 10
70.540397977
 20
25.9168781924
 10
70.6408463102
 20
26.0183157173
 10
70.7289325934
 20
26.1235121743
 10
70.8042370554
 20
26.2319662543
 10
70.8664008361
 20
26.3431611243
 10
70.9151276967
 20
26.4565668902
 10
70.9501854316
 20
26.5716431217
 10
70.9714069748
 20
26.6878414282
 10
70.9778006889
 20
26.7653158227
  0
LWPOLYLINE
  5
15C
330
1F
100
AcDbEntity
  8
0
  6
Continuous
 62
     7
370
    25
100
AcDbPolyline
 90
       13
 70
   128
 43
0.0
 10
65.1156994215
 20
26.7653158227
 10
65.1164067487
 20
26.7511759554
 10
65.1300727875
 20
26.634600264
 10
65.1576381218
 20
26.5188466282
 10
65.1989713902
 20
26.4044666667
 10
65.2538756207
 20
26.2920054522
 10
65.3220891698
 20
26.1819989136
 10
65.4032869689
 20
26.0749712821
 10
65.4970820733
 20
25.9714325931
 10
65.6030275068
 20
25.8718762556
 10
65.7206183911
 20
25.7767767009
 10
65.8492943522
 20
25.6865871218
 10
65.9884421903
 20
25.6017373125
  0
LWPOLYLINE
  5
15D
330
1F
100
AcDbEntity
  8
0
  6
Continuous
 62
     7
370
    25
100
AcDbPolyline
 90
       53
 70
   128
 43
0.0
 10
65.9669912432
 20
26.3036486304
 10
66.115813498
 20
26.2245547492
 10
66.2736386704
 20
26.1515081823
 10
66.4397309066
 20
26.0848495064
 10
66.6133158078
 20
26.0248895151
 10
66.7935840413
 20
25.9719077695
 10
66.9796951131
 20
25.926151295
 10
67.1707812877
 20
25.8878334293
 10
67.3659516331
 20
25.8571328281
 10
67.5642961749
 20
25.8341926317
 10
67.7648901395
 20
25.819119798
 10
67.9667982651
 20
25.8119846034
 10
68.1690791628
 20
25.8128203154
 10
68.3707897058
 20
25.8216230377
 10
68.5709894264
 20
25.8383517279
 10
68.768744901
 20
25.862928389
 10
68.9631341023
 20
25.8952384334
 10
69.1532506982
 20
25.9351312167
 10
69.3382082773
 20
25.9824207403
 10
69.517144482
 20
26.0368865187
 10
69.6892250292
 20
26.0982746073
 10
69.8536475998
 20
26.1662987864
 10
70.00964558
 20
26.2406418958
 10
70.1564916351
 20
26.3209573139
 10
70.2935011011
 20
26.4068705728
 10
70.4200351765
 20
26.4979811055
 10
70.5355039012
 20
26.5938641125
 10
70.6393689066
 20
26.694072543
 10
70.7311459261
 20
26.7981391791
 10
70.8104070528
 20
26.905578814
 10
70.8767827349
 20
27.0158905145
 10
70.9299634983
 20
27.1285599566
 10
70.9697013896
 20
27.2430618234
 10
70.9958111325
 20
27.3588622543
 10
71.0081709914
 20
27.4754213341
 10
71.0067233388
 20
27.5921956108
 10
70.9914749243
 20
27.7086406287
 10
70.9624968432
 20
27.8242134673
 10
70.9199242046
 20
27.9383752728
 10
70.8639555018
 20
28.0505937701
 10
70.7948516867
 20
28.1603457448
 10
70.7129349532
 20
28.2671194824
 10
70.618587235
 20
28.3704171547
 10
70.5122484246
 20
28.46975714
 10
70.3944143228
 20
28.5646762696
 10
70.2656343264
 20
28.6547319867
 10
70.1265088672
 20
28.7395044099
 10
69.9776866124
 20
28.818598291
 10
69.81986144
 20
28.8916448579
 10
69.6537692038
 20
28.9583035338
 10
69.4801843025
 20
29.0182635251
 10
69.2999160691
 20
29.0712452708
 10
69.2342500552
 20
29.0883836545
  0
LWPOLYLINE
  5
15E
330
1F
100
AcDbEntity
  8
0
  6
Continuous
 62
     7
370
    25
100
AcDbPolyline
 90
       30
 70
   128
 43
0.0
 10
66.8592500552
 20
29.0883836545
 10
66.7552918331
 20
29.0607322999
 10
66.5763556283
 20
29.0062665215
 10
66.4042750812
 20
28.944878433
 10
66.2398525106
 20
28.8768542539
 10
66.0838545304
 20
28.8025111444
 10
65.9370084753
 20
28.7221957264
 10
65.7999990093
 20
28.6362824674
 10
65.6734649339
 20
28.5451719347
 10
65.5579962092
 20
28.4492889277
 10
65.4541312038
 20
28.3490804972
 10
65.3623541843
 20
28.2450138612
 10
65.2830930575
 20
28.1375742263
 10
65.2167173754
 20
28.0272625258
 10
65.1635366121
 20
27.9145930836
 10
65.1237987208
 20
27.8000912168
 10
65.0976889778
 20
27.684290786
 10
65.085329119
 20
27.5677317061
 10
65.0867767716
 20
27.4509574294
 10
65.1020251861
 20
27.3345124116
 10
65.1310032672
 20
27.218939573
 10
65.1735759058
 20
27.1047777675
 10
65.2295446086
 20
26.9925592702
 10
65.2986484237
 20
26.8828072955
 10
65.3805651572
 20
26.7760335578
 10
65.4749128754
 20
26.6727358856
 10
65.5812516857
 20
26.5733959002
 10
65.6990857876
 20
26.4784767706
 10
65.827865784
 20
26.3884210536
 10
65.9669912432
 20
26.3036486304
  0
ARC
  5
15F
330
1F
100
AcDbEntity
  8
0
  6
Continuous
 62
     7
370
    25
100
AcDbCircle
 10
67.2846344118
 20
27.4986428608
 30
0.0
 40
0.5080879312461214
100
AcDbArc
 50
146.8483266352
 51
165.2431271071
  0
SPLINE
  5
160
330
1F
100
AcDbEntity
  8
0
  6
Continuous
 62
     7
370
    25
100
AcDbSpline
210
0.0
220
0.0
230
1.0
 70
     8
 71
     3
 72
    12
 73
     8
 74
     0
 42
0.00000001
 43
0.00000001
 40
0.0
 40
0.0
 40
0.0
 40
0.0
 40
0.114031072054568
 40
0.329784230846847
 40
0.545347267357912
 40
0.7607940999646109
 40
1.0
 40
1.0
 40
1.0
 40
1.0
 10
66.84351495828447
 20
27.58880758944506
 30
0.0
 10
66.8400337184663
 20
27.58922704958609
 30
0.0
 10
66.82996577842903
 20
27.59044015174752
 30
0.0
 10
66.81475568728001
 20
27.59535242004373
 30
0.0
 10
66.80111552651378
 20
27.60409481786266
 30
0.0
 10
66.79247778739057
 20
27.61545710565918
 30
0.0
 10
66.79302018904666
 20
27.62371648084277
 30
0.0
 10
66.79330556218315
 20
27.62806197605851
 30
0.0
  0
SPLINE
  5
161
330
1F
100
AcDbEntity
  8
0
  6
Continuous
 62
     7
370
    25
100
AcDbSpline
210
0.0
220
0.0
230
1.0
 70
     8
 71
     3
 72
     9
 73
     5
 74
     0
 42
0.00000001
 43
0.00000001
 40
0.0
 40
0.0
 40
0.0
 40
0.0
 40
0.7789335276106139
 40
1.0
 40
1.0
 40
1.0
 40
1.0
 10
66.85925005518921
 20
27.58560762983345
 30
0.0
 10
66.85531202461206
 20
27.58673134752096
 30
0.0
 10
66.85025635498488
 20
27.58817398369938
 30
0.0
 10
66.84473544612952
 20
27.58869287907486
 30
0.0
 10
66.84351495828447
 20
27.58880758944506
 30
0.0
  0
SPLINE
  5
162
330
1F
100
AcDbEntity
  8
0
  6
Continuous
 62
     7
370
    25
100
AcDbSpline
210
0.0
220
0.0
230
1.0
 70
     8
 71
     3
 72
     9
 73
     5
 74
     0
 42
0.00000001
 43
0.00000001
 40
0.0
 40
0.0
 40
0.0
 40
0.0
 40
0.914668592638735
 40
1.0
 40
1.0
 40
1.0
 40
1.0
 10
66.84530504948869
 20
27.44441065122352
 30
0.0
 10
66.85213952273057
 20
27.44516446845693
 30
0.0
 10
66.85961159873374
 20
27.44598861092721
 30
0.0
 10
66.86529873636555
 20
27.44868093826673
 30
0.0
 10
66.86578402782352
 20
27.44891067834769
 30
0.0
  0
SPLINE
  5
163
330
1F
100
AcDbEntity
  8
0
  6
Continuous
 62
     7
370
    25
100
AcDbSpline
210
0.0
220
0.0
230
1.0
 70
     8
 71
     3
 72
    12
 73
     8
 74
     0
 42
0.00000001
 43
0.00000001
 40
0.0
 40
0.0
 40
0.0
 40
0.0
 40
0.2156883841321154
 40
0.4313850930992952
 40
0.6468917445480507
 40
0.8622822096388236
 40
1.0
 40
1.0
 40
1.0
 40
1.0
 10
66.79607402102974
 20
27.40474543213056
 30
0.0
 10
66.79565055664453
 20
27.40865054349551
 30
0.0
 10
66.79480361152983
 20
27.41646091694938
 30
0.0
 10
66.80214006062138
 20
27.42765866652434
 30
0.0
 10
66.81499704098132
 20
27.43678757107172
 30
0.0
 10
66.83037995667014
 20
27.44238840374355
 30
0.0
 10
66.84111731165073
 20
27.44384324153351
 30
0.0
 10
66.84530504948869
 20
27.44441065122352
 30
0.0
  0
ARC
  5
164
330
1F
100
AcDbEntity
  8
0
  6
Continuous
 62
     7
370
    25
100
AcDbCircle
 10
67.3989685107
 20
27.6007215747
 30
0.0
 40
0.6339466966311624
100
AcDbArc
 50
198.0072072504
 51
234.4073057164
  0
SPLINE
  5
165
330
1F
100
AcDbEntity
  8
0
  6
Continuous
 62
     7
370
    25
100
AcDbSpline
210
0.0
220
0.0
230
1.0
 70
     8
 71
     3
 72
    12
 73
     8
 74
     0
 42
0.00000001
 43
0.00000001
 40
0.0
 40
0.0
 40
0.0
 40
0.0
 40
0.1140310720545303
 40
0.3297842308467597
 40
0.5453472673578053
 40
0.7607940999646302
 40
1.0
 40
1.0
 40
1.0
 40
1.0
 10
67.1135845286868
 20
27.07795061837722
 30
0.0
 10
67.11060913307801
 20
27.076826165274
 30
0.0
 10
67.10200412275385
 20
27.07357418408073
 30
0.0
 10
67.08523203681062
 20
27.07083886140618
 30
0.0
 10
67.06487861947008
 20
27.07145270123973
 30
0.0
 10
67.0448534038753
 20
27.07596109184642
 30
0.0
 10
67.03512021619939
 20
27.08202276260306
 30
0.0
 10
67.02999930577464
 20
27.08521198220949
 30
0.0
  0
SPLINE
  5
166
330
1F
100
AcDbEntity
  8
0
  6
Continuous
 62
     7
370
    25
100
AcDbSpline
210
0.0
220
0.0
230
1.0
 70
     8
 71
     3
 72
     9
 73
     5
 74
     0
 42
0.00000001
 43
0.00000001
 40
0.0
 40
0.0
 40
0.0
 40
0.0
 40
0.8321870323121958
 40
1.0
 40
1.0
 40
1.0
 40
1.0
 10
67.13351773504077
 20
27.08331300468248
 30
0.0
 10
67.12764588727603
 20
27.08218529044953
 30
0.0
 10
67.12058996410403
 20
27.0808301693179
 30
0.0
 10
67.11459119922381
 20
27.07836440551808
 30
0.0
 10
67.1135845286868
 20
27.07795061837722
 30
0.0
  0
SPLINE
  5
167
330
1F
100
AcDbEntity
  8
0
  6
Continuous
 62
     7
370
    25
100
AcDbSpline
210
0.0
220
0.0
230
1.0
 70
     8
 71
     3
 72
     9
 73
     5
 74
     0
 42
0.00000001
 43
0.00000001
 40
0.0
 40
0.0
 40
0.0
 40
0.0
 40
0.9146685926387194
 40
1.0
 40
1.0
 40
1.0
 40
1.0
 10
67.29171888792601
 20
26.9765772866682
 30
0.0
 10
67.29562825646545
 20
26.97990017564308
 30
0.0
 10
67.29990233843449
 20
26.98353306410303
 30
0.0
 10
67.3006259805979
 20
26.98775833966981
 30
0.0
 10
67.30068773000214
 20
26.98811888838042
 30
0.0
  0
SPLINE
  5
168
330
1F
100
AcDbEntity
  8
0
  6
Continuous
 62
     7
370
    25
100
AcDbSpline
210
0.0
220
0.0
230
1.0
 70
     8
 71
     3
 72
    12
 73
     8
 74
     0
 42
0.00000001
 43
0.00000001
 40
0.0
 40
0.0
 40
0.0
 40
0.0
 40
0.2156883841321371
 40
0.4313850930993522
 40
0.6468917445480215
 40
0.8622822096387623
 40
1.0
 40
1.0
 40
1.0
 40
1.0
 10
67.30549233180467
 20
26.92843343577669
 30
0.0
 10
67.30040961387114
 20
26.93102190662456
 30
0.0
 10
67.29024398182852
 20
26.93619894822643
 30
0.0
 10
67.28171576222458
 20
26.94711172116007
 30
0.0
 10
67.27962522962657
 20
26.95881510300003
 30
0.0
 10
67.28364225920267
 20
26.9690548583385
 30
0.0
 10
67.28945271751628
 20
26.97446661585813
 30
0.0
 10
67.29171888792601
 20
26.9765772866682
 30
0.0
  0
ARC
  5
169
330
1F
100
AcDbEntity
  8
0
  6
Continuous
 62
     7
370
    25
100
AcDbCircle
 10
68.0058122028
 20
28.6640175485
 30
0.0
 40
1.871550195476445
100
AcDbArc
 50
248.0255925923
 51
265.6019392401
  0
SPLINE
  5
16A
330
1F
100
AcDbEntity
  8
0
  6
Continuous
 62
     7
370
    25
100
AcDbSpline
210
0.0
220
0.0
230
1.0
 70
     8
 71
     3
 72
    12
 73
     8
 74
     0
 42
0.00000001
 43
0.00000001
 40
0.0
 40
0.0
 40
0.0
 40
0.0
 40
0.1140310720545114
 40
0.3297842308467666
 40
0.5453472673578412
 40
0.7607940999646198
 40
1.0
 40
1.0
 40
1.0
 40
1.0
 10
67.9302898085752
 20
26.82696368393518
 30
0.0
 10
67.92956320357001
 20
26.82495400696532
 30
0.0
 10
67.92746182130249
 20
26.81914190889579
 30
0.0
 10
67.91895260104131
 20
26.81036131017576
 30
0.0
 10
67.90380868296387
 20
26.80248701297456
 30
0.0
 10
67.88412649060355
 20
26.79750055231851
 30
0.0
 10
67.86981928293105
 20
26.7978136741296
 30
0.0
 10
67.86229184882018
 20
26.79797841653465
 30
0.0
  0
SPLINE
  5
16B
330
1F
100
AcDbEntity
  8
0
  6
Continuous
 62
     7
370
    25
100
AcDbSpline
210
0.0
220
0.0
230
1.0
 70
     8
 71
     3
 72
     9
 73
     5
 74
     0
 42
0.00000001
 43
0.00000001
 40
0.0
 40
0.0
 40
0.0
 40
0.0
 40
0.8321870323126267
 40
1.0
 40
1.0
 40
1.0
 40
1.0
 10
67.9378164471477
 20
26.83889227933599
 30
0.0
 10
67.93504573566638
 20
26.83569795288137
 30
0.0
 10
67.93171630204903
 20
26.83185948108284
 30
0.0
 10
67.93049479354269
 20
26.82766720262462
 30
0.0
 10
67.9302898085752
 20
26.82696368393518
 30
0.0
  0
SPLINE
  5
16C
330
1F
100
AcDbEntity
  8
0
  6
Continuous
 62
     7
370
    25
100
AcDbSpline
210
0.0
220
0.0
230
1.0
 70
     8
 71
     3
 72
     9
 73
     5
 74
     0
 42
0.00000001
 43
0.00000001
 40
0.0
 40
0.0
 40
0.0
 40
0.0
 40
0.9146685926385937
 40
1.0
 40
1.0
 40
1.0
 40
1.0
 10
68.18041974413173
 20
26.82799708159088
 30
0.0
 10
68.17911395289863
 20
26.831942539012
 30
0.0
 10
68.17768634158278
 20
26.83625607667239
 30
0.0
 10
68.17302258851278
 20
26.83953919134418
 30
0.0
 10
68.17262462389972
 20
26.83981934413965
 30
0.0
  0
SPLINE
  5
16D
330
1F
100
AcDbEntity
  8
0
  6
Continuous
 62
     7
370
    25
100
AcDbSpline
210
0.0
220
0.0
230
1.0
 70
     8
 71
     3
 72
    12
 73
     8
 74
     0
 42
0.00000001
 43
0.00000001
 40
0.0
 40
0.0
 40
0.0
 40
0.0
 40
0.2156883841321268
 40
0.4313850930993203
 40
0.6468917445480319
 40
0.8622822096388465
 40
1.0
 40
1.0
 40
1.0
 40
1.0
 10
68.24912936372446
 20
26.79957661380819
 30
0.0
 10
68.24236477947436
 20
26.79933215302211
 30
0.0
 10
68.2288353498843
 20
26.79884322201458
 30
0.0
 10
68.20943817696596
 20
26.80307846392548
 30
0.0
 10
68.1936247370533
 20
26.81050064070179
 30
0.0
 10
68.18392275907148
 20
26.819381008905
 30
0.0
 10
68.18140263304159
 20
26.82557955199559
 30
0.0
 10
68.18041974413173
 20
26.82799708159088
 30
0.0
  0
ARC
  5
16E
330
1F
100
AcDbEntity
  8
0
  6
Continuous
 62
     7
370
    25
100
AcDbCircle
 10
68.0924395227
 20
28.6436886505
 30
0.0
 40
1.850756847959196
100
AcDbArc
 50
274.8566219185
 51
292.5651563821
  0
SPLINE
  5
16F
330
1F
100
AcDbEntity
  8
0
  6
Continuous
 62
     7
370
    25
100
AcDbSpline
210
0.0
220
0.0
230
1.0
 70
     8
 71
     3
 72
    12
 73
     8
 74
     0
 42
0.00000001
 43
0.00000001
 40
0.0
 40
0.0
 40
0.0
 40
0.0
 40
0.1140310720544801
 40
0.3297842308468162
 40
0.5453472673578252
 40
0.7607940999645693
 40
1.0
 40
1.0
 40
1.0
 40
1.0
 10
68.81521592145276
 20
26.98287152833665
 30
0.0
 10
68.81716374240872
 20
26.98115386901312
 30
0.0
 10
68.82279694943043
 20
26.9761863022906
 30
0.0
 10
68.82753518067507
 20
26.96650398316954
 30
0.0
 10
68.82647186368305
 20
26.95475420543989
 30
0.0
 10
68.81866225590461
 20
26.94319389454516
 30
0.0
 10
68.80816199645038
 20
26.93757504490044
 30
0.0
 10
68.80263750746566
 20
26.93461880623753
 30
0.0
  0
SPLINE
  5
170
330
1F
100
AcDbEntity
  8
0
  6
Continuous
 62
     7
370
    25
100
AcDbSpline
210
0.0
220
0.0
230
1.0
 70
     8
 71
     3
 72
     9
 73
     5
 74
     0
 42
0.00000001
 43
0.00000001
 40
0.0
 40
0.0
 40
0.0
 40
0.0
 40
0.8321870323122781
 40
1.0
 40
1.0
 40
1.0
 40
1.0
 10
68.8059269894471
 20
26.99437872342726
 30
0.0
 10
68.80788045945754
 20
26.99098897786544
 30
0.0
 10
68.81022785245284
 20
26.98691568012083
 30
0.0
 10
68.81449914343688
 20
26.98345266686779
 30
0.0
 10
68.81521592145276
 20
26.98287152833665
 30
0.0
  0
SPLINE
  5
171
330
1F
100
AcDbEntity
  8
0
  6
Continuous
 62
     7
370
    25
100
AcDbSpline
210
0.0
220
0.0
230
1.0
 70
     8
 71
     3
 72
     9
 73
     5
 74
     0
 42
0.00000001
 43
0.00000001
 40
0.0
 40
0.0
 40
0.0
 40
0.0
 40
0.9146685926381805
 40
1.0
 40
1.0
 40
1.0
 40
1.0
 10
68.9908187094331
 20
27.08570630502569
 30
0.0
 10
68.98506267322219
 20
27.08796313544552
 30
0.0
 10
68.97876964396849
 20
27.0904305104467
 30
0.0
 10
68.97145045896191
 20
27.09084826017558
 30
0.0
 10
68.97082590260455
 20
27.09088390734787
 30
0.0
  0
SPLINE
  5
172
330
1F
100
AcDbEntity
  8
0
  6
Continuous
 62
     7
370
    25
100
AcDbSpline
210
0.0
220
0.0
230
1.0
 70
     8
 71
     3
 72
    12
 73
     8
 74
     0
 42
0.00000001
 43
0.00000001
 40
0.0
 40
0.0
 40
0.0
 40
0.0
 40
0.2156883841322614
 40
0.4313850930994496
 40
0.6468917445480682
 40
0.8622822096388153
 40
1.0
 40
1.0
 40
1.0
 40
1.0
 10
69.074215341448
 20
27.09365754492994
 30
0.0
 10
69.0697314925912
 20
27.09072335432292
 30
0.0
 10
69.06076362181636
 20
27.08485485985914
 30
0.0
 10
69.0418600964075
 20
27.07993162347581
 30
0.0
 10
69.02158704781328
 20
27.07872478469526
 30
0.0
 10
69.00384934939342
 20
27.08104376650863
 30
0.0
 10
68.99447489466947
 20
27.08439807269466
 30
0.0
 10
68.9908187094331
 20
27.08570630502569
 30
0.0
  0
ARC
  5
173
330
1F
100
AcDbEntity
  8
0
  6
Continuous
 62
     7
370
    25
100
AcDbCircle
 10
68.7062672227
 20
27.5924906441
 30
0.0
 40
0.6198550467297241
100
AcDbArc
 50
306.41314194
 51
343.3696913784
  0
SPLINE
  5
174
330
1F
100
AcDbEntity
  8
0
  6
Continuous
 62
     7
370
    25
100
AcDbSpline
210
0.0
220
0.0
230
1.0
 70
     8
 71
     3
 72
    12
 73
     8
 74
     0
 42
0.00000001
 43
0.00000001
 40
0.0
 40
0.0
 40
0.0
 40
0.0
 40
0.1140310720545606
 40
0.3297842308468729
 40
0.5453472673579478
 40
0.7607940999646312
 40
1.0
 40
1.0
 40
1.0
 40
1.0
 10
69.24998515209393
 20
27.4543454508116
 30
0.0
 10
69.2534663919121
 20
27.45392599067058
 30
0.0
 10
69.26353433194939
 20
27.45271288850914
 30
0.0
 10
69.2787444230984
 20
27.44780062021293
 30
0.0
 10
69.2923845838646
 20
27.439058222394
 30
0.0
 10
69.30102232298783
 20
27.42769593459748
 30
0.0
 10
69.30047992133174
 20
27.41943655941389
 30
0.0
 10
69.30019454819526
 20
27.41509106419815
 30
0.0
  0
SPLINE
  5
175
330
1F
100
AcDbEntity
  8
0
  6
Continuous
 62
     7
370
    25
100
AcDbSpline
210
0.0
220
0.0
230
1.0
 70
     8
 71
     3
 72
     9
 73
     5
 74
     0
 42
0.00000001
 43
0.00000001
 40
0.0
 40
0.0
 40
0.0
 40
0.0
 40
0.832187032312729
 40
0.9999999999999999
 40
0.9999999999999999
 40
0.9999999999999999
 40
0.9999999999999999
 10
69.22932197989904
 20
27.45869048677282
 30
0.0
 10
69.23485531516282
 20
27.45709098908093
 30
0.0
 10
69.24150446379038
 20
27.45516894796543
 30
0.0
 10
69.24876648993514
 20
27.45446378611451
 30
0.0
 10
69.24998515209393
 20
27.4543454508116
 30
0.0
  0
LINE
  5
176
330
1F
100
AcDbEntity
  8
0
  6
Continuous
 62
     7
370
    25
100
AcDbLine
 10
69.2481950609
 20
27.598742389
 30
0.0
 11
69.2342500552
 21
27.5959369646
 31
0.0
  0
SPLINE
  5
177
330
1F
100
AcDbEntity
  8
0
  6
Continuous
 62
     7
370
    25
100
AcDbSpline
210
0.0
220
0.0
230
1.0
 70
     8
 71
     3
 72
    12
 73
     8
 74
     0
 42
0.00000001
 43
0.00000001
 40
0.0
 40
0.0
 40
0.0
 40
0.0
 40
0.2156883841321344
 40
0.4313850930993465
 40
0.6468917445479779
 40
0.8622822096388946
 40
1.0
 40
1.0
 40
1.0
 40
1.0
 10
69.29742608934868
 20
27.6384076081261
 30
0.0
 10
69.29784955373387
 20
27.63450249676115
 30
0.0
 10
69.29869649884856
 20
27.62669212330729
 30
0.0
 10
69.29136004975702
 20
27.61549437373233
 30
0.0
 10
69.27850306939709
 20
27.60636546918495
 30
0.0
 10
69.26312015370826
 20
27.60076463651311
 30
0.0
 10
69.25238279872767
 20
27.59930979872316
 30
0.0
 10
69.24819506088973
 20
27.59874238903314
 30
0.0
  0
ARC
  5
178
330
1F
100
AcDbEntity
  8
0
  6
Continuous
 62
     7
370
    25
100
AcDbCircle
 10
68.8033343016
 20
27.4958511476
 30
0.0
 40
0.5142460880923282
100
AcDbArc
 50
16.0940261215
 51
33.0750640906
  0
LWPOLYLINE
  5
179
330
1F
100
AcDbEntity
  8
0
  6
Continuous
 62
     7
370
    25
100
AcDbPolyline
 90
       21
 70
   128
 43
0.0
 10
69.6542148963
 20
26.4811474535
 10
69.6936509063
 20
26.4648546851
 10
69.7398781551
 20
26.456394399
 10
69.7883715974
 20
26.4565947469
 10
69.8343843573
 20
26.4654361174
 10
69.8734123851
 20
26.4820530555
 10
69.9016353457
 20
26.5048189795
 10
69.916290579
 20
26.5315054022
 10
69.9159435286
 20
26.5595000705
 10
69.9006281663
 20
26.5860626714
 10
69.8718436665
 20
26.6085930723
 10
69.8324076564
 20
26.6248858406
 10
69.7861804077
 20
26.6333461267
 10
69.7376869653
 20
26.6331457788
 10
69.6916742055
 20
26.6243044084
 10
69.6526461776
 20
26.6076874703
 10
69.624423217
 20
26.5849215463
 10
69.6097679837
 20
26.5582351236
 10
69.6101150341
 20
26.5302404552
 10
69.6254303964
 20
26.5036778544
 10
69.6542148963
 20
26.4811474535
  0
LWPOLYLINE
  5
17A
330
1F
100
AcDbEntity
  8
0
  6
Continuous
 62
     7
370
    25
100
AcDbPolyline
 90
       21
 70
   128
 43
0.0
 10
70.1710284956
 20
26.934652525
 10
70.2104645056
 20
26.9183597566
 10
70.2566917544
 20
26.9098994705
 10
70.3051851967
 20
26.9100998184
 10
70.3511979566
 20
26.9189411889
 10
70.3902259845
 20
26.935558127
 10
70.418448945
 20
26.958324051
 10
70.4331041783
 20
26.9850104737
 10
70.432757128
 20
27.013005142
 10
70.4174417657
 20
27.0395677429
 10
70.3886572658
 20
27.0620981438
 10
70.3492212558
 20
27.0783909122
 10
70.302994007
 20
27.0868511983
 10
70.2545005647
 20
27.0866508503
 10
70.2084878048
 20
27.0778094799
 10
70.1694597769
 20
27.0611925418
 10
70.1412368164
 20
27.0384266178
 10
70.1265815831
 20
27.0117401951
 10
70.1269286334
 20
26.9837455267
 10
70.1422439957
 20
26.9571829259
 10
70.1710284956
 20
26.934652525
  0
LWPOLYLINE
  5
17B
330
1F
100
AcDbEntity
  8
0
  6
Continuous
 62
     7
370
    25
100
AcDbPolyline
 90
       21
 70
   128
 43
0.0
 10
70.3478739553
 20
27.4678102342
 10
70.3873099653
 20
27.4515174658
 10
70.4335372141
 20
27.4430571797
 10
70.4820306564
 20
27.4432575276
 10
70.5280434163
 20
27.4520988981
 10
70.5670714441
 20
27.4687158362
 10
70.5952944047
 20
27.4914817602
 10
70.609949638
 20
27.5181681829
 10
70.6096025877
 20
27.5461628512
 10
70.5942872254
 20
27.5727254521
 10
70.5655027255
 20
27.595255853
 10
70.5260667155
 20
27.6115486214
 10
70.4798394667
 20
27.6200089075
 10
70.4313460244
 20
27.6198085596
 10
70.3853332645
 20
27.6109671891
 10
70.3463052366
 20
27.594350251
 10
70.318082276
 20
27.571584327
 10
70.3034270428
 20
27.5448979043
 10
70.3037740931
 20
27.516903236
 10
70.3190894554
 20
27.4903406351
 10
70.3478739553
 20
27.4678102342
  0
LWPOLYLINE
  5
17C
330
1F
100
AcDbEntity
  8
0
  6
Continuous
 62
     7
370
    25
100
AcDbPolyline
 90
       21
 70
   128
 43
0.0
 10
70.1578281572
 20
27.9994521529
 10
70.1972641672
 20
27.9831593846
 10
70.243491416
 20
27.9746990985
 10
70.2919848583
 20
27.9748994464
 10
70.3379976182
 20
27.9837408169
 10
70.3770256461
 20
28.000357755
 10
70.4052486066
 20
28.023123679
 10
70.4199038399
 20
28.0498101016
 10
70.4195567896
 20
28.07780477
 10
70.4042414273
 20
28.1043673709
 10
70.3754569274
 20
28.1268977718
 10
70.3360209174
 20
28.1431905401
 10
70.2897936686
 20
28.1516508262
 10
70.2413002263
 20
28.1514504783
 10
70.1952874664
 20
28.1426091079
 10
70.1562594385
 20
28.1259921698
 10
70.128036478
 20
28.1032262458
 10
70.1133812447
 20
28.0765398231
 10
70.113728295
 20
28.0485451547
 10
70.1290436573
 20
28.0219825539
 10
70.1578281572
 20
27.9994521529
  0
LWPOLYLINE
  5
17D
330
1F
100
AcDbEntity
  8
0
  6
Continuous
 62
     7
370
    25
100
AcDbPolyline
 90
       21
 70
   128
 43
0.0
 10
69.6298238513
 20
28.4486406185
 10
69.6692598614
 20
28.4323478501
 10
69.7154871101
 20
28.423887564
 10
69.7639805525
 20
28.424087912
 10
69.8099933123
 20
28.4329292824
 10
69.8490213402
 20
28.4495462205
 10
69.8772443008
 20
28.4723121445
 10
69.8918995341
 20
28.4989985672
 10
69.8915524837
 20
28.5269932355
 10
69.8762371214
 20
28.5535558364
 10
69.8474526215
 20
28.5760862373
 10
69.8080166115
 20
28.5923790057
 10
69.7617893627
 20
28.6008392918
 10
69.7132959204
 20
28.6006389439
 10
69.6672831605
 20
28.5917975734
 10
69.6282551327
 20
28.5751806353
 10
69.6000321721
 20
28.5524147113
 10
69.5853769388
 20
28.5257282886
 10
69.5857239892
 20
28.4977336203
 10
69.6010393515
 20
28.4711710194
 10
69.6298238513
 20
28.4486406185
  0
LWPOLYLINE
  5
17E
330
1F
100
AcDbEntity
  8
0
  6
Continuous
 62
     7
370
    25
100
AcDbPolyline
 90
       21
 70
   128
 43
0.0
 10
66.2216564439
 20
28.434559968
 10
66.261092454
 20
28.4182671996
 10
66.3073197027
 20
28.4098069135
 10
66.355813145
 20
28.4100072614
 10
66.4018259049
 20
28.4188486319
 10
66.4408539328
 20
28.43546557
 10
66.4690768934
 20
28.458231494
 10
66.4837321266
 20
28.4849179167
 10
66.4833850763
 20
28.512912585
 10
66.468069714
 20
28.5394751859
 10
66.4392852141
 20
28.5620055868
 10
66.3998492041
 20
28.5782983551
 10
66.3536219553
 20
28.5867586412
 10
66.305128513
 20
28.5865582933
 10
66.2591157531
 20
28.5777169229
 10
66.2200877253
 20
28.5610999848
 10
66.1918647647
 20
28.5383340608
 10
66.1772095314
 20
28.5116476381
 10
66.1775565817
 20
28.4836529697
 10
66.192871944
 20
28.4570903689
 10
66.2216564439
 20
28.434559968
  0
LWPOLYLINE
  5
17F
330
1F
100
AcDbEntity
  8
0
  6
Continuous
 62
     7
370
    25
100
AcDbPolyline
 90
       21
 70
   128
 43
0.0
 10
65.7048428446
 20
27.9810548964
 10
65.7442788546
 20
27.9647621281
 10
65.7905061034
 20
27.956301842
 10
65.8389995457
 20
27.9565021899
 10
65.8850123056
 20
27.9653435604
 10
65.9240403334
 20
27.9819604985
 10
65.952263294
 20
28.0047264225
 10
65.9669185273
 20
28.0314128451
 10
65.9665714769
 20
28.0594075135
 10
65.9512561146
 20
28.0859701144
 10
65.9224716148
 20
28.1085005153
 10
65.8830356047
 20
28.1247932836
 10
65.836808356
 20
28.1332535697
 10
65.7883149136
 20
28.1330532218
 10
65.7423021538
 20
28.1242118514
 10
65.7032741259
 20
28.1075949133
 10
65.6750511653
 20
28.0848289893
 10
65.660395932
 20
28.0581425666
 10
65.6607429824
 20
28.0301478982
 10
65.6760583447
 20
28.0035852974
 10
65.7048428446
 20
27.9810548964
  0
LWPOLYLINE
  5
180
330
1F
100
AcDbEntity
  8
0
  6
Continuous
 62
     7
370
    25
100
AcDbPolyline
 90
       21
 70
   128
 43
0.0
 10
65.5279973849
 20
27.4478971872
 10
65.5674333949
 20
27.4316044189
 10
65.6136606437
 20
27.4231441328
 10
65.662154086
 20
27.4233444807
 10
65.7081668459
 20
27.4321858512
 10
65.7471948737
 20
27.4488027892
 10
65.7754178343
 20
27.4715687132
 10
65.7900730676
 20
27.4982551359
 10
65.7897260173
 20
27.5262498043
 10
65.774410655
 20
27.5528124052
 10
65.7456261551
 20
27.5753428061
 10
65.7061901451
 20
27.5916355744
 10
65.6599628963
 20
27.6000958605
 10
65.611469454
 20
27.5998955126
 10
65.5654566941
 20
27.5910541421
 10
65.5264286662
 20
27.5744372041
 10
65.4982057056
 20
27.5516712801
 10
65.4835504724
 20
27.5249848574
 10
65.4838975227
 20
27.496990189
 10
65.499212885
 20
27.4704275882
 10
65.5279973849
 20
27.4478971872
  0
LWPOLYLINE
  5
181
330
1F
100
AcDbEntity
  8
0
  6
Continuous
 62
     7
370
    25
100
AcDbPolyline
 90
       21
 70
   128
 43
0.0
 10
65.718043183
 20
26.9162552685
 10
65.757479193
 20
26.8999625001
 10
65.8037064418
 20
26.891502214
 10
65.8521998841
 20
26.8917025619
 10
65.898212644
 20
26.9005439324
 10
65.9372406718
 20
26.9171608705
 10
65.9654636324
 20
26.9399267945
 10
65.9801188657
 20
26.9666132172
 10
65.9797718153
 20
26.9946078855
 10
65.964456453
 20
27.0211704864
 10
65.9356719532
 20
27.0437008873
 10
65.8962359431
 20
27.0599936557
 10
65.8500086944
 20
27.0684539418
 10
65.801515252
 20
27.0682535938
 10
65.7555024922
 20
27.0594122234
 10
65.7164744643
 20
27.0427952853
 10
65.6882515037
 20
27.0200293613
 10
65.6735962704
 20
26.9933429386
 10
65.6739433208
 20
26.9653482702
 10
65.6892586831
 20
26.9387856694
 10
65.718043183
 20
26.9162552685
  0
LWPOLYLINE
  5
182
330
1F
100
AcDbEntity
  8
0
  6
Continuous
 62
     7
370
    25
100
AcDbPolyline
 90
       21
 70
   128
 43
0.0
 10
66.2460474889
 20
26.4670668029
 10
66.2854834989
 20
26.4507740346
 10
66.3317107477
 20
26.4423137485
 10
66.38020419
 20
26.4425140964
 10
66.4262169498
 20
26.4513554669
 10
66.4652449777
 20
26.4679724049
 10
66.4934679383
 20
26.4907383289
 10
66.5081231716
 20
26.5174247516
 10
66.5077761212
 20
26.54541942
 10
66.4924607589
 20
26.5719820209
 10
66.4636762591
 20
26.5945124218
 10
66.424240249
 20
26.6108051901
 10
66.3780130002
 20
26.6192654762
 10
66.3295195579
 20
26.6190651283
 10
66.2835067981
 20
26.6102237578
 10
66.2444787702
 20
26.5936068198
 10
66.2162558096
 20
26.5708408958
 10
66.2016005763
 20
26.5441544731
 10
66.2019476267
 20
26.5161598047
 10
66.217262989
 20
26.4895972038
 10
66.2460474889
 20
26.4670668029
  0
LWPOLYLINE
  5
183
330
1F
100
AcDbEntity
  8
0
  6
Continuous
 62
     7
370
    25
100
AcDbPolyline
 90
       21
 70
   128
 43
0.0
 10
67.0316264333
 20
26.1687166626
 10
67.0710624434
 20
26.1524238942
 10
67.1172896921
 20
26.1439636082
 10
67.1657831344
 20
26.1441639561
 10
67.2117958943
 20
26.1530053265
 10
67.2508239222
 20
26.1696222646
 10
67.2790468828
 20
26.1923881886
 10
67.293702116
 20
26.2190746113
 10
67.2933550657
 20
26.2470692797
 10
67.2780397034
 20
26.2736318805
 10
67.2492552035
 20
26.2961622814
 10
67.2098191935
 20
26.3124550498
 10
67.1635919447
 20
26.3209153359
 10
67.1150985024
 20
26.320714988
 10
67.0690857425
 20
26.3118736175
 10
67.0300577147
 20
26.2952566794
 10
67.0018347541
 20
26.2724907554
 10
66.9871795208
 20
26.2458043327
 10
66.9875265711
 20
26.2178096644
 10
67.0028419334
 20
26.1912470635
 10
67.0316264333
 20
26.1687166626
  0
LWPOLYLINE
  5
184
330
1F
100
AcDbEntity
  8
0
  6
Continuous
 62
     7
370
    25
100
AcDbPolyline
 90
       21
 70
   128
 43
0.0
 10
67.9551827434
 20
26.0666259518
 10
67.9946187534
 20
26.0503331834
 10
68.0408460022
 20
26.0418728973
 10
68.0893394445
 20
26.0420732452
 10
68.1353522044
 20
26.0509146157
 10
68.1743802322
 20
26.0675315538
 10
68.2026031928
 20
26.0902974778
 10
68.2172584261
 20
26.1169839005
 10
68.2169113757
 20
26.1449785688
 10
68.2015960134
 20
26.1715411697
 10
68.1728115136
 20
26.1940715706
 10
68.1333755035
 20
26.210364339
 10
68.0871482548
 20
26.2188246251
 10
68.0386548124
 20
26.2186242772
 10
67.9926420526
 20
26.2097829067
 10
67.9536140247
 20
26.1931659686
 10
67.9253910641
 20
26.1704000446
 10
67.9107358308
 20
26.1437136219
 10
67.9110828812
 20
26.1157189536
 10
67.9263982435
 20
26.0891563527
 10
67.9551827434
 20
26.0666259518
  0
LWPOLYLINE
  5
185
330
1F
100
AcDbEntity
  8
0
  6
Continuous
 62
     7
370
    25
100
AcDbPolyline
 90
       21
 70
   128
 43
0.0
 10
68.8761133429
 20
26.1763370557
 10
68.9155493529
 20
26.1600442874
 10
68.9617766017
 20
26.1515840013
 10
69.010270044
 20
26.1517843492
 10
69.0562828038
 20
26.1606257197
 10
69.0953108317
 20
26.1772426578
 10
69.1235337923
 20
26.2000085818
 10
69.1381890256
 20
26.2266950044
 10
69.1378419752
 20
26.2546896728
 10
69.1225266129
 20
26.2812522737
 10
69.0937421131
 20
26.3037826746
 10
69.054306103
 20
26.3200754429
 10
69.0080788542
 20
26.328535729
 10
68.9595854119
 20
26.3283353811
 10
68.9135726521
 20
26.3194940107
 10
68.8745446242
 20
26.3028770726
 10
68.8463216636
 20
26.2801111486
 10
68.8316664303
 20
26.2534247259
 10
68.8320134807
 20
26.2254300575
 10
68.847328843
 20
26.1988674567
 10
68.8761133429
 20
26.1763370557
  0
LWPOLYLINE
  5
186
330
1F
100
AcDbEntity
  8
0
  6
Continuous
 62
     7
370
    25
100
AcDbPolyline
 90
        9
 70
   128
 43
0.0
 10
68.3226445769
 20
-195.5252362488
 10
68.3225684037
 20
-195.527489065
 10
68.3134687657
 20
-195.5493925958
 10
68.2905419683
 20
-195.5676185418
 10
68.2572784086
 20
-195.5793921678
 10
68.2187421619
 20
-195.5829210461
 10
68.1808000226
 20
-195.5776679369
 10
68.1492283373
 20
-195.5644325785
 10
68.1467500552
 20
-195.5628265968
  0
LWPOLYLINE
  5
187
330
1F
100
AcDbEntity
  8
0
  6
Continuous
 62
     7
370
    25
100
AcDbPolyline
 90
        6
 70
   128
 43
0.0
 10
68.3164555448
 20
-195.3415261306
 10
68.3225684037
 20
-195.3637726322
 10
68.3134687657
 20
-195.385676163
 10
68.2905419683
 20
-195.403902109
 10
68.2572784086
 20
-195.4156757351
 10
68.2242355937
 20
-195.4192412802
  0
ARC
  5
188
330
1F
100
AcDbEntity
  8
0
  6
Continuous
 62
     7
370
    25
100
AcDbCircle
 10
68.2380822815
 20
-195.4079419454
 30
0.0
 40
0.1027298830165068
100
AcDbArc
 50
40.2789249151
 51
84.3104474426
  0
LWPOLYLINE
  5
189
330
1F
100
AcDbEntity
  8
0
  6
Continuous
 62
     7
370
    25
100
AcDbPolyline
 90
        6
 70
   128
 43
0.0
 10
68.2930028029
 20
-195.3465245519
 10
68.297587447
 20
-195.3632094282
 10
68.2907627185
 20
-195.3796370763
 10
68.2735676205
 20
-195.3933065358
 10
68.2486199507
 20
-195.4021367553
 10
68.2437350749
 20
-195.403069258
  0
ARC
  5
18A
330
1F
100
AcDbEntity
  8
0
  6
Continuous
 62
     7
370
    25
100
AcDbCircle
 10
68.2358904404
 20
-195.394164457
 30
0.0
 40
0.0743732647071481
100
AcDbArc
 50
39.8329545464
 51
80.4209608721
  0
ARC
  5
18B
330
1F
100
AcDbEntity
  8
0
  6
Continuous
 62
     7
370
    25
100
AcDbCircle
 10
68.2226445769
 20
-195.4552260776
 30
0.0
 40
0.1314111788467617
100
AcDbArc
 50
241.9070824478
 51
298.0929175522
  0
LWPOLYLINE
  5
18C
330
1F
100
AcDbEntity
  8
0
  6
Continuous
 62
     7
370
    25
100
AcDbPolyline
 90
       10
 70
   128
 43
0.0
 10
68.1351445769
 20
-196.0074035982
 10
68.14055998
 20
-196.024898073
 10
68.1584053672
 20
-196.0417003867
 10
68.1860305919
 20
-196.0532813253
 10
68.2192299638
 20
-196.0578777959
 10
68.2529491796
 20
-196.0547900274
 10
68.2820547944
 20
-196.0444881046
 10
68.3021157421
 20
-196.0285404019
 10
68.3100779253
 20
-196.0093748124
 10
68.3101445769
 20
-196.0074035982
  0
LWPOLYLINE
  5
18D
330
1F
100
AcDbEntity
  8
0
  6
Continuous
 62
     7
370
    25
100
AcDbPolyline
 90
       10
 70
   128
 43
0.0
 10
68.3101445769
 20
-195.9896625372
 10
68.3164555448
 20
-195.9976166729
 10
68.3225684037
 20
-196.0198631746
 10
68.3134687657
 20
-196.0417667054
 10
68.2905419683
 20
-196.0599926514
 10
68.2572784086
 20
-196.0717662774
 10
68.2187421619
 20
-196.0752951557
 10
68.1808000226
 20
-196.0700420465
 10
68.1492283373
 20
-196.0568066881
 10
68.1346973161
 20
-196.0450863384
  0
LWPOLYLINE
  5
18E
330
1F
100
AcDbEntity
  8
0
  6
Continuous
 62
     7
370
    25
100
AcDbPolyline
 90
        9
 70
   128
 43
0.0
 10
68.3226445769
 20
-196.1813267911
 10
68.3225684037
 20
-196.1835796074
 10
68.3134687657
 20
-196.2054831382
 10
68.2905419683
 20
-196.2237090841
 10
68.2572784086
 20
-196.2354827102
 10
68.2187421619
 20
-196.2390115885
 10
68.1808000226
 20
-196.2337584793
 10
68.1492283373
 20
-196.2205231209
 10
68.1467500552
 20
-196.2189171392
  0
LWPOLYLINE
  5
18F
330
1F
100
AcDbEntity
  8
0
  6
Continuous
 62
     7
370
    25
100
AcDbPolyline
 90
        5
 70
   128
 43
0.0
 10
68.04036195
 20
-195.6377990702
 10
68.0026580347
 20
-195.6320024543
 10
67.9716667298
 20
-195.6183175892
 10
67.9521061805
 20
-195.5988278716
 10
67.9467500552
 20
-195.5801882089
  0
LWPOLYLINE
  5
190
330
1F
100
AcDbEntity
  8
0
  6
Continuous
 62
     7
370
    25
100
AcDbPolyline
 90
        6
 70
   128
 43
0.0
 10
68.1467500552
 20
-195.5801882089
 10
68.1465458072
 20
-195.5838759835
 10
68.1365046859
 20
-195.6056419905
 10
68.1127992357
 20
-195.62353289
 10
68.0790383965
 20
-195.6348249548
 10
68.04036195
 20
-195.6377990702
  0
LWPOLYLINE
  5
191
330
1F
100
AcDbEntity
  8
0
  6
Continuous
 62
     7
370
    25
100
AcDbPolyline
 90
        7
 70
   128
 43
0.0
 10
68.04036195
 20
-195.4740826374
 10
68.0026580347
 20
-195.4682860215
 10
67.9716667298
 20
-195.4546011564
 10
67.9521061805
 20
-195.4351114388
 10
67.9469543032
 20
-195.4127840015
 10
67.9569954245
 20
-195.3910179945
 10
67.9767500552
 20
-195.3752451873
  0
ARC
  5
192
330
1F
100
AcDbEntity
  8
0
  6
Continuous
 62
     7
370
    25
100
AcDbCircle
 10
68.0588859106
 20
-195.3765829782
 30
0.0
 40
0.0992437436788907
100
AcDbArc
 50
259.2425857585
 51
331.0933341546
  0
LWPOLYLINE
  5
193
330
1F
100
AcDbEntity
  8
0
  6
Continuous
 62
     7
370
    25
100
AcDbPolyline
 90
        6
 70
   128
 43
0.0
 10
68.0419589763
 20
-195.4596799221
 10
68.0136810398
 20
-195.4553324601
 10
67.9904375611
 20
-195.4450688113
 10
67.9757671492
 20
-195.4304515231
 10
67.9719032412
 20
-195.4137059451
 10
67.9767500552
 20
-195.4009278287
  0
LWPOLYLINE
  5
194
330
1F
100
AcDbEntity
  8
0
  6
Continuous
 62
     7
370
    25
100
AcDbPolyline
 90
        6
 70
   128
 43
0.0
 10
68.1217227277
 20
-195.4153030895
 10
68.1215968692
 20
-195.419237607
 10
68.1140660282
 20
-195.4355621123
 10
68.0962869406
 20
-195.448980287
 10
68.0709663112
 20
-195.4574493355
 10
68.0419589763
 20
-195.4596799221
  0
LWPOLYLINE
  5
195
330
1F
100
AcDbEntity
  8
0
  6
Continuous
 62
     7
370
    25
100
AcDbPolyline
 90
        3
 70
   128
 43
0.0
 10
68.0411604632
 20
-195.6408044727
 10
68.0081695373
 20
-195.6357324337
 10
67.9848681584
 20
-195.6261070192
  0
ARC
  5
196
330
1F
100
AcDbEntity
  8
0
  6
Continuous
 62
     7
370
    25
100
AcDbCircle
 10
68.0497441183
 20
-195.5179902394
 30
0.0
 40
0.1231138295518885
100
AcDbArc
 50
266.0020207297
 51
298.5757500923
  0
LWPOLYLINE
  5
197
330
1F
100
AcDbEntity
  8
0
  6
Continuous
 62
     7
370
    25
100
AcDbPolyline
 90
        6
 70
   128
 43
0.0
 10
68.0411604632
 20
-196.112765062
 10
68.0750023538
 20
-196.1101627109
 10
68.1045430881
 20
-196.1002821543
 10
68.125285357
 20
-196.0846276172
 10
68.1340713382
 20
-196.0655823611
 10
68.1342500552
 20
-196.0623555583
  0
LWPOLYLINE
  5
198
330
1F
100
AcDbEntity
  8
0
  6
Continuous
 62
     7
370
    25
100
AcDbPolyline
 90
        5
 70
   128
 43
0.0
 10
67.9592500552
 20
-196.0623555583
 10
67.9639366648
 20
-196.0786652631
 10
67.9810521454
 20
-196.095718766
 10
68.0081695373
 20
-196.107693023
 10
68.0411604632
 20
-196.112765062
  0
LWPOLYLINE
  5
199
330
1F
100
AcDbEntity
  8
0
  6
Continuous
 62
     7
370
    25
100
AcDbPolyline
 90
        7
 70
   128
 43
0.0
 10
68.04036195
 20
-196.1301731798
 10
68.0026580347
 20
-196.1243765638
 10
67.9716667298
 20
-196.1106916987
 10
67.9521061805
 20
-196.0912019811
 10
67.9469543032
 20
-196.0688745438
 10
67.9569954245
 20
-196.0471085368
 10
67.9592500552
 20
-196.0446144973
  0
LWPOLYLINE
  5
19A
330
1F
100
AcDbEntity
  8
0
  6
Continuous
 62
     7
370
    25
100
AcDbPolyline
 90
        7
 70
   128
 43
0.0
 10
68.1342500552
 20
-196.0446144973
 10
68.1413939299
 20
-196.0539226558
 10
68.1465458072
 20
-196.076250093
 10
68.1365046859
 20
-196.0980161001
 10
68.1127992357
 20
-196.1159069996
 10
68.0790383965
 20
-196.1271990643
 10
68.04036195
 20
-196.1301731798
  0
LWPOLYLINE
  5
19B
330
1F
100
AcDbEntity
  8
0
  6
Continuous
 62
     7
370
    25
100
AcDbPolyline
 90
        5
 70
   128
 43
0.0
 10
68.04036195
 20
-196.2938896126
 10
68.0026580347
 20
-196.2880929966
 10
67.9716667298
 20
-196.2744081315
 10
67.9521061805
 20
-196.2549184139
 10
67.9467500552
 20
-196.2362787512
  0
LWPOLYLINE
  5
19C
330
1F
100
AcDbEntity
  8
0
  6
Continuous
 62
     7
370
    25
100
AcDbPolyline
 90
        6
 70
   128
 43
0.0
 10
68.1467500552
 20
-196.2362787512
 10
68.1465458072
 20
-196.2399665258
 10
68.1365046859
 20
-196.2617325329
 10
68.1127992357
 20
-196.2796234324
 10
68.0790383965
 20
-196.2909154971
 10
68.04036195
 20
-196.2938896126
  0
LWPOLYLINE
  5
19D
330
1F
100
AcDbEntity
  8
0
  6
Continuous
 62
     7
370
    25
100
AcDbPolyline
 90
       17
 70
   128
 43
0.0
 10
67.8177072315
 20
32.2249497562
 10
67.8214862437
 20
32.1941318974
 10
67.8112911337
 20
32.166554473
 10
67.7886740146
 20
32.146415896
 10
67.7570781379
 20
32.136782082
 10
67.7213136892
 20
32.139119692
 10
67.6868254817
 20
32.153072846
 10
67.6588640323
 20
32.1765173028
 10
67.6416862184
 20
32.2058838564
 10
67.6379072062
 20
32.2367017152
 10
67.6481023162
 20
32.2642791395
 10
67.6707194352
 20
32.2844177166
 10
67.702315312
 20
32.2940515306
 10
67.7380797607
 20
32.2917139206
 10
67.7725679682
 20
32.2777607666
 10
67.8005294175
 20
32.2543163098
 10
67.8177072315
 20
32.2249497562
  0
LWPOLYLINE
  5
19E
330
1F
100
AcDbEntity
  8
0
  6
Continuous
 62
     7
370
    25
100
AcDbPolyline
 90
       18
 70
   128
 43
0.0
 10
67.609141483
 20
32.1849570554
 10
67.5948468504
 20
32.2105655533
 10
67.5844206075
 20
32.2503671363
 10
67.587773257
 20
32.2889386323
 10
67.6046069013
 20
32.3228527944
 10
67.6334257974
 20
32.3490962006
 10
67.6716692598
 20
32.365337009
 10
67.715939189
 20
32.3701321526
 10
67.7623020076
 20
32.3630555619
 10
67.8066381756
 20
32.3447360228
 10
67.8450082301
 20
32.316801307
 10
67.8740028231
 20
32.2817335364
 10
67.891045658
 20
32.2426486364
 10
67.8946224041
 20
32.2030194719
 10
67.8844152517
 20
32.166367268
 10
67.8613311511
 20
32.135948734
 10
67.827421226
 20
32.11446669
 10
67.7973912614
 20
32.1055346893
  0
ARC
  5
19F
330
1F
100
AcDbEntity
  8
0
  6
Continuous
 62
     7
370
    25
100
AcDbCircle
 10
67.8060390561
 20
32.2566408239
 30
0.0
 40
0.1091382572196098
100
AcDbArc
 50
335.7123183119
 51
20.9307474396
  0
LWPOLYLINE
  5
1A0
330
1F
100
AcDbEntity
  8
0
  6
Continuous
 62
     7
370
    25
100
AcDbPolyline
 90
       10
 70
   128
 43
0.0
 10
67.6134041553
 20
32.3473352975
 10
67.6191644426
 20
32.3580049333
 10
67.64518871
 20
32.3864153446
 10
67.6813665644
 20
32.4053296591
 10
67.7244834445
 20
32.4130672569
 10
67.7707082263
 20
32.4089406183
 10
67.8159336353
 20
32.3933164135
 10
67.8561411952
 20
32.3675829215
 10
67.8877582879
 20
32.334026676
 10
67.9079755961
 20
32.2956292967
  0
LINE
  5
1A1
330
1F
100
AcDbEntity
  8
0
  6
Continuous
 62
     7
370
    25
100
AcDbLine
 10
67.6832511868
 20
32.2849173118
 30
0.0
 11
67.7015913331
 21
32.2322475554
 31
0.0
  0
LINE
  5
1A2
330
1F
100
AcDbEntity
  8
0
  6
Continuous
 62
     7
370
    25
100
AcDbLine
 10
67.7015913331
 20
32.2322475554
 30
0.0
 11
67.6426416517
 21
32.2258623591
 31
0.0
  0
LINE
  5
1A3
330
1F
100
AcDbEntity
  8
0
  6
Continuous
 62
     7
370
    25
100
AcDbLine
 10
67.6426416517
 20
32.2258623591
 30
0.0
 11
67.65597994
 21
32.1875570818
 31
0.0
  0
LINE
  5
1A4
330
1F
100
AcDbEntity
  8
0
  6
Continuous
 62
     7
370
    25
100
AcDbLine
 10
67.65597994
 20
32.1875570818
 30
0.0
 11
67.7149296213
 21
32.193942278
 31
0.0
  0
LINE
  5
1A5
330
1F
100
AcDbEntity
  8
0
  6
Continuous
 62
     7
370
    25
100
AcDbLine
 10
67.7149296213
 20
32.193942278
 30
0.0
 11
67.7332697676
 21
32.1412725217
 31
0.0
  0
LINE
  5
1A6
330
1F
100
AcDbEntity
  8
0
  6
Continuous
 62
     7
370
    25
100
AcDbLine
 10
67.7332697676
 20
32.1412725217
 30
0.0
 11
67.7761422631
 21
32.1459163008
 31
0.0
  0
LINE
  5
1A7
330
1F
100
AcDbEntity
  8
0
  6
Continuous
 62
     7
370
    25
100
AcDbLine
 10
67.7761422631
 20
32.1459163008
 30
0.0
 11
67.7578021168
 21
32.1985860572
 31
0.0
  0
LINE
  5
1A8
330
1F
100
AcDbEntity
  8
0
  6
Continuous
 62
     7
370
    25
100
AcDbLine
 10
67.7578021168
 20
32.1985860572
 30
0.0
 11
67.8167517981
 21
32.2049712534
 31
0.0
  0
LINE
  5
1A9
330
1F
100
AcDbEntity
  8
0
  6
Continuous
 62
     7
370
    25
100
AcDbLine
 10
67.8167517981
 20
32.2049712534
 30
0.0
 11
67.8034135099
 21
32.2432765308
 31
0.0
  0
LINE
  5
1AA
330
1F
100
AcDbEntity
  8
0
  6
Continuous
 62
     7
370
    25
100
AcDbLine
 10
67.8034135099
 20
32.2432765308
 30
0.0
 11
67.7444638286
 21
32.2368913345
 31
0.0
  0
LINE
  5
1AB
330
1F
100
AcDbEntity
  8
0
  6
Continuous
 62
     7
370
    25
100
AcDbLine
 10
67.7261236823
 20
32.2895610909
 30
0.0
 11
67.7444638286
 21
32.2368913345
 31
0.0
  0
LINE
  5
1AC
330
1F
100
AcDbEntity
  8
0
  6
Continuous
 62
     7
370
    25
100
AcDbLine
 10
67.7261236823
 20
32.2895610909
 30
0.0
 11
67.6832511868
 21
32.2849173118
 31
0.0
  0
LINE
  5
1AD
330
1F
100
AcDbEntity
  8
0
  6
Continuous
 62
     7
370
    25
100
AcDbLine
 10
67.7181336445
 20
32.2678874207
 30
0.0
 11
67.7331059679
 21
32.2695091635
 31
0.0
  0
LINE
  5
1AE
330
1F
100
AcDbEntity
  8
0
  6
Continuous
 62
     7
370
    25
100
AcDbLine
 10
67.6832511868
 20
32.2849173118
 30
0.0
 11
67.7181336445
 21
32.2678874207
 31
0.0
  0
LINE
  5
1AF
330
1F
100
AcDbEntity
  8
0
  6
Continuous
 62
     7
370
    25
100
AcDbLine
 10
67.8167517981
 20
32.2049712534
 30
0.0
 11
67.7743444282
 21
32.2342259224
 31
0.0
  0
LINE
  5
1B0
330
1F
100
AcDbEntity
  8
0
  6
Continuous
 62
     7
370
    25
100
AcDbLine
 10
67.7723640007
 20
32.2399133708
 30
0.0
 11
67.7743444282
 21
32.2342259224
 31
0.0
  0
LINE
  5
1B1
330
1F
100
AcDbEntity
  8
0
  6
Continuous
 62
     7
370
    25
100
AcDbLine
 10
67.7015913331
 20
32.2322475554
 30
0.0
 11
67.7181336445
 21
32.2678874207
 31
0.0
  0
LINE
  5
1B2
330
1F
100
AcDbEntity
  8
0
  6
Continuous
 62
     7
370
    25
100
AcDbLine
 10
67.7578021168
 20
32.1985860572
 30
0.0
 11
67.7743444282
 21
32.2342259224
 31
0.0
  0
LINE
  5
1B3
330
1F
100
AcDbEntity
  8
0
  6
Continuous
 62
     7
370
    25
100
AcDbLine
 10
67.7314719327
 20
32.2295821433
 30
0.0
 11
67.7181336445
 21
32.2678874207
 31
0.0
  0
LINE
  5
1B4
330
1F
100
AcDbEntity
  8
0
  6
Continuous
 62
     7
370
    25
100
AcDbLine
 10
67.65597994
 20
32.1875570818
 30
0.0
 11
67.7314719327
 21
32.2295821433
 31
0.0
  0
LINE
  5
1B5
330
1F
100
AcDbEntity
  8
0
  6
Continuous
 62
     7
370
    25
100
AcDbLine
 10
67.7332697676
 20
32.1412725217
 30
0.0
 11
67.7314719327
 21
32.2295821433
 31
0.0
  0
LINE
  5
1B6
330
1F
100
AcDbEntity
  8
0
  6
Continuous
 62
     7
370
    25
100
AcDbLine
 10
67.7743444282
 20
32.2342259224
 30
0.0
 11
67.7314719327
 21
32.2295821433
 31
0.0
  0
LINE
  5
1B7
330
1F
100
AcDbEntity
  8
0
  6
Continuous
 62
     7
370
    25
100
AcDbLine
 10
67.7149296213
 20
32.193942278
 30
0.0
 11
67.7314719327
 21
32.2295821433
 31
0.0
  0
LINE
  5
1B8
330
1F
100
AcDbEntity
  8
0
  6
Continuous
 62
     7
370
    25
100
AcDbLine
 10
67.7181336445
 20
32.2678874207
 30
0.0
 11
67.7343096664
 21
32.2660523477
 31
0.0
  0
LINE
  5
1B9
330
1F
100
AcDbEntity
  8
0
  6
Continuous
 62
     7
370
    25
100
AcDbLine
 10
67.7308181746
 20
32.261694733
 30
0.0
 11
67.7356449808
 21
32.2622175535
 31
0.0
  0
LINE
  5
1BA
330
1F
100
AcDbEntity
  8
0
  6
Continuous
 62
     7
370
    25
100
AcDbLine
 10
67.7181336445
 20
32.2678874207
 30
0.0
 11
67.7308181746
 21
32.261694733
 31
0.0
  0
LINE
  5
1BB
330
1F
100
AcDbEntity
  8
0
  6
Continuous
 62
     7
370
    25
100
AcDbLine
 10
67.7702934475
 20
32.2396890967
 30
0.0
 11
67.7743444282
 21
32.2342259224
 31
0.0
  0
LINE
  5
1BC
330
1F
100
AcDbEntity
  8
0
  6
Continuous
 62
     7
370
    25
100
AcDbLine
 10
67.7669500144
 20
32.2393269492
 30
0.0
 11
67.7743444282
 21
32.2342259224
 31
0.0
  0
LINE
  5
1BD
330
1F
100
AcDbEntity
  8
0
  6
Continuous
 62
     7
370
    25
100
AcDbLine
 10
67.7314719327
 20
32.2295821433
 30
0.0
 11
67.7308181746
 21
32.261694733
 31
0.0
  0
LINE
  5
1BE
330
1F
100
AcDbEntity
  8
0
  6
Continuous
 62
     7
370
    25
100
AcDbLine
 10
67.7314719327
 20
32.2295821433
 30
0.0
 11
67.7413245219
 21
32.2459068852
 31
0.0
  0
LINE
  5
1BF
330
1F
100
AcDbEntity
  8
0
  6
Continuous
 62
     7
370
    25
100
AcDbLine
 10
67.7314719327
 20
32.2295821433
 30
0.0
 11
67.744635188
 21
32.2369098955
 31
0.0
  0
LWPOLYLINE
  5
1C0
330
1F
100
AcDbEntity
  8
0
  6
Continuous
 62
     7
370
    25
100
AcDbPolyline
 90
       12
 70
   128
 43
0.0
 10
69.2180626444
 20
32.916742814
 10
69.2259681362
 20
32.9235826943
 10
69.2322056499
 20
32.9440384613
 10
69.2349993532
 20
32.9762083317
 10
69.2341010135
 20
33.0172338715
 10
69.2295904521
 20
33.0634697814
 10
69.2218684522
 20
33.1108077978
 10
69.2116211473
 20
33.1550417303
 10
69.1997590555
 20
33.1922411999
 10
69.1873361757
 20
33.2191008704
 10
69.1754563353
 20
33.2332341423
 10
69.1688328371
 20
33.2350037752
  0
ARC
  5
1C1
330
1F
100
AcDbEntity
  8
0
  6
Continuous
 62
     7
370
    25
100
AcDbCircle
 10
68.773671754
 20
32.9828592861
 30
0.0
 40
0.3870375955736358
100
AcDbArc
 50
351.7976013758
 51
8.2023986242
  0
LWPOLYLINE
  5
1C2
330
1F
100
AcDbEntity
  8
0
  6
Continuous
 62
     7
370
    25
100
AcDbPolyline
 90
       17
 70
   128
 43
0.0
 10
67.5517500552
 20
52.7853492399
 10
67.5527533932
 20
52.7671642378
 10
67.5651827399
 20
52.7192304623
 10
67.5914659014
 20
52.6731988036
 10
67.6308467591
 20
52.6303935088
 10
67.6821923974
 20
52.5920460083
 10
67.7440256958
 20
52.5592594898
 10
67.8145678229
 20
52.5329771617
 10
67.89178941
 20
52.5139551189
 10
67.9734689327
 20
52.5027405907
 10
68.0572566199
 20
52.4996561989
 10
68.1407420524
 20
52.5047906757
 10
68.2215235063
 20
52.5179963116
 10
68.2972770461
 20
52.5388932045
 10
68.3658233806
 20
52.5668801887
 10
68.4251905565
 20
52.6011521298
 10
68.4258230231
 20
52.6015860519
  0
ARC
  5
1C3
330
1F
100
AcDbEntity
  8
0
  6
Continuous
 62
     7
370
    25
100
AcDbCircle
 10
68.2992057625
 20
51.2794034404
 30
0.0
 40
0.2434504588779129
100
AcDbArc
 50
293.6249132
 51
355.0549458424
  0
LWPOLYLINE
  5
1C4
330
1F
100
AcDbEntity
  8
0
  6
Continuous
 62
     7
370
    25
100
AcDbPolyline
 90
       15
 70
   128
 43
0.0
 10
67.5517500552
 20
51.2584179216
 10
67.557204473
 20
51.2161136301
 10
67.5766307103
 20
51.1689610453
 10
67.6095814253
 20
51.124381972
 10
67.6551086858
 20
51.0836588688
 10
67.7119027554
 20
51.0479632655
 10
67.7783297722
 20
51.0183220594
 10
67.8524787518
 20
50.9955879742
 10
67.9322165631
 20
50.980415028
 10
68.0152492945
 20
50.9732397189
 10
68.0991882454
 20
50.9742684674
 10
68.181618645
 20
50.9834716784
 10
68.2601691208
 20
51.0005845923
 10
68.3325799187
 20
51.0251149016
 10
68.3967679119
 20
51.056356914
  0
SPLINE
  5
1C5
330
1F
100
AcDbEntity
  8
0
  6
Continuous
 62
     7
370
    25
100
AcDbSpline
210
0.0
220
0.0
230
1.0
 70
     8
 71
     3
 72
    13
 73
     9
 74
     0
 42
0.00000001
 43
0.00000001
 40
0.0
 40
0.0
 40
0.0
 40
0.0
 40
0.1979435300932391
 40
0.395842750151805
 40
0.594895762166606
 40
0.7947499729713138
 40
0.9933351021442842
 40
1.0
 40
1.0
 40
1.0
 40
1.0
 10
68.39676791187655
 20
51.71612188997462
 30
0.0
 10
68.40207419364123
 20
51.71866268924331
 30
0.0
 10
68.41268556934935
 20
51.72374371901794
 30
0.0
 10
68.42595437126002
 20
51.72313250317255
 30
0.0
 10
68.43586966946535
 20
51.71619005485835
 30
0.0
 10
68.44092230558257
 20
51.7025813527049
 30
0.0
 10
68.44253870292818
 20
51.69059759231696
 30
0.0
 10
68.44119000627492
 20
51.68343017396307
 30
0.0
 10
68.44114621127248
 20
51.68319743289157
 30
0.0
  0
LWPOLYLINE
  5
1C6
330
1F
100
AcDbEntity
  8
0
  6
Continuous
 62
     7
370
    25
100
AcDbPolyline
 90
       15
 70
   128
 43
0.0
 10
68.4338801567
 20
51.6540814156
 10
68.4292631237
 20
51.6422177691
 10
68.4171664767
 20
51.6231711377
 10
68.4022166052
 20
51.6086308932
 10
68.38605801
 20
51.6004265074
 10
68.3705028904
 20
51.5993114766
 10
68.3573730007
 20
51.6052591959
 10
68.3485194802
 20
51.6175398955
 10
68.345366676
 20
51.6345314175
 10
68.34832393
 20
51.6540885676
 10
68.3568763285
 20
51.6741949621
 10
68.3698926913
 20
51.6929620622
 10
68.3855989699
 20
51.7084022255
 10
68.3967679119
 20
51.71612189
 10
68.3967679119
 20
51.71612189
  0
ARC
  5
1C7
330
1F
100
AcDbEntity
  8
0
  6
Continuous
 62
     7
370
    25
100
AcDbCircle
 10
68.0469267959
 20
51.7030119442
 30
0.0
 40
0.7354942339884981
100
AcDbArc
 50
241.8776777524
 51
297.7775776155
  0
ARC
  5
1C8
330
1F
100
AcDbEntity
  8
0
  6
Continuous
 62
     7
370
    25
100
AcDbCircle
 10
68.0450703097
 20
53.2382296342
 30
0.0
 40
0.7418137770036916
100
AcDbArc
 50
241.9932082647
 51
300.8820653785
  0
ARC
  5
1C9
330
1F
100
AcDbEntity
  8
0
  6
Continuous
 62
     7
370
    25
100
AcDbCircle
 10
67.8001921228
 20
52.8105665104
 30
0.0
 40
0.2497185849845134
100
AcDbArc
 50
185.7957646458
 51
245.5243763118
  0
ARC
  5
1CA
330
1F
100
AcDbEntity
  8
0
  6
Continuous
 62
     7
370
    25
100
AcDbCircle
 10
67.9339511634
 20
53.4747510141
 30
0.0
 40
0.462864757673249
100
AcDbArc
 50
227.089558201
 51
252.9158183318
  0
SPLINE
  5
1CB
330
1F
100
AcDbEntity
  8
0
  6
Continuous
 62
     7
370
    25
100
AcDbSpline
210
0.0
220
0.0
230
1.0
 70
     8
 71
     3
 72
    10
 73
     6
 74
     0
 42
0.00000001
 43
0.00000001
 40
0.0
 40
0.0
 40
0.0
 40
0.0
 40
0.3766294165557554
 40
0.761723122837799
 40
0.9999999999999999
 40
0.9999999999999999
 40
0.9999999999999999
 40
0.9999999999999999
 10
67.79797240415681
 20
53.03231055378047
 30
0.0
 10
67.82589817126689
 20
53.00204043119299
 30
0.0
 10
67.88237730326158
 20
52.94081990169514
 30
0.0
 10
67.96477593166942
 20
52.87078238686257
 30
0.0
 10
68.02048312649377
 20
52.83714100343042
 30
0.0
 10
68.04177661831187
 20
52.82428193692886
 30
0.0
  0
SPLINE
  5
1CC
330
1F
100
AcDbEntity
  8
0
  6
Continuous
 62
     7
370
    25
100
AcDbSpline
210
0.0
220
0.0
230
1.0
 70
     8
 71
     3
 72
    10
 73
     6
 74
     0
 42
0.00000001
 43
0.00000001
 40
0.0
 40
0.0
 40
0.0
 40
0.0
 40
0.1929703143614533
 40
0.5385031639887942
 40
1.0
 40
1.0
 40
1.0
 40
1.0
 10
67.55385166312426
 20
53.10734557543734
 30
0.0
 10
67.55363704305634
 20
53.10701850097193
 30
0.0
 10
67.55303812406707
 20
53.10610576662172
 30
0.0
 10
67.57180371259518
 20
53.11554900222869
 30
0.0
 10
67.60170737857884
 20
53.12839450086546
 30
0.0
 10
67.61880767548512
 20
53.13574015008177
 30
0.0
  0
LINE
  5
1CD
330
1F
100
AcDbEntity
  8
0
  6
Continuous
 62
     7
370
    25
100
AcDbLine
 10
67.6188076755
 20
53.1357401501
 30
0.0
 11
67.7979724042
 21
53.0323105538
 31
0.0
  0
ARC
  5
1CE
330
1F
100
AcDbEntity
  8
0
  6
Continuous
 62
     7
370
    25
100
AcDbCircle
 10
69.1549762345
 20
53.0557627131
 30
0.0
 40
0.2417693597693675
100
AcDbArc
 50
61.4405410179
 51
126.6858690534
  0
LWPOLYLINE
  5
1CF
330
1F
100
AcDbEntity
  8
0
  6
Continuous
 62
     7
370
    25
100
AcDbPolyline
 90
       16
 70
   128
 43
0.0
 10
68.7710202411
 20
52.4027936026
 10
68.7658992647
 20
52.4053932866
 10
68.7262806865
 20
52.4345041475
 10
68.6948396332
 20
52.4753198765
 10
68.6724806069
 20
52.5266662793
 10
68.6598468359
 20
52.5870662134
 10
68.6573017709
 20
52.6547820827
 10
68.6649186287
 20
52.727865825
 10
68.6824782863
 20
52.8042149539
 10
68.7094755841
 20
52.8816330442
 10
68.7451338592
 20
52.9578929183
 10
68.7884272879
 20
53.0308007184
 10
68.838110397
 20
53.0982590199
 10
68.892753894
 20
53.1583271703
 10
68.9507857849
 20
53.2092771182
 10
69.0105365979
 20
53.2496431265
  0
LWPOLYLINE
  5
1D0
330
1F
100
AcDbEntity
  8
0
  6
Continuous
 62
     7
370
    25
100
AcDbPolyline
 90
       15
 70
   128
 43
0.0
 10
67.0829635124
 20
54.3624073829
 10
67.0232126994
 20
54.3220413747
 10
66.9651808085
 20
54.2710914267
 10
66.9105373115
 20
54.2110232763
 10
66.8608542023
 20
54.1435649748
 10
66.8175607737
 20
54.0706571747
 10
66.7819024986
 20
53.9943973006
 10
66.7549052007
 20
53.9169792103
 10
66.7373455432
 20
53.8406300814
 10
66.7297286854
 20
53.7675463391
 10
66.7322737504
 20
53.6998304698
 10
66.7449075214
 20
53.6394305357
 10
66.7672665477
 20
53.5880841329
 10
66.798707601
 20
53.5472684039
 10
66.8329838293
 20
53.5211125458
  0
ARC
  5
1D1
330
1F
100
AcDbEntity
  8
0
  6
Continuous
 62
     7
370
    25
100
AcDbCircle
 10
67.2295112335
 20
54.1570811401
 30
0.0
 40
0.2522599860423244
100
AcDbArc
 50
65.7938284835
 51
125.5166299456
  0
ARC
  5
1D2
330
1F
100
AcDbEntity
  8
0
  6
Continuous
 62
     7
370
    25
100
AcDbCircle
 10
67.4494408685
 20
53.7425707267
 30
0.0
 40
0.7207038083065233
100
AcDbArc
 50
122.4763978922
 51
177.5236019622
  0
ARC
  5
1D3
330
1F
100
AcDbEntity
  8
0
  6
Continuous
 62
     7
370
    25
100
AcDbCircle
 10
68.2472165882
 20
-192.9345114211
 30
0.0
 40
0.0637187406936469
100
AcDbArc
 50
292.8485876414
 51
355.831271401
  0
LWPOLYLINE
  5
1D4
330
1F
100
AcDbEntity
  8
0
  6
Continuous
 62
     7
370
    25
100
AcDbPolyline
 90
        9
 70
   128
 43
0.0
 10
68.0457667483
 20
-192.9391433825
 10
68.0458799353
 20
-192.9423043555
 10
68.0548309291
 20
-192.9669483332
 10
68.0771581092
 20
-192.9885792131
 10
68.1104419793
 20
-193.0048529536
 10
68.1510757154
 20
-193.0140060426
 10
68.1946560219
 20
-193.0150466007
 10
68.2364602963
 20
-193.0078618673
 10
68.2719583968
 20
-192.9932304199
  0
ARC
  5
1D5
330
1F
100
AcDbEntity
  8
0
  6
Continuous
 62
     7
370
    25
100
AcDbCircle
 10
68.3233983733
 20
-192.6740170222
 30
0.0
 40
0.2133884097465457
100
AcDbArc
 50
266.6063660721
 51
287.0056763413
  0
LWPOLYLINE
  5
1D6
330
1F
100
AcDbEntity
  8
0
  6
Continuous
 62
     7
370
    25
100
AcDbPolyline
 90
       17
 70
   128
 43
0.0
 10
67.8197208806
 20
35.023021728
 10
67.8109586299
 20
35.0431691181
 10
67.7943563189
 20
35.0602641968
 10
67.7724414991
 20
35.0717043933
 10
67.748550503
 20
35.0757480414
 10
67.7263205182
 20
35.0717795324
 10
67.7091358585
 20
35.0604030357
 10
67.6996127324
 20
35.0433505198
 10
67.6992009496
 20
35.0232180758
 10
67.7079632003
 20
35.0030706857
 10
67.7245655113
 20
34.985975607
 10
67.7464803312
 20
34.9745354105
 10
67.7703713273
 20
34.9704917624
 10
67.792601312
 20
34.9744602714
 10
67.8097859718
 20
34.9858367681
 10
67.8193090979
 20
35.002889284
 10
67.8197208806
 20
35.023021728
  0
LINE
  5
1D7
330
1F
100
AcDbEntity
  8
0
  6
Continuous
 62
     7
370
    25
100
AcDbLine
 10
67.7313479931
 20
35.0555285453
 30
0.0
 11
67.7166579755
 21
35.0231896353
 31
0.0
  0
LINE
  5
1D8
330
1F
100
AcDbEntity
  8
0
  6
Continuous
 62
     7
370
    25
100
AcDbLine
 10
67.7447708976
 20
34.9907809919
 30
0.0
 11
67.7166579755
 21
35.0231896353
 31
0.0
  0
LINE
  5
1D9
330
1F
100
AcDbEntity
  8
0
  6
Continuous
 62
     7
370
    25
100
AcDbLine
 10
67.7875738372
 20
34.9907112585
 30
0.0
 11
67.7447708976
 21
34.9907809919
 31
0.0
  0
LINE
  5
1DA
330
1F
100
AcDbEntity
  8
0
  6
Continuous
 62
     7
370
    25
100
AcDbLine
 10
67.7875738372
 20
34.9907112585
 30
0.0
 11
67.8022638547
 21
35.0230501685
 31
0.0
  0
LINE
  5
1DB
330
1F
100
AcDbEntity
  8
0
  6
Continuous
 62
     7
370
    25
100
AcDbLine
 10
67.7741509326
 20
35.0554588119
 30
0.0
 11
67.8022638547
 21
35.0230501685
 31
0.0
  0
LINE
  5
1DC
330
1F
100
AcDbEntity
  8
0
  6
Continuous
 62
     7
370
    25
100
AcDbLine
 10
67.7741509326
 20
35.0554588119
 30
0.0
 11
67.7313479931
 21
35.0555285453
 31
0.0
  0
LINE
  5
1DD
330
1F
100
AcDbEntity
  8
0
  6
Continuous
 62
     7
370
    25
100
AcDbLine
 10
67.7316679004
 20
35.0555280241
 30
0.0
 11
67.7166579755
 21
35.0231896353
 31
0.0
  0
LINE
  5
1DE
330
1F
100
AcDbEntity
  8
0
  6
Continuous
 62
     7
370
    25
100
AcDbLine
 10
67.7680646117
 20
35.0409665318
 30
0.0
 11
67.7554668586
 21
35.0554892515
 31
0.0
  0
LINE
  5
1DF
330
1F
100
AcDbEntity
  8
0
  6
Continuous
 62
     7
370
    25
100
AcDbLine
 10
67.7680646117
 20
35.0409665318
 30
0.0
 11
67.7447708976
 21
34.9907809919
 31
0.0
  0
LINE
  5
1E0
330
1F
100
AcDbEntity
  8
0
  6
Continuous
 62
     7
370
    25
100
AcDbLine
 10
67.7867486857
 20
35.0409360922
 30
0.0
 11
67.7680646117
 21
35.0409665318
 31
0.0
  0
LWPOLYLINE
  5
1E1
330
1F
100
AcDbEntity
  8
0
  6
Continuous
 62
     7
370
    25
100
AcDbPolyline
 90
       17
 70
   128
 43
0.0
 10
66.9772940813
 20
54.4747244717
 10
66.9551044461
 20
54.4810367812
 10
66.9304194728
 20
54.4819664951
 10
66.9069972249
 20
54.4773720729
 10
66.8884035271
 20
54.4679529736
 10
66.8774691016
 20
54.4551431699
 10
66.8758586154
 20
54.4408928381
 10
66.8838172505
 20
54.4273714622
 10
66.9001333768
 20
54.416637549
 10
66.922323012
 20
54.4103252395
 10
66.9470079853
 20
54.4093955256
 10
66.9704302333
 20
54.4139899478
 10
66.989023931
 20
54.423409047
 10
66.9999583565
 20
54.4362188508
 10
67.0015688427
 20
54.4504691825
 10
66.9936102077
 20
54.4639905585
 10
66.9772940813
 20
54.4747244717
  0
LINE
  5
1E2
330
1F
100
AcDbEntity
  8
0
  6
Continuous
 62
     7
370
    25
100
AcDbLine
 10
66.8940639094
 20
54.4490665752
 30
0.0
 11
66.9113099217
 21
54.4250513018
 31
0.0
  0
LINE
  5
1E3
330
1F
100
AcDbEntity
  8
0
  6
Continuous
 62
     7
370
    25
100
AcDbLine
 10
66.9559597414
 20
54.421665737
 30
0.0
 11
66.9113099217
 21
54.4250513018
 31
0.0
  0
LINE
  5
1E4
330
1F
100
AcDbEntity
  8
0
  6
Continuous
 62
     7
370
    25
100
AcDbLine
 10
66.9833635488
 20
54.4422954455
 30
0.0
 11
66.9559597414
 21
54.421665737
 31
0.0
  0
LINE
  5
1E5
330
1F
100
AcDbEntity
  8
0
  6
Continuous
 62
     7
370
    25
100
AcDbLine
 10
66.9833635488
 20
54.4422954455
 30
0.0
 11
66.9661175365
 21
54.4663107188
 31
0.0
  0
LINE
  5
1E6
330
1F
100
AcDbEntity
  8
0
  6
Continuous
 62
     7
370
    25
100
AcDbLine
 10
66.9214677168
 20
54.4696962837
 30
0.0
 11
66.9661175365
 21
54.4663107188
 31
0.0
  0
LINE
  5
1E7
330
1F
100
AcDbEntity
  8
0
  6
Continuous
 62
     7
370
    25
100
AcDbLine
 10
66.9214677168
 20
54.4696962837
 30
0.0
 11
66.8940639094
 21
54.4490665752
 31
0.0
  0
LINE
  5
1E8
330
1F
100
AcDbEntity
  8
0
  6
Continuous
 62
     7
370
    25
100
AcDbLine
 10
66.9661175365
 20
54.4293125705
 30
0.0
 11
66.9661175365
 21
54.4663107188
 31
0.0
  0
LINE
  5
1E9
330
1F
100
AcDbEntity
  8
0
  6
Continuous
 62
     7
370
    25
100
AcDbLine
 10
66.9214677168
 20
54.4242810888
 30
0.0
 11
66.9214677168
 21
54.4696962837
 31
0.0
  0
LWPOLYLINE
  5
1EA
330
1F
100
AcDbEntity
  8
0
  6
Continuous
 62
     7
370
    25
100
AcDbPolyline
 90
       17
 70
   128
 43
0.0
 10
69.1119643561
 20
53.1933593769
 10
69.0973324264
 20
53.1818447196
 10
69.0914473405
 20
53.1679741003
 10
69.0952050494
 20
53.1538591951
 10
69.108033476
 20
53.1416488702
 10
69.1279796086
 20
53.1332020369
 10
69.1520068293
 20
53.1298046492
 10
69.1764572116
 20
53.1319739283
 10
69.1976084065
 20
53.1393796214
 10
69.2122403362
 20
53.1508942786
 10
69.2181254221
 20
53.1647648979
 10
69.2143677132
 20
53.1788798032
 10
69.2015392867
 20
53.1910901281
 10
69.1815931541
 20
53.1995369613
 10
69.1575659333
 20
53.2029343491
 10
69.133115551
 20
53.2007650699
 10
69.1119643561
 20
53.1933593769
  0
LWPOLYLINE
  5
1EB
330
1F
100
AcDbEntity
  8
0
  6
Continuous
 62
     7
370
    25
100
AcDbPolyline
 90
        3
 70
   128
 43
0.0
 10
69.2096066265
 20
53.1864229127
 10
69.2246486327
 20
53.1721056633
 10
69.2274805052
 20
53.1664167221
  0
LINE
  5
1EC
330
1F
100
AcDbEntity
  8
0
  6
Continuous
 62
     7
370
    25
100
AcDbLine
 10
69.1412350516
 20
53.1415772839
 30
0.0
 11
69.1852030691
 21
53.1471984608
 31
0.0
  0
LINE
  5
1ED
330
1F
100
AcDbEntity
  8
0
  6
Continuous
 62
     7
370
    25
100
AcDbLine
 10
69.1987543988
 20
53.171990676
 30
0.0
 11
69.1852030691
 21
53.1471984608
 31
0.0
  0
LINE
  5
1EE
330
1F
100
AcDbEntity
  8
0
  6
Continuous
 62
     7
370
    25
100
AcDbLine
 10
69.168337711
 20
53.1911617143
 30
0.0
 11
69.1987543988
 21
53.171990676
 31
0.0
  0
LINE
  5
1EF
330
1F
100
AcDbEntity
  8
0
  6
Continuous
 62
     7
370
    25
100
AcDbLine
 10
69.168337711
 20
53.1911617143
 30
0.0
 11
69.1243696935
 21
53.1855405374
 31
0.0
  0
LINE
  5
1F0
330
1F
100
AcDbEntity
  8
0
  6
Continuous
 62
     7
370
    25
100
AcDbLine
 10
69.1108183638
 20
53.1607483222
 30
0.0
 11
69.1243696935
 21
53.1855405374
 31
0.0
  0
LINE
  5
1F1
330
1F
100
AcDbEntity
  8
0
  6
Continuous
 62
     7
370
    25
100
AcDbLine
 10
69.1108183638
 20
53.1607483222
 30
0.0
 11
69.1412350516
 21
53.1415772839
 31
0.0
  0
LINE
  5
1F2
330
1F
100
AcDbEntity
  8
0
  6
Continuous
 62
     7
370
    25
100
AcDbLine
 10
69.1243696935
 20
53.1522071864
 30
0.0
 11
69.1243696935
 21
53.1855405374
 31
0.0
  0
LINE
  5
1F3
330
1F
100
AcDbEntity
  8
0
  6
Continuous
 62
     7
370
    25
100
AcDbLine
 10
69.168337711
 20
53.1450422762
 30
0.0
 11
69.168337711
 21
53.1911617143
 31
0.0
  0
LWPOLYLINE
  5
1F4
330
1F
100
AcDbEntity
  8
0
  6
Continuous
 62
     7
370
    25
100
AcDbPolyline
 90
       17
 70
   128
 43
0.0
 10
68.3737790498
 20
51.6028819143
 10
68.390257524
 20
51.6056188558
 10
68.4077271458
 20
51.6167257388
 10
68.4235283235
 20
51.6345116412
 10
68.4352554712
 20
51.6562688204
 10
68.4411232368
 20
51.6786849432
 10
68.4402383063
 20
51.6983473581
 10
68.4327354023
 20
51.7122626407
 10
68.419756774
 20
51.7183123153
 10
68.4032782997
 20
51.7155753738
 10
68.385808678
 20
51.7044684907
 10
68.3700075002
 20
51.6866825884
 10
68.3582803526
 20
51.6649254091
 10
68.3524125869
 20
51.6425092863
 10
68.3532975174
 20
51.6228468714
 10
68.3608004214
 20
51.6089315889
 10
68.3737790498
 20
51.6028819143
  0
LINE
  5
1F5
330
1F
100
AcDbEntity
  8
0
  6
Continuous
 62
     7
370
    25
100
AcDbLine
 10
68.4286077733
 20
51.6784322898
 30
0.0
 11
68.4130970098
 21
51.7015924957
 31
0.0
  0
LINE
  5
1F6
330
1F
100
AcDbEntity
  8
0
  6
Continuous
 62
     7
370
    25
100
AcDbLine
 10
68.3812571483
 20
51.6837573207
 30
0.0
 11
68.4130970098
 21
51.7015924957
 31
0.0
  0
LINE
  5
1F7
330
1F
100
AcDbEntity
  8
0
  6
Continuous
 62
     7
370
    25
100
AcDbLine
 10
68.3649280504
 20
51.6427619398
 30
0.0
 11
68.3812571483
 21
51.6837573207
 31
0.0
  0
LINE
  5
1F8
330
1F
100
AcDbEntity
  8
0
  6
Continuous
 62
     7
370
    25
100
AcDbLine
 10
68.3649280504
 20
51.6427619398
 30
0.0
 11
68.380438814
 21
51.6196017338
 31
0.0
  0
LINE
  5
1F9
330
1F
100
AcDbEntity
  8
0
  6
Continuous
 62
     7
370
    25
100
AcDbLine
 10
68.4122786754
 20
51.6374369088
 30
0.0
 11
68.380438814
 21
51.6196017338
 31
0.0
  0
LINE
  5
1FA
330
1F
100
AcDbEntity
  8
0
  6
Continuous
 62
     7
370
    25
100
AcDbLine
 10
68.4122786754
 20
51.6374369088
 30
0.0
 11
68.4286077733
 21
51.6784322898
 31
0.0
  0
LINE
  5
1FB
330
1F
100
AcDbEntity
  8
0
  6
Continuous
 62
     7
370
    25
100
AcDbLine
 10
68.4006075323
 20
51.6945964848
 30
0.0
 11
68.4286077733
 21
51.6784322898
 31
0.0
  0
LINE
  5
1FC
330
1F
100
AcDbEntity
  8
0
  6
Continuous
 62
     7
370
    25
100
AcDbLine
 10
68.3720559328
 20
51.6606570039
 30
0.0
 11
68.4122786754
 21
51.6374369088
 31
0.0
  0
ARC
  5
1FD
330
1F
100
AcDbEntity
  8
0
  6
Continuous
 62
     7
370
    25
100
AcDbCircle
 10
66.9490647298
 20
53.7337048258
 30
0.0
 40
0.2418069530931939
100
AcDbArc
 50
173.3104387548
 51
238.5611581322
  0
LWPOLYLINE
  5
1FE
330
1F
100
AcDbEntity
  8
0
  6
Continuous
 62
     7
370
    25
100
AcDbPolyline
 90
       16
 70
   128
 43
0.0
 10
67.32247988
 20
54.3927160859
 10
67.3177074407
 20
54.3958257604
 10
67.2726919914
 20
54.4155889666
 10
67.2216284762
 20
54.4224175945
 10
67.1659858994
 20
54.416115197
 10
67.1073649966
 20
54.3968630826
 10
67.0474521845
 20
54.3652150995
 10
66.9879710455
 20
54.3220817026
 10
66.9306327439
 20
54.2687037612
 10
66.877086798
 20
54.2066168615
 10
66.8288736272
 20
54.1376071305
 10
66.7873802368
 20
54.0636598527
 10
66.753800316
 20
53.9869023564
 10
66.729099898
 20
53.9095428151
 10
66.7139895689
 20
53.833806722
 10
66.7089040252
 20
53.7618728667
  0
LWPOLYLINE
  5
1FF
330
1F
100
AcDbEntity
  8
0
  6
Continuous
 62
     7
370
    25
100
AcDbPolyline
 90
        3
 70
   128
 43
0.0
 10
65.6878878058
 20
54.1879715515
 10
65.6567377131
 20
54.2003495322
 10
65.617131155
 20
54.2288184966
  0
LINE
  5
200
330
1F
100
AcDbEntity
  8
0
  6
Continuous
 62
     7
370
    25
100
AcDbLine
 10
66.0944282323
 20
53.9532807589
 30
0.0
 11
66.1272912616
 21
53.9285001936
 31
0.0
  0
LINE
  5
201
330
1F
100
AcDbEntity
  8
0
  6
Continuous
 62
     7
370
    25
100
AcDbLine
 10
65.617131155
 20
54.2288184966
 30
0.0
 11
66.0944282323
 21
53.9532807589
 31
0.0
  0
ARC
  5
202
330
1F
100
AcDbEntity
  8
0
  6
Continuous
 62
     7
370
    25
100
AcDbCircle
 10
65.4062053699
 20
54.6277311441
 30
0.0
 40
0.2459698082417334
100
AcDbArc
 50
173.6294853733
 51
235.0583342334
  0
LWPOLYLINE
  5
203
330
1F
100
AcDbEntity
  8
0
  6
Continuous
 62
     7
370
    25
100
AcDbPolyline
 90
       15
 70
   128
 43
0.0
 10
65.7652874617
 20
55.2921498001
 10
65.7255423542
 20
55.3087394409
 10
65.674478839
 20
55.3155680688
 10
65.6188362622
 20
55.3092656713
 10
65.5602153594
 20
55.2900135569
 10
65.5003025473
 20
55.2583655738
 10
65.4408214083
 20
55.2152321769
 10
65.3834831066
 20
55.1618542355
 10
65.3299371607
 20
55.0997673358
 10
65.28172399
 20
55.0307576049
 10
65.2402305996
 20
54.956810327
 10
65.2066506788
 20
54.8800528307
 10
65.1819502608
 20
54.8026932895
 10
65.1668399316
 20
54.7269571964
 10
65.1617543879
 20
54.655023341
  0
SPLINE
  5
204
330
1F
100
AcDbEntity
  8
0
  6
Continuous
 62
     7
370
    25
100
AcDbSpline
210
0.0
220
0.0
230
1.0
 70
     8
 71
     3
 72
    11
 73
     7
 74
     0
 42
0.00000001
 43
0.00000001
 40
0.0
 40
0.0
 40
0.0
 40
0.0
 40
0.3300848757283006
 40
0.6600973019012238
 40
0.9919961293441828
 40
1.0
 40
1.0
 40
1.0
 40
1.0
 10
66.89063046794921
 20
54.47343888614565
 30
0.0
 10
66.89655124466672
 20
54.47617795777608
 30
0.0
 10
66.90839149856436
 20
54.48165549984451
 30
0.0
 10
66.93070611893972
 20
54.48366921852402
 30
0.0
 10
66.94682521961323
 20
54.48320488121644
 30
0.0
 10
66.95401756592186
 20
54.4811721242462
 30
0.0
 10
66.95418692794779
 20
54.48112425783044
 30
0.0
  0
SPLINE
  5
205
330
1F
100
AcDbEntity
  8
0
  6
Continuous
 62
     7
370
    25
100
AcDbSpline
210
0.0
220
0.0
230
1.0
 70
     8
 71
     3
 72
    13
 73
     9
 74
     0
 42
0.00000001
 43
0.00000001
 40
0.0
 40
0.0
 40
0.0
 40
0.0
 40
0.1384056559399856
 40
0.3355719845992381
 40
0.533394702547391
 40
0.7328338386149416
 40
0.9323422818117529
 40
1.0
 40
1.0
 40
1.0
 40
1.0
 10
66.97999986172874
 20
54.47263520060937
 30
0.0
 10
66.98418353250405
 20
54.470654159949
 30
0.0
 10
66.99432706815251
 20
54.46585101992228
 30
0.0
 10
67.00393551330941
 20
54.45575114440985
 30
0.0
 10
67.00804185182429
 20
54.44393768077563
 30
0.0
 10
67.00418162743573
 20
54.43199349341999
 30
0.0
 10
66.99553883162443
 20
54.42328780577392
 30
0.0
 10
66.98856345035145
 20
54.41900717136389
 30
0.0
 10
66.98679699019058
 20
54.41792313454172
 30
0.0
  0
SPLINE
  5
206
330
1F
100
AcDbEntity
  8
0
  6
Continuous
 62
     7
370
    25
100
AcDbSpline
210
0.0
220
0.0
230
1.0
 70
     8
 71
     3
 72
    17
 73
    13
 74
     0
 42
0.00000001
 43
0.00000001
 40
0.0
 40
0.0
 40
0.0
 40
0.0
 40
0.0705771283043785
 40
0.1768742773897351
 40
0.2838198215210077
 40
0.3914837046220085
 40
0.4988128908374067
 40
0.6052617612889064
 40
0.7116642942894343
 40
0.8189186614780245
 40
0.9266021493722544
 40
1.0
 40
1.0
 40
1.0
 40
1.0
 10
66.98679699019058
 20
54.41792313454172
 30
0.0
 10
66.98301552963929
 20
54.41597273767791
 30
0.0
 10
66.97353876119384
 20
54.41108482222716
 30
0.0
 10
66.95439506615922
 20
54.40576238503255
 30
0.0
 10
66.93136093029729
 20
54.40357385460634
 30
0.0
 10
66.90896441285814
 20
54.40606263018356
 30
0.0
 10
66.88994250771268
 20
54.41332134101771
 30
0.0
 10
66.87646198610989
 20
54.42462260880464
 30
0.0
 10
66.86990614680978
 20
54.43856257762357
 30
0.0
 10
66.87108601470054
 20
54.4532202593542
 30
0.0
 10
66.87870995236214
 20
54.4654088928571
 30
0.0
 10
66.88719230773899
 20
54.47112284509765
 30
0.0
 10
66.89063046794921
 20
54.47343888614565
 30
0.0
  0
LINE
  5
207
330
1F
100
AcDbEntity
  8
0
  6
Continuous
 62
     7
370
    25
100
AcDbLine
 10
69.9106835304
 20
51.7502034691
 30
0.0
 11
69.9435465597
 21
51.7254229039
 31
0.0
  0
LINE
  5
208
330
1F
100
AcDbEntity
  8
0
  6
Continuous
 62
     7
370
    25
100
AcDbLine
 10
69.9106835304
 20
51.7502034691
 30
0.0
 11
69.4333864531
 21
52.0257412069
 31
0.0
  0
LWPOLYLINE
  5
209
330
1F
100
AcDbEntity
  8
0
  6
Continuous
 62
     7
370
    25
100
AcDbPolyline
 90
        3
 70
   128
 43
0.0
 10
69.5041431039
 20
51.9848942618
 10
69.4729930111
 20
51.9972722424
 10
69.4333864531
 20
52.0257412069
  0
LWPOLYLINE
  5
20A
330
1F
100
AcDbEntity
  8
0
  6
Continuous
 62
     7
370
    25
100
AcDbPolyline
 90
       21
 70
   128
 43
0.0
 10
68.7810630114
 20
52.3965103718
 10
68.7757926697
 20
52.3996839372
 10
68.738120299
 20
52.4318131701
 10
68.7088747722
 20
52.4753841303
 10
68.68889743
 20
52.5291433606
 10
68.6787629841
 20
52.5915443057
 10
68.6787629841
 20
52.6607918041
 10
68.68889743
 20
52.7348937314
 10
68.7088747722
 20
52.81171831
 10
68.738120299
 20
52.8890554366
 10
68.7757926697
 20
52.964680263
 10
68.820808119
 20
53.0364172006
 10
68.8718716342
 20
53.1022025082
 10
68.927514211
 20
53.1601436625
 10
68.9861351138
 20
53.2085738017
 10
69.0460479259
 20
53.2460996791
 10
69.1055290648
 20
53.2716417435
 10
69.1628673665
 20
53.2844651961
 10
69.2164133124
 20
53.2842011295
 10
69.2646264831
 20
53.2708571406
 10
69.2810223778
 20
53.2625592341
  0
LWPOLYLINE
  5
20B
330
1F
100
AcDbEntity
  8
0
  6
Continuous
 62
     7
370
    25
100
AcDbPolyline
 90
       38
 70
   128
 43
0.0
 10
70.9317457224
 20
52.1404863566
 10
70.9266601788
 20
52.0685525012
 10
70.9115498496
 20
51.9928164081
 10
70.8868494316
 20
51.9154568669
 10
70.8532695108
 20
51.8386993706
 10
70.8117761204
 20
51.7647520927
 10
70.7635629497
 20
51.6957423617
 10
70.7100170038
 20
51.633655462
 10
70.6526787021
 20
51.5802775206
 10
70.5931975631
 20
51.5371441238
 10
70.533284751
 20
51.5054961407
 10
70.4746638482
 20
51.4862440262
 10
70.4190212714
 20
51.4799416287
 10
70.3679577562
 20
51.4867702567
 10
70.322942307
 20
51.5065334628
 10
70.2852699362
 20
51.5386626958
 10
70.2560244095
 20
51.582233656
 10
70.2360470673
 20
51.6359928862
 10
70.2259126214
 20
51.6983938314
 10
70.2259126214
 20
51.7676413298
 10
70.2360470673
 20
51.841743257
 10
70.2560244095
 20
51.9185678356
 10
70.2852699362
 20
51.9959049623
 10
70.322942307
 20
52.0715297887
 10
70.3679577562
 20
52.1432667262
 10
70.4190212714
 20
52.2090520339
 10
70.4746638482
 20
52.2669931881
 10
70.533284751
 20
52.3154233274
 10
70.5931975631
 20
52.3529492048
 10
70.6526787021
 20
52.3784912691
 10
70.7100170038
 20
52.3913147217
 10
70.7635629497
 20
52.3910506552
 10
70.8117761204
 20
52.3777066663
 10
70.8532695108
 20
52.3516666372
 10
70.8868494316
 20
52.3136796922
 10
70.9115498496
 20
52.2648386466
 10
70.9266601788
 20
52.2065485682
 10
70.9317457224
 20
52.1404863566
  0
SPLINE
  5
20C
330
1F
100
AcDbEntity
  8
0
  6
Continuous
 62
     7
370
    25
100
AcDbSpline
210
0.0
220
0.0
230
1.0
 70
     8
 71
     3
 72
    17
 73
    13
 74
     0
 42
0.00000001
 43
0.00000001
 40
0.0
 40
0.0
 40
0.0
 40
0.0
 40
0.106698404385077
 40
0.2133733897875661
 40
0.3206581456471194
 40
0.4283657896048623
 40
0.5354028899494528
 40
0.6417207959639153
 40
0.7483926464637306
 40
0.8559361173404472
 40
0.9635169606676475
 40
1.0
 40
1.0
 40
1.0
 40
1.0
 10
69.2028696424292
 20
53.13861162331554
 30
0.0
 10
69.19696381456971
 20
53.13572528411106
 30
0.0
 10
69.18515345510704
 20
53.12995323921798
 30
0.0
 10
69.16261423709797
 20
53.12522888527671
 30
0.0
 10
69.13952956136026
 20
53.12456612039329
 30
0.0
 10
69.11799428330657
 20
53.12872642121357
 30
0.0
 10
69.10066967395679
 20
53.13749904932506
 30
0.0
 10
69.08945355749607
 20
53.14988779766095
 30
0.0
 10
69.08548838660984
 20
53.16431695221476
 30
0.0
 10
69.08931014357138
 20
53.17878281926873
 30
0.0
 10
69.09796186955627
 20
53.18866351590048
 30
0.0
 10
69.10493677941011
 20
53.19302329526363
 30
0.0
 10
69.10670312018783
 20
53.19412737491948
 30
0.0
  0
SPLINE
  5
20D
330
1F
100
AcDbEntity
  8
0
  6
Continuous
 62
     7
370
    25
100
AcDbSpline
210
0.0
220
0.0
230
1.0
 70
     8
 71
     3
 72
    11
 73
     7
 74
     0
 42
0.00000001
 43
0.00000001
 40
0.0
 40
0.0
 40
0.0
 40
0.0
 40
0.2177006485965043
 40
0.5455824830633483
 40
0.8754643425444422
 40
1.0
 40
1.0
 40
1.0
 40
1.0
 10
69.10670312018783
 20
53.19412737491948
 30
0.0
 10
69.11048793552173
 20
53.19601079910664
 30
0.0
 10
69.1199731114324
 20
53.20073087344415
 30
0.0
 10
69.1390288677513
 20
53.20413674991286
 30
0.0
 10
69.15751809159158
 20
53.20436495832139
 30
0.0
 10
69.16749607409784
 20
53.20201107492662
 30
0.0
 10
69.17023059590915
 20
53.20136598004094
 30
0.0
  0
SPLINE
  5
20E
330
1F
100
AcDbEntity
  8
0
  6
Continuous
 62
     7
370
    25
100
AcDbSpline
210
0.0
220
0.0
230
1.0
 70
     8
 71
     3
 72
    13
 73
     9
 74
     0
 42
0.00000001
 43
0.00000001
 40
0.0
 40
0.0
 40
0.0
 40
0.0
 40
0.0567951866835229
 40
0.2571257321951878
 40
0.4573690733354823
 40
0.659215516574054
 40
0.8618695398713572
 40
1.0
 40
1.0
 40
1.0
 40
1.0
 10
69.19743411070097
 20
53.19269105180962
 30
0.0
 10
69.19923192927574
 20
53.19196294067626
 30
0.0
 10
69.20737109465904
 20
53.18866660309529
 30
0.0
 10
69.21682103545469
 20
53.1802845859329
 30
0.0
 10
69.2236526657004
 20
53.16877812889973
 30
0.0
 10
69.22239811767643
 20
53.15673965156326
 30
0.0
 10
69.21479271326437
 20
53.14636577725541
 30
0.0
 10
69.20630853963375
 20
53.14084810573487
 30
0.0
 10
69.2028696424292
 20
53.13861162331553
 30
0.0
  0
LWPOLYLINE
  5
20F
330
1F
100
AcDbEntity
  8
0
  6
Continuous
 62
     7
370
    25
100
AcDbPolyline
 90
       23
 70
   128
 43
0.0
 10
67.5517500552
 20
51.2909707402
 10
67.5501694233
 20
51.2839518588
 10
67.5474468095
 20
51.2350196767
 10
67.559088241
 20
51.1865257155
 10
67.584758815
 20
51.1398650583
 10
67.6237200358
 20
51.0963800472
 10
67.6748510601
 20
51.0573216668
 10
67.7366809413
 20
51.0238135556
 10
67.8074309465
 20
50.996819681
 10
67.8850657266
 20
50.9771166075
 10
67.9673518705
 20
50.9652711567
 10
68.0519221556
 20
50.9616241007
 10
68.1363436489
 20
50.9662803586
 10
68.2181876975
 20
50.9791059784
 10
68.2950997973
 20
50.9997319904
 10
68.3648673272
 20
51.0275650216
 10
68.4254832024
 20
51.0618043666
 10
68.4752036145
 20
51.1014650217
 10
68.5125981977
 20
51.145406022
 10
68.5365911781
 20
51.1923632649
 10
68.5464923212
 20
51.2409858762
 10
68.5420167892
 20
51.2898750717
 10
68.5417500552
 20
51.2909707402
  0
LWPOLYLINE
  5
210
330
1F
100
AcDbEntity
  8
0
  6
Continuous
 62
     7
370
    25
100
AcDbPolyline
 90
       21
 70
   128
 43
0.0
 10
67.5467500552
 20
36.5525178996
 10
67.5474468095
 20
36.5372850627
 10
67.559088241
 20
36.4887911016
 10
67.584758815
 20
36.4421304444
 10
67.6237200358
 20
36.3986454333
 10
67.6748510601
 20
36.3595870529
 10
67.7366809413
 20
36.3260789417
 10
67.8074309465
 20
36.299085067
 10
67.8850657266
 20
36.2793819935
 10
67.9673518705
 20
36.2675365428
 10
68.0519221556
 20
36.2638894868
 10
68.1363436489
 20
36.2685457447
 10
68.2181876975
 20
36.2813713645
 10
68.2950997973
 20
36.3019973764
 10
68.3648673272
 20
36.3298304077
 10
68.4254832024
 20
36.3640697527
 10
68.4752036145
 20
36.4037304077
 10
68.5125981977
 20
36.447671408
 10
68.5365911781
 20
36.494628651
 10
68.5464923212
 20
36.5432512622
 10
68.5467500552
 20
36.5525178996
  0
LINE
  5
211
330
1F
100
AcDbEntity
  8
0
  6
Continuous
 62
     7
370
    25
100
AcDbLine
 10
66.8592500552
 20
31.7535068203
 30
0.0
 11
66.8535073619
 21
31.750191634
 31
0.0
  0
LINE
  5
212
330
1F
100
AcDbEntity
  8
0
  6
Continuous
 62
     7
370
    25
100
AcDbLine
 10
66.8535073619
 20
31.750191634
 30
0.0
 11
66.8535073619
 21
32.9750028519
 31
0.0
  0
LINE
  5
213
330
1F
100
AcDbEntity
  8
0
  6
Continuous
 62
     7
370
    25
100
AcDbLine
 10
66.8535073619
 20
32.9750028519
 30
0.0
 11
66.9367500552
 21
33.0230578358
 31
0.0
  0
LINE
  5
214
330
1F
100
AcDbEntity
  8
0
  6
Continuous
 62
     7
370
    25
100
AcDbLine
 10
66.8464362941
 20
31.7542736746
 30
0.0
 11
66.8535073619
 21
31.750191634
 31
0.0
  0
LINE
  5
215
330
1F
100
AcDbEntity
  8
0
  6
Continuous
 62
     7
370
    25
100
AcDbLine
 10
66.8464362941
 20
31.7542736746
 30
0.0
 11
66.8464362941
 21
32.9790848924
 31
0.0
  0
LINE
  5
216
330
1F
100
AcDbEntity
  8
0
  6
Continuous
 62
     7
370
    25
100
AcDbLine
 10
66.8464362941
 20
32.9790848924
 30
0.0
 11
66.8535073619
 21
32.9750028519
 31
0.0
  0
LINE
  5
217
330
1F
100
AcDbEntity
  8
0
  6
Continuous
 62
     7
370
    25
100
AcDbLine
 10
66.8464362941
 20
32.9790848924
 30
0.0
 11
66.9367500552
 21
33.0312219169
 31
0.0
  0
ELLIPSE
  5
218
330
1F
100
AcDbEntity
  8
0
  6
Continuous
 62
     7
370
    25
100
AcDbEllipse
 10
68.0467500552
 20
19.6760975295
 30
0.0
 11
0.9466958958099383
 21
1.035121683215984
 31
0.0
210
0.0
220
0.0
230
1.0
 40
0.2019459068
 41
0.0
 42
6.283185307179586
  0
LWPOLYLINE
  5
219
330
1F
100
AcDbEntity
  8
0
  6
Continuous
 62
     7
370
    25
100
AcDbPolyline
 90
       26
 70
   128
 43
0.0
 10
67.2070607525
 20
32.209620247
 10
67.3027694304
 20
32.1600519638
 10
67.4072006008
 20
32.1167479839
 10
67.5191299039
 20
32.0802160067
 10
67.6372450708
 20
32.0508843365
 10
67.7601613093
 20
32.0290968601
 10
67.8864375387
 20
32.0151090158
 10
68.0145932859
 20
32.0090847983
 10
68.1431260418
 20
32.0110948361
 10
68.2705288773
 20
32.0211155632
 10
68.3953081108
 20
32.0390294959
 10
68.5160008197
 20
32.0646266096
 10
68.6311919925
 20
32.0976068016
 10
68.7395311179
 20
32.1375834092
 10
68.8397480188
 20
32.1840877434
 10
68.9306677435
 20
32.2365745834
 10
69.0112243416
 20
32.2944285688
 10
69.0804733605
 20
32.3569714146
 10
69.1376029188
 20
32.4234698632
 10
69.1819432246
 20
32.493144281
 10
69.2129744284
 20
32.5651777992
 10
69.2303327178
 20
32.6387258906
 10
69.2338145826
 20
32.7129262712
 10
69.2233792011
 20
32.7869090093
 10
69.1991489187
 20
32.8598067249
 10
69.1740120058
 20
32.9099288949
  0
LWPOLYLINE
  5
21A
330
1F
100
AcDbEntity
  8
0
  6
Continuous
 62
     7
370
    25
100
AcDbPolyline
 90
       12
 70
   128
 43
0.0
 10
66.9367500552
 20
32.9379589965
 10
66.9115568858
 20
32.8955808458
 10
66.8805256819
 20
32.8235473277
 10
66.8631673926
 20
32.7499992362
 10
66.8596855278
 20
32.6757988556
 10
66.8701209093
 20
32.6018161176
 10
66.8943511916
 20
32.528918402
 10
66.9320922971
 20
32.4579603679
 10
66.9829017455
 20
32.3897739334
 10
67.0461838428
 20
32.3251585222
 10
67.121196664
 20
32.2648716907
 10
67.2070607525
 20
32.209620247
  0
ELLIPSE
  5
21B
330
1F
100
AcDbEntity
  8
0
  6
Continuous
 62
     7
370
    25
100
AcDbEllipse
 10
68.0467500552
 20
19.6760975295
 30
0.0
 11
1.159568206574833
 21
1.267877255099517
 31
0.0
210
0.0
220
0.0
230
1.0
 40
0.2019459068
 41
0.0
 42
6.283185307179586
  0
LINE
  5
21C
330
1F
100
AcDbEntity
  8
0
  6
Continuous
 62
     7
370
    25
100
AcDbLine
 10
68.1066311726
 20
-190.5453225686
 30
0.0
 11
68.0893195372
 21
-190.5375965694
 31
0.0
  0
LWPOLYLINE
  5
21D
330
1F
100
AcDbEntity
  8
0
  6
Continuous
 62
     7
370
    25
100
AcDbPolyline
 90
       18
 70
   128
 43
0.0
 10
67.9389684057
 20
-190.5375965694
 10
67.9382150703
 20
-190.5378825756
 10
67.9051073698
 20
-190.5557007244
 10
67.883815477
 20
-190.5787593102
 10
67.8766466988
 20
-190.6045595773
 10
67.8843778836
 20
-190.6303056665
 10
67.9061712376
 20
-190.6532075895
 10
67.9396651126
 20
-190.6707835676
 10
67.9812299276
 20
-190.6811289709
 10
68.02636149
 20
-190.6831227144
 10
68.0701690947
 20
-190.676548745
 10
68.107905508
 20
-190.6621194544
 10
68.1354814039
 20
-190.64139848
 10
68.1499085062
 20
-190.616631261
 10
68.1496234146
 20
-190.5905017098
 10
68.1346570232
 20
-190.5658413688
 10
68.1066311726
 20
-190.5453225686
 10
68.1066311726
 20
-190.5453225686
  0
LWPOLYLINE
  5
21E
330
1F
100
AcDbEntity
  8
0
  6
Continuous
 62
     7
370
    25
100
AcDbPolyline
 90
       13
 70
   128
 43
0.0
 10
68.2016422341
 20
-190.6453526177
 10
68.1953568125
 20
-190.6726814697
 10
68.1756469803
 20
-190.6998747282
 10
68.1439592087
 20
-190.7229897734
 10
68.1026436348
 20
-190.7403122683
 10
68.0547644458
 20
-190.7505574824
 10
68.003872622
 20
-190.7529655753
 10
67.9537425772
 20
-190.7473579497
 10
67.9080922275
 20
-190.7341504975
 10
67.8703072505
 20
-190.714322755
 10
67.8431899851
 20
-190.6893452551
 10
67.8287515948
 20
-190.6610704649
 10
67.8266440056
 20
-190.6449520202
  0
LINE
  5
21F
330
1F
100
AcDbEntity
  8
0
  6
Continuous
 62
     7
370
    25
100
AcDbLine
 10
67.2893565171
 20
26.9391867616
 30
0.0
 11
67.2917188879
 21
26.9765772867
 31
0.0
  0
LINE
  5
220
330
1F
100
AcDbEntity
  8
0
  6
Continuous
 62
     7
370
    25
100
AcDbLine
 10
68.8152159215
 20
26.9828715283
 30
0.0
 11
68.8176740162
 21
26.9440422565
 31
0.0
  0
LINE
  5
221
330
1F
100
AcDbEntity
  8
0
  6
Continuous
 62
     7
370
    25
100
AcDbLine
 10
66.8390485721
 20
27.3132432579
 30
0.0
 11
66.8453050495
 21
27.4444106512
 31
0.0
  0
LWPOLYLINE
  5
222
330
1F
100
AcDbEntity
  8
0
  6
Continuous
 62
     7
370
    25
100
AcDbPolyline
 90
        3
 70
   128
 43
0.0
 10
69.2499851521
 20
27.4543454508
 10
69.2544826109
 20
27.3589573458
 10
69.2564480982
 20
27.3170420625
  0
LINE
  5
223
330
1F
100
AcDbEntity
  8
0
  6
Continuous
 62
     7
370
    25
100
AcDbLine
 10
66.7933055622
 20
27.6280619761
 30
0.0
 11
66.7927568862
 21
27.6166958984
 31
0.0
  0
INSERT
  5
227
330
1F
100
AcDbEntity
  8
0
  6
Continuous
 62
     7
100
AcDbBlockReference
  2
SW_BROKEN_VIEW_0
 10
0.0
 20
0.0
 30
0.0
  0
LINE
  5
228
330
1F
100
AcDbEntity
  8
0
  6
Continuous
 62
     7
370
    25
100
AcDbLine
 10
33.7572336641
 20
53.7438404341
 30
0.0
 11
33.7572336641
 21
49.321870397
 31
0.0
  0
LINE
  5
229
330
1F
100
AcDbEntity
  8
0
  6
Continuous
 62
     7
370
    25
100
AcDbLine
 10
34.757233652
 20
49.0540531175
 30
0.0
 11
34.757233652
 21
53.7438404341
 31
0.0
  0
ARC
  5
22A
330
1F
100
AcDbEntity
  8
0
  6
Continuous
 62
     7
370
    25
100
AcDbCircle
 10
34.742234208
 20
53.753839888
 30
0.0
 40
0.0099994539932011
100
AcDbArc
 50
269.9969478273
 51
0.0379152441
  0
ARC
  5
22B
330
1F
100
AcDbEntity
  8
0
  6
Continuous
 62
     7
370
    25
100
AcDbCircle
 10
33.7722331081
 20
53.753839888
 30
0.0
 40
0.0099994539932366
100
AcDbArc
 50
179.9620847561
 51
270.0030521728
  0
LINE
  5
22C
330
1F
100
AcDbEntity
  8
0
  6
Continuous
 62
     7
370
    25
100
AcDbLine
 10
33.7622336563
 20
54.4267031589
 30
0.0
 11
33.7622336563
 21
53.7538465051
 31
0.0
  0
LINE
  5
22D
330
1F
100
AcDbEntity
  8
0
  6
Continuous
 62
     7
370
    25
100
AcDbLine
 10
33.7622336563
 20
55.6238460227
 30
0.0
 11
33.7622336563
 21
54.5618414378
 31
0.0
  0
LINE
  5
22E
330
1F
100
AcDbEntity
  8
0
  6
Continuous
 62
     7
370
    25
100
AcDbLine
 10
34.7522336598
 20
54.5618414378
 30
0.0
 11
34.7522336598
 21
55.6238460227
 31
0.0
  0
LINE
  5
22F
330
1F
100
AcDbEntity
  8
0
  6
Continuous
 62
     7
370
    25
100
AcDbLine
 10
34.7522336598
 20
53.7538465051
 30
0.0
 11
34.7522336598
 21
54.4267031589
 31
0.0
  0
LINE
  5
230
330
1F
100
AcDbEntity
  8
0
  6
Continuous
 62
     7
370
    25
100
AcDbLine
 10
33.7622336563
 20
55.8738382281
 30
0.0
 11
33.7622336563
 21
55.6238460227
 31
0.0
  0
LINE
  5
231
330
1F
100
AcDbEntity
  8
0
  6
Continuous
 62
     7
370
    25
100
AcDbLine
 10
34.7522336598
 20
55.6238460227
 30
0.0
 11
34.7522336598
 21
55.8738382281
 31
0.0
  0
LINE
  5
232
330
1F
100
AcDbEntity
  8
0
  6
Continuous
 62
     7
370
    25
100
AcDbLine
 10
35.6202336325
 20
55.8738382281
 30
0.0
 11
35.6492336975
 21
55.9028426931
 31
0.0
  0
LINE
  5
233
330
1F
100
AcDbEntity
  8
0
  6
Continuous
 62
     7
370
    25
100
AcDbLine
 10
35.6492336975
 20
56.844840131
 30
0.0
 11
35.6202336325
 21
56.873844596
 31
0.0
  0
LINE
  5
234
330
1F
100
AcDbEntity
  8
0
  6
Continuous
 62
     7
370
    25
100
AcDbLine
 10
35.6202336325
 20
56.873844596
 30
0.0
 11
32.8942336835
 21
56.873844596
 31
0.0
  0
LINE
  5
235
330
1F
100
AcDbEntity
  8
0
  6
Continuous
 62
     7
370
    25
100
AcDbLine
 10
35.5561835725
 20
55.8738382281
 30
0.0
 11
35.6202336325
 21
55.8738382281
 31
0.0
  0
LINE
  5
236
330
1F
100
AcDbEntity
  8
0
  6
Continuous
 62
     7
370
    25
100
AcDbLine
 10
34.7522336598
 20
55.8738382281
 30
0.0
 11
35.3932336549
 21
55.8738382281
 31
0.0
  0
LINE
  5
237
330
1F
100
AcDbEntity
  8
0
  6
Continuous
 62
     7
370
    25
100
AcDbLine
 10
33.1201836133
 20
55.8738382281
 30
0.0
 11
33.7622336563
 21
55.8738382281
 31
0.0
  0
LINE
  5
238
330
1F
100
AcDbEntity
  8
0
  6
Continuous
 62
     7
370
    25
100
AcDbLine
 10
32.8942336835
 20
55.8738382281
 30
0.0
 11
32.9572336224
 21
55.8738382281
 31
0.0
  0
LINE
  5
239
330
1F
100
AcDbEntity
  8
0
  6
Continuous
 62
     7
370
    25
100
AcDbLine
 10
32.8942336835
 20
56.873844596
 30
0.0
 11
32.8652336185
 21
56.844840131
 31
0.0
  0
LINE
  5
23A
330
1F
100
AcDbEntity
  8
0
  6
Continuous
 62
     7
370
    25
100
AcDbLine
 10
32.8652336185
 20
55.9028426931
 30
0.0
 11
32.8942336835
 21
55.8738382281
 31
0.0
  0
LINE
  5
23B
330
1F
100
AcDbEntity
  8
0
  6
Continuous
 62
     7
370
    25
100
AcDbLine
 10
31.2212335302
 20
55.9988390241
 30
0.0
 11
31.8962336925
 21
55.9988390241
 31
0.0
  0
LINE
  5
23C
330
1F
100
AcDbEntity
  8
0
  6
Continuous
 62
     7
370
    25
100
AcDbLine
 10
36.6182336236
 20
55.9988390241
 30
0.0
 11
37.2932337859
 21
55.9988390241
 31
0.0
  0
LINE
  5
23D
330
1F
100
AcDbEntity
  8
0
  6
Continuous
 62
     7
370
    25
100
AcDbLine
 10
31.8962336925
 20
55.8738382281
 30
0.0
 11
32.8652336185
 21
55.8738382281
 31
0.0
  0
LINE
  5
23E
330
1F
100
AcDbEntity
  8
0
  6
Continuous
 62
     7
370
    25
100
AcDbLine
 10
30.6772337878
 20
55.8738382281
 30
0.0
 11
31.2212335302
 21
55.8738382281
 31
0.0
  0
LINE
  5
23F
330
1F
100
AcDbEntity
  8
0
  6
Continuous
 62
     7
370
    25
100
AcDbLine
 10
32.6222336657
 20
56.873844596
 30
0.0
 11
30.6772337878
 21
56.873844596
 31
0.0
  0
LINE
  5
240
330
1F
100
AcDbEntity
  8
0
  6
Continuous
 62
     7
370
    25
100
AcDbLine
 10
32.8652336185
 20
56.873844596
 30
0.0
 11
32.7582336013
 21
56.873844596
 31
0.0
  0
LINE
  5
241
330
1F
100
AcDbEntity
  8
0
  6
Continuous
 62
     7
370
    25
100
AcDbLine
 10
35.7562337148
 20
56.873844596
 30
0.0
 11
35.6492336975
 21
56.873844596
 31
0.0
  0
LINE
  5
242
330
1F
100
AcDbEntity
  8
0
  6
Continuous
 62
     7
370
    25
100
AcDbLine
 10
37.8372335282
 20
56.873844596
 30
0.0
 11
35.8922336504
 21
56.873844596
 31
0.0
  0
LINE
  5
243
330
1F
100
AcDbEntity
  8
0
  6
Continuous
 62
     7
370
    25
100
AcDbLine
 10
37.2932337859
 20
55.8738382281
 30
0.0
 11
37.8372335282
 21
55.8738382281
 31
0.0
  0
LINE
  5
244
330
1F
100
AcDbEntity
  8
0
  6
Continuous
 62
     7
370
    25
100
AcDbLine
 10
35.6492336975
 20
55.8738382281
 30
0.0
 11
36.6182336236
 21
55.8738382281
 31
0.0
  0
LINE
  5
245
330
1F
100
AcDbEntity
  8
0
  6
Continuous
 62
     7
370
    25
100
AcDbLine
 10
33.7572336641
 20
53.7438404341
 30
0.0
 11
34.757233652
 21
53.7438404341
 31
0.0
  0
LINE
  5
246
330
1F
100
AcDbEntity
  8
0
  6
Continuous
 62
     7
370
    25
100
AcDbLine
 10
33.7622336563
 20
55.6238460227
 30
0.0
 11
34.7522336598
 21
55.6238460227
 31
0.0
  0
SPLINE
  5
247
330
1F
100
AcDbEntity
  8
0
  6
Continuous
 62
     7
370
    25
100
AcDbSpline
210
0.0
220
0.0
230
1.0
 70
     8
 71
     3
 72
    17
 73
    13
 74
     0
 42
0.00000001
 43
0.00000001
 40
0.0
 40
0.0
 40
0.0
 40
0.0
 40
0.0059395340487362
 40
0.0695882531667684
 40
0.1810278684039865
 40
0.3287120329087363
 40
0.4948117898302425
 40
0.659729259161276
 40
0.8066356407801385
 40
0.9202869289195554
 40
0.9865829678501388
 40
1.0
 40
1.0
 40
1.0
 40
1.0
 10
34.75211658444002
 20
54.42670315889692
 30
0.0
 10
34.75208055011208
 20
54.42696910096097
 30
0.0
 10
34.75165836784744
 20
54.43008490828346
 30
0.0
 10
34.75064254759786
 20
54.43820157538129
 30
0.0
 10
34.74915795559019
 20
54.45271210737327
 30
0.0
 10
34.74787952568541
 20
54.4718881893272
 30
0.0
 10
34.74736919998385
 20
54.49351947362091
 30
0.0
 10
34.74785082366967
 20
54.51511619443451
 30
0.0
 10
34.74910293723784
 20
54.53430529711665
 30
0.0
 10
34.75058444429493
 20
54.54900163836242
 30
0.0
 10
34.75166566357819
 20
54.55767195106425
 30
0.0
 10
34.75215182989803
 20
54.56124074974968
 30
0.0
 10
34.75223365975422
 20
54.56184143776799
 30
0.0
  0
SPLINE
  5
248
330
1F
100
AcDbEntity
  8
0
  6
Continuous
 62
     7
370
    25
100
AcDbSpline
210
0.0
220
0.0
230
1.0
 70
     8
 71
     3
 72
    17
 73
    13
 74
     0
 42
0.00000001
 43
0.00000001
 40
0.0
 40
0.0
 40
0.0
 40
0.0
 40
0.0280517126098588
 40
0.1087274058605006
 40
0.233536157643811
 40
0.3888087171631436
 40
0.5556420528578081
 40
0.7151499454701031
 40
0.8514936634626352
 40
0.9496101426025613
 40
0.996943919203804
 40
1.0
 40
1.0
 40
1.0
 40
1.0
 10
33.76223365631874
 20
54.56184143776801
 30
0.0
 10
33.76240428392192
 20
54.56057759491149
 30
0.0
 10
33.76306563023327
 20
54.55567898650528
 30
0.0
 10
33.7643150537006
 20
54.54513655766862
 30
0.0
 10
33.76580431009438
 20
54.52878813181345
 30
0.0
 10
33.76687824643055
 20
54.50855563036678
 30
0.0
 10
33.76701366784408
 20
54.48639365987907
 30
0.0
 10
33.76634342323232
 20
54.46626194299537
 30
0.0
 10
33.76458773192275
 20
54.44580769420435
 30
0.0
 10
33.7639726147658
 20
54.43888815589154
 30
0.0
 10
33.76200210410975
 20
54.42413631974853
 30
0.0
 10
33.76233079683687
 20
54.42655638501484
 30
0.0
 10
33.76235073163294
 20
54.42670315889692
 30
0.0
  0
LINE
  5
249
330
1F
100
AcDbEntity
  8
0
  6
Continuous
 62
     7
370
    25
100
AcDbLine
 10
34.1305450599
 20
56.228847247
 30
0.0
 11
34.3839222562
 21
56.228847247
 31
0.0
  0
SPLINE
  5
24A
330
1F
100
AcDbEntity
  8
0
  6
Continuous
 62
     7
370
    25
100
AcDbSpline
210
0.0
220
0.0
230
1.0
 70
     8
 71
     3
 72
    15
 73
    11
 74
     0
 42
0.00000001
 43
0.00000001
 40
0.0
 40
0.0
 40
0.0
 40
0.0
 40
0.2337622717999133
 40
0.4605138228467081
 40
0.6183087813499272
 40
0.762083383095396
 40
0.8537002222179755
 40
0.9281657847588607
 40
0.9948371239260688
 40
1.0
 40
1.0
 40
1.0
 40
1.0
 10
34.38392225618565
 20
56.22884724704129
 30
0.0
 10
34.41346608460586
 20
56.20196888151933
 30
0.0
 10
34.47166769799092
 20
56.14901825452937
 30
0.0
 10
34.54708037910026
 20
56.07560015198975
 30
0.0
 10
34.61223810182794
 20
56.01195966094235
 30
0.0
 10
34.65837355693652
 20
55.96656904071147
 30
0.0
 10
34.69998196747016
 20
55.92551118473966
 30
0.0
 10
34.71790320599456
 20
55.90781686744234
 30
0.0
 10
34.75902955181774
 20
55.86713200086277
 30
0.0
 10
34.74959447364714
 20
55.87645356323193
 30
0.0
 10
34.74891635474268
 20
55.8771235235171
 30
0.0
  0
SPLINE
  5
24B
330
1F
100
AcDbEntity
  8
0
  6
Continuous
 62
     7
370
    25
100
AcDbSpline
210
0.0
220
0.0
230
1.0
 70
     8
 71
     3
 72
    14
 73
    10
 74
     0
 42
0.00000001
 43
0.00000001
 40
0.0
 40
0.0
 40
0.0
 40
0.0
 40
0.0121252183885271
 40
0.1037921153221587
 40
0.1996595406199929
 40
0.3187350002593244
 40
0.5011209526529263
 40
0.7071323964708727
 40
1.0
 40
1.0
 40
1.0
 40
1.0
 10
33.76555096133028
 20
55.8771235235171
 30
0.0
 10
33.76700596791168
 20
55.8785660187616
 30
0.0
 10
33.779460853758
 20
55.89091380731048
 30
0.0
 10
33.80345911808728
 20
55.91462680789511
 30
0.0
 10
33.84032968481884
 20
55.95102428494163
 30
0.0
 10
33.88815608852353
 20
55.99814428810494
 30
0.0
 10
33.94944706285771
 20
56.05811313511589
 30
0.0
 10
34.03184275042683
 20
56.13851811765864
 30
0.0
 10
34.09403501112046
 20
56.19543444305673
 30
0.0
 10
34.13054505988731
 20
56.22884724704129
 30
0.0
  0
LINE
  5
24C
330
1F
100
AcDbEntity
  8
0
  6
Continuous
 62
     7
370
    25
100
AcDbLine
 10
34.257233658
 20
55.6238460227
 30
0.0
 11
34.7522336598
 21
55.6238460227
 31
0.0
  0
LINE
  5
24D
330
1F
100
AcDbEntity
  8
0
  6
Continuous
 62
     7
370
    25
100
AcDbLine
 10
33.7622336563
 20
55.6238460227
 30
0.0
 11
34.257233658
 21
55.6238460227
 31
0.0
  0
LINE
  5
24E
330
1F
100
AcDbEntity
  8
0
  6
Continuous
 62
     7
370
    25
100
AcDbLine
 10
35.6202336325
 20
55.8738382281
 30
0.0
 11
35.6202336325
 21
56.873844596
 31
0.0
  0
ARC
  5
24F
330
1F
100
AcDbEntity
  8
0
  6
Continuous
 62
     7
370
    25
100
AcDbCircle
 10
35.4752487909
 20
55.3803782032
 30
0.0
 40
0.5002292262379874
100
AcDbArc
 50
80.6888776785
 51
99.4365398648
  0
ARC
  5
250
330
1F
100
AcDbEntity
  8
0
  6
Continuous
 62
     7
370
    25
100
AcDbCircle
 10
33.0392488008
 20
55.3803728302
 30
0.0
 40
0.500234533411311
100
AcDbArc
 50
80.6889737411
 51
99.4364437457
  0
LINE
  5
251
330
1F
100
AcDbEntity
  8
0
  6
Continuous
 62
     7
370
    25
100
AcDbLine
 10
32.8942336835
 20
56.873844596
 30
0.0
 11
32.8942336835
 21
55.8738382281
 31
0.0
  0
LINE
  5
252
330
1F
100
AcDbEntity
  8
0
  6
Continuous
 62
     7
370
    25
100
AcDbLine
 10
33.7622336563
 20
54.4938452099
 30
0.0
 11
33.7622336563
 21
54.5572420242
 31
0.0
  0
LINE
  5
253
330
1F
100
AcDbEntity
  8
0
  6
Continuous
 62
     7
370
    25
100
AcDbLine
 10
33.7622336563
 20
54.4304390091
 30
0.0
 11
33.7622336563
 21
54.4938452099
 31
0.0
  0
LINE
  5
254
330
1F
100
AcDbEntity
  8
0
  6
Continuous
 62
     7
370
    25
100
AcDbLine
 10
33.1026336827
 20
55.8738382281
 30
0.0
 11
32.9758336742
 21
55.8738382281
 31
0.0
  0
LINE
  5
255
330
1F
100
AcDbEntity
  8
0
  6
Continuous
 62
     7
370
    25
100
AcDbLine
 10
32.6268336659
 20
56.873844596
 30
0.0
 11
32.7536336011
 21
56.873844596
 31
0.0
  0
LINE
  5
256
330
1F
100
AcDbEntity
  8
0
  6
Continuous
 62
     7
370
    25
100
AcDbLine
 10
35.4752336743
 20
55.8738382281
 30
0.0
 11
35.4118336333
 21
55.8738382281
 31
0.0
  0
LINE
  5
257
330
1F
100
AcDbEntity
  8
0
  6
Continuous
 62
     7
370
    25
100
AcDbLine
 10
35.5386336419
 20
55.8738382281
 30
0.0
 11
35.4752336743
 21
55.8738382281
 31
0.0
  0
LINE
  5
258
330
1F
100
AcDbEntity
  8
0
  6
Continuous
 62
     7
370
    25
100
AcDbLine
 10
34.7522336598
 20
54.4394125587
 30
0.0
 11
34.7522336598
 21
54.4304390091
 31
0.0
  0
LINE
  5
259
330
1F
100
AcDbEntity
  8
0
  6
Continuous
 62
     7
370
    25
100
AcDbLine
 10
34.7522336598
 20
54.5572420242
 30
0.0
 11
34.7522336598
 21
54.4394125587
 31
0.0
  0
LINE
  5
25A
330
1F
100
AcDbEntity
  8
0
  6
Continuous
 62
     7
370
    25
100
AcDbLine
 10
35.760833715
 20
56.873844596
 30
0.0
 11
35.8876336502
 21
56.873844596
 31
0.0
  0
LINE
  5
25B
330
1F
100
AcDbEntity
  8
0
  6
Continuous
 62
     7
370
    25
100
AcDbLine
 10
31.2212335302
 20
55.8738382281
 30
0.0
 11
31.2212335302
 21
56.073847011
 31
0.0
  0
LINE
  5
25C
330
1F
100
AcDbEntity
  8
0
  6
Continuous
 62
     7
370
    25
100
AcDbLine
 10
31.8962336925
 20
56.073847011
 30
0.0
 11
31.8962336925
 21
55.8738382281
 31
0.0
  0
LINE
  5
25D
330
1F
100
AcDbEntity
  8
0
  6
Continuous
 62
     7
370
    25
100
AcDbLine
 10
31.2212335302
 20
56.073847011
 30
0.0
 11
31.8962336925
 21
56.073847011
 31
0.0
  0
LINE
  5
25E
330
1F
100
AcDbEntity
  8
0
  6
Continuous
 62
     7
370
    25
100
AcDbLine
 10
32.8652336185
 20
56.3738414121
 30
0.0
 11
32.8652336185
 21
55.8738382281
 31
0.0
  0
LINE
  5
25F
330
1F
100
AcDbEntity
  8
0
  6
Continuous
 62
     7
370
    25
100
AcDbLine
 10
32.8652336185
 20
56.873844596
 30
0.0
 11
32.8652336185
 21
56.3738414121
 31
0.0
  0
LINE
  5
260
330
1F
100
AcDbEntity
  8
0
  6
Continuous
 62
     7
370
    25
100
AcDbLine
 10
30.6772337878
 20
56.3738414121
 30
0.0
 11
30.6772337878
 21
55.8738382281
 31
0.0
  0
LINE
  5
261
330
1F
100
AcDbEntity
  8
0
  6
Continuous
 62
     7
370
    25
100
AcDbLine
 10
30.6772337878
 20
56.873844596
 30
0.0
 11
30.6772337878
 21
56.3738414121
 31
0.0
  0
SPLINE
  5
262
330
1F
100
AcDbEntity
  8
0
  6
Continuous
 62
     7
370
    25
100
AcDbSpline
210
0.0
220
0.0
230
1.0
 70
     8
 71
     3
 72
    17
 73
    13
 74
     0
 42
0.00000001
 43
0.00000001
 40
0.0
 40
0.0
 40
0.0
 40
0.0
 40
0.0122832806163476
 40
0.0755441177032797
 40
0.186363775896681
 40
0.3330780359607176
 40
0.4981358029295672
 40
0.6620845319162525
 40
0.8080611642139025
 40
0.9209063415437936
 40
0.9867148640028491
 40
1.0
 40
1.0
 40
1.0
 40
1.0
 10
32.75823360127972
 20
56.87384459597688
 30
0.0
 10
32.75768019177732
 20
56.87376908962509
 30
0.0
 10
32.75427663584686
 20
56.87330471362446
 30
0.0
 10
32.74586476733778
 20
56.8722749804117
 30
0.0
 10
32.73135131487338
 20
56.87079377107823
 30
0.0
 10
32.71217115789055
 20
56.86953825044053
 30
0.0
 10
32.69053835784467
 20
56.86902854492875
 30
0.0
 10
32.66893798086454
 20
56.8694998754976
 30
0.0
 10
32.64974876108791
 20
56.87074146656728
 30
0.0
 10
32.63505989562313
 20
56.8722213926607
 30
0.0
 10
32.62639551684351
 20
56.87327546282032
 30
0.0
 10
32.62283218788732
 20
56.8737627480655
 30
0.0
 10
32.62223366569592
 20
56.87384459597688
 30
0.0
  0
LINE
  5
263
330
1F
100
AcDbEntity
  8
0
  6
Continuous
 62
     7
370
    25
100
AcDbLine
 10
37.2932337859
 20
56.073847011
 30
0.0
 11
37.2932337859
 21
55.8738382281
 31
0.0
  0
LINE
  5
264
330
1F
100
AcDbEntity
  8
0
  6
Continuous
 62
     7
370
    25
100
AcDbLine
 10
37.2932337859
 20
56.073847011
 30
0.0
 11
36.6182336236
 21
56.073847011
 31
0.0
  0
LINE
  5
265
330
1F
100
AcDbEntity
  8
0
  6
Continuous
 62
     7
370
    25
100
AcDbLine
 10
36.6182336236
 20
55.8738382281
 30
0.0
 11
36.6182336236
 21
56.073847011
 31
0.0
  0
LINE
  5
266
330
1F
100
AcDbEntity
  8
0
  6
Continuous
 62
     7
370
    25
100
AcDbLine
 10
35.6492336975
 20
55.8738382281
 30
0.0
 11
35.6492336975
 21
56.873844596
 31
0.0
  0
SPLINE
  5
267
330
1F
100
AcDbEntity
  8
0
  6
Continuous
 62
     7
370
    25
100
AcDbSpline
210
0.0
220
0.0
230
1.0
 70
     8
 71
     3
 72
    17
 73
    13
 74
     0
 42
0.00000001
 43
0.00000001
 40
0.0
 40
0.0
 40
0.0
 40
0.0
 40
0.0280473457558236
 40
0.1087329381636362
 40
0.2335115485166471
 40
0.3887408130632723
 40
0.5555219715546376
 40
0.7150527032346462
 40
0.8513351026585533
 40
0.9494176681202123
 40
0.9967132641253047
 40
1.0
 40
1.0
 40
1.0
 40
1.0
 10
35.89223365037705
 20
56.87384459597688
 30
0.0
 10
35.8909698089568
 20
56.87367362523286
 30
0.0
 10
35.88607019413431
 20
56.8730108120205
 30
0.0
 10
35.87552236976728
 20
56.87178226265493
 30
0.0
 10
35.85918447188816
 20
56.87031168660847
 30
0.0
 10
35.83888973964851
 20
56.86925587585561
 30
0.0
 10
35.81698619788587
 20
56.86908153182426
 30
0.0
 10
35.79595989621666
 20
56.86986732120288
 30
0.0
 10
35.77809673957945
 20
56.87124606491043
 30
0.0
 10
35.76537029980199
 20
56.87268535439608
 30
0.0
 10
35.75865654570056
 20
56.87348408655946
 30
0.0
 10
35.75638153998483
 20
56.87382260006562
 30
0.0
 10
35.75623371479325
 20
56.87384459597688
 30
0.0
  0
LINE
  5
268
330
1F
100
AcDbEntity
  8
0
  6
Continuous
 62
     7
370
    25
100
AcDbLine
 10
37.8372335282
 20
55.8738382281
 30
0.0
 11
37.8372335282
 21
56.873844596
 31
0.0
  0
LINE
  5
269
330
1F
100
AcDbEntity
  8
0
  6
Continuous
 62
     7
370
    25
100
AcDbLine
 10
33.7622336563
 20
53.7538465051
 30
0.0
 11
34.7522336598
 21
53.7538465051
 31
0.0
  0
LINE
  5
26A
330
1F
100
AcDbEntity
  8
0
  6
Continuous
 62
     7
370
    25
100
AcDbLine
 10
33.9669502381
 20
-238.1337495332
 30
0.0
 11
33.9669502381
 21
-235.8537545386
 31
0.0
  0
LINE
  5
26B
330
1F
100
AcDbEntity
  8
0
  6
Continuous
 62
     7
370
    25
100
AcDbLine
 10
34.2266553152
 20
-238.1337495332
 30
0.0
 11
34.2266553152
 21
-235.8537545386
 31
0.0
  0
LINE
  5
26C
330
1F
100
AcDbEntity
  8
0
  6
Continuous
 62
     7
370
    25
100
AcDbLine
 10
34.4863603878
 20
-238.1337495332
 30
0.0
 11
34.4863603878
 21
-235.8537545386
 31
0.0
  0
LINE
  5
26D
330
1F
100
AcDbEntity
  8
0
  6
Continuous
 62
     7
370
    25
100
AcDbLine
 10
34.7460654443
 20
-238.1337495332
 30
0.0
 11
34.7460654443
 21
-235.8537545386
 31
0.0
  0
LINE
  5
26E
330
1F
100
AcDbEntity
  8
0
  6
Continuous
 62
     7
370
    25
100
AcDbLine
 10
34.673060681
 20
-235.8037523429
 30
0.0
 11
34.673060681
 21
-235.7787559383
 31
0.0
  0
LINE
  5
26F
330
1F
100
AcDbEntity
  8
0
  6
Continuous
 62
     7
370
    25
100
AcDbLine
 10
34.2980606947
 20
-235.7787559383
 30
0.0
 11
34.2980606947
 21
-235.8037523429
 31
0.0
  0
ARC
  5
270
330
1F
100
AcDbEntity
  8
0
  6
Continuous
 62
     7
370
    25
100
AcDbCircle
 10
34.3480579071
 20
-235.7787509551
 30
0.0
 40
0.0499972125937508
100
AcDbArc
 50
89.9968102993
 51
180.0057106305
  0
ARC
  5
271
330
1F
100
AcDbEntity
  8
0
  6
Continuous
 62
     7
370
    25
100
AcDbCircle
 10
34.6230634922
 20
-235.7787509317
 30
0.0
 40
0.0499971891280358
100
AcDbArc
 50
359.994262474
 51
90.003216596
  0
LINE
  5
272
330
1F
100
AcDbEntity
  8
0
  6
Continuous
 62
     7
370
    25
100
AcDbLine
 10
34.4809560586
 20
-235.7287537426
 30
0.0
 11
34.4809560586
 21
-234.8037553616
 31
0.0
  0
LINE
  5
273
330
1F
100
AcDbEntity
  8
0
  6
Continuous
 62
     7
370
    25
100
AcDbLine
 10
34.4259560523
 20
-234.8037553616
 30
0.0
 11
34.4259560523
 21
-235.7287537426
 31
0.0
  0
LINE
  5
274
330
1F
100
AcDbEntity
  8
0
  6
Continuous
 62
     7
370
    25
100
AcDbLine
 10
34.4227418894
 20
-234.8037553616
 30
0.0
 11
34.4227418894
 21
-235.7287537426
 31
0.0
  0
LINE
  5
275
330
1F
100
AcDbEntity
  8
0
  6
Continuous
 62
     7
370
    25
100
AcDbLine
 10
34.5483794864
 20
-235.7287537426
 30
0.0
 11
34.5483794864
 21
-234.8037553616
 31
0.0
  0
LINE
  5
276
330
1F
100
AcDbEntity
  8
0
  6
Continuous
 62
     7
370
    25
100
AcDbLine
 10
34.4933794984
 20
-234.8037553616
 30
0.0
 11
34.4933794984
 21
-235.7287537426
 31
0.0
  0
LINE
  5
277
330
1F
100
AcDbEntity
  8
0
  6
Continuous
 62
     7
370
    25
100
AcDbLine
 10
34.4901653172
 20
-234.8037553616
 30
0.0
 11
34.4901653172
 21
-235.7287537426
 31
0.0
  0
LINE
  5
278
330
1F
100
AcDbEntity
  8
0
  6
Continuous
 62
     7
370
    25
100
AcDbLine
 10
33.1487272569
 20
40.6681872697
 30
0.0
 11
33.1472336942
 21
40.6681872697
 31
0.0
  0
LINE
  5
279
330
1F
100
AcDbEntity
  8
0
  6
Continuous
 62
     7
370
    25
100
AcDbLine
 10
33.1472336942
 20
37.5776629717
 30
0.0
 11
33.1472336942
 21
37.4886877862
 31
0.0
  0
LINE
  5
27A
330
1F
100
AcDbEntity
  8
0
  6
Continuous
 62
     7
370
    25
100
AcDbLine
 10
33.1472336942
 20
40.2986854048
 30
0.0
 11
33.1472336942
 21
37.8997157846
 31
0.0
  0
LINE
  5
27B
330
1F
100
AcDbEntity
  8
0
  6
Continuous
 62
     7
370
    25
100
AcDbLine
 10
33.1472336942
 20
40.8486907845
 30
0.0
 11
33.1472336942
 21
40.6786908283
 31
0.0
  0
LINE
  5
27C
330
1F
100
AcDbEntity
  8
0
  6
Continuous
 62
     7
370
    25
100
AcDbLine
 10
35.3672336219
 20
37.4886877862
 30
0.0
 11
35.3672336219
 21
40.8486907845
 31
0.0
  0
LINE
  5
27D
330
1F
100
AcDbEntity
  8
0
  6
Continuous
 62
     7
370
    25
100
AcDbLine
 10
33.7572336641
 20
48.1218748174
 30
0.0
 11
33.7572336641
 21
46.9136839745
 31
0.0
  0
LINE
  5
27E
330
1F
100
AcDbEntity
  8
0
  6
Continuous
 62
     7
370
    25
100
AcDbLine
 10
33.7572336641
 20
46.5986898533
 30
0.0
 11
33.7572336641
 21
42.2136840826
 31
0.0
  0
LINE
  5
27F
330
1F
100
AcDbEntity
  8
0
  6
Continuous
 62
     7
370
    25
100
AcDbLine
 10
34.757233652
 20
42.2136840826
 30
0.0
 11
34.757233652
 21
46.5986898533
 31
0.0
  0
LINE
  5
280
330
1F
100
AcDbEntity
  8
0
  6
Continuous
 62
     7
370
    25
100
AcDbLine
 10
34.757233652
 20
46.9136839745
 30
0.0
 11
34.757233652
 21
47.8540575379
 31
0.0
  0
LINE
  5
281
330
1F
100
AcDbEntity
  8
0
  6
Continuous
 62
     7
370
    25
100
AcDbLine
 10
31.2947338011
 20
31.1536902486
 30
0.0
 11
31.3252893948
 21
30.2786846767
 31
0.0
  0
LINE
  5
282
330
1F
100
AcDbEntity
  8
0
  6
Continuous
 62
     7
370
    25
100
AcDbLine
 10
37.1891779213
 20
30.2786846767
 30
0.0
 11
37.219733515
 21
31.1536902486
 31
0.0
  0
LINE
  5
283
330
1F
100
AcDbEntity
  8
0
  6
Continuous
 62
     7
370
    25
100
AcDbLine
 10
34.1572336574
 20
-242.6772567263
 30
0.0
 11
34.1572336574
 21
-242.8777536101
 31
0.0
  0
LINE
  5
284
330
1F
100
AcDbEntity
  8
0
  6
Continuous
 62
     7
370
    25
100
AcDbLine
 10
34.3572336587
 20
-242.8777536101
 30
0.0
 11
34.3572336587
 21
-242.6772567263
 31
0.0
  0
LINE
  5
285
330
1F
100
AcDbEntity
  8
0
  6
Continuous
 62
     7
370
    25
100
AcDbLine
 10
34.3572336587
 20
-242.6772567263
 30
0.0
 11
34.3447336597
 21
-242.6647538307
 31
0.0
  0
LINE
  5
286
330
1F
100
AcDbEntity
  8
0
  6
Continuous
 62
     7
370
    25
100
AcDbLine
 10
34.1697336563
 20
-242.6647538307
 30
0.0
 11
34.1572336574
 21
-242.6772567263
 31
0.0
  0
LINE
  5
287
330
1F
100
AcDbEntity
  8
0
  6
Continuous
 62
     7
370
    25
100
AcDbLine
 10
34.1572336574
 20
-241.8737485685
 30
0.0
 11
34.1572336574
 21
-242.0742548389
 31
0.0
  0
LINE
  5
288
330
1F
100
AcDbEntity
  8
0
  6
Continuous
 62
     7
370
    25
100
AcDbLine
 10
34.3572336587
 20
-242.0742548389
 30
0.0
 11
34.3572336587
 21
-241.8737485685
 31
0.0
  0
LINE
  5
289
330
1F
100
AcDbEntity
  8
0
  6
Continuous
 62
     7
370
    25
100
AcDbLine
 10
34.1572336574
 20
-242.0742548389
 30
0.0
 11
34.1697336563
 21
-242.0867483479
 31
0.0
  0
LINE
  5
28A
330
1F
100
AcDbEntity
  8
0
  6
Continuous
 62
     7
370
    25
100
AcDbLine
 10
34.3447336597
 20
-242.0867483479
 30
0.0
 11
34.3572336587
 21
-242.0742548389
 31
0.0
  0
LINE
  5
28B
330
1F
100
AcDbEntity
  8
0
  6
Continuous
 62
     7
370
    25
100
AcDbLine
 10
34.3447336597
 20
-242.6647538307
 30
0.0
 11
34.3447336597
 21
-242.0867483479
 31
0.0
  0
LINE
  5
28C
330
1F
100
AcDbEntity
  8
0
  6
Continuous
 62
     7
370
    25
100
AcDbLine
 10
34.1697336563
 20
-242.0867483479
 30
0.0
 11
34.1697336563
 21
-242.6647538307
 31
0.0
  0
LINE
  5
28D
330
1F
100
AcDbEntity
  8
0
  6
Continuous
 62
     7
370
    25
100
AcDbLine
 10
34.4143004403
 20
-242.0742548389
 30
0.0
 11
34.4143004403
 21
-241.8737485685
 31
0.0
  0
LINE
  5
28E
330
1F
100
AcDbEntity
  8
0
  6
Continuous
 62
     7
370
    25
100
AcDbLine
 10
34.4018004413
 20
-242.0867483479
 30
0.0
 11
34.4143004403
 21
-242.0742548389
 31
0.0
  0
LINE
  5
28F
330
1F
100
AcDbEntity
  8
0
  6
Continuous
 62
     7
370
    25
100
AcDbLine
 10
34.4143004403
 20
-242.8777536101
 30
0.0
 11
34.4143004403
 21
-242.6772567263
 31
0.0
  0
LINE
  5
290
330
1F
100
AcDbEntity
  8
0
  6
Continuous
 62
     7
370
    25
100
AcDbLine
 10
34.4143004403
 20
-242.6772567263
 30
0.0
 11
34.4018004413
 21
-242.6647538307
 31
0.0
  0
LINE
  5
291
330
1F
100
AcDbEntity
  8
0
  6
Continuous
 62
     7
370
    25
100
AcDbLine
 10
34.4018004413
 20
-242.6647538307
 30
0.0
 11
34.4018004413
 21
-242.0867483479
 31
0.0
  0
LINE
  5
292
330
1F
100
AcDbEntity
  8
0
  6
Continuous
 62
     7
370
    25
100
AcDbLine
 10
34.1872336567
 20
-238.873748238
 30
0.0
 11
34.1872336567
 21
-241.8737485685
 31
0.0
  0
LINE
  5
293
330
1F
100
AcDbEntity
  8
0
  6
Continuous
 62
     7
370
    25
100
AcDbLine
 10
34.3272336594
 20
-241.8737485685
 30
0.0
 11
34.3272336594
 21
-238.873748238
 31
0.0
  0
LINE
  5
294
330
1F
100
AcDbEntity
  8
0
  6
Continuous
 62
     7
370
    25
100
AcDbLine
 10
34.3862935996
 20
-241.8737485685
 30
0.0
 11
34.3862935996
 21
-238.873748238
 31
0.0
  0
LINE
  5
295
330
1F
100
AcDbEntity
  8
0
  6
Continuous
 62
     7
370
    25
100
AcDbLine
 10
35.3672336219
 20
40.8486907845
 30
0.0
 11
35.3672336219
 21
42.1836846425
 31
0.0
  0
LINE
  5
296
330
1F
100
AcDbEntity
  8
0
  6
Continuous
 62
     7
370
    25
100
AcDbLine
 10
33.1472336942
 20
41.0307806276
 30
0.0
 11
33.1472336942
 21
40.8486907845
 31
0.0
  0
LINE
  5
297
330
1F
100
AcDbEntity
  8
0
  6
Continuous
 62
     7
370
    25
100
AcDbLine
 10
33.1472336942
 20
42.1836846425
 30
0.0
 11
33.1472336942
 21
41.1658156543
 31
0.0
  0
LINE
  5
298
330
1F
100
AcDbEntity
  8
0
  6
Continuous
 62
     7
370
    25
100
AcDbLine
 10
35.3672336219
 20
42.1836846425
 30
0.0
 11
35.3372336685
 21
42.2136840826
 31
0.0
  0
LINE
  5
299
330
1F
100
AcDbEntity
  8
0
  6
Continuous
 62
     7
370
    25
100
AcDbLine
 10
33.1772336476
 20
42.2136840826
 30
0.0
 11
33.1472336942
 21
42.1836846425
 31
0.0
  0
LINE
  5
29A
330
1F
100
AcDbEntity
  8
0
  6
Continuous
 62
     7
370
    25
100
AcDbLine
 10
33.1472336942
 20
37.8997157846
 30
0.0
 11
33.0700848387
 21
37.8997157846
 31
0.0
  0
LINE
  5
29B
330
1F
100
AcDbEntity
  8
0
  6
Continuous
 62
     7
370
    25
100
AcDbLine
 10
33.0700848387
 20
37.5776629717
 30
0.0
 11
33.1472336942
 21
37.5776629717
 31
0.0
  0
ARC
  5
29C
330
1F
100
AcDbEntity
  8
0
  6
Continuous
 62
     7
370
    25
100
AcDbCircle
 10
33.1080233872
 20
37.8341052298
 30
0.0
 40
0.0757896982303559
100
AcDbArc
 50
120.0381539753
 51
179.9940282406
  0
ARC
  5
29D
330
1F
100
AcDbEntity
  8
0
  6
Continuous
 62
     7
370
    25
100
AcDbCircle
 10
33.1080233872
 20
37.6432735265
 30
0.0
 40
0.0757896982304168
100
AcDbArc
 50
180.0059717594
 51
239.9618460246
  0
LINE
  5
29E
330
1F
100
AcDbEntity
  8
0
  6
Continuous
 62
     7
370
    25
100
AcDbLine
 10
34.81223364
 20
37.5776629717
 30
0.0
 11
34.8508080677
 21
37.5776629717
 31
0.0
  0
LINE
  5
29F
330
1F
100
AcDbEntity
  8
0
  6
Continuous
 62
     7
370
    25
100
AcDbLine
 10
34.8508080677
 20
37.8997157846
 30
0.0
 11
34.81223364
 21
37.8997157846
 31
0.0
  0
LINE
  5
2A0
330
1F
100
AcDbEntity
  8
0
  6
Continuous
 62
     7
370
    25
100
AcDbLine
 10
34.4487936035
 20
-238.873748238
 30
0.0
 11
34.4487936035
 21
-238.1837517289
 31
0.0
  0
LINE
  5
2A1
330
1F
100
AcDbEntity
  8
0
  6
Continuous
 62
     7
370
    25
100
AcDbLine
 10
34.1837935977
 20
-238.1837517289
 30
0.0
 11
34.1837935977
 21
-238.873748238
 31
0.0
  0
LINE
  5
2A2
330
1F
100
AcDbEntity
  8
0
  6
Continuous
 62
     7
370
    25
100
AcDbLine
 10
34.1287097953
 20
-238.1837517289
 30
0.0
 11
34.1287097953
 21
-238.873748238
 31
0.0
  0
LINE
  5
2A3
330
1F
100
AcDbEntity
  8
0
  6
Continuous
 62
     7
370
    25
100
AcDbLine
 10
33.059733665
 20
37.4225219372
 30
0.0
 11
33.0591086522
 21
37.4225219372
 31
0.0
  0
LINE
  5
2A4
330
1F
100
AcDbEntity
  8
0
  6
Continuous
 62
     7
370
    25
100
AcDbLine
 10
35.4447336666
 20
23.6023074028
 30
0.0
 11
35.4447336666
 21
30.2786846767
 31
0.0
  0
LINE
  5
2A5
330
1F
100
AcDbEntity
  8
0
  6
Continuous
 62
     7
370
    25
100
AcDbLine
 10
35.4447336666
 20
31.1536902486
 30
0.0
 11
35.4447336666
 21
37.4886877862
 31
0.0
  0
LINE
  5
2A6
330
1F
100
AcDbEntity
  8
0
  6
Continuous
 62
     7
370
    25
100
AcDbLine
 10
33.0697336495
 20
35.988687621
 30
0.0
 11
33.0697336495
 21
31.1536902486
 31
0.0
  0
LINE
  5
2A7
330
1F
100
AcDbEntity
  8
0
  6
Continuous
 62
     7
370
    25
100
AcDbLine
 10
33.0697336495
 20
30.2786846767
 30
0.0
 11
33.0697336495
 21
19.4886858037
 31
0.0
  0
LINE
  5
2A8
330
1F
100
AcDbEntity
  8
0
  6
Continuous
 62
     7
370
    25
100
AcDbLine
 10
33.6672336571
 20
46.8886875699
 30
0.0
 11
33.6672336571
 21
46.6236862579
 31
0.0
  0
LINE
  5
2A9
330
1F
100
AcDbEntity
  8
0
  6
Continuous
 62
     7
370
    25
100
AcDbLine
 10
33.692233655
 20
46.5986898533
 30
0.0
 11
33.9334451385
 21
46.5986898533
 31
0.0
  0
LINE
  5
2AA
330
1F
100
AcDbEntity
  8
0
  6
Continuous
 62
     7
370
    25
100
AcDbLine
 10
34.5810221776
 20
46.5986898533
 30
0.0
 11
34.8222336611
 21
46.5986898533
 31
0.0
  0
ARC
  5
2AB
330
1F
100
AcDbEntity
  8
0
  6
Continuous
 62
     7
370
    25
100
AcDbCircle
 10
33.6922322515
 20
46.6236884478
 30
0.0
 40
0.0249985945138421
100
AcDbArc
 50
180.0050191672
 51
270.0032166438
  0
ARC
  5
2AC
330
1F
100
AcDbEntity
  8
0
  6
Continuous
 62
     7
370
    25
100
AcDbCircle
 10
34.8222350646
 20
46.6236884478
 30
0.0
 40
0.0249985945137991
100
AcDbArc
 50
269.9967833563
 51
359.9949808329
  0
LINE
  5
2AD
330
1F
100
AcDbEntity
  8
0
  6
Continuous
 62
     7
370
    25
100
AcDbLine
 10
34.847233659
 20
46.6236862579
 30
0.0
 11
34.847233659
 21
46.8886875699
 31
0.0
  0
LINE
  5
2AE
330
1F
100
AcDbEntity
  8
0
  6
Continuous
 62
     7
370
    25
100
AcDbLine
 10
34.8222336611
 20
46.9136839745
 30
0.0
 11
34.5810221776
 21
46.9136839745
 31
0.0
  0
LINE
  5
2AF
330
1F
100
AcDbEntity
  8
0
  6
Continuous
 62
     7
370
    25
100
AcDbLine
 10
33.9334451385
 20
46.9136839745
 30
0.0
 11
33.692233655
 21
46.9136839745
 31
0.0
  0
ARC
  5
2B0
330
1F
100
AcDbEntity
  8
0
  6
Continuous
 62
     7
370
    25
100
AcDbCircle
 10
33.6922322515
 20
46.88868538
 30
0.0
 40
0.024998594513835
100
AcDbArc
 50
89.9967833563
 51
179.9949808328
  0
ARC
  5
2B1
330
1F
100
AcDbEntity
  8
0
  6
Continuous
 62
     7
370
    25
100
AcDbCircle
 10
34.8222350646
 20
46.88868538
 30
0.0
 40
0.0249985945138204
100
AcDbArc
 50
0.005019167
 51
90.0032166436
  0
LINE
  5
2B2
330
1F
100
AcDbEntity
  8
0
  6
Continuous
 62
     7
370
    25
100
AcDbLine
 10
33.8517325824
 20
-235.8537545386
 30
0.0
 11
33.8517325824
 21
-238.1337495332
 31
0.0
  0
LINE
  5
2B3
330
1F
100
AcDbEntity
  8
0
  6
Continuous
 62
     7
370
    25
100
AcDbLine
 10
33.837081815
 20
-238.1337495332
 30
0.0
 11
33.837081815
 21
-235.8537545386
 31
0.0
  0
LINE
  5
2B4
330
1F
100
AcDbEntity
  8
0
  6
Continuous
 62
     7
370
    25
100
AcDbLine
 10
33.837081815
 20
-235.8537545386
 30
0.0
 11
33.8517325824
 21
-235.8537545386
 31
0.0
  0
LINE
  5
2B5
330
1F
100
AcDbEntity
  8
0
  6
Continuous
 62
     7
370
    25
100
AcDbLine
 10
33.8517325824
 20
-238.1337495332
 30
0.0
 11
33.837081815
 21
-238.1337495332
 31
0.0
  0
LINE
  5
2B6
330
1F
100
AcDbEntity
  8
0
  6
Continuous
 62
     7
370
    25
100
AcDbLine
 10
33.9536168888
 20
-238.1337495332
 30
0.0
 11
33.9536168888
 21
-235.8537545386
 31
0.0
  0
LINE
  5
2B7
330
1F
100
AcDbEntity
  8
0
  6
Continuous
 62
     7
370
    25
100
AcDbLine
 10
33.9536168888
 20
-235.8537545386
 30
0.0
 11
33.8517325824
 21
-235.8537545386
 31
0.0
  0
LINE
  5
2B8
330
1F
100
AcDbEntity
  8
0
  6
Continuous
 62
     7
370
    25
100
AcDbLine
 10
33.8517325824
 20
-238.1337495332
 30
0.0
 11
33.9536168888
 21
-238.1337495332
 31
0.0
  0
LINE
  5
2B9
330
1F
100
AcDbEntity
  8
0
  6
Continuous
 62
     7
370
    25
100
AcDbLine
 10
33.9536168888
 20
-235.8537545386
 30
0.0
 11
33.9669502381
 21
-235.8537545386
 31
0.0
  0
LINE
  5
2BA
330
1F
100
AcDbEntity
  8
0
  6
Continuous
 62
     7
370
    25
100
AcDbLine
 10
33.9669502381
 20
-238.1337495332
 30
0.0
 11
33.9536168888
 21
-238.1337495332
 31
0.0
  0
LINE
  5
2BB
330
1F
100
AcDbEntity
  8
0
  6
Continuous
 62
     7
370
    25
100
AcDbLine
 10
34.1114376573
 20
-235.8537545386
 30
0.0
 11
34.1114376573
 21
-238.1337495332
 31
0.0
  0
LINE
  5
2BC
330
1F
100
AcDbEntity
  8
0
  6
Continuous
 62
     7
370
    25
100
AcDbLine
 10
34.1114376573
 20
-238.1337495332
 30
0.0
 11
34.0967869082
 21
-238.1337495332
 31
0.0
  0
LINE
  5
2BD
330
1F
100
AcDbEntity
  8
0
  6
Continuous
 62
     7
370
    25
100
AcDbLine
 10
34.0967869082
 20
-238.1337495332
 30
0.0
 11
34.0967869082
 21
-235.8537545386
 31
0.0
  0
LINE
  5
2BE
330
1F
100
AcDbEntity
  8
0
  6
Continuous
 62
     7
370
    25
100
AcDbLine
 10
34.0967869082
 20
-235.8537545386
 30
0.0
 11
34.1114376573
 21
-235.8537545386
 31
0.0
  0
LINE
  5
2BF
330
1F
100
AcDbEntity
  8
0
  6
Continuous
 62
     7
370
    25
100
AcDbLine
 10
34.2133219591
 20
-238.1337495332
 30
0.0
 11
34.2133219591
 21
-235.8537545386
 31
0.0
  0
LINE
  5
2C0
330
1F
100
AcDbEntity
  8
0
  6
Continuous
 62
     7
370
    25
100
AcDbLine
 10
34.2133219591
 20
-235.8537545386
 30
0.0
 11
34.1114376573
 21
-235.8537545386
 31
0.0
  0
LINE
  5
2C1
330
1F
100
AcDbEntity
  8
0
  6
Continuous
 62
     7
370
    25
100
AcDbLine
 10
34.1114376573
 20
-238.1337495332
 30
0.0
 11
34.2133219591
 21
-238.1337495332
 31
0.0
  0
LINE
  5
2C2
330
1F
100
AcDbEntity
  8
0
  6
Continuous
 62
     7
370
    25
100
AcDbLine
 10
33.8353675948
 20
-235.8537545386
 30
0.0
 11
33.8353675948
 21
-238.1337495332
 31
0.0
  0
LINE
  5
2C3
330
1F
100
AcDbEntity
  8
0
  6
Continuous
 62
     7
370
    25
100
AcDbLine
 10
33.837081815
 20
-235.8537545386
 30
0.0
 11
33.8353675948
 21
-235.8537545386
 31
0.0
  0
LINE
  5
2C4
330
1F
100
AcDbEntity
  8
0
  6
Continuous
 62
     7
370
    25
100
AcDbLine
 10
33.837081815
 20
-238.1337495332
 30
0.0
 11
33.8353675948
 21
-238.1337495332
 31
0.0
  0
LINE
  5
2C5
330
1F
100
AcDbEntity
  8
0
  6
Continuous
 62
     7
370
    25
100
AcDbLine
 10
34.2133219591
 20
-235.8537545386
 30
0.0
 11
34.2266553152
 21
-235.8537545386
 31
0.0
  0
LINE
  5
2C6
330
1F
100
AcDbEntity
  8
0
  6
Continuous
 62
     7
370
    25
100
AcDbLine
 10
34.2266553152
 20
-238.1337495332
 30
0.0
 11
34.2133219591
 21
-238.1337495332
 31
0.0
  0
LINE
  5
2C7
330
1F
100
AcDbEntity
  8
0
  6
Continuous
 62
     7
370
    25
100
AcDbLine
 10
34.3711427321
 20
-235.8537545386
 30
0.0
 11
34.3711427321
 21
-238.1337495332
 31
0.0
  0
LINE
  5
2C8
330
1F
100
AcDbEntity
  8
0
  6
Continuous
 62
     7
370
    25
100
AcDbLine
 10
34.3711427321
 20
-238.1337495332
 30
0.0
 11
34.3564919739
 21
-238.1337495332
 31
0.0
  0
LINE
  5
2C9
330
1F
100
AcDbEntity
  8
0
  6
Continuous
 62
     7
370
    25
100
AcDbLine
 10
34.3564919739
 20
-238.1337495332
 30
0.0
 11
34.3564919739
 21
-235.8537545386
 31
0.0
  0
LINE
  5
2CA
330
1F
100
AcDbEntity
  8
0
  6
Continuous
 62
     7
370
    25
100
AcDbLine
 10
34.3564919739
 20
-235.8537545386
 30
0.0
 11
34.3711427321
 21
-235.8537545386
 31
0.0
  0
LINE
  5
2CB
330
1F
100
AcDbEntity
  8
0
  6
Continuous
 62
     7
370
    25
100
AcDbLine
 10
34.4730270202
 20
-238.1337495332
 30
0.0
 11
34.4730270202
 21
-235.8537545386
 31
0.0
  0
LINE
  5
2CC
330
1F
100
AcDbEntity
  8
0
  6
Continuous
 62
     7
370
    25
100
AcDbLine
 10
34.4730270202
 20
-235.8537545386
 30
0.0
 11
34.3711427321
 21
-235.8537545386
 31
0.0
  0
LINE
  5
2CD
330
1F
100
AcDbEntity
  8
0
  6
Continuous
 62
     7
370
    25
100
AcDbLine
 10
34.3711427321
 20
-238.1337495332
 30
0.0
 11
34.4730270202
 21
-238.1337495332
 31
0.0
  0
LINE
  5
2CE
330
1F
100
AcDbEntity
  8
0
  6
Continuous
 62
     7
370
    25
100
AcDbLine
 10
34.0950726697
 20
-235.8537545386
 30
0.0
 11
34.0950726697
 21
-238.1337495332
 31
0.0
  0
LINE
  5
2CF
330
1F
100
AcDbEntity
  8
0
  6
Continuous
 62
     7
370
    25
100
AcDbLine
 10
34.0967869082
 20
-235.8537545386
 30
0.0
 11
34.0950726697
 21
-235.8537545386
 31
0.0
  0
LINE
  5
2D0
330
1F
100
AcDbEntity
  8
0
  6
Continuous
 62
     7
370
    25
100
AcDbLine
 10
34.0967869082
 20
-238.1337495332
 30
0.0
 11
34.0950726697
 21
-238.1337495332
 31
0.0
  0
LINE
  5
2D1
330
1F
100
AcDbEntity
  8
0
  6
Continuous
 62
     7
370
    25
100
AcDbLine
 10
34.4730270202
 20
-235.8537545386
 30
0.0
 11
34.4863603878
 21
-235.8537545386
 31
0.0
  0
LINE
  5
2D2
330
1F
100
AcDbEntity
  8
0
  6
Continuous
 62
     7
370
    25
100
AcDbLine
 10
34.4863603878
 20
-238.1337495332
 30
0.0
 11
34.4730270202
 21
-238.1337495332
 31
0.0
  0
LINE
  5
2D3
330
1F
100
AcDbEntity
  8
0
  6
Continuous
 62
     7
370
    25
100
AcDbLine
 10
33.510243654
 20
-235.8037523429
 30
0.0
 11
33.510243654
 21
-238.1837517289
 31
0.0
  0
LINE
  5
2D4
330
1F
100
AcDbEntity
  8
0
  6
Continuous
 62
     7
370
    25
100
AcDbLine
 10
33.510243654
 20
-235.8037523429
 30
0.0
 11
33.7854243218
 21
-235.8037523429
 31
0.0
  0
LINE
  5
2D5
330
1F
100
AcDbEntity
  8
0
  6
Continuous
 62
     7
370
    25
100
AcDbLine
 10
33.7854243218
 20
-235.8037523429
 30
0.0
 11
33.7854243218
 21
-238.1837517289
 31
0.0
  0
LINE
  5
2D6
330
1F
100
AcDbEntity
  8
0
  6
Continuous
 62
     7
370
    25
100
AcDbLine
 10
33.510243654
 20
-238.1837517289
 30
0.0
 11
33.7854243218
 21
-238.1837517289
 31
0.0
  0
LINE
  5
2D7
330
1F
100
AcDbEntity
  8
0
  6
Continuous
 62
     7
370
    25
100
AcDbLine
 10
34.6308477887
 20
-235.8537545386
 30
0.0
 11
34.6308477887
 21
-238.1337495332
 31
0.0
  0
LINE
  5
2D8
330
1F
100
AcDbEntity
  8
0
  6
Continuous
 62
     7
370
    25
100
AcDbLine
 10
34.6308477887
 20
-238.1337495332
 30
0.0
 11
34.6161970579
 21
-238.1337495332
 31
0.0
  0
LINE
  5
2D9
330
1F
100
AcDbEntity
  8
0
  6
Continuous
 62
     7
370
    25
100
AcDbLine
 10
34.6161970579
 20
-238.1337495332
 30
0.0
 11
34.6161970579
 21
-235.8537545386
 31
0.0
  0
LINE
  5
2DA
330
1F
100
AcDbEntity
  8
0
  6
Continuous
 62
     7
370
    25
100
AcDbLine
 10
34.6161970579
 20
-235.8537545386
 30
0.0
 11
34.6308477887
 21
-235.8537545386
 31
0.0
  0
LINE
  5
2DB
330
1F
100
AcDbEntity
  8
0
  6
Continuous
 62
     7
370
    25
100
AcDbLine
 10
34.732732095
 20
-238.1337495332
 30
0.0
 11
34.732732095
 21
-235.8537545386
 31
0.0
  0
LINE
  5
2DC
330
1F
100
AcDbEntity
  8
0
  6
Continuous
 62
     7
370
    25
100
AcDbLine
 10
34.732732095
 20
-235.8537545386
 30
0.0
 11
34.6308477887
 21
-235.8537545386
 31
0.0
  0
LINE
  5
2DD
330
1F
100
AcDbEntity
  8
0
  6
Continuous
 62
     7
370
    25
100
AcDbLine
 10
34.6308477887
 20
-238.1337495332
 30
0.0
 11
34.732732095
 21
-238.1337495332
 31
0.0
  0
LINE
  5
2DE
330
1F
100
AcDbEntity
  8
0
  6
Continuous
 62
     7
370
    25
100
AcDbLine
 10
34.3547777445
 20
-235.8537545386
 30
0.0
 11
34.3547777445
 21
-238.1337495332
 31
0.0
  0
LINE
  5
2DF
330
1F
100
AcDbEntity
  8
0
  6
Continuous
 62
     7
370
    25
100
AcDbLine
 10
34.3564919739
 20
-235.8537545386
 30
0.0
 11
34.3547777445
 21
-235.8537545386
 31
0.0
  0
LINE
  5
2E0
330
1F
100
AcDbEntity
  8
0
  6
Continuous
 62
     7
370
    25
100
AcDbLine
 10
34.3564919739
 20
-238.1337495332
 30
0.0
 11
34.3547777445
 21
-238.1337495332
 31
0.0
  0
LINE
  5
2E1
330
1F
100
AcDbEntity
  8
0
  6
Continuous
 62
     7
370
    25
100
AcDbLine
 10
34.732732095
 20
-235.8537545386
 30
0.0
 11
34.7460654443
 21
-235.8537545386
 31
0.0
  0
LINE
  5
2E2
330
1F
100
AcDbEntity
  8
0
  6
Continuous
 62
     7
370
    25
100
AcDbLine
 10
34.7460654443
 20
-238.1337495332
 30
0.0
 11
34.732732095
 21
-238.1337495332
 31
0.0
  0
LINE
  5
2E3
330
1F
100
AcDbEntity
  8
0
  6
Continuous
 62
     7
370
    25
100
AcDbLine
 10
34.6144828011
 20
-235.8537545386
 30
0.0
 11
34.6144828011
 21
-238.1337495332
 31
0.0
  0
LINE
  5
2E4
330
1F
100
AcDbEntity
  8
0
  6
Continuous
 62
     7
370
    25
100
AcDbLine
 10
34.7942786207
 20
-235.8037523429
 30
0.0
 11
34.7942786207
 21
-238.1837517289
 31
0.0
  0
LINE
  5
2E5
330
1F
100
AcDbEntity
  8
0
  6
Continuous
 62
     7
370
    25
100
AcDbLine
 10
33.7854243218
 20
-235.8037523429
 30
0.0
 11
34.7942786207
 21
-235.8037523429
 31
0.0
  0
LINE
  5
2E6
330
1F
100
AcDbEntity
  8
0
  6
Continuous
 62
     7
370
    25
100
AcDbLine
 10
33.7854243218
 20
-238.1837517289
 30
0.0
 11
34.7942786207
 21
-238.1837517289
 31
0.0
  0
LINE
  5
2E7
330
1F
100
AcDbEntity
  8
0
  6
Continuous
 62
     7
370
    25
100
AcDbLine
 10
34.6161970579
 20
-235.8537545386
 30
0.0
 11
34.6144828011
 21
-235.8537545386
 31
0.0
  0
LINE
  5
2E8
330
1F
100
AcDbEntity
  8
0
  6
Continuous
 62
     7
370
    25
100
AcDbLine
 10
34.6161970579
 20
-238.1337495332
 30
0.0
 11
34.6144828011
 21
-238.1337495332
 31
0.0
  0
LINE
  5
2E9
330
1F
100
AcDbEntity
  8
0
  6
Continuous
 62
     7
370
    25
100
AcDbLine
 10
35.038508066
 20
-235.8037523429
 30
0.0
 11
35.038508066
 21
-238.1837517289
 31
0.0
  0
LINE
  5
2EA
330
1F
100
AcDbEntity
  8
0
  6
Continuous
 62
     7
370
    25
100
AcDbLine
 10
34.7942786207
 20
-235.8037523429
 30
0.0
 11
35.038508066
 21
-235.8037523429
 31
0.0
  0
LINE
  5
2EB
330
1F
100
AcDbEntity
  8
0
  6
Continuous
 62
     7
370
    25
100
AcDbLine
 10
34.7942786207
 20
-238.1837517289
 30
0.0
 11
35.038508066
 21
-238.1837517289
 31
0.0
  0
LINE
  5
2EC
330
1F
100
AcDbEntity
  8
0
  6
Continuous
 62
     7
370
    25
100
AcDbLine
 10
33.4759592501
 20
-235.8037523429
 30
0.0
 11
33.4759592501
 21
-238.1837517289
 31
0.0
  0
LINE
  5
2ED
330
1F
100
AcDbEntity
  8
0
  6
Continuous
 62
     7
370
    25
100
AcDbLine
 10
33.4759592501
 20
-235.8037523429
 30
0.0
 11
33.510243654
 21
-235.8037523429
 31
0.0
  0
LINE
  5
2EE
330
1F
100
AcDbEntity
  8
0
  6
Continuous
 62
     7
370
    25
100
AcDbLine
 10
33.4759592501
 20
-238.1837517289
 30
0.0
 11
33.510243654
 21
-238.1837517289
 31
0.0
  0
LINE
  5
2EF
330
1F
100
AcDbEntity
  8
0
  6
Continuous
 62
     7
370
    25
100
AcDbLine
 10
34.9060310964
 20
-238.1837517289
 30
0.0
 11
34.9060310964
 21
-238.4337533209
 31
0.0
  0
LINE
  5
2F0
330
1F
100
AcDbEntity
  8
0
  6
Continuous
 62
     7
370
    25
100
AcDbLine
 10
34.9060310964
 20
-238.4337533209
 30
0.0
 11
34.9000789918
 21
-238.4337533209
 31
0.0
  0
LINE
  5
2F1
330
1F
100
AcDbEntity
  8
0
  6
Continuous
 62
     7
370
    25
100
AcDbLine
 10
34.9000789918
 20
-238.4337533209
 30
0.0
 11
34.9000789918
 21
-238.3037494894
 31
0.0
  0
LWPOLYLINE
  5
2F2
330
1F
100
AcDbEntity
  8
0
  6
Continuous
 62
     7
370
    25
100
AcDbPolyline
 90
        9
 70
   128
 43
0.0
 10
34.9000789918
 20
-238.3037494894
 10
34.8998071483
 20
-238.2750547809
 10
34.8990329772
 20
-238.2507154354
 10
34.897874324
 20
-238.2344579165
 10
34.8965076998
 20
-238.2287508891
 10
34.8951410022
 20
-238.2344579165
 10
34.8939824223
 20
-238.2507154354
 10
34.8932082512
 20
-238.2750547809
 10
34.8929364077
 20
-238.3037494894
  0
LINE
  5
2F3
330
1F
100
AcDbEntity
  8
0
  6
Continuous
 62
     7
370
    25
100
AcDbLine
 10
34.8929364077
 20
-238.3037494894
 30
0.0
 11
34.8929364077
 21
-238.4337533209
 31
0.0
  0
LINE
  5
2F4
330
1F
100
AcDbEntity
  8
0
  6
Continuous
 62
     7
370
    25
100
AcDbLine
 10
34.8929364077
 20
-238.4337533209
 30
0.0
 11
34.8869842298
 21
-238.4337533209
 31
0.0
  0
LINE
  5
2F5
330
1F
100
AcDbEntity
  8
0
  6
Continuous
 62
     7
370
    25
100
AcDbLine
 10
34.8869842298
 20
-238.4337533209
 30
0.0
 11
34.8869842298
 21
-238.1837517289
 31
0.0
  0
LINE
  5
2F6
330
1F
100
AcDbEntity
  8
0
  6
Continuous
 62
     7
370
    25
100
AcDbLine
 10
34.9559744061
 20
-238.1837517289
 30
0.0
 11
34.9559744061
 21
-238.4337533209
 31
0.0
  0
LINE
  5
2F7
330
1F
100
AcDbEntity
  8
0
  6
Continuous
 62
     7
370
    25
100
AcDbLine
 10
34.9559744061
 20
-238.4337533209
 30
0.0
 11
34.9060310964
 21
-238.4337533209
 31
0.0
  0
LINE
  5
2F8
330
1F
100
AcDbEntity
  8
0
  6
Continuous
 62
     7
370
    25
100
AcDbLine
 10
34.9060310964
 20
-235.8037523429
 30
0.0
 11
34.9060310964
 21
-235.5537507509
 31
0.0
  0
LINE
  5
2F9
330
1F
100
AcDbEntity
  8
0
  6
Continuous
 62
     7
370
    25
100
AcDbLine
 10
34.9559744061
 20
-235.5537507509
 30
0.0
 11
34.9060310964
 21
-235.5537507509
 31
0.0
  0
LINE
  5
2FA
330
1F
100
AcDbEntity
  8
0
  6
Continuous
 62
     7
370
    25
100
AcDbLine
 10
34.9559744061
 20
-235.8037523429
 30
0.0
 11
34.9559744061
 21
-235.5537507509
 31
0.0
  0
LINE
  5
2FB
330
1F
100
AcDbEntity
  8
0
  6
Continuous
 62
     7
370
    25
100
AcDbLine
 10
34.8929364077
 20
-235.5537507509
 30
0.0
 11
34.8869842298
 21
-235.5537507509
 31
0.0
  0
LINE
  5
2FC
330
1F
100
AcDbEntity
  8
0
  6
Continuous
 62
     7
370
    25
100
AcDbLine
 10
34.8929364077
 20
-235.6837545825
 30
0.0
 11
34.8929364077
 21
-235.5537507509
 31
0.0
  0
LWPOLYLINE
  5
2FD
330
1F
100
AcDbEntity
  8
0
  6
Continuous
 62
     7
370
    25
100
AcDbPolyline
 90
        9
 70
   128
 43
0.0
 10
34.9000789918
 20
-235.6837545825
 10
34.8998071483
 20
-235.712449291
 10
34.8990329772
 20
-235.7367886365
 10
34.897874324
 20
-235.7530461553
 10
34.8965076998
 20
-235.7587531827
 10
34.8951410022
 20
-235.7530461553
 10
34.8939824223
 20
-235.7367886365
 10
34.8932082512
 20
-235.712449291
 10
34.8929364077
 20
-235.6837545825
  0
LINE
  5
2FE
330
1F
100
AcDbEntity
  8
0
  6
Continuous
 62
     7
370
    25
100
AcDbLine
 10
34.9000789918
 20
-235.5537507509
 30
0.0
 11
34.9000789918
 21
-235.6837545825
 31
0.0
  0
LINE
  5
2FF
330
1F
100
AcDbEntity
  8
0
  6
Continuous
 62
     7
370
    25
100
AcDbLine
 10
34.9060310964
 20
-235.5537507509
 30
0.0
 11
34.9000789918
 21
-235.5537507509
 31
0.0
  0
LINE
  5
300
330
1F
100
AcDbEntity
  8
0
  6
Continuous
 62
     7
370
    25
100
AcDbLine
 10
34.8869842298
 20
-235.5537507509
 30
0.0
 11
34.8869842298
 21
-235.8037523429
 31
0.0
  0
LINE
  5
301
330
1F
100
AcDbEntity
  8
0
  6
Continuous
 62
     7
370
    25
100
AcDbLine
 10
34.9000789918
 20
-235.5537507509
 30
0.0
 11
34.8929364077
 21
-235.5537507509
 31
0.0
  0
LINE
  5
302
330
1F
100
AcDbEntity
  8
0
  6
Continuous
 62
     7
370
    25
100
AcDbLine
 10
34.9000789918
 20
-238.4337533209
 30
0.0
 11
34.8929364077
 21
-238.4337533209
 31
0.0
  0
LINE
  5
303
330
1F
100
AcDbEntity
  8
0
  6
Continuous
 62
     7
370
    25
100
AcDbLine
 10
34.3480606905
 20
-235.7287537426
 30
0.0
 11
34.6230606853
 21
-235.7287537426
 31
0.0
  0
LINE
  5
304
330
1F
100
AcDbEntity
  8
0
  6
Continuous
 62
     7
370
    25
100
AcDbLine
 10
34.4259560523
 20
-234.8037553616
 30
0.0
 11
34.4809560586
 21
-234.8037553616
 31
0.0
  0
LINE
  5
305
330
1F
100
AcDbEntity
  8
0
  6
Continuous
 62
     7
370
    25
100
AcDbLine
 10
34.4227418894
 20
-234.8037553616
 30
0.0
 11
34.4259560523
 21
-234.8037553616
 31
0.0
  0
LINE
  5
306
330
1F
100
AcDbEntity
  8
0
  6
Continuous
 62
     7
370
    25
100
AcDbLine
 10
34.4933794984
 20
-234.8037553616
 30
0.0
 11
34.5483794864
 21
-234.8037553616
 31
0.0
  0
LINE
  5
307
330
1F
100
AcDbEntity
  8
0
  6
Continuous
 62
     7
370
    25
100
AcDbLine
 10
34.4901653172
 20
-234.8037553616
 30
0.0
 11
34.4933794984
 21
-234.8037553616
 31
0.0
  0
LINE
  5
308
330
1F
100
AcDbEntity
  8
0
  6
Continuous
 62
     7
370
    25
100
AcDbLine
 10
33.1522336498
 20
40.3326459725
 30
0.0
 11
33.1522336498
 21
40.6430500667
 31
0.0
  0
LINE
  5
309
330
1F
100
AcDbEntity
  8
0
  6
Continuous
 62
     7
370
    25
100
AcDbLine
 10
33.1472336942
 20
40.3091889635
 30
0.0
 11
33.1472336942
 21
40.6681872697
 31
0.0
  0
LINE
  5
30A
330
1F
100
AcDbEntity
  8
0
  6
Continuous
 62
     7
370
    25
100
AcDbLine
 10
33.1472336942
 20
40.8486907845
 30
0.0
 11
35.3672336219
 21
40.8486907845
 31
0.0
  0
SPLINE
  5
30B
330
1F
100
AcDbEntity
  8
0
  6
Continuous
 62
     7
370
    25
100
AcDbSpline
210
0.0
220
0.0
230
1.0
 70
     8
 71
     3
 72
    17
 73
    13
 74
     0
 42
0.00000001
 43
0.00000001
 40
0.0
 40
0.0
 40
0.0
 40
0.0
 40
0.0057223451574053
 40
0.0523466270405694
 40
0.1420625060633724
 40
0.2717013439755953
 40
0.4325964966591502
 40
0.606671235353006
 40
0.7706010546017238
 40
0.9011616769561317
 40
0.9793811721000055
 40
1.0
 40
1.0
 40
1.0
 40
1.0
 10
33.14723369418412
 20
40.67869082832353
 30
0.0
 10
33.14734060087727
 20
40.67797122303131
 30
0.0
 10
33.14831855740395
 20
40.67138844816999
 30
0.0
 10
33.15083095407436
 20
40.65350257118079
 30
0.0
 10
33.15490118196992
 20
40.61992985658255
 30
0.0
 10
33.15917753224147
 20
40.57176483512324
 30
0.0
 10
33.16184343107702
 20
40.51273395455858
 30
0.0
 10
33.16146057205084
 20
40.44927788194706
 30
0.0
 10
33.15804280803837
 20
40.38978070269816
 30
0.0
 10
33.15324538844153
 20
40.34262893101962
 30
0.0
 10
33.1494451033543
 20
40.31371059702936
 30
0.0
 10
33.14761539310072
 20
40.30127881888006
 30
0.0
 10
33.14723369418412
 20
40.29868540484528
 30
0.0
  0
LINE
  5
30C
330
1F
100
AcDbEntity
  8
0
  6
Continuous
 62
     7
370
    25
100
AcDbLine
 10
34.278216005
 20
30.2786846767
 30
0.0
 11
37.1891779213
 21
30.2786846767
 31
0.0
  0
LINE
  5
30D
330
1F
100
AcDbEntity
  8
0
  6
Continuous
 62
     7
370
    25
100
AcDbLine
 10
31.3252893948
 20
30.2786846767
 30
0.0
 11
34.278216005
 21
30.2786846767
 31
0.0
  0
LINE
  5
30E
330
1F
100
AcDbEntity
  8
0
  6
Continuous
 62
     7
370
    25
100
AcDbLine
 10
34.2784346756
 20
31.1536902486
 30
0.0
 11
37.219733515
 21
31.1536902486
 31
0.0
  0
LINE
  5
30F
330
1F
100
AcDbEntity
  8
0
  6
Continuous
 62
     7
370
    25
100
AcDbLine
 10
31.2947338011
 20
31.1536902486
 30
0.0
 11
34.2784346756
 21
31.1536902486
 31
0.0
  0
LINE
  5
310
330
1F
100
AcDbEntity
  8
0
  6
Continuous
 62
     7
370
    25
100
AcDbLine
 10
34.3232828396
 20
-242.6772567263
 30
0.0
 11
34.1572336574
 21
-242.6772567263
 31
0.0
  0
LINE
  5
311
330
1F
100
AcDbEntity
  8
0
  6
Continuous
 62
     7
370
    25
100
AcDbLine
 10
34.3572336587
 20
-242.6772567263
 30
0.0
 11
34.3232828396
 21
-242.6772567263
 31
0.0
  0
LINE
  5
312
330
1F
100
AcDbEntity
  8
0
  6
Continuous
 62
     7
370
    25
100
AcDbLine
 10
34.3232828396
 20
-242.8777536101
 30
0.0
 11
34.1572336574
 21
-242.8777536101
 31
0.0
  0
LINE
  5
313
330
1F
100
AcDbEntity
  8
0
  6
Continuous
 62
     7
370
    25
100
AcDbLine
 10
34.3572336587
 20
-242.8777536101
 30
0.0
 11
34.3232828396
 21
-242.8777536101
 31
0.0
  0
LINE
  5
314
330
1F
100
AcDbEntity
  8
0
  6
Continuous
 62
     7
370
    25
100
AcDbLine
 10
34.3150266925
 20
-242.6647538307
 30
0.0
 11
34.3447336597
 21
-242.6647538307
 31
0.0
  0
LINE
  5
315
330
1F
100
AcDbEntity
  8
0
  6
Continuous
 62
     7
370
    25
100
AcDbLine
 10
34.1697336563
 20
-242.6647538307
 30
0.0
 11
34.3150266925
 21
-242.6647538307
 31
0.0
  0
LINE
  5
316
330
1F
100
AcDbEntity
  8
0
  6
Continuous
 62
     7
370
    25
100
AcDbLine
 10
34.3232828396
 20
-242.0742548389
 30
0.0
 11
34.1572336574
 21
-242.0742548389
 31
0.0
  0
LINE
  5
317
330
1F
100
AcDbEntity
  8
0
  6
Continuous
 62
     7
370
    25
100
AcDbLine
 10
34.3572336587
 20
-242.0742548389
 30
0.0
 11
34.3232828396
 21
-242.0742548389
 31
0.0
  0
LINE
  5
318
330
1F
100
AcDbEntity
  8
0
  6
Continuous
 62
     7
370
    25
100
AcDbLine
 10
34.3232828396
 20
-241.8737485685
 30
0.0
 11
34.1572336574
 21
-241.8737485685
 31
0.0
  0
LINE
  5
319
330
1F
100
AcDbEntity
  8
0
  6
Continuous
 62
     7
370
    25
100
AcDbLine
 10
34.3572336587
 20
-241.8737485685
 30
0.0
 11
34.3232828396
 21
-241.8737485685
 31
0.0
  0
LINE
  5
31A
330
1F
100
AcDbEntity
  8
0
  6
Continuous
 62
     7
370
    25
100
AcDbLine
 10
34.3150266925
 20
-242.0867483479
 30
0.0
 11
34.1697336563
 21
-242.0867483479
 31
0.0
  0
LINE
  5
31B
330
1F
100
AcDbEntity
  8
0
  6
Continuous
 62
     7
370
    25
100
AcDbLine
 10
34.3447336597
 20
-242.0867483479
 30
0.0
 11
34.3150266925
 21
-242.0867483479
 31
0.0
  0
LINE
  5
31C
330
1F
100
AcDbEntity
  8
0
  6
Continuous
 62
     7
370
    25
100
AcDbLine
 10
34.4143004403
 20
-242.0742548389
 30
0.0
 11
34.3572336587
 21
-242.0742548389
 31
0.0
  0
LINE
  5
31D
330
1F
100
AcDbEntity
  8
0
  6
Continuous
 62
     7
370
    25
100
AcDbLine
 10
34.4143004403
 20
-241.8737485685
 30
0.0
 11
34.3862935996
 21
-241.8737485685
 31
0.0
  0
LINE
  5
31E
330
1F
100
AcDbEntity
  8
0
  6
Continuous
 62
     7
370
    25
100
AcDbLine
 10
34.4018004413
 20
-242.0867483479
 30
0.0
 11
34.3447336597
 21
-242.0867483479
 31
0.0
  0
LINE
  5
31F
330
1F
100
AcDbEntity
  8
0
  6
Continuous
 62
     7
370
    25
100
AcDbLine
 10
34.4143004403
 20
-242.8777536101
 30
0.0
 11
34.3572336587
 21
-242.8777536101
 31
0.0
  0
LINE
  5
320
330
1F
100
AcDbEntity
  8
0
  6
Continuous
 62
     7
370
    25
100
AcDbLine
 10
34.4143004403
 20
-242.6772567263
 30
0.0
 11
34.3572336587
 21
-242.6772567263
 31
0.0
  0
LINE
  5
321
330
1F
100
AcDbEntity
  8
0
  6
Continuous
 62
     7
370
    25
100
AcDbLine
 10
34.3447336597
 20
-242.6647538307
 30
0.0
 11
34.4018004413
 21
-242.6647538307
 31
0.0
  0
LINE
  5
322
330
1F
100
AcDbEntity
  8
0
  6
Continuous
 62
     7
370
    25
100
AcDbLine
 10
34.3270454057
 20
-238.873748238
 30
0.0
 11
34.1872336567
 21
-238.873748238
 31
0.0
  0
LINE
  5
323
330
1F
100
AcDbEntity
  8
0
  6
Continuous
 62
     7
370
    25
100
AcDbLine
 10
34.3861271899
 20
-241.8737485685
 30
0.0
 11
34.3572336587
 21
-241.8737485685
 31
0.0
  0
SPLINE
  5
324
330
1F
100
AcDbEntity
  8
0
  6
Continuous
 62
     7
370
    25
100
AcDbSpline
210
0.0
220
0.0
230
1.0
 70
    11
 71
     3
 72
    26
 73
    22
 74
     0
 42
0.00000001
 43
0.00000001
 40
0.0
 40
0.0
 40
0.0
 40
0.0
 40
0.0366011542382665
 40
0.0937536743365691
 40
0.1491128304954084
 40
0.2018226084350986
 40
0.252257906933778
 40
0.3019366673162884
 40
0.3526954601626053
 40
0.4057520435137159
 40
0.4612192687608582
 40
0.5182980646615202
 40
0.5756765235048303
 40
0.6321648819340699
 40
0.6867991893349057
 40
0.739070610862897
 40
0.7893270588003347
 40
0.8389804087295755
 40
0.8899979826552838
 40
0.9437139260455655
 40
1.0
 40
1.0
 40
1.0
 40
1.0
 10
34.86877801009061
 20
41.08420891707731
 30
0.0
 10
34.8693879387255
 20
41.08902898430283
 30
0.0
 10
34.87095026788682
 20
41.10137556250085
 30
0.0
 10
34.86793753593357
 20
41.12125518632391
 30
0.0
 10
34.85880196808986
 20
41.14145504112208
 30
0.0
 10
34.84421733991633
 20
41.15714840022995
 30
0.0
 10
34.82559872682772
 20
41.16628159692166
 30
0.0
 10
34.80512639584678
 20
41.16752533579979
 30
0.0
 10
34.78543126639448
 20
41.16080508667491
 30
0.0
 10
34.76881166581694
 20
41.14714943456353
 30
0.0
 10
34.75706073345741
 20
41.12819342515821
 30
0.0
 10
34.75150113191063
 20
41.10602626921899
 30
0.0
 10
34.75275390168942
 20
41.08307857497071
 30
0.0
 10
34.76066152586711
 20
41.06183485146752
 30
0.0
 10
34.77434077017575
 20
41.04457480283065
 30
0.0
 10
34.79233348229597
 20
41.03325789041787
 30
0.0
 10
34.81261535932845
 20
41.02935053715151
 30
0.0
 10
34.83271835548834
 20
41.03354542269111
 30
0.0
 10
34.84997452701373
 20
41.04526215420884
 30
0.0
 10
34.86305360266759
 20
41.06277479232054
 30
0.0
 10
34.86684038234445
 20
41.07695378099523
 30
0.0
 10
34.86877801009061
 20
41.08420891707731
 30
0.0
  0
SPLINE
  5
325
330
1F
100
AcDbEntity
  8
0
  6
Continuous
 62
     7
370
    25
100
AcDbSpline
210
0.0
220
0.0
230
1.0
 70
     8
 71
     3
 72
    12
 73
     8
 74
     0
 42
0.00000001
 43
0.00000001
 40
0.0
 40
0.0
 40
0.0
 40
0.0
 40
0.3347350046116658
 40
0.6318457900502242
 40
0.8583421547560182
 40
0.9880988262933195
 40
1.0
 40
1.0
 40
1.0
 40
1.0
 10
33.14931846343402
 20
41.09869237642981
 30
0.0
 10
33.14927497182821
 20
41.10618649523863
 30
0.0
 10
33.14919287707368
 20
41.12033239379797
 30
0.0
 10
33.14860899618461
 20
41.13954164156819
 30
0.0
 10
33.14795216797118
 20
41.15415452980994
 30
0.0
 10
33.14749501411846
 20
41.16238414105382
 30
0.0
 10
33.14730251909317
 20
41.16554970425349
 30
0.0
 10
33.1472863469092
 20
41.16581565434931
 30
0.0
  0
SPLINE
  5
326
330
1F
100
AcDbEntity
  8
0
  6
Continuous
 62
     7
370
    25
100
AcDbSpline
210
0.0
220
0.0
230
1.0
 70
     8
 71
     3
 72
    13
 73
     9
 74
     0
 42
0.00000001
 43
0.00000001
 40
0.0
 40
0.0
 40
0.0
 40
0.0
 40
0.0013795672950064
 40
0.0601650132154304
 40
0.2245913851102425
 40
0.4764624869162989
 40
0.7874458409142471
 40
1.0
 40
1.0
 40
1.0
 40
1.0
 10
33.14723890079063
 20
41.0307806276188
 30
0.0
 10
33.14723714543427
 20
41.0307485679279
 30
0.0
 10
33.14716059169247
 20
41.02935039639095
 30
0.0
 10
33.14781765199805
 20
41.04055664499236
 30
0.0
 10
33.14806745721991
 20
41.0458455208896
 30
0.0
 10
33.14888542627469
 20
41.06516492001568
 30
0.0
 10
33.14924581424005
 20
41.08183299241514
 30
0.0
 10
33.14929748522041
 20
41.09382405319315
 30
0.0
 10
33.14931846343402
 20
41.09869237642981
 30
0.0
  0
LINE
  5
327
330
1F
100
AcDbEntity
  8
0
  6
Continuous
 62
     7
370
    25
100
AcDbLine
 10
34.257233658
 20
42.1836846425
 30
0.0
 11
33.1472336942
 21
42.1836846425
 31
0.0
  0
LINE
  5
328
330
1F
100
AcDbEntity
  8
0
  6
Continuous
 62
     7
370
    25
100
AcDbLine
 10
35.3672336219
 20
42.1836846425
 30
0.0
 11
34.257233658
 21
42.1836846425
 31
0.0
  0
LINE
  5
329
330
1F
100
AcDbEntity
  8
0
  6
Continuous
 62
     7
370
    25
100
AcDbLine
 10
34.257233658
 20
42.2136840826
 30
0.0
 11
35.3372336685
 21
42.2136840826
 31
0.0
  0
LINE
  5
32A
330
1F
100
AcDbEntity
  8
0
  6
Continuous
 62
     7
370
    25
100
AcDbLine
 10
33.1772336476
 20
42.2136840826
 30
0.0
 11
34.257233658
 21
42.2136840826
 31
0.0
  0
LINE
  5
32B
330
1F
100
AcDbEntity
  8
0
  6
Continuous
 62
     7
370
    25
100
AcDbLine
 10
33.0700848387
 20
37.5849375543
 30
0.0
 11
33.0700848387
 21
37.5776629717
 31
0.0
  0
LINE
  5
32C
330
1F
100
AcDbEntity
  8
0
  6
Continuous
 62
     7
370
    25
100
AcDbLine
 10
33.0700848387
 20
37.8997157846
 30
0.0
 11
33.0700848387
 21
37.5849375543
 31
0.0
  0
LINE
  5
32D
330
1F
100
AcDbEntity
  8
0
  6
Continuous
 62
     7
370
    25
100
AcDbLine
 10
33.1472336942
 20
37.7865232789
 30
0.0
 11
33.1472336942
 21
37.5776629717
 31
0.0
  0
LINE
  5
32E
330
1F
100
AcDbEntity
  8
0
  6
Continuous
 62
     7
370
    25
100
AcDbLine
 10
33.1472336942
 20
37.8997157846
 30
0.0
 11
33.1472336942
 21
37.7865232789
 31
0.0
  0
LINE
  5
32F
330
1F
100
AcDbEntity
  8
0
  6
Continuous
 62
     7
370
    25
100
AcDbLine
 10
33.0322336893
 20
37.767036784
 30
0.0
 11
33.0322336893
 21
37.6432656271
 31
0.0
  0
LINE
  5
330
330
1F
100
AcDbEntity
  8
0
  6
Continuous
 62
     7
370
    25
100
AcDbLine
 10
33.0322336893
 20
37.8341131291
 30
0.0
 11
33.0322336893
 21
37.767036784
 31
0.0
  0
LWPOLYLINE
  5
331
330
1F
100
AcDbEntity
  8
0
  6
Continuous
 62
     7
370
    25
100
AcDbPolyline
 90
       17
 70
   128
 43
0.0
 10
34.9332405287
 20
37.7997489394
 10
34.9486417442
 20
37.767036784
 10
34.952029925
 20
37.7300068118
 10
34.9428891773
 20
37.6943003443
 10
34.9226112782
 20
37.6653615852
 10
34.8942831588
 20
37.6475740574
 10
34.8622176492
 20
37.6436598626
 10
34.8312963464
 20
37.6542197406
 10
34.8062267927
 20
37.6776298168
 10
34.7908256139
 20
37.7103419723
 10
34.7874374331
 20
37.7473625579
 10
34.7965781075
 20
37.7830690255
 10
34.8168560799
 20
37.812017171
 10
34.8451841626
 20
37.8298046989
 10
34.8772497089
 20
37.8337188937
 10
34.9081709384
 20
37.8231590157
 10
34.9332405287
 20
37.7997489394
  0
LWPOLYLINE
  5
332
330
1F
100
AcDbEntity
  8
0
  6
Continuous
 62
     7
370
    25
100
AcDbPolyline
 90
       22
 70
   128
 43
0.0
 10
34.9296420303
 20
37.6058695792
 10
34.8922344691
 20
37.5849375543
 10
34.8511460204
 20
37.5776629717
 10
34.8100275054
 20
37.5847028903
 10
34.7725325319
 20
37.6054284109
 10
34.7419927047
 20
37.6379903814
 10
34.7211215825
 20
37.6794977419
 10
34.7117736705
 20
37.726261575
 10
34.7147795691
 20
37.7741424086
 10
34.7298722014
 20
37.818859972
 10
34.7557104996
 20
37.8564625243
 10
34.7899986435
 20
37.8835990641
 10
34.8296899983
 20
37.8978572461
 10
34.8712577481
 20
37.8979698848
 10
34.9110084656
 20
37.8839369802
 10
34.9454101282
 20
37.8569881715
 10
34.9714059812
 20
37.8195358042
 10
34.9866861247
 20
37.7749027198
 10
34.9898929543
 20
37.7270406594
 10
34.9807415
 20
37.6802205069
 10
34.9600448724
 20
37.6386005077
 10
34.9296420303
 20
37.6058695792
  0
LWPOLYLINE
  5
333
330
1F
100
AcDbEntity
  8
0
  6
Continuous
 62
     7
370
    25
100
AcDbPolyline
 90
       12
 70
   128
 43
0.0
 10
34.81223364
 20
37.5776629717
 10
34.7815327013
 20
37.5816147127
 10
34.742801562
 20
37.5990455513
 10
34.7102397382
 20
37.6288760334
 10
34.686740563
 20
37.668468536
 10
34.674391959
 20
37.7143030999
 10
34.6742912368
 20
37.7623059587
 10
34.6864472697
 20
37.8082062284
 10
34.7097800168
 20
37.8479301428
 10
34.7422161855
 20
37.8779389695
 10
34.7808736989
 20
37.895585699
 10
34.81223364
 20
37.8997157846
  0
LINE
  5
334
330
1F
100
AcDbEntity
  8
0
  6
Continuous
 62
     7
370
    25
100
AcDbLine
 10
34.8280917168
 20
37.8150020966
 30
0.0
 11
34.8445350601
 21
37.7539800815
 31
0.0
  0
LINE
  5
335
330
1F
100
AcDbEntity
  8
0
  6
Continuous
 62
     7
370
    25
100
AcDbLine
 10
34.8445350601
 20
37.7539800815
 30
0.0
 11
34.7916822107
 21
37.7349910742
 31
0.0
  0
LINE
  5
336
330
1F
100
AcDbEntity
  8
0
  6
Continuous
 62
     7
370
    25
100
AcDbLine
 10
34.7916822107
 20
37.7349910742
 30
0.0
 11
34.8036409792
 21
37.6906020403
 31
0.0
  0
LINE
  5
337
330
1F
100
AcDbEntity
  8
0
  6
Continuous
 62
     7
370
    25
100
AcDbLine
 10
34.8036409792
 20
37.6906020403
 30
0.0
 11
34.8564938287
 21
37.7095910476
 31
0.0
  0
LINE
  5
338
330
1F
100
AcDbEntity
  8
0
  6
Continuous
 62
     7
370
    25
100
AcDbLine
 10
34.8564938287
 20
37.7095910476
 30
0.0
 11
34.872937172
 21
37.648559646
 31
0.0
  0
LINE
  5
339
330
1F
100
AcDbEntity
  8
0
  6
Continuous
 62
     7
370
    25
100
AcDbLine
 10
34.872937172
 20
37.648559646
 30
0.0
 11
34.911375568
 21
37.6623672732
 31
0.0
  0
LINE
  5
33A
330
1F
100
AcDbEntity
  8
0
  6
Continuous
 62
     7
370
    25
100
AcDbLine
 10
34.911375568
 20
37.6623672732
 30
0.0
 11
34.894932298
 21
37.7233986748
 31
0.0
  0
LINE
  5
33B
330
1F
100
AcDbEntity
  8
0
  6
Continuous
 62
     7
370
    25
100
AcDbLine
 10
34.894932298
 20
37.7233986748
 30
0.0
 11
34.9477850741
 21
37.7423876821
 31
0.0
  0
LINE
  5
33C
330
1F
100
AcDbEntity
  8
0
  6
Continuous
 62
     7
370
    25
100
AcDbLine
 10
34.9477850741
 20
37.7423876821
 30
0.0
 11
34.9358263055
 21
37.786776716
 31
0.0
  0
LINE
  5
33D
330
1F
100
AcDbEntity
  8
0
  6
Continuous
 62
     7
370
    25
100
AcDbLine
 10
34.9358263055
 20
37.786776716
 30
0.0
 11
34.8829734561
 21
37.7677877087
 31
0.0
  0
LINE
  5
33E
330
1F
100
AcDbEntity
  8
0
  6
Continuous
 62
     7
370
    25
100
AcDbLine
 10
34.8665301494
 20
37.8288191103
 30
0.0
 11
34.8829734561
 21
37.7677877087
 31
0.0
  0
LINE
  5
33F
330
1F
100
AcDbEntity
  8
0
  6
Continuous
 62
     7
370
    25
100
AcDbLine
 10
34.8665301494
 20
37.8288191103
 30
0.0
 11
34.8280917168
 21
37.8150020966
 31
0.0
  0
LINE
  5
340
330
1F
100
AcDbEntity
  8
0
  6
Continuous
 62
     7
370
    25
100
AcDbLine
 10
34.8245365578
 20
37.7095910476
 30
0.0
 11
34.8153980101
 21
37.7435046825
 31
0.0
  0
LINE
  5
341
330
1F
100
AcDbEntity
  8
0
  6
Continuous
 62
     7
370
    25
100
AcDbLine
 10
34.8036409792
 20
37.6906020403
 30
0.0
 11
34.8245365578
 21
37.7095910476
 31
0.0
  0
LINE
  5
342
330
1F
100
AcDbEntity
  8
0
  6
Continuous
 62
     7
370
    25
100
AcDbLine
 10
34.8564938287
 20
37.7095910476
 30
0.0
 11
34.8245365578
 21
37.7095910476
 31
0.0
  0
LINE
  5
343
330
1F
100
AcDbEntity
  8
0
  6
Continuous
 62
     7
370
    25
100
AcDbLine
 10
34.8665301494
 20
37.8288191103
 30
0.0
 11
34.8510161853
 21
37.7677877087
 31
0.0
  0
LINE
  5
344
330
1F
100
AcDbEntity
  8
0
  6
Continuous
 62
     7
370
    25
100
AcDbLine
 10
34.8417148027
 20
37.7644460939
 30
0.0
 11
34.8510161853
 21
37.7677877087
 31
0.0
  0
LINE
  5
345
330
1F
100
AcDbEntity
  8
0
  6
Continuous
 62
     7
370
    25
100
AcDbLine
 10
34.8629749538
 20
37.7233986748
 30
0.0
 11
34.8245365578
 21
37.7095910476
 31
0.0
  0
LINE
  5
346
330
1F
100
AcDbEntity
  8
0
  6
Continuous
 62
     7
370
    25
100
AcDbLine
 10
34.911375568
 20
37.6623672732
 30
0.0
 11
34.8629749538
 21
37.7233986748
 31
0.0
  0
LINE
  5
347
330
1F
100
AcDbEntity
  8
0
  6
Continuous
 62
     7
370
    25
100
AcDbLine
 10
34.8829734561
 20
37.7677877087
 30
0.0
 11
34.8510161853
 21
37.7677877087
 31
0.0
  0
LINE
  5
348
330
1F
100
AcDbEntity
  8
0
  6
Continuous
 62
     7
370
    25
100
AcDbLine
 10
34.9477850741
 20
37.7423876821
 30
0.0
 11
34.8629749538
 21
37.7233986748
 31
0.0
  0
LINE
  5
349
330
1F
100
AcDbEntity
  8
0
  6
Continuous
 62
     7
370
    25
100
AcDbLine
 10
34.8510161853
 20
37.7677877087
 30
0.0
 11
34.8629749538
 21
37.7233986748
 31
0.0
  0
LINE
  5
34A
330
1F
100
AcDbEntity
  8
0
  6
Continuous
 62
     7
370
    25
100
AcDbLine
 10
34.894932298
 20
37.7233986748
 30
0.0
 11
34.8629749538
 21
37.7233986748
 31
0.0
  0
LINE
  5
34B
330
1F
100
AcDbEntity
  8
0
  6
Continuous
 62
     7
370
    25
100
AcDbLine
 10
34.8203076567
 20
37.7452693555
 30
0.0
 11
34.8261555191
 21
37.7386893781
 31
0.0
  0
LINE
  5
34C
330
1F
100
AcDbEntity
  8
0
  6
Continuous
 62
     7
370
    25
100
AcDbLine
 10
34.8240219471
 20
37.7466116333
 30
0.0
 11
34.8261555191
 21
37.7386893781
 31
0.0
  0
LINE
  5
34D
330
1F
100
AcDbEntity
  8
0
  6
Continuous
 62
     7
370
    25
100
AcDbLine
 10
34.8175316188
 20
37.7355918139
 30
0.0
 11
34.8261555191
 21
37.7386893781
 31
0.0
  0
LINE
  5
34E
330
1F
100
AcDbEntity
  8
0
  6
Continuous
 62
     7
370
    25
100
AcDbLine
 10
34.8245365578
 20
37.7095910476
 30
0.0
 11
34.8261555191
 21
37.7386893781
 31
0.0
  0
LINE
  5
34F
330
1F
100
AcDbEntity
  8
0
  6
Continuous
 62
     7
370
    25
100
AcDbLine
 10
34.8261555191
 20
37.7386893781
 30
0.0
 11
34.8321349401
 21
37.7164995545
 31
0.0
  0
LINE
  5
350
330
1F
100
AcDbEntity
  8
0
  6
Continuous
 62
     7
370
    25
100
AcDbLine
 10
34.8245365578
 20
37.7095910476
 30
0.0
 11
34.8321349401
 21
37.7164995545
 31
0.0
  0
LINE
  5
351
330
1F
100
AcDbEntity
  8
0
  6
Continuous
 62
     7
370
    25
100
AcDbLine
 10
34.8321349401
 20
37.7164995545
 30
0.0
 11
34.8629749538
 21
37.7233986748
 31
0.0
  0
LINE
  5
352
330
1F
100
AcDbEntity
  8
0
  6
Continuous
 62
     7
370
    25
100
AcDbLine
 10
34.8261555191
 20
37.7386893781
 30
0.0
 11
34.8368628688
 21
37.7512204334
 31
0.0
  0
LINE
  5
353
330
1F
100
AcDbEntity
  8
0
  6
Continuous
 62
     7
370
    25
100
AcDbLine
 10
34.8432602849
 20
37.7587109068
 30
0.0
 11
34.8510161853
 21
37.7677877087
 31
0.0
  0
LINE
  5
354
330
1F
100
AcDbEntity
  8
0
  6
Continuous
 62
     7
370
    25
100
AcDbLine
 10
34.8453747538
 20
37.7455884984
 30
0.0
 11
34.8510161853
 21
37.7677877087
 31
0.0
  0
LINE
  5
355
330
1F
100
AcDbEntity
  8
0
  6
Continuous
 62
     7
370
    25
100
AcDbLine
 10
34.8261555191
 20
37.7386893781
 30
0.0
 11
34.8453747538
 21
37.7455884984
 31
0.0
  0
LINE
  5
356
330
1F
100
AcDbEntity
  8
0
  6
Continuous
 62
     7
370
    25
100
AcDbLine
 10
34.8261555191
 20
37.7386893781
 30
0.0
 11
34.8629749538
 21
37.7233986748
 31
0.0
  0
LINE
  5
357
330
1F
100
AcDbEntity
  8
0
  6
Continuous
 62
     7
370
    25
100
AcDbLine
 10
34.8453747538
 20
37.7455884984
 30
0.0
 11
34.8629749538
 21
37.7233986748
 31
0.0
  0
LINE
  5
358
330
1F
100
AcDbEntity
  8
0
  6
Continuous
 62
     7
370
    25
100
AcDbLine
 10
34.1837935977
 20
-238.873748238
 30
0.0
 11
34.1872336567
 21
-238.873748238
 31
0.0
  0
LINE
  5
359
330
1F
100
AcDbEntity
  8
0
  6
Continuous
 62
     7
370
    25
100
AcDbLine
 10
34.3270454057
 20
-238.873748238
 30
0.0
 11
34.4487936035
 21
-238.873748238
 31
0.0
  0
LINE
  5
35A
330
1F
100
AcDbEntity
  8
0
  6
Continuous
 62
     7
370
    25
100
AcDbLine
 10
34.1287097953
 20
-238.873748238
 30
0.0
 11
34.1837935977
 21
-238.873748238
 31
0.0
  0
LINE
  5
35B
330
1F
100
AcDbEntity
  8
0
  6
Continuous
 62
     7
370
    25
100
AcDbLine
 10
33.1472336942
 20
41.109984406
 30
0.0
 11
33.1472336942
 21
41.1620891907
 31
0.0
  0
LINE
  5
35C
330
1F
100
AcDbEntity
  8
0
  6
Continuous
 62
     7
370
    25
100
AcDbLine
 10
33.1472336942
 20
41.0352861756
 30
0.0
 11
33.1472336942
 21
41.109984406
 31
0.0
  0
LWPOLYLINE
  5
35D
330
1F
100
AcDbEntity
  8
0
  6
Continuous
 62
     7
370
    25
100
AcDbPolyline
 90
       17
 70
   128
 43
0.0
 10
34.8658920834
 20
41.085250825
 10
34.8662612758
 20
41.109984406
 10
34.8584052399
 20
41.1330002468
 10
34.8435200285
 20
41.1507877746
 10
34.8238717255
 20
41.1606436608
 10
34.8024516363
 20
41.1610754424
 10
34.7825207832
 20
41.1519986406
 10
34.7671134445
 20
41.1348118525
 10
34.7585752332
 20
41.1121245413
 10
34.7582060408
 20
41.0873909603
 10
34.7660620767
 20
41.0643751195
 10
34.7809472881
 20
41.0465875917
 10
34.8005955911
 20
41.0367317055
 10
34.8220156803
 20
41.0362999239
 10
34.8419465334
 20
41.0453767257
 10
34.8573538721
 20
41.0625635138
 10
34.8658920834
 20
41.085250825
  0
LINE
  5
35E
330
1F
100
AcDbEntity
  8
0
  6
Continuous
 62
     7
370
    25
100
AcDbLine
 10
34.7870283111
 20
41.1330565661
 30
0.0
 11
34.7738575766
 21
41.0906668691
 31
0.0
  0
LINE
  5
35F
330
1F
100
AcDbEntity
  8
0
  6
Continuous
 62
     7
370
    25
100
AcDbLine
 10
34.7990629421
 20
41.0563026795
 30
0.0
 11
34.7738575766
 21
41.0906668691
 31
0.0
  0
LINE
  5
360
330
1F
100
AcDbEntity
  8
0
  6
Continuous
 62
     7
370
    25
100
AcDbLine
 10
34.8374390055
 20
41.0643281867
 30
0.0
 11
34.7990629421
 21
41.0563026795
 31
0.0
  0
LINE
  5
361
330
1F
100
AcDbEntity
  8
0
  6
Continuous
 62
     7
370
    25
100
AcDbLine
 10
34.8374390055
 20
41.0643281867
 30
0.0
 11
34.85060974
 21
41.1067084972
 31
0.0
  0
LINE
  5
362
330
1F
100
AcDbEntity
  8
0
  6
Continuous
 62
     7
370
    25
100
AcDbLine
 10
34.8254043745
 20
41.1410726868
 30
0.0
 11
34.85060974
 21
41.1067084972
 31
0.0
  0
LINE
  5
363
330
1F
100
AcDbEntity
  8
0
  6
Continuous
 62
     7
370
    25
100
AcDbLine
 10
34.8254043745
 20
41.1410726868
 30
0.0
 11
34.7870283111
 21
41.1330565661
 31
0.0
  0
LINE
  5
364
330
1F
100
AcDbEntity
  8
0
  6
Continuous
 62
     7
370
    25
100
AcDbLine
 10
34.7931782301
 20
41.0643281867
 30
0.0
 11
34.8374390055
 21
41.0643281867
 31
0.0
  0
LINE
  5
365
330
1F
100
AcDbEntity
  8
0
  6
Continuous
 62
     7
370
    25
100
AcDbLine
 10
34.8056097365
 20
41.1067084972
 30
0.0
 11
34.85060974
 21
41.1067084972
 31
0.0
  0
LINE
  5
366
330
1F
100
AcDbEntity
  8
0
  6
Continuous
 62
     7
370
    25
100
AcDbLine
 10
34.7868083137
 20
41.1323431877
 30
0.0
 11
34.8056097365
 21
41.1067084972
 31
0.0
  0
LINE
  5
367
330
1F
100
AcDbEntity
  8
0
  6
Continuous
 62
     7
370
    25
100
AcDbLine
 10
34.7926589994
 20
41.0650321786
 30
0.0
 11
34.8056097365
 21
41.1067084972
 31
0.0
  0
LINE
  5
368
330
1F
100
AcDbEntity
  8
0
  6
Continuous
 62
     7
370
    25
100
AcDbLine
 10
33.059733665
 20
35.988687621
 30
0.0
 11
33.0697336495
 21
35.988687621
 31
0.0
  0
LINE
  5
369
330
1F
100
AcDbEntity
  8
0
  6
Continuous
 62
     7
370
    25
100
AcDbLine
 10
33.059733665
 20
35.988687621
 30
0.0
 11
33.059733665
 21
37.4886877862
 31
0.0
  0
LINE
  5
36A
330
1F
100
AcDbEntity
  8
0
  6
Continuous
 62
     7
370
    25
100
AcDbLine
 10
33.0697336495
 20
35.988687621
 30
0.0
 11
33.0697336495
 21
37.4886877862
 31
0.0
  0
LINE
  5
36B
330
1F
100
AcDbEntity
  8
0
  6
Continuous
 62
     7
370
    25
100
AcDbLine
 10
33.059733665
 20
37.4886877862
 30
0.0
 11
33.0697336495
 21
37.4886877862
 31
0.0
  0
LINE
  5
36C
330
1F
100
AcDbEntity
  8
0
  6
Continuous
 62
     7
370
    25
100
AcDbLine
 10
34.257233658
 20
37.4886877862
 30
0.0
 11
35.4447336666
 21
37.4886877862
 31
0.0
  0
LINE
  5
36D
330
1F
100
AcDbEntity
  8
0
  6
Continuous
 62
     7
370
    25
100
AcDbLine
 10
33.0697336495
 20
37.4886877862
 30
0.0
 11
34.257233658
 21
37.4886877862
 31
0.0
  0
LWPOLYLINE
  5
36E
330
1F
100
AcDbEntity
  8
0
  6
Continuous
 62
     7
370
    25
100
AcDbPolyline
 90
       42
 70
   128
 43
0.0
 10
33.0697336495
 20
19.4886858037
 10
33.0732180426
 20
19.4947213607
 10
33.0836506887
 20
19.5127904853
 10
33.1009703553
 20
19.5427899254
 10
33.1250754768
 20
19.5845413364
 10
33.1558245216
 20
19.6378006678
 10
33.1930370917
 20
19.7022581632
 10
33.2364947297
 20
19.7775289737
 10
33.2859425318
 20
19.863171931
 10
33.3410902481
 20
19.9586895475
 10
33.4016142622
 20
20.0635186299
 10
33.467159425
 20
20.1770490517
 10
33.537340961
 20
20.2986049808
 10
33.6117471814
 20
20.4274824253
 10
33.6899413914
 20
20.5629210741
 10
33.7714646397
 20
20.7041230696
 10
33.855838615
 20
20.8502623947
 10
33.9425681397
 20
21.0004848726
 10
34.0311442132
 20
21.1538987804
 10
34.1210470913
 20
21.3096123949
 10
34.2117491606
 20
21.46671522
 10
34.3027181555
 20
21.6242779865
 10
34.3934202248
 20
21.7813808117
 10
34.4833231029
 20
21.9370944262
 10
34.5718991763
 20
22.0905177205
 10
34.6586287011
 20
22.2407308119
 10
34.7430026764
 20
22.3868795236
 10
34.8245259246
 20
22.528081519
 10
34.9027201347
 20
22.6635107812
 10
34.9771263551
 20
22.7923882258
 10
35.047307891
 20
22.9139441549
 10
35.1128530538
 20
23.0274745767
 10
35.173377068
 20
23.132303659
 10
35.2285247843
 20
23.2278212756
 10
35.2779725864
 20
23.3134736195
 10
35.3214302243
 20
23.3887444299
 10
35.3586427945
 20
23.4531925387
 10
35.3893918392
 20
23.5064518702
 10
35.4134969608
 20
23.5482032812
 10
35.4308166274
 20
23.5782027213
 10
35.4412492735
 20
23.5962718459
 10
35.4447336666
 20
23.6023074028
  0
LINE
  5
36F
330
1F
100
AcDbEntity
  8
0
  6
Continuous
 62
     7
370
    25
100
AcDbLine
 10
34.9000789918
 20
-238.3037494894
 30
0.0
 11
34.8929364077
 21
-238.3037494894
 31
0.0
  0
LINE
  5
370
330
1F
100
AcDbEntity
  8
0
  6
Continuous
 62
     7
370
    25
100
AcDbLine
 10
34.9000789918
 20
-235.6837545825
 30
0.0
 11
34.8929364077
 21
-235.6837545825
 31
0.0
  0
LINE
  5
371
330
1F
100
AcDbEntity
  8
0
  6
Continuous
 62
     7
370
    25
100
AcDbLine
 10
34.673060681
 20
-235.7787559383
 30
0.0
 11
34.2980606947
 21
-235.7787559383
 31
0.0
  0
DIMENSION
  5
372
330
1F
100
AcDbEntity
  8
0
  6
Continuous
 62
     7
370
    18
100
AcDbDimension
  2
_D
 10
37.837233658
 20
60.8658111417
 30
0.0
 11
34.8459932063
 21
60.8658111417
 31
0.0
 70
   160
  1
<>
 71
     2
 42
-1.0
  3
SLDDIMSTYLE0
100
AcDbAlignedDimension
 13
30.677233658
 23
56.8738428469
 33
0.0
 14
37.837233658
 24
56.8738428469
 34
0.0
100
AcDbRotatedDimension
  0
DIMENSION
  5
388
330
1F
100
AcDbEntity
  8
0
  6
Continuous
 62
     7
370
    18
100
AcDbDimension
  2
_D_1
 10
23.7480997998
 20
53.7438428469
 30
0.0
 11
23.7480997998
 21
50.5623216697
 31
0.0
 70
   160
  1
SPECIFY LENGTH\P3"-24" MAX\P[76MM-610MM]
 71
     2
 42
-1.0
  3
SLDDIMSTYLE1
100
AcDbAlignedDimension
 13
33.177233658
 23
42.2136884779
 33
0.0
 14
33.757233658
 24
53.7438428469
 34
0.0
 50
90.0
100
AcDbRotatedDimension
  0
DIMENSION
  5
39A
330
1F
100
AcDbEntity
  8
0
  6
Continuous
 62
     7
370
    18
100
AcDbDimension
  2
_D_2
 10
23.7480997998
 20
53.7438428469
 30
0.0
 11
23.7480997998
 21
60.8658111417
 31
0.0
 70
   160
  1
<>
 71
     2
 42
-1.0
  3
SLDDIMSTYLE2
100
AcDbAlignedDimension
 13
35.649233658
 23
56.8738428469
 33
0.0
 14
33.757233658
 24
53.7438428469
 34
0.0
 50
90.0
100
AcDbRotatedDimension
  0
DIMENSION
  5
3B0
330
1F
100
AcDbEntity
  8
0
  6
Continuous
 62
     7
370
    18
100
AcDbDimension
  2
_D_3
 10
41.7528501639
 20
56.8738428469
 30
0.0
 11
41.7528501639
 21
53.4676486395
 31
0.0
 70
   160
  1
%%c<>
 71
     2
 42
-1.0
  3
SLDDIMSTYLE3
100
AcDbAlignedDimension
 13
37.837233658
 23
55.8738428469
 33
0.0
 14
37.837233658
 24
56.8738428469
 34
0.0
 50
90.0
100
AcDbRotatedDimension
  0
DIMENSION
  5
3C5
330
1F
100
AcDbEntity
  8
0
  6
Continuous
 62
     7
370
    18
100
AcDbDimension
  2
_D_4
 10
41.7528501639
 20
37.4886884779
 30
0.0
 11
41.7528501639
 21
44.6750569903
 31
0.0
 70
   160
  1
<>
 71
     2
 42
-1.0
  3
SLDDIMSTYLE2
100
AcDbAlignedDimension
 13
35.337233658
 23
42.2136884779
 33
0.0
 14
35.444733658
 24
37.4886884779
 34
0.0
 50
90.0
100
AcDbRotatedDimension
  0
DIMENSION
  5
3DA
330
1F
100
AcDbEntity
  8
0
  6
Continuous
 62
     7
370
    18
100
AcDbDimension
  2
_D_5
 10
41.7528501639
 20
30.2786884779
 30
0.0
 11
41.7528501639
 21
34.0671642963
 31
0.0
 70
   160
  1
<>
 71
     2
 42
-1.0
  3
SLDDIMSTYLE0
100
AcDbAlignedDimension
 13
37.219733658
 23
31.1536884779
 33
0.0
 14
37.1891779847
 24
30.2786884779
 34
0.0
 50
90.0
100
AcDbRotatedDimension
  0
DIMENSION
  5
3EF
330
1F
100
AcDbEntity
  8
0
  6
Continuous
 62
     7
370
    18
100
AcDbDimension
  2
_D_6
 10
23.7480997998
 20
37.4886884779
 30
0.0
 11
23.7480997998
 21
30.8859088288
 31
0.0
 70
   160
  1
SPECIFY LENGTH\P12" OR 18"\P[305mm or 457mm]
 71
     2
 42
-1.0
  3
SLDDIMSTYLE1
100
AcDbAlignedDimension
 13
33.069733658
 23
19.4886884779
 33
0.0
 14
33.069733658
 24
37.4886884779
 34
0.0
 50
90.0
100
AcDbRotatedDimension
  0
DIMENSION
  5
3FD
330
1F
100
AcDbEntity
  8
0
  6
Continuous
 62
     7
370
    18
100
AcDbDimension
  2
_D_7
 10
31.294733658
 20
25.7369814662
 30
0.0
 11
46.6561312958
 21
25.7369814662
 31
0.0
 70
   160
  1
%%c<>
 71
     2
 42
-1.0
  3
SLDDIMSTYLE2
100
AcDbAlignedDimension
 13
37.219733658
 23
31.1536884779
 33
0.0
 14
31.294733658
 24
31.1536884779
 34
0.0
100
AcDbRotatedDimension
  0
ARC
  5
410
330
1F
100
AcDbEntity
  8
0
  6
HIDDEN
 62
     7
370
    18
100
AcDbCircle
 10
35.007233658
 20
49.7879627994
 30
0.0
 40
1.950000000000004
100
AcDbArc
 50
247.380135052
 51
292.619864948
  0
ARC
  5
411
330
1F
100
AcDbEntity
  8
0
  6
HIDDEN
 62
     7
370
    18
100
AcDbCircle
 10
33.507233658
 20
46.1879627994
 30
0.0
 40
1.950000000000013
100
AcDbArc
 50
67.380135052
 51
112.619864948
  0
ARC
  5
412
330
1F
100
AcDbEntity
  8
0
  6
HIDDEN
 62
     7
370
    18
100
AcDbCircle
 10
35.007233658
 20
50.9879627994
 30
0.0
 40
1.950000000000004
100
AcDbArc
 50
247.380135052
 51
292.619864948
  0
ARC
  5
413
330
1F
100
AcDbEntity
  8
0
  6
HIDDEN
 62
     7
370
    18
100
AcDbCircle
 10
33.507233658
 20
47.3879627994
 30
0.0
 40
1.950000000000013
100
AcDbArc
 50
67.380135052
 51
112.619864948
  0
ENDSEC
  0
SECTION
  2
OBJECTS
  0
DICTIONARY
  5
C
330
0
100
AcDbDictionary
281
     1
  3
ACAD_GROUP
350
D
  3
ACAD_LAYOUT
350
1A
  3
ACAD_MLINESTYLE
350
17
  3
ACAD_PLOTSETTINGS
350
19
  3
ACAD_PLOTSTYLENAME
350
E
  3
ACAD_SCALELIST
350
47
  3
DWGPROPS
350
414
  0
DICTIONARY
  5
D
102
{ACAD_REACTORS
330
C
102
}
330
C
100
AcDbDictionary
281
     1
  0
DICTIONARY
  5
1A
102
{ACAD_REACTORS
330
C
102
}
330
C
100
AcDbDictionary
281
     1
  3
Layout1
350
1E
  3
Layout2
350
26
  3
Model
350
22
  0
DICTIONARY
  5
17
102
{ACAD_REACTORS
330
C
102
}
330
C
100
AcDbDictionary
281
     1
  3
Standard
350
18
  0
DICTIONARY
  5
19
102
{ACAD_REACTORS
330
C
102
}
330
C
100
AcDbDictionary
281
     1
  0
ACDBDICTIONARYWDFLT
  5
E
102
{ACAD_REACTORS
330
C
102
}
330
C
100
AcDbDictionary
281
     1
  3
Normal
350
F
100
AcDbDictionaryWithDefault
340
F
  0
DICTIONARY
  5
47
102
{ACAD_REACTORS
330
C
102
}
330
C
100
AcDbDictionary
281
     1
  3
A0
350
48
  3
A1
350
49
  3
A2
350
4A
  3
A3
350
4B
  3
A4
350
4C
  3
A5
350
4D
  3
A6
350
4E
  3
A7
350
4F
  3
A8
350
50
  3
A9
350
51
  3
B1
350
52
  3
B2
350
53
  3
B3
350
54
  3
B4
350
55
  3
B5
350
56
  3
B6
350
57
  3
B7
350
58
  0
XRECORD
  5
414
102
{ACAD_REACTORS
330
C
102
}
330
C
100
AcDbXrecord
280
     1
  1
DWGPROPS COOKIE
  2

  3

  4

  6

  7

  8
gurisher.rai
  9

300
=
301
=
302
=
303
=
304
=
305
=
306
=
307
=
308
=
309
=
 40
0.0
 41
2460566.616663935
 42
2460566.616664445
  1

 90
        0
  0
LAYOUT
  5
1E
102
{ACAD_REACTORS
330
1A
102
}
330
1A
100
AcDbPlotSettings
  1

  2
none_device
  4

  6

 40
0.0
 41
0.0
 42
0.0
 43
0.0
 44
0.0
 45
0.0
 46
0.0
 47
0.0
 48
0.0
 49
0.0
140
0.0
141
0.0
142
1.0
143
1.0
 70
   688
 72
     0
 73
     0
 74
     5
  7

 75
    16
147
1.0
148
0.0
149
0.0
100
AcDbLayout
  1
Layout1
 70
     1
 71
     1
 10
0.0
 20
0.0
 11
12.0
 21
9.0
 12
0.0
 22
0.0
 32
0.0
 14
1.0000000000E+20
 24
1.0000000000E+20
 34
1.0000000000E+20
 15
-1.0000000000E+20
 25
-1.0000000000E+20
 35
-1.0000000000E+20
146
0.0
 13
0.0
 23
0.0
 33
0.0
 16
1.0
 26
0.0
 36
0.0
 17
0.0
 27
1.0
 37
0.0
 76
     0
330
1B
  0
LAYOUT
  5
26
102
{ACAD_REACTORS
330
1A
102
}
330
1A
100
AcDbPlotSettings
  1

  2
none_device
  4

  6

 40
0.0
 41
0.0
 42
0.0
 43
0.0
 44
0.0
 45
0.0
 46
0.0
 47
0.0
 48
0.0
 49
0.0
140
0.0
141
0.0
142
1.0
143
1.0
 70
   688
 72
     0
 73
     0
 74
     5
  7

 75
    16
147
1.0
148
0.0
149
0.0
100
AcDbLayout
  1
Layout2
 70
     1
 71
     2
 10
0.0
 20
0.0
 11
0.0
 21
0.0
 12
0.0
 22
0.0
 32
0.0
 14
0.0
 24
0.0
 34
0.0
 15
0.0
 25
0.0
 35
0.0
146
0.0
 13
0.0
 23
0.0
 33
0.0
 16
1.0
 26
0.0
 36
0.0
 17
0.0
 27
1.0
 37
0.0
 76
     0
330
23
  0
LAYOUT
  5
22
102
{ACAD_REACTORS
330
1A
102
}
330
1A
100
AcDbPlotSettings
  1

  2
none_device
  4
Letter_(8.50_x_11.00_Inches)
  6

 40
6.35
 41
6.35
 42
6.35000508
 43
6.35000508
 44
215.9
 45
279.4
 46
0.0
 47
0.0
 48
0.0
 49
0.0
140
0.0
141
0.0
142
1.0
143
1.0
 70
  1712
 72
     0
 73
     0
 74
     0
  7

 75
     0
147
1.0
148
0.0
149
0.0
100
AcDbLayout
  1
Model
 70
     1
 71
     0
 10
0.0
 20
0.0
 11
88.0
 21
68.0
 12
0.0
 22
0.0
 32
0.0
 14
0.0
 24
0.0
 34
0.0
 15
88.0
 25
68.0
 35
0.0
146
0.0
 13
0.0
 23
0.0
 33
0.0
 16
1.0
 26
0.0
 36
0.0
 17
0.0
 27
1.0
 37
0.0
 76
     0
330
1F
331
29
  0
MLINESTYLE
  5
18
102
{ACAD_REACTORS
330
17
102
}
330
17
100
AcDbMlineStyle
  2
Standard
 70
     0
  3

 62
   256
 51
90.0
 52
90.0
 71
     2
 49
0.5
 62
   256
  6
BYLAYER
 49
-0.5
 62
   256
  6
BYLAYER
  0
ACDBPLACEHOLDER
  5
F
102
{ACAD_REACTORS
330
E
102
}
330
E
  0
SCALE
  5
48
102
{ACAD_REACTORS
330
47
102
}
330
47
100
AcDbScale
 70
     0
300
1:1
140
1.0
141
1.0
290
     1
  0
SCALE
  5
49
102
{ACAD_REACTORS
330
47
102
}
330
47
100
AcDbScale
 70
     0
300
1/128" = 1'-0"
140
0.0078125
141
12.0
290
     0
  0
SCALE
  5
4A
102
{ACAD_REACTORS
330
47
102
}
330
47
100
AcDbScale
 70
     0
300
1/64" = 1'-0"
140
0.015625
141
12.0
290
     0
  0
SCALE
  5
4B
102
{ACAD_REACTORS
330
47
102
}
330
47
100
AcDbScale
 70
     0
300
1/32" = 1'-0"
140
0.03125
141
12.0
290
     0
  0
SCALE
  5
4C
102
{ACAD_REACTORS
330
47
102
}
330
47
100
AcDbScale
 70
     0
300
1/16" = 1'-0"
140
0.0625
141
12.0
290
     0
  0
SCALE
  5
4D
102
{ACAD_REACTORS
330
47
102
}
330
47
100
AcDbScale
 70
     0
300
3/32" = 1'-0"
140
0.09375
141
12.0
290
     0
  0
SCALE
  5
4E
102
{ACAD_REACTORS
330
47
102
}
330
47
100
AcDbScale
 70
     0
300
1/8" = 1'-0"
140
0.125
141
12.0
290
     0
  0
SCALE
  5
4F
102
{ACAD_REACTORS
330
47
102
}
330
47
100
AcDbScale
 70
     0
300
3/16" = 1'-0"
140
0.1875
141
12.0
290
     0
  0
SCALE
  5
50
102
{ACAD_REACTORS
330
47
102
}
330
47
100
AcDbScale
 70
     0
300
1/4" = 1'-0"
140
0.25
141
12.0
290
     0
  0
SCALE
  5
51
102
{ACAD_REACTORS
330
47
102
}
330
47
100
AcDbScale
 70
     0
300
3/8" = 1'-0"
140
0.375
141
12.0
290
     0
  0
SCALE
  5
52
102
{ACAD_REACTORS
330
47
102
}
330
47
100
AcDbScale
 70
     0
300
1/2" = 1'-0"
140
0.5
141
12.0
290
     0
  0
SCALE
  5
53
102
{ACAD_REACTORS
330
47
102
}
330
47
100
AcDbScale
 70
     0
300
3/4" = 1'-0"
140
0.75
141
12.0
290
     0
  0
SCALE
  5
54
102
{ACAD_REACTORS
330
47
102
}
330
47
100
AcDbScale
 70
     0
300
1" = 1'-0"
140
1.0
141
12.0
290
     0
  0
SCALE
  5
55
102
{ACAD_REACTORS
330
47
102
}
330
47
100
AcDbScale
 70
     0
300
1-1/2" = 1'-0"
140
1.5
141
12.0
290
     0
  0
SCALE
  5
56
102
{ACAD_REACTORS
330
47
102
}
330
47
100
AcDbScale
 70
     0
300
3" = 1'-0"
140
3.0
141
12.0
290
     0
  0
SCALE
  5
57
102
{ACAD_REACTORS
330
47
102
}
330
47
100
AcDbScale
 70
     0
300
6" = 1'-0"
140
6.0
141
12.0
290
     0
  0
SCALE
  5
58
102
{ACAD_REACTORS
330
47
102
}
330
47
100
AcDbScale
 70
     0
300
1'-0" = 1'-0"
140
12.0
141
12.0
290
     0
  0
ENDSEC
  0
EOF
